  0
SECTION
  2
HEADER
  9
$ACADVER
  1
AC1015
  9
$ACADMAINTVER
 70
    20
  9
$DWGCODEPAGE
  3
ANSI_932
  9
$INSBASE
 10
0.0
 20
0.0
 30
0.0
  9
$EXTMIN
 10
-169.0586189742416
 20
-210.5190989520861
 30
-0.0000000000000053
  9
$EXTMAX
 10
192.5792578041783
 20
478.0670202710507
 30
0.0000000000000099
  9
$LIMMIN
 10
-1176.0
 20
-798.0
  9
$LIMMAX
 10
594.0
 20
1078.0
  9
$ORTHOMODE
 70
     0
  9
$REGENMODE
 70
     1
  9
$FILLMODE
 70
     1
  9
$QTEXTMODE
 70
     0
  9
$MIRRTEXT
 70
     1
  9
$LTSCALE
 40
10.0
  9
$ATTMODE
 70
     1
  9
$TEXTSIZE
 40
0.2
  9
$TRACEWID
 40
0.05
  9
$TEXTSTYLE
  7
blockfont
  9
$CLAYER
  8
30
  9
$CELTYPE
  6
BYLAYER
  9
$CECOLOR
 62
   256
  9
$CELTSCALE
 40
1.0
  9
$DISPSILH
 70
     0
  9
$DIMSCALE
 40
1.0
  9
$DIMASZ
 40
2.0
  9
$DIMEXO
 40
3.0
  9
$DIMDLI
 40
0.5
  9
$DIMRND
 40
0.0
  9
$DIMDLE
 40
0.0
  9
$DIMEXE
 40
0.5
  9
$DIMTP
 40
0.0
  9
$DIMTM
 40
0.0
  9
$DIMTXT
 40
6.0
  9
$DIMCEN
 40
0.09
  9
$DIMTSZ
 40
0.0
  9
$DIMTOL
 70
     0
  9
$DIMLIM
 70
     0
  9
$DIMTIH
 70
     0
  9
$DIMTOH
 70
     0
  9
$DIMSE1
 70
     0
  9
$DIMSE2
 70
     0
  9
$DIMTAD
 70
     3
  9
$DIMZIN
 70
    12
  9
$DIMBLK
  1
OPEN
  9
$DIMASO
 70
     1
  9
$DIMSHO
 70
     1
  9
$DIMPOST
  1

  9
$DIMAPOST
  1

  9
$DIMALT
 70
     0
  9
$DIMALTD
 70
     2
  9
$DIMALTF
 40
25.4
  9
$DIMLFAC
 40
1.0
  9
$DIMTOFL
 70
     1
  9
$DIMTVP
 40
0.0
  9
$DIMTIX
 70
     0
  9
$DIMSOXD
 70
     0
  9
$DIMSAH
 70
     0
  9
$DIMBLK1
  1

  9
$DIMBLK2
  1

  9
$DIMSTYLE
  2
STANDARD1
  9
$DIMCLRD
 70
     0
  9
$DIMCLRE
 70
     0
  9
$DIMCLRT
 70
     0
  9
$DIMTFAC
 40
1.0
  9
$DIMGAP
 40
2.0
  9
$DIMJUST
 70
     0
  9
$DIMSD1
 70
     0
  9
$DIMSD2
 70
     0
  9
$DIMTOLJ
 70
     1
  9
$DIMTZIN
 70
     0
  9
$DIMALTZ
 70
     0
  9
$DIMALTTZ
 70
     0
  9
$DIMUPT
 70
     0
  9
$DIMDEC
 70
     8
  9
$DIMTDEC
 70
     8
  9
$DIMALTU
 70
     2
  9
$DIMALTTD
 70
     2
  9
$DIMTXSTY
  7
STANDARD
  9
$DIMAUNIT
 70
     0
  9
$DIMADEC
 70
     0
  9
$DIMALTRND
 40
0.0
  9
$DIMAZIN
 70
     0
  9
$DIMDSEP
 70
    46
  9
$DIMATFIT
 70
     2
  9
$DIMFRAC
 70
     0
  9
$DIMLDRBLK
  1
OPEN
  9
$DIMLUNIT
 70
     2
  9
$DIMLWD
 70
    -2
  9
$DIMLWE
 70
    -2
  9
$DIMTMOVE
 70
     0
  9
$LUNITS
 70
     2
  9
$LUPREC
 70
     8
  9
$SKETCHINC
 40
0.1
  9
$FILLETRAD
 40
0.0
  9
$AUNITS
 70
     0
  9
$AUPREC
 70
     0
  9
$MENU
  1
.
  9
$ELEVATION
 40
0.0
  9
$PELEVATION
 40
0.0
  9
$THICKNESS
 40
0.0
  9
$LIMCHECK
 70
     0
  9
$CHAMFERA
 40
0.0
  9
$CHAMFERB
 40
0.0
  9
$CHAMFERC
 40
0.0
  9
$CHAMFERD
 40
0.0
  9
$SKPOLY
 70
     0
  9
$TDCREATE
 40
2452286.555658658
  9
$TDUCREATE
 40
2452286.180658658
  9
$TDUPDATE
 40
2455827.507471783
  9
$TDUUPDATE
 40
2455827.132471783
  9
$TDINDWG
 40
2.0124325463
  9
$TDUSRTIMER
 40
2.0124292708
  9
$USRTIMER
 70
     1
  9
$ANGBASE
 50
0.0
  9
$ANGDIR
 70
     0
  9
$PDMODE
 70
     0
  9
$PDSIZE
 40
0.0
  9
$PLINEWID
 40
0.0
  9
$SPLFRAME
 70
     0
  9
$SPLINETYPE
 70
     6
  9
$SPLINESEGS
 70
     8
  9
$HANDSEED
  5
1085E
  9
$SURFTAB1
 70
     6
  9
$SURFTAB2
 70
     6
  9
$SURFTYPE
 70
     6
  9
$SURFU
 70
     6
  9
$SURFV
 70
     6
  9
$UCSBASE
  2

  9
$UCSNAME
  2

  9
$UCSORG
 10
0.0
 20
0.0
 30
0.0
  9
$UCSXDIR
 10
1.0
 20
0.0
 30
0.0
  9
$UCSYDIR
 10
0.0
 20
1.0
 30
0.0
  9
$UCSORTHOREF
  2

  9
$UCSORTHOVIEW
 70
     0
  9
$UCSORGTOP
 10
0.0
 20
0.0
 30
0.0
  9
$UCSORGBOTTOM
 10
0.0
 20
0.0
 30
0.0
  9
$UCSORGLEFT
 10
0.0
 20
0.0
 30
0.0
  9
$UCSORGRIGHT
 10
0.0
 20
0.0
 30
0.0
  9
$UCSORGFRONT
 10
0.0
 20
0.0
 30
0.0
  9
$UCSORGBACK
 10
0.0
 20
0.0
 30
0.0
  9
$PUCSBASE
  2

  9
$PUCSNAME
  2

  9
$PUCSORG
 10
0.0
 20
0.0
 30
0.0
  9
$PUCSXDIR
 10
1.0
 20
0.0
 30
0.0
  9
$PUCSYDIR
 10
0.0
 20
1.0
 30
0.0
  9
$PUCSORTHOREF
  2

  9
$PUCSORTHOVIEW
 70
     0
  9
$PUCSORGTOP
 10
0.0
 20
0.0
 30
0.0
  9
$PUCSORGBOTTOM
 10
0.0
 20
0.0
 30
0.0
  9
$PUCSORGLEFT
 10
0.0
 20
0.0
 30
0.0
  9
$PUCSORGRIGHT
 10
0.0
 20
0.0
 30
0.0
  9
$PUCSORGFRONT
 10
0.0
 20
0.0
 30
0.0
  9
$PUCSORGBACK
 10
0.0
 20
0.0
 30
0.0
  9
$USERI1
 70
     0
  9
$USERI2
 70
     0
  9
$USERI3
 70
     0
  9
$USERI4
 70
     0
  9
$USERI5
 70
     0
  9
$USERR1
 40
0.0
  9
$USERR2
 40
0.0
  9
$USERR3
 40
0.0
  9
$USERR4
 40
0.0
  9
$USERR5
 40
0.0
  9
$WORLDVIEW
 70
     1
  9
$SHADEDGE
 70
     3
  9
$SHADEDIF
 70
    70
  9
$TILEMODE
 70
     1
  9
$MAXACTVP
 70
    48
  9
$PINSBASE
 10
0.0
 20
0.0
 30
0.0
  9
$PLIMCHECK
 70
     0
  9
$PEXTMIN
 10
0.0
 20
0.0
 30
0.0
  9
$PEXTMAX
 10
0.0
 20
0.0
 30
0.0
  9
$PLIMMIN
 10
0.0
 20
0.0
  9
$PLIMMAX
 10
0.0
 20
0.0
  9
$UNITMODE
 70
     0
  9
$VISRETAIN
 70
     1
  9
$PLINEGEN
 70
     0
  9
$PSLTSCALE
 70
     1
  9
$TREEDEPTH
 70
  3020
  9
$CMLSTYLE
  2
STANDARD
  9
$CMLJUST
 70
     0
  9
$CMLSCALE
 40
1.0
  9
$PROXYGRAPHICS
 70
     1
  9
$MEASUREMENT
 70
     0
  9
$CELWEIGHT
370
    -1
  9
$ENDCAPS
280
     0
  9
$JOINSTYLE
280
     0
  9
$LWDISPLAY
290
     0
  9
$INSUNITS
 70
     0
  9
$HYPERLINKBASE
  1

  9
$STYLESHEET
  1
MONOCHROME.CTB
  9
$XEDIT
290
     1
  9
$CEPSNTYPE
380
     0
  9
$PSTYLEMODE
290
     1
  9
$FINGERPRINTGUID
  2

  9
$VERSIONGUID
  2
{9F725756-6F64-478E-A0AC-19154A91A540}
  9
$EXTNAMES
290
     1
  9
$PSVPSCALE
 40
0.0
  9
$OLESTARTUP
290
     0
  0
ENDSEC
  0
SECTION
  2
CLASSES
  0
CLASS
  1
ACDBDICTIONARYWDFLT
  2
AcDbDictionaryWithDefault
  3
ObjectDBX Classes
 90
        0
280
     0
281
     0
  0
CLASS
  1
ACDBPLACEHOLDER
  2
AcDbPlaceHolder
  3
ObjectDBX Classes
 90
        0
280
     0
281
     0
  0
CLASS
  1
LAYOUT
  2
AcDbLayout
  3
ObjectDBX Classes
 90
        0
280
     0
281
     0
  0
CLASS
  1
DICTIONARYVAR
  2
AcDbDictionaryVar
  3
ObjectDBX Classes
 90
        0
280
     0
281
     0
  0
CLASS
  1
MATERIAL
  2
AcDbMaterial
  3
ObjectDBX Classes
 90
     1153
280
     0
281
     0
  0
CLASS
  1
VISUALSTYLE
  2
AcDbVisualStyle
  3
ObjectDBX Classes
 90
     4095
280
     0
281
     0
  0
CLASS
  1
TABLESTYLE
  2
AcDbTableStyle
  3
ObjectDBX Classes
 90
     4095
280
     0
281
     0
  0
CLASS
  1
SCALE
  2
AcDbScale
  3
ObjectDBX Classes
 90
     1153
280
     0
281
     0
  0
CLASS
  1
MLEADERSTYLE
  2
AcDbMLeaderStyle
  3
ACDB_MLEADERSTYLE_CLASS
 90
     4095
280
     0
281
     0
  0
CLASS
  1
CELLSTYLEMAP
  2
AcDbCellStyleMap
  3
ObjectDBX Classes
 90
     1152
280
     0
281
     0
  0
CLASS
  1
SORTENTSTABLE
  2
AcDbSortentsTable
  3
ObjectDBX Classes
 90
    32768
280
     0
281
     0
  0
CLASS
  1
AEC_REFEDIT_STATUS_TRACKER
  2
AecDbRefEditStatusTracker
  3
AecArchBase60|Product Desc: Autodesk Architectural Desktop 2007 |Company: Autodesk,Inc. |WEB Address: www.autodesk.com
 90
    32897
280
     0
281
     0
  0
CLASS
  1
NPOCOLLECTION
  2
AcDbImpNonPersistentObjectsCollection
  3
ObjectDBX Classes
 90
    33921
280
     0
281
     0
  0
ENDSEC
  0
SECTION
  2
TABLES
  0
TABLE
  2
VPORT
  5
8
330
0
100
AcDbSymbolTable
 70
     1
  0
VPORT
  5
1076F
330
8
100
AcDbSymbolTableRecord
100
AcDbViewportTableRecord
  2
*Active
 70
     0
 10
0.0
 20
0.0
 11
1.0
 21
1.0
 12
11.76031941496828
 22
133.7739606594823
 13
0.0
 23
0.0
 14
1.0
 24
1.0
 15
10.0
 25
10.0
 16
0.0
 26
0.0
 36
1.0
 17
0.0
 27
0.0
 37
0.0
 40
692.8808351434475
 41
1.243496357960457
 42
50.0
 43
0.0
 44
0.0
 50
0.0
 51
0.0
 71
     0
 72
   100
 73
     1
 74
     1
 75
     0
 76
     1
 77
     0
 78
     1
281
     0
 65
     1
110
0.0
120
0.0
130
0.0
111
1.0
121
0.0
131
0.0
112
0.0
122
1.0
132
0.0
 79
     0
146
0.0
  0
ENDTAB
  0
TABLE
  2
LTYPE
  5
5
330
0
100
AcDbSymbolTable
 70
     9
  0
LTYPE
  5
13
330
5
100
AcDbSymbolTableRecord
100
AcDbLinetypeTableRecord
  2
BYBLOCK
 70
     0
  3

 72
    65
 73
     0
 40
0.0
  0
LTYPE
  5
14
330
5
100
AcDbSymbolTableRecord
100
AcDbLinetypeTableRecord
  2
BYLAYER
 70
     0
  3

 72
    65
 73
     0
 40
0.0
  0
LTYPE
  5
15
330
5
100
AcDbSymbolTableRecord
100
AcDbLinetypeTableRecord
  2
CONTINUOUS
 70
     0
  3
Solid line
 72
    65
 73
     0
 40
0.0
  0
LTYPE
  5
22
330
5
100
AcDbSymbolTableRecord
100
AcDbLinetypeTableRecord
  2
CONTINOUS
 70
     0
  3
Solid line
 72
    65
 73
     0
 40
0.0
  0
LTYPE
  5
23
330
5
100
AcDbSymbolTableRecord
100
AcDbLinetypeTableRecord
  2
DASHED
 70
     0
  3
__ __ __ __ __ __ __ __ __ __ __ __ __ __ __
 72
    65
 73
     2
 40
0.75
 49
0.5
 74
     0
 49
-0.25
 74
     0
  0
LTYPE
  5
24
330
5
100
AcDbSymbolTableRecord
100
AcDbLinetypeTableRecord
  2
DASHDOT
 70
     0
  3
__ . __ . __ . __ . __ . __ . __ . __ . __ . __
 72
    65
 73
     4
 40
1.0
 49
0.5
 74
     0
 49
-0.25
 74
     0
 49
0.0
 74
     0
 49
-0.25
 74
     0
  0
LTYPE
  5
4C47
330
5
100
AcDbSymbolTableRecord
100
AcDbLinetypeTableRecord
  2
DIVIDE
 70
     0
  3
Divide ____ . . ____ . . ____ . . ____ . . ____
 72
    65
 73
     6
 40
1.25
 49
0.5
 74
     0
 49
-0.25
 74
     0
 49
0.0
 74
     0
 49
-0.25
 74
     0
 49
0.0
 74
     0
 49
-0.25
 74
     0
  0
LTYPE
  5
6265
330
5
100
AcDbSymbolTableRecord
100
AcDbLinetypeTableRecord
  2
CENTER
 70
     0
  3
Center ____ _ ____ _ ____ _ ____ _ ____ _ ____
 72
    65
 73
     4
 40
50.8
 49
31.75
 74
     0
 49
-6.349999999999997
 74
     0
 49
6.349999999999997
 74
     0
 49
-6.349999999999997
 74
     0
  0
LTYPE
  5
685F
330
5
100
AcDbSymbolTableRecord
100
AcDbLinetypeTableRecord
  2
PHANTOM
 70
     0
  3
Phantom ______  __  __  ______  __  __  ______
 72
    65
 73
     6
 40
63.5
 49
31.75
 74
     0
 49
-6.349999999999997
 74
     0
 49
6.349999999999997
 74
     0
 49
-6.349999999999997
 74
     0
 49
6.349999999999997
 74
     0
 49
-6.349999999999997
 74
     0
  0
LTYPE
  5
6FA1
330
5
100
AcDbSymbolTableRecord
100
AcDbLinetypeTableRecord
  2
HIDDEN
 70
     0
  3
_ _ _ _ _ _ _ _ _ _ _ _ _ _ _ _ _ _ _ _ _ _ _
 72
    65
 73
     2
 40
0.5
 49
0.25
 74
     0
 49
-0.25
 74
     0
  0
ENDTAB
  0
TABLE
  2
LAYER
  5
2
330
0
100
AcDbSymbolTable
 70
    19
  0
LAYER
  5
10
102
{ACAD_XDICTIONARY
360
FE27
102
}
330
2
100
AcDbSymbolTableRecord
100
AcDbLayerTableRecord
  2
0
 70
     0
 62
     7
  6
CONTINOUS
370
    -3
390
F
  0
LAYER
  5
2F
102
{ACAD_XDICTIONARY
360
FE29
102
}
330
2
100
AcDbSymbolTableRecord
100
AcDbLayerTableRecord
  2
10
 70
     0
 62
     1
  6
CONTINOUS
370
    -3
390
F
  0
LAYER
  5
31
102
{ACAD_XDICTIONARY
360
FE2B
102
}
330
2
100
AcDbSymbolTableRecord
100
AcDbLayerTableRecord
  2
12
 70
     0
 62
     3
  6
DASHED
370
    -3
390
F
  0
LAYER
  5
35
102
{ACAD_XDICTIONARY
360
FE2D
102
}
330
2
100
AcDbSymbolTableRecord
100
AcDbLayerTableRecord
  2
16
 70
     0
 62
     6
  6
DASHDOT
370
    -3
390
F
  0
LAYER
  5
38
102
{ACAD_XDICTIONARY
360
FE2F
102
}
330
2
100
AcDbSymbolTableRecord
100
AcDbLayerTableRecord
  2
19
 70
     0
 62
     7
  6
CONTINOUS
370
    -3
390
F
  0
LAYER
  5
3D
102
{ACAD_XDICTIONARY
360
FE31
102
}
330
2
100
AcDbSymbolTableRecord
100
AcDbLayerTableRecord
  2
24
 70
     0
 62
     2
  6
CONTINOUS
370
    -3
390
F
  0
LAYER
  5
3A2
102
{ACAD_XDICTIONARY
360
FE33
102
}
330
2
100
AcDbSymbolTableRecord
100
AcDbLayerTableRecord
  2
30
 70
     0
 62
     9
  6
CONTINUOUS
370
    -3
390
F
  0
LAYER
  5
3A4
330
2
100
AcDbSymbolTableRecord
100
AcDbLayerTableRecord
  2
DEFPOINTS
 70
     0
 62
     7
  6
CONTINUOUS
290
     0
370
    -3
390
F
  0
LAYER
  5
3BBA
102
{ACAD_XDICTIONARY
360
FE35
102
}
330
2
100
AcDbSymbolTableRecord
100
AcDbLayerTableRecord
  2
18
 70
     0
 62
     5
  6
DIVIDE
370
    -3
390
F
  0
LAYER
  5
67A8
102
{ACAD_XDICTIONARY
360
FE37
102
}
330
2
100
AcDbSymbolTableRecord
100
AcDbLayerTableRecord
  2
11
 70
     0
 62
    11
  6
CONTINOUS
370
    -3
390
F
  0
LAYER
  5
7837
102
{ACAD_XDICTIONARY
360
FE39
102
}
330
2
100
AcDbSymbolTableRecord
100
AcDbLayerTableRecord
  2
17
 70
     0
 62
     2
  6
DASHDOT
370
    -3
390
F
  0
LAYER
  5
7BC8
102
{ACAD_XDICTIONARY
360
FE3B
102
}
330
2
100
AcDbSymbolTableRecord
100
AcDbLayerTableRecord
  2
1
 70
     0
 62
     7
  6
CONTINUOUS
370
    -3
390
F
  0
LAYER
  5
C4FD
102
{ACAD_XDICTIONARY
360
FE3D
102
}
330
2
100
AcDbSymbolTableRecord
100
AcDbLayerTableRecord
  2
4
 70
     0
 62
     7
  6
CONTINUOUS
370
    -3
390
F
  0
LAYER
  5
C4FE
102
{ACAD_XDICTIONARY
360
FE3F
102
}
330
2
100
AcDbSymbolTableRecord
100
AcDbLayerTableRecord
  2
2
 70
     0
 62
     7
  6
CONTINUOUS
370
    -3
390
F
  0
LAYER
  5
C4FF
102
{ACAD_XDICTIONARY
360
FE41
102
}
330
2
100
AcDbSymbolTableRecord
100
AcDbLayerTableRecord
  2
3
 70
     0
 62
     7
  6
CONTINUOUS
370
    -3
390
F
  0
LAYER
  5
C500
102
{ACAD_XDICTIONARY
360
FE43
102
}
330
2
100
AcDbSymbolTableRecord
100
AcDbLayerTableRecord
  2
240
 70
     0
 62
     7
  6
CONTINUOUS
370
    -3
390
F
  0
LAYER
  5
C501
102
{ACAD_XDICTIONARY
360
FE45
102
}
330
2
100
AcDbSymbolTableRecord
100
AcDbLayerTableRecord
  2
5
 70
     0
 62
     7
  6
CONTINUOUS
370
    -3
390
F
  0
LAYER
  5
C502
102
{ACAD_XDICTIONARY
360
FE47
102
}
330
2
100
AcDbSymbolTableRecord
100
AcDbLayerTableRecord
  2
6
 70
     0
 62
     7
  6
CONTINUOUS
370
    -3
390
F
  0
LAYER
  5
FD70
102
{ACAD_XDICTIONARY
360
FE49
102
}
330
2
100
AcDbSymbolTableRecord
100
AcDbLayerTableRecord
  2
130
 70
     0
 62
     4
  6
CONTINUOUS
370
    -3
390
F
  0
ENDTAB
  0
TABLE
  2
STYLE
  5
3
330
0
100
AcDbSymbolTable
 70
     4
  0
STYLE
  5
11
330
3
100
AcDbSymbolTableRecord
100
AcDbTextStyleTableRecord
  2
STANDARD
 70
     0
 40
0.0
 41
1.0
 50
0.0
 71
     0
 42
2.0
  3
txt.shx
  4
bigfont.shx
  0
STYLE
  5
C503
330
3
100
AcDbSymbolTableRecord
100
AcDbTextStyleTableRecord
  2
blockfont
 70
     0
 40
0.0
 41
1.0
 50
0.0
 71
     0
 42
0.2
  3
simplex.shx
  4
bigfont
  0
STYLE
  5
E2C7
330
3
100
AcDbSymbolTableRecord
100
AcDbTextStyleTableRecord
  2
DEFAULT
 70
     0
 40
0.0
 41
1.0
 50
0.0
 71
     0
 42
0.2
  3
simplex.shx
  4
bigfont
  0
STYLE
  5
107B3
330
3
100
AcDbSymbolTableRecord
100
AcDbTextStyleTableRecord
  2
STANDARD1
 70
     0
 40
0.0
 41
1.0
 50
0.0
 71
     0
 42
5.0
  3
MONOTXT
  4
BIGFONT
  0
ENDTAB
  0
TABLE
  2
VIEW
  5
6
330
0
100
AcDbSymbolTable
 70
     3
  0
VIEW
  5
230C
330
6
100
AcDbSymbolTableRecord
100
AcDbViewTableRecord
  2
OLE1
 70
     0
 40
148.912488
 10
429.497628
 20
2.560627
 41
103.145806
 11
0.0
 21
0.0
 31
1.0
 12
0.0
 22
0.0
 32
0.0
 42
50.0
 43
0.0
 44
0.0
 50
0.0
 71
     0
281
     0
 72
     0
  0
VIEW
  5
230E
330
6
100
AcDbSymbolTableRecord
100
AcDbViewTableRecord
  2
OLE2
 70
     0
 40
170.778692
 10
322.66497
 20
-5.978304
 41
102.467215
 11
0.0
 21
0.0
 31
1.0
 12
0.0
 22
0.0
 32
0.0
 42
50.0
 43
0.0
 44
0.0
 50
0.0
 71
     0
281
     0
 72
     0
  0
VIEW
  5
23AA
330
6
100
AcDbSymbolTableRecord
100
AcDbViewTableRecord
  2
OLE3
 70
     0
 40
591.7897389999998
 10
84.79698199999999
 20
-46.09335999999998
 41
388.792096
 11
0.0
 21
0.0
 31
1.0
 12
0.0
 22
0.0
 32
0.0
 42
50.0
 43
0.0
 44
0.0
 50
0.0
 71
     0
281
     0
 72
     0
  0
ENDTAB
  0
TABLE
  2
UCS
  5
7
330
0
100
AcDbSymbolTable
 70
     0
  0
ENDTAB
  0
TABLE
  2
APPID
  5
9
330
0
100
AcDbSymbolTable
 70
     6
  0
APPID
  5
12
330
9
100
AcDbSymbolTableRecord
100
AcDbRegAppTableRecord
  2
ACAD
 70
     0
  0
APPID
  5
ECD
330
9
100
AcDbSymbolTableRecord
100
AcDbRegAppTableRecord
  2
CONTENTBLOCKICON
 70
     0
  0
APPID
  5
FE4D
330
9
100
AcDbSymbolTableRecord
100
AcDbRegAppTableRecord
  2
DCO15
 70
     0
  0
APPID
  5
FE93
330
9
100
AcDbSymbolTableRecord
100
AcDbRegAppTableRecord
  2
ACAD_MLEADERVER
 70
     0
  0
APPID
  5
FEAA
330
9
100
AcDbSymbolTableRecord
100
AcDbRegAppTableRecord
  2
ACAD_PSEXT
 70
     0
  0
APPID
  5
1016B
330
9
100
AcDbSymbolTableRecord
100
AcDbRegAppTableRecord
  2
ACAD_EXEMPT_FROM_CAD_STANDARDS
 70
     0
  0
ENDTAB
  0
TABLE
  2
DIMSTYLE
  5
A
330
0
100
AcDbSymbolTable
 70
     2
100
AcDbDimStyleTable
 71
     2
340
C24A
340
175
  0
DIMSTYLE
105
175
330
A
100
AcDbSymbolTableRecord
100
AcDbDimStyleTableRecord
  2
STANDARD
 70
     0
 41
2.0
 42
1.0
 43
0.5
 44
0.5
 73
     0
 77
     3
 78
    12
140
4.0
147
1.0
271
     1
272
     1
340
11
341
3B2
342
3B2
  0
DIMSTYLE
105
C24A
102
{ACAD_REACTORS
330
D045
330
D05B
330
DB42
330
DB58
330
F157
330
F156
330
F159
330
F158
330
F1E9
330
F208
330
F38B
330
F3DF
330
F410
330
F412
330
F8B5
330
F8B8
330
FB97
330
F3CB
330
F8B6
330
F6D0
330
F564
330
F563
330
F562
330
F561
330
F560
330
F68E
330
F690
330
F68F
330
F565
330
F6EA
330
FEB5
330
10067
330
1072E
330
1072F
330
10730
330
E1D5
102
}
330
A
100
AcDbSymbolTableRecord
100
AcDbDimStyleTableRecord
  2
STANDARD1
 70
     0
 41
2.0
 42
3.0
 43
0.5
 44
0.5
 73
     0
 74
     0
 77
     3
 78
    12
140
6.0
147
2.0
172
     1
271
     8
272
     8
289
     2
340
11
341
3B2
342
3B2
  0
ENDTAB
  0
TABLE
  2
BLOCK_RECORD
  5
1
330
0
100
AcDbSymbolTable
 70
   101
  0
BLOCK_RECORD
  5
1E
102
{ACAD_XDICTIONARY
360
178
102
}
330
1
100
AcDbSymbolTableRecord
100
AcDbBlockTableRecord
  2
*MODEL_SPACE
340
904E
  0
BLOCK_RECORD
  5
1A
102
{ACAD_XDICTIONARY
360
17A
102
}
330
1
100
AcDbSymbolTableRecord
100
AcDbBlockTableRecord
  2
*PAPER_SPACE
340
904F
  0
BLOCK_RECORD
  5
3B2
330
1
100
AcDbSymbolTableRecord
100
AcDbBlockTableRecord
  2
_OPEN
340
0
102
{BLKREFS
331
E1CD
331
E1CE
331
FCE6
331
FCE7
331
FCEF
331
FCF0
331
FCF8
331
FCF9
331
FD01
331
FD02
331
FD0A
331
FD0B
331
FD13
331
FD14
331
FD1C
331
FD1D
331
FD30
331
FD31
331
FD39
331
FD3A
331
FD4B
331
FD4C
331
FD5D
331
FD5E
331
FEC5
331
FEC6
331
100CE
331
100CF
331
1049A
331
1049B
331
104A3
331
104A4
331
104AC
331
104AD
331
104B5
331
104B6
331
104BE
331
104BF
331
104C7
331
104C8
331
104D0
331
104D1
331
104D9
331
104DA
331
104E2
331
104E3
331
104EC
331
104ED
331
104F5
331
104F6
331
104FE
331
104FF
331
10507
331
10508
331
10510
331
10511
331
10519
331
1051A
331
10522
331
10523
331
1052B
331
1052C
331
10754
331
1075B
331
1075C
331
10764
331
10765
102
}
  0
BLOCK_RECORD
  5
905D
330
1
100
AcDbSymbolTableRecord
100
AcDbBlockTableRecord
  2
_D0
340
0
  0
BLOCK_RECORD
  5
9069
330
1
100
AcDbSymbolTableRecord
100
AcDbBlockTableRecord
  2
_D1
340
0
  0
BLOCK_RECORD
  5
9075
330
1
100
AcDbSymbolTableRecord
100
AcDbBlockTableRecord
  2
_D2
340
0
  0
BLOCK_RECORD
  5
9081
330
1
100
AcDbSymbolTableRecord
100
AcDbBlockTableRecord
  2
_D3
340
0
  0
BLOCK_RECORD
  5
908D
330
1
100
AcDbSymbolTableRecord
100
AcDbBlockTableRecord
  2
_D4
340
0
  0
BLOCK_RECORD
  5
9099
330
1
100
AcDbSymbolTableRecord
100
AcDbBlockTableRecord
  2
_D5
340
0
  0
BLOCK_RECORD
  5
90A5
330
1
100
AcDbSymbolTableRecord
100
AcDbBlockTableRecord
  2
_D6
340
0
  0
BLOCK_RECORD
  5
90B1
330
1
100
AcDbSymbolTableRecord
100
AcDbBlockTableRecord
  2
_D7
340
0
  0
BLOCK_RECORD
  5
90BD
330
1
100
AcDbSymbolTableRecord
100
AcDbBlockTableRecord
  2
_D8
340
0
  0
BLOCK_RECORD
  5
90CA
330
1
100
AcDbSymbolTableRecord
100
AcDbBlockTableRecord
  2
_D9
340
0
  0
BLOCK_RECORD
  5
90D6
330
1
100
AcDbSymbolTableRecord
100
AcDbBlockTableRecord
  2
_D10
340
0
  0
BLOCK_RECORD
  5
90E3
330
1
100
AcDbSymbolTableRecord
100
AcDbBlockTableRecord
  2
_D11
340
0
  0
BLOCK_RECORD
  5
90EF
330
1
100
AcDbSymbolTableRecord
100
AcDbBlockTableRecord
  2
_D12
340
0
  0
BLOCK_RECORD
  5
90FB
330
1
100
AcDbSymbolTableRecord
100
AcDbBlockTableRecord
  2
_D13
340
0
  0
BLOCK_RECORD
  5
9107
330
1
100
AcDbSymbolTableRecord
100
AcDbBlockTableRecord
  2
_D14
340
0
  0
BLOCK_RECORD
  5
9113
330
1
100
AcDbSymbolTableRecord
100
AcDbBlockTableRecord
  2
_D15
340
0
  0
BLOCK_RECORD
  5
911F
330
1
100
AcDbSymbolTableRecord
100
AcDbBlockTableRecord
  2
_D16
340
0
  0
BLOCK_RECORD
  5
912B
330
1
100
AcDbSymbolTableRecord
100
AcDbBlockTableRecord
  2
_D17
340
0
  0
BLOCK_RECORD
  5
9137
330
1
100
AcDbSymbolTableRecord
100
AcDbBlockTableRecord
  2
_D18
340
0
  0
BLOCK_RECORD
  5
9143
330
1
100
AcDbSymbolTableRecord
100
AcDbBlockTableRecord
  2
_D19
340
0
  0
BLOCK_RECORD
  5
914F
330
1
100
AcDbSymbolTableRecord
100
AcDbBlockTableRecord
  2
_D20
340
0
  0
BLOCK_RECORD
  5
915B
330
1
100
AcDbSymbolTableRecord
100
AcDbBlockTableRecord
  2
_D21
340
0
  0
BLOCK_RECORD
  5
9168
330
1
100
AcDbSymbolTableRecord
100
AcDbBlockTableRecord
  2
_D22
340
0
  0
BLOCK_RECORD
  5
9174
330
1
100
AcDbSymbolTableRecord
100
AcDbBlockTableRecord
  2
_D23
340
0
  0
BLOCK_RECORD
  5
9180
330
1
100
AcDbSymbolTableRecord
100
AcDbBlockTableRecord
  2
_D24
340
0
  0
BLOCK_RECORD
  5
918C
330
1
100
AcDbSymbolTableRecord
100
AcDbBlockTableRecord
  2
_D25
340
0
  0
BLOCK_RECORD
  5
9198
330
1
100
AcDbSymbolTableRecord
100
AcDbBlockTableRecord
  2
_D26
340
0
  0
BLOCK_RECORD
  5
91A4
330
1
100
AcDbSymbolTableRecord
100
AcDbBlockTableRecord
  2
_D27
340
0
  0
BLOCK_RECORD
  5
91B0
330
1
100
AcDbSymbolTableRecord
100
AcDbBlockTableRecord
  2
_D28
340
0
  0
BLOCK_RECORD
  5
91BC
330
1
100
AcDbSymbolTableRecord
100
AcDbBlockTableRecord
  2
_D29
340
0
  0
BLOCK_RECORD
  5
91C9
330
1
100
AcDbSymbolTableRecord
100
AcDbBlockTableRecord
  2
_D30
340
0
  0
BLOCK_RECORD
  5
91D5
330
1
100
AcDbSymbolTableRecord
100
AcDbBlockTableRecord
  2
_D31
340
0
  0
BLOCK_RECORD
  5
91E1
330
1
100
AcDbSymbolTableRecord
100
AcDbBlockTableRecord
  2
_D32
340
0
  0
BLOCK_RECORD
  5
91ED
330
1
100
AcDbSymbolTableRecord
100
AcDbBlockTableRecord
  2
_D33
340
0
  0
BLOCK_RECORD
  5
91FA
330
1
100
AcDbSymbolTableRecord
100
AcDbBlockTableRecord
  2
_D34
340
0
  0
BLOCK_RECORD
  5
9207
330
1
100
AcDbSymbolTableRecord
100
AcDbBlockTableRecord
  2
_D35
340
0
  0
BLOCK_RECORD
  5
9214
330
1
100
AcDbSymbolTableRecord
100
AcDbBlockTableRecord
  2
_D36
340
0
  0
BLOCK_RECORD
  5
9221
330
1
100
AcDbSymbolTableRecord
100
AcDbBlockTableRecord
  2
_D37
340
0
  0
BLOCK_RECORD
  5
922F
330
1
100
AcDbSymbolTableRecord
100
AcDbBlockTableRecord
  2
_D38
340
0
  0
BLOCK_RECORD
  5
923C
330
1
100
AcDbSymbolTableRecord
100
AcDbBlockTableRecord
  2
_D39
340
0
  0
BLOCK_RECORD
  5
924A
330
1
100
AcDbSymbolTableRecord
100
AcDbBlockTableRecord
  2
_D40
340
0
  0
BLOCK_RECORD
  5
9257
330
1
100
AcDbSymbolTableRecord
100
AcDbBlockTableRecord
  2
_D41
340
0
  0
BLOCK_RECORD
  5
9264
330
1
100
AcDbSymbolTableRecord
100
AcDbBlockTableRecord
  2
_D42
340
0
  0
BLOCK_RECORD
  5
9271
330
1
100
AcDbSymbolTableRecord
100
AcDbBlockTableRecord
  2
_D43
340
0
  0
BLOCK_RECORD
  5
927E
330
1
100
AcDbSymbolTableRecord
100
AcDbBlockTableRecord
  2
_D44
340
0
  0
BLOCK_RECORD
  5
928B
330
1
100
AcDbSymbolTableRecord
100
AcDbBlockTableRecord
  2
_D45
340
0
  0
BLOCK_RECORD
  5
9298
330
1
100
AcDbSymbolTableRecord
100
AcDbBlockTableRecord
  2
_D46
340
0
  0
BLOCK_RECORD
  5
92A5
330
1
100
AcDbSymbolTableRecord
100
AcDbBlockTableRecord
  2
_D47
340
0
  0
BLOCK_RECORD
  5
92B2
330
1
100
AcDbSymbolTableRecord
100
AcDbBlockTableRecord
  2
_D48
340
0
  0
BLOCK_RECORD
  5
92BF
330
1
100
AcDbSymbolTableRecord
100
AcDbBlockTableRecord
  2
_D49
340
0
  0
BLOCK_RECORD
  5
92CC
330
1
100
AcDbSymbolTableRecord
100
AcDbBlockTableRecord
  2
_D50
340
0
  0
BLOCK_RECORD
  5
92D4
330
1
100
AcDbSymbolTableRecord
100
AcDbBlockTableRecord
  2
_D51
340
0
  0
BLOCK_RECORD
  5
92DF
330
1
100
AcDbSymbolTableRecord
100
AcDbBlockTableRecord
  2
_D52
340
0
  0
BLOCK_RECORD
  5
92EA
330
1
100
AcDbSymbolTableRecord
100
AcDbBlockTableRecord
  2
_D53
340
0
  0
BLOCK_RECORD
  5
C4F9
330
1
100
AcDbSymbolTableRecord
100
AcDbBlockTableRecord
  2
ASSORTED_DRAFT1
340
0
  0
BLOCK_RECORD
  5
D046
330
1
100
AcDbSymbolTableRecord
100
AcDbBlockTableRecord
  2
*D56
340
0
  0
BLOCK_RECORD
  5
D05C
330
1
100
AcDbSymbolTableRecord
100
AcDbBlockTableRecord
  2
*D57
340
0
  0
BLOCK_RECORD
  5
DB43
330
1
100
AcDbSymbolTableRecord
100
AcDbBlockTableRecord
  2
*D58
340
0
  0
BLOCK_RECORD
  5
DB59
330
1
100
AcDbSymbolTableRecord
100
AcDbBlockTableRecord
  2
*D59
340
0
  0
BLOCK_RECORD
  5
E1C9
330
1
100
AcDbSymbolTableRecord
100
AcDbBlockTableRecord
  2
*D60
340
0
  0
BLOCK_RECORD
  5
E1D4
330
1
100
AcDbSymbolTableRecord
100
AcDbBlockTableRecord
  2
A$C30553972
340
0
  0
BLOCK_RECORD
  5
E27D
330
1
100
AcDbSymbolTableRecord
100
AcDbBlockTableRecord
  2
_D54
340
0
  0
BLOCK_RECORD
  5
E286
330
1
100
AcDbSymbolTableRecord
100
AcDbBlockTableRecord
  2
_D55
340
0
  0
BLOCK_RECORD
  5
E28F
330
1
100
AcDbSymbolTableRecord
100
AcDbBlockTableRecord
  2
_D56
340
0
  0
BLOCK_RECORD
  5
E296
330
1
100
AcDbSymbolTableRecord
100
AcDbBlockTableRecord
  2
_D57
340
0
  0
BLOCK_RECORD
  5
E29B
330
1
100
AcDbSymbolTableRecord
100
AcDbBlockTableRecord
  2
_D58
340
0
  0
BLOCK_RECORD
  5
E2A0
330
1
100
AcDbSymbolTableRecord
100
AcDbBlockTableRecord
  2
_D59
340
0
  0
BLOCK_RECORD
  5
E2A8
330
1
100
AcDbSymbolTableRecord
100
AcDbBlockTableRecord
  2
_D60
340
0
  0
BLOCK_RECORD
  5
E2B0
330
1
100
AcDbSymbolTableRecord
100
AcDbBlockTableRecord
  2
_D61
340
0
  0
BLOCK_RECORD
  5
E2B9
330
1
100
AcDbSymbolTableRecord
100
AcDbBlockTableRecord
  2
_D62
340
0
  0
BLOCK_RECORD
  5
E2C0
330
1
100
AcDbSymbolTableRecord
100
AcDbBlockTableRecord
  2
_D63
340
0
  0
BLOCK_RECORD
  5
F15A
330
1
100
AcDbSymbolTableRecord
100
AcDbBlockTableRecord
  2
*D72
340
0
  0
BLOCK_RECORD
  5
F166
330
1
100
AcDbSymbolTableRecord
100
AcDbBlockTableRecord
  2
*D73
340
0
  0
BLOCK_RECORD
  5
F172
330
1
100
AcDbSymbolTableRecord
100
AcDbBlockTableRecord
  2
*D74
340
0
  0
BLOCK_RECORD
  5
F17E
330
1
100
AcDbSymbolTableRecord
100
AcDbBlockTableRecord
  2
*D75
340
0
  0
BLOCK_RECORD
  5
F1EA
330
1
100
AcDbSymbolTableRecord
100
AcDbBlockTableRecord
  2
*D76
340
0
  0
BLOCK_RECORD
  5
F209
330
1
100
AcDbSymbolTableRecord
100
AcDbBlockTableRecord
  2
*D77
340
0
  0
BLOCK_RECORD
  5
F38C
330
1
100
AcDbSymbolTableRecord
100
AcDbBlockTableRecord
  2
*D78
340
0
  0
BLOCK_RECORD
  5
F3E0
330
1
100
AcDbSymbolTableRecord
100
AcDbBlockTableRecord
  2
*D79
340
0
  0
BLOCK_RECORD
  5
F413
330
1
100
AcDbSymbolTableRecord
100
AcDbBlockTableRecord
  2
*D80
340
0
  0
BLOCK_RECORD
  5
F41F
330
1
100
AcDbSymbolTableRecord
100
AcDbBlockTableRecord
  2
*D81
340
0
  0
BLOCK_RECORD
  5
F566
330
1
100
AcDbSymbolTableRecord
100
AcDbBlockTableRecord
  2
*D82
340
0
  0
BLOCK_RECORD
  5
F574
330
1
100
AcDbSymbolTableRecord
100
AcDbBlockTableRecord
  2
*D83
340
0
  0
BLOCK_RECORD
  5
F580
330
1
100
AcDbSymbolTableRecord
100
AcDbBlockTableRecord
  2
*D84
340
0
  0
BLOCK_RECORD
  5
F58C
330
1
100
AcDbSymbolTableRecord
100
AcDbBlockTableRecord
  2
*D85
340
0
  0
BLOCK_RECORD
  5
F598
330
1
100
AcDbSymbolTableRecord
100
AcDbBlockTableRecord
  2
*D86
340
0
  0
BLOCK_RECORD
  5
F5A4
330
1
100
AcDbSymbolTableRecord
100
AcDbBlockTableRecord
  2
*D87
340
0
  0
BLOCK_RECORD
  5
F691
330
1
100
AcDbSymbolTableRecord
100
AcDbBlockTableRecord
  2
*D88
340
0
  0
BLOCK_RECORD
  5
F69D
330
1
100
AcDbSymbolTableRecord
100
AcDbBlockTableRecord
  2
*D89
340
0
  0
BLOCK_RECORD
  5
F6A9
330
1
100
AcDbSymbolTableRecord
100
AcDbBlockTableRecord
  2
*D90
340
0
  0
BLOCK_RECORD
  5
F6D1
330
1
100
AcDbSymbolTableRecord
100
AcDbBlockTableRecord
  2
*D91
340
0
  0
BLOCK_RECORD
  5
F6EB
330
1
100
AcDbSymbolTableRecord
100
AcDbBlockTableRecord
  2
*D92
340
0
  0
BLOCK_RECORD
  5
F8B9
330
1
100
AcDbSymbolTableRecord
100
AcDbBlockTableRecord
  2
*D93
340
0
  0
BLOCK_RECORD
  5
F8C5
330
1
100
AcDbSymbolTableRecord
100
AcDbBlockTableRecord
  2
*D94
340
0
  0
BLOCK_RECORD
  5
FB98
330
1
100
AcDbSymbolTableRecord
100
AcDbBlockTableRecord
  2
*D95
340
0
  0
BLOCK_RECORD
  5
FEB6
330
1
100
AcDbSymbolTableRecord
100
AcDbBlockTableRecord
  2
*D96
340
0
  0
BLOCK_RECORD
  5
10068
330
1
100
AcDbSymbolTableRecord
100
AcDbBlockTableRecord
  2
*D97
340
0
  0
BLOCK_RECORD
  5
10731
330
1
100
AcDbSymbolTableRecord
100
AcDbBlockTableRecord
  2
*D98
340
0
  0
BLOCK_RECORD
  5
1073A
330
1
100
AcDbSymbolTableRecord
100
AcDbBlockTableRecord
  2
*D99
340
0
  0
BLOCK_RECORD
  5
10746
330
1
100
AcDbSymbolTableRecord
100
AcDbBlockTableRecord
  2
*D100
340
0
  0
ENDTAB
  0
ENDSEC
  0
SECTION
  2
BLOCKS
  0
BLOCK
  5
1F
330
1E
100
AcDbEntity
  8
0
100
AcDbBlockBegin
  2
*MODEL_SPACE
 70
     0
 10
0.0
 20
0.0
 30
0.0
  3
*MODEL_SPACE
  1

  0
ENDBLK
  5
20
330
1E
100
AcDbEntity
  8
0
100
AcDbBlockEnd
  0
BLOCK
  5
1B
330
1A
100
AcDbEntity
 67
     1
  8
0
100
AcDbBlockBegin
  2
*PAPER_SPACE
 70
     0
 10
0.0
 20
0.0
 30
0.0
  3
*PAPER_SPACE
  1

  0
ENDBLK
  5
1C
330
1A
100
AcDbEntity
 67
     1
  8
0
100
AcDbBlockEnd
  0
BLOCK
  5
3B6
330
3B2
100
AcDbEntity
  8
0
100
AcDbBlockBegin
  2
_OPEN
 70
     0
 10
0.0
 20
0.0
 30
0.0
  3
_OPEN
  1

  0
LINE
  5
3B3
330
3B2
100
AcDbEntity
  8
30
  6
Continuous
 62
     0
100
AcDbLine
 10
-1.0
 20
0.166667
 30
0.0
 11
0.0
 21
0.0
 31
0.0
  0
LINE
  5
3B4
330
3B2
100
AcDbEntity
  8
30
  6
Continuous
 62
     0
100
AcDbLine
 10
-1.0
 20
-0.166667
 30
0.0
 11
0.0
 21
0.0
 31
0.0
  0
LINE
  5
3B5
330
3B2
100
AcDbEntity
  8
30
  6
Continuous
 62
     0
100
AcDbLine
 10
0.0
 20
0.0
 30
0.0
 11
-1.0
 21
0.0
 31
0.0
  0
ENDBLK
  5
3B7
330
3B2
100
AcDbEntity
  8
0
100
AcDbBlockEnd
  0
BLOCK
  5
9067
330
905D
100
AcDbEntity
  8
0
100
AcDbBlockBegin
  2
_D0
 70
     0
 10
0.0
 20
0.0
 30
0.0
  3
_D0
  1

  0
LINE
  5
905E
330
905D
100
AcDbEntity
  8
1
  6
Continuous
 62
     4
370
    -2
100
AcDbLine
 10
80.95525053435109
 20
322.4419549141221
 30
0.0
 11
80.95525053435109
 21
182.0787213740458
 31
0.0
  0
LINE
  5
905F
330
905D
100
AcDbEntity
  8
1
  6
Continuous
 62
     4
370
    -2
100
AcDbLine
 10
221.4228077862594
 20
202.2129472805342
 30
0.0
 11
221.4228077862594
 21
182.0787213740458
 31
0.0
  0
LINE
  5
9060
330
905D
100
AcDbEntity
  8
1
  6
Continuous
 62
     4
370
    -2
100
AcDbLine
 10
82.9552505343511
 20
183.0787213740458
 30
0.0
 11
219.4228077862594
 21
183.0787213740458
 31
0.0
  0
SOLID
  5
9061
330
905D
100
AcDbEntity
  8
1
  6
Continuous
 62
     4
370
     0
100
AcDbTrace
 10
82.9552505343511
 20
183.4120547073791
 30
0.0
 11
82.9552505343511
 21
182.7453880407124
 31
0.0
 12
80.95525053435109
 22
183.0787213740458
 32
0.0
 13
80.95525053435109
 23
183.0787213740458
 33
0.0
  0
SOLID
  5
9062
330
905D
100
AcDbEntity
  8
1
  6
Continuous
 62
     4
370
     0
100
AcDbTrace
 10
219.4228077862594
 20
183.4120547073791
 30
0.0
 11
219.4228077862594
 21
182.7453880407124
 31
0.0
 12
221.4228077862594
 22
183.0787213740458
 32
0.0
 13
221.4228077862594
 23
183.0787213740458
 33
0.0
  0
MTEXT
  5
9063
330
905D
100
AcDbEntity
  8
1
  6
Continuous
 62
     2
100
AcDbMText
 10
151.1890291603052
 20
184.3287213740458
 30
0.0
 40
2.5
 41
0.0
 71
     5
 72
     1
  1
\A1; 140 
 73
     1
 44
1.0
1001
ACAD
1000
MTEXTBEGIN
1070
    73
1070
     1
1070
    44
1040
1.0
1070
    74
1070
     0
1000
MTEXTEND
  0
POINT
  5
9064
330
905D
100
AcDbEntity
  8
DEFPOINTS
  6
Continuous
 62
     0
370
     0
100
AcDbPoint
 10
80.95525053435109
 20
323.4419549141221
 30
0.0
  0
POINT
  5
9065
330
905D
100
AcDbEntity
  8
DEFPOINTS
  6
Continuous
 62
     0
370
     0
100
AcDbPoint
 10
221.4228077862594
 20
203.2129472805344
 30
0.0
  0
POINT
  5
9066
330
905D
100
AcDbEntity
  8
DEFPOINTS
  6
Continuous
 62
     0
370
     0
100
AcDbPoint
 10
221.4228077862594
 20
183.0787213740458
 30
0.0
  0
ENDBLK
  5
9068
330
905D
100
AcDbEntity
  8
0
100
AcDbBlockEnd
  0
BLOCK
  5
9073
330
9069
100
AcDbEntity
  8
0
100
AcDbBlockBegin
  2
_D1
 70
     0
 10
0.0
 20
0.0
 30
0.0
  3
_D1
  1

  0
LINE
  5
906A
330
9069
100
AcDbEntity
  8
1
  6
Continuous
 62
     4
370
    -2
100
AcDbLine
 10
46.28922
 20
317.4324129293893
 30
0.0
 11
46.28921999999999
 21
147.011927480916
 31
0.0
  0
LINE
  5
906B
330
9069
100
AcDbEntity
  8
1
  6
Continuous
 62
     4
370
    -2
100
AcDbLine
 10
256.2892199999999
 20
317.4324129293893
 30
0.0
 11
256.2892199999999
 21
147.011927480916
 31
0.0
  0
LINE
  5
906C
330
9069
100
AcDbEntity
  8
1
  6
Continuous
 62
     4
370
    -2
100
AcDbLine
 10
48.28921999999999
 20
148.011927480916
 30
0.0
 11
254.28922
 21
148.011927480916
 31
0.0
  0
SOLID
  5
906D
330
9069
100
AcDbEntity
  8
1
  6
Continuous
 62
     4
370
     0
100
AcDbTrace
 10
48.28921999999999
 20
148.3452608142493
 30
0.0
 11
48.28921999999999
 21
147.6785941475826
 31
0.0
 12
46.28921999999999
 22
148.011927480916
 32
0.0
 13
46.28921999999999
 23
148.011927480916
 33
0.0
  0
SOLID
  5
906E
330
9069
100
AcDbEntity
  8
1
  6
Continuous
 62
     4
370
     0
100
AcDbTrace
 10
254.28922
 20
148.3452608142493
 30
0.0
 11
254.28922
 21
147.6785941475826
 31
0.0
 12
256.2892199999999
 22
148.011927480916
 32
0.0
 13
256.2892199999999
 23
148.011927480916
 33
0.0
  0
MTEXT
  5
906F
330
9069
100
AcDbEntity
  8
1
  6
Continuous
 62
     2
100
AcDbMText
 10
151.28922
 20
149.261927480916
 30
0.0
 40
2.5
 41
0.0
 71
     5
 72
     1
  1
\A1; 210 
 73
     1
 44
1.0
1001
ACAD
1000
MTEXTBEGIN
1070
    73
1070
     1
1070
    44
1040
1.0
1070
    74
1070
     0
1000
MTEXTEND
  0
POINT
  5
9070
330
9069
100
AcDbEntity
  8
DEFPOINTS
  6
Continuous
 62
     0
370
     0
100
AcDbPoint
 10
46.28922
 20
318.4324129293893
 30
0.0
  0
POINT
  5
9071
330
9069
100
AcDbEntity
  8
DEFPOINTS
  6
Continuous
 62
     0
370
     0
100
AcDbPoint
 10
256.2892199999999
 20
318.4324129293893
 30
0.0
  0
POINT
  5
9072
330
9069
100
AcDbEntity
  8
DEFPOINTS
  6
Continuous
 62
     0
370
     0
100
AcDbPoint
 10
256.2892199999999
 20
148.011927480916
 30
0.0
  0
ENDBLK
  5
9074
330
9069
100
AcDbEntity
  8
0
100
AcDbBlockEnd
  0
BLOCK
  5
907F
330
9075
100
AcDbEntity
  8
0
100
AcDbBlockBegin
  2
_D2
 70
     0
 10
0.0
 20
0.0
 30
0.0
  3
_D2
  1

  0
LINE
  5
9076
330
9075
100
AcDbEntity
  8
1
  6
Continuous
 62
     4
370
    -2
100
AcDbLine
 10
411.7854032061067
 20
322.4419549141221
 30
0.0
 11
411.7854032061067
 21
207.1264312977099
 31
0.0
  0
LINE
  5
9077
330
9075
100
AcDbEntity
  8
1
  6
Continuous
 62
     4
370
    -2
100
AcDbLine
 10
481.9189909923665
 20
322.4419549141221
 30
0.0
 11
481.9189909923665
 21
207.1264312977099
 31
0.0
  0
LINE
  5
9078
330
9075
100
AcDbEntity
  8
1
  6
Continuous
 62
     4
370
    -2
100
AcDbLine
 10
413.7854032061068
 20
208.1264312977099
 30
0.0
 11
479.9189909923665
 21
208.1264312977099
 31
0.0
  0
SOLID
  5
9079
330
9075
100
AcDbEntity
  8
1
  6
Continuous
 62
     4
370
     0
100
AcDbTrace
 10
413.7854032061068
 20
208.4597646310432
 30
0.0
 11
413.7854032061068
 21
207.7930979643765
 31
0.0
 12
411.7854032061067
 22
208.1264312977099
 32
0.0
 13
411.7854032061067
 23
208.1264312977099
 33
0.0
  0
SOLID
  5
907A
330
9075
100
AcDbEntity
  8
1
  6
Continuous
 62
     4
370
     0
100
AcDbTrace
 10
479.9189909923665
 20
208.4597646310432
 30
0.0
 11
479.9189909923665
 21
207.7930979643765
 31
0.0
 12
481.9189909923665
 22
208.1264312977099
 32
0.0
 13
481.9189909923665
 23
208.1264312977099
 33
0.0
  0
MTEXT
  5
907B
330
9075
100
AcDbEntity
  8
1
  6
Continuous
 62
     2
100
AcDbMText
 10
446.8521970992366
 20
209.3764312977099
 30
0.0
 40
2.5
 41
0.0
 71
     5
 72
     1
  1
\A1; 70.133588 
 73
     1
 44
1.0
1001
ACAD
1000
MTEXTBEGIN
1070
    73
1070
     1
1070
    44
1040
1.0
1070
    74
1070
     0
1000
MTEXTEND
  0
POINT
  5
907C
330
9075
100
AcDbEntity
  8
DEFPOINTS
  6
Continuous
 62
     0
370
     0
100
AcDbPoint
 10
411.7854032061067
 20
323.4419549141221
 30
0.0
  0
POINT
  5
907D
330
9075
100
AcDbEntity
  8
DEFPOINTS
  6
Continuous
 62
     0
370
     0
100
AcDbPoint
 10
481.9189909923665
 20
323.4419549141221
 30
0.0
  0
POINT
  5
907E
330
9075
100
AcDbEntity
  8
DEFPOINTS
  6
Continuous
 62
     0
370
     0
100
AcDbPoint
 10
481.9189909923665
 20
208.1264312977099
 30
0.0
  0
ENDBLK
  5
9080
330
9075
100
AcDbEntity
  8
0
100
AcDbBlockEnd
  0
BLOCK
  5
908B
330
9081
100
AcDbEntity
  8
0
100
AcDbBlockBegin
  2
_D3
 70
     0
 10
0.0
 20
0.0
 30
0.0
  3
_D3
  1

  0
LINE
  5
9082
330
9081
100
AcDbEntity
  8
1
  6
Continuous
 62
     4
370
    -2
100
AcDbLine
 10
481.9189909923665
 20
322.4419549141221
 30
0.0
 11
481.9189909923665
 21
207.1264312977099
 31
0.0
  0
LINE
  5
9083
330
9081
100
AcDbEntity
  8
1
  6
Continuous
 62
     4
370
    -2
100
AcDbLine
 10
552.0525787786261
 20
322.4419549141221
 30
0.0
 11
552.0525787786261
 21
207.1264312977099
 31
0.0
  0
LINE
  5
9084
330
9081
100
AcDbEntity
  8
1
  6
Continuous
 62
     4
370
    -2
100
AcDbLine
 10
483.9189909923665
 20
208.1264312977099
 30
0.0
 11
550.052578778626
 21
208.1264312977099
 31
0.0
  0
SOLID
  5
9085
330
9081
100
AcDbEntity
  8
1
  6
Continuous
 62
     4
370
     0
100
AcDbTrace
 10
483.9189909923665
 20
208.4597646310432
 30
0.0
 11
483.9189909923665
 21
207.7930979643765
 31
0.0
 12
481.9189909923665
 22
208.1264312977099
 32
0.0
 13
481.9189909923665
 23
208.1264312977099
 33
0.0
  0
SOLID
  5
9086
330
9081
100
AcDbEntity
  8
1
  6
Continuous
 62
     4
370
     0
100
AcDbTrace
 10
550.052578778626
 20
208.4597646310432
 30
0.0
 11
550.052578778626
 21
207.7930979643765
 31
0.0
 12
552.0525787786261
 22
208.1264312977099
 32
0.0
 13
552.0525787786261
 23
208.1264312977099
 33
0.0
  0
MTEXT
  5
9087
330
9081
100
AcDbEntity
  8
1
  6
Continuous
 62
     2
100
AcDbMText
 10
516.9857848854961
 20
209.3764312977099
 30
0.0
 40
2.5
 41
0.0
 71
     5
 72
     1
  1
\A1; 70.133588 
 73
     1
 44
1.0
1001
ACAD
1000
MTEXTBEGIN
1070
    73
1070
     1
1070
    44
1040
1.0
1070
    74
1070
     0
1000
MTEXTEND
  0
POINT
  5
9088
330
9081
100
AcDbEntity
  8
DEFPOINTS
  6
Continuous
 62
     0
370
     0
100
AcDbPoint
 10
481.9189909923665
 20
323.4419549141221
 30
0.0
  0
POINT
  5
9089
330
9081
100
AcDbEntity
  8
DEFPOINTS
  6
Continuous
 62
     0
370
     0
100
AcDbPoint
 10
552.0525787786261
 20
323.4419549141221
 30
0.0
  0
POINT
  5
908A
330
9081
100
AcDbEntity
  8
DEFPOINTS
  6
Continuous
 62
     0
370
     0
100
AcDbPoint
 10
552.0525787786261
 20
208.1264312977099
 30
0.0
  0
ENDBLK
  5
908C
330
9081
100
AcDbEntity
  8
0
100
AcDbBlockEnd
  0
BLOCK
  5
9097
330
908D
100
AcDbEntity
  8
0
100
AcDbBlockBegin
  2
_D4
 70
     0
 10
0.0
 20
0.0
 30
0.0
  3
_D4
  1

  0
LINE
  5
908E
330
908D
100
AcDbEntity
  8
1
  6
Continuous
 62
     4
370
    -2
100
AcDbLine
 10
552.0525787786261
 20
322.4419549141221
 30
0.0
 11
552.0525787786261
 21
207.1264312977099
 31
0.0
  0
LINE
  5
908F
330
908D
100
AcDbEntity
  8
1
  6
Continuous
 62
     4
370
    -2
100
AcDbLine
 10
622.1861665648855
 20
322.4419549141221
 30
0.0
 11
622.1861665648855
 21
207.1264312977099
 31
0.0
  0
LINE
  5
9090
330
908D
100
AcDbEntity
  8
1
  6
Continuous
 62
     4
370
    -2
100
AcDbLine
 10
554.052578778626
 20
208.1264312977099
 30
0.0
 11
620.1861665648855
 21
208.1264312977099
 31
0.0
  0
SOLID
  5
9091
330
908D
100
AcDbEntity
  8
1
  6
Continuous
 62
     4
370
     0
100
AcDbTrace
 10
554.052578778626
 20
208.4597646310432
 30
0.0
 11
554.052578778626
 21
207.7930979643765
 31
0.0
 12
552.0525787786261
 22
208.1264312977099
 32
0.0
 13
552.0525787786261
 23
208.1264312977099
 33
0.0
  0
SOLID
  5
9092
330
908D
100
AcDbEntity
  8
1
  6
Continuous
 62
     4
370
     0
100
AcDbTrace
 10
620.1861665648855
 20
208.4597646310432
 30
0.0
 11
620.1861665648855
 21
207.7930979643765
 31
0.0
 12
622.1861665648855
 22
208.1264312977099
 32
0.0
 13
622.1861665648855
 23
208.1264312977099
 33
0.0
  0
MTEXT
  5
9093
330
908D
100
AcDbEntity
  8
1
  6
Continuous
 62
     2
100
AcDbMText
 10
587.1193726717557
 20
209.3764312977099
 30
0.0
 40
2.5
 41
0.0
 71
     5
 72
     1
  1
\A1; 70.133588 
 73
     1
 44
1.0
1001
ACAD
1000
MTEXTBEGIN
1070
    73
1070
     1
1070
    44
1040
1.0
1070
    74
1070
     0
1000
MTEXTEND
  0
POINT
  5
9094
330
908D
100
AcDbEntity
  8
DEFPOINTS
  6
Continuous
 62
     0
370
     0
100
AcDbPoint
 10
552.0525787786261
 20
323.4419549141221
 30
0.0
  0
POINT
  5
9095
330
908D
100
AcDbEntity
  8
DEFPOINTS
  6
Continuous
 62
     0
370
     0
100
AcDbPoint
 10
622.1861665648855
 20
323.4419549141221
 30
0.0
  0
POINT
  5
9096
330
908D
100
AcDbEntity
  8
DEFPOINTS
  6
Continuous
 62
     0
370
     0
100
AcDbPoint
 10
622.1861665648855
 20
208.1264312977099
 30
0.0
  0
ENDBLK
  5
9098
330
908D
100
AcDbEntity
  8
0
100
AcDbBlockEnd
  0
BLOCK
  5
90A3
330
9099
100
AcDbEntity
  8
0
100
AcDbBlockBegin
  2
_D5
 70
     0
 10
0.0
 20
0.0
 30
0.0
  3
_D5
  1

  0
LINE
  5
909A
330
9099
100
AcDbEntity
  8
1
  6
Continuous
 62
     4
370
    -2
100
AcDbLine
 10
376.9189909923663
 20
317.4324129293893
 30
0.0
 11
376.9189909923663
 21
177.069179389313
 31
0.0
  0
LINE
  5
909B
330
9099
100
AcDbEntity
  8
1
  6
Continuous
 62
     4
370
    -2
100
AcDbLine
 10
481.9189909923665
 20
322.4419549141221
 30
0.0
 11
481.9189909923665
 21
177.069179389313
 31
0.0
  0
LINE
  5
909C
330
9099
100
AcDbEntity
  8
1
  6
Continuous
 62
     4
370
    -2
100
AcDbLine
 10
378.9189909923663
 20
178.069179389313
 30
0.0
 11
479.9189909923665
 21
178.069179389313
 31
0.0
  0
SOLID
  5
909D
330
9099
100
AcDbEntity
  8
1
  6
Continuous
 62
     4
370
     0
100
AcDbTrace
 10
378.9189909923663
 20
178.4025127226463
 30
0.0
 11
378.9189909923663
 21
177.7358460559796
 31
0.0
 12
376.9189909923663
 22
178.069179389313
 32
0.0
 13
376.9189909923663
 23
178.069179389313
 33
0.0
  0
SOLID
  5
909E
330
9099
100
AcDbEntity
  8
1
  6
Continuous
 62
     4
370
     0
100
AcDbTrace
 10
479.9189909923665
 20
178.4025127226463
 30
0.0
 11
479.9189909923665
 21
177.7358460559796
 31
0.0
 12
481.9189909923665
 22
178.069179389313
 32
0.0
 13
481.9189909923665
 23
178.069179389313
 33
0.0
  0
MTEXT
  5
909F
330
9099
100
AcDbEntity
  8
1
  6
Continuous
 62
     2
100
AcDbMText
 10
429.4189909923663
 20
179.319179389313
 30
0.0
 40
2.5
 41
0.0
 71
     5
 72
     1
  1
\A1; 105 
 73
     1
 44
1.0
1001
ACAD
1000
MTEXTBEGIN
1070
    73
1070
     1
1070
    44
1040
1.0
1070
    74
1070
     0
1000
MTEXTEND
  0
POINT
  5
90A0
330
9099
100
AcDbEntity
  8
DEFPOINTS
  6
Continuous
 62
     0
370
     0
100
AcDbPoint
 10
376.9189909923663
 20
318.4324129293893
 30
0.0
  0
POINT
  5
90A1
330
9099
100
AcDbEntity
  8
DEFPOINTS
  6
Continuous
 62
     0
370
     0
100
AcDbPoint
 10
481.9189909923665
 20
323.4419549141221
 30
0.0
  0
POINT
  5
90A2
330
9099
100
AcDbEntity
  8
DEFPOINTS
  6
Continuous
 62
     0
370
     0
100
AcDbPoint
 10
481.9189909923665
 20
178.069179389313
 30
0.0
  0
ENDBLK
  5
90A4
330
9099
100
AcDbEntity
  8
0
100
AcDbBlockEnd
  0
BLOCK
  5
90AF
330
90A5
100
AcDbEntity
  8
0
100
AcDbBlockBegin
  2
_D6
 70
     0
 10
0.0
 20
0.0
 30
0.0
  3
_D6
  1

  0
LINE
  5
90A6
330
90A5
100
AcDbEntity
  8
1
  6
Continuous
 62
     4
370
    -2
100
AcDbLine
 10
481.718609312977
 20
322.4419549141221
 30
0.0
 11
481.718609312977
 21
177.069179389313
 31
0.0
  0
LINE
  5
90A7
330
90A5
100
AcDbEntity
  8
1
  6
Continuous
 62
     4
370
    -2
100
AcDbLine
 10
657.0525787786257
 20
317.4324129293893
 30
0.0
 11
657.0525787786257
 21
177.069179389313
 31
0.0
  0
LINE
  5
90A8
330
90A5
100
AcDbEntity
  8
1
  6
Continuous
 62
     4
370
    -2
100
AcDbLine
 10
483.7186093129767
 20
178.069179389313
 30
0.0
 11
655.0525787786257
 21
178.069179389313
 31
0.0
  0
SOLID
  5
90A9
330
90A5
100
AcDbEntity
  8
1
  6
Continuous
 62
     4
370
     0
100
AcDbTrace
 10
483.7186093129767
 20
178.4025127226463
 30
0.0
 11
483.7186093129767
 21
177.7358460559796
 31
0.0
 12
481.718609312977
 22
178.069179389313
 32
0.0
 13
481.718609312977
 23
178.069179389313
 33
0.0
  0
SOLID
  5
90AA
330
90A5
100
AcDbEntity
  8
1
  6
Continuous
 62
     4
370
     0
100
AcDbTrace
 10
655.0525787786257
 20
178.4025127226463
 30
0.0
 11
655.0525787786257
 21
177.7358460559796
 31
0.0
 12
657.0525787786257
 22
178.069179389313
 32
0.0
 13
657.0525787786257
 23
178.069179389313
 33
0.0
  0
MTEXT
  5
90AB
330
90A5
100
AcDbEntity
  8
1
  6
Continuous
 62
     2
100
AcDbMText
 10
569.3855940458014
 20
179.319179389313
 30
0.0
 40
2.5
 41
0.0
 71
     5
 72
     1
  1
\A1; 175.333969 
 73
     1
 44
1.0
1001
ACAD
1000
MTEXTBEGIN
1070
    73
1070
     1
1070
    44
1040
1.0
1070
    74
1070
     0
1000
MTEXTEND
  0
POINT
  5
90AC
330
90A5
100
AcDbEntity
  8
DEFPOINTS
  6
Continuous
 62
     0
370
     0
100
AcDbPoint
 10
481.718609312977
 20
323.4419549141221
 30
0.0
  0
POINT
  5
90AD
330
90A5
100
AcDbEntity
  8
DEFPOINTS
  6
Continuous
 62
     0
370
     0
100
AcDbPoint
 10
657.0525787786257
 20
318.4324129293893
 30
0.0
  0
POINT
  5
90AE
330
90A5
100
AcDbEntity
  8
DEFPOINTS
  6
Continuous
 62
     0
370
     0
100
AcDbPoint
 10
657.0525787786257
 20
178.069179389313
 30
0.0
  0
ENDBLK
  5
90B0
330
90A5
100
AcDbEntity
  8
0
100
AcDbBlockEnd
  0
BLOCK
  5
90BB
330
90B1
100
AcDbEntity
  8
0
100
AcDbBlockBegin
  2
_D7
 70
     0
 10
0.0
 20
0.0
 30
0.0
  3
_D7
  1

  0
LINE
  5
90B2
330
90B1
100
AcDbEntity
  8
1
  6
Continuous
 62
     4
370
    -2
100
AcDbLine
 10
376.9189909923663
 20
317.4324129293893
 30
0.0
 11
376.9189909923663
 21
147.011927480916
 31
0.0
  0
LINE
  5
90B3
330
90B1
100
AcDbEntity
  8
1
  6
Continuous
 62
     4
370
    -2
100
AcDbLine
 10
657.0525787786257
 20
317.4324129293893
 30
0.0
 11
657.0525787786257
 21
147.011927480916
 31
0.0
  0
LINE
  5
90B4
330
90B1
100
AcDbEntity
  8
1
  6
Continuous
 62
     4
370
    -2
100
AcDbLine
 10
378.9189909923663
 20
148.011927480916
 30
0.0
 11
655.0525787786257
 21
148.011927480916
 31
0.0
  0
SOLID
  5
90B5
330
90B1
100
AcDbEntity
  8
1
  6
Continuous
 62
     4
370
     0
100
AcDbTrace
 10
378.9189909923663
 20
148.3452608142493
 30
0.0
 11
378.9189909923663
 21
147.6785941475826
 31
0.0
 12
376.9189909923663
 22
148.011927480916
 32
0.0
 13
376.9189909923663
 23
148.011927480916
 33
0.0
  0
SOLID
  5
90B6
330
90B1
100
AcDbEntity
  8
1
  6
Continuous
 62
     4
370
     0
100
AcDbTrace
 10
655.0525787786257
 20
148.3452608142493
 30
0.0
 11
655.0525787786257
 21
147.6785941475826
 31
0.0
 12
657.0525787786257
 22
148.011927480916
 32
0.0
 13
657.0525787786257
 23
148.011927480916
 33
0.0
  0
MTEXT
  5
90B7
330
90B1
100
AcDbEntity
  8
1
  6
Continuous
 62
     2
100
AcDbMText
 10
516.9857848854961
 20
149.261927480916
 30
0.0
 40
2.5
 41
0.0
 71
     5
 72
     1
  1
\A1; 280 
 73
     1
 44
1.0
1001
ACAD
1000
MTEXTBEGIN
1070
    73
1070
     1
1070
    44
1040
1.0
1070
    74
1070
     0
1000
MTEXTEND
  0
POINT
  5
90B8
330
90B1
100
AcDbEntity
  8
DEFPOINTS
  6
Continuous
 62
     0
370
     0
100
AcDbPoint
 10
376.9189909923663
 20
318.4324129293893
 30
0.0
  0
POINT
  5
90B9
330
90B1
100
AcDbEntity
  8
DEFPOINTS
  6
Continuous
 62
     0
370
     0
100
AcDbPoint
 10
657.0525787786257
 20
318.4324129293893
 30
0.0
  0
POINT
  5
90BA
330
90B1
100
AcDbEntity
  8
DEFPOINTS
  6
Continuous
 62
     0
370
     0
100
AcDbPoint
 10
657.0525787786257
 20
148.011927480916
 30
0.0
  0
ENDBLK
  5
90BC
330
90B1
100
AcDbEntity
  8
0
100
AcDbBlockEnd
  0
BLOCK
  5
90C8
330
90BD
100
AcDbEntity
  8
0
100
AcDbBlockBegin
  2
_D8
 70
     0
 10
0.0
 20
0.0
 30
0.0
  3
_D8
  1

  0
LINE
  5
90BE
330
90BD
100
AcDbEntity
  8
1
  6
Continuous
 62
     4
370
    -2
100
AcDbLine
 10
1021.146090229007
 20
237.2797411736641
 30
0.0
 11
1021.146090229007
 21
212.1359732824428
 31
0.0
  0
LINE
  5
90BF
330
90BD
100
AcDbEntity
  8
1
  6
Continuous
 62
     4
370
    -2
100
AcDbLine
 10
1029.16135740458
 20
237.2797411736641
 30
0.0
 11
1029.16135740458
 21
212.1359732824428
 31
0.0
  0
LINE
  5
90C0
330
90BD
100
AcDbEntity
  8
1
  6
Continuous
 62
     4
370
    -2
100
AcDbLine
 10
1023.146090229007
 20
213.1359732824428
 30
0.0
 11
1027.16135740458
 21
213.1359732824428
 31
0.0
  0
LINE
  5
90C1
330
90BD
100
AcDbEntity
  8
1
  6
Continuous
 62
     4
370
    -2
100
AcDbLine
 10
1029.16135740458
 20
213.1359732824428
 30
0.0
 11
1049.91135740458
 21
213.1359732824428
 31
0.0
  0
SOLID
  5
90C2
330
90BD
100
AcDbEntity
  8
1
  6
Continuous
 62
     4
370
     0
100
AcDbTrace
 10
1023.146090229007
 20
213.4693066157761
 30
0.0
 11
1023.146090229007
 21
212.8026399491094
 31
0.0
 12
1021.146090229007
 22
213.1359732824428
 32
0.0
 13
1021.146090229007
 23
213.1359732824428
 33
0.0
  0
SOLID
  5
90C3
330
90BD
100
AcDbEntity
  8
1
  6
Continuous
 62
     4
370
     0
100
AcDbTrace
 10
1027.16135740458
 20
213.4693066157761
 30
0.0
 11
1027.16135740458
 21
212.8026399491094
 31
0.0
 12
1029.16135740458
 22
213.1359732824428
 32
0.0
 13
1029.16135740458
 23
213.1359732824428
 33
0.0
  0
MTEXT
  5
90C4
330
90BD
100
AcDbEntity
  8
1
  6
Continuous
 62
     2
100
AcDbMText
 10
1040.53635740458
 20
214.3859732824428
 30
0.0
 40
2.5
 41
0.0
 71
     5
 72
     1
  1
\A1; 8.015267 
 73
     1
 44
1.0
1001
ACAD
1000
MTEXTBEGIN
1070
    73
1070
     1
1070
    44
1040
1.0
1070
    74
1070
     0
1000
MTEXTEND
  0
POINT
  5
90C5
330
90BD
100
AcDbEntity
  8
DEFPOINTS
  6
Continuous
 62
     0
370
     0
100
AcDbPoint
 10
1021.146090229007
 20
238.279741173664
 30
0.0
  0
POINT
  5
90C6
330
90BD
100
AcDbEntity
  8
DEFPOINTS
  6
Continuous
 62
     0
370
     0
100
AcDbPoint
 10
1029.16135740458
 20
238.279741173664
 30
0.0
  0
POINT
  5
90C7
330
90BD
100
AcDbEntity
  8
DEFPOINTS
  6
Continuous
 62
     0
370
     0
100
AcDbPoint
 10
1029.16135740458
 20
213.1359732824428
 30
0.0
  0
ENDBLK
  5
90C9
330
90BD
100
AcDbEntity
  8
0
100
AcDbBlockEnd
  0
BLOCK
  5
90D4
330
90CA
100
AcDbEntity
  8
0
100
AcDbBlockBegin
  2
_D9
 70
     0
 10
0.0
 20
0.0
 30
0.0
  3
_D9
  1

  0
LINE
  5
90CB
330
90CA
100
AcDbEntity
  8
1
  6
Continuous
 62
     4
370
    -2
100
AcDbLine
 10
1029.16135740458
 20
237.2797411736641
 30
0.0
 11
1029.16135740458
 21
212.1359732824428
 31
0.0
  0
LINE
  5
90CC
330
90CA
100
AcDbEntity
  8
1
  6
Continuous
 62
     4
370
    -2
100
AcDbLine
 10
1065.230059694656
 20
317.4324129293893
 30
0.0
 11
1065.230059694656
 21
212.1359732824428
 31
0.0
  0
LINE
  5
90CD
330
90CA
100
AcDbEntity
  8
1
  6
Continuous
 62
     4
370
    -2
100
AcDbLine
 10
1031.16135740458
 20
213.1359732824428
 30
0.0
 11
1063.230059694656
 21
213.1359732824428
 31
0.0
  0
SOLID
  5
90CE
330
90CA
100
AcDbEntity
  8
1
  6
Continuous
 62
     4
370
     0
100
AcDbTrace
 10
1031.16135740458
 20
213.4693066157761
 30
0.0
 11
1031.16135740458
 21
212.8026399491094
 31
0.0
 12
1029.16135740458
 22
213.1359732824428
 32
0.0
 13
1029.16135740458
 23
213.1359732824428
 33
0.0
  0
SOLID
  5
90CF
330
90CA
100
AcDbEntity
  8
1
  6
Continuous
 62
     4
370
     0
100
AcDbTrace
 10
1063.230059694656
 20
213.4693066157761
 30
0.0
 11
1063.230059694656
 21
212.8026399491094
 31
0.0
 12
1065.230059694656
 22
213.1359732824428
 32
0.0
 13
1065.230059694656
 23
213.1359732824428
 33
0.0
  0
MTEXT
  5
90D0
330
90CA
100
AcDbEntity
  8
1
  6
Continuous
 62
     2
100
AcDbMText
 10
1047.195708549618
 20
214.3859732824428
 30
0.0
 40
2.5
 41
0.0
 71
     5
 72
     1
  1
\A1; 36.068702 
 73
     1
 44
1.0
1001
ACAD
1000
MTEXTBEGIN
1070
    73
1070
     1
1070
    44
1040
1.0
1070
    74
1070
     0
1000
MTEXTEND
  0
POINT
  5
90D1
330
90CA
100
AcDbEntity
  8
DEFPOINTS
  6
Continuous
 62
     0
370
     0
100
AcDbPoint
 10
1029.16135740458
 20
238.279741173664
 30
0.0
  0
POINT
  5
90D2
330
90CA
100
AcDbEntity
  8
DEFPOINTS
  6
Continuous
 62
     0
370
     0
100
AcDbPoint
 10
1065.230059694656
 20
318.4324129293893
 30
0.0
  0
POINT
  5
90D3
330
90CA
100
AcDbEntity
  8
DEFPOINTS
  6
Continuous
 62
     0
370
     0
100
AcDbPoint
 10
1065.230059694656
 20
213.1359732824428
 30
0.0
  0
ENDBLK
  5
90D5
330
90CA
100
AcDbEntity
  8
0
100
AcDbBlockEnd
  0
BLOCK
  5
90E1
330
90D6
100
AcDbEntity
  8
0
100
AcDbBlockBegin
  2
_D10
 70
     0
 10
0.0
 20
0.0
 30
0.0
  3
_D10
  1

  0
LINE
  5
90D7
330
90D6
100
AcDbEntity
  8
1
  6
Continuous
 62
     4
370
    -2
100
AcDbLine
 10
1025.153723816794
 20
683.1251610209925
 30
0.0
 11
1025.153723816794
 21
710.0806297709924
 31
0.0
  0
LINE
  5
90D8
330
90D6
100
AcDbEntity
  8
1
  6
Continuous
 62
     4
370
    -2
100
AcDbLine
 10
1033.168990992366
 20
683.1251610209925
 30
0.0
 11
1033.168990992366
 21
710.0806297709924
 31
0.0
  0
LINE
  5
90D9
330
90D6
100
AcDbEntity
  8
1
  6
Continuous
 62
     4
370
    -2
100
AcDbLine
 10
1027.153723816794
 20
709.0806297709924
 30
0.0
 11
1031.168990992366
 21
709.0806297709924
 31
0.0
  0
LINE
  5
90DA
330
90D6
100
AcDbEntity
  8
1
  6
Continuous
 62
     4
370
    -2
100
AcDbLine
 10
1033.168990992366
 20
709.0806297709924
 30
0.0
 11
1053.918990992366
 21
709.0806297709924
 31
0.0
  0
SOLID
  5
90DB
330
90D6
100
AcDbEntity
  8
1
  6
Continuous
 62
     4
370
     0
100
AcDbTrace
 10
1027.153723816794
 20
709.4139631043256
 30
0.0
 11
1027.153723816794
 21
708.7472964376591
 31
0.0
 12
1025.153723816794
 22
709.0806297709924
 32
0.0
 13
1025.153723816794
 23
709.0806297709924
 33
0.0
  0
SOLID
  5
90DC
330
90D6
100
AcDbEntity
  8
1
  6
Continuous
 62
     4
370
     0
100
AcDbTrace
 10
1031.168990992366
 20
709.4139631043256
 30
0.0
 11
1031.168990992366
 21
708.7472964376591
 31
0.0
 12
1033.168990992366
 22
709.0806297709924
 32
0.0
 13
1033.168990992366
 23
709.0806297709924
 33
0.0
  0
MTEXT
  5
90DD
330
90D6
100
AcDbEntity
  8
1
  6
Continuous
 62
     2
100
AcDbMText
 10
1044.543990992366
 20
710.3306297709925
 30
0.0
 40
2.5
 41
0.0
 71
     5
 72
     1
  1
\A1; 8.015267 
 73
     1
 44
1.0
1001
ACAD
1000
MTEXTBEGIN
1070
    73
1070
     1
1070
    44
1040
1.0
1070
    74
1070
     0
1000
MTEXTEND
  0
POINT
  5
90DE
330
90D6
100
AcDbEntity
  8
DEFPOINTS
  6
Continuous
 62
     0
370
     0
100
AcDbPoint
 10
1025.153723816794
 20
682.1251610209925
 30
0.0
  0
POINT
  5
90DF
330
90D6
100
AcDbEntity
  8
DEFPOINTS
  6
Continuous
 62
     0
370
     0
100
AcDbPoint
 10
1033.168990992366
 20
682.1251610209925
 30
0.0
  0
POINT
  5
90E0
330
90D6
100
AcDbEntity
  8
DEFPOINTS
  6
Continuous
 62
     0
370
     0
100
AcDbPoint
 10
1033.168990992366
 20
709.0806297709924
 30
0.0
  0
ENDBLK
  5
90E2
330
90D6
100
AcDbEntity
  8
0
100
AcDbBlockEnd
  0
BLOCK
  5
90ED
330
90E3
100
AcDbEntity
  8
0
100
AcDbBlockBegin
  2
_D11
 70
     0
 10
0.0
 20
0.0
 30
0.0
  3
_D11
  1

  0
LINE
  5
90E4
330
90E3
100
AcDbEntity
  8
1
  6
Continuous
 62
     4
370
    -2
100
AcDbLine
 10
1033.168990992366
 20
683.1251610209925
 30
0.0
 11
1033.168990992366
 21
710.0806297709924
 31
0.0
  0
LINE
  5
90E5
330
90E3
100
AcDbEntity
  8
1
  6
Continuous
 62
     4
370
    -2
100
AcDbLine
 10
1065.230059694656
 20
602.9724892652673
 30
0.0
 11
1065.230059694656
 21
710.0806297709924
 31
0.0
  0
LINE
  5
90E6
330
90E3
100
AcDbEntity
  8
1
  6
Continuous
 62
     4
370
    -2
100
AcDbLine
 10
1035.168990992366
 20
709.0806297709924
 30
0.0
 11
1063.230059694656
 21
709.0806297709924
 31
0.0
  0
SOLID
  5
90E7
330
90E3
100
AcDbEntity
  8
1
  6
Continuous
 62
     4
370
     0
100
AcDbTrace
 10
1035.168990992366
 20
709.4139631043256
 30
0.0
 11
1035.168990992366
 21
708.7472964376591
 31
0.0
 12
1033.168990992366
 22
709.0806297709924
 32
0.0
 13
1033.168990992366
 23
709.0806297709924
 33
0.0
  0
SOLID
  5
90E8
330
90E3
100
AcDbEntity
  8
1
  6
Continuous
 62
     4
370
     0
100
AcDbTrace
 10
1063.230059694656
 20
709.4139631043256
 30
0.0
 11
1063.230059694656
 21
708.7472964376591
 31
0.0
 12
1065.230059694656
 22
709.0806297709924
 32
0.0
 13
1065.230059694656
 23
709.0806297709924
 33
0.0
  0
MTEXT
  5
90E9
330
90E3
100
AcDbEntity
  8
1
  6
Continuous
 62
     2
100
AcDbMText
 10
1049.199525343511
 20
710.3306297709925
 30
0.0
 40
2.5
 41
0.0
 71
     5
 72
     1
  1
\A1; 32.061069 
 73
     1
 44
1.0
1001
ACAD
1000
MTEXTBEGIN
1070
    73
1070
     1
1070
    44
1040
1.0
1070
    74
1070
     0
1000
MTEXTEND
  0
POINT
  5
90EA
330
90E3
100
AcDbEntity
  8
DEFPOINTS
  6
Continuous
 62
     0
370
     0
100
AcDbPoint
 10
1033.168990992366
 20
682.1251610209925
 30
0.0
  0
POINT
  5
90EB
330
90E3
100
AcDbEntity
  8
DEFPOINTS
  6
Continuous
 62
     0
370
     0
100
AcDbPoint
 10
1065.230059694656
 20
601.972489265267
 30
0.0
  0
POINT
  5
90EC
330
90E3
100
AcDbEntity
  8
DEFPOINTS
  6
Continuous
 62
     0
370
     0
100
AcDbPoint
 10
1065.230059694656
 20
709.0806297709924
 30
0.0
  0
ENDBLK
  5
90EE
330
90E3
100
AcDbEntity
  8
0
100
AcDbBlockEnd
  0
BLOCK
  5
90F9
330
90EF
100
AcDbEntity
  8
0
100
AcDbBlockBegin
  2
_D12
 70
     0
 10
0.0
 20
0.0
 30
0.0
  3
_D12
  1

  0
LINE
  5
90F0
330
90EF
100
AcDbEntity
  8
1
  6
Continuous
 62
     4
370
    -2
100
AcDbLine
 10
1208.703342137404
 20
602.9724892652673
 30
0.0
 11
1208.703342137404
 21
659.9852099236642
 31
0.0
  0
LINE
  5
90F1
330
90EF
100
AcDbEntity
  8
1
  6
Continuous
 62
     4
370
    -2
100
AcDbLine
 10
1418.703342137404
 20
602.9724892652673
 30
0.0
 11
1418.703342137404
 21
659.9852099236642
 31
0.0
  0
LINE
  5
90F2
330
90EF
100
AcDbEntity
  8
1
  6
Continuous
 62
     4
370
    -2
100
AcDbLine
 10
1210.703342137404
 20
658.9852099236642
 30
0.0
 11
1416.703342137404
 21
658.9852099236642
 31
0.0
  0
SOLID
  5
90F3
330
90EF
100
AcDbEntity
  8
1
  6
Continuous
 62
     4
370
     0
100
AcDbTrace
 10
1210.703342137404
 20
659.3185432569976
 30
0.0
 11
1210.703342137404
 21
658.6518765903307
 31
0.0
 12
1208.703342137404
 22
658.9852099236642
 32
0.0
 13
1208.703342137404
 23
658.9852099236642
 33
0.0
  0
SOLID
  5
90F4
330
90EF
100
AcDbEntity
  8
1
  6
Continuous
 62
     4
370
     0
100
AcDbTrace
 10
1416.703342137404
 20
659.3185432569976
 30
0.0
 11
1416.703342137404
 21
658.6518765903307
 31
0.0
 12
1418.703342137404
 22
658.9852099236642
 32
0.0
 13
1418.703342137404
 23
658.9852099236642
 33
0.0
  0
MTEXT
  5
90F5
330
90EF
100
AcDbEntity
  8
1
  6
Continuous
 62
     2
100
AcDbMText
 10
1313.703342137404
 20
660.2352099236642
 30
0.0
 40
2.5
 41
0.0
 71
     5
 72
     1
  1
\A1; 210 
 73
     1
 44
1.0
1001
ACAD
1000
MTEXTBEGIN
1070
    73
1070
     1
1070
    44
1040
1.0
1070
    74
1070
     0
1000
MTEXTEND
  0
POINT
  5
90F6
330
90EF
100
AcDbEntity
  8
DEFPOINTS
  6
Continuous
 62
     0
370
     0
100
AcDbPoint
 10
1208.703342137404
 20
601.972489265267
 30
0.0
  0
POINT
  5
90F7
330
90EF
100
AcDbEntity
  8
DEFPOINTS
  6
Continuous
 62
     0
370
     0
100
AcDbPoint
 10
1418.703342137404
 20
601.972489265267
 30
0.0
  0
POINT
  5
90F8
330
90EF
100
AcDbEntity
  8
DEFPOINTS
  6
Continuous
 62
     0
370
     0
100
AcDbPoint
 10
1418.703342137404
 20
658.9852099236642
 30
0.0
  0
ENDBLK
  5
90FA
330
90EF
100
AcDbEntity
  8
0
100
AcDbBlockEnd
  0
BLOCK
  5
9105
330
90FB
100
AcDbEntity
  8
0
100
AcDbBlockBegin
  2
_D13
 70
     0
 10
0.0
 20
0.0
 30
0.0
  3
_D13
  1

  0
LINE
  5
90FC
330
90FB
100
AcDbEntity
  8
1
  6
Continuous
 62
     4
370
    -2
100
AcDbLine
 10
1208.703342137404
 20
602.9724892652673
 30
0.0
 11
1208.703342137404
 21
695.0520038167938
 31
0.0
  0
LINE
  5
90FD
330
90FB
100
AcDbEntity
  8
1
  6
Continuous
 62
     4
370
    -2
100
AcDbLine
 10
1488.836929923664
 20
602.9724892652673
 30
0.0
 11
1488.836929923664
 21
695.0520038167938
 31
0.0
  0
LINE
  5
90FE
330
90FB
100
AcDbEntity
  8
1
  6
Continuous
 62
     4
370
    -2
100
AcDbLine
 10
1210.703342137404
 20
694.0520038167938
 30
0.0
 11
1486.836929923664
 21
694.0520038167938
 31
0.0
  0
SOLID
  5
90FF
330
90FB
100
AcDbEntity
  8
1
  6
Continuous
 62
     4
370
     0
100
AcDbTrace
 10
1210.703342137404
 20
694.3853371501273
 30
0.0
 11
1210.703342137404
 21
693.7186704834605
 31
0.0
 12
1208.703342137404
 22
694.0520038167938
 32
0.0
 13
1208.703342137404
 23
694.0520038167938
 33
0.0
  0
SOLID
  5
9100
330
90FB
100
AcDbEntity
  8
1
  6
Continuous
 62
     4
370
     0
100
AcDbTrace
 10
1486.836929923664
 20
694.3853371501273
 30
0.0
 11
1486.836929923664
 21
693.7186704834605
 31
0.0
 12
1488.836929923664
 22
694.0520038167938
 32
0.0
 13
1488.836929923664
 23
694.0520038167938
 33
0.0
  0
MTEXT
  5
9101
330
90FB
100
AcDbEntity
  8
1
  6
Continuous
 62
     2
100
AcDbMText
 10
1348.770136030534
 20
695.3020038167937
 30
0.0
 40
2.5
 41
0.0
 71
     5
 72
     1
  1
\A1; 280.133588 
 73
     1
 44
1.0
1001
ACAD
1000
MTEXTBEGIN
1070
    73
1070
     1
1070
    44
1040
1.0
1070
    74
1070
     0
1000
MTEXTEND
  0
POINT
  5
9102
330
90FB
100
AcDbEntity
  8
DEFPOINTS
  6
Continuous
 62
     0
370
     0
100
AcDbPoint
 10
1208.703342137404
 20
601.972489265267
 30
0.0
  0
POINT
  5
9103
330
90FB
100
AcDbEntity
  8
DEFPOINTS
  6
Continuous
 62
     0
370
     0
100
AcDbPoint
 10
1488.836929923664
 20
601.972489265267
 30
0.0
  0
POINT
  5
9104
330
90FB
100
AcDbEntity
  8
DEFPOINTS
  6
Continuous
 62
     0
370
     0
100
AcDbPoint
 10
1488.836929923664
 20
694.0520038167938
 30
0.0
  0
ENDBLK
  5
9106
330
90FB
100
AcDbEntity
  8
0
100
AcDbBlockEnd
  0
BLOCK
  5
9111
330
9107
100
AcDbEntity
  8
0
100
AcDbBlockBegin
  2
_D14
 70
     0
 10
0.0
 20
0.0
 30
0.0
  3
_D14
  1

  0
LINE
  5
9108
330
9107
100
AcDbEntity
  8
1
  6
Continuous
 62
     4
370
    -2
100
AcDbLine
 10
1227.53922
 20
409.6079854484733
 30
0.0
 11
1227.53922
 21
282.2695610687022
 31
0.0
  0
LINE
  5
9109
330
9107
100
AcDbEntity
  8
1
  6
Continuous
 62
     4
370
    -2
100
AcDbLine
 10
1399.867464274809
 20
409.6079854484733
 30
0.0
 11
1399.867464274809
 21
282.2695610687022
 31
0.0
  0
LINE
  5
910A
330
9107
100
AcDbEntity
  8
1
  6
Continuous
 62
     4
370
    -2
100
AcDbLine
 10
1229.53922
 20
283.2695610687022
 30
0.0
 11
1397.867464274809
 21
283.2695610687022
 31
0.0
  0
SOLID
  5
910B
330
9107
100
AcDbEntity
  8
1
  6
Continuous
 62
     4
370
     0
100
AcDbTrace
 10
1229.53922
 20
283.6028944020355
 30
0.0
 11
1229.53922
 21
282.9362277353689
 31
0.0
 12
1227.53922
 22
283.2695610687022
 32
0.0
 13
1227.53922
 23
283.2695610687022
 33
0.0
  0
SOLID
  5
910C
330
9107
100
AcDbEntity
  8
1
  6
Continuous
 62
     4
370
     0
100
AcDbTrace
 10
1397.867464274809
 20
283.6028944020355
 30
0.0
 11
1397.867464274809
 21
282.9362277353689
 31
0.0
 12
1399.867464274809
 22
283.2695610687022
 32
0.0
 13
1399.867464274809
 23
283.2695610687022
 33
0.0
  0
MTEXT
  5
910D
330
9107
100
AcDbEntity
  8
1
  6
Continuous
 62
     2
100
AcDbMText
 10
1313.703342137404
 20
284.5195610687022
 30
0.0
 40
2.5
 41
0.0
 71
     5
 72
     1
  1
\A1; 172.328244 
 73
     1
 44
1.0
1001
ACAD
1000
MTEXTBEGIN
1070
    73
1070
     1
1070
    44
1040
1.0
1070
    74
1070
     0
1000
MTEXTEND
  0
POINT
  5
910E
330
9107
100
AcDbEntity
  8
DEFPOINTS
  6
Continuous
 62
     0
370
     0
100
AcDbPoint
 10
1227.53922
 20
410.6079854484733
 30
0.0
  0
POINT
  5
910F
330
9107
100
AcDbEntity
  8
DEFPOINTS
  6
Continuous
 62
     0
370
     0
100
AcDbPoint
 10
1399.867464274809
 20
410.6079854484733
 30
0.0
  0
POINT
  5
9110
330
9107
100
AcDbEntity
  8
DEFPOINTS
  6
Continuous
 62
     0
370
     0
100
AcDbPoint
 10
1399.867464274809
 20
283.2695610687022
 30
0.0
  0
ENDBLK
  5
9112
330
9107
100
AcDbEntity
  8
0
100
AcDbBlockEnd
  0
BLOCK
  5
911D
330
9113
100
AcDbEntity
  8
0
100
AcDbBlockBegin
  2
_D15
 70
     0
 10
0.0
 20
0.0
 30
0.0
  3
_D15
  1

  0
LINE
  5
9114
330
9113
100
AcDbEntity
  8
1
  6
Continuous
 62
     4
370
    -2
100
AcDbLine
 10
1578.607922290076
 20
-213.57903745229
 30
0.0
 11
1578.607922290076
 21
-253.7514312977099
 31
0.0
  0
LINE
  5
9115
330
9113
100
AcDbEntity
  8
1
  6
Continuous
 62
     4
370
    -2
100
AcDbLine
 10
1648.741510076335
 20
-213.57903745229
 30
0.0
 11
1648.741510076335
 21
-253.7514312977099
 31
0.0
  0
LINE
  5
9116
330
9113
100
AcDbEntity
  8
1
  6
Continuous
 62
     4
370
    -2
100
AcDbLine
 10
1580.607922290076
 20
-252.7514312977099
 30
0.0
 11
1646.741510076335
 21
-252.7514312977099
 31
0.0
  0
SOLID
  5
9117
330
9113
100
AcDbEntity
  8
1
  6
Continuous
 62
     4
370
     0
100
AcDbTrace
 10
1580.607922290076
 20
-252.4180979643765
 30
0.0
 11
1580.607922290076
 21
-253.0847646310432
 31
0.0
 12
1578.607922290076
 22
-252.7514312977099
 32
0.0
 13
1578.607922290076
 23
-252.7514312977099
 33
0.0
  0
SOLID
  5
9118
330
9113
100
AcDbEntity
  8
1
  6
Continuous
 62
     4
370
     0
100
AcDbTrace
 10
1646.741510076335
 20
-252.4180979643765
 30
0.0
 11
1646.741510076335
 21
-253.0847646310432
 31
0.0
 12
1648.741510076335
 22
-252.7514312977099
 32
0.0
 13
1648.741510076335
 23
-252.7514312977099
 33
0.0
  0
MTEXT
  5
9119
330
9113
100
AcDbEntity
  8
1
  6
Continuous
 62
     2
100
AcDbMText
 10
1613.674716183205
 20
-251.5014312977099
 30
0.0
 40
2.5
 41
0.0
 71
     5
 72
     1
  1
\A1; 70.133588 
 73
     1
 44
1.0
1001
ACAD
1000
MTEXTBEGIN
1070
    73
1070
     1
1070
    44
1040
1.0
1070
    74
1070
     0
1000
MTEXTEND
  0
POINT
  5
911A
330
9113
100
AcDbEntity
  8
DEFPOINTS
  6
Continuous
 62
     0
370
     0
100
AcDbPoint
 10
1578.607922290076
 20
-212.57903745229
 30
0.0
  0
POINT
  5
911B
330
9113
100
AcDbEntity
  8
DEFPOINTS
  6
Continuous
 62
     0
370
     0
100
AcDbPoint
 10
1648.741510076335
 20
-212.57903745229
 30
0.0
  0
POINT
  5
911C
330
9113
100
AcDbEntity
  8
DEFPOINTS
  6
Continuous
 62
     0
370
     0
100
AcDbPoint
 10
1648.741510076335
 20
-252.7514312977099
 30
0.0
  0
ENDBLK
  5
911E
330
9113
100
AcDbEntity
  8
0
100
AcDbBlockEnd
  0
BLOCK
  5
9129
330
911F
100
AcDbEntity
  8
0
100
AcDbBlockBegin
  2
_D16
 70
     0
 10
0.0
 20
0.0
 30
0.0
  3
_D16
  1

  0
LINE
  5
9120
330
911F
100
AcDbEntity
  8
1
  6
Continuous
 62
     4
370
    -2
100
AcDbLine
 10
125.7405558778625
 20
404.5984434637404
 30
0.0
 11
125.7405558778625
 21
382.4604007633589
 31
0.0
  0
LINE
  5
9121
330
911F
100
AcDbEntity
  8
1
  6
Continuous
 62
     4
370
    -2
100
AcDbLine
 10
176.8378841221373
 20
404.5984434637404
 30
0.0
 11
176.8378841221373
 21
382.4604007633589
 31
0.0
  0
LINE
  5
9122
330
911F
100
AcDbEntity
  8
1
  6
Continuous
 62
     4
370
    -2
100
AcDbLine
 10
127.7405558778625
 20
383.4604007633588
 30
0.0
 11
174.8378841221373
 21
383.4604007633588
 31
0.0
  0
SOLID
  5
9123
330
911F
100
AcDbEntity
  8
1
  6
Continuous
 62
     4
370
     0
100
AcDbTrace
 10
127.7405558778625
 20
383.7937340966921
 30
0.0
 11
127.7405558778625
 21
383.1270674300255
 31
0.0
 12
125.7405558778625
 22
383.4604007633588
 32
0.0
 13
125.7405558778625
 23
383.4604007633588
 33
0.0
  0
SOLID
  5
9124
330
911F
100
AcDbEntity
  8
1
  6
Continuous
 62
     4
370
     0
100
AcDbTrace
 10
174.8378841221373
 20
383.7937340966921
 30
0.0
 11
174.8378841221373
 21
383.1270674300255
 31
0.0
 12
176.8378841221373
 22
383.4604007633588
 32
0.0
 13
176.8378841221373
 23
383.4604007633588
 33
0.0
  0
MTEXT
  5
9125
330
911F
100
AcDbEntity
  8
1
  6
Continuous
 62
     2
100
AcDbMText
 10
151.2892199999999
 20
384.7104007633589
 30
0.0
 40
2.5
 41
0.0
 71
     5
 72
     1
  1
\A1; 51.097328 
 73
     1
 44
1.0
1001
ACAD
1000
MTEXTBEGIN
1070
    73
1070
     1
1070
    44
1040
1.0
1070
    74
1070
     0
1000
MTEXTEND
  0
POINT
  5
9126
330
911F
100
AcDbEntity
  8
DEFPOINTS
  6
Continuous
 62
     0
370
     0
100
AcDbPoint
 10
125.7405558778625
 20
405.5984434637403
 30
0.0
  0
POINT
  5
9127
330
911F
100
AcDbEntity
  8
DEFPOINTS
  6
Continuous
 62
     0
370
     0
100
AcDbPoint
 10
176.8378841221373
 20
405.5984434637403
 30
0.0
  0
POINT
  5
9128
330
911F
100
AcDbEntity
  8
DEFPOINTS
  6
Continuous
 62
     0
370
     0
100
AcDbPoint
 10
176.8378841221373
 20
383.4604007633588
 30
0.0
  0
ENDBLK
  5
912A
330
911F
100
AcDbEntity
  8
0
100
AcDbBlockEnd
  0
BLOCK
  5
9135
330
912B
100
AcDbEntity
  8
0
100
AcDbBlockBegin
  2
_D17
 70
     0
 10
0.0
 20
0.0
 30
0.0
  3
_D17
  1

  0
LINE
  5
912C
330
912B
100
AcDbEntity
  8
1
  6
Continuous
 62
     4
370
    -2
100
AcDbLine
 10
456.370326870229
 20
404.5984434637404
 30
0.0
 11
456.370326870229
 21
382.4604007633589
 31
0.0
  0
LINE
  5
912D
330
912B
100
AcDbEntity
  8
1
  6
Continuous
 62
     4
370
    -2
100
AcDbLine
 10
507.4676551145038
 20
404.5984434637404
 30
0.0
 11
507.4676551145038
 21
382.4604007633589
 31
0.0
  0
LINE
  5
912E
330
912B
100
AcDbEntity
  8
1
  6
Continuous
 62
     4
370
    -2
100
AcDbLine
 10
458.3703268702287
 20
383.4604007633588
 30
0.0
 11
505.4676551145036
 21
383.4604007633588
 31
0.0
  0
SOLID
  5
912F
330
912B
100
AcDbEntity
  8
1
  6
Continuous
 62
     4
370
     0
100
AcDbTrace
 10
458.3703268702287
 20
383.7937340966921
 30
0.0
 11
458.3703268702287
 21
383.1270674300255
 31
0.0
 12
456.370326870229
 22
383.4604007633588
 32
0.0
 13
456.370326870229
 23
383.4604007633588
 33
0.0
  0
SOLID
  5
9130
330
912B
100
AcDbEntity
  8
1
  6
Continuous
 62
     4
370
     0
100
AcDbTrace
 10
505.4676551145036
 20
383.7937340966921
 30
0.0
 11
505.4676551145036
 21
383.1270674300255
 31
0.0
 12
507.4676551145038
 22
383.4604007633588
 32
0.0
 13
507.4676551145038
 23
383.4604007633588
 33
0.0
  0
MTEXT
  5
9131
330
912B
100
AcDbEntity
  8
1
  6
Continuous
 62
     2
100
AcDbMText
 10
481.9189909923664
 20
384.7104007633589
 30
0.0
 40
2.5
 41
0.0
 71
     5
 72
     1
  1
\A1; 51.097328 
 73
     1
 44
1.0
1001
ACAD
1000
MTEXTBEGIN
1070
    73
1070
     1
1070
    44
1040
1.0
1070
    74
1070
     0
1000
MTEXTEND
  0
POINT
  5
9132
330
912B
100
AcDbEntity
  8
DEFPOINTS
  6
Continuous
 62
     0
370
     0
100
AcDbPoint
 10
456.370326870229
 20
405.5984434637403
 30
0.0
  0
POINT
  5
9133
330
912B
100
AcDbEntity
  8
DEFPOINTS
  6
Continuous
 62
     0
370
     0
100
AcDbPoint
 10
507.4676551145038
 20
405.5984434637403
 30
0.0
  0
POINT
  5
9134
330
912B
100
AcDbEntity
  8
DEFPOINTS
  6
Continuous
 62
     0
370
     0
100
AcDbPoint
 10
507.4676551145038
 20
383.4604007633588
 30
0.0
  0
ENDBLK
  5
9136
330
912B
100
AcDbEntity
  8
0
100
AcDbBlockEnd
  0
BLOCK
  5
9141
330
9137
100
AcDbEntity
  8
0
100
AcDbBlockBegin
  2
_D18
 70
     0
 10
0.0
 20
0.0
 30
0.0
  3
_D18
  1

  0
LINE
  5
9138
330
9137
100
AcDbEntity
  8
1
  6
Continuous
 62
     4
370
    -2
100
AcDbLine
 10
66.12700625954198
 20
501.7797411736641
 30
0.0
 11
66.12700625954198
 21
534.7466603053436
 31
0.0
  0
LINE
  5
9139
330
9137
100
AcDbEntity
  8
1
  6
Continuous
 62
     4
370
    -2
100
AcDbLine
 10
236.451433740458
 20
501.7797411736641
 30
0.0
 11
236.451433740458
 21
534.7466603053436
 31
0.0
  0
LINE
  5
913A
330
9137
100
AcDbEntity
  8
1
  6
Continuous
 62
     4
370
    -2
100
AcDbLine
 10
68.12700625954199
 20
533.7466603053436
 30
0.0
 11
234.451433740458
 21
533.7466603053436
 31
0.0
  0
SOLID
  5
913B
330
9137
100
AcDbEntity
  8
1
  6
Continuous
 62
     4
370
     0
100
AcDbTrace
 10
68.12700625954199
 20
534.079993638677
 30
0.0
 11
68.12700625954199
 21
533.4133269720101
 31
0.0
 12
66.12700625954198
 22
533.7466603053436
 32
0.0
 13
66.12700625954198
 23
533.7466603053436
 33
0.0
  0
SOLID
  5
913C
330
9137
100
AcDbEntity
  8
1
  6
Continuous
 62
     4
370
     0
100
AcDbTrace
 10
234.451433740458
 20
534.079993638677
 30
0.0
 11
234.451433740458
 21
533.4133269720101
 31
0.0
 12
236.451433740458
 22
533.7466603053436
 32
0.0
 13
236.451433740458
 23
533.7466603053436
 33
0.0
  0
MTEXT
  5
913D
330
9137
100
AcDbEntity
  8
1
  6
Continuous
 62
     2
100
AcDbMText
 10
151.28922
 20
534.9966603053436
 30
0.0
 40
2.5
 41
0.0
 71
     5
 72
     1
  1
\A1; 170.324427 
 73
     1
 44
1.0
1001
ACAD
1000
MTEXTBEGIN
1070
    73
1070
     1
1070
    44
1040
1.0
1070
    74
1070
     0
1000
MTEXTEND
  0
POINT
  5
913E
330
9137
100
AcDbEntity
  8
DEFPOINTS
  6
Continuous
 62
     0
370
     0
100
AcDbPoint
 10
66.12700625954198
 20
500.7797411736641
 30
0.0
  0
POINT
  5
913F
330
9137
100
AcDbEntity
  8
DEFPOINTS
  6
Continuous
 62
     0
370
     0
100
AcDbPoint
 10
236.451433740458
 20
500.7797411736641
 30
0.0
  0
POINT
  5
9140
330
9137
100
AcDbEntity
  8
DEFPOINTS
  6
Continuous
 62
     0
370
     0
100
AcDbPoint
 10
236.451433740458
 20
533.7466603053436
 30
0.0
  0
ENDBLK
  5
9142
330
9137
100
AcDbEntity
  8
0
100
AcDbBlockEnd
  0
BLOCK
  5
914D
330
9143
100
AcDbEntity
  8
0
100
AcDbBlockBegin
  2
_D19
 70
     0
 10
0.0
 20
0.0
 30
0.0
  3
_D19
  1

  0
LINE
  5
9144
330
9143
100
AcDbEntity
  8
1
  6
Continuous
 62
     4
370
    -2
100
AcDbLine
 10
396.7567772519083
 20
501.7797411736641
 30
0.0
 11
396.7567772519083
 21
534.7466603053436
 31
0.0
  0
LINE
  5
9145
330
9143
100
AcDbEntity
  8
1
  6
Continuous
 62
     4
370
    -2
100
AcDbLine
 10
567.0812047328245
 20
501.7797411736641
 30
0.0
 11
567.0812047328245
 21
534.7466603053436
 31
0.0
  0
LINE
  5
9146
330
9143
100
AcDbEntity
  8
1
  6
Continuous
 62
     4
370
    -2
100
AcDbLine
 10
398.7567772519083
 20
533.7466603053436
 30
0.0
 11
565.0812047328245
 21
533.7466603053436
 31
0.0
  0
SOLID
  5
9147
330
9143
100
AcDbEntity
  8
1
  6
Continuous
 62
     4
370
     0
100
AcDbTrace
 10
398.7567772519083
 20
534.079993638677
 30
0.0
 11
398.7567772519083
 21
533.4133269720101
 31
0.0
 12
396.7567772519083
 22
533.7466603053436
 32
0.0
 13
396.7567772519083
 23
533.7466603053436
 33
0.0
  0
SOLID
  5
9148
330
9143
100
AcDbEntity
  8
1
  6
Continuous
 62
     4
370
     0
100
AcDbTrace
 10
565.0812047328245
 20
534.079993638677
 30
0.0
 11
565.0812047328245
 21
533.4133269720101
 31
0.0
 12
567.0812047328245
 22
533.7466603053436
 32
0.0
 13
567.0812047328245
 23
533.7466603053436
 33
0.0
  0
MTEXT
  5
9149
330
9143
100
AcDbEntity
  8
1
  6
Continuous
 62
     2
100
AcDbMText
 10
481.9189909923664
 20
534.9966603053436
 30
0.0
 40
2.5
 41
0.0
 71
     5
 72
     1
  1
\A1; 170.324427 
 73
     1
 44
1.0
1001
ACAD
1000
MTEXTBEGIN
1070
    73
1070
     1
1070
    44
1040
1.0
1070
    74
1070
     0
1000
MTEXTEND
  0
POINT
  5
914A
330
9143
100
AcDbEntity
  8
DEFPOINTS
  6
Continuous
 62
     0
370
     0
100
AcDbPoint
 10
396.7567772519083
 20
500.7797411736641
 30
0.0
  0
POINT
  5
914B
330
9143
100
AcDbEntity
  8
DEFPOINTS
  6
Continuous
 62
     0
370
     0
100
AcDbPoint
 10
567.0812047328245
 20
500.7797411736641
 30
0.0
  0
POINT
  5
914C
330
9143
100
AcDbEntity
  8
DEFPOINTS
  6
Continuous
 62
     0
370
     0
100
AcDbPoint
 10
567.0812047328245
 20
533.7466603053436
 30
0.0
  0
ENDBLK
  5
914E
330
9143
100
AcDbEntity
  8
0
100
AcDbBlockEnd
  0
BLOCK
  5
9159
330
914F
100
AcDbEntity
  8
0
100
AcDbBlockBegin
  2
_D20
 70
     0
 10
0.0
 20
0.0
 30
0.0
  3
_D20
  1

  0
LINE
  5
9150
330
914F
100
AcDbEntity
  8
1
  6
Continuous
 62
     4
370
    -2
100
AcDbLine
 10
201.1842581679389
 20
237.2797411736641
 30
0.0
 11
201.1842581679389
 21
212.1359732824428
 31
0.0
  0
LINE
  5
9151
330
914F
100
AcDbEntity
  8
1
  6
Continuous
 62
     4
370
    -2
100
AcDbLine
 10
241.2605940458015
 20
237.2797411736641
 30
0.0
 11
241.2605940458015
 21
212.1359732824428
 31
0.0
  0
LINE
  5
9152
330
914F
100
AcDbEntity
  8
1
  6
Continuous
 62
     4
370
    -2
100
AcDbLine
 10
203.1842581679389
 20
213.1359732824428
 30
0.0
 11
239.2605940458015
 21
213.1359732824428
 31
0.0
  0
SOLID
  5
9153
330
914F
100
AcDbEntity
  8
1
  6
Continuous
 62
     4
370
     0
100
AcDbTrace
 10
203.1842581679389
 20
213.4693066157761
 30
0.0
 11
203.1842581679389
 21
212.8026399491094
 31
0.0
 12
201.1842581679389
 22
213.1359732824428
 32
0.0
 13
201.1842581679389
 23
213.1359732824428
 33
0.0
  0
SOLID
  5
9154
330
914F
100
AcDbEntity
  8
1
  6
Continuous
 62
     4
370
     0
100
AcDbTrace
 10
239.2605940458015
 20
213.4693066157761
 30
0.0
 11
239.2605940458015
 21
212.8026399491094
 31
0.0
 12
241.2605940458015
 22
213.1359732824428
 32
0.0
 13
241.2605940458015
 23
213.1359732824428
 33
0.0
  0
MTEXT
  5
9155
330
914F
100
AcDbEntity
  8
1
  6
Continuous
 62
     2
100
AcDbMText
 10
221.2224261068702
 20
214.3859732824428
 30
0.0
 40
2.5
 41
0.0
 71
     5
 72
     1
  1
\A1; 40.076336 
 73
     1
 44
1.0
1001
ACAD
1000
MTEXTBEGIN
1070
    73
1070
     1
1070
    44
1040
1.0
1070
    74
1070
     0
1000
MTEXTEND
  0
POINT
  5
9156
330
914F
100
AcDbEntity
  8
DEFPOINTS
  6
Continuous
 62
     0
370
     0
100
AcDbPoint
 10
201.1842581679389
 20
238.279741173664
 30
0.0
  0
POINT
  5
9157
330
914F
100
AcDbEntity
  8
DEFPOINTS
  6
Continuous
 62
     0
370
     0
100
AcDbPoint
 10
241.2605940458015
 20
238.279741173664
 30
0.0
  0
POINT
  5
9158
330
914F
100
AcDbEntity
  8
DEFPOINTS
  6
Continuous
 62
     0
370
     0
100
AcDbPoint
 10
241.2605940458015
 20
213.1359732824428
 30
0.0
  0
ENDBLK
  5
915A
330
914F
100
AcDbEntity
  8
0
100
AcDbBlockEnd
  0
BLOCK
  5
9166
330
915B
100
AcDbEntity
  8
0
100
AcDbBlockBegin
  2
_D21
 70
     0
 10
0.0
 20
0.0
 30
0.0
  3
_D21
  1

  0
LINE
  5
915C
330
915B
100
AcDbEntity
  8
1
  6
Continuous
 62
     4
370
    -2
100
AcDbLine
 10
214.7100215267175
 20
632.0278327767177
 30
0.0
 11
214.7100215267175
 21
651.7881164122137
 31
0.0
  0
LINE
  5
915D
330
915B
100
AcDbEntity
  8
1
  6
Continuous
 62
     4
370
    -2
100
AcDbLine
 10
227.7348306870228
 20
632.0278327767177
 30
0.0
 11
227.7348306870228
 21
651.7881164122137
 31
0.0
  0
LINE
  5
915E
330
915B
100
AcDbEntity
  8
1
  6
Continuous
 62
     4
370
    -2
100
AcDbLine
 10
216.7100215267175
 20
650.7881164122137
 30
0.0
 11
225.7348306870228
 21
650.7881164122137
 31
0.0
  0
LINE
  5
915F
330
915B
100
AcDbEntity
  8
1
  6
Continuous
 62
     4
370
    -2
100
AcDbLine
 10
227.7348306870228
 20
650.7881164122137
 30
0.0
 11
250.5681640203561
 21
650.7881164122137
 31
0.0
  0
SOLID
  5
9160
330
915B
100
AcDbEntity
  8
1
  6
Continuous
 62
     4
370
     0
100
AcDbTrace
 10
216.7100215267175
 20
651.1214497455471
 30
0.0
 11
216.7100215267175
 21
650.4547830788802
 31
0.0
 12
214.7100215267175
 22
650.7881164122137
 32
0.0
 13
214.7100215267175
 23
650.7881164122137
 33
0.0
  0
SOLID
  5
9161
330
915B
100
AcDbEntity
  8
1
  6
Continuous
 62
     4
370
     0
100
AcDbTrace
 10
225.7348306870228
 20
651.1214497455471
 30
0.0
 11
225.7348306870228
 21
650.4547830788802
 31
0.0
 12
227.7348306870228
 22
650.7881164122137
 32
0.0
 13
227.7348306870228
 23
650.7881164122137
 33
0.0
  0
MTEXT
  5
9162
330
915B
100
AcDbEntity
  8
1
  6
Continuous
 62
     2
100
AcDbMText
 10
240.1514973536895
 20
652.0381164122137
 30
0.0
 40
2.5
 41
0.0
 71
     5
 72
     1
  1
\A1; 13.024809 
 73
     1
 44
1.0
1001
ACAD
1000
MTEXTBEGIN
1070
    73
1070
     1
1070
    44
1040
1.0
1070
    74
1070
     0
1000
MTEXTEND
  0
POINT
  5
9163
330
915B
100
AcDbEntity
  8
DEFPOINTS
  6
Continuous
 62
     0
370
     0
100
AcDbPoint
 10
214.7100215267175
 20
631.0278327767178
 30
0.0
  0
POINT
  5
9164
330
915B
100
AcDbEntity
  8
DEFPOINTS
  6
Continuous
 62
     0
370
     0
100
AcDbPoint
 10
227.7348306870228
 20
631.0278327767178
 30
0.0
  0
POINT
  5
9165
330
915B
100
AcDbEntity
  8
DEFPOINTS
  6
Continuous
 62
     0
370
     0
100
AcDbPoint
 10
227.7348306870228
 20
650.7881164122137
 30
0.0
  0
ENDBLK
  5
9167
330
915B
100
AcDbEntity
  8
0
100
AcDbBlockEnd
  0
BLOCK
  5
9172
330
9168
100
AcDbEntity
  8
0
100
AcDbBlockBegin
  2
_D22
 70
     0
 10
0.0
 20
0.0
 30
0.0
  3
_D22
  1

  0
LINE
  5
9169
330
9168
100
AcDbEntity
  8
1
  6
Continuous
 62
     4
370
    -2
100
AcDbLine
 10
962.0334948091603
 20
404.5984434637404
 30
0.0
 11
962.0334948091603
 21
157.0310114503817
 31
0.0
  0
LINE
  5
916A
330
9168
100
AcDbEntity
  8
1
  6
Continuous
 62
     4
370
    -2
100
AcDbLine
 10
1065.230059694656
 20
317.4324129293893
 30
0.0
 11
1065.230059694656
 21
157.0310114503817
 31
0.0
  0
LINE
  5
916B
330
9168
100
AcDbEntity
  8
1
  6
Continuous
 62
     4
370
    -2
100
AcDbLine
 10
964.0334948091602
 20
158.0310114503816
 30
0.0
 11
1063.230059694656
 21
158.0310114503816
 31
0.0
  0
SOLID
  5
916C
330
9168
100
AcDbEntity
  8
1
  6
Continuous
 62
     4
370
     0
100
AcDbTrace
 10
964.0334948091602
 20
158.364344783715
 30
0.0
 11
964.0334948091602
 21
157.6976781170483
 31
0.0
 12
962.0334948091603
 22
158.0310114503816
 32
0.0
 13
962.0334948091603
 23
158.0310114503816
 33
0.0
  0
SOLID
  5
916D
330
9168
100
AcDbEntity
  8
1
  6
Continuous
 62
     4
370
     0
100
AcDbTrace
 10
1063.230059694656
 20
158.364344783715
 30
0.0
 11
1063.230059694656
 21
157.6976781170483
 31
0.0
 12
1065.230059694656
 22
158.0310114503816
 32
0.0
 13
1065.230059694656
 23
158.0310114503816
 33
0.0
  0
MTEXT
  5
916E
330
9168
100
AcDbEntity
  8
1
  6
Continuous
 62
     2
100
AcDbMText
 10
1013.631777251908
 20
159.2810114503816
 30
0.0
 40
2.5
 41
0.0
 71
     5
 72
     1
  1
\A1; 103.196565 
 73
     1
 44
1.0
1001
ACAD
1000
MTEXTBEGIN
1070
    73
1070
     1
1070
    44
1040
1.0
1070
    74
1070
     0
1000
MTEXTEND
  0
POINT
  5
916F
330
9168
100
AcDbEntity
  8
DEFPOINTS
  6
Continuous
 62
     0
370
     0
100
AcDbPoint
 10
962.0334948091603
 20
405.5984434637403
 30
0.0
  0
POINT
  5
9170
330
9168
100
AcDbEntity
  8
DEFPOINTS
  6
Continuous
 62
     0
370
     0
100
AcDbPoint
 10
1065.230059694656
 20
318.4324129293893
 30
0.0
  0
POINT
  5
9171
330
9168
100
AcDbEntity
  8
DEFPOINTS
  6
Continuous
 62
     0
370
     0
100
AcDbPoint
 10
1065.230059694656
 20
158.0310114503816
 30
0.0
  0
ENDBLK
  5
9173
330
9168
100
AcDbEntity
  8
0
100
AcDbBlockEnd
  0
BLOCK
  5
917E
330
9174
100
AcDbEntity
  8
0
100
AcDbBlockBegin
  2
_D23
 70
     0
 10
0.0
 20
0.0
 30
0.0
  3
_D23
  1

  0
LINE
  5
9175
330
9174
100
AcDbEntity
  8
1
  6
Continuous
 62
     4
370
    -2
100
AcDbLine
 10
958.0258612213739
 20
404.5984434637404
 30
0.0
 11
958.0258612213739
 21
101.9260496183205
 31
0.0
  0
LINE
  5
9176
330
9174
100
AcDbEntity
  8
1
  6
Continuous
 62
     4
370
    -2
100
AcDbLine
 10
1065.230059694656
 20
317.4324129293893
 30
0.0
 11
1065.230059694656
 21
101.9260496183205
 31
0.0
  0
LINE
  5
9177
330
9174
100
AcDbEntity
  8
1
  6
Continuous
 62
     4
370
    -2
100
AcDbLine
 10
960.0258612213741
 20
102.9260496183205
 30
0.0
 11
1063.230059694656
 21
102.9260496183205
 31
0.0
  0
SOLID
  5
9178
330
9174
100
AcDbEntity
  8
1
  6
Continuous
 62
     4
370
     0
100
AcDbTrace
 10
960.0258612213741
 20
103.2593829516539
 30
0.0
 11
960.0258612213741
 21
102.5927162849872
 31
0.0
 12
958.0258612213739
 22
102.9260496183205
 32
0.0
 13
958.0258612213739
 23
102.9260496183205
 33
0.0
  0
SOLID
  5
9179
330
9174
100
AcDbEntity
  8
1
  6
Continuous
 62
     4
370
     0
100
AcDbTrace
 10
1063.230059694656
 20
103.2593829516539
 30
0.0
 11
1063.230059694656
 21
102.5927162849872
 31
0.0
 12
1065.230059694656
 22
102.9260496183205
 32
0.0
 13
1065.230059694656
 23
102.9260496183205
 33
0.0
  0
MTEXT
  5
917A
330
9174
100
AcDbEntity
  8
1
  6
Continuous
 62
     2
100
AcDbMText
 10
1011.627960458015
 20
104.1760496183205
 30
0.0
 40
2.5
 41
0.0
 71
     5
 72
     1
  1
\A1; 107.204198 
 73
     1
 44
1.0
1001
ACAD
1000
MTEXTBEGIN
1070
    73
1070
     1
1070
    44
1040
1.0
1070
    74
1070
     0
1000
MTEXTEND
  0
POINT
  5
917B
330
9174
100
AcDbEntity
  8
DEFPOINTS
  6
Continuous
 62
     0
370
     0
100
AcDbPoint
 10
958.0258612213739
 20
405.5984434637403
 30
0.0
  0
POINT
  5
917C
330
9174
100
AcDbEntity
  8
DEFPOINTS
  6
Continuous
 62
     0
370
     0
100
AcDbPoint
 10
1065.230059694656
 20
318.4324129293893
 30
0.0
  0
POINT
  5
917D
330
9174
100
AcDbEntity
  8
DEFPOINTS
  6
Continuous
 62
     0
370
     0
100
AcDbPoint
 10
1065.230059694656
 20
102.9260496183205
 30
0.0
  0
ENDBLK
  5
917F
330
9174
100
AcDbEntity
  8
0
100
AcDbBlockEnd
  0
BLOCK
  5
918A
330
9180
100
AcDbEntity
  8
0
100
AcDbBlockBegin
  2
_D24
 70
     0
 10
0.0
 20
0.0
 30
0.0
  3
_D24
  1

  0
LINE
  5
9181
330
9180
100
AcDbEntity
  8
1
  6
Continuous
 62
     4
370
    -2
100
AcDbLine
 10
919.9533421374047
 20
460.7034052958016
 30
0.0
 11
919.9533421374047
 21
-18.30295801526711
 31
0.0
  0
LINE
  5
9182
330
9180
100
AcDbEntity
  8
1
  6
Continuous
 62
     4
370
    -2
100
AcDbLine
 10
1065.230059694656
 20
318.4324129293893
 30
0.0
 11
1065.230059694656
 21
-18.30295801526711
 31
0.0
  0
LINE
  5
9183
330
9180
100
AcDbEntity
  8
1
  6
Continuous
 62
     4
370
    -2
100
AcDbLine
 10
921.9533421374048
 20
-17.3029580152671
 30
0.0
 11
1063.230059694656
 21
-17.3029580152671
 31
0.0
  0
SOLID
  5
9184
330
9180
100
AcDbEntity
  8
1
  6
Continuous
 62
     4
370
     0
100
AcDbTrace
 10
921.9533421374048
 20
-16.96962468193377
 30
0.0
 11
921.9533421374048
 21
-17.63629134860044
 31
0.0
 12
919.9533421374047
 22
-17.3029580152671
 32
0.0
 13
919.9533421374047
 23
-17.3029580152671
 33
0.0
  0
SOLID
  5
9185
330
9180
100
AcDbEntity
  8
1
  6
Continuous
 62
     4
370
     0
100
AcDbTrace
 10
1063.230059694656
 20
-16.96962468193377
 30
0.0
 11
1063.230059694656
 21
-17.63629134860044
 31
0.0
 12
1065.230059694656
 22
-17.3029580152671
 32
0.0
 13
1065.230059694656
 23
-17.3029580152671
 33
0.0
  0
MTEXT
  5
9186
330
9180
100
AcDbEntity
  8
1
  6
Continuous
 62
     2
100
AcDbMText
 10
992.5917009160308
 20
-16.0529580152671
 30
0.0
 40
2.5
 41
0.0
 71
     5
 72
     1
  1
\A1; 145.276718 
 73
     1
 44
1.0
1001
ACAD
1000
MTEXTBEGIN
1070
    73
1070
     1
1070
    44
1040
1.0
1070
    74
1070
     0
1000
MTEXTEND
  0
POINT
  5
9187
330
9180
100
AcDbEntity
  8
DEFPOINTS
  6
Continuous
 62
     0
370
     0
100
AcDbPoint
 10
919.9533421374047
 20
460.7034052958016
 30
0.0
  0
POINT
  5
9188
330
9180
100
AcDbEntity
  8
DEFPOINTS
  6
Continuous
 62
     0
370
     0
100
AcDbPoint
 10
1065.230059694656
 20
318.4324129293893
 30
0.0
  0
POINT
  5
9189
330
9180
100
AcDbEntity
  8
DEFPOINTS
  6
Continuous
 62
     0
370
     0
100
AcDbPoint
 10
1065.230059694656
 20
-17.3029580152671
 30
0.0
  0
ENDBLK
  5
918B
330
9180
100
AcDbEntity
  8
0
100
AcDbBlockEnd
  0
BLOCK
  5
9196
330
918C
100
AcDbEntity
  8
0
100
AcDbBlockBegin
  2
_D25
 70
     0
 10
0.0
 20
0.0
 30
0.0
  3
_D25
  1

  0
LINE
  5
918D
330
918C
100
AcDbEntity
  8
1
  6
Continuous
 62
     4
370
    -2
100
AcDbLine
 10
1318.512502442748
 20
-213.57903745229
 30
0.0
 11
1318.512502442748
 21
-253.7514312977099
 31
0.0
  0
LINE
  5
918E
330
918C
100
AcDbEntity
  8
1
  6
Continuous
 62
     4
370
    -2
100
AcDbLine
 10
1388.646090229007
 20
-213.57903745229
 30
0.0
 11
1388.646090229007
 21
-253.7514312977099
 31
0.0
  0
LINE
  5
918F
330
918C
100
AcDbEntity
  8
1
  6
Continuous
 62
     4
370
    -2
100
AcDbLine
 10
1320.512502442748
 20
-252.7514312977099
 30
0.0
 11
1386.646090229007
 21
-252.7514312977099
 31
0.0
  0
SOLID
  5
9190
330
918C
100
AcDbEntity
  8
1
  6
Continuous
 62
     4
370
     0
100
AcDbTrace
 10
1320.512502442748
 20
-252.4180979643765
 30
0.0
 11
1320.512502442748
 21
-253.0847646310432
 31
0.0
 12
1318.512502442748
 22
-252.7514312977099
 32
0.0
 13
1318.512502442748
 23
-252.7514312977099
 33
0.0
  0
SOLID
  5
9191
330
918C
100
AcDbEntity
  8
1
  6
Continuous
 62
     4
370
     0
100
AcDbTrace
 10
1386.646090229007
 20
-252.4180979643765
 30
0.0
 11
1386.646090229007
 21
-253.0847646310432
 31
0.0
 12
1388.646090229007
 22
-252.7514312977099
 32
0.0
 13
1388.646090229007
 23
-252.7514312977099
 33
0.0
  0
MTEXT
  5
9192
330
918C
100
AcDbEntity
  8
1
  6
Continuous
 62
     2
100
AcDbMText
 10
1353.579296335878
 20
-251.5014312977099
 30
0.0
 40
2.5
 41
0.0
 71
     5
 72
     1
  1
\A1; 70.133588 
 73
     1
 44
1.0
1001
ACAD
1000
MTEXTBEGIN
1070
    73
1070
     1
1070
    44
1040
1.0
1070
    74
1070
     0
1000
MTEXTEND
  0
POINT
  5
9193
330
918C
100
AcDbEntity
  8
DEFPOINTS
  6
Continuous
 62
     0
370
     0
100
AcDbPoint
 10
1318.512502442748
 20
-212.57903745229
 30
0.0
  0
POINT
  5
9194
330
918C
100
AcDbEntity
  8
DEFPOINTS
  6
Continuous
 62
     0
370
     0
100
AcDbPoint
 10
1388.646090229007
 20
-212.57903745229
 30
0.0
  0
POINT
  5
9195
330
918C
100
AcDbEntity
  8
DEFPOINTS
  6
Continuous
 62
     0
370
     0
100
AcDbPoint
 10
1388.646090229007
 20
-252.7514312977099
 30
0.0
  0
ENDBLK
  5
9197
330
918C
100
AcDbEntity
  8
0
100
AcDbBlockEnd
  0
BLOCK
  5
91A2
330
9198
100
AcDbEntity
  8
0
100
AcDbBlockBegin
  2
_D26
 70
     0
 10
0.0
 20
0.0
 30
0.0
  3
_D26
  1

  0
LINE
  5
9199
330
9198
100
AcDbEntity
  8
1
  6
Continuous
 62
     4
370
    -2
100
AcDbLine
 10
1037.176624580152
 20
352.7458671278627
 30
0.0
 11
1037.176624580152
 21
384.4604007633589
 31
0.0
  0
LINE
  5
919A
330
9198
100
AcDbEntity
  8
1
  6
Continuous
 62
     4
370
    -2
100
AcDbLine
 10
1005.866987175572
 20
378.1984732824428
 30
0.0
 11
1005.866987175572
 21
384.4604007633589
 31
0.0
  0
LINE
  5
919B
330
9198
100
AcDbEntity
  8
1
  6
Continuous
 62
     4
370
    -2
100
AcDbLine
 10
1035.176624580152
 20
383.4604007633588
 30
0.0
 11
1007.866987175572
 21
383.4604007633588
 31
0.0
  0
SOLID
  5
919C
330
9198
100
AcDbEntity
  8
1
  6
Continuous
 62
     4
370
     0
100
AcDbTrace
 10
1035.176624580152
 20
383.7937340966921
 30
0.0
 11
1035.176624580152
 21
383.1270674300255
 31
0.0
 12
1037.176624580152
 22
383.4604007633588
 32
0.0
 13
1037.176624580152
 23
383.4604007633588
 33
0.0
  0
SOLID
  5
919D
330
9198
100
AcDbEntity
  8
1
  6
Continuous
 62
     4
370
     0
100
AcDbTrace
 10
1007.866987175572
 20
383.7937340966921
 30
0.0
 11
1007.866987175572
 21
383.1270674300255
 31
0.0
 12
1005.866987175572
 22
383.4604007633588
 32
0.0
 13
1005.866987175572
 23
383.4604007633588
 33
0.0
  0
MTEXT
  5
919E
330
9198
100
AcDbEntity
  8
1
  6
Continuous
 62
     2
100
AcDbMText
 10
1021.521805877862
 20
384.7104007633589
 30
0.0
 40
2.5
 41
0.0
 71
     5
 72
     1
  1
\A1; 31.309637 
 73
     1
 44
1.0
1001
ACAD
1000
MTEXTBEGIN
1070
    73
1070
     1
1070
    44
1040
1.0
1070
    74
1070
     0
1000
MTEXTEND
  0
POINT
  5
919F
330
9198
100
AcDbEntity
  8
DEFPOINTS
  6
Continuous
 62
     0
370
     0
100
AcDbPoint
 10
1037.176624580152
 20
351.7458671278626
 30
0.0
  0
POINT
  5
91A0
330
9198
100
AcDbEntity
  8
DEFPOINTS
  6
Continuous
 62
     0
370
     0
100
AcDbPoint
 10
1005.866987175572
 20
377.1984732824428
 30
0.0
  0
POINT
  5
91A1
330
9198
100
AcDbEntity
  8
DEFPOINTS
  6
Continuous
 62
     0
370
     0
100
AcDbPoint
 10
1005.866987175572
 20
383.4604007633588
 30
0.0
  0
ENDBLK
  5
91A3
330
9198
100
AcDbEntity
  8
0
100
AcDbBlockEnd
  0
BLOCK
  5
91AE
330
91A4
100
AcDbEntity
  8
0
100
AcDbBlockBegin
  2
_D27
 70
     0
 10
0.0
 20
0.0
 30
0.0
  3
_D27
  1

  0
LINE
  5
91A5
330
91A4
100
AcDbEntity
  8
1
  6
Continuous
 62
     4
370
    -2
100
AcDbLine
 10
1078.254868854962
 20
348.4877564408396
 30
0.0
 11
1078.254868854962
 21
384.4604007633589
 31
0.0
  0
LINE
  5
91A6
330
91A4
100
AcDbEntity
  8
1
  6
Continuous
 62
     4
370
    -2
100
AcDbLine
 10
1106.877097385496
 20
378.1984732824428
 30
0.0
 11
1106.877097385496
 21
384.4604007633589
 31
0.0
  0
LINE
  5
91A7
330
91A4
100
AcDbEntity
  8
1
  6
Continuous
 62
     4
370
    -2
100
AcDbLine
 10
1080.254868854962
 20
383.4604007633588
 30
0.0
 11
1104.877097385496
 21
383.4604007633588
 31
0.0
  0
SOLID
  5
91A8
330
91A4
100
AcDbEntity
  8
1
  6
Continuous
 62
     4
370
     0
100
AcDbTrace
 10
1080.254868854962
 20
383.7937340966921
 30
0.0
 11
1080.254868854962
 21
383.1270674300255
 31
0.0
 12
1078.254868854962
 22
383.4604007633588
 32
0.0
 13
1078.254868854962
 23
383.4604007633588
 33
0.0
  0
SOLID
  5
91A9
330
91A4
100
AcDbEntity
  8
1
  6
Continuous
 62
     4
370
     0
100
AcDbTrace
 10
1104.877097385496
 20
383.7937340966921
 30
0.0
 11
1104.877097385496
 21
383.1270674300255
 31
0.0
 12
1106.877097385496
 22
383.4604007633588
 32
0.0
 13
1106.877097385496
 23
383.4604007633588
 33
0.0
  0
MTEXT
  5
91AA
330
91A4
100
AcDbEntity
  8
1
  6
Continuous
 62
     2
100
AcDbMText
 10
1092.565983120229
 20
384.7104007633589
 30
0.0
 40
2.5
 41
0.0
 71
     5
 72
     1
  1
\A1; 28.622229 
 73
     1
 44
1.0
1001
ACAD
1000
MTEXTBEGIN
1070
    73
1070
     1
1070
    44
1040
1.0
1070
    74
1070
     0
1000
MTEXTEND
  0
POINT
  5
91AB
330
91A4
100
AcDbEntity
  8
DEFPOINTS
  6
Continuous
 62
     0
370
     0
100
AcDbPoint
 10
1078.254868854962
 20
347.4877564408397
 30
0.0
  0
POINT
  5
91AC
330
91A4
100
AcDbEntity
  8
DEFPOINTS
  6
Continuous
 62
     0
370
     0
100
AcDbPoint
 10
1106.877097385496
 20
377.1984732824428
 30
0.0
  0
POINT
  5
91AD
330
91A4
100
AcDbEntity
  8
DEFPOINTS
  6
Continuous
 62
     0
370
     0
100
AcDbPoint
 10
1106.877097385496
 20
383.4604007633588
 30
0.0
  0
ENDBLK
  5
91AF
330
91A4
100
AcDbEntity
  8
0
100
AcDbBlockEnd
  0
BLOCK
  5
91BA
330
91B0
100
AcDbEntity
  8
0
100
AcDbBlockBegin
  2
_D28
 70
     0
 10
0.0
 20
0.0
 30
0.0
  3
_D28
  1

  0
LINE
  5
91B1
330
91B0
100
AcDbEntity
  8
1
  6
Continuous
 62
     4
370
    -2
100
AcDbLine
 10
937.4867390839696
 20
460.7034052958016
 30
0.0
 11
937.4867390839696
 21
41.81154580152679
 31
0.0
  0
LINE
  5
91B2
330
91B0
100
AcDbEntity
  8
1
  6
Continuous
 62
     4
370
    -2
100
AcDbLine
 10
1065.230059694656
 20
455.1929091125954
 30
0.0
 11
1065.230059694656
 21
41.81154580152679
 31
0.0
  0
LINE
  5
91B3
330
91B0
100
AcDbEntity
  8
1
  6
Continuous
 62
     4
370
    -2
100
AcDbLine
 10
939.4867390839696
 20
42.81154580152679
 30
0.0
 11
1063.230059694656
 21
42.81154580152679
 31
0.0
  0
SOLID
  5
91B4
330
91B0
100
AcDbEntity
  8
1
  6
Continuous
 62
     4
370
     0
100
AcDbTrace
 10
939.4867390839696
 20
43.14487913486011
 30
0.0
 11
939.4867390839696
 21
42.47821246819345
 31
0.0
 12
937.4867390839696
 22
42.81154580152679
 32
0.0
 13
937.4867390839696
 23
42.81154580152679
 33
0.0
  0
SOLID
  5
91B5
330
91B0
100
AcDbEntity
  8
1
  6
Continuous
 62
     4
370
     0
100
AcDbTrace
 10
1063.230059694656
 20
43.14487913486011
 30
0.0
 11
1063.230059694656
 21
42.47821246819345
 31
0.0
 12
1065.230059694656
 22
42.81154580152679
 32
0.0
 13
1065.230059694656
 23
42.81154580152679
 33
0.0
  0
MTEXT
  5
91B6
330
91B0
100
AcDbEntity
  8
1
  6
Continuous
 62
     2
100
AcDbMText
 10
1001.358399389313
 20
44.06154580152678
 30
0.0
 40
2.5
 41
0.0
 71
     5
 72
     1
  1
\A1; 127.743321 
 73
     1
 44
1.0
1001
ACAD
1000
MTEXTBEGIN
1070
    73
1070
     1
1070
    44
1040
1.0
1070
    74
1070
     0
1000
MTEXTEND
  0
POINT
  5
91B7
330
91B0
100
AcDbEntity
  8
DEFPOINTS
  6
Continuous
 62
     0
370
     0
100
AcDbPoint
 10
937.4867390839696
 20
460.7034052958016
 30
0.0
  0
POINT
  5
91B8
330
91B0
100
AcDbEntity
  8
DEFPOINTS
  6
Continuous
 62
     0
370
     0
100
AcDbPoint
 10
1065.230059694656
 20
455.1929091125954
 30
0.0
  0
POINT
  5
91B9
330
91B0
100
AcDbEntity
  8
DEFPOINTS
  6
Continuous
 62
     0
370
     0
100
AcDbPoint
 10
1065.230059694656
 20
42.81154580152679
 30
0.0
  0
ENDBLK
  5
91BB
330
91B0
100
AcDbEntity
  8
0
100
AcDbBlockEnd
  0
BLOCK
  5
91C7
330
91BC
100
AcDbEntity
  8
0
100
AcDbBlockBegin
  2
_D29
 70
     0
 10
0.0
 20
0.0
 30
0.0
  3
_D29
  1

  0
LINE
  5
91BD
330
91BC
100
AcDbEntity
  8
1
  6
Continuous
 62
     4
370
    -2
100
AcDbLine
 10
954.018227633588
 20
454.1929091125953
 30
0.0
 11
954.018227633588
 21
101.9260496183205
 31
0.0
  0
LINE
  5
91BE
330
91BC
100
AcDbEntity
  8
1
  6
Continuous
 62
     4
370
    -2
100
AcDbLine
 10
958.0258612213739
 20
404.5984434637404
 30
0.0
 11
958.0258612213739
 21
101.9260496183205
 31
0.0
  0
LINE
  5
91BF
330
91BC
100
AcDbEntity
  8
1
  6
Continuous
 62
     4
370
    -2
100
AcDbLine
 10
956.0182276335879
 20
102.9260496183205
 30
0.0
 11
956.0258612213742
 21
102.9260496183205
 31
0.0
  0
LINE
  5
91C0
330
91BC
100
AcDbEntity
  8
1
  6
Continuous
 62
     4
370
    -2
100
AcDbLine
 10
958.0258612213739
 20
102.9260496183205
 30
0.0
 11
979.1925278880407
 21
102.9260496183205
 31
0.0
  0
SOLID
  5
91C1
330
91BC
100
AcDbEntity
  8
1
  6
Continuous
 62
     4
370
     0
100
AcDbTrace
 10
956.0182276335879
 20
103.2593829516539
 30
0.0
 11
956.0182276335879
 21
102.5927162849872
 31
0.0
 12
954.018227633588
 22
102.9260496183205
 32
0.0
 13
954.018227633588
 23
102.9260496183205
 33
0.0
  0
SOLID
  5
91C2
330
91BC
100
AcDbEntity
  8
1
  6
Continuous
 62
     4
370
     0
100
AcDbTrace
 10
956.0258612213742
 20
103.2593829516539
 30
0.0
 11
956.0258612213742
 21
102.5927162849872
 31
0.0
 12
958.0258612213739
 22
102.9260496183205
 32
0.0
 13
958.0258612213739
 23
102.9260496183205
 33
0.0
  0
MTEXT
  5
91C3
330
91BC
100
AcDbEntity
  8
1
  6
Continuous
 62
     2
100
AcDbMText
 10
969.6091945547076
 20
104.1760496183205
 30
0.0
 40
2.5
 41
0.0
 71
     5
 72
     1
  1
\A1; 4.007634 
 73
     1
 44
1.0
1001
ACAD
1000
MTEXTBEGIN
1070
    73
1070
     1
1070
    44
1040
1.0
1070
    74
1070
     0
1000
MTEXTEND
  0
POINT
  5
91C4
330
91BC
100
AcDbEntity
  8
DEFPOINTS
  6
Continuous
 62
     0
370
     0
100
AcDbPoint
 10
954.018227633588
 20
455.1929091125954
 30
0.0
  0
POINT
  5
91C5
330
91BC
100
AcDbEntity
  8
DEFPOINTS
  6
Continuous
 62
     0
370
     0
100
AcDbPoint
 10
958.0258612213739
 20
405.5984434637403
 30
0.0
  0
POINT
  5
91C6
330
91BC
100
AcDbEntity
  8
DEFPOINTS
  6
Continuous
 62
     0
370
     0
100
AcDbPoint
 10
958.0258612213739
 20
102.9260496183205
 30
0.0
  0
ENDBLK
  5
91C8
330
91BC
100
AcDbEntity
  8
0
100
AcDbBlockEnd
  0
BLOCK
  5
91D3
330
91C9
100
AcDbEntity
  8
0
100
AcDbBlockBegin
  2
_D30
 70
     0
 10
0.0
 20
0.0
 30
0.0
  3
_D30
  1

  0
LINE
  5
91CA
330
91C9
100
AcDbEntity
  8
1
  6
Continuous
 62
     4
370
    -2
100
AcDbLine
 10
1627.801624580153
 20
403.596535066794
 30
0.0
 11
1627.801624580153
 21
282.2695610687022
 31
0.0
  0
LINE
  5
91CB
330
91C9
100
AcDbEntity
  8
1
  6
Continuous
 62
     4
370
    -2
100
AcDbLine
 10
1680.90276961832
 20
403.596535066794
 30
0.0
 11
1680.90276961832
 21
282.2695610687022
 31
0.0
  0
LINE
  5
91CC
330
91C9
100
AcDbEntity
  8
1
  6
Continuous
 62
     4
370
    -2
100
AcDbLine
 10
1629.801624580153
 20
283.2695610687022
 30
0.0
 11
1678.90276961832
 21
283.2695610687022
 31
0.0
  0
SOLID
  5
91CD
330
91C9
100
AcDbEntity
  8
1
  6
Continuous
 62
     4
370
     0
100
AcDbTrace
 10
1629.801624580153
 20
283.6028944020355
 30
0.0
 11
1629.801624580153
 21
282.9362277353689
 31
0.0
 12
1627.801624580153
 22
283.2695610687022
 32
0.0
 13
1627.801624580153
 23
283.2695610687022
 33
0.0
  0
SOLID
  5
91CE
330
91C9
100
AcDbEntity
  8
1
  6
Continuous
 62
     4
370
     0
100
AcDbTrace
 10
1678.90276961832
 20
283.6028944020355
 30
0.0
 11
1678.90276961832
 21
282.9362277353689
 31
0.0
 12
1680.90276961832
 22
283.2695610687022
 32
0.0
 13
1680.90276961832
 23
283.2695610687022
 33
0.0
  0
MTEXT
  5
91CF
330
91C9
100
AcDbEntity
  8
1
  6
Continuous
 62
     2
100
AcDbMText
 10
1654.352197099236
 20
284.5195610687022
 30
0.0
 40
2.5
 41
0.0
 71
     5
 72
     1
  1
\A1; 53.101145 
 73
     1
 44
1.0
1001
ACAD
1000
MTEXTBEGIN
1070
    73
1070
     1
1070
    44
1040
1.0
1070
    74
1070
     0
1000
MTEXTEND
  0
POINT
  5
91D0
330
91C9
100
AcDbEntity
  8
DEFPOINTS
  6
Continuous
 62
     0
370
     0
100
AcDbPoint
 10
1627.801624580153
 20
404.5965350667938
 30
0.0
  0
POINT
  5
91D1
330
91C9
100
AcDbEntity
  8
DEFPOINTS
  6
Continuous
 62
     0
370
     0
100
AcDbPoint
 10
1680.90276961832
 20
404.5965350667938
 30
0.0
  0
POINT
  5
91D2
330
91C9
100
AcDbEntity
  8
DEFPOINTS
  6
Continuous
 62
     0
370
     0
100
AcDbPoint
 10
1680.90276961832
 20
283.2695610687022
 30
0.0
  0
ENDBLK
  5
91D4
330
91C9
100
AcDbEntity
  8
0
100
AcDbBlockEnd
  0
BLOCK
  5
91DF
330
91D5
100
AcDbEntity
  8
0
100
AcDbBlockBegin
  2
_D31
 70
     0
 10
0.0
 20
0.0
 30
0.0
  3
_D31
  1

  0
LINE
  5
91D6
330
91D5
100
AcDbEntity
  8
1
  6
Continuous
 62
     4
370
    -2
100
AcDbLine
 10
1549.352197099236
 20
602.9724892652673
 30
0.0
 11
1549.352197099236
 21
659.9852099236642
 31
0.0
  0
LINE
  5
91D7
330
91D5
100
AcDbEntity
  8
1
  6
Continuous
 62
     4
370
    -2
100
AcDbLine
 10
1759.352197099236
 20
602.9724892652673
 30
0.0
 11
1759.352197099236
 21
659.9852099236642
 31
0.0
  0
LINE
  5
91D8
330
91D5
100
AcDbEntity
  8
1
  6
Continuous
 62
     4
370
    -2
100
AcDbLine
 10
1551.352197099236
 20
658.9852099236642
 30
0.0
 11
1757.352197099236
 21
658.9852099236642
 31
0.0
  0
SOLID
  5
91D9
330
91D5
100
AcDbEntity
  8
1
  6
Continuous
 62
     4
370
     0
100
AcDbTrace
 10
1551.352197099236
 20
659.3185432569976
 30
0.0
 11
1551.352197099236
 21
658.6518765903307
 31
0.0
 12
1549.352197099236
 22
658.9852099236642
 32
0.0
 13
1549.352197099236
 23
658.9852099236642
 33
0.0
  0
SOLID
  5
91DA
330
91D5
100
AcDbEntity
  8
1
  6
Continuous
 62
     4
370
     0
100
AcDbTrace
 10
1757.352197099236
 20
659.3185432569976
 30
0.0
 11
1757.352197099236
 21
658.6518765903307
 31
0.0
 12
1759.352197099236
 22
658.9852099236642
 32
0.0
 13
1759.352197099236
 23
658.9852099236642
 33
0.0
  0
MTEXT
  5
91DB
330
91D5
100
AcDbEntity
  8
1
  6
Continuous
 62
     2
100
AcDbMText
 10
1654.352197099236
 20
660.2352099236642
 30
0.0
 40
2.5
 41
0.0
 71
     5
 72
     1
  1
\A1; 210 
 73
     1
 44
1.0
1001
ACAD
1000
MTEXTBEGIN
1070
    73
1070
     1
1070
    44
1040
1.0
1070
    74
1070
     0
1000
MTEXTEND
  0
POINT
  5
91DC
330
91D5
100
AcDbEntity
  8
DEFPOINTS
  6
Continuous
 62
     0
370
     0
100
AcDbPoint
 10
1549.352197099236
 20
601.972489265267
 30
0.0
  0
POINT
  5
91DD
330
91D5
100
AcDbEntity
  8
DEFPOINTS
  6
Continuous
 62
     0
370
     0
100
AcDbPoint
 10
1759.352197099236
 20
601.972489265267
 30
0.0
  0
POINT
  5
91DE
330
91D5
100
AcDbEntity
  8
DEFPOINTS
  6
Continuous
 62
     0
370
     0
100
AcDbPoint
 10
1759.352197099236
 20
658.9852099236642
 30
0.0
  0
ENDBLK
  5
91E0
330
91D5
100
AcDbEntity
  8
0
100
AcDbBlockEnd
  0
BLOCK
  5
91EB
330
91E1
100
AcDbEntity
  8
0
100
AcDbBlockBegin
  2
_D32
 70
     0
 10
0.0
 20
0.0
 30
0.0
  3
_D32
  1

  0
LINE
  5
91E2
330
91E1
100
AcDbEntity
  8
1
  6
Continuous
 62
     4
370
    -2
100
AcDbLine
 10
1549.352197099236
 20
602.9724892652673
 30
0.0
 11
1549.352197099236
 21
695.0520038167938
 31
0.0
  0
LINE
  5
91E3
330
91E1
100
AcDbEntity
  8
1
  6
Continuous
 62
     4
370
    -2
100
AcDbLine
 10
1829.485784885496
 20
602.9724892652673
 30
0.0
 11
1829.485784885496
 21
695.0520038167938
 31
0.0
  0
LINE
  5
91E4
330
91E1
100
AcDbEntity
  8
1
  6
Continuous
 62
     4
370
    -2
100
AcDbLine
 10
1551.352197099236
 20
694.0520038167938
 30
0.0
 11
1827.485784885496
 21
694.0520038167938
 31
0.0
  0
SOLID
  5
91E5
330
91E1
100
AcDbEntity
  8
1
  6
Continuous
 62
     4
370
     0
100
AcDbTrace
 10
1551.352197099236
 20
694.3853371501273
 30
0.0
 11
1551.352197099236
 21
693.7186704834605
 31
0.0
 12
1549.352197099236
 22
694.0520038167938
 32
0.0
 13
1549.352197099236
 23
694.0520038167938
 33
0.0
  0
SOLID
  5
91E6
330
91E1
100
AcDbEntity
  8
1
  6
Continuous
 62
     4
370
     0
100
AcDbTrace
 10
1827.485784885496
 20
694.3853371501273
 30
0.0
 11
1827.485784885496
 21
693.7186704834605
 31
0.0
 12
1829.485784885496
 22
694.0520038167938
 32
0.0
 13
1829.485784885496
 23
694.0520038167938
 33
0.0
  0
MTEXT
  5
91E7
330
91E1
100
AcDbEntity
  8
1
  6
Continuous
 62
     2
100
AcDbMText
 10
1689.418990992366
 20
695.3020038167937
 30
0.0
 40
2.5
 41
0.0
 71
     5
 72
     1
  1
\A1; 280.133588 
 73
     1
 44
1.0
1001
ACAD
1000
MTEXTBEGIN
1070
    73
1070
     1
1070
    44
1040
1.0
1070
    74
1070
     0
1000
MTEXTEND
  0
POINT
  5
91E8
330
91E1
100
AcDbEntity
  8
DEFPOINTS
  6
Continuous
 62
     0
370
     0
100
AcDbPoint
 10
1549.352197099236
 20
601.972489265267
 30
0.0
  0
POINT
  5
91E9
330
91E1
100
AcDbEntity
  8
DEFPOINTS
  6
Continuous
 62
     0
370
     0
100
AcDbPoint
 10
1829.485784885496
 20
601.972489265267
 30
0.0
  0
POINT
  5
91EA
330
91E1
100
AcDbEntity
  8
DEFPOINTS
  6
Continuous
 62
     0
370
     0
100
AcDbPoint
 10
1829.485784885496
 20
694.0520038167938
 30
0.0
  0
ENDBLK
  5
91EC
330
91E1
100
AcDbEntity
  8
0
100
AcDbBlockEnd
  0
BLOCK
  5
91F8
330
91ED
100
AcDbEntity
  8
0
100
AcDbBlockBegin
  2
_D33
 70
     0
 10
0.0
 20
0.0
 30
0.0
  3
_D33
  1

  0
LINE
  5
91EE
330
91ED
100
AcDbEntity
  8
1
  6
Continuous
 62
     4
370
    -2
100
AcDbLine
 10
648.0334948091602
 20
243.2892831583968
 30
0.0
 11
782.2430320229007
 21
243.2892831583968
 31
0.0
  0
LINE
  5
91EF
330
91ED
100
AcDbEntity
  8
1
  6
Continuous
 62
     4
370
    -2
100
AcDbLine
 10
663.0621207633587
 20
323.4419549141221
 30
0.0
 11
782.2430320229007
 21
323.4419549141221
 31
0.0
  0
LINE
  5
91F0
330
91ED
100
AcDbEntity
  8
1
  6
Continuous
 62
     4
370
    -2
100
AcDbLine
 10
781.2430320229006
 20
245.2892831583968
 30
0.0
 11
781.2430320229006
 21
272.7406190362594
 31
0.0
  0
LINE
  5
91F1
330
91ED
100
AcDbEntity
  8
1
  6
Continuous
 62
     4
370
    -2
100
AcDbLine
 10
781.2430320229006
 20
321.4419549141221
 30
0.0
 11
781.2430320229006
 21
293.9906190362595
 31
0.0
  0
SOLID
  5
91F2
330
91ED
100
AcDbEntity
  8
1
  6
Continuous
 62
     4
370
     0
100
AcDbTrace
 10
780.9096986895672
 20
245.2892831583968
 30
0.0
 11
781.5763653562338
 21
245.2892831583968
 31
0.0
 12
781.2430320229006
 22
243.2892831583968
 32
0.0
 13
781.2430320229006
 23
243.2892831583968
 33
0.0
  0
SOLID
  5
91F3
330
91ED
100
AcDbEntity
  8
1
  6
Continuous
 62
     4
370
     0
100
AcDbTrace
 10
780.9096986895674
 20
321.4419549141221
 30
0.0
 11
781.5763653562343
 21
321.4419549141221
 31
0.0
 12
781.2430320229006
 22
323.4419549141221
 32
0.0
 13
781.2430320229006
 23
323.4419549141221
 33
0.0
  0
MTEXT
  5
91F4
330
91ED
100
AcDbEntity
  8
1
  6
Continuous
 62
     2
100
AcDbMText
 10
781.2430320229006
 20
283.3656190362595
 30
0.0
 40
2.5
 41
0.0
 71
     5
 72
     1
  1
\A1; 80.152672 
 11
0.0000000000000001
 21
1.0
 31
0.0
 73
     1
 44
1.0
1001
ACAD
1000
MTEXTBEGIN
1070
    73
1070
     1
1070
    44
1040
1.0
1070
    74
1070
     0
1000
MTEXTEND
  0
POINT
  5
91F5
330
91ED
100
AcDbEntity
  8
DEFPOINTS
  6
Continuous
 62
     0
370
     0
100
AcDbPoint
 10
647.0334948091602
 20
243.2892831583968
 30
0.0
  0
POINT
  5
91F6
330
91ED
100
AcDbEntity
  8
DEFPOINTS
  6
Continuous
 62
     0
370
     0
100
AcDbPoint
 10
662.0621207633587
 20
323.4419549141221
 30
0.0
  0
POINT
  5
91F7
330
91ED
100
AcDbEntity
  8
DEFPOINTS
  6
Continuous
 62
     0
370
     0
100
AcDbPoint
 10
781.2430320229006
 20
323.4419549141221
 30
0.0
  0
ENDBLK
  5
91F9
330
91ED
100
AcDbEntity
  8
0
100
AcDbBlockEnd
  0
BLOCK
  5
9205
330
91FA
100
AcDbEntity
  8
0
100
AcDbBlockBegin
  2
_D34
 70
     0
 10
0.0
 20
0.0
 30
0.0
  3
_D34
  1

  0
LINE
  5
91FB
330
91FA
100
AcDbEntity
  8
1
  6
Continuous
 62
     4
370
    -2
100
AcDbLine
 10
663.0621207633587
 20
323.4419549141221
 30
0.0
 11
782.2430320229007
 21
323.4419549141221
 31
0.0
  0
LINE
  5
91FC
330
91FA
100
AcDbEntity
  8
1
  6
Continuous
 62
     4
370
    -2
100
AcDbLine
 10
663.0621207633587
 20
596.9629472805343
 30
0.0
 11
782.2430320229007
 21
596.9629472805343
 31
0.0
  0
LINE
  5
91FD
330
91FA
100
AcDbEntity
  8
1
  6
Continuous
 62
     4
370
    -2
100
AcDbLine
 10
781.2430320229006
 20
325.4419549141221
 30
0.0
 11
781.2430320229006
 21
447.9107844306613
 31
0.0
  0
LINE
  5
91FE
330
91FA
100
AcDbEntity
  8
1
  6
Continuous
 62
     4
370
    -2
100
AcDbLine
 10
781.2430320229006
 20
594.9629472805343
 30
0.0
 11
781.2430320229006
 21
472.4941177639949
 31
0.0
  0
SOLID
  5
91FF
330
91FA
100
AcDbEntity
  8
1
  6
Continuous
 62
     4
370
     0
100
AcDbTrace
 10
780.9096986895674
 20
325.4419549141221
 30
0.0
 11
781.5763653562343
 21
325.4419549141221
 31
0.0
 12
781.2430320229006
 22
323.4419549141221
 32
0.0
 13
781.2430320229006
 23
323.4419549141221
 33
0.0
  0
SOLID
  5
9200
330
91FA
100
AcDbEntity
  8
1
  6
Continuous
 62
     4
370
     0
100
AcDbTrace
 10
780.9096986895674
 20
594.9629472805343
 30
0.0
 11
781.5763653562343
 21
594.9629472805343
 31
0.0
 12
781.2430320229006
 22
596.9629472805343
 32
0.0
 13
781.2430320229006
 23
596.9629472805343
 33
0.0
  0
MTEXT
  5
9201
330
91FA
100
AcDbEntity
  8
1
  6
Continuous
 62
     2
100
AcDbMText
 10
781.2430320229006
 20
460.2024510973283
 30
0.0
 40
2.5
 41
0.0
 71
     5
 72
     1
  1
\A1; 273.520992 
 11
0.0000000000000001
 21
1.0
 31
0.0
 73
     1
 44
1.0
1001
ACAD
1000
MTEXTBEGIN
1070
    73
1070
     1
1070
    44
1040
1.0
1070
    74
1070
     0
1000
MTEXTEND
  0
POINT
  5
9202
330
91FA
100
AcDbEntity
  8
DEFPOINTS
  6
Continuous
 62
     0
370
     0
100
AcDbPoint
 10
662.0621207633587
 20
323.4419549141221
 30
0.0
  0
POINT
  5
9203
330
91FA
100
AcDbEntity
  8
DEFPOINTS
  6
Continuous
 62
     0
370
     0
100
AcDbPoint
 10
662.0621207633587
 20
596.9629472805343
 30
0.0
  0
POINT
  5
9204
330
91FA
100
AcDbEntity
  8
DEFPOINTS
  6
Continuous
 62
     0
370
     0
100
AcDbPoint
 10
781.2430320229006
 20
596.9629472805343
 30
0.0
  0
ENDBLK
  5
9206
330
91FA
100
AcDbEntity
  8
0
100
AcDbBlockEnd
  0
BLOCK
  5
9212
330
9207
100
AcDbEntity
  8
0
100
AcDbBlockBegin
  2
_D35
 70
     0
 10
0.0
 20
0.0
 30
0.0
  3
_D35
  1

  0
LINE
  5
9208
330
9207
100
AcDbEntity
  8
1
  6
Continuous
 62
     4
370
    -2
100
AcDbLine
 10
663.0621207633587
 20
596.9629472805343
 30
0.0
 11
782.2430320229007
 21
596.9629472805343
 31
0.0
  0
LINE
  5
9209
330
9207
100
AcDbEntity
  8
1
  6
Continuous
 62
     4
370
    -2
100
AcDbLine
 10
648.0334948091602
 20
677.1156190362595
 30
0.0
 11
782.2430320229007
 21
677.1156190362594
 31
0.0
  0
LINE
  5
920A
330
9207
100
AcDbEntity
  8
1
  6
Continuous
 62
     4
370
    -2
100
AcDbLine
 10
781.2430320229006
 20
598.9629472805343
 30
0.0
 11
781.2430320229006
 21
626.4142831583967
 31
0.0
  0
LINE
  5
920B
330
9207
100
AcDbEntity
  8
1
  6
Continuous
 62
     4
370
    -2
100
AcDbLine
 10
781.2430320229006
 20
675.1156190362594
 30
0.0
 11
781.2430320229006
 21
647.6642831583967
 31
0.0
  0
SOLID
  5
920C
330
9207
100
AcDbEntity
  8
1
  6
Continuous
 62
     4
370
     0
100
AcDbTrace
 10
780.9096986895674
 20
598.9629472805343
 30
0.0
 11
781.5763653562343
 21
598.9629472805343
 31
0.0
 12
781.2430320229006
 22
596.9629472805343
 32
0.0
 13
781.2430320229006
 23
596.9629472805343
 33
0.0
  0
SOLID
  5
920D
330
9207
100
AcDbEntity
  8
1
  6
Continuous
 62
     4
370
     0
100
AcDbTrace
 10
780.9096986895674
 20
675.1156190362594
 30
0.0
 11
781.5763653562343
 21
675.1156190362594
 31
0.0
 12
781.2430320229006
 22
677.1156190362594
 32
0.0
 13
781.2430320229006
 23
677.1156190362594
 33
0.0
  0
MTEXT
  5
920E
330
9207
100
AcDbEntity
  8
1
  6
Continuous
 62
     2
100
AcDbMText
 10
781.2430320229006
 20
637.0392831583971
 30
0.0
 40
2.5
 41
0.0
 71
     5
 72
     1
  1
\A1; 80.152672 
 11
0.0000000000000001
 21
1.0
 31
0.0
 73
     1
 44
1.0
1001
ACAD
1000
MTEXTBEGIN
1070
    73
1070
     1
1070
    44
1040
1.0
1070
    74
1070
     0
1000
MTEXTEND
  0
POINT
  5
920F
330
9207
100
AcDbEntity
  8
DEFPOINTS
  6
Continuous
 62
     0
370
     0
100
AcDbPoint
 10
662.0621207633587
 20
596.9629472805343
 30
0.0
  0
POINT
  5
9210
330
9207
100
AcDbEntity
  8
DEFPOINTS
  6
Continuous
 62
     0
370
     0
100
AcDbPoint
 10
647.0334948091602
 20
677.1156190362595
 30
0.0
  0
POINT
  5
9211
330
9207
100
AcDbEntity
  8
DEFPOINTS
  6
Continuous
 62
     0
370
     0
100
AcDbPoint
 10
781.2430320229006
 20
677.1156190362594
 30
0.0
  0
ENDBLK
  5
9213
330
9207
100
AcDbEntity
  8
0
100
AcDbBlockEnd
  0
BLOCK
  5
921F
330
9214
100
AcDbEntity
  8
0
100
AcDbBlockBegin
  2
_D36
 70
     0
 10
0.0
 20
0.0
 30
0.0
  3
_D36
  1

  0
LINE
  5
9215
330
9214
100
AcDbEntity
  8
1
  6
Continuous
 62
     4
370
    -2
100
AcDbLine
 10
1399.865555877862
 20
409.6060770515268
 30
0.0
 11
1518.645703778625
 21
409.6060770515267
 31
0.0
  0
LINE
  5
9216
330
9214
100
AcDbEntity
  8
1
  6
Continuous
 62
     4
370
    -2
100
AcDbLine
 10
1399.865555877862
 20
501.7816495706107
 30
0.0
 11
1518.645703778625
 21
501.7816495706107
 31
0.0
  0
LINE
  5
9217
330
9214
100
AcDbEntity
  8
1
  6
Continuous
 62
     4
370
    -2
100
AcDbLine
 10
1517.645703778625
 20
411.6060770515266
 30
0.0
 11
1517.645703778625
 21
444.8605299777351
 31
0.0
  0
LINE
  5
9218
330
9214
100
AcDbEntity
  8
1
  6
Continuous
 62
     4
370
    -2
100
AcDbLine
 10
1517.645703778625
 20
499.7816495706106
 30
0.0
 11
1517.645703778625
 21
466.527196644402
 31
0.0
  0
SOLID
  5
9219
330
9214
100
AcDbEntity
  8
1
  6
Continuous
 62
     4
370
     0
100
AcDbTrace
 10
1517.312370445292
 20
411.6060770515266
 30
0.0
 11
1517.979037111959
 21
411.6060770515266
 31
0.0
 12
1517.645703778625
 22
409.6060770515267
 32
0.0
 13
1517.645703778625
 23
409.6060770515267
 33
0.0
  0
SOLID
  5
921A
330
9214
100
AcDbEntity
  8
1
  6
Continuous
 62
     4
370
     0
100
AcDbTrace
 10
1517.312370445292
 20
499.7816495706106
 30
0.0
 11
1517.979037111959
 21
499.7816495706106
 31
0.0
 12
1517.645703778625
 22
501.7816495706107
 32
0.0
 13
1517.645703778625
 23
501.7816495706107
 33
0.0
  0
MTEXT
  5
921B
330
9214
100
AcDbEntity
  8
1
  6
Continuous
 62
     2
100
AcDbMText
 10
1517.645703778625
 20
455.6938633110688
 30
0.0
 40
2.5
 41
0.0
 71
     5
 72
     1
  1
\A1; 92.175573 
 11
0.0000000000000001
 21
1.0
 31
0.0
 73
     1
 44
1.0
1001
ACAD
1000
MTEXTBEGIN
1070
    73
1070
     1
1070
    44
1040
1.0
1070
    74
1070
     0
1000
MTEXTEND
  0
POINT
  5
921C
330
9214
100
AcDbEntity
  8
DEFPOINTS
  6
Continuous
 62
     0
370
     0
100
AcDbPoint
 10
1398.865555877862
 20
409.6060770515268
 30
0.0
  0
POINT
  5
921D
330
9214
100
AcDbEntity
  8
DEFPOINTS
  6
Continuous
 62
     0
370
     0
100
AcDbPoint
 10
1398.865555877862
 20
501.7816495706107
 30
0.0
  0
POINT
  5
921E
330
9214
100
AcDbEntity
  8
DEFPOINTS
  6
Continuous
 62
     0
370
     0
100
AcDbPoint
 10
1517.645703778625
 20
501.7816495706107
 30
0.0
  0
ENDBLK
  5
9220
330
9214
100
AcDbEntity
  8
0
100
AcDbBlockEnd
  0
BLOCK
  5
922D
330
9221
100
AcDbEntity
  8
0
100
AcDbBlockBegin
  2
_D37
 70
     0
 10
0.0
 20
0.0
 30
0.0
  3
_D37
  1

  0
LINE
  5
9222
330
9221
100
AcDbEntity
  8
1
  6
Continuous
 62
     4
370
    -2
100
AcDbLine
 10
648.0334948091602
 20
243.2892831583968
 30
0.0
 11
692.0712762977098
 21
243.2892831583968
 31
0.0
  0
LINE
  5
9223
330
9221
100
AcDbEntity
  8
1
  6
Continuous
 62
     4
370
    -2
100
AcDbLine
 10
627.9953268702286
 20
258.3179091125954
 30
0.0
 11
692.0712762977098
 21
258.3179091125953
 31
0.0
  0
LINE
  5
9224
330
9221
100
AcDbEntity
  8
1
  6
Continuous
 62
     4
370
    -2
100
AcDbLine
 10
691.0712762977098
 20
245.2892831583968
 30
0.0
 11
691.0712762977098
 21
256.3179091125953
 31
0.0
  0
LINE
  5
9225
330
9221
100
AcDbEntity
  8
1
  6
Continuous
 62
     4
370
    -2
100
AcDbLine
 10
691.0712762977098
 20
258.3179091125953
 30
0.0
 11
691.0712762977098
 21
260.3179091125953
 31
0.0
  0
LINE
  5
9226
330
9221
100
AcDbEntity
  8
1
  6
Continuous
 62
     4
370
    -2
100
AcDbLine
 10
691.0712762977098
 20
260.3179091125953
 30
0.0
 11
693.0712762977098
 21
260.3179091125953
 31
0.0
  0
SOLID
  5
9227
330
9221
100
AcDbEntity
  8
1
  6
Continuous
 62
     4
370
     0
100
AcDbTrace
 10
690.7379429643765
 20
245.2892831583968
 30
0.0
 11
691.4046096310433
 21
245.2892831583968
 31
0.0
 12
691.0712762977098
 22
243.2892831583968
 32
0.0
 13
691.0712762977098
 23
243.2892831583968
 33
0.0
  0
SOLID
  5
9228
330
9221
100
AcDbEntity
  8
1
  6
Continuous
 62
     4
370
     0
100
AcDbTrace
 10
690.7379429643766
 20
256.3179091125953
 30
0.0
 11
691.4046096310434
 21
256.3179091125953
 31
0.0
 12
691.0712762977098
 22
258.3179091125953
 32
0.0
 13
691.0712762977098
 23
258.3179091125953
 33
0.0
  0
MTEXT
  5
9229
330
9221
100
AcDbEntity
  8
1
  6
Continuous
 62
     2
100
AcDbMText
 10
694.3212762977098
 20
260.3179091125955
 30
0.0
 40
2.5
 41
0.0
 71
     5
 72
     1
  1
\A1; 15.028626 
 11
0.0000000000000001
 21
1.0
 31
0.0
 73
     1
 44
1.0
1001
ACAD
1000
MTEXTBEGIN
1070
    73
1070
     1
1070
    44
1040
1.0
1070
    74
1070
     0
1000
MTEXTEND
  0
POINT
  5
922A
330
9221
100
AcDbEntity
  8
DEFPOINTS
  6
Continuous
 62
     0
370
     0
100
AcDbPoint
 10
647.0334948091602
 20
243.2892831583968
 30
0.0
  0
POINT
  5
922B
330
9221
100
AcDbEntity
  8
DEFPOINTS
  6
Continuous
 62
     0
370
     0
100
AcDbPoint
 10
626.9953268702287
 20
258.3179091125954
 30
0.0
  0
POINT
  5
922C
330
9221
100
AcDbEntity
  8
DEFPOINTS
  6
Continuous
 62
     0
370
     0
100
AcDbPoint
 10
691.0712762977098
 20
258.3179091125953
 30
0.0
  0
ENDBLK
  5
922E
330
9221
100
AcDbEntity
  8
0
100
AcDbBlockEnd
  0
BLOCK
  5
923A
330
922F
100
AcDbEntity
  8
0
100
AcDbBlockBegin
  2
_D38
 70
     0
 10
0.0
 20
0.0
 30
0.0
  3
_D38
  1

  0
LINE
  5
9230
330
922F
100
AcDbEntity
  8
1
  6
Continuous
 62
     4
370
    -2
100
AcDbLine
 10
627.9953268702286
 20
258.3179091125954
 30
0.0
 11
692.0712762977098
 21
258.3179091125953
 31
0.0
  0
LINE
  5
9231
330
922F
100
AcDbEntity
  8
1
  6
Continuous
 62
     4
370
    -2
100
AcDbLine
 10
627.9953268702286
 20
290.3789778148854
 30
0.0
 11
692.0712762977098
 21
290.3789778148854
 31
0.0
  0
LINE
  5
9232
330
922F
100
AcDbEntity
  8
1
  6
Continuous
 62
     4
370
    -2
100
AcDbLine
 10
691.0712762977098
 20
260.3179091125953
 30
0.0
 11
691.0712762977098
 21
263.9317767970737
 31
0.0
  0
LINE
  5
9233
330
922F
100
AcDbEntity
  8
1
  6
Continuous
 62
     4
370
    -2
100
AcDbLine
 10
691.0712762977098
 20
288.3789778148854
 30
0.0
 11
691.0712762977098
 21
284.765110130407
 31
0.0
  0
SOLID
  5
9234
330
922F
100
AcDbEntity
  8
1
  6
Continuous
 62
     4
370
     0
100
AcDbTrace
 10
690.7379429643765
 20
260.3179091125953
 30
0.0
 11
691.4046096310433
 21
260.3179091125953
 31
0.0
 12
691.0712762977098
 22
258.3179091125953
 32
0.0
 13
691.0712762977098
 23
258.3179091125953
 33
0.0
  0
SOLID
  5
9235
330
922F
100
AcDbEntity
  8
1
  6
Continuous
 62
     4
370
     0
100
AcDbTrace
 10
690.7379429643765
 20
288.3789778148854
 30
0.0
 11
691.4046096310433
 21
288.3789778148854
 31
0.0
 12
691.0712762977098
 22
290.3789778148854
 32
0.0
 13
691.0712762977098
 23
290.3789778148854
 33
0.0
  0
MTEXT
  5
9236
330
922F
100
AcDbEntity
  8
1
  6
Continuous
 62
     2
100
AcDbMText
 10
691.0712762977098
 20
274.3484434637405
 30
0.0
 40
2.5
 41
0.0
 71
     5
 72
     1
  1
\A1; 32.061069 
 11
0.0000000000000001
 21
1.0
 31
0.0
 73
     1
 44
1.0
1001
ACAD
1000
MTEXTBEGIN
1070
    73
1070
     1
1070
    44
1040
1.0
1070
    74
1070
     0
1000
MTEXTEND
  0
POINT
  5
9237
330
922F
100
AcDbEntity
  8
DEFPOINTS
  6
Continuous
 62
     0
370
     0
100
AcDbPoint
 10
626.9953268702287
 20
258.3179091125954
 30
0.0
  0
POINT
  5
9238
330
922F
100
AcDbEntity
  8
DEFPOINTS
  6
Continuous
 62
     0
370
     0
100
AcDbPoint
 10
626.9953268702287
 20
290.3789778148854
 30
0.0
  0
POINT
  5
9239
330
922F
100
AcDbEntity
  8
DEFPOINTS
  6
Continuous
 62
     0
370
     0
100
AcDbPoint
 10
691.0712762977098
 20
290.3789778148854
 30
0.0
  0
ENDBLK
  5
923B
330
922F
100
AcDbEntity
  8
0
100
AcDbBlockEnd
  0
BLOCK
  5
9248
330
923C
100
AcDbEntity
  8
0
100
AcDbBlockBegin
  2
_D39
 70
     0
 10
0.0
 20
0.0
 30
0.0
  3
_D39
  1

  0
LINE
  5
923D
330
923C
100
AcDbEntity
  8
1
  6
Continuous
 62
     4
370
    -2
100
AcDbLine
 10
627.9953268702286
 20
290.3789778148854
 30
0.0
 11
722.1285282061069
 21
290.3789778148854
 31
0.0
  0
LINE
  5
923E
330
923C
100
AcDbEntity
  8
1
  6
Continuous
 62
     4
370
    -2
100
AcDbLine
 10
627.9953268702286
 20
298.394244990458
 30
0.0
 11
722.1285282061069
 21
298.3942449904579
 31
0.0
  0
LINE
  5
923F
330
923C
100
AcDbEntity
  8
1
  6
Continuous
 62
     4
370
    -2
100
AcDbLine
 10
721.1285282061069
 20
292.3789778148854
 30
0.0
 11
721.1285282061069
 21
290.3789778148854
 31
0.0
  0
LINE
  5
9240
330
923C
100
AcDbEntity
  8
1
  6
Continuous
 62
     4
370
    -2
100
AcDbLine
 10
721.1285282061069
 20
298.3942449904579
 30
0.0
 11
721.1285282061069
 21
300.3942449904579
 31
0.0
  0
LINE
  5
9241
330
923C
100
AcDbEntity
  8
1
  6
Continuous
 62
     4
370
    -2
100
AcDbLine
 10
721.1285282061069
 20
300.3942449904579
 30
0.0
 11
723.1285282061069
 21
300.3942449904579
 31
0.0
  0
LINE
  5
9242
330
923C
100
AcDbEntity
  8
1
  6
Continuous
 62
     4
370
    -2
100
AcDbLine
 10
721.1285282061069
 20
290.3789778148854
 30
0.0
 11
721.1285282061069
 21
298.3942449904579
 31
0.0
  0
SOLID
  5
9243
330
923C
100
AcDbEntity
  8
1
  6
Continuous
 62
     4
370
     0
100
AcDbTrace
 10
720.7951948727734
 20
292.3789778148854
 30
0.0
 11
721.4618615394402
 21
292.3789778148854
 31
0.0
 12
721.1285282061069
 22
290.3789778148854
 32
0.0
 13
721.1285282061069
 23
290.3789778148854
 33
0.0
  0
MTEXT
  5
9244
330
923C
100
AcDbEntity
  8
1
  6
Continuous
 62
     2
100
AcDbMText
 10
724.3785282061065
 20
300.394244990458
 30
0.0
 40
2.5
 41
0.0
 71
     5
 72
     1
  1
\A1; 8.015267 
 11
0.0000000000000001
 21
1.0
 31
0.0
 73
     1
 44
1.0
1001
ACAD
1000
MTEXTBEGIN
1070
    73
1070
     1
1070
    44
1040
1.0
1070
    74
1070
     0
1000
MTEXTEND
  0
POINT
  5
9245
330
923C
100
AcDbEntity
  8
DEFPOINTS
  6
Continuous
 62
     0
370
     0
100
AcDbPoint
 10
626.9953268702287
 20
290.3789778148854
 30
0.0
  0
POINT
  5
9246
330
923C
100
AcDbEntity
  8
DEFPOINTS
  6
Continuous
 62
     0
370
     0
100
AcDbPoint
 10
626.9953268702287
 20
298.394244990458
 30
0.0
  0
POINT
  5
9247
330
923C
100
AcDbEntity
  8
DEFPOINTS
  6
Continuous
 62
     0
370
     0
100
AcDbPoint
 10
721.1285282061069
 20
298.3942449904579
 30
0.0
  0
ENDBLK
  5
9249
330
923C
100
AcDbEntity
  8
0
100
AcDbBlockEnd
  0
BLOCK
  5
9255
330
924A
100
AcDbEntity
  8
0
100
AcDbBlockBegin
  2
_D40
 70
     0
 10
0.0
 20
0.0
 30
0.0
  3
_D40
  1

  0
LINE
  5
924B
330
924A
100
AcDbEntity
  8
1
  6
Continuous
 62
     4
370
    -2
100
AcDbLine
 10
627.9953268702286
 20
298.394244990458
 30
0.0
 11
692.0712762977098
 21
298.3942449904579
 31
0.0
  0
LINE
  5
924C
330
924A
100
AcDbEntity
  8
1
  6
Continuous
 62
     4
370
    -2
100
AcDbLine
 10
663.0621207633587
 20
323.4419549141221
 30
0.0
 11
692.0712762977098
 21
323.4419549141221
 31
0.0
  0
LINE
  5
924D
330
924A
100
AcDbEntity
  8
1
  6
Continuous
 62
     4
370
    -2
100
AcDbLine
 10
691.0712762977098
 20
300.3942449904579
 30
0.0
 11
691.0712762977098
 21
301.5430999522899
 31
0.0
  0
LINE
  5
924E
330
924A
100
AcDbEntity
  8
1
  6
Continuous
 62
     4
370
    -2
100
AcDbLine
 10
691.0712762977098
 20
321.4419549141221
 30
0.0
 11
691.0712762977098
 21
320.2930999522899
 31
0.0
  0
SOLID
  5
924F
330
924A
100
AcDbEntity
  8
1
  6
Continuous
 62
     4
370
     0
100
AcDbTrace
 10
690.7379429643765
 20
300.3942449904579
 30
0.0
 11
691.4046096310433
 21
300.3942449904579
 31
0.0
 12
691.0712762977098
 22
298.3942449904579
 32
0.0
 13
691.0712762977098
 23
298.3942449904579
 33
0.0
  0
SOLID
  5
9250
330
924A
100
AcDbEntity
  8
1
  6
Continuous
 62
     4
370
     0
100
AcDbTrace
 10
690.7379429643765
 20
321.4419549141221
 30
0.0
 11
691.4046096310433
 21
321.4419549141221
 31
0.0
 12
691.0712762977098
 22
323.4419549141221
 32
0.0
 13
691.0712762977098
 23
323.4419549141221
 33
0.0
  0
MTEXT
  5
9251
330
924A
100
AcDbEntity
  8
1
  6
Continuous
 62
     2
100
AcDbMText
 10
691.0712762977098
 20
310.9180999522901
 30
0.0
 40
2.5
 41
0.0
 71
     5
 72
     1
  1
\A1; 25.04771 
 11
0.0000000000000001
 21
1.0
 31
0.0
 73
     1
 44
1.0
1001
ACAD
1000
MTEXTBEGIN
1070
    73
1070
     1
1070
    44
1040
1.0
1070
    74
1070
     0
1000
MTEXTEND
  0
POINT
  5
9252
330
924A
100
AcDbEntity
  8
DEFPOINTS
  6
Continuous
 62
     0
370
     0
100
AcDbPoint
 10
626.9953268702287
 20
298.394244990458
 30
0.0
  0
POINT
  5
9253
330
924A
100
AcDbEntity
  8
DEFPOINTS
  6
Continuous
 62
     0
370
     0
100
AcDbPoint
 10
662.0621207633587
 20
323.4419549141221
 30
0.0
  0
POINT
  5
9254
330
924A
100
AcDbEntity
  8
DEFPOINTS
  6
Continuous
 62
     0
370
     0
100
AcDbPoint
 10
691.0712762977098
 20
323.4419549141221
 30
0.0
  0
ENDBLK
  5
9256
330
924A
100
AcDbEntity
  8
0
100
AcDbBlockEnd
  0
BLOCK
  5
9262
330
9257
100
AcDbEntity
  8
0
100
AcDbBlockBegin
  2
_D41
 70
     0
 10
0.0
 20
0.0
 30
0.0
  3
_D41
  1

  0
LINE
  5
9258
330
9257
100
AcDbEntity
  8
1
  6
Continuous
 62
     4
370
    -2
100
AcDbLine
 10
663.0621207633587
 20
511.299779341603
 30
0.0
 11
722.1285282061069
 21
511.299779341603
 31
0.0
  0
LINE
  5
9259
330
9257
100
AcDbEntity
  8
1
  6
Continuous
 62
     4
370
    -2
100
AcDbLine
 10
573.0907467175572
 20
455.6938633110686
 30
0.0
 11
722.1285282061069
 21
455.6938633110686
 31
0.0
  0
LINE
  5
925A
330
9257
100
AcDbEntity
  8
1
  6
Continuous
 62
     4
370
    -2
100
AcDbLine
 10
721.1285282061069
 20
509.2997793416031
 30
0.0
 11
721.1285282061069
 21
494.1218213263358
 31
0.0
  0
LINE
  5
925B
330
9257
100
AcDbEntity
  8
1
  6
Continuous
 62
     4
370
    -2
100
AcDbLine
 10
721.1285282061069
 20
457.6938633110684
 30
0.0
 11
721.1285282061069
 21
472.8718213263356
 31
0.0
  0
SOLID
  5
925C
330
9257
100
AcDbEntity
  8
1
  6
Continuous
 62
     4
370
     0
100
AcDbTrace
 10
720.7951948727734
 20
509.2997793416031
 30
0.0
 11
721.4618615394402
 21
509.2997793416031
 31
0.0
 12
721.1285282061069
 22
511.299779341603
 32
0.0
 13
721.1285282061069
 23
511.299779341603
 33
0.0
  0
SOLID
  5
925D
330
9257
100
AcDbEntity
  8
1
  6
Continuous
 62
     4
370
     0
100
AcDbTrace
 10
720.7951948727734
 20
457.6938633110684
 30
0.0
 11
721.4618615394402
 21
457.6938633110684
 31
0.0
 12
721.1285282061069
 22
455.6938633110686
 32
0.0
 13
721.1285282061069
 23
455.6938633110686
 33
0.0
  0
MTEXT
  5
925E
330
9257
100
AcDbEntity
  8
1
  6
Continuous
 62
     2
100
AcDbMText
 10
721.1285282061067
 20
483.4968213263358
 30
0.0
 40
2.5
 41
0.0
 71
     5
 72
     1
  1
\A1; 55.605916 
 11
0.0000000000000001
 21
1.0
 31
0.0
 73
     1
 44
1.0
1001
ACAD
1000
MTEXTBEGIN
1070
    73
1070
     1
1070
    44
1040
1.0
1070
    74
1070
     0
1000
MTEXTEND
  0
POINT
  5
925F
330
9257
100
AcDbEntity
  8
DEFPOINTS
  6
Continuous
 62
     0
370
     0
100
AcDbPoint
 10
662.0621207633587
 20
511.299779341603
 30
0.0
  0
POINT
  5
9260
330
9257
100
AcDbEntity
  8
DEFPOINTS
  6
Continuous
 62
     0
370
     0
100
AcDbPoint
 10
572.0907467175571
 20
455.6938633110686
 30
0.0
  0
POINT
  5
9261
330
9257
100
AcDbEntity
  8
DEFPOINTS
  6
Continuous
 62
     0
370
     0
100
AcDbPoint
 10
721.1285282061069
 20
455.6938633110686
 30
0.0
  0
ENDBLK
  5
9263
330
9257
100
AcDbEntity
  8
0
100
AcDbBlockEnd
  0
BLOCK
  5
926F
330
9264
100
AcDbEntity
  8
0
100
AcDbBlockBegin
  2
_D42
 70
     0
 10
0.0
 20
0.0
 30
0.0
  3
_D42
  1

  0
LINE
  5
9265
330
9264
100
AcDbEntity
  8
1
  6
Continuous
 62
     4
370
    -2
100
AcDbLine
 10
573.0907467175572
 20
455.6938633110686
 30
0.0
 11
722.1285282061069
 21
455.6938633110686
 31
0.0
  0
LINE
  5
9266
330
9264
100
AcDbEntity
  8
1
  6
Continuous
 62
     4
370
    -2
100
AcDbLine
 10
663.0621207633587
 20
409.1051228530536
 30
0.0
 11
722.1285282061069
 21
409.1051228530536
 31
0.0
  0
LINE
  5
9267
330
9264
100
AcDbEntity
  8
1
  6
Continuous
 62
     4
370
    -2
100
AcDbLine
 10
721.1285282061069
 20
453.6938633110684
 30
0.0
 11
721.1285282061069
 21
442.399493082061
 31
0.0
  0
LINE
  5
9268
330
9264
100
AcDbEntity
  8
1
  6
Continuous
 62
     4
370
    -2
100
AcDbLine
 10
721.1285282061069
 20
411.1051228530533
 30
0.0
 11
721.1285282061069
 21
422.399493082061
 31
0.0
  0
SOLID
  5
9269
330
9264
100
AcDbEntity
  8
1
  6
Continuous
 62
     4
370
     0
100
AcDbTrace
 10
720.7951948727734
 20
453.6938633110684
 30
0.0
 11
721.4618615394402
 21
453.6938633110684
 31
0.0
 12
721.1285282061069
 22
455.6938633110686
 32
0.0
 13
721.1285282061069
 23
455.6938633110686
 33
0.0
  0
SOLID
  5
926A
330
9264
100
AcDbEntity
  8
1
  6
Continuous
 62
     4
370
     0
100
AcDbTrace
 10
720.7951948727734
 20
411.1051228530533
 30
0.0
 11
721.4618615394402
 21
411.1051228530533
 31
0.0
 12
721.1285282061069
 22
409.1051228530536
 32
0.0
 13
721.1285282061069
 23
409.1051228530536
 33
0.0
  0
MTEXT
  5
926B
330
9264
100
AcDbEntity
  8
1
  6
Continuous
 62
     2
100
AcDbMText
 10
721.1285282061067
 20
432.3994930820611
 30
0.0
 40
2.5
 41
0.0
 71
     5
 72
     1
  1
\A1; 46.58874 
 11
0.0000000000000001
 21
1.0
 31
0.0
 73
     1
 44
1.0
1001
ACAD
1000
MTEXTBEGIN
1070
    73
1070
     1
1070
    44
1040
1.0
1070
    74
1070
     0
1000
MTEXTEND
  0
POINT
  5
926C
330
9264
100
AcDbEntity
  8
DEFPOINTS
  6
Continuous
 62
     0
370
     0
100
AcDbPoint
 10
572.0907467175571
 20
455.6938633110686
 30
0.0
  0
POINT
  5
926D
330
9264
100
AcDbEntity
  8
DEFPOINTS
  6
Continuous
 62
     0
370
     0
100
AcDbPoint
 10
662.0621207633587
 20
409.1051228530536
 30
0.0
  0
POINT
  5
926E
330
9264
100
AcDbEntity
  8
DEFPOINTS
  6
Continuous
 62
     0
370
     0
100
AcDbPoint
 10
721.1285282061069
 20
409.1051228530536
 30
0.0
  0
ENDBLK
  5
9270
330
9264
100
AcDbEntity
  8
0
100
AcDbBlockEnd
  0
BLOCK
  5
927C
330
9271
100
AcDbEntity
  8
0
100
AcDbBlockBegin
  2
_D43
 70
     0
 10
0.0
 20
0.0
 30
0.0
  3
_D43
  1

  0
LINE
  5
9272
330
9271
100
AcDbEntity
  8
1
  6
Continuous
 62
     4
370
    -2
100
AcDbLine
 10
568.0812047328243
 20
500.7797411736641
 30
0.0
 11
682.0521923282442
 21
500.779741173664
 31
0.0
  0
LINE
  5
9273
330
9271
100
AcDbEntity
  8
1
  6
Continuous
 62
     4
370
    -2
100
AcDbLine
 10
568.0812047328243
 20
410.6079854484733
 30
0.0
 11
682.0521923282442
 21
410.6079854484732
 31
0.0
  0
LINE
  5
9274
330
9271
100
AcDbEntity
  8
1
  6
Continuous
 62
     4
370
    -2
100
AcDbLine
 10
681.0521923282442
 20
498.779741173664
 30
0.0
 11
681.0521923282442
 21
465.902196644402
 31
0.0
  0
LINE
  5
9275
330
9271
100
AcDbEntity
  8
1
  6
Continuous
 62
     4
370
    -2
100
AcDbLine
 10
681.0521923282442
 20
412.6079854484731
 30
0.0
 11
681.0521923282442
 21
445.4855299777352
 31
0.0
  0
SOLID
  5
9276
330
9271
100
AcDbEntity
  8
1
  6
Continuous
 62
     4
370
     0
100
AcDbTrace
 10
680.718858994911
 20
498.779741173664
 30
0.0
 11
681.3855256615777
 21
498.779741173664
 31
0.0
 12
681.0521923282442
 22
500.779741173664
 32
0.0
 13
681.0521923282442
 23
500.779741173664
 33
0.0
  0
SOLID
  5
9277
330
9271
100
AcDbEntity
  8
1
  6
Continuous
 62
     4
370
     0
100
AcDbTrace
 10
680.718858994911
 20
412.6079854484731
 30
0.0
 11
681.3855256615777
 21
412.6079854484731
 31
0.0
 12
681.0521923282442
 22
410.6079854484732
 32
0.0
 13
681.0521923282442
 23
410.6079854484732
 33
0.0
  0
MTEXT
  5
9278
330
9271
100
AcDbEntity
  8
1
  6
Continuous
 62
     2
100
AcDbMText
 10
681.0521923282442
 20
455.6938633110688
 30
0.0
 40
2.5
 41
0.0
 71
     5
 72
     1
  1
\A1; 90.171756 
 11
0.0000000000000001
 21
1.0
 31
0.0
 73
     1
 44
1.0
1001
ACAD
1000
MTEXTBEGIN
1070
    73
1070
     1
1070
    44
1040
1.0
1070
    74
1070
     0
1000
MTEXTEND
  0
POINT
  5
9279
330
9271
100
AcDbEntity
  8
DEFPOINTS
  6
Continuous
 62
     0
370
     0
100
AcDbPoint
 10
567.0812047328245
 20
500.7797411736641
 30
0.0
  0
POINT
  5
927A
330
9271
100
AcDbEntity
  8
DEFPOINTS
  6
Continuous
 62
     0
370
     0
100
AcDbPoint
 10
567.0812047328245
 20
410.6079854484733
 30
0.0
  0
POINT
  5
927B
330
9271
100
AcDbEntity
  8
DEFPOINTS
  6
Continuous
 62
     0
370
     0
100
AcDbPoint
 10
681.0521923282442
 20
410.6079854484732
 30
0.0
  0
ENDBLK
  5
927D
330
9271
100
AcDbEntity
  8
0
100
AcDbBlockEnd
  0
BLOCK
  5
9289
330
927E
100
AcDbEntity
  8
0
100
AcDbBlockBegin
  2
_D44
 70
     0
 10
0.0
 20
0.0
 30
0.0
  3
_D44
  1

  0
LINE
  5
927F
330
927E
100
AcDbEntity
  8
1
  6
Continuous
 62
     4
370
    -2
100
AcDbLine
 10
370.9094490076336
 20
596.9629472805343
 30
0.0
 11
339.4033373664121
 21
596.9629472805343
 31
0.0
  0
LINE
  5
9280
330
927E
100
AcDbEntity
  8
1
  6
Continuous
 62
     4
370
    -2
100
AcDbLine
 10
438.6384566412214
 20
707.1728709446566
 30
0.0
 11
339.4033373664122
 21
707.1728709446566
 31
0.0
  0
LINE
  5
9281
330
927E
100
AcDbEntity
  8
1
  6
Continuous
 62
     4
370
    -2
100
AcDbLine
 10
340.4033373664121
 20
598.9629472805343
 30
0.0
 11
340.4033373664121
 21
640.8179091125955
 31
0.0
  0
LINE
  5
9282
330
927E
100
AcDbEntity
  8
1
  6
Continuous
 62
     4
370
    -2
100
AcDbLine
 10
340.4033373664121
 20
705.1728709446567
 30
0.0
 11
340.4033373664121
 21
663.3179091125955
 31
0.0
  0
SOLID
  5
9283
330
927E
100
AcDbEntity
  8
1
  6
Continuous
 62
     4
370
     0
100
AcDbTrace
 10
340.0700040330788
 20
598.9629472805343
 30
0.0
 11
340.7366706997454
 21
598.9629472805343
 31
0.0
 12
340.4033373664121
 22
596.9629472805343
 32
0.0
 13
340.4033373664121
 23
596.9629472805343
 33
0.0
  0
SOLID
  5
9284
330
927E
100
AcDbEntity
  8
1
  6
Continuous
 62
     4
370
     0
100
AcDbTrace
 10
340.0700040330788
 20
705.1728709446567
 30
0.0
 11
340.7366706997454
 21
705.1728709446567
 31
0.0
 12
340.4033373664121
 22
707.1728709446566
 32
0.0
 13
340.4033373664121
 23
707.1728709446566
 33
0.0
  0
MTEXT
  5
9285
330
927E
100
AcDbEntity
  8
1
  6
Continuous
 62
     2
100
AcDbMText
 10
340.403337366412
 20
652.0679091125956
 30
0.0
 40
2.5
 41
0.0
 71
     5
 72
     1
  1
\A1; 110.209924 
 11
0.0000000000000001
 21
1.0
 31
0.0
 73
     1
 44
1.0
1001
ACAD
1000
MTEXTBEGIN
1070
    73
1070
     1
1070
    44
1040
1.0
1070
    74
1070
     0
1000
MTEXTEND
  0
POINT
  5
9286
330
927E
100
AcDbEntity
  8
DEFPOINTS
  6
Continuous
 62
     0
370
     0
100
AcDbPoint
 10
371.9094490076336
 20
596.9629472805343
 30
0.0
  0
POINT
  5
9287
330
927E
100
AcDbEntity
  8
DEFPOINTS
  6
Continuous
 62
     0
370
     0
100
AcDbPoint
 10
439.6384566412214
 20
707.1728709446566
 30
0.0
  0
POINT
  5
9288
330
927E
100
AcDbEntity
  8
DEFPOINTS
  6
Continuous
 62
     0
370
     0
100
AcDbPoint
 10
340.4033373664121
 20
707.1728709446566
 30
0.0
  0
ENDBLK
  5
928A
330
927E
100
AcDbEntity
  8
0
100
AcDbBlockEnd
  0
BLOCK
  5
9296
330
928B
100
AcDbEntity
  8
0
100
AcDbBlockBegin
  2
_D45
 70
     0
 10
0.0
 20
0.0
 30
0.0
  3
_D45
  1

  0
LINE
  5
928C
330
928B
100
AcDbEntity
  8
1
  6
Continuous
 62
     4
370
    -2
100
AcDbLine
 10
1654.751052061068
 20
-207.5694954675571
 30
0.0
 11
1819.218222862595
 21
-207.5694954675572
 31
0.0
  0
LINE
  5
928D
330
928B
100
AcDbEntity
  8
1
  6
Continuous
 62
     4
370
    -2
100
AcDbLine
 10
1514.884639847328
 20
-90.34621302480919
 30
0.0
 11
1819.218222862595
 21
-90.34621302480923
 31
0.0
  0
LINE
  5
928E
330
928B
100
AcDbEntity
  8
1
  6
Continuous
 62
     4
370
    -2
100
AcDbLine
 10
1818.218222862595
 20
-205.5694954675572
 30
0.0
 11
1818.218222862595
 21
-160.6245209128499
 31
0.0
  0
LINE
  5
928F
330
928B
100
AcDbEntity
  8
1
  6
Continuous
 62
     4
370
    -2
100
AcDbLine
 10
1818.218222862595
 20
-92.34621302480922
 30
0.0
 11
1818.218222862595
 21
-137.2911875795165
 31
0.0
  0
SOLID
  5
9290
330
928B
100
AcDbEntity
  8
1
  6
Continuous
 62
     4
370
     0
100
AcDbTrace
 10
1817.884889529262
 20
-205.5694954675572
 30
0.0
 11
1818.551556195928
 21
-205.5694954675572
 31
0.0
 12
1818.218222862595
 22
-207.5694954675572
 32
0.0
 13
1818.218222862595
 23
-207.5694954675572
 33
0.0
  0
SOLID
  5
9291
330
928B
100
AcDbEntity
  8
1
  6
Continuous
 62
     4
370
     0
100
AcDbTrace
 10
1817.884889529262
 20
-92.34621302480922
 30
0.0
 11
1818.551556195928
 21
-92.34621302480922
 31
0.0
 12
1818.218222862595
 22
-90.34621302480923
 32
0.0
 13
1818.218222862595
 23
-90.34621302480923
 33
0.0
  0
MTEXT
  5
9292
330
928B
100
AcDbEntity
  8
1
  6
Continuous
 62
     2
100
AcDbMText
 10
1818.218222862595
 20
-148.9578542461829
 30
0.0
 40
2.5
 41
0.0
 71
     5
 72
     1
  1
\A1; 117.223282 
 11
0.0000000000000001
 21
1.0
 31
0.0
 73
     1
 44
1.0
1001
ACAD
1000
MTEXTBEGIN
1070
    73
1070
     1
1070
    44
1040
1.0
1070
    74
1070
     0
1000
MTEXTEND
  0
POINT
  5
9293
330
928B
100
AcDbEntity
  8
DEFPOINTS
  6
Continuous
 62
     0
370
     0
100
AcDbPoint
 10
1653.751052061068
 20
-207.5694954675571
 30
0.0
  0
POINT
  5
9294
330
928B
100
AcDbEntity
  8
DEFPOINTS
  6
Continuous
 62
     0
370
     0
100
AcDbPoint
 10
1513.884639847328
 20
-90.34621302480919
 30
0.0
  0
POINT
  5
9295
330
928B
100
AcDbEntity
  8
DEFPOINTS
  6
Continuous
 62
     0
370
     0
100
AcDbPoint
 10
1818.218222862595
 20
-90.34621302480923
 30
0.0
  0
ENDBLK
  5
9297
330
928B
100
AcDbEntity
  8
0
100
AcDbBlockEnd
  0
BLOCK
  5
92A3
330
9298
100
AcDbEntity
  8
0
100
AcDbBlockBegin
  2
_D46
 70
     0
 10
0.0
 20
0.0
 30
0.0
  3
_D46
  1

  0
LINE
  5
9299
330
9298
100
AcDbEntity
  8
1
  6
Continuous
 62
     4
370
    -2
100
AcDbLine
 10
1805.037311603053
 20
-90.34621302480919
 30
0.0
 11
1819.218222862595
 21
-90.34621302480919
 31
0.0
  0
LINE
  5
929A
330
9298
100
AcDbEntity
  8
1
  6
Continuous
 62
     4
370
    -2
100
AcDbLine
 10
1654.751052061068
 20
35.89424499045799
 30
0.0
 11
1819.218222862595
 21
35.89424499045796
 31
0.0
  0
LINE
  5
929B
330
9298
100
AcDbEntity
  8
1
  6
Continuous
 62
     4
370
    -2
100
AcDbLine
 10
1818.218222862595
 20
-88.34621302480917
 30
0.0
 11
1818.218222862595
 21
-39.10098401717561
 31
0.0
  0
LINE
  5
929C
330
9298
100
AcDbEntity
  8
1
  6
Continuous
 62
     4
370
    -2
100
AcDbLine
 10
1818.218222862595
 20
33.89424499045794
 30
0.0
 11
1818.218222862595
 21
-15.35098401717561
 31
0.0
  0
SOLID
  5
929D
330
9298
100
AcDbEntity
  8
1
  6
Continuous
 62
     4
370
     0
100
AcDbTrace
 10
1817.884889529262
 20
-88.34621302480917
 30
0.0
 11
1818.551556195928
 21
-88.34621302480917
 31
0.0
 12
1818.218222862595
 22
-90.34621302480919
 32
0.0
 13
1818.218222862595
 23
-90.34621302480919
 33
0.0
  0
SOLID
  5
929E
330
9298
100
AcDbEntity
  8
1
  6
Continuous
 62
     4
370
     0
100
AcDbTrace
 10
1817.884889529262
 20
33.89424499045794
 30
0.0
 11
1818.551556195928
 21
33.89424499045794
 31
0.0
 12
1818.218222862595
 22
35.89424499045796
 32
0.0
 13
1818.218222862595
 23
35.89424499045796
 33
0.0
  0
MTEXT
  5
929F
330
9298
100
AcDbEntity
  8
1
  6
Continuous
 62
     2
100
AcDbMText
 10
1818.218222862595
 20
-27.22598401717532
 30
0.0
 40
2.5
 41
0.0
 71
     5
 72
     1
  1
\A1; 126.240458 
 11
0.0000000000000001
 21
1.0
 31
0.0
 73
     1
 44
1.0
1001
ACAD
1000
MTEXTBEGIN
1070
    73
1070
     1
1070
    44
1040
1.0
1070
    74
1070
     0
1000
MTEXTEND
  0
POINT
  5
92A0
330
9298
100
AcDbEntity
  8
DEFPOINTS
  6
Continuous
 62
     0
370
     0
100
AcDbPoint
 10
1804.037311603053
 20
-90.34621302480919
 30
0.0
  0
POINT
  5
92A1
330
9298
100
AcDbEntity
  8
DEFPOINTS
  6
Continuous
 62
     0
370
     0
100
AcDbPoint
 10
1653.751052061068
 20
35.89424499045799
 30
0.0
  0
POINT
  5
92A2
330
9298
100
AcDbEntity
  8
DEFPOINTS
  6
Continuous
 62
     0
370
     0
100
AcDbPoint
 10
1818.218222862595
 20
35.89424499045796
 30
0.0
  0
ENDBLK
  5
92A4
330
9298
100
AcDbEntity
  8
0
100
AcDbBlockEnd
  0
BLOCK
  5
92B0
330
92A5
100
AcDbEntity
  8
0
100
AcDbBlockBegin
  2
_D47
 70
     0
 10
0.0
 20
0.0
 30
0.0
  3
_D47
  1

  0
LINE
  5
92A6
330
92A5
100
AcDbEntity
  8
1
  6
Continuous
 62
     4
370
    -2
100
AcDbLine
 10
663.0621207633587
 20
596.9629472805343
 30
0.0
 11
747.1762381297708
 21
596.9629472805343
 31
0.0
  0
LINE
  5
92A7
330
92A5
100
AcDbEntity
  8
1
  6
Continuous
 62
     4
370
    -2
100
AcDbLine
 10
673.0812047328242
 20
455.6938633110686
 30
0.0
 11
747.1762381297708
 21
455.6938633110686
 31
0.0
  0
LINE
  5
92A8
330
92A5
100
AcDbEntity
  8
1
  6
Continuous
 62
     4
370
    -2
100
AcDbLine
 10
746.1762381297708
 20
594.9629472805343
 30
0.0
 11
746.1762381297708
 21
537.7867386291349
 31
0.0
  0
LINE
  5
92A9
330
92A5
100
AcDbEntity
  8
1
  6
Continuous
 62
     4
370
    -2
100
AcDbLine
 10
746.1762381297708
 20
457.6938633110686
 30
0.0
 11
746.1762381297708
 21
514.8700719624681
 31
0.0
  0
SOLID
  5
92AA
330
92A5
100
AcDbEntity
  8
1
  6
Continuous
 62
     4
370
     0
100
AcDbTrace
 10
745.8429047964377
 20
594.9629472805343
 30
0.0
 11
746.5095714631043
 21
594.9629472805343
 31
0.0
 12
746.1762381297708
 22
596.9629472805343
 32
0.0
 13
746.1762381297708
 23
596.9629472805343
 33
0.0
  0
SOLID
  5
92AB
330
92A5
100
AcDbEntity
  8
1
  6
Continuous
 62
     4
370
     0
100
AcDbTrace
 10
745.8429047964377
 20
457.6938633110686
 30
0.0
 11
746.5095714631043
 21
457.6938633110686
 31
0.0
 12
746.1762381297708
 22
455.6938633110686
 32
0.0
 13
746.1762381297708
 23
455.6938633110686
 33
0.0
  0
MTEXT
  5
92AC
330
92A5
100
AcDbEntity
  8
1
  6
Continuous
 62
     2
100
AcDbMText
 10
746.1762381297708
 20
526.3284052958016
 30
0.0
 40
2.5
 41
0.0
 71
     5
 72
     1
  1
\A1; 141.269084 
 11
0.0000000000000001
 21
1.0
 31
0.0
 73
     1
 44
1.0
1001
ACAD
1000
MTEXTBEGIN
1070
    73
1070
     1
1070
    44
1040
1.0
1070
    74
1070
     0
1000
MTEXTEND
  0
POINT
  5
92AD
330
92A5
100
AcDbEntity
  8
DEFPOINTS
  6
Continuous
 62
     0
370
     0
100
AcDbPoint
 10
662.0621207633587
 20
596.9629472805343
 30
0.0
  0
POINT
  5
92AE
330
92A5
100
AcDbEntity
  8
DEFPOINTS
  6
Continuous
 62
     0
370
     0
100
AcDbPoint
 10
672.0812047328243
 20
455.6938633110686
 30
0.0
  0
POINT
  5
92AF
330
92A5
100
AcDbEntity
  8
DEFPOINTS
  6
Continuous
 62
     0
370
     0
100
AcDbPoint
 10
746.1762381297708
 20
455.6938633110686
 30
0.0
  0
ENDBLK
  5
92B1
330
92A5
100
AcDbEntity
  8
0
100
AcDbBlockEnd
  0
BLOCK
  5
92BD
330
92B2
100
AcDbEntity
  8
0
100
AcDbBlockBegin
  2
_D48
 70
     0
 10
0.0
 20
0.0
 30
0.0
  3
_D48
  1

  0
LINE
  5
92B3
330
92B2
100
AcDbEntity
  8
1
  6
Continuous
 62
     4
370
    -2
100
AcDbLine
 10
673.0812047328242
 20
455.6938633110686
 30
0.0
 11
747.1762381297708
 21
455.6938633110686
 31
0.0
  0
LINE
  5
92B4
330
92B2
100
AcDbEntity
  8
1
  6
Continuous
 62
     4
370
    -2
100
AcDbLine
 10
663.0621207633587
 20
323.4419549141221
 30
0.0
 11
747.1762381297708
 21
323.4419549141221
 31
0.0
  0
LINE
  5
92B5
330
92B2
100
AcDbEntity
  8
1
  6
Continuous
 62
     4
370
    -2
100
AcDbLine
 10
746.1762381297708
 20
453.6938633110686
 30
0.0
 11
746.1762381297708
 21
401.0262424459286
 31
0.0
  0
LINE
  5
92B6
330
92B2
100
AcDbEntity
  8
1
  6
Continuous
 62
     4
370
    -2
100
AcDbLine
 10
746.1762381297708
 20
325.4419549141221
 30
0.0
 11
746.1762381297708
 21
378.109575779262
 31
0.0
  0
SOLID
  5
92B7
330
92B2
100
AcDbEntity
  8
1
  6
Continuous
 62
     4
370
     0
100
AcDbTrace
 10
745.8429047964377
 20
453.6938633110686
 30
0.0
 11
746.5095714631043
 21
453.6938633110686
 31
0.0
 12
746.1762381297708
 22
455.6938633110686
 32
0.0
 13
746.1762381297708
 23
455.6938633110686
 33
0.0
  0
SOLID
  5
92B8
330
92B2
100
AcDbEntity
  8
1
  6
Continuous
 62
     4
370
     0
100
AcDbTrace
 10
745.8429047964377
 20
325.4419549141221
 30
0.0
 11
746.5095714631043
 21
325.4419549141221
 31
0.0
 12
746.1762381297708
 22
323.4419549141221
 32
0.0
 13
746.1762381297708
 23
323.4419549141221
 33
0.0
  0
MTEXT
  5
92B9
330
92B2
100
AcDbEntity
  8
1
  6
Continuous
 62
     2
100
AcDbMText
 10
746.1762381297708
 20
389.5679091125956
 30
0.0
 40
2.5
 41
0.0
 71
     5
 72
     1
  1
\A1; 132.251908 
 11
0.0000000000000001
 21
1.0
 31
0.0
 73
     1
 44
1.0
1001
ACAD
1000
MTEXTBEGIN
1070
    73
1070
     1
1070
    44
1040
1.0
1070
    74
1070
     0
1000
MTEXTEND
  0
POINT
  5
92BA
330
92B2
100
AcDbEntity
  8
DEFPOINTS
  6
Continuous
 62
     0
370
     0
100
AcDbPoint
 10
672.0812047328243
 20
455.6938633110686
 30
0.0
  0
POINT
  5
92BB
330
92B2
100
AcDbEntity
  8
DEFPOINTS
  6
Continuous
 62
     0
370
     0
100
AcDbPoint
 10
662.0621207633587
 20
323.4419549141221
 30
0.0
  0
POINT
  5
92BC
330
92B2
100
AcDbEntity
  8
DEFPOINTS
  6
Continuous
 62
     0
370
     0
100
AcDbPoint
 10
746.1762381297708
 20
323.4419549141221
 30
0.0
  0
ENDBLK
  5
92BE
330
92B2
100
AcDbEntity
  8
0
100
AcDbBlockEnd
  0
BLOCK
  5
92CA
330
92BF
100
AcDbEntity
  8
0
100
AcDbBlockBegin
  2
_D49
 70
     0
 10
0.0
 20
0.0
 30
0.0
  3
_D49
  1

  0
LINE
  5
92C0
330
92BF
100
AcDbEntity
  8
1
  6
Continuous
 62
     4
370
    -2
100
AcDbLine
 10
1686.912311603053
 20
501.7816495706107
 30
0.0
 11
1859.294558740456
 21
501.7816495706107
 31
0.0
  0
LINE
  5
92C1
330
92BF
100
AcDbEntity
  8
1
  6
Continuous
 62
     4
370
    -2
100
AcDbLine
 10
1686.912311603053
 20
409.6060770515268
 30
0.0
 11
1859.294558740456
 21
409.6060770515268
 31
0.0
  0
LINE
  5
92C2
330
92BF
100
AcDbEntity
  8
1
  6
Continuous
 62
     4
370
    -2
100
AcDbLine
 10
1858.294558740458
 20
499.7816495706106
 30
0.0
 11
1858.294558740458
 21
466.527196644402
 31
0.0
  0
LINE
  5
92C3
330
92BF
100
AcDbEntity
  8
1
  6
Continuous
 62
     4
370
    -2
100
AcDbLine
 10
1858.294558740458
 20
411.6060770515266
 30
0.0
 11
1858.294558740458
 21
444.8605299777352
 31
0.0
  0
SOLID
  5
92C4
330
92BF
100
AcDbEntity
  8
1
  6
Continuous
 62
     4
370
     0
100
AcDbTrace
 10
1857.961225407124
 20
499.7816495706106
 30
0.0
 11
1858.627892073791
 21
499.7816495706106
 31
0.0
 12
1858.294558740458
 22
501.7816495706107
 32
0.0
 13
1858.294558740458
 23
501.7816495706107
 33
0.0
  0
SOLID
  5
92C5
330
92BF
100
AcDbEntity
  8
1
  6
Continuous
 62
     4
370
     0
100
AcDbTrace
 10
1857.961225407124
 20
411.6060770515266
 30
0.0
 11
1858.627892073791
 21
411.6060770515266
 31
0.0
 12
1858.294558740458
 22
409.6060770515268
 32
0.0
 13
1858.294558740458
 23
409.6060770515268
 33
0.0
  0
MTEXT
  5
92C6
330
92BF
100
AcDbEntity
  8
1
  6
Continuous
 62
     2
100
AcDbMText
 10
1858.294558740458
 20
455.693863311069
 30
0.0
 40
2.5
 41
0.0
 71
     5
 72
     1
  1
\A1; 92.175573 
 11
0.0000000000000001
 21
1.0
 31
0.0
 73
     1
 44
1.0
1001
ACAD
1000
MTEXTBEGIN
1070
    73
1070
     1
1070
    44
1040
1.0
1070
    74
1070
     0
1000
MTEXTEND
  0
POINT
  5
92C7
330
92BF
100
AcDbEntity
  8
DEFPOINTS
  6
Continuous
 62
     0
370
     0
100
AcDbPoint
 10
1685.912311603053
 20
501.7816495706107
 30
0.0
  0
POINT
  5
92C8
330
92BF
100
AcDbEntity
  8
DEFPOINTS
  6
Continuous
 62
     0
370
     0
100
AcDbPoint
 10
1685.912311603053
 20
409.6060770515268
 30
0.0
  0
POINT
  5
92C9
330
92BF
100
AcDbEntity
  8
DEFPOINTS
  6
Continuous
 62
     0
370
     0
100
AcDbPoint
 10
1858.294558740458
 20
409.6060770515268
 30
0.0
  0
ENDBLK
  5
92CB
330
92BF
100
AcDbEntity
  8
0
100
AcDbBlockEnd
  0
BLOCK
  5
92D2
330
92CC
100
AcDbEntity
  8
0
100
AcDbBlockBegin
  2
_D50
 70
     0
 10
0.0
 20
0.0
 30
0.0
  3
_D50
  1

  0
LINE
  5
92CD
330
92CC
100
AcDbEntity
  8
1
  6
Continuous
 62
     4
370
    -2
100
AcDbLine
 10
1239.623248387404
 20
500.093008110687
 30
0.0
 11
1231.373248387404
 21
500.093008110687
 31
0.0
  0
MTEXT
  5
92CE
330
92CC
100
AcDbEntity
  8
1
  6
Continuous
 62
     2
100
AcDbMText
 10
1236.498248387404
 20
501.343008110687
 30
0.0
 40
2.5
 41
0.0
 71
     5
 72
     1
  1
\A1; R0 
 73
     1
 44
1.0
1001
ACAD
1000
MTEXTBEGIN
1070
    73
1070
     1
1070
    44
1040
1.0
1070
    74
1070
     0
1000
MTEXTEND
  0
SOLID
  5
92CF
330
92CC
100
AcDbEntity
  8
1
  6
Continuous
 62
     4
370
     0
100
AcDbTrace
 10
1227.373248387404
 20
500.4263414440202
 30
0.0
 11
1227.373248387404
 21
499.7596747773537
 31
0.0
 12
1229.373248387404
 22
500.093008110687
 32
0.0
 13
1229.373248387404
 23
500.093008110687
 33
0.0
  0
POINT
  5
92D0
330
92CC
100
AcDbEntity
  8
DEFPOINTS
  6
Continuous
 62
     0
370
     0
100
AcDbPoint
 10
1229.373248387404
 20
500.093008110687
 30
0.0
  0
POINT
  5
92D1
330
92CC
100
AcDbEntity
  8
DEFPOINTS
  6
Continuous
 62
     0
370
     0
100
AcDbPoint
 10
1229.373248387404
 20
500.093008110687
 30
0.0
  0
ENDBLK
  5
92D3
330
92CC
100
AcDbEntity
  8
0
100
AcDbBlockEnd
  0
BLOCK
  5
92DD
330
92D4
100
AcDbEntity
  8
0
100
AcDbBlockBegin
  2
_D51
 70
     0
 10
0.0
 20
0.0
 30
0.0
  3
_D51
  1

  0
LINE
  5
92D5
330
92D4
100
AcDbEntity
  8
1
  6
Continuous
 62
     4
370
    -2
100
AcDbLine
 10
1640.542247160275
 20
-202.5008354710649
 30
0.0
 11
1642.542247160276
 21
-202.5008354710649
 31
0.0
  0
LINE
  5
92D6
330
92D4
100
AcDbEntity
  8
1
  6
Continuous
 62
     4
370
    -2
100
AcDbLine
 10
1642.542247160276
 20
-202.5008354710649
 30
0.0
 11
1644.090586275748
 21
-203.7667920198836
 31
0.0
  0
MTEXT
  5
92D7
102
{ACAD_XDICTIONARY
360
1082F
102
}
330
92D4
100
AcDbEntity
  8
1
  6
Continuous
 62
     2
100
AcDbMText
 10
1631.167247160275
 20
-202.5008354710649
 30
0.0
 40
2.5
 41
0.0
 71
     5
 72
     1
  1
\A1;\U+22058.015265
 73
     1
 44
1.0
1001
ACAD
1000
MTEXTBEGIN
1070
    73
1070
     1
1070
    44
1040
1.0
1070
    74
1070
     0
1000
MTEXTEND
  0
SOLID
  5
92D8
330
92D4
100
AcDbEntity
  8
1
  6
Continuous
 62
     4
370
     0
100
AcDbTrace
 10
1644.301579033885
 20
-203.508735500638
 30
0.0
 11
1643.879593517612
 21
-204.0248485391291
 31
0.0
 12
1645.638925391221
 22
-205.0327485687023
 32
0.0
 13
1645.638925391221
 23
-205.0327485687023
 33
0.0
  0
LINE
  5
92D9
330
92D4
100
AcDbEntity
  8
1
  6
Continuous
 62
     4
370
    -2
100
AcDbLine
 10
1648.651512581106
 20
-207.5694929627863
 30
0.0
 11
1648.831512581107
 21
-207.5694929627861
 31
0.0
  0
LINE
  5
92DA
330
92D4
100
AcDbEntity
  8
1
  6
Continuous
 62
     4
370
    -2
100
AcDbLine
 10
1648.741512581106
 20
-207.6594929627861
 30
0.0
 11
1648.741512581106
 21
-207.4794929627862
 31
0.0
  0
POINT
  5
92DB
330
92D4
100
AcDbEntity
  8
DEFPOINTS
  6
Continuous
 62
     0
370
     0
100
AcDbPoint
 10
1645.638925391221
 20
-205.0327485687023
 30
0.0
  0
POINT
  5
92DC
330
92D4
100
AcDbEntity
  8
DEFPOINTS
  6
Continuous
 62
     0
370
     0
100
AcDbPoint
 10
1651.844099770992
 20
-210.1062373568703
 30
0.0
  0
ENDBLK
  5
92DE
330
92D4
100
AcDbEntity
  8
0
100
AcDbBlockEnd
  0
BLOCK
  5
92E8
330
92DF
100
AcDbEntity
  8
0
100
AcDbBlockBegin
  2
_D52
 70
     0
 10
0.0
 20
0.0
 30
0.0
  3
_D52
  1

  0
LINE
  5
92E0
330
92DF
100
AcDbEntity
  8
1
  6
Continuous
 62
     4
370
    -2
100
AcDbLine
 10
213.7807022893732
 20
653.0926504547315
 30
0.0
 11
215.7807022893732
 21
653.0926504547315
 31
0.0
  0
LINE
  5
92E1
330
92DF
100
AcDbEntity
  8
1
  6
Continuous
 62
     4
370
    -2
100
AcDbLine
 10
215.7807022893732
 20
653.0926504547315
 30
0.0
 11
216.8159985969766
 21
654.803837631946
 31
0.0
  0
MTEXT
  5
92E2
102
{ACAD_XDICTIONARY
360
10831
102
}
330
92DF
100
AcDbEntity
  8
1
  6
Continuous
 62
     2
100
AcDbMText
 10
203.3640356227065
 20
653.0926504547315
 30
0.0
 40
2.5
 41
0.0
 71
     5
 72
     1
  1
\A1;\U+220513.024807
 73
     1
 44
1.0
1001
ACAD
1000
MTEXTBEGIN
1070
    73
1070
     1
1070
    44
1040
1.0
1070
    74
1070
     0
1000
MTEXTEND
  0
SOLID
  5
92E3
330
92DF
100
AcDbEntity
  8
1
  6
Continuous
 62
     4
370
     0
100
AcDbTrace
 10
216.5308007341075
 20
654.9763870165462
 30
0.0
 11
217.1011964598456
 21
654.6312882473452
 31
0.0
 12
217.85129490458
 22
656.5150248091602
 32
0.0
 13
217.85129490458
 23
656.5150248091602
 33
0.0
  0
LINE
  5
92E4
330
92DF
100
AcDbEntity
  8
1
  6
Continuous
 62
     4
370
    -2
100
AcDbLine
 10
221.1324286116411
 20
662.086995586832
 30
0.0
 11
221.3124286116411
 21
662.086995586832
 31
0.0
  0
LINE
  5
92E5
330
92DF
100
AcDbEntity
  8
1
  6
Continuous
 62
     4
370
    -2
100
AcDbLine
 10
221.2224286116411
 20
661.9969955868318
 30
0.0
 11
221.2224286116412
 21
662.1769955868321
 31
0.0
  0
POINT
  5
92E6
330
92DF
100
AcDbEntity
  8
DEFPOINTS
  6
Continuous
 62
     0
370
     0
100
AcDbPoint
 10
217.85129490458
 20
656.5150248091602
 30
0.0
  0
POINT
  5
92E7
330
92DF
100
AcDbEntity
  8
DEFPOINTS
  6
Continuous
 62
     0
370
     0
100
AcDbPoint
 10
224.5935623187023
 20
667.6589663645038
 30
0.0
  0
ENDBLK
  5
92E9
330
92DF
100
AcDbEntity
  8
0
100
AcDbBlockEnd
  0
BLOCK
  5
92F4
330
92EA
100
AcDbEntity
  8
0
100
AcDbBlockBegin
  2
_D53
 70
     0
 10
0.0
 20
0.0
 30
0.0
  3
_D53
  1

  0
LINE
  5
92EB
330
92EA
100
AcDbEntity
  8
1
  6
Continuous
 62
     4
370
    -2
100
AcDbLine
 10
919.9533421374047
 20
454.6938633110686
 30
0.0
 11
919.9533421374047
 21
-29.57442748091603
 31
0.0
  0
LINE
  5
92EC
330
92EA
100
AcDbEntity
  8
1
  6
Continuous
 62
     4
370
    -2
100
AcDbLine
 10
839.5992166603051
 20
454.6938633110686
 30
0.0
 11
839.5992166603051
 21
-29.57442748091603
 31
0.0
  0
LINE
  5
92ED
330
92EA
100
AcDbEntity
  8
1
  6
Continuous
 62
     4
370
    -2
100
AcDbLine
 10
917.9533421374047
 20
-28.57442748091603
 30
0.0
 11
841.5992166603052
 21
-28.57442748091603
 31
0.0
  0
SOLID
  5
92EE
330
92EA
100
AcDbEntity
  8
1
  6
Continuous
 62
     4
370
     0
100
AcDbTrace
 10
917.9533421374047
 20
-28.2410941475827
 30
0.0
 11
917.9533421374047
 21
-28.90776081424936
 31
0.0
 12
919.9533421374047
 22
-28.57442748091603
 32
0.0
 13
919.9533421374047
 23
-28.57442748091603
 33
0.0
  0
SOLID
  5
92EF
330
92EA
100
AcDbEntity
  8
1
  6
Continuous
 62
     4
370
     0
100
AcDbTrace
 10
841.5992166603052
 20
-28.2410941475827
 30
0.0
 11
841.5992166603052
 21
-28.90776081424936
 31
0.0
 12
839.5992166603051
 22
-28.57442748091603
 32
0.0
 13
839.5992166603051
 23
-28.57442748091603
 33
0.0
  0
MTEXT
  5
92F0
330
92EA
100
AcDbEntity
  8
1
  6
Continuous
 62
     2
100
AcDbMText
 10
879.7762793988551
 20
-27.32442748091604
 30
0.0
 40
2.5
 41
0.0
 71
     5
 72
     1
  1
\A1; 80.354125 
 73
     1
 44
1.0
1001
ACAD
1000
MTEXTBEGIN
1070
    73
1070
     1
1070
    44
1040
1.0
1070
    74
1070
     0
1000
MTEXTEND
  0
POINT
  5
92F1
330
92EA
100
AcDbEntity
  8
DEFPOINTS
  6
Continuous
 62
     0
370
     0
100
AcDbPoint
 10
919.9533421374047
 20
455.6938633110686
 30
0.0
  0
POINT
  5
92F2
330
92EA
100
AcDbEntity
  8
DEFPOINTS
  6
Continuous
 62
     0
370
     0
100
AcDbPoint
 10
839.5992166603051
 20
455.6938633110686
 30
0.0
  0
POINT
  5
92F3
330
92EA
100
AcDbEntity
  8
DEFPOINTS
  6
Continuous
 62
     0
370
     0
100
AcDbPoint
 10
839.5992166603051
 20
-28.57442748091603
 30
0.0
  0
ENDBLK
  5
92F5
330
92EA
100
AcDbEntity
  8
0
100
AcDbBlockEnd
  0
BLOCK
  5
C4FB
330
C4F9
100
AcDbEntity
  8
0
100
AcDbBlockBegin
  2
ASSORTED_DRAFT1
 70
     0
 10
0.0
 20
0.0
 30
0.0
  3
ASSORTED_DRAFT1
  1

  0
SOLID
  5
C4FA
330
C4F9
100
AcDbEntity
  8
0
 62
     4
100
AcDbTrace
 10
216.3871959999999
 20
130.0647229999998
 30
0.0
 11
214.925271
 21
131.4699939999999
 31
0.0
 12
215.462429
 22
131.8693909999999
 32
0.0
 13
216.3871959999999
 23
130.0647229999998
 33
0.0
  0
ENDBLK
  5
C4FC
330
C4F9
100
AcDbEntity
  8
0
100
AcDbBlockEnd
  0
BLOCK
  5
D050
330
D046
100
AcDbEntity
  8
0
100
AcDbBlockBegin
  2
*D56
 70
     1
 10
0.0
 20
0.0
 30
0.0
  3
*D56
  1

  0
LINE
  5
10497
330
D046
100
AcDbEntity
  8
30
 62
     0
370
    -2
100
AcDbLine
 10
-131.4999999999997
 20
180.4999999999999
 30
0.0
 11
-131.4999999999997
 21
188.0
 31
0.0
  0
LINE
  5
10498
330
D046
100
AcDbEntity
  8
30
 62
     0
370
    -2
100
AcDbLine
 10
-33.50000000000022
 20
180.4999999999999
 30
0.0
 11
-33.50000000000022
 21
188.0
 31
0.0
  0
LINE
  5
10499
330
D046
100
AcDbEntity
  8
30
 62
     0
370
    -2
100
AcDbLine
 10
-129.4999999999997
 20
187.5
 30
0.0
 11
-35.50000000000022
 21
187.5
 31
0.0
  0
INSERT
  5
1049A
330
D046
100
AcDbEntity
  8
30
 62
     0
370
    -2
100
AcDbBlockReference
  2
_OPEN
 10
-131.4999999999997
 20
187.5
 30
0.0
 41
2.0
 42
2.0
 43
2.0
 50
180.0
  0
INSERT
  5
1049B
330
D046
100
AcDbEntity
  8
30
 62
     0
370
    -2
100
AcDbBlockReference
  2
_OPEN
 10
-33.50000000000022
 20
187.5
 30
0.0
 41
2.0
 42
2.0
 43
2.0
  0
MTEXT
  5
1049C
330
D046
100
AcDbEntity
  8
30
 62
     0
100
AcDbMText
 10
-82.5
 20
192.5
 30
0.0
 40
6.0
 41
0.0
 71
     5
 72
     1
  1
\A1;98
 73
     1
 44
1.0
1001
ACAD
1000
MTEXTBEGIN
1070
    73
1070
     1
1070
    44
1040
1.0
1070
    74
1070
     0
1000
MTEXTEND
  0
POINT
  5
1049D
330
D046
100
AcDbEntity
  8
DEFPOINTS
 62
     0
100
AcDbPoint
 10
-131.4999999999997
 20
177.5
 30
0.0
  0
POINT
  5
1049E
330
D046
100
AcDbEntity
  8
DEFPOINTS
 62
     0
100
AcDbPoint
 10
-33.50000000000022
 20
177.5
 30
0.0
  0
POINT
  5
1049F
330
D046
100
AcDbEntity
  8
DEFPOINTS
 62
     0
100
AcDbPoint
 10
-33.50000000000022
 20
187.5
 30
0.0
  0
ENDBLK
  5
D051
330
D046
100
AcDbEntity
  8
0
100
AcDbBlockEnd
  0
BLOCK
  5
D066
330
D05C
100
AcDbEntity
  8
0
100
AcDbBlockBegin
  2
*D57
 70
     1
 10
0.0
 20
0.0
 30
0.0
  3
*D57
  1

  0
LINE
  5
104A0
330
D05C
100
AcDbEntity
  8
30
 62
     0
370
    -2
100
AcDbLine
 10
-93.49999999999964
 20
124.5
 30
0.0
 11
-93.49999999999964
 21
117.0
 31
0.0
  0
LINE
  5
104A1
330
D05C
100
AcDbEntity
  8
30
 62
     0
370
    -2
100
AcDbLine
 10
-71.49999999999976
 20
124.5
 30
0.0
 11
-71.49999999999976
 21
117.0
 31
0.0
  0
LINE
  5
104A2
330
D05C
100
AcDbEntity
  8
30
 62
     0
370
    -2
100
AcDbLine
 10
-91.49999999999966
 20
117.5
 30
0.0
 11
-73.49999999999976
 21
117.5
 31
0.0
  0
INSERT
  5
104A3
330
D05C
100
AcDbEntity
  8
30
 62
     0
370
    -2
100
AcDbBlockReference
  2
_OPEN
 10
-93.49999999999964
 20
117.5
 30
0.0
 41
2.0
 42
2.0
 43
2.0
 50
180.0
  0
INSERT
  5
104A4
330
D05C
100
AcDbEntity
  8
30
 62
     0
370
    -2
100
AcDbBlockReference
  2
_OPEN
 10
-71.49999999999976
 20
117.5
 30
0.0
 41
2.0
 42
2.0
 43
2.0
  0
MTEXT
  5
104A5
330
D05C
100
AcDbEntity
  8
30
 62
     0
100
AcDbMText
 10
-82.49999999999969
 20
122.5
 30
0.0
 40
6.0
 41
0.0
 71
     5
 72
     1
  1
\A1;22
 73
     1
 44
1.0
1001
ACAD
1000
MTEXTBEGIN
1070
    73
1070
     1
1070
    44
1040
1.0
1070
    74
1070
     0
1000
MTEXTEND
  0
POINT
  5
104A6
330
D05C
100
AcDbEntity
  8
DEFPOINTS
 62
     0
100
AcDbPoint
 10
-93.49999999999964
 20
127.5
 30
0.0
  0
POINT
  5
104A7
330
D05C
100
AcDbEntity
  8
DEFPOINTS
 62
     0
100
AcDbPoint
 10
-71.49999999999976
 20
127.5
 30
0.0
  0
POINT
  5
104A8
330
D05C
100
AcDbEntity
  8
DEFPOINTS
 62
     0
100
AcDbPoint
 10
-71.49999999999976
 20
117.5
 30
0.0
  0
ENDBLK
  5
D067
330
D05C
100
AcDbEntity
  8
0
100
AcDbBlockEnd
  0
BLOCK
  5
DB4D
330
DB43
100
AcDbEntity
  8
0
100
AcDbBlockBegin
  2
*D58
 70
     1
 10
0.0
 20
0.0
 30
0.0
  3
*D58
  1

  0
LINE
  5
104A9
330
DB43
100
AcDbEntity
  8
30
 62
     0
370
    -2
100
AcDbLine
 10
-47.49999999999988
 20
462.9999999999998
 30
0.0
 11
-47.49999999999988
 21
470.5
 31
0.0
  0
LINE
  5
104AA
330
DB43
100
AcDbEntity
  8
30
 62
     0
370
    -2
100
AcDbLine
 10
-82.49999999999991
 20
467.9999999999998
 30
0.0
 11
-82.49999999999991
 21
470.5
 31
0.0
  0
LINE
  5
104AB
330
DB43
100
AcDbEntity
  8
30
 62
     0
370
    -2
100
AcDbLine
 10
-49.49999999999988
 20
470.0
 30
0.0
 11
-80.49999999999988
 21
470.0
 31
0.0
  0
INSERT
  5
104AC
330
DB43
100
AcDbEntity
  8
30
 62
     0
370
    -2
100
AcDbBlockReference
  2
_OPEN
 10
-47.49999999999988
 20
470.0
 30
0.0
 41
2.0
 42
2.0
 43
2.0
  0
INSERT
  5
104AD
330
DB43
100
AcDbEntity
  8
30
 62
     0
370
    -2
100
AcDbBlockReference
  2
_OPEN
 10
-82.49999999999991
 20
470.0
 30
0.0
 41
2.0
 42
2.0
 43
2.0
 50
180.0
  0
MTEXT
  5
104AE
330
DB43
100
AcDbEntity
  8
30
 62
     0
100
AcDbMText
 10
-64.9999999999999
 20
475.0
 30
0.0
 40
6.0
 41
0.0
 71
     5
 72
     1
  1
\A1;35
 73
     1
 44
1.0
1001
ACAD
1000
MTEXTBEGIN
1070
    73
1070
     1
1070
    44
1040
1.0
1070
    74
1070
     0
1000
MTEXTEND
  0
POINT
  5
104AF
330
DB43
100
AcDbEntity
  8
DEFPOINTS
 62
     0
100
AcDbPoint
 10
-47.49999999999988
 20
459.9999999999998
 30
0.0
  0
POINT
  5
104B0
330
DB43
100
AcDbEntity
  8
DEFPOINTS
 62
     0
100
AcDbPoint
 10
-82.49999999999991
 20
464.9999999999998
 30
0.0
  0
POINT
  5
104B1
330
DB43
100
AcDbEntity
  8
DEFPOINTS
 62
     0
100
AcDbPoint
 10
-82.49999999999991
 20
470.0
 30
0.0
  0
ENDBLK
  5
DB4E
330
DB43
100
AcDbEntity
  8
0
100
AcDbBlockEnd
  0
BLOCK
  5
DB63
330
DB59
100
AcDbEntity
  8
0
100
AcDbBlockBegin
  2
*D59
 70
     1
 10
0.0
 20
0.0
 30
0.0
  3
*D59
  1

  0
LINE
  5
104B2
330
DB59
100
AcDbEntity
  8
30
 62
     0
370
    -2
100
AcDbLine
 10
-82.49999999999991
 20
467.9999999999998
 30
0.0
 11
-82.49999999999991
 21
470.5
 31
0.0
  0
LINE
  5
104B3
330
DB59
100
AcDbEntity
  8
30
 62
     0
370
    -2
100
AcDbLine
 10
-117.5
 20
462.9999999999998
 30
0.0
 11
-117.5
 21
470.5
 31
0.0
  0
LINE
  5
104B4
330
DB59
100
AcDbEntity
  8
30
 62
     0
370
    -2
100
AcDbLine
 10
-84.49999999999986
 20
470.0
 30
0.0
 11
-115.5
 21
470.0
 31
0.0
  0
INSERT
  5
104B5
330
DB59
100
AcDbEntity
  8
30
 62
     0
370
    -2
100
AcDbBlockReference
  2
_OPEN
 10
-82.49999999999991
 20
470.0
 30
0.0
 41
2.0
 42
2.0
 43
2.0
  0
INSERT
  5
104B6
330
DB59
100
AcDbEntity
  8
30
 62
     0
370
    -2
100
AcDbBlockReference
  2
_OPEN
 10
-117.5
 20
470.0
 30
0.0
 41
2.0
 42
2.0
 43
2.0
 50
180.0
  0
MTEXT
  5
104B7
330
DB59
100
AcDbEntity
  8
30
 62
     0
100
AcDbMText
 10
-99.99999999999994
 20
475.0
 30
0.0
 40
6.0
 41
0.0
 71
     5
 72
     1
  1
\A1;35
 73
     1
 44
1.0
1001
ACAD
1000
MTEXTBEGIN
1070
    73
1070
     1
1070
    44
1040
1.0
1070
    74
1070
     0
1000
MTEXTEND
  0
POINT
  5
104B8
330
DB59
100
AcDbEntity
  8
DEFPOINTS
 62
     0
100
AcDbPoint
 10
-82.49999999999991
 20
464.9999999999998
 30
0.0
  0
POINT
  5
104B9
330
DB59
100
AcDbEntity
  8
DEFPOINTS
 62
     0
100
AcDbPoint
 10
-117.5
 20
459.9999999999998
 30
0.0
  0
POINT
  5
104BA
330
DB59
100
AcDbEntity
  8
DEFPOINTS
 62
     0
100
AcDbPoint
 10
-117.5
 20
470.0
 30
0.0
  0
ENDBLK
  5
DB64
330
DB59
100
AcDbEntity
  8
0
100
AcDbBlockEnd
  0
BLOCK
  5
E1D2
330
E1C9
100
AcDbEntity
  8
0
100
AcDbBlockBegin
  2
*D60
 70
     1
 10
0.0
 20
0.0
 30
0.0
  3
*D60
  1

  0
LINE
  5
E1CA
330
E1C9
100
AcDbEntity
  8
30
  6
Continuous
 62
     0
370
    -2
100
AcDbLine
 10
194.3823944854016
 20
209.573984239175
 30
0.0
 11
190.0849402228293
 21
212.1516110391325
 31
0.0
  0
LINE
  5
E1CB
330
E1C9
100
AcDbEntity
  8
30
  6
Continuous
 62
     0
370
    -2
100
AcDbLine
 10
188.3698054720386
 20
213.1803543436697
 30
0.0
 11
177.0
 21
220.0000000000001
 31
0.0
  0
LINE
  5
E1CC
330
E1C9
100
AcDbEntity
  8
30
  6
Continuous
 62
     0
370
    -2
100
AcDbLine
 10
177.0
 20
220.0000000000001
 30
0.0
 11
165.0
 21
220.0000000000001
 31
0.0
  0
INSERT
  5
E1CD
330
E1C9
100
AcDbEntity
  8
30
  6
Continuous
 62
     0
370
    -2
100
AcDbBlockReference
  2
_OPEN
 10
196.0975292361923
 20
208.5452409346377
 30
0.0
 41
2.0
 42
2.0
 43
2.0
 50
329.0445354063638
  0
INSERT
  5
E1CE
330
E1C9
100
AcDbEntity
  8
30
  6
Continuous
 62
     0
370
    -2
100
AcDbBlockReference
  2
_OPEN
 10
188.3698054720386
 20
213.1803543436697
 30
0.0
 41
2.0
 42
2.0
 43
2.0
 50
149.0445354063638
  0
MTEXT
  5
E1CF
102
{ACAD_XDICTIONARY
360
10835
102
}
330
E1C9
100
AcDbEntity
  8
30
  6
Continuous
 62
     0
100
AcDbMText
 10
170.0
 20
225.0
 30
0.0
 40
6.0
 41
0.0
 71
     5
 72
     1
  1
\A1;\U+22059
 73
     1
 44
1.0
1001
ACAD
1000
MTEXTBEGIN
1070
    73
1070
     1
1070
    44
1040
1.0
1070
    74
1070
     0
1000
MTEXTEND
  0
POINT
  5
E1D0
330
E1C9
100
AcDbEntity
  8
DEFPOINTS
  6
Continuous
 62
     0
100
AcDbPoint
 10
188.3698054720386
 20
213.1803543436697
 30
0.0
  0
POINT
  5
E1D1
330
E1C9
100
AcDbEntity
  8
DEFPOINTS
  6
Continuous
 62
     0
100
AcDbPoint
 10
196.0975292361923
 20
208.5452409346377
 30
0.0
  0
ENDBLK
  5
E1D3
330
E1C9
100
AcDbEntity
  8
0
100
AcDbBlockEnd
  0
BLOCK
  5
E1D6
330
E1D4
100
AcDbEntity
  8
0
100
AcDbBlockBegin
  2
A$C30553972
 70
     0
 10
0.0
 20
0.0
 30
0.0
  3
A$C30553972
  1

  0
DIMENSION
  5
E1D5
330
E1D4
100
AcDbEntity
  8
30
  6
Continuous
100
AcDbDimension
  2
*D60
 10
3.597529236192315
 20
-2.157809532401925
 30
0.0
 11
-22.49999999999994
 21
9.296949532960383
 31
0.0
 12
-192.5
 22
-210.7030504670396
 32
0.0
 70
   131
 71
     5
 42
9.011214728861633
  3
STANDARD1
100
AcDbDiametricDimension
 15
-4.130194527961348
 25
2.47730387663006
 35
0.0
 40
0.0
  0
ENDBLK
  5
E1D7
330
E1D4
100
AcDbEntity
  8
0
100
AcDbBlockEnd
  0
BLOCK
  5
E284
330
E27D
100
AcDbEntity
  8
0
100
AcDbBlockBegin
  2
_D54
 70
     0
 10
0.0
 20
0.0
 30
0.0
  3
_D54
  1

  0
MTEXT
  5
E27E
330
E27D
100
AcDbEntity
  8
1
  6
Continuous
 62
     4
100
AcDbMText
 10
208.807292
 20
92.24545199999999
 30
0.0
 40
2.5
 41
0.0
 71
     7
 72
     5
  1
\W01.000;\fsimplex.shx;50
  7
blockfont
 11
0.0
 21
1.0
 31
0.0
 73
     2
 44
0.9036139999999999
1001
ACAD
1000
MTEXTBEGIN
1070
    73
1070
     2
1070
    44
1040
0.9036139999999999
1070
    74
1070
     0
1000
MTEXTEND
  0
LINE
  5
E27F
330
E27D
100
AcDbEntity
  8
1
 62
     4
100
AcDbLine
 10
230.451196
 20
83.66472299999998
 30
0.0
 11
208.25
 21
83.66472299999998
 31
0.0
  0
LINE
  5
E280
330
E27D
100
AcDbEntity
  8
1
 62
     4
100
AcDbLine
 10
230.451196
 20
103.664723
 30
0.0
 11
208.25
 21
103.664723
 31
0.0
  0
LINE
  5
E281
330
E27D
100
AcDbEntity
  8
1
 62
     4
100
AcDbLine
 10
209.25
 20
83.66472299999998
 30
0.0
 11
209.25
 21
103.664723
 31
0.0
  0
SOLID
  5
E282
330
E27D
100
AcDbEntity
  8
1
 62
     4
100
AcDbTrace
 10
209.25
 20
83.66472299999998
 30
0.0
 11
208.9099299999999
 21
85.66472199999997
 31
0.0
 12
209.59007
 22
85.664724
 32
0.0
 13
209.25
 23
83.66472299999998
 33
0.0
  0
SOLID
  5
E283
330
E27D
100
AcDbEntity
  8
1
 62
     4
100
AcDbTrace
 10
209.25
 20
103.664723
 30
0.0
 11
209.59007
 21
101.6647239999999
 31
0.0
 12
208.9099299999999
 22
101.664722
 32
0.0
 13
209.25
 23
103.664723
 33
0.0
  0
ENDBLK
  5
E285
330
E27D
100
AcDbEntity
  8
0
100
AcDbBlockEnd
  0
BLOCK
  5
E28D
330
E286
100
AcDbEntity
  8
0
100
AcDbBlockBegin
  2
_D55
 70
     0
 10
0.0
 20
0.0
 30
0.0
  3
_D55
  1

  0
MTEXT
  5
E287
330
E286
100
AcDbEntity
  8
1
  6
Continuous
 62
     4
100
AcDbMText
 10
270.807292
 20
203.2454519999999
 30
0.0
 40
2.5
 41
0.0
 71
     7
 72
     5
  1
\W01.000;\fsimplex.shx;52
  7
blockfont
 11
0.0
 21
1.0
 31
0.0
 73
     2
 44
0.9036139999999999
1001
ACAD
1000
MTEXTBEGIN
1070
    73
1070
     2
1070
    44
1040
0.9036139999999999
1070
    74
1070
     0
1000
MTEXTEND
  0
LINE
  5
E288
330
E286
100
AcDbEntity
  8
1
 62
     4
100
AcDbLine
 10
247.051196
 20
194.264723
 30
0.0
 11
272.25
 21
194.264723
 31
0.0
  0
LINE
  5
E289
330
E286
100
AcDbEntity
  8
1
 62
     4
100
AcDbLine
 10
247.051196
 20
215.064723
 30
0.0
 11
272.25
 21
215.064723
 31
0.0
  0
LINE
  5
E28A
330
E286
100
AcDbEntity
  8
1
 62
     4
100
AcDbLine
 10
271.2499999999999
 20
194.264723
 30
0.0
 11
271.2499999999999
 21
215.064723
 31
0.0
  0
SOLID
  5
E28B
330
E286
100
AcDbEntity
  8
1
 62
     4
100
AcDbTrace
 10
271.2499999999999
 20
194.264723
 30
0.0
 11
270.9099299999999
 21
196.264722
 31
0.0
 12
271.59007
 22
196.264724
 32
0.0
 13
271.2499999999999
 23
194.264723
 33
0.0
  0
SOLID
  5
E28C
330
E286
100
AcDbEntity
  8
1
 62
     4
100
AcDbTrace
 10
271.2499999999999
 20
215.064723
 30
0.0
 11
271.59007
 21
213.064724
 31
0.0
 12
270.9099299999999
 22
213.064722
 32
0.0
 13
271.2499999999999
 23
215.064723
 33
0.0
  0
ENDBLK
  5
E28E
330
E286
100
AcDbEntity
  8
0
100
AcDbBlockEnd
  0
BLOCK
  5
E294
330
E28F
100
AcDbEntity
  8
0
100
AcDbBlockBegin
  2
_D56
 70
     0
 10
0.0
 20
0.0
 30
0.0
  3
_D56
  1

  0
MTEXT
  5
E290
330
E28F
100
AcDbEntity
  8
5
  6
Continuous
 62
     4
100
AcDbMText
 10
174.4374999999999
 20
175.192708
 30
0.0
 40
2.5
 41
0.0
 71
     7
 72
     5
  1
\W01.000;\fsimplex.shx; 
  7
blockfont
 73
     2
 44
0.9036139999999999
1001
ACAD
1000
MTEXTBEGIN
1070
    73
1070
     2
1070
    44
1040
0.9036139999999999
1070
    74
1070
     0
1000
MTEXTEND
  0
LINE
  5
E291
330
E28F
100
AcDbEntity
  8
5
 62
     4
100
AcDbLine
 10
149.0
 20
177.2499999999999
 30
0.0
 11
174.0
 21
177.2499999999999
 31
0.0
  0
LINE
  5
E292
330
E28F
100
AcDbEntity
  8
5
 62
     4
100
AcDbLine
 10
142.0456509999999
 20
120.4528629999999
 30
0.0
 11
149.0
 21
177.2499999999999
 31
0.0
  0
SOLID
  5
E293
330
E28F
100
AcDbEntity
  8
5
 62
     4
100
AcDbTrace
 10
142.0456509999999
 20
120.4528629999999
 30
0.0
 11
141.9511699999999
 21
122.4793659999999
 31
0.0
 12
142.626269
 22
122.3967079999999
 32
0.0
 13
142.0456509999999
 23
120.4528629999999
 33
0.0
  0
ENDBLK
  5
E295
330
E28F
100
AcDbEntity
  8
0
100
AcDbBlockEnd
  0
BLOCK
  5
E299
330
E296
100
AcDbEntity
  8
0
100
AcDbBlockBegin
  2
_D57
 70
     0
 10
0.0
 20
0.0
 30
0.0
  3
_D57
  1

  0
MTEXT
  5
E297
330
E296
100
AcDbEntity
  8
1
  6
Continuous
 62
     4
100
AcDbMText
 10
30.4375
 20
39.01770799999999
 30
0.0
 40
2.5
 41
0.0
 71
     7
 72
     5
  1
\W01.000;\fsimplex.shx;11
  7
blockfont
 73
     2
 44
0.9036139999999999
1001
ACAD
1000
MTEXTBEGIN
1070
    73
1070
     2
1070
    44
1040
0.9036139999999999
1070
    74
1070
     0
1000
MTEXTEND
  0
MTEXT
  5
E298
330
E296
100
AcDbEntity
  8
1
  6
Continuous
 62
     4
100
AcDbMText
 10
26.707031
 20
39.01770799999999
 30
0.0
 40
2.5
 41
0.0
 71
     7
 72
     5
  1
\W01.000;\fsimplex.shx;%%c
  7
blockfont
 73
     2
 44
0.9036139999999999
1001
ACAD
1000
MTEXTBEGIN
1070
    73
1070
     2
1070
    44
1040
0.9036139999999999
1070
    74
1070
     0
1000
MTEXTEND
  0
ENDBLK
  5
E29A
330
E296
100
AcDbEntity
  8
0
100
AcDbBlockEnd
  0
BLOCK
  5
E29E
330
E29B
100
AcDbEntity
  8
0
100
AcDbBlockBegin
  2
_D58
 70
     0
 10
0.0
 20
0.0
 30
0.0
  3
_D58
  1

  0
MTEXT
  5
E29C
330
E29B
100
AcDbEntity
  8
1
  6
Continuous
 62
     4
100
AcDbMText
 10
105.4375
 20
39.01770799999999
 30
0.0
 40
2.5
 41
0.0
 71
     7
 72
     5
  1
\W01.000;\fsimplex.shx;11
  7
blockfont
 73
     2
 44
0.9036139999999999
1001
ACAD
1000
MTEXTBEGIN
1070
    73
1070
     2
1070
    44
1040
0.9036139999999999
1070
    74
1070
     0
1000
MTEXTEND
  0
MTEXT
  5
E29D
330
E29B
100
AcDbEntity
  8
1
  6
Continuous
 62
     4
100
AcDbMText
 10
101.707031
 20
39.01770799999999
 30
0.0
 40
2.5
 41
0.0
 71
     7
 72
     5
  1
\W01.000;\fsimplex.shx;%%c
  7
blockfont
 73
     2
 44
0.9036139999999999
1001
ACAD
1000
MTEXTBEGIN
1070
    73
1070
     2
1070
    44
1040
0.9036139999999999
1070
    74
1070
     0
1000
MTEXTEND
  0
ENDBLK
  5
E29F
330
E29B
100
AcDbEntity
  8
0
100
AcDbBlockEnd
  0
BLOCK
  5
E2A6
330
E2A0
100
AcDbEntity
  8
0
100
AcDbBlockBegin
  2
_D59
 70
     0
 10
0.0
 20
0.0
 30
0.0
  3
_D59
  1

  0
MTEXT
  5
E2A1
330
E2A0
100
AcDbEntity
  8
1
  6
Continuous
 62
     4
100
AcDbMText
 10
99.169271
 20
36.392708
 30
0.0
 40
2.5
 41
0.0
 71
     7
 72
     5
  1
\W01.000;\fsimplex.shx; 
  7
blockfont
 73
     2
 44
0.9036139999999999
1001
ACAD
1000
MTEXTBEGIN
1070
    73
1070
     2
1070
    44
1040
0.9036139999999999
1070
    74
1070
     0
1000
MTEXTEND
  0
MTEXT
  5
E2A2
330
E2A0
100
AcDbEntity
  8
1
  6
Continuous
 62
     4
100
AcDbMText
 10
97.4375
 20
36.392708
 30
0.0
 40
2.5
 41
0.0
 71
     7
 72
     5
  1
\W01.000;\fsimplex.shx; 
  7
blockfont
 73
     2
 44
0.9036139999999999
1001
ACAD
1000
MTEXTBEGIN
1070
    73
1070
     2
1070
    44
1040
0.9036139999999999
1070
    74
1070
     0
1000
MTEXTEND
  0
LINE
  5
E2A3
330
E2A0
100
AcDbEntity
  8
1
 62
     4
100
AcDbLine
 10
109.4635419999999
 20
38.45
 30
0.0
 11
100.463542
 21
38.45
 31
0.0
  0
LINE
  5
E2A4
330
E2A0
100
AcDbEntity
  8
1
 62
     4
100
AcDbLine
 10
112.268361
 20
50.918361
 30
0.0
 11
109.4635419999999
 21
38.45
 31
0.0
  0
SOLID
  5
E2A5
330
E2A0
100
AcDbEntity
  8
1
 62
     4
100
AcDbTrace
 10
112.268361
 20
50.918361
 30
0.0
 11
112.1612
 21
48.89248900000001
 31
0.0
 12
111.4976409999999
 22
49.041757
 32
0.0
 13
112.268361
 23
50.918361
 33
0.0
  0
ENDBLK
  5
E2A7
330
E2A0
100
AcDbEntity
  8
0
100
AcDbBlockEnd
  0
BLOCK
  5
E2AE
330
E2A8
100
AcDbEntity
  8
0
100
AcDbBlockBegin
  2
_D60
 70
     0
 10
0.0
 20
0.0
 30
0.0
  3
_D60
  1

  0
MTEXT
  5
E2A9
330
E2A8
100
AcDbEntity
  8
1
  6
Continuous
 62
     4
100
AcDbMText
 10
24.169271
 20
36.392708
 30
0.0
 40
2.5
 41
0.0
 71
     7
 72
     5
  1
\W01.000;\fsimplex.shx; 
  7
blockfont
 73
     2
 44
0.9036139999999999
1001
ACAD
1000
MTEXTBEGIN
1070
    73
1070
     2
1070
    44
1040
0.9036139999999999
1070
    74
1070
     0
1000
MTEXTEND
  0
MTEXT
  5
E2AA
330
E2A8
100
AcDbEntity
  8
1
  6
Continuous
 62
     4
100
AcDbMText
 10
22.43749999999999
 20
36.392708
 30
0.0
 40
2.5
 41
0.0
 71
     7
 72
     5
  1
\W01.000;\fsimplex.shx; 
  7
blockfont
 73
     2
 44
0.9036139999999999
1001
ACAD
1000
MTEXTBEGIN
1070
    73
1070
     2
1070
    44
1040
0.9036139999999999
1070
    74
1070
     0
1000
MTEXTEND
  0
LINE
  5
E2AB
330
E2A8
100
AcDbEntity
  8
1
 62
     4
100
AcDbLine
 10
34.463542
 20
38.45
 30
0.0
 11
25.463542
 21
38.45
 31
0.0
  0
LINE
  5
E2AC
330
E2A8
100
AcDbEntity
  8
1
 62
     4
100
AcDbLine
 10
40.502215
 20
51.07992199999999
 30
0.0
 11
34.463542
 21
38.45
 31
0.0
  0
SOLID
  5
E2AD
330
E2A8
100
AcDbEntity
  8
1
 62
     4
100
AcDbTrace
 10
40.502215
 20
51.07992199999999
 30
0.0
 11
39.94631
 21
49.12886799999998
 31
0.0
 12
39.332698
 22
49.42224799999999
 32
0.0
 13
40.502215
 23
51.07992199999999
 33
0.0
  0
ENDBLK
  5
E2AF
330
E2A8
100
AcDbEntity
  8
0
100
AcDbBlockEnd
  0
BLOCK
  5
E2B7
330
E2B0
100
AcDbEntity
  8
0
100
AcDbBlockBegin
  2
_D61
 70
     0
 10
0.0
 20
0.0
 30
0.0
  3
_D61
  1

  0
MTEXT
  5
E2B1
330
E2B0
100
AcDbEntity
  8
1
  6
Continuous
 62
     4
100
AcDbMText
 10
380.1692709999999
 20
55.592708
 30
0.0
 40
2.5
 41
0.0
 71
     7
 72
     5
  1
\W01.000;\fsimplex.shx;4
  7
blockfont
 73
     2
 44
0.9036139999999999
1001
ACAD
1000
MTEXTBEGIN
1070
    73
1070
     2
1070
    44
1040
0.9036139999999999
1070
    74
1070
     0
1000
MTEXTEND
  0
MTEXT
  5
E2B2
330
E2B0
100
AcDbEntity
  8
1
  6
Continuous
 62
     4
100
AcDbMText
 10
383.151042
 20
55.592708
 30
0.0
 40
2.5
 41
0.0
 71
     7
 72
     5
  1
\W01.000;\fsimplex.shx;x0.7      
  7
blockfont
 73
     2
 44
0.9036139999999999
1001
ACAD
1000
MTEXTBEGIN
1070
    73
1070
     2
1070
    44
1040
0.9036139999999999
1070
    74
1070
     0
1000
MTEXTEND
  0
MTEXT
  5
E2B3
330
E2B0
100
AcDbEntity
  8
1
  6
Continuous
 62
     4
100
AcDbMText
 10
378.4375
 20
55.592708
 30
0.0
 40
2.5
 41
0.0
 71
     7
 72
     5
  1
\W01.000;\fsimplex.shx;M
  7
blockfont
 73
     2
 44
0.9036139999999999
1001
ACAD
1000
MTEXTBEGIN
1070
    73
1070
     2
1070
    44
1040
0.9036139999999999
1070
    74
1070
     0
1000
MTEXTEND
  0
LINE
  5
E2B4
330
E2B0
100
AcDbEntity
  8
1
 62
     4
100
AcDbLine
 10
378.0
 20
57.65
 30
0.0
 11
378.0
 21
57.65
 31
0.0
  0
LINE
  5
E2B5
330
E2B0
100
AcDbEntity
  8
1
 62
     4
100
AcDbLine
 10
368.0097970000002
 20
67.892041
 30
0.0
 11
378.0
 21
57.65
 31
0.0
  0
SOLID
  5
E2B6
330
E2B0
100
AcDbEntity
  8
1
 62
     4
100
AcDbTrace
 10
368.0097970000002
 20
67.892041
 30
0.0
 11
369.649739
 21
66.69779
 31
0.0
 12
369.16286
 22
66.22288000000001
 32
0.0
 13
368.0097970000002
 23
67.892041
 33
0.0
  0
ENDBLK
  5
E2B8
330
E2B0
100
AcDbEntity
  8
0
100
AcDbBlockEnd
  0
BLOCK
  5
E2BE
330
E2B9
100
AcDbEntity
  8
0
100
AcDbBlockBegin
  2
_D62
 70
     0
 10
0.0
 20
0.0
 30
0.0
  3
_D62
  1

  0
MTEXT
  5
E2BA
330
E2B9
100
AcDbEntity
  8
1
  6
Continuous
 62
     4
100
AcDbMText
 10
308.707285
 20
212.127987
 30
0.0
 40
2.0
 41
0.0
 71
     7
 72
     5
  1
\W01.000;\fsimplex.shx;1
  7
blockfont
 11
0.4385209773543391
 21
0.8987209535891523
 31
0.0
 73
     2
 44
0.9036139999999999
1001
ACAD
1000
MTEXTBEGIN
1070
    73
1070
     2
1070
    44
1040
0.9036139999999999
1070
    74
1070
     0
1000
MTEXTEND
  0
MTEXT
  5
E2BB
330
E2B9
100
AcDbEntity
  8
1
  6
Continuous
 62
     4
100
AcDbMText
 10
308.0997509999999
 20
210.882884
 30
0.0
 40
2.0
 41
0.0
 71
     7
 72
     5
  1
\W01.000;\fsimplex.shx;R
  7
blockfont
 11
0.4385209773543391
 21
0.8987209535891523
 31
0.0
 73
     2
 44
0.9036139999999999
1001
ACAD
1000
MTEXTBEGIN
1070
    73
1070
     2
1070
    44
1040
0.9036139999999999
1070
    74
1070
     0
1000
MTEXTEND
  0
LINE
  5
E2BC
330
E2B9
100
AcDbEntity
  8
1
 62
     4
100
AcDbLine
 10
310.026604
 20
214.0242119999999
 30
0.0
 11
308.264566
 21
210.413022
 31
0.0
  0
SOLID
  5
E2BD
330
E2B9
100
AcDbEntity
  8
1
 62
     4
100
AcDbTrace
 10
310.026604
 20
214.0242119999999
 30
0.0
 11
309.455192
 21
212.077643
 31
0.0
 12
308.8439339999998
 22
212.3758959999999
 32
0.0
 13
310.026604
 23
214.0242119999999
 33
0.0
  0
ENDBLK
  5
E2BF
330
E2B9
100
AcDbEntity
  8
0
100
AcDbBlockEnd
  0
BLOCK
  5
E2C5
330
E2C0
100
AcDbEntity
  8
0
100
AcDbBlockBegin
  2
_D63
 70
     0
 10
0.0
 20
0.0
 30
0.0
  3
_D63
  1

  0
MTEXT
  5
E2C1
330
E2C0
100
AcDbEntity
  8
1
  6
Continuous
 62
     4
100
AcDbMText
 10
241.7834779999999
 20
210.885074
 30
0.0
 40
2.5
 41
0.0
 71
     7
 72
     5
  1
\W01.000;\fsimplex.shx;1
  7
blockfont
 11
0.6948691689723987
 21
0.7191361748734437
 31
0.0
 73
     2
 44
0.9036139999999999
1001
ACAD
1000
MTEXTBEGIN
1070
    73
1070
     2
1070
    44
1040
0.9036139999999999
1070
    74
1070
     0
1000
MTEXTEND
  0
MTEXT
  5
E2C2
330
E2C0
100
AcDbEntity
  8
1
  6
Continuous
 62
     4
100
AcDbMText
 10
240.580124
 20
209.6396939999999
 30
0.0
 40
2.5
 41
0.0
 71
     7
 72
     5
  1
\W01.000;\fsimplex.shx;R
  7
blockfont
 11
0.6948691689723987
 21
0.7191361748734437
 31
0.0
 73
     2
 44
0.9036139999999999
1001
ACAD
1000
MTEXTBEGIN
1070
    73
1070
     2
1070
    44
1040
0.9036139999999999
1070
    74
1070
     0
1000
MTEXTEND
  0
LINE
  5
E2C3
330
E2C0
100
AcDbEntity
  8
1
 62
     4
100
AcDbLine
 10
246.3291439999999
 20
214.9523779999999
 30
0.0
 11
240.5944859999999
 21
209.0174479999999
 31
0.0
  0
SOLID
  5
E2C4
330
E2C0
100
AcDbEntity
  8
1
 62
     4
100
AcDbTrace
 10
246.3291439999999
 20
214.9523779999999
 30
0.0
 11
245.1839629999999
 21
213.2778019999999
 31
0.0
 12
244.694848
 22
213.7504089999999
 32
0.0
 13
246.3291439999999
 23
214.9523779999999
 33
0.0
  0
ENDBLK
  5
E2C6
330
E2C0
100
AcDbEntity
  8
0
100
AcDbBlockEnd
  0
BLOCK
  5
F164
330
F15A
100
AcDbEntity
  8
0
100
AcDbBlockBegin
  2
*D72
 70
     1
 10
0.0
 20
0.0
 30
0.0
  3
*D72
  1

  0
LINE
  5
104C4
330
F15A
100
AcDbEntity
  8
30
 62
     0
370
    -2
100
AcDbLine
 10
-104.5000000000001
 20
335.9999999999995
 30
0.0
 11
-150.5
 21
335.9999999999995
 31
0.0
  0
LINE
  5
104C5
330
F15A
100
AcDbEntity
  8
30
 62
     0
370
    -2
100
AcDbLine
 10
-138.0
 20
235.0
 30
0.0
 11
-150.5
 21
235.0
 31
0.0
  0
LINE
  5
104C6
330
F15A
100
AcDbEntity
  8
30
 62
     0
370
    -2
100
AcDbLine
 10
-150.0
 20
333.9999999999996
 30
0.0
 11
-150.0
 21
237.0
 31
0.0
  0
INSERT
  5
104C7
330
F15A
100
AcDbEntity
  8
30
 62
     0
370
    -2
100
AcDbBlockReference
  2
_OPEN
 10
-150.0
 20
335.9999999999995
 30
0.0
 41
2.0
 42
2.0
 43
2.0
 50
90.0
  0
INSERT
  5
104C8
330
F15A
100
AcDbEntity
  8
30
 62
     0
370
    -2
100
AcDbBlockReference
  2
_OPEN
 10
-150.0
 20
235.0
 30
0.0
 41
2.0
 42
2.0
 43
2.0
 50
270.0
  0
MTEXT
  5
104C9
330
F15A
100
AcDbEntity
  8
30
 62
     0
100
AcDbMText
 10
-155.0
 20
285.4999999999997
 30
0.0
 40
6.0
 41
0.0
 71
     5
 72
     1
  1
\A1;101
 11
0.0000000000000001
 21
1.0
 31
0.0
 73
     1
 44
1.0
1001
ACAD
1000
MTEXTBEGIN
1070
    73
1070
     1
1070
    44
1040
1.0
1070
    74
1070
     0
1000
MTEXTEND
  0
POINT
  5
104CA
330
F15A
100
AcDbEntity
  8
DEFPOINTS
 62
     0
100
AcDbPoint
 10
-101.5000000000001
 20
335.9999999999995
 30
0.0
  0
POINT
  5
104CB
330
F15A
100
AcDbEntity
  8
DEFPOINTS
 62
     0
100
AcDbPoint
 10
-135.0
 20
235.0
 30
0.0
  0
POINT
  5
104CC
330
F15A
100
AcDbEntity
  8
DEFPOINTS
 62
     0
100
AcDbPoint
 10
-150.0
 20
235.0
 30
0.0
  0
ENDBLK
  5
F165
330
F15A
100
AcDbEntity
  8
0
100
AcDbBlockEnd
  0
BLOCK
  5
F170
330
F166
100
AcDbEntity
  8
0
100
AcDbBlockBegin
  2
*D73
 70
     1
 10
0.0
 20
0.0
 30
0.0
  3
*D73
  1

  0
LINE
  5
104BB
330
F166
100
AcDbEntity
  8
30
 62
     0
370
    -2
100
AcDbLine
 10
-138.0
 20
235.0
 30
0.0
 11
-150.4999999999999
 21
235.0
 31
0.0
  0
LINE
  5
104BC
330
F166
100
AcDbEntity
  8
30
 62
     0
370
    -2
100
AcDbLine
 10
-138.0
 20
70.0
 30
0.0
 11
-150.5
 21
70.0
 31
0.0
  0
LINE
  5
104BD
330
F166
100
AcDbEntity
  8
30
 62
     0
370
    -2
100
AcDbLine
 10
-149.9999999999999
 20
233.0
 30
0.0
 11
-150.0
 21
72.0
 31
0.0
  0
INSERT
  5
104BE
330
F166
100
AcDbEntity
  8
30
 62
     0
370
    -2
100
AcDbBlockReference
  2
_OPEN
 10
-149.9999999999999
 20
235.0
 30
0.0
 41
2.0
 42
2.0
 43
2.0
 50
90.0
  0
INSERT
  5
104BF
330
F166
100
AcDbEntity
  8
30
 62
     0
370
    -2
100
AcDbBlockReference
  2
_OPEN
 10
-150.0
 20
70.0
 30
0.0
 41
2.0
 42
2.0
 43
2.0
 50
270.0
  0
MTEXT
  5
104C0
330
F166
100
AcDbEntity
  8
30
 62
     0
100
AcDbMText
 10
-155.0
 20
152.4999999999999
 30
0.0
 40
6.0
 41
0.0
 71
     5
 72
     1
  1
\A1;165
 11
0.0000000000000001
 21
1.0
 31
0.0
 73
     1
 44
1.0
1001
ACAD
1000
MTEXTBEGIN
1070
    73
1070
     1
1070
    44
1040
1.0
1070
    74
1070
     0
1000
MTEXTEND
  0
POINT
  5
104C1
330
F166
100
AcDbEntity
  8
DEFPOINTS
 62
     0
100
AcDbPoint
 10
-135.0
 20
235.0
 30
0.0
  0
POINT
  5
104C2
330
F166
100
AcDbEntity
  8
DEFPOINTS
 62
     0
100
AcDbPoint
 10
-135.0
 20
70.0
 30
0.0
  0
POINT
  5
104C3
330
F166
100
AcDbEntity
  8
DEFPOINTS
 62
     0
100
AcDbPoint
 10
-150.0
 20
70.0
 30
0.0
  0
ENDBLK
  5
F171
330
F166
100
AcDbEntity
  8
0
100
AcDbBlockEnd
  0
BLOCK
  5
F17C
330
F172
100
AcDbEntity
  8
0
100
AcDbBlockBegin
  2
*D74
 70
     1
 10
0.0
 20
0.0
 30
0.0
  3
*D74
  1

  0
LINE
  5
104D6
330
F172
100
AcDbEntity
  8
30
 62
     0
370
    -2
100
AcDbLine
 10
-130.9999999999998
 20
40.00000000000006
 30
0.0
 11
-130.9999999999998
 21
19.5
 31
0.0
  0
LINE
  5
104D7
330
F172
100
AcDbEntity
  8
30
 62
     0
370
    -2
100
AcDbLine
 10
-82.5
 20
27.0
 30
0.0
 11
-82.5
 21
19.5
 31
0.0
  0
LINE
  5
104D8
330
F172
100
AcDbEntity
  8
30
 62
     0
370
    -2
100
AcDbLine
 10
-128.9999999999998
 20
20.0
 30
0.0
 11
-84.50000000000001
 21
20.0
 31
0.0
  0
INSERT
  5
104D9
330
F172
100
AcDbEntity
  8
30
 62
     0
370
    -2
100
AcDbBlockReference
  2
_OPEN
 10
-130.9999999999998
 20
20.0
 30
0.0
 41
2.0
 42
2.0
 43
2.0
 50
180.0
  0
INSERT
  5
104DA
330
F172
100
AcDbEntity
  8
30
 62
     0
370
    -2
100
AcDbBlockReference
  2
_OPEN
 10
-82.5
 20
20.0
 30
0.0
 41
2.0
 42
2.0
 43
2.0
  0
MTEXT
  5
104DB
330
F172
100
AcDbEntity
  8
30
 62
     0
100
AcDbMText
 10
-106.7499999999999
 20
25.0
 30
0.0
 40
6.0
 41
0.0
 71
     5
 72
     1
  1
\A1;48.5
 73
     1
 44
1.0
1001
ACAD
1000
MTEXTBEGIN
1070
    73
1070
     1
1070
    44
1040
1.0
1070
    74
1070
     0
1000
MTEXTEND
  0
POINT
  5
104DC
330
F172
100
AcDbEntity
  8
DEFPOINTS
 62
     0
100
AcDbPoint
 10
-130.9999999999998
 20
43.00000000000006
 30
0.0
  0
POINT
  5
104DD
330
F172
100
AcDbEntity
  8
DEFPOINTS
 62
     0
100
AcDbPoint
 10
-82.5
 20
30.0
 30
0.0
  0
POINT
  5
104DE
330
F172
100
AcDbEntity
  8
DEFPOINTS
 62
     0
100
AcDbPoint
 10
-82.5
 20
20.0
 30
0.0
  0
ENDBLK
  5
F17D
330
F172
100
AcDbEntity
  8
0
100
AcDbBlockEnd
  0
BLOCK
  5
F188
330
F17E
100
AcDbEntity
  8
0
100
AcDbBlockBegin
  2
*D75
 70
     1
 10
0.0
 20
0.0
 30
0.0
  3
*D75
  1

  0
LINE
  5
104CD
330
F17E
100
AcDbEntity
  8
30
 62
     0
370
    -2
100
AcDbLine
 10
-135.0
 20
67.0
 30
0.0
 11
-135.0
 21
9.5
 31
0.0
  0
LINE
  5
104CE
330
F17E
100
AcDbEntity
  8
30
 62
     0
370
    -2
100
AcDbLine
 10
-29.99999999999995
 20
67.0
 30
0.0
 11
-29.99999999999995
 21
9.5
 31
0.0
  0
LINE
  5
104CF
330
F17E
100
AcDbEntity
  8
30
 62
     0
370
    -2
100
AcDbLine
 10
-133.0
 20
10.0
 30
0.0
 11
-31.99999999999994
 21
10.0
 31
0.0
  0
INSERT
  5
104D0
330
F17E
100
AcDbEntity
  8
30
 62
     0
370
    -2
100
AcDbBlockReference
  2
_OPEN
 10
-135.0
 20
10.0
 30
0.0
 41
2.0
 42
2.0
 43
2.0
 50
180.0
  0
INSERT
  5
104D1
330
F17E
100
AcDbEntity
  8
30
 62
     0
370
    -2
100
AcDbBlockReference
  2
_OPEN
 10
-29.99999999999995
 20
10.0
 30
0.0
 41
2.0
 42
2.0
 43
2.0
  0
MTEXT
  5
104D2
330
F17E
100
AcDbEntity
  8
30
 62
     0
100
AcDbMText
 10
-82.49999999999998
 20
15.0
 30
0.0
 40
6.0
 41
0.0
 71
     5
 72
     1
  1
\A1;105
 73
     1
 44
1.0
1001
ACAD
1000
MTEXTBEGIN
1070
    73
1070
     1
1070
    44
1040
1.0
1070
    74
1070
     0
1000
MTEXTEND
  0
POINT
  5
104D3
330
F17E
100
AcDbEntity
  8
DEFPOINTS
 62
     0
100
AcDbPoint
 10
-135.0
 20
70.0
 30
0.0
  0
POINT
  5
104D4
330
F17E
100
AcDbEntity
  8
DEFPOINTS
 62
     0
100
AcDbPoint
 10
-29.99999999999995
 20
70.0
 30
0.0
  0
POINT
  5
104D5
330
F17E
100
AcDbEntity
  8
DEFPOINTS
 62
     0
100
AcDbPoint
 10
-29.99999999999995
 20
10.0
 30
0.0
  0
ENDBLK
  5
F189
330
F17E
100
AcDbEntity
  8
0
100
AcDbBlockEnd
  0
BLOCK
  5
F1F4
330
F1EA
100
AcDbEntity
  8
0
100
AcDbBlockBegin
  2
*D76
 70
     1
 10
0.0
 20
0.0
 30
0.0
  3
*D76
  1

  0
LINE
  5
104DF
330
F1EA
100
AcDbEntity
  8
30
 62
     0
370
    -2
100
AcDbLine
 10
-138.0
 20
70.0
 30
0.0
 11
-150.4999999999999
 21
70.0
 31
0.0
  0
LINE
  5
104E0
330
F1EA
100
AcDbEntity
  8
30
 62
     0
370
    -2
100
AcDbLine
 10
-145.5
 20
39.50000000000012
 30
0.0
 11
-150.5
 21
39.50000000000012
 31
0.0
  0
LINE
  5
104E1
330
F1EA
100
AcDbEntity
  8
30
 62
     0
370
    -2
100
AcDbLine
 10
-149.9999999999999
 20
68.0
 30
0.0
 11
-150.0
 21
41.50000000000011
 31
0.0
  0
INSERT
  5
104E2
330
F1EA
100
AcDbEntity
  8
30
 62
     0
370
    -2
100
AcDbBlockReference
  2
_OPEN
 10
-149.9999999999999
 20
70.0
 30
0.0
 41
2.0
 42
2.0
 43
2.0
 50
90.0
  0
INSERT
  5
104E3
330
F1EA
100
AcDbEntity
  8
30
 62
     0
370
    -2
100
AcDbBlockReference
  2
_OPEN
 10
-150.0
 20
39.50000000000012
 30
0.0
 41
2.0
 42
2.0
 43
2.0
 50
270.0
  0
MTEXT
  5
104E4
330
F1EA
100
AcDbEntity
  8
30
 62
     0
100
AcDbMText
 10
-155.0
 20
54.75000000000004
 30
0.0
 40
6.0
 41
0.0
 71
     5
 72
     1
  1
\A1;30.5
 11
0.0000000000000001
 21
1.0
 31
0.0
 73
     1
 44
1.0
1001
ACAD
1000
MTEXTBEGIN
1070
    73
1070
     1
1070
    44
1040
1.0
1070
    74
1070
     0
1000
MTEXTEND
  0
POINT
  5
104E5
330
F1EA
100
AcDbEntity
  8
DEFPOINTS
 62
     0
100
AcDbPoint
 10
-135.0
 20
70.0
 30
0.0
  0
POINT
  5
104E6
330
F1EA
100
AcDbEntity
  8
DEFPOINTS
 62
     0
100
AcDbPoint
 10
-142.5
 20
39.50000000000011
 30
0.0
  0
POINT
  5
104E7
330
F1EA
100
AcDbEntity
  8
DEFPOINTS
 62
     0
100
AcDbPoint
 10
-150.0
 20
39.50000000000012
 30
0.0
  0
ENDBLK
  5
F1F5
330
F1EA
100
AcDbEntity
  8
0
100
AcDbBlockEnd
  0
BLOCK
  5
F215
330
F209
100
AcDbEntity
  8
0
100
AcDbBlockBegin
  2
*D77
 70
     1
 10
0.0
 20
0.0
 30
0.0
  3
*D77
  1

  0
LINE
  5
104E8
330
F209
100
AcDbEntity
  8
30
 62
     0
370
    -2
100
AcDbLine
 10
-19.5
 20
265.4999999999997
 30
0.0
 11
-9.500000000000008
 21
265.4999999999997
 31
0.0
  0
LINE
  5
104E9
330
F209
100
AcDbEntity
  8
30
 62
     0
370
    -2
100
AcDbLine
 10
-23.50000000000011
 20
254.0
 30
0.0
 11
-9.500000000000008
 21
254.0
 31
0.0
  0
LINE
  5
104EA
330
F209
100
AcDbEntity
  8
30
 62
     0
370
    -2
100
AcDbLine
 10
-10.00000000000001
 20
256.0
 30
0.0
 11
-10.0
 21
263.4999999999997
 31
0.0
  0
LINE
  5
104EB
330
F209
100
AcDbEntity
  8
30
 62
     0
370
    -2
100
AcDbLine
 10
-10.0
 20
265.4999999999997
 30
0.0
 11
-10.0
 21
285.4999999999999
 31
0.0
  0
INSERT
  5
104EC
330
F209
100
AcDbEntity
  8
30
 62
     0
370
    -2
100
AcDbBlockReference
  2
_OPEN
 10
-10.00000000000001
 20
254.0
 30
0.0
 41
2.0
 42
2.0
 43
2.0
 50
270.0
  0
INSERT
  5
104ED
330
F209
100
AcDbEntity
  8
30
 62
     0
370
    -2
100
AcDbBlockReference
  2
_OPEN
 10
-10.0
 20
265.4999999999997
 30
0.0
 41
2.0
 42
2.0
 43
2.0
 50
90.0
  0
MTEXT
  5
104EE
330
F209
100
AcDbEntity
  8
30
 62
     0
100
AcDbMText
 10
-15.00000000000005
 20
276.4999999999998
 30
0.0
 40
6.0
 41
0.0
 71
     5
 72
     1
  1
\A1;11.5
 11
0.0000000000000001
 21
1.0
 31
0.0
 73
     1
 44
1.0
1001
ACAD
1000
MTEXTBEGIN
1070
    73
1070
     1
1070
    44
1040
1.0
1070
    74
1070
     0
1000
MTEXTEND
  0
POINT
  5
104EF
330
F209
100
AcDbEntity
  8
DEFPOINTS
 62
     0
100
AcDbPoint
 10
-22.5
 20
265.4999999999997
 30
0.0
  0
POINT
  5
104F0
330
F209
100
AcDbEntity
  8
DEFPOINTS
 62
     0
100
AcDbPoint
 10
-26.50000000000011
 20
254.0
 30
0.0
  0
POINT
  5
104F1
330
F209
100
AcDbEntity
  8
DEFPOINTS
 62
     0
100
AcDbPoint
 10
-10.00000000000001
 20
254.0
 30
0.0
  0
ENDBLK
  5
F216
330
F209
100
AcDbEntity
  8
0
100
AcDbBlockEnd
  0
BLOCK
  5
F396
330
F38C
100
AcDbEntity
  8
0
100
AcDbBlockBegin
  2
*D78
 70
     1
 10
0.0
 20
0.0
 30
0.0
  3
*D78
  1

  0
LINE
  5
104F2
330
F38C
100
AcDbEntity
  8
30
 62
     0
370
    -2
100
AcDbLine
 10
-19.5
 20
265.4999999999997
 30
0.0
 11
0.499999999999956
 21
265.4999999999997
 31
0.0
  0
LINE
  5
104F3
330
F38C
100
AcDbEntity
  8
30
 62
     0
370
    -2
100
AcDbLine
 10
-19.5
 20
242.5
 30
0.0
 11
0.4999999999999508
 21
242.5
 31
0.0
  0
LINE
  5
104F4
330
F38C
100
AcDbEntity
  8
30
 62
     0
370
    -2
100
AcDbLine
 10
-0.0000000000000451
 20
263.4999999999997
 30
0.0
 11
-0.0000000000000493
 21
244.4999999999999
 31
0.0
  0
INSERT
  5
104F5
330
F38C
100
AcDbEntity
  8
30
 62
     0
370
    -2
100
AcDbBlockReference
  2
_OPEN
 10
-0.0000000000000446
 20
265.4999999999997
 30
0.0
 41
2.0
 42
2.0
 43
2.0
 50
90.0
  0
INSERT
  5
104F6
330
F38C
100
AcDbEntity
  8
30
 62
     0
370
    -2
100
AcDbBlockReference
  2
_OPEN
 10
-0.0000000000000497
 20
242.5
 30
0.0
 41
2.0
 42
2.0
 43
2.0
 50
270.0
  0
MTEXT
  5
104F7
330
F38C
100
AcDbEntity
  8
30
 62
     0
100
AcDbMText
 10
-5.000000000000087
 20
253.9999999999998
 30
0.0
 40
6.0
 41
0.0
 71
     5
 72
     1
  1
\A1;23
 11
0.0000000000000001
 21
1.0
 31
0.0
 73
     1
 44
1.0
1001
ACAD
1000
MTEXTBEGIN
1070
    73
1070
     1
1070
    44
1040
1.0
1070
    74
1070
     0
1000
MTEXTEND
  0
POINT
  5
104F8
330
F38C
100
AcDbEntity
  8
DEFPOINTS
 62
     0
100
AcDbPoint
 10
-22.5
 20
265.4999999999997
 30
0.0
  0
POINT
  5
104F9
330
F38C
100
AcDbEntity
  8
DEFPOINTS
 62
     0
100
AcDbPoint
 10
-22.5
 20
242.5
 30
0.0
  0
POINT
  5
104FA
330
F38C
100
AcDbEntity
  8
DEFPOINTS
 62
     0
100
AcDbPoint
 10
-0.0000000000000497
 20
242.5
 30
0.0
  0
ENDBLK
  5
F397
330
F38C
100
AcDbEntity
  8
0
100
AcDbBlockEnd
  0
BLOCK
  5
F3EA
330
F3E0
100
AcDbEntity
  8
0
100
AcDbBlockBegin
  2
*D79
 70
     1
 10
0.0
 20
0.0
 30
0.0
  3
*D79
  1

  0
LINE
  5
104FB
330
F3E0
100
AcDbEntity
  8
30
 62
     0
370
    -2
100
AcDbLine
 10
-34.00000000000011
 20
40.00000000000006
 30
0.0
 11
-34.00000000000011
 21
19.5
 31
0.0
  0
LINE
  5
104FC
330
F3E0
100
AcDbEntity
  8
30
 62
     0
370
    -2
100
AcDbLine
 10
-82.5
 20
27.0
 30
0.0
 11
-82.5
 21
19.5
 31
0.0
  0
LINE
  5
104FD
330
F3E0
100
AcDbEntity
  8
30
 62
     0
370
    -2
100
AcDbLine
 10
-36.00000000000011
 20
20.0
 30
0.0
 11
-80.5
 21
20.0
 31
0.0
  0
INSERT
  5
104FE
330
F3E0
100
AcDbEntity
  8
30
 62
     0
370
    -2
100
AcDbBlockReference
  2
_OPEN
 10
-34.00000000000011
 20
20.0
 30
0.0
 41
2.0
 42
2.0
 43
2.0
  0
INSERT
  5
104FF
330
F3E0
100
AcDbEntity
  8
30
 62
     0
370
    -2
100
AcDbBlockReference
  2
_OPEN
 10
-82.5
 20
20.0
 30
0.0
 41
2.0
 42
2.0
 43
2.0
 50
180.0
  0
MTEXT
  5
10500
330
F3E0
100
AcDbEntity
  8
30
 62
     0
100
AcDbMText
 10
-58.25000000000006
 20
25.0
 30
0.0
 40
6.0
 41
0.0
 71
     5
 72
     1
  1
\A1;48.5
 73
     1
 44
1.0
1001
ACAD
1000
MTEXTBEGIN
1070
    73
1070
     1
1070
    44
1040
1.0
1070
    74
1070
     0
1000
MTEXTEND
  0
POINT
  5
10501
330
F3E0
100
AcDbEntity
  8
DEFPOINTS
 62
     0
100
AcDbPoint
 10
-34.00000000000011
 20
43.00000000000006
 30
0.0
  0
POINT
  5
10502
330
F3E0
100
AcDbEntity
  8
DEFPOINTS
 62
     0
100
AcDbPoint
 10
-82.5
 20
30.0
 30
0.0
  0
POINT
  5
10503
330
F3E0
100
AcDbEntity
  8
DEFPOINTS
 62
     0
100
AcDbPoint
 10
-82.5
 20
20.0
 30
0.0
  0
ENDBLK
  5
F3EB
330
F3E0
100
AcDbEntity
  8
0
100
AcDbBlockEnd
  0
BLOCK
  5
F41D
330
F413
100
AcDbEntity
  8
0
100
AcDbBlockBegin
  2
*D80
 70
     1
 10
0.0
 20
0.0
 30
0.0
  3
*D80
  1

  0
LINE
  5
10504
330
F413
100
AcDbEntity
  8
30
 62
     0
370
    -2
100
AcDbLine
 10
-142.5
 20
268.4999999999997
 30
0.0
 11
-142.5
 21
295.9999999999999
 31
0.0
  0
LINE
  5
10505
330
F413
100
AcDbEntity
  8
30
 62
     0
370
    -2
100
AcDbLine
 10
-22.5
 20
268.4999999999997
 30
0.0
 11
-22.49999999999999
 21
295.9999999999999
 31
0.0
  0
LINE
  5
10506
330
F413
100
AcDbEntity
  8
30
 62
     0
370
    -2
100
AcDbLine
 10
-140.5
 20
295.4999999999998
 30
0.0
 11
-24.49999999999999
 21
295.4999999999998
 31
0.0
  0
INSERT
  5
10507
330
F413
100
AcDbEntity
  8
30
 62
     0
370
    -2
100
AcDbBlockReference
  2
_OPEN
 10
-142.5
 20
295.4999999999998
 30
0.0
 41
2.0
 42
2.0
 43
2.0
 50
180.0
  0
INSERT
  5
10508
330
F413
100
AcDbEntity
  8
30
 62
     0
370
    -2
100
AcDbBlockReference
  2
_OPEN
 10
-22.49999999999999
 20
295.4999999999998
 30
0.0
 41
2.0
 42
2.0
 43
2.0
  0
MTEXT
  5
10509
330
F413
100
AcDbEntity
  8
30
 62
     0
100
AcDbMText
 10
-82.5
 20
300.4999999999999
 30
0.0
 40
6.0
 41
0.0
 71
     5
 72
     1
  1
\A1;120
 73
     1
 44
1.0
1001
ACAD
1000
MTEXTBEGIN
1070
    73
1070
     1
1070
    44
1040
1.0
1070
    74
1070
     0
1000
MTEXTEND
  0
POINT
  5
1050A
330
F413
100
AcDbEntity
  8
DEFPOINTS
 62
     0
100
AcDbPoint
 10
-142.5
 20
265.4999999999997
 30
0.0
  0
POINT
  5
1050B
330
F413
100
AcDbEntity
  8
DEFPOINTS
 62
     0
100
AcDbPoint
 10
-22.5
 20
265.4999999999997
 30
0.0
  0
POINT
  5
1050C
330
F413
100
AcDbEntity
  8
DEFPOINTS
 62
     0
100
AcDbPoint
 10
-22.49999999999999
 20
295.4999999999998
 30
0.0
  0
ENDBLK
  5
F41E
330
F413
100
AcDbEntity
  8
0
100
AcDbBlockEnd
  0
BLOCK
  5
F429
330
F41F
100
AcDbEntity
  8
0
100
AcDbBlockBegin
  2
*D81
 70
     1
 10
0.0
 20
0.0
 30
0.0
  3
*D81
  1

  0
LINE
  5
1050D
330
F41F
100
AcDbEntity
  8
30
 62
     0
370
    -2
100
AcDbLine
 10
-130.9999999999998
 20
265.0
 30
0.0
 11
-130.9999999999998
 21
285.9999999999999
 31
0.0
  0
LINE
  5
1050E
330
F41F
100
AcDbEntity
  8
30
 62
     0
370
    -2
100
AcDbLine
 10
-34.00000000000011
 20
264.5
 30
0.0
 11
-34.00000000000011
 21
285.9999999999999
 31
0.0
  0
LINE
  5
1050F
330
F41F
100
AcDbEntity
  8
30
 62
     0
370
    -2
100
AcDbLine
 10
-128.9999999999998
 20
285.4999999999999
 30
0.0
 11
-36.00000000000011
 21
285.4999999999999
 31
0.0
  0
INSERT
  5
10510
330
F41F
100
AcDbEntity
  8
30
 62
     0
370
    -2
100
AcDbBlockReference
  2
_OPEN
 10
-130.9999999999998
 20
285.4999999999999
 30
0.0
 41
2.0
 42
2.0
 43
2.0
 50
180.0
  0
INSERT
  5
10511
330
F41F
100
AcDbEntity
  8
30
 62
     0
370
    -2
100
AcDbBlockReference
  2
_OPEN
 10
-34.00000000000011
 20
285.4999999999999
 30
0.0
 41
2.0
 42
2.0
 43
2.0
  0
MTEXT
  5
10512
330
F41F
100
AcDbEntity
  8
30
 62
     0
100
AcDbMText
 10
-82.5
 20
290.4999999999999
 30
0.0
 40
6.0
 41
0.0
 71
     5
 72
     1
  1
\A1;97
 73
     1
 44
1.0
1001
ACAD
1000
MTEXTBEGIN
1070
    73
1070
     1
1070
    44
1040
1.0
1070
    74
1070
     0
1000
MTEXTEND
  0
POINT
  5
10513
330
F41F
100
AcDbEntity
  8
DEFPOINTS
 62
     0
100
AcDbPoint
 10
-130.9999999999998
 20
262.0
 30
0.0
  0
POINT
  5
10514
330
F41F
100
AcDbEntity
  8
DEFPOINTS
 62
     0
100
AcDbPoint
 10
-34.00000000000011
 20
261.5
 30
0.0
  0
POINT
  5
10515
330
F41F
100
AcDbEntity
  8
DEFPOINTS
 62
     0
100
AcDbPoint
 10
-34.00000000000011
 20
285.4999999999999
 30
0.0
  0
ENDBLK
  5
F42A
330
F41F
100
AcDbEntity
  8
0
100
AcDbBlockEnd
  0
BLOCK
  5
F572
330
F566
100
AcDbEntity
  8
0
100
AcDbBlockBegin
  2
*D82
 70
     1
 10
0.0
 20
0.0
 30
0.0
  3
*D82
  1

  0
LINE
  5
FD46
330
F566
100
AcDbEntity
  8
30
 62
     0
370
    -2
100
AcDbLine
 10
147.0
 20
84.24999999999995
 30
0.0
 11
147.0
 21
59.5
 31
0.0
  0
LINE
  5
FD47
330
F566
100
AcDbEntity
  8
30
 62
     0
370
    -2
100
AcDbLine
 10
140.0
 20
67.0
 30
0.0
 11
140.0
 21
59.5
 31
0.0
  0
LINE
  5
FD48
330
F566
100
AcDbEntity
  8
30
 62
     0
370
    -2
100
AcDbLine
 10
138.0
 20
60.0
 30
0.0
 11
136.0
 21
60.0
 31
0.0
  0
LINE
  5
FD49
330
F566
100
AcDbEntity
  8
30
 62
     0
370
    -2
100
AcDbLine
 10
149.0
 20
60.0
 30
0.0
 11
159.0
 21
60.0
 31
0.0
  0
LINE
  5
FD4A
330
F566
100
AcDbEntity
  8
30
 62
     0
370
    -2
100
AcDbLine
 10
140.0
 20
60.0
 30
0.0
 11
147.0
 21
60.0
 31
0.0
  0
INSERT
  5
FD4B
330
F566
100
AcDbEntity
  8
30
 62
     0
370
    -2
100
AcDbBlockReference
  2
_OPEN
 10
140.0
 20
60.0
 30
0.0
 41
2.0
 42
2.0
 43
2.0
  0
INSERT
  5
FD4C
330
F566
100
AcDbEntity
  8
30
 62
     0
370
    -2
100
AcDbBlockReference
  2
_OPEN
 10
147.0
 20
60.0
 30
0.0
 41
2.0
 42
2.0
 43
2.0
 50
180.0
  0
MTEXT
  5
FD4D
330
F566
100
AcDbEntity
  8
30
 62
     0
100
AcDbMText
 10
155.0
 20
65.0
 30
0.0
 40
6.0
 41
0.0
 71
     5
 72
     1
  1
\A1;7
 73
     1
 44
1.0
1001
ACAD
1000
MTEXTBEGIN
1070
    73
1070
     1
1070
    44
1040
1.0
1070
    74
1070
     0
1000
MTEXTEND
  0
POINT
  5
FD4E
330
F566
100
AcDbEntity
  8
DEFPOINTS
 62
     0
100
AcDbPoint
 10
147.0
 20
87.24999999999994
 30
0.0
  0
POINT
  5
FD4F
330
F566
100
AcDbEntity
  8
DEFPOINTS
 62
     0
100
AcDbPoint
 10
140.0
 20
70.0
 30
0.0
  0
POINT
  5
FD50
330
F566
100
AcDbEntity
  8
DEFPOINTS
 62
     0
100
AcDbPoint
 10
140.0
 20
60.0
 30
0.0
  0
ENDBLK
  5
F573
330
F566
100
AcDbEntity
  8
0
100
AcDbBlockEnd
  0
BLOCK
  5
F57E
330
F574
100
AcDbEntity
  8
0
100
AcDbBlockBegin
  2
*D83
 70
     1
 10
0.0
 20
0.0
 30
0.0
  3
*D83
  1

  0
LINE
  5
FCEC
330
F574
100
AcDbEntity
  8
30
 62
     0
370
    -2
100
AcDbLine
 10
140.0
 20
67.0
 30
0.0
 11
140.0
 21
59.5
 31
0.0
  0
LINE
  5
FCED
330
F574
100
AcDbEntity
  8
30
 62
     0
370
    -2
100
AcDbLine
 10
93.99999999999977
 20
82.25000000000006
 30
0.0
 11
93.99999999999977
 21
59.5
 31
0.0
  0
LINE
  5
FCEE
330
F574
100
AcDbEntity
  8
30
 62
     0
370
    -2
100
AcDbLine
 10
138.0
 20
60.0
 30
0.0
 11
95.99999999999978
 21
60.0
 31
0.0
  0
INSERT
  5
FCEF
330
F574
100
AcDbEntity
  8
30
 62
     0
370
    -2
100
AcDbBlockReference
  2
_OPEN
 10
140.0
 20
60.0
 30
0.0
 41
2.0
 42
2.0
 43
2.0
  0
INSERT
  5
FCF0
330
F574
100
AcDbEntity
  8
30
 62
     0
370
    -2
100
AcDbBlockReference
  2
_OPEN
 10
93.99999999999977
 20
60.0
 30
0.0
 41
2.0
 42
2.0
 43
2.0
 50
180.0
  0
MTEXT
  5
FCF1
330
F574
100
AcDbEntity
  8
30
 62
     0
100
AcDbMText
 10
124.9999999999997
 20
65.0
 30
0.0
 40
6.0
 41
0.0
 71
     5
 72
     1
  1
\A1;46
 73
     1
 44
1.0
1001
ACAD
1000
MTEXTBEGIN
1070
    73
1070
     1
1070
    44
1040
1.0
1070
    74
1070
     0
1000
MTEXTEND
  0
POINT
  5
FCF2
330
F574
100
AcDbEntity
  8
DEFPOINTS
 62
     0
100
AcDbPoint
 10
140.0
 20
70.0
 30
0.0
  0
POINT
  5
FCF3
330
F574
100
AcDbEntity
  8
DEFPOINTS
 62
     0
100
AcDbPoint
 10
93.99999999999977
 20
85.25000000000003
 30
0.0
  0
POINT
  5
FCF4
330
F574
100
AcDbEntity
  8
DEFPOINTS
 62
     0
100
AcDbPoint
 10
93.99999999999977
 20
60.0
 30
0.0
  0
ENDBLK
  5
F57F
330
F574
100
AcDbEntity
  8
0
100
AcDbBlockEnd
  0
BLOCK
  5
F58A
330
F580
100
AcDbEntity
  8
0
100
AcDbBlockBegin
  2
*D84
 70
     1
 10
0.0
 20
0.0
 30
0.0
  3
*D84
  1

  0
LINE
  5
FCF5
330
F580
100
AcDbEntity
  8
30
 62
     0
370
    -2
100
AcDbLine
 10
140.0
 20
67.0
 30
0.0
 11
140.0
 21
49.5
 31
0.0
  0
LINE
  5
FCF6
330
F580
100
AcDbEntity
  8
30
 62
     0
370
    -2
100
AcDbLine
 10
80.0
 20
67.0
 30
0.0
 11
80.0
 21
49.5
 31
0.0
  0
LINE
  5
FCF7
330
F580
100
AcDbEntity
  8
30
 62
     0
370
    -2
100
AcDbLine
 10
138.0
 20
50.0
 30
0.0
 11
82.0
 21
50.0
 31
0.0
  0
INSERT
  5
FCF8
330
F580
100
AcDbEntity
  8
30
 62
     0
370
    -2
100
AcDbBlockReference
  2
_OPEN
 10
140.0
 20
50.0
 30
0.0
 41
2.0
 42
2.0
 43
2.0
  0
INSERT
  5
FCF9
330
F580
100
AcDbEntity
  8
30
 62
     0
370
    -2
100
AcDbBlockReference
  2
_OPEN
 10
80.0
 20
50.0
 30
0.0
 41
2.0
 42
2.0
 43
2.0
 50
180.0
  0
MTEXT
  5
FCFA
330
F580
100
AcDbEntity
  8
30
 62
     0
100
AcDbMText
 10
124.9999999999997
 20
55.0
 30
0.0
 40
6.0
 41
0.0
 71
     5
 72
     1
  1
\A1;60
 73
     1
 44
1.0
1001
ACAD
1000
MTEXTBEGIN
1070
    73
1070
     1
1070
    44
1040
1.0
1070
    74
1070
     0
1000
MTEXTEND
  0
POINT
  5
FCFB
330
F580
100
AcDbEntity
  8
DEFPOINTS
 62
     0
100
AcDbPoint
 10
140.0
 20
70.0
 30
0.0
  0
POINT
  5
FCFC
330
F580
100
AcDbEntity
  8
DEFPOINTS
 62
     0
100
AcDbPoint
 10
80.0
 20
70.0
 30
0.0
  0
POINT
  5
FCFD
330
F580
100
AcDbEntity
  8
DEFPOINTS
 62
     0
100
AcDbPoint
 10
80.0
 20
50.0
 30
0.0
  0
ENDBLK
  5
F58B
330
F580
100
AcDbEntity
  8
0
100
AcDbBlockEnd
  0
BLOCK
  5
F596
330
F58C
100
AcDbEntity
  8
0
100
AcDbBlockBegin
  2
*D85
 70
     1
 10
0.0
 20
0.0
 30
0.0
  3
*D85
  1

  0
LINE
  5
FCFE
330
F58C
100
AcDbEntity
  8
30
 62
     0
370
    -2
100
AcDbLine
 10
140.0
 20
67.0
 30
0.0
 11
140.0
 21
39.5
 31
0.0
  0
LINE
  5
FCFF
330
F58C
100
AcDbEntity
  8
30
 62
     0
370
    -2
100
AcDbLine
 10
72.0
 20
98.50000000000006
 30
0.0
 11
72.0
 21
39.5
 31
0.0
  0
LINE
  5
FD00
330
F58C
100
AcDbEntity
  8
30
 62
     0
370
    -2
100
AcDbLine
 10
138.0
 20
40.0
 30
0.0
 11
74.0
 21
40.0
 31
0.0
  0
INSERT
  5
FD01
330
F58C
100
AcDbEntity
  8
30
 62
     0
370
    -2
100
AcDbBlockReference
  2
_OPEN
 10
140.0
 20
40.0
 30
0.0
 41
2.0
 42
2.0
 43
2.0
  0
INSERT
  5
FD02
330
F58C
100
AcDbEntity
  8
30
 62
     0
370
    -2
100
AcDbBlockReference
  2
_OPEN
 10
72.0
 20
40.0
 30
0.0
 41
2.0
 42
2.0
 43
2.0
 50
180.0
  0
MTEXT
  5
FD03
330
F58C
100
AcDbEntity
  8
30
 62
     0
100
AcDbMText
 10
106.0
 20
45.0
 30
0.0
 40
6.0
 41
0.0
 71
     5
 72
     1
  1
\A1;68
 73
     1
 44
1.0
1001
ACAD
1000
MTEXTBEGIN
1070
    73
1070
     1
1070
    44
1040
1.0
1070
    74
1070
     0
1000
MTEXTEND
  0
POINT
  5
FD04
330
F58C
100
AcDbEntity
  8
DEFPOINTS
 62
     0
100
AcDbPoint
 10
140.0
 20
70.0
 30
0.0
  0
POINT
  5
FD05
330
F58C
100
AcDbEntity
  8
DEFPOINTS
 62
     0
100
AcDbPoint
 10
72.0
 20
101.5
 30
0.0
  0
POINT
  5
FD06
330
F58C
100
AcDbEntity
  8
DEFPOINTS
 62
     0
100
AcDbPoint
 10
72.0
 20
40.0
 30
0.0
  0
ENDBLK
  5
F597
330
F58C
100
AcDbEntity
  8
0
100
AcDbBlockEnd
  0
BLOCK
  5
F5A2
330
F598
100
AcDbEntity
  8
0
100
AcDbBlockBegin
  2
*D86
 70
     1
 10
0.0
 20
0.0
 30
0.0
  3
*D86
  1

  0
LINE
  5
FD07
330
F598
100
AcDbEntity
  8
30
 62
     0
370
    -2
100
AcDbLine
 10
140.0
 20
67.0
 30
0.0
 11
140.0
 21
29.5
 31
0.0
  0
LINE
  5
FD08
330
F598
100
AcDbEntity
  8
30
 62
     0
370
    -2
100
AcDbLine
 10
68.0
 20
124.5
 30
0.0
 11
68.0
 21
29.5
 31
0.0
  0
LINE
  5
FD09
330
F598
100
AcDbEntity
  8
30
 62
     0
370
    -2
100
AcDbLine
 10
138.0
 20
30.0
 30
0.0
 11
70.0
 21
30.0
 31
0.0
  0
INSERT
  5
FD0A
330
F598
100
AcDbEntity
  8
30
 62
     0
370
    -2
100
AcDbBlockReference
  2
_OPEN
 10
140.0
 20
30.0
 30
0.0
 41
2.0
 42
2.0
 43
2.0
  0
INSERT
  5
FD0B
330
F598
100
AcDbEntity
  8
30
 62
     0
370
    -2
100
AcDbBlockReference
  2
_OPEN
 10
68.0
 20
30.0
 30
0.0
 41
2.0
 42
2.0
 43
2.0
 50
180.0
  0
MTEXT
  5
FD0C
330
F598
100
AcDbEntity
  8
30
 62
     0
100
AcDbMText
 10
104.0
 20
35.0
 30
0.0
 40
6.0
 41
0.0
 71
     5
 72
     1
  1
\A1;72
 73
     1
 44
1.0
1001
ACAD
1000
MTEXTBEGIN
1070
    73
1070
     1
1070
    44
1040
1.0
1070
    74
1070
     0
1000
MTEXTEND
  0
POINT
  5
FD0D
330
F598
100
AcDbEntity
  8
DEFPOINTS
 62
     0
100
AcDbPoint
 10
140.0
 20
70.0
 30
0.0
  0
POINT
  5
FD0E
330
F598
100
AcDbEntity
  8
DEFPOINTS
 62
     0
100
AcDbPoint
 10
68.0
 20
127.5
 30
0.0
  0
POINT
  5
FD0F
330
F598
100
AcDbEntity
  8
DEFPOINTS
 62
     0
100
AcDbPoint
 10
68.0
 20
30.0
 30
0.0
  0
ENDBLK
  5
F5A3
330
F598
100
AcDbEntity
  8
0
100
AcDbBlockEnd
  0
BLOCK
  5
F5AE
330
F5A4
100
AcDbEntity
  8
0
100
AcDbBlockBegin
  2
*D87
 70
     1
 10
0.0
 20
0.0
 30
0.0
  3
*D87
  1

  0
LINE
  5
FD10
330
F5A4
100
AcDbEntity
  8
30
 62
     0
370
    -2
100
AcDbLine
 10
140.0
 20
67.0
 30
0.0
 11
140.0
 21
19.5
 31
0.0
  0
LINE
  5
FD11
330
F5A4
100
AcDbEntity
  8
30
 62
     0
370
    -2
100
AcDbLine
 10
44.99999999999954
 20
149.5
 30
0.0
 11
44.99999999999952
 21
19.5
 31
0.0
  0
LINE
  5
FD12
330
F5A4
100
AcDbEntity
  8
30
 62
     0
370
    -2
100
AcDbLine
 10
138.0
 20
20.0
 30
0.0
 11
46.99999999999953
 21
20.0
 31
0.0
  0
INSERT
  5
FD13
330
F5A4
100
AcDbEntity
  8
30
 62
     0
370
    -2
100
AcDbBlockReference
  2
_OPEN
 10
140.0
 20
20.0
 30
0.0
 41
2.0
 42
2.0
 43
2.0
  0
INSERT
  5
FD14
330
F5A4
100
AcDbEntity
  8
30
 62
     0
370
    -2
100
AcDbBlockReference
  2
_OPEN
 10
44.99999999999952
 20
20.0
 30
0.0
 41
2.0
 42
2.0
 43
2.0
 50
180.0
  0
MTEXT
  5
FD15
330
F5A4
100
AcDbEntity
  8
30
 62
     0
100
AcDbMText
 10
92.49999999999976
 20
25.0
 30
0.0
 40
6.0
 41
0.0
 71
     5
 72
     1
  1
\A1;95
 73
     1
 44
1.0
1001
ACAD
1000
MTEXTBEGIN
1070
    73
1070
     1
1070
    44
1040
1.0
1070
    74
1070
     0
1000
MTEXTEND
  0
POINT
  5
FD16
330
F5A4
100
AcDbEntity
  8
DEFPOINTS
 62
     0
100
AcDbPoint
 10
140.0
 20
70.0
 30
0.0
  0
POINT
  5
FD17
330
F5A4
100
AcDbEntity
  8
DEFPOINTS
 62
     0
100
AcDbPoint
 10
44.99999999999954
 20
152.5
 30
0.0
  0
POINT
  5
FD18
330
F5A4
100
AcDbEntity
  8
DEFPOINTS
 62
     0
100
AcDbPoint
 10
44.99999999999952
 20
20.0
 30
0.0
  0
ENDBLK
  5
F5AF
330
F5A4
100
AcDbEntity
  8
0
100
AcDbBlockEnd
  0
BLOCK
  5
F69B
330
F691
100
AcDbEntity
  8
0
100
AcDbBlockBegin
  2
*D88
 70
     1
 10
0.0
 20
0.0
 30
0.0
  3
*D88
  1

  0
LINE
  5
FD19
330
F691
100
AcDbEntity
  8
30
 62
     0
370
    -2
100
AcDbLine
 10
68.99999999999977
 20
203.4999999999997
 30
0.0
 11
19.49999999999979
 21
203.4999999999997
 31
0.0
  0
LINE
  5
FD1A
330
F691
100
AcDbEntity
  8
30
 62
     0
370
    -2
100
AcDbLine
 10
68.99999999999977
 20
101.5
 30
0.0
 11
19.49999999999977
 21
101.5
 31
0.0
  0
LINE
  5
FD1B
330
F691
100
AcDbEntity
  8
30
 62
     0
370
    -2
100
AcDbLine
 10
19.99999999999979
 20
201.4999999999997
 30
0.0
 11
19.99999999999977
 21
103.5
 31
0.0
  0
INSERT
  5
FD1C
330
F691
100
AcDbEntity
  8
30
 62
     0
370
    -2
100
AcDbBlockReference
  2
_OPEN
 10
19.99999999999979
 20
203.4999999999997
 30
0.0
 41
2.0
 42
2.0
 43
2.0
 50
90.0
  0
INSERT
  5
FD1D
330
F691
100
AcDbEntity
  8
30
 62
     0
370
    -2
100
AcDbBlockReference
  2
_OPEN
 10
19.99999999999977
 20
101.5
 30
0.0
 41
2.0
 42
2.0
 43
2.0
 50
270.0
  0
MTEXT
  5
FD1E
330
F691
100
AcDbEntity
  8
30
 62
     0
100
AcDbMText
 10
14.99999999999976
 20
152.4999999999998
 30
0.0
 40
6.0
 41
0.0
 71
     5
 72
     1
  1
\A1;102
 11
0.0000000000000001
 21
1.0
 31
0.0
 73
     1
 44
1.0
1001
ACAD
1000
MTEXTBEGIN
1070
    73
1070
     1
1070
    44
1040
1.0
1070
    74
1070
     0
1000
MTEXTEND
  0
POINT
  5
FD1F
330
F691
100
AcDbEntity
  8
DEFPOINTS
 62
     0
100
AcDbPoint
 10
71.99999999999976
 20
203.4999999999997
 30
0.0
  0
POINT
  5
FD20
330
F691
100
AcDbEntity
  8
DEFPOINTS
 62
     0
100
AcDbPoint
 10
71.99999999999976
 20
101.5
 30
0.0
  0
POINT
  5
FD21
330
F691
100
AcDbEntity
  8
DEFPOINTS
 62
     0
100
AcDbPoint
 10
19.99999999999977
 20
101.5
 30
0.0
  0
ENDBLK
  5
F69C
330
F691
100
AcDbEntity
  8
0
100
AcDbBlockEnd
  0
BLOCK
  5
F6A7
330
F69D
100
AcDbEntity
  8
0
100
AcDbBlockBegin
  2
*D89
 70
     1
 10
0.0
 20
0.0
 30
0.0
  3
*D89
  1

  0
LINE
  5
FD2D
330
F69D
100
AcDbEntity
  8
30
 62
     0
370
    -2
100
AcDbLine
 10
64.99999999999977
 20
177.4999999999999
 30
0.0
 11
29.49999999999978
 21
177.4999999999999
 31
0.0
  0
LINE
  5
FD2E
330
F69D
100
AcDbEntity
  8
30
 62
     0
370
    -2
100
AcDbLine
 10
64.99999999999977
 20
127.4999999999999
 30
0.0
 11
29.49999999999977
 21
127.4999999999999
 31
0.0
  0
LINE
  5
FD2F
330
F69D
100
AcDbEntity
  8
30
 62
     0
370
    -2
100
AcDbLine
 10
29.99999999999978
 20
175.4999999999999
 30
0.0
 11
29.99999999999977
 21
129.4999999999999
 31
0.0
  0
INSERT
  5
FD30
330
F69D
100
AcDbEntity
  8
30
 62
     0
370
    -2
100
AcDbBlockReference
  2
_OPEN
 10
29.99999999999978
 20
177.4999999999999
 30
0.0
 41
2.0
 42
2.0
 43
2.0
 50
90.0
  0
INSERT
  5
FD31
330
F69D
100
AcDbEntity
  8
30
 62
     0
370
    -2
100
AcDbBlockReference
  2
_OPEN
 10
29.99999999999977
 20
127.4999999999999
 30
0.0
 41
2.0
 42
2.0
 43
2.0
 50
270.0
  0
MTEXT
  5
FD32
330
F69D
100
AcDbEntity
  8
30
 62
     0
100
AcDbMText
 10
24.99999999999975
 20
152.4999999999999
 30
0.0
 40
6.0
 41
0.0
 71
     5
 72
     1
  1
\A1;50
 11
0.0000000000000001
 21
1.0
 31
0.0
 73
     1
 44
1.0
1001
ACAD
1000
MTEXTBEGIN
1070
    73
1070
     1
1070
    44
1040
1.0
1070
    74
1070
     0
1000
MTEXTEND
  0
POINT
  5
FD33
330
F69D
100
AcDbEntity
  8
DEFPOINTS
 62
     0
100
AcDbPoint
 10
67.99999999999977
 20
177.4999999999999
 30
0.0
  0
POINT
  5
FD34
330
F69D
100
AcDbEntity
  8
DEFPOINTS
 62
     0
100
AcDbPoint
 10
67.99999999999977
 20
127.4999999999999
 30
0.0
  0
POINT
  5
FD35
330
F69D
100
AcDbEntity
  8
DEFPOINTS
 62
     0
100
AcDbPoint
 10
29.99999999999977
 20
127.4999999999999
 30
0.0
  0
ENDBLK
  5
F6A8
330
F69D
100
AcDbEntity
  8
0
100
AcDbBlockEnd
  0
BLOCK
  5
F6B3
330
F6A9
100
AcDbEntity
  8
0
100
AcDbBlockBegin
  2
*D90
 70
     1
 10
0.0
 20
0.0
 30
0.0
  3
*D90
  1

  0
LINE
  5
FD36
330
F6A9
100
AcDbEntity
  8
30
 62
     0
370
    -2
100
AcDbLine
 10
58.49999999999955
 20
174.9999999999999
 30
0.0
 11
39.49999999999977
 21
174.9999999999999
 31
0.0
  0
LINE
  5
FD37
330
F6A9
100
AcDbEntity
  8
30
 62
     0
370
    -2
100
AcDbLine
 10
58.49999999999955
 20
129.9999999999999
 30
0.0
 11
39.49999999999977
 21
129.9999999999999
 31
0.0
  0
LINE
  5
FD38
330
F6A9
100
AcDbEntity
  8
30
 62
     0
370
    -2
100
AcDbLine
 10
39.99999999999978
 20
172.9999999999999
 30
0.0
 11
39.99999999999977
 21
131.9999999999999
 31
0.0
  0
INSERT
  5
FD39
330
F6A9
100
AcDbEntity
  8
30
 62
     0
370
    -2
100
AcDbBlockReference
  2
_OPEN
 10
39.99999999999978
 20
174.9999999999999
 30
0.0
 41
2.0
 42
2.0
 43
2.0
 50
90.0
  0
INSERT
  5
FD3A
330
F6A9
100
AcDbEntity
  8
30
 62
     0
370
    -2
100
AcDbBlockReference
  2
_OPEN
 10
39.99999999999977
 20
129.9999999999999
 30
0.0
 41
2.0
 42
2.0
 43
2.0
 50
270.0
  0
MTEXT
  5
FD3B
330
F6A9
100
AcDbEntity
  8
30
 62
     0
100
AcDbMText
 10
34.99999999999975
 20
152.4999999999999
 30
0.0
 40
6.0
 41
0.0
 71
     5
 72
     1
  1
\A1;45
 11
0.0000000000000001
 21
1.0
 31
0.0
 73
     1
 44
1.0
1001
ACAD
1000
MTEXTBEGIN
1070
    73
1070
     1
1070
    44
1040
1.0
1070
    74
1070
     0
1000
MTEXTEND
  0
POINT
  5
FD3C
330
F6A9
100
AcDbEntity
  8
DEFPOINTS
 62
     0
100
AcDbPoint
 10
61.49999999999955
 20
174.9999999999999
 30
0.0
  0
POINT
  5
FD3D
330
F6A9
100
AcDbEntity
  8
DEFPOINTS
 62
     0
100
AcDbPoint
 10
61.49999999999955
 20
129.9999999999999
 30
0.0
  0
POINT
  5
FD3E
330
F6A9
100
AcDbEntity
  8
DEFPOINTS
 62
     0
100
AcDbPoint
 10
39.99999999999977
 20
129.9999999999999
 30
0.0
  0
ENDBLK
  5
F6B4
330
F6A9
100
AcDbEntity
  8
0
100
AcDbBlockEnd
  0
BLOCK
  5
F6DD
330
F6D1
100
AcDbEntity
  8
0
100
AcDbBlockBegin
  2
*D91
 70
     1
 10
0.0
 20
0.0
 30
0.0
  3
*D91
  1

  0
LINE
  5
FCE1
330
F6D1
100
AcDbEntity
  8
30
 62
     0
370
    -2
100
AcDbLine
 10
112.0
 20
268.4999999999997
 30
0.0
 11
112.0
 21
270.5
 31
0.0
  0
LINE
  5
FCE2
330
F6D1
100
AcDbEntity
  8
30
 62
     0
370
    -2
100
AcDbLine
 10
116.0
 20
268.4999999999997
 30
0.0
 11
116.0
 21
270.5
 31
0.0
  0
LINE
  5
FCE3
330
F6D1
100
AcDbEntity
  8
30
 62
     0
370
    -2
100
AcDbLine
 10
118.0
 20
270.0
 30
0.0
 11
120.0
 21
270.0
 31
0.0
  0
LINE
  5
FCE4
330
F6D1
100
AcDbEntity
  8
30
 62
     0
370
    -2
100
AcDbLine
 10
110.0
 20
270.0
 30
0.0
 11
100.0
 21
270.0
 31
0.0
  0
LINE
  5
FCE5
330
F6D1
100
AcDbEntity
  8
30
 62
     0
370
    -2
100
AcDbLine
 10
116.0
 20
270.0
 30
0.0
 11
112.0
 21
270.0
 31
0.0
  0
INSERT
  5
FCE6
330
F6D1
100
AcDbEntity
  8
30
 62
     0
370
    -2
100
AcDbBlockReference
  2
_OPEN
 10
116.0
 20
270.0
 30
0.0
 41
2.0
 42
2.0
 43
2.0
 50
180.0
  0
INSERT
  5
FCE7
330
F6D1
100
AcDbEntity
  8
30
 62
     0
370
    -2
100
AcDbBlockReference
  2
_OPEN
 10
112.0
 20
270.0
 30
0.0
 41
2.0
 42
2.0
 43
2.0
  0
MTEXT
  5
FCE8
330
F6D1
100
AcDbEntity
  8
30
 62
     0
100
AcDbMText
 10
104.0
 20
275.0
 30
0.0
 40
6.0
 41
0.0
 71
     5
 72
     1
  1
\A1;4
 73
     1
 44
1.0
1001
ACAD
1000
MTEXTBEGIN
1070
    73
1070
     1
1070
    44
1040
1.0
1070
    74
1070
     0
1000
MTEXTEND
  0
POINT
  5
FCE9
330
F6D1
100
AcDbEntity
  8
DEFPOINTS
 62
     0
100
AcDbPoint
 10
112.0
 20
265.4999999999997
 30
0.0
  0
POINT
  5
FCEA
330
F6D1
100
AcDbEntity
  8
DEFPOINTS
 62
     0
100
AcDbPoint
 10
116.0
 20
265.4999999999997
 30
0.0
  0
POINT
  5
FCEB
330
F6D1
100
AcDbEntity
  8
DEFPOINTS
 62
     0
100
AcDbPoint
 10
116.0
 20
270.0
 30
0.0
  0
ENDBLK
  5
F6DE
330
F6D1
100
AcDbEntity
  8
0
100
AcDbBlockEnd
  0
BLOCK
  5
F6F5
330
F6EB
100
AcDbEntity
  8
0
100
AcDbBlockBegin
  2
*D92
 70
     1
 10
0.0
 20
0.0
 30
0.0
  3
*D92
  1

  0
LINE
  5
FD5A
330
F6EB
100
AcDbEntity
  8
30
 62
     0
370
    -2
100
AcDbLine
 10
112.0
 20
268.4999999999997
 30
0.0
 11
112.0
 21
280.5
 31
0.0
  0
LINE
  5
FD5B
330
F6EB
100
AcDbEntity
  8
30
 62
     0
370
    -2
100
AcDbLine
 10
140.0
 20
238.0
 30
0.0
 11
140.0
 21
280.5
 31
0.0
  0
LINE
  5
FD5C
330
F6EB
100
AcDbEntity
  8
30
 62
     0
370
    -2
100
AcDbLine
 10
114.0
 20
280.0
 30
0.0
 11
138.0
 21
280.0
 31
0.0
  0
INSERT
  5
FD5D
330
F6EB
100
AcDbEntity
  8
30
 62
     0
370
    -2
100
AcDbBlockReference
  2
_OPEN
 10
112.0
 20
280.0
 30
0.0
 41
2.0
 42
2.0
 43
2.0
 50
180.0
  0
INSERT
  5
FD5E
330
F6EB
100
AcDbEntity
  8
30
 62
     0
370
    -2
100
AcDbBlockReference
  2
_OPEN
 10
140.0
 20
280.0
 30
0.0
 41
2.0
 42
2.0
 43
2.0
  0
MTEXT
  5
FD5F
330
F6EB
100
AcDbEntity
  8
30
 62
     0
100
AcDbMText
 10
126.0
 20
285.0
 30
0.0
 40
6.0
 41
0.0
 71
     5
 72
     1
  1
\A1;28
 73
     1
 44
1.0
1001
ACAD
1000
MTEXTBEGIN
1070
    73
1070
     1
1070
    44
1040
1.0
1070
    74
1070
     0
1000
MTEXTEND
  0
POINT
  5
FD60
330
F6EB
100
AcDbEntity
  8
DEFPOINTS
 62
     0
100
AcDbPoint
 10
112.0
 20
265.4999999999997
 30
0.0
  0
POINT
  5
FD61
330
F6EB
100
AcDbEntity
  8
DEFPOINTS
 62
     0
100
AcDbPoint
 10
140.0
 20
235.0
 30
0.0
  0
POINT
  5
FD62
330
F6EB
100
AcDbEntity
  8
DEFPOINTS
 62
     0
100
AcDbPoint
 10
140.0
 20
280.0
 30
0.0
  0
ENDBLK
  5
F6F6
330
F6EB
100
AcDbEntity
  8
0
100
AcDbBlockEnd
  0
BLOCK
  5
F8C3
330
F8B9
100
AcDbEntity
  8
0
100
AcDbBlockBegin
  2
*D93
 70
     1
 10
0.0
 20
0.0
 30
0.0
  3
*D93
  1

  0
LINE
  5
10516
330
F8B9
100
AcDbEntity
  8
30
 62
     0
370
    -2
100
AcDbLine
 10
-108.4999999999997
 20
-39.50000000000017
 30
0.0
 11
-150.4999999999999
 21
-39.50000000000015
 31
0.0
  0
LINE
  5
10517
330
F8B9
100
AcDbEntity
  8
30
 62
     0
370
    -2
100
AcDbLine
 10
-73.5000000000002
 20
-165.5
 30
0.0
 11
-150.5
 21
-165.5
 31
0.0
  0
LINE
  5
10518
330
F8B9
100
AcDbEntity
  8
30
 62
     0
370
    -2
100
AcDbLine
 10
-149.9999999999999
 20
-41.50000000000015
 30
0.0
 11
-150.0
 21
-163.5
 31
0.0
  0
INSERT
  5
10519
330
F8B9
100
AcDbEntity
  8
30
 62
     0
370
    -2
100
AcDbBlockReference
  2
_OPEN
 10
-149.9999999999999
 20
-39.50000000000015
 30
0.0
 41
2.0
 42
2.0
 43
2.0
 50
90.0
  0
INSERT
  5
1051A
330
F8B9
100
AcDbEntity
  8
30
 62
     0
370
    -2
100
AcDbBlockReference
  2
_OPEN
 10
-150.0
 20
-165.5
 30
0.0
 41
2.0
 42
2.0
 43
2.0
 50
270.0
  0
MTEXT
  5
1051B
330
F8B9
100
AcDbEntity
  8
30
 62
     0
100
AcDbMText
 10
-154.9999999999999
 20
-102.5000000000001
 30
0.0
 40
6.0
 41
0.0
 71
     5
 72
     1
  1
\A1;126
 11
0.0000000000000001
 21
1.0
 31
0.0
 73
     1
 44
1.0
1001
ACAD
1000
MTEXTBEGIN
1070
    73
1070
     1
1070
    44
1040
1.0
1070
    74
1070
     0
1000
MTEXTEND
  0
POINT
  5
1051C
330
F8B9
100
AcDbEntity
  8
DEFPOINTS
 62
     0
100
AcDbPoint
 10
-105.4999999999997
 20
-39.50000000000017
 30
0.0
  0
POINT
  5
1051D
330
F8B9
100
AcDbEntity
  8
DEFPOINTS
 62
     0
100
AcDbPoint
 10
-70.50000000000022
 20
-165.5
 30
0.0
  0
POINT
  5
1051E
330
F8B9
100
AcDbEntity
  8
DEFPOINTS
 62
     0
100
AcDbPoint
 10
-150.0
 20
-165.5
 30
0.0
  0
ENDBLK
  5
F8C4
330
F8B9
100
AcDbEntity
  8
0
100
AcDbBlockEnd
  0
BLOCK
  5
F8CF
330
F8C5
100
AcDbEntity
  8
0
100
AcDbBlockBegin
  2
*D94
 70
     1
 10
0.0
 20
0.0
 30
0.0
  3
*D94
  1

  0
LINE
  5
1051F
330
F8C5
100
AcDbEntity
  8
30
 62
     0
370
    -2
100
AcDbLine
 10
-100.0000000000002
 20
-48.00000000000017
 30
0.0
 11
-100.0000000000002
 21
-210.4999999999999
 31
0.0
  0
LINE
  5
10520
330
F8C5
100
AcDbEntity
  8
30
 62
     0
370
    -2
100
AcDbLine
 10
-65.00000000000023
 20
-173.9999999999999
 30
0.0
 11
-65.00000000000023
 21
-210.4999999999999
 31
0.0
  0
LINE
  5
10521
330
F8C5
100
AcDbEntity
  8
30
 62
     0
370
    -2
100
AcDbLine
 10
-98.00000000000023
 20
-210.0
 30
0.0
 11
-67.00000000000023
 21
-210.0
 31
0.0
  0
INSERT
  5
10522
330
F8C5
100
AcDbEntity
  8
30
 62
     0
370
    -2
100
AcDbBlockReference
  2
_OPEN
 10
-100.0000000000002
 20
-210.0
 30
0.0
 41
2.0
 42
2.0
 43
2.0
 50
180.0
  0
INSERT
  5
10523
330
F8C5
100
AcDbEntity
  8
30
 62
     0
370
    -2
100
AcDbBlockReference
  2
_OPEN
 10
-65.00000000000023
 20
-210.0
 30
0.0
 41
2.0
 42
2.0
 43
2.0
  0
MTEXT
  5
10524
330
F8C5
100
AcDbEntity
  8
30
 62
     0
100
AcDbMText
 10
-82.50000000000024
 20
-205.0
 30
0.0
 40
6.0
 41
0.0
 71
     5
 72
     1
  1
\A1;35
 73
     1
 44
1.0
1001
ACAD
1000
MTEXTBEGIN
1070
    73
1070
     1
1070
    44
1040
1.0
1070
    74
1070
     0
1000
MTEXTEND
  0
POINT
  5
10525
330
F8C5
100
AcDbEntity
  8
DEFPOINTS
 62
     0
100
AcDbPoint
 10
-100.0000000000002
 20
-45.00000000000015
 30
0.0
  0
POINT
  5
10526
330
F8C5
100
AcDbEntity
  8
DEFPOINTS
 62
     0
100
AcDbPoint
 10
-65.00000000000023
 20
-170.9999999999999
 30
0.0
  0
POINT
  5
10527
330
F8C5
100
AcDbEntity
  8
DEFPOINTS
 62
     0
100
AcDbPoint
 10
-65.00000000000023
 20
-210.0
 30
0.0
  0
ENDBLK
  5
F8D0
330
F8C5
100
AcDbEntity
  8
0
100
AcDbBlockEnd
  0
BLOCK
  5
FBA2
330
FB98
100
AcDbEntity
  8
0
100
AcDbBlockBegin
  2
*D95
 70
     1
 10
0.0
 20
0.0
 30
0.0
  3
*D95
  1

  0
LINE
  5
10528
330
FB98
100
AcDbEntity
  8
30
 62
     0
370
    -2
100
AcDbLine
 10
-93.59387749999996
 20
268.4999999999997
 30
0.0
 11
-93.59387749999996
 21
275.9999999999997
 31
0.0
  0
LINE
  5
10529
330
FB98
100
AcDbEntity
  8
30
 62
     0
370
    -2
100
AcDbLine
 10
-70.59387750000019
 20
268.4999999999997
 30
0.0
 11
-70.59387750000019
 21
275.9999999999997
 31
0.0
  0
LINE
  5
1052A
330
FB98
100
AcDbEntity
  8
30
 62
     0
370
    -2
100
AcDbLine
 10
-91.59387749999996
 20
275.4999999999997
 30
0.0
 11
-72.59387750000019
 21
275.4999999999997
 31
0.0
  0
INSERT
  5
1052B
330
FB98
100
AcDbEntity
  8
30
 62
     0
370
    -2
100
AcDbBlockReference
  2
_OPEN
 10
-93.59387749999996
 20
275.4999999999997
 30
0.0
 41
2.0
 42
2.0
 43
2.0
 50
180.0
  0
INSERT
  5
1052C
330
FB98
100
AcDbEntity
  8
30
 62
     0
370
    -2
100
AcDbBlockReference
  2
_OPEN
 10
-70.59387750000019
 20
275.4999999999997
 30
0.0
 41
2.0
 42
2.0
 43
2.0
  0
MTEXT
  5
1052D
330
FB98
100
AcDbEntity
  8
30
 62
     0
100
AcDbMText
 10
-82.09387750000008
 20
280.4999999999997
 30
0.0
 40
6.0
 41
0.0
 71
     5
 72
     1
  1
\A1;23
 73
     1
 44
1.0
1001
ACAD
1000
MTEXTBEGIN
1070
    73
1070
     1
1070
    44
1040
1.0
1070
    74
1070
     0
1000
MTEXTEND
  0
POINT
  5
1052E
330
FB98
100
AcDbEntity
  8
DEFPOINTS
 62
     0
100
AcDbPoint
 10
-93.59387749999996
 20
265.4999999999997
 30
0.0
  0
POINT
  5
1052F
330
FB98
100
AcDbEntity
  8
DEFPOINTS
 62
     0
100
AcDbPoint
 10
-70.59387750000019
 20
265.4999999999997
 30
0.0
  0
POINT
  5
10530
330
FB98
100
AcDbEntity
  8
DEFPOINTS
 62
     0
100
AcDbPoint
 10
-70.59387750000019
 20
275.4999999999997
 30
0.0
  0
ENDBLK
  5
FBA3
330
FB98
100
AcDbEntity
  8
0
100
AcDbBlockEnd
  0
BLOCK
  5
FEB7
330
FEB6
100
AcDbEntity
  8
0
100
AcDbBlockBegin
  2
*D96
 70
     1
 10
0.0
 20
0.0
 30
0.0
  3
*D96
  1

  0
LINE
  5
FEC2
330
FEB6
100
AcDbEntity
  8
30
 62
     0
370
    -2
100
AcDbLine
 10
102.4999999999999
 20
-7.000000000000007
 30
0.0
 11
102.4999999999999
 21
-9.500000000000008
 31
0.0
  0
LINE
  5
FEC3
330
FEB6
100
AcDbEntity
  8
30
 62
     0
370
    -2
100
AcDbLine
 10
50.0
 20
-17.0
 30
0.0
 11
50.0
 21
-9.500000000000008
 31
0.0
  0
LINE
  5
FEC4
330
FEB6
100
AcDbEntity
  8
30
 62
     0
370
    -2
100
AcDbLine
 10
100.5
 20
-10.0
 30
0.0
 11
52.0
 21
-10.0
 31
0.0
  0
INSERT
  5
FEC5
330
FEB6
100
AcDbEntity
  8
30
 62
     0
370
    -2
100
AcDbBlockReference
  2
_OPEN
 10
102.4999999999999
 20
-10.0
 30
0.0
 41
2.0
 42
2.0
 43
2.0
  0
INSERT
  5
FEC6
330
FEB6
100
AcDbEntity
  8
30
 62
     0
370
    -2
100
AcDbBlockReference
  2
_OPEN
 10
50.0
 20
-10.0
 30
0.0
 41
2.0
 42
2.0
 43
2.0
 50
180.0
  0
MTEXT
  5
FEC7
330
FEB6
100
AcDbEntity
  8
30
 62
     0
100
AcDbMText
 10
76.25
 20
-5.000000000000006
 30
0.0
 40
6.0
 41
0.0
 71
     5
 72
     1
  1
\A1;52.5
 73
     1
 44
1.0
1001
ACAD
1000
MTEXTBEGIN
1070
    73
1070
     1
1070
    44
1040
1.0
1070
    74
1070
     0
1000
MTEXTEND
  0
POINT
  5
FEC8
330
FEB6
100
AcDbEntity
  8
DEFPOINTS
 62
     0
100
AcDbPoint
 10
102.4999999999999
 20
-10.0
 30
0.0
  0
POINT
  5
FEC9
330
FEB6
100
AcDbEntity
  8
DEFPOINTS
 62
     0
100
AcDbPoint
 10
50.0
 20
-20.0
 30
0.0
  0
POINT
  5
FECA
330
FEB6
100
AcDbEntity
  8
DEFPOINTS
 62
     0
100
AcDbPoint
 10
50.0
 20
-10.0
 30
0.0
  0
ENDBLK
  5
FEB8
330
FEB6
100
AcDbEntity
  8
0
100
AcDbBlockEnd
  0
BLOCK
  5
10069
330
10068
100
AcDbEntity
  8
0
100
AcDbBlockBegin
  2
*D97
 70
     1
 10
0.0
 20
0.0
 30
0.0
  3
*D97
  1

  0
LINE
  5
100C8
330
10068
100
AcDbEntity
  8
30
 62
     0
370
    -2
100
AcDbLine
 10
61.49999999999955
 20
126.9999999999999
 30
0.0
 11
61.49999999999955
 21
29.49999999999994
 31
0.0
  0
LINE
  5
100C9
330
10068
100
AcDbEntity
  8
30
 62
     0
370
    -2
100
AcDbLine
 10
67.99999999999977
 20
124.5
 30
0.0
 11
67.99999999999977
 21
29.49999999999994
 31
0.0
  0
LINE
  5
100CA
330
10068
100
AcDbEntity
  8
30
 62
     0
370
    -2
100
AcDbLine
 10
59.49999999999953
 20
29.99999999999995
 30
0.0
 11
57.49999999999953
 21
29.99999999999995
 31
0.0
  0
LINE
  5
100CB
330
10068
100
AcDbEntity
  8
30
 62
     0
370
    -2
100
AcDbLine
 10
69.99999999999977
 20
29.99999999999995
 30
0.0
 11
71.99999999999976
 21
29.99999999999995
 31
0.0
  0
MTEXT
  5
100CC
330
10068
100
AcDbEntity
  8
30
 62
     0
100
AcDbMText
 10
52.99999999999977
 20
34.99999999999995
 30
0.0
 40
6.0
 41
0.0
 71
     5
 72
     1
  1
\A1;6.5
 73
     1
 44
1.0
1001
ACAD
1000
MTEXTBEGIN
1070
    73
1070
     1
1070
    44
1040
1.0
1070
    74
1070
     0
1000
MTEXTEND
  0
LINE
  5
100CD
330
10068
100
AcDbEntity
  8
30
 62
     0
370
    -2
100
AcDbLine
 10
61.49999999999955
 20
29.99999999999995
 30
0.0
 11
67.99999999999977
 21
29.99999999999995
 31
0.0
  0
INSERT
  5
100CE
330
10068
100
AcDbEntity
  8
30
 62
     0
370
    -2
100
AcDbBlockReference
  2
_OPEN
 10
61.49999999999955
 20
29.99999999999995
 30
0.0
 41
2.0
 42
2.0
 43
2.0
  0
INSERT
  5
100CF
330
10068
100
AcDbEntity
  8
30
 62
     0
370
    -2
100
AcDbBlockReference
  2
_OPEN
 10
67.99999999999977
 20
29.99999999999995
 30
0.0
 41
2.0
 42
2.0
 43
2.0
 50
180.0
  0
POINT
  5
100D0
330
10068
100
AcDbEntity
  8
DEFPOINTS
 62
     0
100
AcDbPoint
 10
61.49999999999955
 20
129.9999999999999
 30
0.0
  0
POINT
  5
100D1
330
10068
100
AcDbEntity
  8
DEFPOINTS
 62
     0
100
AcDbPoint
 10
67.99999999999977
 20
127.5
 30
0.0
  0
POINT
  5
100D2
330
10068
100
AcDbEntity
  8
DEFPOINTS
 62
     0
100
AcDbPoint
 10
67.99999999999977
 20
29.99999999999995
 30
0.0
  0
ENDBLK
  5
1006A
330
10068
100
AcDbEntity
  8
0
100
AcDbBlockEnd
  0
BLOCK
  5
10738
330
10731
100
AcDbEntity
  8
0
100
AcDbBlockBegin
  2
*D98
 70
     1
 10
0.0
 20
0.0
 30
0.0
  3
*D98
  1

  0
LINE
  5
10752
330
10731
100
AcDbEntity
  8
30
  6
Continuous
 62
     0
370
    -2
100
AcDbLine
 10
55.91365406044491
 20
-75.71835074257073
 30
0.0
 11
67.17737300918784
 21
-67.40398754123481
 31
0.0
  0
LINE
  5
10753
330
10731
100
AcDbEntity
  8
30
  6
Continuous
 62
     0
370
    -2
100
AcDbLine
 10
53.49999999999999
 20
-77.49999999999987
 30
0.0
 11
54.30455135348161
 21
-76.90611691419016
 31
0.0
  0
INSERT
  5
10754
330
10731
100
AcDbEntity
  8
30
  6
Continuous
 62
     0
370
    -2
100
AcDbBlockReference
  2
_OPEN
 10
54.30455135348161
 20
-76.90611691419016
 30
0.0
 41
2.0
 42
2.0
 43
2.0
 50
216.433050712671
  0
MTEXT
  5
10755
330
10731
100
AcDbEntity
  8
30
  6
Continuous
 62
     0
100
AcDbMText
 10
59.38064945924946
 20
-66.94452928868485
 30
0.0
 40
6.0
 41
0.0
 71
     5
 72
     1
  1
\A1;R1
 11
0.8045513534816388
 21
0.59388308580971
 31
0.0
 73
     1
 44
1.0
1001
ACAD
1000
MTEXTBEGIN
1070
    73
1070
     1
1070
    44
1040
1.0
1070
    74
1070
     0
1000
MTEXTEND
  0
POINT
  5
10756
330
10731
100
AcDbEntity
  8
DEFPOINTS
  6
Continuous
 62
     0
100
AcDbPoint
 10
54.30455135348161
 20
-76.90611691419016
 30
0.0
  0
POINT
  5
10757
330
10731
100
AcDbEntity
  8
DEFPOINTS
  6
Continuous
 62
     0
100
AcDbPoint
 10
53.49999999999999
 20
-77.49999999999987
 30
0.0
  0
ENDBLK
  5
10739
330
10731
100
AcDbEntity
  8
0
100
AcDbBlockEnd
  0
BLOCK
  5
10744
330
1073A
100
AcDbEntity
  8
0
100
AcDbBlockBegin
  2
*D99
 70
     1
 10
0.0
 20
0.0
 30
0.0
  3
*D99
  1

  0
LINE
  5
10758
330
1073A
100
AcDbEntity
  8
30
 62
     0
370
    -2
100
AcDbLine
 10
52.5
 20
-130.4999999999998
 30
0.0
 11
52.5
 21
-210.4999999999999
 31
0.0
  0
LINE
  5
10759
330
1073A
100
AcDbEntity
  8
30
 62
     0
370
    -2
100
AcDbLine
 10
152.5
 20
-130.4999999999998
 30
0.0
 11
152.5
 21
-210.4999999999999
 31
0.0
  0
LINE
  5
1075A
330
1073A
100
AcDbEntity
  8
30
 62
     0
370
    -2
100
AcDbLine
 10
54.49999999999999
 20
-209.9999999999998
 30
0.0
 11
150.5
 21
-209.9999999999998
 31
0.0
  0
INSERT
  5
1075B
330
1073A
100
AcDbEntity
  8
30
 62
     0
370
    -2
100
AcDbBlockReference
  2
_OPEN
 10
52.5
 20
-209.9999999999998
 30
0.0
 41
2.0
 42
2.0
 43
2.0
 50
180.0
  0
INSERT
  5
1075C
330
1073A
100
AcDbEntity
  8
30
 62
     0
370
    -2
100
AcDbBlockReference
  2
_OPEN
 10
152.5
 20
-209.9999999999998
 30
0.0
 41
2.0
 42
2.0
 43
2.0
  0
MTEXT
  5
1075D
330
1073A
100
AcDbEntity
  8
30
 62
     0
100
AcDbMText
 10
102.4999999999999
 20
-204.9999999999998
 30
0.0
 40
6.0
 41
0.0
 71
     5
 72
     1
  1
\A1;100
 73
     1
 44
1.0
1001
ACAD
1000
MTEXTBEGIN
1070
    73
1070
     1
1070
    44
1040
1.0
1070
    74
1070
     0
1000
MTEXTEND
  0
POINT
  5
1075E
330
1073A
100
AcDbEntity
  8
DEFPOINTS
 62
     0
100
AcDbPoint
 10
52.5
 20
-127.4999999999998
 30
0.0
  0
POINT
  5
1075F
330
1073A
100
AcDbEntity
  8
DEFPOINTS
 62
     0
100
AcDbPoint
 10
152.5
 20
-127.4999999999998
 30
0.0
  0
POINT
  5
10760
330
1073A
100
AcDbEntity
  8
DEFPOINTS
 62
     0
100
AcDbPoint
 10
152.5
 20
-209.9999999999998
 30
0.0
  0
ENDBLK
  5
10745
330
1073A
100
AcDbEntity
  8
0
100
AcDbBlockEnd
  0
BLOCK
  5
10750
330
10746
100
AcDbEntity
  8
0
100
AcDbBlockBegin
  2
*D100
 70
     1
 10
0.0
 20
0.0
 30
0.0
  3
*D100
  1

  0
LINE
  5
10761
330
10746
100
AcDbEntity
  8
30
 62
     0
370
    -2
100
AcDbLine
 10
50.5
 20
-76.49999999999986
 30
0.0
 11
39.50000000000001
 21
-76.49999999999986
 31
0.0
  0
LINE
  5
10762
330
10746
100
AcDbEntity
  8
30
 62
     0
370
    -2
100
AcDbLine
 10
50.5
 20
-128.4999999999998
 30
0.0
 11
39.5
 21
-128.4999999999998
 31
0.0
  0
LINE
  5
10763
330
10746
100
AcDbEntity
  8
30
 62
     0
370
    -2
100
AcDbLine
 10
40.0
 20
-78.49999999999986
 30
0.0
 11
40.0
 21
-126.4999999999999
 31
0.0
  0
INSERT
  5
10764
330
10746
100
AcDbEntity
  8
30
 62
     0
370
    -2
100
AcDbBlockReference
  2
_OPEN
 10
40.0
 20
-76.49999999999986
 30
0.0
 41
2.0
 42
2.0
 43
2.0
 50
90.0
  0
INSERT
  5
10765
330
10746
100
AcDbEntity
  8
30
 62
     0
370
    -2
100
AcDbBlockReference
  2
_OPEN
 10
40.0
 20
-128.4999999999998
 30
0.0
 41
2.0
 42
2.0
 43
2.0
 50
270.0
  0
MTEXT
  5
10766
330
10746
100
AcDbEntity
  8
30
 62
     0
100
AcDbMText
 10
35.00000000000002
 20
-102.4999999999998
 30
0.0
 40
6.0
 41
0.0
 71
     5
 72
     1
  1
\A1;52
 11
0.0000000000000001
 21
1.0
 31
0.0
 73
     1
 44
1.0
1001
ACAD
1000
MTEXTBEGIN
1070
    73
1070
     1
1070
    44
1040
1.0
1070
    74
1070
     0
1000
MTEXTEND
  0
POINT
  5
10767
330
10746
100
AcDbEntity
  8
DEFPOINTS
 62
     0
100
AcDbPoint
 10
53.5
 20
-76.49999999999986
 30
0.0
  0
POINT
  5
10768
330
10746
100
AcDbEntity
  8
DEFPOINTS
 62
     0
100
AcDbPoint
 10
53.5
 20
-128.4999999999998
 30
0.0
  0
POINT
  5
10769
330
10746
100
AcDbEntity
  8
DEFPOINTS
 62
     0
100
AcDbPoint
 10
40.0
 20
-128.4999999999998
 30
0.0
  0
ENDBLK
  5
10751
330
10746
100
AcDbEntity
  8
0
100
AcDbBlockEnd
  0
ENDSEC
  0
SECTION
  2
ENTITIES
  0
MTEXT
  5
BF3
330
1E
100
AcDbEntity
  8
24
  6
Continuous
100
AcDbMText
 10
-986.0751011837496
 20
175.9536871838474
 30
0.0
 40
3.0
 41
0.0
 71
     1
 72
     1
  1
\A1;
 73
     1
 44
1.0
1001
ACAD
1000
MTEXTBEGIN
1070
    73
1070
     1
1070
    44
1040
1.0
1070
    74
1070
     0
1000
MTEXTEND
  0
MTEXT
  5
5C78
330
1E
100
AcDbEntity
  8
30
  6
Continuous
100
AcDbMText
 10
-964.7274327904421
 20
88.60394432911169
 30
0.0
 40
4.0
 41
0.0
 71
     9
 72
     1
  1

 73
     1
 44
1.0
1001
ACAD
1000
MTEXTBEGIN
1070
    73
1070
     1
1070
    44
1040
1.0
1070
    74
1070
     0
1000
MTEXTEND
  0
MTEXT
  5
6200
330
1E
100
AcDbEntity
  8
30
  6
Continuous
100
AcDbMText
 10
-966.4281910258107
 20
90.84374479521404
 30
0.0
 40
4.0
 41
0.0
 71
     9
 72
     1
  1

 73
     1
 44
1.0
1001
ACAD
1000
MTEXTBEGIN
1070
    73
1070
     1
1070
    44
1040
1.0
1070
    74
1070
     0
1000
MTEXTEND
  0
MTEXT
  5
7CA7
330
1E
100
AcDbEntity
  8
30
  6
Continuous
100
AcDbMText
 10
-916.1885499888967
 20
139.1276210998601
 30
0.0
 40
4.0
 41
0.0
 71
     9
 72
     1
  1
\A1;
 73
     1
 44
1.0
1001
ACAD
1000
MTEXTBEGIN
1070
    73
1070
     1
1070
    44
1040
1.0
1070
    74
1070
     0
1000
MTEXTEND
  0
MTEXT
  5
7CA9
330
1E
100
AcDbEntity
  8
30
  6
Continuous
100
AcDbMText
 10
-909.4483106392546
 20
136.4147230186065
 30
0.0
 40
4.0
 41
0.0
 71
     9
 72
     1
  1
\A1;
 73
     1
 44
1.0
1001
ACAD
1000
MTEXTBEGIN
1070
    73
1070
     1
1070
    44
1040
1.0
1070
    74
1070
     0
1000
MTEXTEND
  0
MTEXT
  5
8D78
330
1E
100
AcDbEntity
  8
30
  6
Continuous
100
AcDbMText
 10
-1355.322411901456
 20
136.4147230186064
 30
0.0
 40
4.0
 41
0.0
 71
     9
 72
     1
  1
\A1;
 73
     1
 44
1.0
1001
ACAD
1000
MTEXTBEGIN
1070
    73
1070
     1
1070
    44
1040
1.0
1070
    74
1070
     0
1000
MTEXTEND
  0
MTEXT
  5
A94C
330
1E
100
AcDbEntity
  8
5
  6
Continuous
 62
     7
100
AcDbMText
 10
50.0
 20
350.0
 30
0.0
 40
8.0
 41
0.0
 71
     7
 72
     5
  1
ZAE250-SF 3P FC+BAR\PZAS250-SF 3P FC+BAR
  7
blockfont
 73
     1
 44
1.0
1001
ACAD
1000
MTEXTBEGIN
1070
    73
1070
     1
1070
    44
1040
1.0
1070
    74
1070
     0
1000
MTEXTEND
  0
DIMENSION
  5
D045
330
1E
100
AcDbEntity
  8
30
100
AcDbDimension
  2
*D56
 10
-33.50000000000022
 20
187.5
 30
0.0
 11
-82.5
 21
192.5
 31
0.0
 70
    32
 71
     5
 42
97.99999999999954
  3
STANDARD1
100
AcDbAlignedDimension
 13
-131.4999999999997
 23
177.5
 33
0.0
 14
-33.50000000000022
 24
177.5
 34
0.0
100
AcDbRotatedDimension
  0
DIMENSION
  5
D05B
330
1E
100
AcDbEntity
  8
30
100
AcDbDimension
  2
*D57
 10
-71.49999999999976
 20
117.5
 30
0.0
 11
-82.49999999999969
 21
122.5
 31
0.0
 70
    32
 71
     5
 42
21.99999999999988
  3
STANDARD1
100
AcDbAlignedDimension
 13
-93.49999999999964
 23
127.5
 33
0.0
 14
-71.49999999999976
 24
127.5
 34
0.0
100
AcDbRotatedDimension
  0
LWPOLYLINE
  5
D9C7
330
1E
100
AcDbEntity
  8
130
100
AcDbPolyline
 90
        4
 70
     1
 43
0.0
 10
-135.0
 20
459.9999999999998
 10
-30.0
 20
459.9999999999998
 10
-30.0
 20
399.9999999999998
 10
-135.0
 20
399.9999999999998
  0
LINE
  5
D9EA
330
1E
100
AcDbEntity
  8
24
100
AcDbLine
 10
-52.5
 20
421.9999999999995
 30
0.0
 11
-42.5
 21
421.9999999999995
 31
0.0
  0
LINE
  5
D9ED
330
1E
100
AcDbEntity
  8
24
100
AcDbLine
 10
-55.19999999999981
 20
429.9999999999997
 30
0.0
 11
-39.79999999999972
 21
429.9999999999997
 31
0.0
  0
LINE
  5
D9EF
330
1E
100
AcDbEntity
  8
24
100
AcDbLine
 10
-42.5
 20
421.9999999999995
 30
0.0
 11
-42.5
 21
429.9999999999997
 31
0.0
  0
LINE
  5
D9F1
330
1E
100
AcDbEntity
  8
24
100
AcDbLine
 10
-39.79999999999972
 20
429.9999999999997
 30
0.0
 11
-39.79999999999972
 21
431.9999999999994
 31
0.0
  0
LINE
  5
D9F3
330
1E
100
AcDbEntity
  8
24
100
AcDbLine
 10
-55.19999999999981
 20
429.9999999999997
 30
0.0
 11
-55.19999999999981
 21
431.9999999999994
 31
0.0
  0
LINE
  5
D9F4
330
1E
100
AcDbEntity
  8
24
100
AcDbLine
 10
-52.5
 20
421.9999999999995
 30
0.0
 11
-52.5
 21
429.9999999999997
 31
0.0
  0
LINE
  5
DB2A
330
1E
100
AcDbEntity
  8
24
100
AcDbLine
 10
-77.5
 20
421.9999999999995
 30
0.0
 11
-77.5
 21
429.9999999999998
 31
0.0
  0
LINE
  5
DB2B
330
1E
100
AcDbEntity
  8
24
100
AcDbLine
 10
-87.5
 20
421.9999999999995
 30
0.0
 11
-87.5
 21
429.9999999999998
 31
0.0
  0
LINE
  5
DB2C
330
1E
100
AcDbEntity
  8
24
100
AcDbLine
 10
-87.5
 20
421.9999999999995
 30
0.0
 11
-77.5
 21
421.9999999999995
 31
0.0
  0
LINE
  5
DB2D
330
1E
100
AcDbEntity
  8
24
100
AcDbLine
 10
-90.1999999999998
 20
429.9999999999998
 30
0.0
 11
-74.79999999999972
 21
429.9999999999998
 31
0.0
  0
LINE
  5
DB30
330
1E
100
AcDbEntity
  8
24
100
AcDbLine
 10
-90.1999999999998
 20
429.9999999999998
 30
0.0
 11
-90.1999999999998
 21
431.9999999999994
 31
0.0
  0
LINE
  5
DB31
330
1E
100
AcDbEntity
  8
24
100
AcDbLine
 10
-74.79999999999972
 20
429.9999999999998
 30
0.0
 11
-74.79999999999972
 21
431.9999999999994
 31
0.0
  0
LINE
  5
DB32
330
1E
100
AcDbEntity
  8
24
100
AcDbLine
 10
-122.5
 20
421.9999999999996
 30
0.0
 11
-122.5
 21
429.9999999999998
 31
0.0
  0
LINE
  5
DB33
330
1E
100
AcDbEntity
  8
24
100
AcDbLine
 10
-112.5
 20
421.9999999999996
 30
0.0
 11
-112.5
 21
429.9999999999998
 31
0.0
  0
LINE
  5
DB34
330
1E
100
AcDbEntity
  8
24
100
AcDbLine
 10
-122.5
 20
421.9999999999996
 30
0.0
 11
-112.5
 21
421.9999999999996
 31
0.0
  0
LINE
  5
DB37
330
1E
100
AcDbEntity
  8
24
100
AcDbLine
 10
-125.1999999999998
 20
429.9999999999998
 30
0.0
 11
-109.7999999999997
 21
429.9999999999998
 31
0.0
  0
LINE
  5
DB38
330
1E
100
AcDbEntity
  8
24
100
AcDbLine
 10
-125.1999999999998
 20
429.9999999999998
 30
0.0
 11
-125.1999999999998
 21
431.9999999999994
 31
0.0
  0
LINE
  5
DB39
330
1E
100
AcDbEntity
  8
24
100
AcDbLine
 10
-109.7999999999997
 20
429.9999999999998
 30
0.0
 11
-109.7999999999997
 21
431.9999999999994
 31
0.0
  0
LINE
  5
DB40
330
1E
100
AcDbEntity
  8
16
100
AcDbLine
 10
-82.5
 20
360.0
 30
0.0
 11
-82.49999999999991
 21
464.9999999999998
 31
0.0
  0
DIMENSION
  5
DB42
330
1E
100
AcDbEntity
  8
30
100
AcDbDimension
  2
*D58
 10
-82.49999999999991
 20
470.0
 30
0.0
 11
-64.9999999999999
 21
475.0
 31
0.0
 70
    32
 71
     5
 42
35.0
  3
STANDARD1
100
AcDbAlignedDimension
 13
-47.49999999999988
 23
459.9999999999998
 33
0.0
 14
-82.49999999999991
 24
464.9999999999998
 34
0.0
100
AcDbRotatedDimension
  0
DIMENSION
  5
DB58
330
1E
100
AcDbEntity
  8
30
100
AcDbDimension
  2
*D59
 10
-117.5
 20
470.0
 30
0.0
 11
-99.99999999999994
 21
475.0
 31
0.0
 70
    32
 71
     5
 42
35.00000000000011
  3
STANDARD1
100
AcDbAlignedDimension
 13
-82.49999999999991
 23
464.9999999999998
 33
0.0
 14
-117.5
 24
459.9999999999998
 34
0.0
100
AcDbRotatedDimension
  0
ARC
  5
EFC5
330
1E
100
AcDbEntity
  8
130
100
AcDbCircle
 10
-54.49999999999988
 20
217.4999999999997
 30
0.0
 40
5.0
100
AcDbArc
 50
180.0
 51
270.0
  0
ARC
  5
EFC6
330
1E
100
AcDbEntity
  8
130
100
AcDbCircle
 10
54.49999999999988
 20
87.5
 30
0.0
 40
5.0
210
0.0
220
0.0
230
-1.0
100
AcDbArc
 50
0.0
 51
90.0
  0
LINE
  5
EFCB
330
1E
100
AcDbEntity
  8
130
100
AcDbLine
 10
-135.0
 20
101.5
 30
0.0
 11
-30.0
 21
101.5
 31
0.0
  0
LINE
  5
EFCC
330
1E
100
AcDbEntity
  8
130
100
AcDbLine
 10
-131.4999999999997
 20
127.5
 30
0.0
 11
-33.49999999999988
 21
127.5
 31
0.0
  0
LINE
  5
EFCD
330
1E
100
AcDbEntity
  8
16
100
AcDbLine
 10
-145.0
 20
152.5
 30
0.0
 11
-20.0
 21
152.5
 31
0.0
  0
LINE
  5
EFCE
330
1E
100
AcDbEntity
  8
130
100
AcDbLine
 10
-131.4999999999997
 20
177.5
 30
0.0
 11
-33.49999999999988
 21
177.5
 31
0.0
  0
LINE
  5
EFCF
330
1E
100
AcDbEntity
  8
130
100
AcDbLine
 10
-135.0
 20
203.4999999999997
 30
0.0
 11
-30.0
 21
203.4999999999997
 31
0.0
  0
LINE
  5
EFD1
330
1E
100
AcDbEntity
  8
130
100
AcDbLine
 10
-135.0
 20
235.0
 30
0.0
 11
-135.0
 21
70.0
 31
0.0
  0
LINE
  5
EFD2
330
1E
100
AcDbEntity
  8
16
100
AcDbLine
 10
-82.5
 20
275.4999999999997
 30
0.0
 11
-82.5
 21
30.0
 31
0.0
  0
ARC
  5
EFD3
330
1E
100
AcDbEntity
  8
130
100
AcDbCircle
 10
124.4999999999998
 20
87.5
 30
0.0
 40
5.0
210
0.0
220
0.0
230
-1.0
100
AcDbArc
 50
0.0
 51
90.0
  0
CIRCLE
  5
EFD4
330
1E
100
AcDbEntity
  8
24
100
AcDbCircle
 10
-130.9999999999998
 20
50.99999999999988
 30
0.0
 40
5.5
  0
LINE
  5
EFD6
330
1E
100
AcDbEntity
  8
17
100
AcDbLine
 10
-138.4999999999998
 20
50.99999999999988
 30
0.0
 11
-123.4999999999998
 21
50.99999999999988
 31
0.0
  0
LINE
  5
EFD9
330
1E
100
AcDbEntity
  8
17
100
AcDbLine
 10
-130.9999999999998
 20
43.49999999999988
 30
0.0
 11
-130.9999999999998
 21
58.49999999999988
 31
0.0
  0
LINE
  5
EFDB
330
1E
100
AcDbEntity
  8
130
100
AcDbLine
 10
-135.0
 20
70.0
 30
0.0
 11
-128.9999999999997
 21
70.0
 31
0.0
  0
LINE
  5
EFDC
330
1E
100
AcDbEntity
  8
130
100
AcDbLine
 10
-129.4999999999998
 20
70.0
 30
0.0
 11
-129.4999999999998
 21
87.5
 31
0.0
  0
ARC
  5
EFDE
330
1E
100
AcDbEntity
  8
130
100
AcDbCircle
 10
89.49999999999986
 20
87.5
 30
0.0
 40
5.0
210
0.0
220
0.0
230
-1.0
100
AcDbArc
 50
0.0
 51
90.0
  0
ARC
  5
EFE2
330
1E
100
AcDbEntity
  8
130
100
AcDbCircle
 10
110.4999999999998
 20
87.5
 30
0.0
 40
5.0
210
0.0
220
0.0
230
-1.0
100
AcDbArc
 50
90.0
 51
180.0
  0
CIRCLE
  5
EFE3
330
1E
100
AcDbEntity
  8
24
100
AcDbCircle
 10
-117.5
 20
80.5
 30
0.0
 40
4.25
  0
LINE
  5
EFE4
330
1E
100
AcDbEntity
  8
17
100
AcDbLine
 10
-117.5
 20
74.50000000000009
 30
0.0
 11
-117.5
 21
86.5
 31
0.0
  0
LINE
  5
EFE5
330
1E
100
AcDbEntity
  8
17
100
AcDbLine
 10
-123.4999999999998
 20
80.5
 30
0.0
 11
-111.4999999999997
 21
80.5
 31
0.0
  0
LINE
  5
EFE6
330
1E
100
AcDbEntity
  8
130
100
AcDbLine
 10
-110.4999999999998
 20
92.5
 30
0.0
 11
-124.4999999999998
 21
92.5
 31
0.0
  0
LINE
  5
EFE7
330
1E
100
AcDbEntity
  8
130
100
AcDbLine
 10
-105.9999999999998
 20
70.0
 30
0.0
 11
-94.00000000000012
 21
70.0
 31
0.0
  0
LINE
  5
EFE8
330
1E
100
AcDbEntity
  8
130
100
AcDbLine
 10
-105.4999999999998
 20
70.0
 30
0.0
 11
-105.4999999999998
 21
87.5
 31
0.0
  0
LINE
  5
EFEA
330
1E
100
AcDbEntity
  8
130
100
AcDbLine
 10
-94.49999999999986
 20
70.0
 30
0.0
 11
-94.49999999999986
 21
87.5
 31
0.0
  0
CIRCLE
  5
EFEC
330
1E
100
AcDbEntity
  8
24
100
AcDbCircle
 10
82.5
 20
50.99999999999988
 30
0.0
 40
5.5
210
0.0
220
0.0
230
-1.0
  0
LINE
  5
EFED
330
1E
100
AcDbEntity
  8
17
100
AcDbLine
 10
-90.0
 20
50.99999999999988
 30
0.0
 11
-75.0
 21
50.99999999999988
 31
0.0
  0
ARC
  5
EFEE
330
1E
100
AcDbEntity
  8
130
100
AcDbCircle
 10
75.4999999999999
 20
87.5
 30
0.0
 40
5.0
210
0.0
220
0.0
230
-1.0
100
AcDbArc
 50
90.0
 51
180.0
  0
LINE
  5
EFEF
330
1E
100
AcDbEntity
  8
130
100
AcDbLine
 10
-75.4999999999999
 20
92.5
 30
0.0
 11
-89.49999999999986
 21
92.5
 31
0.0
  0
LINE
  5
EFF0
330
1E
100
AcDbEntity
  8
17
100
AcDbLine
 10
-88.49999999999987
 20
80.5
 30
0.0
 11
-76.5000000000001
 21
80.5
 31
0.0
  0
CIRCLE
  5
EFF1
330
1E
100
AcDbEntity
  8
24
100
AcDbCircle
 10
82.5
 20
80.5
 30
0.0
 40
4.25
210
0.0
220
0.0
230
-1.0
  0
LINE
  5
EFF2
330
1E
100
AcDbEntity
  8
17
100
AcDbLine
 10
-65.0
 20
95.0
 30
0.0
 11
-65.0
 21
84.0
 31
0.0
  0
CIRCLE
  5
EFF3
330
1E
100
AcDbEntity
  8
24
100
AcDbCircle
 10
-65.0
 20
89.49999999999977
 30
0.0
 40
4.0
  0
LINE
  5
EFF4
330
1E
100
AcDbEntity
  8
17
100
AcDbLine
 10
-70.4999999999999
 20
89.49999999999977
 30
0.0
 11
-59.49999999999988
 21
89.49999999999977
 31
0.0
  0
LINE
  5
EFF5
330
1E
100
AcDbEntity
  8
130
100
AcDbLine
 10
-70.99999999999987
 20
70.0
 30
0.0
 11
-59.00000000000011
 21
70.0
 31
0.0
  0
LINE
  5
EFF6
330
1E
100
AcDbEntity
  8
130
100
AcDbLine
 10
-70.4999999999999
 20
70.0
 30
0.0
 11
-70.4999999999999
 21
87.5
 31
0.0
  0
LINE
  5
EFF8
330
1E
100
AcDbEntity
  8
130
100
AcDbLine
 10
-59.49999999999988
 20
70.0
 30
0.0
 11
-59.49999999999988
 21
87.5
 31
0.0
  0
LINE
  5
EFF9
330
1E
100
AcDbEntity
  8
17
100
AcDbLine
 10
-130.9999999999998
 20
261.5
 30
0.0
 11
-130.9999999999998
 21
246.4999999999999
 31
0.0
  0
ARC
  5
F002
330
1E
100
AcDbEntity
  8
130
100
AcDbCircle
 10
-124.4999999999998
 20
217.4999999999997
 30
0.0
 40
5.0
100
AcDbArc
 50
180.0
 51
270.0
  0
LINE
  5
F003
330
1E
100
AcDbEntity
  8
130
100
AcDbLine
 10
-131.4999999999997
 20
177.5
 30
0.0
 11
-131.4999999999997
 21
127.5
 31
0.0
  0
LINE
  5
F006
330
1E
100
AcDbEntity
  8
130
100
AcDbLine
 10
-129.4999999999998
 20
235.0
 30
0.0
 11
-129.4999999999998
 21
217.4999999999997
 31
0.0
  0
LINE
  5
F009
330
1E
100
AcDbEntity
  8
130
100
AcDbLine
 10
-128.9999999999997
 20
235.0
 30
0.0
 11
-135.0
 21
235.0
 31
0.0
  0
LINE
  5
F00A
330
1E
100
AcDbEntity
  8
130
100
AcDbLine
 10
-71.5000000000001
 20
177.5
 30
0.0
 11
-71.5000000000001
 21
127.5
 31
0.0
  0
LINE
  5
F00B
330
1E
100
AcDbEntity
  8
130
100
AcDbLine
 10
-93.49999999999987
 20
177.5
 30
0.0
 11
-93.49999999999987
 21
127.5
 31
0.0
  0
LINE
  5
F00D
330
1E
100
AcDbEntity
  8
130
100
AcDbLine
 10
-89.49999999999986
 20
134.0
 30
0.0
 11
-89.49999999999986
 21
172.6548699999996
 31
0.0
  0
LINE
  5
F00E
330
1E
100
AcDbEntity
  8
130
100
AcDbLine
 10
-75.4999999999999
 20
134.0
 30
0.0
 11
-75.4999999999999
 21
172.6548699999996
 31
0.0
  0
LINE
  5
F00F
330
1E
100
AcDbEntity
  8
130
100
AcDbLine
 10
-89.49999999999986
 20
134.0
 30
0.0
 11
-75.4999999999999
 21
134.0
 31
0.0
  0
LINE
  5
F010
330
1E
100
AcDbEntity
  8
130
100
AcDbLine
 10
-75.4999999999999
 20
167.7399575
 30
0.0
 11
-89.49999999999986
 21
167.7399575
 31
0.0
  0
LINE
  5
F011
330
1E
100
AcDbEntity
  8
130
100
AcDbLine
 10
-75.4999999999999
 20
159.3407899999999
 30
0.0
 11
-89.49999999999986
 21
159.3407899999999
 31
0.0
  0
LINE
  5
F012
330
1E
100
AcDbEntity
  8
130
100
AcDbLine
 10
-75.4999999999999
 20
172.6548699999996
 30
0.0
 11
-89.49999999999986
 21
172.6548699999996
 31
0.0
  0
ARC
  5
F013
330
1E
100
AcDbEntity
  8
130
100
AcDbCircle
 10
-89.49999999999986
 20
217.4999999999997
 30
0.0
 40
5.0
100
AcDbArc
 50
180.0
 51
270.0
  0
CIRCLE
  5
F014
330
1E
100
AcDbEntity
  8
24
100
AcDbCircle
 10
-100.0
 20
215.4999999999997
 30
0.0
 40
4.0
  0
ARC
  5
F015
330
1E
100
AcDbEntity
  8
130
100
AcDbCircle
 10
-110.4999999999998
 20
217.4999999999997
 30
0.0
 40
5.0
100
AcDbArc
 50
270.0
 51
0.0
  0
LINE
  5
F016
330
1E
100
AcDbEntity
  8
17
100
AcDbLine
 10
-100.0
 20
220.9999999999995
 30
0.0
 11
-100.0
 21
209.9999999999997
 31
0.0
  0
CIRCLE
  5
F017
330
1E
100
AcDbEntity
  8
24
100
AcDbCircle
 10
117.5
 20
224.4999999999997
 30
0.0
 40
4.25
210
0.0
220
0.0
230
-1.0
  0
LINE
  5
F018
330
1E
100
AcDbEntity
  8
17
100
AcDbLine
 10
-117.5
 20
230.4999999999997
 30
0.0
 11
-117.5
 21
218.4999999999995
 31
0.0
  0
LINE
  5
F019
330
1E
100
AcDbEntity
  8
130
100
AcDbLine
 10
-110.4999999999998
 20
212.4999999999997
 30
0.0
 11
-124.4999999999998
 21
212.4999999999997
 31
0.0
  0
LINE
  5
F01A
330
1E
100
AcDbEntity
  8
17
100
AcDbLine
 10
-123.4999999999998
 20
224.4999999999997
 30
0.0
 11
-111.4999999999997
 21
224.4999999999997
 31
0.0
  0
LINE
  5
F01C
330
1E
100
AcDbEntity
  8
130
100
AcDbLine
 10
-94.49999999999986
 20
235.0
 30
0.0
 11
-94.49999999999986
 21
217.4999999999997
 31
0.0
  0
LINE
  5
F01D
330
1E
100
AcDbEntity
  8
130
100
AcDbLine
 10
-105.4999999999998
 20
235.0
 30
0.0
 11
-105.4999999999998
 21
217.4999999999997
 31
0.0
  0
LINE
  5
F01E
330
1E
100
AcDbEntity
  8
17
100
AcDbLine
 10
-105.4999999999998
 20
215.4999999999997
 30
0.0
 11
-94.49999999999986
 21
215.4999999999997
 31
0.0
  0
LINE
  5
F01F
330
1E
100
AcDbEntity
  8
130
100
AcDbLine
 10
-94.00000000000012
 20
235.0
 30
0.0
 11
-105.9999999999998
 21
235.0
 31
0.0
  0
ARC
  5
F020
330
1E
100
AcDbEntity
  8
130
100
AcDbCircle
 10
-75.4999999999999
 20
217.4999999999997
 30
0.0
 40
5.0
100
AcDbArc
 50
270.0
 51
0.0
  0
CIRCLE
  5
F021
330
1E
100
AcDbEntity
  8
24
100
AcDbCircle
 10
-82.5
 20
224.4999999999997
 30
0.0
 40
4.25
  0
LINE
  5
F023
330
1E
100
AcDbEntity
  8
17
100
AcDbLine
 10
-88.49999999999987
 20
224.4999999999997
 30
0.0
 11
-76.5000000000001
 21
224.4999999999997
 31
0.0
  0
LINE
  5
F024
330
1E
100
AcDbEntity
  8
130
100
AcDbLine
 10
-75.4999999999999
 20
212.4999999999997
 30
0.0
 11
-89.49999999999986
 21
212.4999999999997
 31
0.0
  0
LINE
  5
F026
330
1E
100
AcDbEntity
  8
130
100
AcDbLine
 10
-59.49999999999988
 20
235.0
 30
0.0
 11
-59.49999999999988
 21
217.4999999999997
 31
0.0
  0
LINE
  5
F027
330
1E
100
AcDbEntity
  8
130
100
AcDbLine
 10
-70.4999999999999
 20
235.0
 30
0.0
 11
-70.4999999999999
 21
217.4999999999997
 31
0.0
  0
LINE
  5
F028
330
1E
100
AcDbEntity
  8
130
100
AcDbLine
 10
-59.00000000000011
 20
235.0
 30
0.0
 11
-70.99999999999987
 21
235.0
 31
0.0
  0
CIRCLE
  5
F02A
330
1E
100
AcDbEntity
  8
24
100
AcDbCircle
 10
130.9999999999998
 20
254.0
 30
0.0
 40
5.5
210
0.0
220
0.0
230
-1.0
  0
LINE
  5
F02B
330
1E
100
AcDbEntity
  8
17
100
AcDbLine
 10
-138.4999999999998
 20
254.0
 30
0.0
 11
-123.4999999999998
 21
254.0
 31
0.0
  0
CIRCLE
  5
F02E
330
1E
100
AcDbEntity
  8
24
100
AcDbCircle
 10
-82.5
 20
254.0
 30
0.0
 40
5.5
  0
LINE
  5
F02F
330
1E
100
AcDbEntity
  8
17
100
AcDbLine
 10
-90.0
 20
254.0
 30
0.0
 11
-75.0
 21
254.0
 31
0.0
  0
LINE
  5
F035
330
1E
100
AcDbEntity
  8
130
100
AcDbLine
 10
-30.0
 20
70.0
 30
0.0
 11
-30.0
 21
235.0
 31
0.0
  0
LINE
  5
F03C
330
1E
100
AcDbEntity
  8
17
100
AcDbLine
 10
-41.50000000000011
 20
50.99999999999988
 30
0.0
 11
-26.50000000000011
 21
50.99999999999988
 31
0.0
  0
CIRCLE
  5
F03D
330
1E
100
AcDbEntity
  8
24
100
AcDbCircle
 10
34.00000000000011
 20
50.99999999999988
 30
0.0
 40
5.5
210
0.0
220
0.0
230
-1.0
  0
LINE
  5
F040
330
1E
100
AcDbEntity
  8
17
100
AcDbLine
 10
-34.00000000000011
 20
43.49999999999988
 30
0.0
 11
-34.00000000000011
 21
58.49999999999988
 31
0.0
  0
ARC
  5
F042
330
1E
100
AcDbEntity
  8
130
100
AcDbCircle
 10
40.49999999999989
 20
87.5
 30
0.0
 40
5.0
210
0.0
220
0.0
230
-1.0
100
AcDbArc
 50
90.0
 51
180.0
  0
LINE
  5
F043
330
1E
100
AcDbEntity
  8
130
100
AcDbLine
 10
-40.49999999999989
 20
92.5
 30
0.0
 11
-54.49999999999988
 21
92.5
 31
0.0
  0
LINE
  5
F044
330
1E
100
AcDbEntity
  8
17
100
AcDbLine
 10
-53.49999999999988
 20
80.5
 30
0.0
 11
-41.50000000000011
 21
80.5
 31
0.0
  0
CIRCLE
  5
F045
330
1E
100
AcDbEntity
  8
24
100
AcDbCircle
 10
47.5
 20
80.5
 30
0.0
 40
4.25
210
0.0
220
0.0
230
-1.0
  0
LINE
  5
F046
330
1E
100
AcDbEntity
  8
17
100
AcDbLine
 10
-47.5
 20
74.50000000000009
 30
0.0
 11
-47.5
 21
86.5
 31
0.0
  0
LINE
  5
F047
330
1E
100
AcDbEntity
  8
130
100
AcDbLine
 10
-35.99999999999988
 20
70.0
 30
0.0
 11
-30.0
 21
70.0
 31
0.0
  0
LINE
  5
F048
330
1E
100
AcDbEntity
  8
130
100
AcDbLine
 10
-35.49999999999988
 20
70.0
 30
0.0
 11
-35.49999999999988
 21
87.5
 31
0.0
  0
LINE
  5
F04A
330
1E
100
AcDbEntity
  8
17
100
AcDbLine
 10
-34.00000000000011
 20
261.5
 30
0.0
 11
-34.00000000000011
 21
246.4999999999999
 31
0.0
  0
LINE
  5
F04C
330
1E
100
AcDbEntity
  8
130
100
AcDbLine
 10
-33.49999999999988
 20
127.5
 30
0.0
 11
-33.49999999999988
 21
177.5
 31
0.0
  0
ARC
  5
F04D
330
1E
100
AcDbEntity
  8
130
100
AcDbCircle
 10
-40.49999999999989
 20
217.4999999999997
 30
0.0
 40
5.0
100
AcDbArc
 50
270.0
 51
0.0
  0
LINE
  5
F04E
330
1E
100
AcDbEntity
  8
130
100
AcDbLine
 10
-40.49999999999989
 20
212.4999999999997
 30
0.0
 11
-54.49999999999988
 21
212.4999999999997
 31
0.0
  0
CIRCLE
  5
F04F
330
1E
100
AcDbEntity
  8
24
100
AcDbCircle
 10
-47.5
 20
224.4999999999997
 30
0.0
 40
4.25
  0
LINE
  5
F050
330
1E
100
AcDbEntity
  8
17
100
AcDbLine
 10
-47.5
 20
230.4999999999997
 30
0.0
 11
-47.5
 21
218.4999999999995
 31
0.0
  0
LINE
  5
F051
330
1E
100
AcDbEntity
  8
17
100
AcDbLine
 10
-53.49999999999988
 20
224.4999999999997
 30
0.0
 11
-41.50000000000011
 21
224.4999999999997
 31
0.0
  0
LINE
  5
F053
330
1E
100
AcDbEntity
  8
130
100
AcDbLine
 10
-35.49999999999988
 20
235.0
 30
0.0
 11
-35.49999999999988
 21
217.4999999999997
 31
0.0
  0
LINE
  5
F054
330
1E
100
AcDbEntity
  8
130
100
AcDbLine
 10
-30.0
 20
235.0
 30
0.0
 11
-35.99999999999988
 21
235.0
 31
0.0
  0
LINE
  5
F059
330
1E
100
AcDbEntity
  8
17
100
AcDbLine
 10
-41.50000000000011
 20
254.0
 30
0.0
 11
-26.50000000000011
 21
254.0
 31
0.0
  0
CIRCLE
  5
F05A
330
1E
100
AcDbEntity
  8
24
100
AcDbCircle
 10
-34.00000000000011
 20
254.0
 30
0.0
 40
5.5
  0
DIMENSION
  5
F156
330
1E
100
AcDbEntity
  8
30
100
AcDbDimension
  2
*D73
 10
-150.0
 20
70.0
 30
0.0
 11
-155.0
 21
152.4999999999999
 31
0.0
 70
    32
 71
     5
 42
165.0
  3
STANDARD1
100
AcDbAlignedDimension
 13
-135.0
 23
235.0
 33
0.0
 14
-135.0
 24
70.0
 34
0.0
 50
90.0
100
AcDbRotatedDimension
1001
ACAD
1000
DSTYLE
1002
{
1070
   279
1070
     1
1002
}
  0
DIMENSION
  5
F157
330
1E
100
AcDbEntity
  8
30
100
AcDbDimension
  2
*D72
 10
-150.0
 20
235.0
 30
0.0
 11
-155.0
 21
285.4999999999997
 31
0.0
 70
    32
 71
     5
 42
100.9999999999995
  3
STANDARD1
100
AcDbAlignedDimension
 13
-101.5000000000001
 23
335.9999999999995
 33
0.0
 14
-135.0
 24
235.0
 34
0.0
 50
90.0
100
AcDbRotatedDimension
  0
DIMENSION
  5
F158
330
1E
100
AcDbEntity
  8
30
100
AcDbDimension
  2
*D75
 10
-29.99999999999995
 20
10.0
 30
0.0
 11
-82.49999999999998
 21
15.0
 31
0.0
 70
    32
 71
     5
 42
105.0
  3
STANDARD1
100
AcDbAlignedDimension
 13
-135.0
 23
70.0
 33
0.0
 14
-29.99999999999995
 24
70.0
 34
0.0
100
AcDbRotatedDimension
  0
DIMENSION
  5
F159
330
1E
100
AcDbEntity
  8
30
100
AcDbDimension
  2
*D74
 10
-82.5
 20
20.0
 30
0.0
 11
-106.7499999999999
 21
25.0
 31
0.0
 70
    32
 71
     5
 42
48.49999999999988
  3
STANDARD1
100
AcDbAlignedDimension
 13
-130.9999999999998
 23
43.00000000000006
 33
0.0
 14
-82.5
 24
30.0
 34
0.0
100
AcDbRotatedDimension
  0
DIMENSION
  5
F1E9
330
1E
100
AcDbEntity
  8
30
100
AcDbDimension
  2
*D76
 10
-150.0
 20
39.50000000000012
 30
0.0
 11
-155.0
 21
54.75000000000004
 31
0.0
 70
    32
 71
     5
 42
30.49999999999988
  3
STANDARD1
100
AcDbAlignedDimension
 13
-135.0
 23
70.0
 33
0.0
 14
-142.5
 24
39.50000000000011
 34
0.0
 50
90.0
100
AcDbRotatedDimension
1001
ACAD
1000
DSTYLE
1002
{
1070
   279
1070
     1
1002
}
  0
DIMENSION
  5
F208
330
1E
100
AcDbEntity
  8
30
100
AcDbDimension
  2
*D77
 10
-10.00000000000001
 20
254.0
 30
0.0
 11
-10.00000000000005
 21
276.4999999999998
 31
0.0
 70
   160
 71
     5
 42
11.49999999999977
  3
STANDARD1
100
AcDbAlignedDimension
 13
-22.5
 23
265.4999999999997
 33
0.0
 14
-26.50000000000011
 24
254.0
 34
0.0
 50
90.0
100
AcDbRotatedDimension
1001
ACAD
1000
DSTYLE
1002
{
1070
   279
1070
     0
1002
}
  0
DIMENSION
  5
F38B
330
1E
100
AcDbEntity
  8
30
100
AcDbDimension
  2
*D78
 10
-0.0000000000000497
 20
242.5
 30
0.0
 11
-5.000000000000087
 21
253.9999999999998
 31
0.0
 70
    32
 71
     5
 42
22.99999999999977
  3
STANDARD1
100
AcDbAlignedDimension
 13
-22.5
 23
265.4999999999997
 33
0.0
 14
-22.5
 24
242.5
 34
0.0
 50
90.0
100
AcDbRotatedDimension
  0
LEADER
  5
F3CB
330
1E
100
AcDbEntity
  8
30
100
AcDbLeader
  3
STANDARD1
 76
     3
 10
-32.0
 20
251.0
 30
0.0
 10
-2.0
 20
220.0
 30
0.0
 10
10.0
 20
220.0
 30
0.0
211
-1.0
221
0.0
231
0.0
210
0.0
220
0.0
230
-1.0
1001
ACAD
1000
DSTYLE
1002
{
1070
   147
1040
2.0
1070
    77
1070
     0
1002
}
  0
MTEXT
  5
F3CC
330
1E
100
AcDbEntity
  8
30
  6
Continuous
100
AcDbMText
 10
-1.0
 20
226.0
 30
0.0
 40
5.0
 41
10.0
 71
     1
 72
     5
  1
%%c11
  7
blockfont
 73
     1
 44
1.0
1001
ACAD
1000
MTEXTBEGIN
1070
    73
1070
     1
1070
    44
1040
1.0
1070
    74
1070
     0
1000
MTEXTEND
  0
DIMENSION
  5
F3DF
330
1E
100
AcDbEntity
  8
30
100
AcDbDimension
  2
*D79
 10
-82.5
 20
20.0
 30
0.0
 11
-58.25000000000006
 21
25.0
 31
0.0
 70
    32
 71
     5
 42
48.49999999999988
  3
STANDARD1
100
AcDbAlignedDimension
 13
-34.00000000000011
 23
43.00000000000006
 33
0.0
 14
-82.5
 24
30.0
 34
0.0
 50
180.0
100
AcDbRotatedDimension
  0
DIMENSION
  5
F410
330
1E
100
AcDbEntity
  8
30
100
AcDbDimension
  2
*D80
 10
-22.49999999999999
 20
295.4999999999998
 30
0.0
 11
-82.5
 21
300.4999999999999
 31
0.0
 70
    32
 71
     5
 42
120.0
  3
STANDARD1
100
AcDbAlignedDimension
 13
-142.5
 23
265.4999999999997
 33
0.0
 14
-22.5
 24
265.4999999999997
 34
0.0
100
AcDbRotatedDimension
  0
DIMENSION
  5
F412
330
1E
100
AcDbEntity
  8
30
100
AcDbDimension
  2
*D81
 10
-34.00000000000011
 20
285.4999999999999
 30
0.0
 11
-82.5
 21
290.4999999999999
 31
0.0
 70
    32
 71
     5
 42
96.99999999999977
  3
STANDARD1
100
AcDbAlignedDimension
 13
-130.9999999999998
 23
262.0
 33
0.0
 14
-34.00000000000011
 24
261.5
 34
0.0
100
AcDbRotatedDimension
  0
LINE
  5
F4FE
330
1E
100
AcDbEntity
  8
130
100
AcDbLine
 10
79.99999999999976
 20
235.0
 30
0.0
 11
79.99999999999976
 21
203.4999999999997
 31
0.0
  0
LINE
  5
F4FF
330
1E
100
AcDbEntity
  8
130
100
AcDbLine
 10
140.0
 20
235.0
 30
0.0
 11
140.0
 21
70.0
 31
0.0
  0
LINE
  5
F501
330
1E
100
AcDbEntity
  8
12
100
AcDbLine
 10
94.0
 20
91.75
 30
0.0
 11
147.0
 21
91.75
 31
0.0
  0
LINE
  5
F502
330
1E
100
AcDbEntity
  8
12
100
AcDbLine
 10
94.0
 20
87.24999999999987
 30
0.0
 11
147.0
 21
87.24999999999987
 31
0.0
  0
LINE
  5
F503
330
1E
100
AcDbEntity
  8
130
100
AcDbLine
 10
79.99999999999976
 20
70.0
 30
0.0
 11
140.0
 21
70.0
 31
0.0
  0
LINE
  5
F505
330
1E
100
AcDbEntity
  8
16
100
AcDbLine
 10
43.0
 20
152.5
 30
0.0
 11
150.0
 21
152.5
 31
0.0
  0
LINE
  5
F50A
330
1E
100
AcDbEntity
  8
130
100
AcDbLine
 10
68.0
 20
177.5
 30
0.0
 11
68.0
 21
127.5
 31
0.0
  0
LINE
  5
F50B
330
1E
100
AcDbEntity
  8
130
100
AcDbLine
 10
61.5
 20
175.0
 30
0.0
 11
61.5
 21
130.0
 31
0.0
  0
LINE
  5
F50C
330
1E
100
AcDbEntity
  8
130
100
AcDbLine
 10
71.99999999999976
 20
203.4999999999997
 30
0.0
 11
71.99999999999976
 21
101.5
 31
0.0
  0
LINE
  5
F50D
330
1E
100
AcDbEntity
  8
12
100
AcDbLine
 10
94.0
 20
93.75
 30
0.0
 11
94.0
 21
85.25
 31
0.0
  0
LINE
  5
F50E
330
1E
100
AcDbEntity
  8
12
100
AcDbLine
 10
94.0
 20
87.24999999999987
 30
0.0
 11
94.0
 21
85.25
 31
0.0
  0
LINE
  5
F50F
330
1E
100
AcDbEntity
  8
12
100
AcDbLine
 10
89.0
 20
93.75
 30
0.0
 11
89.0
 21
85.25
 31
0.0
  0
LINE
  5
F510
330
1E
100
AcDbEntity
  8
130
100
AcDbLine
 10
79.99999999999976
 20
101.5
 30
0.0
 11
79.99999999999976
 21
70.0
 31
0.0
  0
LINE
  5
F511
330
1E
100
AcDbEntity
  8
12
100
AcDbLine
 10
79.99999999999976
 20
85.25
 30
0.0
 11
94.0
 21
85.25
 31
0.0
  0
LINE
  5
F512
330
1E
100
AcDbEntity
  8
12
100
AcDbLine
 10
79.99999999999976
 20
93.75
 30
0.0
 11
94.0
 21
93.75
 31
0.0
  0
LINE
  5
F513
330
1E
100
AcDbEntity
  8
130
100
AcDbLine
 10
61.5
 20
130.0
 30
0.0
 11
68.0
 21
130.0
 31
0.0
  0
LINE
  5
F514
330
1E
100
AcDbEntity
  8
130
100
AcDbLine
 10
68.0
 20
127.5
 30
0.0
 11
71.99999999999976
 21
127.5
 31
0.0
  0
LINE
  5
F515
330
1E
100
AcDbEntity
  8
130
100
AcDbLine
 10
71.99999999999976
 20
101.5
 30
0.0
 11
79.99999999999976
 21
101.5
 31
0.0
  0
LINE
  5
F516
330
1E
100
AcDbEntity
  8
12
100
AcDbLine
 10
94.0
 20
93.75
 30
0.0
 11
94.0
 21
91.75
 31
0.0
  0
LINE
  5
F517
330
1E
100
AcDbEntity
  8
130
100
AcDbLine
 10
61.5
 20
157.7775699999999
 30
0.0
 11
46.86952999999971
 21
163.1026249999997
 31
0.0
  0
LINE
  5
F518
330
1E
100
AcDbEntity
  8
130
100
AcDbLine
 10
61.5
 20
164.1626350000001
 30
0.0
 11
48.92165000000023
 21
168.7407799999996
 31
0.0
  0
LINE
  5
F519
330
1E
100
AcDbEntity
  8
130
100
AcDbLine
 10
48.92165000000023
 20
168.7407799999996
 30
0.0
 11
46.86952999999971
 21
163.1026249999997
 31
0.0
  0
ARC
  5
F51B
330
1E
100
AcDbEntity
  8
30
100
AcDbCircle
 10
75.99999999999976
 20
152.5
 30
0.0
 40
31.0
100
AcDbArc
 50
159.9999999999962
 51
180.0
  0
LINE
  5
F51D
330
1E
100
AcDbEntity
  8
130
100
AcDbLine
 10
61.5
 20
175.0
 30
0.0
 11
68.0
 21
175.0
 31
0.0
  0
LINE
  5
F51E
330
1E
100
AcDbEntity
  8
130
100
AcDbLine
 10
68.0
 20
177.5
 30
0.0
 11
71.99999999999976
 21
177.5
 31
0.0
  0
LINE
  5
F51F
330
1E
100
AcDbEntity
  8
130
100
AcDbLine
 10
71.99999999999976
 20
203.4999999999997
 30
0.0
 11
79.99999999999976
 21
203.4999999999997
 31
0.0
  0
LINE
  5
F523
330
1E
100
AcDbEntity
  8
12
100
AcDbLine
 10
147.0
 20
91.75
 30
0.0
 11
147.0
 21
87.24999999999987
 31
0.0
  0
LINE
  5
F526
330
1E
100
AcDbEntity
  8
130
100
AcDbLine
 10
140.0
 20
235.0
 30
0.0
 11
79.99999999999976
 21
235.0
 31
0.0
  0
LINE
  5
F55F
330
1E
100
AcDbEntity
  8
17
100
AcDbLine
 10
74.99999999999976
 20
89.49999999999983
 30
0.0
 11
149.9999999999997
 21
89.49999999999983
 31
0.0
  0
DIMENSION
  5
F560
330
1E
100
AcDbEntity
  8
30
100
AcDbDimension
  2
*D87
 10
44.99999999999952
 20
20.0
 30
0.0
 11
92.49999999999976
 21
25.0
 31
0.0
 70
    32
 71
     5
 42
95.00000000000046
  3
STANDARD1
100
AcDbAlignedDimension
 13
140.0
 23
70.0
 33
0.0
 14
44.99999999999954
 24
152.5
 34
0.0
100
AcDbRotatedDimension
  0
DIMENSION
  5
F561
330
1E
100
AcDbEntity
  8
30
100
AcDbDimension
  2
*D86
 10
68.0
 20
30.0
 30
0.0
 11
104.0
 21
35.0
 31
0.0
 70
    32
 71
     5
 42
72.0
  3
STANDARD1
100
AcDbAlignedDimension
 13
140.0
 23
70.0
 33
0.0
 14
68.0
 24
127.5
 34
0.0
100
AcDbRotatedDimension
  0
DIMENSION
  5
F562
330
1E
100
AcDbEntity
  8
30
100
AcDbDimension
  2
*D85
 10
72.0
 20
40.0
 30
0.0
 11
106.0
 21
45.0
 31
0.0
 70
    32
 71
     5
 42
68.0
  3
STANDARD1
100
AcDbAlignedDimension
 13
140.0
 23
70.0
 33
0.0
 14
72.0
 24
101.5
 34
0.0
100
AcDbRotatedDimension
  0
DIMENSION
  5
F563
330
1E
100
AcDbEntity
  8
30
100
AcDbDimension
  2
*D84
 10
80.0
 20
50.0
 30
0.0
 11
124.9999999999997
 21
50.0
 31
0.0
 70
   160
 71
     5
 42
60.0
  3
STANDARD1
100
AcDbAlignedDimension
 13
140.0
 23
70.0
 33
0.0
 14
80.0
 24
70.0
 34
0.0
100
AcDbRotatedDimension
  0
DIMENSION
  5
F564
330
1E
100
AcDbEntity
  8
30
100
AcDbDimension
  2
*D83
 10
93.99999999999977
 20
60.0
 30
0.0
 11
124.9999999999997
 21
60.0
 31
0.0
 70
   160
 71
     5
 42
46.00000000000021
  3
STANDARD1
100
AcDbAlignedDimension
 13
140.0
 23
70.0
 33
0.0
 14
93.99999999999977
 24
85.25000000000003
 34
0.0
100
AcDbRotatedDimension
  0
DIMENSION
  5
F565
330
1E
100
AcDbEntity
  8
30
100
AcDbDimension
  2
*D82
 10
140.0
 20
60.0
 30
0.0
 11
155.0
 21
60.0
 31
0.0
 70
   160
 71
     5
 42
7.0
  3
STANDARD1
100
AcDbAlignedDimension
 13
147.0
 23
87.24999999999994
 33
0.0
 14
140.0
 24
70.0
 34
0.0
100
AcDbRotatedDimension
  0
DIMENSION
  5
F68E
330
1E
100
AcDbEntity
  8
30
100
AcDbDimension
  2
*D88
 10
19.99999999999977
 20
101.5
 30
0.0
 11
14.99999999999976
 21
152.4999999999998
 31
0.0
 70
    32
 71
     5
 42
101.9999999999997
  3
STANDARD1
100
AcDbAlignedDimension
 13
71.99999999999976
 23
203.4999999999997
 33
0.0
 14
71.99999999999976
 24
101.5
 34
0.0
 50
90.0
100
AcDbRotatedDimension
  0
DIMENSION
  5
F68F
330
1E
100
AcDbEntity
  8
30
100
AcDbDimension
  2
*D90
 10
39.99999999999977
 20
129.9999999999999
 30
0.0
 11
34.99999999999975
 21
152.4999999999999
 31
0.0
 70
    32
 71
     5
 42
45.0
  3
STANDARD1
100
AcDbAlignedDimension
 13
61.49999999999955
 23
174.9999999999999
 33
0.0
 14
61.49999999999955
 24
129.9999999999999
 34
0.0
 50
90.0
100
AcDbRotatedDimension
  0
DIMENSION
  5
F690
330
1E
100
AcDbEntity
  8
30
100
AcDbDimension
  2
*D89
 10
29.99999999999977
 20
127.4999999999999
 30
0.0
 11
24.99999999999975
 21
152.4999999999999
 31
0.0
 70
    32
 71
     5
 42
50.0
  3
STANDARD1
100
AcDbAlignedDimension
 13
67.99999999999977
 23
177.4999999999999
 33
0.0
 14
67.99999999999977
 24
127.4999999999999
 34
0.0
 50
90.0
100
AcDbRotatedDimension
  0
DIMENSION
  5
F6D0
330
1E
100
AcDbEntity
  8
30
100
AcDbDimension
  2
*D91
 10
116.0
 20
270.0
 30
0.0
 11
104.0
 21
270.0
 31
0.0
 70
   160
 71
     5
 42
4.0
  3
STANDARD1
100
AcDbAlignedDimension
 13
112.0
 23
265.4999999999997
 33
0.0
 14
116.0
 24
265.4999999999997
 34
0.0
100
AcDbRotatedDimension
  0
DIMENSION
  5
F6EA
330
1E
100
AcDbEntity
  8
30
100
AcDbDimension
  2
*D92
 10
140.0
 20
280.0
 30
0.0
 11
126.0
 21
285.0
 31
0.0
 70
    32
 71
     5
 42
28.0
  3
STANDARD1
100
AcDbAlignedDimension
 13
112.0
 23
265.4999999999997
 33
0.0
 14
140.0
 24
235.0
 34
0.0
100
AcDbRotatedDimension
  0
CIRCLE
  5
F8AA
330
1E
100
AcDbEntity
  8
24
100
AcDbCircle
 10
-100.0000000000004
 20
-39.50000000000022
 30
0.0
 40
2.0
  0
LINE
  5
F8AB
330
1E
100
AcDbEntity
  8
17
100
AcDbLine
 10
-100.0000000000004
 20
-34.00000000000045
 30
0.0
 11
-100.0000000000004
 21
-45.00000000000023
 31
0.0
  0
LINE
  5
F8AC
330
1E
100
AcDbEntity
  8
17
100
AcDbLine
 10
-105.4999999999999
 20
-39.50000000000022
 30
0.0
 11
-94.50000000000022
 21
-39.50000000000022
 31
0.0
  0
LINE
  5
F8AD
330
1E
100
AcDbEntity
  8
17
100
AcDbLine
 10
-65.00000000000046
 20
-160.0
 30
0.0
 11
-65.00000000000046
 21
-171.0
 31
0.0
  0
LINE
  5
F8AE
330
1E
100
AcDbEntity
  8
17
100
AcDbLine
 10
-70.5
 20
-165.5000000000002
 30
0.0
 11
-59.50000000000023
 21
-165.5000000000002
 31
0.0
  0
CIRCLE
  5
F8AF
330
1E
100
AcDbEntity
  8
24
100
AcDbCircle
 10
-65.00000000000046
 20
-165.5000000000002
 30
0.0
 40
2.0
  0
LWPOLYLINE
  5
F8B2
330
1E
100
AcDbEntity
  8
18
100
AcDbPolyline
 90
        4
 70
     1
 43
0.0
 10
-135.0000000000004
 20
-20.0
 10
-30.0
 20
-20.0
 10
-30.0
 20
-185.0
 10
-135.0000000000004
 20
-185.0
  0
LINE
  5
F8B3
330
1E
100
AcDbEntity
  8
16
100
AcDbLine
 10
-145.0000000000002
 20
-102.4999999999999
 30
0.0
 11
-20.00000000000022
 21
-102.4999999999999
 31
0.0
  0
LINE
  5
F8B4
330
1E
100
AcDbEntity
  8
16
100
AcDbLine
 10
-82.50000000000024
 20
-10.0
 30
0.0
 11
-82.50000000000024
 21
-195.0
 31
0.0
  0
DIMENSION
  5
F8B5
330
1E
100
AcDbEntity
  8
30
100
AcDbDimension
  2
*D93
 10
-150.0
 20
-165.5
 30
0.0
 11
-154.9999999999999
 21
-102.5000000000001
 31
0.0
 70
    32
 71
     5
 42
125.9999999999998
  3
STANDARD1
100
AcDbAlignedDimension
 13
-105.4999999999997
 23
-39.50000000000017
 33
0.0
 14
-70.50000000000022
 24
-165.5
 34
0.0
 50
90.0
100
AcDbRotatedDimension
  0
LEADER
  5
F8B6
330
1E
100
AcDbEntity
  8
30
100
AcDbLeader
  3
STANDARD1
 76
     3
 10
-100.0000000000002
 20
-39.50000000000006
 30
0.0
 10
-140.0000000000002
 20
-30.0
 30
0.0
 10
-169.0000000000002
 20
-30.0
 30
0.0
1001
ACAD
1000
DSTYLE
1002
{
1070
   147
1040
2.0
1070
    77
1070
     0
1002
}
  0
MTEXT
  5
F8B7
330
1E
100
AcDbEntity
  8
30
  6
Continuous
100
AcDbMText
 10
-167.0000000000002
 20
-24.0
 30
0.0
 40
5.0
 41
30.0
 71
     1
 72
     5
  1
M4x0.7
  7
blockfont
 73
     1
 44
1.0
1001
ACAD
1000
MTEXTBEGIN
1070
    73
1070
     1
1070
    44
1040
1.0
1070
    74
1070
     0
1000
MTEXTEND
  0
DIMENSION
  5
F8B8
330
1E
100
AcDbEntity
  8
30
100
AcDbDimension
  2
*D94
 10
-65.00000000000023
 20
-210.0
 30
0.0
 11
-82.50000000000024
 21
-205.0
 31
0.0
 70
    32
 71
     5
 42
35.0
  3
STANDARD1
100
AcDbAlignedDimension
 13
-100.0000000000002
 23
-45.00000000000015
 33
0.0
 14
-65.00000000000023
 24
-170.9999999999999
 34
0.0
100
AcDbRotatedDimension
  0
LWPOLYLINE
  5
F924
330
1E
100
AcDbEntity
  8
18
100
AcDbPolyline
 90
        4
 70
     1
 43
0.0
 10
50.0
 20
-20.0
 10
155.0
 20
-20.0
 10
155.0
 20
-184.9999999999997
 10
50.0
 20
-184.9999999999997
  0
LINE
  5
F936
330
1E
100
AcDbEntity
  8
16
100
AcDbLine
 10
40.0
 20
-102.4999999999998
 30
0.0
 11
165.0
 21
-102.4999999999998
 31
0.0
  0
LINE
  5
F937
330
1E
100
AcDbEntity
  8
16
100
AcDbLine
 10
102.4999999999999
 20
-9.999999999999886
 30
0.0
 11
102.4999999999999
 21
-194.9999999999998
 31
0.0
  0
LWPOLYLINE
  5
FB3E
330
1E
100
AcDbEntity
  8
24
100
AcDbPolyline
 90
        4
 70
     1
 43
0.0
 10
-59.49999999999988
 20
435.9999999999998
 10
-22.5
 20
435.9999999999998
 10
-22.5
 20
431.9999999999994
 10
-59.49999999999988
 20
431.9999999999994
  0
LWPOLYLINE
  5
FB44
330
1E
100
AcDbEntity
  8
24
100
AcDbPolyline
 90
        4
 70
     1
 43
0.0
 10
-105.5000000000001
 20
436.0000000000002
 10
-142.5
 20
436.0000000000006
 10
-142.5
 20
432.0000000000002
 10
-105.5000000000001
 20
431.9999999999997
  0
LWPOLYLINE
  5
FB4A
330
1E
100
AcDbEntity
  8
24
100
AcDbPolyline
 90
        4
 70
     1
 43
0.0
 10
-94.00000000000012
 20
436.0
 10
-70.99999999999987
 20
436.0
 10
-70.99999999999987
 20
431.9999999999994
 10
-94.00000000000012
 20
431.9999999999994
  0
LWPOLYLINE
  5
FB4B
330
1E
100
AcDbEntity
  8
24
100
AcDbPolyline
 90
        4
 70
     1
 43
0.0
 10
-94.00000000000012
 20
437.9999999999998
 10
-70.99999999999987
 20
437.9999999999997
 10
-70.99999999999987
 20
435.9999999999998
 10
-94.00000000000012
 20
436.0
  0
LWPOLYLINE
  5
FB4C
330
1E
100
AcDbEntity
  8
24
100
AcDbPolyline
 90
        4
 70
     1
 43
0.0
 10
-59.00000000000011
 20
437.9999999999997
 10
-35.99999999999988
 20
437.9999999999996
 10
-35.99999999999988
 20
435.9999999999998
 10
-59.00000000000011
 20
435.9999999999998
  0
LWPOLYLINE
  5
FB4D
330
1E
100
AcDbEntity
  8
24
100
AcDbPolyline
 90
        4
 70
     1
 43
0.0
 10
-129.0000000000001
 20
437.9999999999998
 10
-105.9999999999998
 20
437.9999999999998
 10
-105.9999999999998
 20
436.0
 10
-129.0000000000001
 20
436.0
  0
DIMENSION
  5
FB97
330
1E
100
AcDbEntity
  8
30
100
AcDbDimension
  2
*D95
 10
-70.59387750000019
 20
275.4999999999997
 30
0.0
 11
-82.09387750000008
 21
280.4999999999997
 31
0.0
 70
    32
 71
     5
 42
22.99999999999977
  3
STANDARD1
100
AcDbAlignedDimension
 13
-93.59387749999996
 23
265.4999999999997
 33
0.0
 14
-70.59387750000019
 24
265.4999999999997
 34
0.0
100
AcDbRotatedDimension
  0
DIMENSION
  5
FEB5
330
1E
100
AcDbEntity
  8
30
100
AcDbDimension
  2
*D96
 10
50.0
 20
-10.0
 30
0.0
 11
76.25
 21
-5.000000000000006
 31
0.0
 70
    32
 71
     5
 42
52.5
  3
STANDARD1
100
AcDbAlignedDimension
 13
102.4999999999999
 23
-10.0
 33
0.0
 14
50.0
 24
-20.0
 34
0.0
100
AcDbRotatedDimension
  0
LWPOLYLINE
  5
FF12
330
1E
100
AcDbEntity
  8
18
100
AcDbPolyline
 90
        4
 70
     1
 43
0.0
 10
-101.5000000000001
 20
335.9999999999995
 10
-98.49999999999987
 20
335.9999999999995
 10
-98.49999999999987
 20
235.0
 10
-101.5000000000001
 20
235.0
  0
LWPOLYLINE
  5
FF15
330
1E
100
AcDbEntity
  8
18
100
AcDbPolyline
 90
        4
 70
     1
 43
0.0
 10
-66.5000000000001
 20
335.9999999999995
 10
-63.49999999999988
 20
335.9999999999995
 10
-63.49999999999988
 20
235.0
 10
-66.5000000000001
 20
235.0
  0
LWPOLYLINE
  5
FF6A
330
1E
100
AcDbEntity
  8
24
100
AcDbPolyline
 90
        7
 70
     0
 43
0.0
 10
-105.9999999999998
 20
215.3205500000001
 10
-105.9999999999998
 20
235.9999999999997
 10
-119.4999999999998
 20
265.4999999999997
 10
-142.5
 20
265.4999999999997
 10
-142.5
 20
242.5
 10
-128.9999999999998
 20
242.5
 10
-128.9999999999997
 20
215.3205500000001
  0
LWPOLYLINE
  5
FF6B
330
1E
100
AcDbEntity
  8
24
100
AcDbPolyline
 90
        4
 70
     0
 43
0.0
 10
-94.00000000000012
 20
215.3205500000001
 10
-94.00000000000012
 20
265.4999999999997
 10
-70.99999999999987
 20
265.4999999999997
 10
-70.99999999999987
 20
215.3205500000001
  0
LWPOLYLINE
  5
FF6C
330
1E
100
AcDbEntity
  8
24
100
AcDbPolyline
 90
        7
 70
     0
 43
0.0
 10
-59.00000000000011
 20
215.3205500000001
 10
-59.00000000000011
 20
235.9999999999997
 10
-45.5000000000001
 20
265.4999999999997
 10
-22.5
 20
265.4999999999997
 10
-22.5
 20
242.5
 10
-36.00000000000021
 20
242.5
 10
-36.00000000000022
 20
215.3205500000001
  0
LWPOLYLINE
  5
FF6D
330
1E
100
AcDbEntity
  8
24
100
AcDbPolyline
 90
        7
 70
     0
 43
0.0
 10
-105.9999999999998
 20
89.67944999999986
 10
-105.9999999999998
 20
69.00000000000023
 10
-119.4999999999998
 20
39.50000000000022
 10
-142.5
 20
39.50000000000022
 10
-142.5
 20
62.5
 10
-128.9999999999998
 20
62.5
 10
-128.9999999999997
 20
89.67944999999986
  0
LWPOLYLINE
  5
FF6E
330
1E
100
AcDbEntity
  8
24
100
AcDbPolyline
 90
        4
 70
     0
 43
0.0
 10
-94.00000000000012
 20
89.67944999999986
 10
-94.00000000000012
 20
39.50000000000022
 10
-70.99999999999987
 20
39.50000000000022
 10
-70.99999999999987
 20
89.67944999999986
  0
LWPOLYLINE
  5
FF6F
330
1E
100
AcDbEntity
  8
24
100
AcDbPolyline
 90
        7
 70
     0
 43
0.0
 10
-59.00000000000011
 20
89.67944999999986
 10
-59.00000000000011
 20
69.00000000000023
 10
-45.5000000000001
 20
39.50000000000022
 10
-22.5
 20
39.50000000000022
 10
-22.5
 20
62.5
 10
-36.00000000000021
 20
62.5
 10
-36.00000000000022
 20
89.67944999999986
  0
LWPOLYLINE
  5
FFB7
330
1E
100
AcDbEntity
  8
24
100
AcDbPolyline
 90
        4
 70
     1
 43
0.0
 10
112.0
 20
265.4999999999997
 10
116.0
 20
265.4999999999997
 10
116.0
 20
235.0
 10
112.0
 20
235.0
  0
LWPOLYLINE
  5
10009
330
1E
100
AcDbEntity
  8
24
100
AcDbPolyline
 90
        4
 70
     1
 43
0.0
 10
112.0
 20
70.0
 10
116.0
 20
70.0
 10
116.0
 20
39.50000000000022
 10
112.0
 20
39.50000000000022
  0
DIMENSION
  5
10067
330
1E
100
AcDbEntity
  8
30
100
AcDbDimension
  2
*D97
 10
67.99999999999977
 20
29.99999999999995
 30
0.0
 11
52.99999999999977
 21
29.99999999999995
 31
0.0
 70
   160
 71
     5
 42
6.500000000000227
  3
STANDARD1
100
AcDbAlignedDimension
 13
61.49999999999955
 23
129.9999999999999
 33
0.0
 14
67.99999999999977
 24
127.5
 34
0.0
100
AcDbRotatedDimension
1001
ACAD
1000
DSTYLE
1002
{
1070
   279
1070
     1
1002
}
  0
LWPOLYLINE
  5
10249
330
1E
100
AcDbEntity
  8
130
100
AcDbPolyline
 90
        4
 70
     1
 43
0.0
 10
-135.0000000000002
 20
400.0
 10
-30.0
 20
399.9999999999998
 10
-30.0
 20
391.9999999999999
 10
-135.0000000000002
 20
392.0
  0
LWPOLYLINE
  5
1024A
330
1E
100
AcDbEntity
  8
130
100
AcDbPolyline
 90
        4
 70
     1
 43
0.0
 10
-131.4999999999997
 20
392.0
 10
-33.49999999999954
 20
391.9999999999999
 10
-33.49999999999954
 20
388.0
 10
-131.4999999999997
 20
388.0
  0
LWPOLYLINE
  5
1024B
330
1E
100
AcDbEntity
  8
130
100
AcDbPolyline
 90
        4
 70
     1
 43
0.0
 10
-89.50000000000017
 20
381.4999999999998
 10
-75.50000000000039
 20
381.4999999999998
 10
-75.50000000000039
 20
381.4999999999997
 10
-89.50000000000017
 20
381.4999999999997
  0
LWPOLYLINE
  5
1024D
330
1E
100
AcDbEntity
  8
130
100
AcDbPolyline
 90
        4
 70
     1
 43
0.0
 10
-93.49999999999994
 20
388.0
 10
-71.50000000000004
 20
388.0
 10
-71.50000000000004
 20
381.4999999999997
 10
-93.49999999999994
 20
381.4999999999997
  0
LWPOLYLINE
  5
1024E
330
1E
100
AcDbEntity
  8
130
100
AcDbPolyline
 90
        4
 70
     1
 43
0.0
 10
-89.50000000000017
 20
381.4999999999997
 10
-75.50000000000039
 20
381.4999999999997
 10
-75.50000000000039
 20
381.4999999999997
 10
-89.50000000000017
 20
381.4999999999997
  0
LWPOLYLINE
  5
102A4
330
1E
100
AcDbEntity
  8
130
100
AcDbPolyline
 90
        4
 70
     1
 43
0.0
 10
-89.50000000000029
 20
381.4999999999997
 10
-75.50000000000054
 20
381.4999999999997
 10
-75.50000000000054
 20
364.9999999999999
 10
-89.50000000000029
 20
364.9999999999999
  0
LWPOLYLINE
  5
1072D
330
1E
100
AcDbEntity
  8
10
100
AcDbPolyline
 90
        8
 70
     1
 43
0.0
 10
53.5
 20
-76.49999999999986
 10
151.5
 20
-76.49999999999987
 42
-0.4142135623730951
 10
152.5
 20
-77.4999999999999
 10
152.5
 20
-127.4999999999998
 42
-0.4142135623730951
 10
151.5
 20
-128.4999999999998
 10
53.5
 20
-128.4999999999998
 42
-0.4142135623730951
 10
52.5
 20
-127.4999999999998
 10
52.5
 20
-77.49999999999984
 42
-0.4142135623730951
  0
DIMENSION
  5
1072E
330
1E
100
AcDbEntity
  8
30
  6
Continuous
100
AcDbDimension
  2
*D98
 10
53.49999999999999
 20
-77.49999999999987
 30
0.0
 11
62.350064888298
 21
-70.96728605609304
 31
0.0
 70
   164
 71
     5
 42
-1.0
  3
STANDARD1
100
AcDbRadialDimension
 15
54.30455135348161
 25
-76.90611691419016
 35
0.0
 40
0.0
  0
DIMENSION
  5
1072F
330
1E
100
AcDbEntity
  8
30
100
AcDbDimension
  2
*D99
 10
152.5
 20
-209.9999999999998
 30
0.0
 11
102.4999999999999
 21
-204.9999999999998
 31
0.0
 70
    32
 71
     5
 42
100.0
  3
STANDARD1
100
AcDbAlignedDimension
 13
52.5
 23
-127.4999999999998
 33
0.0
 14
152.5
 24
-127.4999999999998
 34
0.0
100
AcDbRotatedDimension
  0
DIMENSION
  5
10730
330
1E
100
AcDbEntity
  8
30
100
AcDbDimension
  2
*D100
 10
40.0
 20
-128.4999999999998
 30
0.0
 11
35.00000000000002
 21
-102.4999999999998
 31
0.0
 70
    32
 71
     5
 42
52.00000000000002
  3
STANDARD1
100
AcDbAlignedDimension
 13
53.5
 23
-76.49999999999986
 33
0.0
 14
53.5
 24
-128.4999999999998
 34
0.0
 50
90.0
100
AcDbRotatedDimension
  0
LINE
  5
107D0
330
1E
100
AcDbEntity
  8
1
  6
Continuous
 62
     3
100
AcDbLine
 10
-57.1389774999999
 20
143.4999999999998
 30
0.0
 11
-45.05293749999998
 21
143.4999999999998
 31
0.0
  0
LINE
  5
107D1
330
1E
100
AcDbEntity
  8
1
  6
Continuous
 62
     2
100
AcDbLine
 10
-46.29999999999996
 20
140.5
 30
0.0
 11
-46.29999999999996
 21
136.5
 31
0.0
  0
LINE
  5
107D2
330
1E
100
AcDbEntity
  8
1
  6
Continuous
 62
     3
100
AcDbLine
 10
-55.83909249999999
 20
164.7999999999999
 30
0.0
 11
-47.35166749999996
 21
164.7999999999999
 31
0.0
  0
LINE
  5
107D3
330
1E
100
AcDbEntity
  8
1
  6
Continuous
 62
     2
100
AcDbLine
 10
-55.49999999999989
 20
140.5
 30
0.0
 11
-46.29999999999996
 21
140.5
 31
0.0
  0
LINE
  5
107D4
330
1E
100
AcDbEntity
  8
1
  6
Continuous
 62
     3
100
AcDbLine
 10
-50.89999999999998
 20
146.1622525
 30
0.0
 11
-50.89999999999998
 21
135.5133750000002
 31
0.0
  0
LINE
  5
107D5
330
1E
100
AcDbEntity
  8
1
  6
Continuous
 62
     2
100
AcDbLine
 10
-55.49999999999989
 20
145.5
 30
0.0
 11
-55.49999999999989
 21
141.5
 31
0.0
  0
LINE
  5
107D6
330
1E
100
AcDbEntity
  8
1
  6
Continuous
 62
     2
100
AcDbLine
 10
-55.49999999999989
 20
141.5
 30
0.0
 11
-46.29999999999996
 21
141.5
 31
0.0
  0
LINE
  5
107D7
330
1E
100
AcDbEntity
  8
1
  6
Continuous
 62
     3
100
AcDbLine
 10
-57.03909249999992
 20
150.5999999999999
 30
0.0
 11
-46.15166749999989
 21
150.5999999999999
 31
0.0
  0
LINE
  5
107D8
330
1E
100
AcDbEntity
  8
1
  6
Continuous
 62
     2
100
AcDbLine
 10
-55.49999999999989
 20
145.5
 30
0.0
 11
-46.29999999999996
 21
145.5
 31
0.0
  0
LINE
  5
107D9
330
1E
100
AcDbEntity
  8
1
  6
Continuous
 62
     3
100
AcDbLine
 10
-51.39999999999986
 20
168.06861
 30
0.0
 11
-51.39999999999986
 21
146.06861
 31
0.0
  0
LINE
  5
107DA
330
1E
100
AcDbEntity
  8
1
  6
Continuous
 62
     2
100
AcDbLine
 10
-55.49999999999989
 20
136.5
 30
0.0
 11
-46.29999999999996
 21
136.5
 31
0.0
  0
LINE
  5
107DB
330
1E
100
AcDbEntity
  8
1
  6
Continuous
 62
     2
100
AcDbLine
 10
-46.29999999999996
 20
145.5
 30
0.0
 11
-46.29999999999996
 21
141.5
 31
0.0
  0
LINE
  5
107DC
330
1E
100
AcDbEntity
  8
1
  6
Continuous
 62
     3
100
AcDbLine
 10
-57.03909249999992
 20
158.2999999999999
 30
0.0
 11
-46.15166749999989
 21
158.2999999999999
 31
0.0
  0
LINE
  5
107DD
330
1E
100
AcDbEntity
  8
1
  6
Continuous
 62
     2
100
AcDbLine
 10
-55.49999999999989
 20
140.5
 30
0.0
 11
-55.49999999999989
 21
136.5
 31
0.0
  0
LINE
  5
107DE
330
1E
100
AcDbEntity
  8
1
  6
Continuous
 62
     3
100
AcDbLine
 10
-57.1389774999999
 20
138.4999999999998
 30
0.0
 11
-45.05293749999998
 21
138.4999999999998
 31
0.0
  0
CIRCLE
  5
107DF
330
1E
100
AcDbEntity
  8
1
  6
Continuous
 62
     2
100
AcDbCircle
 10
-51.39999999999986
 20
150.5999999999999
 30
0.0
 40
2.5
  0
CIRCLE
  5
107E0
330
1E
100
AcDbEntity
  8
1
  6
Continuous
 62
     2
100
AcDbCircle
 10
-51.39999999999986
 20
150.5999999999999
 30
0.0
 40
3.599999999999998
  0
CIRCLE
  5
107E1
330
1E
100
AcDbEntity
  8
1
  6
Continuous
 62
     2
100
AcDbCircle
 10
-51.39999999999986
 20
164.7999999999999
 30
0.0
 40
1.5
  0
CIRCLE
  5
107E2
330
1E
100
AcDbEntity
  8
1
  6
Continuous
 62
     2
100
AcDbCircle
 10
-51.39999999999986
 20
158.2999999999999
 30
0.0
 40
2.75
  0
VIEWPORT
  5
9AC
102
{ACAD_XDICTIONARY
360
10829
102
}
330
1A
100
AcDbEntity
 67
     1
  8
0
  6
Continuous
100
AcDbViewport
 10
0.0
 20
0.0
 30
0.0
 40
0.0
 41
0.0
 68
     1
 69
     1
 12
0.0
 22
0.0
 13
0.0
 23
0.0
 14
10.0
 24
10.0
 15
10.0
 25
10.0
 16
0.0
 26
0.0
 36
1.0
 17
0.0
 27
0.0
 37
0.0
 42
50.0
 43
0.0
 44
0.0
 45
0.0
 50
0.0
 51
0.0
 72
   100
 90
    32800
  1

281
     0
 71
     1
 74
     0
110
0.0
120
0.0
130
0.0
111
1.0
121
0.0
131
0.0
112
0.0
122
1.0
132
0.0
 79
     0
146
0.0
  0
VIEWPORT
  5
E19D
102
{ACAD_XDICTIONARY
360
10833
102
}
330
1A
100
AcDbEntity
 67
     1
  8
30
100
AcDbViewport
 10
0.0
 20
0.0
 30
0.0
 40
0.0
 41
0.0
 68
     2
 69
     2
 12
8.653370891979619
 22
137.2805829780177
 13
0.0
 23
0.0
 14
1.0
 24
1.0
 15
10.0
 25
10.0
 16
0.0
 26
0.0
 36
1.0
 17
0.0
 27
0.0
 37
0.0
 42
50.0
 43
0.0
 44
0.0
 45
689.9195596776388
 50
0.0
 51
0.0
 72
   100
 90
    37664
  1

281
     0
 71
     1
 74
     0
110
0.0
120
0.0
130
0.0
111
1.0
121
0.0
131
0.0
112
0.0
122
1.0
132
0.0
 79
     0
146
0.0
  0
ENDSEC
  0
SECTION
  2
OBJECTS
  0
DICTIONARY
  5
C
330
0
100
AcDbDictionary
281
     1
  3
ACAD_COLOR
350
FDFD
  3
ACAD_GROUP
350
D
  3
ACAD_LAYOUT
350
19
  3
ACAD_MATERIAL
350
FDD0
  3
ACAD_MLEADERSTYLE
350
FE22
  3
ACAD_MLINESTYLE
350
16
  3
ACAD_PLOTSETTINGS
350
18
  3
ACAD_PLOTSTYLENAME
350
E
  3
ACAD_SCALELIST
350
FE00
  3
ACAD_TABLESTYLE
350
FDFE
  3
ACAD_VISUALSTYLE
350
FDE9
  3
ACADDIM
350
6D5E
  3
ACDB_RECOMPOSE_DATA
350
10827
  3
ACDBVARIABLEDICTIONARY
350
5697
  3
AEC_PROPERTY_SET_DEFS
350
FEB1
  3
ASE_INDEX_DICTIONARY
350
10778
  3
DWGPROPS
350
10828
  0
DICTIONARY
  5
FE27
330
10
100
AcDbDictionary
280
     1
281
     1
  3
ADSK_XREC_LAYER_RECONCILED
360
FE28
  0
DICTIONARY
  5
FE29
330
2F
100
AcDbDictionary
280
     1
281
     1
  3
ADSK_XREC_LAYER_RECONCILED
360
FE2A
  0
DICTIONARY
  5
FE2B
330
31
100
AcDbDictionary
280
     1
281
     1
  3
ADSK_XREC_LAYER_RECONCILED
360
FE2C
  0
DICTIONARY
  5
FE2D
330
35
100
AcDbDictionary
280
     1
281
     1
  3
ADSK_XREC_LAYER_RECONCILED
360
FE2E
  0
DICTIONARY
  5
FE2F
330
38
100
AcDbDictionary
280
     1
281
     1
  3
ADSK_XREC_LAYER_RECONCILED
360
FE30
  0
DICTIONARY
  5
FE31
330
3D
100
AcDbDictionary
280
     1
281
     1
  3
ADSK_XREC_LAYER_RECONCILED
360
FE32
  0
DICTIONARY
  5
FE33
330
3A2
100
AcDbDictionary
280
     1
281
     1
  3
ADSK_XREC_LAYER_RECONCILED
360
FE34
  0
DICTIONARY
  5
FE35
330
3BBA
100
AcDbDictionary
280
     1
281
     1
  3
ADSK_XREC_LAYER_RECONCILED
360
FE36
  0
DICTIONARY
  5
FE37
330
67A8
100
AcDbDictionary
280
     1
281
     1
  3
ADSK_XREC_LAYER_RECONCILED
360
FE38
  0
DICTIONARY
  5
FE39
330
7837
100
AcDbDictionary
280
     1
281
     1
  3
ADSK_XREC_LAYER_RECONCILED
360
FE3A
  0
DICTIONARY
  5
FE3B
330
7BC8
100
AcDbDictionary
280
     1
281
     1
  3
ADSK_XREC_LAYER_RECONCILED
360
FE3C
  0
DICTIONARY
  5
FE3D
330
C4FD
100
AcDbDictionary
280
     1
281
     1
  3
ADSK_XREC_LAYER_RECONCILED
360
FE3E
  0
DICTIONARY
  5
FE3F
330
C4FE
100
AcDbDictionary
280
     1
281
     1
  3
ADSK_XREC_LAYER_RECONCILED
360
FE40
  0
DICTIONARY
  5
FE41
330
C4FF
100
AcDbDictionary
280
     1
281
     1
  3
ADSK_XREC_LAYER_RECONCILED
360
FE42
  0
DICTIONARY
  5
FE43
330
C500
100
AcDbDictionary
280
     1
281
     1
  3
ADSK_XREC_LAYER_RECONCILED
360
FE44
  0
DICTIONARY
  5
FE45
330
C501
100
AcDbDictionary
280
     1
281
     1
  3
ADSK_XREC_LAYER_RECONCILED
360
FE46
  0
DICTIONARY
  5
FE47
330
C502
100
AcDbDictionary
280
     1
281
     1
  3
ADSK_XREC_LAYER_RECONCILED
360
FE48
  0
DICTIONARY
  5
FE49
330
FD70
100
AcDbDictionary
280
     1
281
     1
  3
ADSK_XREC_LAYER_RECONCILED
360
FE4A
  0
DICTIONARY
  5
178
330
1E
100
AcDbDictionary
280
     1
281
     1
  3
ACAD_LAYOUTSELFREF
360
9011
  0
DICTIONARY
  5
17A
330
1A
100
AcDbDictionary
280
     1
281
     1
  3
ACAD_LAYOUTSELFREF
360
9010
  0
DICTIONARY
  5
1082F
330
92D7
100
AcDbDictionary
280
     1
281
     1
  3
ACAD_MTEXT_RT
360
10830
  0
DICTIONARY
  5
10831
330
92E2
100
AcDbDictionary
280
     1
281
     1
  3
ACAD_MTEXT_RT
360
10832
  0
DICTIONARY
  5
10835
330
E1CF
100
AcDbDictionary
280
     1
281
     1
  3
ACAD_MTEXT_RT
360
10836
  0
DICTIONARY
  5
10829
330
9AC
100
AcDbDictionary
280
     1
281
     1
  3
ACAD_XREC_ROUNDTRIP
360
1082A
  0
DICTIONARY
  5
10833
330
E19D
100
AcDbDictionary
280
     1
281
     1
  3
ACAD_XREC_ROUNDTRIP
360
10834
  0
DICTIONARY
  5
FDFD
102
{ACAD_REACTORS
330
C
102
}
330
C
100
AcDbDictionary
281
     1
  0
DICTIONARY
  5
D
102
{ACAD_REACTORS
330
C
102
}
330
C
100
AcDbDictionary
281
     1
  0
DICTIONARY
  5
19
102
{ACAD_REACTORS
330
C
102
}
330
C
100
AcDbDictionary
281
     1
  3
Model
350
904E
  3
ﾚｲｱｳﾄ1
350
904F
  0
DICTIONARY
  5
FDD0
102
{ACAD_REACTORS
330
C
102
}
330
C
100
AcDbDictionary
281
     1
  3
ByBlock
350
FDD9
  3
ByLayer
350
FDD1
  3
Global
350
FDE1
  0
DICTIONARY
  5
FE22
102
{ACAD_REACTORS
330
C
102
}
330
C
100
AcDbDictionary
281
     1
  3
Standard
350
FE23
  0
DICTIONARY
  5
16
102
{ACAD_REACTORS
330
C
102
}
330
C
100
AcDbDictionary
281
     1
  3
STANDARD
350
17
  0
DICTIONARY
  5
18
102
{ACAD_REACTORS
330
C
102
}
330
C
100
AcDbDictionary
281
     1
  0
ACDBDICTIONARYWDFLT
  5
E
102
{ACAD_REACTORS
330
C
102
}
330
C
100
AcDbDictionary
281
     1
  3
Normal
350
F
100
AcDbDictionaryWithDefault
340
F
  0
DICTIONARY
  5
FE00
102
{ACAD_REACTORS
330
C
102
}
330
C
100
AcDbDictionary
281
     1
  3
A0
350
FE01
  3
A1
350
FE02
  3
A2
350
FE03
  3
A3
350
FE04
  3
A4
350
FE05
  3
A5
350
FE06
  3
A6
350
FE07
  3
A7
350
FE08
  3
A8
350
FE09
  3
A9
350
FE0A
  3
B0
350
FE0B
  3
B1
350
FE0C
  3
B2
350
FE0D
  3
B3
350
FE0E
  3
B4
350
FE0F
  3
B5
350
FE10
  3
B6
350
FE11
  3
B7
350
FE12
  3
B8
350
FE13
  3
B9
350
FE14
  3
C0
350
FE15
  3
C1
350
FE16
  3
C2
350
FE17
  3
C3
350
FE18
  3
C4
350
FE19
  3
C5
350
FE1A
  3
C6
350
FE1B
  3
C7
350
FE1C
  3
C8
350
FE1D
  3
C9
350
FE1E
  3
D0
350
FE1F
  3
D1
350
FE20
  3
D2
350
FE21
  0
DICTIONARY
  5
FDFE
102
{ACAD_REACTORS
330
C
102
}
330
C
100
AcDbDictionary
281
     1
  3
Standard
350
FDFF
  0
DICTIONARY
  5
FDE9
102
{ACAD_REACTORS
330
C
102
}
330
C
100
AcDbDictionary
281
     1
  3
2dWireframe
350
FDEF
  3
3D Hidden
350
FDF1
  3
3dWireframe
350
FDF0
  3
Basic
350
FDEE
  3
Brighten
350
FDF5
  3
ColorChange
350
FDF9
  3
Conceptual
350
FDF2
  3
Dim
350
FDF4
  3
EdgeColorOff
350
FDFC
  3
Facepattern
350
FDF8
  3
Flat
350
FDEA
  3
FlatWithEdges
350
FDEB
  3
Gouraud
350
FDEC
  3
GouraudWithEdges
350
FDED
  3
JitterOff
350
FDFA
  3
Linepattern
350
FDF7
  3
OverhangOff
350
FDFB
  3
Realistic
350
FDF3
  3
Thicken
350
FDF6
  0
XRECORD
  5
6D5E
102
{ACAD_REACTORS
330
C
102
}
330
C
100
AcDbXrecord
280
     1
 90
   990106
  3

 60
     0
 61
     0
 62
     1
 63
     3
 64
     0
 65
     0
 66
     0
 67
     3
 68
     1
 69
     0
 70
     0
 71
     0
 72
     0
 40
0.0
170
     0
340
7CA9
  0
XRECORD
  5
10827
102
{ACAD_REACTORS
330
C
102
}
330
C
100
AcDbXrecord
280
     1
 90
        1
330
FDFF
  0
DICTIONARY
  5
5697
102
{ACAD_REACTORS
330
C
102
}
330
C
100
AcDbDictionary
281
     1
  3
CANNOSCALE
350
FE96
  3
CMLEADERSTYLE
350
FE95
  3
CTABLESTYLE
350
FE94
  3
DIMASSOC
350
5698
  3
INDEXCTL
350
FE98
  3
SORTENTS
350
FE97
  3
XCLIPFRAME
350
10825
  0
DICTIONARY
  5
FEB1
102
{ACAD_REACTORS
330
C
102
}
330
C
100
AcDbDictionary
281
     1
  0
DICTIONARY
  5
10778
102
{ACAD_REACTORS
330
C
102
}
330
C
100
AcDbDictionary
281
     1
  3
ASEBlockHierarchyIndexRecord
350
10779
1001
DCO15
1040
1730099141.562
  0
XRECORD
  5
10828
102
{ACAD_REACTORS
330
C
102
}
330
C
100
AcDbXrecord
280
     1
  1
DWGPROPS COOKIE
  2

  3

  4

  6

  7

  8
cadm
  9

300
=
301
=
302
=
303
=
304
=
305
=
306
=
307
=
308
=
309
=
 40
2.01243074074074
 41
2452286.555658658
 42
2455827.507471783
  1

 90
        0
  0
XRECORD
  5
FE28
102
{ACAD_REACTORS
330
FE27
102
}
330
FE27
100
AcDbXrecord
280
     1
290
     1
  0
XRECORD
  5
FE2A
102
{ACAD_REACTORS
330
FE29
102
}
330
FE29
100
AcDbXrecord
280
     1
290
     1
  0
XRECORD
  5
FE2C
102
{ACAD_REACTORS
330
FE2B
102
}
330
FE2B
100
AcDbXrecord
280
     1
290
     1
  0
XRECORD
  5
FE2E
102
{ACAD_REACTORS
330
FE2D
102
}
330
FE2D
100
AcDbXrecord
280
     1
290
     1
  0
XRECORD
  5
FE30
102
{ACAD_REACTORS
330
FE2F
102
}
330
FE2F
100
AcDbXrecord
280
     1
290
     1
  0
XRECORD
  5
FE32
102
{ACAD_REACTORS
330
FE31
102
}
330
FE31
100
AcDbXrecord
280
     1
290
     1
  0
XRECORD
  5
FE34
102
{ACAD_REACTORS
330
FE33
102
}
330
FE33
100
AcDbXrecord
280
     1
290
     1
  0
XRECORD
  5
FE36
102
{ACAD_REACTORS
330
FE35
102
}
330
FE35
100
AcDbXrecord
280
     1
290
     1
  0
XRECORD
  5
FE38
102
{ACAD_REACTORS
330
FE37
102
}
330
FE37
100
AcDbXrecord
280
     1
290
     1
  0
XRECORD
  5
FE3A
102
{ACAD_REACTORS
330
FE39
102
}
330
FE39
100
AcDbXrecord
280
     1
290
     1
  0
XRECORD
  5
FE3C
102
{ACAD_REACTORS
330
FE3B
102
}
330
FE3B
100
AcDbXrecord
280
     1
290
     1
  0
XRECORD
  5
FE3E
102
{ACAD_REACTORS
330
FE3D
102
}
330
FE3D
100
AcDbXrecord
280
     1
290
     1
  0
XRECORD
  5
FE40
102
{ACAD_REACTORS
330
FE3F
102
}
330
FE3F
100
AcDbXrecord
280
     1
290
     1
  0
XRECORD
  5
FE42
102
{ACAD_REACTORS
330
FE41
102
}
330
FE41
100
AcDbXrecord
280
     1
290
     1
  0
XRECORD
  5
FE44
102
{ACAD_REACTORS
330
FE43
102
}
330
FE43
100
AcDbXrecord
280
     1
290
     1
  0
XRECORD
  5
FE46
102
{ACAD_REACTORS
330
FE45
102
}
330
FE45
100
AcDbXrecord
280
     1
290
     1
  0
XRECORD
  5
FE48
102
{ACAD_REACTORS
330
FE47
102
}
330
FE47
100
AcDbXrecord
280
     1
290
     1
  0
XRECORD
  5
FE4A
102
{ACAD_REACTORS
330
FE49
102
}
330
FE49
100
AcDbXrecord
280
     1
290
     1
  0
XRECORD
  5
9011
102
{ACAD_REACTORS
330
178
102
}
330
178
100
AcDbXrecord
280
     1
340
1E
  0
XRECORD
  5
9010
102
{ACAD_REACTORS
330
17A
102
}
330
17A
100
AcDbXrecord
280
     1
340
1A
  0
XRECORD
  5
10830
102
{ACAD_REACTORS
330
1082F
102
}
330
1082F
100
AcDbXrecord
280
     1
 40
10143.0
  1
\A1;\U+22058.015265
  0
XRECORD
  5
10832
102
{ACAD_REACTORS
330
10831
102
}
330
10831
100
AcDbXrecord
280
     1
 40
11108.0
  1
\A1;\U+220513.024807
  0
XRECORD
  5
10836
102
{ACAD_REACTORS
330
10835
102
}
330
10835
100
AcDbXrecord
280
     1
 40
4473.0
  1
\A1;\U+22059
  0
XRECORD
  5
1082A
102
{ACAD_REACTORS
330
10829
102
}
330
10829
100
AcDbXrecord
280
     1
102
SHADEPLOT
 70
     0
  0
XRECORD
  5
10834
102
{ACAD_REACTORS
330
10833
102
}
330
10833
100
AcDbXrecord
280
     1
102
SHADEPLOT
 70
     0
  0
LAYOUT
  5
904E
102
{ACAD_XDICTIONARY
360
1082B
102
}
102
{ACAD_REACTORS
330
19
102
}
330
19
100
AcDbPlotSettings
  1

  2
Canon LBP3800 LIPSLX
  4
A4
  6

 40
5.873749732971191
 41
5.873747825622557
 42
5.873748779296875
 43
5.873748779296875
 44
209.9733276367186
 45
296.9259948730469
 46
18.43984969487282
 47
4.872025289436352
 48
0.0
 49
0.0
140
0.0
141
0.0
142
1.0
143
2.5
 70
 11940
 72
     1
 73
     0
 74
     1
  7
monochrome.ctb
 75
     0
147
0.4396468539207606
148
169.0586189742416
149
210.5190989520861
100
AcDbLayout
  1
Model
 70
     1
 71
     0
 10
0.0
 20
0.0
 11
12.0
 21
9.0
 12
0.0
 22
0.0
 32
0.0
 14
0.0
 24
0.0
 34
0.0
 15
0.0
 25
0.0
 35
0.0
146
0.0
 13
0.0
 23
0.0
 33
0.0
 16
1.0
 26
0.0
 36
0.0
 17
0.0
 27
1.0
 37
0.0
 76
     0
330
1E
331
1076F
1001
ACAD_PSEXT
1000
Canon LBP3800 LIPSLX
1000
Canon LBP3800 LIPSLX
1000
IP_192.168.54.50
1000

1070
     0
  0
LAYOUT
  5
904F
102
{ACAD_XDICTIONARY
360
1082D
102
}
102
{ACAD_REACTORS
330
19
102
}
330
19
100
AcDbPlotSettings
  1

  2
LBP5400
  4

  6

 40
0.0
 41
0.0
 42
0.0
 43
0.0
 44
0.0
 45
0.0
 46
0.0
 47
0.0
 48
0.0
 49
0.0
140
0.0
141
0.0
142
1.0
143
1.0
 70
   688
 72
     0
 73
     1
 74
     5
  7
monochrome.stb
 75
    16
147
1.0
148
0.0
149
0.0
100
AcDbLayout
  1
ﾚｲｱｳﾄ1
 70
     1
 71
     1
 10
0.0
 20
0.0
 11
0.0
 21
0.0
 12
0.0
 22
0.0
 32
0.0
 14
0.0
 24
0.0
 34
0.0
 15
0.0
 25
0.0
 35
0.0
146
0.0
 13
0.0
 23
0.0
 33
0.0
 16
1.0
 26
0.0
 36
0.0
 17
0.0
 27
1.0
 37
0.0
 76
     0
330
1A
331
9AC
  0
MATERIAL
  5
FDD9
102
{ACAD_XDICTIONARY
360
FDDA
102
}
102
{ACAD_REACTORS
330
FDD0
102
}
330
FDD0
100
AcDbMaterial
  1
ByBlock
 72
     0
 43
0.0208333333333333
 43
0.0
 43
0.0
 43
0.0
 43
0.0
 43
0.0208333333333333
 43
0.0
 43
0.0
 43
0.0
 43
0.0
 43
1.0
 43
0.0
 43
0.0
 43
0.0
 43
0.0
 43
1.0
 77
     0
 47
0.0208333333333333
 47
0.0
 47
0.0
 47
0.0
 47
0.0
 47
0.0208333333333333
 47
0.0
 47
0.0
 47
0.0
 47
0.0
 47
1.0
 47
0.0
 47
0.0
 47
0.0
 47
0.0
 47
1.0
171
     0
 49
0.0208333333333333
 49
0.0
 49
0.0
 49
0.0
 49
0.0
 49
0.0208333333333333
 49
0.0
 49
0.0
 49
0.0
 49
0.0
 49
1.0
 49
0.0
 49
0.0
 49
0.0
 49
0.0
 49
1.0
175
     0
142
0.0208333333333333
142
0.0
142
0.0
142
0.0
142
0.0
142
0.0208333333333333
142
0.0
142
0.0
142
0.0
142
0.0
142
1.0
142
0.0
142
0.0
142
0.0
142
0.0
142
1.0
179
     0
144
0.0208333333333333
144
0.0
144
0.0
144
0.0
144
0.0
144
0.0208333333333333
144
0.0
144
0.0
144
0.0
144
0.0
144
1.0
144
0.0
144
0.0
144
0.0
144
0.0
144
1.0
147
0.0208333333333333
147
0.0
147
0.0
147
0.0
147
0.0
147
0.0208333333333333
147
0.0
147
0.0
147
0.0
147
0.0
147
1.0
147
0.0
147
0.0
147
0.0
147
0.0
147
1.0
  0
MATERIAL
  5
FDD1
102
{ACAD_XDICTIONARY
360
FDD2
102
}
102
{ACAD_REACTORS
330
FDD0
102
}
330
FDD0
100
AcDbMaterial
  1
ByLayer
 72
     0
 43
0.0208333333333333
 43
0.0
 43
0.0
 43
0.0
 43
0.0
 43
0.0208333333333333
 43
0.0
 43
0.0
 43
0.0
 43
0.0
 43
1.0
 43
0.0
 43
0.0
 43
0.0
 43
0.0
 43
1.0
 77
     0
 47
0.0208333333333333
 47
0.0
 47
0.0
 47
0.0
 47
0.0
 47
0.0208333333333333
 47
0.0
 47
0.0
 47
0.0
 47
0.0
 47
1.0
 47
0.0
 47
0.0
 47
0.0
 47
0.0
 47
1.0
171
     0
 49
0.0208333333333333
 49
0.0
 49
0.0
 49
0.0
 49
0.0
 49
0.0208333333333333
 49
0.0
 49
0.0
 49
0.0
 49
0.0
 49
1.0
 49
0.0
 49
0.0
 49
0.0
 49
0.0
 49
1.0
175
     0
142
0.0208333333333333
142
0.0
142
0.0
142
0.0
142
0.0
142
0.0208333333333333
142
0.0
142
0.0
142
0.0
142
0.0
142
1.0
142
0.0
142
0.0
142
0.0
142
0.0
142
1.0
179
     0
144
0.0208333333333333
144
0.0
144
0.0
144
0.0
144
0.0
144
0.0208333333333333
144
0.0
144
0.0
144
0.0
144
0.0
144
1.0
144
0.0
144
0.0
144
0.0
144
0.0
144
1.0
147
0.0208333333333333
147
0.0
147
0.0
147
0.0
147
0.0
147
0.0208333333333333
147
0.0
147
0.0
147
0.0
147
0.0
147
1.0
147
0.0
147
0.0
147
0.0
147
0.0
147
1.0
  0
MATERIAL
  5
FDE1
102
{ACAD_XDICTIONARY
360
FDE2
102
}
102
{ACAD_REACTORS
330
FDD0
102
}
330
FDD0
100
AcDbMaterial
  1
Global
 72
     0
 43
0.0208333333333333
 43
0.0
 43
0.0
 43
0.0
 43
0.0
 43
0.0208333333333333
 43
0.0
 43
0.0
 43
0.0
 43
0.0
 43
1.0
 43
0.0
 43
0.0
 43
0.0
 43
0.0
 43
1.0
 77
     0
 47
0.0208333333333333
 47
0.0
 47
0.0
 47
0.0
 47
0.0
 47
0.0208333333333333
 47
0.0
 47
0.0
 47
0.0
 47
0.0
 47
1.0
 47
0.0
 47
0.0
 47
0.0
 47
0.0
 47
1.0
171
     0
 49
0.0208333333333333
 49
0.0
 49
0.0
 49
0.0
 49
0.0
 49
0.0208333333333333
 49
0.0
 49
0.0
 49
0.0
 49
0.0
 49
1.0
 49
0.0
 49
0.0
 49
0.0
 49
0.0
 49
1.0
175
     0
142
0.0208333333333333
142
0.0
142
0.0
142
0.0
142
0.0
142
0.0208333333333333
142
0.0
142
0.0
142
0.0
142
0.0
142
1.0
142
0.0
142
0.0
142
0.0
142
0.0
142
1.0
179
     0
144
0.0208333333333333
144
0.0
144
0.0
144
0.0
144
0.0
144
0.0208333333333333
144
0.0
144
0.0
144
0.0
144
0.0
144
1.0
144
0.0
144
0.0
144
0.0
144
0.0
144
1.0
147
0.0208333333333333
147
0.0
147
0.0
147
0.0
147
0.0
147
0.0208333333333333
147
0.0
147
0.0
147
0.0
147
0.0
147
1.0
147
0.0
147
0.0
147
0.0
147
0.0
147
1.0
  0
MLEADERSTYLE
  5
FE23
102
{ACAD_REACTORS
330
FE22
102
}
330
FE22
100
AcDbMLeaderStyle
170
     2
171
     1
172
     0
 90
        2
 40
0.0
 41
0.0
173
     1
 91
-1056964608
340
13
 92
       -2
290
     1
 42
0.09
291
     1
 43
0.36
  3
Standard
 44
0.18
300

342
11
174
     1
178
     6
175
     1
176
     0
 93
-1056964608
 45
0.18
292
     0
297
     0
 46
0.18
 94
-1056964608
 47
1.0
 49
1.0
140
1.0
293
     1
141
0.0
294
     1
177
     0
142
1.0
295
     0
296
     0
143
0.125
1001
ACAD_MLEADERVER
1070
     2
  0
MLINESTYLE
  5
17
102
{ACAD_REACTORS
330
16
102
}
330
16
100
AcDbMlineStyle
  2
STANDARD
 70
     0
  3

 62
   256
 51
90.0
 52
90.0
 71
     2
 49
0.5
 62
   256
  6
BYLAYER
 49
-0.5
 62
   256
  6
BYLAYER
  0
ACDBPLACEHOLDER
  5
F
102
{ACAD_REACTORS
330
E
102
}
330
E
  0
SCALE
  5
FE01
102
{ACAD_REACTORS
330
FE00
102
}
330
FE00
100
AcDbScale
 70
     0
300
1:1
140
1.0
141
1.0
290
     1
  0
SCALE
  5
FE02
102
{ACAD_REACTORS
330
FE00
102
}
330
FE00
100
AcDbScale
 70
     0
300
1:2
140
1.0
141
2.0
290
     0
  0
SCALE
  5
FE03
102
{ACAD_REACTORS
330
FE00
102
}
330
FE00
100
AcDbScale
 70
     0
300
1:4
140
1.0
141
4.0
290
     0
  0
SCALE
  5
FE04
102
{ACAD_REACTORS
330
FE00
102
}
330
FE00
100
AcDbScale
 70
     0
300
1:5
140
1.0
141
5.0
290
     0
  0
SCALE
  5
FE05
102
{ACAD_REACTORS
330
FE00
102
}
330
FE00
100
AcDbScale
 70
     0
300
1:8
140
1.0
141
8.0
290
     0
  0
SCALE
  5
FE06
102
{ACAD_REACTORS
330
FE00
102
}
330
FE00
100
AcDbScale
 70
     0
300
1:10
140
1.0
141
10.0
290
     0
  0
SCALE
  5
FE07
102
{ACAD_REACTORS
330
FE00
102
}
330
FE00
100
AcDbScale
 70
     0
300
1:16
140
1.0
141
16.0
290
     0
  0
SCALE
  5
FE08
102
{ACAD_REACTORS
330
FE00
102
}
330
FE00
100
AcDbScale
 70
     0
300
1:20
140
1.0
141
20.0
290
     0
  0
SCALE
  5
FE09
102
{ACAD_REACTORS
330
FE00
102
}
330
FE00
100
AcDbScale
 70
     0
300
1:30
140
1.0
141
30.0
290
     0
  0
SCALE
  5
FE0A
102
{ACAD_REACTORS
330
FE00
102
}
330
FE00
100
AcDbScale
 70
     0
300
1:40
140
1.0
141
40.0
290
     0
  0
SCALE
  5
FE0B
102
{ACAD_REACTORS
330
FE00
102
}
330
FE00
100
AcDbScale
 70
     0
300
1:50
140
1.0
141
50.0
290
     0
  0
SCALE
  5
FE0C
102
{ACAD_REACTORS
330
FE00
102
}
330
FE00
100
AcDbScale
 70
     0
300
1:100
140
1.0
141
100.0
290
     0
  0
SCALE
  5
FE0D
102
{ACAD_REACTORS
330
FE00
102
}
330
FE00
100
AcDbScale
 70
     0
300
2:1
140
2.0
141
1.0
290
     0
  0
SCALE
  5
FE0E
102
{ACAD_REACTORS
330
FE00
102
}
330
FE00
100
AcDbScale
 70
     0
300
4:1
140
4.0
141
1.0
290
     0
  0
SCALE
  5
FE0F
102
{ACAD_REACTORS
330
FE00
102
}
330
FE00
100
AcDbScale
 70
     0
300
8:1
140
8.0
141
1.0
290
     0
  0
SCALE
  5
FE10
102
{ACAD_REACTORS
330
FE00
102
}
330
FE00
100
AcDbScale
 70
     0
300
10:1
140
10.0
141
1.0
290
     0
  0
SCALE
  5
FE11
102
{ACAD_REACTORS
330
FE00
102
}
330
FE00
100
AcDbScale
 70
     0
300
100:1
140
100.0
141
1.0
290
     0
  0
SCALE
  5
FE12
102
{ACAD_REACTORS
330
FE00
102
}
330
FE00
100
AcDbScale
 70
     0
300
1/128" = 1'-0"
140
0.0078125
141
12.0
290
     0
  0
SCALE
  5
FE13
102
{ACAD_REACTORS
330
FE00
102
}
330
FE00
100
AcDbScale
 70
     0
300
1/64" = 1'-0"
140
0.015625
141
12.0
290
     0
  0
SCALE
  5
FE14
102
{ACAD_REACTORS
330
FE00
102
}
330
FE00
100
AcDbScale
 70
     0
300
1/32" = 1'-0"
140
0.03125
141
12.0
290
     0
  0
SCALE
  5
FE15
102
{ACAD_REACTORS
330
FE00
102
}
330
FE00
100
AcDbScale
 70
     0
300
1/16" = 1'-0"
140
0.0625
141
12.0
290
     0
  0
SCALE
  5
FE16
102
{ACAD_REACTORS
330
FE00
102
}
330
FE00
100
AcDbScale
 70
     0
300
3/32" = 1'-0"
140
0.09375
141
12.0
290
     0
  0
SCALE
  5
FE17
102
{ACAD_REACTORS
330
FE00
102
}
330
FE00
100
AcDbScale
 70
     0
300
1/8" = 1'-0"
140
0.125
141
12.0
290
     0
  0
SCALE
  5
FE18
102
{ACAD_REACTORS
330
FE00
102
}
330
FE00
100
AcDbScale
 70
     0
300
3/16" = 1'-0"
140
0.1875
141
12.0
290
     0
  0
SCALE
  5
FE19
102
{ACAD_REACTORS
330
FE00
102
}
330
FE00
100
AcDbScale
 70
     0
300
1/4" = 1'-0"
140
0.25
141
12.0
290
     0
  0
SCALE
  5
FE1A
102
{ACAD_REACTORS
330
FE00
102
}
330
FE00
100
AcDbScale
 70
     0
300
3/8" = 1'-0"
140
0.375
141
12.0
290
     0
  0
SCALE
  5
FE1B
102
{ACAD_REACTORS
330
FE00
102
}
330
FE00
100
AcDbScale
 70
     0
300
1/2" = 1'-0"
140
0.5
141
12.0
290
     0
  0
SCALE
  5
FE1C
102
{ACAD_REACTORS
330
FE00
102
}
330
FE00
100
AcDbScale
 70
     0
300
3/4" = 1'-0"
140
0.75
141
12.0
290
     0
  0
SCALE
  5
FE1D
102
{ACAD_REACTORS
330
FE00
102
}
330
FE00
100
AcDbScale
 70
     0
300
1" = 1'-0"
140
1.0
141
12.0
290
     0
  0
SCALE
  5
FE1E
102
{ACAD_REACTORS
330
FE00
102
}
330
FE00
100
AcDbScale
 70
     0
300
1-1/2" = 1'-0"
140
1.5
141
12.0
290
     0
  0
SCALE
  5
FE1F
102
{ACAD_REACTORS
330
FE00
102
}
330
FE00
100
AcDbScale
 70
     0
300
3" = 1'-0"
140
3.0
141
12.0
290
     0
  0
SCALE
  5
FE20
102
{ACAD_REACTORS
330
FE00
102
}
330
FE00
100
AcDbScale
 70
     0
300
6" = 1'-0"
140
6.0
141
12.0
290
     0
  0
SCALE
  5
FE21
102
{ACAD_REACTORS
330
FE00
102
}
330
FE00
100
AcDbScale
 70
     0
300
1'-0" = 1'-0"
140
12.0
141
12.0
290
     0
  0
TABLESTYLE
  5
FDFF
102
{ACAD_XDICTIONARY
360
FE4F
102
}
102
{ACAD_REACTORS
330
FDFE
102
}
330
FDFE
100
AcDbTableStyle
  3
Standard
 70
     0
 71
     0
 40
0.06
 41
0.06
280
     0
281
     0
  7
STANDARD
140
0.18
170
     2
 62
     0
 63
     7
283
     0
274
    -2
284
     1
 64
     0
275
    -2
285
     1
 65
     0
276
    -2
286
     1
 66
     0
277
    -2
287
     1
 67
     0
278
    -2
288
     1
 68
     0
279
    -2
289
     1
 69
     0
  7
STANDARD
140
0.25
170
     5
 62
     0
 63
     7
283
     0
274
    -2
284
     1
 64
     0
275
    -2
285
     1
 65
     0
276
    -2
286
     1
 66
     0
277
    -2
287
     1
 67
     0
278
    -2
288
     1
 68
     0
279
    -2
289
     1
 69
     0
  7
STANDARD
140
0.18
170
     5
 62
     0
 63
     7
283
     0
274
    -2
284
     1
 64
     0
275
    -2
285
     1
 65
     0
276
    -2
286
     1
 66
     0
277
    -2
287
     1
 67
     0
278
    -2
288
     1
 68
     0
279
    -2
289
     1
 69
     0
  0
VISUALSTYLE
  5
FDEF
102
{ACAD_XDICTIONARY
360
10841
102
}
102
{ACAD_REACTORS
330
FDE9
102
}
330
FDE9
100
AcDbVisualStyle
  2

 70
     4
 71
     0
 72
     2
 73
     0
 90
        0
 40
-0.6
 41
-30.0
 62
     5
 63
     7
 74
     1
 91
        4
 64
     7
 65
   257
 75
     1
175
     1
 42
1.0
 92
        0
 66
   257
 43
1.0
 76
     1
 77
     6
 78
     2
 67
     7
 79
     5
170
     0
171
     0
290
     0
174
     0
 93
        1
 44
0.0
173
     0
291
     0
 45
0.0
1001
ACAD
1000
AcDbSavedByObjectVersion
1070
     0
  0
VISUALSTYLE
  5
FDF1
102
{ACAD_XDICTIONARY
360
10845
102
}
102
{ACAD_REACTORS
330
FDE9
102
}
330
FDE9
100
AcDbVisualStyle
  2

 70
     6
 71
     1
 72
     2
 73
     2
 90
        0
 40
-0.6
 41
-30.0
 62
     5
 63
     7
 74
     2
 91
        2
 64
     7
 65
   257
 75
     2
175
     1
 42
179.0
 92
        0
 66
   257
 43
1.0
 76
     1
 77
     6
 78
     2
 67
     7
 79
     3
170
     0
171
     0
290
     0
174
     0
 93
        1
 44
0.0
173
     0
291
     0
 45
0.0
1001
ACAD
1000
AcDbSavedByObjectVersion
1070
     0
  0
VISUALSTYLE
  5
FDF0
102
{ACAD_XDICTIONARY
360
10843
102
}
102
{ACAD_REACTORS
330
FDE9
102
}
330
FDE9
100
AcDbVisualStyle
  2

 70
     5
 71
     0
 72
     2
 73
     0
 90
        0
 40
-0.6
 41
-30.0
 62
     5
 63
     7
 74
     1
 91
        4
 64
     7
 65
   257
 75
     1
175
     1
 42
1.0
 92
        0
 66
   257
 43
1.0
 76
     1
 77
     6
 78
     2
 67
     7
 79
     5
170
     0
171
     0
290
     0
174
     0
 93
        1
 44
0.0
173
     0
291
     0
 45
0.0
1001
ACAD
1000
AcDbSavedByObjectVersion
1070
     0
  0
VISUALSTYLE
  5
FDEE
102
{ACAD_XDICTIONARY
360
1083F
102
}
102
{ACAD_REACTORS
330
FDE9
102
}
330
FDE9
100
AcDbVisualStyle
  2

 70
     7
 71
     1
 72
     0
 73
     1
 90
        0
 40
-0.6
 41
-30.0
 62
     5
 63
     7
 74
     0
 91
        4
 64
     7
 65
   257
 75
     1
175
     1
 42
1.0
 92
        8
 66
     7
 43
1.0
 76
     1
 77
     6
 78
     2
 67
     7
 79
     5
170
     0
171
     0
290
     0
174
     0
 93
        1
 44
0.0
173
     0
291
     1
 45
0.0
1001
ACAD
1000
AcDbSavedByObjectVersion
1070
     0
  0
VISUALSTYLE
  5
FDF5
102
{ACAD_XDICTIONARY
360
1084D
102
}
102
{ACAD_REACTORS
330
FDE9
102
}
330
FDE9
100
AcDbVisualStyle
  2

 70
    12
 71
     2
 72
     2
 73
     0
 90
        0
 40
-0.6
 41
-30.0
 62
     5
 63
     7
 74
     1
 91
        4
 64
     7
 65
   257
 75
     1
175
     1
 42
1.0
 92
        8
 66
     7
 43
1.0
 76
     1
 77
     6
 78
     2
 67
     7
 79
     5
170
     0
171
     0
290
     0
174
     0
 93
        1
 44
50.0
173
     0
291
     1
 45
0.0
1001
ACAD
1000
AcDbSavedByObjectVersion
1070
     0
  0
VISUALSTYLE
  5
FDF9
102
{ACAD_XDICTIONARY
360
10855
102
}
102
{ACAD_REACTORS
330
FDE9
102
}
330
FDE9
100
AcDbVisualStyle
  2

 70
    16
 71
     2
 72
     2
 73
     3
 90
        0
 40
-0.6
 41
-30.0
 62
     5
 63
     8
 74
     1
 91
        4
 64
     7
 65
   257
 75
     1
175
     1
 42
1.0
 92
        8
 66
     8
 43
1.0
 76
     1
 77
     6
 78
     2
 67
     7
 79
     5
170
     0
171
     0
290
     0
174
     0
 93
        1
 44
0.0
173
     0
291
     1
 45
0.0
1001
ACAD
1000
AcDbSavedByObjectVersion
1070
     0
  0
VISUALSTYLE
  5
FDF2
102
{ACAD_XDICTIONARY
360
10847
102
}
102
{ACAD_REACTORS
330
FDE9
102
}
330
FDE9
100
AcDbVisualStyle
  2

 70
     9
 71
     3
 72
     2
 73
     0
 90
        0
 40
-0.6
 41
-30.0
 62
     5
 63
     7
 74
     2
 91
        2
 64
     7
 65
   257
 75
     1
175
     1
 42
179.0
 92
        8
 66
     7
 43
1.0
 76
     1
 77
     6
 78
     2
 67
     7
 79
     3
170
     0
171
     0
290
     0
174
     0
 93
        1
 44
0.0
173
     0
291
     0
 45
0.0
1001
ACAD
1000
AcDbSavedByObjectVersion
1070
     0
  0
VISUALSTYLE
  5
FDF4
102
{ACAD_XDICTIONARY
360
1084B
102
}
102
{ACAD_REACTORS
330
FDE9
102
}
330
FDE9
100
AcDbVisualStyle
  2

 70
    11
 71
     2
 72
     2
 73
     0
 90
        0
 40
-0.6
 41
-30.0
 62
     5
 63
     7
 74
     1
 91
        4
 64
     7
 65
   257
 75
     1
175
     1
 42
1.0
 92
        8
 66
     7
 43
1.0
 76
     1
 77
     6
 78
     2
 67
     7
 79
     5
170
     0
171
     0
290
     0
174
     0
 93
        1
 44
-50.0
173
     0
291
     1
 45
0.0
1001
ACAD
1000
AcDbSavedByObjectVersion
1070
     0
  0
VISUALSTYLE
  5
FDFC
102
{ACAD_XDICTIONARY
360
1085B
102
}
102
{ACAD_REACTORS
330
FDE9
102
}
330
FDE9
100
AcDbVisualStyle
  2

 70
    22
 71
     2
 72
     2
 73
     0
 90
        0
 40
-0.6
 41
-30.0
 62
     5
 63
     7
 74
     1
 91
        4
 64
     7
 65
   257
 75
     1
175
     1
 42
1.0
 92
        8
 66
     7
 43
1.0
 76
     1
 77
     6
 78
     2
 67
     7
 79
     5
170
     0
171
     0
290
     0
174
     0
 93
        1
 44
0.0
173
     0
291
     1
 45
0.0
1001
ACAD
1000
AcDbSavedByObjectVersion
1070
     0
  0
VISUALSTYLE
  5
FDF8
102
{ACAD_XDICTIONARY
360
10853
102
}
102
{ACAD_REACTORS
330
FDE9
102
}
330
FDE9
100
AcDbVisualStyle
  2

 70
    15
 71
     2
 72
     2
 73
     0
 90
        0
 40
-0.6
 41
-30.0
 62
     5
 63
     7
 74
     1
 91
        4
 64
     7
 65
   257
 75
     1
175
     1
 42
1.0
 92
        8
 66
     7
 43
1.0
 76
     1
 77
     6
 78
     2
 67
     7
 79
     5
170
     0
171
     0
290
     0
174
     0
 93
        1
 44
0.0
173
     0
291
     1
 45
0.0
1001
ACAD
1000
AcDbSavedByObjectVersion
1070
     0
  0
VISUALSTYLE
  5
FDEA
102
{ACAD_XDICTIONARY
360
10837
102
}
102
{ACAD_REACTORS
330
FDE9
102
}
330
FDE9
100
AcDbVisualStyle
  2

 70
     0
 71
     2
 72
     1
 73
     1
 90
        2
 40
-0.6
 41
30.0
 62
     5
 63
     7
 74
     0
 91
        4
 64
     7
 65
   257
 75
     1
175
     1
 42
1.0
 92
        8
 66
     7
 43
1.0
 76
     1
 77
     6
 78
     2
 67
     7
 79
     5
170
     0
171
     0
290
     0
174
     0
 93
       13
 44
0.0
173
     0
291
     1
 45
0.0
1001
ACAD
1000
AcDbSavedByObjectVersion
1070
     0
  0
VISUALSTYLE
  5
FDEB
102
{ACAD_XDICTIONARY
360
10839
102
}
102
{ACAD_REACTORS
330
FDE9
102
}
330
FDE9
100
AcDbVisualStyle
  2

 70
     1
 71
     2
 72
     1
 73
     1
 90
        2
 40
-0.6
 41
30.0
 62
     5
 63
     7
 74
     1
 91
        4
 64
     7
 65
   257
 75
     1
175
     1
 42
1.0
 92
        0
 66
   257
 43
1.0
 76
     1
 77
     6
 78
     2
 67
     7
 79
     5
170
     0
171
     0
290
     0
174
     0
 93
       13
 44
0.0
173
     0
291
     1
 45
0.0
1001
ACAD
1000
AcDbSavedByObjectVersion
1070
     0
  0
VISUALSTYLE
  5
FDEC
102
{ACAD_XDICTIONARY
360
1083B
102
}
102
{ACAD_REACTORS
330
FDE9
102
}
330
FDE9
100
AcDbVisualStyle
  2

 70
     2
 71
     2
 72
     2
 73
     1
 90
        2
 40
-0.6
 41
30.0
 62
     5
 63
     7
 74
     0
 91
        4
 64
     7
 65
   257
 75
     1
175
     1
 42
1.0
 92
        0
 66
     7
 43
1.0
 76
     1
 77
     6
 78
     2
 67
     7
 79
     5
170
     0
171
     0
290
     0
174
     0
 93
       13
 44
0.0
173
     0
291
     1
 45
0.0
1001
ACAD
1000
AcDbSavedByObjectVersion
1070
     0
  0
VISUALSTYLE
  5
FDED
102
{ACAD_XDICTIONARY
360
1083D
102
}
102
{ACAD_REACTORS
330
FDE9
102
}
330
FDE9
100
AcDbVisualStyle
  2

 70
     3
 71
     2
 72
     2
 73
     1
 90
        2
 40
-0.6
 41
30.0
 62
     5
 63
     7
 74
     1
 91
        4
 64
     7
 65
   257
 75
     1
175
     1
 42
1.0
 92
        0
 66
   257
 43
1.0
 76
     1
 77
     6
 78
     2
 67
     7
 79
     5
170
     0
171
     0
290
     0
174
     0
 93
       13
 44
0.0
173
     0
291
     1
 45
0.0
1001
ACAD
1000
AcDbSavedByObjectVersion
1070
     0
  0
VISUALSTYLE
  5
FDFA
102
{ACAD_XDICTIONARY
360
10857
102
}
102
{ACAD_REACTORS
330
FDE9
102
}
330
FDE9
100
AcDbVisualStyle
  2

 70
    20
 71
     2
 72
     2
 73
     0
 90
        0
 40
-0.6
 41
-30.0
 62
     5
 63
     7
 74
     1
 91
        4
 64
     7
 65
   257
 75
     1
175
     1
 42
1.0
 92
       10
 66
     7
 43
1.0
 76
     1
 77
     6
 78
     2
 67
     7
 79
     5
170
     0
171
     0
290
     0
174
     0
 93
        1
 44
0.0
173
     0
291
     1
 45
0.0
1001
ACAD
1000
AcDbSavedByObjectVersion
1070
     0
  0
VISUALSTYLE
  5
FDF7
102
{ACAD_XDICTIONARY
360
10851
102
}
102
{ACAD_REACTORS
330
FDE9
102
}
330
FDE9
100
AcDbVisualStyle
  2

 70
    14
 71
     2
 72
     2
 73
     0
 90
        0
 40
-0.6
 41
-30.0
 62
     5
 63
     7
 74
     1
 91
        4
 64
     7
 65
   257
 75
     7
175
     7
 42
1.0
 92
        8
 66
     7
 43
1.0
 76
     1
 77
     6
 78
     2
 67
     7
 79
     5
170
     0
171
     0
290
     0
174
     0
 93
        1
 44
0.0
173
     0
291
     1
 45
0.0
1001
ACAD
1000
AcDbSavedByObjectVersion
1070
     0
  0
VISUALSTYLE
  5
FDFB
102
{ACAD_XDICTIONARY
360
10859
102
}
102
{ACAD_REACTORS
330
FDE9
102
}
330
FDE9
100
AcDbVisualStyle
  2

 70
    21
 71
     2
 72
     2
 73
     0
 90
        0
 40
-0.6
 41
-30.0
 62
     5
 63
     7
 74
     1
 91
        4
 64
     7
 65
   257
 75
     1
175
     1
 42
1.0
 92
        9
 66
     7
 43
1.0
 76
     1
 77
     6
 78
     2
 67
     7
 79
     5
170
     0
171
     0
290
     0
174
     0
 93
        1
 44
0.0
173
     0
291
     1
 45
0.0
1001
ACAD
1000
AcDbSavedByObjectVersion
1070
     0
  0
VISUALSTYLE
  5
FDF3
102
{ACAD_XDICTIONARY
360
10849
102
}
102
{ACAD_REACTORS
330
FDE9
102
}
330
FDE9
100
AcDbVisualStyle
  2

 70
     8
 71
     2
 72
     2
 73
     0
 90
        0
 40
-0.6
 41
-30.0
 62
     5
 63
     7
 74
     1
 91
        0
 64
     7
 65
   257
 75
     1
175
     1
 42
1.0
 92
        8
 66
     8
 43
1.0
 76
     1
 77
     6
 78
     2
 67
     7
 79
     5
170
     0
171
     0
290
     0
174
     0
 93
       13
 44
0.0
173
     0
291
     0
 45
0.0
1001
ACAD
1000
AcDbSavedByObjectVersion
1070
     0
  0
VISUALSTYLE
  5
FDF6
102
{ACAD_XDICTIONARY
360
1084F
102
}
102
{ACAD_REACTORS
330
FDE9
102
}
330
FDE9
100
AcDbVisualStyle
  2

 70
    13
 71
     2
 72
     2
 73
     0
 90
        0
 40
-0.6
 41
-30.0
 62
     5
 63
     7
 74
     1
 91
        4
 64
     7
 65
   257
 75
     1
175
     1
 42
1.0
 92
       12
 66
     7
 43
1.0
 76
     1
 77
     6
 78
     2
 67
     7
 79
     5
170
     0
171
     0
290
     0
174
     0
 93
        1
 44
0.0
173
     0
291
     1
 45
0.0
1001
ACAD
1000
AcDbSavedByObjectVersion
1070
     0
  0
DICTIONARYVAR
  5
FE96
102
{ACAD_REACTORS
330
5697
102
}
330
5697
100
DictionaryVariables
280
     0
  1
1:1
  0
DICTIONARYVAR
  5
FE95
102
{ACAD_REACTORS
330
5697
102
}
330
5697
100
DictionaryVariables
280
     0
  1
STANDARD
  0
DICTIONARYVAR
  5
FE94
102
{ACAD_REACTORS
330
5697
102
}
330
5697
100
DictionaryVariables
280
     0
  1
STANDARD
  0
DICTIONARYVAR
  5
5698
102
{ACAD_REACTORS
330
5697
102
}
330
5697
100
DictionaryVariables
280
     0
  1
1
  0
DICTIONARYVAR
  5
FE98
102
{ACAD_REACTORS
330
5697
102
}
330
5697
100
DictionaryVariables
280
     0
  1
0
  0
DICTIONARYVAR
  5
FE97
102
{ACAD_REACTORS
330
5697
102
}
330
5697
100
DictionaryVariables
280
     0
  1
127
  0
DICTIONARYVAR
  5
10825
102
{ACAD_REACTORS
330
5697
102
}
330
5697
100
DictionaryVariables
280
     0
  1
2
  0
XRECORD
  5
10779
102
{ACAD_REACTORS
330
10778
102
}
330
10778
100
AcDbXrecord
280
     1
330
1049A
330
1049B
330
104A3
330
104A4
330
104AC
330
104AD
330
104B5
330
104B6
330
E1CD
330
E1CE
330
104C7
330
104C8
330
104BE
330
104BF
330
104D9
330
104DA
330
104D0
330
104D1
330
104E2
330
104E3
330
104EC
330
104ED
330
104F5
330
104F6
330
104FE
330
104FF
330
10507
330
10508
330
10510
330
10511
330
FD4B
330
FD4C
330
FCEF
330
FCF0
330
FCF8
330
FCF9
330
FD01
330
FD02
330
FD0A
330
FD0B
330
FD13
330
FD14
330
FD1C
330
FD1D
330
FD30
330
FD31
330
FD39
330
FD3A
330
FCE6
330
FCE7
330
FD5D
330
FD5E
330
10519
330
1051A
330
10522
330
10523
330
1052B
330
1052C
330
FEC5
330
FEC6
330
100CE
330
100CF
330
10754
330
1075B
330
1075C
330
10764
330
10765
  0
DICTIONARY
  5
1082B
330
904E
100
AcDbDictionary
280
     1
281
     1
  3
ACAD_XREC_ROUNDTRIP
360
1082C
  0
DICTIONARY
  5
1082D
330
904F
100
AcDbDictionary
280
     1
281
     1
  3
ACAD_XREC_ROUNDTRIP
360
1082E
  0
DICTIONARY
  5
FDDA
330
FDD9
100
AcDbDictionary
280
     1
281
     1
  3
ACAD_XREC_ROUNDTRIP
360
106D1
  3
BUMPTILE
360
FDDC
  3
DIFFUSETILE
360
FDDB
  3
OPACITYTILE
360
FDDF
  3
REFLECTIONTILE
360
FDDE
  3
REFRACTIONTILE
360
FDE0
  3
SPECULARTILE
360
FDDD
  0
DICTIONARY
  5
FDD2
330
FDD1
100
AcDbDictionary
280
     1
281
     1
  3
ACAD_XREC_ROUNDTRIP
360
106D0
  3
BUMPTILE
360
FDD4
  3
DIFFUSETILE
360
FDD3
  3
OPACITYTILE
360
FDD7
  3
REFLECTIONTILE
360
FDD6
  3
REFRACTIONTILE
360
FDD8
  3
SPECULARTILE
360
FDD5
  0
DICTIONARY
  5
FDE2
330
FDE1
100
AcDbDictionary
280
     1
281
     1
  3
ACAD_XREC_ROUNDTRIP
360
106D2
  3
BUMPTILE
360
FDE4
  3
DIFFUSETILE
360
FDE3
  3
OPACITYTILE
360
FDE7
  3
REFLECTIONTILE
360
FDE6
  3
REFRACTIONTILE
360
FDE8
  3
SPECULARTILE
360
FDE5
  0
DICTIONARY
  5
FE4F
330
FDFF
100
AcDbDictionary
280
     1
281
     1
  3
ACAD_ROUNDTRIP_2008_TABLESTYLE_CELLSTYLEMAP
360
10826
  3
ACAD_XREC_ROUNDTRIP
360
1085D
  0
DICTIONARY
  5
10841
330
FDEF
100
AcDbDictionary
280
     1
281
     1
  3
ACAD_XREC_ROUNDTRIP
360
10842
  0
DICTIONARY
  5
10845
330
FDF1
100
AcDbDictionary
280
     1
281
     1
  3
ACAD_XREC_ROUNDTRIP
360
10846
  0
DICTIONARY
  5
10843
330
FDF0
100
AcDbDictionary
280
     1
281
     1
  3
ACAD_XREC_ROUNDTRIP
360
10844
  0
DICTIONARY
  5
1083F
330
FDEE
100
AcDbDictionary
280
     1
281
     1
  3
ACAD_XREC_ROUNDTRIP
360
10840
  0
DICTIONARY
  5
1084D
330
FDF5
100
AcDbDictionary
280
     1
281
     1
  3
ACAD_XREC_ROUNDTRIP
360
1084E
  0
DICTIONARY
  5
10855
330
FDF9
100
AcDbDictionary
280
     1
281
     1
  3
ACAD_XREC_ROUNDTRIP
360
10856
  0
DICTIONARY
  5
10847
330
FDF2
100
AcDbDictionary
280
     1
281
     1
  3
ACAD_XREC_ROUNDTRIP
360
10848
  0
DICTIONARY
  5
1084B
330
FDF4
100
AcDbDictionary
280
     1
281
     1
  3
ACAD_XREC_ROUNDTRIP
360
1084C
  0
DICTIONARY
  5
1085B
330
FDFC
100
AcDbDictionary
280
     1
281
     1
  3
ACAD_XREC_ROUNDTRIP
360
1085C
  0
DICTIONARY
  5
10853
330
FDF8
100
AcDbDictionary
280
     1
281
     1
  3
ACAD_XREC_ROUNDTRIP
360
10854
  0
DICTIONARY
  5
10837
330
FDEA
100
AcDbDictionary
280
     1
281
     1
  3
ACAD_XREC_ROUNDTRIP
360
10838
  0
DICTIONARY
  5
10839
330
FDEB
100
AcDbDictionary
280
     1
281
     1
  3
ACAD_XREC_ROUNDTRIP
360
1083A
  0
DICTIONARY
  5
1083B
330
FDEC
100
AcDbDictionary
280
     1
281
     1
  3
ACAD_XREC_ROUNDTRIP
360
1083C
  0
DICTIONARY
  5
1083D
330
FDED
100
AcDbDictionary
280
     1
281
     1
  3
ACAD_XREC_ROUNDTRIP
360
1083E
  0
DICTIONARY
  5
10857
330
FDFA
100
AcDbDictionary
280
     1
281
     1
  3
ACAD_XREC_ROUNDTRIP
360
10858
  0
DICTIONARY
  5
10851
330
FDF7
100
AcDbDictionary
280
     1
281
     1
  3
ACAD_XREC_ROUNDTRIP
360
10852
  0
DICTIONARY
  5
10859
330
FDFB
100
AcDbDictionary
280
     1
281
     1
  3
ACAD_XREC_ROUNDTRIP
360
1085A
  0
DICTIONARY
  5
10849
330
FDF3
100
AcDbDictionary
280
     1
281
     1
  3
ACAD_XREC_ROUNDTRIP
360
1084A
  0
DICTIONARY
  5
1084F
330
FDF6
100
AcDbDictionary
280
     1
281
     1
  3
ACAD_XREC_ROUNDTRIP
360
10850
  0
XRECORD
  5
1082C
102
{ACAD_REACTORS
330
1082B
102
}
330
1082B
100
AcDbXrecord
280
     1
102
SHADEPLOT
 70
     0
102
SHADEPLOTRESLEVEL
 70
     2
102
SHADEPLOTCUSTOMDPI
 70
   300
  0
XRECORD
  5
1082E
102
{ACAD_REACTORS
330
1082D
102
}
330
1082D
100
AcDbXrecord
280
     1
102
SHADEPLOT
 70
     0
102
SHADEPLOTRESLEVEL
 70
     2
102
SHADEPLOTCUSTOMDPI
 70
   300
  0
XRECORD
  5
106D1
102
{ACAD_REACTORS
330
FDDA
102
}
330
FDDA
100
AcDbXrecord
280
     1
102
MATERIAL
148
0.0
149
0.0
149
0.0
 93
        0
 94
      127
282
     0
 72
     0
 77
     0
171
     0
175
     0
179
     0
273
     0
  0
XRECORD
  5
FDDC
102
{ACAD_REACTORS
330
FDDA
102
}
330
FDDA
100
AcDbXrecord
280
     1
270
     1
271
     1
  0
XRECORD
  5
FDDB
102
{ACAD_REACTORS
330
FDDA
102
}
330
FDDA
100
AcDbXrecord
280
     1
270
     1
271
     1
  0
XRECORD
  5
FDDF
102
{ACAD_REACTORS
330
FDDA
102
}
330
FDDA
100
AcDbXrecord
280
     1
270
     1
271
     1
  0
XRECORD
  5
FDDE
102
{ACAD_REACTORS
330
FDDA
102
}
330
FDDA
100
AcDbXrecord
280
     1
270
     1
271
     1
  0
XRECORD
  5
FDE0
102
{ACAD_REACTORS
330
FDDA
102
}
330
FDDA
100
AcDbXrecord
280
     1
270
     1
271
     1
  0
XRECORD
  5
FDDD
102
{ACAD_REACTORS
330
FDDA
102
}
330
FDDA
100
AcDbXrecord
280
     1
270
     1
271
     1
  0
XRECORD
  5
106D0
102
{ACAD_REACTORS
330
FDD2
102
}
330
FDD2
100
AcDbXrecord
280
     1
102
MATERIAL
148
0.0
149
0.0
149
0.0
 93
        0
 94
      127
282
     0
 72
     0
 77
     0
171
     0
175
     0
179
     0
273
     0
  0
XRECORD
  5
FDD4
102
{ACAD_REACTORS
330
FDD2
102
}
330
FDD2
100
AcDbXrecord
280
     1
270
     1
271
     1
  0
XRECORD
  5
FDD3
102
{ACAD_REACTORS
330
FDD2
102
}
330
FDD2
100
AcDbXrecord
280
     1
270
     1
271
     1
  0
XRECORD
  5
FDD7
102
{ACAD_REACTORS
330
FDD2
102
}
330
FDD2
100
AcDbXrecord
280
     1
270
     1
271
     1
  0
XRECORD
  5
FDD6
102
{ACAD_REACTORS
330
FDD2
102
}
330
FDD2
100
AcDbXrecord
280
     1
270
     1
271
     1
  0
XRECORD
  5
FDD8
102
{ACAD_REACTORS
330
FDD2
102
}
330
FDD2
100
AcDbXrecord
280
     1
270
     1
271
     1
  0
XRECORD
  5
FDD5
102
{ACAD_REACTORS
330
FDD2
102
}
330
FDD2
100
AcDbXrecord
280
     1
270
     1
271
     1
  0
XRECORD
  5
106D2
102
{ACAD_REACTORS
330
FDE2
102
}
330
FDE2
100
AcDbXrecord
280
     1
102
MATERIAL
148
0.0
149
0.0
149
0.0
 93
        0
 94
      127
282
     0
 72
     0
 77
     0
171
     0
175
     0
179
     0
273
     0
  0
XRECORD
  5
FDE4
102
{ACAD_REACTORS
330
FDE2
102
}
330
FDE2
100
AcDbXrecord
280
     1
270
     1
271
     1
  0
XRECORD
  5
FDE3
102
{ACAD_REACTORS
330
FDE2
102
}
330
FDE2
100
AcDbXrecord
280
     1
270
     1
271
     1
  0
XRECORD
  5
FDE7
102
{ACAD_REACTORS
330
FDE2
102
}
330
FDE2
100
AcDbXrecord
280
     1
270
     1
271
     1
  0
XRECORD
  5
FDE6
102
{ACAD_REACTORS
330
FDE2
102
}
330
FDE2
100
AcDbXrecord
280
     1
270
     1
271
     1
  0
XRECORD
  5
FDE8
102
{ACAD_REACTORS
330
FDE2
102
}
330
FDE2
100
AcDbXrecord
280
     1
270
     1
271
     1
  0
XRECORD
  5
FDE5
102
{ACAD_REACTORS
330
FDE2
102
}
330
FDE2
100
AcDbXrecord
280
     1
270
     1
271
     1
  0
CELLSTYLEMAP
  5
10826
102
{ACAD_REACTORS
330
FE4F
102
}
330
FE4F
100
AcDbCellStyleMap
 90
        3
300
CELLSTYLE
  1
TABLEFORMAT_BEGIN
 90
        5
170
     1
 91
        0
 92
    32768
 62
   257
 93
        1
300
CONTENTFORMAT
  1
CONTENTFORMAT_BEGIN
 90
        0
 91
        0
 92
      512
 93
        0
300

 40
0.0
140
1.0
 94
        5
 62
     0
340
11
144
0.25
309
CONTENTFORMAT_END
171
     1
301
MARGIN
  1
CELLMARGIN_BEGIN
 40
0.06
 40
0.06
 40
0.06
 40
0.06
 40
0.18
 40
0.18
309
CELLMARGIN_END
 94
        6
 95
        1
302
GRIDFORMAT
  1
GRIDFORMAT_BEGIN
 90
        0
 91
        1
 62
     0
 92
       -2
340
0
 93
        0
 40
0.045
309
GRIDFORMAT_END
 95
        2
302
GRIDFORMAT
  1
GRIDFORMAT_BEGIN
 90
        0
 91
        1
 62
     0
 92
       -2
340
0
 93
        0
 40
0.045
309
GRIDFORMAT_END
 95
        4
302
GRIDFORMAT
  1
GRIDFORMAT_BEGIN
 90
        0
 91
        1
 62
     0
 92
       -2
340
0
 93
        0
 40
0.045
309
GRIDFORMAT_END
 95
        8
302
GRIDFORMAT
  1
GRIDFORMAT_BEGIN
 90
        0
 91
        1
 62
     0
 92
       -2
340
0
 93
        0
 40
0.045
309
GRIDFORMAT_END
 95
       16
302
GRIDFORMAT
  1
GRIDFORMAT_BEGIN
 90
        0
 91
        1
 62
     0
 92
       -2
340
0
 93
        0
 40
0.045
309
GRIDFORMAT_END
 95
       32
302
GRIDFORMAT
  1
GRIDFORMAT_BEGIN
 90
        0
 91
        1
 62
     0
 92
       -2
340
0
 93
        0
 40
0.045
309
GRIDFORMAT_END
309
TABLEFORMAT_END
  1
CELLSTYLE_BEGIN
 90
        1
 91
        1
300
_TITLE
309
CELLSTYLE_END
300
CELLSTYLE
  1
TABLEFORMAT_BEGIN
 90
        5
170
     1
 91
        0
 92
        0
 62
   257
 93
        1
300
CONTENTFORMAT
  1
CONTENTFORMAT_BEGIN
 90
        0
 91
        0
 92
      512
 93
        0
300

 40
0.0
140
1.0
 94
        5
 62
     0
340
11
144
0.18
309
CONTENTFORMAT_END
171
     1
301
MARGIN
  1
CELLMARGIN_BEGIN
 40
0.06
 40
0.06
 40
0.06
 40
0.06
 40
0.18
 40
0.18
309
CELLMARGIN_END
 94
        6
 95
        1
302
GRIDFORMAT
  1
GRIDFORMAT_BEGIN
 90
        0
 91
        1
 62
     0
 92
       -2
340
0
 93
        0
 40
0.045
309
GRIDFORMAT_END
 95
        2
302
GRIDFORMAT
  1
GRIDFORMAT_BEGIN
 90
        0
 91
        1
 62
     0
 92
       -2
340
0
 93
        0
 40
0.045
309
GRIDFORMAT_END
 95
        4
302
GRIDFORMAT
  1
GRIDFORMAT_BEGIN
 90
        0
 91
        1
 62
     0
 92
       -2
340
0
 93
        0
 40
0.045
309
GRIDFORMAT_END
 95
        8
302
GRIDFORMAT
  1
GRIDFORMAT_BEGIN
 90
        0
 91
        1
 62
     0
 92
       -2
340
0
 93
        0
 40
0.045
309
GRIDFORMAT_END
 95
       16
302
GRIDFORMAT
  1
GRIDFORMAT_BEGIN
 90
        0
 91
        1
 62
     0
 92
       -2
340
0
 93
        0
 40
0.045
309
GRIDFORMAT_END
 95
       32
302
GRIDFORMAT
  1
GRIDFORMAT_BEGIN
 90
        0
 91
        1
 62
     0
 92
       -2
340
0
 93
        0
 40
0.045
309
GRIDFORMAT_END
309
TABLEFORMAT_END
  1
CELLSTYLE_BEGIN
 90
        2
 91
        1
300
_HEADER
309
CELLSTYLE_END
300
CELLSTYLE
  1
TABLEFORMAT_BEGIN
 90
        5
170
     1
 91
        0
 92
        0
 62
   257
 93
        1
300
CONTENTFORMAT
  1
CONTENTFORMAT_BEGIN
 90
        0
 91
        0
 92
      512
 93
        0
300

 40
0.0
140
1.0
 94
        2
 62
     0
340
11
144
0.18
309
CONTENTFORMAT_END
171
     1
301
MARGIN
  1
CELLMARGIN_BEGIN
 40
0.06
 40
0.06
 40
0.06
 40
0.06
 40
0.18
 40
0.18
309
CELLMARGIN_END
 94
        6
 95
        1
302
GRIDFORMAT
  1
GRIDFORMAT_BEGIN
 90
        0
 91
        1
 62
     0
 92
       -2
340
0
 93
        0
 40
0.045
309
GRIDFORMAT_END
 95
        2
302
GRIDFORMAT
  1
GRIDFORMAT_BEGIN
 90
        0
 91
        1
 62
     0
 92
       -2
340
0
 93
        0
 40
0.045
309
GRIDFORMAT_END
 95
        4
302
GRIDFORMAT
  1
GRIDFORMAT_BEGIN
 90
        0
 91
        1
 62
     0
 92
       -2
340
0
 93
        0
 40
0.045
309
GRIDFORMAT_END
 95
        8
302
GRIDFORMAT
  1
GRIDFORMAT_BEGIN
 90
        0
 91
        1
 62
     0
 92
       -2
340
0
 93
        0
 40
0.045
309
GRIDFORMAT_END
 95
       16
302
GRIDFORMAT
  1
GRIDFORMAT_BEGIN
 90
        0
 91
        1
 62
     0
 92
       -2
340
0
 93
        0
 40
0.045
309
GRIDFORMAT_END
 95
       32
302
GRIDFORMAT
  1
GRIDFORMAT_BEGIN
 90
        0
 91
        1
 62
     0
 92
       -2
340
0
 93
        0
 40
0.045
309
GRIDFORMAT_END
309
TABLEFORMAT_END
  1
CELLSTYLE_BEGIN
 90
        3
 91
        2
300
_DATA
309
CELLSTYLE_END
  0
XRECORD
  5
1085D
102
{ACAD_REACTORS
330
FE4F
102
}
330
FE4F
100
AcDbXrecord
280
     1
102
ACAD_ROUNDTRIP_PRE2007_TABLESTYLE
 90
      512
 91
        0
  1

 92
      512
 93
        0
  2

 94
      512
 95
        0
  3

  0
XRECORD
  5
10842
102
{ACAD_REACTORS
330
10841
102
}
330
10841
100
AcDbXrecord
280
     1
102
RTVSPropertyOp0
 70
     1
102
RTVSPropertyOp1
 70
     1
102
RTVSPropertyOp2
 70
     1
102
RTVSPropertyOp3
 70
     1
102
RTVSPropertyOp4
 70
     1
102
RTVSPropertyOp5
 70
     1
102
RTVSPropertyOp6
 70
     1
102
RTVSPropertyOp7
 70
     1
102
RTVSPropertyOp8
 70
     1
102
RTVSPropertyOp9
 70
     1
102
RTVSPropertyOp10
 70
     1
102
RTVSPropertyOp11
 70
     1
102
RTVSPropertyOp12
 70
     1
102
RTVSPropertyOp13
 70
     1
102
RTVSPropertyOp14
 70
     1
102
RTVSPropertyOp15
 70
     1
102
RTVSPropertyOp16
 70
     1
102
RTVSPropertyOp17
 70
     1
102
RTVSPropertyOp18
 70
     1
102
RTVSPropertyOp19
 70
     1
102
RTVSPropertyOp20
 70
     1
102
RTVSPropertyOp21
 70
     1
102
RTVSPropertyOp22
 70
     1
102
RTVSPropertyOp23
 70
     1
102
RTVSPropertyOp24
 70
     1
102
RTVSPropertyOp25
 70
     1
102
RTVSPropertyOp26
 70
     1
102
RTVSPropertyOp27
 70
     1
  0
XRECORD
  5
10846
102
{ACAD_REACTORS
330
10845
102
}
330
10845
100
AcDbXrecord
280
     1
102
RTVSPropertyOp0
 70
     1
102
RTVSPropertyOp1
 70
     1
102
RTVSPropertyOp2
 70
     1
102
RTVSPropertyOp3
 70
     1
102
RTVSPropertyOp4
 70
     1
102
RTVSPropertyOp5
 70
     1
102
RTVSPropertyOp6
 70
     1
102
RTVSPropertyOp7
 70
     1
102
RTVSPropertyOp8
 70
     1
102
RTVSPropertyOp9
 70
     1
102
RTVSPropertyOp10
 70
     1
102
RTVSPropertyOp11
 70
     1
102
RTVSPropertyOp12
 70
     1
102
RTVSPropertyOp13
 70
     1
102
RTVSPropertyOp14
 70
     1
102
RTVSPropertyOp15
 70
     1
102
RTVSPropertyOp16
 70
     1
102
RTVSPropertyOp17
 70
     1
102
RTVSPropertyOp18
 70
     1
102
RTVSPropertyOp19
 70
     1
102
RTVSPropertyOp20
 70
     1
102
RTVSPropertyOp21
 70
     1
102
RTVSPropertyOp22
 70
     1
102
RTVSPropertyOp23
 70
     1
102
RTVSPropertyOp24
 70
     1
102
RTVSPropertyOp25
 70
     1
102
RTVSPropertyOp26
 70
     1
102
RTVSPropertyOp27
 70
     1
  0
XRECORD
  5
10844
102
{ACAD_REACTORS
330
10843
102
}
330
10843
100
AcDbXrecord
280
     1
102
RTVSPropertyOp0
 70
     1
102
RTVSPropertyOp1
 70
     1
102
RTVSPropertyOp2
 70
     1
102
RTVSPropertyOp3
 70
     1
102
RTVSPropertyOp4
 70
     1
102
RTVSPropertyOp5
 70
     1
102
RTVSPropertyOp6
 70
     1
102
RTVSPropertyOp7
 70
     1
102
RTVSPropertyOp8
 70
     1
102
RTVSPropertyOp9
 70
     1
102
RTVSPropertyOp10
 70
     1
102
RTVSPropertyOp11
 70
     1
102
RTVSPropertyOp12
 70
     1
102
RTVSPropertyOp13
 70
     1
102
RTVSPropertyOp14
 70
     1
102
RTVSPropertyOp15
 70
     1
102
RTVSPropertyOp16
 70
     1
102
RTVSPropertyOp17
 70
     1
102
RTVSPropertyOp18
 70
     1
102
RTVSPropertyOp19
 70
     1
102
RTVSPropertyOp20
 70
     1
102
RTVSPropertyOp21
 70
     1
102
RTVSPropertyOp22
 70
     1
102
RTVSPropertyOp23
 70
     1
102
RTVSPropertyOp24
 70
     1
102
RTVSPropertyOp25
 70
     1
102
RTVSPropertyOp26
 70
     1
102
RTVSPropertyOp27
 70
     1
  0
XRECORD
  5
10840
102
{ACAD_REACTORS
330
1083F
102
}
330
1083F
100
AcDbXrecord
280
     1
102
RTVSPropertyOp0
 70
     1
102
RTVSPropertyOp1
 70
     1
102
RTVSPropertyOp2
 70
     1
102
RTVSPropertyOp3
 70
     1
102
RTVSPropertyOp4
 70
     1
102
RTVSPropertyOp5
 70
     1
102
RTVSPropertyOp6
 70
     1
102
RTVSPropertyOp7
 70
     1
102
RTVSPropertyOp8
 70
     1
102
RTVSPropertyOp9
 70
     1
102
RTVSPropertyOp10
 70
     1
102
RTVSPropertyOp11
 70
     1
102
RTVSPropertyOp12
 70
     1
102
RTVSPropertyOp13
 70
     1
102
RTVSPropertyOp14
 70
     1
102
RTVSPropertyOp15
 70
     1
102
RTVSPropertyOp16
 70
     1
102
RTVSPropertyOp17
 70
     1
102
RTVSPropertyOp18
 70
     1
102
RTVSPropertyOp19
 70
     1
102
RTVSPropertyOp20
 70
     1
102
RTVSPropertyOp21
 70
     1
102
RTVSPropertyOp22
 70
     1
102
RTVSPropertyOp23
 70
     1
102
RTVSPropertyOp24
 70
     1
102
RTVSPropertyOp25
 70
     1
102
RTVSPropertyOp26
 70
     1
102
RTVSPropertyOp27
 70
     1
  0
XRECORD
  5
1084E
102
{ACAD_REACTORS
330
1084D
102
}
330
1084D
100
AcDbXrecord
280
     1
102
RTVSPropertyOp0
 70
     1
102
RTVSPropertyOp1
 70
     1
102
RTVSPropertyOp2
 70
     1
102
RTVSPropertyOp3
 70
     1
102
RTVSPropertyOp4
 70
     1
102
RTVSPropertyOp5
 70
     1
102
RTVSPropertyOp6
 70
     1
102
RTVSPropertyOp7
 70
     1
102
RTVSPropertyOp8
 70
     1
102
RTVSPropertyOp9
 70
     1
102
RTVSPropertyOp10
 70
     1
102
RTVSPropertyOp11
 70
     1
102
RTVSPropertyOp12
 70
     1
102
RTVSPropertyOp13
 70
     1
102
RTVSPropertyOp14
 70
     1
102
RTVSPropertyOp15
 70
     1
102
RTVSPropertyOp16
 70
     1
102
RTVSPropertyOp17
 70
     1
102
RTVSPropertyOp18
 70
     1
102
RTVSPropertyOp19
 70
     1
102
RTVSPropertyOp20
 70
     1
102
RTVSPropertyOp21
 70
     1
102
RTVSPropertyOp22
 70
     1
102
RTVSPropertyOp23
 70
     1
102
RTVSPropertyOp24
 70
     1
102
RTVSPropertyOp25
 70
     1
102
RTVSPropertyOp26
 70
     1
102
RTVSPropertyOp27
 70
     1
  0
XRECORD
  5
10856
102
{ACAD_REACTORS
330
10855
102
}
330
10855
100
AcDbXrecord
280
     1
102
RTVSPropertyOp0
 70
     1
102
RTVSPropertyOp1
 70
     1
102
RTVSPropertyOp2
 70
     1
102
RTVSPropertyOp3
 70
     1
102
RTVSPropertyOp4
 70
     1
102
RTVSPropertyOp5
 70
     1
102
RTVSPropertyOp6
 70
     1
102
RTVSPropertyOp7
 70
     1
102
RTVSPropertyOp8
 70
     1
102
RTVSPropertyOp9
 70
     1
102
RTVSPropertyOp10
 70
     1
102
RTVSPropertyOp11
 70
     1
102
RTVSPropertyOp12
 70
     1
102
RTVSPropertyOp13
 70
     1
102
RTVSPropertyOp14
 70
     1
102
RTVSPropertyOp15
 70
     1
102
RTVSPropertyOp16
 70
     1
102
RTVSPropertyOp17
 70
     1
102
RTVSPropertyOp18
 70
     1
102
RTVSPropertyOp19
 70
     1
102
RTVSPropertyOp20
 70
     1
102
RTVSPropertyOp21
 70
     1
102
RTVSPropertyOp22
 70
     1
102
RTVSPropertyOp23
 70
     1
102
RTVSPropertyOp24
 70
     1
102
RTVSPropertyOp25
 70
     1
102
RTVSPropertyOp26
 70
     1
102
RTVSPropertyOp27
 70
     1
  0
XRECORD
  5
10848
102
{ACAD_REACTORS
330
10847
102
}
330
10847
100
AcDbXrecord
280
     1
102
RTVSPropertyOp0
 70
     1
102
RTVSPropertyOp1
 70
     1
102
RTVSPropertyOp2
 70
     1
102
RTVSPropertyOp3
 70
     1
102
RTVSPropertyOp4
 70
     1
102
RTVSPropertyOp5
 70
     1
102
RTVSPropertyOp6
 70
     1
102
RTVSPropertyOp7
 70
     1
102
RTVSPropertyOp8
 70
     1
102
RTVSPropertyOp9
 70
     1
102
RTVSPropertyOp10
 70
     1
102
RTVSPropertyOp11
 70
     1
102
RTVSPropertyOp12
 70
     1
102
RTVSPropertyOp13
 70
     1
102
RTVSPropertyOp14
 70
     1
102
RTVSPropertyOp15
 70
     1
102
RTVSPropertyOp16
 70
     1
102
RTVSPropertyOp17
 70
     1
102
RTVSPropertyOp18
 70
     1
102
RTVSPropertyOp19
 70
     1
102
RTVSPropertyOp20
 70
     1
102
RTVSPropertyOp21
 70
     1
102
RTVSPropertyOp22
 70
     1
102
RTVSPropertyOp23
 70
     1
102
RTVSPropertyOp24
 70
     1
102
RTVSPropertyOp25
 70
     1
102
RTVSPropertyOp26
 70
     1
102
RTVSPropertyOp27
 70
     1
  0
XRECORD
  5
1084C
102
{ACAD_REACTORS
330
1084B
102
}
330
1084B
100
AcDbXrecord
280
     1
102
RTVSPropertyOp0
 70
     1
102
RTVSPropertyOp1
 70
     1
102
RTVSPropertyOp2
 70
     1
102
RTVSPropertyOp3
 70
     1
102
RTVSPropertyOp4
 70
     1
102
RTVSPropertyOp5
 70
     1
102
RTVSPropertyOp6
 70
     1
102
RTVSPropertyOp7
 70
     1
102
RTVSPropertyOp8
 70
     1
102
RTVSPropertyOp9
 70
     1
102
RTVSPropertyOp10
 70
     1
102
RTVSPropertyOp11
 70
     1
102
RTVSPropertyOp12
 70
     1
102
RTVSPropertyOp13
 70
     1
102
RTVSPropertyOp14
 70
     1
102
RTVSPropertyOp15
 70
     1
102
RTVSPropertyOp16
 70
     1
102
RTVSPropertyOp17
 70
     1
102
RTVSPropertyOp18
 70
     1
102
RTVSPropertyOp19
 70
     1
102
RTVSPropertyOp20
 70
     1
102
RTVSPropertyOp21
 70
     1
102
RTVSPropertyOp22
 70
     1
102
RTVSPropertyOp23
 70
     1
102
RTVSPropertyOp24
 70
     1
102
RTVSPropertyOp25
 70
     1
102
RTVSPropertyOp26
 70
     1
102
RTVSPropertyOp27
 70
     1
  0
XRECORD
  5
1085C
102
{ACAD_REACTORS
330
1085B
102
}
330
1085B
100
AcDbXrecord
280
     1
102
RTVSPropertyOp0
 70
     0
102
RTVSPropertyOp1
 70
     0
102
RTVSPropertyOp2
 70
     0
102
RTVSPropertyOp3
 70
     0
102
RTVSPropertyOp4
 70
     0
102
RTVSPropertyOp5
 70
     0
102
RTVSPropertyOp6
 70
     0
102
RTVSPropertyOp7
 70
     0
102
RTVSPropertyOp8
 70
     0
102
RTVSPropertyOp9
 70
     0
102
RTVSPropertyOp10
 70
     0
102
RTVSPropertyOp11
 70
     0
102
RTVSPropertyOp12
 70
     0
102
RTVSPropertyOp13
 70
     0
102
RTVSPropertyOp14
 70
     2
102
RTVSPropertyOp15
 70
     0
102
RTVSPropertyOp16
 70
     0
102
RTVSPropertyOp17
 70
     0
102
RTVSPropertyOp18
 70
     0
102
RTVSPropertyOp19
 70
     0
102
RTVSPropertyOp20
 70
     0
102
RTVSPropertyOp21
 70
     0
102
RTVSPropertyOp22
 70
     0
102
RTVSPropertyOp23
 70
     0
102
RTVSPropertyOp24
 70
     0
102
RTVSPropertyOp25
 70
     0
102
RTVSPropertyOp26
 70
     0
102
RTVSPropertyOp27
 70
     0
  0
XRECORD
  5
10854
102
{ACAD_REACTORS
330
10853
102
}
330
10853
100
AcDbXrecord
280
     1
102
RTVSPropertyOp0
 70
     1
102
RTVSPropertyOp1
 70
     1
102
RTVSPropertyOp2
 70
     1
102
RTVSPropertyOp3
 70
     1
102
RTVSPropertyOp4
 70
     1
102
RTVSPropertyOp5
 70
     1
102
RTVSPropertyOp6
 70
     1
102
RTVSPropertyOp7
 70
     1
102
RTVSPropertyOp8
 70
     1
102
RTVSPropertyOp9
 70
     1
102
RTVSPropertyOp10
 70
     1
102
RTVSPropertyOp11
 70
     1
102
RTVSPropertyOp12
 70
     1
102
RTVSPropertyOp13
 70
     1
102
RTVSPropertyOp14
 70
     1
102
RTVSPropertyOp15
 70
     1
102
RTVSPropertyOp16
 70
     1
102
RTVSPropertyOp17
 70
     1
102
RTVSPropertyOp18
 70
     1
102
RTVSPropertyOp19
 70
     1
102
RTVSPropertyOp20
 70
     1
102
RTVSPropertyOp21
 70
     1
102
RTVSPropertyOp22
 70
     1
102
RTVSPropertyOp23
 70
     1
102
RTVSPropertyOp24
 70
     1
102
RTVSPropertyOp25
 70
     1
102
RTVSPropertyOp26
 70
     1
102
RTVSPropertyOp27
 70
     1
  0
XRECORD
  5
10838
102
{ACAD_REACTORS
330
10837
102
}
330
10837
100
AcDbXrecord
280
     1
102
RTVSPropertyOp0
 70
     1
102
RTVSPropertyOp1
 70
     1
102
RTVSPropertyOp2
 70
     1
102
RTVSPropertyOp3
 70
     1
102
RTVSPropertyOp4
 70
     1
102
RTVSPropertyOp5
 70
     1
102
RTVSPropertyOp6
 70
     1
102
RTVSPropertyOp7
 70
     1
102
RTVSPropertyOp8
 70
     1
102
RTVSPropertyOp9
 70
     1
102
RTVSPropertyOp10
 70
     1
102
RTVSPropertyOp11
 70
     1
102
RTVSPropertyOp12
 70
     1
102
RTVSPropertyOp13
 70
     1
102
RTVSPropertyOp14
 70
     1
102
RTVSPropertyOp15
 70
     1
102
RTVSPropertyOp16
 70
     1
102
RTVSPropertyOp17
 70
     1
102
RTVSPropertyOp18
 70
     1
102
RTVSPropertyOp19
 70
     1
102
RTVSPropertyOp20
 70
     1
102
RTVSPropertyOp21
 70
     1
102
RTVSPropertyOp22
 70
     1
102
RTVSPropertyOp23
 70
     1
102
RTVSPropertyOp24
 70
     1
102
RTVSPropertyOp25
 70
     1
102
RTVSPropertyOp26
 70
     1
102
RTVSPropertyOp27
 70
     1
  0
XRECORD
  5
1083A
102
{ACAD_REACTORS
330
10839
102
}
330
10839
100
AcDbXrecord
280
     1
102
RTVSPropertyOp0
 70
     1
102
RTVSPropertyOp1
 70
     1
102
RTVSPropertyOp2
 70
     1
102
RTVSPropertyOp3
 70
     1
102
RTVSPropertyOp4
 70
     1
102
RTVSPropertyOp5
 70
     1
102
RTVSPropertyOp6
 70
     1
102
RTVSPropertyOp7
 70
     1
102
RTVSPropertyOp8
 70
     1
102
RTVSPropertyOp9
 70
     1
102
RTVSPropertyOp10
 70
     1
102
RTVSPropertyOp11
 70
     1
102
RTVSPropertyOp12
 70
     1
102
RTVSPropertyOp13
 70
     1
102
RTVSPropertyOp14
 70
     1
102
RTVSPropertyOp15
 70
     1
102
RTVSPropertyOp16
 70
     1
102
RTVSPropertyOp17
 70
     1
102
RTVSPropertyOp18
 70
     1
102
RTVSPropertyOp19
 70
     1
102
RTVSPropertyOp20
 70
     1
102
RTVSPropertyOp21
 70
     1
102
RTVSPropertyOp22
 70
     1
102
RTVSPropertyOp23
 70
     1
102
RTVSPropertyOp24
 70
     1
102
RTVSPropertyOp25
 70
     1
102
RTVSPropertyOp26
 70
     1
102
RTVSPropertyOp27
 70
     1
  0
XRECORD
  5
1083C
102
{ACAD_REACTORS
330
1083B
102
}
330
1083B
100
AcDbXrecord
280
     1
102
RTVSPropertyOp0
 70
     1
102
RTVSPropertyOp1
 70
     1
102
RTVSPropertyOp2
 70
     1
102
RTVSPropertyOp3
 70
     1
102
RTVSPropertyOp4
 70
     1
102
RTVSPropertyOp5
 70
     1
102
RTVSPropertyOp6
 70
     1
102
RTVSPropertyOp7
 70
     1
102
RTVSPropertyOp8
 70
     1
102
RTVSPropertyOp9
 70
     1
102
RTVSPropertyOp10
 70
     1
102
RTVSPropertyOp11
 70
     1
102
RTVSPropertyOp12
 70
     1
102
RTVSPropertyOp13
 70
     1
102
RTVSPropertyOp14
 70
     1
102
RTVSPropertyOp15
 70
     1
102
RTVSPropertyOp16
 70
     1
102
RTVSPropertyOp17
 70
     1
102
RTVSPropertyOp18
 70
     1
102
RTVSPropertyOp19
 70
     1
102
RTVSPropertyOp20
 70
     1
102
RTVSPropertyOp21
 70
     1
102
RTVSPropertyOp22
 70
     1
102
RTVSPropertyOp23
 70
     1
102
RTVSPropertyOp24
 70
     1
102
RTVSPropertyOp25
 70
     1
102
RTVSPropertyOp26
 70
     1
102
RTVSPropertyOp27
 70
     1
  0
XRECORD
  5
1083E
102
{ACAD_REACTORS
330
1083D
102
}
330
1083D
100
AcDbXrecord
280
     1
102
RTVSPropertyOp0
 70
     1
102
RTVSPropertyOp1
 70
     1
102
RTVSPropertyOp2
 70
     1
102
RTVSPropertyOp3
 70
     1
102
RTVSPropertyOp4
 70
     1
102
RTVSPropertyOp5
 70
     1
102
RTVSPropertyOp6
 70
     1
102
RTVSPropertyOp7
 70
     1
102
RTVSPropertyOp8
 70
     1
102
RTVSPropertyOp9
 70
     1
102
RTVSPropertyOp10
 70
     1
102
RTVSPropertyOp11
 70
     1
102
RTVSPropertyOp12
 70
     1
102
RTVSPropertyOp13
 70
     1
102
RTVSPropertyOp14
 70
     1
102
RTVSPropertyOp15
 70
     1
102
RTVSPropertyOp16
 70
     1
102
RTVSPropertyOp17
 70
     1
102
RTVSPropertyOp18
 70
     1
102
RTVSPropertyOp19
 70
     1
102
RTVSPropertyOp20
 70
     1
102
RTVSPropertyOp21
 70
     1
102
RTVSPropertyOp22
 70
     1
102
RTVSPropertyOp23
 70
     1
102
RTVSPropertyOp24
 70
     1
102
RTVSPropertyOp25
 70
     1
102
RTVSPropertyOp26
 70
     1
102
RTVSPropertyOp27
 70
     1
  0
XRECORD
  5
10858
102
{ACAD_REACTORS
330
10857
102
}
330
10857
100
AcDbXrecord
280
     1
102
RTVSPropertyOp0
 70
     0
102
RTVSPropertyOp1
 70
     0
102
RTVSPropertyOp2
 70
     0
102
RTVSPropertyOp3
 70
     0
102
RTVSPropertyOp4
 70
     0
102
RTVSPropertyOp5
 70
     0
102
RTVSPropertyOp6
 70
     0
102
RTVSPropertyOp7
 70
     0
102
RTVSPropertyOp8
 70
     0
102
RTVSPropertyOp9
 70
     0
102
RTVSPropertyOp10
 70
     0
102
RTVSPropertyOp11
 70
     0
102
RTVSPropertyOp12
 70
     0
102
RTVSPropertyOp13
 70
     0
102
RTVSPropertyOp14
 70
     2
102
RTVSPropertyOp15
 70
     0
102
RTVSPropertyOp16
 70
     0
102
RTVSPropertyOp17
 70
     0
102
RTVSPropertyOp18
 70
     0
102
RTVSPropertyOp19
 70
     0
102
RTVSPropertyOp20
 70
     0
102
RTVSPropertyOp21
 70
     0
102
RTVSPropertyOp22
 70
     0
102
RTVSPropertyOp23
 70
     0
102
RTVSPropertyOp24
 70
     0
102
RTVSPropertyOp25
 70
     0
102
RTVSPropertyOp26
 70
     0
102
RTVSPropertyOp27
 70
     0
  0
XRECORD
  5
10852
102
{ACAD_REACTORS
330
10851
102
}
330
10851
100
AcDbXrecord
280
     1
102
RTVSPropertyOp0
 70
     1
102
RTVSPropertyOp1
 70
     1
102
RTVSPropertyOp2
 70
     1
102
RTVSPropertyOp3
 70
     1
102
RTVSPropertyOp4
 70
     1
102
RTVSPropertyOp5
 70
     1
102
RTVSPropertyOp6
 70
     1
102
RTVSPropertyOp7
 70
     1
102
RTVSPropertyOp8
 70
     1
102
RTVSPropertyOp9
 70
     1
102
RTVSPropertyOp10
 70
     1
102
RTVSPropertyOp11
 70
     1
102
RTVSPropertyOp12
 70
     1
102
RTVSPropertyOp13
 70
     1
102
RTVSPropertyOp14
 70
     1
102
RTVSPropertyOp15
 70
     1
102
RTVSPropertyOp16
 70
     1
102
RTVSPropertyOp17
 70
     1
102
RTVSPropertyOp18
 70
     1
102
RTVSPropertyOp19
 70
     1
102
RTVSPropertyOp20
 70
     1
102
RTVSPropertyOp21
 70
     1
102
RTVSPropertyOp22
 70
     1
102
RTVSPropertyOp23
 70
     1
102
RTVSPropertyOp24
 70
     1
102
RTVSPropertyOp25
 70
     1
102
RTVSPropertyOp26
 70
     1
102
RTVSPropertyOp27
 70
     1
  0
XRECORD
  5
1085A
102
{ACAD_REACTORS
330
10859
102
}
330
10859
100
AcDbXrecord
280
     1
102
RTVSPropertyOp0
 70
     0
102
RTVSPropertyOp1
 70
     0
102
RTVSPropertyOp2
 70
     0
102
RTVSPropertyOp3
 70
     0
102
RTVSPropertyOp4
 70
     0
102
RTVSPropertyOp5
 70
     0
102
RTVSPropertyOp6
 70
     0
102
RTVSPropertyOp7
 70
     0
102
RTVSPropertyOp8
 70
     0
102
RTVSPropertyOp9
 70
     0
102
RTVSPropertyOp10
 70
     0
102
RTVSPropertyOp11
 70
     0
102
RTVSPropertyOp12
 70
     0
102
RTVSPropertyOp13
 70
     0
102
RTVSPropertyOp14
 70
     2
102
RTVSPropertyOp15
 70
     0
102
RTVSPropertyOp16
 70
     0
102
RTVSPropertyOp17
 70
     0
102
RTVSPropertyOp18
 70
     0
102
RTVSPropertyOp19
 70
     0
102
RTVSPropertyOp20
 70
     0
102
RTVSPropertyOp21
 70
     0
102
RTVSPropertyOp22
 70
     0
102
RTVSPropertyOp23
 70
     0
102
RTVSPropertyOp24
 70
     0
102
RTVSPropertyOp25
 70
     0
102
RTVSPropertyOp26
 70
     0
102
RTVSPropertyOp27
 70
     0
  0
XRECORD
  5
1084A
102
{ACAD_REACTORS
330
10849
102
}
330
10849
100
AcDbXrecord
280
     1
102
RTVSPropertyOp0
 70
     1
102
RTVSPropertyOp1
 70
     1
102
RTVSPropertyOp2
 70
     1
102
RTVSPropertyOp3
 70
     1
102
RTVSPropertyOp4
 70
     1
102
RTVSPropertyOp5
 70
     1
102
RTVSPropertyOp6
 70
     1
102
RTVSPropertyOp7
 70
     1
102
RTVSPropertyOp8
 70
     1
102
RTVSPropertyOp9
 70
     1
102
RTVSPropertyOp10
 70
     1
102
RTVSPropertyOp11
 70
     1
102
RTVSPropertyOp12
 70
     1
102
RTVSPropertyOp13
 70
     1
102
RTVSPropertyOp14
 70
     1
102
RTVSPropertyOp15
 70
     1
102
RTVSPropertyOp16
 70
     1
102
RTVSPropertyOp17
 70
     1
102
RTVSPropertyOp18
 70
     1
102
RTVSPropertyOp19
 70
     1
102
RTVSPropertyOp20
 70
     1
102
RTVSPropertyOp21
 70
     1
102
RTVSPropertyOp22
 70
     1
102
RTVSPropertyOp23
 70
     1
102
RTVSPropertyOp24
 70
     1
102
RTVSPropertyOp25
 70
     1
102
RTVSPropertyOp26
 70
     1
102
RTVSPropertyOp27
 70
     1
  0
XRECORD
  5
10850
102
{ACAD_REACTORS
330
1084F
102
}
330
1084F
100
AcDbXrecord
280
     1
102
RTVSPropertyOp0
 70
     1
102
RTVSPropertyOp1
 70
     1
102
RTVSPropertyOp2
 70
     1
102
RTVSPropertyOp3
 70
     1
102
RTVSPropertyOp4
 70
     1
102
RTVSPropertyOp5
 70
     1
102
RTVSPropertyOp6
 70
     1
102
RTVSPropertyOp7
 70
     1
102
RTVSPropertyOp8
 70
     1
102
RTVSPropertyOp9
 70
     1
102
RTVSPropertyOp10
 70
     1
102
RTVSPropertyOp11
 70
     1
102
RTVSPropertyOp12
 70
     1
102
RTVSPropertyOp13
 70
     1
102
RTVSPropertyOp14
 70
     1
102
RTVSPropertyOp15
 70
     1
102
RTVSPropertyOp16
 70
     1
102
RTVSPropertyOp17
 70
     1
102
RTVSPropertyOp18
 70
     1
102
RTVSPropertyOp19
 70
     1
102
RTVSPropertyOp20
 70
     1
102
RTVSPropertyOp21
 70
     1
102
RTVSPropertyOp22
 70
     1
102
RTVSPropertyOp23
 70
     1
102
RTVSPropertyOp24
 70
     1
102
RTVSPropertyOp25
 70
     1
102
RTVSPropertyOp26
 70
     1
102
RTVSPropertyOp27
 70
     1
  0
ENDSEC
  0
EOF
