  0
SECTION
  2
HEADER
  9
$ACADVER
  1
AC1015
  9
$ACADMAINTVER
 70
    10
  9
$DWGCODEPAGE
  3
ANSI_932
  9
$INSBASE
 10
0.0
 20
0.0
 30
0.0
  9
$EXTMIN
 10
-84.89493462656309
 20
-340.2034767486353
 30
0.0
  9
$EXTMAX
 10
444.5380573706014
 20
318.4340221653556
 30
0.0
  9
$LIMMIN
 10
-111.6607628231322
 20
-393.6846650918833
  9
$LIMMAX
 10
267.0001487158915
 20
364.8672605553396
  9
$ORTHOMODE
 70
     0
  9
$REGENMODE
 70
     1
  9
$FILLMODE
 70
     1
  9
$QTEXTMODE
 70
     0
  9
$MIRRTEXT
 70
     1
  9
$LTSCALE
 40
5.0
  9
$ATTMODE
 70
     1
  9
$TEXTSIZE
 40
5.0
  9
$TRACEWID
 40
0.05
  9
$TEXTSTYLE
  7
STANDARD1
  9
$CLAYER
  8
30
  9
$CELTYPE
  6
BYLAYER
  9
$CECOLOR
 62
   256
  9
$CELTSCALE
 40
1.0
  9
$DISPSILH
 70
     0
  9
$DIMSCALE
 40
1.0
  9
$DIMASZ
 40
2.0
  9
$DIMEXO
 40
1.0
  9
$DIMDLI
 40
0.5
  9
$DIMRND
 40
0.0
  9
$DIMDLE
 40
0.0
  9
$DIMEXE
 40
0.5
  9
$DIMTP
 40
0.0
  9
$DIMTM
 40
0.0
  9
$DIMTXT
 40
4.0
  9
$DIMCEN
 40
0.09
  9
$DIMTSZ
 40
0.0
  9
$DIMTOL
 70
     0
  9
$DIMLIM
 70
     0
  9
$DIMTIH
 70
     0
  9
$DIMTOH
 70
     0
  9
$DIMSE1
 70
     0
  9
$DIMSE2
 70
     0
  9
$DIMTAD
 70
     3
  9
$DIMZIN
 70
    12
  9
$DIMBLK
  1
OPEN
  9
$DIMASO
 70
     1
  9
$DIMSHO
 70
     1
  9
$DIMPOST
  1

  9
$DIMAPOST
  1

  9
$DIMALT
 70
     0
  9
$DIMALTD
 70
     2
  9
$DIMALTF
 40
25.4
  9
$DIMLFAC
 40
1.0
  9
$DIMTOFL
 70
     0
  9
$DIMTVP
 40
0.0
  9
$DIMTIX
 70
     0
  9
$DIMSOXD
 70
     0
  9
$DIMSAH
 70
     0
  9
$DIMBLK1
  1

  9
$DIMBLK2
  1

  9
$DIMSTYLE
  2
STANDARD
  9
$DIMCLRD
 70
     0
  9
$DIMCLRE
 70
     0
  9
$DIMCLRT
 70
     0
  9
$DIMTFAC
 40
1.0
  9
$DIMGAP
 40
1.0
  9
$DIMJUST
 70
     0
  9
$DIMSD1
 70
     0
  9
$DIMSD2
 70
     0
  9
$DIMTOLJ
 70
     1
  9
$DIMTZIN
 70
     0
  9
$DIMALTZ
 70
     0
  9
$DIMALTTZ
 70
     0
  9
$DIMUPT
 70
     0
  9
$DIMDEC
 70
     1
  9
$DIMTDEC
 70
     1
  9
$DIMALTU
 70
     2
  9
$DIMALTTD
 70
     2
  9
$DIMTXSTY
  7
STANDARD
  9
$DIMAUNIT
 70
     0
  9
$DIMADEC
 70
     0
  9
$DIMALTRND
 40
0.0
  9
$DIMAZIN
 70
     3
  9
$DIMDSEP
 70
    46
  9
$DIMATFIT
 70
     3
  9
$DIMFRAC
 70
     0
  9
$DIMLDRBLK
  1
OPEN
  9
$DIMLUNIT
 70
     2
  9
$DIMLWD
 70
    -2
  9
$DIMLWE
 70
    -2
  9
$DIMTMOVE
 70
     0
  9
$LUNITS
 70
     2
  9
$LUPREC
 70
     4
  9
$SKETCHINC
 40
0.1
  9
$FILLETRAD
 40
2.75
  9
$AUNITS
 70
     0
  9
$AUPREC
 70
     0
  9
$MENU
  1
.
  9
$ELEVATION
 40
0.0
  9
$PELEVATION
 40
0.0
  9
$THICKNESS
 40
0.0
  9
$LIMCHECK
 70
     0
  9
$CHAMFERA
 40
0.0
  9
$CHAMFERB
 40
0.0
  9
$CHAMFERC
 40
0.0
  9
$CHAMFERD
 40
0.0
  9
$SKPOLY
 70
     0
  9
$TDCREATE
 40
2452286.555658657
  9
$TDUCREATE
 40
2452286.180658657
  9
$TDUPDATE
 40
2454907.650473090
  9
$TDUUPDATE
 40
2454907.275473090
  9
$TDINDWG
 40
1.3417565046
  9
$TDUSRTIMER
 40
1.3417557870
  9
$USRTIMER
 70
     1
  9
$ANGBASE
 50
0.0
  9
$ANGDIR
 70
     0
  9
$PDMODE
 70
     0
  9
$PDSIZE
 40
0.0
  9
$PLINEWID
 40
0.0
  9
$SPLFRAME
 70
     0
  9
$SPLINETYPE
 70
     6
  9
$SPLINESEGS
 70
     8
  9
$HANDSEED
  5
9561
  9
$SURFTAB1
 70
     6
  9
$SURFTAB2
 70
     6
  9
$SURFTYPE
 70
     6
  9
$SURFU
 70
     6
  9
$SURFV
 70
     6
  9
$UCSBASE
  2

  9
$UCSNAME
  2

  9
$UCSORG
 10
0.0
 20
0.0
 30
0.0
  9
$UCSXDIR
 10
1.0
 20
0.0
 30
0.0
  9
$UCSYDIR
 10
0.0
 20
1.0
 30
0.0
  9
$UCSORTHOREF
  2

  9
$UCSORTHOVIEW
 70
     0
  9
$UCSORGTOP
 10
0.0
 20
0.0
 30
0.0
  9
$UCSORGBOTTOM
 10
0.0
 20
0.0
 30
0.0
  9
$UCSORGLEFT
 10
0.0
 20
0.0
 30
0.0
  9
$UCSORGRIGHT
 10
0.0
 20
0.0
 30
0.0
  9
$UCSORGFRONT
 10
0.0
 20
0.0
 30
0.0
  9
$UCSORGBACK
 10
0.0
 20
0.0
 30
0.0
  9
$PUCSBASE
  2

  9
$PUCSNAME
  2

  9
$PUCSORG
 10
0.0
 20
0.0
 30
0.0
  9
$PUCSXDIR
 10
1.0
 20
0.0
 30
0.0
  9
$PUCSYDIR
 10
0.0
 20
1.0
 30
0.0
  9
$PUCSORTHOREF
  2

  9
$PUCSORTHOVIEW
 70
     0
  9
$PUCSORGTOP
 10
0.0
 20
0.0
 30
0.0
  9
$PUCSORGBOTTOM
 10
0.0
 20
0.0
 30
0.0
  9
$PUCSORGLEFT
 10
0.0
 20
0.0
 30
0.0
  9
$PUCSORGRIGHT
 10
0.0
 20
0.0
 30
0.0
  9
$PUCSORGFRONT
 10
0.0
 20
0.0
 30
0.0
  9
$PUCSORGBACK
 10
0.0
 20
0.0
 30
0.0
  9
$USERI1
 70
     0
  9
$USERI2
 70
     0
  9
$USERI3
 70
     0
  9
$USERI4
 70
     0
  9
$USERI5
 70
     0
  9
$USERR1
 40
0.0
  9
$USERR2
 40
0.0
  9
$USERR3
 40
0.0
  9
$USERR4
 40
0.0
  9
$USERR5
 40
0.0
  9
$WORLDVIEW
 70
     1
  9
$SHADEDGE
 70
     3
  9
$SHADEDIF
 70
    70
  9
$TILEMODE
 70
     1
  9
$MAXACTVP
 70
    48
  9
$PINSBASE
 10
0.0
 20
0.0
 30
0.0
  9
$PLIMCHECK
 70
     0
  9
$PEXTMIN
 10
4.273573370203961
 20
5.205246163471485
 30
0.0
  9
$PEXTMAX
 10
194.6100952986349
 20
283.0697008572913
 30
0.0
  9
$PLIMMIN
 10
-5.873748779296875
 20
-5.873749732971191
  9
$PLIMMAX
 10
204.0995788574218
 20
291.1369009017943
  9
$UNITMODE
 70
     0
  9
$VISRETAIN
 70
     1
  9
$PLINEGEN
 70
     0
  9
$PSLTSCALE
 70
     1
  9
$TREEDEPTH
 70
  3020
  9
$CMLSTYLE
  2
STANDARD
  9
$CMLJUST
 70
     0
  9
$CMLSCALE
 40
1.0
  9
$PROXYGRAPHICS
 70
     1
  9
$MEASUREMENT
 70
     0
  9
$CELWEIGHT
370
    -1
  9
$ENDCAPS
280
     0
  9
$JOINSTYLE
280
     0
  9
$LWDISPLAY
290
     0
  9
$INSUNITS
 70
     0
  9
$HYPERLINKBASE
  1

  9
$STYLESHEET
  1
kiki.ctb
  9
$XEDIT
290
     1
  9
$CEPSNTYPE
380
     0
  9
$PSTYLEMODE
290
     1
  9
$FINGERPRINTGUID
  2

  9
$VERSIONGUID
  2
{50B9171E-68F7-4D4E-ACF8-469F20A32139}
  9
$EXTNAMES
290
     1
  9
$PSVPSCALE
 40
0.0
  9
$OLESTARTUP
290
     0
  0
ENDSEC
  0
SECTION
  2
CLASSES
  0
CLASS
  1
ACDBDICTIONARYWDFLT
  2
AcDbDictionaryWithDefault
  3
AutoCAD 2000
 90
        0
280
     0
281
     0
  0
CLASS
  1
ACDBPLACEHOLDER
  2
AcDbPlaceHolder
  3
AutoCAD 2000
 90
        0
280
     0
281
     0
  0
CLASS
  1
LAYOUT
  2
AcDbLayout
  3
AutoCAD 2000
 90
        0
280
     0
281
     0
  0
CLASS
  1
LONG_TRANSACTION
  2
AcDbLongTransaction
  3
AutoCAD 2000
 90
    32768
280
     0
281
     0
  0
CLASS
  1
LWPOLYLINE
  2
AcDbPolyline
  3
AutoCAD 2000
 90
    32768
280
     0
281
     1
  0
CLASS
  1
HATCH
  2
AcDbHatch
  3
AutoCAD 2000
 90
    32768
280
     0
281
     1
  0
CLASS
  1
XRECORD
  2
AcDbXrecord
  3
AutoCAD 2000
 90
    32768
280
     0
281
     0
  0
CLASS
  1
LONG_TRANSACTION
  2
AcDbLongTransaction
  3
AutoCAD 2000
 90
    32768
280
     0
281
     0
  0
CLASS
  1
LWPOLYLINE
  2
AcDbPolyline
  3
AutoCAD 2000
 90
    32768
280
     0
281
     1
  0
CLASS
  1
HATCH
  2
AcDbHatch
  3
AutoCAD 2000
 90
    32768
280
     0
281
     1
  0
CLASS
  1
XRECORD
  2
AcDbXrecord
  3
AutoCAD 2000
 90
    32768
280
     0
281
     0
  0
CLASS
  1
LONG_TRANSACTION
  2
AcDbLongTransaction
  3
AutoCAD 2000
 90
    32768
280
     0
281
     0
  0
CLASS
  1
LWPOLYLINE
  2
AcDbPolyline
  3
AutoCAD 2000
 90
    32768
280
     0
281
     1
  0
CLASS
  1
HATCH
  2
AcDbHatch
  3
AutoCAD 2000
 90
    32768
280
     0
281
     1
  0
CLASS
  1
XRECORD
  2
AcDbXrecord
  3
AutoCAD 2000
 90
    32768
280
     0
281
     0
  0
CLASS
  1
LONG_TRANSACTION
  2
AcDbLongTransaction
  3
AutoCAD 2000
 90
    32768
280
     0
281
     0
  0
CLASS
  1
LWPOLYLINE
  2
AcDbPolyline
  3
AutoCAD 2000
 90
    32768
280
     0
281
     1
  0
CLASS
  1
HATCH
  2
AcDbHatch
  3
AutoCAD 2000
 90
    32768
280
     0
281
     1
  0
CLASS
  1
XRECORD
  2
AcDbXrecord
  3
AutoCAD 2000
 90
    32768
280
     0
281
     0
  0
CLASS
  1
LONG_TRANSACTION
  2
AcDbLongTransaction
  3
AutoCAD 2000
 90
    32768
280
     0
281
     0
  0
CLASS
  1
LWPOLYLINE
  2
AcDbPolyline
  3
AutoCAD 2000
 90
    32768
280
     0
281
     1
  0
CLASS
  1
HATCH
  2
AcDbHatch
  3
AutoCAD 2000
 90
    32768
280
     0
281
     1
  0
CLASS
  1
XRECORD
  2
AcDbXrecord
  3
AutoCAD 2000
 90
    32768
280
     0
281
     0
  0
CLASS
  1
LONG_TRANSACTION
  2
AcDbLongTransaction
  3
AutoCAD 2000
 90
    32768
280
     0
281
     0
  0
CLASS
  1
LWPOLYLINE
  2
AcDbPolyline
  3
AutoCAD 2000
 90
    32768
280
     0
281
     1
  0
CLASS
  1
HATCH
  2
AcDbHatch
  3
AutoCAD 2000
 90
    32768
280
     0
281
     1
  0
CLASS
  1
XRECORD
  2
AcDbXrecord
  3
AutoCAD 2000
 90
    32768
280
     0
281
     0
  0
CLASS
  1
LONG_TRANSACTION
  2
AcDbLongTransaction
  3
AutoCAD 2000
 90
    32768
280
     0
281
     0
  0
CLASS
  1
LWPOLYLINE
  2
AcDbPolyline
  3
AutoCAD 2000
 90
    32768
280
     0
281
     1
  0
CLASS
  1
HATCH
  2
AcDbHatch
  3
AutoCAD 2000
 90
    32768
280
     0
281
     1
  0
CLASS
  1
XRECORD
  2
AcDbXrecord
  3
AutoCAD 2000
 90
    32768
280
     0
281
     0
  0
CLASS
  1
LONG_TRANSACTION
  2
AcDbLongTransaction
  3
AutoCAD 2000
 90
    32768
280
     0
281
     0
  0
CLASS
  1
LWPOLYLINE
  2
AcDbPolyline
  3
AutoCAD 2000
 90
    32768
280
     0
281
     1
  0
CLASS
  1
HATCH
  2
AcDbHatch
  3
AutoCAD 2000
 90
    32768
280
     0
281
     1
  0
CLASS
  1
XRECORD
  2
AcDbXrecord
  3
AutoCAD 2000
 90
    32768
280
     0
281
     0
  0
CLASS
  1
LONG_TRANSACTION
  2
AcDbLongTransaction
  3
AutoCAD 2000
 90
    32768
280
     0
281
     0
  0
CLASS
  1
LWPOLYLINE
  2
AcDbPolyline
  3
AutoCAD 2000
 90
    32768
280
     0
281
     1
  0
CLASS
  1
HATCH
  2
AcDbHatch
  3
AutoCAD 2000
 90
    32768
280
     0
281
     1
  0
CLASS
  1
XRECORD
  2
AcDbXrecord
  3
AutoCAD 2000
 90
    32768
280
     0
281
     0
  0
CLASS
  1
LONG_TRANSACTION
  2
AcDbLongTransaction
  3
AutoCAD 2000
 90
    32768
280
     0
281
     0
  0
CLASS
  1
LWPOLYLINE
  2
AcDbPolyline
  3
AutoCAD 2000
 90
    32768
280
     0
281
     1
  0
CLASS
  1
HATCH
  2
AcDbHatch
  3
AutoCAD 2000
 90
    32768
280
     0
281
     1
  0
CLASS
  1
XRECORD
  2
AcDbXrecord
  3
AutoCAD 2000
 90
    32768
280
     0
281
     0
  0
CLASS
  1
LONG_TRANSACTION
  2
AcDbLongTransaction
  3
AutoCAD 2000
 90
    32768
280
     0
281
     0
  0
CLASS
  1
LWPOLYLINE
  2
AcDbPolyline
  3
AutoCAD 2000
 90
    32768
280
     0
281
     1
  0
CLASS
  1
HATCH
  2
AcDbHatch
  3
AutoCAD 2000
 90
    32768
280
     0
281
     1
  0
CLASS
  1
XRECORD
  2
AcDbXrecord
  3
AutoCAD 2000
 90
    32768
280
     0
281
     0
  0
CLASS
  1
LONG_TRANSACTION
  2
AcDbLongTransaction
  3
AutoCAD 2000
 90
    32768
280
     0
281
     0
  0
CLASS
  1
LWPOLYLINE
  2
AcDbPolyline
  3
AutoCAD 2000
 90
    32768
280
     0
281
     1
  0
CLASS
  1
HATCH
  2
AcDbHatch
  3
AutoCAD 2000
 90
    32768
280
     0
281
     1
  0
CLASS
  1
XRECORD
  2
AcDbXrecord
  3
AutoCAD 2000
 90
    32768
280
     0
281
     0
  0
CLASS
  1
LONG_TRANSACTION
  2
AcDbLongTransaction
  3
AutoCAD 2000
 90
    32768
280
     0
281
     0
  0
CLASS
  1
LWPOLYLINE
  2
AcDbPolyline
  3
AutoCAD 2000
 90
    32768
280
     0
281
     1
  0
CLASS
  1
HATCH
  2
AcDbHatch
  3
AutoCAD 2000
 90
    32768
280
     0
281
     1
  0
CLASS
  1
XRECORD
  2
AcDbXrecord
  3
AutoCAD 2000
 90
    32768
280
     0
281
     0
  0
CLASS
  1
LONG_TRANSACTION
  2
AcDbLongTransaction
  3
AutoCAD 2000
 90
    32768
280
     0
281
     0
  0
CLASS
  1
LWPOLYLINE
  2
AcDbPolyline
  3
AutoCAD 2000
 90
    32768
280
     0
281
     1
  0
CLASS
  1
HATCH
  2
AcDbHatch
  3
AutoCAD 2000
 90
    32768
280
     0
281
     1
  0
CLASS
  1
XRECORD
  2
AcDbXrecord
  3
AutoCAD 2000
 90
    32768
280
     0
281
     0
  0
CLASS
  1
LONG_TRANSACTION
  2
AcDbLongTransaction
  3
AutoCAD 2000
 90
    32768
280
     0
281
     0
  0
CLASS
  1
LWPOLYLINE
  2
AcDbPolyline
  3
AutoCAD 2000
 90
    32768
280
     0
281
     1
  0
CLASS
  1
HATCH
  2
AcDbHatch
  3
AutoCAD 2000
 90
    32768
280
     0
281
     1
  0
CLASS
  1
XRECORD
  2
AcDbXrecord
  3
AutoCAD 2000
 90
    32768
280
     0
281
     0
  0
CLASS
  1
LONG_TRANSACTION
  2
AcDbLongTransaction
  3
AutoCAD 2000
 90
    32768
280
     0
281
     0
  0
CLASS
  1
LWPOLYLINE
  2
AcDbPolyline
  3
AutoCAD 2000
 90
    32768
280
     0
281
     1
  0
CLASS
  1
HATCH
  2
AcDbHatch
  3
AutoCAD 2000
 90
    32768
280
     0
281
     1
  0
CLASS
  1
XRECORD
  2
AcDbXrecord
  3
AutoCAD 2000
 90
    32768
280
     0
281
     0
  0
CLASS
  1
LONG_TRANSACTION
  2
AcDbLongTransaction
  3
AutoCAD 2000
 90
    32768
280
     0
281
     0
  0
CLASS
  1
LWPOLYLINE
  2
AcDbPolyline
  3
AutoCAD 2000
 90
    32768
280
     0
281
     1
  0
CLASS
  1
HATCH
  2
AcDbHatch
  3
AutoCAD 2000
 90
    32768
280
     0
281
     1
  0
CLASS
  1
XRECORD
  2
AcDbXrecord
  3
AutoCAD 2000
 90
    32768
280
     0
281
     0
  0
CLASS
  1
LONG_TRANSACTION
  2
AcDbLongTransaction
  3
AutoCAD 2000
 90
    32768
280
     0
281
     0
  0
CLASS
  1
LWPOLYLINE
  2
AcDbPolyline
  3
AutoCAD 2000
 90
    32768
280
     0
281
     1
  0
CLASS
  1
HATCH
  2
AcDbHatch
  3
AutoCAD 2000
 90
    32768
280
     0
281
     1
  0
CLASS
  1
XRECORD
  2
AcDbXrecord
  3
AutoCAD 2000
 90
    32768
280
     0
281
     0
  0
CLASS
  1
LONG_TRANSACTION
  2
AcDbLongTransaction
  3
AutoCAD 2000
 90
    32768
280
     0
281
     0
  0
CLASS
  1
LWPOLYLINE
  2
AcDbPolyline
  3
AutoCAD 2000
 90
    32768
280
     0
281
     1
  0
CLASS
  1
HATCH
  2
AcDbHatch
  3
AutoCAD 2000
 90
    32768
280
     0
281
     1
  0
CLASS
  1
XRECORD
  2
AcDbXrecord
  3
AutoCAD 2000
 90
    32768
280
     0
281
     0
  0
CLASS
  1
LONG_TRANSACTION
  2
AcDbLongTransaction
  3
AutoCAD 2000
 90
    32768
280
     0
281
     0
  0
CLASS
  1
LWPOLYLINE
  2
AcDbPolyline
  3
AutoCAD 2000
 90
    32768
280
     0
281
     1
  0
CLASS
  1
HATCH
  2
AcDbHatch
  3
AutoCAD 2000
 90
    32768
280
     0
281
     1
  0
CLASS
  1
XRECORD
  2
AcDbXrecord
  3
AutoCAD 2000
 90
    32768
280
     0
281
     0
  0
CLASS
  1
LONG_TRANSACTION
  2
AcDbLongTransaction
  3
AutoCAD 2000
 90
    32768
280
     0
281
     0
  0
CLASS
  1
LWPOLYLINE
  2
AcDbPolyline
  3
AutoCAD 2000
 90
    32768
280
     0
281
     1
  0
CLASS
  1
HATCH
  2
AcDbHatch
  3
AutoCAD 2000
 90
    32768
280
     0
281
     1
  0
CLASS
  1
XRECORD
  2
AcDbXrecord
  3
AutoCAD 2000
 90
    32768
280
     0
281
     0
  0
CLASS
  1
LONG_TRANSACTION
  2
AcDbLongTransaction
  3
AutoCAD 2000
 90
    32768
280
     0
281
     0
  0
CLASS
  1
LWPOLYLINE
  2
AcDbPolyline
  3
AutoCAD 2000
 90
    32768
280
     0
281
     1
  0
CLASS
  1
HATCH
  2
AcDbHatch
  3
AutoCAD 2000
 90
    32768
280
     0
281
     1
  0
CLASS
  1
XRECORD
  2
AcDbXrecord
  3
AutoCAD 2000
 90
    32768
280
     0
281
     0
  0
CLASS
  1
LONG_TRANSACTION
  2
AcDbLongTransaction
  3
AutoCAD 2000
 90
    32768
280
     0
281
     0
  0
CLASS
  1
LWPOLYLINE
  2
AcDbPolyline
  3
AutoCAD 2000
 90
    32768
280
     0
281
     1
  0
CLASS
  1
HATCH
  2
AcDbHatch
  3
AutoCAD 2000
 90
    32768
280
     0
281
     1
  0
CLASS
  1
XRECORD
  2
AcDbXrecord
  3
AutoCAD 2000
 90
    32768
280
     0
281
     0
  0
CLASS
  1
LONG_TRANSACTION
  2
AcDbLongTransaction
  3
AutoCAD 2000
 90
    32768
280
     0
281
     0
  0
CLASS
  1
LWPOLYLINE
  2
AcDbPolyline
  3
AutoCAD 2000
 90
    32768
280
     0
281
     1
  0
CLASS
  1
HATCH
  2
AcDbHatch
  3
AutoCAD 2000
 90
    32768
280
     0
281
     1
  0
CLASS
  1
XRECORD
  2
AcDbXrecord
  3
AutoCAD 2000
 90
    32768
280
     0
281
     0
  0
CLASS
  1
LONG_TRANSACTION
  2
AcDbLongTransaction
  3
AutoCAD 2000
 90
    32768
280
     0
281
     0
  0
CLASS
  1
LWPOLYLINE
  2
AcDbPolyline
  3
AutoCAD 2000
 90
    32768
280
     0
281
     1
  0
CLASS
  1
HATCH
  2
AcDbHatch
  3
AutoCAD 2000
 90
    32768
280
     0
281
     1
  0
CLASS
  1
XRECORD
  2
AcDbXrecord
  3
AutoCAD 2000
 90
    32768
280
     0
281
     0
  0
CLASS
  1
LONG_TRANSACTION
  2
AcDbLongTransaction
  3
AutoCAD 2000
 90
    32768
280
     0
281
     0
  0
CLASS
  1
LWPOLYLINE
  2
AcDbPolyline
  3
AutoCAD 2000
 90
    32768
280
     0
281
     1
  0
CLASS
  1
HATCH
  2
AcDbHatch
  3
AutoCAD 2000
 90
    32768
280
     0
281
     1
  0
CLASS
  1
XRECORD
  2
AcDbXrecord
  3
AutoCAD 2000
 90
    32768
280
     0
281
     0
  0
CLASS
  1
LONG_TRANSACTION
  2
AcDbLongTransaction
  3
AutoCAD 2000
 90
    32768
280
     0
281
     0
  0
CLASS
  1
LWPOLYLINE
  2
AcDbPolyline
  3
AutoCAD 2000
 90
    32768
280
     0
281
     1
  0
CLASS
  1
HATCH
  2
AcDbHatch
  3
AutoCAD 2000
 90
    32768
280
     0
281
     1
  0
CLASS
  1
XRECORD
  2
AcDbXrecord
  3
AutoCAD 2000
 90
    32768
280
     0
281
     0
  0
CLASS
  1
LONG_TRANSACTION
  2
AcDbLongTransaction
  3
AutoCAD 2000
 90
    32768
280
     0
281
     0
  0
CLASS
  1
LWPOLYLINE
  2
AcDbPolyline
  3
AutoCAD 2000
 90
    32768
280
     0
281
     1
  0
CLASS
  1
HATCH
  2
AcDbHatch
  3
AutoCAD 2000
 90
    32768
280
     0
281
     1
  0
CLASS
  1
XRECORD
  2
AcDbXrecord
  3
AutoCAD 2000
 90
    32768
280
     0
281
     0
  0
CLASS
  1
LONG_TRANSACTION
  2
AcDbLongTransaction
  3
AutoCAD 2000
 90
    32768
280
     0
281
     0
  0
CLASS
  1
LWPOLYLINE
  2
AcDbPolyline
  3
AutoCAD 2000
 90
    32768
280
     0
281
     1
  0
CLASS
  1
HATCH
  2
AcDbHatch
  3
AutoCAD 2000
 90
    32768
280
     0
281
     1
  0
CLASS
  1
XRECORD
  2
AcDbXrecord
  3
AutoCAD 2000
 90
    32768
280
     0
281
     0
  0
CLASS
  1
LONG_TRANSACTION
  2
AcDbLongTransaction
  3
AutoCAD 2000
 90
    32768
280
     0
281
     0
  0
CLASS
  1
LWPOLYLINE
  2
AcDbPolyline
  3
AutoCAD 2000
 90
    32768
280
     0
281
     1
  0
CLASS
  1
HATCH
  2
AcDbHatch
  3
AutoCAD 2000
 90
    32768
280
     0
281
     1
  0
CLASS
  1
XRECORD
  2
AcDbXrecord
  3
AutoCAD 2000
 90
    32768
280
     0
281
     0
  0
CLASS
  1
LONG_TRANSACTION
  2
AcDbLongTransaction
  3
AutoCAD 2000
 90
    32768
280
     0
281
     0
  0
CLASS
  1
LWPOLYLINE
  2
AcDbPolyline
  3
AutoCAD 2000
 90
    32768
280
     0
281
     1
  0
CLASS
  1
HATCH
  2
AcDbHatch
  3
AutoCAD 2000
 90
    32768
280
     0
281
     1
  0
CLASS
  1
XRECORD
  2
AcDbXrecord
  3
AutoCAD 2000
 90
    32768
280
     0
281
     0
  0
CLASS
  1
LONG_TRANSACTION
  2
AcDbLongTransaction
  3
AutoCAD 2000
 90
    32768
280
     0
281
     0
  0
CLASS
  1
LWPOLYLINE
  2
AcDbPolyline
  3
AutoCAD 2000
 90
    32768
280
     0
281
     1
  0
CLASS
  1
HATCH
  2
AcDbHatch
  3
AutoCAD 2000
 90
    32768
280
     0
281
     1
  0
CLASS
  1
XRECORD
  2
AcDbXrecord
  3
AutoCAD 2000
 90
    32768
280
     0
281
     0
  0
CLASS
  1
DICTIONARYVAR
  2
AcDbDictionaryVar
  3
AutoCAD 2000
 90
        0
280
     0
281
     0
  0
CLASS
  1
LONG_TRANSACTION
  2
AcDbLongTransaction
  3
AutoCAD 2000
 90
    32768
280
     0
281
     0
  0
CLASS
  1
LWPOLYLINE
  2
AcDbPolyline
  3
AutoCAD 2000
 90
    32768
280
     0
281
     1
  0
CLASS
  1
HATCH
  2
AcDbHatch
  3
AutoCAD 2000
 90
    32768
280
     0
281
     1
  0
CLASS
  1
XRECORD
  2
AcDbXrecord
  3
AutoCAD 2000
 90
    32768
280
     0
281
     0
  0
CLASS
  1
LONG_TRANSACTION
  2
AcDbLongTransaction
  3
AutoCAD 2000
 90
    32768
280
     0
281
     0
  0
CLASS
  1
LWPOLYLINE
  2
AcDbPolyline
  3
AutoCAD 2000
 90
    32768
280
     0
281
     1
  0
CLASS
  1
HATCH
  2
AcDbHatch
  3
AutoCAD 2000
 90
    32768
280
     0
281
     1
  0
CLASS
  1
XRECORD
  2
AcDbXrecord
  3
AutoCAD 2000
 90
    32768
280
     0
281
     0
  0
CLASS
  1
LONG_TRANSACTION
  2
AcDbLongTransaction
  3
AutoCAD 2000
 90
    32768
280
     0
281
     0
  0
CLASS
  1
LWPOLYLINE
  2
AcDbPolyline
  3
AutoCAD 2000
 90
    32768
280
     0
281
     1
  0
CLASS
  1
HATCH
  2
AcDbHatch
  3
AutoCAD 2000
 90
    32768
280
     0
281
     1
  0
CLASS
  1
XRECORD
  2
AcDbXrecord
  3
AutoCAD 2000
 90
    32768
280
     0
281
     0
  0
CLASS
  1
LONG_TRANSACTION
  2
AcDbLongTransaction
  3
AutoCAD 2000
 90
    32768
280
     0
281
     0
  0
CLASS
  1
LWPOLYLINE
  2
AcDbPolyline
  3
AutoCAD 2000
 90
    32768
280
     0
281
     1
  0
CLASS
  1
HATCH
  2
AcDbHatch
  3
AutoCAD 2000
 90
    32768
280
     0
281
     1
  0
CLASS
  1
XRECORD
  2
AcDbXrecord
  3
AutoCAD 2000
 90
    32768
280
     0
281
     0
  0
CLASS
  1
LONG_TRANSACTION
  2
AcDbLongTransaction
  3
AutoCAD 2000
 90
    32768
280
     0
281
     0
  0
CLASS
  1
LWPOLYLINE
  2
AcDbPolyline
  3
AutoCAD 2000
 90
    32768
280
     0
281
     1
  0
CLASS
  1
HATCH
  2
AcDbHatch
  3
AutoCAD 2000
 90
    32768
280
     0
281
     1
  0
CLASS
  1
XRECORD
  2
AcDbXrecord
  3
AutoCAD 2000
 90
    32768
280
     0
281
     0
  0
CLASS
  1
LONG_TRANSACTION
  2
AcDbLongTransaction
  3
AutoCAD 2000
 90
    32768
280
     0
281
     0
  0
CLASS
  1
LWPOLYLINE
  2
AcDbPolyline
  3
AutoCAD 2000
 90
    32768
280
     0
281
     1
  0
CLASS
  1
HATCH
  2
AcDbHatch
  3
AutoCAD 2000
 90
    32768
280
     0
281
     1
  0
CLASS
  1
XRECORD
  2
AcDbXrecord
  3
AutoCAD 2000
 90
    32768
280
     0
281
     0
  0
ENDSEC
  0
SECTION
  2
TABLES
  0
TABLE
  2
VPORT
  5
8
330
0
100
AcDbSymbolTable
 70
     3
  0
VPORT
  5
9560
330
8
100
AcDbSymbolTableRecord
100
AcDbViewportTableRecord
  2
*Active
 70
     0
 10
0.0
 20
0.0
 11
1.0
 21
1.0
 12
365.2515472810822
 22
227.6358490214656
 13
0.0
 23
0.0
 14
1.0
 24
1.0
 15
10.0
 25
10.0
 16
0.0
 26
0.0
 36
1.0
 17
0.0
 27
0.0
 37
0.0
 40
117.0468454481656
 41
1.700716845878136
 42
50.0
 43
0.0
 44
0.0
 50
0.0
 51
0.0
 71
     0
 72
   100
 73
     1
 74
     1
 75
     0
 76
     0
 77
     0
 78
     0
281
     0
 65
     1
110
0.0
120
0.0
130
0.0
111
1.0
121
0.0
131
0.0
112
0.0
122
1.0
132
0.0
 79
     0
146
0.0
  0
ENDTAB
  0
TABLE
  2
LTYPE
  5
5
330
0
100
AcDbSymbolTable
 70
     4
  0
LTYPE
  5
13
330
5
100
AcDbSymbolTableRecord
100
AcDbLinetypeTableRecord
  2
BYBLOCK
 70
     0
  3

 72
    65
 73
     0
 40
0.0
  0
LTYPE
  5
14
330
5
100
AcDbSymbolTableRecord
100
AcDbLinetypeTableRecord
  2
BYLAYER
 70
     0
  3

 72
    65
 73
     0
 40
0.0
  0
LTYPE
  5
15
330
5
100
AcDbSymbolTableRecord
100
AcDbLinetypeTableRecord
  2
CONTINUOUS
 70
     0
  3
Solid line
 72
    65
 73
     0
 40
0.0
  0
LTYPE
  5
22
330
5
100
AcDbSymbolTableRecord
100
AcDbLinetypeTableRecord
  2
CONTINOUS
 70
     0
  3
Solid line
 72
    65
 73
     0
 40
0.0
  0
LTYPE
  5
24
330
5
100
AcDbSymbolTableRecord
100
AcDbLinetypeTableRecord
  2
DASHDOT
 70
     0
  3
__ . __ . __ . __ . __ . __ . __ . __ . __ . __
 72
    65
 73
     4
 40
1.0
 49
0.5
 74
     0
 49
-0.25
 74
     0
 49
0.0
 74
     0
 49
-0.25
 74
     0
  0
LTYPE
  5
429E
330
5
100
AcDbSymbolTableRecord
100
AcDbLinetypeTableRecord
  2
DIVIDE
 70
     0
  3
Divide ____ . . ____ . . ____ . . ____ . . ____
 72
    65
 73
     6
 40
1.25
 49
0.5
 74
     0
 49
-0.25
 74
     0
 49
0.0
 74
     0
 49
-0.25
 74
     0
 49
0.0
 74
     0
 49
-0.25
 74
     0
  0
ENDTAB
  0
TABLE
  2
LAYER
  5
2
330
0
100
AcDbSymbolTable
 70
    11
  0
LAYER
  5
10
330
2
100
AcDbSymbolTableRecord
100
AcDbLayerTableRecord
  2
0
 70
     0
 62
     7
  6
CONTINOUS
370
    -3
390
F
  0
LAYER
  5
2F
330
2
100
AcDbSymbolTableRecord
100
AcDbLayerTableRecord
  2
10
 70
     0
 62
     4
  6
CONTINOUS
370
    -3
390
F
  0
LAYER
  5
31
330
2
100
AcDbSymbolTableRecord
100
AcDbLayerTableRecord
  2
12
 70
     0
 62
     3
  6
CONTINOUS
370
    -3
390
F
  0
LAYER
  5
35
330
2
100
AcDbSymbolTableRecord
100
AcDbLayerTableRecord
  2
16
 70
     0
 62
     6
  6
DASHDOT
370
    -3
390
F
  0
LAYER
  5
36
330
2
100
AcDbSymbolTableRecord
100
AcDbLayerTableRecord
  2
17
 70
     0
 62
     2
  6
DASHDOT
370
    -3
390
F
  0
LAYER
  5
3D
330
2
100
AcDbSymbolTableRecord
100
AcDbLayerTableRecord
  2
24
 70
     0
 62
     2
  6
CONTINOUS
370
    -3
390
F
  0
LAYER
  5
3A2
330
2
100
AcDbSymbolTableRecord
100
AcDbLayerTableRecord
  2
30
 70
     0
 62
     9
  6
CONTINUOUS
370
    -3
390
F
  0
LAYER
  5
3A4
330
2
100
AcDbSymbolTableRecord
100
AcDbLayerTableRecord
  2
DEFPOINTS
 70
     0
 62
     7
  6
CONTINUOUS
290
     0
370
    -3
390
F
  0
LAYER
  5
3BBA
330
2
100
AcDbSymbolTableRecord
100
AcDbLayerTableRecord
  2
18
 70
     0
 62
     5
  6
DIVIDE
370
    -3
390
F
  0
LAYER
  5
3BBB
330
2
100
AcDbSymbolTableRecord
100
AcDbLayerTableRecord
  2
21
 70
     0
 62
     7
  6
CONTINUOUS
370
    -3
390
F
  0
LAYER
  5
40E3
330
2
100
AcDbSymbolTableRecord
100
AcDbLayerTableRecord
  2
22
 70
     0
 62
     3
  6
CONTINUOUS
370
    -3
390
F
  0
ENDTAB
  0
TABLE
  2
STYLE
  5
3
330
0
100
AcDbSymbolTable
 70
     3
  0
STYLE
  5
11
330
3
100
AcDbSymbolTableRecord
100
AcDbTextStyleTableRecord
  2
STANDARD
 70
     0
 40
0.0
 41
1.0
 50
0.0
 71
     0
 42
2.0
  3
txt.shx
  4
bigfont.shx
  0
STYLE
  5
42
330
3
100
AcDbSymbolTableRecord
100
AcDbTextStyleTableRecord
  2
STANDARD1
 70
     0
 40
0.0
 41
1.0
 50
0.0
 71
     0
 42
5.0
  3
MONOTXT
  4
BIGFONT
  0
STYLE
  5
5CC0
330
3
100
AcDbSymbolTableRecord
100
AcDbTextStyleTableRecord
  2
SMP-SET
 70
     0
 40
0.0
 41
1.0
 50
0.0
 71
     0
 42
3.0
  3
SIMPLEX
  4
BIGFONT
  0
ENDTAB
  0
TABLE
  2
VIEW
  5
6
330
0
100
AcDbSymbolTable
 70
     5
  0
VIEW
  5
230C
330
6
100
AcDbSymbolTableRecord
100
AcDbViewTableRecord
  2
OLE1
 70
     0
 40
148.9124878027714
 10
429.4976280407222
 20
2.560626997828478
 41
103.1458057716444
 11
0.0
 21
0.0
 31
1.0
 12
0.0
 22
0.0
 32
0.0
 42
50.0
 43
0.0
 44
0.0
 50
0.0
 71
     0
281
     0
 72
     0
  0
VIEW
  5
230E
330
6
100
AcDbSymbolTableRecord
100
AcDbViewTableRecord
  2
OLE2
 70
     0
 40
170.7786920545775
 10
322.664969958371
 20
-5.978304054290276
 41
102.4672152327465
 11
0.0
 21
0.0
 31
1.0
 12
0.0
 22
0.0
 32
0.0
 42
50.0
 43
0.0
 44
0.0
 50
0.0
 71
     0
281
     0
 72
     0
  0
VIEW
  5
23AA
330
6
100
AcDbSymbolTableRecord
100
AcDbViewTableRecord
  2
OLE3
 70
     0
 40
591.7897393182231
 10
84.79698158148218
 20
-46.09336010803995
 41
388.7920961799953
 11
0.0
 21
0.0
 31
1.0
 12
0.0
 22
0.0
 32
0.0
 42
50.0
 43
0.0
 44
0.0
 50
0.0
 71
     0
281
     0
 72
     0
  0
VIEW
  5
4402
330
6
100
AcDbSymbolTableRecord
100
AcDbViewTableRecord
  2
OLE4
 70
     0
 40
151.7917771380923
 10
15.38766885376364
 20
-193.752550173716
 41
398.5527551557765
 11
0.0
 21
0.0
 31
1.0
 12
0.0
 22
0.0
 32
0.0
 42
50.0
 43
0.0
 44
0.0
 50
0.0
 71
     0
281
     0
 72
     0
  0
VIEW
  5
8D79
330
6
100
AcDbSymbolTableRecord
100
AcDbViewTableRecord
  2
OLE5
 70
     0
 40
473.0465752437631
 10
40.72308557678552
 20
-190.6885064073368
 41
1018.166770320803
 11
0.0
 21
0.0
 31
1.0
 12
0.0
 22
0.0
 32
0.0
 42
50.0
 43
0.0
 44
0.0
 50
0.0
 71
     0
281
     0
 72
     0
  0
ENDTAB
  0
TABLE
  2
UCS
  5
7
330
0
100
AcDbSymbolTable
 70
     0
  0
ENDTAB
  0
TABLE
  2
APPID
  5
9
330
0
100
AcDbSymbolTable
 70
     2
  0
APPID
  5
12
330
9
100
AcDbSymbolTableRecord
100
AcDbRegAppTableRecord
  2
ACAD
 70
     0
  0
APPID
  5
ECD
330
9
100
AcDbSymbolTableRecord
100
AcDbRegAppTableRecord
  2
CONTENTBLOCKICON
 70
     0
  0
ENDTAB
  0
TABLE
  2
DIMSTYLE
  5
A
330
0
100
AcDbSymbolTable
 70
     1
100
AcDbDimStyleTable
 71
     0
  0
DIMSTYLE
105
175
102
{ACAD_REACTORS
330
8393
330
81A8
330
85E9
330
85DF
330
85DE
330
85E2
330
85DA
330
85D9
330
85DB
330
8618
330
85D6
330
85D8
330
87E8
330
87F5
330
8802
330
81CA
330
883C
330
8852
330
885F
330
8D3E
330
8D63
330
9297
330
92DE
330
92F4
330
9301
330
930E
330
931B
330
85F0
102
}
330
A
100
AcDbSymbolTableRecord
100
AcDbDimStyleTableRecord
  2
STANDARD
 70
     0
 41
2.0
 42
1.0
 43
0.5
 44
0.5
 73
     0
 74
     0
 77
     3
 78
    12
140
4.0
147
1.0
271
     1
272
     1
340
11
341
3B2
342
3B2
  0
ENDTAB
  0
TABLE
  2
BLOCK_RECORD
  5
1
330
0
100
AcDbSymbolTable
 70
    29
  0
BLOCK_RECORD
  5
1E
102
{ACAD_XDICTIONARY
360
178
102
}
330
1
100
AcDbSymbolTableRecord
100
AcDbBlockTableRecord
  2
*MODEL_SPACE
340
955B
  0
BLOCK_RECORD
  5
1A
102
{ACAD_XDICTIONARY
360
17A
102
}
330
1
100
AcDbSymbolTableRecord
100
AcDbBlockTableRecord
  2
*PAPER_SPACE
340
955C
  0
BLOCK_RECORD
  5
3B2
330
1
100
AcDbSymbolTableRecord
100
AcDbBlockTableRecord
  2
_OPEN
340
0
102
{BLKREFS
331
8C16
331
8C17
331
8C0D
331
8C0E
331
8C04
331
8C05
331
9504
331
9505
331
94F0
331
94F1
331
94E7
331
94E8
331
94B0
331
94B1
331
94B9
331
94BA
331
94CC
331
94CD
331
94D5
331
94D6
331
94A7
331
94A8
331
94C2
331
94C3
331
94DE
331
94DF
331
94F9
331
94FA
331
8B96
331
8B97
331
9533
331
9534
331
953C
331
953D
331
8B7B
331
8B7C
331
8B72
331
8B73
331
8B69
331
8B6A
331
9495
331
9496
331
949E
331
949F
331
932B
331
932C
331
92EE
331
92EF
331
92F9
331
92FA
331
9545
331
9546
331
954E
331
954F
331
9320
331
9321
102
}
  0
BLOCK_RECORD
  5
8264
330
1
100
AcDbSymbolTableRecord
100
AcDbBlockTableRecord
  2
*D1
340
0
  0
BLOCK_RECORD
  5
8270
330
1
100
AcDbSymbolTableRecord
100
AcDbBlockTableRecord
  2
*D2
340
0
  0
BLOCK_RECORD
  5
83B8
330
1
100
AcDbSymbolTableRecord
100
AcDbBlockTableRecord
  2
*D3
340
0
  0
BLOCK_RECORD
  5
861D
330
1
100
AcDbSymbolTableRecord
100
AcDbBlockTableRecord
  2
*D4
340
0
  0
BLOCK_RECORD
  5
862A
330
1
100
AcDbSymbolTableRecord
100
AcDbBlockTableRecord
  2
*D5
340
0
  0
BLOCK_RECORD
  5
8636
330
1
100
AcDbSymbolTableRecord
100
AcDbBlockTableRecord
  2
*D6
340
0
  0
BLOCK_RECORD
  5
8642
330
1
100
AcDbSymbolTableRecord
100
AcDbBlockTableRecord
  2
*D7
340
0
  0
BLOCK_RECORD
  5
864E
330
1
100
AcDbSymbolTableRecord
100
AcDbBlockTableRecord
  2
*D8
340
0
  0
BLOCK_RECORD
  5
865A
330
1
100
AcDbSymbolTableRecord
100
AcDbBlockTableRecord
  2
*D9
340
0
  0
BLOCK_RECORD
  5
8667
330
1
100
AcDbSymbolTableRecord
100
AcDbBlockTableRecord
  2
*D10
340
0
  0
BLOCK_RECORD
  5
8673
330
1
100
AcDbSymbolTableRecord
100
AcDbBlockTableRecord
  2
*D11
340
0
  0
BLOCK_RECORD
  5
867F
330
1
100
AcDbSymbolTableRecord
100
AcDbBlockTableRecord
  2
*D12
340
0
  0
BLOCK_RECORD
  5
868B
330
1
100
AcDbSymbolTableRecord
100
AcDbBlockTableRecord
  2
*D13
340
0
  0
BLOCK_RECORD
  5
8697
330
1
100
AcDbSymbolTableRecord
100
AcDbBlockTableRecord
  2
*D14
340
0
  0
BLOCK_RECORD
  5
87E9
330
1
100
AcDbSymbolTableRecord
100
AcDbBlockTableRecord
  2
*D15
340
0
  0
BLOCK_RECORD
  5
87F6
330
1
100
AcDbSymbolTableRecord
100
AcDbBlockTableRecord
  2
*D16
340
0
  0
BLOCK_RECORD
  5
8803
330
1
100
AcDbSymbolTableRecord
100
AcDbBlockTableRecord
  2
*D17
340
0
  0
BLOCK_RECORD
  5
883D
330
1
100
AcDbSymbolTableRecord
100
AcDbBlockTableRecord
  2
*D18
340
0
  0
BLOCK_RECORD
  5
8853
330
1
100
AcDbSymbolTableRecord
100
AcDbBlockTableRecord
  2
*D19
340
0
  0
BLOCK_RECORD
  5
8860
330
1
100
AcDbSymbolTableRecord
100
AcDbBlockTableRecord
  2
*D20
340
0
  0
BLOCK_RECORD
  5
8D3F
330
1
100
AcDbSymbolTableRecord
100
AcDbBlockTableRecord
  2
*D21
340
0
  0
BLOCK_RECORD
  5
8D64
330
1
100
AcDbSymbolTableRecord
100
AcDbBlockTableRecord
  2
*D22
340
0
  0
BLOCK_RECORD
  5
92AF
330
1
100
AcDbSymbolTableRecord
100
AcDbBlockTableRecord
  2
*D23
340
0
  0
BLOCK_RECORD
  5
92DF
330
1
100
AcDbSymbolTableRecord
100
AcDbBlockTableRecord
  2
*D24
340
0
  0
BLOCK_RECORD
  5
92F5
330
1
100
AcDbSymbolTableRecord
100
AcDbBlockTableRecord
  2
*D25
340
0
  0
BLOCK_RECORD
  5
9302
330
1
100
AcDbSymbolTableRecord
100
AcDbBlockTableRecord
  2
*D26
340
0
  0
BLOCK_RECORD
  5
930F
330
1
100
AcDbSymbolTableRecord
100
AcDbBlockTableRecord
  2
*D27
340
0
  0
BLOCK_RECORD
  5
931C
330
1
100
AcDbSymbolTableRecord
100
AcDbBlockTableRecord
  2
*D28
340
0
  0
ENDTAB
  0
ENDSEC
  0
SECTION
  2
BLOCKS
  0
BLOCK
  5
1F
330
1E
100
AcDbEntity
  8
0
100
AcDbBlockBegin
  2
*MODEL_SPACE
 70
     0
 10
0.0
 20
0.0
 30
0.0
  3
*MODEL_SPACE
  1

  0
ENDBLK
  5
20
330
1E
100
AcDbEntity
  8
0
100
AcDbBlockEnd
  0
BLOCK
  5
1B
330
1A
100
AcDbEntity
 67
     1
  8
0
100
AcDbBlockBegin
  2
*PAPER_SPACE
 70
     0
 10
0.0
 20
0.0
 30
0.0
  3
*PAPER_SPACE
  1

  0
ENDBLK
  5
1C
330
1A
100
AcDbEntity
 67
     1
  8
0
100
AcDbBlockEnd
  0
BLOCK
  5
3B6
330
3B2
100
AcDbEntity
  8
0
100
AcDbBlockBegin
  2
_OPEN
 70
     0
 10
0.0
 20
0.0
 30
0.0
  3
_OPEN
  1

  0
LINE
  5
3B3
330
3B2
100
AcDbEntity
  8
30
  6
Continuous
 62
     0
100
AcDbLine
 10
-1.0
 20
0.1666666666666666
 30
0.0
 11
0.0
 21
0.0
 31
0.0
  0
LINE
  5
3B4
330
3B2
100
AcDbEntity
  8
30
  6
Continuous
 62
     0
100
AcDbLine
 10
-1.0
 20
-0.1666666666666666
 30
0.0
 11
0.0
 21
0.0
 31
0.0
  0
LINE
  5
3B5
330
3B2
100
AcDbEntity
  8
30
  6
Continuous
 62
     0
100
AcDbLine
 10
0.0
 20
0.0
 30
0.0
 11
-1.0
 21
0.0
 31
0.0
  0
ENDBLK
  5
3B7
330
3B2
100
AcDbEntity
  8
0
100
AcDbBlockEnd
  0
BLOCK
  5
826E
330
8264
100
AcDbEntity
  8
0
100
AcDbBlockBegin
  2
*D1
 70
     1
 10
0.0
 20
0.0
 30
0.0
  3
*D1
  1

  0
LINE
  5
8C13
330
8264
100
AcDbEntity
  8
30
 62
     0
100
AcDbLine
 10
-45.0
 20
-78.5
 30
0.0
 11
-45.0
 21
-95.55260904743505
 31
0.0
  0
LINE
  5
8C14
330
8264
100
AcDbEntity
  8
30
 62
     0
100
AcDbLine
 10
75.00000000000003
 20
-78.5
 30
0.0
 11
75.00000000000003
 21
-95.55260904743505
 31
0.0
  0
LINE
  5
8C15
330
8264
100
AcDbEntity
  8
30
 62
     0
100
AcDbLine
 10
-43.0
 20
-95.05260904743506
 30
0.0
 11
73.00000000000003
 21
-95.05260904743506
 31
0.0
  0
INSERT
  5
8C16
330
8264
100
AcDbEntity
  8
30
 62
     0
100
AcDbBlockReference
  2
_OPEN
 10
-45.0
 20
-95.05260904743506
 30
0.0
 41
2.0
 42
2.0
 43
2.0
 50
180.0
  0
INSERT
  5
8C17
330
8264
100
AcDbEntity
  8
30
 62
     0
100
AcDbBlockReference
  2
_OPEN
 10
75.00000000000003
 20
-95.05260904743506
 30
0.0
 41
2.0
 42
2.0
 43
2.0
  0
MTEXT
  5
8C18
330
8264
100
AcDbEntity
  8
30
 62
     0
100
AcDbMText
 10
15.0
 20
-92.05260904743502
 30
0.0
 40
4.0
 41
0.0
 71
     5
 72
     1
  1
\A1;120
 73
     1
 44
1.0
1001
ACAD
1000
MTEXTBEGIN
1070
    73
1070
     1
1070
    44
1040
1.0
1070
    74
1070
     0
1000
MTEXTEND
1000
MTEXTBEGIN
1070
    73
1070
     1
1070
    44
1040
1.0
1070
    74
1070
     0
1000
MTEXTEND
  0
POINT
  5
8C19
330
8264
100
AcDbEntity
  8
DEFPOINTS
 62
     0
100
AcDbPoint
 10
-45.0
 20
-77.5
 30
0.0
  0
POINT
  5
8C1A
330
8264
100
AcDbEntity
  8
DEFPOINTS
 62
     0
100
AcDbPoint
 10
75.00000000000003
 20
-77.5
 30
0.0
  0
POINT
  5
8C1B
330
8264
100
AcDbEntity
  8
DEFPOINTS
 62
     0
100
AcDbPoint
 10
75.00000000000003
 20
-95.05260904743506
 30
0.0
  0
ENDBLK
  5
826F
330
8264
100
AcDbEntity
  8
0
100
AcDbBlockEnd
  0
BLOCK
  5
827A
330
8270
100
AcDbEntity
  8
0
100
AcDbBlockBegin
  2
*D2
 70
     1
 10
0.0
 20
0.0
 30
0.0
  3
*D2
  1

  0
LINE
  5
8C0A
330
8270
100
AcDbEntity
  8
30
 62
     0
100
AcDbLine
 10
-42.0
 20
25.99999999999996
 30
0.0
 11
-42.0
 21
33.09950840068008
 31
0.0
  0
LINE
  5
8C0B
330
8270
100
AcDbEntity
  8
30
 62
     0
100
AcDbLine
 10
42.00000000000001
 20
25.99999999999996
 30
0.0
 11
42.00000000000001
 21
33.09950840068008
 31
0.0
  0
LINE
  5
8C0C
330
8270
100
AcDbEntity
  8
30
 62
     0
100
AcDbLine
 10
-40.0
 20
32.59950840068007
 30
0.0
 11
40.00000000000002
 21
32.59950840068007
 31
0.0
  0
INSERT
  5
8C0D
330
8270
100
AcDbEntity
  8
30
 62
     0
100
AcDbBlockReference
  2
_OPEN
 10
-42.0
 20
32.59950840068007
 30
0.0
 41
2.0
 42
2.0
 43
2.0
 50
180.0
  0
INSERT
  5
8C0E
330
8270
100
AcDbEntity
  8
30
 62
     0
100
AcDbBlockReference
  2
_OPEN
 10
42.00000000000001
 20
32.59950840068007
 30
0.0
 41
2.0
 42
2.0
 43
2.0
  0
MTEXT
  5
8C0F
330
8270
100
AcDbEntity
  8
30
 62
     0
100
AcDbMText
 10
0.0000000000000144
 20
35.59950840068009
 30
0.0
 40
4.0
 41
0.0
 71
     5
 72
     1
  1
\A1;84
 73
     1
 44
1.0
1001
ACAD
1000
MTEXTBEGIN
1070
    73
1070
     1
1070
    44
1040
1.0
1070
    74
1070
     0
1000
MTEXTEND
1000
MTEXTBEGIN
1070
    73
1070
     1
1070
    44
1040
1.0
1070
    74
1070
     0
1000
MTEXTEND
  0
POINT
  5
8C10
330
8270
100
AcDbEntity
  8
DEFPOINTS
 62
     0
100
AcDbPoint
 10
-42.0
 20
24.99999999999996
 30
0.0
  0
POINT
  5
8C11
330
8270
100
AcDbEntity
  8
DEFPOINTS
 62
     0
100
AcDbPoint
 10
42.00000000000001
 20
24.99999999999996
 30
0.0
  0
POINT
  5
8C12
330
8270
100
AcDbEntity
  8
DEFPOINTS
 62
     0
100
AcDbPoint
 10
42.00000000000001
 20
32.59950840068007
 30
0.0
  0
ENDBLK
  5
827B
330
8270
100
AcDbEntity
  8
0
100
AcDbBlockEnd
  0
BLOCK
  5
83C2
330
83B8
100
AcDbEntity
  8
0
100
AcDbBlockBegin
  2
*D3
 70
     1
 10
0.0
 20
0.0
 30
0.0
  3
*D3
  1

  0
LINE
  5
8C01
330
83B8
100
AcDbEntity
  8
30
 62
     0
100
AcDbLine
 10
18.00000000000011
 20
210.8811670622456
 30
0.0
 11
119.5867224927879
 21
210.8811670622456
 31
0.0
  0
LINE
  5
8C02
330
83B8
100
AcDbEntity
  8
30
 62
     0
100
AcDbLine
 10
95.49999999999954
 20
202.8811670622455
 30
0.0
 11
119.5867224927879
 21
202.8811670622455
 31
0.0
  0
LINE
  5
8C03
330
83B8
100
AcDbEntity
  8
30
 62
     0
100
AcDbLine
 10
119.0867224927879
 20
208.8811670622454
 30
0.0
 11
119.0867224927879
 21
204.8811670622455
 31
0.0
  0
INSERT
  5
8C04
330
83B8
100
AcDbEntity
  8
30
 62
     0
100
AcDbBlockReference
  2
_OPEN
 10
119.0867224927879
 20
210.8811670622456
 30
0.0
 41
2.0
 42
2.0
 43
2.0
 50
90.0
  0
INSERT
  5
8C05
330
83B8
100
AcDbEntity
  8
30
 62
     0
100
AcDbBlockReference
  2
_OPEN
 10
119.0867224927879
 20
202.8811670622455
 30
0.0
 41
2.0
 42
2.0
 43
2.0
 50
270.0
  0
MTEXT
  5
8C06
330
83B8
100
AcDbEntity
  8
30
 62
     0
100
AcDbMText
 10
116.0867224927879
 20
206.8811670622455
 30
0.0
 40
4.0
 41
0.0
 71
     5
 72
     1
  1
\A1;8
 11
0.0000000000000001
 21
1.0
 31
0.0
 73
     1
 44
1.0
1001
ACAD
1000
MTEXTBEGIN
1070
    73
1070
     1
1070
    44
1040
1.0
1070
    74
1070
     0
1000
MTEXTEND
1000
MTEXTBEGIN
1070
    73
1070
     1
1070
    44
1040
1.0
1070
    74
1070
     0
1000
MTEXTEND
  0
POINT
  5
8C07
330
83B8
100
AcDbEntity
  8
DEFPOINTS
 62
     0
100
AcDbPoint
 10
17.00000000000011
 20
210.8811670622456
 30
0.0
  0
POINT
  5
8C08
330
83B8
100
AcDbEntity
  8
DEFPOINTS
 62
     0
100
AcDbPoint
 10
94.49999999999954
 20
202.8811670622455
 30
0.0
  0
POINT
  5
8C09
330
83B8
100
AcDbEntity
  8
DEFPOINTS
 62
     0
100
AcDbPoint
 10
119.0867224927879
 20
202.8811670622455
 30
0.0
  0
ENDBLK
  5
83C3
330
83B8
100
AcDbEntity
  8
0
100
AcDbBlockEnd
  0
BLOCK
  5
8628
330
861D
100
AcDbEntity
  8
0
100
AcDbBlockBegin
  2
*D4
 70
     1
 10
0.0
 20
0.0
 30
0.0
  3
*D4
  1

  0
LINE
  5
94FF
330
861D
100
AcDbEntity
  8
30
 62
     0
100
AcDbLine
 10
375.2950947291221
 20
71.61657570117625
 30
0.0
 11
398.7726808227893
 21
71.61657570117625
 31
0.0
  0
LINE
  5
9500
330
861D
100
AcDbEntity
  8
30
 62
     0
100
AcDbLine
 10
375.2950947291221
 20
76.61657570117625
 30
0.0
 11
398.7726808227893
 21
76.61657570117625
 31
0.0
  0
LINE
  5
9501
330
861D
100
AcDbEntity
  8
30
 62
     0
100
AcDbLine
 10
398.2726808227893
 20
69.61657570117627
 30
0.0
 11
398.2726808227893
 21
67.61657570117627
 31
0.0
  0
LINE
  5
9502
330
861D
100
AcDbEntity
  8
30
 62
     0
100
AcDbLine
 10
398.2726808227893
 20
78.61657570117626
 30
0.0
 11
398.2726808227893
 21
85.28324236784294
 31
0.0
  0
LINE
  5
9503
330
861D
100
AcDbEntity
  8
30
 62
     0
100
AcDbLine
 10
398.2726808227893
 20
71.61657570117625
 30
0.0
 11
398.2726808227893
 21
76.61657570117625
 31
0.0
  0
INSERT
  5
9504
330
861D
100
AcDbEntity
  8
30
 62
     0
100
AcDbBlockReference
  2
_OPEN
 10
398.2726808227893
 20
71.61657570117625
 30
0.0
 41
2.0
 42
2.0
 43
2.0
 50
90.0
  0
INSERT
  5
9505
330
861D
100
AcDbEntity
  8
30
 62
     0
100
AcDbBlockReference
  2
_OPEN
 10
398.2726808227893
 20
76.61657570117625
 30
0.0
 41
2.0
 42
2.0
 43
2.0
 50
270.0
  0
MTEXT
  5
9506
330
861D
100
AcDbEntity
  8
30
 62
     0
100
AcDbMText
 10
395.2726808227893
 20
82.94990903450967
 30
0.0
 40
4.0
 41
0.0
 71
     5
 72
     1
  1
\A1;5
 11
0.0000000000000001
 21
1.0
 31
0.0
 73
     1
 44
1.0
1001
ACAD
1000
MTEXTBEGIN
1070
    73
1070
     1
1070
    44
1040
1.0
1070
    74
1070
     0
1000
MTEXTEND
  0
POINT
  5
9507
330
861D
100
AcDbEntity
  8
DEFPOINTS
 62
     0
100
AcDbPoint
 10
374.2950947291221
 20
71.61657570117625
 30
0.0
  0
POINT
  5
9508
330
861D
100
AcDbEntity
  8
DEFPOINTS
 62
     0
100
AcDbPoint
 10
374.2950947291221
 20
76.61657570117625
 30
0.0
  0
POINT
  5
9509
330
861D
100
AcDbEntity
  8
DEFPOINTS
 62
     0
100
AcDbPoint
 10
398.2726808227893
 20
76.61657570117625
 30
0.0
  0
ENDBLK
  5
8629
330
861D
100
AcDbEntity
  8
0
100
AcDbBlockEnd
  0
BLOCK
  5
8634
330
862A
100
AcDbEntity
  8
0
100
AcDbBlockBegin
  2
*D5
 70
     1
 10
0.0
 20
0.0
 30
0.0
  3
*D5
  1

  0
LINE
  5
94ED
330
862A
100
AcDbEntity
  8
30
 62
     0
100
AcDbLine
 10
373.1515011896731
 20
-67.88342429882366
 30
0.0
 11
398.8818172219104
 21
-67.88342429882366
 31
0.0
  0
LINE
  5
94EE
330
862A
100
AcDbEntity
  8
30
 62
     0
100
AcDbLine
 10
373.1515011896731
 20
-51.88342429882368
 30
0.0
 11
398.8818172219104
 21
-51.88342429882368
 31
0.0
  0
LINE
  5
94EF
330
862A
100
AcDbEntity
  8
30
 62
     0
100
AcDbLine
 10
398.3818172219104
 20
-65.88342429882366
 30
0.0
 11
398.3818172219104
 21
-53.88342429882368
 31
0.0
  0
INSERT
  5
94F0
330
862A
100
AcDbEntity
  8
30
 62
     0
100
AcDbBlockReference
  2
_OPEN
 10
398.3818172219104
 20
-67.88342429882366
 30
0.0
 41
2.0
 42
2.0
 43
2.0
 50
270.0
  0
INSERT
  5
94F1
330
862A
100
AcDbEntity
  8
30
 62
     0
100
AcDbBlockReference
  2
_OPEN
 10
398.3818172219104
 20
-51.88342429882368
 30
0.0
 41
2.0
 42
2.0
 43
2.0
 50
90.0
  0
MTEXT
  5
94F2
330
862A
100
AcDbEntity
  8
30
 62
     0
100
AcDbMText
 10
395.3818172219104
 20
-59.88342429882361
 30
0.0
 40
4.0
 41
0.0
 71
     5
 72
     1
  1
\A1;16
 11
0.0000000000000001
 21
1.0
 31
0.0
 73
     1
 44
1.0
1001
ACAD
1000
MTEXTBEGIN
1070
    73
1070
     1
1070
    44
1040
1.0
1070
    74
1070
     0
1000
MTEXTEND
  0
POINT
  5
94F3
330
862A
100
AcDbEntity
  8
DEFPOINTS
 62
     0
100
AcDbPoint
 10
372.1515011896731
 20
-67.88342429882366
 30
0.0
  0
POINT
  5
94F4
330
862A
100
AcDbEntity
  8
DEFPOINTS
 62
     0
100
AcDbPoint
 10
372.1515011896731
 20
-51.88342429882368
 30
0.0
  0
POINT
  5
94F5
330
862A
100
AcDbEntity
  8
DEFPOINTS
 62
     0
100
AcDbPoint
 10
398.3818172219104
 20
-51.88342429882368
 30
0.0
  0
ENDBLK
  5
8635
330
862A
100
AcDbEntity
  8
0
100
AcDbBlockEnd
  0
BLOCK
  5
8640
330
8636
100
AcDbEntity
  8
0
100
AcDbBlockBegin
  2
*D6
 70
     1
 10
0.0
 20
0.0
 30
0.0
  3
*D6
  1

  0
LINE
  5
94E4
330
8636
100
AcDbEntity
  8
30
 62
     0
100
AcDbLine
 10
294.2950947291222
 20
-51.88342428232369
 30
0.0
 11
294.2950947291222
 21
-27.2839158981435
 31
0.0
  0
LINE
  5
94E5
330
8636
100
AcDbEntity
  8
30
 62
     0
100
AcDbLine
 10
309.2950947291221
 20
-56.38342428232369
 30
0.0
 11
309.2950947291221
 21
-27.2839158981435
 31
0.0
  0
LINE
  5
94E6
330
8636
100
AcDbEntity
  8
30
 62
     0
100
AcDbLine
 10
296.2950947291222
 20
-27.78391589814348
 30
0.0
 11
307.2950947291221
 21
-27.78391589814348
 31
0.0
  0
INSERT
  5
94E7
330
8636
100
AcDbEntity
  8
30
 62
     0
100
AcDbBlockReference
  2
_OPEN
 10
294.2950947291222
 20
-27.78391589814348
 30
0.0
 41
2.0
 42
2.0
 43
2.0
 50
180.0
  0
INSERT
  5
94E8
330
8636
100
AcDbEntity
  8
30
 62
     0
100
AcDbBlockReference
  2
_OPEN
 10
309.2950947291221
 20
-27.78391589814348
 30
0.0
 41
2.0
 42
2.0
 43
2.0
  0
MTEXT
  5
94E9
330
8636
100
AcDbEntity
  8
30
 62
     0
100
AcDbMText
 10
301.7950947291221
 20
-24.7839158981435
 30
0.0
 40
4.0
 41
0.0
 71
     5
 72
     1
  1
\A1;15
 73
     1
 44
1.0
1001
ACAD
1000
MTEXTBEGIN
1070
    73
1070
     1
1070
    44
1040
1.0
1070
    74
1070
     0
1000
MTEXTEND
  0
POINT
  5
94EA
330
8636
100
AcDbEntity
  8
DEFPOINTS
 62
     0
100
AcDbPoint
 10
294.2950947291222
 20
-52.88342428232367
 30
0.0
  0
POINT
  5
94EB
330
8636
100
AcDbEntity
  8
DEFPOINTS
 62
     0
100
AcDbPoint
 10
309.2950947291221
 20
-57.38342428232368
 30
0.0
  0
POINT
  5
94EC
330
8636
100
AcDbEntity
  8
DEFPOINTS
 62
     0
100
AcDbPoint
 10
309.2950947291221
 20
-27.78391589814348
 30
0.0
  0
ENDBLK
  5
8641
330
8636
100
AcDbEntity
  8
0
100
AcDbBlockEnd
  0
BLOCK
  5
864C
330
8642
100
AcDbEntity
  8
0
100
AcDbBlockBegin
  2
*D7
 70
     1
 10
0.0
 20
0.0
 30
0.0
  3
*D7
  1

  0
LINE
  5
94AD
330
8642
100
AcDbEntity
  8
30
 62
     0
100
AcDbLine
 10
204.2950947291222
 20
-44.88342429882368
 30
0.0
 11
204.2950947291222
 21
-114.5157367420348
 31
0.0
  0
LINE
  5
94AE
330
8642
100
AcDbEntity
  8
30
 62
     0
100
AcDbLine
 10
272.2950947291221
 20
-71.38342429882365
 30
0.0
 11
272.2950947291221
 21
-114.5157367420348
 31
0.0
  0
LINE
  5
94AF
330
8642
100
AcDbEntity
  8
30
 62
     0
100
AcDbLine
 10
206.2950947291222
 20
-114.0157367420348
 30
0.0
 11
270.2950947291221
 21
-114.0157367420348
 31
0.0
  0
INSERT
  5
94B0
330
8642
100
AcDbEntity
  8
30
 62
     0
100
AcDbBlockReference
  2
_OPEN
 10
204.2950947291222
 20
-114.0157367420348
 30
0.0
 41
2.0
 42
2.0
 43
2.0
 50
180.0
  0
INSERT
  5
94B1
330
8642
100
AcDbEntity
  8
30
 62
     0
100
AcDbBlockReference
  2
_OPEN
 10
272.2950947291221
 20
-114.0157367420348
 30
0.0
 41
2.0
 42
2.0
 43
2.0
  0
MTEXT
  5
94B2
330
8642
100
AcDbEntity
  8
30
 62
     0
100
AcDbMText
 10
238.2950947291222
 20
-111.0157367420347
 30
0.0
 40
4.0
 41
0.0
 71
     5
 72
     1
  1
\A1;68
 73
     1
 44
1.0
1001
ACAD
1000
MTEXTBEGIN
1070
    73
1070
     1
1070
    44
1040
1.0
1070
    74
1070
     0
1000
MTEXTEND
  0
POINT
  5
94B3
330
8642
100
AcDbEntity
  8
DEFPOINTS
 62
     0
100
AcDbPoint
 10
204.2950947291222
 20
-43.88342429882368
 30
0.0
  0
POINT
  5
94B4
330
8642
100
AcDbEntity
  8
DEFPOINTS
 62
     0
100
AcDbPoint
 10
272.2950947291221
 20
-70.38342429882366
 30
0.0
  0
POINT
  5
94B5
330
8642
100
AcDbEntity
  8
DEFPOINTS
 62
     0
100
AcDbPoint
 10
272.2950947291221
 20
-114.0157367420348
 30
0.0
  0
ENDBLK
  5
864D
330
8642
100
AcDbEntity
  8
0
100
AcDbBlockEnd
  0
BLOCK
  5
8658
330
864E
100
AcDbEntity
  8
0
100
AcDbBlockBegin
  2
*D8
 70
     1
 10
0.0
 20
0.0
 30
0.0
  3
*D8
  1

  0
LINE
  5
94B6
330
864E
100
AcDbEntity
  8
30
 62
     0
100
AcDbLine
 10
200.2950947291222
 20
-18.88342429882368
 30
0.0
 11
200.2950947291222
 21
-135.7657367420349
 31
0.0
  0
LINE
  5
94B7
330
864E
100
AcDbEntity
  8
30
 62
     0
100
AcDbLine
 10
272.2950947291221
 20
-71.38342429882365
 30
0.0
 11
272.2950947291221
 21
-135.7657367420349
 31
0.0
  0
LINE
  5
94B8
330
864E
100
AcDbEntity
  8
30
 62
     0
100
AcDbLine
 10
202.2950947291222
 20
-135.2657367420349
 30
0.0
 11
270.2950947291221
 21
-135.2657367420349
 31
0.0
  0
INSERT
  5
94B9
330
864E
100
AcDbEntity
  8
30
 62
     0
100
AcDbBlockReference
  2
_OPEN
 10
200.2950947291222
 20
-135.2657367420349
 30
0.0
 41
2.0
 42
2.0
 43
2.0
 50
180.0
  0
INSERT
  5
94BA
330
864E
100
AcDbEntity
  8
30
 62
     0
100
AcDbBlockReference
  2
_OPEN
 10
272.2950947291221
 20
-135.2657367420349
 30
0.0
 41
2.0
 42
2.0
 43
2.0
  0
MTEXT
  5
94BB
330
864E
100
AcDbEntity
  8
30
 62
     0
100
AcDbMText
 10
236.2950947291222
 20
-132.2657367420349
 30
0.0
 40
4.0
 41
0.0
 71
     5
 72
     1
  1
\A1;72
 73
     1
 44
1.0
1001
ACAD
1000
MTEXTBEGIN
1070
    73
1070
     1
1070
    44
1040
1.0
1070
    74
1070
     0
1000
MTEXTEND
  0
POINT
  5
94BC
330
864E
100
AcDbEntity
  8
DEFPOINTS
 62
     0
100
AcDbPoint
 10
200.2950947291222
 20
-17.88342429882368
 30
0.0
  0
POINT
  5
94BD
330
864E
100
AcDbEntity
  8
DEFPOINTS
 62
     0
100
AcDbPoint
 10
272.2950947291221
 20
-70.38342429882366
 30
0.0
  0
POINT
  5
94BE
330
864E
100
AcDbEntity
  8
DEFPOINTS
 62
     0
100
AcDbPoint
 10
272.2950947291221
 20
-135.2657367420349
 30
0.0
  0
ENDBLK
  5
8659
330
864E
100
AcDbEntity
  8
0
100
AcDbBlockEnd
  0
BLOCK
  5
8665
330
865A
100
AcDbEntity
  8
0
100
AcDbBlockBegin
  2
*D9
 70
     1
 10
0.0
 20
0.0
 30
0.0
  3
*D9
  1

  0
LINE
  5
94C8
330
865A
100
AcDbEntity
  8
30
 62
     0
100
AcDbLine
 10
196.2950947291222
 20
-18.88342429882368
 30
0.0
 11
196.2950947291222
 21
-135.7657367420349
 31
0.0
  0
LINE
  5
94C9
330
865A
100
AcDbEntity
  8
30
 62
     0
100
AcDbLine
 10
200.2950947291222
 20
-18.88342429882368
 30
0.0
 11
200.2950947291222
 21
-135.7657367420349
 31
0.0
  0
LINE
  5
94CA
330
865A
100
AcDbEntity
  8
30
 62
     0
100
AcDbLine
 10
194.2950947291222
 20
-135.2657367420349
 30
0.0
 11
192.2950947291221
 21
-135.2657367420349
 31
0.0
  0
LINE
  5
94CB
330
865A
100
AcDbEntity
  8
30
 62
     0
100
AcDbLine
 10
202.2950947291222
 20
-135.2657367420349
 30
0.0
 11
208.9617613957889
 21
-135.2657367420349
 31
0.0
  0
INSERT
  5
94CC
330
865A
100
AcDbEntity
  8
30
 62
     0
100
AcDbBlockReference
  2
_OPEN
 10
196.2950947291222
 20
-135.2657367420349
 30
0.0
 41
2.0
 42
2.0
 43
2.0
  0
INSERT
  5
94CD
330
865A
100
AcDbEntity
  8
30
 62
     0
100
AcDbBlockReference
  2
_OPEN
 10
200.2950947291222
 20
-135.2657367420349
 30
0.0
 41
2.0
 42
2.0
 43
2.0
 50
180.0
  0
MTEXT
  5
94CE
330
865A
100
AcDbEntity
  8
30
 62
     0
100
AcDbMText
 10
206.6284280624556
 20
-132.2657367420349
 30
0.0
 40
4.0
 41
0.0
 71
     5
 72
     1
  1
\A1;4
 73
     1
 44
1.0
1001
ACAD
1000
MTEXTBEGIN
1070
    73
1070
     1
1070
    44
1040
1.0
1070
    74
1070
     0
1000
MTEXTEND
  0
POINT
  5
94CF
330
865A
100
AcDbEntity
  8
DEFPOINTS
 62
     0
100
AcDbPoint
 10
196.2950947291222
 20
-17.88342429882368
 30
0.0
  0
POINT
  5
94D0
330
865A
100
AcDbEntity
  8
DEFPOINTS
 62
     0
100
AcDbPoint
 10
200.2950947291222
 20
-17.88342429882368
 30
0.0
  0
POINT
  5
94D1
330
865A
100
AcDbEntity
  8
DEFPOINTS
 62
     0
100
AcDbPoint
 10
200.2950947291222
 20
-135.2657367420349
 30
0.0
  0
ENDBLK
  5
8666
330
865A
100
AcDbEntity
  8
0
100
AcDbBlockEnd
  0
BLOCK
  5
8671
330
8667
100
AcDbEntity
  8
0
100
AcDbBlockBegin
  2
*D10
 70
     1
 10
0.0
 20
0.0
 30
0.0
  3
*D10
  1

  0
LINE
  5
94D2
330
8667
100
AcDbEntity
  8
30
 62
     0
100
AcDbLine
 10
272.2950947291221
 20
-90.88342429882365
 30
0.0
 11
272.2950947291221
 21
-94.51573674203483
 31
0.0
  0
LINE
  5
94D3
330
8667
100
AcDbEntity
  8
30
 62
     0
100
AcDbLine
 10
324.2950947291221
 20
-60.88342429882366
 30
0.0
 11
324.2950947291221
 21
-94.51573674203483
 31
0.0
  0
LINE
  5
94D4
330
8667
100
AcDbEntity
  8
30
 62
     0
100
AcDbLine
 10
274.2950947291221
 20
-94.01573674203486
 30
0.0
 11
322.2950947291221
 21
-94.01573674203486
 31
0.0
  0
INSERT
  5
94D5
330
8667
100
AcDbEntity
  8
30
 62
     0
100
AcDbBlockReference
  2
_OPEN
 10
272.2950947291221
 20
-94.01573674203486
 30
0.0
 41
2.0
 42
2.0
 43
2.0
 50
180.0
  0
INSERT
  5
94D6
330
8667
100
AcDbEntity
  8
30
 62
     0
100
AcDbBlockReference
  2
_OPEN
 10
324.2950947291221
 20
-94.01573674203486
 30
0.0
 41
2.0
 42
2.0
 43
2.0
  0
MTEXT
  5
94D7
330
8667
100
AcDbEntity
  8
30
 62
     0
100
AcDbMText
 10
298.2950947291221
 20
-91.01573674203486
 30
0.0
 40
4.0
 41
0.0
 71
     5
 72
     1
  1
\A1;52
 73
     1
 44
1.0
1001
ACAD
1000
MTEXTBEGIN
1070
    73
1070
     1
1070
    44
1040
1.0
1070
    74
1070
     0
1000
MTEXTEND
  0
POINT
  5
94D8
330
8667
100
AcDbEntity
  8
DEFPOINTS
 62
     0
100
AcDbPoint
 10
272.2950947291221
 20
-89.88342429882369
 30
0.0
  0
POINT
  5
94D9
330
8667
100
AcDbEntity
  8
DEFPOINTS
 62
     0
100
AcDbPoint
 10
324.2950947291221
 20
-59.88342429882365
 30
0.0
  0
POINT
  5
94DA
330
8667
100
AcDbEntity
  8
DEFPOINTS
 62
     0
100
AcDbPoint
 10
324.2950947291221
 20
-94.01573674203486
 30
0.0
  0
ENDBLK
  5
8672
330
8667
100
AcDbEntity
  8
0
100
AcDbBlockEnd
  0
BLOCK
  5
867D
330
8673
100
AcDbEntity
  8
0
100
AcDbBlockBegin
  2
*D11
 70
     1
 10
0.0
 20
0.0
 30
0.0
  3
*D11
  1

  0
LINE
  5
94A4
330
8673
100
AcDbEntity
  8
30
 62
     0
100
AcDbLine
 10
272.2950947291221
 20
-90.88342429882365
 30
0.0
 11
272.2950947291221
 21
-114.5157367420348
 31
0.0
  0
LINE
  5
94A5
330
8673
100
AcDbEntity
  8
30
 62
     0
100
AcDbLine
 10
374.2950947291221
 20
-60.88342429882366
 30
0.0
 11
374.2950947291221
 21
-114.5157367420348
 31
0.0
  0
LINE
  5
94A6
330
8673
100
AcDbEntity
  8
30
 62
     0
100
AcDbLine
 10
274.2950947291221
 20
-114.0157367420348
 30
0.0
 11
372.2950947291221
 21
-114.0157367420348
 31
0.0
  0
INSERT
  5
94A7
330
8673
100
AcDbEntity
  8
30
 62
     0
100
AcDbBlockReference
  2
_OPEN
 10
272.2950947291221
 20
-114.0157367420348
 30
0.0
 41
2.0
 42
2.0
 43
2.0
 50
180.0
  0
INSERT
  5
94A8
330
8673
100
AcDbEntity
  8
30
 62
     0
100
AcDbBlockReference
  2
_OPEN
 10
374.2950947291221
 20
-114.0157367420348
 30
0.0
 41
2.0
 42
2.0
 43
2.0
  0
MTEXT
  5
94A9
330
8673
100
AcDbEntity
  8
30
 62
     0
100
AcDbMText
 10
323.2950947291222
 20
-111.0157367420347
 30
0.0
 40
4.0
 41
0.0
 71
     5
 72
     1
  1
\A1;102
 73
     1
 44
1.0
1001
ACAD
1000
MTEXTBEGIN
1070
    73
1070
     1
1070
    44
1040
1.0
1070
    74
1070
     0
1000
MTEXTEND
  0
POINT
  5
94AA
330
8673
100
AcDbEntity
  8
DEFPOINTS
 62
     0
100
AcDbPoint
 10
272.2950947291221
 20
-89.88342429882369
 30
0.0
  0
POINT
  5
94AB
330
8673
100
AcDbEntity
  8
DEFPOINTS
 62
     0
100
AcDbPoint
 10
374.2950947291221
 20
-59.88342429882365
 30
0.0
  0
POINT
  5
94AC
330
8673
100
AcDbEntity
  8
DEFPOINTS
 62
     0
100
AcDbPoint
 10
374.2950947291221
 20
-114.0157367420348
 30
0.0
  0
ENDBLK
  5
867E
330
8673
100
AcDbEntity
  8
0
100
AcDbBlockEnd
  0
BLOCK
  5
8689
330
867F
100
AcDbEntity
  8
0
100
AcDbBlockBegin
  2
*D12
 70
     1
 10
0.0
 20
0.0
 30
0.0
  3
*D12
  1

  0
LINE
  5
94BF
330
867F
100
AcDbEntity
  8
30
 62
     0
100
AcDbLine
 10
211.2950947291222
 20
-71.38342429882365
 30
0.0
 11
211.2950947291222
 21
-94.51573674203483
 31
0.0
  0
LINE
  5
94C0
330
867F
100
AcDbEntity
  8
30
 62
     0
100
AcDbLine
 10
272.2950947291221
 20
-71.38342429882365
 30
0.0
 11
272.2950947291221
 21
-94.51573674203483
 31
0.0
  0
LINE
  5
94C1
330
867F
100
AcDbEntity
  8
30
 62
     0
100
AcDbLine
 10
213.2950947291222
 20
-94.01573674203486
 30
0.0
 11
270.2950947291221
 21
-94.01573674203486
 31
0.0
  0
INSERT
  5
94C2
330
867F
100
AcDbEntity
  8
30
 62
     0
100
AcDbBlockReference
  2
_OPEN
 10
211.2950947291222
 20
-94.01573674203486
 30
0.0
 41
2.0
 42
2.0
 43
2.0
 50
180.0
  0
INSERT
  5
94C3
330
867F
100
AcDbEntity
  8
30
 62
     0
100
AcDbBlockReference
  2
_OPEN
 10
272.2950947291221
 20
-94.01573674203486
 30
0.0
 41
2.0
 42
2.0
 43
2.0
  0
MTEXT
  5
94C4
330
867F
100
AcDbEntity
  8
30
 62
     0
100
AcDbMText
 10
241.7950947291222
 20
-91.01573674203486
 30
0.0
 40
4.0
 41
0.0
 71
     5
 72
     1
  1
\A1;61
 73
     1
 44
1.0
1001
ACAD
1000
MTEXTBEGIN
1070
    73
1070
     1
1070
    44
1040
1.0
1070
    74
1070
     0
1000
MTEXTEND
  0
POINT
  5
94C5
330
867F
100
AcDbEntity
  8
DEFPOINTS
 62
     0
100
AcDbPoint
 10
211.2950947291222
 20
-70.38342429882366
 30
0.0
  0
POINT
  5
94C6
330
867F
100
AcDbEntity
  8
DEFPOINTS
 62
     0
100
AcDbPoint
 10
272.2950947291221
 20
-70.38342429882366
 30
0.0
  0
POINT
  5
94C7
330
867F
100
AcDbEntity
  8
DEFPOINTS
 62
     0
100
AcDbPoint
 10
272.2950947291221
 20
-94.01573674203486
 30
0.0
  0
ENDBLK
  5
868A
330
867F
100
AcDbEntity
  8
0
100
AcDbBlockEnd
  0
BLOCK
  5
8695
330
868B
100
AcDbEntity
  8
0
100
AcDbBlockBegin
  2
*D13
 70
     1
 10
0.0
 20
0.0
 30
0.0
  3
*D13
  1

  0
LINE
  5
94DB
330
868B
100
AcDbEntity
  8
30
 62
     0
100
AcDbLine
 10
309.2950947291221
 20
-63.38342431532367
 30
0.0
 11
309.2950947291221
 21
-84.73864113789087
 31
0.0
  0
LINE
  5
94DC
330
868B
100
AcDbEntity
  8
30
 62
     0
100
AcDbLine
 10
324.2950947291221
 20
-70.17051214219527
 30
0.0
 11
324.2950947291221
 21
-84.73864113789087
 31
0.0
  0
LINE
  5
94DD
330
868B
100
AcDbEntity
  8
30
 62
     0
100
AcDbLine
 10
311.2950947291221
 20
-84.23864113789086
 30
0.0
 11
322.2950947291221
 21
-84.23864113789086
 31
0.0
  0
INSERT
  5
94DE
330
868B
100
AcDbEntity
  8
30
 62
     0
100
AcDbBlockReference
  2
_OPEN
 10
309.2950947291221
 20
-84.23864113789086
 30
0.0
 41
2.0
 42
2.0
 43
2.0
 50
180.0
  0
INSERT
  5
94DF
330
868B
100
AcDbEntity
  8
30
 62
     0
100
AcDbBlockReference
  2
_OPEN
 10
324.2950947291221
 20
-84.23864113789086
 30
0.0
 41
2.0
 42
2.0
 43
2.0
  0
MTEXT
  5
94E0
330
868B
100
AcDbEntity
  8
30
 62
     0
100
AcDbMText
 10
316.7950947291221
 20
-81.23864113789087
 30
0.0
 40
4.0
 41
0.0
 71
     5
 72
     1
  1
\A1;15
 73
     1
 44
1.0
1001
ACAD
1000
MTEXTBEGIN
1070
    73
1070
     1
1070
    44
1040
1.0
1070
    74
1070
     0
1000
MTEXTEND
  0
POINT
  5
94E1
330
868B
100
AcDbEntity
  8
DEFPOINTS
 62
     0
100
AcDbPoint
 10
309.2950947291221
 20
-62.38342431532368
 30
0.0
  0
POINT
  5
94E2
330
868B
100
AcDbEntity
  8
DEFPOINTS
 62
     0
100
AcDbPoint
 10
324.2950947291221
 20
-69.17051214219528
 30
0.0
  0
POINT
  5
94E3
330
868B
100
AcDbEntity
  8
DEFPOINTS
 62
     0
100
AcDbPoint
 10
324.2950947291221
 20
-84.23864113789086
 30
0.0
  0
ENDBLK
  5
8696
330
868B
100
AcDbEntity
  8
0
100
AcDbBlockEnd
  0
BLOCK
  5
86A1
330
8697
100
AcDbEntity
  8
0
100
AcDbBlockBegin
  2
*D14
 70
     1
 10
0.0
 20
0.0
 30
0.0
  3
*D14
  1

  0
LINE
  5
94F6
330
8697
100
AcDbEntity
  8
30
 62
     0
100
AcDbLine
 10
359.2950947291221
 20
-63.38342431532367
 30
0.0
 11
359.2950947291221
 21
-74.51573674203499
 31
0.0
  0
LINE
  5
94F7
330
8697
100
AcDbEntity
  8
30
 62
     0
100
AcDbLine
 10
374.2950947291221
 20
-70.17051214219527
 30
0.0
 11
374.2950947291221
 21
-74.51573674203499
 31
0.0
  0
LINE
  5
94F8
330
8697
100
AcDbEntity
  8
30
 62
     0
100
AcDbLine
 10
361.2950947291222
 20
-74.01573674203497
 30
0.0
 11
372.2950947291221
 21
-74.01573674203497
 31
0.0
  0
INSERT
  5
94F9
330
8697
100
AcDbEntity
  8
30
 62
     0
100
AcDbBlockReference
  2
_OPEN
 10
359.2950947291221
 20
-74.01573674203497
 30
0.0
 41
2.0
 42
2.0
 43
2.0
 50
180.0
  0
INSERT
  5
94FA
330
8697
100
AcDbEntity
  8
30
 62
     0
100
AcDbBlockReference
  2
_OPEN
 10
374.2950947291221
 20
-74.01573674203497
 30
0.0
 41
2.0
 42
2.0
 43
2.0
  0
MTEXT
  5
94FB
330
8697
100
AcDbEntity
  8
30
 62
     0
100
AcDbMText
 10
366.7950947291221
 20
-71.01573674203497
 30
0.0
 40
4.0
 41
0.0
 71
     5
 72
     1
  1
\A1;15
 73
     1
 44
1.0
1001
ACAD
1000
MTEXTBEGIN
1070
    73
1070
     1
1070
    44
1040
1.0
1070
    74
1070
     0
1000
MTEXTEND
  0
POINT
  5
94FC
330
8697
100
AcDbEntity
  8
DEFPOINTS
 62
     0
100
AcDbPoint
 10
359.2950947291221
 20
-62.38342431532368
 30
0.0
  0
POINT
  5
94FD
330
8697
100
AcDbEntity
  8
DEFPOINTS
 62
     0
100
AcDbPoint
 10
374.2950947291221
 20
-69.17051214219528
 30
0.0
  0
POINT
  5
94FE
330
8697
100
AcDbEntity
  8
DEFPOINTS
 62
     0
100
AcDbPoint
 10
374.2950947291221
 20
-74.01573674203497
 30
0.0
  0
ENDBLK
  5
86A2
330
8697
100
AcDbEntity
  8
0
100
AcDbBlockEnd
  0
BLOCK
  5
87F3
330
87E9
100
AcDbEntity
  8
0
100
AcDbBlockBegin
  2
*D15
 70
     1
 10
0.0
 20
0.0
 30
0.0
  3
*D15
  1

  0
LINE
  5
8B93
330
87E9
100
AcDbEntity
  8
30
 62
     0
100
AcDbLine
 10
-30.00000000000023
 20
260.8811670622456
 30
0.0
 11
-30.00000000000022
 21
313.9340221653556
 31
0.0
  0
LINE
  5
8B94
330
87E9
100
AcDbEntity
  8
30
 62
     0
100
AcDbLine
 10
-0.0000000000002273
 20
305.8811670622456
 30
0.0
 11
-0.0000000000002268
 21
313.9340221653556
 31
0.0
  0
LINE
  5
8B95
330
87E9
100
AcDbEntity
  8
30
 62
     0
100
AcDbLine
 10
-28.00000000000022
 20
313.4340221653556
 30
0.0
 11
-2.000000000000226
 21
313.4340221653556
 31
0.0
  0
INSERT
  5
8B96
330
87E9
100
AcDbEntity
  8
30
 62
     0
100
AcDbBlockReference
  2
_OPEN
 10
-30.00000000000022
 20
313.4340221653556
 30
0.0
 41
2.0
 42
2.0
 43
2.0
 50
180.0
  0
INSERT
  5
8B97
330
87E9
100
AcDbEntity
  8
30
 62
     0
100
AcDbBlockReference
  2
_OPEN
 10
-0.0000000000002268
 20
313.4340221653556
 30
0.0
 41
2.0
 42
2.0
 43
2.0
  0
MTEXT
  5
8B98
330
87E9
100
AcDbEntity
  8
30
 62
     0
100
AcDbMText
 10
-15.00000000000022
 20
316.4340221653556
 30
0.0
 40
4.0
 41
0.0
 71
     5
 72
     1
  1
\A1;30
 73
     1
 44
1.0
1001
ACAD
1000
MTEXTBEGIN
1070
    73
1070
     1
1070
    44
1040
1.0
1070
    74
1070
     0
1000
MTEXTEND
1000
MTEXTBEGIN
1070
    73
1070
     1
1070
    44
1040
1.0
1070
    74
1070
     0
1000
MTEXTEND
  0
POINT
  5
8B99
330
87E9
100
AcDbEntity
  8
DEFPOINTS
 62
     0
100
AcDbPoint
 10
-30.00000000000023
 20
259.8811670622456
 30
0.0
  0
POINT
  5
8B9A
330
87E9
100
AcDbEntity
  8
DEFPOINTS
 62
     0
100
AcDbPoint
 10
-0.0000000000002274
 20
304.8811670622456
 30
0.0
  0
POINT
  5
8B9B
330
87E9
100
AcDbEntity
  8
DEFPOINTS
 62
     0
100
AcDbPoint
 10
-0.0000000000002268
 20
313.4340221653556
 30
0.0
  0
ENDBLK
  5
87F4
330
87E9
100
AcDbEntity
  8
0
100
AcDbBlockEnd
  0
BLOCK
  5
8800
330
87F6
100
AcDbEntity
  8
0
100
AcDbBlockBegin
  2
*D16
 70
     1
 10
0.0
 20
0.0
 30
0.0
  3
*D16
  1

  0
LINE
  5
9530
330
87F6
100
AcDbEntity
  8
30
 62
     0
100
AcDbLine
 10
-0.0000000000002273
 20
305.8811670622456
 30
0.0
 11
-0.0000000000002268
 21
313.9340221653556
 31
0.0
  0
LINE
  5
9531
330
87F6
100
AcDbEntity
  8
30
 62
     0
100
AcDbLine
 10
29.99999999999977
 20
260.8811670622456
 30
0.0
 11
29.99999999999977
 21
313.9340221653556
 31
0.0
  0
LINE
  5
9532
330
87F6
100
AcDbEntity
  8
30
 62
     0
100
AcDbLine
 10
1.999999999999771
 20
313.4340221653556
 30
0.0
 11
27.99999999999977
 21
313.4340221653556
 31
0.0
  0
INSERT
  5
9533
330
87F6
100
AcDbEntity
  8
30
 62
     0
100
AcDbBlockReference
  2
_OPEN
 10
-0.0000000000002269
 20
313.4340221653556
 30
0.0
 41
2.0
 42
2.0
 43
2.0
 50
180.0
  0
INSERT
  5
9534
330
87F6
100
AcDbEntity
  8
30
 62
     0
100
AcDbBlockReference
  2
_OPEN
 10
29.99999999999977
 20
313.4340221653556
 30
0.0
 41
2.0
 42
2.0
 43
2.0
  0
MTEXT
  5
9535
330
87F6
100
AcDbEntity
  8
30
 62
     0
100
AcDbMText
 10
14.99999999999976
 20
316.4340221653556
 30
0.0
 40
4.0
 41
0.0
 71
     5
 72
     1
  1
\A1;30
 73
     1
 44
1.0
  0
POINT
  5
9536
330
87F6
100
AcDbEntity
  8
DEFPOINTS
 62
     0
100
AcDbPoint
 10
-0.0000000000002274
 20
304.8811670622456
 30
0.0
  0
POINT
  5
9537
330
87F6
100
AcDbEntity
  8
DEFPOINTS
 62
     0
100
AcDbPoint
 10
29.99999999999977
 20
259.8811670622456
 30
0.0
  0
POINT
  5
9538
330
87F6
100
AcDbEntity
  8
DEFPOINTS
 62
     0
100
AcDbPoint
 10
29.99999999999977
 20
313.4340221653556
 30
0.0
  0
ENDBLK
  5
8801
330
87F6
100
AcDbEntity
  8
0
100
AcDbBlockEnd
  0
BLOCK
  5
880D
330
8803
100
AcDbEntity
  8
0
100
AcDbBlockBegin
  2
*D17
 70
     1
 10
0.0
 20
0.0
 30
0.0
  3
*D17
  1

  0
LINE
  5
9539
330
8803
100
AcDbEntity
  8
30
 62
     0
100
AcDbLine
 10
29.99999999999977
 20
260.8811670622456
 30
0.0
 11
29.99999999999977
 21
313.9340221653556
 31
0.0
  0
LINE
  5
953A
330
8803
100
AcDbEntity
  8
30
 62
     0
100
AcDbLine
 10
59.99999999999977
 20
310.8811670622456
 30
0.0
 11
59.99999999999977
 21
313.9340221653556
 31
0.0
  0
LINE
  5
953B
330
8803
100
AcDbEntity
  8
30
 62
     0
100
AcDbLine
 10
31.99999999999977
 20
313.4340221653556
 30
0.0
 11
57.99999999999977
 21
313.4340221653556
 31
0.0
  0
INSERT
  5
953C
330
8803
100
AcDbEntity
  8
30
 62
     0
100
AcDbBlockReference
  2
_OPEN
 10
29.99999999999977
 20
313.4340221653556
 30
0.0
 41
2.0
 42
2.0
 43
2.0
 50
180.0
  0
INSERT
  5
953D
330
8803
100
AcDbEntity
  8
30
 62
     0
100
AcDbBlockReference
  2
_OPEN
 10
59.99999999999977
 20
313.4340221653556
 30
0.0
 41
2.0
 42
2.0
 43
2.0
  0
MTEXT
  5
953E
330
8803
100
AcDbEntity
  8
30
 62
     0
100
AcDbMText
 10
44.99999999999977
 20
316.4340221653556
 30
0.0
 40
4.0
 41
0.0
 71
     5
 72
     1
  1
\A1;30
 73
     1
 44
1.0
  0
POINT
  5
953F
330
8803
100
AcDbEntity
  8
DEFPOINTS
 62
     0
100
AcDbPoint
 10
29.99999999999977
 20
259.8811670622456
 30
0.0
  0
POINT
  5
9540
330
8803
100
AcDbEntity
  8
DEFPOINTS
 62
     0
100
AcDbPoint
 10
59.99999999999977
 20
309.8811670622456
 30
0.0
  0
POINT
  5
9541
330
8803
100
AcDbEntity
  8
DEFPOINTS
 62
     0
100
AcDbPoint
 10
59.99999999999977
 20
313.4340221653556
 30
0.0
  0
ENDBLK
  5
880E
330
8803
100
AcDbEntity
  8
0
100
AcDbBlockEnd
  0
BLOCK
  5
8847
330
883D
100
AcDbEntity
  8
0
100
AcDbBlockBegin
  2
*D18
 70
     1
 10
0.0
 20
0.0
 30
0.0
  3
*D18
  1

  0
LINE
  5
8B78
330
883D
100
AcDbEntity
  8
30
 62
     0
100
AcDbLine
 10
-46.0
 20
77.49999999999992
 30
0.0
 11
-80.39493462656308
 21
77.49999999999992
 31
0.0
  0
LINE
  5
8B79
330
883D
100
AcDbEntity
  8
30
 62
     0
100
AcDbLine
 10
-46.0
 20
-77.5
 30
0.0
 11
-80.39493462656308
 21
-77.5
 31
0.0
  0
LINE
  5
8B7A
330
883D
100
AcDbEntity
  8
30
 62
     0
100
AcDbLine
 10
-79.89493462656304
 20
75.49999999999993
 30
0.0
 11
-79.89493462656309
 21
-75.5
 31
0.0
  0
INSERT
  5
8B7B
330
883D
100
AcDbEntity
  8
30
 62
     0
100
AcDbBlockReference
  2
_OPEN
 10
-79.89493462656304
 20
77.49999999999992
 30
0.0
 41
2.0
 42
2.0
 43
2.0
 50
90.0
  0
INSERT
  5
8B7C
330
883D
100
AcDbEntity
  8
30
 62
     0
100
AcDbBlockReference
  2
_OPEN
 10
-79.89493462656309
 20
-77.5
 30
0.0
 41
2.0
 42
2.0
 43
2.0
 50
270.0
  0
MTEXT
  5
8B7D
330
883D
100
AcDbEntity
  8
30
 62
     0
100
AcDbMText
 10
-82.89493462656308
 20
-0.0000000000000374
 30
0.0
 40
4.0
 41
0.0
 71
     5
 72
     1
  1
\A1;155
 11
0.0000000000000001
 21
1.0
 31
0.0
 73
     1
 44
1.0
1001
ACAD
1000
MTEXTBEGIN
1070
    73
1070
     1
1070
    44
1040
1.0
1070
    74
1070
     0
1000
MTEXTEND
1000
MTEXTBEGIN
1070
    73
1070
     1
1070
    44
1040
1.0
1070
    74
1070
     0
1000
MTEXTEND
  0
POINT
  5
8B7E
330
883D
100
AcDbEntity
  8
DEFPOINTS
 62
     0
100
AcDbPoint
 10
-45.0
 20
77.49999999999992
 30
0.0
  0
POINT
  5
8B7F
330
883D
100
AcDbEntity
  8
DEFPOINTS
 62
     0
100
AcDbPoint
 10
-45.0
 20
-77.5
 30
0.0
  0
POINT
  5
8B80
330
883D
100
AcDbEntity
  8
DEFPOINTS
 62
     0
100
AcDbPoint
 10
-79.89493462656309
 20
-77.5
 30
0.0
  0
ENDBLK
  5
8848
330
883D
100
AcDbEntity
  8
0
100
AcDbBlockEnd
  0
BLOCK
  5
885D
330
8853
100
AcDbEntity
  8
0
100
AcDbBlockBegin
  2
*D19
 70
     1
 10
0.0
 20
0.0
 30
0.0
  3
*D19
  1

  0
LINE
  5
8B6F
330
8853
100
AcDbEntity
  8
30
 62
     0
100
AcDbLine
 10
-46.0
 20
50.99999999999988
 30
0.0
 11
-69.83461828766346
 21
50.99999999999989
 31
0.0
  0
LINE
  5
8B70
330
8853
100
AcDbEntity
  8
30
 62
     0
100
AcDbLine
 10
-46.0
 20
-51.00000000000003
 30
0.0
 11
-69.83461828766349
 21
-51.00000000000002
 31
0.0
  0
LINE
  5
8B71
330
8853
100
AcDbEntity
  8
30
 62
     0
100
AcDbLine
 10
-69.33461828766346
 20
48.99999999999989
 30
0.0
 11
-69.33461828766349
 21
-49.00000000000002
 31
0.0
  0
INSERT
  5
8B72
330
8853
100
AcDbEntity
  8
30
 62
     0
100
AcDbBlockReference
  2
_OPEN
 10
-69.33461828766346
 20
50.99999999999989
 30
0.0
 41
2.0
 42
2.0
 43
2.0
 50
90.0
  0
INSERT
  5
8B73
330
8853
100
AcDbEntity
  8
30
 62
     0
100
AcDbBlockReference
  2
_OPEN
 10
-69.33461828766349
 20
-51.00000000000002
 30
0.0
 41
2.0
 42
2.0
 43
2.0
 50
270.0
  0
MTEXT
  5
8B74
330
8853
100
AcDbEntity
  8
30
 62
     0
100
AcDbMText
 10
-72.33461828766349
 20
-0.0000000000000735
 30
0.0
 40
4.0
 41
0.0
 71
     5
 72
     1
  1
\A1;102
 11
0.0000000000000001
 21
1.0
 31
0.0
 73
     1
 44
1.0
1001
ACAD
1000
MTEXTBEGIN
1070
    73
1070
     1
1070
    44
1040
1.0
1070
    74
1070
     0
1000
MTEXTEND
1000
MTEXTBEGIN
1070
    73
1070
     1
1070
    44
1040
1.0
1070
    74
1070
     0
1000
MTEXTEND
  0
POINT
  5
8B75
330
8853
100
AcDbEntity
  8
DEFPOINTS
 62
     0
100
AcDbPoint
 10
-45.0
 20
50.99999999999988
 30
0.0
  0
POINT
  5
8B76
330
8853
100
AcDbEntity
  8
DEFPOINTS
 62
     0
100
AcDbPoint
 10
-45.0
 20
-51.00000000000003
 30
0.0
  0
POINT
  5
8B77
330
8853
100
AcDbEntity
  8
DEFPOINTS
 62
     0
100
AcDbPoint
 10
-69.33461828766349
 20
-51.00000000000002
 30
0.0
  0
ENDBLK
  5
885E
330
8853
100
AcDbEntity
  8
0
100
AcDbBlockEnd
  0
BLOCK
  5
886A
330
8860
100
AcDbEntity
  8
0
100
AcDbBlockBegin
  2
*D20
 70
     1
 10
0.0
 20
0.0
 30
0.0
  3
*D20
  1

  0
LINE
  5
8B66
330
8860
100
AcDbEntity
  8
30
 62
     0
100
AcDbLine
 10
-43.0
 20
24.99999999999994
 30
0.0
 11
-60.44766848119387
 21
24.99999999999994
 31
0.0
  0
LINE
  5
8B67
330
8860
100
AcDbEntity
  8
30
 62
     0
100
AcDbLine
 10
-43.0
 20
-25.0
 30
0.0
 11
-60.44766848119389
 21
-25.0
 31
0.0
  0
LINE
  5
8B68
330
8860
100
AcDbEntity
  8
30
 62
     0
100
AcDbLine
 10
-59.94766848119386
 20
22.99999999999994
 30
0.0
 11
-59.9476684811939
 21
-22.99999999999998
 31
0.0
  0
INSERT
  5
8B69
330
8860
100
AcDbEntity
  8
30
 62
     0
100
AcDbBlockReference
  2
_OPEN
 10
-59.94766848119386
 20
24.99999999999994
 30
0.0
 41
2.0
 42
2.0
 43
2.0
 50
90.0
  0
INSERT
  5
8B6A
330
8860
100
AcDbEntity
  8
30
 62
     0
100
AcDbBlockReference
  2
_OPEN
 10
-59.9476684811939
 20
-25.0
 30
0.0
 41
2.0
 42
2.0
 43
2.0
 50
270.0
  0
MTEXT
  5
8B6B
330
8860
100
AcDbEntity
  8
30
 62
     0
100
AcDbMText
 10
-62.94766848119389
 20
-0.000000000000035
 30
0.0
 40
4.0
 41
0.0
 71
     5
 72
     1
  1
\A1;50
 11
0.0000000000000001
 21
1.0
 31
0.0
 73
     1
 44
1.0
1001
ACAD
1000
MTEXTBEGIN
1070
    73
1070
     1
1070
    44
1040
1.0
1070
    74
1070
     0
1000
MTEXTEND
1000
MTEXTBEGIN
1070
    73
1070
     1
1070
    44
1040
1.0
1070
    74
1070
     0
1000
MTEXTEND
  0
POINT
  5
8B6C
330
8860
100
AcDbEntity
  8
DEFPOINTS
 62
     0
100
AcDbPoint
 10
-42.0
 20
24.99999999999994
 30
0.0
  0
POINT
  5
8B6D
330
8860
100
AcDbEntity
  8
DEFPOINTS
 62
     0
100
AcDbPoint
 10
-42.0
 20
-25.0
 30
0.0
  0
POINT
  5
8B6E
330
8860
100
AcDbEntity
  8
DEFPOINTS
 62
     0
100
AcDbPoint
 10
-59.9476684811939
 20
-25.0
 30
0.0
  0
ENDBLK
  5
886B
330
8860
100
AcDbEntity
  8
0
100
AcDbBlockEnd
  0
BLOCK
  5
8D49
330
8D3F
100
AcDbEntity
  8
0
100
AcDbBlockBegin
  2
*D21
 70
     1
 10
0.0
 20
0.0
 30
0.0
  3
*D21
  1

  0
LINE
  5
9492
330
8D3F
100
AcDbEntity
  8
30
 62
     0
100
AcDbLine
 10
180.2950947291222
 20
6.116575701176347
 30
0.0
 11
180.2950947291222
 21
-148.494881459514
 31
0.0
  0
LINE
  5
9493
330
8D3F
100
AcDbEntity
  8
30
 62
     0
100
AcDbLine
 10
272.2950947291221
 20
-136.7657367420349
 30
0.0
 11
272.2950947291221
 21
-148.494881459514
 31
0.0
  0
LINE
  5
9494
330
8D3F
100
AcDbEntity
  8
30
 62
     0
100
AcDbLine
 10
182.2950947291222
 20
-147.994881459514
 30
0.0
 11
270.2950947291221
 21
-147.994881459514
 31
0.0
  0
INSERT
  5
9495
330
8D3F
100
AcDbEntity
  8
30
 62
     0
100
AcDbBlockReference
  2
_OPEN
 10
180.2950947291222
 20
-147.994881459514
 30
0.0
 41
2.0
 42
2.0
 43
2.0
 50
180.0
  0
INSERT
  5
9496
330
8D3F
100
AcDbEntity
  8
30
 62
     0
100
AcDbBlockReference
  2
_OPEN
 10
272.2950947291221
 20
-147.994881459514
 30
0.0
 41
2.0
 42
2.0
 43
2.0
  0
MTEXT
  5
9497
330
8D3F
100
AcDbEntity
  8
30
 62
     0
100
AcDbMText
 10
226.2950947291222
 20
-144.9948814595139
 30
0.0
 40
4.0
 41
0.0
 71
     5
 72
     1
  1
\A1;92
 73
     1
 44
1.0
1001
ACAD
1000
MTEXTBEGIN
1070
    73
1070
     1
1070
    44
1040
1.0
1070
    74
1070
     0
1000
MTEXTEND
  0
POINT
  5
9498
330
8D3F
100
AcDbEntity
  8
DEFPOINTS
 62
     0
100
AcDbPoint
 10
180.2950947291222
 20
7.116575701176347
 30
0.0
  0
POINT
  5
9499
330
8D3F
100
AcDbEntity
  8
DEFPOINTS
 62
     0
100
AcDbPoint
 10
272.2950947291221
 20
-135.7657367420349
 30
0.0
  0
POINT
  5
949A
330
8D3F
100
AcDbEntity
  8
DEFPOINTS
 62
     0
100
AcDbPoint
 10
272.2950947291221
 20
-147.994881459514
 30
0.0
  0
ENDBLK
  5
8D4A
330
8D3F
100
AcDbEntity
  8
0
100
AcDbBlockEnd
  0
BLOCK
  5
8D6E
330
8D64
100
AcDbEntity
  8
0
100
AcDbBlockBegin
  2
*D22
 70
     1
 10
0.0
 20
0.0
 30
0.0
  3
*D22
  1

  0
LINE
  5
949B
330
8D64
100
AcDbEntity
  8
30
 62
     0
100
AcDbLine
 10
385.2950947291221
 20
74.11657570117625
 30
0.0
 11
414.8145426194619
 21
74.11657570117625
 31
0.0
  0
LINE
  5
949C
330
8D64
100
AcDbEntity
  8
30
 62
     0
100
AcDbLine
 10
385.2950947291221
 20
-59.88342429882365
 30
0.0
 11
414.8145426194619
 21
-59.88342429882365
 31
0.0
  0
LINE
  5
949D
330
8D64
100
AcDbEntity
  8
30
 62
     0
100
AcDbLine
 10
414.3145426194619
 20
72.11657570117626
 30
0.0
 11
414.3145426194619
 21
-57.88342429882366
 31
0.0
  0
INSERT
  5
949E
330
8D64
100
AcDbEntity
  8
30
 62
     0
100
AcDbBlockReference
  2
_OPEN
 10
414.3145426194619
 20
74.11657570117625
 30
0.0
 41
2.0
 42
2.0
 43
2.0
 50
90.0
  0
INSERT
  5
949F
330
8D64
100
AcDbEntity
  8
30
 62
     0
100
AcDbBlockReference
  2
_OPEN
 10
414.3145426194619
 20
-59.88342429882365
 30
0.0
 41
2.0
 42
2.0
 43
2.0
 50
270.0
  0
MTEXT
  5
94A0
330
8D64
100
AcDbEntity
  8
30
 62
     0
100
AcDbMText
 10
411.3145426194619
 20
7.116575701176369
 30
0.0
 40
4.0
 41
0.0
 71
     5
 72
     1
  1
\A1;134
 11
0.0000000000000001
 21
1.0
 31
0.0
 73
     1
 44
1.0
1001
ACAD
1000
MTEXTBEGIN
1070
    73
1070
     1
1070
    44
1040
1.0
1070
    74
1070
     0
1000
MTEXTEND
  0
POINT
  5
94A1
330
8D64
100
AcDbEntity
  8
DEFPOINTS
 62
     0
100
AcDbPoint
 10
384.2950947291221
 20
74.11657570117625
 30
0.0
  0
POINT
  5
94A2
330
8D64
100
AcDbEntity
  8
DEFPOINTS
 62
     0
100
AcDbPoint
 10
384.2950947291221
 20
-59.88342429882365
 30
0.0
  0
POINT
  5
94A3
330
8D64
100
AcDbEntity
  8
DEFPOINTS
 62
     0
100
AcDbPoint
 10
414.3145426194619
 20
-59.88342429882365
 30
0.0
  0
ENDBLK
  5
8D6F
330
8D64
100
AcDbEntity
  8
0
100
AcDbBlockEnd
  0
BLOCK
  5
92B9
330
92AF
100
AcDbEntity
  8
0
100
AcDbBlockBegin
  2
*D23
 70
     1
 10
0.0
 20
0.0
 30
0.0
  3
*D23
  1

  0
LINE
  5
9328
330
92AF
100
AcDbEntity
  8
30
 62
     0
100
AcDbLine
 10
63.50000001650005
 20
-302.0
 30
0.0
 11
116.6399438671996
 21
-302.0
 31
0.0
  0
LINE
  5
9329
330
92AF
100
AcDbEntity
  8
30
 62
     0
100
AcDbLine
 10
63.50000001650005
 20
-168.0
 30
0.0
 11
116.6399438671997
 21
-168.0
 31
0.0
  0
LINE
  5
932A
330
92AF
100
AcDbEntity
  8
30
 62
     0
100
AcDbLine
 10
116.1399438671997
 20
-300.0
 30
0.0
 11
116.1399438671997
 21
-170.0
 31
0.0
  0
INSERT
  5
932B
330
92AF
100
AcDbEntity
  8
30
 62
     0
100
AcDbBlockReference
  2
_OPEN
 10
116.1399438671997
 20
-302.0
 30
0.0
 41
2.0
 42
2.0
 43
2.0
 50
270.0
  0
INSERT
  5
932C
330
92AF
100
AcDbEntity
  8
30
 62
     0
100
AcDbBlockReference
  2
_OPEN
 10
116.1399438671997
 20
-168.0
 30
0.0
 41
2.0
 42
2.0
 43
2.0
 50
90.0
  0
MTEXT
  5
932D
330
92AF
100
AcDbEntity
  8
30
 62
     0
100
AcDbMText
 10
113.1399438671995
 20
-235.0
 30
0.0
 40
4.0
 41
0.0
 71
     5
 72
     1
  1
\A1;134
 11
0.0000000000000001
 21
1.0
 31
0.0
 73
     1
 44
1.0
1001
ACAD
1000
MTEXTBEGIN
1070
    73
1070
     1
1070
    44
1040
1.0
1070
    74
1070
     0
1000
MTEXTEND
1000
MTEXTBEGIN
1070
    73
1070
     1
1070
    44
1040
1.0
1070
    74
1070
     0
1000
MTEXTEND
  0
POINT
  5
932E
330
92AF
100
AcDbEntity
  8
DEFPOINTS
 62
     0
100
AcDbPoint
 10
62.50000001650003
 20
-302.0
 30
0.0
  0
POINT
  5
932F
330
92AF
100
AcDbEntity
  8
DEFPOINTS
 62
     0
100
AcDbPoint
 10
62.50000001650003
 20
-168.0
 30
0.0
  0
POINT
  5
9330
330
92AF
100
AcDbEntity
  8
DEFPOINTS
 62
     0
100
AcDbPoint
 10
116.1399438671997
 20
-168.0
 30
0.0
  0
ENDBLK
  5
92BA
330
92AF
100
AcDbEntity
  8
0
100
AcDbBlockEnd
  0
BLOCK
  5
92E9
330
92DF
100
AcDbEntity
  8
0
100
AcDbBlockBegin
  2
*D24
 70
     1
 10
0.0
 20
0.0
 30
0.0
  3
*D24
  1

  0
LINE
  5
92EB
330
92DF
100
AcDbEntity
  8
30
 62
     0
100
AcDbLine
 10
-15.00000000000158
 20
-305.9999999999998
 30
0.0
 11
-15.00000000000158
 21
-330.5941269446008
 31
0.0
  0
LINE
  5
92EC
330
92DF
100
AcDbEntity
  8
30
 62
     0
100
AcDbLine
 10
14.99999999999841
 20
-305.9999999999998
 30
0.0
 11
14.9999999999984
 21
-330.5941269446008
 31
0.0
  0
LINE
  5
92ED
330
92DF
100
AcDbEntity
  8
30
 62
     0
100
AcDbLine
 10
-13.00000000000159
 20
-330.0941269446008
 30
0.0
 11
12.99999999999839
 21
-330.0941269446008
 31
0.0
  0
INSERT
  5
92EE
330
92DF
100
AcDbEntity
  8
30
 62
     0
100
AcDbBlockReference
  2
_OPEN
 10
-15.00000000000158
 20
-330.0941269446008
 30
0.0
 41
2.0
 42
2.0
 43
2.0
 50
180.0
  0
INSERT
  5
92EF
330
92DF
100
AcDbEntity
  8
30
 62
     0
100
AcDbBlockReference
  2
_OPEN
 10
14.9999999999984
 20
-330.0941269446008
 30
0.0
 41
2.0
 42
2.0
 43
2.0
  0
MTEXT
  5
92F0
330
92DF
100
AcDbEntity
  8
30
 62
     0
100
AcDbMText
 10
-0.0000000000015932
 20
-327.0941269446008
 30
0.0
 40
4.0
 41
0.0
 71
     5
 72
     1
  1
\A1;30
 73
     1
 44
1.0
1001
ACAD
1000
MTEXTBEGIN
1070
    73
1070
     1
1070
    44
1040
1.0
1070
    74
1070
     0
1000
MTEXTEND
1000
MTEXTBEGIN
1070
    73
1070
     1
1070
    44
1040
1.0
1070
    74
1070
     0
1000
MTEXTEND
  0
POINT
  5
92F1
330
92DF
100
AcDbEntity
  8
DEFPOINTS
 62
     0
100
AcDbPoint
 10
-15.00000000000158
 20
-304.9999999999998
 30
0.0
  0
POINT
  5
92F2
330
92DF
100
AcDbEntity
  8
DEFPOINTS
 62
     0
100
AcDbPoint
 10
14.99999999999841
 20
-304.9999999999998
 30
0.0
  0
POINT
  5
92F3
330
92DF
100
AcDbEntity
  8
DEFPOINTS
 62
     0
100
AcDbPoint
 10
14.9999999999984
 20
-330.0941269446008
 30
0.0
  0
ENDBLK
  5
92EA
330
92DF
100
AcDbEntity
  8
0
100
AcDbBlockEnd
  0
BLOCK
  5
92FF
330
92F5
100
AcDbEntity
  8
0
100
AcDbBlockBegin
  2
*D25
 70
     1
 10
0.0
 20
0.0
 30
0.0
  3
*D25
  1

  0
LINE
  5
92F6
330
92F5
100
AcDbEntity
  8
30
 62
     0
100
AcDbLine
 10
-30.0
 20
-315.0
 30
0.0
 11
-30.0
 21
-340.2034767486353
 31
0.0
  0
LINE
  5
92F7
330
92F5
100
AcDbEntity
  8
30
 62
     0
100
AcDbLine
 10
-0.0000000000000001
 20
-318.4374692359974
 30
0.0
 11
-0.0000000000000014
 21
-340.2034767486353
 31
0.0
  0
LINE
  5
92F8
330
92F5
100
AcDbEntity
  8
30
 62
     0
100
AcDbLine
 10
-28.0
 20
-339.7034767486353
 30
0.0
 11
-2.0
 21
-339.7034767486353
 31
0.0
  0
INSERT
  5
92F9
330
92F5
100
AcDbEntity
  8
30
 62
     0
100
AcDbBlockReference
  2
_OPEN
 10
-30.0
 20
-339.7034767486353
 30
0.0
 41
2.0
 42
2.0
 43
2.0
 50
180.0
  0
INSERT
  5
92FA
330
92F5
100
AcDbEntity
  8
30
 62
     0
100
AcDbBlockReference
  2
_OPEN
 10
-0.0000000000000014
 20
-339.7034767486353
 30
0.0
 41
2.0
 42
2.0
 43
2.0
  0
MTEXT
  5
92FB
330
92F5
100
AcDbEntity
  8
30
 62
     0
100
AcDbMText
 10
-15.0
 20
-336.7034767486353
 30
0.0
 40
4.0
 41
0.0
 71
     5
 72
     1
  1
\A1;30
 73
     1
 44
1.0
1001
ACAD
1000
MTEXTBEGIN
1070
    73
1070
     1
1070
    44
1040
1.0
1070
    74
1070
     0
1000
MTEXTEND
1000
MTEXTBEGIN
1070
    73
1070
     1
1070
    44
1040
1.0
1070
    74
1070
     0
1000
MTEXTEND
  0
POINT
  5
92FC
330
92F5
100
AcDbEntity
  8
DEFPOINTS
 62
     0
100
AcDbPoint
 10
-30.0
 20
-314.0
 30
0.0
  0
POINT
  5
92FD
330
92F5
100
AcDbEntity
  8
DEFPOINTS
 62
     0
100
AcDbPoint
 10
0.0
 20
-317.4374692359974
 30
0.0
  0
POINT
  5
92FE
330
92F5
100
AcDbEntity
  8
DEFPOINTS
 62
     0
100
AcDbPoint
 10
-0.0000000000000014
 20
-339.7034767486353
 30
0.0
  0
ENDBLK
  5
9300
330
92F5
100
AcDbEntity
  8
0
100
AcDbBlockEnd
  0
BLOCK
  5
930C
330
9302
100
AcDbEntity
  8
0
100
AcDbBlockBegin
  2
*D26
 70
     1
 10
0.0
 20
0.0
 30
0.0
  3
*D26
  1

  0
LINE
  5
9542
330
9302
100
AcDbEntity
  8
30
 62
     0
100
AcDbLine
 10
-0.0000000000000001
 20
-318.4374692359974
 30
0.0
 11
-0.0000000000000014
 21
-340.2034767486353
 31
0.0
  0
LINE
  5
9543
330
9302
100
AcDbEntity
  8
30
 62
     0
100
AcDbLine
 10
30.0
 20
-315.0
 30
0.0
 11
30.0
 21
-340.2034767486353
 31
0.0
  0
LINE
  5
9544
330
9302
100
AcDbEntity
  8
30
 62
     0
100
AcDbLine
 10
1.999999999999998
 20
-339.7034767486353
 30
0.0
 11
28.0
 21
-339.7034767486353
 31
0.0
  0
INSERT
  5
9545
330
9302
100
AcDbEntity
  8
30
 62
     0
100
AcDbBlockReference
  2
_OPEN
 10
-0.0000000000000014
 20
-339.7034767486353
 30
0.0
 41
2.0
 42
2.0
 43
2.0
 50
180.0
  0
INSERT
  5
9546
330
9302
100
AcDbEntity
  8
30
 62
     0
100
AcDbBlockReference
  2
_OPEN
 10
30.0
 20
-339.7034767486353
 30
0.0
 41
2.0
 42
2.0
 43
2.0
  0
MTEXT
  5
9547
330
9302
100
AcDbEntity
  8
30
 62
     0
100
AcDbMText
 10
15.0
 20
-336.7034767486353
 30
0.0
 40
4.0
 41
0.0
 71
     5
 72
     1
  1
\A1;30
 73
     1
 44
1.0
  0
POINT
  5
9548
330
9302
100
AcDbEntity
  8
DEFPOINTS
 62
     0
100
AcDbPoint
 10
0.0
 20
-317.4374692359974
 30
0.0
  0
POINT
  5
9549
330
9302
100
AcDbEntity
  8
DEFPOINTS
 62
     0
100
AcDbPoint
 10
30.0
 20
-314.0
 30
0.0
  0
POINT
  5
954A
330
9302
100
AcDbEntity
  8
DEFPOINTS
 62
     0
100
AcDbPoint
 10
30.0
 20
-339.7034767486353
 30
0.0
  0
ENDBLK
  5
930D
330
9302
100
AcDbEntity
  8
0
100
AcDbBlockEnd
  0
BLOCK
  5
9319
330
930F
100
AcDbEntity
  8
0
100
AcDbBlockBegin
  2
*D27
 70
     1
 10
0.0
 20
0.0
 30
0.0
  3
*D27
  1

  0
LINE
  5
954B
330
930F
100
AcDbEntity
  8
30
 62
     0
100
AcDbLine
 10
30.0
 20
-315.0
 30
0.0
 11
30.0
 21
-340.2034767486353
 31
0.0
  0
LINE
  5
954C
330
930F
100
AcDbEntity
  8
30
 62
     0
100
AcDbLine
 10
60.0
 20
-315.0
 30
0.0
 11
60.0
 21
-340.2034767486353
 31
0.0
  0
LINE
  5
954D
330
930F
100
AcDbEntity
  8
30
 62
     0
100
AcDbLine
 10
32.0
 20
-339.7034767486353
 30
0.0
 11
58.0
 21
-339.7034767486353
 31
0.0
  0
INSERT
  5
954E
330
930F
100
AcDbEntity
  8
30
 62
     0
100
AcDbBlockReference
  2
_OPEN
 10
30.0
 20
-339.7034767486353
 30
0.0
 41
2.0
 42
2.0
 43
2.0
 50
180.0
  0
INSERT
  5
954F
330
930F
100
AcDbEntity
  8
30
 62
     0
100
AcDbBlockReference
  2
_OPEN
 10
60.0
 20
-339.7034767486353
 30
0.0
 41
2.0
 42
2.0
 43
2.0
  0
MTEXT
  5
9550
330
930F
100
AcDbEntity
  8
30
 62
     0
100
AcDbMText
 10
45.0
 20
-336.7034767486353
 30
0.0
 40
4.0
 41
0.0
 71
     5
 72
     1
  1
\A1;30
 73
     1
 44
1.0
  0
POINT
  5
9551
330
930F
100
AcDbEntity
  8
DEFPOINTS
 62
     0
100
AcDbPoint
 10
30.0
 20
-314.0
 30
0.0
  0
POINT
  5
9552
330
930F
100
AcDbEntity
  8
DEFPOINTS
 62
     0
100
AcDbPoint
 10
60.0
 20
-314.0
 30
0.0
  0
POINT
  5
9553
330
930F
100
AcDbEntity
  8
DEFPOINTS
 62
     0
100
AcDbPoint
 10
60.0
 20
-339.7034767486353
 30
0.0
  0
ENDBLK
  5
931A
330
930F
100
AcDbEntity
  8
0
100
AcDbBlockEnd
  0
BLOCK
  5
9326
330
931C
100
AcDbEntity
  8
0
100
AcDbBlockBegin
  2
*D28
 70
     1
 10
0.0
 20
0.0
 30
0.0
  3
*D28
  1

  0
LINE
  5
931D
330
931C
100
AcDbEntity
  8
30
 62
     0
100
AcDbLine
 10
20.00000000000022
 20
-169.0
 30
0.0
 11
101.2473398081974
 21
-169.0
 31
0.0
  0
LINE
  5
931E
330
931C
100
AcDbEntity
  8
30
 62
     0
100
AcDbLine
 10
20.00000000000022
 20
-301.0
 30
0.0
 11
101.2473398081974
 21
-301.0
 31
0.0
  0
LINE
  5
931F
330
931C
100
AcDbEntity
  8
30
 62
     0
100
AcDbLine
 10
100.7473398081974
 20
-171.0
 30
0.0
 11
100.7473398081974
 21
-299.0
 31
0.0
  0
INSERT
  5
9320
330
931C
100
AcDbEntity
  8
30
 62
     0
100
AcDbBlockReference
  2
_OPEN
 10
100.7473398081974
 20
-169.0
 30
0.0
 41
2.0
 42
2.0
 43
2.0
 50
90.0
  0
INSERT
  5
9321
330
931C
100
AcDbEntity
  8
30
 62
     0
100
AcDbBlockReference
  2
_OPEN
 10
100.7473398081974
 20
-301.0
 30
0.0
 41
2.0
 42
2.0
 43
2.0
 50
270.0
  0
MTEXT
  5
9322
330
931C
100
AcDbEntity
  8
30
 62
     0
100
AcDbMText
 10
97.74733980819753
 20
-235.0
 30
0.0
 40
4.0
 41
0.0
 71
     5
 72
     1
  1
\A1;132
 11
0.0000000000000001
 21
1.0
 31
0.0
 73
     1
 44
1.0
1001
ACAD
1000
MTEXTBEGIN
1070
    73
1070
     1
1070
    44
1040
1.0
1070
    74
1070
     0
1000
MTEXTEND
1000
MTEXTBEGIN
1070
    73
1070
     1
1070
    44
1040
1.0
1070
    74
1070
     0
1000
MTEXTEND
  0
POINT
  5
9323
330
931C
100
AcDbEntity
  8
DEFPOINTS
 62
     0
100
AcDbPoint
 10
19.00000000000022
 20
-169.0
 30
0.0
  0
POINT
  5
9324
330
931C
100
AcDbEntity
  8
DEFPOINTS
 62
     0
100
AcDbPoint
 10
19.00000000000022
 20
-301.0
 30
0.0
  0
POINT
  5
9325
330
931C
100
AcDbEntity
  8
DEFPOINTS
 62
     0
100
AcDbPoint
 10
100.7473398081974
 20
-301.0
 30
0.0
  0
ENDBLK
  5
9327
330
931C
100
AcDbEntity
  8
0
100
AcDbBlockEnd
  0
ENDSEC
  0
SECTION
  2
ENTITIES
  0
LINE
  5
B4
330
1E
100
AcDbEntity
  8
16
100
AcDbLine
 10
0.0
 20
-105.0883879261505
 30
0.0
 11
0.0
 21
86.25
 31
0.0
  0
LINE
  5
B5
330
1E
100
AcDbEntity
  8
16
100
AcDbLine
 10
89.74013214434672
 20
0.0000000000000089
 30
0.0
 11
-56.60868885537141
 21
0.0
 31
0.0
  0
MTEXT
  5
BF3
330
1E
100
AcDbEntity
  8
24
  6
Continuous
100
AcDbMText
 10
142.1181906098743
 20
192.5
 30
0.0
 40
3.0
 41
0.0
 71
     1
 72
     1
  1
\A1;
 73
     1
 44
1.0
1001
ACAD
1000
MTEXTBEGIN
1070
    73
1070
     1
1070
    44
1040
1.0
1070
    74
1070
     0
1000
MTEXTEND
1000
MTEXTBEGIN
1070
    73
1070
     1
1070
    44
1040
1.0
1070
    74
1070
     0
1000
MTEXTEND
  0
LINE
  5
1C9A
330
1E
100
AcDbEntity
  8
16
100
AcDbLine
 10
0.0
 20
126.8811670622457
 30
0.0
 11
0.0
 21
269.3811670622458
 31
0.0
  0
LINE
  5
1C9B
330
1E
100
AcDbEntity
  8
16
100
AcDbLine
 10
330.7830141983816
 20
7.116575701176343
 30
0.0
 11
171.2986260224607
 21
7.116575701176343
 31
0.0
  0
LINE
  5
2260
330
1E
100
AcDbEntity
  8
16
100
AcDbLine
 10
89.90743607736431
 20
-235.0
 30
0.0
 11
-67.93042662644572
 21
-235.0
 31
0.0
  0
LINE
  5
2261
330
1E
100
AcDbEntity
  8
16
100
AcDbLine
 10
0.0
 20
-317.4374692359974
 30
0.0
 11
0.0
 21
-149.5
 31
0.0
  0
LINE
  5
819E
330
1E
100
AcDbEntity
  8
10
100
AcDbLine
 10
-45.0
 20
-77.5
 30
0.0
 11
75.0
 21
-77.5
 31
0.0
  0
LINE
  5
819F
330
1E
100
AcDbEntity
  8
10
100
AcDbLine
 10
75.0
 20
77.49999999999992
 30
0.0
 11
-45.0
 21
77.49999999999992
 31
0.0
  0
LINE
  5
81A0
330
1E
100
AcDbEntity
  8
10
100
AcDbLine
 10
-45.0
 20
50.99999999999988
 30
0.0
 11
75.0
 21
50.99999999999988
 31
0.0
  0
LINE
  5
81A1
330
1E
100
AcDbEntity
  8
10
100
AcDbLine
 10
-45.0
 20
-51.00000000000003
 30
0.0
 11
75.0
 21
-51.00000000000003
 31
0.0
  0
LINE
  5
81A3
330
1E
100
AcDbEntity
  8
17
100
AcDbLine
 10
53.00000000000006
 20
66.99999999999993
 30
0.0
 11
67.00000000000001
 21
66.99999999999993
 31
0.0
  0
LINE
  5
81A4
330
1E
100
AcDbEntity
  8
17
100
AcDbLine
 10
53.00000000000006
 20
-67.0
 30
0.0
 11
67.00000000000001
 21
-67.0
 31
0.0
  0
ARC
  5
81A5
330
1E
100
AcDbEntity
  8
10
100
AcDbCircle
 10
63.75
 20
65.99999999999988
 30
0.0
 40
5.0
100
AcDbArc
 50
270.0
 51
0.0
  0
ARC
  5
81A6
330
1E
100
AcDbEntity
  8
10
100
AcDbCircle
 10
-63.75
 20
-66.00000000000003
 30
0.0
 40
5.0
210
0.0
220
0.0
230
-1.0
100
AcDbArc
 50
90.0
 51
180.0
  0
CIRCLE
  5
81A7
330
1E
100
AcDbEntity
  8
10
100
AcDbCircle
 10
60.0
 20
36.75
 30
0.0
 40
8.0
  0
DIMENSION
  5
81A8
330
1E
100
AcDbEntity
  8
30
100
AcDbDimension
  2
*D1
 10
75.00000000000003
 20
-95.05260904743506
 30
0.0
 11
15.0
 21
-92.05260904743502
 31
0.0
 70
    32
 71
     5
 42
-1.0
  3
STANDARD
100
AcDbAlignedDimension
 13
-45.0
 23
-77.5
 33
0.0
 14
75.00000000000003
 24
-77.5
 34
0.0
 50
180.0
100
AcDbRotatedDimension
  0
LINE
  5
81A9
330
1E
100
AcDbEntity
  8
10
100
AcDbLine
 10
-45.0
 20
77.49999999999992
 30
0.0
 11
-45.0
 21
-77.5
 31
0.0
  0
LINE
  5
81AA
330
1E
100
AcDbEntity
  8
17
100
AcDbLine
 10
-30.0
 20
-74.00000000000003
 30
0.0
 11
-30.0
 21
-60.0
 31
0.0
  0
LINE
  5
81AB
330
1E
100
AcDbEntity
  8
17
100
AcDbLine
 10
30.0
 20
-74.00000000000003
 30
0.0
 11
30.0
 21
-60.0
 31
0.0
  0
LINE
  5
81AC
330
1E
100
AcDbEntity
  8
17
100
AcDbLine
 10
60.0
 20
-74.00000000000003
 30
0.0
 11
60.0
 21
-60.0
 31
0.0
  0
LINE
  5
81AD
330
1E
100
AcDbEntity
  8
12
100
AcDbLine
 10
-15.0
 20
-60.49999999999982
 30
0.0
 11
-15.0
 21
-71.49999999999981
 31
0.0
  0
LINE
  5
81AE
330
1E
100
AcDbEntity
  8
12
100
AcDbLine
 10
15.0
 20
-60.49999999999982
 30
0.0
 11
15.0
 21
-71.49999999999981
 31
0.0
  0
ARC
  5
81AF
330
1E
100
AcDbEntity
  8
10
100
AcDbCircle
 10
3.75
 20
-66.00000000000003
 30
0.0
 40
5.0
210
0.0
220
0.0
230
-1.0
100
AcDbArc
 50
0.0
 51
90.0
  0
ARC
  5
81B0
330
1E
100
AcDbEntity
  8
10
100
AcDbCircle
 10
-3.75
 20
-66.00000000000003
 30
0.0
 40
5.0
210
0.0
220
0.0
230
-1.0
100
AcDbArc
 50
90.0
 51
180.0
  0
ARC
  5
81B1
330
1E
100
AcDbEntity
  8
10
100
AcDbCircle
 10
-26.25
 20
-66.00000000000003
 30
0.0
 40
5.0
100
AcDbArc
 50
0.0
 51
90.0
  0
ARC
  5
81B2
330
1E
100
AcDbEntity
  8
10
100
AcDbCircle
 10
-33.75
 20
-66.00000000000003
 30
0.0
 40
5.0
100
AcDbArc
 50
90.0
 51
180.0
  0
ARC
  5
81B3
330
1E
100
AcDbEntity
  8
10
100
AcDbCircle
 10
-26.25
 20
-66.00000000000003
 30
0.0
 40
5.0
210
0.0
220
0.0
230
-1.0
100
AcDbArc
 50
0.0
 51
90.0
  0
ARC
  5
81B4
330
1E
100
AcDbEntity
  8
10
100
AcDbCircle
 10
-33.75
 20
-66.00000000000003
 30
0.0
 40
5.0
210
0.0
220
0.0
230
-1.0
100
AcDbArc
 50
90.0
 51
180.0
  0
ARC
  5
81B5
330
1E
100
AcDbEntity
  8
10
100
AcDbCircle
 10
-56.25
 20
-66.00000000000003
 30
0.0
 40
5.0
210
0.0
220
0.0
230
-1.0
100
AcDbArc
 50
0.0
 51
90.0
  0
LINE
  5
81B6
330
1E
100
AcDbEntity
  8
12
100
AcDbLine
 10
9.5
 20
-65.99999999999984
 30
0.0
 11
20.50000000000005
 21
-65.99999999999984
 31
0.0
  0
CIRCLE
  5
81B7
330
1E
100
AcDbEntity
  8
12
100
AcDbCircle
 10
-15.0
 20
-65.99999999999984
 30
0.0
 40
4.0
210
0.0
220
0.0
230
-1.0
  0
LINE
  5
81B8
330
1E
100
AcDbEntity
  8
12
100
AcDbLine
 10
-20.5
 20
-65.99999999999984
 30
0.0
 11
-9.499999999999943
 21
-65.99999999999984
 31
0.0
  0
CIRCLE
  5
81B9
330
1E
100
AcDbEntity
  8
12
100
AcDbCircle
 10
15.0
 20
-65.99999999999984
 30
0.0
 40
4.0
210
0.0
220
0.0
230
-1.0
  0
LINE
  5
81BA
330
1E
100
AcDbEntity
  8
17
100
AcDbLine
 10
-23.0
 20
-67.0
 30
0.0
 11
-37.0
 21
-67.0
 31
0.0
  0
CIRCLE
  5
81BB
330
1E
100
AcDbEntity
  8
24
100
AcDbCircle
 10
-30.0
 20
-67.0
 30
0.0
 40
5.0
  0
LINE
  5
81BC
330
1E
100
AcDbEntity
  8
10
100
AcDbLine
 10
-38.75
 20
-66.00000000000003
 30
0.0
 11
-38.75
 21
-77.5
 31
0.0
  0
LINE
  5
81BD
330
1E
100
AcDbEntity
  8
10
100
AcDbLine
 10
-21.25
 20
-66.00000000000003
 30
0.0
 11
-21.25
 21
-77.5
 31
0.0
  0
LINE
  5
81BE
330
1E
100
AcDbEntity
  8
17
100
AcDbLine
 10
-6.999999999999943
 20
-67.0
 30
0.0
 11
7.0
 21
-67.0
 31
0.0
  0
CIRCLE
  5
81BF
330
1E
100
AcDbEntity
  8
24
100
AcDbCircle
 10
0.0
 20
-67.0
 30
0.0
 40
5.0
  0
LINE
  5
81C0
330
1E
100
AcDbEntity
  8
10
100
AcDbLine
 10
-8.75
 20
-66.00000000000003
 30
0.0
 11
-8.75
 21
-77.5
 31
0.0
  0
LINE
  5
81C1
330
1E
100
AcDbEntity
  8
10
100
AcDbLine
 10
8.75
 20
-66.00000000000003
 30
0.0
 11
8.75
 21
-77.5
 31
0.0
  0
LINE
  5
81C2
330
1E
100
AcDbEntity
  8
17
100
AcDbLine
 10
23.00000000000005
 20
-67.0
 30
0.0
 11
37.00000000000002
 21
-67.0
 31
0.0
  0
CIRCLE
  5
81C3
330
1E
100
AcDbEntity
  8
24
100
AcDbCircle
 10
30.0
 20
-67.0
 30
0.0
 40
5.0
  0
LINE
  5
81C4
330
1E
100
AcDbEntity
  8
10
100
AcDbLine
 10
21.25
 20
-66.00000000000003
 30
0.0
 11
21.25
 21
-77.5
 31
0.0
  0
LINE
  5
81C5
330
1E
100
AcDbEntity
  8
10
100
AcDbLine
 10
38.75
 20
-66.00000000000003
 30
0.0
 11
38.75
 21
-77.5
 31
0.0
  0
LINE
  5
81C6
330
1E
100
AcDbEntity
  8
10
100
AcDbLine
 10
51.25
 20
-66.00000000000003
 30
0.0
 11
51.25
 21
-77.5
 31
0.0
  0
CIRCLE
  5
81C7
330
1E
100
AcDbEntity
  8
24
100
AcDbCircle
 10
60.0
 20
-67.0
 30
0.0
 40
5.0
  0
LINE
  5
81C8
330
1E
100
AcDbEntity
  8
10
100
AcDbLine
 10
-42.0
 20
24.99999999999994
 30
0.0
 11
42.00000000000001
 21
24.99999999999994
 31
0.0
  0
LINE
  5
81C9
330
1E
100
AcDbEntity
  8
10
100
AcDbLine
 10
-42.0
 20
-25.0
 30
0.0
 11
42.00000000000001
 21
-25.0
 31
0.0
  0
DIMENSION
  5
81CA
330
1E
100
AcDbEntity
  8
30
100
AcDbDimension
  2
*D2
 10
42.00000000000001
 20
32.59950840068007
 30
0.0
 11
0.0000000000000144
 21
35.59950840068009
 31
0.0
 70
    32
 71
     5
 42
-1.0
  3
STANDARD
100
AcDbAlignedDimension
 13
-42.0
 23
24.99999999999996
 33
0.0
 14
42.00000000000001
 24
24.99999999999996
 34
0.0
100
AcDbRotatedDimension
  0
LINE
  5
81CB
330
1E
100
AcDbEntity
  8
10
100
AcDbLine
 10
-42.0
 20
24.99999999999994
 30
0.0
 11
-42.0
 21
-25.0
 31
0.0
  0
LINE
  5
81CC
330
1E
100
AcDbEntity
  8
10
100
AcDbLine
 10
11.0
 20
24.99999999999994
 30
0.0
 11
11.0
 21
-25.0
 31
0.0
  0
LINE
  5
81CD
330
1E
100
AcDbEntity
  8
10
100
AcDbLine
 10
-11.0
 20
24.99999999999994
 30
0.0
 11
-11.0
 21
-25.0
 31
0.0
  0
LINE
  5
81CE
330
1E
100
AcDbEntity
  8
10
100
AcDbLine
 10
-6.999999999999943
 20
-18.50000000000003
 30
0.0
 11
-6.999999999999943
 21
20.1548687058103
 31
0.0
  0
LINE
  5
81CF
330
1E
100
AcDbEntity
  8
10
100
AcDbLine
 10
7.0
 20
-18.50000000000003
 30
0.0
 11
7.000000000000111
 21
20.1548687058103
 31
0.0
  0
LINE
  5
81D0
330
1E
100
AcDbEntity
  8
10
100
AcDbLine
 10
42.00000000000001
 20
24.99999999999994
 30
0.0
 11
42.00000000000001
 21
-25.0
 31
0.0
  0
LINE
  5
81D1
330
1E
100
AcDbEntity
  8
10
100
AcDbLine
 10
-33.75
 20
-61.00000000000003
 30
0.0
 11
-26.25
 21
-61.00000000000003
 31
0.0
  0
LINE
  5
81D2
330
1E
100
AcDbEntity
  8
10
100
AcDbLine
 10
3.75
 20
-61.00000000000003
 30
0.0
 11
-3.75
 21
-61.00000000000003
 31
0.0
  0
LINE
  5
81D3
330
1E
100
AcDbEntity
  8
10
100
AcDbLine
 10
-6.999999999999943
 20
-18.50000000000003
 30
0.0
 11
7.0
 21
-18.50000000000003
 31
0.0
  0
LINE
  5
81D4
330
1E
100
AcDbEntity
  8
10
100
AcDbLine
 10
7.0
 20
15.23995644007658
 30
0.0
 11
-6.999999999999943
 21
15.23995644007658
 31
0.0
  0
LINE
  5
81D5
330
1E
100
AcDbEntity
  8
10
100
AcDbLine
 10
7.0
 20
6.840789306861437
 30
0.0
 11
-6.99999999999909
 21
6.840789306861493
 31
0.0
  0
LINE
  5
81D6
330
1E
100
AcDbEntity
  8
10
100
AcDbLine
 10
33.75
 20
-61.00000000000003
 30
0.0
 11
26.25
 21
-61.00000000000003
 31
0.0
  0
LINE
  5
81D7
330
1E
100
AcDbEntity
  8
10
100
AcDbLine
 10
63.75
 20
-61.00000000000003
 30
0.0
 11
56.25
 21
-61.00000000000003
 31
0.0
  0
LINE
  5
81D8
330
1E
100
AcDbEntity
  8
12
100
AcDbLine
 10
9.5
 20
65.99999999999977
 30
0.0
 11
20.50000000000005
 21
65.99999999999977
 31
0.0
  0
CIRCLE
  5
81D9
330
1E
100
AcDbEntity
  8
12
100
AcDbCircle
 10
15.0
 20
65.99999999999977
 30
0.0
 40
4.0
  0
LINE
  5
81DA
330
1E
100
AcDbEntity
  8
10
100
AcDbLine
 10
7.0
 20
20.1548687058103
 30
0.0
 11
-7.000000000000909
 21
20.1548687058103
 31
0.0
  0
LINE
  5
81DB
330
1E
100
AcDbEntity
  8
12
100
AcDbLine
 10
-20.5
 20
65.99999999999977
 30
0.0
 11
-9.499999999999943
 21
65.99999999999977
 31
0.0
  0
CIRCLE
  5
81DC
330
1E
100
AcDbEntity
  8
12
100
AcDbCircle
 10
-15.0
 20
65.99999999999977
 30
0.0
 40
4.0
  0
LINE
  5
81DD
330
1E
100
AcDbEntity
  8
10
100
AcDbLine
 10
-21.25
 20
65.99999999999988
 30
0.0
 11
-21.25
 21
77.49999999999992
 31
0.0
  0
LINE
  5
81DE
330
1E
100
AcDbEntity
  8
10
100
AcDbLine
 10
-38.75
 20
65.99999999999988
 30
0.0
 11
-38.75
 21
77.49999999999992
 31
0.0
  0
LINE
  5
81DF
330
1E
100
AcDbEntity
  8
17
100
AcDbLine
 10
-23.0
 20
66.99999999999993
 30
0.0
 11
-37.0
 21
66.99999999999993
 31
0.0
  0
LINE
  5
81E0
330
1E
100
AcDbEntity
  8
10
100
AcDbLine
 10
-33.75
 20
60.99999999999988
 30
0.0
 11
-26.25
 21
60.99999999999988
 31
0.0
  0
CIRCLE
  5
81E1
330
1E
100
AcDbEntity
  8
24
100
AcDbCircle
 10
-30.0
 20
66.99999999999993
 30
0.0
 40
5.0
  0
LINE
  5
81E2
330
1E
100
AcDbEntity
  8
17
100
AcDbLine
 10
-30.0
 20
73.99999999999995
 30
0.0
 11
-30.0
 21
59.99999999999993
 31
0.0
  0
ARC
  5
81E3
330
1E
100
AcDbEntity
  8
10
100
AcDbCircle
 10
33.75
 20
65.99999999999988
 30
0.0
 40
5.0
210
0.0
220
0.0
230
-1.0
100
AcDbArc
 50
270.0
 51
0.0
  0
LINE
  5
81E4
330
1E
100
AcDbEntity
  8
12
100
AcDbLine
 10
-15.0
 20
60.49999999999972
 30
0.0
 11
-15.0
 21
71.4999999999997
 31
0.0
  0
ARC
  5
81E5
330
1E
100
AcDbEntity
  8
10
100
AcDbCircle
 10
26.25
 20
65.99999999999988
 30
0.0
 40
5.0
210
0.0
220
0.0
230
-1.0
100
AcDbArc
 50
180.0
 51
270.0
  0
LINE
  5
81E6
330
1E
100
AcDbEntity
  8
10
100
AcDbLine
 10
-8.75
 20
65.99999999999988
 30
0.0
 11
-8.75
 21
77.49999999999992
 31
0.0
  0
LINE
  5
81E7
330
1E
100
AcDbEntity
  8
10
100
AcDbLine
 10
8.75
 20
65.99999999999988
 30
0.0
 11
8.75
 21
77.49999999999992
 31
0.0
  0
LINE
  5
81E8
330
1E
100
AcDbEntity
  8
17
100
AcDbLine
 10
-6.999999999999943
 20
66.99999999999993
 30
0.0
 11
7.0
 21
66.99999999999993
 31
0.0
  0
LINE
  5
81E9
330
1E
100
AcDbEntity
  8
10
100
AcDbLine
 10
3.75
 20
60.99999999999988
 30
0.0
 11
-3.75
 21
60.99999999999988
 31
0.0
  0
CIRCLE
  5
81EA
330
1E
100
AcDbEntity
  8
24
100
AcDbCircle
 10
0.0
 20
66.99999999999993
 30
0.0
 40
5.0
  0
ARC
  5
81EB
330
1E
100
AcDbEntity
  8
10
100
AcDbCircle
 10
-3.75
 20
65.99999999999988
 30
0.0
 40
5.0
100
AcDbArc
 50
180.0
 51
270.0
  0
ARC
  5
81EC
330
1E
100
AcDbEntity
  8
10
100
AcDbCircle
 10
3.75
 20
65.99999999999988
 30
0.0
 40
5.0
100
AcDbArc
 50
270.0
 51
0.0
  0
LINE
  5
81ED
330
1E
100
AcDbEntity
  8
10
100
AcDbLine
 10
56.50000000000005
 20
31.75
 30
0.0
 11
56.50000000000005
 21
41.74999999999999
 31
0.0
  0
LINE
  5
81EE
330
1E
100
AcDbEntity
  8
10
100
AcDbLine
 10
63.5
 20
31.75
 30
0.0
 11
63.5
 21
41.74999999999999
 31
0.0
  0
LINE
  5
81EF
330
1E
100
AcDbEntity
  8
10
100
AcDbLine
 10
56.50000000000005
 20
34.93198051533912
 30
0.0
 11
57.5
 21
35.9319805153392
 31
0.0
  0
LINE
  5
81F0
330
1E
100
AcDbEntity
  8
10
100
AcDbLine
 10
56.50000000000005
 20
35.28553390593242
 30
0.0
 11
57.5
 21
36.28553390593242
 31
0.0
  0
LINE
  5
81F1
330
1E
100
AcDbEntity
  8
10
100
AcDbLine
 10
60.25863071718433
 20
35.50863071718427
 30
0.0
 11
60.97666340046266
 21
36.22666340046267
 31
0.0
  0
LINE
  5
81F2
330
1E
100
AcDbEntity
  8
10
100
AcDbLine
 10
60.40421152507571
 20
35.30065813448243
 30
0.0
 11
61.12224420835412
 21
36.0186908177609
 31
0.0
  0
LINE
  5
81F3
330
1E
100
AcDbEntity
  8
10
100
AcDbLine
 10
60.54979233296699
 20
35.09268555178048
 30
0.0
 11
61.26782501624552
 21
35.81071823505883
 31
0.0
  0
LINE
  5
81F4
330
1E
100
AcDbEntity
  8
10
100
AcDbLine
 10
57.5
 20
39.44953174173332
 30
0.0
 11
57.5
 21
31.75
 31
0.0
  0
LINE
  5
81F5
330
1E
100
AcDbEntity
  8
10
100
AcDbLine
 10
62.5
 20
34.05046825826662
 30
0.0
 11
62.5
 21
41.74999999999999
 31
0.0
  0
LINE
  5
81F6
330
1E
100
AcDbEntity
  8
10
100
AcDbLine
 10
57.11032778078674
 20
41.74999999999999
 30
0.0
 11
62.5
 21
34.05046825826662
 31
0.0
  0
LINE
  5
81F7
330
1E
100
AcDbEntity
  8
10
100
AcDbLine
 10
57.5
 20
39.44953174173332
 30
0.0
 11
62.88967221921332
 21
31.75
 31
0.0
  0
LINE
  5
81F8
330
1E
100
AcDbEntity
  8
10
100
AcDbLine
 10
62.5
 20
35.62867965644047
 30
0.0
 11
63.5
 21
36.6286796564405
 31
0.0
  0
LINE
  5
81F9
330
1E
100
AcDbEntity
  8
10
100
AcDbLine
 10
62.5
 20
35.27512626584711
 30
0.0
 11
63.5
 21
36.27512626584718
 31
0.0
  0
LINE
  5
81FA
330
1E
100
AcDbEntity
  8
10
100
AcDbLine
 10
62.5
 20
34.92157287525396
 30
0.0
 11
63.5
 21
35.92157287525389
 31
0.0
  0
LINE
  5
81FB
330
1E
100
AcDbEntity
  8
10
100
AcDbLine
 10
56.50000000000005
 20
31.75
 30
0.0
 11
57.5
 21
31.75
 31
0.0
  0
LINE
  5
81FC
330
1E
100
AcDbEntity
  8
10
100
AcDbLine
 10
56.50000000000005
 20
31.75
 30
0.0
 11
57.5
 21
32.75
 31
0.0
  0
LINE
  5
81FD
330
1E
100
AcDbEntity
  8
10
100
AcDbLine
 10
56.50000000000005
 20
32.10355339059322
 30
0.0
 11
57.5
 21
33.10355339059316
 31
0.0
  0
LINE
  5
81FE
330
1E
100
AcDbEntity
  8
10
100
AcDbLine
 10
56.50000000000005
 20
32.45710678118644
 30
0.0
 11
57.5
 21
33.45710678118644
 31
0.0
  0
LINE
  5
81FF
330
1E
100
AcDbEntity
  8
10
100
AcDbLine
 10
56.50000000000005
 20
32.81066017177966
 30
0.0
 11
57.5
 21
33.81066017177966
 31
0.0
  0
LINE
  5
8200
330
1E
100
AcDbEntity
  8
10
100
AcDbLine
 10
56.50000000000005
 20
33.16421356237288
 30
0.0
 11
57.5
 21
34.16421356237288
 31
0.0
  0
LINE
  5
8201
330
1E
100
AcDbEntity
  8
10
100
AcDbLine
 10
56.50000000000005
 20
33.51776695296615
 30
0.0
 11
57.5
 21
34.51776695296617
 31
0.0
  0
LINE
  5
8202
330
1E
100
AcDbEntity
  8
10
100
AcDbLine
 10
56.50000000000005
 20
33.87132034355937
 30
0.0
 11
57.5
 21
34.87132034355939
 31
0.0
  0
LINE
  5
8203
330
1E
100
AcDbEntity
  8
10
100
AcDbLine
 10
56.50000000000005
 20
34.22487373415258
 30
0.0
 11
57.5
 21
35.22487373415271
 31
0.0
  0
LINE
  5
8204
330
1E
100
AcDbEntity
  8
10
100
AcDbLine
 10
56.50000000000005
 20
34.5784271247459
 30
0.0
 11
57.5
 21
35.57842712474584
 31
0.0
  0
LINE
  5
8205
330
1E
100
AcDbEntity
  8
10
100
AcDbLine
 10
56.8535533905934
 20
31.75
 30
0.0
 11
57.5
 21
32.39644660940664
 31
0.0
  0
LINE
  5
8206
330
1E
100
AcDbEntity
  8
10
100
AcDbLine
 10
57.20710678118654
 20
31.75
 30
0.0
 11
57.5
 21
32.04289321881342
 31
0.0
  0
LINE
  5
8207
330
1E
100
AcDbEntity
  8
10
100
AcDbLine
 10
63.5
 20
31.75
 30
0.0
 11
62.88967221921339
 21
31.75
 31
0.0
  0
LINE
  5
8208
330
1E
100
AcDbEntity
  8
10
100
AcDbLine
 10
61.56885798820646
 20
33.63687747286707
 30
0.0
 11
62.28689067148478
 21
34.35491015614548
 31
0.0
  0
LINE
  5
8209
330
1E
100
AcDbEntity
  8
10
100
AcDbLine
 10
61.71443879609775
 20
33.42890489016513
 30
0.0
 11
62.43247147937615
 21
34.14693757344355
 31
0.0
  0
LINE
  5
820A
330
1E
100
AcDbEntity
  8
10
100
AcDbLine
 10
61.86001960398903
 20
33.22093230746321
 30
0.0
 11
63.5
 21
34.86091270347424
 31
0.0
  0
LINE
  5
820B
330
1E
100
AcDbEntity
  8
10
100
AcDbLine
 10
62.0056004118804
 20
33.01295972476133
 30
0.0
 11
63.5
 21
34.5073593128809
 31
0.0
  0
LINE
  5
820C
330
1E
100
AcDbEntity
  8
10
100
AcDbLine
 10
62.15118121977184
 20
32.80498714205942
 30
0.0
 11
63.5
 21
34.1538059222878
 31
0.0
  0
LINE
  5
820D
330
1E
100
AcDbEntity
  8
10
100
AcDbLine
 10
62.29676202766308
 20
32.59701455935749
 30
0.0
 11
63.5
 21
33.80025253169458
 31
0.0
  0
LINE
  5
820E
330
1E
100
AcDbEntity
  8
10
100
AcDbLine
 10
62.44234283555442
 20
32.38904197665556
 30
0.0
 11
63.5
 21
33.44669914110125
 31
0.0
  0
LINE
  5
820F
330
1E
100
AcDbEntity
  8
10
100
AcDbLine
 10
62.58792364344571
 20
32.18106939395372
 30
0.0
 11
63.5
 21
33.09314575050803
 31
0.0
  0
LINE
  5
8210
330
1E
100
AcDbEntity
  8
10
100
AcDbLine
 10
62.73350445133715
 20
31.97309681125179
 30
0.0
 11
63.5
 21
32.73959235991481
 31
0.0
  0
LINE
  5
8211
330
1E
100
AcDbEntity
  8
10
100
AcDbLine
 10
62.86396103067858
 20
31.75
 30
0.0
 11
63.5
 21
32.38603896932142
 31
0.0
  0
LINE
  5
8212
330
1E
100
AcDbEntity
  8
10
100
AcDbLine
 10
63.2175144212718
 20
31.75
 30
0.0
 11
63.5
 21
32.0324855787282
 31
0.0
  0
LINE
  5
8213
330
1E
100
AcDbEntity
  8
10
100
AcDbLine
 10
60.69537314085835
 20
34.88471296907857
 30
0.0
 11
61.41340582413675
 21
35.60274565235689
 31
0.0
  0
LINE
  5
8214
330
1E
100
AcDbEntity
  8
10
100
AcDbLine
 10
60.84095394874971
 20
34.67674038637665
 30
0.0
 11
61.55898663202805
 21
35.39477306965506
 31
0.0
  0
LINE
  5
8215
330
1E
100
AcDbEntity
  8
10
100
AcDbLine
 10
60.98653475664107
 20
34.46876780367471
 30
0.0
 11
61.70456743991934
 21
35.18680048695313
 31
0.0
  0
LINE
  5
8216
330
1E
100
AcDbEntity
  8
10
100
AcDbLine
 10
61.13211556453236
 20
34.26079522097285
 30
0.0
 11
61.85014824781077
 21
34.97882790425126
 31
0.0
  0
LINE
  5
8217
330
1E
100
AcDbEntity
  8
10
100
AcDbLine
 10
61.2776963724238
 20
34.05282263827092
 30
0.0
 11
61.99572905570215
 21
34.77085532154939
 31
0.0
  0
LINE
  5
8218
330
1E
100
AcDbEntity
  8
10
100
AcDbLine
 10
61.42327718031504
 20
33.844850055569
 30
0.0
 11
62.1413098635935
 21
34.5628827388474
 31
0.0
  0
LINE
  5
8219
330
1E
100
AcDbEntity
  8
10
100
AcDbLine
 10
62.5
 20
34.56801948466068
 30
0.0
 11
63.5
 21
35.56801948466068
 31
0.0
  0
LINE
  5
821A
330
1E
100
AcDbEntity
  8
10
100
AcDbLine
 10
62.5
 20
34.21446609406746
 30
0.0
 11
63.5
 21
35.21446609406739
 31
0.0
  0
LINE
  5
821B
330
1E
100
AcDbEntity
  8
10
100
AcDbLine
 10
59.239565061945
 20
36.96443879609761
 30
0.0
 11
59.9575977452234
 21
37.68247147937602
 31
0.0
  0
LINE
  5
821C
330
1E
100
AcDbEntity
  8
10
100
AcDbLine
 10
59.38514586983629
 20
36.75646621339568
 30
0.0
 11
60.10317855311479
 21
37.4744988966741
 31
0.0
  0
LINE
  5
821D
330
1E
100
AcDbEntity
  8
10
100
AcDbLine
 10
59.53072667772772
 20
36.54849363069383
 30
0.0
 11
60.24875936100613
 21
37.26652631397218
 31
0.0
  0
LINE
  5
821E
330
1E
100
AcDbEntity
  8
10
100
AcDbLine
 10
59.67630748561902
 20
36.34052104799197
 30
0.0
 11
60.39434016889737
 21
37.05855373127031
 31
0.0
  0
LINE
  5
821F
330
1E
100
AcDbEntity
  8
10
100
AcDbLine
 10
59.82188829351031
 20
36.13254846528997
 30
0.0
 11
60.53992097678872
 21
36.85058114856838
 31
0.0
  0
LINE
  5
8220
330
1E
100
AcDbEntity
  8
10
100
AcDbLine
 10
56.50000000000005
 20
41.74999999999999
 30
0.0
 11
57.11032778078674
 21
41.74999999999999
 31
0.0
  0
LINE
  5
8221
330
1E
100
AcDbEntity
  8
10
100
AcDbLine
 10
56.50000000000005
 20
35.6390872965257
 30
0.0
 11
57.5
 21
36.63908729652563
 31
0.0
  0
LINE
  5
8222
330
1E
100
AcDbEntity
  8
10
100
AcDbLine
 10
56.50000000000005
 20
35.99264068711892
 30
0.0
 11
57.5
 21
36.99264068711892
 31
0.0
  0
LINE
  5
8223
330
1E
100
AcDbEntity
  8
10
100
AcDbLine
 10
56.50000000000005
 20
36.34619407771214
 30
0.0
 11
57.5
 21
37.34619407771214
 31
0.0
  0
LINE
  5
8224
330
1E
100
AcDbEntity
  8
10
100
AcDbLine
 10
56.50000000000005
 20
36.6997474683055
 30
0.0
 11
57.5
 21
37.69974746830529
 31
0.0
  0
LINE
  5
8225
330
1E
100
AcDbEntity
  8
10
100
AcDbLine
 10
56.50000000000005
 20
37.05330085889864
 30
0.0
 11
57.5
 21
38.05330085889865
 31
0.0
  0
LINE
  5
8226
330
1E
100
AcDbEntity
  8
10
100
AcDbLine
 10
56.50000000000005
 20
37.40685424949194
 30
0.0
 11
57.5
 21
38.40685424949197
 31
0.0
  0
LINE
  5
8227
330
1E
100
AcDbEntity
  8
10
100
AcDbLine
 10
56.50000000000005
 20
37.76040764008515
 30
0.0
 11
57.5
 21
38.76040764008518
 31
0.0
  0
LINE
  5
8228
330
1E
100
AcDbEntity
  8
10
100
AcDbLine
 10
56.50000000000005
 20
38.11396103067838
 30
0.0
 11
57.5
 21
39.1139610306784
 31
0.0
  0
LINE
  5
8229
330
1E
100
AcDbEntity
  8
10
100
AcDbLine
 10
56.50000000000005
 20
38.46751442127168
 30
0.0
 11
58.21062805052742
 21
40.17814247179908
 31
0.0
  0
LINE
  5
822A
330
1E
100
AcDbEntity
  8
10
100
AcDbLine
 10
56.50000000000005
 20
38.82106781186482
 30
0.0
 11
58.06504724263604
 21
40.38611505450094
 31
0.0
  0
LINE
  5
822B
330
1E
100
AcDbEntity
  8
10
100
AcDbLine
 10
56.50000000000005
 20
39.17462120245818
 30
0.0
 11
57.91946643474464
 21
40.59408763720279
 31
0.0
  0
LINE
  5
822C
330
1E
100
AcDbEntity
  8
10
100
AcDbLine
 10
56.50000000000005
 20
39.5281745930514
 30
0.0
 11
57.77388562685331
 21
40.8020602199048
 31
0.0
  0
LINE
  5
822D
330
1E
100
AcDbEntity
  8
10
100
AcDbLine
 10
56.50000000000005
 20
39.88172798364468
 30
0.0
 11
57.62830481896196
 21
41.01003280260658
 31
0.0
  0
LINE
  5
822E
330
1E
100
AcDbEntity
  8
10
100
AcDbLine
 10
56.50000000000005
 20
40.2352813742379
 30
0.0
 11
57.48272401107072
 21
41.21800538530851
 31
0.0
  0
LINE
  5
822F
330
1E
100
AcDbEntity
  8
10
100
AcDbLine
 10
56.50000000000005
 20
40.5888347648312
 30
0.0
 11
57.33714320317929
 21
41.42597796801044
 31
0.0
  0
LINE
  5
8230
330
1E
100
AcDbEntity
  8
10
100
AcDbLine
 10
56.50000000000005
 20
40.94238815542442
 30
0.0
 11
57.191562395288
 21
41.63395055071231
 31
0.0
  0
LINE
  5
8231
330
1E
100
AcDbEntity
  8
10
100
AcDbLine
 10
56.50000000000005
 20
41.29594154601764
 30
0.0
 11
56.95405845398233
 21
41.74999999999999
 31
0.0
  0
LINE
  5
8232
330
1E
100
AcDbEntity
  8
10
100
AcDbLine
 10
56.50000000000005
 20
41.64949493661086
 30
0.0
 11
56.60050506338905
 21
41.74999999999999
 31
0.0
  0
LINE
  5
8233
330
1E
100
AcDbEntity
  8
10
100
AcDbLine
 10
58.51166102248836
 20
38.00430170960725
 30
0.0
 11
59.22969370576676
 21
38.72233439288567
 31
0.0
  0
LINE
  5
8234
330
1E
100
AcDbEntity
  8
10
100
AcDbLine
 10
58.36608021459696
 20
38.21227429230913
 30
0.0
 11
59.08411289787546
 21
38.93030697558754
 31
0.0
  0
LINE
  5
8235
330
1E
100
AcDbEntity
  8
10
100
AcDbLine
 10
58.65724183037976
 20
37.79632912690532
 30
0.0
 11
59.37527451365802
 21
38.51436181018374
 31
0.0
  0
LINE
  5
8236
330
1E
100
AcDbEntity
  8
10
100
AcDbLine
 10
58.80282263827104
 20
37.5883565442034
 30
0.0
 11
59.52085532154939
 21
38.30638922748176
 31
0.0
  0
LINE
  5
8237
330
1E
100
AcDbEntity
  8
10
100
AcDbLine
 10
58.94840344616227
 20
37.38038396150142
 30
0.0
 11
59.66643612944075
 21
38.09841664477989
 31
0.0
  0
LINE
  5
8238
330
1E
100
AcDbEntity
  8
10
100
AcDbLine
 10
59.09398425405356
 20
37.17241137879954
 30
0.0
 11
59.81201693733203
 21
37.89044406207796
 31
0.0
  0
LINE
  5
8239
330
1E
100
AcDbEntity
  8
10
100
AcDbLine
 10
58.22049940670575
 20
38.42024687501106
 30
0.0
 11
58.93853208998399
 21
39.13827955828938
 31
0.0
  0
LINE
  5
823A
330
1E
100
AcDbEntity
  8
10
100
AcDbLine
 10
58.07491859881428
 20
38.62821945771297
 30
0.0
 11
58.79295128209264
 21
39.34625214099138
 31
0.0
  0
LINE
  5
823B
330
1E
100
AcDbEntity
  8
10
100
AcDbLine
 10
57.92933779092294
 20
38.83619204041496
 30
0.0
 11
58.64737047420135
 21
39.55422472369331
 31
0.0
  0
LINE
  5
823C
330
1E
100
AcDbEntity
  8
10
100
AcDbLine
 10
57.78375698303165
 20
39.04416462311676
 30
0.0
 11
58.50178966631006
 21
39.76219730639515
 31
0.0
  0
LINE
  5
823D
330
1E
100
AcDbEntity
  8
10
100
AcDbLine
 10
57.63817617514035
 20
39.25213720581868
 30
0.0
 11
58.35620885841876
 21
39.97016988909701
 31
0.0
  0
LINE
  5
823E
330
1E
100
AcDbEntity
  8
10
100
AcDbLine
 10
62.5
 20
41.74999999999999
 30
0.0
 11
63.5
 21
41.74999999999999
 31
0.0
  0
LINE
  5
823F
330
1E
100
AcDbEntity
  8
10
100
AcDbLine
 10
59.96746910140174
 20
35.9245758825882
 30
0.0
 11
60.68550178468007
 21
36.64260856586654
 31
0.0
  0
LINE
  5
8240
330
1E
100
AcDbEntity
  8
10
100
AcDbLine
 10
60.11304990929295
 20
35.71660329988612
 30
0.0
 11
60.83108259257144
 21
36.43463598316461
 31
0.0
  0
LINE
  5
8241
330
1E
100
AcDbEntity
  8
10
100
AcDbLine
 10
62.5
 20
40.57842712474584
 30
0.0
 11
63.5
 21
41.57842712474592
 31
0.0
  0
LINE
  5
8242
330
1E
100
AcDbEntity
  8
10
100
AcDbLine
 10
62.5
 20
40.22487373415271
 30
0.0
 11
63.5
 21
41.2248737341527
 31
0.0
  0
LINE
  5
8243
330
1E
100
AcDbEntity
  8
10
100
AcDbLine
 10
62.5
 20
39.87132034355939
 30
0.0
 11
63.5
 21
40.87132034355943
 31
0.0
  0
LINE
  5
8244
330
1E
100
AcDbEntity
  8
10
100
AcDbLine
 10
62.5
 20
39.51776695296617
 30
0.0
 11
63.5
 21
40.51776695296621
 31
0.0
  0
LINE
  5
8245
330
1E
100
AcDbEntity
  8
10
100
AcDbLine
 10
62.5
 20
39.16421356237296
 30
0.0
 11
63.5
 21
40.16421356237299
 31
0.0
  0
LINE
  5
8246
330
1E
100
AcDbEntity
  8
10
100
AcDbLine
 10
62.5
 20
38.81066017177966
 30
0.0
 11
63.5
 21
39.81066017177969
 31
0.0
  0
LINE
  5
8247
330
1E
100
AcDbEntity
  8
10
100
AcDbLine
 10
62.5
 20
38.45710678118644
 30
0.0
 11
63.5
 21
39.45710678118647
 31
0.0
  0
LINE
  5
8248
330
1E
100
AcDbEntity
  8
10
100
AcDbLine
 10
62.5
 20
38.10355339059315
 30
0.0
 11
63.5
 21
39.10355339059309
 31
0.0
  0
LINE
  5
8249
330
1E
100
AcDbEntity
  8
10
100
AcDbLine
 10
62.5
 20
37.39644660940671
 30
0.0
 11
63.5
 21
38.3964466094067
 31
0.0
  0
LINE
  5
824A
330
1E
100
AcDbEntity
  8
10
100
AcDbLine
 10
62.5
 20
37.75
 30
0.0
 11
63.5
 21
38.74999999999992
 31
0.0
  0
LINE
  5
824B
330
1E
100
AcDbEntity
  8
10
100
AcDbLine
 10
62.5
 20
37.04289321881342
 30
0.0
 11
63.5
 21
38.04289321881345
 31
0.0
  0
LINE
  5
824C
330
1E
100
AcDbEntity
  8
10
100
AcDbLine
 10
62.5
 20
36.68933982822021
 30
0.0
 11
63.5
 21
37.68933982822022
 31
0.0
  0
LINE
  5
824D
330
1E
100
AcDbEntity
  8
10
100
AcDbLine
 10
62.5
 20
36.335786437627
 30
0.0
 11
63.5
 21
37.335786437627
 31
0.0
  0
LINE
  5
824E
330
1E
100
AcDbEntity
  8
10
100
AcDbLine
 10
62.5
 20
35.9822330470337
 30
0.0
 11
63.5
 21
36.98223304703372
 31
0.0
  0
LINE
  5
824F
330
1E
100
AcDbEntity
  8
10
100
AcDbLine
 10
62.5
 20
40.93198051533926
 30
0.0
 11
63.31801948466065
 21
41.74999999999999
 31
0.0
  0
LINE
  5
8250
330
1E
100
AcDbEntity
  8
10
100
AcDbLine
 10
62.5
 20
41.28553390593242
 30
0.0
 11
62.96446609406763
 21
41.74999999999999
 31
0.0
  0
LINE
  5
8251
330
1E
100
AcDbEntity
  8
10
100
AcDbLine
 10
62.5
 20
41.6390872965257
 30
0.0
 11
62.61091270347435
 21
41.74999999999999
 31
0.0
  0
LINE
  5
8252
330
1E
100
AcDbEntity
  8
10
100
AcDbLine
 10
21.25
 20
65.99999999999988
 30
0.0
 11
21.25
 21
77.49999999999992
 31
0.0
  0
LINE
  5
8253
330
1E
100
AcDbEntity
  8
10
100
AcDbLine
 10
38.75
 20
65.99999999999988
 30
0.0
 11
38.75
 21
77.49999999999992
 31
0.0
  0
LINE
  5
8254
330
1E
100
AcDbEntity
  8
17
100
AcDbLine
 10
23.00000000000005
 20
66.99999999999993
 30
0.0
 11
37.00000000000002
 21
66.99999999999993
 31
0.0
  0
LINE
  5
8255
330
1E
100
AcDbEntity
  8
10
100
AcDbLine
 10
33.75
 20
60.99999999999988
 30
0.0
 11
26.25
 21
60.99999999999988
 31
0.0
  0
CIRCLE
  5
8256
330
1E
100
AcDbEntity
  8
24
100
AcDbCircle
 10
30.0
 20
66.99999999999993
 30
0.0
 40
5.0
  0
LINE
  5
8257
330
1E
100
AcDbEntity
  8
12
100
AcDbLine
 10
15.0
 20
71.50000000000024
 30
0.0
 11
15.0
 21
60.50000000000022
 31
0.0
  0
ARC
  5
8258
330
1E
100
AcDbEntity
  8
10
100
AcDbCircle
 10
26.25
 20
65.99999999999988
 30
0.0
 40
5.0
100
AcDbArc
 50
180.0
 51
270.0
  0
LINE
  5
8259
330
1E
100
AcDbEntity
  8
17
100
AcDbLine
 10
30.0
 20
73.99999999999995
 30
0.0
 11
30.0
 21
59.99999999999993
 31
0.0
  0
ARC
  5
825A
330
1E
100
AcDbEntity
  8
10
100
AcDbCircle
 10
33.75
 20
65.99999999999988
 30
0.0
 40
5.0
100
AcDbArc
 50
270.0
 51
0.0
  0
LINE
  5
825B
330
1E
100
AcDbEntity
  8
10
100
AcDbLine
 10
51.25
 20
65.99999999999988
 30
0.0
 11
51.25
 21
77.49999999999992
 31
0.0
  0
ARC
  5
825C
330
1E
100
AcDbEntity
  8
10
100
AcDbCircle
 10
56.25
 20
65.99999999999988
 30
0.0
 40
5.0
100
AcDbArc
 50
180.0
 51
270.0
  0
LINE
  5
825D
330
1E
100
AcDbEntity
  8
17
100
AcDbLine
 10
60.0
 20
73.99999999999995
 30
0.0
 11
60.0
 21
59.99999999999993
 31
0.0
  0
CIRCLE
  5
825E
330
1E
100
AcDbEntity
  8
24
100
AcDbCircle
 10
60.0
 20
66.99999999999993
 30
0.0
 40
5.0
  0
LINE
  5
825F
330
1E
100
AcDbEntity
  8
10
100
AcDbLine
 10
63.75
 20
60.99999999999988
 30
0.0
 11
56.25
 21
60.99999999999988
 31
0.0
  0
LINE
  5
8260
330
1E
100
AcDbEntity
  8
10
100
AcDbLine
 10
75.0
 20
-77.5
 30
0.0
 11
75.0
 21
77.49999999999992
 31
0.0
  0
LINE
  5
8262
330
1E
100
AcDbEntity
  8
10
100
AcDbLine
 10
68.75
 20
-66.00000000000003
 30
0.0
 11
68.75
 21
-77.5
 31
0.0
  0
LINE
  5
8263
330
1E
100
AcDbEntity
  8
10
100
AcDbLine
 10
68.75
 20
65.99999999999988
 30
0.0
 11
68.75
 21
77.49999999999992
 31
0.0
  0
LINE
  5
8349
330
1E
100
AcDbEntity
  8
21
100
AcDbLine
 10
2.499999999999772
 20
269.3811670622455
 30
0.0
 11
2.499999999999772
 21
304.8811670622456
 31
0.0
  0
LINE
  5
834B
330
1E
100
AcDbEntity
  8
21
100
AcDbLine
 10
62.49999999999977
 20
269.3811670622455
 30
0.0
 11
62.49999999999977
 21
304.8811670622456
 31
0.0
  0
LINE
  5
834C
330
1E
100
AcDbEntity
  8
21
100
AcDbLine
 10
57.49999999999977
 20
269.3811670622455
 30
0.0
 11
57.49999999999977
 21
304.8811670622456
 31
0.0
  0
LINE
  5
834D
330
1E
100
AcDbEntity
  8
0
100
AcDbLine
 10
59.99999999999977
 20
197.8811670622455
 30
0.0
 11
59.99999999999977
 21
309.8811670622456
 31
0.0
  0
LINE
  5
834E
330
1E
100
AcDbEntity
  8
21
100
AcDbLine
 10
-2.500000000000226
 20
269.3811670622455
 30
0.0
 11
-2.500000000000226
 21
304.8811670622456
 31
0.0
  0
LINE
  5
8352
330
1E
100
AcDbEntity
  8
21
100
AcDbLine
 10
6.249999999999772
 20
289.8811670622456
 30
0.0
 11
-6.250000000000227
 21
289.8811670622456
 31
0.0
  0
LINE
  5
8355
330
1E
100
AcDbEntity
  8
21
100
AcDbLine
 10
2.499999999999772
 20
304.8811670622456
 30
0.0
 11
-2.500000000000226
 21
304.8811670622456
 31
0.0
  0
LINE
  5
8356
330
1E
100
AcDbEntity
  8
21
100
AcDbLine
 10
2.499999999999772
 20
304.8811670622456
 30
0.0
 11
-2.500000000000226
 21
304.8811670622456
 31
0.0
  0
LINE
  5
8357
330
1E
100
AcDbEntity
  8
21
100
AcDbLine
 10
2.499999999999772
 20
274.8811670622456
 30
0.0
 11
-2.500000000000226
 21
274.8811670622456
 31
0.0
  0
LINE
  5
8358
330
1E
100
AcDbEntity
  8
21
100
AcDbLine
 10
62.49999999999977
 20
304.8811670622456
 30
0.0
 11
57.49999999999977
 21
304.8811670622456
 31
0.0
  0
LINE
  5
8359
330
1E
100
AcDbEntity
  8
21
100
AcDbLine
 10
62.49999999999977
 20
304.8811670622456
 30
0.0
 11
57.49999999999977
 21
304.8811670622456
 31
0.0
  0
LINE
  5
835A
330
1E
100
AcDbEntity
  8
21
100
AcDbLine
 10
62.49999999999977
 20
274.8811670622456
 30
0.0
 11
57.49999999999977
 21
274.8811670622456
 31
0.0
  0
LINE
  5
835B
330
1E
100
AcDbEntity
  8
21
100
AcDbLine
 10
66.24999999999977
 20
289.8811670622456
 30
0.0
 11
53.74999999999977
 21
289.8811670622456
 31
0.0
  0
LINE
  5
835C
330
1E
100
AcDbEntity
  8
21
100
AcDbLine
 10
7.124999999999772
 20
269.3811670622455
 30
0.0
 11
-7.125000000000227
 21
269.3811670622455
 31
0.0
  0
LINE
  5
835D
330
1E
100
AcDbEntity
  8
10
100
AcDbLine
 10
75.0
 20
141.8811670622458
 30
0.0
 11
-45.0
 21
141.8811670622458
 31
0.0
  0
LINE
  5
835E
330
1E
100
AcDbEntity
  8
10
100
AcDbLine
 10
41.99999999999953
 20
130.8811670622457
 30
0.0
 11
-41.99999999999977
 21
130.8811670622457
 31
0.0
  0
LINE
  5
835F
330
1E
100
AcDbEntity
  8
0
100
AcDbLine
 10
75.0
 20
202.8811670622455
 30
0.0
 11
-45.0
 21
202.8811670622455
 31
0.0
  0
LINE
  5
8360
330
1E
100
AcDbEntity
  8
10
100
AcDbLine
 10
10.99999999999975
 20
126.8811670622457
 30
0.0
 11
-10.99999999999975
 21
126.8811670622457
 31
0.0
  0
LINE
  5
8361
330
1E
100
AcDbEntity
  8
10
100
AcDbLine
 10
75.0
 20
134.8811670622455
 30
0.0
 11
-45.0
 21
134.8811670622455
 31
0.0
  0
LINE
  5
8362
330
1E
100
AcDbEntity
  8
10
100
AcDbLine
 10
7.0
 20
114.8859132626504
 30
0.0
 11
-7.0
 21
114.8859132626504
 31
0.0
  0
LINE
  5
8366
330
1E
100
AcDbEntity
  8
10
100
AcDbLine
 10
-15.0
 20
130.8811670622457
 30
0.0
 11
-15.0
 21
202.8811670622455
 31
0.0
  0
LINE
  5
8367
330
1E
100
AcDbEntity
  8
10
100
AcDbLine
 10
-45.0
 20
134.8811670622455
 30
0.0
 11
-45.0
 21
202.8811670622455
 31
0.0
  0
LINE
  5
8368
330
1E
100
AcDbEntity
  8
21
100
AcDbLine
 10
-7.125000000000227
 20
202.8811670622455
 30
0.0
 11
-7.125000000000227
 21
269.3811670622455
 31
0.0
  0
LINE
  5
8369
330
1E
100
AcDbEntity
  8
21
100
AcDbLine
 10
-27.50000000000023
 20
219.3811670622455
 30
0.0
 11
-27.50000000000023
 21
254.8811670622455
 31
0.0
  0
LINE
  5
836A
330
1E
100
AcDbEntity
  8
21
100
AcDbLine
 10
-32.50000000000023
 20
219.3811670622455
 30
0.0
 11
-32.50000000000023
 21
254.8811670622455
 31
0.0
  0
LINE
  5
836B
330
1E
100
AcDbEntity
  8
21
100
AcDbLine
 10
-30.00000000000023
 20
197.8811670622455
 30
0.0
 11
-30.00000000000023
 21
259.8811670622456
 31
0.0
  0
LINE
  5
836C
330
1E
100
AcDbEntity
  8
21
100
AcDbLine
 10
-27.50000000000023
 20
254.8811670622455
 30
0.0
 11
-32.50000000000023
 21
254.8811670622455
 31
0.0
  0
LINE
  5
836D
330
1E
100
AcDbEntity
  8
21
100
AcDbLine
 10
-23.75000000000022
 20
239.8811670622456
 30
0.0
 11
-36.25000000000023
 21
239.8811670622456
 31
0.0
  0
LINE
  5
836E
330
1E
100
AcDbEntity
  8
21
100
AcDbLine
 10
-37.12500000000023
 20
202.8811670622455
 30
0.0
 11
-37.12500000000023
 21
219.3811670622455
 31
0.0
  0
LINE
  5
836F
330
1E
100
AcDbEntity
  8
21
100
AcDbLine
 10
-22.87500000000022
 20
202.8811670622455
 30
0.0
 11
-22.87500000000022
 21
219.3811670622455
 31
0.0
  0
LINE
  5
8370
330
1E
100
AcDbEntity
  8
21
100
AcDbLine
 10
-22.87500000000022
 20
219.3811670622455
 30
0.0
 11
-37.12500000000023
 21
219.3811670622455
 31
0.0
  0
LINE
  5
8371
330
1E
100
AcDbEntity
  8
21
100
AcDbLine
 10
-27.50000000000023
 20
224.8811670622457
 30
0.0
 11
-32.50000000000023
 21
224.8811670622457
 31
0.0
  0
LINE
  5
8372
330
1E
100
AcDbEntity
  8
12
100
AcDbLine
 10
-13.0
 20
210.8811670622456
 30
0.0
 11
-17.0
 21
210.8811670622456
 31
0.0
  0
LINE
  5
8373
330
1E
100
AcDbEntity
  8
12
100
AcDbLine
 10
-17.0
 20
202.8811670622455
 30
0.0
 11
-17.0
 21
210.8811670622456
 31
0.0
  0
LINE
  5
8374
330
1E
100
AcDbEntity
  8
12
100
AcDbLine
 10
-13.0
 20
202.8811670622455
 30
0.0
 11
-13.0
 21
210.8811670622456
 31
0.0
  0
LINE
  5
8375
330
1E
100
AcDbEntity
  8
10
100
AcDbLine
 10
-42.00000000000009
 20
130.8811670622457
 30
0.0
 11
-42.00000000000009
 21
134.8811670622455
 31
0.0
  0
LINE
  5
8376
330
1E
100
AcDbEntity
  8
10
100
AcDbLine
 10
-11.00000000000022
 20
126.8811670622457
 30
0.0
 11
-11.00000000000022
 21
130.8811670622457
 31
0.0
  0
LINE
  5
8377
330
1E
100
AcDbEntity
  8
10
100
AcDbLine
 10
-7.0
 20
126.8811670622457
 30
0.0
 11
-7.0
 21
114.8859132626503
 31
0.0
  0
LINE
  5
837A
330
1E
100
AcDbEntity
  8
10
100
AcDbLine
 10
45.0
 20
202.8811670622455
 30
0.0
 11
45.0
 21
134.8811670622455
 31
0.0
  0
LINE
  5
837B
330
1E
100
AcDbEntity
  8
10
100
AcDbLine
 10
75.0
 20
202.8811670622455
 30
0.0
 11
75.0
 21
134.8811670622455
 31
0.0
  0
LINE
  5
837C
330
1E
100
AcDbEntity
  8
21
100
AcDbLine
 10
67.12499999999977
 20
269.3811670622455
 30
0.0
 11
52.87499999999977
 21
269.3811670622455
 31
0.0
  0
LINE
  5
837D
330
1E
100
AcDbEntity
  8
21
100
AcDbLine
 10
7.124999999999772
 20
202.8811670622455
 30
0.0
 11
7.124999999999772
 21
269.3811670622455
 31
0.0
  0
LINE
  5
837E
330
1E
100
AcDbEntity
  8
21
100
AcDbLine
 10
52.87499999999977
 20
202.8811670622455
 30
0.0
 11
52.87499999999977
 21
269.3811670622455
 31
0.0
  0
LINE
  5
837F
330
1E
100
AcDbEntity
  8
21
100
AcDbLine
 10
32.49999999999977
 20
219.3811670622455
 30
0.0
 11
32.49999999999977
 21
254.8811670622455
 31
0.0
  0
LINE
  5
8380
330
1E
100
AcDbEntity
  8
21
100
AcDbLine
 10
27.49999999999977
 20
219.3811670622455
 30
0.0
 11
27.49999999999977
 21
254.8811670622455
 31
0.0
  0
LINE
  5
8381
330
1E
100
AcDbEntity
  8
21
100
AcDbLine
 10
29.99999999999977
 20
197.8811670622455
 30
0.0
 11
29.99999999999977
 21
259.8811670622456
 31
0.0
  0
LINE
  5
8382
330
1E
100
AcDbEntity
  8
21
100
AcDbLine
 10
32.49999999999977
 20
254.8811670622455
 30
0.0
 11
27.49999999999977
 21
254.8811670622455
 31
0.0
  0
LINE
  5
8383
330
1E
100
AcDbEntity
  8
21
100
AcDbLine
 10
36.24999999999977
 20
239.8811670622456
 30
0.0
 11
23.74999999999977
 21
239.8811670622456
 31
0.0
  0
LINE
  5
8384
330
1E
100
AcDbEntity
  8
21
100
AcDbLine
 10
37.12499999999977
 20
219.3811670622455
 30
0.0
 11
22.87499999999977
 21
219.3811670622455
 31
0.0
  0
LINE
  5
8385
330
1E
100
AcDbEntity
  8
21
100
AcDbLine
 10
32.49999999999977
 20
224.8811670622457
 30
0.0
 11
27.49999999999977
 21
224.8811670622457
 31
0.0
  0
LINE
  5
8386
330
1E
100
AcDbEntity
  8
21
100
AcDbLine
 10
22.87499999999977
 20
202.8811670622455
 30
0.0
 11
22.87499999999977
 21
219.3811670622455
 31
0.0
  0
LINE
  5
8387
330
1E
100
AcDbEntity
  8
12
100
AcDbLine
 10
13.0
 20
210.8811670622456
 30
0.0
 11
17.0
 21
210.8811670622456
 31
0.0
  0
LINE
  5
8388
330
1E
100
AcDbEntity
  8
12
100
AcDbLine
 10
17.0
 20
202.8811670622455
 30
0.0
 11
17.0
 21
210.8811670622456
 31
0.0
  0
LINE
  5
8389
330
1E
100
AcDbEntity
  8
12
100
AcDbLine
 10
13.0
 20
202.8811670622455
 30
0.0
 11
13.0
 21
210.8811670622456
 31
0.0
  0
LINE
  5
838A
330
1E
100
AcDbEntity
  8
21
100
AcDbLine
 10
37.12499999999977
 20
202.8811670622455
 30
0.0
 11
37.12499999999977
 21
219.3811670622455
 31
0.0
  0
LINE
  5
838B
330
1E
100
AcDbEntity
  8
21
100
AcDbLine
 10
67.12499999999977
 20
202.8811670622455
 30
0.0
 11
67.12499999999977
 21
269.3811670622455
 31
0.0
  0
LINE
  5
838C
330
1E
100
AcDbEntity
  8
0
100
AcDbLine
 10
94.49999999999954
 20
202.8811670622455
 30
0.0
 11
75.0
 21
202.8811670622455
 31
0.0
  0
LINE
  5
838D
330
1E
100
AcDbEntity
  8
10
100
AcDbLine
 10
7.0
 20
126.8811670622457
 30
0.0
 11
7.0
 21
114.8859132626503
 31
0.0
  0
LINE
  5
838E
330
1E
100
AcDbEntity
  8
10
100
AcDbLine
 10
10.99999999999975
 20
126.8811670622457
 30
0.0
 11
10.99999999999975
 21
130.8811670622457
 31
0.0
  0
LINE
  5
838F
330
1E
100
AcDbEntity
  8
10
100
AcDbLine
 10
42.0
 20
130.8811670622457
 30
0.0
 11
42.0
 21
134.8811670622455
 31
0.0
  0
LINE
  5
8391
330
1E
100
AcDbEntity
  8
18
100
AcDbLine
 10
94.49999999999954
 20
206.0811670622455
 30
0.0
 11
-64.50000000000009
 21
206.0811670622455
 31
0.0
  0
LINE
  5
8392
330
1E
100
AcDbEntity
  8
18
100
AcDbLine
 10
-45.0
 20
202.8811670622455
 30
0.0
 11
-64.5
 21
202.8811670622455
 31
0.0
  0
DIMENSION
  5
8393
330
1E
100
AcDbEntity
  8
30
100
AcDbDimension
  2
*D3
 10
119.0867224927879
 20
202.8811670622455
 30
0.0
 11
116.0867224927879
 21
206.8811670622455
 31
0.0
 70
    32
 71
     5
 42
-1.0
  3
STANDARD
100
AcDbAlignedDimension
 13
17.00000000000011
 23
210.8811670622456
 33
0.0
 14
94.49999999999954
 24
202.8811670622455
 34
0.0
 50
90.0
100
AcDbRotatedDimension
1001
ACAD
1000
DSTYLE
1002
{
1070
   340
1005
11
1002
}
  0
LINE
  5
85CB
330
1E
100
AcDbEntity
  8
0
100
AcDbLine
 10
288.7950947291221
 20
-52.75842429882366
 30
0.0
 11
288.7950947291221
 21
-67.00842429882368
 31
0.0
  0
LINE
  5
85CC
330
1E
100
AcDbEntity
  8
10
100
AcDbLine
 10
272.295094729122
 20
84.61657570117646
 30
0.0
 11
272.295094729122
 21
-70.38342429882366
 31
0.0
  0
LINE
  5
85CD
330
1E
100
AcDbEntity
  8
10
100
AcDbLine
 10
211.2950947291222
 20
-43.88342429882368
 30
0.0
 11
211.2950947291222
 21
-70.38342429882366
 31
0.0
  0
LINE
  5
85CE
330
1E
100
AcDbEntity
  8
18
100
AcDbLine
 10
275.4950947291221
 20
104.1165757011762
 30
0.0
 11
275.4950947291221
 21
-89.88342429882365
 31
0.0
  0
LINE
  5
85CF
330
1E
100
AcDbEntity
  8
0
100
AcDbLine
 10
338.7950947291223
 20
-52.75842429882366
 30
0.0
 11
338.7950947291223
 21
-67.00842429882368
 31
0.0
  0
LINE
  5
85D0
330
1E
100
AcDbEntity
  8
17
100
AcDbLine
 10
309.2950947291221
 20
-46.88342429882368
 30
0.0
 11
309.2950947291221
 21
-72.88342429882366
 31
0.0
  0
LINE
  5
85D1
330
1E
100
AcDbEntity
  8
17
100
AcDbLine
 10
359.2950947291221
 20
-46.88342429882368
 30
0.0
 11
359.2950947291221
 21
-72.88342429882366
 31
0.0
  0
ARC
  5
85D2
330
1E
100
AcDbEntity
  8
0
100
AcDbCircle
 10
308.2950947291221
 20
-59.88342429882365
 30
0.0
 40
16.0
100
AcDbArc
 50
329.999999999999
 51
30.00000000000098
  0
ARC
  5
85D3
330
1E
100
AcDbEntity
  8
0
100
AcDbCircle
 10
358.2950947291221
 20
-59.88342429882365
 30
0.0
 40
16.0
100
AcDbArc
 50
329.999999999999
 51
30.00000000000098
  0
ARC
  5
85D4
330
1E
100
AcDbEntity
  8
0
100
AcDbCircle
 10
-313.2093750484999
 20
-61.88342429882368
 30
0.0
 40
20.0
210
0.0
220
0.0
230
-1.0
100
AcDbArc
 50
18.96557498884839
 51
30.00000000000098
  0
ARC
  5
85D5
330
1E
100
AcDbEntity
  8
0
100
AcDbCircle
 10
-363.2093750484999
 20
-61.88342429882368
 30
0.0
 40
20.0
210
0.0
220
0.0
230
-1.0
100
AcDbArc
 50
18.96557498884839
 51
30.00000000000098
  0
DIMENSION
  5
85D6
330
1E
100
AcDbEntity
  8
30
100
AcDbDimension
  2
*D5
 10
398.3818172219104
 20
-51.88342429882368
 30
0.0
 11
395.3818172219104
 21
-59.88342429882361
 31
0.0
 70
    32
 71
     5
 42
-1.0
  3
STANDARD
100
AcDbAlignedDimension
 13
372.1515011896731
 23
-67.88342429882366
 33
0.0
 14
372.1515011896731
 24
-51.88342429882368
 34
0.0
 50
270.0
100
AcDbRotatedDimension
  0
DIMENSION
  5
85D8
330
1E
100
AcDbEntity
  8
30
100
AcDbDimension
  2
*D6
 10
309.2950947291221
 20
-27.78391589814348
 30
0.0
 11
301.7950947291221
 21
-24.7839158981435
 31
0.0
 70
    32
 71
     5
 42
-1.0
  3
STANDARD
100
AcDbAlignedDimension
 13
294.2950947291222
 23
-52.88342428232367
 33
0.0
 14
309.2950947291221
 24
-57.38342428232368
 34
0.0
100
AcDbRotatedDimension
  0
DIMENSION
  5
85D9
330
1E
100
AcDbEntity
  8
30
100
AcDbDimension
  2
*D7
 10
272.2950947291221
 20
-114.0157367420348
 30
0.0
 11
238.2950947291222
 21
-111.0157367420347
 31
0.0
 70
    32
 71
     5
 42
-1.0
  3
STANDARD
100
AcDbAlignedDimension
 13
204.2950947291222
 23
-43.88342429882368
 33
0.0
 14
272.2950947291221
 24
-70.38342429882366
 34
0.0
 50
180.0
100
AcDbRotatedDimension
  0
DIMENSION
  5
85DA
330
1E
100
AcDbEntity
  8
30
100
AcDbDimension
  2
*D8
 10
272.2950947291221
 20
-135.2657367420349
 30
0.0
 11
236.2950947291222
 21
-132.2657367420349
 31
0.0
 70
    32
 71
     5
 42
-1.0
  3
STANDARD
100
AcDbAlignedDimension
 13
200.2950947291222
 23
-17.88342429882368
 33
0.0
 14
272.2950947291221
 24
-70.38342429882366
 34
0.0
 50
180.0
100
AcDbRotatedDimension
  0
DIMENSION
  5
85DB
330
1E
100
AcDbEntity
  8
30
100
AcDbDimension
  2
*D9
 10
200.2950947291222
 20
-135.2657367420349
 30
0.0
 11
206.6284280624556
 21
-132.2657367420349
 31
0.0
 70
    32
 71
     5
 42
-1.0
  3
STANDARD
100
AcDbAlignedDimension
 13
196.2950947291222
 23
-17.88342429882368
 33
0.0
 14
200.2950947291222
 24
-17.88342429882368
 34
0.0
 50
180.0
100
AcDbRotatedDimension
  0
LINE
  5
85DC
330
1E
100
AcDbEntity
  8
0
100
AcDbLine
 10
267.295094729122
 20
-59.88342429882365
 30
0.0
 11
384.2950947291221
 21
-59.88342429882365
 31
0.0
  0
ARC
  5
85DD
330
1E
100
AcDbEntity
  8
0
100
AcDbCircle
 10
313.2093750484999
 20
-57.88342429882366
 30
0.0
 40
20.0
100
AcDbArc
 50
198.9655749888484
 51
210.0000000000008
  0
DIMENSION
  5
85DE
330
1E
100
AcDbEntity
  8
30
100
AcDbDimension
  2
*D10
 10
324.2950947291221
 20
-94.01573674203486
 30
0.0
 11
298.2950947291221
 21
-91.01573674203486
 31
0.0
 70
    32
 71
     5
 42
-1.0
  3
STANDARD
100
AcDbAlignedDimension
 13
272.2950947291221
 23
-89.88342429882369
 33
0.0
 14
324.2950947291221
 24
-59.88342429882365
 34
0.0
 50
180.0
100
AcDbRotatedDimension
  0
DIMENSION
  5
85DF
330
1E
100
AcDbEntity
  8
30
100
AcDbDimension
  2
*D11
 10
374.2950947291221
 20
-114.0157367420348
 30
0.0
 11
323.2950947291222
 21
-111.0157367420347
 31
0.0
 70
    32
 71
     5
 42
-1.0
  3
STANDARD
100
AcDbAlignedDimension
 13
272.2950947291221
 23
-89.88342429882369
 33
0.0
 14
374.2950947291221
 24
-59.88342429882365
 34
0.0
 50
180.0
100
AcDbRotatedDimension
  0
LINE
  5
85E1
330
1E
100
AcDbEntity
  8
10
100
AcDbLine
 10
211.2950947291222
 20
-70.38342429882366
 30
0.0
 11
272.295094729122
 21
-70.38342429882366
 31
0.0
  0
DIMENSION
  5
85E2
330
1E
100
AcDbEntity
  8
30
100
AcDbDimension
  2
*D12
 10
272.2950947291221
 20
-94.01573674203486
 30
0.0
 11
241.7950947291222
 21
-91.01573674203486
 31
0.0
 70
    32
 71
     5
 42
-1.0
  3
STANDARD
100
AcDbAlignedDimension
 13
211.2950947291222
 23
-70.38342429882366
 33
0.0
 14
272.2950947291221
 24
-70.38342429882366
 34
0.0
 50
180.0
100
AcDbRotatedDimension
  0
LINE
  5
85E4
330
1E
100
AcDbEntity
  8
0
100
AcDbLine
 10
272.295094729122
 20
-70.38342429882366
 30
0.0
 11
272.295094729122
 21
-89.88342429882365
 31
0.0
  0
LINE
  5
85E5
330
1E
100
AcDbEntity
  8
0
100
AcDbLine
 10
272.295094729122
 20
-67.00842429882368
 30
0.0
 11
295.4123422902
 21
-67.00842429882368
 31
0.0
  0
LINE
  5
85E6
330
1E
100
AcDbEntity
  8
0
100
AcDbLine
 10
288.7950947291221
 20
-64.38342429882368
 30
0.0
 11
294.2950947291222
 21
-64.38342429882368
 31
0.0
  0
LINE
  5
85E7
330
1E
100
AcDbEntity
  8
0
100
AcDbLine
 10
288.7950947291221
 20
-55.38342429882366
 30
0.0
 11
294.2950947291222
 21
-55.38342429882366
 31
0.0
  0
LINE
  5
85E8
330
1E
100
AcDbEntity
  8
0
100
AcDbLine
 10
345.8888669728111
 20
-67.88342429882366
 30
0.0
 11
372.1515011896731
 21
-67.88342429882366
 31
0.0
  0
DIMENSION
  5
85E9
330
1E
100
AcDbEntity
  8
30
100
AcDbDimension
  2
*D13
 10
324.2950947291221
 20
-84.23864113789086
 30
0.0
 11
316.7950947291221
 21
-81.23864113789087
 31
0.0
 70
    32
 71
     5
 42
-1.0
  3
STANDARD
100
AcDbAlignedDimension
 13
309.2950947291221
 23
-62.38342431532368
 33
0.0
 14
324.2950947291221
 24
-69.17051214219528
 34
0.0
 50
180.0
100
AcDbRotatedDimension
  0
LINE
  5
85EA
330
1E
100
AcDbEntity
  8
0
100
AcDbLine
 10
295.8888669728111
 20
-67.88342429882366
 30
0.0
 11
322.1515011896731
 21
-67.88342429882366
 31
0.0
  0
CIRCLE
  5
85EB
330
1E
100
AcDbEntity
  8
24
100
AcDbCircle
 10
309.2950947291221
 20
-59.88342429882365
 30
0.0
 40
4.25
  0
LINE
  5
85EC
330
1E
100
AcDbEntity
  8
0
100
AcDbLine
 10
322.621098184378
 20
-67.00842429882368
 30
0.0
 11
338.7950947291223
 21
-67.00842429882368
 31
0.0
  0
LINE
  5
85ED
330
1E
100
AcDbEntity
  8
0
100
AcDbLine
 10
338.7950947291223
 20
-64.38342429882368
 30
0.0
 11
344.2950947291222
 21
-64.38342429882368
 31
0.0
  0
ARC
  5
85EE
330
1E
100
AcDbEntity
  8
0
100
AcDbCircle
 10
363.2093750484999
 20
-57.88342429882366
 30
0.0
 40
20.0
100
AcDbArc
 50
198.9655749888484
 51
210.0000000000008
  0
LINE
  5
85EF
330
1E
100
AcDbEntity
  8
0
100
AcDbLine
 10
338.7950947291223
 20
-55.38342429882366
 30
0.0
 11
344.2950947291222
 21
-55.38342429882366
 31
0.0
  0
DIMENSION
  5
85F0
330
1E
100
AcDbEntity
  8
30
100
AcDbDimension
  2
*D14
 10
374.2950947291221
 20
-74.01573674203497
 30
0.0
 11
366.7950947291221
 21
-71.01573674203497
 31
0.0
 70
    32
 71
     5
 42
-1.0
  3
STANDARD
100
AcDbAlignedDimension
 13
359.2950947291221
 23
-62.38342431532368
 33
0.0
 14
374.2950947291221
 24
-69.17051214219528
 34
0.0
 50
180.0
100
AcDbRotatedDimension
  0
CIRCLE
  5
85F1
330
1E
100
AcDbEntity
  8
24
100
AcDbCircle
 10
359.2950947291221
 20
-59.88342429882365
 30
0.0
 40
4.25
  0
LINE
  5
85F2
330
1E
100
AcDbEntity
  8
0
100
AcDbLine
 10
272.295094729122
 20
81.24157570117622
 30
0.0
 11
338.7950947291223
 21
81.24157570117622
 31
0.0
  0
LINE
  5
85F3
330
1E
100
AcDbEntity
  8
0
100
AcDbLine
 10
272.295094729122
 20
66.99157570117629
 30
0.0
 11
338.7950947291223
 21
66.99157570117629
 31
0.0
  0
LINE
  5
85F4
330
1E
100
AcDbEntity
  8
0
100
AcDbLine
 10
267.295094729122
 20
74.1165757011763
 30
0.0
 11
384.2950947291221
 21
74.1165757011763
 31
0.0
  0
LINE
  5
85F5
330
1E
100
AcDbEntity
  8
0
100
AcDbLine
 10
288.7950947291221
 20
76.6165757011763
 30
0.0
 11
324.2950947291221
 21
76.6165757011763
 31
0.0
  0
LINE
  5
85F6
330
1E
100
AcDbEntity
  8
0
100
AcDbLine
 10
288.7950947291221
 20
71.6165757011763
 30
0.0
 11
324.2950947291221
 21
71.6165757011763
 31
0.0
  0
LINE
  5
85F9
330
1E
100
AcDbEntity
  8
18
100
AcDbLine
 10
272.295094729122
 20
104.1165757011762
 30
0.0
 11
272.295094729122
 21
84.61657570117646
 31
0.0
  0
LINE
  5
85FB
330
1E
100
AcDbEntity
  8
10
100
AcDbLine
 10
196.2950947291222
 20
13.95736500803755
 30
0.0
 11
184.2998409295268
 21
22.35653214125292
 31
0.0
  0
LINE
  5
85FC
330
1E
100
AcDbEntity
  8
10
100
AcDbLine
 10
196.2950947291222
 20
21.28201254060635
 30
0.0
 11
187.741299547633
 21
27.27144440698694
 31
0.0
  0
LINE
  5
85FF
330
1E
100
AcDbEntity
  8
10
100
AcDbLine
 10
184.2998409295268
 20
22.35653214125292
 30
0.0
 11
187.741299547633
 21
27.27144440698694
 31
0.0
  0
ARC
  5
8602
330
1E
100
AcDbEntity
  8
30
100
AcDbCircle
 10
211.2950947291222
 20
7.116575701176343
 30
0.0
 40
31.0
100
AcDbArc
 50
150.5534441956585
 51
180.0
  0
LINE
  5
8603
330
1E
100
AcDbEntity
  8
10
100
AcDbLine
 10
204.2950947291222
 20
58.11657570117622
 30
0.0
 11
204.2950947291222
 21
-43.88342429882368
 31
0.0
  0
LINE
  5
8604
330
1E
100
AcDbEntity
  8
10
100
AcDbLine
 10
200.2950947291222
 20
32.11657570117628
 30
0.0
 11
200.2950947291222
 21
-17.88342429882364
 31
0.0
  0
LINE
  5
8605
330
1E
100
AcDbEntity
  8
10
100
AcDbLine
 10
196.2950947291222
 20
32.11657570117628
 30
0.0
 11
196.2950947291222
 21
-17.88342429882364
 31
0.0
  0
LINE
  5
8606
330
1E
100
AcDbEntity
  8
10
100
AcDbLine
 10
204.2950947291222
 20
-43.88342429882368
 30
0.0
 11
211.2950947291222
 21
-43.88342429882368
 31
0.0
  0
LINE
  5
8607
330
1E
100
AcDbEntity
  8
10
100
AcDbLine
 10
196.2950947291222
 20
-17.88342429882364
 30
0.0
 11
204.2950947291222
 21
-17.88342429882364
 31
0.0
  0
LINE
  5
8608
330
1E
100
AcDbEntity
  8
0
100
AcDbLine
 10
272.295094729122
 20
-52.75842429882366
 30
0.0
 11
295.4123422902
 21
-52.75842429882366
 31
0.0
  0
LINE
  5
8609
330
1E
100
AcDbEntity
  8
10
100
AcDbLine
 10
211.2950947291222
 20
84.61657570117646
 30
0.0
 11
272.295094729122
 21
84.61657570117646
 31
0.0
  0
LINE
  5
860A
330
1E
100
AcDbEntity
  8
10
100
AcDbLine
 10
211.2950947291222
 20
84.61657570117646
 30
0.0
 11
211.2950947291222
 21
58.11657570117622
 31
0.0
  0
LINE
  5
860B
330
1E
100
AcDbEntity
  8
10
100
AcDbLine
 10
196.2950947291222
 20
32.11657570117628
 30
0.0
 11
204.2950947291222
 21
32.11657570117628
 31
0.0
  0
LINE
  5
860C
330
1E
100
AcDbEntity
  8
10
100
AcDbLine
 10
204.2950947291222
 20
58.11657570117622
 30
0.0
 11
211.2950947291222
 21
58.11657570117622
 31
0.0
  0
LINE
  5
860D
330
1E
100
AcDbEntity
  8
0
100
AcDbLine
 10
288.7950947291221
 20
81.24157570117622
 30
0.0
 11
288.7950947291221
 21
66.99157570117629
 31
0.0
  0
LINE
  5
860E
330
1E
100
AcDbEntity
  8
0
100
AcDbLine
 10
294.2950947291222
 20
76.6165757011763
 30
0.0
 11
294.2950947291222
 21
71.6165757011763
 31
0.0
  0
LINE
  5
860F
330
1E
100
AcDbEntity
  8
0
100
AcDbLine
 10
345.8888669728111
 20
-51.88342429882368
 30
0.0
 11
372.1515011896731
 21
-51.88342429882368
 31
0.0
  0
LINE
  5
8610
330
1E
100
AcDbEntity
  8
0
100
AcDbLine
 10
295.8888669728111
 20
-51.88342429882368
 30
0.0
 11
322.1515011896731
 21
-51.88342429882368
 31
0.0
  0
LINE
  5
8611
330
1E
100
AcDbEntity
  8
0
100
AcDbLine
 10
322.621098184378
 20
-52.75842429882366
 30
0.0
 11
338.7950947291223
 21
-52.75842429882366
 31
0.0
  0
LINE
  5
8612
330
1E
100
AcDbEntity
  8
0
100
AcDbLine
 10
338.7950947291223
 20
71.6165757011763
 30
0.0
 11
374.2950947291221
 21
71.6165757011763
 31
0.0
  0
LINE
  5
8613
330
1E
100
AcDbEntity
  8
0
100
AcDbLine
 10
338.7950947291223
 20
76.6165757011763
 30
0.0
 11
374.2950947291221
 21
76.6165757011763
 31
0.0
  0
LINE
  5
8614
330
1E
100
AcDbEntity
  8
17
100
AcDbLine
 10
309.2950947291221
 20
80.36657570117631
 30
0.0
 11
309.2950947291221
 21
67.86657570117622
 31
0.0
  0
LINE
  5
8615
330
1E
100
AcDbEntity
  8
0
100
AcDbLine
 10
324.2950947291221
 20
76.6165757011763
 30
0.0
 11
324.2950947291221
 21
71.6165757011763
 31
0.0
  0
LINE
  5
8616
330
1E
100
AcDbEntity
  8
0
100
AcDbLine
 10
338.7950947291223
 20
81.24157570117622
 30
0.0
 11
338.7950947291223
 21
66.99157570117629
 31
0.0
  0
LINE
  5
8617
330
1E
100
AcDbEntity
  8
0
100
AcDbLine
 10
344.2950947291222
 20
76.6165757011763
 30
0.0
 11
344.2950947291222
 21
71.6165757011763
 31
0.0
  0
DIMENSION
  5
8618
330
1E
100
AcDbEntity
  8
30
100
AcDbDimension
  2
*D4
 10
398.2726808227893
 20
76.61657570117625
 30
0.0
 11
398.2726808227893
 21
82.94990903450967
 31
0.0
 70
   160
 71
     5
 42
-1.0
  3
STANDARD
100
AcDbAlignedDimension
 13
374.2950947291221
 23
71.61657570117625
 33
0.0
 14
374.2950947291221
 24
76.61657570117625
 34
0.0
 50
270.0
100
AcDbRotatedDimension
1001
ACAD
1000
DSTYLE
1002
{
1070
   172
1070
     1
1002
}
  0
LINE
  5
8619
330
1E
100
AcDbEntity
  8
17
100
AcDbLine
 10
359.2950947291221
 20
80.36657570117631
 30
0.0
 11
359.2950947291221
 21
67.86657570117622
 31
0.0
  0
LINE
  5
861A
330
1E
100
AcDbEntity
  8
0
100
AcDbLine
 10
374.2950947291221
 20
76.6165757011763
 30
0.0
 11
374.2950947291221
 21
71.6165757011763
 31
0.0
  0
DIMENSION
  5
87E8
330
1E
100
AcDbEntity
  8
30
100
AcDbDimension
  2
*D15
 10
-0.0000000000002268
 20
313.4340221653556
 30
0.0
 11
-15.00000000000022
 21
316.4340221653556
 31
0.0
 70
    32
 71
     5
 42
-1.0
  3
STANDARD
100
AcDbAlignedDimension
 13
-30.00000000000023
 23
259.8811670622456
 33
0.0
 14
-0.0000000000002274
 24
304.8811670622456
 34
0.0
100
AcDbRotatedDimension
1001
ACAD
1000
DSTYLE
1002
{
1070
    79
1070
     3
1002
}
  0
DIMENSION
  5
87F5
330
1E
100
AcDbEntity
  8
30
100
AcDbDimension
  2
*D16
 10
29.99999999999977
 20
313.4340221653556
 30
0.0
 11
14.99999999999976
 21
316.4340221653556
 31
0.0
 70
    32
 71
     5
 42
-1.0
  3
STANDARD
100
AcDbAlignedDimension
 13
-0.0000000000002274
 23
304.8811670622456
 33
0.0
 14
29.99999999999977
 24
259.8811670622456
 34
0.0
100
AcDbRotatedDimension
1001
ACAD
1000
DSTYLE
1002
{
1070
   287
1070
     4
1070
   287
1070
     4
1070
   279
1070
     1
1070
    79
1070
     3
1002
}
  0
DIMENSION
  5
8802
330
1E
100
AcDbEntity
  8
30
100
AcDbDimension
  2
*D17
 10
59.99999999999977
 20
313.4340221653556
 30
0.0
 11
44.99999999999977
 21
316.4340221653556
 31
0.0
 70
    32
 71
     5
 42
-1.0
  3
STANDARD
100
AcDbAlignedDimension
 13
29.99999999999977
 23
259.8811670622456
 33
0.0
 14
59.99999999999977
 24
309.8811670622456
 34
0.0
100
AcDbRotatedDimension
1001
ACAD
1000
DSTYLE
1002
{
1070
   287
1070
     4
1070
   287
1070
     4
1070
   279
1070
     1
1070
    79
1070
     3
1002
}
  0
DIMENSION
  5
883C
330
1E
100
AcDbEntity
  8
30
100
AcDbDimension
  2
*D18
 10
-79.89493462656309
 20
-77.5
 30
0.0
 11
-82.89493462656308
 21
-0.0000000000000374
 31
0.0
 70
    32
 71
     5
 42
-1.0
  3
STANDARD
100
AcDbAlignedDimension
 13
-45.0
 23
77.49999999999992
 33
0.0
 14
-45.0
 24
-77.5
 34
0.0
 50
90.0
100
AcDbRotatedDimension
1001
ACAD
1000
DSTYLE
1002
{
1070
    79
1070
     3
1002
}
  0
DIMENSION
  5
8852
330
1E
100
AcDbEntity
  8
30
100
AcDbDimension
  2
*D19
 10
-69.33461828766349
 20
-51.00000000000002
 30
0.0
 11
-72.33461828766349
 21
-0.0000000000000735
 31
0.0
 70
    32
 71
     5
 42
-1.0
  3
STANDARD
100
AcDbAlignedDimension
 13
-45.0
 23
50.99999999999988
 33
0.0
 14
-45.0
 24
-51.00000000000003
 34
0.0
 50
90.0
100
AcDbRotatedDimension
1001
ACAD
1000
DSTYLE
1002
{
1070
    79
1070
     3
1002
}
  0
DIMENSION
  5
885F
330
1E
100
AcDbEntity
  8
30
100
AcDbDimension
  2
*D20
 10
-59.9476684811939
 20
-25.0
 30
0.0
 11
-62.94766848119389
 21
-0.000000000000035
 31
0.0
 70
    32
 71
     5
 42
-1.0
  3
STANDARD
100
AcDbAlignedDimension
 13
-42.0
 23
24.99999999999994
 33
0.0
 14
-42.0
 24
-25.0
 34
0.0
 50
90.0
100
AcDbRotatedDimension
1001
ACAD
1000
DSTYLE
1002
{
1070
    79
1070
     3
1002
}
  0
DIMENSION
  5
8D3E
330
1E
100
AcDbEntity
  8
30
100
AcDbDimension
  2
*D21
 10
272.2950947291221
 20
-147.994881459514
 30
0.0
 11
226.2950947291222
 21
-144.9948814595139
 31
0.0
 70
    32
 71
     5
 42
-1.0
  3
STANDARD
100
AcDbAlignedDimension
 13
180.2950947291222
 23
7.116575701176347
 33
0.0
 14
272.2950947291221
 24
-135.7657367420349
 34
0.0
100
AcDbRotatedDimension
  0
DIMENSION
  5
8D63
330
1E
100
AcDbEntity
  8
30
100
AcDbDimension
  2
*D22
 10
414.3145426194619
 20
-59.88342429882365
 30
0.0
 11
411.3145426194619
 21
7.116575701176369
 31
0.0
 70
    32
 71
     5
 42
-1.0
  3
STANDARD
100
AcDbAlignedDimension
 13
384.2950947291221
 23
74.11657570117625
 33
0.0
 14
384.2950947291221
 24
-59.88342429882365
 34
0.0
 50
90.0
100
AcDbRotatedDimension
  0
LINE
  5
928D
330
1E
100
AcDbEntity
  8
18
 48
2.0
100
AcDbLine
 10
-45.0
 20
-157.5
 30
0.0
 11
-45.0
 21
-312.5
 31
0.0
  0
LINE
  5
928E
330
1E
100
AcDbEntity
  8
18
 48
2.0
100
AcDbLine
 10
75.0
 20
-312.5
 30
0.0
 11
75.0
 21
-157.5
 31
0.0
  0
LINE
  5
928F
330
1E
100
AcDbEntity
  8
22
100
AcDbLine
 10
30.0
 20
-290.0
 30
0.0
 11
30.0
 21
-314.0
 31
0.0
  0
LINE
  5
9290
330
1E
100
AcDbEntity
  8
22
100
AcDbLine
 10
-30.0
 20
-290.0
 30
0.0
 11
-30.0
 21
-314.0
 31
0.0
  0
LINE
  5
9291
330
1E
100
AcDbEntity
  8
22
100
AcDbLine
 10
60.0
 20
-290.0
 30
0.0
 11
60.0
 21
-314.0
 31
0.0
  0
CIRCLE
  5
9292
330
1E
100
AcDbEntity
  8
22
100
AcDbCircle
 10
-60.0
 20
-302.0
 30
0.0
 40
9.0
210
0.0
220
0.0
230
-1.0
  0
CIRCLE
  5
9293
330
1E
100
AcDbEntity
  8
22
100
AcDbCircle
 10
0.0
 20
-302.0
 30
0.0
 40
9.0
210
0.0
220
0.0
230
-1.0
  0
CIRCLE
  5
9294
330
1E
100
AcDbEntity
  8
22
100
AcDbCircle
 10
-30.0
 20
-302.0
 30
0.0
 40
9.0
210
0.0
220
0.0
230
-1.0
  0
CIRCLE
  5
9295
330
1E
100
AcDbEntity
  8
22
100
AcDbCircle
 10
30.0
 20
-302.0
 30
0.0
 40
9.0
210
0.0
220
0.0
230
-1.0
  0
DIMENSION
  5
9297
330
1E
100
AcDbEntity
  8
30
100
AcDbDimension
  2
*D23
 10
116.1399438671997
 20
-168.0
 30
0.0
 11
113.1399438671995
 21
-235.0
 31
0.0
 70
    32
 71
     5
 42
-1.0
  3
STANDARD
100
AcDbAlignedDimension
 13
62.50000001650003
 23
-302.0
 33
0.0
 14
62.50000001650003
 24
-168.0
 34
0.0
 50
270.0
100
AcDbRotatedDimension
  0
LINE
  5
9298
330
1E
100
AcDbEntity
  8
18
 48
2.0
100
AcDbLine
 10
-45.0
 20
-312.5
 30
0.0
 11
75.0
 21
-312.5
 31
0.0
  0
LINE
  5
9299
330
1E
100
AcDbEntity
  8
22
100
AcDbLine
 10
-41.99999999999977
 20
-302.0
 30
0.0
 11
72.00000000000024
 21
-302.0
 31
0.0
  0
LINE
  5
929A
330
1E
100
AcDbEntity
  8
22
100
AcDbLine
 10
-18.99999999999977
 20
-301.0
 30
0.0
 11
-10.99999999999975
 21
-301.0
 31
0.0
  0
CIRCLE
  5
929B
330
1E
100
AcDbEntity
  8
12
100
AcDbCircle
 10
15.0
 20
-301.0
 30
0.0
 40
2.0
210
0.0
220
0.0
230
-1.0
  0
LINE
  5
929C
330
1E
100
AcDbEntity
  8
22
100
AcDbLine
 10
-15.00000000000158
 20
-296.9999999999998
 30
0.0
 11
-15.00000000000158
 21
-304.9999999999998
 31
0.0
  0
LINE
  5
929D
330
1E
100
AcDbEntity
  8
22
100
AcDbLine
 10
11.00000000000022
 20
-301.0
 30
0.0
 11
19.00000000000022
 21
-301.0
 31
0.0
  0
CIRCLE
  5
929E
330
1E
100
AcDbEntity
  8
12
100
AcDbCircle
 10
-15.0
 20
-301.0
 30
0.0
 40
2.0
210
0.0
220
0.0
230
-1.0
  0
LINE
  5
929F
330
1E
100
AcDbEntity
  8
22
100
AcDbLine
 10
14.99999999999841
 20
-296.9999999999998
 30
0.0
 11
14.99999999999841
 21
-304.9999999999998
 31
0.0
  0
LINE
  5
92A0
330
1E
100
AcDbEntity
  8
18
 48
2.0
100
AcDbLine
 10
75.0
 20
-157.5
 30
0.0
 11
-45.0
 21
-157.5
 31
0.0
  0
LINE
  5
92A1
330
1E
100
AcDbEntity
  8
22
100
AcDbLine
 10
-41.99999999999977
 20
-168.0
 30
0.0
 11
72.00000000000024
 21
-168.0
 31
0.0
  0
LINE
  5
92A2
330
1E
100
AcDbEntity
  8
22
100
AcDbLine
 10
-30.0
 20
-156.0
 30
0.0
 11
-30.0
 21
-180.0
 31
0.0
  0
CIRCLE
  5
92A3
330
1E
100
AcDbEntity
  8
22
100
AcDbCircle
 10
-30.0
 20
-168.0
 30
0.0
 40
9.0
  0
LINE
  5
92A4
330
1E
100
AcDbEntity
  8
22
100
AcDbLine
 10
-15.00000000000158
 20
-173.0000000000002
 30
0.0
 11
-15.00000000000158
 21
-165.0000000000002
 31
0.0
  0
CIRCLE
  5
92A5
330
1E
100
AcDbEntity
  8
12
100
AcDbCircle
 10
-15.0
 20
-169.0
 30
0.0
 40
2.0
  0
LINE
  5
92A6
330
1E
100
AcDbEntity
  8
22
100
AcDbLine
 10
-18.99999999999977
 20
-169.0
 30
0.0
 11
-10.99999999999975
 21
-169.0
 31
0.0
  0
LINE
  5
92A7
330
1E
100
AcDbEntity
  8
22
100
AcDbLine
 10
30.0
 20
-156.0
 30
0.0
 11
30.0
 21
-180.0
 31
0.0
  0
LINE
  5
92A8
330
1E
100
AcDbEntity
  8
22
100
AcDbLine
 10
11.00000000000022
 20
-169.0
 30
0.0
 11
19.00000000000022
 21
-169.0
 31
0.0
  0
CIRCLE
  5
92A9
330
1E
100
AcDbEntity
  8
12
100
AcDbCircle
 10
15.0
 20
-169.0
 30
0.0
 40
2.0
  0
CIRCLE
  5
92AA
330
1E
100
AcDbEntity
  8
22
100
AcDbCircle
 10
0.0
 20
-168.0
 30
0.0
 40
9.0
  0
LINE
  5
92AB
330
1E
100
AcDbEntity
  8
22
100
AcDbLine
 10
14.99999999999841
 20
-173.0000000000002
 30
0.0
 11
14.99999999999841
 21
-165.0000000000002
 31
0.0
  0
CIRCLE
  5
92AC
330
1E
100
AcDbEntity
  8
22
100
AcDbCircle
 10
30.0
 20
-168.0
 30
0.0
 40
9.0
  0
LINE
  5
92AD
330
1E
100
AcDbEntity
  8
22
100
AcDbLine
 10
60.0
 20
-156.0
 30
0.0
 11
60.0
 21
-180.0
 31
0.0
  0
CIRCLE
  5
92AE
330
1E
100
AcDbEntity
  8
22
100
AcDbCircle
 10
60.0
 20
-168.0
 30
0.0
 40
9.0
  0
LEADER
  5
92DA
330
1E
100
AcDbEntity
  8
30
100
AcDbLeader
  3
STANDARD
 76
     3
 10
-15.00000000000158
 20
-167.0
 30
0.0
 10
-22.07844622925903
 20
-140.0564045549737
 30
0.0
 10
-35.23329131204899
 20
-140.0564045549737
 30
0.0
1001
ACAD
1000
DSTYLE
1002
{
1070
     5
1000
OPEN
1070
    77
1070
     0
1070
    79
1070
     3
1070
   147
1040
1.0
1070
   342
1005
3B2
1002
}
  0
TEXT
  5
92DB
330
1E
100
AcDbEntity
  8
30
100
AcDbText
 10
-33.90451773441919
 20
-139.3927796677433
 30
0.0
 40
5.0
  1
M4
  7
STANDARD1
100
AcDbText
  0
LEADER
  5
92DC
330
1E
100
AcDbEntity
  8
30
100
AcDbLeader
  3
STANDARD
 76
     3
 10
-34.33150370606607
 20
-309.8887041697705
 30
0.0
 10
-39.7794711630604
 20
-321.1703174697388
 30
0.0
 10
-59.44530045930425
 20
-321.1703174697388
 30
0.0
1001
ACAD
1000
DSTYLE
1002
{
1070
     5
1000
OPEN
1070
    77
1070
     0
1070
    79
1070
     3
1070
   147
1040
1.0
1070
   342
1005
3B2
1002
}
  0
TEXT
  5
92DD
330
1E
100
AcDbEntity
  8
30
100
AcDbText
 10
-55.19322641465169
 20
-320.1085183023666
 30
0.0
 40
5.0
  1
%%c18
  7
STANDARD1
100
AcDbText
  0
DIMENSION
  5
92DE
330
1E
100
AcDbEntity
  8
30
100
AcDbDimension
  2
*D24
 10
14.9999999999984
 20
-330.0941269446008
 30
0.0
 11
-0.0000000000015932
 21
-327.0941269446008
 31
0.0
 70
    32
 71
     5
 42
-1.0
  3
STANDARD
100
AcDbAlignedDimension
 13
-15.00000000000158
 23
-304.9999999999998
 33
0.0
 14
14.99999999999841
 24
-304.9999999999998
 34
0.0
100
AcDbRotatedDimension
  0
DIMENSION
  5
92F4
330
1E
100
AcDbEntity
  8
30
100
AcDbDimension
  2
*D25
 10
-0.0000000000000014
 20
-339.7034767486353
 30
0.0
 11
-15.0
 21
-336.7034767486353
 31
0.0
 70
    32
 71
     5
 42
-1.0
  3
STANDARD
100
AcDbAlignedDimension
 13
-30.0
 23
-314.0
 33
0.0
 14
0.0
 24
-317.4374692359974
 34
0.0
100
AcDbRotatedDimension
1001
ACAD
1000
DSTYLE
1002
{
1070
    79
1070
     3
1002
}
  0
DIMENSION
  5
9301
330
1E
100
AcDbEntity
  8
30
100
AcDbDimension
  2
*D26
 10
30.0
 20
-339.7034767486353
 30
0.0
 11
15.0
 21
-336.7034767486353
 31
0.0
 70
    32
 71
     5
 42
-1.0
  3
STANDARD
100
AcDbAlignedDimension
 13
0.0
 23
-317.4374692359974
 33
0.0
 14
30.0
 24
-314.0
 34
0.0
100
AcDbRotatedDimension
1001
ACAD
1000
DSTYLE
1002
{
1070
   287
1070
     4
1070
   287
1070
     4
1070
   279
1070
     1
1070
    79
1070
     3
1002
}
  0
DIMENSION
  5
930E
330
1E
100
AcDbEntity
  8
30
100
AcDbDimension
  2
*D27
 10
60.0
 20
-339.7034767486353
 30
0.0
 11
45.0
 21
-336.7034767486353
 31
0.0
 70
    32
 71
     5
 42
-1.0
  3
STANDARD
100
AcDbAlignedDimension
 13
30.0
 23
-314.0
 33
0.0
 14
60.0
 24
-314.0
 34
0.0
100
AcDbRotatedDimension
1001
ACAD
1000
DSTYLE
1002
{
1070
   287
1070
     4
1070
   287
1070
     4
1070
   279
1070
     1
1070
    79
1070
     3
1002
}
  0
DIMENSION
  5
931B
330
1E
100
AcDbEntity
  8
30
100
AcDbDimension
  2
*D28
 10
100.7473398081974
 20
-301.0
 30
0.0
 11
97.74733980819753
 21
-235.0
 31
0.0
 70
    32
 71
     5
 42
-1.0
  3
STANDARD
100
AcDbAlignedDimension
 13
19.00000000000022
 23
-169.0
 33
0.0
 14
19.00000000000022
 24
-301.0
 34
0.0
 50
90.0
100
AcDbRotatedDimension
1001
ACAD
1000
DSTYLE
1002
{
1070
    79
1070
     3
1002
}
  0
LEADER
  5
933A
330
1E
100
AcDbEntity
  8
30
100
AcDbLeader
  3
STANDARD
 76
     3
 10
309.2950947291221
 20
-56.38342428232369
 30
0.0
 10
323.2265334171196
 20
-38.53475248434752
 30
0.0
 10
350.8584100044486
 20
-38.53475248434752
 30
0.0
1001
ACAD
1000
DSTYLE
1002
{
1070
     5
1000
OPEN
1070
    77
1070
     0
1070
    79
1070
     3
1070
   147
1040
1.0
1070
   342
1005
3B2
1002
}
  0
TEXT
  5
933B
330
1E
100
AcDbEntity
  8
30
100
AcDbText
 10
327.4237800050246
 20
-37.48664292716372
 30
0.0
 40
4.0
  1
%%c8.5
  7
STANDARD1
100
AcDbText
  0
CIRCLE
  5
9465
330
1E
100
AcDbEntity
  8
10
  6
CONTINOUS
100
AcDbCircle
 10
26.19999999999999
 20
5.800000000000027
 30
0.0
 40
3.6
  0
CIRCLE
  5
9466
330
1E
100
AcDbEntity
  8
10
  6
CONTINOUS
100
AcDbCircle
 10
26.19999999999999
 20
5.800000000000027
 30
0.0
 40
2.6
  0
LINE
  5
9467
330
1E
100
AcDbEntity
  8
10
  6
CONTINOUS
100
AcDbLine
 10
22.69999999999999
 20
-7.499999999999985
 30
0.0
 11
30.69999999999999
 21
-7.499999999999985
 31
0.0
  0
LINE
  5
9468
330
1E
100
AcDbEntity
  8
10
  6
CONTINOUS
100
AcDbLine
 10
22.69999999999999
 20
-10.49999999999998
 30
0.0
 11
30.69999999999999
 21
-10.49999999999998
 31
0.0
  0
LINE
  5
9469
330
1E
100
AcDbEntity
  8
10
  6
CONTINOUS
100
AcDbLine
 10
22.69999999999999
 20
-12.49999999999998
 30
0.0
 11
30.69999999999999
 21
-12.49999999999998
 31
0.0
  0
LINE
  5
946A
330
1E
100
AcDbEntity
  8
10
  6
CONTINOUS
100
AcDbLine
 10
22.69999999999999
 20
-15.49999999999998
 30
0.0
 11
30.69999999999999
 21
-15.49999999999998
 31
0.0
  0
LINE
  5
946B
330
1E
100
AcDbEntity
  8
10
  6
CONTINOUS
100
AcDbLine
 10
22.69999999999999
 20
-7.499999999999985
 30
0.0
 11
22.69999999999999
 21
-10.49999999999998
 31
0.0
  0
LINE
  5
946C
330
1E
100
AcDbEntity
  8
10
  6
CONTINOUS
100
AcDbLine
 10
22.69999999999999
 20
-12.49999999999998
 30
0.0
 11
22.69999999999999
 21
-15.49999999999998
 31
0.0
  0
LINE
  5
946D
330
1E
100
AcDbEntity
  8
10
  6
CONTINOUS
100
AcDbLine
 10
30.69999999999999
 20
-7.499999999999985
 30
0.0
 11
30.69999999999999
 21
-10.49999999999998
 31
0.0
  0
LINE
  5
946E
330
1E
100
AcDbEntity
  8
10
  6
CONTINOUS
100
AcDbLine
 10
30.69999999999999
 20
-12.49999999999998
 30
0.0
 11
30.69999999999999
 21
-15.49999999999998
 31
0.0
  0
CIRCLE
  5
946F
330
1E
100
AcDbEntity
  8
10
  6
CONTINOUS
100
AcDbCircle
 10
26.19999999999999
 20
-1.899999999999988
 30
0.0
 40
3.6
  0
CIRCLE
  5
9470
330
1E
100
AcDbEntity
  8
10
  6
CONTINOUS
100
AcDbCircle
 10
26.19999999999999
 20
-1.899999999999988
 30
0.0
 40
2.6
  0
CIRCLE
  5
9471
330
1E
100
AcDbEntity
  8
10
  6
CONTINOUS
100
AcDbCircle
 10
26.19999999999999
 20
12.30000000000001
 30
0.0
 40
1.5
  0
LINE
  5
9472
330
1E
100
AcDbEntity
  8
18
100
AcDbLine
 10
44.00000000000001
 20
-2.999999999999897
 30
0.0
 11
44.00000000000001
 21
-32.37771519437667
 31
0.0
  0
LINE
  5
9473
330
1E
100
AcDbEntity
  8
18
100
AcDbLine
 10
46.0
 20
-2.999999999999897
 30
0.0
 11
46.0
 21
-33.29228449266938
 31
0.0
  0
LINE
  5
9474
330
1E
100
AcDbEntity
  8
18
100
AcDbLine
 10
48.0
 20
-2.999999999999897
 30
0.0
 11
48.0
 21
-32.89535275960138
 31
0.0
  0
LINE
  5
9475
330
1E
100
AcDbEntity
  8
18
100
AcDbLine
 10
42.00000000000001
 20
0.0000000000000142
 30
0.0
 11
42.00000000000001
 21
-32.74218373195511
 31
0.0
  0
LINE
  5
9476
330
1E
100
AcDbEntity
  8
18
100
AcDbLine
 10
48.0
 20
-100.4999999999997
 30
0.0
 11
48.0
 21
-132.9999999999998
 31
0.0
  0
LINE
  5
9477
330
1E
100
AcDbEntity
  8
18
100
AcDbLine
 10
46.0
 20
-100.4999999999997
 30
0.0
 11
46.0
 21
-132.9999999999998
 31
0.0
  0
LINE
  5
9478
330
1E
100
AcDbEntity
  8
18
100
AcDbLine
 10
44.00000000000001
 20
-100.4999999999997
 30
0.0
 11
44.00000000000001
 21
-132.9999999999998
 31
0.0
  0
LINE
  5
9479
330
1E
100
AcDbEntity
  8
18
100
AcDbLine
 10
42.00000000000001
 20
-100.4999999999997
 30
0.0
 11
42.00000000000001
 21
-132.9999999999998
 31
0.0
  0
LINE
  5
947A
330
1E
100
AcDbEntity
  8
18
100
AcDbLine
 10
46.0
 20
-132.9999999999998
 30
0.0
 11
48.0
 21
-132.9999999999998
 31
0.0
  0
LINE
  5
947B
330
1E
100
AcDbEntity
  8
18
100
AcDbLine
 10
46.50000000000001
 20
-137.9999999999998
 30
0.0
 11
47.5
 21
-137.9999999999998
 31
0.0
  0
LINE
  5
947C
330
1E
100
AcDbEntity
  8
18
100
AcDbLine
 10
42.00000000000001
 20
-132.9999999999998
 30
0.0
 11
44.00000000000001
 21
-132.9999999999998
 31
0.0
  0
LINE
  5
947D
330
1E
100
AcDbEntity
  8
18
100
AcDbLine
 10
44.00000000000001
 20
-132.9999999999998
 30
0.0
 11
46.0
 21
-132.9999999999998
 31
0.0
  0
LINE
  5
947E
330
1E
100
AcDbEntity
  8
18
100
AcDbLine
 10
42.5
 20
-137.9999999999998
 30
0.0
 11
43.5
 21
-137.9999999999998
 31
0.0
  0
LINE
  5
947F
330
1E
100
AcDbEntity
  8
18
100
AcDbLine
 10
44.50000000000001
 20
-137.9999999999998
 30
0.0
 11
45.49999999999999
 21
-137.9999999999998
 31
0.0
  0
LINE
  5
9480
330
1E
100
AcDbEntity
  8
18
100
AcDbLine
 10
46.50000000000001
 20
-132.9999999999998
 30
0.0
 11
46.50000000000001
 21
-137.9999999999998
 31
0.0
  0
LINE
  5
9481
330
1E
100
AcDbEntity
  8
18
100
AcDbLine
 10
45.49999999999999
 20
-132.9999999999998
 30
0.0
 11
45.49999999999999
 21
-137.9999999999998
 31
0.0
  0
LINE
  5
9482
330
1E
100
AcDbEntity
  8
18
100
AcDbLine
 10
44.50000000000001
 20
-132.9999999999998
 30
0.0
 11
44.50000000000001
 21
-137.9999999999998
 31
0.0
  0
LINE
  5
9483
330
1E
100
AcDbEntity
  8
18
100
AcDbLine
 10
43.5
 20
-132.9999999999998
 30
0.0
 11
43.5
 21
-137.9999999999998
 31
0.0
  0
LINE
  5
9484
330
1E
100
AcDbEntity
  8
18
100
AcDbLine
 10
42.5
 20
-132.9999999999998
 30
0.0
 11
42.5
 21
-137.9999999999998
 31
0.0
  0
LINE
  5
9485
330
1E
100
AcDbEntity
  8
18
100
AcDbLine
 10
47.5
 20
-132.9999999999998
 30
0.0
 11
47.5
 21
-137.9999999999998
 31
0.0
  0
LINE
  5
9486
330
1E
100
AcDbEntity
  8
18
100
AcDbLine
 10
42.00000000000001
 20
-36.74218373195509
 30
0.0
 11
42.00000000000001
 21
-85.49999999999995
 31
0.0
  0
LINE
  5
9487
330
1E
100
AcDbEntity
  8
18
100
AcDbLine
 10
44.00000000000001
 20
-36.3777151943767
 30
0.0
 11
44.00000000000001
 21
-85.4999999999999
 31
0.0
  0
LINE
  5
9488
330
1E
100
AcDbEntity
  8
18
100
AcDbLine
 10
46.0
 20
-37.29228449266936
 30
0.0
 11
46.0
 21
-85.4999999999999
 31
0.0
  0
LINE
  5
9489
330
1E
100
AcDbEntity
  8
18
100
AcDbLine
 10
48.0
 20
-36.89535275960146
 30
0.0
 11
48.0
 21
-85.49999999999995
 31
0.0
  0
LINE
  5
948A
330
1E
100
AcDbEntity
  8
10
  6
CONTINOUS
100
AcDbLine
 10
38.75000000000003
 20
-66.00000000000003
 30
0.0
 11
38.75000000000003
 21
-77.50000000000001
 31
0.0
  0
LINE
  5
948B
330
1E
100
AcDbEntity
  8
18
100
AcDbLine
 10
48.50000000000001
 20
-85.49999999999995
 30
0.0
 11
48.50000000000001
 21
-100.4999999999997
 31
0.0
  0
LINE
  5
948C
330
1E
100
AcDbEntity
  8
18
100
AcDbLine
 10
41.50000000000001
 20
-85.49999999999995
 30
0.0
 11
41.50000000000001
 21
-100.4999999999997
 31
0.0
  0
LINE
  5
948D
330
1E
100
AcDbEntity
  8
18
100
AcDbLine
 10
41.50000000000006
 20
-100.4999999999997
 30
0.0
 11
48.50000000000001
 21
-100.4999999999997
 31
0.0
  0
LINE
  5
948E
330
1E
100
AcDbEntity
  8
18
100
AcDbLine
 10
41.50000000000006
 20
-85.49999999999995
 30
0.0
 11
48.50000000000001
 21
-85.49999999999995
 31
0.0
  0
ARC
  5
948F
330
1E
100
AcDbEntity
  8
18
100
AcDbCircle
 10
42.00000000000001
 20
-2.999999999999984
 30
0.0
 40
4.0
100
AcDbArc
 50
0.0000000003322026
 51
90.0
  0
ARC
  5
9490
330
1E
100
AcDbEntity
  8
18
100
AcDbCircle
 10
42.00000000000001
 20
-2.999999999999984
 30
0.0
 40
6.0
100
AcDbArc
 50
0.0000000002214684
 51
90.0
  0
ARC
  5
9491
330
1E
100
AcDbEntity
  8
18
100
AcDbCircle
 10
42.00000000000001
 20
-2.999999999999984
 30
0.0
 40
2.0
100
AcDbArc
 50
0.0000000006644052
 51
90.0
  0
MTEXT
  5
955E
330
1E
100
AcDbEntity
  8
30
100
AcDbMText
 10
317.5810668454191
 20
250.4589368652984
 30
0.0
 40
5.0
 41
81.0922
 71
     1
 72
     5
  1
ZAS100-NF 4P RC\PZAS100-GF 4P RC\PZAS125-NF 4P RC\PZAS125-GF 4P RC
  7
STANDARD1
 73
     1
 44
1.0
  0
VIEWPORT
  5
9AC
330
1A
100
AcDbEntity
 67
     1
  8
0
  6
Continuous
100
AcDbViewport
 10
171.9995348790992
 20
144.1384735538403
 30
0.0
 40
488.8676857773511
 41
292.3514905034161
 68
     1
 69
     1
 12
171.9995348790992
 22
144.1384735538403
 13
0.0
 23
0.0
 14
10.0
 24
10.0
 15
10.0
 25
10.0
 16
0.0
 26
0.0
 36
1.0
 17
0.0
 27
0.0
 37
0.0
 42
50.0
 43
0.0
 44
0.0
 45
292.3514905034161
 50
0.0
 51
0.0
 72
   100
 90
    32800
  1

281
     0
 71
     1
 74
     0
110
0.0
120
0.0
130
0.0
111
1.0
121
0.0
131
0.0
112
0.0
122
1.0
132
0.0
 79
     0
146
0.0
  0
ENDSEC
  0
SECTION
  2
OBJECTS
  0
DICTIONARY
  5
C
330
0
100
AcDbDictionary
281
     1
  3
ACAD_GROUP
350
D
  3
ACAD_LAYOUT
350
19
  3
ACAD_MLINESTYLE
350
16
  3
ACAD_PLOTSETTINGS
350
18
  3
ACAD_PLOTSTYLENAME
350
E
  3
ACADDIM
350
92CE
  3
ACDBVARIABLEDICTIONARY
350
5B5E
  0
DICTIONARY
  5
178
330
1E
100
AcDbDictionary
280
     1
281
     1
  3
ACAD_LAYOUTSELFREF
360
952F
  0
DICTIONARY
  5
17A
330
1A
100
AcDbDictionary
280
     1
281
     1
  3
ACAD_LAYOUTSELFREF
360
952E
  0
DICTIONARY
  5
D
102
{ACAD_REACTORS
330
C
102
}
330
C
100
AcDbDictionary
281
     1
  0
DICTIONARY
  5
19
102
{ACAD_REACTORS
330
C
102
}
330
C
100
AcDbDictionary
281
     1
  3
Model
350
955B
  3
ﾚｲｱｳﾄ1
350
955C
  0
DICTIONARY
  5
16
102
{ACAD_REACTORS
330
C
102
}
330
C
100
AcDbDictionary
281
     1
  3
STANDARD
350
17
  0
DICTIONARY
  5
18
102
{ACAD_REACTORS
330
C
102
}
330
C
100
AcDbDictionary
281
     1
  0
ACDBDICTIONARYWDFLT
  5
E
102
{ACAD_REACTORS
330
C
102
}
330
C
100
AcDbDictionary
281
     1
  3
Normal
350
F
100
AcDbDictionaryWithDefault
340
F
  0
XRECORD
  5
92CE
102
{ACAD_REACTORS
330
C
102
}
330
C
100
AcDbXrecord
280
     1
 90
   990106
  3

 60
     0
 61
     0
 62
     1
 63
     3
 64
     0
 65
     0
 66
     0
 67
     3
 68
     1
 69
     0
 70
     0
 71
     0
 72
     0
 40
0.0
170
     0
  0
DICTIONARY
  5
5B5E
102
{ACAD_REACTORS
330
C
102
}
330
C
100
AcDbDictionary
281
     1
  3
DIMASSOC
350
5B5F
  0
XRECORD
  5
952F
102
{ACAD_REACTORS
330
178
102
}
330
178
100
AcDbXrecord
280
     1
340
1E
  0
XRECORD
  5
952E
102
{ACAD_REACTORS
330
17A
102
}
330
17A
100
AcDbXrecord
280
     1
340
1A
  0
LAYOUT
  5
955B
102
{ACAD_REACTORS
330
19
102
}
330
19
100
AcDbPlotSettings
  1

  2
Canon LBP3800 LIPSLX
  4

  6

 40
0.0
 41
0.0
 42
0.0
 43
0.0
 44
0.0
 45
0.0
 46
0.0
 47
0.0
 48
0.0
 49
0.0
140
0.0
141
0.0
142
1.0
143
1.0
 70
  1712
 72
     0
 73
     0
 74
     0
  7
monochrome.ctb
 75
     0
147
1.0
148
0.0
149
0.0
100
AcDbLayout
  1
Model
 70
     1
 71
     0
 10
0.0
 20
0.0
 11
12.0
 21
9.0
 12
0.0
 22
0.0
 32
0.0
 14
0.0
 24
0.0
 34
0.0
 15
0.0
 25
0.0
 35
0.0
146
0.0
 13
0.0
 23
0.0
 33
0.0
 16
1.0
 26
0.0
 36
0.0
 17
0.0
 27
1.0
 37
0.0
 76
     0
330
1E
  0
LAYOUT
  5
955C
102
{ACAD_REACTORS
330
19
102
}
330
19
100
AcDbPlotSettings
  1

  2
Canon LBP3800 LIPSLX
  4

  6

 40
0.0
 41
0.0
 42
0.0
 43
0.0
 44
0.0
 45
0.0
 46
0.0
 47
0.0
 48
0.0
 49
0.0
140
0.0
141
0.0
142
1.0
143
1.0
 70
   688
 72
     0
 73
     0
 74
     5
  7
monochrome.ctb
 75
    16
147
1.0
148
0.0
149
0.0
100
AcDbLayout
  1
ﾚｲｱｳﾄ1
 70
     1
 71
     1
 10
-5.873748779296875
 20
-5.873749732971191
 11
204.0995788574218
 21
291.1369009017943
 12
0.0
 22
0.0
 32
0.0
 14
4.273573370203961
 24
5.205246163471485
 34
0.0
 15
194.6100952986349
 25
283.0697008572913
 35
0.0
146
0.0
 13
0.0
 23
0.0
 33
0.0
 16
1.0
 26
0.0
 36
0.0
 17
0.0
 27
1.0
 37
0.0
 76
     0
330
1A
331
9AC
  0
MLINESTYLE
  5
17
102
{ACAD_REACTORS
330
16
102
}
330
16
100
AcDbMlineStyle
  2
STANDARD
 70
     0
  3

 62
   256
 51
90.0
 52
90.0
 71
     2
 49
0.5
 62
   256
  6
BYLAYER
 49
-0.5
 62
   256
  6
BYLAYER
  0
ACDBPLACEHOLDER
  5
F
102
{ACAD_REACTORS
330
E
102
}
330
E
  0
DICTIONARYVAR
  5
5B5F
102
{ACAD_REACTORS
330
5B5E
102
}
330
5B5E
100
DictionaryVariables
280
     0
  1
1
  0
ENDSEC
  0
EOF
