  0
SECTION
  2
HEADER
  9
$ACADVER
  1
AC1015
  9
$ACADMAINTVER
 70
    10
  9
$DWGCODEPAGE
  3
ANSI_932
  9
$INSBASE
 10
0.0
 20
0.0
 30
0.0
  9
$EXTMIN
 10
-84.89493462656309
 20
-340.2034767486353
 30
0.0
  9
$EXTMAX
 10
424.5609929336933
 20
318.4340221653556
 30
0.0
  9
$LIMMIN
 10
-111.6607628231322
 20
-393.6846650918833
  9
$LIMMAX
 10
267.0001487158915
 20
364.8672605553396
  9
$ORTHOMODE
 70
     1
  9
$REGENMODE
 70
     1
  9
$FILLMODE
 70
     1
  9
$QTEXTMODE
 70
     0
  9
$MIRRTEXT
 70
     1
  9
$LTSCALE
 40
5.0
  9
$ATTMODE
 70
     1
  9
$TEXTSIZE
 40
5.0
  9
$TRACEWID
 40
0.05
  9
$TEXTSTYLE
  7
STANDARD1
  9
$CLAYER
  8
30
  9
$CELTYPE
  6
BYLAYER
  9
$CECOLOR
 62
   256
  9
$CELTSCALE
 40
1.0
  9
$DISPSILH
 70
     0
  9
$DIMSCALE
 40
1.0
  9
$DIMASZ
 40
2.0
  9
$DIMEXO
 40
1.0
  9
$DIMDLI
 40
0.5
  9
$DIMRND
 40
0.0
  9
$DIMDLE
 40
0.0
  9
$DIMEXE
 40
0.5
  9
$DIMTP
 40
0.0
  9
$DIMTM
 40
0.0
  9
$DIMTXT
 40
4.0
  9
$DIMCEN
 40
0.09
  9
$DIMTSZ
 40
0.0
  9
$DIMTOL
 70
     0
  9
$DIMLIM
 70
     0
  9
$DIMTIH
 70
     0
  9
$DIMTOH
 70
     0
  9
$DIMSE1
 70
     0
  9
$DIMSE2
 70
     0
  9
$DIMTAD
 70
     3
  9
$DIMZIN
 70
    12
  9
$DIMBLK
  1
OPEN
  9
$DIMASO
 70
     1
  9
$DIMSHO
 70
     1
  9
$DIMPOST
  1

  9
$DIMAPOST
  1

  9
$DIMALT
 70
     0
  9
$DIMALTD
 70
     2
  9
$DIMALTF
 40
25.4
  9
$DIMLFAC
 40
1.0
  9
$DIMTOFL
 70
     0
  9
$DIMTVP
 40
0.0
  9
$DIMTIX
 70
     0
  9
$DIMSOXD
 70
     0
  9
$DIMSAH
 70
     0
  9
$DIMBLK1
  1

  9
$DIMBLK2
  1

  9
$DIMSTYLE
  2
STANDARD
  9
$DIMCLRD
 70
     0
  9
$DIMCLRE
 70
     0
  9
$DIMCLRT
 70
     0
  9
$DIMTFAC
 40
1.0
  9
$DIMGAP
 40
1.0
  9
$DIMJUST
 70
     0
  9
$DIMSD1
 70
     0
  9
$DIMSD2
 70
     0
  9
$DIMTOLJ
 70
     1
  9
$DIMTZIN
 70
     0
  9
$DIMALTZ
 70
     0
  9
$DIMALTTZ
 70
     0
  9
$DIMUPT
 70
     0
  9
$DIMDEC
 70
     1
  9
$DIMTDEC
 70
     1
  9
$DIMALTU
 70
     2
  9
$DIMALTTD
 70
     2
  9
$DIMTXSTY
  7
STANDARD
  9
$DIMAUNIT
 70
     0
  9
$DIMADEC
 70
     0
  9
$DIMALTRND
 40
0.0
  9
$DIMAZIN
 70
     3
  9
$DIMDSEP
 70
    46
  9
$DIMATFIT
 70
     3
  9
$DIMFRAC
 70
     0
  9
$DIMLDRBLK
  1
OPEN
  9
$DIMLUNIT
 70
     2
  9
$DIMLWD
 70
    -2
  9
$DIMLWE
 70
    -2
  9
$DIMTMOVE
 70
     0
  9
$LUNITS
 70
     2
  9
$LUPREC
 70
     4
  9
$SKETCHINC
 40
0.1
  9
$FILLETRAD
 40
2.75
  9
$AUNITS
 70
     0
  9
$AUPREC
 70
     0
  9
$MENU
  1
.
  9
$ELEVATION
 40
0.0
  9
$PELEVATION
 40
0.0
  9
$THICKNESS
 40
0.0
  9
$LIMCHECK
 70
     0
  9
$CHAMFERA
 40
0.0
  9
$CHAMFERB
 40
0.0
  9
$CHAMFERC
 40
0.0
  9
$CHAMFERD
 40
0.0
  9
$SKPOLY
 70
     0
  9
$TDCREATE
 40
2452286.555658657
  9
$TDUCREATE
 40
2452286.180658657
  9
$TDUPDATE
 40
2454907.644046041
  9
$TDUUPDATE
 40
2454907.269046041
  9
$TDINDWG
 40
1.3396753472
  9
$TDUSRTIMER
 40
1.3396744444
  9
$USRTIMER
 70
     1
  9
$ANGBASE
 50
0.0
  9
$ANGDIR
 70
     0
  9
$PDMODE
 70
     0
  9
$PDSIZE
 40
0.0
  9
$PLINEWID
 40
0.0
  9
$SPLFRAME
 70
     0
  9
$SPLINETYPE
 70
     6
  9
$SPLINESEGS
 70
     8
  9
$HANDSEED
  5
95F0
  9
$SURFTAB1
 70
     6
  9
$SURFTAB2
 70
     6
  9
$SURFTYPE
 70
     6
  9
$SURFU
 70
     6
  9
$SURFV
 70
     6
  9
$UCSBASE
  2

  9
$UCSNAME
  2

  9
$UCSORG
 10
0.0
 20
0.0
 30
0.0
  9
$UCSXDIR
 10
1.0
 20
0.0
 30
0.0
  9
$UCSYDIR
 10
0.0
 20
1.0
 30
0.0
  9
$UCSORTHOREF
  2

  9
$UCSORTHOVIEW
 70
     0
  9
$UCSORGTOP
 10
0.0
 20
0.0
 30
0.0
  9
$UCSORGBOTTOM
 10
0.0
 20
0.0
 30
0.0
  9
$UCSORGLEFT
 10
0.0
 20
0.0
 30
0.0
  9
$UCSORGRIGHT
 10
0.0
 20
0.0
 30
0.0
  9
$UCSORGFRONT
 10
0.0
 20
0.0
 30
0.0
  9
$UCSORGBACK
 10
0.0
 20
0.0
 30
0.0
  9
$PUCSBASE
  2

  9
$PUCSNAME
  2

  9
$PUCSORG
 10
0.0
 20
0.0
 30
0.0
  9
$PUCSXDIR
 10
1.0
 20
0.0
 30
0.0
  9
$PUCSYDIR
 10
0.0
 20
1.0
 30
0.0
  9
$PUCSORTHOREF
  2

  9
$PUCSORTHOVIEW
 70
     0
  9
$PUCSORGTOP
 10
0.0
 20
0.0
 30
0.0
  9
$PUCSORGBOTTOM
 10
0.0
 20
0.0
 30
0.0
  9
$PUCSORGLEFT
 10
0.0
 20
0.0
 30
0.0
  9
$PUCSORGRIGHT
 10
0.0
 20
0.0
 30
0.0
  9
$PUCSORGFRONT
 10
0.0
 20
0.0
 30
0.0
  9
$PUCSORGBACK
 10
0.0
 20
0.0
 30
0.0
  9
$USERI1
 70
     0
  9
$USERI2
 70
     0
  9
$USERI3
 70
     0
  9
$USERI4
 70
     0
  9
$USERI5
 70
     0
  9
$USERR1
 40
0.0
  9
$USERR2
 40
0.0
  9
$USERR3
 40
0.0
  9
$USERR4
 40
0.0
  9
$USERR5
 40
0.0
  9
$WORLDVIEW
 70
     1
  9
$SHADEDGE
 70
     3
  9
$SHADEDIF
 70
    70
  9
$TILEMODE
 70
     1
  9
$MAXACTVP
 70
    48
  9
$PINSBASE
 10
0.0
 20
0.0
 30
0.0
  9
$PLIMCHECK
 70
     0
  9
$PEXTMIN
 10
4.273573370203961
 20
5.205246163471485
 30
0.0
  9
$PEXTMAX
 10
194.6100952986349
 20
283.0697008572913
 30
0.0
  9
$PLIMMIN
 10
-5.873748779296875
 20
-5.873749732971191
  9
$PLIMMAX
 10
204.0995788574218
 20
291.1369009017943
  9
$UNITMODE
 70
     0
  9
$VISRETAIN
 70
     1
  9
$PLINEGEN
 70
     0
  9
$PSLTSCALE
 70
     1
  9
$TREEDEPTH
 70
  3020
  9
$CMLSTYLE
  2
STANDARD
  9
$CMLJUST
 70
     0
  9
$CMLSCALE
 40
1.0
  9
$PROXYGRAPHICS
 70
     1
  9
$MEASUREMENT
 70
     0
  9
$CELWEIGHT
370
    -1
  9
$ENDCAPS
280
     0
  9
$JOINSTYLE
280
     0
  9
$LWDISPLAY
290
     0
  9
$INSUNITS
 70
     0
  9
$HYPERLINKBASE
  1

  9
$STYLESHEET
  1
kiki.ctb
  9
$XEDIT
290
     1
  9
$CEPSNTYPE
380
     0
  9
$PSTYLEMODE
290
     1
  9
$FINGERPRINTGUID
  2

  9
$VERSIONGUID
  2
{D4DC4E76-3C8A-419A-9264-A24D9DCBE098}
  9
$EXTNAMES
290
     1
  9
$PSVPSCALE
 40
0.0
  9
$OLESTARTUP
290
     0
  0
ENDSEC
  0
SECTION
  2
CLASSES
  0
CLASS
  1
ACDBDICTIONARYWDFLT
  2
AcDbDictionaryWithDefault
  3
AutoCAD 2000
 90
        0
280
     0
281
     0
  0
CLASS
  1
ACDBPLACEHOLDER
  2
AcDbPlaceHolder
  3
AutoCAD 2000
 90
        0
280
     0
281
     0
  0
CLASS
  1
LAYOUT
  2
AcDbLayout
  3
AutoCAD 2000
 90
        0
280
     0
281
     0
  0
CLASS
  1
LONG_TRANSACTION
  2
AcDbLongTransaction
  3
AutoCAD 2000
 90
    32768
280
     0
281
     0
  0
CLASS
  1
LWPOLYLINE
  2
AcDbPolyline
  3
AutoCAD 2000
 90
    32768
280
     0
281
     1
  0
CLASS
  1
HATCH
  2
AcDbHatch
  3
AutoCAD 2000
 90
    32768
280
     0
281
     1
  0
CLASS
  1
XRECORD
  2
AcDbXrecord
  3
AutoCAD 2000
 90
    32768
280
     0
281
     0
  0
CLASS
  1
LONG_TRANSACTION
  2
AcDbLongTransaction
  3
AutoCAD 2000
 90
    32768
280
     0
281
     0
  0
CLASS
  1
LWPOLYLINE
  2
AcDbPolyline
  3
AutoCAD 2000
 90
    32768
280
     0
281
     1
  0
CLASS
  1
HATCH
  2
AcDbHatch
  3
AutoCAD 2000
 90
    32768
280
     0
281
     1
  0
CLASS
  1
XRECORD
  2
AcDbXrecord
  3
AutoCAD 2000
 90
    32768
280
     0
281
     0
  0
CLASS
  1
LONG_TRANSACTION
  2
AcDbLongTransaction
  3
AutoCAD 2000
 90
    32768
280
     0
281
     0
  0
CLASS
  1
LWPOLYLINE
  2
AcDbPolyline
  3
AutoCAD 2000
 90
    32768
280
     0
281
     1
  0
CLASS
  1
HATCH
  2
AcDbHatch
  3
AutoCAD 2000
 90
    32768
280
     0
281
     1
  0
CLASS
  1
XRECORD
  2
AcDbXrecord
  3
AutoCAD 2000
 90
    32768
280
     0
281
     0
  0
CLASS
  1
LONG_TRANSACTION
  2
AcDbLongTransaction
  3
AutoCAD 2000
 90
    32768
280
     0
281
     0
  0
CLASS
  1
LWPOLYLINE
  2
AcDbPolyline
  3
AutoCAD 2000
 90
    32768
280
     0
281
     1
  0
CLASS
  1
HATCH
  2
AcDbHatch
  3
AutoCAD 2000
 90
    32768
280
     0
281
     1
  0
CLASS
  1
XRECORD
  2
AcDbXrecord
  3
AutoCAD 2000
 90
    32768
280
     0
281
     0
  0
CLASS
  1
LONG_TRANSACTION
  2
AcDbLongTransaction
  3
AutoCAD 2000
 90
    32768
280
     0
281
     0
  0
CLASS
  1
LWPOLYLINE
  2
AcDbPolyline
  3
AutoCAD 2000
 90
    32768
280
     0
281
     1
  0
CLASS
  1
HATCH
  2
AcDbHatch
  3
AutoCAD 2000
 90
    32768
280
     0
281
     1
  0
CLASS
  1
XRECORD
  2
AcDbXrecord
  3
AutoCAD 2000
 90
    32768
280
     0
281
     0
  0
CLASS
  1
LONG_TRANSACTION
  2
AcDbLongTransaction
  3
AutoCAD 2000
 90
    32768
280
     0
281
     0
  0
CLASS
  1
LWPOLYLINE
  2
AcDbPolyline
  3
AutoCAD 2000
 90
    32768
280
     0
281
     1
  0
CLASS
  1
HATCH
  2
AcDbHatch
  3
AutoCAD 2000
 90
    32768
280
     0
281
     1
  0
CLASS
  1
XRECORD
  2
AcDbXrecord
  3
AutoCAD 2000
 90
    32768
280
     0
281
     0
  0
CLASS
  1
LONG_TRANSACTION
  2
AcDbLongTransaction
  3
AutoCAD 2000
 90
    32768
280
     0
281
     0
  0
CLASS
  1
LWPOLYLINE
  2
AcDbPolyline
  3
AutoCAD 2000
 90
    32768
280
     0
281
     1
  0
CLASS
  1
HATCH
  2
AcDbHatch
  3
AutoCAD 2000
 90
    32768
280
     0
281
     1
  0
CLASS
  1
XRECORD
  2
AcDbXrecord
  3
AutoCAD 2000
 90
    32768
280
     0
281
     0
  0
CLASS
  1
LONG_TRANSACTION
  2
AcDbLongTransaction
  3
AutoCAD 2000
 90
    32768
280
     0
281
     0
  0
CLASS
  1
LWPOLYLINE
  2
AcDbPolyline
  3
AutoCAD 2000
 90
    32768
280
     0
281
     1
  0
CLASS
  1
HATCH
  2
AcDbHatch
  3
AutoCAD 2000
 90
    32768
280
     0
281
     1
  0
CLASS
  1
XRECORD
  2
AcDbXrecord
  3
AutoCAD 2000
 90
    32768
280
     0
281
     0
  0
CLASS
  1
LONG_TRANSACTION
  2
AcDbLongTransaction
  3
AutoCAD 2000
 90
    32768
280
     0
281
     0
  0
CLASS
  1
LWPOLYLINE
  2
AcDbPolyline
  3
AutoCAD 2000
 90
    32768
280
     0
281
     1
  0
CLASS
  1
HATCH
  2
AcDbHatch
  3
AutoCAD 2000
 90
    32768
280
     0
281
     1
  0
CLASS
  1
XRECORD
  2
AcDbXrecord
  3
AutoCAD 2000
 90
    32768
280
     0
281
     0
  0
CLASS
  1
LONG_TRANSACTION
  2
AcDbLongTransaction
  3
AutoCAD 2000
 90
    32768
280
     0
281
     0
  0
CLASS
  1
LWPOLYLINE
  2
AcDbPolyline
  3
AutoCAD 2000
 90
    32768
280
     0
281
     1
  0
CLASS
  1
HATCH
  2
AcDbHatch
  3
AutoCAD 2000
 90
    32768
280
     0
281
     1
  0
CLASS
  1
XRECORD
  2
AcDbXrecord
  3
AutoCAD 2000
 90
    32768
280
     0
281
     0
  0
CLASS
  1
LONG_TRANSACTION
  2
AcDbLongTransaction
  3
AutoCAD 2000
 90
    32768
280
     0
281
     0
  0
CLASS
  1
LWPOLYLINE
  2
AcDbPolyline
  3
AutoCAD 2000
 90
    32768
280
     0
281
     1
  0
CLASS
  1
HATCH
  2
AcDbHatch
  3
AutoCAD 2000
 90
    32768
280
     0
281
     1
  0
CLASS
  1
XRECORD
  2
AcDbXrecord
  3
AutoCAD 2000
 90
    32768
280
     0
281
     0
  0
CLASS
  1
LONG_TRANSACTION
  2
AcDbLongTransaction
  3
AutoCAD 2000
 90
    32768
280
     0
281
     0
  0
CLASS
  1
LWPOLYLINE
  2
AcDbPolyline
  3
AutoCAD 2000
 90
    32768
280
     0
281
     1
  0
CLASS
  1
HATCH
  2
AcDbHatch
  3
AutoCAD 2000
 90
    32768
280
     0
281
     1
  0
CLASS
  1
XRECORD
  2
AcDbXrecord
  3
AutoCAD 2000
 90
    32768
280
     0
281
     0
  0
CLASS
  1
LONG_TRANSACTION
  2
AcDbLongTransaction
  3
AutoCAD 2000
 90
    32768
280
     0
281
     0
  0
CLASS
  1
LWPOLYLINE
  2
AcDbPolyline
  3
AutoCAD 2000
 90
    32768
280
     0
281
     1
  0
CLASS
  1
HATCH
  2
AcDbHatch
  3
AutoCAD 2000
 90
    32768
280
     0
281
     1
  0
CLASS
  1
XRECORD
  2
AcDbXrecord
  3
AutoCAD 2000
 90
    32768
280
     0
281
     0
  0
CLASS
  1
LONG_TRANSACTION
  2
AcDbLongTransaction
  3
AutoCAD 2000
 90
    32768
280
     0
281
     0
  0
CLASS
  1
LWPOLYLINE
  2
AcDbPolyline
  3
AutoCAD 2000
 90
    32768
280
     0
281
     1
  0
CLASS
  1
HATCH
  2
AcDbHatch
  3
AutoCAD 2000
 90
    32768
280
     0
281
     1
  0
CLASS
  1
XRECORD
  2
AcDbXrecord
  3
AutoCAD 2000
 90
    32768
280
     0
281
     0
  0
CLASS
  1
LONG_TRANSACTION
  2
AcDbLongTransaction
  3
AutoCAD 2000
 90
    32768
280
     0
281
     0
  0
CLASS
  1
LWPOLYLINE
  2
AcDbPolyline
  3
AutoCAD 2000
 90
    32768
280
     0
281
     1
  0
CLASS
  1
HATCH
  2
AcDbHatch
  3
AutoCAD 2000
 90
    32768
280
     0
281
     1
  0
CLASS
  1
XRECORD
  2
AcDbXrecord
  3
AutoCAD 2000
 90
    32768
280
     0
281
     0
  0
CLASS
  1
LONG_TRANSACTION
  2
AcDbLongTransaction
  3
AutoCAD 2000
 90
    32768
280
     0
281
     0
  0
CLASS
  1
LWPOLYLINE
  2
AcDbPolyline
  3
AutoCAD 2000
 90
    32768
280
     0
281
     1
  0
CLASS
  1
HATCH
  2
AcDbHatch
  3
AutoCAD 2000
 90
    32768
280
     0
281
     1
  0
CLASS
  1
XRECORD
  2
AcDbXrecord
  3
AutoCAD 2000
 90
    32768
280
     0
281
     0
  0
CLASS
  1
LONG_TRANSACTION
  2
AcDbLongTransaction
  3
AutoCAD 2000
 90
    32768
280
     0
281
     0
  0
CLASS
  1
LWPOLYLINE
  2
AcDbPolyline
  3
AutoCAD 2000
 90
    32768
280
     0
281
     1
  0
CLASS
  1
HATCH
  2
AcDbHatch
  3
AutoCAD 2000
 90
    32768
280
     0
281
     1
  0
CLASS
  1
XRECORD
  2
AcDbXrecord
  3
AutoCAD 2000
 90
    32768
280
     0
281
     0
  0
CLASS
  1
LONG_TRANSACTION
  2
AcDbLongTransaction
  3
AutoCAD 2000
 90
    32768
280
     0
281
     0
  0
CLASS
  1
LWPOLYLINE
  2
AcDbPolyline
  3
AutoCAD 2000
 90
    32768
280
     0
281
     1
  0
CLASS
  1
HATCH
  2
AcDbHatch
  3
AutoCAD 2000
 90
    32768
280
     0
281
     1
  0
CLASS
  1
XRECORD
  2
AcDbXrecord
  3
AutoCAD 2000
 90
    32768
280
     0
281
     0
  0
CLASS
  1
LONG_TRANSACTION
  2
AcDbLongTransaction
  3
AutoCAD 2000
 90
    32768
280
     0
281
     0
  0
CLASS
  1
LWPOLYLINE
  2
AcDbPolyline
  3
AutoCAD 2000
 90
    32768
280
     0
281
     1
  0
CLASS
  1
HATCH
  2
AcDbHatch
  3
AutoCAD 2000
 90
    32768
280
     0
281
     1
  0
CLASS
  1
XRECORD
  2
AcDbXrecord
  3
AutoCAD 2000
 90
    32768
280
     0
281
     0
  0
CLASS
  1
LONG_TRANSACTION
  2
AcDbLongTransaction
  3
AutoCAD 2000
 90
    32768
280
     0
281
     0
  0
CLASS
  1
LWPOLYLINE
  2
AcDbPolyline
  3
AutoCAD 2000
 90
    32768
280
     0
281
     1
  0
CLASS
  1
HATCH
  2
AcDbHatch
  3
AutoCAD 2000
 90
    32768
280
     0
281
     1
  0
CLASS
  1
XRECORD
  2
AcDbXrecord
  3
AutoCAD 2000
 90
    32768
280
     0
281
     0
  0
CLASS
  1
LONG_TRANSACTION
  2
AcDbLongTransaction
  3
AutoCAD 2000
 90
    32768
280
     0
281
     0
  0
CLASS
  1
LWPOLYLINE
  2
AcDbPolyline
  3
AutoCAD 2000
 90
    32768
280
     0
281
     1
  0
CLASS
  1
HATCH
  2
AcDbHatch
  3
AutoCAD 2000
 90
    32768
280
     0
281
     1
  0
CLASS
  1
XRECORD
  2
AcDbXrecord
  3
AutoCAD 2000
 90
    32768
280
     0
281
     0
  0
CLASS
  1
LONG_TRANSACTION
  2
AcDbLongTransaction
  3
AutoCAD 2000
 90
    32768
280
     0
281
     0
  0
CLASS
  1
LWPOLYLINE
  2
AcDbPolyline
  3
AutoCAD 2000
 90
    32768
280
     0
281
     1
  0
CLASS
  1
HATCH
  2
AcDbHatch
  3
AutoCAD 2000
 90
    32768
280
     0
281
     1
  0
CLASS
  1
XRECORD
  2
AcDbXrecord
  3
AutoCAD 2000
 90
    32768
280
     0
281
     0
  0
CLASS
  1
LONG_TRANSACTION
  2
AcDbLongTransaction
  3
AutoCAD 2000
 90
    32768
280
     0
281
     0
  0
CLASS
  1
LWPOLYLINE
  2
AcDbPolyline
  3
AutoCAD 2000
 90
    32768
280
     0
281
     1
  0
CLASS
  1
HATCH
  2
AcDbHatch
  3
AutoCAD 2000
 90
    32768
280
     0
281
     1
  0
CLASS
  1
XRECORD
  2
AcDbXrecord
  3
AutoCAD 2000
 90
    32768
280
     0
281
     0
  0
CLASS
  1
LONG_TRANSACTION
  2
AcDbLongTransaction
  3
AutoCAD 2000
 90
    32768
280
     0
281
     0
  0
CLASS
  1
LWPOLYLINE
  2
AcDbPolyline
  3
AutoCAD 2000
 90
    32768
280
     0
281
     1
  0
CLASS
  1
HATCH
  2
AcDbHatch
  3
AutoCAD 2000
 90
    32768
280
     0
281
     1
  0
CLASS
  1
XRECORD
  2
AcDbXrecord
  3
AutoCAD 2000
 90
    32768
280
     0
281
     0
  0
CLASS
  1
LONG_TRANSACTION
  2
AcDbLongTransaction
  3
AutoCAD 2000
 90
    32768
280
     0
281
     0
  0
CLASS
  1
LWPOLYLINE
  2
AcDbPolyline
  3
AutoCAD 2000
 90
    32768
280
     0
281
     1
  0
CLASS
  1
HATCH
  2
AcDbHatch
  3
AutoCAD 2000
 90
    32768
280
     0
281
     1
  0
CLASS
  1
XRECORD
  2
AcDbXrecord
  3
AutoCAD 2000
 90
    32768
280
     0
281
     0
  0
CLASS
  1
LONG_TRANSACTION
  2
AcDbLongTransaction
  3
AutoCAD 2000
 90
    32768
280
     0
281
     0
  0
CLASS
  1
LWPOLYLINE
  2
AcDbPolyline
  3
AutoCAD 2000
 90
    32768
280
     0
281
     1
  0
CLASS
  1
HATCH
  2
AcDbHatch
  3
AutoCAD 2000
 90
    32768
280
     0
281
     1
  0
CLASS
  1
XRECORD
  2
AcDbXrecord
  3
AutoCAD 2000
 90
    32768
280
     0
281
     0
  0
CLASS
  1
LONG_TRANSACTION
  2
AcDbLongTransaction
  3
AutoCAD 2000
 90
    32768
280
     0
281
     0
  0
CLASS
  1
LWPOLYLINE
  2
AcDbPolyline
  3
AutoCAD 2000
 90
    32768
280
     0
281
     1
  0
CLASS
  1
HATCH
  2
AcDbHatch
  3
AutoCAD 2000
 90
    32768
280
     0
281
     1
  0
CLASS
  1
XRECORD
  2
AcDbXrecord
  3
AutoCAD 2000
 90
    32768
280
     0
281
     0
  0
CLASS
  1
LONG_TRANSACTION
  2
AcDbLongTransaction
  3
AutoCAD 2000
 90
    32768
280
     0
281
     0
  0
CLASS
  1
LWPOLYLINE
  2
AcDbPolyline
  3
AutoCAD 2000
 90
    32768
280
     0
281
     1
  0
CLASS
  1
HATCH
  2
AcDbHatch
  3
AutoCAD 2000
 90
    32768
280
     0
281
     1
  0
CLASS
  1
XRECORD
  2
AcDbXrecord
  3
AutoCAD 2000
 90
    32768
280
     0
281
     0
  0
CLASS
  1
LONG_TRANSACTION
  2
AcDbLongTransaction
  3
AutoCAD 2000
 90
    32768
280
     0
281
     0
  0
CLASS
  1
LWPOLYLINE
  2
AcDbPolyline
  3
AutoCAD 2000
 90
    32768
280
     0
281
     1
  0
CLASS
  1
HATCH
  2
AcDbHatch
  3
AutoCAD 2000
 90
    32768
280
     0
281
     1
  0
CLASS
  1
XRECORD
  2
AcDbXrecord
  3
AutoCAD 2000
 90
    32768
280
     0
281
     0
  0
CLASS
  1
LONG_TRANSACTION
  2
AcDbLongTransaction
  3
AutoCAD 2000
 90
    32768
280
     0
281
     0
  0
CLASS
  1
LWPOLYLINE
  2
AcDbPolyline
  3
AutoCAD 2000
 90
    32768
280
     0
281
     1
  0
CLASS
  1
HATCH
  2
AcDbHatch
  3
AutoCAD 2000
 90
    32768
280
     0
281
     1
  0
CLASS
  1
XRECORD
  2
AcDbXrecord
  3
AutoCAD 2000
 90
    32768
280
     0
281
     0
  0
CLASS
  1
LONG_TRANSACTION
  2
AcDbLongTransaction
  3
AutoCAD 2000
 90
    32768
280
     0
281
     0
  0
CLASS
  1
LWPOLYLINE
  2
AcDbPolyline
  3
AutoCAD 2000
 90
    32768
280
     0
281
     1
  0
CLASS
  1
HATCH
  2
AcDbHatch
  3
AutoCAD 2000
 90
    32768
280
     0
281
     1
  0
CLASS
  1
XRECORD
  2
AcDbXrecord
  3
AutoCAD 2000
 90
    32768
280
     0
281
     0
  0
CLASS
  1
LONG_TRANSACTION
  2
AcDbLongTransaction
  3
AutoCAD 2000
 90
    32768
280
     0
281
     0
  0
CLASS
  1
LWPOLYLINE
  2
AcDbPolyline
  3
AutoCAD 2000
 90
    32768
280
     0
281
     1
  0
CLASS
  1
HATCH
  2
AcDbHatch
  3
AutoCAD 2000
 90
    32768
280
     0
281
     1
  0
CLASS
  1
XRECORD
  2
AcDbXrecord
  3
AutoCAD 2000
 90
    32768
280
     0
281
     0
  0
CLASS
  1
DICTIONARYVAR
  2
AcDbDictionaryVar
  3
AutoCAD 2000
 90
        0
280
     0
281
     0
  0
CLASS
  1
LONG_TRANSACTION
  2
AcDbLongTransaction
  3
AutoCAD 2000
 90
    32768
280
     0
281
     0
  0
CLASS
  1
LWPOLYLINE
  2
AcDbPolyline
  3
AutoCAD 2000
 90
    32768
280
     0
281
     1
  0
CLASS
  1
HATCH
  2
AcDbHatch
  3
AutoCAD 2000
 90
    32768
280
     0
281
     1
  0
CLASS
  1
XRECORD
  2
AcDbXrecord
  3
AutoCAD 2000
 90
    32768
280
     0
281
     0
  0
CLASS
  1
LONG_TRANSACTION
  2
AcDbLongTransaction
  3
AutoCAD 2000
 90
    32768
280
     0
281
     0
  0
CLASS
  1
LWPOLYLINE
  2
AcDbPolyline
  3
AutoCAD 2000
 90
    32768
280
     0
281
     1
  0
CLASS
  1
HATCH
  2
AcDbHatch
  3
AutoCAD 2000
 90
    32768
280
     0
281
     1
  0
CLASS
  1
XRECORD
  2
AcDbXrecord
  3
AutoCAD 2000
 90
    32768
280
     0
281
     0
  0
CLASS
  1
LONG_TRANSACTION
  2
AcDbLongTransaction
  3
AutoCAD 2000
 90
    32768
280
     0
281
     0
  0
CLASS
  1
LWPOLYLINE
  2
AcDbPolyline
  3
AutoCAD 2000
 90
    32768
280
     0
281
     1
  0
CLASS
  1
HATCH
  2
AcDbHatch
  3
AutoCAD 2000
 90
    32768
280
     0
281
     1
  0
CLASS
  1
XRECORD
  2
AcDbXrecord
  3
AutoCAD 2000
 90
    32768
280
     0
281
     0
  0
CLASS
  1
LONG_TRANSACTION
  2
AcDbLongTransaction
  3
AutoCAD 2000
 90
    32768
280
     0
281
     0
  0
CLASS
  1
LWPOLYLINE
  2
AcDbPolyline
  3
AutoCAD 2000
 90
    32768
280
     0
281
     1
  0
CLASS
  1
HATCH
  2
AcDbHatch
  3
AutoCAD 2000
 90
    32768
280
     0
281
     1
  0
CLASS
  1
XRECORD
  2
AcDbXrecord
  3
AutoCAD 2000
 90
    32768
280
     0
281
     0
  0
CLASS
  1
LONG_TRANSACTION
  2
AcDbLongTransaction
  3
AutoCAD 2000
 90
    32768
280
     0
281
     0
  0
CLASS
  1
LWPOLYLINE
  2
AcDbPolyline
  3
AutoCAD 2000
 90
    32768
280
     0
281
     1
  0
CLASS
  1
HATCH
  2
AcDbHatch
  3
AutoCAD 2000
 90
    32768
280
     0
281
     1
  0
CLASS
  1
XRECORD
  2
AcDbXrecord
  3
AutoCAD 2000
 90
    32768
280
     0
281
     0
  0
CLASS
  1
LONG_TRANSACTION
  2
AcDbLongTransaction
  3
AutoCAD 2000
 90
    32768
280
     0
281
     0
  0
CLASS
  1
LWPOLYLINE
  2
AcDbPolyline
  3
AutoCAD 2000
 90
    32768
280
     0
281
     1
  0
CLASS
  1
HATCH
  2
AcDbHatch
  3
AutoCAD 2000
 90
    32768
280
     0
281
     1
  0
CLASS
  1
XRECORD
  2
AcDbXrecord
  3
AutoCAD 2000
 90
    32768
280
     0
281
     0
  0
ENDSEC
  0
SECTION
  2
TABLES
  0
TABLE
  2
VPORT
  5
8
330
0
100
AcDbSymbolTable
 70
     2
  0
VPORT
  5
95EF
330
8
100
AcDbSymbolTableRecord
100
AcDbViewportTableRecord
  2
*Active
 70
     0
 10
0.0
 20
0.0
 11
1.0
 21
1.0
 12
282.2784540990753
 22
200.9227714074607
 13
0.0
 23
0.0
 14
1.0
 24
1.0
 15
10.0
 25
10.0
 16
0.0
 26
0.0
 36
1.0
 17
0.0
 27
0.0
 37
0.0
 40
288.6124932174989
 41
1.700716845878136
 42
50.0
 43
0.0
 44
0.0
 50
0.0
 51
0.0
 71
     0
 72
   100
 73
     1
 74
     1
 75
     0
 76
     0
 77
     0
 78
     0
281
     0
 65
     1
110
0.0
120
0.0
130
0.0
111
1.0
121
0.0
131
0.0
112
0.0
122
1.0
132
0.0
 79
     0
146
0.0
  0
ENDTAB
  0
TABLE
  2
LTYPE
  5
5
330
0
100
AcDbSymbolTable
 70
     4
  0
LTYPE
  5
13
330
5
100
AcDbSymbolTableRecord
100
AcDbLinetypeTableRecord
  2
BYBLOCK
 70
     0
  3

 72
    65
 73
     0
 40
0.0
  0
LTYPE
  5
14
330
5
100
AcDbSymbolTableRecord
100
AcDbLinetypeTableRecord
  2
BYLAYER
 70
     0
  3

 72
    65
 73
     0
 40
0.0
  0
LTYPE
  5
15
330
5
100
AcDbSymbolTableRecord
100
AcDbLinetypeTableRecord
  2
CONTINUOUS
 70
     0
  3
Solid line
 72
    65
 73
     0
 40
0.0
  0
LTYPE
  5
22
330
5
100
AcDbSymbolTableRecord
100
AcDbLinetypeTableRecord
  2
CONTINOUS
 70
     0
  3
Solid line
 72
    65
 73
     0
 40
0.0
  0
LTYPE
  5
24
330
5
100
AcDbSymbolTableRecord
100
AcDbLinetypeTableRecord
  2
DASHDOT
 70
     0
  3
__ . __ . __ . __ . __ . __ . __ . __ . __ . __
 72
    65
 73
     4
 40
1.0
 49
0.5
 74
     0
 49
-0.25
 74
     0
 49
0.0
 74
     0
 49
-0.25
 74
     0
  0
LTYPE
  5
429E
330
5
100
AcDbSymbolTableRecord
100
AcDbLinetypeTableRecord
  2
DIVIDE
 70
     0
  3
Divide ____ . . ____ . . ____ . . ____ . . ____
 72
    65
 73
     6
 40
1.25
 49
0.5
 74
     0
 49
-0.25
 74
     0
 49
0.0
 74
     0
 49
-0.25
 74
     0
 49
0.0
 74
     0
 49
-0.25
 74
     0
  0
ENDTAB
  0
TABLE
  2
LAYER
  5
2
330
0
100
AcDbSymbolTable
 70
    11
  0
LAYER
  5
10
330
2
100
AcDbSymbolTableRecord
100
AcDbLayerTableRecord
  2
0
 70
     0
 62
     7
  6
CONTINOUS
370
    -3
390
F
  0
LAYER
  5
2F
330
2
100
AcDbSymbolTableRecord
100
AcDbLayerTableRecord
  2
10
 70
     0
 62
     4
  6
CONTINOUS
370
    -3
390
F
  0
LAYER
  5
31
330
2
100
AcDbSymbolTableRecord
100
AcDbLayerTableRecord
  2
12
 70
     0
 62
     3
  6
CONTINOUS
370
    -3
390
F
  0
LAYER
  5
35
330
2
100
AcDbSymbolTableRecord
100
AcDbLayerTableRecord
  2
16
 70
     0
 62
     6
  6
DASHDOT
370
    -3
390
F
  0
LAYER
  5
36
330
2
100
AcDbSymbolTableRecord
100
AcDbLayerTableRecord
  2
17
 70
     0
 62
     2
  6
DASHDOT
370
    -3
390
F
  0
LAYER
  5
3D
330
2
100
AcDbSymbolTableRecord
100
AcDbLayerTableRecord
  2
24
 70
     0
 62
     2
  6
CONTINOUS
370
    -3
390
F
  0
LAYER
  5
3A2
330
2
100
AcDbSymbolTableRecord
100
AcDbLayerTableRecord
  2
30
 70
     0
 62
     9
  6
CONTINUOUS
370
    -3
390
F
  0
LAYER
  5
3A4
330
2
100
AcDbSymbolTableRecord
100
AcDbLayerTableRecord
  2
DEFPOINTS
 70
     0
 62
     7
  6
CONTINUOUS
290
     0
370
    -3
390
F
  0
LAYER
  5
3BBA
330
2
100
AcDbSymbolTableRecord
100
AcDbLayerTableRecord
  2
18
 70
     0
 62
     5
  6
DIVIDE
370
    -3
390
F
  0
LAYER
  5
3BBB
330
2
100
AcDbSymbolTableRecord
100
AcDbLayerTableRecord
  2
21
 70
     0
 62
     7
  6
CONTINUOUS
370
    -3
390
F
  0
LAYER
  5
40E3
330
2
100
AcDbSymbolTableRecord
100
AcDbLayerTableRecord
  2
22
 70
     0
 62
     3
  6
CONTINUOUS
370
    -3
390
F
  0
ENDTAB
  0
TABLE
  2
STYLE
  5
3
330
0
100
AcDbSymbolTable
 70
     3
  0
STYLE
  5
11
330
3
100
AcDbSymbolTableRecord
100
AcDbTextStyleTableRecord
  2
STANDARD
 70
     0
 40
0.0
 41
1.0
 50
0.0
 71
     0
 42
2.0
  3
txt.shx
  4
bigfont.shx
  0
STYLE
  5
42
330
3
100
AcDbSymbolTableRecord
100
AcDbTextStyleTableRecord
  2
STANDARD1
 70
     0
 40
0.0
 41
1.0
 50
0.0
 71
     0
 42
5.0
  3
MONOTXT
  4
BIGFONT
  0
STYLE
  5
5CC0
330
3
100
AcDbSymbolTableRecord
100
AcDbTextStyleTableRecord
  2
SMP-SET
 70
     0
 40
0.0
 41
1.0
 50
0.0
 71
     0
 42
3.0
  3
SIMPLEX
  4
BIGFONT
  0
ENDTAB
  0
TABLE
  2
VIEW
  5
6
330
0
100
AcDbSymbolTable
 70
     5
  0
VIEW
  5
230C
330
6
100
AcDbSymbolTableRecord
100
AcDbViewTableRecord
  2
OLE1
 70
     0
 40
148.9124878027714
 10
429.4976280407222
 20
2.560626997828478
 41
103.1458057716444
 11
0.0
 21
0.0
 31
1.0
 12
0.0
 22
0.0
 32
0.0
 42
50.0
 43
0.0
 44
0.0
 50
0.0
 71
     0
281
     0
 72
     0
  0
VIEW
  5
230E
330
6
100
AcDbSymbolTableRecord
100
AcDbViewTableRecord
  2
OLE2
 70
     0
 40
170.7786920545775
 10
322.664969958371
 20
-5.978304054290276
 41
102.4672152327465
 11
0.0
 21
0.0
 31
1.0
 12
0.0
 22
0.0
 32
0.0
 42
50.0
 43
0.0
 44
0.0
 50
0.0
 71
     0
281
     0
 72
     0
  0
VIEW
  5
23AA
330
6
100
AcDbSymbolTableRecord
100
AcDbViewTableRecord
  2
OLE3
 70
     0
 40
591.7897393182231
 10
84.79698158148218
 20
-46.09336010803995
 41
388.7920961799953
 11
0.0
 21
0.0
 31
1.0
 12
0.0
 22
0.0
 32
0.0
 42
50.0
 43
0.0
 44
0.0
 50
0.0
 71
     0
281
     0
 72
     0
  0
VIEW
  5
4402
330
6
100
AcDbSymbolTableRecord
100
AcDbViewTableRecord
  2
OLE4
 70
     0
 40
151.7917771380923
 10
15.38766885376364
 20
-193.752550173716
 41
398.5527551557765
 11
0.0
 21
0.0
 31
1.0
 12
0.0
 22
0.0
 32
0.0
 42
50.0
 43
0.0
 44
0.0
 50
0.0
 71
     0
281
     0
 72
     0
  0
VIEW
  5
8D79
330
6
100
AcDbSymbolTableRecord
100
AcDbViewTableRecord
  2
OLE5
 70
     0
 40
473.0465752437631
 10
40.72308557678552
 20
-190.6885064073368
 41
1018.166770320803
 11
0.0
 21
0.0
 31
1.0
 12
0.0
 22
0.0
 32
0.0
 42
50.0
 43
0.0
 44
0.0
 50
0.0
 71
     0
281
     0
 72
     0
  0
ENDTAB
  0
TABLE
  2
UCS
  5
7
330
0
100
AcDbSymbolTable
 70
     0
  0
ENDTAB
  0
TABLE
  2
APPID
  5
9
330
0
100
AcDbSymbolTable
 70
     2
  0
APPID
  5
12
330
9
100
AcDbSymbolTableRecord
100
AcDbRegAppTableRecord
  2
ACAD
 70
     0
  0
APPID
  5
ECD
330
9
100
AcDbSymbolTableRecord
100
AcDbRegAppTableRecord
  2
CONTENTBLOCKICON
 70
     0
  0
ENDTAB
  0
TABLE
  2
DIMSTYLE
  5
A
330
0
100
AcDbSymbolTable
 70
     1
100
AcDbDimStyleTable
 71
     0
  0
DIMSTYLE
105
175
102
{ACAD_REACTORS
330
8393
330
81A8
330
85E9
330
85DF
330
85DE
330
85E2
330
85DA
330
85D9
330
85DB
330
8618
330
85D6
330
85D8
330
87E8
330
87F5
330
81CA
330
883C
330
8852
330
885F
330
8D3E
330
8D63
330
9297
330
92DE
330
92F4
330
9301
330
931B
330
85F0
102
}
330
A
100
AcDbSymbolTableRecord
100
AcDbDimStyleTableRecord
  2
STANDARD
 70
     0
 41
2.0
 42
1.0
 43
0.5
 44
0.5
 73
     0
 74
     0
 77
     3
 78
    12
140
4.0
147
1.0
271
     1
272
     1
340
11
341
3B2
342
3B2
  0
ENDTAB
  0
TABLE
  2
BLOCK_RECORD
  5
1
330
0
100
AcDbSymbolTable
 70
    27
  0
BLOCK_RECORD
  5
1E
102
{ACAD_XDICTIONARY
360
178
102
}
330
1
100
AcDbSymbolTableRecord
100
AcDbBlockTableRecord
  2
*MODEL_SPACE
340
95EB
  0
BLOCK_RECORD
  5
1A
102
{ACAD_XDICTIONARY
360
17A
102
}
330
1
100
AcDbSymbolTableRecord
100
AcDbBlockTableRecord
  2
*PAPER_SPACE
340
95EC
  0
BLOCK_RECORD
  5
3B2
330
1
100
AcDbSymbolTableRecord
100
AcDbBlockTableRecord
  2
_OPEN
340
0
102
{BLKREFS
331
9373
331
9374
331
8C0D
331
8C0E
331
936A
331
936B
331
9583
331
9584
331
956F
331
9570
331
9566
331
9567
331
9553
331
9554
331
954A
331
954B
331
955D
331
955E
331
952F
331
9530
331
9526
331
9527
331
9541
331
9542
331
9538
331
9539
331
9578
331
9579
331
8B96
331
8B97
331
95D5
331
95D6
331
8B7B
331
8B7C
331
8B72
331
8B73
331
8B69
331
8B6A
331
951D
331
951E
331
9514
331
9515
331
937C
331
937D
331
939B
331
939C
331
92F9
331
92FA
331
95DE
331
95DF
331
9385
331
9386
102
}
  0
BLOCK_RECORD
  5
8264
330
1
100
AcDbSymbolTableRecord
100
AcDbBlockTableRecord
  2
*D1
340
0
  0
BLOCK_RECORD
  5
8270
330
1
100
AcDbSymbolTableRecord
100
AcDbBlockTableRecord
  2
*D2
340
0
  0
BLOCK_RECORD
  5
83B8
330
1
100
AcDbSymbolTableRecord
100
AcDbBlockTableRecord
  2
*D3
340
0
  0
BLOCK_RECORD
  5
861D
330
1
100
AcDbSymbolTableRecord
100
AcDbBlockTableRecord
  2
*D4
340
0
  0
BLOCK_RECORD
  5
862A
330
1
100
AcDbSymbolTableRecord
100
AcDbBlockTableRecord
  2
*D5
340
0
  0
BLOCK_RECORD
  5
8636
330
1
100
AcDbSymbolTableRecord
100
AcDbBlockTableRecord
  2
*D6
340
0
  0
BLOCK_RECORD
  5
8642
330
1
100
AcDbSymbolTableRecord
100
AcDbBlockTableRecord
  2
*D7
340
0
  0
BLOCK_RECORD
  5
864E
330
1
100
AcDbSymbolTableRecord
100
AcDbBlockTableRecord
  2
*D8
340
0
  0
BLOCK_RECORD
  5
865A
330
1
100
AcDbSymbolTableRecord
100
AcDbBlockTableRecord
  2
*D9
340
0
  0
BLOCK_RECORD
  5
8667
330
1
100
AcDbSymbolTableRecord
100
AcDbBlockTableRecord
  2
*D10
340
0
  0
BLOCK_RECORD
  5
8673
330
1
100
AcDbSymbolTableRecord
100
AcDbBlockTableRecord
  2
*D11
340
0
  0
BLOCK_RECORD
  5
867F
330
1
100
AcDbSymbolTableRecord
100
AcDbBlockTableRecord
  2
*D12
340
0
  0
BLOCK_RECORD
  5
868B
330
1
100
AcDbSymbolTableRecord
100
AcDbBlockTableRecord
  2
*D13
340
0
  0
BLOCK_RECORD
  5
8697
330
1
100
AcDbSymbolTableRecord
100
AcDbBlockTableRecord
  2
*D14
340
0
  0
BLOCK_RECORD
  5
87E9
330
1
100
AcDbSymbolTableRecord
100
AcDbBlockTableRecord
  2
*D15
340
0
  0
BLOCK_RECORD
  5
87F6
330
1
100
AcDbSymbolTableRecord
100
AcDbBlockTableRecord
  2
*D16
340
0
  0
BLOCK_RECORD
  5
883D
330
1
100
AcDbSymbolTableRecord
100
AcDbBlockTableRecord
  2
*D17
340
0
  0
BLOCK_RECORD
  5
8853
330
1
100
AcDbSymbolTableRecord
100
AcDbBlockTableRecord
  2
*D18
340
0
  0
BLOCK_RECORD
  5
8860
330
1
100
AcDbSymbolTableRecord
100
AcDbBlockTableRecord
  2
*D19
340
0
  0
BLOCK_RECORD
  5
8D3F
330
1
100
AcDbSymbolTableRecord
100
AcDbBlockTableRecord
  2
*D20
340
0
  0
BLOCK_RECORD
  5
8D64
330
1
100
AcDbSymbolTableRecord
100
AcDbBlockTableRecord
  2
*D21
340
0
  0
BLOCK_RECORD
  5
92AF
330
1
100
AcDbSymbolTableRecord
100
AcDbBlockTableRecord
  2
*D22
340
0
  0
BLOCK_RECORD
  5
92DF
330
1
100
AcDbSymbolTableRecord
100
AcDbBlockTableRecord
  2
*D23
340
0
  0
BLOCK_RECORD
  5
92F5
330
1
100
AcDbSymbolTableRecord
100
AcDbBlockTableRecord
  2
*D24
340
0
  0
BLOCK_RECORD
  5
9302
330
1
100
AcDbSymbolTableRecord
100
AcDbBlockTableRecord
  2
*D25
340
0
  0
BLOCK_RECORD
  5
931C
330
1
100
AcDbSymbolTableRecord
100
AcDbBlockTableRecord
  2
*D26
340
0
  0
ENDTAB
  0
ENDSEC
  0
SECTION
  2
BLOCKS
  0
BLOCK
  5
1F
330
1E
100
AcDbEntity
  8
0
100
AcDbBlockBegin
  2
*MODEL_SPACE
 70
     0
 10
0.0
 20
0.0
 30
0.0
  3
*MODEL_SPACE
  1

  0
ENDBLK
  5
20
330
1E
100
AcDbEntity
  8
0
100
AcDbBlockEnd
  0
BLOCK
  5
1B
330
1A
100
AcDbEntity
 67
     1
  8
0
100
AcDbBlockBegin
  2
*PAPER_SPACE
 70
     0
 10
0.0
 20
0.0
 30
0.0
  3
*PAPER_SPACE
  1

  0
ENDBLK
  5
1C
330
1A
100
AcDbEntity
 67
     1
  8
0
100
AcDbBlockEnd
  0
BLOCK
  5
3B6
330
3B2
100
AcDbEntity
  8
0
100
AcDbBlockBegin
  2
_OPEN
 70
     0
 10
0.0
 20
0.0
 30
0.0
  3
_OPEN
  1

  0
LINE
  5
3B3
330
3B2
100
AcDbEntity
  8
30
  6
Continuous
 62
     0
100
AcDbLine
 10
-1.0
 20
0.1666666666666666
 30
0.0
 11
0.0
 21
0.0
 31
0.0
  0
LINE
  5
3B4
330
3B2
100
AcDbEntity
  8
30
  6
Continuous
 62
     0
100
AcDbLine
 10
-1.0
 20
-0.1666666666666666
 30
0.0
 11
0.0
 21
0.0
 31
0.0
  0
LINE
  5
3B5
330
3B2
100
AcDbEntity
  8
30
  6
Continuous
 62
     0
100
AcDbLine
 10
0.0
 20
0.0
 30
0.0
 11
-1.0
 21
0.0
 31
0.0
  0
ENDBLK
  5
3B7
330
3B2
100
AcDbEntity
  8
0
100
AcDbBlockEnd
  0
BLOCK
  5
826E
330
8264
100
AcDbEntity
  8
0
100
AcDbBlockBegin
  2
*D1
 70
     1
 10
0.0
 20
0.0
 30
0.0
  3
*D1
  1

  0
LINE
  5
9370
330
8264
100
AcDbEntity
  8
30
 62
     0
100
AcDbLine
 10
-45.0
 20
-78.5
 30
0.0
 11
-45.0
 21
-95.55260904743505
 31
0.0
  0
LINE
  5
9371
330
8264
100
AcDbEntity
  8
30
 62
     0
100
AcDbLine
 10
45.00000000000002
 20
-78.5
 30
0.0
 11
45.00000000000002
 21
-95.55260904743505
 31
0.0
  0
LINE
  5
9372
330
8264
100
AcDbEntity
  8
30
 62
     0
100
AcDbLine
 10
-43.0
 20
-95.05260904743506
 30
0.0
 11
43.00000000000003
 21
-95.05260904743506
 31
0.0
  0
INSERT
  5
9373
330
8264
100
AcDbEntity
  8
30
 62
     0
100
AcDbBlockReference
  2
_OPEN
 10
-45.0
 20
-95.05260904743506
 30
0.0
 41
2.0
 42
2.0
 43
2.0
 50
180.0
  0
INSERT
  5
9374
330
8264
100
AcDbEntity
  8
30
 62
     0
100
AcDbBlockReference
  2
_OPEN
 10
45.00000000000002
 20
-95.05260904743506
 30
0.0
 41
2.0
 42
2.0
 43
2.0
  0
MTEXT
  5
9375
330
8264
100
AcDbEntity
  8
30
 62
     0
100
AcDbMText
 10
0.0000000000000144
 20
-92.05260904743502
 30
0.0
 40
4.0
 41
0.0
 71
     5
 72
     1
  1
\A1;90
 73
     1
 44
1.0
1001
ACAD
1000
MTEXTBEGIN
1070
    73
1070
     1
1070
    44
1040
1.0
1070
    74
1070
     0
1000
MTEXTEND
  0
POINT
  5
9376
330
8264
100
AcDbEntity
  8
DEFPOINTS
 62
     0
100
AcDbPoint
 10
-45.0
 20
-77.5
 30
0.0
  0
POINT
  5
9377
330
8264
100
AcDbEntity
  8
DEFPOINTS
 62
     0
100
AcDbPoint
 10
45.00000000000002
 20
-77.5
 30
0.0
  0
POINT
  5
9378
330
8264
100
AcDbEntity
  8
DEFPOINTS
 62
     0
100
AcDbPoint
 10
45.00000000000002
 20
-95.05260904743506
 30
0.0
  0
ENDBLK
  5
826F
330
8264
100
AcDbEntity
  8
0
100
AcDbBlockEnd
  0
BLOCK
  5
827A
330
8270
100
AcDbEntity
  8
0
100
AcDbBlockBegin
  2
*D2
 70
     1
 10
0.0
 20
0.0
 30
0.0
  3
*D2
  1

  0
LINE
  5
8C0A
330
8270
100
AcDbEntity
  8
30
 62
     0
100
AcDbLine
 10
-42.0
 20
25.99999999999996
 30
0.0
 11
-42.0
 21
33.09950840068008
 31
0.0
  0
LINE
  5
8C0B
330
8270
100
AcDbEntity
  8
30
 62
     0
100
AcDbLine
 10
42.00000000000001
 20
25.99999999999996
 30
0.0
 11
42.00000000000001
 21
33.09950840068008
 31
0.0
  0
LINE
  5
8C0C
330
8270
100
AcDbEntity
  8
30
 62
     0
100
AcDbLine
 10
-40.0
 20
32.59950840068007
 30
0.0
 11
40.00000000000002
 21
32.59950840068007
 31
0.0
  0
INSERT
  5
8C0D
330
8270
100
AcDbEntity
  8
30
 62
     0
100
AcDbBlockReference
  2
_OPEN
 10
-42.0
 20
32.59950840068007
 30
0.0
 41
2.0
 42
2.0
 43
2.0
 50
180.0
  0
INSERT
  5
8C0E
330
8270
100
AcDbEntity
  8
30
 62
     0
100
AcDbBlockReference
  2
_OPEN
 10
42.00000000000001
 20
32.59950840068007
 30
0.0
 41
2.0
 42
2.0
 43
2.0
  0
MTEXT
  5
8C0F
330
8270
100
AcDbEntity
  8
30
 62
     0
100
AcDbMText
 10
0.0000000000000144
 20
35.59950840068009
 30
0.0
 40
4.0
 41
0.0
 71
     5
 72
     1
  1
\A1;84
 73
     1
 44
1.0
1001
ACAD
1000
MTEXTBEGIN
1070
    73
1070
     1
1070
    44
1040
1.0
1070
    74
1070
     0
1000
MTEXTEND
  0
POINT
  5
8C10
330
8270
100
AcDbEntity
  8
DEFPOINTS
 62
     0
100
AcDbPoint
 10
-42.0
 20
24.99999999999996
 30
0.0
  0
POINT
  5
8C11
330
8270
100
AcDbEntity
  8
DEFPOINTS
 62
     0
100
AcDbPoint
 10
42.00000000000001
 20
24.99999999999996
 30
0.0
  0
POINT
  5
8C12
330
8270
100
AcDbEntity
  8
DEFPOINTS
 62
     0
100
AcDbPoint
 10
42.00000000000001
 20
32.59950840068007
 30
0.0
  0
ENDBLK
  5
827B
330
8270
100
AcDbEntity
  8
0
100
AcDbBlockEnd
  0
BLOCK
  5
83C2
330
83B8
100
AcDbEntity
  8
0
100
AcDbBlockBegin
  2
*D3
 70
     1
 10
0.0
 20
0.0
 30
0.0
  3
*D3
  1

  0
LINE
  5
9367
330
83B8
100
AcDbEntity
  8
30
 62
     0
100
AcDbLine
 10
18.00000000000011
 20
210.8811670622456
 30
0.0
 11
94.22879037143159
 21
210.8811670622456
 31
0.0
  0
LINE
  5
9368
330
83B8
100
AcDbEntity
  8
30
 62
     0
100
AcDbLine
 10
50.6420678786435
 20
202.8811670622455
 30
0.0
 11
94.22879037143159
 21
202.8811670622455
 31
0.0
  0
LINE
  5
9369
330
83B8
100
AcDbEntity
  8
30
 62
     0
100
AcDbLine
 10
93.72879037143162
 20
208.8811670622454
 30
0.0
 11
93.72879037143162
 21
204.8811670622455
 31
0.0
  0
INSERT
  5
936A
330
83B8
100
AcDbEntity
  8
30
 62
     0
100
AcDbBlockReference
  2
_OPEN
 10
93.72879037143162
 20
210.8811670622456
 30
0.0
 41
2.0
 42
2.0
 43
2.0
 50
90.0
  0
INSERT
  5
936B
330
83B8
100
AcDbEntity
  8
30
 62
     0
100
AcDbBlockReference
  2
_OPEN
 10
93.72879037143162
 20
202.8811670622455
 30
0.0
 41
2.0
 42
2.0
 43
2.0
 50
270.0
  0
MTEXT
  5
936C
330
83B8
100
AcDbEntity
  8
30
 62
     0
100
AcDbMText
 10
90.72879037143158
 20
206.8811670622455
 30
0.0
 40
4.0
 41
0.0
 71
     5
 72
     1
  1
\A1;8
 11
0.0000000000000001
 21
1.0
 31
0.0
 73
     1
 44
1.0
1001
ACAD
1000
MTEXTBEGIN
1070
    73
1070
     1
1070
    44
1040
1.0
1070
    74
1070
     0
1000
MTEXTEND
  0
POINT
  5
936D
330
83B8
100
AcDbEntity
  8
DEFPOINTS
 62
     0
100
AcDbPoint
 10
17.00000000000011
 20
210.8811670622456
 30
0.0
  0
POINT
  5
936E
330
83B8
100
AcDbEntity
  8
DEFPOINTS
 62
     0
100
AcDbPoint
 10
49.6420678786435
 20
202.8811670622455
 30
0.0
  0
POINT
  5
936F
330
83B8
100
AcDbEntity
  8
DEFPOINTS
 62
     0
100
AcDbPoint
 10
93.72879037143162
 20
202.8811670622455
 30
0.0
  0
ENDBLK
  5
83C3
330
83B8
100
AcDbEntity
  8
0
100
AcDbBlockEnd
  0
BLOCK
  5
8628
330
861D
100
AcDbEntity
  8
0
100
AcDbBlockBegin
  2
*D4
 70
     1
 10
0.0
 20
0.0
 30
0.0
  3
*D4
  1

  0
LINE
  5
957E
330
861D
100
AcDbEntity
  8
30
 62
     0
100
AcDbLine
 10
385.0415450433536
 20
64.49999999999993
 30
0.0
 11
408.5191311370207
 21
64.49999999999993
 31
0.0
  0
LINE
  5
957F
330
861D
100
AcDbEntity
  8
30
 62
     0
100
AcDbLine
 10
385.0415450433536
 20
69.49999999999993
 30
0.0
 11
408.5191311370207
 21
69.49999999999993
 31
0.0
  0
LINE
  5
9580
330
861D
100
AcDbEntity
  8
30
 62
     0
100
AcDbLine
 10
408.0191311370207
 20
62.49999999999992
 30
0.0
 11
408.0191311370207
 21
60.49999999999992
 31
0.0
  0
LINE
  5
9581
330
861D
100
AcDbEntity
  8
30
 62
     0
100
AcDbLine
 10
408.0191311370207
 20
71.49999999999993
 30
0.0
 11
408.0191311370207
 21
78.16666666666662
 31
0.0
  0
LINE
  5
9582
330
861D
100
AcDbEntity
  8
30
 62
     0
100
AcDbLine
 10
408.0191311370207
 20
64.49999999999993
 30
0.0
 11
408.0191311370207
 21
69.49999999999993
 31
0.0
  0
INSERT
  5
9583
330
861D
100
AcDbEntity
  8
30
 62
     0
100
AcDbBlockReference
  2
_OPEN
 10
408.0191311370207
 20
64.49999999999993
 30
0.0
 41
2.0
 42
2.0
 43
2.0
 50
90.0
  0
INSERT
  5
9584
330
861D
100
AcDbEntity
  8
30
 62
     0
100
AcDbBlockReference
  2
_OPEN
 10
408.0191311370207
 20
69.49999999999993
 30
0.0
 41
2.0
 42
2.0
 43
2.0
 50
270.0
  0
MTEXT
  5
9585
330
861D
100
AcDbEntity
  8
30
 62
     0
100
AcDbMText
 10
405.0191311370207
 20
75.83333333333334
 30
0.0
 40
4.0
 41
0.0
 71
     5
 72
     1
  1
\A1;5
 11
0.0000000000000001
 21
1.0
 31
0.0
 73
     1
 44
1.0
1001
ACAD
1000
MTEXTBEGIN
1070
    73
1070
     1
1070
    44
1040
1.0
1070
    74
1070
     0
1000
MTEXTEND
  0
POINT
  5
9586
330
861D
100
AcDbEntity
  8
DEFPOINTS
 62
     0
100
AcDbPoint
 10
384.0415450433536
 20
64.49999999999993
 30
0.0
  0
POINT
  5
9587
330
861D
100
AcDbEntity
  8
DEFPOINTS
 62
     0
100
AcDbPoint
 10
384.0415450433536
 20
69.49999999999993
 30
0.0
  0
POINT
  5
9588
330
861D
100
AcDbEntity
  8
DEFPOINTS
 62
     0
100
AcDbPoint
 10
408.0191311370207
 20
69.49999999999993
 30
0.0
  0
ENDBLK
  5
8629
330
861D
100
AcDbEntity
  8
0
100
AcDbBlockEnd
  0
BLOCK
  5
8634
330
862A
100
AcDbEntity
  8
0
100
AcDbBlockBegin
  2
*D5
 70
     1
 10
0.0
 20
0.0
 30
0.0
  3
*D5
  1

  0
LINE
  5
956C
330
862A
100
AcDbEntity
  8
30
 62
     0
100
AcDbLine
 10
382.8979515039046
 20
-75.0
 30
0.0
 11
408.6282675361418
 21
-75.0
 31
0.0
  0
LINE
  5
956D
330
862A
100
AcDbEntity
  8
30
 62
     0
100
AcDbLine
 10
382.8979515039046
 20
-59.00000000000003
 30
0.0
 11
408.6282675361418
 21
-59.00000000000003
 31
0.0
  0
LINE
  5
956E
330
862A
100
AcDbEntity
  8
30
 62
     0
100
AcDbLine
 10
408.1282675361418
 20
-73.0
 30
0.0
 11
408.1282675361418
 21
-61.00000000000004
 31
0.0
  0
INSERT
  5
956F
330
862A
100
AcDbEntity
  8
30
 62
     0
100
AcDbBlockReference
  2
_OPEN
 10
408.1282675361418
 20
-75.0
 30
0.0
 41
2.0
 42
2.0
 43
2.0
 50
270.0
  0
INSERT
  5
9570
330
862A
100
AcDbEntity
  8
30
 62
     0
100
AcDbBlockReference
  2
_OPEN
 10
408.1282675361418
 20
-59.00000000000003
 30
0.0
 41
2.0
 42
2.0
 43
2.0
 50
90.0
  0
MTEXT
  5
9571
330
862A
100
AcDbEntity
  8
30
 62
     0
100
AcDbMText
 10
405.1282675361418
 20
-66.99999999999995
 30
0.0
 40
4.0
 41
0.0
 71
     5
 72
     1
  1
\A1;16
 11
0.0000000000000001
 21
1.0
 31
0.0
 73
     1
 44
1.0
1001
ACAD
1000
MTEXTBEGIN
1070
    73
1070
     1
1070
    44
1040
1.0
1070
    74
1070
     0
1000
MTEXTEND
  0
POINT
  5
9572
330
862A
100
AcDbEntity
  8
DEFPOINTS
 62
     0
100
AcDbPoint
 10
381.8979515039046
 20
-75.0
 30
0.0
  0
POINT
  5
9573
330
862A
100
AcDbEntity
  8
DEFPOINTS
 62
     0
100
AcDbPoint
 10
381.8979515039046
 20
-59.00000000000003
 30
0.0
  0
POINT
  5
9574
330
862A
100
AcDbEntity
  8
DEFPOINTS
 62
     0
100
AcDbPoint
 10
408.1282675361418
 20
-59.00000000000003
 30
0.0
  0
ENDBLK
  5
8635
330
862A
100
AcDbEntity
  8
0
100
AcDbBlockEnd
  0
BLOCK
  5
8640
330
8636
100
AcDbEntity
  8
0
100
AcDbBlockBegin
  2
*D6
 70
     1
 10
0.0
 20
0.0
 30
0.0
  3
*D6
  1

  0
LINE
  5
9563
330
8636
100
AcDbEntity
  8
30
 62
     0
100
AcDbLine
 10
304.0415450433536
 20
-58.99999998350003
 30
0.0
 11
304.0415450433536
 21
-34.40049159931984
 31
0.0
  0
LINE
  5
9564
330
8636
100
AcDbEntity
  8
30
 62
     0
100
AcDbLine
 10
319.0415450433535
 20
-63.49999998350003
 30
0.0
 11
319.0415450433535
 21
-34.40049159931984
 31
0.0
  0
LINE
  5
9565
330
8636
100
AcDbEntity
  8
30
 62
     0
100
AcDbLine
 10
306.0415450433536
 20
-34.90049159931984
 30
0.0
 11
317.0415450433535
 21
-34.90049159931984
 31
0.0
  0
INSERT
  5
9566
330
8636
100
AcDbEntity
  8
30
 62
     0
100
AcDbBlockReference
  2
_OPEN
 10
304.0415450433536
 20
-34.90049159931984
 30
0.0
 41
2.0
 42
2.0
 43
2.0
 50
180.0
  0
INSERT
  5
9567
330
8636
100
AcDbEntity
  8
30
 62
     0
100
AcDbBlockReference
  2
_OPEN
 10
319.0415450433535
 20
-34.90049159931984
 30
0.0
 41
2.0
 42
2.0
 43
2.0
  0
MTEXT
  5
9568
330
8636
100
AcDbEntity
  8
30
 62
     0
100
AcDbMText
 10
311.5415450433534
 20
-31.90049159931984
 30
0.0
 40
4.0
 41
0.0
 71
     5
 72
     1
  1
\A1;15
 73
     1
 44
1.0
1001
ACAD
1000
MTEXTBEGIN
1070
    73
1070
     1
1070
    44
1040
1.0
1070
    74
1070
     0
1000
MTEXTEND
  0
POINT
  5
9569
330
8636
100
AcDbEntity
  8
DEFPOINTS
 62
     0
100
AcDbPoint
 10
304.0415450433536
 20
-59.99999998350003
 30
0.0
  0
POINT
  5
956A
330
8636
100
AcDbEntity
  8
DEFPOINTS
 62
     0
100
AcDbPoint
 10
319.0415450433535
 20
-64.49999998350003
 30
0.0
  0
POINT
  5
956B
330
8636
100
AcDbEntity
  8
DEFPOINTS
 62
     0
100
AcDbPoint
 10
319.0415450433535
 20
-34.90049159931984
 30
0.0
  0
ENDBLK
  5
8641
330
8636
100
AcDbEntity
  8
0
100
AcDbBlockEnd
  0
BLOCK
  5
864C
330
8642
100
AcDbEntity
  8
0
100
AcDbBlockBegin
  2
*D7
 70
     1
 10
0.0
 20
0.0
 30
0.0
  3
*D7
  1

  0
LINE
  5
9550
330
8642
100
AcDbEntity
  8
30
 62
     0
100
AcDbLine
 10
214.0415450433535
 20
-52.00000000000002
 30
0.0
 11
214.0415450433535
 21
-121.632312443211
 31
0.0
  0
LINE
  5
9551
330
8642
100
AcDbEntity
  8
30
 62
     0
100
AcDbLine
 10
282.0415450433536
 20
-78.5
 30
0.0
 11
282.0415450433536
 21
-121.632312443211
 31
0.0
  0
LINE
  5
9552
330
8642
100
AcDbEntity
  8
30
 62
     0
100
AcDbLine
 10
216.0415450433535
 20
-121.1323124432112
 30
0.0
 11
280.0415450433535
 21
-121.1323124432112
 31
0.0
  0
INSERT
  5
9553
330
8642
100
AcDbEntity
  8
30
 62
     0
100
AcDbBlockReference
  2
_OPEN
 10
214.0415450433535
 20
-121.1323124432112
 30
0.0
 41
2.0
 42
2.0
 43
2.0
 50
180.0
  0
INSERT
  5
9554
330
8642
100
AcDbEntity
  8
30
 62
     0
100
AcDbBlockReference
  2
_OPEN
 10
282.0415450433536
 20
-121.1323124432112
 30
0.0
 41
2.0
 42
2.0
 43
2.0
  0
MTEXT
  5
9555
330
8642
100
AcDbEntity
  8
30
 62
     0
100
AcDbMText
 10
248.0415450433536
 20
-118.1323124432112
 30
0.0
 40
4.0
 41
0.0
 71
     5
 72
     1
  1
\A1;68
 73
     1
 44
1.0
1001
ACAD
1000
MTEXTBEGIN
1070
    73
1070
     1
1070
    44
1040
1.0
1070
    74
1070
     0
1000
MTEXTEND
  0
POINT
  5
9556
330
8642
100
AcDbEntity
  8
DEFPOINTS
 62
     0
100
AcDbPoint
 10
214.0415450433535
 20
-51.00000000000003
 30
0.0
  0
POINT
  5
9557
330
8642
100
AcDbEntity
  8
DEFPOINTS
 62
     0
100
AcDbPoint
 10
282.0415450433536
 20
-77.5
 30
0.0
  0
POINT
  5
9558
330
8642
100
AcDbEntity
  8
DEFPOINTS
 62
     0
100
AcDbPoint
 10
282.0415450433536
 20
-121.1323124432112
 30
0.0
  0
ENDBLK
  5
864D
330
8642
100
AcDbEntity
  8
0
100
AcDbBlockEnd
  0
BLOCK
  5
8658
330
864E
100
AcDbEntity
  8
0
100
AcDbBlockBegin
  2
*D8
 70
     1
 10
0.0
 20
0.0
 30
0.0
  3
*D8
  1

  0
LINE
  5
9547
330
864E
100
AcDbEntity
  8
30
 62
     0
100
AcDbLine
 10
210.0415450433535
 20
-26.00000000000003
 30
0.0
 11
210.0415450433535
 21
-142.8823124432113
 31
0.0
  0
LINE
  5
9548
330
864E
100
AcDbEntity
  8
30
 62
     0
100
AcDbLine
 10
282.0415450433536
 20
-78.5
 30
0.0
 11
282.0415450433536
 21
-142.8823124432113
 31
0.0
  0
LINE
  5
9549
330
864E
100
AcDbEntity
  8
30
 62
     0
100
AcDbLine
 10
212.0415450433535
 20
-142.3823124432113
 30
0.0
 11
280.0415450433535
 21
-142.3823124432113
 31
0.0
  0
INSERT
  5
954A
330
864E
100
AcDbEntity
  8
30
 62
     0
100
AcDbBlockReference
  2
_OPEN
 10
210.0415450433535
 20
-142.3823124432113
 30
0.0
 41
2.0
 42
2.0
 43
2.0
 50
180.0
  0
INSERT
  5
954B
330
864E
100
AcDbEntity
  8
30
 62
     0
100
AcDbBlockReference
  2
_OPEN
 10
282.0415450433536
 20
-142.3823124432113
 30
0.0
 41
2.0
 42
2.0
 43
2.0
  0
MTEXT
  5
954C
330
864E
100
AcDbEntity
  8
30
 62
     0
100
AcDbMText
 10
246.0415450433536
 20
-139.3823124432112
 30
0.0
 40
4.0
 41
0.0
 71
     5
 72
     1
  1
\A1;72
 73
     1
 44
1.0
1001
ACAD
1000
MTEXTBEGIN
1070
    73
1070
     1
1070
    44
1040
1.0
1070
    74
1070
     0
1000
MTEXTEND
  0
POINT
  5
954D
330
864E
100
AcDbEntity
  8
DEFPOINTS
 62
     0
100
AcDbPoint
 10
210.0415450433535
 20
-25.00000000000003
 30
0.0
  0
POINT
  5
954E
330
864E
100
AcDbEntity
  8
DEFPOINTS
 62
     0
100
AcDbPoint
 10
282.0415450433536
 20
-77.5
 30
0.0
  0
POINT
  5
954F
330
864E
100
AcDbEntity
  8
DEFPOINTS
 62
     0
100
AcDbPoint
 10
282.0415450433536
 20
-142.3823124432113
 30
0.0
  0
ENDBLK
  5
8659
330
864E
100
AcDbEntity
  8
0
100
AcDbBlockEnd
  0
BLOCK
  5
8665
330
865A
100
AcDbEntity
  8
0
100
AcDbBlockBegin
  2
*D9
 70
     1
 10
0.0
 20
0.0
 30
0.0
  3
*D9
  1

  0
LINE
  5
9559
330
865A
100
AcDbEntity
  8
30
 62
     0
100
AcDbLine
 10
206.0415450433535
 20
-26.00000000000003
 30
0.0
 11
206.0415450433535
 21
-142.8823124432113
 31
0.0
  0
LINE
  5
955A
330
865A
100
AcDbEntity
  8
30
 62
     0
100
AcDbLine
 10
210.0415450433535
 20
-26.00000000000003
 30
0.0
 11
210.0415450433535
 21
-142.8823124432113
 31
0.0
  0
LINE
  5
955B
330
865A
100
AcDbEntity
  8
30
 62
     0
100
AcDbLine
 10
204.0415450433535
 20
-142.3823124432113
 30
0.0
 11
202.0415450433535
 21
-142.3823124432113
 31
0.0
  0
LINE
  5
955C
330
865A
100
AcDbEntity
  8
30
 62
     0
100
AcDbLine
 10
212.0415450433535
 20
-142.3823124432113
 30
0.0
 11
218.7082117100201
 21
-142.3823124432113
 31
0.0
  0
INSERT
  5
955D
330
865A
100
AcDbEntity
  8
30
 62
     0
100
AcDbBlockReference
  2
_OPEN
 10
206.0415450433535
 20
-142.3823124432113
 30
0.0
 41
2.0
 42
2.0
 43
2.0
  0
INSERT
  5
955E
330
865A
100
AcDbEntity
  8
30
 62
     0
100
AcDbBlockReference
  2
_OPEN
 10
210.0415450433535
 20
-142.3823124432113
 30
0.0
 41
2.0
 42
2.0
 43
2.0
 50
180.0
  0
MTEXT
  5
955F
330
865A
100
AcDbEntity
  8
30
 62
     0
100
AcDbMText
 10
216.3748783766869
 20
-139.3823124432112
 30
0.0
 40
4.0
 41
0.0
 71
     5
 72
     1
  1
\A1;4
 73
     1
 44
1.0
1001
ACAD
1000
MTEXTBEGIN
1070
    73
1070
     1
1070
    44
1040
1.0
1070
    74
1070
     0
1000
MTEXTEND
  0
POINT
  5
9560
330
865A
100
AcDbEntity
  8
DEFPOINTS
 62
     0
100
AcDbPoint
 10
206.0415450433535
 20
-25.00000000000003
 30
0.0
  0
POINT
  5
9561
330
865A
100
AcDbEntity
  8
DEFPOINTS
 62
     0
100
AcDbPoint
 10
210.0415450433535
 20
-25.00000000000003
 30
0.0
  0
POINT
  5
9562
330
865A
100
AcDbEntity
  8
DEFPOINTS
 62
     0
100
AcDbPoint
 10
210.0415450433535
 20
-142.3823124432113
 30
0.0
  0
ENDBLK
  5
8666
330
865A
100
AcDbEntity
  8
0
100
AcDbBlockEnd
  0
BLOCK
  5
8671
330
8667
100
AcDbEntity
  8
0
100
AcDbBlockBegin
  2
*D10
 70
     1
 10
0.0
 20
0.0
 30
0.0
  3
*D10
  1

  0
LINE
  5
952C
330
8667
100
AcDbEntity
  8
30
 62
     0
100
AcDbLine
 10
282.0415450433536
 20
-98.00000000000002
 30
0.0
 11
282.0415450433536
 21
-101.6323124432112
 31
0.0
  0
LINE
  5
952D
330
8667
100
AcDbEntity
  8
30
 62
     0
100
AcDbLine
 10
334.0415450433535
 20
-68.0
 30
0.0
 11
334.0415450433535
 21
-101.6323124432112
 31
0.0
  0
LINE
  5
952E
330
8667
100
AcDbEntity
  8
30
 62
     0
100
AcDbLine
 10
284.0415450433535
 20
-101.1323124432112
 30
0.0
 11
332.0415450433535
 21
-101.1323124432112
 31
0.0
  0
INSERT
  5
952F
330
8667
100
AcDbEntity
  8
30
 62
     0
100
AcDbBlockReference
  2
_OPEN
 10
282.0415450433536
 20
-101.1323124432112
 30
0.0
 41
2.0
 42
2.0
 43
2.0
 50
180.0
  0
INSERT
  5
9530
330
8667
100
AcDbEntity
  8
30
 62
     0
100
AcDbBlockReference
  2
_OPEN
 10
334.0415450433535
 20
-101.1323124432112
 30
0.0
 41
2.0
 42
2.0
 43
2.0
  0
MTEXT
  5
9531
330
8667
100
AcDbEntity
  8
30
 62
     0
100
AcDbMText
 10
308.0415450433536
 20
-98.13231244321121
 30
0.0
 40
4.0
 41
0.0
 71
     5
 72
     1
  1
\A1;52
 73
     1
 44
1.0
1001
ACAD
1000
MTEXTBEGIN
1070
    73
1070
     1
1070
    44
1040
1.0
1070
    74
1070
     0
1000
MTEXTEND
  0
POINT
  5
9532
330
8667
100
AcDbEntity
  8
DEFPOINTS
 62
     0
100
AcDbPoint
 10
282.0415450433536
 20
-97.00000000000002
 30
0.0
  0
POINT
  5
9533
330
8667
100
AcDbEntity
  8
DEFPOINTS
 62
     0
100
AcDbPoint
 10
334.0415450433535
 20
-67.0
 30
0.0
  0
POINT
  5
9534
330
8667
100
AcDbEntity
  8
DEFPOINTS
 62
     0
100
AcDbPoint
 10
334.0415450433535
 20
-101.1323124432112
 30
0.0
  0
ENDBLK
  5
8672
330
8667
100
AcDbEntity
  8
0
100
AcDbBlockEnd
  0
BLOCK
  5
867D
330
8673
100
AcDbEntity
  8
0
100
AcDbBlockBegin
  2
*D11
 70
     1
 10
0.0
 20
0.0
 30
0.0
  3
*D11
  1

  0
LINE
  5
9523
330
8673
100
AcDbEntity
  8
30
 62
     0
100
AcDbLine
 10
282.0415450433536
 20
-98.00000000000002
 30
0.0
 11
282.0415450433536
 21
-121.632312443211
 31
0.0
  0
LINE
  5
9524
330
8673
100
AcDbEntity
  8
30
 62
     0
100
AcDbLine
 10
384.0415450433536
 20
-68.0
 30
0.0
 11
384.0415450433536
 21
-121.632312443211
 31
0.0
  0
LINE
  5
9525
330
8673
100
AcDbEntity
  8
30
 62
     0
100
AcDbLine
 10
284.0415450433535
 20
-121.1323124432112
 30
0.0
 11
382.0415450433536
 21
-121.1323124432112
 31
0.0
  0
INSERT
  5
9526
330
8673
100
AcDbEntity
  8
30
 62
     0
100
AcDbBlockReference
  2
_OPEN
 10
282.0415450433536
 20
-121.1323124432112
 30
0.0
 41
2.0
 42
2.0
 43
2.0
 50
180.0
  0
INSERT
  5
9527
330
8673
100
AcDbEntity
  8
30
 62
     0
100
AcDbBlockReference
  2
_OPEN
 10
384.0415450433536
 20
-121.1323124432112
 30
0.0
 41
2.0
 42
2.0
 43
2.0
  0
MTEXT
  5
9528
330
8673
100
AcDbEntity
  8
30
 62
     0
100
AcDbMText
 10
333.0415450433536
 20
-118.1323124432112
 30
0.0
 40
4.0
 41
0.0
 71
     5
 72
     1
  1
\A1;102
 73
     1
 44
1.0
1001
ACAD
1000
MTEXTBEGIN
1070
    73
1070
     1
1070
    44
1040
1.0
1070
    74
1070
     0
1000
MTEXTEND
  0
POINT
  5
9529
330
8673
100
AcDbEntity
  8
DEFPOINTS
 62
     0
100
AcDbPoint
 10
282.0415450433536
 20
-97.00000000000002
 30
0.0
  0
POINT
  5
952A
330
8673
100
AcDbEntity
  8
DEFPOINTS
 62
     0
100
AcDbPoint
 10
384.0415450433536
 20
-67.0
 30
0.0
  0
POINT
  5
952B
330
8673
100
AcDbEntity
  8
DEFPOINTS
 62
     0
100
AcDbPoint
 10
384.0415450433536
 20
-121.1323124432112
 30
0.0
  0
ENDBLK
  5
867E
330
8673
100
AcDbEntity
  8
0
100
AcDbBlockEnd
  0
BLOCK
  5
8689
330
867F
100
AcDbEntity
  8
0
100
AcDbBlockBegin
  2
*D12
 70
     1
 10
0.0
 20
0.0
 30
0.0
  3
*D12
  1

  0
LINE
  5
953E
330
867F
100
AcDbEntity
  8
30
 62
     0
100
AcDbLine
 10
221.0415450433536
 20
-78.5
 30
0.0
 11
221.0415450433536
 21
-101.6323124432112
 31
0.0
  0
LINE
  5
953F
330
867F
100
AcDbEntity
  8
30
 62
     0
100
AcDbLine
 10
282.0415450433536
 20
-78.5
 30
0.0
 11
282.0415450433536
 21
-101.6323124432112
 31
0.0
  0
LINE
  5
9540
330
867F
100
AcDbEntity
  8
30
 62
     0
100
AcDbLine
 10
223.0415450433536
 20
-101.1323124432112
 30
0.0
 11
280.0415450433535
 21
-101.1323124432112
 31
0.0
  0
INSERT
  5
9541
330
867F
100
AcDbEntity
  8
30
 62
     0
100
AcDbBlockReference
  2
_OPEN
 10
221.0415450433536
 20
-101.1323124432112
 30
0.0
 41
2.0
 42
2.0
 43
2.0
 50
180.0
  0
INSERT
  5
9542
330
867F
100
AcDbEntity
  8
30
 62
     0
100
AcDbBlockReference
  2
_OPEN
 10
282.0415450433536
 20
-101.1323124432112
 30
0.0
 41
2.0
 42
2.0
 43
2.0
  0
MTEXT
  5
9543
330
867F
100
AcDbEntity
  8
30
 62
     0
100
AcDbMText
 10
251.5415450433535
 20
-98.13231244321121
 30
0.0
 40
4.0
 41
0.0
 71
     5
 72
     1
  1
\A1;61
 73
     1
 44
1.0
1001
ACAD
1000
MTEXTBEGIN
1070
    73
1070
     1
1070
    44
1040
1.0
1070
    74
1070
     0
1000
MTEXTEND
  0
POINT
  5
9544
330
867F
100
AcDbEntity
  8
DEFPOINTS
 62
     0
100
AcDbPoint
 10
221.0415450433536
 20
-77.5
 30
0.0
  0
POINT
  5
9545
330
867F
100
AcDbEntity
  8
DEFPOINTS
 62
     0
100
AcDbPoint
 10
282.0415450433536
 20
-77.5
 30
0.0
  0
POINT
  5
9546
330
867F
100
AcDbEntity
  8
DEFPOINTS
 62
     0
100
AcDbPoint
 10
282.0415450433536
 20
-101.1323124432112
 30
0.0
  0
ENDBLK
  5
868A
330
867F
100
AcDbEntity
  8
0
100
AcDbBlockEnd
  0
BLOCK
  5
8695
330
868B
100
AcDbEntity
  8
0
100
AcDbBlockBegin
  2
*D13
 70
     1
 10
0.0
 20
0.0
 30
0.0
  3
*D13
  1

  0
LINE
  5
9535
330
868B
100
AcDbEntity
  8
30
 62
     0
100
AcDbLine
 10
319.0415450433535
 20
-70.50000001650001
 30
0.0
 11
319.0415450433535
 21
-91.85521683906721
 31
0.0
  0
LINE
  5
9536
330
868B
100
AcDbEntity
  8
30
 62
     0
100
AcDbLine
 10
334.0415450433535
 20
-77.28708784337162
 30
0.0
 11
334.0415450433535
 21
-91.85521683906721
 31
0.0
  0
LINE
  5
9537
330
868B
100
AcDbEntity
  8
30
 62
     0
100
AcDbLine
 10
321.0415450433535
 20
-91.35521683906722
 30
0.0
 11
332.0415450433535
 21
-91.35521683906722
 31
0.0
  0
INSERT
  5
9538
330
868B
100
AcDbEntity
  8
30
 62
     0
100
AcDbBlockReference
  2
_OPEN
 10
319.0415450433535
 20
-91.35521683906722
 30
0.0
 41
2.0
 42
2.0
 43
2.0
 50
180.0
  0
INSERT
  5
9539
330
868B
100
AcDbEntity
  8
30
 62
     0
100
AcDbBlockReference
  2
_OPEN
 10
334.0415450433535
 20
-91.35521683906722
 30
0.0
 41
2.0
 42
2.0
 43
2.0
  0
MTEXT
  5
953A
330
868B
100
AcDbEntity
  8
30
 62
     0
100
AcDbMText
 10
326.5415450433533
 20
-88.35521683906721
 30
0.0
 40
4.0
 41
0.0
 71
     5
 72
     1
  1
\A1;15
 73
     1
 44
1.0
1001
ACAD
1000
MTEXTBEGIN
1070
    73
1070
     1
1070
    44
1040
1.0
1070
    74
1070
     0
1000
MTEXTEND
  0
POINT
  5
953B
330
868B
100
AcDbEntity
  8
DEFPOINTS
 62
     0
100
AcDbPoint
 10
319.0415450433535
 20
-69.50000001650002
 30
0.0
  0
POINT
  5
953C
330
868B
100
AcDbEntity
  8
DEFPOINTS
 62
     0
100
AcDbPoint
 10
334.0415450433535
 20
-76.28708784337162
 30
0.0
  0
POINT
  5
953D
330
868B
100
AcDbEntity
  8
DEFPOINTS
 62
     0
100
AcDbPoint
 10
334.0415450433535
 20
-91.35521683906722
 30
0.0
  0
ENDBLK
  5
8696
330
868B
100
AcDbEntity
  8
0
100
AcDbBlockEnd
  0
BLOCK
  5
86A1
330
8697
100
AcDbEntity
  8
0
100
AcDbBlockBegin
  2
*D14
 70
     1
 10
0.0
 20
0.0
 30
0.0
  3
*D14
  1

  0
LINE
  5
9575
330
8697
100
AcDbEntity
  8
30
 62
     0
100
AcDbLine
 10
369.0415450433535
 20
-70.50000001650001
 30
0.0
 11
369.0415450433535
 21
-81.63231244321131
 31
0.0
  0
LINE
  5
9576
330
8697
100
AcDbEntity
  8
30
 62
     0
100
AcDbLine
 10
384.0415450433536
 20
-77.28708784337162
 30
0.0
 11
384.0415450433536
 21
-81.63231244321131
 31
0.0
  0
LINE
  5
9577
330
8697
100
AcDbEntity
  8
30
 62
     0
100
AcDbLine
 10
371.0415450433535
 20
-81.13231244321132
 30
0.0
 11
382.0415450433536
 21
-81.13231244321132
 31
0.0
  0
INSERT
  5
9578
330
8697
100
AcDbEntity
  8
30
 62
     0
100
AcDbBlockReference
  2
_OPEN
 10
369.0415450433535
 20
-81.13231244321132
 30
0.0
 41
2.0
 42
2.0
 43
2.0
 50
180.0
  0
INSERT
  5
9579
330
8697
100
AcDbEntity
  8
30
 62
     0
100
AcDbBlockReference
  2
_OPEN
 10
384.0415450433536
 20
-81.13231244321132
 30
0.0
 41
2.0
 42
2.0
 43
2.0
  0
MTEXT
  5
957A
330
8697
100
AcDbEntity
  8
30
 62
     0
100
AcDbMText
 10
376.5415450433534
 20
-78.13231244321132
 30
0.0
 40
4.0
 41
0.0
 71
     5
 72
     1
  1
\A1;15
 73
     1
 44
1.0
1001
ACAD
1000
MTEXTBEGIN
1070
    73
1070
     1
1070
    44
1040
1.0
1070
    74
1070
     0
1000
MTEXTEND
  0
POINT
  5
957B
330
8697
100
AcDbEntity
  8
DEFPOINTS
 62
     0
100
AcDbPoint
 10
369.0415450433535
 20
-69.50000001650002
 30
0.0
  0
POINT
  5
957C
330
8697
100
AcDbEntity
  8
DEFPOINTS
 62
     0
100
AcDbPoint
 10
384.0415450433536
 20
-76.28708784337162
 30
0.0
  0
POINT
  5
957D
330
8697
100
AcDbEntity
  8
DEFPOINTS
 62
     0
100
AcDbPoint
 10
384.0415450433536
 20
-81.13231244321132
 30
0.0
  0
ENDBLK
  5
86A2
330
8697
100
AcDbEntity
  8
0
100
AcDbBlockEnd
  0
BLOCK
  5
87F3
330
87E9
100
AcDbEntity
  8
0
100
AcDbBlockBegin
  2
*D15
 70
     1
 10
0.0
 20
0.0
 30
0.0
  3
*D15
  1

  0
LINE
  5
8B93
330
87E9
100
AcDbEntity
  8
30
 62
     0
100
AcDbLine
 10
-30.00000000000023
 20
260.8811670622456
 30
0.0
 11
-30.00000000000022
 21
313.9340221653556
 31
0.0
  0
LINE
  5
8B94
330
87E9
100
AcDbEntity
  8
30
 62
     0
100
AcDbLine
 10
-0.0000000000002273
 20
305.8811670622456
 30
0.0
 11
-0.0000000000002268
 21
313.9340221653556
 31
0.0
  0
LINE
  5
8B95
330
87E9
100
AcDbEntity
  8
30
 62
     0
100
AcDbLine
 10
-28.00000000000022
 20
313.4340221653556
 30
0.0
 11
-2.000000000000226
 21
313.4340221653556
 31
0.0
  0
INSERT
  5
8B96
330
87E9
100
AcDbEntity
  8
30
 62
     0
100
AcDbBlockReference
  2
_OPEN
 10
-30.00000000000022
 20
313.4340221653556
 30
0.0
 41
2.0
 42
2.0
 43
2.0
 50
180.0
  0
INSERT
  5
8B97
330
87E9
100
AcDbEntity
  8
30
 62
     0
100
AcDbBlockReference
  2
_OPEN
 10
-0.0000000000002268
 20
313.4340221653556
 30
0.0
 41
2.0
 42
2.0
 43
2.0
  0
MTEXT
  5
8B98
330
87E9
100
AcDbEntity
  8
30
 62
     0
100
AcDbMText
 10
-15.00000000000022
 20
316.4340221653556
 30
0.0
 40
4.0
 41
0.0
 71
     5
 72
     1
  1
\A1;30
 73
     1
 44
1.0
1001
ACAD
1000
MTEXTBEGIN
1070
    73
1070
     1
1070
    44
1040
1.0
1070
    74
1070
     0
1000
MTEXTEND
  0
POINT
  5
8B99
330
87E9
100
AcDbEntity
  8
DEFPOINTS
 62
     0
100
AcDbPoint
 10
-30.00000000000023
 20
259.8811670622456
 30
0.0
  0
POINT
  5
8B9A
330
87E9
100
AcDbEntity
  8
DEFPOINTS
 62
     0
100
AcDbPoint
 10
-0.0000000000002274
 20
304.8811670622456
 30
0.0
  0
POINT
  5
8B9B
330
87E9
100
AcDbEntity
  8
DEFPOINTS
 62
     0
100
AcDbPoint
 10
-0.0000000000002268
 20
313.4340221653556
 30
0.0
  0
ENDBLK
  5
87F4
330
87E9
100
AcDbEntity
  8
0
100
AcDbBlockEnd
  0
BLOCK
  5
8800
330
87F6
100
AcDbEntity
  8
0
100
AcDbBlockBegin
  2
*D16
 70
     1
 10
0.0
 20
0.0
 30
0.0
  3
*D16
  1

  0
LINE
  5
95D2
330
87F6
100
AcDbEntity
  8
30
 62
     0
100
AcDbLine
 10
-0.0000000000002273
 20
305.8811670622456
 30
0.0
 11
-0.0000000000002268
 21
313.9340221653556
 31
0.0
  0
LINE
  5
95D3
330
87F6
100
AcDbEntity
  8
30
 62
     0
100
AcDbLine
 10
29.99999999999977
 20
260.8811670622456
 30
0.0
 11
29.99999999999977
 21
313.9340221653556
 31
0.0
  0
LINE
  5
95D4
330
87F6
100
AcDbEntity
  8
30
 62
     0
100
AcDbLine
 10
1.999999999999771
 20
313.4340221653556
 30
0.0
 11
27.99999999999977
 21
313.4340221653556
 31
0.0
  0
INSERT
  5
95D5
330
87F6
100
AcDbEntity
  8
30
 62
     0
100
AcDbBlockReference
  2
_OPEN
 10
-0.0000000000002269
 20
313.4340221653556
 30
0.0
 41
2.0
 42
2.0
 43
2.0
 50
180.0
  0
INSERT
  5
95D6
330
87F6
100
AcDbEntity
  8
30
 62
     0
100
AcDbBlockReference
  2
_OPEN
 10
29.99999999999977
 20
313.4340221653556
 30
0.0
 41
2.0
 42
2.0
 43
2.0
  0
MTEXT
  5
95D7
330
87F6
100
AcDbEntity
  8
30
 62
     0
100
AcDbMText
 10
14.99999999999976
 20
316.4340221653556
 30
0.0
 40
4.0
 41
0.0
 71
     5
 72
     1
  1
\A1;30
 73
     1
 44
1.0
  0
POINT
  5
95D8
330
87F6
100
AcDbEntity
  8
DEFPOINTS
 62
     0
100
AcDbPoint
 10
-0.0000000000002274
 20
304.8811670622456
 30
0.0
  0
POINT
  5
95D9
330
87F6
100
AcDbEntity
  8
DEFPOINTS
 62
     0
100
AcDbPoint
 10
29.99999999999977
 20
259.8811670622456
 30
0.0
  0
POINT
  5
95DA
330
87F6
100
AcDbEntity
  8
DEFPOINTS
 62
     0
100
AcDbPoint
 10
29.99999999999977
 20
313.4340221653556
 30
0.0
  0
ENDBLK
  5
8801
330
87F6
100
AcDbEntity
  8
0
100
AcDbBlockEnd
  0
BLOCK
  5
8847
330
883D
100
AcDbEntity
  8
0
100
AcDbBlockBegin
  2
*D17
 70
     1
 10
0.0
 20
0.0
 30
0.0
  3
*D17
  1

  0
LINE
  5
8B78
330
883D
100
AcDbEntity
  8
30
 62
     0
100
AcDbLine
 10
-46.0
 20
77.49999999999992
 30
0.0
 11
-80.39493462656308
 21
77.49999999999992
 31
0.0
  0
LINE
  5
8B79
330
883D
100
AcDbEntity
  8
30
 62
     0
100
AcDbLine
 10
-46.0
 20
-77.5
 30
0.0
 11
-80.39493462656308
 21
-77.5
 31
0.0
  0
LINE
  5
8B7A
330
883D
100
AcDbEntity
  8
30
 62
     0
100
AcDbLine
 10
-79.89493462656304
 20
75.49999999999993
 30
0.0
 11
-79.89493462656309
 21
-75.5
 31
0.0
  0
INSERT
  5
8B7B
330
883D
100
AcDbEntity
  8
30
 62
     0
100
AcDbBlockReference
  2
_OPEN
 10
-79.89493462656304
 20
77.49999999999992
 30
0.0
 41
2.0
 42
2.0
 43
2.0
 50
90.0
  0
INSERT
  5
8B7C
330
883D
100
AcDbEntity
  8
30
 62
     0
100
AcDbBlockReference
  2
_OPEN
 10
-79.89493462656309
 20
-77.5
 30
0.0
 41
2.0
 42
2.0
 43
2.0
 50
270.0
  0
MTEXT
  5
8B7D
330
883D
100
AcDbEntity
  8
30
 62
     0
100
AcDbMText
 10
-82.89493462656308
 20
-0.0000000000000374
 30
0.0
 40
4.0
 41
0.0
 71
     5
 72
     1
  1
\A1;155
 11
0.0000000000000001
 21
1.0
 31
0.0
 73
     1
 44
1.0
1001
ACAD
1000
MTEXTBEGIN
1070
    73
1070
     1
1070
    44
1040
1.0
1070
    74
1070
     0
1000
MTEXTEND
  0
POINT
  5
8B7E
330
883D
100
AcDbEntity
  8
DEFPOINTS
 62
     0
100
AcDbPoint
 10
-45.0
 20
77.49999999999992
 30
0.0
  0
POINT
  5
8B7F
330
883D
100
AcDbEntity
  8
DEFPOINTS
 62
     0
100
AcDbPoint
 10
-45.0
 20
-77.5
 30
0.0
  0
POINT
  5
8B80
330
883D
100
AcDbEntity
  8
DEFPOINTS
 62
     0
100
AcDbPoint
 10
-79.89493462656309
 20
-77.5
 30
0.0
  0
ENDBLK
  5
8848
330
883D
100
AcDbEntity
  8
0
100
AcDbBlockEnd
  0
BLOCK
  5
885D
330
8853
100
AcDbEntity
  8
0
100
AcDbBlockBegin
  2
*D18
 70
     1
 10
0.0
 20
0.0
 30
0.0
  3
*D18
  1

  0
LINE
  5
8B6F
330
8853
100
AcDbEntity
  8
30
 62
     0
100
AcDbLine
 10
-46.0
 20
50.99999999999988
 30
0.0
 11
-69.83461828766346
 21
50.99999999999989
 31
0.0
  0
LINE
  5
8B70
330
8853
100
AcDbEntity
  8
30
 62
     0
100
AcDbLine
 10
-46.0
 20
-51.00000000000003
 30
0.0
 11
-69.83461828766349
 21
-51.00000000000002
 31
0.0
  0
LINE
  5
8B71
330
8853
100
AcDbEntity
  8
30
 62
     0
100
AcDbLine
 10
-69.33461828766346
 20
48.99999999999989
 30
0.0
 11
-69.33461828766349
 21
-49.00000000000002
 31
0.0
  0
INSERT
  5
8B72
330
8853
100
AcDbEntity
  8
30
 62
     0
100
AcDbBlockReference
  2
_OPEN
 10
-69.33461828766346
 20
50.99999999999989
 30
0.0
 41
2.0
 42
2.0
 43
2.0
 50
90.0
  0
INSERT
  5
8B73
330
8853
100
AcDbEntity
  8
30
 62
     0
100
AcDbBlockReference
  2
_OPEN
 10
-69.33461828766349
 20
-51.00000000000002
 30
0.0
 41
2.0
 42
2.0
 43
2.0
 50
270.0
  0
MTEXT
  5
8B74
330
8853
100
AcDbEntity
  8
30
 62
     0
100
AcDbMText
 10
-72.33461828766349
 20
-0.0000000000000735
 30
0.0
 40
4.0
 41
0.0
 71
     5
 72
     1
  1
\A1;102
 11
0.0000000000000001
 21
1.0
 31
0.0
 73
     1
 44
1.0
1001
ACAD
1000
MTEXTBEGIN
1070
    73
1070
     1
1070
    44
1040
1.0
1070
    74
1070
     0
1000
MTEXTEND
  0
POINT
  5
8B75
330
8853
100
AcDbEntity
  8
DEFPOINTS
 62
     0
100
AcDbPoint
 10
-45.0
 20
50.99999999999988
 30
0.0
  0
POINT
  5
8B76
330
8853
100
AcDbEntity
  8
DEFPOINTS
 62
     0
100
AcDbPoint
 10
-45.0
 20
-51.00000000000003
 30
0.0
  0
POINT
  5
8B77
330
8853
100
AcDbEntity
  8
DEFPOINTS
 62
     0
100
AcDbPoint
 10
-69.33461828766349
 20
-51.00000000000002
 30
0.0
  0
ENDBLK
  5
885E
330
8853
100
AcDbEntity
  8
0
100
AcDbBlockEnd
  0
BLOCK
  5
886A
330
8860
100
AcDbEntity
  8
0
100
AcDbBlockBegin
  2
*D19
 70
     1
 10
0.0
 20
0.0
 30
0.0
  3
*D19
  1

  0
LINE
  5
8B66
330
8860
100
AcDbEntity
  8
30
 62
     0
100
AcDbLine
 10
-43.0
 20
24.99999999999994
 30
0.0
 11
-60.44766848119387
 21
24.99999999999994
 31
0.0
  0
LINE
  5
8B67
330
8860
100
AcDbEntity
  8
30
 62
     0
100
AcDbLine
 10
-43.0
 20
-25.0
 30
0.0
 11
-60.44766848119389
 21
-25.0
 31
0.0
  0
LINE
  5
8B68
330
8860
100
AcDbEntity
  8
30
 62
     0
100
AcDbLine
 10
-59.94766848119386
 20
22.99999999999994
 30
0.0
 11
-59.9476684811939
 21
-22.99999999999998
 31
0.0
  0
INSERT
  5
8B69
330
8860
100
AcDbEntity
  8
30
 62
     0
100
AcDbBlockReference
  2
_OPEN
 10
-59.94766848119386
 20
24.99999999999994
 30
0.0
 41
2.0
 42
2.0
 43
2.0
 50
90.0
  0
INSERT
  5
8B6A
330
8860
100
AcDbEntity
  8
30
 62
     0
100
AcDbBlockReference
  2
_OPEN
 10
-59.9476684811939
 20
-25.0
 30
0.0
 41
2.0
 42
2.0
 43
2.0
 50
270.0
  0
MTEXT
  5
8B6B
330
8860
100
AcDbEntity
  8
30
 62
     0
100
AcDbMText
 10
-62.94766848119389
 20
-0.000000000000035
 30
0.0
 40
4.0
 41
0.0
 71
     5
 72
     1
  1
\A1;50
 11
0.0000000000000001
 21
1.0
 31
0.0
 73
     1
 44
1.0
1001
ACAD
1000
MTEXTBEGIN
1070
    73
1070
     1
1070
    44
1040
1.0
1070
    74
1070
     0
1000
MTEXTEND
  0
POINT
  5
8B6C
330
8860
100
AcDbEntity
  8
DEFPOINTS
 62
     0
100
AcDbPoint
 10
-42.0
 20
24.99999999999994
 30
0.0
  0
POINT
  5
8B6D
330
8860
100
AcDbEntity
  8
DEFPOINTS
 62
     0
100
AcDbPoint
 10
-42.0
 20
-25.0
 30
0.0
  0
POINT
  5
8B6E
330
8860
100
AcDbEntity
  8
DEFPOINTS
 62
     0
100
AcDbPoint
 10
-59.9476684811939
 20
-25.0
 30
0.0
  0
ENDBLK
  5
886B
330
8860
100
AcDbEntity
  8
0
100
AcDbBlockEnd
  0
BLOCK
  5
8D49
330
8D3F
100
AcDbEntity
  8
0
100
AcDbBlockBegin
  2
*D20
 70
     1
 10
0.0
 20
0.0
 30
0.0
  3
*D20
  1

  0
LINE
  5
951A
330
8D3F
100
AcDbEntity
  8
30
 62
     0
100
AcDbLine
 10
190.0415450433535
 20
-0.9999999999999962
 30
0.0
 11
190.0415450433535
 21
-155.6114571606904
 31
0.0
  0
LINE
  5
951B
330
8D3F
100
AcDbEntity
  8
30
 62
     0
100
AcDbLine
 10
282.0415450433536
 20
-143.8823124432111
 30
0.0
 11
282.0415450433536
 21
-155.6114571606904
 31
0.0
  0
LINE
  5
951C
330
8D3F
100
AcDbEntity
  8
30
 62
     0
100
AcDbLine
 10
192.0415450433535
 20
-155.1114571606904
 30
0.0
 11
280.0415450433535
 21
-155.1114571606904
 31
0.0
  0
INSERT
  5
951D
330
8D3F
100
AcDbEntity
  8
30
 62
     0
100
AcDbBlockReference
  2
_OPEN
 10
190.0415450433535
 20
-155.1114571606904
 30
0.0
 41
2.0
 42
2.0
 43
2.0
 50
180.0
  0
INSERT
  5
951E
330
8D3F
100
AcDbEntity
  8
30
 62
     0
100
AcDbBlockReference
  2
_OPEN
 10
282.0415450433536
 20
-155.1114571606904
 30
0.0
 41
2.0
 42
2.0
 43
2.0
  0
MTEXT
  5
951F
330
8D3F
100
AcDbEntity
  8
30
 62
     0
100
AcDbMText
 10
236.0415450433535
 20
-152.1114571606904
 30
0.0
 40
4.0
 41
0.0
 71
     5
 72
     1
  1
\A1;92
 73
     1
 44
1.0
1001
ACAD
1000
MTEXTBEGIN
1070
    73
1070
     1
1070
    44
1040
1.0
1070
    74
1070
     0
1000
MTEXTEND
  0
POINT
  5
9520
330
8D3F
100
AcDbEntity
  8
DEFPOINTS
 62
     0
100
AcDbPoint
 10
190.0415450433535
 20
0.0000000000000038
 30
0.0
  0
POINT
  5
9521
330
8D3F
100
AcDbEntity
  8
DEFPOINTS
 62
     0
100
AcDbPoint
 10
282.0415450433536
 20
-142.8823124432113
 30
0.0
  0
POINT
  5
9522
330
8D3F
100
AcDbEntity
  8
DEFPOINTS
 62
     0
100
AcDbPoint
 10
282.0415450433536
 20
-155.1114571606904
 30
0.0
  0
ENDBLK
  5
8D4A
330
8D3F
100
AcDbEntity
  8
0
100
AcDbBlockEnd
  0
BLOCK
  5
8D6E
330
8D64
100
AcDbEntity
  8
0
100
AcDbBlockBegin
  2
*D21
 70
     1
 10
0.0
 20
0.0
 30
0.0
  3
*D21
  1

  0
LINE
  5
9511
330
8D64
100
AcDbEntity
  8
30
 62
     0
100
AcDbLine
 10
395.0415450433535
 20
66.99999999999993
 30
0.0
 11
424.5609929336933
 21
66.99999999999993
 31
0.0
  0
LINE
  5
9512
330
8D64
100
AcDbEntity
  8
30
 62
     0
100
AcDbLine
 10
395.0415450433535
 20
-67.0
 30
0.0
 11
424.5609929336933
 21
-67.00000000000001
 31
0.0
  0
LINE
  5
9513
330
8D64
100
AcDbEntity
  8
30
 62
     0
100
AcDbLine
 10
424.0609929336933
 20
64.99999999999992
 30
0.0
 11
424.0609929336933
 21
-65.00000000000001
 31
0.0
  0
INSERT
  5
9514
330
8D64
100
AcDbEntity
  8
30
 62
     0
100
AcDbBlockReference
  2
_OPEN
 10
424.0609929336933
 20
66.99999999999993
 30
0.0
 41
2.0
 42
2.0
 43
2.0
 50
90.0
  0
INSERT
  5
9515
330
8D64
100
AcDbEntity
  8
30
 62
     0
100
AcDbBlockReference
  2
_OPEN
 10
424.0609929336933
 20
-67.00000000000001
 30
0.0
 41
2.0
 42
2.0
 43
2.0
 50
270.0
  0
MTEXT
  5
9516
330
8D64
100
AcDbEntity
  8
30
 62
     0
100
AcDbMText
 10
421.0609929336933
 20
0.0000000000000241
 30
0.0
 40
4.0
 41
0.0
 71
     5
 72
     1
  1
\A1;134
 11
0.0000000000000001
 21
1.0
 31
0.0
 73
     1
 44
1.0
1001
ACAD
1000
MTEXTBEGIN
1070
    73
1070
     1
1070
    44
1040
1.0
1070
    74
1070
     0
1000
MTEXTEND
  0
POINT
  5
9517
330
8D64
100
AcDbEntity
  8
DEFPOINTS
 62
     0
100
AcDbPoint
 10
394.0415450433535
 20
66.99999999999993
 30
0.0
  0
POINT
  5
9518
330
8D64
100
AcDbEntity
  8
DEFPOINTS
 62
     0
100
AcDbPoint
 10
394.0415450433535
 20
-67.0
 30
0.0
  0
POINT
  5
9519
330
8D64
100
AcDbEntity
  8
DEFPOINTS
 62
     0
100
AcDbPoint
 10
424.0609929336933
 20
-67.00000000000001
 30
0.0
  0
ENDBLK
  5
8D6F
330
8D64
100
AcDbEntity
  8
0
100
AcDbBlockEnd
  0
BLOCK
  5
92B9
330
92AF
100
AcDbEntity
  8
0
100
AcDbBlockBegin
  2
*D22
 70
     1
 10
0.0
 20
0.0
 30
0.0
  3
*D22
  1

  0
LINE
  5
9379
330
92AF
100
AcDbEntity
  8
30
 62
     0
100
AcDbLine
 10
33.50000001650004
 20
-302.0
 30
0.0
 11
86.63994386719968
 21
-302.0
 31
0.0
  0
LINE
  5
937A
330
92AF
100
AcDbEntity
  8
30
 62
     0
100
AcDbLine
 10
33.50000001650004
 20
-168.0
 30
0.0
 11
86.63994386719974
 21
-168.0
 31
0.0
  0
LINE
  5
937B
330
92AF
100
AcDbEntity
  8
30
 62
     0
100
AcDbLine
 10
86.13994386719969
 20
-300.0
 30
0.0
 11
86.13994386719971
 21
-170.0
 31
0.0
  0
INSERT
  5
937C
330
92AF
100
AcDbEntity
  8
30
 62
     0
100
AcDbBlockReference
  2
_OPEN
 10
86.13994386719969
 20
-302.0
 30
0.0
 41
2.0
 42
2.0
 43
2.0
 50
270.0
  0
INSERT
  5
937D
330
92AF
100
AcDbEntity
  8
30
 62
     0
100
AcDbBlockReference
  2
_OPEN
 10
86.13994386719971
 20
-168.0
 30
0.0
 41
2.0
 42
2.0
 43
2.0
 50
90.0
  0
MTEXT
  5
937E
330
92AF
100
AcDbEntity
  8
30
 62
     0
100
AcDbMText
 10
83.13994386719974
 20
-235.0
 30
0.0
 40
4.0
 41
0.0
 71
     5
 72
     1
  1
\A1;134
 11
0.0000000000000001
 21
1.0
 31
0.0
 73
     1
 44
1.0
1001
ACAD
1000
MTEXTBEGIN
1070
    73
1070
     1
1070
    44
1040
1.0
1070
    74
1070
     0
1000
MTEXTEND
  0
POINT
  5
937F
330
92AF
100
AcDbEntity
  8
DEFPOINTS
 62
     0
100
AcDbPoint
 10
32.50000001650004
 20
-302.0
 30
0.0
  0
POINT
  5
9380
330
92AF
100
AcDbEntity
  8
DEFPOINTS
 62
     0
100
AcDbPoint
 10
32.50000001650004
 20
-168.0
 30
0.0
  0
POINT
  5
9381
330
92AF
100
AcDbEntity
  8
DEFPOINTS
 62
     0
100
AcDbPoint
 10
86.13994386719971
 20
-168.0
 30
0.0
  0
ENDBLK
  5
92BA
330
92AF
100
AcDbEntity
  8
0
100
AcDbBlockEnd
  0
BLOCK
  5
92E9
330
92DF
100
AcDbEntity
  8
0
100
AcDbBlockBegin
  2
*D23
 70
     1
 10
0.0
 20
0.0
 30
0.0
  3
*D23
  1

  0
LINE
  5
9398
330
92DF
100
AcDbEntity
  8
30
 62
     0
100
AcDbLine
 10
-15.00000000000158
 20
-174.0
 30
0.0
 11
-15.0000000000016
 21
-330.5941269446008
 31
0.0
  0
LINE
  5
9399
330
92DF
100
AcDbEntity
  8
30
 62
     0
100
AcDbLine
 10
14.99999999999841
 20
-305.9999999999998
 30
0.0
 11
14.9999999999984
 21
-330.5941269446008
 31
0.0
  0
LINE
  5
939A
330
92DF
100
AcDbEntity
  8
30
 62
     0
100
AcDbLine
 10
-13.0000000000016
 20
-330.0941269446008
 30
0.0
 11
12.99999999999839
 21
-330.0941269446008
 31
0.0
  0
INSERT
  5
939B
330
92DF
100
AcDbEntity
  8
30
 62
     0
100
AcDbBlockReference
  2
_OPEN
 10
-15.0000000000016
 20
-330.0941269446008
 30
0.0
 41
2.0
 42
2.0
 43
2.0
 50
180.0
  0
INSERT
  5
939C
330
92DF
100
AcDbEntity
  8
30
 62
     0
100
AcDbBlockReference
  2
_OPEN
 10
14.9999999999984
 20
-330.0941269446008
 30
0.0
 41
2.0
 42
2.0
 43
2.0
  0
MTEXT
  5
939D
330
92DF
100
AcDbEntity
  8
30
 62
     0
100
AcDbMText
 10
-0.0000000000015968
 20
-327.0941269446008
 30
0.0
 40
4.0
 41
0.0
 71
     5
 72
     1
  1
\A1;30
 73
     1
 44
1.0
1001
ACAD
1000
MTEXTBEGIN
1070
    73
1070
     1
1070
    44
1040
1.0
1070
    74
1070
     0
1000
MTEXTEND
  0
POINT
  5
939E
330
92DF
100
AcDbEntity
  8
DEFPOINTS
 62
     0
100
AcDbPoint
 10
-15.00000000000158
 20
-173.0000000000002
 30
0.0
  0
POINT
  5
939F
330
92DF
100
AcDbEntity
  8
DEFPOINTS
 62
     0
100
AcDbPoint
 10
14.99999999999841
 20
-304.9999999999998
 30
0.0
  0
POINT
  5
93A0
330
92DF
100
AcDbEntity
  8
DEFPOINTS
 62
     0
100
AcDbPoint
 10
14.9999999999984
 20
-330.0941269446008
 30
0.0
  0
ENDBLK
  5
92EA
330
92DF
100
AcDbEntity
  8
0
100
AcDbBlockEnd
  0
BLOCK
  5
92FF
330
92F5
100
AcDbEntity
  8
0
100
AcDbBlockBegin
  2
*D24
 70
     1
 10
0.0
 20
0.0
 30
0.0
  3
*D24
  1

  0
LINE
  5
92F6
330
92F5
100
AcDbEntity
  8
30
 62
     0
100
AcDbLine
 10
-30.0
 20
-315.0
 30
0.0
 11
-30.0
 21
-340.2034767486353
 31
0.0
  0
LINE
  5
92F7
330
92F5
100
AcDbEntity
  8
30
 62
     0
100
AcDbLine
 10
-0.0000000000000001
 20
-318.4374692359974
 30
0.0
 11
-0.0000000000000014
 21
-340.2034767486353
 31
0.0
  0
LINE
  5
92F8
330
92F5
100
AcDbEntity
  8
30
 62
     0
100
AcDbLine
 10
-28.0
 20
-339.7034767486353
 30
0.0
 11
-2.0
 21
-339.7034767486353
 31
0.0
  0
INSERT
  5
92F9
330
92F5
100
AcDbEntity
  8
30
 62
     0
100
AcDbBlockReference
  2
_OPEN
 10
-30.0
 20
-339.7034767486353
 30
0.0
 41
2.0
 42
2.0
 43
2.0
 50
180.0
  0
INSERT
  5
92FA
330
92F5
100
AcDbEntity
  8
30
 62
     0
100
AcDbBlockReference
  2
_OPEN
 10
-0.0000000000000014
 20
-339.7034767486353
 30
0.0
 41
2.0
 42
2.0
 43
2.0
  0
MTEXT
  5
92FB
330
92F5
100
AcDbEntity
  8
30
 62
     0
100
AcDbMText
 10
-15.0
 20
-336.7034767486353
 30
0.0
 40
4.0
 41
0.0
 71
     5
 72
     1
  1
\A1;30
 73
     1
 44
1.0
1001
ACAD
1000
MTEXTBEGIN
1070
    73
1070
     1
1070
    44
1040
1.0
1070
    74
1070
     0
1000
MTEXTEND
  0
POINT
  5
92FC
330
92F5
100
AcDbEntity
  8
DEFPOINTS
 62
     0
100
AcDbPoint
 10
-30.0
 20
-314.0
 30
0.0
  0
POINT
  5
92FD
330
92F5
100
AcDbEntity
  8
DEFPOINTS
 62
     0
100
AcDbPoint
 10
0.0
 20
-317.4374692359974
 30
0.0
  0
POINT
  5
92FE
330
92F5
100
AcDbEntity
  8
DEFPOINTS
 62
     0
100
AcDbPoint
 10
-0.0000000000000014
 20
-339.7034767486353
 30
0.0
  0
ENDBLK
  5
9300
330
92F5
100
AcDbEntity
  8
0
100
AcDbBlockEnd
  0
BLOCK
  5
930C
330
9302
100
AcDbEntity
  8
0
100
AcDbBlockBegin
  2
*D25
 70
     1
 10
0.0
 20
0.0
 30
0.0
  3
*D25
  1

  0
LINE
  5
95DB
330
9302
100
AcDbEntity
  8
30
 62
     0
100
AcDbLine
 10
-0.0000000000000001
 20
-318.4374692359974
 30
0.0
 11
-0.0000000000000014
 21
-340.2034767486353
 31
0.0
  0
LINE
  5
95DC
330
9302
100
AcDbEntity
  8
30
 62
     0
100
AcDbLine
 10
30.0
 20
-315.0
 30
0.0
 11
30.0
 21
-340.2034767486353
 31
0.0
  0
LINE
  5
95DD
330
9302
100
AcDbEntity
  8
30
 62
     0
100
AcDbLine
 10
1.999999999999998
 20
-339.7034767486353
 30
0.0
 11
28.0
 21
-339.7034767486353
 31
0.0
  0
INSERT
  5
95DE
330
9302
100
AcDbEntity
  8
30
 62
     0
100
AcDbBlockReference
  2
_OPEN
 10
-0.0000000000000014
 20
-339.7034767486353
 30
0.0
 41
2.0
 42
2.0
 43
2.0
 50
180.0
  0
INSERT
  5
95DF
330
9302
100
AcDbEntity
  8
30
 62
     0
100
AcDbBlockReference
  2
_OPEN
 10
30.0
 20
-339.7034767486353
 30
0.0
 41
2.0
 42
2.0
 43
2.0
  0
MTEXT
  5
95E0
330
9302
100
AcDbEntity
  8
30
 62
     0
100
AcDbMText
 10
15.0
 20
-336.7034767486353
 30
0.0
 40
4.0
 41
0.0
 71
     5
 72
     1
  1
\A1;30
 73
     1
 44
1.0
  0
POINT
  5
95E1
330
9302
100
AcDbEntity
  8
DEFPOINTS
 62
     0
100
AcDbPoint
 10
0.0
 20
-317.4374692359974
 30
0.0
  0
POINT
  5
95E2
330
9302
100
AcDbEntity
  8
DEFPOINTS
 62
     0
100
AcDbPoint
 10
30.0
 20
-314.0
 30
0.0
  0
POINT
  5
95E3
330
9302
100
AcDbEntity
  8
DEFPOINTS
 62
     0
100
AcDbPoint
 10
30.0
 20
-339.7034767486353
 30
0.0
  0
ENDBLK
  5
930D
330
9302
100
AcDbEntity
  8
0
100
AcDbBlockEnd
  0
BLOCK
  5
9326
330
931C
100
AcDbEntity
  8
0
100
AcDbBlockBegin
  2
*D26
 70
     1
 10
0.0
 20
0.0
 30
0.0
  3
*D26
  1

  0
LINE
  5
9382
330
931C
100
AcDbEntity
  8
30
 62
     0
100
AcDbLine
 10
20.00000000000022
 20
-169.0
 30
0.0
 11
71.24733980819749
 21
-169.0
 31
0.0
  0
LINE
  5
9383
330
931C
100
AcDbEntity
  8
30
 62
     0
100
AcDbLine
 10
20.00000000000022
 20
-301.0
 30
0.0
 11
71.24733980819745
 21
-301.0
 31
0.0
  0
LINE
  5
9384
330
931C
100
AcDbEntity
  8
30
 62
     0
100
AcDbLine
 10
70.7473398081975
 20
-171.0
 30
0.0
 11
70.74733980819745
 21
-299.0
 31
0.0
  0
INSERT
  5
9385
330
931C
100
AcDbEntity
  8
30
 62
     0
100
AcDbBlockReference
  2
_OPEN
 10
70.7473398081975
 20
-169.0
 30
0.0
 41
2.0
 42
2.0
 43
2.0
 50
90.0
  0
INSERT
  5
9386
330
931C
100
AcDbEntity
  8
30
 62
     0
100
AcDbBlockReference
  2
_OPEN
 10
70.74733980819745
 20
-301.0
 30
0.0
 41
2.0
 42
2.0
 43
2.0
 50
270.0
  0
MTEXT
  5
9387
330
931C
100
AcDbEntity
  8
30
 62
     0
100
AcDbMText
 10
67.74733980819751
 20
-235.0
 30
0.0
 40
4.0
 41
0.0
 71
     5
 72
     1
  1
\A1;132
 11
0.0000000000000001
 21
1.0
 31
0.0
 73
     1
 44
1.0
1001
ACAD
1000
MTEXTBEGIN
1070
    73
1070
     1
1070
    44
1040
1.0
1070
    74
1070
     0
1000
MTEXTEND
  0
POINT
  5
9388
330
931C
100
AcDbEntity
  8
DEFPOINTS
 62
     0
100
AcDbPoint
 10
19.00000000000022
 20
-169.0
 30
0.0
  0
POINT
  5
9389
330
931C
100
AcDbEntity
  8
DEFPOINTS
 62
     0
100
AcDbPoint
 10
19.00000000000022
 20
-301.0
 30
0.0
  0
POINT
  5
938A
330
931C
100
AcDbEntity
  8
DEFPOINTS
 62
     0
100
AcDbPoint
 10
70.74733980819745
 20
-301.0
 30
0.0
  0
ENDBLK
  5
9327
330
931C
100
AcDbEntity
  8
0
100
AcDbBlockEnd
  0
ENDSEC
  0
SECTION
  2
ENTITIES
  0
LINE
  5
B4
330
1E
100
AcDbEntity
  8
16
100
AcDbLine
 10
0.0
 20
-105.0883879261505
 30
0.0
 11
0.0
 21
86.25
 31
0.0
  0
LINE
  5
B5
330
1E
100
AcDbEntity
  8
16
100
AcDbLine
 10
59.74013214434672
 20
0.0000000000000089
 30
0.0
 11
-56.60868885537141
 21
0.0
 31
0.0
  0
MTEXT
  5
BF3
330
1E
100
AcDbEntity
  8
24
  6
Continuous
100
AcDbMText
 10
142.1181906098743
 20
192.5
 30
0.0
 40
3.0
 41
0.0
 71
     1
 72
     1
  1
\A1;
 73
     1
 44
1.0
1001
ACAD
1000
MTEXTBEGIN
1070
    73
1070
     1
1070
    44
1040
1.0
1070
    74
1070
     0
1000
MTEXTEND
  0
LINE
  5
1C9A
330
1E
100
AcDbEntity
  8
16
100
AcDbLine
 10
0.0
 20
126.8811670622457
 30
0.0
 11
0.0
 21
269.3811670622458
 31
0.0
  0
LINE
  5
1C9B
330
1E
100
AcDbEntity
  8
16
100
AcDbLine
 10
340.5294645126129
 20
0.0
 30
0.0
 11
181.045076336692
 21
0.0
 31
0.0
  0
LINE
  5
2260
330
1E
100
AcDbEntity
  8
16
100
AcDbLine
 10
59.90743607736431
 20
-235.0
 30
0.0
 11
-67.93042662644572
 21
-235.0
 31
0.0
  0
LINE
  5
2261
330
1E
100
AcDbEntity
  8
16
100
AcDbLine
 10
0.0
 20
-317.4374692359974
 30
0.0
 11
0.0
 21
-149.5
 31
0.0
  0
LINE
  5
819E
330
1E
100
AcDbEntity
  8
10
100
AcDbLine
 10
-45.0
 20
-77.5
 30
0.0
 11
45.0
 21
-77.5
 31
0.0
  0
LINE
  5
819F
330
1E
100
AcDbEntity
  8
10
100
AcDbLine
 10
45.0
 20
77.49999999999992
 30
0.0
 11
-45.0
 21
77.49999999999992
 31
0.0
  0
LINE
  5
81A0
330
1E
100
AcDbEntity
  8
10
100
AcDbLine
 10
-45.0
 20
50.99999999999988
 30
0.0
 11
45.0
 21
50.99999999999988
 31
0.0
  0
LINE
  5
81A1
330
1E
100
AcDbEntity
  8
10
100
AcDbLine
 10
-45.0
 20
-51.00000000000003
 30
0.0
 11
45.0
 21
-51.00000000000003
 31
0.0
  0
DIMENSION
  5
81A8
330
1E
100
AcDbEntity
  8
30
100
AcDbDimension
  2
*D1
 10
45.00000000000002
 20
-95.05260904743506
 30
0.0
 11
0.0000000000000144
 21
-92.05260904743502
 31
0.0
 70
    32
 71
     5
 42
-1.0
  3
STANDARD
100
AcDbAlignedDimension
 13
-45.0
 23
-77.5
 33
0.0
 14
45.00000000000002
 24
-77.5
 34
0.0
 50
180.0
100
AcDbRotatedDimension
  0
LINE
  5
81A9
330
1E
100
AcDbEntity
  8
10
100
AcDbLine
 10
-45.0
 20
77.49999999999992
 30
0.0
 11
-45.0
 21
-77.5
 31
0.0
  0
LINE
  5
81AA
330
1E
100
AcDbEntity
  8
17
100
AcDbLine
 10
-30.0
 20
-74.00000000000003
 30
0.0
 11
-30.0
 21
-60.0
 31
0.0
  0
LINE
  5
81AB
330
1E
100
AcDbEntity
  8
17
100
AcDbLine
 10
30.0
 20
-74.00000000000003
 30
0.0
 11
30.0
 21
-60.0
 31
0.0
  0
LINE
  5
81AD
330
1E
100
AcDbEntity
  8
12
100
AcDbLine
 10
-15.0
 20
-60.49999999999982
 30
0.0
 11
-15.0
 21
-71.49999999999981
 31
0.0
  0
LINE
  5
81AE
330
1E
100
AcDbEntity
  8
12
100
AcDbLine
 10
15.0
 20
-60.49999999999982
 30
0.0
 11
15.0
 21
-71.49999999999981
 31
0.0
  0
ARC
  5
81AF
330
1E
100
AcDbEntity
  8
10
100
AcDbCircle
 10
3.75
 20
-66.00000000000003
 30
0.0
 40
5.0
210
0.0
220
0.0
230
-1.0
100
AcDbArc
 50
0.0
 51
90.0
  0
ARC
  5
81B0
330
1E
100
AcDbEntity
  8
10
100
AcDbCircle
 10
-3.75
 20
-66.00000000000003
 30
0.0
 40
5.0
210
0.0
220
0.0
230
-1.0
100
AcDbArc
 50
90.0
 51
180.0
  0
ARC
  5
81B1
330
1E
100
AcDbEntity
  8
10
100
AcDbCircle
 10
-26.25
 20
-66.00000000000003
 30
0.0
 40
5.0
100
AcDbArc
 50
0.0
 51
90.0
  0
ARC
  5
81B2
330
1E
100
AcDbEntity
  8
10
100
AcDbCircle
 10
-33.75
 20
-66.00000000000003
 30
0.0
 40
5.0
100
AcDbArc
 50
90.0
 51
180.0
  0
ARC
  5
81B3
330
1E
100
AcDbEntity
  8
10
100
AcDbCircle
 10
-26.25
 20
-66.00000000000003
 30
0.0
 40
5.0
210
0.0
220
0.0
230
-1.0
100
AcDbArc
 50
0.0
 51
90.0
  0
ARC
  5
81B4
330
1E
100
AcDbEntity
  8
10
100
AcDbCircle
 10
-33.75
 20
-66.00000000000003
 30
0.0
 40
5.0
210
0.0
220
0.0
230
-1.0
100
AcDbArc
 50
90.0
 51
180.0
  0
LINE
  5
81B6
330
1E
100
AcDbEntity
  8
12
100
AcDbLine
 10
9.5
 20
-65.99999999999984
 30
0.0
 11
20.50000000000005
 21
-65.99999999999984
 31
0.0
  0
CIRCLE
  5
81B7
330
1E
100
AcDbEntity
  8
12
100
AcDbCircle
 10
-15.0
 20
-65.99999999999984
 30
0.0
 40
4.0
210
0.0
220
0.0
230
-1.0
  0
LINE
  5
81B8
330
1E
100
AcDbEntity
  8
12
100
AcDbLine
 10
-20.5
 20
-65.99999999999984
 30
0.0
 11
-9.499999999999943
 21
-65.99999999999984
 31
0.0
  0
CIRCLE
  5
81B9
330
1E
100
AcDbEntity
  8
12
100
AcDbCircle
 10
15.0
 20
-65.99999999999984
 30
0.0
 40
4.0
210
0.0
220
0.0
230
-1.0
  0
LINE
  5
81BA
330
1E
100
AcDbEntity
  8
17
100
AcDbLine
 10
-23.0
 20
-67.0
 30
0.0
 11
-37.0
 21
-67.0
 31
0.0
  0
CIRCLE
  5
81BB
330
1E
100
AcDbEntity
  8
24
100
AcDbCircle
 10
-30.0
 20
-67.0
 30
0.0
 40
5.0
  0
LINE
  5
81BC
330
1E
100
AcDbEntity
  8
10
100
AcDbLine
 10
-38.75
 20
-66.00000000000003
 30
0.0
 11
-38.75
 21
-77.5
 31
0.0
  0
LINE
  5
81BD
330
1E
100
AcDbEntity
  8
10
100
AcDbLine
 10
-21.25
 20
-66.00000000000003
 30
0.0
 11
-21.25
 21
-77.5
 31
0.0
  0
LINE
  5
81BE
330
1E
100
AcDbEntity
  8
17
100
AcDbLine
 10
-6.999999999999943
 20
-67.0
 30
0.0
 11
7.0
 21
-67.0
 31
0.0
  0
CIRCLE
  5
81BF
330
1E
100
AcDbEntity
  8
24
100
AcDbCircle
 10
0.0
 20
-67.0
 30
0.0
 40
5.0
  0
LINE
  5
81C0
330
1E
100
AcDbEntity
  8
10
100
AcDbLine
 10
-8.75
 20
-66.00000000000003
 30
0.0
 11
-8.75
 21
-77.5
 31
0.0
  0
LINE
  5
81C1
330
1E
100
AcDbEntity
  8
10
100
AcDbLine
 10
8.75
 20
-66.00000000000003
 30
0.0
 11
8.75
 21
-77.5
 31
0.0
  0
LINE
  5
81C2
330
1E
100
AcDbEntity
  8
17
100
AcDbLine
 10
23.00000000000005
 20
-67.0
 30
0.0
 11
37.00000000000002
 21
-67.0
 31
0.0
  0
CIRCLE
  5
81C3
330
1E
100
AcDbEntity
  8
24
100
AcDbCircle
 10
30.0
 20
-67.0
 30
0.0
 40
5.0
  0
LINE
  5
81C4
330
1E
100
AcDbEntity
  8
10
100
AcDbLine
 10
21.25
 20
-66.00000000000003
 30
0.0
 11
21.25
 21
-77.5
 31
0.0
  0
LINE
  5
81C5
330
1E
100
AcDbEntity
  8
10
100
AcDbLine
 10
38.75
 20
-66.00000000000003
 30
0.0
 11
38.75
 21
-77.5
 31
0.0
  0
LINE
  5
81C8
330
1E
100
AcDbEntity
  8
10
100
AcDbLine
 10
-42.0
 20
24.99999999999994
 30
0.0
 11
42.00000000000001
 21
24.99999999999994
 31
0.0
  0
LINE
  5
81C9
330
1E
100
AcDbEntity
  8
10
100
AcDbLine
 10
-42.0
 20
-25.0
 30
0.0
 11
42.00000000000001
 21
-25.0
 31
0.0
  0
DIMENSION
  5
81CA
330
1E
100
AcDbEntity
  8
30
100
AcDbDimension
  2
*D2
 10
42.00000000000001
 20
32.59950840068007
 30
0.0
 11
0.0000000000000144
 21
35.59950840068009
 31
0.0
 70
    32
 71
     5
 42
-1.0
  3
STANDARD
100
AcDbAlignedDimension
 13
-42.0
 23
24.99999999999996
 33
0.0
 14
42.00000000000001
 24
24.99999999999996
 34
0.0
100
AcDbRotatedDimension
  0
LINE
  5
81CB
330
1E
100
AcDbEntity
  8
10
100
AcDbLine
 10
-42.0
 20
24.99999999999994
 30
0.0
 11
-42.0
 21
-25.0
 31
0.0
  0
LINE
  5
81CC
330
1E
100
AcDbEntity
  8
10
100
AcDbLine
 10
11.0
 20
24.99999999999994
 30
0.0
 11
11.0
 21
-25.0
 31
0.0
  0
LINE
  5
81CD
330
1E
100
AcDbEntity
  8
10
100
AcDbLine
 10
-11.0
 20
24.99999999999994
 30
0.0
 11
-11.0
 21
-25.0
 31
0.0
  0
LINE
  5
81CE
330
1E
100
AcDbEntity
  8
10
100
AcDbLine
 10
-6.999999999999943
 20
-18.50000000000003
 30
0.0
 11
-6.999999999999943
 21
20.1548687058103
 31
0.0
  0
LINE
  5
81CF
330
1E
100
AcDbEntity
  8
10
100
AcDbLine
 10
7.0
 20
-18.50000000000003
 30
0.0
 11
7.000000000000111
 21
20.1548687058103
 31
0.0
  0
LINE
  5
81D0
330
1E
100
AcDbEntity
  8
10
100
AcDbLine
 10
42.00000000000001
 20
24.99999999999994
 30
0.0
 11
42.00000000000001
 21
-25.0
 31
0.0
  0
LINE
  5
81D1
330
1E
100
AcDbEntity
  8
10
100
AcDbLine
 10
-33.75
 20
-61.00000000000003
 30
0.0
 11
-26.25
 21
-61.00000000000003
 31
0.0
  0
LINE
  5
81D2
330
1E
100
AcDbEntity
  8
10
100
AcDbLine
 10
3.75
 20
-61.00000000000003
 30
0.0
 11
-3.75
 21
-61.00000000000003
 31
0.0
  0
LINE
  5
81D3
330
1E
100
AcDbEntity
  8
10
100
AcDbLine
 10
-6.999999999999943
 20
-18.50000000000003
 30
0.0
 11
7.0
 21
-18.50000000000003
 31
0.0
  0
LINE
  5
81D4
330
1E
100
AcDbEntity
  8
10
100
AcDbLine
 10
7.0
 20
15.23995644007658
 30
0.0
 11
-6.999999999999943
 21
15.23995644007658
 31
0.0
  0
LINE
  5
81D5
330
1E
100
AcDbEntity
  8
10
100
AcDbLine
 10
7.0
 20
6.840789306861437
 30
0.0
 11
-6.99999999999909
 21
6.840789306861493
 31
0.0
  0
LINE
  5
81D6
330
1E
100
AcDbEntity
  8
10
100
AcDbLine
 10
33.75
 20
-61.00000000000003
 30
0.0
 11
26.25
 21
-61.00000000000003
 31
0.0
  0
LINE
  5
81D8
330
1E
100
AcDbEntity
  8
12
100
AcDbLine
 10
9.5
 20
65.99999999999977
 30
0.0
 11
20.50000000000005
 21
65.99999999999977
 31
0.0
  0
CIRCLE
  5
81D9
330
1E
100
AcDbEntity
  8
12
100
AcDbCircle
 10
15.0
 20
65.99999999999977
 30
0.0
 40
4.0
  0
LINE
  5
81DA
330
1E
100
AcDbEntity
  8
10
100
AcDbLine
 10
7.0
 20
20.1548687058103
 30
0.0
 11
-7.000000000000909
 21
20.1548687058103
 31
0.0
  0
LINE
  5
81DB
330
1E
100
AcDbEntity
  8
12
100
AcDbLine
 10
-20.5
 20
65.99999999999977
 30
0.0
 11
-9.499999999999943
 21
65.99999999999977
 31
0.0
  0
CIRCLE
  5
81DC
330
1E
100
AcDbEntity
  8
12
100
AcDbCircle
 10
-15.0
 20
65.99999999999977
 30
0.0
 40
4.0
  0
LINE
  5
81DD
330
1E
100
AcDbEntity
  8
10
100
AcDbLine
 10
-21.25
 20
65.99999999999988
 30
0.0
 11
-21.25
 21
77.49999999999992
 31
0.0
  0
LINE
  5
81DE
330
1E
100
AcDbEntity
  8
10
100
AcDbLine
 10
-38.75
 20
65.99999999999988
 30
0.0
 11
-38.75
 21
77.49999999999992
 31
0.0
  0
LINE
  5
81DF
330
1E
100
AcDbEntity
  8
17
100
AcDbLine
 10
-23.0
 20
66.99999999999993
 30
0.0
 11
-37.0
 21
66.99999999999993
 31
0.0
  0
LINE
  5
81E0
330
1E
100
AcDbEntity
  8
10
100
AcDbLine
 10
-33.75
 20
60.99999999999988
 30
0.0
 11
-26.25
 21
60.99999999999988
 31
0.0
  0
CIRCLE
  5
81E1
330
1E
100
AcDbEntity
  8
24
100
AcDbCircle
 10
-30.0
 20
66.99999999999993
 30
0.0
 40
5.0
  0
LINE
  5
81E2
330
1E
100
AcDbEntity
  8
17
100
AcDbLine
 10
-30.0
 20
73.99999999999995
 30
0.0
 11
-30.0
 21
59.99999999999993
 31
0.0
  0
ARC
  5
81E3
330
1E
100
AcDbEntity
  8
10
100
AcDbCircle
 10
33.75
 20
65.99999999999988
 30
0.0
 40
5.0
210
0.0
220
0.0
230
-1.0
100
AcDbArc
 50
270.0
 51
0.0
  0
LINE
  5
81E4
330
1E
100
AcDbEntity
  8
12
100
AcDbLine
 10
-15.0
 20
60.49999999999972
 30
0.0
 11
-15.0
 21
71.4999999999997
 31
0.0
  0
ARC
  5
81E5
330
1E
100
AcDbEntity
  8
10
100
AcDbCircle
 10
26.25
 20
65.99999999999988
 30
0.0
 40
5.0
210
0.0
220
0.0
230
-1.0
100
AcDbArc
 50
180.0
 51
270.0
  0
LINE
  5
81E6
330
1E
100
AcDbEntity
  8
10
100
AcDbLine
 10
-8.75
 20
65.99999999999988
 30
0.0
 11
-8.75
 21
77.49999999999992
 31
0.0
  0
LINE
  5
81E7
330
1E
100
AcDbEntity
  8
10
100
AcDbLine
 10
8.75
 20
65.99999999999988
 30
0.0
 11
8.75
 21
77.49999999999992
 31
0.0
  0
LINE
  5
81E8
330
1E
100
AcDbEntity
  8
17
100
AcDbLine
 10
-6.999999999999943
 20
66.99999999999993
 30
0.0
 11
7.0
 21
66.99999999999993
 31
0.0
  0
LINE
  5
81E9
330
1E
100
AcDbEntity
  8
10
100
AcDbLine
 10
3.75
 20
60.99999999999988
 30
0.0
 11
-3.75
 21
60.99999999999988
 31
0.0
  0
CIRCLE
  5
81EA
330
1E
100
AcDbEntity
  8
24
100
AcDbCircle
 10
0.0
 20
66.99999999999993
 30
0.0
 40
5.0
  0
ARC
  5
81EB
330
1E
100
AcDbEntity
  8
10
100
AcDbCircle
 10
-3.75
 20
65.99999999999988
 30
0.0
 40
5.0
100
AcDbArc
 50
180.0
 51
270.0
  0
ARC
  5
81EC
330
1E
100
AcDbEntity
  8
10
100
AcDbCircle
 10
3.75
 20
65.99999999999988
 30
0.0
 40
5.0
100
AcDbArc
 50
270.0
 51
0.0
  0
LINE
  5
8252
330
1E
100
AcDbEntity
  8
10
100
AcDbLine
 10
21.25
 20
65.99999999999988
 30
0.0
 11
21.25
 21
77.49999999999992
 31
0.0
  0
LINE
  5
8253
330
1E
100
AcDbEntity
  8
10
100
AcDbLine
 10
38.75
 20
65.99999999999988
 30
0.0
 11
38.75
 21
77.49999999999992
 31
0.0
  0
LINE
  5
8254
330
1E
100
AcDbEntity
  8
17
100
AcDbLine
 10
23.00000000000005
 20
66.99999999999993
 30
0.0
 11
37.00000000000002
 21
66.99999999999993
 31
0.0
  0
LINE
  5
8255
330
1E
100
AcDbEntity
  8
10
100
AcDbLine
 10
33.75
 20
60.99999999999988
 30
0.0
 11
26.25
 21
60.99999999999988
 31
0.0
  0
CIRCLE
  5
8256
330
1E
100
AcDbEntity
  8
24
100
AcDbCircle
 10
30.0
 20
66.99999999999993
 30
0.0
 40
5.0
  0
LINE
  5
8257
330
1E
100
AcDbEntity
  8
12
100
AcDbLine
 10
15.0
 20
71.50000000000024
 30
0.0
 11
15.0
 21
60.50000000000022
 31
0.0
  0
ARC
  5
8258
330
1E
100
AcDbEntity
  8
10
100
AcDbCircle
 10
26.25
 20
65.99999999999988
 30
0.0
 40
5.0
100
AcDbArc
 50
180.0
 51
270.0
  0
LINE
  5
8259
330
1E
100
AcDbEntity
  8
17
100
AcDbLine
 10
30.0
 20
73.99999999999995
 30
0.0
 11
30.0
 21
59.99999999999993
 31
0.0
  0
ARC
  5
825A
330
1E
100
AcDbEntity
  8
10
100
AcDbCircle
 10
33.75
 20
65.99999999999988
 30
0.0
 40
5.0
100
AcDbArc
 50
270.0
 51
0.0
  0
LINE
  5
8260
330
1E
100
AcDbEntity
  8
10
100
AcDbLine
 10
45.0
 20
-77.5
 30
0.0
 11
45.0
 21
77.49999999999992
 31
0.0
  0
LINE
  5
8349
330
1E
100
AcDbEntity
  8
21
100
AcDbLine
 10
2.499999999999772
 20
269.3811670622455
 30
0.0
 11
2.499999999999772
 21
304.8811670622456
 31
0.0
  0
LINE
  5
834E
330
1E
100
AcDbEntity
  8
21
100
AcDbLine
 10
-2.500000000000226
 20
269.3811670622455
 30
0.0
 11
-2.500000000000226
 21
304.8811670622456
 31
0.0
  0
LINE
  5
8352
330
1E
100
AcDbEntity
  8
21
100
AcDbLine
 10
6.249999999999772
 20
289.8811670622456
 30
0.0
 11
-6.250000000000227
 21
289.8811670622456
 31
0.0
  0
LINE
  5
8355
330
1E
100
AcDbEntity
  8
21
100
AcDbLine
 10
2.499999999999772
 20
304.8811670622456
 30
0.0
 11
-2.500000000000226
 21
304.8811670622456
 31
0.0
  0
LINE
  5
8356
330
1E
100
AcDbEntity
  8
21
100
AcDbLine
 10
2.499999999999772
 20
304.8811670622456
 30
0.0
 11
-2.500000000000226
 21
304.8811670622456
 31
0.0
  0
LINE
  5
8357
330
1E
100
AcDbEntity
  8
21
100
AcDbLine
 10
2.499999999999772
 20
274.8811670622456
 30
0.0
 11
-2.500000000000226
 21
274.8811670622456
 31
0.0
  0
LINE
  5
835C
330
1E
100
AcDbEntity
  8
21
100
AcDbLine
 10
7.124999999999772
 20
269.3811670622455
 30
0.0
 11
-7.125000000000227
 21
269.3811670622455
 31
0.0
  0
LINE
  5
835D
330
1E
100
AcDbEntity
  8
10
100
AcDbLine
 10
45.0
 20
141.8811670622458
 30
0.0
 11
-45.0
 21
141.8811670622458
 31
0.0
  0
LINE
  5
835E
330
1E
100
AcDbEntity
  8
10
100
AcDbLine
 10
41.99999999999953
 20
130.8811670622457
 30
0.0
 11
-41.99999999999977
 21
130.8811670622457
 31
0.0
  0
LINE
  5
835F
330
1E
100
AcDbEntity
  8
18
100
AcDbLine
 10
49.6420678786435
 20
202.8811670622455
 30
0.0
 11
-45.0
 21
202.8811670622455
 31
0.0
  0
LINE
  5
8360
330
1E
100
AcDbEntity
  8
10
100
AcDbLine
 10
10.99999999999975
 20
126.8811670622457
 30
0.0
 11
-10.99999999999975
 21
126.8811670622457
 31
0.0
  0
LINE
  5
8361
330
1E
100
AcDbEntity
  8
10
100
AcDbLine
 10
45.0
 20
134.8811670622455
 30
0.0
 11
-45.0
 21
134.8811670622455
 31
0.0
  0
LINE
  5
8362
330
1E
100
AcDbEntity
  8
10
100
AcDbLine
 10
7.0
 20
114.8859132626504
 30
0.0
 11
-7.0
 21
114.8859132626504
 31
0.0
  0
LINE
  5
8367
330
1E
100
AcDbEntity
  8
10
100
AcDbLine
 10
-45.0
 20
134.8811670622455
 30
0.0
 11
-45.0
 21
202.8811670622455
 31
0.0
  0
LINE
  5
8368
330
1E
100
AcDbEntity
  8
21
100
AcDbLine
 10
-7.125000000000227
 20
202.8811670622455
 30
0.0
 11
-7.125000000000227
 21
269.3811670622455
 31
0.0
  0
LINE
  5
8369
330
1E
100
AcDbEntity
  8
21
100
AcDbLine
 10
-27.50000000000023
 20
219.3811670622455
 30
0.0
 11
-27.50000000000023
 21
254.8811670622455
 31
0.0
  0
LINE
  5
836A
330
1E
100
AcDbEntity
  8
21
100
AcDbLine
 10
-32.50000000000023
 20
219.3811670622455
 30
0.0
 11
-32.50000000000023
 21
254.8811670622455
 31
0.0
  0
LINE
  5
836B
330
1E
100
AcDbEntity
  8
21
100
AcDbLine
 10
-30.00000000000023
 20
197.8811670622455
 30
0.0
 11
-30.00000000000023
 21
259.8811670622456
 31
0.0
  0
LINE
  5
836C
330
1E
100
AcDbEntity
  8
21
100
AcDbLine
 10
-27.50000000000023
 20
254.8811670622455
 30
0.0
 11
-32.50000000000023
 21
254.8811670622455
 31
0.0
  0
LINE
  5
836D
330
1E
100
AcDbEntity
  8
21
100
AcDbLine
 10
-23.75000000000022
 20
239.8811670622456
 30
0.0
 11
-36.25000000000023
 21
239.8811670622456
 31
0.0
  0
LINE
  5
836E
330
1E
100
AcDbEntity
  8
21
100
AcDbLine
 10
-37.12500000000023
 20
202.8811670622455
 30
0.0
 11
-37.12500000000023
 21
219.3811670622455
 31
0.0
  0
LINE
  5
836F
330
1E
100
AcDbEntity
  8
21
100
AcDbLine
 10
-22.87500000000022
 20
202.8811670622455
 30
0.0
 11
-22.87500000000022
 21
219.3811670622455
 31
0.0
  0
LINE
  5
8370
330
1E
100
AcDbEntity
  8
21
100
AcDbLine
 10
-22.87500000000022
 20
219.3811670622455
 30
0.0
 11
-37.12500000000023
 21
219.3811670622455
 31
0.0
  0
LINE
  5
8371
330
1E
100
AcDbEntity
  8
21
100
AcDbLine
 10
-27.50000000000023
 20
224.8811670622457
 30
0.0
 11
-32.50000000000023
 21
224.8811670622457
 31
0.0
  0
LINE
  5
8372
330
1E
100
AcDbEntity
  8
12
100
AcDbLine
 10
-13.0
 20
210.8811670622456
 30
0.0
 11
-17.0
 21
210.8811670622456
 31
0.0
  0
LINE
  5
8373
330
1E
100
AcDbEntity
  8
12
100
AcDbLine
 10
-17.0
 20
202.8811670622455
 30
0.0
 11
-17.0
 21
210.8811670622456
 31
0.0
  0
LINE
  5
8374
330
1E
100
AcDbEntity
  8
12
100
AcDbLine
 10
-13.0
 20
202.8811670622455
 30
0.0
 11
-13.0
 21
210.8811670622456
 31
0.0
  0
LINE
  5
8375
330
1E
100
AcDbEntity
  8
10
100
AcDbLine
 10
-42.00000000000009
 20
130.8811670622457
 30
0.0
 11
-42.00000000000009
 21
134.8811670622455
 31
0.0
  0
LINE
  5
8376
330
1E
100
AcDbEntity
  8
10
100
AcDbLine
 10
-11.00000000000022
 20
126.8811670622457
 30
0.0
 11
-11.00000000000022
 21
130.8811670622457
 31
0.0
  0
LINE
  5
8377
330
1E
100
AcDbEntity
  8
10
100
AcDbLine
 10
-7.0
 20
126.8811670622457
 30
0.0
 11
-7.0
 21
114.8859132626503
 31
0.0
  0
LINE
  5
837A
330
1E
100
AcDbEntity
  8
10
100
AcDbLine
 10
45.0
 20
202.8811670622455
 30
0.0
 11
45.0
 21
134.8811670622455
 31
0.0
  0
LINE
  5
837D
330
1E
100
AcDbEntity
  8
21
100
AcDbLine
 10
7.124999999999772
 20
202.8811670622455
 30
0.0
 11
7.124999999999772
 21
269.3811670622455
 31
0.0
  0
LINE
  5
837F
330
1E
100
AcDbEntity
  8
21
100
AcDbLine
 10
32.49999999999977
 20
219.3811670622455
 30
0.0
 11
32.49999999999977
 21
254.8811670622455
 31
0.0
  0
LINE
  5
8380
330
1E
100
AcDbEntity
  8
21
100
AcDbLine
 10
27.49999999999977
 20
219.3811670622455
 30
0.0
 11
27.49999999999977
 21
254.8811670622455
 31
0.0
  0
LINE
  5
8381
330
1E
100
AcDbEntity
  8
21
100
AcDbLine
 10
29.99999999999977
 20
197.8811670622455
 30
0.0
 11
29.99999999999977
 21
259.8811670622456
 31
0.0
  0
LINE
  5
8382
330
1E
100
AcDbEntity
  8
21
100
AcDbLine
 10
32.49999999999977
 20
254.8811670622455
 30
0.0
 11
27.49999999999977
 21
254.8811670622455
 31
0.0
  0
LINE
  5
8383
330
1E
100
AcDbEntity
  8
21
100
AcDbLine
 10
36.24999999999977
 20
239.8811670622456
 30
0.0
 11
23.74999999999977
 21
239.8811670622456
 31
0.0
  0
LINE
  5
8384
330
1E
100
AcDbEntity
  8
21
100
AcDbLine
 10
37.12499999999977
 20
219.3811670622455
 30
0.0
 11
22.87499999999977
 21
219.3811670622455
 31
0.0
  0
LINE
  5
8385
330
1E
100
AcDbEntity
  8
21
100
AcDbLine
 10
32.49999999999977
 20
224.8811670622457
 30
0.0
 11
27.49999999999977
 21
224.8811670622457
 31
0.0
  0
LINE
  5
8386
330
1E
100
AcDbEntity
  8
21
100
AcDbLine
 10
22.87499999999977
 20
202.8811670622455
 30
0.0
 11
22.87499999999977
 21
219.3811670622455
 31
0.0
  0
LINE
  5
8387
330
1E
100
AcDbEntity
  8
12
100
AcDbLine
 10
13.0
 20
210.8811670622456
 30
0.0
 11
17.0
 21
210.8811670622456
 31
0.0
  0
LINE
  5
8388
330
1E
100
AcDbEntity
  8
12
100
AcDbLine
 10
17.0
 20
202.8811670622455
 30
0.0
 11
17.0
 21
210.8811670622456
 31
0.0
  0
LINE
  5
8389
330
1E
100
AcDbEntity
  8
12
100
AcDbLine
 10
13.0
 20
202.8811670622455
 30
0.0
 11
13.0
 21
210.8811670622456
 31
0.0
  0
LINE
  5
838A
330
1E
100
AcDbEntity
  8
21
100
AcDbLine
 10
37.12499999999977
 20
202.8811670622455
 30
0.0
 11
37.12499999999977
 21
219.3811670622455
 31
0.0
  0
LINE
  5
838D
330
1E
100
AcDbEntity
  8
10
100
AcDbLine
 10
7.0
 20
126.8811670622457
 30
0.0
 11
7.0
 21
114.8859132626503
 31
0.0
  0
LINE
  5
838E
330
1E
100
AcDbEntity
  8
10
100
AcDbLine
 10
10.99999999999975
 20
126.8811670622457
 30
0.0
 11
10.99999999999975
 21
130.8811670622457
 31
0.0
  0
LINE
  5
838F
330
1E
100
AcDbEntity
  8
10
100
AcDbLine
 10
42.0
 20
130.8811670622457
 30
0.0
 11
42.0
 21
134.8811670622455
 31
0.0
  0
LINE
  5
8391
330
1E
100
AcDbEntity
  8
18
100
AcDbLine
 10
69.14206787864305
 20
206.0811670622455
 30
0.0
 11
-64.50000000000009
 21
206.0811670622455
 31
0.0
  0
LINE
  5
8392
330
1E
100
AcDbEntity
  8
18
100
AcDbLine
 10
-45.0
 20
202.8811670622455
 30
0.0
 11
-64.5
 21
202.8811670622455
 31
0.0
  0
DIMENSION
  5
8393
330
1E
100
AcDbEntity
  8
30
100
AcDbDimension
  2
*D3
 10
93.72879037143162
 20
202.8811670622455
 30
0.0
 11
90.72879037143158
 21
206.8811670622455
 31
0.0
 70
    32
 71
     5
 42
-1.0
  3
STANDARD
100
AcDbAlignedDimension
 13
17.00000000000011
 23
210.8811670622456
 33
0.0
 14
49.6420678786435
 24
202.8811670622455
 34
0.0
 50
90.0
100
AcDbRotatedDimension
1001
ACAD
1000
DSTYLE
1002
{
1070
   340
1005
11
1002
}
  0
LINE
  5
85CB
330
1E
100
AcDbEntity
  8
0
100
AcDbLine
 10
298.5415450433535
 20
-59.875
 30
0.0
 11
298.5415450433535
 21
-74.12500000000003
 31
0.0
  0
LINE
  5
85CC
330
1E
100
AcDbEntity
  8
10
100
AcDbLine
 10
282.0415450433533
 20
77.5000000000001
 30
0.0
 11
282.0415450433533
 21
-77.5
 31
0.0
  0
LINE
  5
85CD
330
1E
100
AcDbEntity
  8
10
100
AcDbLine
 10
221.0415450433536
 20
-51.00000000000003
 30
0.0
 11
221.0415450433536
 21
-77.5
 31
0.0
  0
LINE
  5
85CE
330
1E
100
AcDbEntity
  8
18
100
AcDbLine
 10
285.2415450433536
 20
96.99999999999995
 30
0.0
 11
285.2415450433536
 21
-97.0
 31
0.0
  0
LINE
  5
85CF
330
1E
100
AcDbEntity
  8
0
100
AcDbLine
 10
348.5415450433536
 20
-59.875
 30
0.0
 11
348.5415450433536
 21
-74.12500000000003
 31
0.0
  0
LINE
  5
85D0
330
1E
100
AcDbEntity
  8
17
100
AcDbLine
 10
319.0415450433535
 20
-54.00000000000003
 30
0.0
 11
319.0415450433535
 21
-80.0
 31
0.0
  0
LINE
  5
85D1
330
1E
100
AcDbEntity
  8
17
100
AcDbLine
 10
369.0415450433535
 20
-54.00000000000003
 30
0.0
 11
369.0415450433535
 21
-80.0
 31
0.0
  0
ARC
  5
85D2
330
1E
100
AcDbEntity
  8
0
100
AcDbCircle
 10
318.0415450433534
 20
-67.0
 30
0.0
 40
16.0
100
AcDbArc
 50
329.999999999999
 51
30.00000000000098
  0
ARC
  5
85D3
330
1E
100
AcDbEntity
  8
0
100
AcDbCircle
 10
368.0415450433536
 20
-67.0
 30
0.0
 40
16.0
100
AcDbArc
 50
329.999999999999
 51
30.00000000000098
  0
ARC
  5
85D4
330
1E
100
AcDbEntity
  8
0
100
AcDbCircle
 10
-322.9558253627313
 20
-69.00000000000003
 30
0.0
 40
20.0
210
0.0
220
0.0
230
-1.0
100
AcDbArc
 50
18.96557498884839
 51
30.00000000000098
  0
ARC
  5
85D5
330
1E
100
AcDbEntity
  8
0
100
AcDbCircle
 10
-372.9558253627313
 20
-69.00000000000003
 30
0.0
 40
20.0
210
0.0
220
0.0
230
-1.0
100
AcDbArc
 50
18.96557498884839
 51
30.00000000000098
  0
DIMENSION
  5
85D6
330
1E
100
AcDbEntity
  8
30
100
AcDbDimension
  2
*D5
 10
408.1282675361418
 20
-59.00000000000003
 30
0.0
 11
405.1282675361418
 21
-66.99999999999995
 31
0.0
 70
    32
 71
     5
 42
-1.0
  3
STANDARD
100
AcDbAlignedDimension
 13
381.8979515039046
 23
-75.0
 33
0.0
 14
381.8979515039046
 24
-59.00000000000003
 34
0.0
 50
270.0
100
AcDbRotatedDimension
  0
DIMENSION
  5
85D8
330
1E
100
AcDbEntity
  8
30
100
AcDbDimension
  2
*D6
 10
319.0415450433535
 20
-34.90049159931984
 30
0.0
 11
311.5415450433534
 21
-31.90049159931984
 31
0.0
 70
    32
 71
     5
 42
-1.0
  3
STANDARD
100
AcDbAlignedDimension
 13
304.0415450433536
 23
-59.99999998350003
 33
0.0
 14
319.0415450433535
 24
-64.49999998350003
 34
0.0
100
AcDbRotatedDimension
  0
DIMENSION
  5
85D9
330
1E
100
AcDbEntity
  8
30
100
AcDbDimension
  2
*D7
 10
282.0415450433536
 20
-121.1323124432112
 30
0.0
 11
248.0415450433536
 21
-118.1323124432112
 31
0.0
 70
    32
 71
     5
 42
-1.0
  3
STANDARD
100
AcDbAlignedDimension
 13
214.0415450433535
 23
-51.00000000000003
 33
0.0
 14
282.0415450433536
 24
-77.5
 34
0.0
 50
180.0
100
AcDbRotatedDimension
  0
DIMENSION
  5
85DA
330
1E
100
AcDbEntity
  8
30
100
AcDbDimension
  2
*D8
 10
282.0415450433536
 20
-142.3823124432113
 30
0.0
 11
246.0415450433536
 21
-139.3823124432112
 31
0.0
 70
    32
 71
     5
 42
-1.0
  3
STANDARD
100
AcDbAlignedDimension
 13
210.0415450433535
 23
-25.00000000000003
 33
0.0
 14
282.0415450433536
 24
-77.5
 34
0.0
 50
180.0
100
AcDbRotatedDimension
  0
DIMENSION
  5
85DB
330
1E
100
AcDbEntity
  8
30
100
AcDbDimension
  2
*D9
 10
210.0415450433535
 20
-142.3823124432113
 30
0.0
 11
216.3748783766869
 21
-139.3823124432112
 31
0.0
 70
    32
 71
     5
 42
-1.0
  3
STANDARD
100
AcDbAlignedDimension
 13
206.0415450433535
 23
-25.00000000000003
 33
0.0
 14
210.0415450433535
 24
-25.00000000000003
 34
0.0
 50
180.0
100
AcDbRotatedDimension
  0
LINE
  5
85DC
330
1E
100
AcDbEntity
  8
0
100
AcDbLine
 10
277.0415450433535
 20
-67.0
 30
0.0
 11
394.0415450433535
 21
-67.0
 31
0.0
  0
ARC
  5
85DD
330
1E
100
AcDbEntity
  8
0
100
AcDbCircle
 10
322.9558253627313
 20
-65.0
 30
0.0
 40
20.0
100
AcDbArc
 50
198.9655749888484
 51
210.0000000000008
  0
DIMENSION
  5
85DE
330
1E
100
AcDbEntity
  8
30
100
AcDbDimension
  2
*D10
 10
334.0415450433535
 20
-101.1323124432112
 30
0.0
 11
308.0415450433536
 21
-98.13231244321121
 31
0.0
 70
    32
 71
     5
 42
-1.0
  3
STANDARD
100
AcDbAlignedDimension
 13
282.0415450433536
 23
-97.00000000000002
 33
0.0
 14
334.0415450433535
 24
-67.0
 34
0.0
 50
180.0
100
AcDbRotatedDimension
  0
DIMENSION
  5
85DF
330
1E
100
AcDbEntity
  8
30
100
AcDbDimension
  2
*D11
 10
384.0415450433536
 20
-121.1323124432112
 30
0.0
 11
333.0415450433536
 21
-118.1323124432112
 31
0.0
 70
    32
 71
     5
 42
-1.0
  3
STANDARD
100
AcDbAlignedDimension
 13
282.0415450433536
 23
-97.00000000000002
 33
0.0
 14
384.0415450433536
 24
-67.0
 34
0.0
 50
180.0
100
AcDbRotatedDimension
  0
LINE
  5
85E1
330
1E
100
AcDbEntity
  8
10
100
AcDbLine
 10
221.0415450433536
 20
-77.5
 30
0.0
 11
282.0415450433533
 21
-77.5
 31
0.0
  0
DIMENSION
  5
85E2
330
1E
100
AcDbEntity
  8
30
100
AcDbDimension
  2
*D12
 10
282.0415450433536
 20
-101.1323124432112
 30
0.0
 11
251.5415450433535
 21
-98.13231244321121
 31
0.0
 70
    32
 71
     5
 42
-1.0
  3
STANDARD
100
AcDbAlignedDimension
 13
221.0415450433536
 23
-77.5
 33
0.0
 14
282.0415450433536
 24
-77.5
 34
0.0
 50
180.0
100
AcDbRotatedDimension
  0
LINE
  5
85E4
330
1E
100
AcDbEntity
  8
0
100
AcDbLine
 10
282.0415450433533
 20
-77.5
 30
0.0
 11
282.0415450433533
 21
-97.00000000000002
 31
0.0
  0
LINE
  5
85E5
330
1E
100
AcDbEntity
  8
0
100
AcDbLine
 10
282.0415450433533
 20
-74.12500000000003
 30
0.0
 11
305.1587926044315
 21
-74.12500000000003
 31
0.0
  0
LINE
  5
85E6
330
1E
100
AcDbEntity
  8
0
100
AcDbLine
 10
298.5415450433535
 20
-71.50000000000003
 30
0.0
 11
304.0415450433536
 21
-71.50000000000003
 31
0.0
  0
LINE
  5
85E7
330
1E
100
AcDbEntity
  8
0
100
AcDbLine
 10
298.5415450433535
 20
-62.5
 30
0.0
 11
304.0415450433536
 21
-62.5
 31
0.0
  0
LINE
  5
85E8
330
1E
100
AcDbEntity
  8
0
100
AcDbLine
 10
355.6353172870423
 20
-75.0
 30
0.0
 11
381.8979515039046
 21
-75.0
 31
0.0
  0
DIMENSION
  5
85E9
330
1E
100
AcDbEntity
  8
30
100
AcDbDimension
  2
*D13
 10
334.0415450433535
 20
-91.35521683906722
 30
0.0
 11
326.5415450433533
 21
-88.35521683906721
 31
0.0
 70
    32
 71
     5
 42
-1.0
  3
STANDARD
100
AcDbAlignedDimension
 13
319.0415450433535
 23
-69.50000001650002
 33
0.0
 14
334.0415450433535
 24
-76.28708784337162
 34
0.0
 50
180.0
100
AcDbRotatedDimension
  0
LINE
  5
85EA
330
1E
100
AcDbEntity
  8
0
100
AcDbLine
 10
305.6353172870424
 20
-75.0
 30
0.0
 11
331.8979515039046
 21
-75.0
 31
0.0
  0
CIRCLE
  5
85EB
330
1E
100
AcDbEntity
  8
24
100
AcDbCircle
 10
319.0415450433535
 20
-67.0
 30
0.0
 40
4.25
  0
LINE
  5
85EC
330
1E
100
AcDbEntity
  8
0
100
AcDbLine
 10
332.3675484986093
 20
-74.12500000000003
 30
0.0
 11
348.5415450433536
 21
-74.12500000000003
 31
0.0
  0
LINE
  5
85ED
330
1E
100
AcDbEntity
  8
0
100
AcDbLine
 10
348.5415450433536
 20
-71.50000000000003
 30
0.0
 11
354.0415450433535
 21
-71.50000000000003
 31
0.0
  0
ARC
  5
85EE
330
1E
100
AcDbEntity
  8
0
100
AcDbCircle
 10
372.9558253627313
 20
-65.0
 30
0.0
 40
20.0
100
AcDbArc
 50
198.9655749888484
 51
210.0000000000008
  0
LINE
  5
85EF
330
1E
100
AcDbEntity
  8
0
100
AcDbLine
 10
348.5415450433536
 20
-62.5
 30
0.0
 11
354.0415450433535
 21
-62.5
 31
0.0
  0
DIMENSION
  5
85F0
330
1E
100
AcDbEntity
  8
30
100
AcDbDimension
  2
*D14
 10
384.0415450433536
 20
-81.13231244321132
 30
0.0
 11
376.5415450433534
 21
-78.13231244321132
 31
0.0
 70
    32
 71
     5
 42
-1.0
  3
STANDARD
100
AcDbAlignedDimension
 13
369.0415450433535
 23
-69.50000001650002
 33
0.0
 14
384.0415450433536
 24
-76.28708784337162
 34
0.0
 50
180.0
100
AcDbRotatedDimension
  0
CIRCLE
  5
85F1
330
1E
100
AcDbEntity
  8
24
100
AcDbCircle
 10
369.0415450433535
 20
-67.0
 30
0.0
 40
4.25
  0
LINE
  5
85F2
330
1E
100
AcDbEntity
  8
0
100
AcDbLine
 10
282.0415450433533
 20
74.12499999999987
 30
0.0
 11
348.5415450433536
 21
74.12499999999987
 31
0.0
  0
LINE
  5
85F3
330
1E
100
AcDbEntity
  8
0
100
AcDbLine
 10
282.0415450433533
 20
59.87499999999993
 30
0.0
 11
348.5415450433536
 21
59.87499999999993
 31
0.0
  0
LINE
  5
85F4
330
1E
100
AcDbEntity
  8
0
100
AcDbLine
 10
277.0415450433535
 20
66.99999999999993
 30
0.0
 11
394.0415450433535
 21
66.99999999999993
 31
0.0
  0
LINE
  5
85F5
330
1E
100
AcDbEntity
  8
0
100
AcDbLine
 10
298.5415450433535
 20
69.49999999999993
 30
0.0
 11
334.0415450433535
 21
69.49999999999993
 31
0.0
  0
LINE
  5
85F6
330
1E
100
AcDbEntity
  8
0
100
AcDbLine
 10
298.5415450433535
 20
64.49999999999993
 30
0.0
 11
334.0415450433535
 21
64.49999999999993
 31
0.0
  0
LINE
  5
85F9
330
1E
100
AcDbEntity
  8
18
100
AcDbLine
 10
282.0415450433533
 20
96.99999999999995
 30
0.0
 11
282.0415450433533
 21
77.5000000000001
 31
0.0
  0
LINE
  5
85FB
330
1E
100
AcDbEntity
  8
10
100
AcDbLine
 10
206.0415450433535
 20
6.840789306861211
 30
0.0
 11
194.0462912437581
 21
15.23995644007658
 31
0.0
  0
LINE
  5
85FC
330
1E
100
AcDbEntity
  8
10
100
AcDbLine
 10
206.0415450433535
 20
14.16543683943
 30
0.0
 11
197.4877498618644
 21
20.1548687058106
 31
0.0
  0
LINE
  5
85FF
330
1E
100
AcDbEntity
  8
10
100
AcDbLine
 10
194.0462912437581
 20
15.23995644007658
 30
0.0
 11
197.4877498618644
 21
20.1548687058106
 31
0.0
  0
ARC
  5
8602
330
1E
100
AcDbEntity
  8
0
100
AcDbCircle
 10
221.0415450433536
 20
0.0
 30
0.0
 40
31.0
100
AcDbArc
 50
150.5534441956585
 51
180.0
  0
LINE
  5
8603
330
1E
100
AcDbEntity
  8
10
100
AcDbLine
 10
214.0415450433535
 20
50.99999999999988
 30
0.0
 11
214.0415450433535
 21
-51.00000000000003
 31
0.0
  0
LINE
  5
8604
330
1E
100
AcDbEntity
  8
10
100
AcDbLine
 10
210.0415450433535
 20
24.99999999999994
 30
0.0
 11
210.0415450433535
 21
-25.0
 31
0.0
  0
LINE
  5
8605
330
1E
100
AcDbEntity
  8
10
100
AcDbLine
 10
206.0415450433535
 20
24.99999999999994
 30
0.0
 11
206.0415450433535
 21
-25.0
 31
0.0
  0
LINE
  5
8606
330
1E
100
AcDbEntity
  8
10
100
AcDbLine
 10
214.0415450433535
 20
-51.00000000000003
 30
0.0
 11
221.0415450433536
 21
-51.00000000000003
 31
0.0
  0
LINE
  5
8607
330
1E
100
AcDbEntity
  8
10
100
AcDbLine
 10
206.0415450433535
 20
-25.0
 30
0.0
 11
214.0415450433535
 21
-25.0
 31
0.0
  0
LINE
  5
8608
330
1E
100
AcDbEntity
  8
0
100
AcDbLine
 10
282.0415450433533
 20
-59.875
 30
0.0
 11
305.1587926044315
 21
-59.875
 31
0.0
  0
LINE
  5
8609
330
1E
100
AcDbEntity
  8
10
100
AcDbLine
 10
221.0415450433536
 20
77.5000000000001
 30
0.0
 11
282.0415450433533
 21
77.5000000000001
 31
0.0
  0
LINE
  5
860A
330
1E
100
AcDbEntity
  8
10
100
AcDbLine
 10
221.0415450433536
 20
77.5000000000001
 30
0.0
 11
221.0415450433536
 21
50.99999999999988
 31
0.0
  0
LINE
  5
860B
330
1E
100
AcDbEntity
  8
10
100
AcDbLine
 10
206.0415450433535
 20
24.99999999999994
 30
0.0
 11
214.0415450433535
 21
24.99999999999994
 31
0.0
  0
LINE
  5
860C
330
1E
100
AcDbEntity
  8
10
100
AcDbLine
 10
214.0415450433535
 20
50.99999999999988
 30
0.0
 11
221.0415450433536
 21
50.99999999999988
 31
0.0
  0
LINE
  5
860D
330
1E
100
AcDbEntity
  8
0
100
AcDbLine
 10
298.5415450433535
 20
74.12499999999987
 30
0.0
 11
298.5415450433535
 21
59.87499999999993
 31
0.0
  0
LINE
  5
860E
330
1E
100
AcDbEntity
  8
0
100
AcDbLine
 10
304.0415450433536
 20
69.49999999999993
 30
0.0
 11
304.0415450433536
 21
64.49999999999993
 31
0.0
  0
LINE
  5
860F
330
1E
100
AcDbEntity
  8
0
100
AcDbLine
 10
355.6353172870423
 20
-59.00000000000003
 30
0.0
 11
381.8979515039046
 21
-59.00000000000003
 31
0.0
  0
LINE
  5
8610
330
1E
100
AcDbEntity
  8
0
100
AcDbLine
 10
305.6353172870424
 20
-59.00000000000003
 30
0.0
 11
331.8979515039046
 21
-59.00000000000003
 31
0.0
  0
LINE
  5
8611
330
1E
100
AcDbEntity
  8
0
100
AcDbLine
 10
332.3675484986093
 20
-59.875
 30
0.0
 11
348.5415450433536
 21
-59.875
 31
0.0
  0
LINE
  5
8612
330
1E
100
AcDbEntity
  8
0
100
AcDbLine
 10
348.5415450433536
 20
64.49999999999993
 30
0.0
 11
384.0415450433536
 21
64.49999999999993
 31
0.0
  0
LINE
  5
8613
330
1E
100
AcDbEntity
  8
0
100
AcDbLine
 10
348.5415450433536
 20
69.49999999999993
 30
0.0
 11
384.0415450433536
 21
69.49999999999993
 31
0.0
  0
LINE
  5
8614
330
1E
100
AcDbEntity
  8
17
100
AcDbLine
 10
319.0415450433535
 20
73.24999999999993
 30
0.0
 11
319.0415450433535
 21
60.74999999999992
 31
0.0
  0
LINE
  5
8615
330
1E
100
AcDbEntity
  8
0
100
AcDbLine
 10
334.0415450433535
 20
69.49999999999993
 30
0.0
 11
334.0415450433535
 21
64.49999999999993
 31
0.0
  0
LINE
  5
8616
330
1E
100
AcDbEntity
  8
0
100
AcDbLine
 10
348.5415450433536
 20
74.12499999999987
 30
0.0
 11
348.5415450433536
 21
59.87499999999993
 31
0.0
  0
LINE
  5
8617
330
1E
100
AcDbEntity
  8
0
100
AcDbLine
 10
354.0415450433535
 20
69.49999999999993
 30
0.0
 11
354.0415450433535
 21
64.49999999999993
 31
0.0
  0
DIMENSION
  5
8618
330
1E
100
AcDbEntity
  8
30
100
AcDbDimension
  2
*D4
 10
408.0191311370207
 20
69.49999999999993
 30
0.0
 11
408.0191311370207
 21
75.83333333333334
 31
0.0
 70
   160
 71
     5
 42
-1.0
  3
STANDARD
100
AcDbAlignedDimension
 13
384.0415450433536
 23
64.49999999999993
 33
0.0
 14
384.0415450433536
 24
69.49999999999993
 34
0.0
 50
270.0
100
AcDbRotatedDimension
1001
ACAD
1000
DSTYLE
1002
{
1070
   172
1070
     1
1002
}
  0
LINE
  5
8619
330
1E
100
AcDbEntity
  8
17
100
AcDbLine
 10
369.0415450433535
 20
73.24999999999993
 30
0.0
 11
369.0415450433535
 21
60.74999999999992
 31
0.0
  0
LINE
  5
861A
330
1E
100
AcDbEntity
  8
0
100
AcDbLine
 10
384.0415450433536
 20
69.49999999999993
 30
0.0
 11
384.0415450433536
 21
64.49999999999993
 31
0.0
  0
DIMENSION
  5
87E8
330
1E
100
AcDbEntity
  8
30
100
AcDbDimension
  2
*D15
 10
-0.0000000000002268
 20
313.4340221653556
 30
0.0
 11
-15.00000000000022
 21
316.4340221653556
 31
0.0
 70
    32
 71
     5
 42
-1.0
  3
STANDARD
100
AcDbAlignedDimension
 13
-30.00000000000023
 23
259.8811670622456
 33
0.0
 14
-0.0000000000002274
 24
304.8811670622456
 34
0.0
100
AcDbRotatedDimension
1001
ACAD
1000
DSTYLE
1002
{
1070
    79
1070
     3
1002
}
  0
DIMENSION
  5
87F5
330
1E
100
AcDbEntity
  8
30
100
AcDbDimension
  2
*D16
 10
29.99999999999977
 20
313.4340221653556
 30
0.0
 11
14.99999999999976
 21
316.4340221653556
 31
0.0
 70
    32
 71
     5
 42
-1.0
  3
STANDARD
100
AcDbAlignedDimension
 13
-0.0000000000002274
 23
304.8811670622456
 33
0.0
 14
29.99999999999977
 24
259.8811670622456
 34
0.0
100
AcDbRotatedDimension
1001
ACAD
1000
DSTYLE
1002
{
1070
   287
1070
     4
1070
   287
1070
     4
1070
   279
1070
     1
1070
    79
1070
     3
1002
}
  0
DIMENSION
  5
883C
330
1E
100
AcDbEntity
  8
30
100
AcDbDimension
  2
*D17
 10
-79.89493462656309
 20
-77.5
 30
0.0
 11
-82.89493462656308
 21
-0.0000000000000374
 31
0.0
 70
    32
 71
     5
 42
-1.0
  3
STANDARD
100
AcDbAlignedDimension
 13
-45.0
 23
77.49999999999992
 33
0.0
 14
-45.0
 24
-77.5
 34
0.0
 50
90.0
100
AcDbRotatedDimension
1001
ACAD
1000
DSTYLE
1002
{
1070
    79
1070
     3
1002
}
  0
DIMENSION
  5
8852
330
1E
100
AcDbEntity
  8
30
100
AcDbDimension
  2
*D18
 10
-69.33461828766349
 20
-51.00000000000002
 30
0.0
 11
-72.33461828766349
 21
-0.0000000000000735
 31
0.0
 70
    32
 71
     5
 42
-1.0
  3
STANDARD
100
AcDbAlignedDimension
 13
-45.0
 23
50.99999999999988
 33
0.0
 14
-45.0
 24
-51.00000000000003
 34
0.0
 50
90.0
100
AcDbRotatedDimension
1001
ACAD
1000
DSTYLE
1002
{
1070
    79
1070
     3
1002
}
  0
DIMENSION
  5
885F
330
1E
100
AcDbEntity
  8
30
100
AcDbDimension
  2
*D19
 10
-59.9476684811939
 20
-25.0
 30
0.0
 11
-62.94766848119389
 21
-0.000000000000035
 31
0.0
 70
    32
 71
     5
 42
-1.0
  3
STANDARD
100
AcDbAlignedDimension
 13
-42.0
 23
24.99999999999994
 33
0.0
 14
-42.0
 24
-25.0
 34
0.0
 50
90.0
100
AcDbRotatedDimension
1001
ACAD
1000
DSTYLE
1002
{
1070
    79
1070
     3
1002
}
  0
DIMENSION
  5
8D3E
330
1E
100
AcDbEntity
  8
30
100
AcDbDimension
  2
*D20
 10
282.0415450433536
 20
-155.1114571606904
 30
0.0
 11
236.0415450433535
 21
-152.1114571606904
 31
0.0
 70
    32
 71
     5
 42
-1.0
  3
STANDARD
100
AcDbAlignedDimension
 13
190.0415450433535
 23
0.0000000000000038
 33
0.0
 14
282.0415450433536
 24
-142.8823124432113
 34
0.0
100
AcDbRotatedDimension
  0
DIMENSION
  5
8D63
330
1E
100
AcDbEntity
  8
30
100
AcDbDimension
  2
*D21
 10
424.0609929336933
 20
-67.00000000000001
 30
0.0
 11
421.0609929336933
 21
0.0000000000000241
 31
0.0
 70
    32
 71
     5
 42
-1.0
  3
STANDARD
100
AcDbAlignedDimension
 13
394.0415450433535
 23
66.99999999999993
 33
0.0
 14
394.0415450433535
 24
-67.0
 34
0.0
 50
90.0
100
AcDbRotatedDimension
  0
LINE
  5
928D
330
1E
100
AcDbEntity
  8
18
 48
2.0
100
AcDbLine
 10
-45.0
 20
-157.5
 30
0.0
 11
-45.0
 21
-312.5
 31
0.0
  0
LINE
  5
928E
330
1E
100
AcDbEntity
  8
18
 48
2.0
100
AcDbLine
 10
45.0
 20
-312.5
 30
0.0
 11
45.0
 21
-157.5
 31
0.0
  0
LINE
  5
928F
330
1E
100
AcDbEntity
  8
22
100
AcDbLine
 10
30.0
 20
-290.0
 30
0.0
 11
30.0
 21
-314.0
 31
0.0
  0
LINE
  5
9290
330
1E
100
AcDbEntity
  8
22
100
AcDbLine
 10
-30.0
 20
-290.0
 30
0.0
 11
-30.0
 21
-314.0
 31
0.0
  0
CIRCLE
  5
9293
330
1E
100
AcDbEntity
  8
22
100
AcDbCircle
 10
0.0
 20
-302.0
 30
0.0
 40
9.0
210
0.0
220
0.0
230
-1.0
  0
CIRCLE
  5
9294
330
1E
100
AcDbEntity
  8
22
100
AcDbCircle
 10
-30.0
 20
-302.0
 30
0.0
 40
9.0
210
0.0
220
0.0
230
-1.0
  0
CIRCLE
  5
9295
330
1E
100
AcDbEntity
  8
22
100
AcDbCircle
 10
30.0
 20
-302.0
 30
0.0
 40
9.0
210
0.0
220
0.0
230
-1.0
  0
DIMENSION
  5
9297
330
1E
100
AcDbEntity
  8
30
100
AcDbDimension
  2
*D22
 10
86.13994386719971
 20
-168.0
 30
0.0
 11
83.13994386719974
 21
-235.0
 31
0.0
 70
    32
 71
     5
 42
-1.0
  3
STANDARD
100
AcDbAlignedDimension
 13
32.50000001650004
 23
-302.0
 33
0.0
 14
32.50000001650004
 24
-168.0
 34
0.0
 50
270.0
100
AcDbRotatedDimension
  0
LINE
  5
9298
330
1E
100
AcDbEntity
  8
18
 48
2.0
100
AcDbLine
 10
-45.0
 20
-312.5
 30
0.0
 11
45.0
 21
-312.5
 31
0.0
  0
LINE
  5
9299
330
1E
100
AcDbEntity
  8
22
100
AcDbLine
 10
-41.99999999999977
 20
-302.0
 30
0.0
 11
42.00000000000023
 21
-302.0
 31
0.0
  0
LINE
  5
929D
330
1E
100
AcDbEntity
  8
22
100
AcDbLine
 10
11.00000000000022
 20
-301.0
 30
0.0
 11
19.00000000000022
 21
-301.0
 31
0.0
  0
CIRCLE
  5
929E
330
1E
100
AcDbEntity
  8
12
100
AcDbCircle
 10
-15.0
 20
-301.0
 30
0.0
 40
2.0
210
0.0
220
0.0
230
-1.0
  0
LINE
  5
929F
330
1E
100
AcDbEntity
  8
22
100
AcDbLine
 10
14.99999999999841
 20
-296.9999999999998
 30
0.0
 11
14.99999999999841
 21
-304.9999999999998
 31
0.0
  0
LINE
  5
92A0
330
1E
100
AcDbEntity
  8
18
 48
2.0
100
AcDbLine
 10
45.0
 20
-157.5
 30
0.0
 11
-45.0
 21
-157.5
 31
0.0
  0
LINE
  5
92A1
330
1E
100
AcDbEntity
  8
22
100
AcDbLine
 10
-41.99999999999977
 20
-168.0
 30
0.0
 11
42.00000000000023
 21
-168.0
 31
0.0
  0
LINE
  5
92A2
330
1E
100
AcDbEntity
  8
22
100
AcDbLine
 10
-30.0
 20
-156.0
 30
0.0
 11
-30.0
 21
-180.0
 31
0.0
  0
CIRCLE
  5
92A3
330
1E
100
AcDbEntity
  8
22
100
AcDbCircle
 10
-30.0
 20
-168.0
 30
0.0
 40
9.0
  0
LINE
  5
92A4
330
1E
100
AcDbEntity
  8
22
100
AcDbLine
 10
-15.00000000000158
 20
-173.0000000000002
 30
0.0
 11
-15.00000000000158
 21
-165.0000000000002
 31
0.0
  0
CIRCLE
  5
92A5
330
1E
100
AcDbEntity
  8
12
100
AcDbCircle
 10
-15.0
 20
-169.0
 30
0.0
 40
2.0
  0
LINE
  5
92A6
330
1E
100
AcDbEntity
  8
22
100
AcDbLine
 10
-18.99999999999977
 20
-169.0
 30
0.0
 11
-10.99999999999975
 21
-169.0
 31
0.0
  0
LINE
  5
92A7
330
1E
100
AcDbEntity
  8
22
100
AcDbLine
 10
30.0
 20
-156.0
 30
0.0
 11
30.0
 21
-180.0
 31
0.0
  0
CIRCLE
  5
92AA
330
1E
100
AcDbEntity
  8
22
100
AcDbCircle
 10
0.0
 20
-168.0
 30
0.0
 40
9.0
  0
CIRCLE
  5
92AC
330
1E
100
AcDbEntity
  8
22
100
AcDbCircle
 10
30.0
 20
-168.0
 30
0.0
 40
9.0
  0
LEADER
  5
92DA
330
1E
100
AcDbEntity
  8
30
100
AcDbLeader
  3
STANDARD
 76
     3
 10
-15.00000000000158
 20
-167.0
 30
0.0
 10
-22.07844622925903
 20
-140.0564045549737
 30
0.0
 10
-35.23329131204899
 20
-140.0564045549737
 30
0.0
1001
ACAD
1000
DSTYLE
1002
{
1070
     5
1000
OPEN
1070
    77
1070
     0
1070
    79
1070
     3
1070
   147
1040
1.0
1070
   342
1005
3B2
1002
}
  0
TEXT
  5
92DB
330
1E
100
AcDbEntity
  8
30
100
AcDbText
 10
-33.90451773441919
 20
-139.3927796677433
 30
0.0
 40
5.0
  1
M4
  7
STANDARD1
100
AcDbText
  0
LEADER
  5
92DC
330
1E
100
AcDbEntity
  8
30
100
AcDbLeader
  3
STANDARD
 76
     3
 10
-34.33150370606607
 20
-309.8887041697705
 30
0.0
 10
-39.7794711630604
 20
-321.1703174697388
 30
0.0
 10
-59.44530045930425
 20
-321.1703174697388
 30
0.0
1001
ACAD
1000
DSTYLE
1002
{
1070
     5
1000
OPEN
1070
    77
1070
     0
1070
    79
1070
     3
1070
   147
1040
1.0
1070
   342
1005
3B2
1002
}
  0
TEXT
  5
92DD
330
1E
100
AcDbEntity
  8
30
100
AcDbText
 10
-55.19322641465169
 20
-320.1085183023666
 30
0.0
 40
4.0
  1
%%c18
  7
STANDARD1
100
AcDbText
  0
DIMENSION
  5
92DE
330
1E
100
AcDbEntity
  8
30
100
AcDbDimension
  2
*D23
 10
14.9999999999984
 20
-330.0941269446008
 30
0.0
 11
-0.0000000000015968
 21
-327.0941269446008
 31
0.0
 70
    32
 71
     5
 42
-1.0
  3
STANDARD
100
AcDbAlignedDimension
 13
-15.00000000000158
 23
-173.0000000000002
 33
0.0
 14
14.99999999999841
 24
-304.9999999999998
 34
0.0
100
AcDbRotatedDimension
  0
DIMENSION
  5
92F4
330
1E
100
AcDbEntity
  8
30
100
AcDbDimension
  2
*D24
 10
-0.0000000000000014
 20
-339.7034767486353
 30
0.0
 11
-15.0
 21
-336.7034767486353
 31
0.0
 70
    32
 71
     5
 42
-1.0
  3
STANDARD
100
AcDbAlignedDimension
 13
-30.0
 23
-314.0
 33
0.0
 14
0.0
 24
-317.4374692359974
 34
0.0
100
AcDbRotatedDimension
1001
ACAD
1000
DSTYLE
1002
{
1070
    79
1070
     3
1002
}
  0
DIMENSION
  5
9301
330
1E
100
AcDbEntity
  8
30
100
AcDbDimension
  2
*D25
 10
30.0
 20
-339.7034767486353
 30
0.0
 11
15.0
 21
-336.7034767486353
 31
0.0
 70
    32
 71
     5
 42
-1.0
  3
STANDARD
100
AcDbAlignedDimension
 13
0.0
 23
-317.4374692359974
 33
0.0
 14
30.0
 24
-314.0
 34
0.0
100
AcDbRotatedDimension
1001
ACAD
1000
DSTYLE
1002
{
1070
   287
1070
     4
1070
   287
1070
     4
1070
   279
1070
     1
1070
    79
1070
     3
1002
}
  0
DIMENSION
  5
931B
330
1E
100
AcDbEntity
  8
30
100
AcDbDimension
  2
*D26
 10
70.74733980819745
 20
-301.0
 30
0.0
 11
67.74733980819751
 21
-235.0
 31
0.0
 70
    32
 71
     5
 42
-1.0
  3
STANDARD
100
AcDbAlignedDimension
 13
19.00000000000022
 23
-169.0
 33
0.0
 14
19.00000000000022
 24
-301.0
 34
0.0
 50
90.0
100
AcDbRotatedDimension
1001
ACAD
1000
DSTYLE
1002
{
1070
    79
1070
     3
1002
}
  0
LEADER
  5
933A
330
1E
100
AcDbEntity
  8
30
100
AcDbLeader
  3
STANDARD
 76
     3
 10
319.0415450433535
 20
-63.49999998350003
 30
0.0
 10
332.972983731351
 20
-45.65132818552386
 30
0.0
 10
360.6048603186798
 20
-45.65132818552386
 30
0.0
1001
ACAD
1000
DSTYLE
1002
{
1070
     5
1000
OPEN
1070
    77
1070
     0
1070
    79
1070
     3
1070
   147
1040
1.0
1070
   342
1005
3B2
1002
}
  0
TEXT
  5
933B
330
1E
100
AcDbEntity
  8
30
100
AcDbText
 10
337.1702303192559
 20
-44.60321862834007
 30
0.0
 40
4.0
  1
%%c8.5
  7
STANDARD1
100
AcDbText
  0
LINE
  5
94F4
330
1E
100
AcDbEntity
  8
18
100
AcDbLine
 10
84.01770323792865
 20
3.000000000000017
 30
0.0
 11
110.4999999999999
 21
3.000000000000017
 31
0.0
  0
LINE
  5
94F5
330
1E
100
AcDbEntity
  8
18
100
AcDbLine
 10
83.5319992477356
 20
1.000000000000017
 30
0.0
 11
110.4999999999999
 21
1.000000000000017
 31
0.0
  0
LINE
  5
94F6
330
1E
100
AcDbEntity
  8
18
100
AcDbLine
 10
83.86990379777612
 20
-0.9999999999999822
 30
0.0
 11
110.4999999999999
 21
-0.9999999999999822
 31
0.0
  0
LINE
  5
94F7
330
1E
100
AcDbEntity
  8
18
100
AcDbLine
 10
82.66646632145505
 20
-2.999999999999982
 30
0.0
 11
110.4999999999999
 21
-2.999999999999982
 31
0.0
  0
LINE
  5
94F8
330
1E
100
AcDbEntity
  8
18
100
AcDbLine
 10
125.5
 20
1.000000000000017
 30
0.0
 11
158.0
 21
1.000000000000017
 31
0.0
  0
LINE
  5
94F9
330
1E
100
AcDbEntity
  8
18
100
AcDbLine
 10
125.5
 20
-0.9999999999999822
 30
0.0
 11
158.0
 21
-0.9999999999999822
 31
0.0
  0
LINE
  5
94FA
330
1E
100
AcDbEntity
  8
18
100
AcDbLine
 10
125.5
 20
3.000000000000017
 30
0.0
 11
158.0
 21
3.000000000000017
 31
0.0
  0
LINE
  5
94FB
330
1E
100
AcDbEntity
  8
18
100
AcDbLine
 10
125.5
 20
-2.999999999999982
 30
0.0
 11
158.0
 21
-2.999999999999982
 31
0.0
  0
LINE
  5
94FC
330
1E
100
AcDbEntity
  8
18
100
AcDbLine
 10
110.4999999999999
 20
3.500000000000017
 30
0.0
 11
125.5
 21
3.500000000000017
 31
0.0
  0
LINE
  5
94FD
330
1E
100
AcDbEntity
  8
18
100
AcDbLine
 10
110.4999999999999
 20
-3.499999999999982
 30
0.0
 11
125.5
 21
-3.499999999999982
 31
0.0
  0
LINE
  5
94FE
330
1E
100
AcDbEntity
  8
18
100
AcDbLine
 10
110.4999999999999
 20
-3.499999999999982
 30
0.0
 11
110.4999999999999
 21
3.500000000000017
 31
0.0
  0
LINE
  5
94FF
330
1E
100
AcDbEntity
  8
18
100
AcDbLine
 10
125.5
 20
-3.499999999999982
 30
0.0
 11
125.5
 21
3.500000000000017
 31
0.0
  0
LINE
  5
9500
330
1E
100
AcDbEntity
  8
18
100
AcDbLine
 10
163.0
 20
1.500000000000017
 30
0.0
 11
163.0
 21
2.500000000000016
 31
0.0
  0
LINE
  5
9501
330
1E
100
AcDbEntity
  8
18
100
AcDbLine
 10
163.0
 20
-0.4999999999999824
 30
0.0
 11
163.0
 21
0.5000000000000178
 31
0.0
  0
LINE
  5
9502
330
1E
100
AcDbEntity
  8
18
100
AcDbLine
 10
158.0
 20
1.000000000000017
 30
0.0
 11
158.0
 21
3.000000000000017
 31
0.0
  0
LINE
  5
9503
330
1E
100
AcDbEntity
  8
18
100
AcDbLine
 10
158.0
 20
-0.9999999999999822
 30
0.0
 11
158.0
 21
1.000000000000017
 31
0.0
  0
LINE
  5
9504
330
1E
100
AcDbEntity
  8
18
100
AcDbLine
 10
158.0
 20
2.500000000000016
 30
0.0
 11
163.0
 21
2.500000000000016
 31
0.0
  0
LINE
  5
9505
330
1E
100
AcDbEntity
  8
18
100
AcDbLine
 10
158.0
 20
1.500000000000017
 30
0.0
 11
163.0
 21
1.500000000000017
 31
0.0
  0
LINE
  5
9506
330
1E
100
AcDbEntity
  8
18
100
AcDbLine
 10
158.0
 20
0.5000000000000178
 30
0.0
 11
163.0
 21
0.5000000000000178
 31
0.0
  0
LINE
  5
9507
330
1E
100
AcDbEntity
  8
18
100
AcDbLine
 10
158.0
 20
-0.4999999999999824
 30
0.0
 11
163.0
 21
-0.4999999999999824
 31
0.0
  0
LINE
  5
9508
330
1E
100
AcDbEntity
  8
18
100
AcDbLine
 10
163.0
 20
-2.499999999999981
 30
0.0
 11
163.0
 21
-1.499999999999981
 31
0.0
  0
LINE
  5
9509
330
1E
100
AcDbEntity
  8
18
100
AcDbLine
 10
158.0
 20
-1.499999999999981
 30
0.0
 11
163.0
 21
-1.499999999999981
 31
0.0
  0
LINE
  5
950A
330
1E
100
AcDbEntity
  8
18
100
AcDbLine
 10
158.0
 20
-2.499999999999981
 30
0.0
 11
163.0
 21
-2.499999999999981
 31
0.0
  0
LINE
  5
950B
330
1E
100
AcDbEntity
  8
18
100
AcDbLine
 10
158.0
 20
-2.999999999999982
 30
0.0
 11
158.0
 21
-0.9999999999999822
 31
0.0
  0
LINE
  5
950D
330
1E
100
AcDbEntity
  8
18
100
AcDbLine
 10
42.00000000000001
 20
3.000000000000017
 30
0.0
 11
80.01770323792866
 21
3.000000000000017
 31
0.0
  0
LINE
  5
950E
330
1E
100
AcDbEntity
  8
18
100
AcDbLine
 10
42.00000000000001
 20
1.000000000000017
 30
0.0
 11
79.5319992477354
 21
1.000000000000017
 31
0.0
  0
LINE
  5
950F
330
1E
100
AcDbEntity
  8
18
100
AcDbLine
 10
42.00000000000001
 20
-0.9999999999999822
 30
0.0
 11
79.86990379777616
 21
-0.9999999999999822
 31
0.0
  0
LINE
  5
9510
330
1E
100
AcDbEntity
  8
18
100
AcDbLine
 10
42.00000000000001
 20
-2.999999999999982
 30
0.0
 11
78.66646632145505
 21
-2.999999999999982
 31
0.0
  0
LINE
  5
95A0
330
1E
100
AcDbEntity
  8
10
  6
CONTINOUS
100
AcDbLine
 10
30.69999999999999
 20
-12.49999999999997
 30
0.0
 11
30.69999999999999
 21
-15.49999999999997
 31
0.0
  0
LINE
  5
95A1
330
1E
100
AcDbEntity
  8
10
  6
CONTINOUS
100
AcDbLine
 10
22.69999999999999
 20
-12.49999999999997
 30
0.0
 11
22.69999999999999
 21
-15.49999999999997
 31
0.0
  0
LINE
  5
95A2
330
1E
100
AcDbEntity
  8
10
  6
CONTINOUS
100
AcDbLine
 10
22.69999999999999
 20
-15.49999999999997
 30
0.0
 11
30.69999999999999
 21
-15.49999999999997
 31
0.0
  0
CIRCLE
  5
95A3
330
1E
100
AcDbEntity
  8
10
  6
CONTINOUS
100
AcDbCircle
 10
26.19999999999999
 20
-1.899999999999975
 30
0.0
 40
2.6
  0
CIRCLE
  5
95A4
330
1E
100
AcDbEntity
  8
10
  6
CONTINOUS
100
AcDbCircle
 10
26.19999999999999
 20
-1.899999999999975
 30
0.0
 40
3.6
  0
LINE
  5
95A5
330
1E
100
AcDbEntity
  8
10
  6
CONTINOUS
100
AcDbLine
 10
22.69999999999999
 20
-12.49999999999997
 30
0.0
 11
30.69999999999999
 21
-12.49999999999997
 31
0.0
  0
LINE
  5
95A6
330
1E
100
AcDbEntity
  8
10
  6
CONTINOUS
100
AcDbLine
 10
22.69999999999999
 20
-10.49999999999996
 30
0.0
 11
30.69999999999999
 21
-10.49999999999996
 31
0.0
  0
LINE
  5
95A7
330
1E
100
AcDbEntity
  8
10
  6
CONTINOUS
100
AcDbLine
 10
22.69999999999999
 20
-7.499999999999971
 30
0.0
 11
30.69999999999999
 21
-7.499999999999971
 31
0.0
  0
CIRCLE
  5
95A8
330
1E
100
AcDbEntity
  8
10
  6
CONTINOUS
100
AcDbCircle
 10
26.19999999999999
 20
5.80000000000004
 30
0.0
 40
2.6
  0
CIRCLE
  5
95A9
330
1E
100
AcDbEntity
  8
10
  6
CONTINOUS
100
AcDbCircle
 10
26.19999999999999
 20
5.80000000000004
 30
0.0
 40
3.6
  0
LINE
  5
95AA
330
1E
100
AcDbEntity
  8
10
  6
CONTINOUS
100
AcDbLine
 10
22.69999999999999
 20
-7.499999999999971
 30
0.0
 11
22.69999999999999
 21
-10.49999999999996
 31
0.0
  0
LINE
  5
95AB
330
1E
100
AcDbEntity
  8
10
  6
CONTINOUS
100
AcDbLine
 10
30.69999999999999
 20
-7.499999999999971
 30
0.0
 11
30.69999999999999
 21
-10.49999999999996
 31
0.0
  0
CIRCLE
  5
95AC
330
1E
100
AcDbEntity
  8
10
  6
CONTINOUS
100
AcDbCircle
 10
26.19999999999999
 20
12.30000000000003
 30
0.0
 40
1.5
  0
MTEXT
  5
95EE
330
1E
100
AcDbEntity
  8
30
100
AcDbMText
 10
181.2670760893188
 20
205.5694851472869
 30
0.0
 40
5.0
 41
259.8912
 71
     1
 72
     5
  1
ZAS100-NF 3P RC\PZAS100-GF 3P RC\PZAS125-NF 3P RC\PZAS125-GF 3P RC
  7
STANDARD1
 73
     1
 44
1.0
  0
VIEWPORT
  5
9AC
330
1A
100
AcDbEntity
 67
     1
  8
0
  6
Continuous
100
AcDbViewport
 10
171.9995348790992
 20
144.1384735538403
 30
0.0
 40
488.8676857773511
 41
292.3514905034161
 68
     1
 69
     1
 12
171.9995348790992
 22
144.1384735538403
 13
0.0
 23
0.0
 14
10.0
 24
10.0
 15
10.0
 25
10.0
 16
0.0
 26
0.0
 36
1.0
 17
0.0
 27
0.0
 37
0.0
 42
50.0
 43
0.0
 44
0.0
 45
292.3514905034161
 50
0.0
 51
0.0
 72
   100
 90
    32800
  1

281
     0
 71
     1
 74
     0
110
0.0
120
0.0
130
0.0
111
1.0
121
0.0
131
0.0
112
0.0
122
1.0
132
0.0
 79
     0
146
0.0
  0
ENDSEC
  0
SECTION
  2
OBJECTS
  0
DICTIONARY
  5
C
330
0
100
AcDbDictionary
281
     1
  3
ACAD_GROUP
350
D
  3
ACAD_LAYOUT
350
19
  3
ACAD_MLINESTYLE
350
16
  3
ACAD_PLOTSETTINGS
350
18
  3
ACAD_PLOTSTYLENAME
350
E
  3
ACADDIM
350
92CE
  3
ACDBVARIABLEDICTIONARY
350
5B5E
  0
DICTIONARY
  5
178
330
1E
100
AcDbDictionary
280
     1
281
     1
  3
ACAD_LAYOUTSELFREF
360
95D1
  0
DICTIONARY
  5
17A
330
1A
100
AcDbDictionary
280
     1
281
     1
  3
ACAD_LAYOUTSELFREF
360
95D0
  0
DICTIONARY
  5
D
102
{ACAD_REACTORS
330
C
102
}
330
C
100
AcDbDictionary
281
     1
  0
DICTIONARY
  5
19
102
{ACAD_REACTORS
330
C
102
}
330
C
100
AcDbDictionary
281
     1
  3
Model
350
95EB
  3
ﾚｲｱｳﾄ1
350
95EC
  0
DICTIONARY
  5
16
102
{ACAD_REACTORS
330
C
102
}
330
C
100
AcDbDictionary
281
     1
  3
STANDARD
350
17
  0
DICTIONARY
  5
18
102
{ACAD_REACTORS
330
C
102
}
330
C
100
AcDbDictionary
281
     1
  0
ACDBDICTIONARYWDFLT
  5
E
102
{ACAD_REACTORS
330
C
102
}
330
C
100
AcDbDictionary
281
     1
  3
Normal
350
F
100
AcDbDictionaryWithDefault
340
F
  0
XRECORD
  5
92CE
102
{ACAD_REACTORS
330
C
102
}
330
C
100
AcDbXrecord
280
     1
 90
   990106
  3

 60
     0
 61
     0
 62
     1
 63
     3
 64
     0
 65
     0
 66
     0
 67
     3
 68
     1
 69
     0
 70
     0
 71
     0
 72
     0
 40
0.0
170
     0
  0
DICTIONARY
  5
5B5E
102
{ACAD_REACTORS
330
C
102
}
330
C
100
AcDbDictionary
281
     1
  3
DIMASSOC
350
5B5F
  0
XRECORD
  5
95D1
102
{ACAD_REACTORS
330
178
102
}
330
178
100
AcDbXrecord
280
     1
340
1E
  0
XRECORD
  5
95D0
102
{ACAD_REACTORS
330
17A
102
}
330
17A
100
AcDbXrecord
280
     1
340
1A
  0
LAYOUT
  5
95EB
102
{ACAD_REACTORS
330
19
102
}
330
19
100
AcDbPlotSettings
  1

  2
Canon LBP3800 LIPSLX
  4

  6

 40
0.0
 41
0.0
 42
0.0
 43
0.0
 44
0.0
 45
0.0
 46
0.0
 47
0.0
 48
0.0
 49
0.0
140
0.0
141
0.0
142
1.0
143
1.0
 70
  1712
 72
     0
 73
     0
 74
     0
  7
monochrome.ctb
 75
     0
147
1.0
148
0.0
149
0.0
100
AcDbLayout
  1
Model
 70
     1
 71
     0
 10
0.0
 20
0.0
 11
12.0
 21
9.0
 12
0.0
 22
0.0
 32
0.0
 14
0.0
 24
0.0
 34
0.0
 15
0.0
 25
0.0
 35
0.0
146
0.0
 13
0.0
 23
0.0
 33
0.0
 16
1.0
 26
0.0
 36
0.0
 17
0.0
 27
1.0
 37
0.0
 76
     0
330
1E
  0
LAYOUT
  5
95EC
102
{ACAD_REACTORS
330
19
102
}
330
19
100
AcDbPlotSettings
  1

  2
Canon LBP3800 LIPSLX
  4

  6

 40
0.0
 41
0.0
 42
0.0
 43
0.0
 44
0.0
 45
0.0
 46
0.0
 47
0.0
 48
0.0
 49
0.0
140
0.0
141
0.0
142
1.0
143
1.0
 70
   688
 72
     0
 73
     0
 74
     5
  7
monochrome.ctb
 75
    16
147
1.0
148
0.0
149
0.0
100
AcDbLayout
  1
ﾚｲｱｳﾄ1
 70
     1
 71
     1
 10
-5.873748779296875
 20
-5.873749732971191
 11
204.0995788574218
 21
291.1369009017943
 12
0.0
 22
0.0
 32
0.0
 14
4.273573370203961
 24
5.205246163471485
 34
0.0
 15
194.6100952986349
 25
283.0697008572913
 35
0.0
146
0.0
 13
0.0
 23
0.0
 33
0.0
 16
1.0
 26
0.0
 36
0.0
 17
0.0
 27
1.0
 37
0.0
 76
     0
330
1A
331
9AC
  0
MLINESTYLE
  5
17
102
{ACAD_REACTORS
330
16
102
}
330
16
100
AcDbMlineStyle
  2
STANDARD
 70
     0
  3

 62
   256
 51
90.0
 52
90.0
 71
     2
 49
0.5
 62
   256
  6
BYLAYER
 49
-0.5
 62
   256
  6
BYLAYER
  0
ACDBPLACEHOLDER
  5
F
102
{ACAD_REACTORS
330
E
102
}
330
E
  0
DICTIONARYVAR
  5
5B5F
102
{ACAD_REACTORS
330
5B5E
102
}
330
5B5E
100
DictionaryVariables
280
     0
  1
1
  0
ENDSEC
  0
EOF
