  0
SECTION
  2
HEADER
  9
$ACADVER
  1
AC1015
  9
$ACADMAINTVER
 70
    20
  9
$DWGCODEPAGE
  3
ANSI_932
  9
$INSBASE
 10
0.0
 20
0.0
 30
0.0
  9
$EXTMIN
 10
-58.56540366385934
 20
-360.5340251063781
 30
-0.0000000000112498
  9
$EXTMAX
 10
410.5389909702035
 20
345.0155078952651
 30
0.0000000000002956
  9
$LIMMIN
 10
-296.316999476111
 20
-370.7034300441653
  9
$LIMMAX
 10
623.3128432133979
 20
328.6261559379898
  9
$ORTHOMODE
 70
     1
  9
$REGENMODE
 70
     1
  9
$FILLMODE
 70
     1
  9
$QTEXTMODE
 70
     0
  9
$MIRRTEXT
 70
     1
  9
$LTSCALE
 40
10.0
  9
$ATTMODE
 70
     1
  9
$TEXTSIZE
 40
5.0
  9
$TRACEWID
 40
0.05
  9
$TEXTSTYLE
  7
STANDARD1
  9
$CLAYER
  8
0
  9
$CELTYPE
  6
CONTINUOUS
  9
$CECOLOR
 62
   256
  9
$CELTSCALE
 40
1.0
  9
$DISPSILH
 70
     0
  9
$DIMSCALE
 40
1.0
  9
$DIMASZ
 40
2.0
  9
$DIMEXO
 40
1.0
  9
$DIMDLI
 40
0.5
  9
$DIMRND
 40
0.0
  9
$DIMDLE
 40
0.0
  9
$DIMEXE
 40
0.5
  9
$DIMTP
 40
0.0
  9
$DIMTM
 40
0.0
  9
$DIMTXT
 40
4.0
  9
$DIMCEN
 40
0.09
  9
$DIMTSZ
 40
0.0
  9
$DIMTOL
 70
     0
  9
$DIMLIM
 70
     0
  9
$DIMTIH
 70
     0
  9
$DIMTOH
 70
     1
  9
$DIMSE1
 70
     0
  9
$DIMSE2
 70
     0
  9
$DIMTAD
 70
     3
  9
$DIMZIN
 70
    12
  9
$DIMBLK
  1
OPEN
  9
$DIMASO
 70
     1
  9
$DIMSHO
 70
     1
  9
$DIMPOST
  1

  9
$DIMAPOST
  1

  9
$DIMALT
 70
     0
  9
$DIMALTD
 70
     2
  9
$DIMALTF
 40
25.4
  9
$DIMLFAC
 40
1.0
  9
$DIMTOFL
 70
     0
  9
$DIMTVP
 40
0.0
  9
$DIMTIX
 70
     0
  9
$DIMSOXD
 70
     0
  9
$DIMSAH
 70
     0
  9
$DIMBLK1
  1

  9
$DIMBLK2
  1

  9
$DIMSTYLE
  2
STANDARD
  9
$DIMCLRD
 70
     0
  9
$DIMCLRE
 70
     0
  9
$DIMCLRT
 70
     0
  9
$DIMTFAC
 40
1.0
  9
$DIMGAP
 40
1.0
  9
$DIMJUST
 70
     0
  9
$DIMSD1
 70
     0
  9
$DIMSD2
 70
     0
  9
$DIMTOLJ
 70
     1
  9
$DIMTZIN
 70
     0
  9
$DIMALTZ
 70
     0
  9
$DIMALTTZ
 70
     0
  9
$DIMUPT
 70
     0
  9
$DIMDEC
 70
     1
  9
$DIMTDEC
 70
     1
  9
$DIMALTU
 70
     2
  9
$DIMALTTD
 70
     2
  9
$DIMTXSTY
  7
STANDARD
  9
$DIMAUNIT
 70
     0
  9
$DIMADEC
 70
     0
  9
$DIMALTRND
 40
0.0
  9
$DIMAZIN
 70
     3
  9
$DIMDSEP
 70
    46
  9
$DIMATFIT
 70
     3
  9
$DIMFRAC
 70
     0
  9
$DIMLDRBLK
  1
OPEN
  9
$DIMLUNIT
 70
     2
  9
$DIMLWD
 70
    -2
  9
$DIMLWE
 70
    -2
  9
$DIMTMOVE
 70
     0
  9
$LUNITS
 70
     2
  9
$LUPREC
 70
     4
  9
$SKETCHINC
 40
0.1
  9
$FILLETRAD
 40
0.0
  9
$AUNITS
 70
     0
  9
$AUPREC
 70
     0
  9
$MENU
  1
.
  9
$ELEVATION
 40
0.0
  9
$PELEVATION
 40
0.0
  9
$THICKNESS
 40
0.0
  9
$LIMCHECK
 70
     0
  9
$CHAMFERA
 40
0.0
  9
$CHAMFERB
 40
0.0
  9
$CHAMFERC
 40
0.0
  9
$CHAMFERD
 40
0.0
  9
$SKPOLY
 70
     0
  9
$TDCREATE
 40
2452286.555658658
  9
$TDUCREATE
 40
2452286.180658658
  9
$TDUPDATE
 40
2455827.521001875
  9
$TDUUPDATE
 40
2455827.146001875
  9
$TDINDWG
 40
1.2268973032
  9
$TDUSRTIMER
 40
1.2268958449
  9
$USRTIMER
 70
     1
  9
$ANGBASE
 50
0.0
  9
$ANGDIR
 70
     0
  9
$PDMODE
 70
     0
  9
$PDSIZE
 40
0.0
  9
$PLINEWID
 40
0.0
  9
$SPLFRAME
 70
     0
  9
$SPLINETYPE
 70
     6
  9
$SPLINESEGS
 70
     8
  9
$HANDSEED
  5
7DCC
  9
$SURFTAB1
 70
     6
  9
$SURFTAB2
 70
     6
  9
$SURFTYPE
 70
     6
  9
$SURFU
 70
     6
  9
$SURFV
 70
     6
  9
$UCSBASE
  2

  9
$UCSNAME
  2

  9
$UCSORG
 10
0.0
 20
0.0
 30
0.0
  9
$UCSXDIR
 10
1.0
 20
0.0
 30
0.0
  9
$UCSYDIR
 10
0.0
 20
1.0
 30
0.0
  9
$UCSORTHOREF
  2

  9
$UCSORTHOVIEW
 70
     0
  9
$UCSORGTOP
 10
0.0
 20
0.0
 30
0.0
  9
$UCSORGBOTTOM
 10
0.0
 20
0.0
 30
0.0
  9
$UCSORGLEFT
 10
0.0
 20
0.0
 30
0.0
  9
$UCSORGRIGHT
 10
0.0
 20
0.0
 30
0.0
  9
$UCSORGFRONT
 10
0.0
 20
0.0
 30
0.0
  9
$UCSORGBACK
 10
0.0
 20
0.0
 30
0.0
  9
$PUCSBASE
  2

  9
$PUCSNAME
  2

  9
$PUCSORG
 10
0.0
 20
0.0
 30
0.0
  9
$PUCSXDIR
 10
1.0
 20
0.0
 30
0.0
  9
$PUCSYDIR
 10
0.0
 20
1.0
 30
0.0
  9
$PUCSORTHOREF
  2

  9
$PUCSORTHOVIEW
 70
     0
  9
$PUCSORGTOP
 10
0.0
 20
0.0
 30
0.0
  9
$PUCSORGBOTTOM
 10
0.0
 20
0.0
 30
0.0
  9
$PUCSORGLEFT
 10
0.0
 20
0.0
 30
0.0
  9
$PUCSORGRIGHT
 10
0.0
 20
0.0
 30
0.0
  9
$PUCSORGFRONT
 10
0.0
 20
0.0
 30
0.0
  9
$PUCSORGBACK
 10
0.0
 20
0.0
 30
0.0
  9
$USERI1
 70
     0
  9
$USERI2
 70
     0
  9
$USERI3
 70
     0
  9
$USERI4
 70
     0
  9
$USERI5
 70
     0
  9
$USERR1
 40
0.0
  9
$USERR2
 40
0.0
  9
$USERR3
 40
0.0
  9
$USERR4
 40
0.0
  9
$USERR5
 40
0.0
  9
$WORLDVIEW
 70
     1
  9
$SHADEDGE
 70
     3
  9
$SHADEDIF
 70
    70
  9
$TILEMODE
 70
     1
  9
$MAXACTVP
 70
    48
  9
$PINSBASE
 10
0.0
 20
0.0
 30
0.0
  9
$PLIMCHECK
 70
     0
  9
$PEXTMIN
 10
4.273573
 20
5.205245999999998
 30
0.0
  9
$PEXTMAX
 10
194.610095
 20
283.0697009999997
 30
0.0
  9
$PLIMMIN
 10
-5.873749
 20
-5.87375
  9
$PLIMMAX
 10
204.099579
 20
291.1369009999999
  9
$UNITMODE
 70
     0
  9
$VISRETAIN
 70
     1
  9
$PLINEGEN
 70
     0
  9
$PSLTSCALE
 70
     1
  9
$TREEDEPTH
 70
  3020
  9
$CMLSTYLE
  2
STANDARD
  9
$CMLJUST
 70
     0
  9
$CMLSCALE
 40
1.0
  9
$PROXYGRAPHICS
 70
     1
  9
$MEASUREMENT
 70
     0
  9
$CELWEIGHT
370
    -1
  9
$ENDCAPS
280
     0
  9
$JOINSTYLE
280
     0
  9
$LWDISPLAY
290
     0
  9
$INSUNITS
 70
     0
  9
$HYPERLINKBASE
  1

  9
$STYLESHEET
  1
monochrome.ctb
  9
$XEDIT
290
     1
  9
$CEPSNTYPE
380
     0
  9
$PSTYLEMODE
290
     1
  9
$FINGERPRINTGUID
  2

  9
$VERSIONGUID
  2
{83550791-708F-44E4-9FA9-A8457CC6376F}
  9
$EXTNAMES
290
     1
  9
$PSVPSCALE
 40
0.0
  9
$OLESTARTUP
290
     0
  0
ENDSEC
  0
SECTION
  2
CLASSES
  0
CLASS
  1
ACDBDICTIONARYWDFLT
  2
AcDbDictionaryWithDefault
  3
ObjectDBX Classes
 90
        0
280
     0
281
     0
  0
CLASS
  1
ACDBPLACEHOLDER
  2
AcDbPlaceHolder
  3
ObjectDBX Classes
 90
        0
280
     0
281
     0
  0
CLASS
  1
LAYOUT
  2
AcDbLayout
  3
ObjectDBX Classes
 90
        0
280
     0
281
     0
  0
CLASS
  1
DICTIONARYVAR
  2
AcDbDictionaryVar
  3
ObjectDBX Classes
 90
        0
280
     0
281
     0
  0
CLASS
  1
MATERIAL
  2
AcDbMaterial
  3
ObjectDBX Classes
 90
     1153
280
     0
281
     0
  0
CLASS
  1
VISUALSTYLE
  2
AcDbVisualStyle
  3
ObjectDBX Classes
 90
     4095
280
     0
281
     0
  0
CLASS
  1
TABLESTYLE
  2
AcDbTableStyle
  3
ObjectDBX Classes
 90
     4095
280
     0
281
     0
  0
CLASS
  1
SCALE
  2
AcDbScale
  3
ObjectDBX Classes
 90
     1153
280
     0
281
     0
  0
CLASS
  1
MLEADERSTYLE
  2
AcDbMLeaderStyle
  3
ACDB_MLEADERSTYLE_CLASS
 90
     4095
280
     0
281
     0
  0
CLASS
  1
CELLSTYLEMAP
  2
AcDbCellStyleMap
  3
ObjectDBX Classes
 90
     1152
280
     0
281
     0
  0
CLASS
  1
SORTENTSTABLE
  2
AcDbSortentsTable
  3
ObjectDBX Classes
 90
        0
280
     0
281
     0
  0
CLASS
  1
AEC_REFEDIT_STATUS_TRACKER
  2
AecDbRefEditStatusTracker
  3
AecArchBase60|Product Desc: Autodesk Architectural Desktop 2007 |Company: Autodesk,Inc. |WEB Address: www.autodesk.com
 90
      129
280
     0
281
     0
  0
CLASS
  1
NPOCOLLECTION
  2
AcDbImpNonPersistentObjectsCollection
  3
ObjectDBX Classes
 90
     1153
280
     0
281
     0
  0
ENDSEC
  0
SECTION
  2
TABLES
  0
TABLE
  2
VPORT
  5
8
102
{ACAD_XDICTIONARY
360
5F12
102
}
330
0
100
AcDbSymbolTable
 70
     1
  0
VPORT
  5
5E99
330
8
100
AcDbSymbolTableRecord
100
AcDbViewportTableRecord
  2
*Active
 70
     0
 10
0.0
 20
0.0
 11
1.0
 21
1.0
 12
175.9867936531721
 22
-7.75925860555651
 13
0.0
 23
0.0
 14
1.0
 24
1.0
 15
10.0
 25
10.0
 16
0.0
 26
0.0
 36
1.0
 17
0.0
 27
0.0
 37
0.0
 40
709.9500498394911
 41
1.243496357960457
 42
50.0
 43
0.0
 44
0.0
 50
0.0
 51
0.0
 71
     0
 72
   100
 73
     1
 74
     1
 75
     1
 76
     1
 77
     0
 78
     0
281
     0
 65
     1
110
0.0
120
0.0
130
0.0
111
1.0
121
0.0
131
0.0
112
0.0
122
1.0
132
0.0
 79
     0
146
0.0
  0
ENDTAB
  0
TABLE
  2
LTYPE
  5
5
330
0
100
AcDbSymbolTable
 70
     6
  0
LTYPE
  5
13
330
5
100
AcDbSymbolTableRecord
100
AcDbLinetypeTableRecord
  2
BYBLOCK
 70
     0
  3

 72
    65
 73
     0
 40
0.0
  0
LTYPE
  5
14
330
5
100
AcDbSymbolTableRecord
100
AcDbLinetypeTableRecord
  2
BYLAYER
 70
     0
  3

 72
    65
 73
     0
 40
0.0
  0
LTYPE
  5
15
330
5
100
AcDbSymbolTableRecord
100
AcDbLinetypeTableRecord
  2
CONTINUOUS
 70
     0
  3
Solid line
 72
    65
 73
     0
 40
0.0
  0
LTYPE
  5
22
330
5
100
AcDbSymbolTableRecord
100
AcDbLinetypeTableRecord
  2
CONTINOUS
 70
     0
  3
Solid line
 72
    65
 73
     0
 40
0.0
  0
LTYPE
  5
23
330
5
100
AcDbSymbolTableRecord
100
AcDbLinetypeTableRecord
  2
DASHED
 70
     0
  3
__ __ __ __ __ __ __ __ __ __ __ __ __ __ __
 72
    65
 73
     2
 40
0.75
 49
0.5
 74
     0
 49
-0.25
 74
     0
  0
LTYPE
  5
24
330
5
100
AcDbSymbolTableRecord
100
AcDbLinetypeTableRecord
  2
DASHDOT
 70
     0
  3
__ . __ . __ . __ . __ . __ . __ . __ . __ . __
 72
    65
 73
     4
 40
1.0
 49
0.5
 74
     0
 49
-0.25
 74
     0
 49
0.0
 74
     0
 49
-0.25
 74
     0
  0
LTYPE
  5
4C47
330
5
100
AcDbSymbolTableRecord
100
AcDbLinetypeTableRecord
  2
DIVIDE
 70
     0
  3
Divide ____ . . ____ . . ____ . . ____ . . ____
 72
    65
 73
     6
 40
1.25
 49
0.5
 74
     0
 49
-0.25
 74
     0
 49
0.0
 74
     0
 49
-0.25
 74
     0
 49
0.0
 74
     0
 49
-0.25
 74
     0
  0
LTYPE
  5
5115
330
5
100
AcDbSymbolTableRecord
100
AcDbLinetypeTableRecord
  2
PHANTOM
 70
     0
  3
_____ _ _ _____ _ _ _____ _ _ _____ _ _ ____
 72
    65
 73
     6
 40
2.5
 49
1.25
 74
     0
 49
-0.25
 74
     0
 49
0.25
 74
     0
 49
-0.25
 74
     0
 49
0.25
 74
     0
 49
-0.25
 74
     0
  0
ENDTAB
  0
TABLE
  2
LAYER
  5
2
102
{ACAD_XDICTIONARY
360
7D2B
102
}
330
0
100
AcDbSymbolTable
 70
    19
  0
LAYER
  5
10
102
{ACAD_XDICTIONARY
360
5EF6
102
}
330
2
100
AcDbSymbolTableRecord
100
AcDbLayerTableRecord
  2
0
 70
     0
 62
     7
  6
CONTINOUS
370
    -3
390
F
  0
LAYER
  5
2F
102
{ACAD_XDICTIONARY
360
5EF8
102
}
330
2
100
AcDbSymbolTableRecord
100
AcDbLayerTableRecord
  2
10
 70
     0
 62
     4
  6
CONTINOUS
370
    -3
390
F
  0
LAYER
  5
31
102
{ACAD_XDICTIONARY
360
5EFA
102
}
330
2
100
AcDbSymbolTableRecord
100
AcDbLayerTableRecord
  2
12
 70
     0
 62
     3
  6
CONTINOUS
370
    -3
390
F
  0
LAYER
  5
35
102
{ACAD_XDICTIONARY
360
5EFC
102
}
330
2
100
AcDbSymbolTableRecord
100
AcDbLayerTableRecord
  2
16
 70
     0
 62
     6
  6
DASHDOT
370
    -3
390
F
  0
LAYER
  5
38
102
{ACAD_XDICTIONARY
360
5EFE
102
}
330
2
100
AcDbSymbolTableRecord
100
AcDbLayerTableRecord
  2
19
 70
     0
 62
     7
  6
CONTINOUS
370
    -3
390
F
  0
LAYER
  5
3C
102
{ACAD_XDICTIONARY
360
5F00
102
}
330
2
100
AcDbSymbolTableRecord
100
AcDbLayerTableRecord
  2
11
 70
     0
 62
     1
  6
CONTINOUS
370
    -3
390
F
  0
LAYER
  5
3D
102
{ACAD_XDICTIONARY
360
5F02
102
}
330
2
100
AcDbSymbolTableRecord
100
AcDbLayerTableRecord
  2
24
 70
     0
 62
     2
  6
CONTINOUS
370
    -3
390
F
  0
LAYER
  5
3A2
102
{ACAD_XDICTIONARY
360
5F04
102
}
330
2
100
AcDbSymbolTableRecord
100
AcDbLayerTableRecord
  2
30
 70
     0
 62
     9
  6
CONTINUOUS
370
    -3
390
F
  0
LAYER
  5
3A4
330
2
100
AcDbSymbolTableRecord
100
AcDbLayerTableRecord
  2
DEFPOINTS
 70
     0
 62
     7
  6
CONTINUOUS
290
     0
370
    -3
390
F
  0
LAYER
  5
3BBA
102
{ACAD_XDICTIONARY
360
5F06
102
}
330
2
100
AcDbSymbolTableRecord
100
AcDbLayerTableRecord
  2
18
 70
     0
 62
     5
  6
DIVIDE
370
    -3
390
F
  0
LAYER
  5
3BBB
102
{ACAD_XDICTIONARY
360
5F08
102
}
330
2
100
AcDbSymbolTableRecord
100
AcDbLayerTableRecord
  2
21
 70
     0
 62
     7
  6
CONTINUOUS
370
    -3
390
F
  0
LAYER
  5
5116
102
{ACAD_XDICTIONARY
360
5F0A
102
}
330
2
100
AcDbSymbolTableRecord
100
AcDbLayerTableRecord
  2
1
 70
     0
 62
     7
  6
CONTINUOUS
370
    -3
390
F
  0
LAYER
  5
5117
102
{ACAD_XDICTIONARY
360
5F0C
102
}
330
2
100
AcDbSymbolTableRecord
100
AcDbLayerTableRecord
  2
TOP
 70
     0
 62
     7
  6
CONTINUOUS
370
    -3
390
F
  0
LAYER
  5
60BA
330
2
100
AcDbSymbolTableRecord
100
AcDbLayerTableRecord
  2
4
 70
     0
 62
     7
  6
CONTINUOUS
370
    -3
390
F
  0
LAYER
  5
60BB
330
2
100
AcDbSymbolTableRecord
100
AcDbLayerTableRecord
  2
2
 70
     0
 62
     7
  6
CONTINUOUS
370
    -3
390
F
  0
LAYER
  5
60BC
330
2
100
AcDbSymbolTableRecord
100
AcDbLayerTableRecord
  2
7
 70
     0
 62
     7
  6
CONTINUOUS
370
    -3
390
F
  0
LAYER
  5
60BD
330
2
100
AcDbSymbolTableRecord
100
AcDbLayerTableRecord
  2
240
 70
     0
 62
     7
  6
CONTINUOUS
370
    -3
390
F
  0
LAYER
  5
60BE
330
2
100
AcDbSymbolTableRecord
100
AcDbLayerTableRecord
  2
5
 70
     0
 62
     7
  6
CONTINUOUS
370
    -3
390
F
  0
LAYER
  5
60BF
330
2
100
AcDbSymbolTableRecord
100
AcDbLayerTableRecord
  2
6
 70
     0
 62
     7
  6
CONTINUOUS
370
    -3
390
F
  0
ENDTAB
  0
TABLE
  2
STYLE
  5
3
330
0
100
AcDbSymbolTable
 70
     7
  0
STYLE
  5
11
330
3
100
AcDbSymbolTableRecord
100
AcDbTextStyleTableRecord
  2
STANDARD
 70
     0
 40
0.0
 41
1.0
 50
0.0
 71
     0
 42
2.0
  3
txt.shx
  4
bigfont.shx
  0
STYLE
  5
42
330
3
100
AcDbSymbolTableRecord
100
AcDbTextStyleTableRecord
  2
STANDARD1
 70
     0
 40
0.0
 41
1.0
 50
0.0
 71
     0
 42
5.0
  3
MONOTXT
  4
BIGFONT
  0
STYLE
  5
5016
330
3
100
AcDbSymbolTableRecord
100
AcDbTextStyleTableRecord
  2
UGMTXT
 70
     0
 40
0.0
 41
1.0
 50
0.0
 71
     0
 42
0.2
  3
ugmtxt
  4
bigfont
  0
STYLE
  5
60C0
330
3
100
AcDbSymbolTableRecord
100
AcDbTextStyleTableRecord
  2
blockfont
 70
     0
 40
0.0
 41
1.0
 50
0.0
 71
     0
 42
0.2
  3
simplex.shx
  4
bigfont
  0
STYLE
  5
60C1
330
3
100
AcDbSymbolTableRecord
100
AcDbTextStyleTableRecord
  2
DEFAULT
 70
     0
 40
0.0
 41
1.0
 50
0.0
 71
     0
 42
0.2
  3
simplex.shx
  4
bigfont
  0
STYLE
  5
60C2
330
3
100
AcDbSymbolTableRecord
100
AcDbTextStyleTableRecord
  2
kanji
 70
     0
 40
0.0
 41
1.0
 50
0.0
 71
     0
 42
0.2
  3
simplex.shx
  4
bigfont
  0
ENDTAB
  0
TABLE
  2
VIEW
  5
6
330
0
100
AcDbSymbolTable
 70
     3
  0
VIEW
  5
230C
330
6
100
AcDbSymbolTableRecord
100
AcDbViewTableRecord
  2
OLE1
 70
     0
 40
148.912488
 10
429.497628
 20
2.560627
 41
103.145806
 11
0.0
 21
0.0
 31
1.0
 12
0.0
 22
0.0
 32
0.0
 42
50.0
 43
0.0
 44
0.0
 50
0.0
 71
     0
281
     0
 72
     0
  0
VIEW
  5
230E
330
6
100
AcDbSymbolTableRecord
100
AcDbViewTableRecord
  2
OLE2
 70
     0
 40
170.778692
 10
322.66497
 20
-5.978304
 41
102.467215
 11
0.0
 21
0.0
 31
1.0
 12
0.0
 22
0.0
 32
0.0
 42
50.0
 43
0.0
 44
0.0
 50
0.0
 71
     0
281
     0
 72
     0
  0
VIEW
  5
23AA
330
6
100
AcDbSymbolTableRecord
100
AcDbViewTableRecord
  2
OLE3
 70
     0
 40
591.7897389999998
 10
84.79698199999999
 20
-46.09335999999998
 41
388.792096
 11
0.0
 21
0.0
 31
1.0
 12
0.0
 22
0.0
 32
0.0
 42
50.0
 43
0.0
 44
0.0
 50
0.0
 71
     0
281
     0
 72
     0
  0
ENDTAB
  0
TABLE
  2
UCS
  5
7
330
0
100
AcDbSymbolTable
 70
     0
  0
ENDTAB
  0
TABLE
  2
APPID
  5
9
330
0
100
AcDbSymbolTable
 70
     6
  0
APPID
  5
12
330
9
100
AcDbSymbolTableRecord
100
AcDbRegAppTableRecord
  2
ACAD
 70
     0
  0
APPID
  5
ECD
330
9
100
AcDbSymbolTableRecord
100
AcDbRegAppTableRecord
  2
CONTENTBLOCKICON
 70
     0
  0
APPID
  5
5F4C
330
9
100
AcDbSymbolTableRecord
100
AcDbRegAppTableRecord
  2
ACAD_MLEADERVER
 70
     0
  0
APPID
  5
5F58
330
9
100
AcDbSymbolTableRecord
100
AcDbRegAppTableRecord
  2
ACAD_EXEMPT_FROM_CAD_STANDARDS
 70
     0
  0
APPID
  5
60C3
330
9
100
AcDbSymbolTableRecord
100
AcDbRegAppTableRecord
  2
DCO15
 70
     0
  0
APPID
  5
7C88
330
9
100
AcDbSymbolTableRecord
100
AcDbRegAppTableRecord
  2
ACAD_PSEXT
 70
     0
  0
ENDTAB
  0
TABLE
  2
DIMSTYLE
  5
A
330
0
100
AcDbSymbolTable
 70
     2
100
AcDbDimStyleTable
 71
     1
340
175
  0
DIMSTYLE
105
175
102
{ACAD_REACTORS
330
57FE
330
5E39
330
5E3A
330
6C6F
330
7346
330
7347
330
7348
330
7349
330
734A
330
734B
330
73EE
330
7421
330
748E
330
798C
330
79D8
330
79D9
330
7AD5
330
7AD6
330
7AD7
330
7D37
330
7D38
102
}
330
A
100
AcDbSymbolTableRecord
100
AcDbDimStyleTableRecord
  2
STANDARD
 70
     0
 41
2.0
 42
1.0
 43
0.5
 44
0.5
 73
     0
 77
     3
 78
    12
140
4.0
147
1.0
271
     1
272
     1
340
11
341
3B2
342
3B2
  0
ENDTAB
  0
TABLE
  2
BLOCK_RECORD
  5
1
330
0
100
AcDbSymbolTable
 70
    66
  0
BLOCK_RECORD
  5
1E
102
{ACAD_XDICTIONARY
360
178
102
}
330
1
100
AcDbSymbolTableRecord
100
AcDbBlockTableRecord
  2
*MODEL_SPACE
340
5E95
  0
BLOCK_RECORD
  5
1A
102
{ACAD_XDICTIONARY
360
17A
102
}
330
1
100
AcDbSymbolTableRecord
100
AcDbBlockTableRecord
  2
*PAPER_SPACE
340
5E96
  0
BLOCK_RECORD
  5
3B2
330
1
100
AcDbSymbolTableRecord
100
AcDbBlockTableRecord
  2
_OPEN
340
0
102
{BLKREFS
331
771E
331
771F
331
7820
331
7821
331
7829
331
782A
331
7832
331
7833
331
783B
331
783C
331
7844
331
7845
331
784D
331
784E
331
7858
331
7859
331
7B03
331
7B04
331
7B0C
331
7B0D
331
7B15
331
7B16
331
7B27
331
7B28
331
7C45
331
7C46
331
7C4E
331
7C4F
331
7C57
331
7C58
331
7C60
331
7C61
331
7C69
331
7D18
331
7D19
331
7D24
331
7D25
331
7D66
331
7D67
331
7D6F
331
7D70
331
7D78
331
7D80
331
7D81
331
7D89
331
7D8A
102
}
  0
BLOCK_RECORD
  5
5829
330
1
100
AcDbSymbolTableRecord
100
AcDbBlockTableRecord
  2
*D1
340
0
  0
BLOCK_RECORD
  5
5E3F
330
1
100
AcDbSymbolTableRecord
100
AcDbBlockTableRecord
  2
*D2
340
0
  0
BLOCK_RECORD
  5
5E4B
330
1
100
AcDbSymbolTableRecord
100
AcDbBlockTableRecord
  2
*D3
340
0
  0
BLOCK_RECORD
  5
5F5A
330
1
100
AcDbSymbolTableRecord
100
AcDbBlockTableRecord
  2
_D0
340
0
  0
BLOCK_RECORD
  5
5F5E
330
1
100
AcDbSymbolTableRecord
100
AcDbBlockTableRecord
  2
_D1
340
0
  0
BLOCK_RECORD
  5
5F67
330
1
100
AcDbSymbolTableRecord
100
AcDbBlockTableRecord
  2
_D2
340
0
  0
BLOCK_RECORD
  5
5F6D
330
1
100
AcDbSymbolTableRecord
100
AcDbBlockTableRecord
  2
_D3
340
0
  0
BLOCK_RECORD
  5
5F76
330
1
100
AcDbSymbolTableRecord
100
AcDbBlockTableRecord
  2
_D4
340
0
  0
BLOCK_RECORD
  5
5F7F
330
1
100
AcDbSymbolTableRecord
100
AcDbBlockTableRecord
  2
_D5
340
0
  0
BLOCK_RECORD
  5
5F88
330
1
100
AcDbSymbolTableRecord
100
AcDbBlockTableRecord
  2
_D6
340
0
  0
BLOCK_RECORD
  5
5F91
330
1
100
AcDbSymbolTableRecord
100
AcDbBlockTableRecord
  2
_D7
340
0
  0
BLOCK_RECORD
  5
5F9A
330
1
100
AcDbSymbolTableRecord
100
AcDbBlockTableRecord
  2
_D8
340
0
  0
BLOCK_RECORD
  5
5FA3
330
1
100
AcDbSymbolTableRecord
100
AcDbBlockTableRecord
  2
_D9
340
0
  0
BLOCK_RECORD
  5
5FA9
330
1
100
AcDbSymbolTableRecord
100
AcDbBlockTableRecord
  2
_D10
340
0
  0
BLOCK_RECORD
  5
5FB2
330
1
100
AcDbSymbolTableRecord
100
AcDbBlockTableRecord
  2
_D11
340
0
  0
BLOCK_RECORD
  5
5FBB
330
1
100
AcDbSymbolTableRecord
100
AcDbBlockTableRecord
  2
_D12
340
0
  0
BLOCK_RECORD
  5
5FC4
330
1
100
AcDbSymbolTableRecord
100
AcDbBlockTableRecord
  2
_D13
340
0
  0
BLOCK_RECORD
  5
5FCD
330
1
100
AcDbSymbolTableRecord
100
AcDbBlockTableRecord
  2
_D14
340
0
  0
BLOCK_RECORD
  5
5FD6
330
1
100
AcDbSymbolTableRecord
100
AcDbBlockTableRecord
  2
_D15
340
0
  0
BLOCK_RECORD
  5
5FDF
330
1
100
AcDbSymbolTableRecord
100
AcDbBlockTableRecord
  2
_D16
340
0
  0
BLOCK_RECORD
  5
5FE8
330
1
100
AcDbSymbolTableRecord
100
AcDbBlockTableRecord
  2
_D17
340
0
  0
BLOCK_RECORD
  5
5FF1
330
1
100
AcDbSymbolTableRecord
100
AcDbBlockTableRecord
  2
_D18
340
0
  0
BLOCK_RECORD
  5
5FFA
330
1
100
AcDbSymbolTableRecord
100
AcDbBlockTableRecord
  2
_D19
340
0
  0
BLOCK_RECORD
  5
6001
330
1
100
AcDbSymbolTableRecord
100
AcDbBlockTableRecord
  2
_D20
340
0
  0
BLOCK_RECORD
  5
600A
330
1
100
AcDbSymbolTableRecord
100
AcDbBlockTableRecord
  2
_D21
340
0
  0
BLOCK_RECORD
  5
6013
330
1
100
AcDbSymbolTableRecord
100
AcDbBlockTableRecord
  2
_D22
340
0
  0
BLOCK_RECORD
  5
601C
330
1
100
AcDbSymbolTableRecord
100
AcDbBlockTableRecord
  2
_D23
340
0
  0
BLOCK_RECORD
  5
6025
330
1
100
AcDbSymbolTableRecord
100
AcDbBlockTableRecord
  2
_D24
340
0
  0
BLOCK_RECORD
  5
602E
330
1
100
AcDbSymbolTableRecord
100
AcDbBlockTableRecord
  2
_D25
340
0
  0
BLOCK_RECORD
  5
6037
330
1
100
AcDbSymbolTableRecord
100
AcDbBlockTableRecord
  2
_D26
340
0
  0
BLOCK_RECORD
  5
6040
330
1
100
AcDbSymbolTableRecord
100
AcDbBlockTableRecord
  2
_D27
340
0
  0
BLOCK_RECORD
  5
6047
330
1
100
AcDbSymbolTableRecord
100
AcDbBlockTableRecord
  2
_D28
340
0
  0
BLOCK_RECORD
  5
6050
330
1
100
AcDbSymbolTableRecord
100
AcDbBlockTableRecord
  2
_D29
340
0
  0
BLOCK_RECORD
  5
607A
330
1
100
AcDbSymbolTableRecord
100
AcDbBlockTableRecord
  2
_D30
340
0
  0
BLOCK_RECORD
  5
607E
330
1
100
AcDbSymbolTableRecord
100
AcDbBlockTableRecord
  2
_D31
340
0
  0
BLOCK_RECORD
  5
6087
330
1
100
AcDbSymbolTableRecord
100
AcDbBlockTableRecord
  2
_D32
340
0
  0
BLOCK_RECORD
  5
6090
330
1
100
AcDbSymbolTableRecord
100
AcDbBlockTableRecord
  2
_D33
340
0
  0
BLOCK_RECORD
  5
6099
330
1
100
AcDbSymbolTableRecord
100
AcDbBlockTableRecord
  2
_D34
340
0
  0
BLOCK_RECORD
  5
609E
330
1
100
AcDbSymbolTableRecord
100
AcDbBlockTableRecord
  2
_D35
340
0
  0
BLOCK_RECORD
  5
60A5
330
1
100
AcDbSymbolTableRecord
100
AcDbBlockTableRecord
  2
_D36
340
0
  0
BLOCK_RECORD
  5
60AA
330
1
100
AcDbSymbolTableRecord
100
AcDbBlockTableRecord
  2
_D37
340
0
  0
BLOCK_RECORD
  5
60B2
330
1
100
AcDbSymbolTableRecord
100
AcDbBlockTableRecord
  2
_D38
340
0
  0
BLOCK_RECORD
  5
6C70
330
1
100
AcDbSymbolTableRecord
100
AcDbBlockTableRecord
  2
*D43
340
0
  0
BLOCK_RECORD
  5
734C
330
1
100
AcDbSymbolTableRecord
100
AcDbBlockTableRecord
  2
*D44
340
0
  0
BLOCK_RECORD
  5
7358
330
1
100
AcDbSymbolTableRecord
100
AcDbBlockTableRecord
  2
*D45
340
0
  0
BLOCK_RECORD
  5
7364
330
1
100
AcDbSymbolTableRecord
100
AcDbBlockTableRecord
  2
*D46
340
0
  0
BLOCK_RECORD
  5
7370
330
1
100
AcDbSymbolTableRecord
100
AcDbBlockTableRecord
  2
*D47
340
0
  0
BLOCK_RECORD
  5
737C
330
1
100
AcDbSymbolTableRecord
100
AcDbBlockTableRecord
  2
*D48
340
0
  0
BLOCK_RECORD
  5
7388
330
1
100
AcDbSymbolTableRecord
100
AcDbBlockTableRecord
  2
*D49
340
0
  0
BLOCK_RECORD
  5
73EF
330
1
100
AcDbSymbolTableRecord
100
AcDbBlockTableRecord
  2
*D50
340
0
  0
BLOCK_RECORD
  5
7422
330
1
100
AcDbSymbolTableRecord
100
AcDbBlockTableRecord
  2
*D51
340
0
  0
BLOCK_RECORD
  5
748F
330
1
100
AcDbSymbolTableRecord
100
AcDbBlockTableRecord
  2
*D52
340
0
  0
BLOCK_RECORD
  5
78E9
330
1
100
AcDbSymbolTableRecord
100
AcDbBlockTableRecord
  2
*D53
340
0
  0
BLOCK_RECORD
  5
798D
330
1
100
AcDbSymbolTableRecord
100
AcDbBlockTableRecord
  2
*D54
340
0
  0
BLOCK_RECORD
  5
79DA
330
1
100
AcDbSymbolTableRecord
100
AcDbBlockTableRecord
  2
*D55
340
0
  0
BLOCK_RECORD
  5
79E6
330
1
100
AcDbSymbolTableRecord
100
AcDbBlockTableRecord
  2
*D56
340
0
  0
BLOCK_RECORD
  5
7AD8
330
1
100
AcDbSymbolTableRecord
100
AcDbBlockTableRecord
  2
*D57
340
0
  0
BLOCK_RECORD
  5
7AE6
330
1
100
AcDbSymbolTableRecord
100
AcDbBlockTableRecord
  2
*D58
340
0
  0
BLOCK_RECORD
  5
7AF2
330
1
100
AcDbSymbolTableRecord
100
AcDbBlockTableRecord
  2
*D59
340
0
  0
BLOCK_RECORD
  5
7D13
330
1
100
AcDbSymbolTableRecord
100
AcDbBlockTableRecord
  2
*D60
340
0
  0
BLOCK_RECORD
  5
7D1F
330
1
100
AcDbSymbolTableRecord
100
AcDbBlockTableRecord
  2
*D61
340
0
  0
BLOCK_RECORD
  5
7D39
330
1
100
AcDbSymbolTableRecord
100
AcDbBlockTableRecord
  2
*D63
340
0
  0
BLOCK_RECORD
  5
7D45
330
1
100
AcDbSymbolTableRecord
100
AcDbBlockTableRecord
  2
*D64
340
0
  0
ENDTAB
  0
ENDSEC
  0
SECTION
  2
BLOCKS
  0
BLOCK
  5
1F
330
1E
100
AcDbEntity
  8
0
100
AcDbBlockBegin
  2
*MODEL_SPACE
 70
     0
 10
0.0
 20
0.0
 30
0.0
  3
*MODEL_SPACE
  1

  0
ENDBLK
  5
20
330
1E
100
AcDbEntity
  8
0
100
AcDbBlockEnd
  0
BLOCK
  5
1B
330
1A
100
AcDbEntity
 67
     1
  8
0
100
AcDbBlockBegin
  2
*PAPER_SPACE
 70
     0
 10
0.0
 20
0.0
 30
0.0
  3
*PAPER_SPACE
  1

  0
ENDBLK
  5
1C
330
1A
100
AcDbEntity
 67
     1
  8
0
100
AcDbBlockEnd
  0
BLOCK
  5
3B6
330
3B2
100
AcDbEntity
  8
0
100
AcDbBlockBegin
  2
_OPEN
 70
     0
 10
0.0
 20
0.0
 30
0.0
  3
_OPEN
  1

  0
LINE
  5
3B3
330
3B2
100
AcDbEntity
  8
30
  6
Continuous
 62
     0
100
AcDbLine
 10
-1.0
 20
0.166667
 30
0.0
 11
0.0
 21
0.0
 31
0.0
  0
LINE
  5
3B4
330
3B2
100
AcDbEntity
  8
30
  6
Continuous
 62
     0
100
AcDbLine
 10
-1.0
 20
-0.166667
 30
0.0
 11
0.0
 21
0.0
 31
0.0
  0
LINE
  5
3B5
330
3B2
100
AcDbEntity
  8
30
  6
Continuous
 62
     0
100
AcDbLine
 10
0.0
 20
0.0
 30
0.0
 11
-1.0
 21
0.0
 31
0.0
  0
ENDBLK
  5
3B7
330
3B2
100
AcDbEntity
  8
0
100
AcDbBlockEnd
  0
BLOCK
  5
5833
330
5829
100
AcDbEntity
  8
0
100
AcDbBlockBegin
  2
*D1
 70
     1
 10
0.0
 20
0.0
 30
0.0
  3
*D1
  1

  0
LINE
  5
7C42
330
5829
100
AcDbEntity
  8
30
  6
Continuous
 62
     0
370
    -2
100
AcDbLine
 10
-48.50000000000003
 20
-94.15390871043891
 30
0.0
 11
-48.50000000000003
 21
-110.5
 31
0.0
  0
LINE
  5
7C43
330
5829
100
AcDbEntity
  8
30
  6
Continuous
 62
     0
370
    -2
100
AcDbLine
 10
108.4999999999999
 20
-94.15390871043891
 30
0.0
 11
108.4999999999999
 21
-110.5
 31
0.0
  0
LINE
  5
7C44
330
5829
100
AcDbEntity
  8
30
  6
Continuous
 62
     0
370
    -2
100
AcDbLine
 10
-46.50000000000003
 20
-110.0
 30
0.0
 11
106.4999999999999
 21
-110.0
 31
0.0
  0
INSERT
  5
7C45
330
5829
100
AcDbEntity
  8
30
  6
Continuous
 62
     0
370
    -2
100
AcDbBlockReference
  2
_OPEN
 10
-48.50000000000003
 20
-110.0
 30
0.0
 41
2.0
 42
2.0
 43
2.0
 50
180.0
  0
INSERT
  5
7C46
330
5829
100
AcDbEntity
  8
30
  6
Continuous
 62
     0
370
    -2
100
AcDbBlockReference
  2
_OPEN
 10
108.4999999999999
 20
-110.0
 30
0.0
 41
2.0
 42
2.0
 43
2.0
  0
MTEXT
  5
7C47
330
5829
100
AcDbEntity
  8
30
  6
Continuous
 62
     0
100
AcDbMText
 10
29.99999999999997
 20
-107.0
 30
0.0
 40
4.0
 41
0.0
 71
     5
 72
     1
  1
\A1;157
 73
     1
 44
1.0
1001
ACAD
1000
MTEXTBEGIN
1070
    73
1070
     1
1070
    44
1040
1.0
1070
    74
1070
     0
1000
MTEXTEND
  0
POINT
  5
7C48
330
5829
100
AcDbEntity
  8
DEFPOINTS
  6
Continuous
 62
     0
100
AcDbPoint
 10
-48.50000000000003
 20
-93.15390871043891
 30
0.0
  0
POINT
  5
7C49
330
5829
100
AcDbEntity
  8
DEFPOINTS
  6
Continuous
 62
     0
100
AcDbPoint
 10
108.4999999999999
 20
-93.15390871043891
 30
0.0
  0
POINT
  5
7C4A
330
5829
100
AcDbEntity
  8
DEFPOINTS
  6
Continuous
 62
     0
100
AcDbPoint
 10
108.4999999999999
 20
-110.0
 30
0.0
  0
ENDBLK
  5
5834
330
5829
100
AcDbEntity
  8
0
100
AcDbBlockEnd
  0
BLOCK
  5
5E49
330
5E3F
100
AcDbEntity
  8
0
100
AcDbBlockBegin
  2
*D2
 70
     1
 10
0.0
 20
0.0
 30
0.0
  3
*D2
  1

  0
LINE
  5
7C4B
330
5E3F
100
AcDbEntity
  8
30
  6
Continuous
 62
     0
370
    -2
100
AcDbLine
 10
18.99999999999996
 20
-24.10862113370407
 30
0.0
 11
18.99999999999996
 21
-40.49999999999999
 31
0.0
  0
LINE
  5
7C4C
330
5E3F
100
AcDbEntity
  8
30
  6
Continuous
 62
     0
370
    -2
100
AcDbLine
 10
40.99999999999996
 20
-24.10862113370407
 30
0.0
 11
40.99999999999996
 21
-40.49999999999999
 31
0.0
  0
LINE
  5
7C4D
330
5E3F
100
AcDbEntity
  8
30
  6
Continuous
 62
     0
370
    -2
100
AcDbLine
 10
20.99999999999997
 20
-40.0
 30
0.0
 11
38.99999999999997
 21
-40.0
 31
0.0
  0
INSERT
  5
7C4E
330
5E3F
100
AcDbEntity
  8
30
  6
Continuous
 62
     0
370
    -2
100
AcDbBlockReference
  2
_OPEN
 10
18.99999999999996
 20
-40.0
 30
0.0
 41
2.0
 42
2.0
 43
2.0
 50
180.0
  0
INSERT
  5
7C4F
330
5E3F
100
AcDbEntity
  8
30
  6
Continuous
 62
     0
370
    -2
100
AcDbBlockReference
  2
_OPEN
 10
40.99999999999996
 20
-40.0
 30
0.0
 41
2.0
 42
2.0
 43
2.0
  0
MTEXT
  5
7C50
330
5E3F
100
AcDbEntity
  8
30
  6
Continuous
 62
     0
100
AcDbMText
 10
29.99999999999997
 20
-37.0
 30
0.0
 40
4.0
 41
0.0
 71
     5
 72
     1
  1
\A1;22
 73
     1
 44
1.0
1001
ACAD
1000
MTEXTBEGIN
1070
    73
1070
     1
1070
    44
1040
1.0
1070
    74
1070
     0
1000
MTEXTEND
  0
POINT
  5
7C51
330
5E3F
100
AcDbEntity
  8
DEFPOINTS
  6
Continuous
 62
     0
100
AcDbPoint
 10
18.99999999999996
 20
-23.10862113370407
 30
0.0
  0
POINT
  5
7C52
330
5E3F
100
AcDbEntity
  8
DEFPOINTS
  6
Continuous
 62
     0
100
AcDbPoint
 10
40.99999999999996
 20
-23.10862113370407
 30
0.0
  0
POINT
  5
7C53
330
5E3F
100
AcDbEntity
  8
DEFPOINTS
  6
Continuous
 62
     0
100
AcDbPoint
 10
40.99999999999996
 20
-40.0
 30
0.0
  0
ENDBLK
  5
5E4A
330
5E3F
100
AcDbEntity
  8
0
100
AcDbBlockEnd
  0
BLOCK
  5
5E55
330
5E4B
100
AcDbEntity
  8
0
100
AcDbBlockBegin
  2
*D3
 70
     1
 10
0.0
 20
0.0
 30
0.0
  3
*D3
  1

  0
LINE
  5
7C54
330
5E4B
100
AcDbEntity
  8
30
  6
Continuous
 62
     0
370
    -2
100
AcDbLine
 10
-19.00000000000003
 20
27.89137886629593
 30
0.0
 11
-19.00000000000003
 21
40.49999999999999
 31
0.0
  0
LINE
  5
7C55
330
5E4B
100
AcDbEntity
  8
30
  6
Continuous
 62
     0
370
    -2
100
AcDbLine
 10
78.99999999999997
 20
27.89137886629593
 30
0.0
 11
78.99999999999997
 21
40.49999999999999
 31
0.0
  0
LINE
  5
7C56
330
5E4B
100
AcDbEntity
  8
30
  6
Continuous
 62
     0
370
    -2
100
AcDbLine
 10
-17.00000000000003
 20
40.0
 30
0.0
 11
76.99999999999997
 21
40.0
 31
0.0
  0
INSERT
  5
7C57
330
5E4B
100
AcDbEntity
  8
30
  6
Continuous
 62
     0
370
    -2
100
AcDbBlockReference
  2
_OPEN
 10
-19.00000000000003
 20
40.0
 30
0.0
 41
2.0
 42
2.0
 43
2.0
 50
180.0
  0
INSERT
  5
7C58
330
5E4B
100
AcDbEntity
  8
30
  6
Continuous
 62
     0
370
    -2
100
AcDbBlockReference
  2
_OPEN
 10
78.99999999999997
 20
40.0
 30
0.0
 41
2.0
 42
2.0
 43
2.0
  0
MTEXT
  5
7C59
330
5E4B
100
AcDbEntity
  8
30
  6
Continuous
 62
     0
100
AcDbMText
 10
29.99999999999997
 20
43.0
 30
0.0
 40
4.0
 41
0.0
 71
     5
 72
     1
  1
\A1;98
 73
     1
 44
1.0
1001
ACAD
1000
MTEXTBEGIN
1070
    73
1070
     1
1070
    44
1040
1.0
1070
    74
1070
     0
1000
MTEXTEND
  0
POINT
  5
7C5A
330
5E4B
100
AcDbEntity
  8
DEFPOINTS
  6
Continuous
 62
     0
100
AcDbPoint
 10
-19.00000000000003
 20
26.89137886629593
 30
0.0
  0
POINT
  5
7C5B
330
5E4B
100
AcDbEntity
  8
DEFPOINTS
  6
Continuous
 62
     0
100
AcDbPoint
 10
78.99999999999997
 20
26.89137886629593
 30
0.0
  0
POINT
  5
7C5C
330
5E4B
100
AcDbEntity
  8
DEFPOINTS
  6
Continuous
 62
     0
100
AcDbPoint
 10
78.99999999999997
 20
40.0
 30
0.0
  0
ENDBLK
  5
5E56
330
5E4B
100
AcDbEntity
  8
0
100
AcDbBlockEnd
  0
BLOCK
  5
5F5B
330
5F5A
100
AcDbEntity
  8
0
100
AcDbBlockBegin
  2
_D0
 70
     0
 10
0.0
 20
0.0
 30
0.0
  3
_D0
  1

  0
MTEXT
  5
5F5C
330
5F5A
100
AcDbEntity
  8
1
  6
Continuous
 62
     4
100
AcDbMText
 10
357.307292
 20
152.036338
 30
0.0
 40
2.5
 41
0.0
 71
     7
 72
     5
  1
\W01.000;\fsimplex.shx;6
  7
blockfont
 11
0.0
 21
1.0
 31
0.0
 73
     2
 44
0.9036139999999999
1001
ACAD
1000
MTEXTBEGIN
1070
    73
1070
     2
1070
    44
1040
0.9036139999999999
1070
    74
1070
     0
1000
MTEXTEND
  0
ENDBLK
  5
5F5D
330
5F5A
100
AcDbEntity
  8
0
100
AcDbBlockEnd
  0
BLOCK
  5
5F5F
330
5F5E
100
AcDbEntity
  8
0
100
AcDbBlockBegin
  2
_D1
 70
     0
 10
0.0
 20
0.0
 30
0.0
  3
_D1
  1

  0
MTEXT
  5
5F60
330
5F5E
100
AcDbEntity
  8
1
  6
Continuous
 62
     4
100
AcDbMText
 10
357.307292
 20
93.445452
 30
0.0
 40
2.5
 41
0.0
 71
     7
 72
     5
  1
\W01.000;\fsimplex.shx;20
  7
blockfont
 11
0.0
 21
1.0
 31
0.0
 73
     2
 44
0.9036139999999999
1001
ACAD
1000
MTEXTBEGIN
1070
    73
1070
     2
1070
    44
1040
0.9036139999999999
1070
    74
1070
     0
1000
MTEXTEND
  0
LINE
  5
5F61
330
5F5E
100
AcDbEntity
  8
1
 62
     4
100
AcDbLine
 10
343.961636
 20
90.864723
 30
0.0
 11
358.75
 21
90.864723
 31
0.0
  0
LINE
  5
5F62
330
5F5E
100
AcDbEntity
  8
1
 62
     4
100
AcDbLine
 10
343.961636
 20
98.86472300000001
 30
0.0
 11
358.75
 21
98.86472300000001
 31
0.0
  0
LINE
  5
5F63
330
5F5E
100
AcDbEntity
  8
1
 62
     4
100
AcDbLine
 10
357.75
 20
90.864723
 30
0.0
 11
357.75
 21
98.86472300000001
 31
0.0
  0
SOLID
  5
5F64
330
5F5E
100
AcDbEntity
  8
1
 62
     4
100
AcDbTrace
 10
357.75
 20
90.864723
 30
0.0
 11
357.40993
 21
92.864722
 31
0.0
 12
358.09007
 22
92.86472399999999
 32
0.0
 13
357.75
 23
90.864723
 33
0.0
  0
SOLID
  5
5F65
330
5F5E
100
AcDbEntity
  8
1
 62
     4
100
AcDbTrace
 10
357.75
 20
98.86472300000001
 30
0.0
 11
358.09007
 21
96.86472399999999
 31
0.0
 12
357.40993
 22
96.864722
 32
0.0
 13
357.75
 23
98.86472300000001
 33
0.0
  0
ENDBLK
  5
5F66
330
5F5E
100
AcDbEntity
  8
0
100
AcDbBlockEnd
  0
BLOCK
  5
5F68
330
5F67
100
AcDbEntity
  8
0
100
AcDbBlockBegin
  2
_D2
 70
     0
 10
0.0
 20
0.0
 30
0.0
  3
_D2
  1

  0
MTEXT
  5
5F69
330
5F67
100
AcDbEntity
  8
1
  6
Continuous
 62
     4
100
AcDbMText
 10
351.590297
 20
123.236338
 30
0.0
 40
2.5
 41
0.0
 71
     7
 72
     5
  1
\W01.000;\fsimplex.shx; 
  7
blockfont
 11
0.0
 21
1.0
 31
0.0
 73
     2
 44
0.9036139999999999
1001
ACAD
1000
MTEXTBEGIN
1070
    73
1070
     2
1070
    44
1040
0.9036139999999999
1070
    74
1070
     0
1000
MTEXTEND
  0
LINE
  5
5F6A
330
5F67
100
AcDbEntity
  8
1
 62
     4
100
AcDbLine
 10
301.251196
 20
94.864723
 30
0.0
 11
353.033005
 21
94.864723
 31
0.0
  0
LINE
  5
5F6B
330
5F67
100
AcDbEntity
  8
1
 62
     4
100
AcDbLine
 10
301.252196
 20
152.464723
 30
0.0
 11
353.033005
 21
152.464723
 31
0.0
  0
ENDBLK
  5
5F6C
330
5F67
100
AcDbEntity
  8
0
100
AcDbBlockEnd
  0
BLOCK
  5
5F6E
330
5F6D
100
AcDbEntity
  8
0
100
AcDbBlockBegin
  2
_D3
 70
     0
 10
0.0
 20
0.0
 30
0.0
  3
_D3
  1

  0
MTEXT
  5
5F6F
330
5F6D
100
AcDbEntity
  8
1
  6
Continuous
 62
     4
100
AcDbMText
 10
225.807292
 20
121.254567
 30
0.0
 40
2.5
 41
0.0
 71
     7
 72
     5
  1
\W01.000;\fsimplex.shx;192
  7
blockfont
 11
0.0
 21
1.0
 31
0.0
 73
     2
 44
0.9036139999999999
1001
ACAD
1000
MTEXTBEGIN
1070
    73
1070
     2
1070
    44
1040
0.9036139999999999
1070
    74
1070
     0
1000
MTEXTEND
  0
LINE
  5
5F70
330
5F6D
100
AcDbEntity
  8
1
 62
     4
100
AcDbLine
 10
215.051196
 20
85.264723
 30
0.0
 11
227.25
 21
85.264723
 31
0.0
  0
LINE
  5
5F71
330
5F6D
100
AcDbEntity
  8
1
 62
     4
100
AcDbLine
 10
215.051196
 20
162.064723
 30
0.0
 11
227.25
 21
162.064723
 31
0.0
  0
LINE
  5
5F72
330
5F6D
100
AcDbEntity
  8
1
 62
     4
100
AcDbLine
 10
226.25
 20
85.264723
 30
0.0
 11
226.25
 21
162.064723
 31
0.0
  0
SOLID
  5
5F73
330
5F6D
100
AcDbEntity
  8
1
 62
     4
100
AcDbTrace
 10
226.25
 20
85.264723
 30
0.0
 11
225.90993
 21
87.26472199999998
 31
0.0
 12
226.59007
 22
87.264724
 32
0.0
 13
226.25
 23
85.264723
 33
0.0
  0
SOLID
  5
5F74
330
5F6D
100
AcDbEntity
  8
1
 62
     4
100
AcDbTrace
 10
226.25
 20
162.064723
 30
0.0
 11
226.59007
 21
160.064724
 31
0.0
 12
225.90993
 22
160.064722
 32
0.0
 13
226.25
 23
162.064723
 33
0.0
  0
ENDBLK
  5
5F75
330
5F6D
100
AcDbEntity
  8
0
100
AcDbBlockEnd
  0
BLOCK
  5
5F77
330
5F76
100
AcDbEntity
  8
0
100
AcDbBlockBegin
  2
_D4
 70
     0
 10
0.0
 20
0.0
 30
0.0
  3
_D4
  1

  0
MTEXT
  5
5F78
330
5F76
100
AcDbEntity
  8
1
  6
Continuous
 62
     4
100
AcDbMText
 10
250.807292
 20
122.245452
 30
0.0
 40
2.5
 41
0.0
 71
     7
 72
     5
  1
\W01.000;\fsimplex.shx;50
  7
blockfont
 11
0.0
 21
1.0
 31
0.0
 73
     2
 44
0.9036139999999999
1001
ACAD
1000
MTEXTBEGIN
1070
    73
1070
     2
1070
    44
1040
0.9036139999999999
1070
    74
1070
     0
1000
MTEXTEND
  0
LINE
  5
5F79
330
5F76
100
AcDbEntity
  8
1
 62
     4
100
AcDbLine
 10
269.851196
 20
113.664723
 30
0.0
 11
250.25
 21
113.664723
 31
0.0
  0
LINE
  5
5F7A
330
5F76
100
AcDbEntity
  8
1
 62
     4
100
AcDbLine
 10
269.851196
 20
133.664723
 30
0.0
 11
250.25
 21
133.664723
 31
0.0
  0
LINE
  5
5F7B
330
5F76
100
AcDbEntity
  8
1
 62
     4
100
AcDbLine
 10
251.25
 20
113.664723
 30
0.0
 11
251.25
 21
133.664723
 31
0.0
  0
SOLID
  5
5F7C
330
5F76
100
AcDbEntity
  8
1
 62
     4
100
AcDbTrace
 10
251.25
 20
113.664723
 30
0.0
 11
250.90993
 21
115.664722
 31
0.0
 12
251.59007
 22
115.664724
 32
0.0
 13
251.25
 23
113.664723
 33
0.0
  0
SOLID
  5
5F7D
330
5F76
100
AcDbEntity
  8
1
 62
     4
100
AcDbTrace
 10
251.25
 20
133.664723
 30
0.0
 11
251.59007
 21
131.664724
 31
0.0
 12
250.90993
 22
131.664722
 32
0.0
 13
251.25
 23
133.664723
 33
0.0
  0
ENDBLK
  5
5F7E
330
5F76
100
AcDbEntity
  8
0
100
AcDbBlockEnd
  0
BLOCK
  5
5F80
330
5F7F
100
AcDbEntity
  8
0
100
AcDbBlockBegin
  2
_D5
 70
     0
 10
0.0
 20
0.0
 30
0.0
  3
_D5
  1

  0
MTEXT
  5
5F81
330
5F7F
100
AcDbEntity
  8
1
  6
Continuous
 62
     4
100
AcDbMText
 10
385.807292
 20
271.645452
 30
0.0
 40
2.5
 41
0.0
 71
     7
 72
     5
  1
\W01.000;\fsimplex.shx;66
  7
blockfont
 11
0.0
 21
1.0
 31
0.0
 73
     2
 44
0.9036139999999999
1001
ACAD
1000
MTEXTBEGIN
1070
    73
1070
     2
1070
    44
1040
0.9036139999999999
1070
    74
1070
     0
1000
MTEXTEND
  0
LINE
  5
5F82
330
5F7F
100
AcDbEntity
  8
1
 62
     4
100
AcDbLine
 10
404.0511959999998
 20
259.864723
 30
0.0
 11
385.25
 21
259.864723
 31
0.0
  0
LINE
  5
5F83
330
5F7F
100
AcDbEntity
  8
1
 62
     4
100
AcDbLine
 10
404.0511959999998
 20
286.264723
 30
0.0
 11
385.25
 21
286.264723
 31
0.0
  0
LINE
  5
5F84
330
5F7F
100
AcDbEntity
  8
1
 62
     4
100
AcDbLine
 10
386.25
 20
259.864723
 30
0.0
 11
386.25
 21
286.264723
 31
0.0
  0
SOLID
  5
5F85
330
5F7F
100
AcDbEntity
  8
1
 62
     4
100
AcDbTrace
 10
386.25
 20
259.864723
 30
0.0
 11
385.90993
 21
261.864722
 31
0.0
 12
386.59007
 22
261.864724
 32
0.0
 13
386.25
 23
259.864723
 33
0.0
  0
SOLID
  5
5F86
330
5F7F
100
AcDbEntity
  8
1
 62
     4
100
AcDbTrace
 10
386.25
 20
286.264723
 30
0.0
 11
386.59007
 21
284.264724
 31
0.0
 12
385.90993
 22
284.264722
 32
0.0
 13
386.25
 23
286.264723
 33
0.0
  0
ENDBLK
  5
5F87
330
5F7F
100
AcDbEntity
  8
0
100
AcDbBlockEnd
  0
BLOCK
  5
5F89
330
5F88
100
AcDbEntity
  8
0
100
AcDbBlockBegin
  2
_D6
 70
     0
 10
0.0
 20
0.0
 30
0.0
  3
_D6
  1

  0
MTEXT
  5
5F8A
330
5F88
100
AcDbEntity
  8
1
  6
Continuous
 62
     4
100
AcDbMText
 10
375.807292
 20
270.654567
 30
0.0
 40
2.5
 41
0.0
 71
     7
 72
     5
  1
\W01.000;\fsimplex.shx;181
  7
blockfont
 11
0.0
 21
1.0
 31
0.0
 73
     2
 44
0.9036139999999999
1001
ACAD
1000
MTEXTBEGIN
1070
    73
1070
     2
1070
    44
1040
0.9036139999999999
1070
    74
1070
     0
1000
MTEXTEND
  0
LINE
  5
5F8B
330
5F88
100
AcDbEntity
  8
1
 62
     4
100
AcDbLine
 10
406.051196
 20
236.864723
 30
0.0
 11
375.25
 21
236.864723
 31
0.0
  0
LINE
  5
5F8C
330
5F88
100
AcDbEntity
  8
1
 62
     4
100
AcDbLine
 10
406.051196
 20
309.264723
 30
0.0
 11
375.25
 21
309.264723
 31
0.0
  0
LINE
  5
5F8D
330
5F88
100
AcDbEntity
  8
1
 62
     4
100
AcDbLine
 10
376.25
 20
236.864723
 30
0.0
 11
376.25
 21
309.264723
 31
0.0
  0
SOLID
  5
5F8E
330
5F88
100
AcDbEntity
  8
1
 62
     4
100
AcDbTrace
 10
376.25
 20
236.864723
 30
0.0
 11
375.90993
 21
238.864722
 31
0.0
 12
376.59007
 22
238.864724
 32
0.0
 13
376.25
 23
236.864723
 33
0.0
  0
SOLID
  5
5F8F
330
5F88
100
AcDbEntity
  8
1
 62
     4
100
AcDbTrace
 10
376.25
 20
309.264723
 30
0.0
 11
376.59007
 21
307.264724
 31
0.0
 12
375.90993
 22
307.264722
 32
0.0
 13
376.25
 23
309.264723
 33
0.0
  0
ENDBLK
  5
5F90
330
5F88
100
AcDbEntity
  8
0
100
AcDbBlockEnd
  0
BLOCK
  5
5F92
330
5F91
100
AcDbEntity
  8
0
100
AcDbBlockBegin
  2
_D7
 70
     0
 10
0.0
 20
0.0
 30
0.0
  3
_D7
  1

  0
MTEXT
  5
5F93
330
5F91
100
AcDbEntity
  8
1
  6
Continuous
 62
     4
100
AcDbMText
 10
357.572917
 20
152.293369
 30
0.0
 40
1.0
 41
0.0
 71
     7
 72
     5
  1
\W01.000;\fsimplex.shx; 
  7
blockfont
 11
0.0
 21
1.0
 31
0.0
 73
     2
 44
0.9036139999999999
1001
ACAD
1000
MTEXTBEGIN
1070
    73
1070
     2
1070
    44
1040
0.9036139999999999
1070
    74
1070
     0
1000
MTEXTEND
  0
LINE
  5
5F94
330
5F91
100
AcDbEntity
  8
1
 62
     4
100
AcDbLine
 10
345.033433
 20
151.264723
 30
0.0
 11
358.75
 21
151.264723
 31
0.0
  0
LINE
  5
5F95
330
5F91
100
AcDbEntity
  8
1
 62
     4
100
AcDbLine
 10
345.033433
 20
153.664723
 30
0.0
 11
358.75
 21
153.664723
 31
0.0
  0
LINE
  5
5F96
330
5F91
100
AcDbEntity
  8
1
 62
     4
100
AcDbLine
 10
357.75
 20
148.764723
 30
0.0
 11
357.75
 21
156.164723
 31
0.0
  0
SOLID
  5
5F97
330
5F91
100
AcDbEntity
  8
1
 62
     4
100
AcDbTrace
 10
357.75
 20
151.264723
 30
0.0
 11
358.09007
 21
149.264724
 31
0.0
 12
357.40993
 22
149.264722
 32
0.0
 13
357.75
 23
151.264723
 33
0.0
  0
SOLID
  5
5F98
330
5F91
100
AcDbEntity
  8
1
 62
     4
100
AcDbTrace
 10
357.75
 20
153.664723
 30
0.0
 11
357.40993
 21
155.664722
 31
0.0
 12
358.09007
 22
155.664724
 32
0.0
 13
357.75
 23
153.664723
 33
0.0
  0
ENDBLK
  5
5F99
330
5F91
100
AcDbEntity
  8
0
100
AcDbBlockEnd
  0
BLOCK
  5
5F9B
330
5F9A
100
AcDbEntity
  8
0
100
AcDbBlockBegin
  2
_D8
 70
     0
 10
0.0
 20
0.0
 30
0.0
  3
_D8
  1

  0
MTEXT
  5
5F9C
330
5F9A
100
AcDbEntity
  8
1
  6
Continuous
 62
     4
100
AcDbMText
 10
365.807292
 20
121.254567
 30
0.0
 40
2.5
 41
0.0
 71
     7
 72
     5
  1
\W01.000;\fsimplex.shx;144
  7
blockfont
 11
0.0
 21
1.0
 31
0.0
 73
     2
 44
0.9036139999999999
1001
ACAD
1000
MTEXTBEGIN
1070
    73
1070
     2
1070
    44
1040
0.9036139999999999
1070
    74
1070
     0
1000
MTEXTEND
  0
LINE
  5
5F9D
330
5F9A
100
AcDbEntity
  8
1
 62
     4
100
AcDbLine
 10
359.0344330000001
 20
94.864723
 30
0.0
 11
367.25
 21
94.864723
 31
0.0
  0
LINE
  5
5F9E
330
5F9A
100
AcDbEntity
  8
1
 62
     4
100
AcDbLine
 10
359.033433
 20
152.464723
 30
0.0
 11
367.25
 21
152.464723
 31
0.0
  0
LINE
  5
5F9F
330
5F9A
100
AcDbEntity
  8
1
 62
     4
100
AcDbLine
 10
366.25
 20
94.864723
 30
0.0
 11
366.25
 21
152.464723
 31
0.0
  0
SOLID
  5
5FA0
330
5F9A
100
AcDbEntity
  8
1
 62
     4
100
AcDbTrace
 10
366.25
 20
94.864723
 30
0.0
 11
365.90993
 21
96.864722
 31
0.0
 12
366.59007
 22
96.86472399999999
 32
0.0
 13
366.25
 23
94.864723
 33
0.0
  0
SOLID
  5
5FA1
330
5F9A
100
AcDbEntity
  8
1
 62
     4
100
AcDbTrace
 10
366.25
 20
152.464723
 30
0.0
 11
366.59007
 21
150.464724
 31
0.0
 12
365.90993
 22
150.464722
 32
0.0
 13
366.25
 23
152.464723
 33
0.0
  0
ENDBLK
  5
5FA2
330
5F9A
100
AcDbEntity
  8
0
100
AcDbBlockEnd
  0
BLOCK
  5
5FA4
330
5FA3
100
AcDbEntity
  8
0
100
AcDbBlockBegin
  2
_D9
 70
     0
 10
0.0
 20
0.0
 30
0.0
  3
_D9
  1

  0
MTEXT
  5
5FA5
330
5FA3
100
AcDbEntity
  8
1
  6
Continuous
 62
     4
100
AcDbMText
 10
318.281039
 20
87.43633800000003
 30
0.0
 40
2.5
 41
0.0
 71
     7
 72
     5
  1
\W01.000;\fsimplex.shx;9
  7
blockfont
 11
0.0
 21
1.0
 31
0.0
 73
     2
 44
0.9036139999999999
1001
ACAD
1000
MTEXTBEGIN
1070
    73
1070
     2
1070
    44
1040
0.9036139999999999
1070
    74
1070
     0
1000
MTEXTEND
  0
LINE
  5
5FA6
330
5FA3
100
AcDbEntity
  8
1
 62
     4
100
AcDbLine
 10
318.723748
 20
93.06472300000001
 30
0.0
 11
318.723748
 21
86.998838
 31
0.0
  0
SOLID
  5
5FA7
330
5FA3
100
AcDbEntity
  8
1
 62
     4
100
AcDbTrace
 10
318.723748
 20
93.06472300000001
 30
0.0
 11
319.063818
 21
91.06472399999999
 31
0.0
 12
318.383677
 22
91.064722
 32
0.0
 13
318.723748
 23
93.06472300000001
 33
0.0
  0
ENDBLK
  5
5FA8
330
5FA3
100
AcDbEntity
  8
0
100
AcDbBlockEnd
  0
BLOCK
  5
5FAA
330
5FA9
100
AcDbEntity
  8
0
100
AcDbBlockBegin
  2
_D10
 70
     0
 10
0.0
 20
0.0
 30
0.0
  3
_D10
  1

  0
MTEXT
  5
5FAB
330
5FA9
100
AcDbEntity
  8
1
  6
Continuous
 62
     4
100
AcDbMText
 10
318.546664
 20
94.693369
 30
0.0
 40
1.0
 41
0.0
 71
     7
 72
     5
  1
\W01.000;\fsimplex.shx; 
  7
blockfont
 11
0.0
 21
1.0
 31
0.0
 73
     2
 44
0.9036139999999999
1001
ACAD
1000
MTEXTBEGIN
1070
    73
1070
     2
1070
    44
1040
0.9036139999999999
1070
    74
1070
     0
1000
MTEXTEND
  0
LINE
  5
5FAC
330
5FA9
100
AcDbEntity
  8
1
 62
     4
100
AcDbLine
 10
322.633433
 20
93.06472300000001
 30
0.0
 11
317.723748
 21
93.06472300000001
 31
0.0
  0
LINE
  5
5FAD
330
5FA9
100
AcDbEntity
  8
1
 62
     4
100
AcDbLine
 10
322.632433
 20
96.664723
 30
0.0
 11
317.723748
 21
96.664723
 31
0.0
  0
LINE
  5
5FAE
330
5FA9
100
AcDbEntity
  8
1
 62
     4
100
AcDbLine
 10
318.723748
 20
90.56472300000001
 30
0.0
 11
318.723748
 21
99.164723
 31
0.0
  0
SOLID
  5
5FAF
330
5FA9
100
AcDbEntity
  8
1
 62
     4
100
AcDbTrace
 10
318.723748
 20
93.06472300000001
 30
0.0
 11
319.063818
 21
91.06472399999999
 31
0.0
 12
318.383677
 22
91.064722
 32
0.0
 13
318.723748
 23
93.06472300000001
 33
0.0
  0
SOLID
  5
5FB0
330
5FA9
100
AcDbEntity
  8
1
 62
     4
100
AcDbTrace
 10
318.723748
 20
96.664723
 30
0.0
 11
318.383677
 21
98.664722
 31
0.0
 12
319.063818
 22
98.66472400000001
 32
0.0
 13
318.723748
 23
96.664723
 33
0.0
  0
ENDBLK
  5
5FB1
330
5FA9
100
AcDbEntity
  8
0
100
AcDbBlockEnd
  0
BLOCK
  5
5FB3
330
5FB2
100
AcDbEntity
  8
0
100
AcDbBlockBegin
  2
_D11
 70
     0
 10
0.0
 20
0.0
 30
0.0
  3
_D11
  1

  0
MTEXT
  5
5FB4
330
5FB2
100
AcDbEntity
  8
1
  6
Continuous
 62
     4
100
AcDbMText
 10
423.8319249999998
 20
69.92565299999999
 30
0.0
 40
2.5
 41
0.0
 71
     7
 72
     5
  1
\W01.000;\fsimplex.shx;35
  7
blockfont
 73
     2
 44
0.9036139999999999
1001
ACAD
1000
MTEXTBEGIN
1070
    73
1070
     2
1070
    44
1040
0.9036139999999999
1070
    74
1070
     0
1000
MTEXTEND
  0
LINE
  5
5FB5
330
5FB2
100
AcDbEntity
  8
1
 62
     4
100
AcDbLine
 10
418.251196
 20
111.664723
 30
0.0
 11
418.251196
 21
68.482945
 31
0.0
  0
LINE
  5
5FB6
330
5FB2
100
AcDbEntity
  8
1
 62
     4
100
AcDbLine
 10
432.2511959999998
 20
95.46472300000001
 30
0.0
 11
432.2511959999998
 21
68.482945
 31
0.0
  0
LINE
  5
5FB7
330
5FB2
100
AcDbEntity
  8
1
 62
     4
100
AcDbLine
 10
418.251196
 20
69.482945
 30
0.0
 11
432.2511959999998
 21
69.482945
 31
0.0
  0
SOLID
  5
5FB8
330
5FB2
100
AcDbEntity
  8
1
 62
     4
100
AcDbTrace
 10
418.251196
 20
69.482945
 30
0.0
 11
420.2511949999998
 21
69.823015
 31
0.0
 12
420.2511969999997
 22
69.142874
 32
0.0
 13
418.251196
 23
69.482945
 33
0.0
  0
SOLID
  5
5FB9
330
5FB2
100
AcDbEntity
  8
1
 62
     4
100
AcDbTrace
 10
432.2511959999998
 20
69.482945
 30
0.0
 11
430.251197
 21
69.142874
 31
0.0
 12
430.251195
 22
69.823015
 32
0.0
 13
432.2511959999998
 23
69.482945
 33
0.0
  0
ENDBLK
  5
5FBA
330
5FB2
100
AcDbEntity
  8
0
100
AcDbBlockEnd
  0
BLOCK
  5
5FBC
330
5FBB
100
AcDbEntity
  8
0
100
AcDbBlockBegin
  2
_D12
 70
     0
 10
0.0
 20
0.0
 30
0.0
  3
_D12
  1

  0
MTEXT
  5
5FBD
330
5FBB
100
AcDbEntity
  8
1
  6
Continuous
 62
     4
100
AcDbMText
 10
437.831925
 20
69.92565299999999
 30
0.0
 40
2.5
 41
0.0
 71
     7
 72
     5
  1
\W01.000;\fsimplex.shx;35
  7
blockfont
 73
     2
 44
0.9036139999999999
1001
ACAD
1000
MTEXTBEGIN
1070
    73
1070
     2
1070
    44
1040
0.9036139999999999
1070
    74
1070
     0
1000
MTEXTEND
  0
LINE
  5
5FBE
330
5FBB
100
AcDbEntity
  8
1
 62
     4
100
AcDbLine
 10
432.2511959999998
 20
95.46472300000001
 30
0.0
 11
432.2511959999998
 21
68.482945
 31
0.0
  0
LINE
  5
5FBF
330
5FBB
100
AcDbEntity
  8
1
 62
     4
100
AcDbLine
 10
446.2511959999998
 20
111.664723
 30
0.0
 11
446.2511959999998
 21
68.482945
 31
0.0
  0
LINE
  5
5FC0
330
5FBB
100
AcDbEntity
  8
1
 62
     4
100
AcDbLine
 10
432.2511959999998
 20
69.482945
 30
0.0
 11
446.2511959999998
 21
69.482945
 31
0.0
  0
SOLID
  5
5FC1
330
5FBB
100
AcDbEntity
  8
1
 62
     4
100
AcDbTrace
 10
432.2511959999998
 20
69.482945
 30
0.0
 11
434.251195
 21
69.823015
 31
0.0
 12
434.251197
 22
69.142874
 32
0.0
 13
432.2511959999998
 23
69.482945
 33
0.0
  0
SOLID
  5
5FC2
330
5FBB
100
AcDbEntity
  8
1
 62
     4
100
AcDbTrace
 10
446.2511959999998
 20
69.482945
 30
0.0
 11
444.2511969999998
 21
69.142874
 31
0.0
 12
444.251195
 22
69.823015
 32
0.0
 13
446.2511959999998
 23
69.482945
 33
0.0
  0
ENDBLK
  5
5FC3
330
5FBB
100
AcDbEntity
  8
0
100
AcDbBlockEnd
  0
BLOCK
  5
5FC5
330
5FC4
100
AcDbEntity
  8
0
100
AcDbBlockBegin
  2
_D13
 70
     0
 10
0.0
 20
0.0
 30
0.0
  3
_D13
  1

  0
MTEXT
  5
5FC6
330
5FC4
100
AcDbEntity
  8
1
  6
Continuous
 62
     4
100
AcDbMText
 10
429.84104
 20
224.192708
 30
0.0
 40
2.5
 41
0.0
 71
     7
 72
     5
  1
\W01.000;\fsimplex.shx;126
  7
blockfont
 73
     2
 44
0.9036139999999999
1001
ACAD
1000
MTEXTBEGIN
1070
    73
1070
     2
1070
    44
1040
0.9036139999999999
1070
    74
1070
     0
1000
MTEXTEND
  0
LINE
  5
5FC7
330
5FC4
100
AcDbEntity
  8
1
 62
     4
100
AcDbLine
 10
407.051196
 20
235.864723
 30
0.0
 11
407.051196
 21
222.75
 31
0.0
  0
LINE
  5
5FC8
330
5FC4
100
AcDbEntity
  8
1
 62
     4
100
AcDbLine
 10
457.4511959999998
 20
235.864723
 30
0.0
 11
457.4511959999998
 21
222.75
 31
0.0
  0
LINE
  5
5FC9
330
5FC4
100
AcDbEntity
  8
1
 62
     4
100
AcDbLine
 10
407.051196
 20
223.75
 30
0.0
 11
457.4511959999998
 21
223.75
 31
0.0
  0
SOLID
  5
5FCA
330
5FC4
100
AcDbEntity
  8
1
 62
     4
100
AcDbTrace
 10
407.051196
 20
223.75
 30
0.0
 11
409.0511949999998
 21
224.09007
 31
0.0
 12
409.0511969999998
 22
223.40993
 32
0.0
 13
407.051196
 23
223.75
 33
0.0
  0
SOLID
  5
5FCB
330
5FC4
100
AcDbEntity
  8
1
 62
     4
100
AcDbTrace
 10
457.4511959999998
 20
223.75
 30
0.0
 11
455.451197
 21
223.40993
 31
0.0
 12
455.451195
 22
224.09007
 32
0.0
 13
457.4511959999998
 23
223.75
 33
0.0
  0
ENDBLK
  5
5FCC
330
5FC4
100
AcDbEntity
  8
0
100
AcDbBlockEnd
  0
BLOCK
  5
5FCE
330
5FCD
100
AcDbEntity
  8
0
100
AcDbBlockBegin
  2
_D14
 70
     0
 10
0.0
 20
0.0
 30
0.0
  3
_D14
  1

  0
MTEXT
  5
5FCF
330
5FCD
100
AcDbEntity
  8
1
  6
Continuous
 62
     4
100
AcDbMText
 10
429.84104
 20
214.192708
 30
0.0
 40
2.5
 41
0.0
 71
     7
 72
     5
  1
\W01.000;\fsimplex.shx;136
  7
blockfont
 73
     2
 44
0.9036139999999999
1001
ACAD
1000
MTEXTBEGIN
1070
    73
1070
     2
1070
    44
1040
0.9036139999999999
1070
    74
1070
     0
1000
MTEXTEND
  0
LINE
  5
5FD0
330
5FCD
100
AcDbEntity
  8
1
 62
     4
100
AcDbLine
 10
405.0511959999998
 20
258.864723
 30
0.0
 11
405.0511959999998
 21
212.75
 31
0.0
  0
LINE
  5
5FD1
330
5FCD
100
AcDbEntity
  8
1
 62
     4
100
AcDbLine
 10
459.451196
 20
258.864723
 30
0.0
 11
459.451196
 21
212.75
 31
0.0
  0
LINE
  5
5FD2
330
5FCD
100
AcDbEntity
  8
1
 62
     4
100
AcDbLine
 10
405.0511959999998
 20
213.75
 30
0.0
 11
459.451196
 21
213.75
 31
0.0
  0
SOLID
  5
5FD3
330
5FCD
100
AcDbEntity
  8
1
 62
     4
100
AcDbTrace
 10
405.0511959999998
 20
213.75
 30
0.0
 11
407.051195
 21
214.09007
 31
0.0
 12
407.051197
 22
213.40993
 32
0.0
 13
405.0511959999998
 23
213.75
 33
0.0
  0
SOLID
  5
5FD4
330
5FCD
100
AcDbEntity
  8
1
 62
     4
100
AcDbTrace
 10
459.451196
 20
213.75
 30
0.0
 11
457.4511969999998
 21
213.40993
 31
0.0
 12
457.451195
 22
214.09007
 32
0.0
 13
459.451196
 23
213.75
 33
0.0
  0
ENDBLK
  5
5FD5
330
5FCD
100
AcDbEntity
  8
0
100
AcDbBlockEnd
  0
BLOCK
  5
5FD7
330
5FD6
100
AcDbEntity
  8
0
100
AcDbBlockBegin
  2
_D15
 70
     0
 10
0.0
 20
0.0
 30
0.0
  3
_D15
  1

  0
MTEXT
  5
5FD8
330
5FD6
100
AcDbEntity
  8
1
  6
Continuous
 62
     4
100
AcDbMText
 10
520.8410399999998
 20
224.192708
 30
0.0
 40
2.5
 41
0.0
 71
     7
 72
     5
  1
\W01.000;\fsimplex.shx;161
  7
blockfont
 73
     2
 44
0.9036139999999999
1001
ACAD
1000
MTEXTBEGIN
1070
    73
1070
     2
1070
    44
1040
0.9036139999999999
1070
    74
1070
     0
1000
MTEXTEND
  0
LINE
  5
5FD9
330
5FD6
100
AcDbEntity
  8
1
 62
     4
100
AcDbLine
 10
491.051196
 20
235.864723
 30
0.0
 11
491.051196
 21
222.75
 31
0.0
  0
LINE
  5
5FDA
330
5FD6
100
AcDbEntity
  8
1
 62
     4
100
AcDbLine
 10
555.451196
 20
235.864723
 30
0.0
 11
555.451196
 21
222.75
 31
0.0
  0
LINE
  5
5FDB
330
5FD6
100
AcDbEntity
  8
1
 62
     4
100
AcDbLine
 10
491.051196
 20
223.75
 30
0.0
 11
555.451196
 21
223.75
 31
0.0
  0
SOLID
  5
5FDC
330
5FD6
100
AcDbEntity
  8
1
 62
     4
100
AcDbTrace
 10
491.051196
 20
223.75
 30
0.0
 11
493.051195
 21
224.09007
 31
0.0
 12
493.051197
 22
223.40993
 32
0.0
 13
491.051196
 23
223.75
 33
0.0
  0
SOLID
  5
5FDD
330
5FD6
100
AcDbEntity
  8
1
 62
     4
100
AcDbTrace
 10
555.451196
 20
223.75
 30
0.0
 11
553.4511969999998
 21
223.40993
 31
0.0
 12
553.4511949999998
 22
224.09007
 32
0.0
 13
555.451196
 23
223.75
 33
0.0
  0
ENDBLK
  5
5FDE
330
5FD6
100
AcDbEntity
  8
0
100
AcDbBlockEnd
  0
BLOCK
  5
5FE0
330
5FDF
100
AcDbEntity
  8
0
100
AcDbBlockBegin
  2
_D16
 70
     0
 10
0.0
 20
0.0
 30
0.0
  3
_D16
  1

  0
MTEXT
  5
5FE1
330
5FDF
100
AcDbEntity
  8
1
  6
Continuous
 62
     4
100
AcDbMText
 10
520.8410399999998
 20
214.192708
 30
0.0
 40
2.5
 41
0.0
 71
     7
 72
     5
  1
\W01.000;\fsimplex.shx;171
  7
blockfont
 73
     2
 44
0.9036139999999999
1001
ACAD
1000
MTEXTBEGIN
1070
    73
1070
     2
1070
    44
1040
0.9036139999999999
1070
    74
1070
     0
1000
MTEXTEND
  0
LINE
  5
5FE2
330
5FDF
100
AcDbEntity
  8
1
 62
     4
100
AcDbLine
 10
489.051196
 20
258.864723
 30
0.0
 11
489.051196
 21
212.75
 31
0.0
  0
LINE
  5
5FE3
330
5FDF
100
AcDbEntity
  8
1
 62
     4
100
AcDbLine
 10
557.4511959999998
 20
258.864723
 30
0.0
 11
557.4511959999998
 21
212.75
 31
0.0
  0
LINE
  5
5FE4
330
5FDF
100
AcDbEntity
  8
1
 62
     4
100
AcDbLine
 10
489.051196
 20
213.75
 30
0.0
 11
557.4511959999998
 21
213.75
 31
0.0
  0
SOLID
  5
5FE5
330
5FDF
100
AcDbEntity
  8
1
 62
     4
100
AcDbTrace
 10
489.051196
 20
213.75
 30
0.0
 11
491.051195
 21
214.09007
 31
0.0
 12
491.0511969999998
 22
213.40993
 32
0.0
 13
489.051196
 23
213.75
 33
0.0
  0
SOLID
  5
5FE6
330
5FDF
100
AcDbEntity
  8
1
 62
     4
100
AcDbTrace
 10
557.4511959999998
 20
213.75
 30
0.0
 11
555.451197
 21
213.40993
 31
0.0
 12
555.451195
 22
214.09007
 32
0.0
 13
557.4511959999998
 23
213.75
 33
0.0
  0
ENDBLK
  5
5FE7
330
5FDF
100
AcDbEntity
  8
0
100
AcDbBlockEnd
  0
BLOCK
  5
5FE9
330
5FE8
100
AcDbEntity
  8
0
100
AcDbBlockBegin
  2
_D17
 70
     0
 10
0.0
 20
0.0
 30
0.0
  3
_D17
  1

  0
MTEXT
  5
5FEA
330
5FE8
100
AcDbEntity
  8
1
  6
Continuous
 62
     4
100
AcDbMText
 10
93.44103999999999
 20
69.92565299999999
 30
0.0
 40
2.5
 41
0.0
 71
     7
 72
     5
  1
\W01.000;\fsimplex.shx;157
  7
blockfont
 73
     2
 44
0.9036139999999999
1001
ACAD
1000
MTEXTBEGIN
1070
    73
1070
     2
1070
    44
1040
0.9036139999999999
1070
    74
1070
     0
1000
MTEXTEND
  0
LINE
  5
5FEB
330
5FE8
100
AcDbEntity
  8
1
 62
     4
100
AcDbLine
 10
64.45119599999999
 20
86.26472300000001
 30
0.0
 11
64.45119599999999
 21
68.482945
 31
0.0
  0
LINE
  5
5FEC
330
5FE8
100
AcDbEntity
  8
1
 62
     4
100
AcDbLine
 10
127.251196
 20
86.26472300000001
 30
0.0
 11
127.251196
 21
68.482945
 31
0.0
  0
LINE
  5
5FED
330
5FE8
100
AcDbEntity
  8
1
 62
     4
100
AcDbLine
 10
64.45119599999999
 20
69.482945
 30
0.0
 11
127.251196
 21
69.482945
 31
0.0
  0
SOLID
  5
5FEE
330
5FE8
100
AcDbEntity
  8
1
 62
     4
100
AcDbTrace
 10
64.45119599999999
 20
69.482945
 30
0.0
 11
66.45119499999998
 21
69.823015
 31
0.0
 12
66.45119699999999
 22
69.142874
 32
0.0
 13
64.45119599999999
 23
69.482945
 33
0.0
  0
SOLID
  5
5FEF
330
5FE8
100
AcDbEntity
  8
1
 62
     4
100
AcDbTrace
 10
127.251196
 20
69.482945
 30
0.0
 11
125.251197
 21
69.142874
 31
0.0
 12
125.251195
 22
69.823015
 32
0.0
 13
127.251196
 23
69.482945
 33
0.0
  0
ENDBLK
  5
5FF0
330
5FE8
100
AcDbEntity
  8
0
100
AcDbBlockEnd
  0
BLOCK
  5
5FF2
330
5FF1
100
AcDbEntity
  8
0
100
AcDbBlockBegin
  2
_D18
 70
     0
 10
0.0
 20
0.0
 30
0.0
  3
_D18
  1

  0
MTEXT
  5
5FF3
330
5FF1
100
AcDbEntity
  8
1
  6
Continuous
 62
     4
100
AcDbMText
 10
175.24104
 20
69.92565299999999
 30
0.0
 40
2.5
 41
0.0
 71
     7
 72
     5
  1
\W01.000;\fsimplex.shx;192
  7
blockfont
 73
     2
 44
0.9036139999999999
1001
ACAD
1000
MTEXTBEGIN
1070
    73
1070
     2
1070
    44
1040
0.9036139999999999
1070
    74
1070
     0
1000
MTEXTEND
  0
LINE
  5
5FF4
330
5FF1
100
AcDbEntity
  8
1
 62
     4
100
AcDbLine
 10
139.251196
 20
86.26472300000001
 30
0.0
 11
139.251196
 21
68.482945
 31
0.0
  0
LINE
  5
5FF5
330
5FF1
100
AcDbEntity
  8
1
 62
     4
100
AcDbLine
 10
216.051196
 20
86.26472300000001
 30
0.0
 11
216.051196
 21
68.482945
 31
0.0
  0
LINE
  5
5FF6
330
5FF1
100
AcDbEntity
  8
1
 62
     4
100
AcDbLine
 10
139.251196
 20
69.482945
 30
0.0
 11
216.051196
 21
69.482945
 31
0.0
  0
SOLID
  5
5FF7
330
5FF1
100
AcDbEntity
  8
1
 62
     4
100
AcDbTrace
 10
139.251196
 20
69.482945
 30
0.0
 11
141.251195
 21
69.823015
 31
0.0
 12
141.251197
 22
69.142874
 32
0.0
 13
139.251196
 23
69.482945
 33
0.0
  0
SOLID
  5
5FF8
330
5FF1
100
AcDbEntity
  8
1
 62
     4
100
AcDbTrace
 10
216.051196
 20
69.482945
 30
0.0
 11
214.051197
 21
69.142874
 31
0.0
 12
214.051195
 22
69.823015
 32
0.0
 13
216.051196
 23
69.482945
 33
0.0
  0
ENDBLK
  5
5FF9
330
5FF1
100
AcDbEntity
  8
0
100
AcDbBlockEnd
  0
BLOCK
  5
5FFB
330
5FFA
100
AcDbEntity
  8
0
100
AcDbBlockBegin
  2
_D19
 70
     0
 10
0.0
 20
0.0
 30
0.0
  3
_D19
  1

  0
MTEXT
  5
5FFC
330
5FFA
100
AcDbEntity
  8
1
  6
Continuous
 62
     4
100
AcDbMText
 10
180.088696
 20
169.192708
 30
0.0
 40
2.5
 41
0.0
 71
     7
 72
     5
  1
\W01.000;\fsimplex.shx;17.5
  7
blockfont
 73
     2
 44
0.9036139999999999
1001
ACAD
1000
MTEXTBEGIN
1070
    73
1070
     2
1070
    44
1040
0.9036139999999999
1070
    74
1070
     0
1000
MTEXTEND
  0
LINE
  5
5FFD
330
5FFA
100
AcDbEntity
  8
1
 62
     4
100
AcDbLine
 10
187.32828
 20
168.75
 30
0.0
 11
164.401196
 21
168.75
 31
0.0
  0
SOLID
  5
5FFE
330
5FFA
100
AcDbEntity
  8
1
 62
     4
100
AcDbTrace
 10
170.651196
 20
168.75
 30
0.0
 11
168.651197
 21
168.40993
 31
0.0
 12
168.651195
 22
169.09007
 32
0.0
 13
170.651196
 23
168.75
 33
0.0
  0
SOLID
  5
5FFF
330
5FFA
100
AcDbEntity
  8
1
 62
     4
100
AcDbTrace
 10
177.651196
 20
168.75
 30
0.0
 11
179.651195
 21
169.09007
 31
0.0
 12
179.651197
 22
168.40993
 32
0.0
 13
177.651196
 23
168.75
 33
0.0
  0
ENDBLK
  5
6000
330
5FFA
100
AcDbEntity
  8
0
100
AcDbBlockEnd
  0
BLOCK
  5
6002
330
6001
100
AcDbEntity
  8
0
100
AcDbBlockBegin
  2
_D20
 70
     0
 10
0.0
 20
0.0
 30
0.0
  3
_D20
  1

  0
MTEXT
  5
6003
330
6001
100
AcDbEntity
  8
1
  6
Continuous
 62
     4
100
AcDbMText
 10
507.8319249999998
 20
69.92565299999999
 30
0.0
 40
2.5
 41
0.0
 71
     7
 72
     5
  1
\W01.000;\fsimplex.shx;35
  7
blockfont
 73
     2
 44
0.9036139999999999
1001
ACAD
1000
MTEXTBEGIN
1070
    73
1070
     2
1070
    44
1040
0.9036139999999999
1070
    74
1070
     0
1000
MTEXTEND
  0
LINE
  5
6004
330
6001
100
AcDbEntity
  8
1
 62
     4
100
AcDbLine
 10
502.251196
 20
111.664723
 30
0.0
 11
502.251196
 21
68.482945
 31
0.0
  0
LINE
  5
6005
330
6001
100
AcDbEntity
  8
1
 62
     4
100
AcDbLine
 10
516.251196
 20
95.46472300000001
 30
0.0
 11
516.251196
 21
68.482945
 31
0.0
  0
LINE
  5
6006
330
6001
100
AcDbEntity
  8
1
 62
     4
100
AcDbLine
 10
502.251196
 20
69.482945
 30
0.0
 11
516.251196
 21
69.482945
 31
0.0
  0
SOLID
  5
6007
330
6001
100
AcDbEntity
  8
1
 62
     4
100
AcDbTrace
 10
502.251196
 20
69.482945
 30
0.0
 11
504.2511949999997
 21
69.823015
 31
0.0
 12
504.2511969999998
 22
69.142874
 32
0.0
 13
502.251196
 23
69.482945
 33
0.0
  0
SOLID
  5
6008
330
6001
100
AcDbEntity
  8
1
 62
     4
100
AcDbTrace
 10
516.251196
 20
69.482945
 30
0.0
 11
514.2511969999998
 21
69.142874
 31
0.0
 12
514.251195
 22
69.823015
 32
0.0
 13
516.251196
 23
69.482945
 33
0.0
  0
ENDBLK
  5
6009
330
6001
100
AcDbEntity
  8
0
100
AcDbBlockEnd
  0
BLOCK
  5
600B
330
600A
100
AcDbEntity
  8
0
100
AcDbBlockBegin
  2
_D21
 70
     0
 10
0.0
 20
0.0
 30
0.0
  3
_D21
  1

  0
MTEXT
  5
600C
330
600A
100
AcDbEntity
  8
1
  6
Continuous
 62
     4
100
AcDbMText
 10
521.8319249999998
 20
69.92565299999999
 30
0.0
 40
2.5
 41
0.0
 71
     7
 72
     5
  1
\W01.000;\fsimplex.shx;35
  7
blockfont
 73
     2
 44
0.9036139999999999
1001
ACAD
1000
MTEXTBEGIN
1070
    73
1070
     2
1070
    44
1040
0.9036139999999999
1070
    74
1070
     0
1000
MTEXTEND
  0
LINE
  5
600D
330
600A
100
AcDbEntity
  8
1
 62
     4
100
AcDbLine
 10
516.251196
 20
95.46472300000001
 30
0.0
 11
516.251196
 21
68.482945
 31
0.0
  0
LINE
  5
600E
330
600A
100
AcDbEntity
  8
1
 62
     4
100
AcDbLine
 10
530.251196
 20
111.664723
 30
0.0
 11
530.251196
 21
68.482945
 31
0.0
  0
LINE
  5
600F
330
600A
100
AcDbEntity
  8
1
 62
     4
100
AcDbLine
 10
516.251196
 20
69.482945
 30
0.0
 11
530.251196
 21
69.482945
 31
0.0
  0
SOLID
  5
6010
330
600A
100
AcDbEntity
  8
1
 62
     4
100
AcDbTrace
 10
516.251196
 20
69.482945
 30
0.0
 11
518.251195
 21
69.823015
 31
0.0
 12
518.2511969999998
 22
69.142874
 32
0.0
 13
516.251196
 23
69.482945
 33
0.0
  0
SOLID
  5
6011
330
600A
100
AcDbEntity
  8
1
 62
     4
100
AcDbTrace
 10
530.251196
 20
69.482945
 30
0.0
 11
528.2511969999998
 21
69.142874
 31
0.0
 12
528.251195
 22
69.823015
 32
0.0
 13
530.251196
 23
69.482945
 33
0.0
  0
ENDBLK
  5
6012
330
600A
100
AcDbEntity
  8
0
100
AcDbBlockEnd
  0
BLOCK
  5
6014
330
6013
100
AcDbEntity
  8
0
100
AcDbBlockBegin
  2
_D22
 70
     0
 10
0.0
 20
0.0
 30
0.0
  3
_D22
  1

  0
MTEXT
  5
6015
330
6013
100
AcDbEntity
  8
1
  6
Continuous
 62
     4
100
AcDbMText
 10
535.831925
 20
69.92565299999999
 30
0.0
 40
2.5
 41
0.0
 71
     7
 72
     5
  1
\W01.000;\fsimplex.shx;35
  7
blockfont
 73
     2
 44
0.9036139999999999
1001
ACAD
1000
MTEXTBEGIN
1070
    73
1070
     2
1070
    44
1040
0.9036139999999999
1070
    74
1070
     0
1000
MTEXTEND
  0
LINE
  5
6016
330
6013
100
AcDbEntity
  8
1
 62
     4
100
AcDbLine
 10
530.251196
 20
111.664723
 30
0.0
 11
530.251196
 21
68.482945
 31
0.0
  0
LINE
  5
6017
330
6013
100
AcDbEntity
  8
1
 62
     4
100
AcDbLine
 10
544.251196
 20
95.46472300000001
 30
0.0
 11
544.251196
 21
68.482945
 31
0.0
  0
LINE
  5
6018
330
6013
100
AcDbEntity
  8
1
 62
     4
100
AcDbLine
 10
530.251196
 20
69.482945
 30
0.0
 11
544.251196
 21
69.482945
 31
0.0
  0
SOLID
  5
6019
330
6013
100
AcDbEntity
  8
1
 62
     4
100
AcDbTrace
 10
530.251196
 20
69.482945
 30
0.0
 11
532.251195
 21
69.823015
 31
0.0
 12
532.2511969999998
 22
69.142874
 32
0.0
 13
530.251196
 23
69.482945
 33
0.0
  0
SOLID
  5
601A
330
6013
100
AcDbEntity
  8
1
 62
     4
100
AcDbTrace
 10
544.251196
 20
69.482945
 30
0.0
 11
542.2511969999998
 21
69.142874
 31
0.0
 12
542.251195
 22
69.823015
 32
0.0
 13
544.251196
 23
69.482945
 33
0.0
  0
ENDBLK
  5
601B
330
6013
100
AcDbEntity
  8
0
100
AcDbBlockEnd
  0
BLOCK
  5
601D
330
601C
100
AcDbEntity
  8
0
100
AcDbBlockBegin
  2
_D23
 70
     0
 10
0.0
 20
0.0
 30
0.0
  3
_D23
  1

  0
MTEXT
  5
601E
330
601C
100
AcDbEntity
  8
1
  6
Continuous
 62
     4
100
AcDbMText
 10
274.831925
 20
59.925653
 30
0.0
 40
2.5
 41
0.0
 71
     7
 72
     5
  1
\W01.000;\fsimplex.shx;15
  7
blockfont
 73
     2
 44
0.9036139999999999
1001
ACAD
1000
MTEXTBEGIN
1070
    73
1070
     2
1070
    44
1040
0.9036139999999999
1070
    74
1070
     0
1000
MTEXTEND
  0
LINE
  5
601F
330
601C
100
AcDbEntity
  8
1
 62
     4
100
AcDbLine
 10
273.251196
 20
84.264723
 30
0.0
 11
273.251196
 21
58.48294499999999
 31
0.0
  0
LINE
  5
6020
330
601C
100
AcDbEntity
  8
1
 62
     4
100
AcDbLine
 10
279.251196
 20
80.264723
 30
0.0
 11
279.251196
 21
58.48294499999999
 31
0.0
  0
LINE
  5
6021
330
601C
100
AcDbEntity
  8
1
 62
     4
100
AcDbLine
 10
273.251196
 20
59.48294499999999
 30
0.0
 11
279.251196
 21
59.48294499999999
 31
0.0
  0
SOLID
  5
6022
330
601C
100
AcDbEntity
  8
1
 62
     4
100
AcDbTrace
 10
273.251196
 20
59.48294499999999
 30
0.0
 11
275.251195
 21
59.82301500000001
 31
0.0
 12
275.251197
 22
59.142874
 32
0.0
 13
273.251196
 23
59.48294499999999
 33
0.0
  0
SOLID
  5
6023
330
601C
100
AcDbEntity
  8
1
 62
     4
100
AcDbTrace
 10
279.251196
 20
59.48294499999999
 30
0.0
 11
277.251197
 21
59.142874
 31
0.0
 12
277.251195
 22
59.82301500000001
 32
0.0
 13
279.251196
 23
59.48294499999999
 33
0.0
  0
ENDBLK
  5
6024
330
601C
100
AcDbEntity
  8
0
100
AcDbBlockEnd
  0
BLOCK
  5
6026
330
6025
100
AcDbEntity
  8
0
100
AcDbBlockBegin
  2
_D24
 70
     0
 10
0.0
 20
0.0
 30
0.0
  3
_D24
  1

  0
MTEXT
  5
6027
330
6025
100
AcDbEntity
  8
1
  6
Continuous
 62
     4
100
AcDbMText
 10
302.232158
 20
59.925653
 30
0.0
 40
2.5
 41
0.0
 71
     7
 72
     5
  1
\W01.000;\fsimplex.shx;127
  7
blockfont
 73
     2
 44
0.9036139999999999
1001
ACAD
1000
MTEXTBEGIN
1070
    73
1070
     2
1070
    44
1040
0.9036139999999999
1070
    74
1070
     0
1000
MTEXTEND
  0
LINE
  5
6028
330
6025
100
AcDbEntity
  8
1
 62
     4
100
AcDbLine
 10
279.251196
 20
80.264723
 30
0.0
 11
279.251196
 21
58.48294499999999
 31
0.0
  0
LINE
  5
6029
330
6025
100
AcDbEntity
  8
1
 62
     4
100
AcDbLine
 10
330.033433
 20
94.864723
 30
0.0
 11
330.033433
 21
58.48294499999999
 31
0.0
  0
LINE
  5
602A
330
6025
100
AcDbEntity
  8
1
 62
     4
100
AcDbLine
 10
279.251196
 20
59.48294499999999
 30
0.0
 11
330.033433
 21
59.48294499999999
 31
0.0
  0
SOLID
  5
602B
330
6025
100
AcDbEntity
  8
1
 62
     4
100
AcDbTrace
 10
279.251196
 20
59.48294499999999
 30
0.0
 11
281.251195
 21
59.82301500000001
 31
0.0
 12
281.251197
 22
59.142874
 32
0.0
 13
279.251196
 23
59.48294499999999
 33
0.0
  0
SOLID
  5
602C
330
6025
100
AcDbEntity
  8
1
 62
     4
100
AcDbTrace
 10
330.033433
 20
59.48294499999999
 30
0.0
 11
328.033434
 21
59.142874
 31
0.0
 12
328.033431
 22
59.82301500000001
 32
0.0
 13
330.033433
 23
59.48294499999999
 33
0.0
  0
ENDBLK
  5
602D
330
6025
100
AcDbEntity
  8
0
100
AcDbBlockEnd
  0
BLOCK
  5
602F
330
602E
100
AcDbEntity
  8
0
100
AcDbBlockBegin
  2
_D25
 70
     0
 10
0.0
 20
0.0
 30
0.0
  3
_D25
  1

  0
MTEXT
  5
6030
330
602E
100
AcDbEntity
  8
1
  6
Continuous
 62
     4
100
AcDbMText
 10
309.232158
 20
49.925653
 30
0.0
 40
2.5
 41
0.0
 71
     7
 72
     5
  1
\W01.000;\fsimplex.shx;162
  7
blockfont
 73
     2
 44
0.9036139999999999
1001
ACAD
1000
MTEXTBEGIN
1070
    73
1070
     2
1070
    44
1040
0.9036139999999999
1070
    74
1070
     0
1000
MTEXTEND
  0
LINE
  5
6031
330
602E
100
AcDbEntity
  8
1
 62
     4
100
AcDbLine
 10
279.251196
 20
80.264723
 30
0.0
 11
279.251196
 21
48.482945
 31
0.0
  0
LINE
  5
6032
330
602E
100
AcDbEntity
  8
1
 62
     4
100
AcDbLine
 10
344.033433
 20
94.864723
 30
0.0
 11
344.033433
 21
48.482945
 31
0.0
  0
LINE
  5
6033
330
602E
100
AcDbEntity
  8
1
 62
     4
100
AcDbLine
 10
279.251196
 20
49.482945
 30
0.0
 11
344.033433
 21
49.482945
 31
0.0
  0
SOLID
  5
6034
330
602E
100
AcDbEntity
  8
1
 62
     4
100
AcDbTrace
 10
279.251196
 20
49.482945
 30
0.0
 11
281.251195
 21
49.82301500000001
 31
0.0
 12
281.251197
 22
49.142874
 32
0.0
 13
279.251196
 23
49.482945
 33
0.0
  0
SOLID
  5
6035
330
602E
100
AcDbEntity
  8
1
 62
     4
100
AcDbTrace
 10
344.033433
 20
49.482945
 30
0.0
 11
342.033434
 21
49.142874
 31
0.0
 12
342.033431
 22
49.82301500000001
 32
0.0
 13
344.033433
 23
49.482945
 33
0.0
  0
ENDBLK
  5
6036
330
602E
100
AcDbEntity
  8
0
100
AcDbBlockEnd
  0
BLOCK
  5
6038
330
6037
100
AcDbEntity
  8
0
100
AcDbBlockBegin
  2
_D26
 70
     0
 10
0.0
 20
0.0
 30
0.0
  3
_D26
  1

  0
MTEXT
  5
6039
330
6037
100
AcDbEntity
  8
1
  6
Continuous
 62
     4
100
AcDbMText
 10
339.414162
 20
69.19270799999999
 30
0.0
 40
2.5
 41
0.0
 71
     7
 72
     5
  1
\W01.000;\fsimplex.shx;16
  7
blockfont
 73
     2
 44
0.9036139999999999
1001
ACAD
1000
MTEXTBEGIN
1070
    73
1070
     2
1070
    44
1040
0.9036139999999999
1070
    74
1070
     0
1000
MTEXTEND
  0
LINE
  5
603A
330
6037
100
AcDbEntity
  8
1
 62
     4
100
AcDbLine
 10
337.633433
 20
93.86472299999999
 30
0.0
 11
337.633433
 21
67.75
 31
0.0
  0
LINE
  5
603B
330
6037
100
AcDbEntity
  8
1
 62
     4
100
AcDbLine
 10
344.033433
 20
90.741618
 30
0.0
 11
344.033433
 21
67.75
 31
0.0
  0
LINE
  5
603C
330
6037
100
AcDbEntity
  8
1
 62
     4
100
AcDbLine
 10
337.633433
 20
68.75
 30
0.0
 11
344.033433
 21
68.75
 31
0.0
  0
SOLID
  5
603D
330
6037
100
AcDbEntity
  8
1
 62
     4
100
AcDbTrace
 10
337.633433
 20
68.75
 30
0.0
 11
339.633431
 21
69.09006999999999
 31
0.0
 12
339.633434
 22
68.40993
 32
0.0
 13
337.633433
 23
68.75
 33
0.0
  0
SOLID
  5
603E
330
6037
100
AcDbEntity
  8
1
 62
     4
100
AcDbTrace
 10
344.033433
 20
68.75
 30
0.0
 11
342.033434
 21
68.40993
 31
0.0
 12
342.033431
 22
69.09006999999999
 32
0.0
 13
344.033433
 23
68.75
 33
0.0
  0
ENDBLK
  5
603F
330
6037
100
AcDbEntity
  8
0
100
AcDbBlockEnd
  0
BLOCK
  5
6041
330
6040
100
AcDbEntity
  8
0
100
AcDbBlockBegin
  2
_D27
 70
     0
 10
0.0
 20
0.0
 30
0.0
  3
_D27
  1

  0
MTEXT
  5
6042
330
6040
100
AcDbEntity
  8
1
  6
Continuous
 62
     4
100
AcDbMText
 10
525.688696
 20
169.192708
 30
0.0
 40
2.5
 41
0.0
 71
     7
 72
     5
  1
\W01.000;\fsimplex.shx;17.5
  7
blockfont
 73
     2
 44
0.9036139999999999
1001
ACAD
1000
MTEXTBEGIN
1070
    73
1070
     2
1070
    44
1040
0.9036139999999999
1070
    74
1070
     0
1000
MTEXTEND
  0
LINE
  5
6043
330
6040
100
AcDbEntity
  8
1
 62
     4
100
AcDbLine
 10
532.9282799999998
 20
168.75
 30
0.0
 11
510.0011959999998
 21
168.75
 31
0.0
  0
SOLID
  5
6044
330
6040
100
AcDbEntity
  8
1
 62
     4
100
AcDbTrace
 10
516.251196
 20
168.75
 30
0.0
 11
514.2511969999998
 21
168.40993
 31
0.0
 12
514.251195
 22
169.09007
 32
0.0
 13
516.251196
 23
168.75
 33
0.0
  0
SOLID
  5
6045
330
6040
100
AcDbEntity
  8
1
 62
     4
100
AcDbTrace
 10
523.251196
 20
168.75
 30
0.0
 11
525.251195
 21
169.09007
 31
0.0
 12
525.2511969999998
 22
168.40993
 32
0.0
 13
523.251196
 23
168.75
 33
0.0
  0
ENDBLK
  5
6046
330
6040
100
AcDbEntity
  8
0
100
AcDbBlockEnd
  0
BLOCK
  5
6048
330
6047
100
AcDbEntity
  8
0
100
AcDbBlockBegin
  2
_D28
 70
     0
 10
0.0
 20
0.0
 30
0.0
  3
_D28
  1

  0
MTEXT
  5
6049
330
6047
100
AcDbEntity
  8
1
  6
Continuous
 62
     4
100
AcDbMText
 10
318.423044
 20
109.192708
 30
0.0
 40
2.5
 41
0.0
 71
     7
 72
     5
  1
\W01.000;\fsimplex.shx;25
  7
blockfont
 73
     2
 44
0.9036139999999999
1001
ACAD
1000
MTEXTBEGIN
1070
    73
1070
     2
1070
    44
1040
0.9036139999999999
1070
    74
1070
     0
1000
MTEXTEND
  0
LINE
  5
604A
330
6047
100
AcDbEntity
  8
1
 62
     4
100
AcDbLine
 10
314.851196
 20
97.86472299999999
 30
0.0
 11
314.851196
 21
109.75
 31
0.0
  0
LINE
  5
604B
330
6047
100
AcDbEntity
  8
1
 62
     4
100
AcDbLine
 10
324.833433
 20
95.864723
 30
0.0
 11
324.833433
 21
109.75
 31
0.0
  0
LINE
  5
604C
330
6047
100
AcDbEntity
  8
1
 62
     4
100
AcDbLine
 10
314.851196
 20
108.75
 30
0.0
 11
324.833433
 21
108.75
 31
0.0
  0
SOLID
  5
604D
330
6047
100
AcDbEntity
  8
1
 62
     4
100
AcDbTrace
 10
314.851196
 20
108.75
 30
0.0
 11
316.851195
 21
109.09007
 31
0.0
 12
316.851197
 22
108.40993
 32
0.0
 13
314.851196
 23
108.75
 33
0.0
  0
SOLID
  5
604E
330
6047
100
AcDbEntity
  8
1
 62
     4
100
AcDbTrace
 10
324.833433
 20
108.75
 30
0.0
 11
322.833434
 21
108.40993
 31
0.0
 12
322.833431
 22
109.09007
 32
0.0
 13
324.833433
 23
108.75
 33
0.0
  0
ENDBLK
  5
604F
330
6047
100
AcDbEntity
  8
0
100
AcDbBlockEnd
  0
BLOCK
  5
6051
330
6050
100
AcDbEntity
  8
0
100
AcDbBlockBegin
  2
_D29
 70
     0
 10
0.0
 20
0.0
 30
0.0
  3
_D29
  1

  0
MTEXT
  5
6052
330
6050
100
AcDbEntity
  8
1
  6
Continuous
 62
     4
100
AcDbMText
 10
323.205047
 20
69.19270799999999
 30
0.0
 40
2.5
 41
0.0
 71
     7
 72
     5
  1
\W01.000;\fsimplex.shx;6
  7
blockfont
 73
     2
 44
0.9036139999999999
1001
ACAD
1000
MTEXTBEGIN
1070
    73
1070
     2
1070
    44
1040
0.9036139999999999
1070
    74
1070
     0
1000
MTEXTEND
  0
LINE
  5
6053
330
6050
100
AcDbEntity
  8
1
 62
     4
100
AcDbLine
 10
324.833433
 20
93.86472299999999
 30
0.0
 11
324.833433
 21
67.75
 31
0.0
  0
LINE
  5
6054
330
6050
100
AcDbEntity
  8
1
 62
     4
100
AcDbLine
 10
331.083433
 20
68.75
 30
0.0
 11
324.833433
 21
68.75
 31
0.0
  0
SOLID
  5
6055
330
6050
100
AcDbEntity
  8
1
 62
     4
100
AcDbTrace
 10
325.32583
 20
68.83685899999999
 30
0.0
 11
324.833433
 21
68.75
 31
0.0
 12
325.333433
 22
68.75
 32
0.0
 13
325.32583
 23
68.83685899999999
 33
0.0
  0
SOLID
  5
6056
330
6050
100
AcDbEntity
  8
1
 62
     4
100
AcDbTrace
 10
325.303255
 20
68.921076
 30
0.0
 11
324.833433
 21
68.75
 31
0.0
 12
325.32583
 22
68.83685899999999
 32
0.0
 13
325.303255
 23
68.921076
 33
0.0
  0
SOLID
  5
6057
330
6050
100
AcDbEntity
  8
1
 62
     4
100
AcDbTrace
 10
325.266393
 20
69.000091
 30
0.0
 11
324.833433
 21
68.75
 31
0.0
 12
325.303255
 22
68.921076
 32
0.0
 13
325.266393
 23
69.000091
 33
0.0
  0
SOLID
  5
6058
330
6050
100
AcDbEntity
  8
1
 62
     4
100
AcDbTrace
 10
325.216365
 20
69.07150099999999
 30
0.0
 11
324.833433
 21
68.75
 31
0.0
 12
325.266393
 22
69.000091
 32
0.0
 13
325.216365
 23
69.07150099999999
 33
0.0
  0
SOLID
  5
6059
330
6050
100
AcDbEntity
  8
1
 62
     4
100
AcDbTrace
 10
325.154692
 20
69.133135
 30
0.0
 11
324.833433
 21
68.75
 31
0.0
 12
325.216365
 22
69.07150099999999
 32
0.0
 13
325.154692
 23
69.133135
 33
0.0
  0
SOLID
  5
605A
330
6050
100
AcDbEntity
  8
1
 62
     4
100
AcDbTrace
 10
325.08325
 20
69.18311800000001
 30
0.0
 11
324.833433
 21
68.75
 31
0.0
 12
325.154692
 22
69.133135
 32
0.0
 13
325.08325
 23
69.18311800000001
 33
0.0
  0
SOLID
  5
605B
330
6050
100
AcDbEntity
  8
1
 62
     4
100
AcDbTrace
 10
325.004212
 20
69.21993
 30
0.0
 11
324.833433
 21
68.75
 31
0.0
 12
325.08325
 22
69.18311800000001
 32
0.0
 13
325.004212
 23
69.21993
 33
0.0
  0
SOLID
  5
605C
330
6050
100
AcDbEntity
  8
1
 62
     4
100
AcDbTrace
 10
324.91998
 20
69.24245299999999
 30
0.0
 11
324.833433
 21
68.75
 31
0.0
 12
325.004212
 22
69.21993
 32
0.0
 13
324.91998
 23
69.24245299999999
 33
0.0
  0
SOLID
  5
605D
330
6050
100
AcDbEntity
  8
1
 62
     4
100
AcDbTrace
 10
324.833117
 20
69.25
 30
0.0
 11
324.833433
 21
68.75
 31
0.0
 12
324.91998
 22
69.24245299999999
 32
0.0
 13
324.833117
 23
69.25
 33
0.0
  0
SOLID
  5
605E
330
6050
100
AcDbEntity
  8
1
 62
     4
100
AcDbTrace
 10
324.746263
 20
69.24234300000001
 30
0.0
 11
324.833433
 21
68.75
 31
0.0
 12
324.833117
 22
69.25
 32
0.0
 13
324.746263
 23
69.24234300000001
 33
0.0
  0
SOLID
  5
605F
330
6050
100
AcDbEntity
  8
1
 62
     4
100
AcDbTrace
 10
324.66206
 20
69.219714
 30
0.0
 11
324.833433
 21
68.75
 31
0.0
 12
324.746263
 22
69.24234300000001
 32
0.0
 13
324.66206
 23
69.219714
 33
0.0
  0
SOLID
  5
6060
330
6050
100
AcDbEntity
  8
1
 62
     4
100
AcDbTrace
 10
324.583068
 20
69.18280199999999
 30
0.0
 11
324.833433
 21
68.75
 31
0.0
 12
324.66206
 22
69.219714
 32
0.0
 13
324.583068
 23
69.18280199999999
 33
0.0
  0
SOLID
  5
6061
330
6050
100
AcDbEntity
  8
1
 62
     4
100
AcDbTrace
 10
324.511689
 20
69.13272899999999
 30
0.0
 11
324.833433
 21
68.75
 31
0.0
 12
324.583068
 22
69.18280199999999
 32
0.0
 13
324.511689
 23
69.13272899999999
 33
0.0
  0
SOLID
  5
6062
330
6050
100
AcDbEntity
  8
1
 62
     4
100
AcDbTrace
 10
324.450095
 20
69.071017
 30
0.0
 11
324.833433
 21
68.75
 31
0.0
 12
324.511689
 22
69.13272899999999
 32
0.0
 13
324.450095
 23
69.071017
 33
0.0
  0
SOLID
  5
6063
330
6050
100
AcDbEntity
  8
1
 62
     4
100
AcDbTrace
 10
324.400157
 20
68.999544
 30
0.0
 11
324.833433
 21
68.75
 31
0.0
 12
324.450095
 22
69.071017
 32
0.0
 13
324.400157
 23
68.999544
 33
0.0
  0
SOLID
  5
6064
330
6050
100
AcDbEntity
  8
1
 62
     4
100
AcDbTrace
 10
324.363394
 20
68.92048199999999
 30
0.0
 11
324.833433
 21
68.75
 31
0.0
 12
324.400157
 22
68.999544
 32
0.0
 13
324.363394
 23
68.92048199999999
 33
0.0
  0
SOLID
  5
6065
330
6050
100
AcDbEntity
  8
1
 62
     4
100
AcDbTrace
 10
324.340925
 20
68.83623599999999
 30
0.0
 11
324.833433
 21
68.75
 31
0.0
 12
324.363394
 22
68.92048199999999
 32
0.0
 13
324.340925
 23
68.83623599999999
 33
0.0
  0
SOLID
  5
6066
330
6050
100
AcDbEntity
  8
1
 62
     4
100
AcDbTrace
 10
324.333433
 20
68.749368
 30
0.0
 11
324.833433
 21
68.75
 31
0.0
 12
324.340925
 22
68.83623599999999
 32
0.0
 13
324.333433
 23
68.749368
 33
0.0
  0
SOLID
  5
6067
330
6050
100
AcDbEntity
  8
1
 62
     4
100
AcDbTrace
 10
324.341145
 20
68.66251899999999
 30
0.0
 11
324.833433
 21
68.75
 31
0.0
 12
324.333433
 22
68.749368
 32
0.0
 13
324.341145
 23
68.66251899999999
 33
0.0
  0
SOLID
  5
6068
330
6050
100
AcDbEntity
  8
1
 62
     4
100
AcDbTrace
 10
324.363827
 20
68.57833000000001
 30
0.0
 11
324.833433
 21
68.75
 31
0.0
 12
324.341145
 22
68.66251899999999
 32
0.0
 13
324.363827
 23
68.57833000000001
 33
0.0
  0
SOLID
  5
6069
330
6050
100
AcDbEntity
  8
1
 62
     4
100
AcDbTrace
 10
324.400789
 20
68.49936099999999
 30
0.0
 11
324.833433
 21
68.75
 31
0.0
 12
324.363827
 22
68.57833000000001
 32
0.0
 13
324.400789
 23
68.49936099999999
 33
0.0
  0
SOLID
  5
606A
330
6050
100
AcDbEntity
  8
1
 62
     4
100
AcDbTrace
 10
324.450908
 20
68.428015
 30
0.0
 11
324.833433
 21
68.75
 31
0.0
 12
324.400789
 22
68.49936099999999
 32
0.0
 13
324.450908
 23
68.428015
 33
0.0
  0
SOLID
  5
606B
330
6050
100
AcDbEntity
  8
1
 62
     4
100
AcDbTrace
 10
324.512658
 20
68.36645899999999
 30
0.0
 11
324.833433
 21
68.75
 31
0.0
 12
324.450908
 22
68.428015
 32
0.0
 13
324.512658
 23
68.36645899999999
 33
0.0
  0
SOLID
  5
606C
330
6050
100
AcDbEntity
  8
1
 62
     4
100
AcDbTrace
 10
324.584163
 20
68.31656600000001
 30
0.0
 11
324.833433
 21
68.75
 31
0.0
 12
324.512658
 22
68.36645899999999
 32
0.0
 13
324.584163
 23
68.31656600000001
 33
0.0
  0
SOLID
  5
606D
330
6050
100
AcDbEntity
  8
1
 62
     4
100
AcDbTrace
 10
324.663248
 20
68.279854
 30
0.0
 11
324.833433
 21
68.75
 31
0.0
 12
324.584163
 22
68.31656600000001
 32
0.0
 13
324.663248
 23
68.279854
 33
0.0
  0
SOLID
  5
606E
330
6050
100
AcDbEntity
  8
1
 62
     4
100
AcDbTrace
 10
324.747508
 20
68.25743799999999
 30
0.0
 11
324.833433
 21
68.75
 31
0.0
 12
324.663248
 22
68.279854
 32
0.0
 13
324.747508
 23
68.25743799999999
 33
0.0
  0
SOLID
  5
606F
330
6050
100
AcDbEntity
  8
1
 62
     4
100
AcDbTrace
 10
324.834381
 20
68.250001
 30
0.0
 11
324.833433
 21
68.75
 31
0.0
 12
324.747508
 22
68.25743799999999
 32
0.0
 13
324.834381
 23
68.250001
 33
0.0
  0
SOLID
  5
6070
330
6050
100
AcDbEntity
  8
1
 62
     4
100
AcDbTrace
 10
324.921225
 20
68.25776799999998
 30
0.0
 11
324.833433
 21
68.75
 31
0.0
 12
324.834381
 22
68.250001
 32
0.0
 13
324.921225
 23
68.25776799999998
 33
0.0
  0
SOLID
  5
6071
330
6050
100
AcDbEntity
  8
1
 62
     4
100
AcDbTrace
 10
325.0054
 20
68.280503
 30
0.0
 11
324.833433
 21
68.75
 31
0.0
 12
324.921225
 22
68.25776799999998
 32
0.0
 13
325.0054
 23
68.280503
 33
0.0
  0
SOLID
  5
6072
330
6050
100
AcDbEntity
  8
1
 62
     4
100
AcDbTrace
 10
325.084345
 20
68.317515
 30
0.0
 11
324.833433
 21
68.75
 31
0.0
 12
325.0054
 22
68.280503
 32
0.0
 13
325.084345
 23
68.317515
 33
0.0
  0
SOLID
  5
6073
330
6050
100
AcDbEntity
  8
1
 62
     4
100
AcDbTrace
 10
325.15566
 20
68.36767900000001
 30
0.0
 11
324.833433
 21
68.75
 31
0.0
 12
325.084345
 22
68.317515
 32
0.0
 13
325.15566
 23
68.36767900000001
 33
0.0
  0
SOLID
  5
6074
330
6050
100
AcDbEntity
  8
1
 62
     4
100
AcDbTrace
 10
325.217176
 20
68.42946799999999
 30
0.0
 11
324.833433
 21
68.75
 31
0.0
 12
325.15566
 22
68.36767900000001
 32
0.0
 13
325.217176
 23
68.42946799999999
 33
0.0
  0
SOLID
  5
6075
330
6050
100
AcDbEntity
  8
1
 62
     4
100
AcDbTrace
 10
325.267024
 20
68.50100400000001
 30
0.0
 11
324.833433
 21
68.75
 31
0.0
 12
325.217176
 22
68.42946799999999
 32
0.0
 13
325.267024
 23
68.50100400000001
 33
0.0
  0
SOLID
  5
6076
330
6050
100
AcDbEntity
  8
1
 62
     4
100
AcDbTrace
 10
325.303686
 20
68.580113
 30
0.0
 11
324.833433
 21
68.75
 31
0.0
 12
325.267024
 22
68.50100400000001
 32
0.0
 13
325.303686
 23
68.580113
 33
0.0
  0
SOLID
  5
6077
330
6050
100
AcDbEntity
  8
1
 62
     4
100
AcDbTrace
 10
325.326049
 20
68.664387
 30
0.0
 11
324.833433
 21
68.75
 31
0.0
 12
325.303686
 22
68.580113
 32
0.0
 13
325.326049
 23
68.664387
 33
0.0
  0
SOLID
  5
6078
330
6050
100
AcDbEntity
  8
1
 62
     4
100
AcDbTrace
 10
325.333431
 20
68.751264
 30
0.0
 11
324.833433
 21
68.75
 31
0.0
 12
325.326049
 22
68.664387
 32
0.0
 13
325.333431
 23
68.751264
 33
0.0
  0
ENDBLK
  5
6079
330
6050
100
AcDbEntity
  8
0
100
AcDbBlockEnd
  0
BLOCK
  5
607B
330
607A
100
AcDbEntity
  8
0
100
AcDbBlockBegin
  2
_D30
 70
     0
 10
0.0
 20
0.0
 30
0.0
  3
_D30
  1

  0
MTEXT
  5
607C
330
607A
100
AcDbEntity
  8
1
  6
Continuous
 62
     4
100
AcDbMText
 10
326.014162
 20
69.19270799999999
 30
0.0
 40
2.5
 41
0.0
 71
     7
 72
     5
  1
\W01.000;\fsimplex.shx;13
  7
blockfont
 73
     2
 44
0.9036139999999999
1001
ACAD
1000
MTEXTBEGIN
1070
    73
1070
     2
1070
    44
1040
0.9036139999999999
1070
    74
1070
     0
1000
MTEXTEND
  0
ENDBLK
  5
607D
330
607A
100
AcDbEntity
  8
0
100
AcDbBlockEnd
  0
BLOCK
  5
607F
330
607E
100
AcDbEntity
  8
0
100
AcDbBlockBegin
  2
_D31
 70
     0
 10
0.0
 20
0.0
 30
0.0
  3
_D31
  1

  0
MTEXT
  5
6080
330
607E
100
AcDbEntity
  8
1
  6
Continuous
 62
     4
100
AcDbMText
 10
325.665724
 20
68.92708299999999
 30
0.0
 40
1.0
 41
0.0
 71
     7
 72
     5
  1
\W01.000;\fsimplex.shx; 
  7
blockfont
 73
     2
 44
0.9036139999999999
1001
ACAD
1000
MTEXTBEGIN
1070
    73
1070
     2
1070
    44
1040
0.9036139999999999
1070
    74
1070
     0
1000
MTEXTEND
  0
LINE
  5
6081
330
607E
100
AcDbEntity
  8
1
 62
     4
100
AcDbLine
 10
322.433433
 20
93.86472299999999
 30
0.0
 11
322.433433
 21
67.75
 31
0.0
  0
LINE
  5
6082
330
607E
100
AcDbEntity
  8
1
 62
     4
100
AcDbLine
 10
330.033433
 20
90.741618
 30
0.0
 11
330.033433
 21
67.75
 31
0.0
  0
LINE
  5
6083
330
607E
100
AcDbEntity
  8
1
 62
     4
100
AcDbLine
 10
319.933433
 20
68.75
 30
0.0
 11
332.533433
 21
68.75
 31
0.0
  0
SOLID
  5
6084
330
607E
100
AcDbEntity
  8
1
 62
     4
100
AcDbTrace
 10
322.433433
 20
68.75
 30
0.0
 11
320.433434
 21
68.40993
 31
0.0
 12
320.433431
 22
69.09006999999999
 32
0.0
 13
322.433433
 23
68.75
 33
0.0
  0
SOLID
  5
6085
330
607E
100
AcDbEntity
  8
1
 62
     4
100
AcDbTrace
 10
330.033433
 20
68.75
 30
0.0
 11
332.033431
 21
69.09006999999999
 31
0.0
 12
332.033434
 22
68.40993
 32
0.0
 13
330.033433
 23
68.75
 33
0.0
  0
ENDBLK
  5
6086
330
607E
100
AcDbEntity
  8
0
100
AcDbBlockEnd
  0
BLOCK
  5
6088
330
6087
100
AcDbEntity
  8
0
100
AcDbBlockBegin
  2
_D32
 70
     0
 10
0.0
 20
0.0
 30
0.0
  3
_D32
  1

  0
MTEXT
  5
6089
330
6087
100
AcDbEntity
  8
1
  6
Continuous
 62
     2
100
AcDbMText
 10
332.414162
 20
109.192708
 30
0.0
 40
2.5
 41
0.0
 71
     7
 72
     5
  1
\W01.000;\fsimplex.shx;22
  7
blockfont
 73
     2
 44
0.9036139999999999
1001
ACAD
1000
MTEXTBEGIN
1070
    73
1070
     2
1070
    44
1040
0.9036139999999999
1070
    74
1070
     0
1000
MTEXTEND
  0
LINE
  5
608A
330
6087
100
AcDbEntity
  8
1
 62
     2
100
AcDbLine
 10
330.033433
 20
97.86472299999999
 30
0.0
 11
330.033433
 21
109.75
 31
0.0
  0
LINE
  5
608B
330
6087
100
AcDbEntity
  8
1
 62
     2
100
AcDbLine
 10
337.633433
 20
95.864723
 30
0.0
 11
337.633433
 21
109.75
 31
0.0
  0
LINE
  5
608C
330
6087
100
AcDbEntity
  8
1
 62
     2
100
AcDbLine
 10
330.033433
 20
108.75
 30
0.0
 11
337.633433
 21
108.75
 31
0.0
  0
SOLID
  5
608D
330
6087
100
AcDbEntity
  8
1
 62
     2
100
AcDbTrace
 10
330.033433
 20
108.75
 30
0.0
 11
332.033431
 21
109.09007
 31
0.0
 12
332.033434
 22
108.40993
 32
0.0
 13
330.033433
 23
108.75
 33
0.0
  0
SOLID
  5
608E
330
6087
100
AcDbEntity
  8
1
 62
     2
100
AcDbTrace
 10
337.633433
 20
108.75
 30
0.0
 11
335.633434
 21
108.40993
 31
0.0
 12
335.633431
 22
109.09007
 32
0.0
 13
337.633433
 23
108.75
 33
0.0
  0
ENDBLK
  5
608F
330
6087
100
AcDbEntity
  8
0
100
AcDbBlockEnd
  0
BLOCK
  5
6091
330
6090
100
AcDbEntity
  8
0
100
AcDbBlockBegin
  2
_D33
 70
     0
 10
0.0
 20
0.0
 30
0.0
  3
_D33
  1

  0
MTEXT
  5
6092
330
6090
100
AcDbEntity
  8
1
  6
Continuous
 62
     4
100
AcDbMText
 10
269.831925
 20
49.925653
 30
0.0
 40
2.5
 41
0.0
 71
     7
 72
     5
  1
\W01.000;\fsimplex.shx;40
  7
blockfont
 73
     2
 44
0.9036139999999999
1001
ACAD
1000
MTEXTBEGIN
1070
    73
1070
     2
1070
    44
1040
0.9036139999999999
1070
    74
1070
     0
1000
MTEXTEND
  0
LINE
  5
6093
330
6090
100
AcDbEntity
  8
1
 62
     4
100
AcDbLine
 10
279.251196
 20
80.264723
 30
0.0
 11
279.251196
 21
48.482945
 31
0.0
  0
LINE
  5
6094
330
6090
100
AcDbEntity
  8
1
 62
     4
100
AcDbLine
 10
263.251196
 20
122.664723
 30
0.0
 11
263.251196
 21
48.482945
 31
0.0
  0
LINE
  5
6095
330
6090
100
AcDbEntity
  8
1
 62
     4
100
AcDbLine
 10
279.251196
 20
49.482945
 30
0.0
 11
263.251196
 21
49.482945
 31
0.0
  0
SOLID
  5
6096
330
6090
100
AcDbEntity
  8
1
 62
     4
100
AcDbTrace
 10
279.251196
 20
49.482945
 30
0.0
 11
277.251197
 21
49.142874
 31
0.0
 12
277.251195
 22
49.82301500000001
 32
0.0
 13
279.251196
 23
49.482945
 33
0.0
  0
SOLID
  5
6097
330
6090
100
AcDbEntity
  8
1
 62
     4
100
AcDbTrace
 10
263.251196
 20
49.482945
 30
0.0
 11
265.251195
 21
49.82301500000001
 31
0.0
 12
265.251197
 22
49.142874
 32
0.0
 13
263.251196
 23
49.482945
 33
0.0
  0
ENDBLK
  5
6098
330
6090
100
AcDbEntity
  8
0
100
AcDbBlockEnd
  0
BLOCK
  5
609A
330
6099
100
AcDbEntity
  8
0
100
AcDbBlockBegin
  2
_D34
 70
     0
 10
0.0
 20
0.0
 30
0.0
  3
_D34
  1

  0
MTEXT
  5
609B
330
6099
100
AcDbEntity
  8
1
  6
Continuous
 62
     4
100
AcDbMText
 10
135.133615
 20
173.769567
 30
0.0
 40
2.5
 41
0.0
 71
     7
 72
     5
  1
\W01.000;\fsimplex.shx;5
  7
blockfont
 73
     2
 44
0.9036139999999999
1001
ACAD
1000
MTEXTBEGIN
1070
    73
1070
     2
1070
    44
1040
0.9036139999999999
1070
    74
1070
     0
1000
MTEXTEND
  0
MTEXT
  5
609C
330
6099
100
AcDbEntity
  8
1
  6
Continuous
 62
     4
100
AcDbMText
 10
133.401845
 20
173.769567
 30
0.0
 40
2.5
 41
0.0
 71
     7
 72
     5
  1
\W01.000;\fsimplex.shx;M
  7
blockfont
 73
     2
 44
0.9036139999999999
1001
ACAD
1000
MTEXTBEGIN
1070
    73
1070
     2
1070
    44
1040
0.9036139999999999
1070
    74
1070
     0
1000
MTEXTEND
  0
ENDBLK
  5
609D
330
6099
100
AcDbEntity
  8
0
100
AcDbBlockEnd
  0
BLOCK
  5
609F
330
609E
100
AcDbEntity
  8
0
100
AcDbBlockBegin
  2
_D35
 70
     0
 10
0.0
 20
0.0
 30
0.0
  3
_D35
  1

  0
MTEXT
  5
60A0
330
609E
100
AcDbEntity
  8
1
  6
Continuous
 62
     4
100
AcDbMText
 10
157.99917
 20
171.405935
 30
0.0
 40
2.5
 41
0.0
 71
     7
 72
     5
  1
\W01.000;\fsimplex.shx; 
  7
blockfont
 73
     2
 44
0.9036139999999999
1001
ACAD
1000
MTEXTBEGIN
1070
    73
1070
     2
1070
    44
1040
0.9036139999999999
1070
    74
1070
     0
1000
MTEXTEND
  0
LINE
  5
60A1
330
609E
100
AcDbEntity
  8
1
 62
     4
100
AcDbLine
 10
131.56167
 20
173.463227
 30
0.0
 11
157.56167
 21
173.463227
 31
0.0
  0
LINE
  5
60A2
330
609E
100
AcDbEntity
  8
1
 62
     4
100
AcDbLine
 10
123.277689
 20
137.838736
 30
0.0
 11
131.56167
 21
173.463227
 31
0.0
  0
SOLID
  5
60A3
330
609E
100
AcDbEntity
  8
1
 62
     4
100
AcDbTrace
 10
123.277689
 20
137.838736
 30
0.0
 11
123.399443
 21
139.863784
 31
0.0
 12
124.061909
 22
139.709739
 32
0.0
 13
123.277689
 23
137.838736
 33
0.0
  0
ENDBLK
  5
60A4
330
609E
100
AcDbEntity
  8
0
100
AcDbBlockEnd
  0
BLOCK
  5
60A6
330
60A5
100
AcDbEntity
  8
0
100
AcDbBlockBegin
  2
_D36
 70
     0
 10
0.0
 20
0.0
 30
0.0
  3
_D36
  1

  0
MTEXT
  5
60A7
330
60A5
100
AcDbEntity
  8
1
  6
Continuous
 62
     4
100
AcDbMText
 10
374.932384
 20
317.071921
 30
0.0
 40
2.5
 41
0.0
 71
     7
 72
     5
  1
\W01.000;\fsimplex.shx;6
  7
blockfont
 73
     2
 44
0.9036139999999999
1001
ACAD
1000
MTEXTBEGIN
1070
    73
1070
     2
1070
    44
1040
0.9036139999999999
1070
    74
1070
     0
1000
MTEXTEND
  0
MTEXT
  5
60A8
330
60A5
100
AcDbEntity
  8
1
  6
Continuous
 62
     4
100
AcDbMText
 10
365.968842
 20
317.071921
 30
0.0
 40
2.5
 41
0.0
 71
     7
 72
     5
  1
\W01.000;\fsimplex.shx;4-%%c
  7
blockfont
 73
     2
 44
0.9036139999999999
1001
ACAD
1000
MTEXTBEGIN
1070
    73
1070
     2
1070
    44
1040
0.9036139999999999
1070
    74
1070
     0
1000
MTEXTEND
  0
ENDBLK
  5
60A9
330
60A5
100
AcDbEntity
  8
0
100
AcDbBlockEnd
  0
BLOCK
  5
60AB
330
60AA
100
AcDbEntity
  8
0
100
AcDbBlockBegin
  2
_D37
 70
     0
 10
0.0
 20
0.0
 30
0.0
  3
_D37
  1

  0
MTEXT
  5
60AC
330
60AA
100
AcDbEntity
  8
1
  6
Continuous
 62
     4
100
AcDbMText
 10
363.433086
 20
314.299445
 30
0.0
 40
2.5
 41
0.0
 71
     7
 72
     5
  1
\W01.000;\fsimplex.shx; 
  7
blockfont
 73
     2
 44
0.9036139999999999
1001
ACAD
1000
MTEXTBEGIN
1070
    73
1070
     2
1070
    44
1040
0.9036139999999999
1070
    74
1070
     0
1000
MTEXTEND
  0
MTEXT
  5
60AD
330
60AA
100
AcDbEntity
  8
1
  6
Continuous
 62
     4
100
AcDbMText
 10
361.701315
 20
314.299445
 30
0.0
 40
2.5
 41
0.0
 71
     7
 72
     5
  1
\W01.000;\fsimplex.shx; 
  7
blockfont
 73
     2
 44
0.9036139999999999
1001
ACAD
1000
MTEXTBEGIN
1070
    73
1070
     2
1070
    44
1040
0.9036139999999999
1070
    74
1070
     0
1000
MTEXTEND
  0
LINE
  5
60AE
330
60AA
100
AcDbEntity
  8
1
 62
     4
100
AcDbLine
 10
392.727357
 20
316.356736
 30
0.0
 11
364.727357
 21
316.356736
 31
0.0
  0
LINE
  5
60AF
330
60AA
100
AcDbEntity
  8
1
 62
     4
100
AcDbLine
 10
404.5964109999999
 20
287.375205
 30
0.0
 11
392.727357
 21
316.356736
 31
0.0
  0
SOLID
  5
60B0
330
60AA
100
AcDbEntity
  8
1
 62
     4
100
AcDbTrace
 10
404.5964109999999
 20
287.375205
 30
0.0
 11
403.523735
 21
289.097125
 31
0.0
 12
404.153137
 22
289.354892
 32
0.0
 13
404.5964109999999
 23
287.375205
 33
0.0
  0
ENDBLK
  5
60B1
330
60AA
100
AcDbEntity
  8
0
100
AcDbBlockEnd
  0
BLOCK
  5
60B3
330
60B2
100
AcDbEntity
  8
0
100
AcDbBlockBegin
  2
_D38
 70
     0
 10
0.0
 20
0.0
 30
0.0
  3
_D38
  1

  0
MTEXT
  5
60B4
330
60B2
100
AcDbEntity
  8
1
  6
Continuous
 62
     4
100
AcDbMText
 10
350.4375
 20
104.817708
 30
0.0
 40
2.5
 41
0.0
 71
     7
 72
     5
  1
\W01.000;\fsimplex.shx;9
  7
blockfont
 73
     2
 44
0.9036139999999999
1001
ACAD
1000
MTEXTBEGIN
1070
    73
1070
     2
1070
    44
1040
0.9036139999999999
1070
    74
1070
     0
1000
MTEXTEND
  0
MTEXT
  5
60B5
330
60B2
100
AcDbEntity
  8
1
  6
Continuous
 62
     4
100
AcDbMText
 10
346.707031
 20
104.817708
 30
0.0
 40
2.5
 41
0.0
 71
     7
 72
     5
  1
\W01.000;\fsimplex.shx;%%c
  7
blockfont
 73
     2
 44
0.9036139999999999
1001
ACAD
1000
MTEXTBEGIN
1070
    73
1070
     2
1070
    44
1040
0.9036139999999999
1070
    74
1070
     0
1000
MTEXTEND
  0
LINE
  5
60B6
330
60B2
100
AcDbEntity
  8
1
 62
     4
100
AcDbLine
 10
345.0
 20
106.875
 30
0.0
 11
345.0
 21
106.875
 31
0.0
  0
LINE
  5
60B7
330
60B2
100
AcDbEntity
  8
1
 62
     4
100
AcDbLine
 10
338.5745490000001
 20
96.39909600000001
 30
0.0
 11
345.0
 21
106.875
 31
0.0
  0
SOLID
  5
60B8
330
60B2
100
AcDbEntity
  8
1
 62
     4
100
AcDbTrace
 10
338.5745490000001
 20
96.39909600000001
 30
0.0
 11
339.330346
 21
98.281757
 31
0.0
 12
339.91012
 22
97.92615300000001
 32
0.0
 13
338.5745490000001
 23
96.39909600000001
 33
0.0
  0
ENDBLK
  5
60B9
330
60B2
100
AcDbEntity
  8
0
100
AcDbBlockEnd
  0
BLOCK
  5
6C71
330
6C70
100
AcDbEntity
  8
0
100
AcDbBlockBegin
  2
*D43
 70
     1
 10
0.0
 20
0.0
 30
0.0
  3
*D43
  1

  0
LINE
  5
7C5D
330
6C70
100
AcDbEntity
  8
30
  6
Continuous
 62
     0
370
    -2
100
AcDbLine
 10
104.4999999999999
 20
97.89137886629593
 30
0.0
 11
130.5
 21
97.89137886629593
 31
0.0
  0
LINE
  5
7C5E
330
6C70
100
AcDbEntity
  8
30
  6
Continuous
 62
     0
370
    -2
100
AcDbLine
 10
104.4999999999999
 20
-94.10862113370408
 30
0.0
 11
130.5
 21
-94.10862113370408
 31
0.0
  0
LINE
  5
7C5F
330
6C70
100
AcDbEntity
  8
30
  6
Continuous
 62
     0
370
    -2
100
AcDbLine
 10
130.0
 20
95.89137886629591
 30
0.0
 11
130.0
 21
-92.10862113370408
 31
0.0
  0
INSERT
  5
7C60
330
6C70
100
AcDbEntity
  8
30
  6
Continuous
 62
     0
370
    -2
100
AcDbBlockReference
  2
_OPEN
 10
130.0
 20
97.89137886629593
 30
0.0
 41
2.0
 42
2.0
 43
2.0
 50
90.0
  0
INSERT
  5
7C61
330
6C70
100
AcDbEntity
  8
30
  6
Continuous
 62
     0
370
    -2
100
AcDbBlockReference
  2
_OPEN
 10
130.0
 20
-94.10862113370408
 30
0.0
 41
2.0
 42
2.0
 43
2.0
 50
270.0
  0
MTEXT
  5
7C62
330
6C70
100
AcDbEntity
  8
30
  6
Continuous
 62
     0
100
AcDbMText
 10
127.0
 20
1.891378866295944
 30
0.0
 40
4.0
 41
0.0
 71
     5
 72
     1
  1
\A1;192
 11
0.0000000000000001
 21
1.0
 31
0.0
 73
     1
 44
1.0
1001
ACAD
1000
MTEXTBEGIN
1070
    73
1070
     1
1070
    44
1040
1.0
1070
    74
1070
     0
1000
MTEXTEND
  0
POINT
  5
7C63
330
6C70
100
AcDbEntity
  8
DEFPOINTS
  6
Continuous
 62
     0
100
AcDbPoint
 10
103.4999999999999
 20
97.89137886629593
 30
0.0
  0
POINT
  5
7C64
330
6C70
100
AcDbEntity
  8
DEFPOINTS
  6
Continuous
 62
     0
100
AcDbPoint
 10
103.4999999999999
 20
-94.10862113370408
 30
0.0
  0
POINT
  5
7C65
330
6C70
100
AcDbEntity
  8
DEFPOINTS
  6
Continuous
 62
     0
100
AcDbPoint
 10
130.0
 20
-94.10862113370408
 30
0.0
  0
ENDBLK
  5
6C72
330
6C70
100
AcDbEntity
  8
0
100
AcDbBlockEnd
  0
BLOCK
  5
734D
330
734C
100
AcDbEntity
  8
0
100
AcDbBlockBegin
  2
*D44
 70
     1
 10
0.0
 20
0.0
 30
0.0
  3
*D44
  1

  0
LINE
  5
781D
330
734C
100
AcDbEntity
  8
30
  6
Continuous
 62
     0
370
    -2
100
AcDbLine
 10
209.9555925000002
 20
-107.0
 30
0.0
 11
209.9555925000002
 21
-130.5
 31
0.0
  0
LINE
  5
781E
330
734C
100
AcDbEntity
  8
30
  6
Continuous
 62
     0
370
    -2
100
AcDbLine
 10
371.9555925000004
 20
-83.0
 30
0.0
 11
371.9555925000004
 21
-130.5
 31
0.0
  0
LINE
  5
781F
330
734C
100
AcDbEntity
  8
30
  6
Continuous
 62
     0
370
    -2
100
AcDbLine
 10
211.9555925000002
 20
-130.0
 30
0.0
 11
369.9555925000004
 21
-130.0
 31
0.0
  0
INSERT
  5
7820
330
734C
100
AcDbEntity
  8
30
  6
Continuous
 62
     0
370
    -2
100
AcDbBlockReference
  2
_OPEN
 10
209.9555925000002
 20
-130.0
 30
0.0
 41
2.0
 42
2.0
 43
2.0
 50
180.0
  0
INSERT
  5
7821
330
734C
100
AcDbEntity
  8
30
  6
Continuous
 62
     0
370
    -2
100
AcDbBlockReference
  2
_OPEN
 10
371.9555925000004
 20
-130.0
 30
0.0
 41
2.0
 42
2.0
 43
2.0
  0
MTEXT
  5
7822
330
734C
100
AcDbEntity
  8
30
  6
Continuous
 62
     0
100
AcDbMText
 10
290.9555925000003
 20
-127.0
 30
0.0
 40
4.0
 41
0.0
 71
     5
 72
     1
  1
\A1;162
 73
     1
 44
1.0
1001
ACAD
1000
MTEXTBEGIN
1070
    73
1070
     1
1070
    44
1040
1.0
1070
    74
1070
     0
1000
MTEXTEND
  0
POINT
  5
7823
330
734C
100
AcDbEntity
  8
DEFPOINTS
  6
Continuous
 62
     0
100
AcDbPoint
 10
209.9555925000002
 20
-106.0
 30
0.0
  0
POINT
  5
7824
330
734C
100
AcDbEntity
  8
DEFPOINTS
  6
Continuous
 62
     0
100
AcDbPoint
 10
371.9555925000004
 20
-82.0
 30
0.0
  0
POINT
  5
7825
330
734C
100
AcDbEntity
  8
DEFPOINTS
  6
Continuous
 62
     0
100
AcDbPoint
 10
371.9555925000004
 20
-130.0
 30
0.0
  0
ENDBLK
  5
734E
330
734C
100
AcDbEntity
  8
0
100
AcDbBlockEnd
  0
BLOCK
  5
7359
330
7358
100
AcDbEntity
  8
0
100
AcDbBlockBegin
  2
*D45
 70
     1
 10
0.0
 20
0.0
 30
0.0
  3
*D45
  1

  0
LINE
  5
7826
330
7358
100
AcDbEntity
  8
30
  6
Continuous
 62
     0
370
    -2
100
AcDbLine
 10
209.9555925000002
 20
-107.0
 30
0.0
 11
209.9555925000002
 21
-120.5
 31
0.0
  0
LINE
  5
7827
330
7358
100
AcDbEntity
  8
30
  6
Continuous
 62
     0
370
    -2
100
AcDbLine
 10
336.9555925000004
 20
-83.0
 30
0.0
 11
336.9555925000004
 21
-120.5
 31
0.0
  0
LINE
  5
7828
330
7358
100
AcDbEntity
  8
30
  6
Continuous
 62
     0
370
    -2
100
AcDbLine
 10
211.9555925000002
 20
-120.0
 30
0.0
 11
334.9555925000004
 21
-120.0
 31
0.0
  0
INSERT
  5
7829
330
7358
100
AcDbEntity
  8
30
  6
Continuous
 62
     0
370
    -2
100
AcDbBlockReference
  2
_OPEN
 10
209.9555925000002
 20
-120.0
 30
0.0
 41
2.0
 42
2.0
 43
2.0
 50
180.0
  0
INSERT
  5
782A
330
7358
100
AcDbEntity
  8
30
  6
Continuous
 62
     0
370
    -2
100
AcDbBlockReference
  2
_OPEN
 10
336.9555925000004
 20
-120.0
 30
0.0
 41
2.0
 42
2.0
 43
2.0
  0
MTEXT
  5
782B
330
7358
100
AcDbEntity
  8
30
  6
Continuous
 62
     0
100
AcDbMText
 10
273.4555925000003
 20
-117.0
 30
0.0
 40
4.0
 41
0.0
 71
     5
 72
     1
  1
\A1;127
 73
     1
 44
1.0
1001
ACAD
1000
MTEXTBEGIN
1070
    73
1070
     1
1070
    44
1040
1.0
1070
    74
1070
     0
1000
MTEXTEND
  0
POINT
  5
782C
330
7358
100
AcDbEntity
  8
DEFPOINTS
  6
Continuous
 62
     0
100
AcDbPoint
 10
209.9555925000002
 20
-106.0
 30
0.0
  0
POINT
  5
782D
330
7358
100
AcDbEntity
  8
DEFPOINTS
  6
Continuous
 62
     0
100
AcDbPoint
 10
336.9555925000004
 20
-82.0
 30
0.0
  0
POINT
  5
782E
330
7358
100
AcDbEntity
  8
DEFPOINTS
  6
Continuous
 62
     0
100
AcDbPoint
 10
336.9555925000004
 20
-120.0
 30
0.0
  0
ENDBLK
  5
735A
330
7358
100
AcDbEntity
  8
0
100
AcDbBlockEnd
  0
BLOCK
  5
7365
330
7364
100
AcDbEntity
  8
0
100
AcDbBlockBegin
  2
*D46
 70
     1
 10
0.0
 20
0.0
 30
0.0
  3
*D46
  1

  0
LINE
  5
782F
330
7364
100
AcDbEntity
  8
30
  6
Continuous
 62
     0
370
    -2
100
AcDbLine
 10
194.9555925000002
 20
-97.00000000000013
 30
0.0
 11
194.9555925000002
 21
-120.5
 31
0.0
  0
LINE
  5
7830
330
7364
100
AcDbEntity
  8
30
  6
Continuous
 62
     0
370
    -2
100
AcDbLine
 10
209.9555925000002
 20
-107.0
 30
0.0
 11
209.9555925000002
 21
-120.5
 31
0.0
  0
LINE
  5
7831
330
7364
100
AcDbEntity
  8
30
  6
Continuous
 62
     0
370
    -2
100
AcDbLine
 10
196.9555925000002
 20
-120.0
 30
0.0
 11
207.9555925000002
 21
-120.0
 31
0.0
  0
INSERT
  5
7832
330
7364
100
AcDbEntity
  8
30
  6
Continuous
 62
     0
370
    -2
100
AcDbBlockReference
  2
_OPEN
 10
194.9555925000002
 20
-120.0
 30
0.0
 41
2.0
 42
2.0
 43
2.0
 50
180.0
  0
INSERT
  5
7833
330
7364
100
AcDbEntity
  8
30
  6
Continuous
 62
     0
370
    -2
100
AcDbBlockReference
  2
_OPEN
 10
209.9555925000002
 20
-120.0
 30
0.0
 41
2.0
 42
2.0
 43
2.0
  0
MTEXT
  5
7834
330
7364
100
AcDbEntity
  8
30
  6
Continuous
 62
     0
100
AcDbMText
 10
202.4555925000002
 20
-117.0
 30
0.0
 40
4.0
 41
0.0
 71
     5
 72
     1
  1
\A1;15
 73
     1
 44
1.0
1001
ACAD
1000
MTEXTBEGIN
1070
    73
1070
     1
1070
    44
1040
1.0
1070
    74
1070
     0
1000
MTEXTEND
  0
POINT
  5
7835
330
7364
100
AcDbEntity
  8
DEFPOINTS
  6
Continuous
 62
     0
100
AcDbPoint
 10
194.9555925000002
 20
-96.00000000000013
 30
0.0
  0
POINT
  5
7836
330
7364
100
AcDbEntity
  8
DEFPOINTS
  6
Continuous
 62
     0
100
AcDbPoint
 10
209.9555925000002
 20
-106.0
 30
0.0
  0
POINT
  5
7837
330
7364
100
AcDbEntity
  8
DEFPOINTS
  6
Continuous
 62
     0
100
AcDbPoint
 10
209.9555925000002
 20
-120.0
 30
0.0
  0
ENDBLK
  5
7366
330
7364
100
AcDbEntity
  8
0
100
AcDbBlockEnd
  0
BLOCK
  5
7371
330
7370
100
AcDbEntity
  8
0
100
AcDbBlockBegin
  2
*D47
 70
     1
 10
0.0
 20
0.0
 30
0.0
  3
*D47
  1

  0
LINE
  5
7838
330
7370
100
AcDbEntity
  8
30
  6
Continuous
 62
     0
370
    -2
100
AcDbLine
 10
169.9555925000002
 20
-1.000000000000055
 30
0.0
 11
169.9555925000002
 21
-130.5
 31
0.0
  0
LINE
  5
7839
330
7370
100
AcDbEntity
  8
30
  6
Continuous
 62
     0
370
    -2
100
AcDbLine
 10
209.9555925000002
 20
-107.0
 30
0.0
 11
209.9555925000002
 21
-130.5
 31
0.0
  0
LINE
  5
783A
330
7370
100
AcDbEntity
  8
30
  6
Continuous
 62
     0
370
    -2
100
AcDbLine
 10
171.9555925000002
 20
-130.0
 30
0.0
 11
207.9555925000002
 21
-130.0
 31
0.0
  0
INSERT
  5
783B
330
7370
100
AcDbEntity
  8
30
  6
Continuous
 62
     0
370
    -2
100
AcDbBlockReference
  2
_OPEN
 10
169.9555925000002
 20
-130.0
 30
0.0
 41
2.0
 42
2.0
 43
2.0
 50
180.0
  0
INSERT
  5
783C
330
7370
100
AcDbEntity
  8
30
  6
Continuous
 62
     0
370
    -2
100
AcDbBlockReference
  2
_OPEN
 10
209.9555925000002
 20
-130.0
 30
0.0
 41
2.0
 42
2.0
 43
2.0
  0
MTEXT
  5
783D
330
7370
100
AcDbEntity
  8
30
  6
Continuous
 62
     0
100
AcDbMText
 10
189.9555925000002
 20
-127.0
 30
0.0
 40
4.0
 41
0.0
 71
     5
 72
     1
  1
\A1;40
 73
     1
 44
1.0
1001
ACAD
1000
MTEXTBEGIN
1070
    73
1070
     1
1070
    44
1040
1.0
1070
    74
1070
     0
1000
MTEXTEND
  0
POINT
  5
783E
330
7370
100
AcDbEntity
  8
DEFPOINTS
  6
Continuous
 62
     0
100
AcDbPoint
 10
169.9555925000002
 20
-0.0000000000000568
 30
0.0
  0
POINT
  5
783F
330
7370
100
AcDbEntity
  8
DEFPOINTS
  6
Continuous
 62
     0
100
AcDbPoint
 10
209.9555925000002
 20
-106.0
 30
0.0
  0
POINT
  5
7840
330
7370
100
AcDbEntity
  8
DEFPOINTS
  6
Continuous
 62
     0
100
AcDbPoint
 10
209.9555925000002
 20
-130.0
 30
0.0
  0
ENDBLK
  5
7372
330
7370
100
AcDbEntity
  8
0
100
AcDbBlockEnd
  0
BLOCK
  5
737D
330
737C
100
AcDbEntity
  8
0
100
AcDbBlockBegin
  2
*D48
 70
     1
 10
0.0
 20
0.0
 30
0.0
  3
*D48
  1

  0
LINE
  5
7841
330
737C
100
AcDbEntity
  8
30
  6
Continuous
 62
     0
370
    -2
100
AcDbLine
 10
323.9555925
 20
-86.00000000000017
 30
0.0
 11
323.9555925
 21
-110.5
 31
0.0
  0
LINE
  5
7842
330
737C
100
AcDbEntity
  8
30
  6
Continuous
 62
     0
370
    -2
100
AcDbLine
 10
336.9555925000004
 20
-83.0
 30
0.0
 11
336.9555925000004
 21
-110.5
 31
0.0
  0
LINE
  5
7843
330
737C
100
AcDbEntity
  8
30
  6
Continuous
 62
     0
370
    -2
100
AcDbLine
 10
325.9555925
 20
-110.0
 30
0.0
 11
334.9555925000004
 21
-110.0
 31
0.0
  0
INSERT
  5
7844
330
737C
100
AcDbEntity
  8
30
  6
Continuous
 62
     0
370
    -2
100
AcDbBlockReference
  2
_OPEN
 10
323.9555925
 20
-110.0
 30
0.0
 41
2.0
 42
2.0
 43
2.0
 50
180.0
  0
INSERT
  5
7845
330
737C
100
AcDbEntity
  8
30
  6
Continuous
 62
     0
370
    -2
100
AcDbBlockReference
  2
_OPEN
 10
336.9555925000004
 20
-110.0
 30
0.0
 41
2.0
 42
2.0
 43
2.0
  0
MTEXT
  5
7846
330
737C
100
AcDbEntity
  8
30
  6
Continuous
 62
     0
100
AcDbMText
 10
330.4555925000002
 20
-107.0
 30
0.0
 40
4.0
 41
0.0
 71
     5
 72
     1
  1
\A1;13
 73
     1
 44
1.0
1001
ACAD
1000
MTEXTBEGIN
1070
    73
1070
     1
1070
    44
1040
1.0
1070
    74
1070
     0
1000
MTEXTEND
  0
POINT
  5
7847
330
737C
100
AcDbEntity
  8
DEFPOINTS
  6
Continuous
 62
     0
100
AcDbPoint
 10
323.9555925
 20
-85.00000000000017
 30
0.0
  0
POINT
  5
7848
330
737C
100
AcDbEntity
  8
DEFPOINTS
  6
Continuous
 62
     0
100
AcDbPoint
 10
336.9555925000004
 20
-82.0
 30
0.0
  0
POINT
  5
7849
330
737C
100
AcDbEntity
  8
DEFPOINTS
  6
Continuous
 62
     0
100
AcDbPoint
 10
336.9555925000004
 20
-110.0
 30
0.0
  0
ENDBLK
  5
737E
330
737C
100
AcDbEntity
  8
0
100
AcDbBlockEnd
  0
BLOCK
  5
7389
330
7388
100
AcDbEntity
  8
0
100
AcDbBlockBegin
  2
*D49
 70
     1
 10
0.0
 20
0.0
 30
0.0
  3
*D49
  1

  0
LINE
  5
784A
330
7388
100
AcDbEntity
  8
30
  6
Continuous
 62
     0
370
    -2
100
AcDbLine
 10
355.9555925
 20
-86.00000000000017
 30
0.0
 11
355.9555925
 21
-110.5
 31
0.0
  0
LINE
  5
784B
330
7388
100
AcDbEntity
  8
30
  6
Continuous
 62
     0
370
    -2
100
AcDbLine
 10
371.9555925000004
 20
-83.0
 30
0.0
 11
371.9555925000004
 21
-110.5
 31
0.0
  0
LINE
  5
784C
330
7388
100
AcDbEntity
  8
30
  6
Continuous
 62
     0
370
    -2
100
AcDbLine
 10
357.9555925
 20
-110.0
 30
0.0
 11
369.9555925000004
 21
-110.0
 31
0.0
  0
INSERT
  5
784D
330
7388
100
AcDbEntity
  8
30
  6
Continuous
 62
     0
370
    -2
100
AcDbBlockReference
  2
_OPEN
 10
355.9555925
 20
-110.0
 30
0.0
 41
2.0
 42
2.0
 43
2.0
 50
180.0
  0
INSERT
  5
784E
330
7388
100
AcDbEntity
  8
30
  6
Continuous
 62
     0
370
    -2
100
AcDbBlockReference
  2
_OPEN
 10
371.9555925000004
 20
-110.0
 30
0.0
 41
2.0
 42
2.0
 43
2.0
  0
MTEXT
  5
784F
330
7388
100
AcDbEntity
  8
30
  6
Continuous
 62
     0
100
AcDbMText
 10
363.9555925000002
 20
-107.0
 30
0.0
 40
4.0
 41
0.0
 71
     5
 72
     1
  1
\A1;16
 73
     1
 44
1.0
1001
ACAD
1000
MTEXTBEGIN
1070
    73
1070
     1
1070
    44
1040
1.0
1070
    74
1070
     0
1000
MTEXTEND
  0
POINT
  5
7850
330
7388
100
AcDbEntity
  8
DEFPOINTS
  6
Continuous
 62
     0
100
AcDbPoint
 10
355.9555925
 20
-85.00000000000017
 30
0.0
  0
POINT
  5
7851
330
7388
100
AcDbEntity
  8
DEFPOINTS
  6
Continuous
 62
     0
100
AcDbPoint
 10
371.9555925000004
 20
-82.0
 30
0.0
  0
POINT
  5
7852
330
7388
100
AcDbEntity
  8
DEFPOINTS
  6
Continuous
 62
     0
100
AcDbPoint
 10
371.9555925000004
 20
-110.0
 30
0.0
  0
ENDBLK
  5
738A
330
7388
100
AcDbEntity
  8
0
100
AcDbBlockEnd
  0
BLOCK
  5
73F0
330
73EF
100
AcDbEntity
  8
0
100
AcDbBlockBegin
  2
*D50
 70
     1
 10
0.0
 20
0.0
 30
0.0
  3
*D50
  1

  0
LINE
  5
771B
330
73EF
100
AcDbEntity
  8
30
  6
Continuous
 62
     0
370
    -2
100
AcDbLine
 10
317.4555925
 20
-76.50000000000004
 30
0.0
 11
306.93138
 21
-76.50000000000004
 31
0.0
  0
LINE
  5
771C
330
73EF
100
AcDbEntity
  8
30
  6
Continuous
 62
     0
370
    -2
100
AcDbLine
 10
317.4530924999999
 20
-67.50000000000007
 30
0.0
 11
306.93138
 21
-67.50000000000007
 31
0.0
  0
LINE
  5
771D
330
73EF
100
AcDbEntity
  8
30
  6
Continuous
 62
     0
370
    -2
100
AcDbLine
 10
307.43138
 20
-74.50000000000007
 30
0.0
 11
307.43138
 21
-69.50000000000007
 31
0.0
  0
INSERT
  5
771E
330
73EF
100
AcDbEntity
  8
30
  6
Continuous
 62
     0
370
    -2
100
AcDbBlockReference
  2
_OPEN
 10
307.43138
 20
-76.50000000000004
 30
0.0
 41
2.0
 42
2.0
 43
2.0
 50
270.0
  0
INSERT
  5
771F
330
73EF
100
AcDbEntity
  8
30
  6
Continuous
 62
     0
370
    -2
100
AcDbBlockReference
  2
_OPEN
 10
307.43138
 20
-67.50000000000007
 30
0.0
 41
2.0
 42
2.0
 43
2.0
 50
90.0
  0
MTEXT
  5
7720
330
73EF
100
AcDbEntity
  8
30
  6
Continuous
 62
     0
100
AcDbMText
 10
304.43138
 20
-72.0
 30
0.0
 40
4.0
 41
0.0
 71
     5
 72
     1
  1
\A1; 9 
 11
0.0000000000000001
 21
1.0
 31
0.0
 73
     1
 44
1.0
1001
ACAD
1000
MTEXTBEGIN
1070
    73
1070
     1
1070
    44
1040
1.0
1070
    74
1070
     0
1000
MTEXTEND
  0
POINT
  5
7721
330
73EF
100
AcDbEntity
  8
DEFPOINTS
  6
Continuous
 62
     0
100
AcDbPoint
 10
318.4555925
 20
-76.50000000000004
 30
0.0
  0
POINT
  5
7722
330
73EF
100
AcDbEntity
  8
DEFPOINTS
  6
Continuous
 62
     0
100
AcDbPoint
 10
318.4530924999999
 20
-67.50000000000007
 30
0.0
  0
POINT
  5
7723
330
73EF
100
AcDbEntity
  8
DEFPOINTS
  6
Continuous
 62
     0
100
AcDbPoint
 10
307.43138
 20
-67.50000000000007
 30
0.0
  0
ENDBLK
  5
73F1
330
73EF
100
AcDbEntity
  8
0
100
AcDbBlockEnd
  0
BLOCK
  5
7423
330
7422
100
AcDbEntity
  8
0
100
AcDbBlockBegin
  2
*D51
 70
     1
 10
0.0
 20
0.0
 30
0.0
  3
*D51
  1

  0
LINE
  5
7853
330
7422
100
AcDbEntity
  8
30
  6
Continuous
 62
     0
370
    -2
100
AcDbLine
 10
317.9555925
 20
-86.00000000000017
 30
0.0
 11
317.9555925
 21
-110.5
 31
0.0
  0
LINE
  5
7854
330
7422
100
AcDbEntity
  8
30
  6
Continuous
 62
     0
370
    -2
100
AcDbLine
 10
323.9555925
 20
-86.00000000000017
 30
0.0
 11
323.9555925
 21
-110.5
 31
0.0
  0
LINE
  5
7855
330
7422
100
AcDbEntity
  8
30
  6
Continuous
 62
     0
370
    -2
100
AcDbLine
 10
315.9555925
 20
-110.0
 30
0.0
 11
313.9555925
 21
-110.0
 31
0.0
  0
LINE
  5
7856
330
7422
100
AcDbEntity
  8
30
  6
Continuous
 62
     0
370
    -2
100
AcDbLine
 10
325.9555925
 20
-110.0
 30
0.0
 11
327.9555925
 21
-110.0
 31
0.0
  0
LINE
  5
7857
330
7422
100
AcDbEntity
  8
30
  6
Continuous
 62
     0
370
    -2
100
AcDbLine
 10
317.9555925
 20
-110.0
 30
0.0
 11
323.9555925
 21
-110.0
 31
0.0
  0
INSERT
  5
7858
330
7422
100
AcDbEntity
  8
30
  6
Continuous
 62
     0
370
    -2
100
AcDbBlockReference
  2
_OPEN
 10
317.9555925
 20
-110.0
 30
0.0
 41
2.0
 42
2.0
 43
2.0
  0
INSERT
  5
7859
330
7422
100
AcDbEntity
  8
30
  6
Continuous
 62
     0
370
    -2
100
AcDbBlockReference
  2
_OPEN
 10
323.9555925
 20
-110.0
 30
0.0
 41
2.0
 42
2.0
 43
2.0
 50
180.0
  0
MTEXT
  5
785A
330
7422
100
AcDbEntity
  8
30
  6
Continuous
 62
     0
100
AcDbMText
 10
320.9555925
 20
-107.0
 30
0.0
 40
4.0
 41
0.0
 71
     5
 72
     1
  1
\A1;6
 73
     1
 44
1.0
1001
ACAD
1000
MTEXTBEGIN
1070
    73
1070
     1
1070
    44
1040
1.0
1070
    74
1070
     0
1000
MTEXTEND
  0
POINT
  5
785B
330
7422
100
AcDbEntity
  8
DEFPOINTS
  6
Continuous
 62
     0
100
AcDbPoint
 10
317.9555925
 20
-85.00000000000017
 30
0.0
  0
POINT
  5
785C
330
7422
100
AcDbEntity
  8
DEFPOINTS
  6
Continuous
 62
     0
100
AcDbPoint
 10
323.9555925
 20
-85.00000000000017
 30
0.0
  0
POINT
  5
785D
330
7422
100
AcDbEntity
  8
DEFPOINTS
  6
Continuous
 62
     0
100
AcDbPoint
 10
323.9555925
 20
-110.0
 30
0.0
  0
ENDBLK
  5
7424
330
7422
100
AcDbEntity
  8
0
100
AcDbBlockEnd
  0
BLOCK
  5
7490
330
748F
100
AcDbEntity
  8
0
100
AcDbBlockBegin
  2
*D52
 70
     1
 10
0.0
 20
0.0
 30
0.0
  3
*D52
  1

  0
LINE
  5
7B24
330
748F
100
AcDbEntity
  8
30
  6
Continuous
 62
     0
370
    -2
100
AcDbLine
 10
184.3639054648289
 20
-26.15231784516311
 30
0.0
 11
149.5
 21
-26.1523178451631
 31
0.0
  0
LINE
  5
7B25
330
748F
100
AcDbEntity
  8
30
  6
Continuous
 62
     0
370
    -2
100
AcDbLine
 10
184.3639054648289
 20
23.847682154837
 30
0.0
 11
149.5
 21
23.84768215483702
 31
0.0
  0
LINE
  5
7B26
330
748F
100
AcDbEntity
  8
30
  6
Continuous
 62
     0
370
    -2
100
AcDbLine
 10
150.0
 20
-24.1523178451631
 30
0.0
 11
150.0
 21
21.84768215483702
 31
0.0
  0
INSERT
  5
7B27
330
748F
100
AcDbEntity
  8
30
  6
Continuous
 62
     0
370
    -2
100
AcDbBlockReference
  2
_OPEN
 10
150.0
 20
-26.1523178451631
 30
0.0
 41
2.0
 42
2.0
 43
2.0
 50
270.0
  0
INSERT
  5
7B28
330
748F
100
AcDbEntity
  8
30
  6
Continuous
 62
     0
370
    -2
100
AcDbBlockReference
  2
_OPEN
 10
150.0
 20
23.84768215483702
 30
0.0
 41
2.0
 42
2.0
 43
2.0
 50
90.0
  0
MTEXT
  5
7B29
330
748F
100
AcDbEntity
  8
30
  6
Continuous
 62
     0
100
AcDbMText
 10
147.0
 20
-1.152317845163014
 30
0.0
 40
4.0
 41
0.0
 71
     5
 72
     1
  1
\A1; 50 
 11
0.0000000000000001
 21
1.0
 31
0.0
 73
     1
 44
1.0
1001
ACAD
1000
MTEXTBEGIN
1070
    73
1070
     1
1070
    44
1040
1.0
1070
    74
1070
     0
1000
MTEXTEND
  0
POINT
  5
7B2A
330
748F
100
AcDbEntity
  8
DEFPOINTS
  6
Continuous
 62
     0
100
AcDbPoint
 10
185.3639054648289
 20
-26.15231784516311
 30
0.0
  0
POINT
  5
7B2B
330
748F
100
AcDbEntity
  8
DEFPOINTS
  6
Continuous
 62
     0
100
AcDbPoint
 10
185.3639054648289
 20
23.847682154837
 30
0.0
  0
POINT
  5
7B2C
330
748F
100
AcDbEntity
  8
DEFPOINTS
  6
Continuous
 62
     0
100
AcDbPoint
 10
150.0
 20
23.84768215483702
 30
0.0
  0
ENDBLK
  5
7491
330
748F
100
AcDbEntity
  8
0
100
AcDbBlockEnd
  0
BLOCK
  5
78EA
330
78E9
100
AcDbEntity
  8
0
100
AcDbBlockBegin
  2
*D53
 70
     1
 10
0.0
 20
0.0
 30
0.0
  3
*D53
  1

  0
LINE
  5
7C66
330
78E9
100
AcDbEntity
  8
12
  6
Continuous
 62
     4
370
    -2
100
AcDbLine
 10
-30.23295179982668
 20
-225.7913165255956
 30
0.0
 11
-34.39961846649338
 21
-225.7913165255956
 31
0.0
  0
LINE
  5
7C67
330
78E9
100
AcDbEntity
  8
12
  6
Continuous
 62
     4
370
    -2
100
AcDbLine
 10
-34.39961846649338
 20
-225.7913165255956
 30
0.0
 11
-36.10506241276767
 21
-221.627008546337
 31
0.0
  0
MTEXT
  5
7C68
102
{ACAD_XDICTIONARY
360
7DC8
102
}
330
78E9
100
AcDbEntity
  8
12
  6
Continuous
 62
     4
100
AcDbMText
 10
-32.31628513316002
 20
-224.5413165255956
 30
0.0
 40
2.5
 41
0.0
 71
     5
 72
     1
  1
\A1;\U+22056
 73
     1
 44
1.0
1001
ACAD
1000
MTEXTBEGIN
1070
    73
1070
     1
1070
    44
1040
1.0
1070
    74
1070
     0
1000
MTEXTEND
  0
INSERT
  5
7C69
330
78E9
100
AcDbEntity
  8
12
  6
Continuous
 62
     4
370
    -2
100
AcDbBlockReference
  2
_OPEN
 10
-36.8630375000007
 20
-219.7762049999999
 30
0.0
 41
2.0
 42
2.0
 43
2.0
 50
112.2709828739883
  0
LINE
  5
7C6A
330
78E9
100
AcDbEntity
  8
12
  6
Continuous
 62
     4
370
    -2
100
AcDbLine
 10
-38.09000000000035
 20
-217.0000000000001
 30
0.0
 11
-37.91000000000035
 21
-217.0000000000001
 31
0.0
  0
LINE
  5
7C6B
330
78E9
100
AcDbEntity
  8
12
  6
Continuous
 62
     4
370
    -2
100
AcDbLine
 10
-38.00000000000036
 20
-217.09
 30
0.0
 11
-38.00000000000034
 21
-216.9100000000001
 31
0.0
  0
POINT
  5
7C6C
330
78E9
100
AcDbEntity
  8
DEFPOINTS
  6
Continuous
 62
     0
100
AcDbPoint
 10
-36.8630375000007
 20
-219.7762049999999
 30
0.0
  0
POINT
  5
7C6D
330
78E9
100
AcDbEntity
  8
DEFPOINTS
  6
Continuous
 62
     0
100
AcDbPoint
 10
-39.1369625
 20
-214.2237950000002
 30
0.0
  0
ENDBLK
  5
78EB
330
78E9
100
AcDbEntity
  8
0
100
AcDbBlockEnd
  0
BLOCK
  5
798E
330
798D
100
AcDbEntity
  8
0
100
AcDbBlockBegin
  2
*D54
 70
     1
 10
0.0
 20
0.0
 30
0.0
  3
*D54
  1

  0
LINE
  5
7D75
330
798D
100
AcDbEntity
  8
30
  6
Continuous
 62
     0
370
    -2
100
AcDbLine
 10
120.6824255169189
 20
-195.1618073964241
 30
0.0
 11
113.0157588502518
 21
-195.1618073964241
 31
0.0
  0
LINE
  5
7D76
330
798D
100
AcDbEntity
  8
30
  6
Continuous
 62
     0
370
    -2
100
AcDbLine
 10
113.0157588502518
 20
-195.1618073964241
 30
0.0
 11
101.9090686187673
 21
-203.8595782989175
 31
0.0
  0
MTEXT
  5
7D77
102
{ACAD_XDICTIONARY
360
7DCA
102
}
330
798D
100
AcDbEntity
  8
30
  6
Continuous
 62
     0
100
AcDbMText
 10
117.3490921835856
 20
-192.1618073964241
 30
0.0
 40
4.0
 41
0.0
 71
     5
 72
     1
  1
\A1;\U+22056
 73
     1
 44
1.0
1001
ACAD
1000
MTEXTBEGIN
1070
    73
1070
     1
1070
    44
1040
1.0
1070
    74
1070
     0
1000
MTEXTEND
  0
INSERT
  5
7D78
330
798D
100
AcDbEntity
  8
30
  6
Continuous
 62
     0
370
    -2
100
AcDbBlockReference
  2
_OPEN
 10
100.3344425463692
 20
-205.092685241613
 30
0.0
 41
2.0
 42
2.0
 43
2.0
 50
218.0648852030016
  0
LINE
  5
7D79
330
798D
100
AcDbEntity
  8
30
  6
Continuous
 62
     0
370
    -2
100
AcDbLine
 10
97.88250322867181
 20
-206.9423458194049
 30
0.0
 11
98.06250322867182
 21
-206.9423458194049
 31
0.0
  0
LINE
  5
7D7A
330
798D
100
AcDbEntity
  8
30
  6
Continuous
 62
     0
370
    -2
100
AcDbLine
 10
97.97250322867183
 20
-207.0323458194049
 30
0.0
 11
97.9725032286718
 21
-206.8523458194049
 31
0.0
  0
POINT
  5
7D7B
330
798D
100
AcDbEntity
  8
DEFPOINTS
  6
Continuous
 62
     0
100
AcDbPoint
 10
100.3344425463692
 20
-205.092685241613
 30
0.0
  0
POINT
  5
7D7C
330
798D
100
AcDbEntity
  8
DEFPOINTS
  6
Continuous
 62
     0
100
AcDbPoint
 10
95.61056391097448
 20
-208.7920063971968
 30
0.0
  0
ENDBLK
  5
798F
330
798D
100
AcDbEntity
  8
0
100
AcDbBlockEnd
  0
BLOCK
  5
79DB
330
79DA
100
AcDbEntity
  8
0
100
AcDbBlockBegin
  2
*D55
 70
     1
 10
0.0
 20
0.0
 30
0.0
  3
*D55
  1

  0
LINE
  5
7D7D
330
79DA
100
AcDbEntity
  8
30
  6
Continuous
 62
     0
370
    -2
100
AcDbLine
 10
-32.9999999999999
 20
-331.5000000000001
 30
0.0
 11
-32.9999999999999
 21
-350.5264379739336
 31
0.0
  0
LINE
  5
7D7E
330
79DA
100
AcDbEntity
  8
30
  6
Continuous
 62
     0
370
    -2
100
AcDbLine
 10
93.00000000000013
 20
-331.5000000000001
 30
0.0
 11
93.00000000000013
 21
-350.5264379739336
 31
0.0
  0
LINE
  5
7D7F
330
79DA
100
AcDbEntity
  8
30
  6
Continuous
 62
     0
370
    -2
100
AcDbLine
 10
-30.9999999999999
 20
-350.0264379739336
 30
0.0
 11
91.00000000000013
 21
-350.0264379739336
 31
0.0
  0
INSERT
  5
7D80
330
79DA
100
AcDbEntity
  8
30
  6
Continuous
 62
     0
370
    -2
100
AcDbBlockReference
  2
_OPEN
 10
-32.9999999999999
 20
-350.0264379739336
 30
0.0
 41
2.0
 42
2.0
 43
2.0
 50
180.0
  0
INSERT
  5
7D81
330
79DA
100
AcDbEntity
  8
30
  6
Continuous
 62
     0
370
    -2
100
AcDbBlockReference
  2
_OPEN
 10
93.00000000000013
 20
-350.0264379739336
 30
0.0
 41
2.0
 42
2.0
 43
2.0
  0
MTEXT
  5
7D82
330
79DA
100
AcDbEntity
  8
30
  6
Continuous
 62
     0
100
AcDbMText
 10
30.00000000000011
 20
-347.0264379739337
 30
0.0
 40
4.0
 41
0.0
 71
     5
 72
     1
  1
\A1;126
 73
     1
 44
1.0
1001
ACAD
1000
MTEXTBEGIN
1070
    73
1070
     1
1070
    44
1040
1.0
1070
    74
1070
     0
1000
MTEXTEND
  0
POINT
  5
7D83
330
79DA
100
AcDbEntity
  8
DEFPOINTS
  6
Continuous
 62
     0
100
AcDbPoint
 10
-32.9999999999999
 20
-330.5000000000001
 30
0.0
  0
POINT
  5
7D84
330
79DA
100
AcDbEntity
  8
DEFPOINTS
  6
Continuous
 62
     0
100
AcDbPoint
 10
93.00000000000013
 20
-330.5000000000001
 30
0.0
  0
POINT
  5
7D85
330
79DA
100
AcDbEntity
  8
DEFPOINTS
  6
Continuous
 62
     0
100
AcDbPoint
 10
93.00000000000013
 20
-350.0264379739336
 30
0.0
  0
ENDBLK
  5
79DC
330
79DA
100
AcDbEntity
  8
0
100
AcDbBlockEnd
  0
BLOCK
  5
79E7
330
79E6
100
AcDbEntity
  8
0
100
AcDbBlockBegin
  2
*D56
 70
     1
 10
0.0
 20
0.0
 30
0.0
  3
*D56
  1

  0
LINE
  5
7D86
330
79E6
100
AcDbEntity
  8
30
  6
Continuous
 62
     0
370
    -2
100
AcDbLine
 10
-38.00000000000004
 20
-279.0000000000008
 30
0.0
 11
-38.00000000000004
 21
-360.5
 31
0.0
  0
LINE
  5
7D87
330
79E6
100
AcDbEntity
  8
30
  6
Continuous
 62
     0
370
    -2
100
AcDbLine
 10
97.99999999999993
 20
-279.0000000000008
 30
0.0
 11
97.99999999999993
 21
-360.5
 31
0.0
  0
LINE
  5
7D88
330
79E6
100
AcDbEntity
  8
30
  6
Continuous
 62
     0
370
    -2
100
AcDbLine
 10
-36.00000000000004
 20
-360.0
 30
0.0
 11
95.99999999999992
 21
-360.0
 31
0.0
  0
INSERT
  5
7D89
330
79E6
100
AcDbEntity
  8
30
  6
Continuous
 62
     0
370
    -2
100
AcDbBlockReference
  2
_OPEN
 10
-38.00000000000004
 20
-360.0
 30
0.0
 41
2.0
 42
2.0
 43
2.0
 50
180.0
  0
INSERT
  5
7D8A
330
79E6
100
AcDbEntity
  8
30
  6
Continuous
 62
     0
370
    -2
100
AcDbBlockReference
  2
_OPEN
 10
97.99999999999993
 20
-360.0
 30
0.0
 41
2.0
 42
2.0
 43
2.0
  0
MTEXT
  5
7D8B
330
79E6
100
AcDbEntity
  8
30
  6
Continuous
 62
     0
100
AcDbMText
 10
29.99999999999995
 20
-357.0
 30
0.0
 40
4.0
 41
0.0
 71
     5
 72
     1
  1
\A1;136
 73
     1
 44
1.0
1001
ACAD
1000
MTEXTBEGIN
1070
    73
1070
     1
1070
    44
1040
1.0
1070
    74
1070
     0
1000
MTEXTEND
  0
POINT
  5
7D8C
330
79E6
100
AcDbEntity
  8
DEFPOINTS
  6
Continuous
 62
     0
100
AcDbPoint
 10
-38.00000000000004
 20
-278.0000000000009
 30
0.0
  0
POINT
  5
7D8D
330
79E6
100
AcDbEntity
  8
DEFPOINTS
  6
Continuous
 62
     0
100
AcDbPoint
 10
97.99999999999993
 20
-278.0000000000009
 30
0.0
  0
POINT
  5
7D8E
330
79E6
100
AcDbEntity
  8
DEFPOINTS
  6
Continuous
 62
     0
100
AcDbPoint
 10
97.99999999999993
 20
-360.0
 30
0.0
  0
ENDBLK
  5
79E8
330
79E6
100
AcDbEntity
  8
0
100
AcDbBlockEnd
  0
BLOCK
  5
7AD9
330
7AD8
100
AcDbEntity
  8
0
100
AcDbBlockBegin
  2
*D57
 70
     1
 10
0.0
 20
0.0
 30
0.0
  3
*D57
  1

  0
LINE
  5
7AFE
330
7AD8
100
AcDbEntity
  8
30
  6
Continuous
 62
     0
370
    -2
100
AcDbLine
 10
372.9555925000004
 20
69.00000000000004
 30
0.0
 11
400.4999999999998
 21
69.00000000000004
 31
0.0
  0
LINE
  5
7AFF
330
7AD8
100
AcDbEntity
  8
30
  6
Continuous
 62
     0
370
    -2
100
AcDbLine
 10
372.9555925000004
 20
75.00000000000007
 30
0.0
 11
400.4999999999998
 21
75.00000000000007
 31
0.0
  0
LINE
  5
7B00
330
7AD8
100
AcDbEntity
  8
30
  6
Continuous
 62
     0
370
    -2
100
AcDbLine
 10
400.0
 20
67.00000000000007
 30
0.0
 11
400.0
 21
65.00000000000007
 31
0.0
  0
LINE
  5
7B01
330
7AD8
100
AcDbEntity
  8
30
  6
Continuous
 62
     0
370
    -2
100
AcDbLine
 10
400.0
 20
77.00000000000007
 30
0.0
 11
400.0
 21
79.00000000000004
 31
0.0
  0
LINE
  5
7B02
330
7AD8
100
AcDbEntity
  8
30
  6
Continuous
 62
     0
370
    -2
100
AcDbLine
 10
400.0
 20
69.00000000000004
 30
0.0
 11
400.0
 21
75.00000000000007
 31
0.0
  0
INSERT
  5
7B03
330
7AD8
100
AcDbEntity
  8
30
  6
Continuous
 62
     0
370
    -2
100
AcDbBlockReference
  2
_OPEN
 10
400.0
 20
69.00000000000004
 30
0.0
 41
2.0
 42
2.0
 43
2.0
 50
90.0
  0
INSERT
  5
7B04
330
7AD8
100
AcDbEntity
  8
30
  6
Continuous
 62
     0
370
    -2
100
AcDbBlockReference
  2
_OPEN
 10
400.0
 20
75.00000000000007
 30
0.0
 41
2.0
 42
2.0
 43
2.0
 50
270.0
  0
MTEXT
  5
7B05
330
7AD8
100
AcDbEntity
  8
30
  6
Continuous
 62
     0
100
AcDbMText
 10
397.0
 20
72.00000000000009
 30
0.0
 40
4.0
 41
0.0
 71
     5
 72
     1
  1
\A1;6
 11
0.0000000000000001
 21
1.0
 31
0.0
 73
     1
 44
1.0
1001
ACAD
1000
MTEXTBEGIN
1070
    73
1070
     1
1070
    44
1040
1.0
1070
    74
1070
     0
1000
MTEXTEND
  0
POINT
  5
7B06
330
7AD8
100
AcDbEntity
  8
DEFPOINTS
  6
Continuous
 62
     0
100
AcDbPoint
 10
371.9555925000004
 20
69.00000000000004
 30
0.0
  0
POINT
  5
7B07
330
7AD8
100
AcDbEntity
  8
DEFPOINTS
  6
Continuous
 62
     0
100
AcDbPoint
 10
371.9555925000004
 20
75.00000000000007
 30
0.0
  0
POINT
  5
7B08
330
7AD8
100
AcDbEntity
  8
DEFPOINTS
  6
Continuous
 62
     0
100
AcDbPoint
 10
400.0
 20
75.00000000000007
 30
0.0
  0
ENDBLK
  5
7ADA
330
7AD8
100
AcDbEntity
  8
0
100
AcDbBlockEnd
  0
BLOCK
  5
7AE7
330
7AE6
100
AcDbEntity
  8
0
100
AcDbBlockBegin
  2
*D58
 70
     1
 10
0.0
 20
0.0
 30
0.0
  3
*D58
  1

  0
LINE
  5
7B09
330
7AE6
100
AcDbEntity
  8
30
  6
Continuous
 62
     0
370
    -2
100
AcDbLine
 10
370.2761005756893
 20
-82.0
 30
0.0
 11
400.4999999999998
 21
-82.0
 31
0.0
  0
LINE
  5
7B0A
330
7AE6
100
AcDbEntity
  8
30
  6
Continuous
 62
     0
370
    -2
100
AcDbLine
 10
370.2761005756893
 20
-62.0
 30
0.0
 11
400.4999999999998
 21
-62.00000000000001
 31
0.0
  0
LINE
  5
7B0B
330
7AE6
100
AcDbEntity
  8
30
  6
Continuous
 62
     0
370
    -2
100
AcDbLine
 10
400.0
 20
-80.0
 30
0.0
 11
400.0
 21
-64.0
 31
0.0
  0
INSERT
  5
7B0C
330
7AE6
100
AcDbEntity
  8
30
  6
Continuous
 62
     0
370
    -2
100
AcDbBlockReference
  2
_OPEN
 10
400.0
 20
-82.0
 30
0.0
 41
2.0
 42
2.0
 43
2.0
 50
270.0
  0
INSERT
  5
7B0D
330
7AE6
100
AcDbEntity
  8
30
  6
Continuous
 62
     0
370
    -2
100
AcDbBlockReference
  2
_OPEN
 10
400.0
 20
-62.0
 30
0.0
 41
2.0
 42
2.0
 43
2.0
 50
90.0
  0
MTEXT
  5
7B0E
330
7AE6
100
AcDbEntity
  8
30
  6
Continuous
 62
     0
100
AcDbMText
 10
397.0
 20
-71.99999999999993
 30
0.0
 40
4.0
 41
0.0
 71
     5
 72
     1
  1
\A1;20
 11
0.0000000000000001
 21
1.0
 31
0.0
 73
     1
 44
1.0
1001
ACAD
1000
MTEXTBEGIN
1070
    73
1070
     1
1070
    44
1040
1.0
1070
    74
1070
     0
1000
MTEXTEND
  0
POINT
  5
7B0F
330
7AE6
100
AcDbEntity
  8
DEFPOINTS
  6
Continuous
 62
     0
100
AcDbPoint
 10
369.2761005756893
 20
-82.0
 30
0.0
  0
POINT
  5
7B10
330
7AE6
100
AcDbEntity
  8
DEFPOINTS
  6
Continuous
 62
     0
100
AcDbPoint
 10
369.2761005756893
 20
-62.0
 30
0.0
  0
POINT
  5
7B11
330
7AE6
100
AcDbEntity
  8
DEFPOINTS
  6
Continuous
 62
     0
100
AcDbPoint
 10
400.0
 20
-62.0
 30
0.0
  0
ENDBLK
  5
7AE8
330
7AE6
100
AcDbEntity
  8
0
100
AcDbBlockEnd
  0
BLOCK
  5
7AF3
330
7AF2
100
AcDbEntity
  8
0
100
AcDbBlockBegin
  2
*D59
 70
     1
 10
0.0
 20
0.0
 30
0.0
  3
*D59
  1

  0
LINE
  5
7B12
330
7AF2
100
AcDbEntity
  8
30
  6
Continuous
 62
     0
370
    -2
100
AcDbLine
 10
401.0
 20
72.00000000000007
 30
0.0
 11
410.5
 21
72.00000000000007
 31
0.0
  0
LINE
  5
7B13
330
7AF2
100
AcDbEntity
  8
30
  6
Continuous
 62
     0
370
    -2
100
AcDbLine
 10
401.0
 20
-72.0
 30
0.0
 11
410.5
 21
-72.0
 31
0.0
  0
LINE
  5
7B14
330
7AF2
100
AcDbEntity
  8
30
  6
Continuous
 62
     0
370
    -2
100
AcDbLine
 10
410.0
 20
70.00000000000007
 30
0.0
 11
410.0
 21
-70.0
 31
0.0
  0
INSERT
  5
7B15
330
7AF2
100
AcDbEntity
  8
30
  6
Continuous
 62
     0
370
    -2
100
AcDbBlockReference
  2
_OPEN
 10
410.0
 20
72.00000000000007
 30
0.0
 41
2.0
 42
2.0
 43
2.0
 50
90.0
  0
INSERT
  5
7B16
330
7AF2
100
AcDbEntity
  8
30
  6
Continuous
 62
     0
370
    -2
100
AcDbBlockReference
  2
_OPEN
 10
410.0
 20
-72.0
 30
0.0
 41
2.0
 42
2.0
 43
2.0
 50
270.0
  0
MTEXT
  5
7B17
330
7AF2
100
AcDbEntity
  8
30
  6
Continuous
 62
     0
100
AcDbMText
 10
407.0
 20
0.0000000000000889
 30
0.0
 40
4.0
 41
0.0
 71
     5
 72
     1
  1
\A1;144
 11
0.0000000000000001
 21
1.0
 31
0.0
 73
     1
 44
1.0
1001
ACAD
1000
MTEXTBEGIN
1070
    73
1070
     1
1070
    44
1040
1.0
1070
    74
1070
     0
1000
MTEXTEND
  0
POINT
  5
7B18
330
7AF2
100
AcDbEntity
  8
DEFPOINTS
  6
Continuous
 62
     0
100
AcDbPoint
 10
400.0
 20
72.00000000000007
 30
0.0
  0
POINT
  5
7B19
330
7AF2
100
AcDbEntity
  8
DEFPOINTS
  6
Continuous
 62
     0
100
AcDbPoint
 10
400.0
 20
-72.0
 30
0.0
  0
POINT
  5
7B1A
330
7AF2
100
AcDbEntity
  8
DEFPOINTS
  6
Continuous
 62
     0
100
AcDbPoint
 10
410.0
 20
-72.0
 30
0.0
  0
ENDBLK
  5
7AF4
330
7AF2
100
AcDbEntity
  8
0
100
AcDbBlockEnd
  0
BLOCK
  5
7D14
330
7D13
100
AcDbEntity
  8
0
100
AcDbBlockBegin
  2
*D60
 70
     1
 10
0.0
 20
0.0
 30
0.0
  3
*D60
  1

  0
LINE
  5
7D15
330
7D13
100
AcDbEntity
  8
30
  6
Continuous
 62
     0
370
    -2
100
AcDbLine
 10
-4.999999999999776
 20
302.0000000000001
 30
0.0
 11
-4.999999999999773
 21
350.5
 31
0.0
  0
LINE
  5
7D16
330
7D13
100
AcDbEntity
  8
30
  6
Continuous
 62
     0
370
    -2
100
AcDbLine
 10
29.99999999999955
 20
337.0000000000001
 30
0.0
 11
29.99999999999955
 21
350.5
 31
0.0
  0
LINE
  5
7D17
330
7D13
100
AcDbEntity
  8
30
  6
Continuous
 62
     0
370
    -2
100
AcDbLine
 10
-2.999999999999773
 20
350.0
 30
0.0
 11
27.99999999999954
 21
350.0
 31
0.0
  0
INSERT
  5
7D18
330
7D13
100
AcDbEntity
  8
30
  6
Continuous
 62
     0
370
    -2
100
AcDbBlockReference
  2
_OPEN
 10
-4.999999999999773
 20
350.0
 30
0.0
 41
2.0
 42
2.0
 43
2.0
 50
180.0
  0
INSERT
  5
7D19
330
7D13
100
AcDbEntity
  8
30
  6
Continuous
 62
     0
370
    -2
100
AcDbBlockReference
  2
_OPEN
 10
29.99999999999955
 20
350.0
 30
0.0
 41
2.0
 42
2.0
 43
2.0
  0
MTEXT
  5
7D1A
330
7D13
100
AcDbEntity
  8
30
  6
Continuous
 62
     0
100
AcDbMText
 10
12.49999999999988
 20
353.0
 30
0.0
 40
4.0
 41
0.0
 71
     5
 72
     1
  1
\A1;35
 73
     1
 44
1.0
1001
ACAD
1000
MTEXTBEGIN
1070
    73
1070
     1
1070
    44
1040
1.0
1070
    74
1070
     0
1000
MTEXTEND
  0
POINT
  5
7D1B
330
7D13
100
AcDbEntity
  8
DEFPOINTS
  6
Continuous
 62
     0
100
AcDbPoint
 10
-4.999999999999776
 20
301.0000000000001
 30
0.0
  0
POINT
  5
7D1C
330
7D13
100
AcDbEntity
  8
DEFPOINTS
  6
Continuous
 62
     0
100
AcDbPoint
 10
29.99999999999955
 20
336.0000000000001
 30
0.0
  0
POINT
  5
7D1D
330
7D13
100
AcDbEntity
  8
DEFPOINTS
  6
Continuous
 62
     0
100
AcDbPoint
 10
29.99999999999955
 20
350.0
 30
0.0
  0
ENDBLK
  5
7D1E
330
7D13
100
AcDbEntity
  8
0
100
AcDbBlockEnd
  0
BLOCK
  5
7D20
330
7D1F
100
AcDbEntity
  8
0
100
AcDbBlockBegin
  2
*D61
 70
     1
 10
0.0
 20
0.0
 30
0.0
  3
*D61
  1

  0
LINE
  5
7D21
330
7D1F
100
AcDbEntity
  8
30
  6
Continuous
 62
     0
370
    -2
100
AcDbLine
 10
64.99999999999886
 20
302.0000000000001
 30
0.0
 11
64.99999999999886
 21
350.5
 31
0.0
  0
LINE
  5
7D22
330
7D1F
100
AcDbEntity
  8
30
  6
Continuous
 62
     0
370
    -2
100
AcDbLine
 10
29.99999999999955
 20
337.0000000000001
 30
0.0
 11
29.99999999999955
 21
350.5
 31
0.0
  0
LINE
  5
7D23
330
7D1F
100
AcDbEntity
  8
30
  6
Continuous
 62
     0
370
    -2
100
AcDbLine
 10
62.99999999999887
 20
350.0
 30
0.0
 11
31.99999999999955
 21
350.0
 31
0.0
  0
INSERT
  5
7D24
330
7D1F
100
AcDbEntity
  8
30
  6
Continuous
 62
     0
370
    -2
100
AcDbBlockReference
  2
_OPEN
 10
64.99999999999886
 20
350.0
 30
0.0
 41
2.0
 42
2.0
 43
2.0
  0
INSERT
  5
7D25
330
7D1F
100
AcDbEntity
  8
30
  6
Continuous
 62
     0
370
    -2
100
AcDbBlockReference
  2
_OPEN
 10
29.99999999999955
 20
350.0
 30
0.0
 41
2.0
 42
2.0
 43
2.0
 50
180.0
  0
MTEXT
  5
7D26
330
7D1F
100
AcDbEntity
  8
30
  6
Continuous
 62
     0
100
AcDbMText
 10
47.4999999999992
 20
353.0
 30
0.0
 40
4.0
 41
0.0
 71
     5
 72
     1
  1
\A1;35
 73
     1
 44
1.0
1001
ACAD
1000
MTEXTBEGIN
1070
    73
1070
     1
1070
    44
1040
1.0
1070
    74
1070
     0
1000
MTEXTEND
  0
POINT
  5
7D27
330
7D1F
100
AcDbEntity
  8
DEFPOINTS
  6
Continuous
 62
     0
100
AcDbPoint
 10
64.99999999999886
 20
301.0000000000001
 30
0.0
  0
POINT
  5
7D28
330
7D1F
100
AcDbEntity
  8
DEFPOINTS
  6
Continuous
 62
     0
100
AcDbPoint
 10
29.99999999999955
 20
336.0000000000001
 30
0.0
  0
POINT
  5
7D29
330
7D1F
100
AcDbEntity
  8
DEFPOINTS
  6
Continuous
 62
     0
100
AcDbPoint
 10
29.99999999999955
 20
350.0
 30
0.0
  0
ENDBLK
  5
7D2A
330
7D1F
100
AcDbEntity
  8
0
100
AcDbBlockEnd
  0
BLOCK
  5
7D3A
330
7D39
100
AcDbEntity
  8
0
100
AcDbBlockBegin
  2
*D63
 70
     1
 10
0.0
 20
0.0
 30
0.0
  3
*D63
  1

  0
LINE
  5
7D63
330
7D39
100
AcDbEntity
  8
30
  6
Continuous
 62
     0
370
    -2
100
AcDbLine
 10
-4.999999999999769
 20
292.0000000000001
 30
0.0
 11
-4.999999999999766
 21
340.5
 31
0.0
  0
LINE
  5
7D64
330
7D39
100
AcDbEntity
  8
30
  6
Continuous
 62
     0
370
    -2
100
AcDbLine
 10
29.99999999999955
 20
327.0000000000001
 30
0.0
 11
29.99999999999955
 21
340.5
 31
0.0
  0
LINE
  5
7D65
330
7D39
100
AcDbEntity
  8
30
  6
Continuous
 62
     0
370
    -2
100
AcDbLine
 10
-2.999999999999766
 20
340.0
 30
0.0
 11
27.99999999999955
 21
340.0
 31
0.0
  0
INSERT
  5
7D66
330
7D39
100
AcDbEntity
  8
30
  6
Continuous
 62
     0
370
    -2
100
AcDbBlockReference
  2
_OPEN
 10
-4.999999999999766
 20
340.0
 30
0.0
 41
2.0
 42
2.0
 43
2.0
 50
180.0
  0
INSERT
  5
7D67
330
7D39
100
AcDbEntity
  8
30
  6
Continuous
 62
     0
370
    -2
100
AcDbBlockReference
  2
_OPEN
 10
29.99999999999955
 20
340.0
 30
0.0
 41
2.0
 42
2.0
 43
2.0
  0
MTEXT
  5
7D68
330
7D39
100
AcDbEntity
  8
30
  6
Continuous
 62
     0
100
AcDbMText
 10
12.49999999999989
 20
343.0
 30
0.0
 40
4.0
 41
0.0
 71
     5
 72
     1
  1
\A1;35
 73
     1
 44
1.0
1001
ACAD
1000
MTEXTBEGIN
1070
    73
1070
     1
1070
    44
1040
1.0
1070
    74
1070
     0
1000
MTEXTEND
  0
POINT
  5
7D69
330
7D39
100
AcDbEntity
  8
DEFPOINTS
  6
Continuous
 62
     0
100
AcDbPoint
 10
-4.999999999999769
 20
291.0000000000001
 30
0.0
  0
POINT
  5
7D6A
330
7D39
100
AcDbEntity
  8
DEFPOINTS
  6
Continuous
 62
     0
100
AcDbPoint
 10
29.99999999999955
 20
326.0000000000001
 30
0.0
  0
POINT
  5
7D6B
330
7D39
100
AcDbEntity
  8
DEFPOINTS
  6
Continuous
 62
     0
100
AcDbPoint
 10
29.99999999999955
 20
340.0
 30
0.0
  0
ENDBLK
  5
7D3B
330
7D39
100
AcDbEntity
  8
0
100
AcDbBlockEnd
  0
BLOCK
  5
7D46
330
7D45
100
AcDbEntity
  8
0
100
AcDbBlockBegin
  2
*D64
 70
     1
 10
0.0
 20
0.0
 30
0.0
  3
*D64
  1

  0
LINE
  5
7D6C
330
7D45
100
AcDbEntity
  8
30
  6
Continuous
 62
     0
370
    -2
100
AcDbLine
 10
64.99999999999886
 20
292.0000000000001
 30
0.0
 11
64.99999999999886
 21
340.5
 31
0.0
  0
LINE
  5
7D6D
330
7D45
100
AcDbEntity
  8
30
  6
Continuous
 62
     0
370
    -2
100
AcDbLine
 10
29.99999999999955
 20
327.0000000000001
 30
0.0
 11
29.99999999999955
 21
340.5
 31
0.0
  0
LINE
  5
7D6E
330
7D45
100
AcDbEntity
  8
30
  6
Continuous
 62
     0
370
    -2
100
AcDbLine
 10
62.99999999999887
 20
340.0
 30
0.0
 11
31.99999999999955
 21
340.0
 31
0.0
  0
INSERT
  5
7D6F
330
7D45
100
AcDbEntity
  8
30
  6
Continuous
 62
     0
370
    -2
100
AcDbBlockReference
  2
_OPEN
 10
64.99999999999886
 20
340.0
 30
0.0
 41
2.0
 42
2.0
 43
2.0
  0
INSERT
  5
7D70
330
7D45
100
AcDbEntity
  8
30
  6
Continuous
 62
     0
370
    -2
100
AcDbBlockReference
  2
_OPEN
 10
29.99999999999955
 20
340.0
 30
0.0
 41
2.0
 42
2.0
 43
2.0
 50
180.0
  0
MTEXT
  5
7D71
330
7D45
100
AcDbEntity
  8
30
  6
Continuous
 62
     0
100
AcDbMText
 10
47.4999999999992
 20
343.0
 30
0.0
 40
4.0
 41
0.0
 71
     5
 72
     1
  1
\A1;35
 73
     1
 44
1.0
1001
ACAD
1000
MTEXTBEGIN
1070
    73
1070
     1
1070
    44
1040
1.0
1070
    74
1070
     0
1000
MTEXTEND
  0
POINT
  5
7D72
330
7D45
100
AcDbEntity
  8
DEFPOINTS
  6
Continuous
 62
     0
100
AcDbPoint
 10
64.99999999999886
 20
291.0000000000001
 30
0.0
  0
POINT
  5
7D73
330
7D45
100
AcDbEntity
  8
DEFPOINTS
  6
Continuous
 62
     0
100
AcDbPoint
 10
29.99999999999955
 20
326.0000000000001
 30
0.0
  0
POINT
  5
7D74
330
7D45
100
AcDbEntity
  8
DEFPOINTS
  6
Continuous
 62
     0
100
AcDbPoint
 10
29.99999999999955
 20
340.0
 30
0.0
  0
ENDBLK
  5
7D47
330
7D45
100
AcDbEntity
  8
0
100
AcDbBlockEnd
  0
ENDSEC
  0
SECTION
  2
ENTITIES
  0
LINE
  5
B4
330
1E
100
AcDbEntity
  8
16
100
AcDbLine
 10
30.0
 20
-101.8246001220916
 30
0.0
 11
30.0
 21
105.6073578546832
 31
0.0
  0
LINE
  5
B5
330
1E
100
AcDbEntity
  8
16
100
AcDbLine
 10
101.774655642063
 20
0.0
 30
0.0
 11
-53.90588178115756
 21
0.0
 31
0.0
  0
MTEXT
  5
BF3
330
1E
100
AcDbEntity
  8
24
  6
Continuous
100
AcDbMText
 10
142.118191
 20
177.5
 30
0.0
 40
3.0
 41
0.0
 71
     1
 72
     1
  1
\A1;
 73
     1
 44
1.0
1001
ACAD
1000
MTEXTBEGIN
1070
    73
1070
     1
1070
    44
1040
1.0
1070
    74
1070
     0
1000
MTEXTEND
  0
LINE
  5
1C9A
330
1E
100
AcDbEntity
  8
16
100
AcDbLine
 10
29.99999999999949
 20
120.3032458915811
 30
0.0
 11
29.99999999999949
 21
252.8032458915809
 31
0.0
  0
LINE
  5
1C9B
330
1E
100
AcDbEntity
  8
16
100
AcDbLine
 10
284.2324905021559
 20
0.0000000000000568
 30
0.0
 11
152.067242889986
 21
0.0000000000000568
 31
0.0
  0
LINE
  5
2260
330
1E
100
AcDbEntity
  8
16
100
AcDbLine
 10
104.7269053754939
 20
-240.0
 30
0.0
 11
-44.72690537549396
 21
-240.0
 31
0.0
  0
LINE
  5
2261
330
1E
100
AcDbEntity
  8
16
100
AcDbLine
 10
30.0
 20
-339.5676694861659
 30
0.0
 11
30.0
 21
-140.4323305138341
 31
0.0
  0
LINE
  5
4C5A
330
1E
100
AcDbEntity
  8
16
100
AcDbLine
 10
118.4944180847418
 20
0.0
 30
0.0
 11
-53.90588178115756
 21
0.0
 31
0.0
  0
DIMENSION
  5
57FE
330
1E
100
AcDbEntity
  8
30
  6
Continuous
100
AcDbDimension
  2
*D1
 10
108.4999999999999
 20
-110.0
 30
0.0
 11
29.99999999999997
 21
-107.0
 31
0.0
 70
    32
 71
     5
 42
157.0
  3
STANDARD
100
AcDbAlignedDimension
 13
-48.50000000000003
 23
-93.15390871043891
 33
0.0
 14
108.4999999999999
 24
-93.15390871043891
 34
0.0
 50
180.0
100
AcDbRotatedDimension
1001
ACAD
1000
DSTYLE
1002
{
1070
    79
1070
     3
1002
}
  0
DIMENSION
  5
5E39
330
1E
100
AcDbEntity
  8
30
  6
Continuous
100
AcDbDimension
  2
*D2
 10
40.99999999999996
 20
-40.0
 30
0.0
 11
29.99999999999997
 21
-37.0
 31
0.0
 70
    32
 71
     5
 42
22.0
  3
STANDARD
100
AcDbAlignedDimension
 13
18.99999999999996
 23
-23.10862113370407
 33
0.0
 14
40.99999999999996
 24
-23.10862113370407
 34
0.0
 50
180.0
100
AcDbRotatedDimension
1001
ACAD
1000
DSTYLE
1002
{
1070
    79
1070
     3
1002
}
  0
DIMENSION
  5
5E3A
330
1E
100
AcDbEntity
  8
30
  6
Continuous
100
AcDbDimension
  2
*D3
 10
78.99999999999997
 20
40.0
 30
0.0
 11
29.99999999999997
 21
43.0
 31
0.0
 70
    32
 71
     5
 42
98.0
  3
STANDARD
100
AcDbAlignedDimension
 13
-19.00000000000003
 23
26.89137886629593
 33
0.0
 14
78.99999999999997
 24
26.89137886629593
 34
0.0
100
AcDbRotatedDimension
1001
ACAD
1000
DSTYLE
1002
{
1070
    79
1070
     3
1002
}
  0
MTEXT
  5
5E98
330
1E
100
AcDbEntity
  8
0
  6
Continuous
100
AcDbMText
 10
238.9791852932729
 20
260.0254198488031
 30
0.0
 40
5.0
 41
186.9545999999999
 71
     1
 72
     5
  1
{\C9;E250-SF 3P FP\PS250-SF 3P FP\PS250-SM 3P FP\PS250-SN 3P FP}
  7
STANDARD1
 73
     1
 44
1.0
1001
ACAD
1000
MTEXTBEGIN
1070
    73
1070
     1
1070
    44
1040
1.0
1070
    74
1070
     0
1000
MTEXTEND
  0
LINE
  5
6BA8
330
1E
100
AcDbEntity
  8
12
  6
DASHED
100
AcDbLine
 10
-38.00000000000004
 20
31.39137886629593
 30
0.0
 11
-38.00000000000004
 21
38.39137886629592
 31
0.0
  0
LINE
  5
6BAD
330
1E
100
AcDbEntity
  8
12
  6
DASHED
100
AcDbLine
 10
98.00000000000045
 20
-34.60862113370408
 30
0.0
 11
98.00000000000045
 21
-27.60862113370419
 31
0.0
  0
LINE
  5
6BB0
330
1E
100
AcDbEntity
  8
12
  6
DASHED
100
AcDbLine
 10
-38.00000000000004
 20
-34.60862113370408
 30
0.0
 11
-38.00000000000004
 21
-27.60862113370419
 31
0.0
  0
LINE
  5
6BB3
330
1E
100
AcDbEntity
  8
12
  6
DASHED
100
AcDbLine
 10
-41.50000000000003
 20
34.89137886629592
 30
0.0
 11
-34.50000000000001
 21
34.89137886629592
 31
0.0
  0
LINE
  5
6BB6
330
1E
100
AcDbEntity
  8
12
  6
DASHED
100
AcDbLine
 10
94.50000000000043
 20
34.89137886629592
 30
0.0
 11
101.4999999999999
 21
34.89137886629592
 31
0.0
  0
LINE
  5
6BBC
330
1E
100
AcDbEntity
  8
12
  6
DASHED
100
AcDbLine
 10
94.50000000000043
 20
-31.10862113370419
 30
0.0
 11
101.4999999999999
 21
-31.10862113370419
 31
0.0
  0
LINE
  5
6BBF
330
1E
100
AcDbEntity
  8
12
  6
DASHED
100
AcDbLine
 10
-41.50000000000003
 20
-31.10862113370419
 30
0.0
 11
-34.50000000000001
 21
-31.10862113370419
 31
0.0
  0
LINE
  5
6BC6
330
1E
100
AcDbEntity
  8
12
  6
DASHED
100
AcDbLine
 10
98.00000000000045
 20
31.39137886629593
 30
0.0
 11
98.00000000000045
 21
38.39137886629592
 31
0.0
  0
CIRCLE
  5
6BC8
330
1E
100
AcDbEntity
  8
12
  6
DASHED
100
AcDbCircle
 10
-38.00000000000004
 20
-31.10862113370419
 30
0.0
 40
2.5
  0
CIRCLE
  5
6BC9
330
1E
100
AcDbEntity
  8
12
  6
DASHED
100
AcDbCircle
 10
98.00000000000045
 20
34.89137886629592
 30
0.0
 40
2.5
  0
CIRCLE
  5
6BCB
330
1E
100
AcDbEntity
  8
12
  6
DASHED
100
AcDbCircle
 10
98.00000000000045
 20
-31.10862113370419
 30
0.0
 40
2.5
  0
ARC
  5
6BCD
330
1E
100
AcDbEntity
  8
7
  6
Continuous
 62
    95
100
AcDbCircle
 10
-43.50000000000003
 20
92.89137886629593
 30
0.0
 40
5.0
100
AcDbArc
 50
90.0
 51
180.0
  0
CIRCLE
  5
6BCE
330
1E
100
AcDbEntity
  8
12
  6
DASHED
100
AcDbCircle
 10
-38.00000000000004
 20
34.89137886629592
 30
0.0
 40
2.5
  0
LWPOLYLINE
  5
6C06
330
1E
100
AcDbEntity
  8
10
  6
CONTINOUS
100
AcDbPolyline
 90
        8
 70
     1
 43
0.0
 10
-43.50000000000003
 20
97.89137886629593
 10
103.4999999999999
 20
97.89137886629593
 42
-0.4142135623730951
 10
108.4999999999999
 20
92.89137886629593
 10
108.4999999999999
 20
-89.10862113370408
 42
-0.4142135623730951
 10
103.4999999999999
 20
-94.10862113370408
 10
-43.50000000000003
 20
-94.10862113370408
 42
-0.4142135623730951
 10
-48.50000000000003
 20
-89.10862113370408
 10
-48.50000000000003
 20
92.89137886629593
 42
-0.4142135623730951
  0
LWPOLYLINE
  5
6C08
330
1E
100
AcDbEntity
  8
10
  6
CONTINOUS
100
AcDbPolyline
 90
        4
 70
     1
 43
0.0
 10
-19.00000000000003
 20
-23.10862113370419
 10
78.99999999999997
 20
-23.10862113370419
 10
78.99999999999997
 20
26.89137886629593
 10
-19.00000000000003
 20
26.89137886629593
  0
LWPOLYLINE
  5
6C09
330
1E
100
AcDbEntity
  8
10
  6
CONTINOUS
100
AcDbPolyline
 90
        4
 70
     1
 43
0.0
 10
18.99999999999996
 20
26.89137886629593
 10
40.99999999999996
 20
26.89137886629593
 10
40.99999999999996
 20
-23.10862113370419
 10
18.99999999999996
 20
-23.10862113370419
  0
LWPOLYLINE
  5
6C0A
330
1E
100
AcDbEntity
  8
10
  6
CONTINOUS
100
AcDbPolyline
 90
        4
 70
     1
 43
0.0
 10
22.99999999999997
 20
22.04624886629589
 10
37.00000000000043
 20
22.04624886629589
 10
37.00000000000043
 20
-16.60862113370418
 10
22.99999999999997
 20
-16.60862113370418
  0
LWPOLYLINE
  5
6C0B
330
1E
100
AcDbEntity
  8
10
  6
CONTINOUS
100
AcDbPolyline
 90
        4
 70
     1
 43
0.0
 10
22.99999999999997
 20
17.13133636629587
 10
37.00000000000043
 20
17.13133636629587
 10
37.00000000000043
 20
8.732168866295781
 10
22.99999999999997
 20
8.732168866295781
  0
LWPOLYLINE
  5
6C14
330
1E
100
AcDbEntity
  8
10
  6
DASHED
100
AcDbPolyline
 90
        4
 70
     1
 43
0.0
 10
-22.50000000000003
 20
84.39137886629593
 10
82.49999999999998
 20
84.39137886629593
 10
82.49999999999998
 20
-80.60862113370431
 10
-22.50000000000003
 20
-80.60862113370431
  0
DIMENSION
  5
6C6F
330
1E
100
AcDbEntity
  8
30
  6
Continuous
100
AcDbDimension
  2
*D43
 10
130.0
 20
-94.10862113370408
 30
0.0
 11
127.0
 21
1.891378866295944
 31
0.0
 70
    32
 71
     5
 42
192.0
  3
STANDARD
100
AcDbAlignedDimension
 13
103.4999999999999
 23
97.89137886629593
 33
0.0
 14
103.4999999999999
 24
-94.10862113370408
 34
0.0
 50
90.0
100
AcDbRotatedDimension
1001
ACAD
1000
DSTYLE
1002
{
1070
    79
1070
     3
1002
}
  0
LINE
  5
6D31
330
1E
100
AcDbEntity
  8
1
  6
Continuous
 62
     4
100
AcDbLine
 10
4.999999999999538
 20
225.2
 30
0.0
 11
19.99999999999955
 21
225.2
 31
0.0
  0
LINE
  5
6D37
330
1E
100
AcDbEntity
  8
1
  6
Continuous
 62
     4
100
AcDbLine
 10
90.25
 20
224.9
 30
0.0
 11
90.25
 21
224.2
 31
0.0
  0
LINE
  5
6D39
330
1E
100
AcDbEntity
  8
18
100
AcDbLine
 10
108.5
 20
169.0
 30
0.0
 11
-58.49999999999997
 21
169.0
 31
0.0
  0
LINE
  5
6D3A
330
1E
100
AcDbEntity
  8
1
  6
Continuous
 62
     4
100
AcDbLine
 10
-30.10000000000037
 20
165.0
 30
0.0
 11
-30.10000000000037
 21
220.0000000000001
 31
0.0
  0
LINE
  5
6D3B
330
1E
100
AcDbEntity
  8
1
  6
Continuous
 62
     4
100
AcDbLine
 10
85.24443999999993
 20
226.4000000000001
 30
0.0
 11
85.34067749999984
 21
225.3000000000001
 31
0.0
  0
LINE
  5
6D3C
330
1E
100
AcDbEntity
  8
1
  6
Continuous
 62
     4
100
AcDbLine
 10
-22.0999999999999
 20
229.65
 30
0.0
 11
-28.9000000000001
 21
229.65
 31
0.0
  0
LINE
  5
6D3F
330
1E
100
AcDbEntity
  8
1
  6
Continuous
 62
     4
100
AcDbLine
 10
39.99999999999955
 20
225.2
 30
0.0
 11
54.99999999999954
 21
225.2
 31
0.0
  0
LINE
  5
6D41
330
1E
100
AcDbEntity
  8
1
  6
Continuous
 62
     4
100
AcDbLine
 10
89.69999999999981
 20
226.4000000000001
 30
0.0
 11
81.29999999999972
 21
226.4000000000001
 31
0.0
  0
LINE
  5
6D42
330
1E
100
AcDbEntity
  8
1
  6
Continuous
 62
     4
100
AcDbLine
 10
88.90000000000009
 20
229.65
 30
0.0
 11
82.09999999999945
 21
229.65
 31
0.0
  0
LINE
  5
6D48
330
1E
100
AcDbEntity
  8
12
  6
DASHDOT
 62
     3
100
AcDbLine
 10
43.0
 20
311.0000000000001
 30
0.0
 11
16.99999999999955
 21
311.0000000000001
 31
0.0
  0
LINE
  5
6D49
330
1E
100
AcDbEntity
  8
1
  6
Continuous
 62
     4
100
AcDbLine
 10
-15.00000000000045
 20
224.2
 30
0.0
 11
-31.0
 21
224.2
 31
0.0
  0
LINE
  5
6D4A
330
1E
100
AcDbEntity
  8
1
  6
Continuous
 62
     4
100
AcDbLine
 10
-21.0999999999999
 20
228.6500000000001
 30
0.0
 11
-21.0999999999999
 21
226.4000000000001
 31
0.0
  0
LINE
  5
6D4C
330
1E
100
AcDbEntity
  8
10
  6
CONTINOUS
100
AcDbLine
 10
88.49999999999999
 20
165.0
 30
0.0
 11
88.49999999999999
 21
220.0000000000001
 31
0.0
  0
LINE
  5
6D4D
330
1E
100
AcDbEntity
  8
1
  6
Continuous
 62
     4
100
AcDbLine
 10
91.0
 20
220.0000000000001
 30
0.0
 11
91.0
 21
222.6
 31
0.0
  0
LINE
  5
6D4E
330
1E
100
AcDbEntity
  8
1
  6
Continuous
 62
     4
100
AcDbLine
 10
-29.8499999999999
 20
225.3000000000001
 30
0.0
 11
-21.14999999999963
 21
225.3000000000001
 31
0.0
  0
LINE
  5
6D4F
330
1E
100
AcDbEntity
  8
1
  6
Continuous
 62
     4
100
AcDbLine
 10
91.0
 20
222.6
 30
0.0
 11
74.99999999999954
 21
222.6
 31
0.0
  0
LINE
  5
6D50
330
1E
100
AcDbEntity
  8
1
  6
Continuous
 62
     4
100
AcDbLine
 10
87.91300000000004
 20
218.9
 30
0.0
 11
87.62432499999977
 21
218.4000000000001
 31
0.0
  0
LINE
  5
6D51
330
1E
100
AcDbEntity
  8
1
  6
Continuous
 62
     4
100
AcDbLine
 10
91.0
 20
224.2
 30
0.0
 11
74.99999999999954
 21
224.2
 31
0.0
  0
LINE
  5
6D52
330
1E
100
AcDbEntity
  8
1
  6
Continuous
 62
     4
100
AcDbLine
 10
80.74999999999954
 20
224.9
 30
0.0
 11
80.74999999999954
 21
224.2
 31
0.0
  0
LINE
  5
6D53
330
1E
100
AcDbEntity
  8
1
  6
Continuous
 62
     4
100
AcDbLine
 10
-31.0
 20
222.6
 30
0.0
 11
-31.0
 21
224.2
 31
0.0
  0
LINE
  5
6D54
330
1E
100
AcDbEntity
  8
1
  6
Continuous
 62
     4
100
AcDbLine
 10
19.99999999999955
 20
222.6
 30
0.0
 11
4.999999999999538
 21
222.6
 31
0.0
  0
LINE
  5
6D58
330
1E
100
AcDbEntity
  8
18
100
AcDbLine
 10
-53.49999999999997
 20
165.0
 30
0.0
 11
-58.49999999999997
 21
169.0
 31
0.0
  0
LINE
  5
6D5C
330
1E
100
AcDbEntity
  8
1
  6
Continuous
 62
     4
100
AcDbLine
 10
83.08699999999953
 20
218.9
 30
0.0
 11
83.08699999999953
 21
220.0000000000001
 31
0.0
  0
LINE
  5
6D5D
330
1E
100
AcDbEntity
  8
1
  6
Continuous
 62
     4
100
AcDbLine
 10
-27.91300000000001
 20
218.9
 30
0.0
 11
-27.91300000000001
 21
220.0000000000001
 31
0.0
  0
LINE
  5
6D5E
330
1E
100
AcDbEntity
  8
1
  6
Continuous
 62
     4
100
AcDbLine
 10
86.14182500000016
 20
225.3000000000001
 30
0.0
 11
86.04558749999979
 21
226.4000000000001
 31
0.0
  0
LINE
  5
6D5F
330
1E
100
AcDbEntity
  8
1
  6
Continuous
 62
     4
100
AcDbLine
 10
91.0
 20
224.2
 30
0.0
 11
91.0
 21
222.6
 31
0.0
  0
LINE
  5
6D60
330
1E
100
AcDbEntity
  8
1
  6
Continuous
 62
     4
100
AcDbLine
 10
-21.30000000000018
 20
226.4000000000001
 30
0.0
 11
-29.69999999999981
 21
226.4000000000001
 31
0.0
  0
LINE
  5
6D61
330
1E
100
AcDbEntity
  8
1
  6
Continuous
 62
     4
100
AcDbLine
 10
89.89999999999964
 20
226.2
 30
0.0
 11
89.89999999999964
 21
225.3000000000001
 31
0.0
  0
LINE
  5
6D62
330
1E
100
AcDbEntity
  8
1
  6
Continuous
 62
     4
100
AcDbLine
 10
-28.5
 20
220.0000000000001
 30
0.0
 11
-28.5
 21
165.0
 31
0.0
  0
LINE
  5
6D63
330
1E
100
AcDbEntity
  8
1
  6
Continuous
 62
     4
100
AcDbLine
 10
-21.0999999999999
 20
226.2
 30
0.0
 11
-21.0999999999999
 21
225.3000000000001
 31
0.0
  0
LINE
  5
6D64
330
1E
100
AcDbEntity
  8
1
  6
Continuous
 62
     4
100
AcDbLine
 10
87.62432499999977
 20
218.4000000000001
 30
0.0
 11
83.37567500000025
 21
218.4000000000001
 31
0.0
  0
LINE
  5
6D65
330
1E
100
AcDbEntity
  8
1
  6
Continuous
 62
     4
100
AcDbLine
 10
83.37567500000025
 20
218.4000000000001
 30
0.0
 11
83.08699999999953
 21
218.9
 31
0.0
  0
LINE
  5
6D69
330
1E
100
AcDbEntity
  8
12
  6
DASHDOT
 62
     3
100
AcDbLine
 10
8.0
 20
276.0000000000001
 30
0.0
 11
-18.00000000000045
 21
276.0000000000001
 31
0.0
  0
LINE
  5
6D6E
330
1E
100
AcDbEntity
  8
1
  6
Continuous
 62
     4
100
AcDbLine
 10
-23.08699999999999
 20
218.9
 30
0.0
 11
-23.08699999999999
 21
220.0000000000001
 31
0.0
  0
LINE
  5
6D6F
330
1E
100
AcDbEntity
  8
10
  6
CONTINOUS
100
AcDbLine
 10
90.10000000000037
 20
165.0
 30
0.0
 11
90.10000000000037
 21
220.0000000000001
 31
0.0
  0
LINE
  5
6D70
330
1E
100
AcDbEntity
  8
1
  6
Continuous
 62
     4
100
AcDbLine
 10
89.89999999999964
 20
228.6500000000001
 30
0.0
 11
89.89999999999964
 21
226.4000000000001
 31
0.0
  0
LINE
  5
6D71
330
1E
100
AcDbEntity
  8
1
  6
Continuous
 62
     4
100
AcDbLine
 10
-29.89999999999963
 20
226.2
 30
0.0
 11
-29.89999999999963
 21
225.3000000000001
 31
0.0
  0
LINE
  5
6D72
330
1E
100
AcDbEntity
  8
1
  6
Continuous
 62
     4
100
AcDbLine
 10
-25.7555599999996
 20
226.4000000000001
 30
0.0
 11
-25.65932250000015
 21
225.3000000000001
 31
0.0
  0
LINE
  5
6D73
330
1E
100
AcDbEntity
  8
1
  6
Continuous
 62
     4
100
AcDbLine
 10
-23.08699999999999
 20
218.9
 30
0.0
 11
-23.37567500000023
 21
218.4000000000001
 31
0.0
  0
LINE
  5
6D74
330
1E
100
AcDbEntity
  8
1
  6
Continuous
 62
     4
100
AcDbLine
 10
-31.0
 20
220.0000000000001
 30
0.0
 11
-31.0
 21
222.6
 31
0.0
  0
LINE
  5
6D79
330
1E
100
AcDbEntity
  8
18
100
AcDbLine
 10
113.5
 20
165.0
 30
0.0
 11
108.5
 21
169.0
 31
0.0
  0
LINE
  5
6D7E
330
1E
100
AcDbEntity
  8
1
  6
Continuous
 62
     4
100
AcDbLine
 10
91.0
 20
220.0000000000001
 30
0.0
 11
-31.0
 21
220.0000000000001
 31
0.0
  0
LINE
  5
6D7F
330
1E
100
AcDbEntity
  8
1
  6
Continuous
 62
     4
100
AcDbLine
 10
81.0999999999999
 20
228.6500000000001
 30
0.0
 11
81.0999999999999
 21
226.4000000000001
 31
0.0
  0
LINE
  5
6D80
330
1E
100
AcDbEntity
  8
1
  6
Continuous
 62
     4
100
AcDbLine
 10
-24.8581750000003
 20
225.3000000000001
 30
0.0
 11
-24.95441250000022
 21
226.4000000000001
 31
0.0
  0
LINE
  5
6D81
330
1E
100
AcDbEntity
  8
1
  6
Continuous
 62
     4
100
AcDbLine
 10
-20.75
 20
224.9
 30
0.0
 11
-20.75
 21
224.2
 31
0.0
  0
LINE
  5
6D82
330
1E
100
AcDbEntity
  8
1
  6
Continuous
 62
     4
100
AcDbLine
 10
-29.89999999999963
 20
228.6500000000001
 30
0.0
 11
-29.89999999999963
 21
226.4000000000001
 31
0.0
  0
LINE
  5
6D83
330
1E
100
AcDbEntity
  8
1
  6
Continuous
 62
     4
100
AcDbLine
 10
54.99999999999954
 20
222.6
 30
0.0
 11
39.99999999999955
 21
222.6
 31
0.0
  0
LINE
  5
6D84
330
1E
100
AcDbEntity
  8
1
  6
Continuous
 62
     4
100
AcDbLine
 10
-23.37567500000023
 20
218.4000000000001
 30
0.0
 11
-27.62432500000023
 21
218.4000000000001
 31
0.0
  0
LINE
  5
6D85
330
1E
100
AcDbEntity
  8
1
  6
Continuous
 62
     4
100
AcDbLine
 10
-30.25
 20
224.9
 30
0.0
 11
-30.25
 21
224.2
 31
0.0
  0
LINE
  5
6D89
330
1E
100
AcDbEntity
  8
18
100
AcDbLine
 10
113.5
 20
165.0
 30
0.0
 11
108.5
 21
165.0
 31
0.0
  0
LINE
  5
6D8E
330
1E
100
AcDbEntity
  8
1
  6
Continuous
 62
     4
100
AcDbLine
 10
81.14999999999964
 20
225.3000000000001
 30
0.0
 11
89.8499999999999
 21
225.3000000000001
 31
0.0
  0
LINE
  5
6D8F
330
1E
100
AcDbEntity
  8
1
  6
Continuous
 62
     4
100
AcDbLine
 10
81.0999999999999
 20
226.2
 30
0.0
 11
81.0999999999999
 21
225.3000000000001
 31
0.0
  0
LINE
  5
6D90
330
1E
100
AcDbEntity
  8
1
  6
Continuous
 62
     4
100
AcDbLine
 10
-21.0999999999999
 20
226.4000000000001
 30
0.0
 11
-29.89999999999963
 21
226.4000000000001
 31
0.0
  0
LINE
  5
6D91
330
1E
100
AcDbEntity
  8
1
  6
Continuous
 62
     4
100
AcDbLine
 10
89.89999999999964
 20
226.4000000000001
 30
0.0
 11
81.0999999999999
 21
226.4000000000001
 31
0.0
  0
LINE
  5
6D92
330
1E
100
AcDbEntity
  8
1
  6
Continuous
 62
     4
100
AcDbLine
 10
-15.00000000000045
 20
222.6
 30
0.0
 11
-31.0
 21
222.6
 31
0.0
  0
LINE
  5
6D93
330
1E
100
AcDbEntity
  8
1
  6
Continuous
 62
     4
100
AcDbLine
 10
-27.62432500000023
 20
218.4000000000001
 30
0.0
 11
-27.91300000000001
 21
218.9
 31
0.0
  0
LINE
  5
6D94
330
1E
100
AcDbEntity
  8
1
  6
Continuous
 62
     4
100
AcDbLine
 10
87.91300000000004
 20
218.9
 30
0.0
 11
87.91300000000004
 21
220.0000000000001
 31
0.0
  0
LINE
  5
6D98
330
1E
100
AcDbEntity
  8
12
  6
DASHDOT
 62
     3
100
AcDbLine
 10
78.0
 20
276.0000000000001
 30
0.0
 11
51.99999999999953
 21
276.0000000000001
 31
0.0
  0
LINE
  5
6D99
330
1E
100
AcDbEntity
  8
18
100
AcDbLine
 10
-48.5
 20
165.0
 30
0.0
 11
-53.49999999999997
 21
165.0
 31
0.0
  0
ARC
  5
6D9D
330
1E
100
AcDbEntity
  8
1
  6
Continuous
 62
     4
100
AcDbCircle
 10
-21.30000000000018
 20
226.2
 30
0.0
 40
0.2000000000000001
100
AcDbArc
 50
0.0
 51
90.0
  0
ARC
  5
6D9E
330
1E
100
AcDbEntity
  8
1
  6
Continuous
 62
     4
100
AcDbCircle
 10
81.29999999999972
 20
226.2
 30
0.0
 40
0.2000000000000001
100
AcDbArc
 50
90.0
 51
180.0
  0
ARC
  5
6D9F
330
1E
100
AcDbEntity
  8
1
  6
Continuous
 62
     4
100
AcDbCircle
 10
82.09999999999945
 20
228.6500000000001
 30
0.0
 40
1.0
100
AcDbArc
 50
90.0
 51
180.0
  0
ARC
  5
6DA0
330
1E
100
AcDbEntity
  8
1
  6
Continuous
 62
     4
100
AcDbCircle
 10
-29.69999999999981
 20
226.2
 30
0.0
 40
0.2000000000000001
100
AcDbArc
 50
90.0
 51
180.0
  0
ARC
  5
6DA1
330
1E
100
AcDbEntity
  8
1
  6
Continuous
 62
     4
100
AcDbCircle
 10
89.69999999999981
 20
226.2
 30
0.0
 40
0.2000000000000001
100
AcDbArc
 50
0.0
 51
90.0
  0
ARC
  5
6DA2
330
1E
100
AcDbEntity
  8
1
  6
Continuous
 62
     4
100
AcDbCircle
 10
89.8499999999999
 20
224.9
 30
0.0
 40
0.4000000000000003
100
AcDbArc
 50
0.0
 51
90.0
  0
ARC
  5
6DA3
330
1E
100
AcDbEntity
  8
1
  6
Continuous
 62
     4
100
AcDbCircle
 10
-22.0999999999999
 20
228.6500000000001
 30
0.0
 40
1.0
100
AcDbArc
 50
0.0
 51
90.0
  0
ARC
  5
6DA4
330
1E
100
AcDbEntity
  8
1
  6
Continuous
 62
     4
100
AcDbCircle
 10
-21.14999999999963
 20
224.9
 30
0.0
 40
0.4000000000000003
100
AcDbArc
 50
0.0
 51
90.0
  0
ARC
  5
6DA5
330
1E
100
AcDbEntity
  8
1
  6
Continuous
 62
     4
100
AcDbCircle
 10
-29.8499999999999
 20
224.9
 30
0.0
 40
0.4000000000000003
100
AcDbArc
 50
90.0
 51
180.0
  0
ARC
  5
6DA6
330
1E
100
AcDbEntity
  8
1
  6
Continuous
 62
     4
100
AcDbCircle
 10
88.90000000000009
 20
228.6500000000001
 30
0.0
 40
1.0
100
AcDbArc
 50
0.0
 51
90.0
  0
ARC
  5
6DA7
330
1E
100
AcDbEntity
  8
1
  6
Continuous
 62
     4
100
AcDbCircle
 10
81.14999999999964
 20
224.9
 30
0.0
 40
0.4000000000000003
100
AcDbArc
 50
90.0
 51
180.0
  0
ARC
  5
6DA8
330
1E
100
AcDbEntity
  8
1
  6
Continuous
 62
     4
100
AcDbCircle
 10
-28.9000000000001
 20
228.6500000000001
 30
0.0
 40
1.0
100
AcDbArc
 50
90.0
 51
180.0
  0
LWPOLYLINE
  5
6E8F
330
1E
100
AcDbEntity
  8
10
  6
CONTINOUS
100
AcDbPolyline
 90
        4
 70
     1
 43
0.0
 10
-48.5
 20
150.0
 10
108.5
 20
150.0
 10
108.5
 20
165.0
 10
-48.5
 20
165.0
  0
LWPOLYLINE
  5
6E90
330
1E
100
AcDbEntity
  8
10
  6
CONTINOUS
100
AcDbPolyline
 90
        4
 70
     1
 43
0.0
 10
-19.0
 20
150.0
 10
79.0
 20
150.0
 10
79.0
 20
148.0
 10
-19.0
 20
148.0
  0
LWPOLYLINE
  5
6E91
330
1E
100
AcDbEntity
  8
10
  6
CONTINOUS
100
AcDbPolyline
 90
        4
 70
     1
 43
0.0
 10
19.0
 20
148.0
 10
41.0
 20
148.0
 10
41.0
 20
144.0
 10
19.0
 20
144.0
  0
LWPOLYLINE
  5
6E92
330
1E
100
AcDbEntity
  8
10
  6
CONTINOUS
100
AcDbPolyline
 90
        4
 70
     1
 43
0.0
 10
23.0
 20
144.0
 10
36.99999999999955
 20
144.0
 10
36.99999999999955
 20
132.0047449999999
 10
23.0
 20
132.0047449999999
  0
LWPOLYLINE
  5
6E93
330
1E
100
AcDbEntity
  8
10
  6
CONTINOUS
100
AcDbPolyline
 90
        4
 70
     1
 43
0.0
 10
-22.50000000000046
 20
165.0
 10
82.49999999999955
 20
165.0
 10
82.49999999999955
 20
220.0000000000001
 10
-22.50000000000046
 20
220.0000000000001
  0
LWPOLYLINE
  5
6E94
330
1E
100
AcDbEntity
  8
0
  6
Continuous
100
AcDbPolyline
 90
        4
 70
     1
 43
0.0
 10
54.99999999999954
 20
220.0000000000001
 10
74.99999999999954
 20
220.0000000000001
 10
74.99999999999954
 20
247.5
 10
54.99999999999954
 20
247.5
  0
LWPOLYLINE
  5
6E95
330
1E
100
AcDbEntity
  8
0
  6
Continuous
100
AcDbPolyline
 90
        8
 70
     0
 43
0.0
 10
69.99999999999954
 20
247.5
 10
69.99999999999954
 20
254.0
 10
68.0
 20
254.0
 10
68.0
 20
291.0000000000001
 10
61.99999999999954
 20
291.0000000000001
 10
61.99999999999954
 20
254.0
 10
59.99999999999954
 20
254.0
 10
59.99999999999954
 20
247.5
  0
LWPOLYLINE
  5
6E96
330
1E
100
AcDbEntity
  8
0
  6
Continuous
100
AcDbPolyline
 90
        4
 70
     1
 43
0.0
 10
19.99999999999943
 20
220.0000000000001
 10
39.99999999999943
 20
220.0000000000001
 10
39.99999999999955
 20
288.0000000000001
 10
19.99999999999955
 20
288.0000000000001
  0
LWPOLYLINE
  5
6E97
330
1E
100
AcDbEntity
  8
0
  6
Continuous
100
AcDbPolyline
 90
        8
 70
     0
 43
0.0
 10
34.99999999999956
 20
288.0000000000001
 10
34.99999999999956
 20
294.5
 10
33.0
 20
294.5
 10
32.99999999999978
 20
326.0000000000001
 10
26.99999999999932
 20
326.0000000000001
 10
26.99999999999955
 20
294.5
 10
24.99999999999956
 20
294.5
 10
24.99999999999956
 20
288.0000000000001
  0
LWPOLYLINE
  5
6E98
330
1E
100
AcDbEntity
  8
0
  6
Continuous
100
AcDbPolyline
 90
        4
 70
     1
 43
0.0
 10
5.000000000000446
 20
220.0000000000001
 10
-14.99999999999954
 20
220.0000000000001
 10
-14.99999999999954
 20
247.5
 10
5.000000000000446
 20
247.5
  0
LWPOLYLINE
  5
6E99
330
1E
100
AcDbEntity
  8
0
  6
Continuous
100
AcDbPolyline
 90
        8
 70
     0
 43
0.0
 10
-9.999999999999543
 20
247.5
 10
-9.999999999999543
 20
254.0
 10
-8.0
 20
254.0
 10
-8.0
 20
291.0000000000001
 10
-1.99999999999955
 20
291.0000000000001
 10
-1.99999999999955
 20
254.0
 10
0.0000000000004476
 20
254.0
 10
0.0000000000004476
 20
247.5
  0
LINE
  5
703D
330
1E
100
AcDbEntity
  8
1
  6
Continuous
 62
     4
100
AcDbLine
 10
267.6000000000004
 20
50.00000000000007
 30
0.0
 11
267.6000000000004
 21
75.00000000000007
 31
0.0
  0
LINE
  5
703E
330
1E
100
AcDbEntity
  8
0
  6
Continuous
100
AcDbLine
 10
294.5
 20
-77.00000000000007
 30
0.0
 11
299.0000000000005
 21
-77.00000000000007
 31
0.0
  0
LINE
  5
703F
330
1E
100
AcDbEntity
  8
12
  6
DASHDOT
 62
     3
100
AcDbLine
 10
323.9555925
 20
-59.00000000000005
 30
0.0
 11
323.9555925
 21
-85.00000000000017
 31
0.0
  0
LINE
  5
7040
330
1E
100
AcDbEntity
  8
1
  6
Continuous
 62
     4
100
AcDbLine
 10
269.9000000000001
 20
55.25000000000005
 30
0.0
 11
269.2000000000003
 21
55.25000000000005
 31
0.0
  0
LINE
  5
7041
330
1E
100
AcDbEntity
  8
1
  6
Continuous
 62
     2
100
AcDbLine
 10
265.0
 20
82.50000000000005
 30
0.0
 11
265.0
 21
50.00000000000007
 31
0.0
  0
LINE
  5
7043
330
1E
100
AcDbEntity
  8
0
  6
Continuous
100
AcDbLine
 10
294.5
 20
82.00000000000008
 30
0.0
 11
294.5
 21
62.00000000000006
 31
0.0
  0
LINE
  5
7044
330
1E
100
AcDbEntity
  8
1
  6
Continuous
 62
     4
100
AcDbLine
 10
265.0
 20
76.50000000000004
 30
0.0
 11
267.6000000000004
 21
76.50000000000004
 31
0.0
  0
LINE
  5
7045
330
1E
100
AcDbEntity
  8
0
  6
Continuous
100
AcDbLine
 10
294.5
 20
-62.00000000000006
 30
0.0
 11
294.5
 21
-82.00000000000008
 31
0.0
  0
LINE
  5
7046
330
1E
100
AcDbEntity
  8
0
  6
Continuous
100
AcDbLine
 10
299.8526225
 20
77.00000000000007
 30
0.0
 11
299.8526225
 21
75.00000000000007
 31
0.0
  0
LINE
  5
7047
330
1E
100
AcDbEntity
  8
1
  6
Continuous
 62
     4
100
AcDbLine
 10
270.2000000000003
 20
-50.00000000000007
 30
0.0
 11
269.2000000000003
 21
-50.00000000000007
 31
0.0
  0
LINE
  5
7048
330
1E
100
AcDbEntity
  8
0
  6
Continuous
100
AcDbLine
 10
299.8526225
 20
75.00000000000007
 30
0.0
 11
335.9555924999999
 21
75.00000000000007
 31
0.0
  0
LINE
  5
7049
330
1E
100
AcDbEntity
  8
0
  6
Continuous
100
AcDbLine
 10
331.0
 20
77.00000000000007
 30
0.0
 11
337.8082125000001
 21
77.00000000000007
 31
0.0
  0
LINE
  5
704A
330
1E
100
AcDbEntity
  8
18
100
AcDbLine
 10
210.0
 20
106.0
 30
0.0
 11
214.0000000000005
 21
101.0
 31
0.0
  0
LINE
  5
704C
330
1E
100
AcDbEntity
  8
1
  6
Continuous
 62
     4
100
AcDbLine
 10
263.9000000000006
 20
-57.6370000000001
 30
0.0
 11
263.4000000000001
 21
-57.92567500000001
 31
0.0
  0
LINE
  5
704D
330
1E
100
AcDbEntity
  8
1
  6
Continuous
 62
     4
100
AcDbLine
 10
265.0
 20
-76.50000000000004
 30
0.0
 11
265.0
 21
-50.00000000000007
 31
0.0
  0
LINE
  5
704E
330
1E
100
AcDbEntity
  8
12
  6
DASHDOT
 62
     3
100
AcDbLine
 10
317.9555925
 20
85.00000000000005
 30
0.0
 11
317.9555925
 21
59.00000000000005
 31
0.0
  0
LINE
  5
704F
330
1E
100
AcDbEntity
  8
0
  6
Continuous
100
AcDbLine
 10
265.0
 20
-82.00000000000008
 30
0.0
 11
334.2761
 21
-82.00000000000008
 31
0.0
  0
LINE
  5
7051
330
1E
100
AcDbEntity
  8
1
  6
Continuous
 62
     4
100
AcDbLine
 10
271.1999999999998
 20
55.60000000000008
 30
0.0
 11
270.3000000000002
 21
55.60000000000008
 31
0.0
  0
LINE
  5
7052
330
1E
100
AcDbEntity
  8
0
  6
Continuous
100
AcDbLine
 10
337.8082125000001
 20
75.00000000000007
 30
0.0
 11
371.9555925000004
 21
75.00000000000007
 31
0.0
  0
LINE
  5
7054
330
1E
100
AcDbEntity
  8
1
  6
Continuous
 62
     4
100
AcDbLine
 10
271.4000000000005
 20
-55.80000000000012
 30
0.0
 11
271.4000000000005
 21
-64.2000000000001
 31
0.0
  0
LINE
  5
7055
330
1E
100
AcDbEntity
  8
1
  6
Continuous
 62
     4
100
AcDbLine
 10
269.9000000000001
 20
-64.75000000000004
 30
0.0
 11
269.2000000000003
 21
-64.75000000000004
 31
0.0
  0
LINE
  5
7056
330
1E
100
AcDbEntity
  8
1
  6
Continuous
 62
     4
100
AcDbLine
 10
263.9000000000006
 20
62.41300000000006
 30
0.0
 11
263.4000000000001
 21
62.12432500000005
 31
0.0
  0
LINE
  5
7058
330
1E
100
AcDbEntity
  8
1
  6
Continuous
 62
     4
100
AcDbLine
 10
269.2000000000003
 20
-75.00000000000007
 30
0.0
 11
269.2000000000003
 21
50.00000000000007
 31
0.0
  0
LINE
  5
7059
330
1E
100
AcDbEntity
  8
1
  6
Continuous
 62
     4
100
AcDbLine
 10
274.6500000000001
 20
63.40000000000003
 30
0.0
 11
274.6500000000001
 21
56.60000000000008
 31
0.0
  0
LINE
  5
705A
330
1E
100
AcDbEntity
  8
0
  6
Continuous
100
AcDbLine
 10
294.5
 20
67.00000000000007
 30
0.0
 11
299.8526225
 21
67.00000000000007
 31
0.0
  0
LINE
  5
705B
330
1E
100
AcDbEntity
  8
1
  6
Continuous
 62
     4
100
AcDbLine
 10
269.9000000000001
 20
-55.25000000000005
 30
0.0
 11
269.2000000000003
 21
-55.25000000000005
 31
0.0
  0
LINE
  5
705D
330
1E
100
AcDbEntity
  8
0
  6
Continuous
100
AcDbLine
 10
336.3205075000001
 20
-67.00000000000007
 30
0.0
 11
336.9555925000004
 21
-67.00000000000007
 31
0.0
  0
LINE
  5
705E
330
1E
100
AcDbEntity
  8
1
  6
Continuous
 62
     4
100
AcDbLine
 10
270.3000000000002
 20
-64.35000000000008
 30
0.0
 11
270.3000000000002
 21
-55.65000000000003
 31
0.0
  0
LINE
  5
705F
330
1E
100
AcDbEntity
  8
1
  6
Continuous
 62
     4
100
AcDbLine
 10
269.2000000000003
 20
-75.00000000000007
 30
0.0
 11
267.6000000000004
 21
-75.00000000000007
 31
0.0
  0
LINE
  5
7060
330
1E
100
AcDbEntity
  8
12
  6
DASHDOT
 62
     3
100
AcDbLine
 10
355.9555925
 20
-59.00000000000005
 30
0.0
 11
355.9555925
 21
-85.00000000000017
 31
0.0
  0
LINE
  5
7061
330
1E
100
AcDbEntity
  8
0
  6
Continuous
100
AcDbLine
 10
371.9555925000004
 20
69.00000000000004
 30
0.0
 11
371.9555925000004
 21
75.00000000000007
 31
0.0
  0
LINE
  5
7062
330
1E
100
AcDbEntity
  8
1
  6
Continuous
 62
     4
100
AcDbLine
 10
269.9000000000001
 20
64.75000000000004
 30
0.0
 11
269.2000000000003
 21
64.75000000000004
 31
0.0
  0
LINE
  5
7064
330
1E
100
AcDbEntity
  8
1
  6
Continuous
 62
     4
100
AcDbLine
 10
274.6500000000001
 20
-56.60000000000008
 30
0.0
 11
274.6500000000001
 21
-63.40000000000003
 31
0.0
  0
LINE
  5
7065
330
1E
100
AcDbEntity
  8
1
  6
Continuous
 62
     4
100
AcDbLine
 10
263.9000000000006
 20
-57.6370000000001
 30
0.0
 11
265.0
 21
-57.6370000000001
 31
0.0
  0
LINE
  5
7066
330
1E
100
AcDbEntity
  8
1
  6
Continuous
 62
     4
100
AcDbLine
 10
271.4000000000005
 20
-60.25555999999999
 30
0.0
 11
270.3000000000002
 21
-60.15932249999997
 31
0.0
  0
LINE
  5
7067
330
1E
100
AcDbEntity
  8
1
  6
Continuous
 62
     4
100
AcDbLine
 10
271.1999999999998
 20
-55.60000000000008
 30
0.0
 11
270.3000000000002
 21
-55.60000000000008
 31
0.0
  0
LINE
  5
7068
330
1E
100
AcDbEntity
  8
1
  6
Continuous
 62
     4
100
AcDbLine
 10
263.9000000000006
 20
-62.46300000000002
 30
0.0
 11
265.0
 21
-62.46300000000002
 31
0.0
  0
LINE
  5
7069
330
1E
100
AcDbEntity
  8
1
  6
Continuous
 62
     4
100
AcDbLine
 10
270.3000000000002
 20
-59.35817500000013
 30
0.0
 11
271.4000000000005
 21
-59.45441250000005
 31
0.0
  0
LINE
  5
706B
330
1E
100
AcDbEntity
  8
1
  6
Continuous
 62
     4
100
AcDbLine
 10
271.4000000000005
 20
59.7444400000001
 30
0.0
 11
270.3000000000002
 21
59.84067750000003
 31
0.0
  0
LINE
  5
706C
330
1E
100
AcDbEntity
  8
1
  6
Continuous
 62
     2
100
AcDbLine
 10
265.0
 20
-50.00000000000007
 30
0.0
 11
265.0
 21
-82.50000000000017
 31
0.0
  0
LINE
  5
706E
330
1E
100
AcDbEntity
  8
0
  6
Continuous
100
AcDbLine
 10
339.0000000000005
 20
-62.00000000000006
 30
0.0
 11
369.2761
 21
-62.00000000000006
 31
0.0
  0
LINE
  5
706F
330
1E
100
AcDbEntity
  8
0
  6
Continuous
100
AcDbLine
 10
299.8526225
 20
69.00000000000004
 30
0.0
 11
299.8526225
 21
67.00000000000007
 31
0.0
  0
LINE
  5
7071
330
1E
100
AcDbEntity
  8
0
  6
Continuous
100
AcDbLine
 10
265.0
 20
82.00000000000008
 30
0.0
 11
331.0
 21
82.00000000000008
 31
0.0
  0
LINE
  5
7072
330
1E
100
AcDbEntity
  8
0
  6
Continuous
100
AcDbLine
 10
337.8082125000001
 20
69.00000000000004
 30
0.0
 11
371.9555925000004
 21
69.00000000000004
 31
0.0
  0
LINE
  5
7073
330
1E
100
AcDbEntity
  8
1
  6
Continuous
 62
     4
100
AcDbLine
 10
263.4000000000001
 20
-62.17432500000001
 30
0.0
 11
263.9000000000006
 21
-62.46300000000002
 31
0.0
  0
LINE
  5
7074
330
1E
100
AcDbEntity
  8
1
  6
Continuous
 62
     4
100
AcDbLine
 10
267.6000000000004
 20
50.00000000000007
 30
0.0
 11
267.6000000000004
 21
76.50000000000004
 31
0.0
  0
LINE
  5
7075
330
1E
100
AcDbEntity
  8
1
  6
Continuous
 62
     4
100
AcDbLine
 10
265.0
 20
50.00000000000007
 30
0.0
 11
265.0
 21
76.50000000000004
 31
0.0
  0
LINE
  5
7077
330
1E
100
AcDbEntity
  8
1
  6
Continuous
 62
     4
100
AcDbLine
 10
267.6000000000004
 20
-76.50000000000004
 30
0.0
 11
267.6000000000004
 21
-50.00000000000007
 31
0.0
  0
LINE
  5
7078
330
1E
100
AcDbEntity
  8
1
  6
Continuous
 62
     4
100
AcDbLine
 10
273.6500000000001
 20
-64.40000000000003
 30
0.0
 11
271.4000000000005
 21
-64.40000000000003
 31
0.0
  0
LINE
  5
7079
330
1E
100
AcDbEntity
  8
1
  6
Continuous
 62
     4
100
AcDbLine
 10
263.9000000000006
 20
57.58700000000004
 30
0.0
 11
265.0
 21
57.58700000000004
 31
0.0
  0
LINE
  5
707A
330
1E
100
AcDbEntity
  8
1
  6
Continuous
 62
     4
100
AcDbLine
 10
263.9000000000006
 20
62.41300000000006
 30
0.0
 11
265.0
 21
62.41300000000006
 31
0.0
  0
LINE
  5
707C
330
1E
100
AcDbEntity
  8
1
  6
Continuous
 62
     4
100
AcDbLine
 10
273.6500000000001
 20
-55.60000000000008
 30
0.0
 11
271.4000000000005
 21
-55.60000000000008
 31
0.0
  0
LINE
  5
707E
330
1E
100
AcDbEntity
  8
0
  6
Continuous
100
AcDbLine
 10
331.0
 20
67.00000000000007
 30
0.0
 11
337.8082125000001
 21
67.00000000000007
 31
0.0
  0
LINE
  5
707F
330
1E
100
AcDbEntity
  8
18
100
AcDbLine
 10
210.0
 20
-106.0
 30
0.0
 11
214.0000000000005
 21
-101.0
 31
0.0
  0
LINE
  5
7080
330
1E
100
AcDbEntity
  8
0
  6
Continuous
100
AcDbLine
 10
335.9555924999999
 20
69.00000000000004
 30
0.0
 11
335.9555924999999
 21
75.00000000000007
 31
0.0
  0
LINE
  5
7081
330
1E
100
AcDbEntity
  8
0
  6
Continuous
100
AcDbLine
 10
336.3205075000001
 20
-77.00000000000007
 30
0.0
 11
336.9555925000004
 21
-77.00000000000007
 31
0.0
  0
LINE
  5
7083
330
1E
100
AcDbEntity
  8
12
  6
DASHDOT
 62
     3
100
AcDbLine
 10
260.0
 20
72.00000000000007
 30
0.0
 11
376.9555925000004
 21
72.00000000000007
 31
0.0
  0
LINE
  5
7084
330
1E
100
AcDbEntity
  8
12
  6
DASHDOT
 62
     3
100
AcDbLine
 10
260.0
 20
-72.00000000000007
 30
0.0
 11
382.4555925
 21
-72.00000000000007
 31
0.0
  0
LINE
  5
7085
330
1E
100
AcDbEntity
  8
12
  6
DASHDOT
 62
     3
100
AcDbLine
 10
356.0000000000004
 20
85.00000000000005
 30
0.0
 11
356.0000000000004
 21
59.00000000000005
 31
0.0
  0
LINE
  5
7086
330
1E
100
AcDbEntity
  8
12
  6
DASHDOT
 62
     3
100
AcDbLine
 10
323.9555925
 20
85.00000000000005
 30
0.0
 11
323.9555925
 21
59.00000000000005
 31
0.0
  0
LINE
  5
7087
330
1E
100
AcDbEntity
  8
1
  6
Continuous
 62
     4
100
AcDbLine
 10
271.4000000000005
 20
64.40000000000003
 30
0.0
 11
271.4000000000005
 21
55.60000000000008
 31
0.0
  0
LINE
  5
7088
330
1E
100
AcDbEntity
  8
1
  6
Continuous
 62
     4
100
AcDbLine
 10
270.3000000000002
 20
60.6418250000001
 30
0.0
 11
271.4000000000005
 21
60.54558750000007
 31
0.0
  0
LINE
  5
7089
330
1E
100
AcDbEntity
  8
1
  6
Continuous
 62
     4
100
AcDbLine
 10
271.4000000000005
 20
-55.60000000000008
 30
0.0
 11
271.4000000000005
 21
-64.40000000000003
 31
0.0
  0
LINE
  5
708A
330
1E
100
AcDbEntity
  8
1
  6
Continuous
 62
     4
100
AcDbLine
 10
263.4000000000001
 20
62.12432500000005
 30
0.0
 11
263.4000000000001
 21
57.87567500000005
 31
0.0
  0
LINE
  5
708B
330
1E
100
AcDbEntity
  8
1
  6
Continuous
 62
     4
100
AcDbLine
 10
263.4000000000001
 20
-57.92567500000001
 30
0.0
 11
263.4000000000001
 21
-62.17432500000001
 31
0.0
  0
LINE
  5
708D
330
1E
100
AcDbEntity
  8
1
  6
Continuous
 62
     4
100
AcDbLine
 10
271.1999999999998
 20
64.40000000000003
 30
0.0
 11
270.3000000000002
 21
64.40000000000003
 31
0.0
  0
LINE
  5
708E
330
1E
100
AcDbEntity
  8
0
  6
Continuous
100
AcDbLine
 10
339.0000000000005
 20
-82.00000000000008
 30
0.0
 11
369.2761
 21
-82.00000000000008
 31
0.0
  0
LINE
  5
7090
330
1E
100
AcDbEntity
  8
0
  6
Continuous
100
AcDbLine
 10
331.0
 20
82.00000000000008
 30
0.0
 11
331.0
 21
75.00000000000007
 31
0.0
  0
LINE
  5
7091
330
1E
100
AcDbEntity
  8
18
100
AcDbLine
 10
214.0000000000005
 20
101.0
 30
0.0
 11
214.0000000000005
 21
-101.0
 31
0.0
  0
LINE
  5
7092
330
1E
100
AcDbEntity
  8
0
  6
Continuous
100
AcDbLine
 10
337.8082125000001
 20
69.00000000000004
 30
0.0
 11
337.8082125000001
 21
67.00000000000007
 31
0.0
  0
LINE
  5
7094
330
1E
100
AcDbEntity
  8
0
  6
Continuous
100
AcDbLine
 10
274.6500000000001
 20
-62.00000000000006
 30
0.0
 11
334.2761
 21
-62.00000000000006
 31
0.0
  0
LINE
  5
7095
330
1E
100
AcDbEntity
  8
0
  6
Continuous
100
AcDbLine
 10
294.5
 20
77.00000000000007
 30
0.0
 11
299.8526225
 21
77.00000000000007
 31
0.0
  0
LINE
  5
7096
330
1E
100
AcDbEntity
  8
0
  6
Continuous
100
AcDbLine
 10
323.9555925
 20
-67.50000000000007
 30
0.0
 11
317.9555925
 21
-67.50000000000007
 31
0.0
  0
LINE
  5
7097
330
1E
100
AcDbEntity
  8
1
  6
Continuous
 62
     4
100
AcDbLine
 10
270.3000000000002
 20
55.65000000000003
 30
0.0
 11
270.3000000000002
 21
64.35000000000008
 31
0.0
  0
LINE
  5
7098
330
1E
100
AcDbEntity
  8
1
  6
Continuous
 62
     4
100
AcDbLine
 10
267.6000000000004
 20
-75.00000000000007
 30
0.0
 11
267.6000000000004
 21
-50.00000000000007
 31
0.0
  0
LINE
  5
709A
330
1E
100
AcDbEntity
  8
1
  6
Continuous
 62
     4
100
AcDbLine
 10
270.2000000000003
 20
50.00000000000007
 30
0.0
 11
269.2000000000003
 21
50.00000000000007
 31
0.0
  0
LINE
  5
709B
330
1E
100
AcDbEntity
  8
1
  6
Continuous
 62
     4
100
AcDbLine
 10
270.2000000000003
 20
-50.00000000000007
 30
0.0
 11
270.2000000000003
 21
50.00000000000007
 31
0.0
  0
LINE
  5
709C
330
1E
100
AcDbEntity
  8
1
  6
Continuous
 62
     4
100
AcDbLine
 10
263.4000000000001
 20
57.87567500000005
 30
0.0
 11
263.9000000000006
 21
57.58700000000004
 31
0.0
  0
LINE
  5
709D
330
1E
100
AcDbEntity
  8
1
  6
Continuous
 62
     4
100
AcDbLine
 10
273.6500000000001
 20
55.60000000000008
 30
0.0
 11
271.4000000000005
 21
55.60000000000008
 31
0.0
  0
LINE
  5
709F
330
1E
100
AcDbEntity
  8
18
100
AcDbLine
 10
210.0
 20
-96.00000000000006
 30
0.0
 11
210.0
 21
-106.0
 31
0.0
  0
LINE
  5
70A0
330
1E
100
AcDbEntity
  8
18
100
AcDbLine
 10
210.0
 20
106.0
 30
0.0
 11
210.0
 21
96.00000000000006
 31
0.0
  0
LINE
  5
70A1
330
1E
100
AcDbEntity
  8
0
  6
Continuous
100
AcDbLine
 10
337.8082125000001
 20
77.00000000000007
 30
0.0
 11
337.8082125000001
 21
75.00000000000007
 31
0.0
  0
LINE
  5
70A4
330
1E
100
AcDbEntity
  8
0
  6
Continuous
100
AcDbLine
 10
294.5
 20
-67.00000000000007
 30
0.0
 11
299.0000000000005
 21
-67.00000000000007
 31
0.0
  0
LINE
  5
70A5
330
1E
100
AcDbEntity
  8
0
  6
Continuous
100
AcDbLine
 10
274.6500000000001
 20
62.00000000000006
 30
0.0
 11
331.0
 21
62.00000000000006
 31
0.0
  0
LINE
  5
70A6
330
1E
100
AcDbEntity
  8
0
  6
Continuous
100
AcDbLine
 10
317.9555925
 20
-76.50000000000004
 30
0.0
 11
323.9555925
 21
-76.50000000000004
 31
0.0
  0
LINE
  5
70A7
330
1E
100
AcDbEntity
  8
1
  6
Continuous
 62
     4
100
AcDbLine
 10
269.2000000000003
 20
50.00000000000007
 30
0.0
 11
269.2000000000003
 21
75.00000000000007
 31
0.0
  0
LINE
  5
70A9
330
1E
100
AcDbEntity
  8
1
  6
Continuous
 62
     4
100
AcDbLine
 10
265.0
 20
-76.50000000000004
 30
0.0
 11
267.6000000000004
 21
-76.50000000000004
 31
0.0
  0
LINE
  5
70AB
330
1E
100
AcDbEntity
  8
1
  6
Continuous
 62
     4
100
AcDbLine
 10
271.1999999999998
 20
-64.40000000000003
 30
0.0
 11
270.3000000000002
 21
-64.40000000000003
 31
0.0
  0
LINE
  5
70AC
330
1E
100
AcDbEntity
  8
1
  6
Continuous
 62
     4
100
AcDbLine
 10
269.2000000000003
 20
75.00000000000007
 30
0.0
 11
267.6000000000004
 21
75.00000000000007
 31
0.0
  0
LINE
  5
70AD
330
1E
100
AcDbEntity
  8
1
  6
Continuous
 62
     4
100
AcDbLine
 10
273.6500000000001
 20
64.40000000000003
 30
0.0
 11
271.4000000000005
 21
64.40000000000003
 31
0.0
  0
LINE
  5
70AE
330
1E
100
AcDbEntity
  8
1
  6
Continuous
 62
     4
100
AcDbLine
 10
271.4000000000005
 20
64.19999999999999
 30
0.0
 11
271.4000000000005
 21
55.80000000000001
 31
0.0
  0
LINE
  5
70AF
330
1E
100
AcDbEntity
  8
0
  6
Continuous
100
AcDbLine
 10
331.0
 20
69.00000000000004
 30
0.0
 11
331.0
 21
62.00000000000006
 31
0.0
  0
LINE
  5
70B0
330
1E
100
AcDbEntity
  8
0
  6
Continuous
100
AcDbLine
 10
299.8526225
 20
69.00000000000004
 30
0.0
 11
335.9555924999999
 21
69.00000000000004
 31
0.0
  0
LINE
  5
70B1
330
1E
100
AcDbEntity
  8
12
  6
DASHDOT
 62
     3
100
AcDbLine
 10
317.9555925
 20
-59.00000000000005
 30
0.0
 11
317.9555925
 21
-85.00000000000017
 31
0.0
  0
ARC
  5
70B3
330
1E
100
AcDbEntity
  8
0
  6
Continuous
100
AcDbCircle
 10
351.9555925000004
 20
-72.00000000000007
 30
0.0
 40
20.00000000000001
100
AcDbArc
 50
329.9999999999995
 51
30.00000000000055
  0
ARC
  5
70B4
330
1E
100
AcDbEntity
  8
1
  6
Continuous
 62
     4
100
AcDbCircle
 10
253.4000000000001
 20
18.00000000000006
 30
0.0
 40
2.0
100
AcDbArc
 50
0.0
 51
90.0
  0
ARC
  5
70B5
330
1E
100
AcDbEntity
  8
1
  6
Continuous
 62
     4
100
AcDbCircle
 10
271.1999999999998
 20
55.80000000000001
 30
0.0
 40
0.2000000000000001
100
AcDbArc
 50
270.0
 51
0.0
  0
ARC
  5
70B7
330
1E
100
AcDbEntity
  8
1
  6
Continuous
 62
     4
100
AcDbCircle
 10
269.9000000000001
 20
-55.65000000000003
 30
0.0
 40
0.4000000000000003
100
AcDbArc
 50
0.0
 51
90.0
  0
ARC
  5
70B8
330
1E
100
AcDbEntity
  8
1
  6
Continuous
 62
     4
100
AcDbCircle
 10
273.6500000000001
 20
56.60000000000008
 30
0.0
 40
1.0
100
AcDbArc
 50
270.0
 51
0.0
  0
ARC
  5
70B9
330
1E
100
AcDbEntity
  8
0
  6
Continuous
100
AcDbCircle
 10
317.9555925
 20
-72.00000000000007
 30
0.0
 40
4.5
100
AcDbArc
 50
90.0
 51
270.0
  0
ARC
  5
70BA
330
1E
100
AcDbEntity
  8
1
  6
Continuous
 62
     4
100
AcDbCircle
 10
269.9000000000001
 20
64.35000000000008
 30
0.0
 40
0.4000000000000003
100
AcDbArc
 50
0.0
 51
90.0
  0
ARC
  5
70BB
330
1E
100
AcDbEntity
  8
1
  6
Continuous
 62
     4
100
AcDbCircle
 10
253.4000000000001
 20
-18.00000000000006
 30
0.0
 40
2.0
100
AcDbArc
 50
270.0
 51
0.0
  0
ARC
  5
70BC
330
1E
100
AcDbEntity
  8
1
  6
Continuous
 62
     4
100
AcDbCircle
 10
271.1999999999998
 20
-64.2000000000001
 30
0.0
 40
0.2000000000000001
100
AcDbArc
 50
270.0
 51
0.0
  0
ARC
  5
70BD
330
1E
100
AcDbEntity
  8
0
  6
Continuous
100
AcDbCircle
 10
-318.3649175000001
 20
-72.00000000000007
 30
0.0
 40
20.00000000000001
210
0.0
220
0.0
230
-1.0
100
AcDbArc
 50
14.47751199999776
 51
30.00000000000055
  0
ARC
  5
70BE
330
1E
100
AcDbEntity
  8
0
  6
Continuous
100
AcDbCircle
 10
-356.3205075000001
 20
-72.00000000000007
 30
0.0
 40
20.00000000000001
210
0.0
220
0.0
230
-1.0
100
AcDbArc
 50
14.47751199999776
 51
30.00000000000055
  0
ARC
  5
70BF
330
1E
100
AcDbEntity
  8
1
  6
Continuous
 62
     4
100
AcDbCircle
 10
273.6500000000001
 20
-56.60000000000008
 30
0.0
 40
1.0
100
AcDbArc
 50
0.0
 51
90.0
  0
ARC
  5
70C0
330
1E
100
AcDbEntity
  8
1
  6
Continuous
 62
     4
100
AcDbCircle
 10
271.1999999999998
 20
-55.80000000000012
 30
0.0
 40
0.2000000000000001
100
AcDbArc
 50
0.0
 51
90.0
  0
ARC
  5
70C1
330
1E
100
AcDbEntity
  8
1
  6
Continuous
 62
     4
100
AcDbCircle
 10
269.9000000000001
 20
55.65000000000003
 30
0.0
 40
0.4000000000000003
100
AcDbArc
 50
270.0
 51
0.0
  0
CIRCLE
  5
70C2
330
1E
100
AcDbEntity
  8
0
  6
Continuous
100
AcDbCircle
 10
355.9555925
 20
-72.00000000000007
 30
0.0
 40
4.5
  0
ARC
  5
70C3
330
1E
100
AcDbEntity
  8
0
  6
Continuous
100
AcDbCircle
 10
316.9555925000004
 20
-72.00000000000007
 30
0.0
 40
20.00000000000001
100
AcDbArc
 50
329.9999999999995
 51
30.00000000000055
  0
ARC
  5
70C4
330
1E
100
AcDbEntity
  8
0
  6
Continuous
100
AcDbCircle
 10
323.9555925
 20
-72.00000000000007
 30
0.0
 40
4.5
100
AcDbArc
 50
270.0
 51
90.0
  0
ARC
  5
70C5
330
1E
100
AcDbEntity
  8
1
  6
Continuous
 62
     4
100
AcDbCircle
 10
220.4000000000001
 20
18.00000000000006
 30
0.0
 40
2.0
100
AcDbArc
 50
90.0
 51
180.0
  0
ARC
  5
70C6
330
1E
100
AcDbEntity
  8
1
  6
Continuous
 62
     4
100
AcDbCircle
 10
273.6500000000001
 20
63.40000000000003
 30
0.0
 40
1.0
100
AcDbArc
 50
0.0
 51
90.0
  0
ARC
  5
70C7
330
1E
100
AcDbEntity
  8
1
  6
Continuous
 62
     4
100
AcDbCircle
 10
269.9000000000001
 20
-64.35000000000008
 30
0.0
 40
0.4000000000000003
100
AcDbArc
 50
270.0
 51
0.0
  0
ARC
  5
70C8
330
1E
100
AcDbEntity
  8
0
  6
Continuous
100
AcDbCircle
 10
-356.3205075000001
 20
-72.00000000000007
 30
0.0
 40
20.00000000000001
210
0.0
220
0.0
230
-1.0
100
AcDbArc
 50
329.9999999999995
 51
345.5224880000022
  0
ARC
  5
70C9
330
1E
100
AcDbEntity
  8
1
  6
Continuous
 62
     4
100
AcDbCircle
 10
220.4000000000001
 20
-18.00000000000006
 30
0.0
 40
2.0
100
AcDbArc
 50
180.0
 51
270.0
  0
ARC
  5
70CA
330
1E
100
AcDbEntity
  8
1
  6
Continuous
 62
     4
100
AcDbCircle
 10
273.6500000000001
 20
-63.40000000000003
 30
0.0
 40
1.0
100
AcDbArc
 50
270.0
 51
0.0
  0
ARC
  5
70CB
330
1E
100
AcDbEntity
  8
1
  6
Continuous
 62
     4
100
AcDbCircle
 10
271.1999999999998
 20
64.19999999999999
 30
0.0
 40
0.2000000000000001
100
AcDbArc
 50
0.0
 51
90.0
  0
ARC
  5
70CC
330
1E
100
AcDbEntity
  8
0
  6
Continuous
100
AcDbCircle
 10
-318.3649175000001
 20
-72.00000000000007
 30
0.0
 40
20.00000000000001
210
0.0
220
0.0
230
-1.0
100
AcDbArc
 50
329.9999999999995
 51
345.5224880000022
  0
LWPOLYLINE
  5
72D9
330
1E
100
AcDbEntity
  8
1
  6
Continuous
 62
     4
100
AcDbPolyline
 90
        4
 70
     1
 43
0.0
 10
195.0
 20
96.00000000000006
 10
210.0
 20
96.00000000000006
 10
210.0
 20
-96.00000000000006
 10
195.0
 20
-96.00000000000006
  0
LWPOLYLINE
  5
72DA
330
1E
100
AcDbEntity
  8
1
  6
Continuous
 62
     4
100
AcDbPolyline
 90
        4
 70
     1
 43
0.0
 10
193.0
 20
25.00000000000006
 10
195.0
 20
25.00000000000006
 10
195.0
 20
-25.00000000000006
 10
193.0
 20
-25.00000000000006
  0
LWPOLYLINE
  5
72DB
330
1E
100
AcDbEntity
  8
1
  6
Continuous
 62
     4
100
AcDbPolyline
 90
        4
 70
     1
 43
0.0
 10
189.0000000000004
 20
25.00000000000006
 10
193.0
 20
25.00000000000006
 10
193.0
 20
-25.00000000000006
 10
189.0000000000004
 20
-25.00000000000006
  0
LWPOLYLINE
  5
72DC
330
1E
100
AcDbEntity
  8
1
  6
Continuous
 62
     4
100
AcDbPolyline
 90
        4
 70
     0
 43
0.0
 10
189.0000000000004
 20
14.16543749999999
 10
178.3356174999999
 20
21.63271750000007
 10
174.8941598468672
 20
16.71780760722458
 10
189.0000000000004
 20
6.840789999999912
  0
LWPOLYLINE
  5
72DD
330
1E
100
AcDbEntity
  8
1
  6
Continuous
 62
     4
100
AcDbPolyline
 90
        8
 70
     0
 43
0.0
 10
210.0
 20
75.00000000000007
 10
221.8000000000002
 20
75.00000000000007
 10
221.8000000000002
 20
50.00000000000007
 10
270.2000000000003
 20
50.00000000000007
 10
270.2000000000003
 20
-50.00000000000007
 10
221.8000000000002
 20
-50.00000000000007
 10
221.8000000000002
 20
-75.00000000000007
 10
210.0
 20
-75.00000000000007
  0
LWPOLYLINE
  5
72DE
330
1E
100
AcDbEntity
  8
1
  6
Continuous
 62
     4
100
AcDbPolyline
 90
        3
 70
     0
 43
0.0
 10
210.0
 20
-82.50000000000017
 10
265.0
 20
-82.50000000000017
 10
265.0
 20
-50.00000000000007
  0
LWPOLYLINE
  5
72DF
330
1E
100
AcDbEntity
  8
1
  6
Continuous
 62
     4
100
AcDbPolyline
 90
        3
 70
     0
 43
0.0
 10
265.0
 20
50.00000000000007
 10
265.0
 20
82.50000000000005
 10
210.0
 20
82.50000000000005
  0
LWPOLYLINE
  5
72E0
330
1E
100
AcDbEntity
  8
0
  6
Continuous
100
AcDbPolyline
 90
        5
 70
     0
 43
0.0
 10
265.0
 20
62.03356788396519
 10
265.0
 20
82.00000000000008
 10
294.5
 20
82.00000000000008
 10
294.5
 20
62.00000000000006
 10
274.6500000000001
 20
62.00000000000006
  0
LWPOLYLINE
  5
72E1
330
1E
100
AcDbEntity
  8
0
  6
Continuous
100
AcDbPolyline
 90
        6
 70
     0
 43
0.0
 10
331.0
 20
75.00000000000007
 10
331.0
 20
82.00000000000008
 10
294.5
 20
82.00000000000008
 10
294.5
 20
62.00000000000006
 10
331.0
 20
62.00000000000006
 10
331.0
 20
69.00000000000004
  0
LWPOLYLINE
  5
72E2
330
1E
100
AcDbEntity
  8
0
  6
Continuous
100
AcDbPolyline
 90
        8
 70
     0
 43
0.0
 10
294.5
 20
77.00000000000007
 10
299.8526225
 20
77.00000000000007
 10
299.8526225
 20
75.00000000000007
 10
335.9555924999999
 20
75.00000000000007
 10
335.9555924999999
 20
69.00000000000004
 10
299.8526225
 20
69.00000000000004
 10
299.8526225
 20
67.00000000000007
 10
294.5
 20
67.00000000000007
  0
LWPOLYLINE
  5
72E3
330
1E
100
AcDbEntity
  8
0
  6
Continuous
100
AcDbPolyline
 90
        8
 70
     0
 43
0.0
 10
331.0
 20
77.00000000000007
 10
337.8082125000001
 20
77.00000000000007
 10
337.8082125000001
 20
75.00000000000007
 10
371.9555925000004
 20
75.00000000000007
 10
371.9555925000004
 20
69.00000000000004
 10
337.8082125000001
 20
69.00000000000004
 10
337.8082125000001
 20
67.00000000000007
 10
331.0
 20
67.00000000000007
  0
LWPOLYLINE
  5
72ED
330
1E
100
AcDbEntity
  8
1
  6
Continuous
 62
     4
100
AcDbPolyline
 90
        8
 70
     1
 43
0.0
 10
220.4000000000001
 20
20.00000000000006
 10
253.4000000000001
 20
20.00000000000006
 42
-0.4142135623730951
 10
255.4000000000001
 20
18.00000000000006
 10
255.4000000000001
 20
-17.99999999999994
 42
-0.4142135623730951
 10
253.4000000000001
 20
-19.99999999999994
 10
220.4000000000001
 20
-19.99999999999994
 42
-0.4142135623730951
 10
218.4000000000001
 20
-17.99999999999994
 10
218.4000000000001
 20
18.00000000000006
 42
-0.4142135623730951
  0
DIMENSION
  5
7346
330
1E
100
AcDbEntity
  8
30
  6
Continuous
100
AcDbDimension
  2
*D44
 10
371.9555925000004
 20
-130.0
 30
0.0
 11
290.9555925000003
 21
-127.0
 31
0.0
 70
    32
 71
     5
 42
162.0000000000002
  3
STANDARD
100
AcDbAlignedDimension
 13
209.9555925000002
 23
-106.0
 33
0.0
 14
371.9555925000004
 24
-82.0
 34
0.0
 50
180.0
100
AcDbRotatedDimension
  0
DIMENSION
  5
7347
330
1E
100
AcDbEntity
  8
30
  6
Continuous
100
AcDbDimension
  2
*D45
 10
336.9555925000004
 20
-120.0
 30
0.0
 11
273.4555925000003
 21
-117.0
 31
0.0
 70
    32
 71
     5
 42
127.0000000000002
  3
STANDARD
100
AcDbAlignedDimension
 13
209.9555925000002
 23
-106.0
 33
0.0
 14
336.9555925000004
 24
-82.0
 34
0.0
 50
180.0
100
AcDbRotatedDimension
  0
DIMENSION
  5
7348
330
1E
100
AcDbEntity
  8
30
  6
Continuous
100
AcDbDimension
  2
*D46
 10
209.9555925000002
 20
-120.0
 30
0.0
 11
202.4555925000002
 21
-117.0
 31
0.0
 70
    32
 71
     5
 42
15.0
  3
STANDARD
100
AcDbAlignedDimension
 13
194.9555925000002
 23
-96.00000000000013
 33
0.0
 14
209.9555925000002
 24
-106.0
 34
0.0
 50
180.0
100
AcDbRotatedDimension
  0
DIMENSION
  5
7349
330
1E
100
AcDbEntity
  8
30
  6
Continuous
100
AcDbDimension
  2
*D47
 10
209.9555925000002
 20
-130.0
 30
0.0
 11
189.9555925000002
 21
-127.0
 31
0.0
 70
    32
 71
     5
 42
40.0
  3
STANDARD
100
AcDbAlignedDimension
 13
169.9555925000002
 23
-0.0000000000000568
 33
0.0
 14
209.9555925000002
 24
-106.0
 34
0.0
 50
180.0
100
AcDbRotatedDimension
  0
DIMENSION
  5
734A
330
1E
100
AcDbEntity
  8
30
  6
Continuous
100
AcDbDimension
  2
*D48
 10
336.9555925000004
 20
-110.0
 30
0.0
 11
330.4555925000002
 21
-107.0
 31
0.0
 70
    32
 71
     5
 42
13.00000000000045
  3
STANDARD
100
AcDbAlignedDimension
 13
323.9555925
 23
-85.00000000000017
 33
0.0
 14
336.9555925000004
 24
-82.0
 34
0.0
 50
180.0
100
AcDbRotatedDimension
  0
DIMENSION
  5
734B
330
1E
100
AcDbEntity
  8
30
  6
Continuous
100
AcDbDimension
  2
*D49
 10
371.9555925000004
 20
-110.0
 30
0.0
 11
363.9555925000002
 21
-107.0
 31
0.0
 70
    32
 71
     5
 42
16.00000000000045
  3
STANDARD
100
AcDbAlignedDimension
 13
355.9555925
 23
-85.00000000000017
 33
0.0
 14
371.9555925000004
 24
-82.0
 34
0.0
 50
180.0
100
AcDbRotatedDimension
  0
DIMENSION
  5
73EE
330
1E
100
AcDbEntity
  8
30
  6
Continuous
100
AcDbDimension
  2
*D50
 10
307.43138
 20
-67.50000000000007
 30
0.0
 11
304.43138
 21
-72.0
 31
0.0
 70
    32
  1
 <> 
 71
     0
 72
     0
 41
0.0
 42
9.0
  3
STANDARD
100
AcDbAlignedDimension
 13
318.4555925
 23
-76.50000000000004
 33
0.0
 14
318.4530924999999
 24
-67.50000000000007
 34
0.0
 50
90.0
100
AcDbRotatedDimension
1001
ACAD
1000
DSTYLE
1002
{
1070
    79
1070
     3
1002
}
  0
DIMENSION
  5
7421
330
1E
100
AcDbEntity
  8
30
  6
Continuous
100
AcDbDimension
  2
*D51
 10
323.9555925
 20
-110.0
 30
0.0
 11
320.9555925
 21
-107.0
 31
0.0
 70
    32
 71
     5
 42
6.0
  3
STANDARD
100
AcDbAlignedDimension
 13
317.9555925
 23
-85.00000000000017
 33
0.0
 14
323.9555925
 24
-85.00000000000017
 34
0.0
 50
180.0
100
AcDbRotatedDimension
1001
ACAD
1000
DSTYLE
1002
{
1070
   172
1070
     1
1002
}
  0
ARC
  5
747A
330
1E
100
AcDbEntity
  8
30
  6
Continuous
100
AcDbCircle
 10
218.4104834139605
 20
-5.225593857777481
 30
0.0
 40
48.73585214860035
100
AcDbArc
 50
153.2401645341927
 51
173.8447540369674
  0
DIMENSION
  5
748E
330
1E
100
AcDbEntity
  8
30
  6
Continuous
100
AcDbDimension
  2
*D52
 10
150.0
 20
23.84768215483702
 30
0.0
 11
147.0
 21
-1.152317845163014
 31
0.0
 70
    32
  1
 <> 
 71
     0
 72
     0
 41
0.0
 42
50.0000000000001
  3
STANDARD
100
AcDbAlignedDimension
 13
185.3639054648289
 23
-26.15231784516311
 33
0.0
 14
185.3639054648289
 24
23.847682154837
 34
0.0
 50
90.0
100
AcDbRotatedDimension
1001
ACAD
1000
DSTYLE
1002
{
1070
    79
1070
     3
1002
}
  0
LINE
  5
78AC
330
1E
100
AcDbEntity
  8
12
  6
Continuous
 62
     3
100
AcDbLine
 10
-38.00000000000046
 20
-278.0
 30
0.0
 11
-38.00000000000046
 21
-268.0
 31
0.0
  0
LINE
  5
78B0
330
1E
100
AcDbEntity
  8
12
  6
Continuous
 62
     3
100
AcDbLine
 10
98.0
 20
-278.0
 30
0.0
 11
98.0
 21
-268.0
 31
0.0
  0
LINE
  5
78B1
330
1E
100
AcDbEntity
  8
12
  6
Continuous
 62
     3
100
AcDbLine
 10
-43.00000000000046
 20
-207.0
 30
0.0
 11
-33.00000000000046
 21
-207.0
 31
0.0
  0
LINE
  5
78B3
330
1E
100
AcDbEntity
  8
12
  6
Continuous
 62
     3
100
AcDbLine
 10
98.0
 20
-212.0
 30
0.0
 11
98.0
 21
-202.0
 31
0.0
  0
LINE
  5
78B6
330
1E
100
AcDbEntity
  8
12
  6
Continuous
 62
     3
100
AcDbLine
 10
93.0
 20
-273.0
 30
0.0
 11
103.0
 21
-273.0
 31
0.0
  0
LINE
  5
78B7
330
1E
100
AcDbEntity
  8
12
  6
Continuous
 62
     3
100
AcDbLine
 10
93.0
 20
-207.0
 30
0.0
 11
103.0
 21
-207.0
 31
0.0
  0
LINE
  5
78B8
330
1E
100
AcDbEntity
  8
12
  6
Continuous
 62
     3
100
AcDbLine
 10
-38.00000000000046
 20
-212.0
 30
0.0
 11
-38.00000000000046
 21
-202.0
 31
0.0
  0
LINE
  5
78BC
330
1E
100
AcDbEntity
  8
12
  6
Continuous
 62
     3
100
AcDbLine
 10
-43.00000000000046
 20
-273.0
 30
0.0
 11
-33.00000000000046
 21
-273.0
 31
0.0
  0
CIRCLE
  5
78C0
330
1E
100
AcDbEntity
  8
12
  6
Continuous
 62
     3
100
AcDbCircle
 10
98.0
 20
-273.0
 30
0.0
 40
3.000000000000001
  0
ARC
  5
78C1
330
1E
100
AcDbEntity
  8
7
  6
PHANTOM
 62
    95
100
AcDbCircle
 10
103.5
 20
-149.0
 30
0.0
 40
5.0
100
AcDbArc
 50
0.0
 51
90.0
  0
ARC
  5
78C2
330
1E
100
AcDbEntity
  8
7
  6
PHANTOM
 62
    95
100
AcDbCircle
 10
103.5
 20
-331.0000000000001
 30
0.0
 40
5.0
100
AcDbArc
 50
270.0
 51
0.0
  0
ARC
  5
78C3
330
1E
100
AcDbEntity
  8
7
  6
PHANTOM
 62
    95
100
AcDbCircle
 10
-43.5
 20
-331.0000000000001
 30
0.0
 40
5.0
100
AcDbArc
 50
180.0
 51
270.0
  0
CIRCLE
  5
78C4
330
1E
100
AcDbEntity
  8
12
  6
Continuous
 62
     3
100
AcDbCircle
 10
-38.00000000000046
 20
-273.0
 30
0.0
 40
3.000000000000001
  0
ARC
  5
78C5
330
1E
100
AcDbEntity
  8
7
  6
PHANTOM
 62
    95
100
AcDbCircle
 10
-43.5
 20
-149.0
 30
0.0
 40
5.0
100
AcDbArc
 50
90.0
 51
180.0
  0
CIRCLE
  5
78C6
330
1E
100
AcDbEntity
  8
12
  6
Continuous
 62
     3
100
AcDbCircle
 10
-38.00000000000046
 20
-207.0
 30
0.0
 40
3.000000000000001
  0
CIRCLE
  5
78C7
330
1E
100
AcDbEntity
  8
12
  6
Continuous
 62
     3
100
AcDbCircle
 10
98.0
 20
-207.0
 30
0.0
 40
3.000000000000001
  0
LWPOLYLINE
  5
790E
330
1E
100
AcDbEntity
  8
18
  6
DIVIDE
100
AcDbPolyline
 90
        8
 70
     1
 43
0.0
 10
-43.50000000000003
 20
-144.0
 10
103.5
 20
-144.0
 42
-0.4142135623730951
 10
108.5
 20
-149.0
 10
108.5
 20
-331.0
 42
-0.4142135623730951
 10
103.5
 20
-336.0
 10
-43.50000000000003
 20
-336.0
 42
-0.4142135623730951
 10
-48.50000000000003
 20
-331.0
 10
-48.50000000000003
 20
-149.0
 42
-0.4142135623730951
  0
LWPOLYLINE
  5
790F
330
1E
100
AcDbEntity
  8
11
 48
2.0
100
AcDbPolyline
 90
        4
 70
     1
 43
0.0
 10
-33.00000000000046
 20
-149.4999999999999
 10
93.0
 20
-149.4999999999999
 10
93.0
 20
-330.5
 10
-33.00000000000046
 20
-330.5
  0
DIMENSION
  5
798C
330
1E
100
AcDbEntity
  8
30
  6
Continuous
100
AcDbDimension
  2
*D54
 10
95.61056391097448
 20
-208.7920063971968
 30
0.0
 11
117.3490921835856
 21
-195.161807396424
 31
0.0
 70
   163
 71
     5
 42
6.000000531174052
  3
STANDARD
100
AcDbDiametricDimension
 15
100.3344425463692
 25
-205.092685241613
 35
0.0
 40
0.0
1001
ACAD
1000
DSTYLE
1002
{
1070
   288
1070
     1
1002
}
  0
DIMENSION
  5
79D8
330
1E
100
AcDbEntity
  8
30
  6
Continuous
100
AcDbDimension
  2
*D55
 10
93.00000000000013
 20
-350.0264379739336
 30
0.0
 11
30.00000000000011
 21
-347.0264379739337
 31
0.0
 70
    32
 71
     5
 42
126.0
  3
STANDARD
100
AcDbAlignedDimension
 13
-32.9999999999999
 23
-330.5000000000001
 33
0.0
 14
93.00000000000013
 24
-330.5000000000001
 34
0.0
100
AcDbRotatedDimension
1001
ACAD
1000
DSTYLE
1002
{
1070
    79
1070
     3
1002
}
  0
DIMENSION
  5
79D9
330
1E
100
AcDbEntity
  8
30
  6
Continuous
100
AcDbDimension
  2
*D56
 10
97.99999999999993
 20
-360.0
 30
0.0
 11
29.99999999999995
 21
-357.0
 31
0.0
 70
    32
 71
     5
 42
135.9999999999999
  3
STANDARD
100
AcDbAlignedDimension
 13
-38.00000000000004
 23
-278.0000000000009
 33
0.0
 14
97.99999999999993
 24
-278.0000000000009
 34
0.0
100
AcDbRotatedDimension
1001
ACAD
1000
DSTYLE
1002
{
1070
    79
1070
     3
1002
}
  0
DIMENSION
  5
7AD5
330
1E
100
AcDbEntity
  8
30
  6
Continuous
100
AcDbDimension
  2
*D57
 10
400.0
 20
75.00000000000007
 30
0.0
 11
397.0
 21
72.00000000000009
 31
0.0
 70
    32
 71
     5
 42
6.0
  3
STANDARD
100
AcDbAlignedDimension
 13
371.9555925000004
 23
69.00000000000004
 33
0.0
 14
371.9555925000004
 24
75.00000000000007
 34
0.0
 50
270.0
100
AcDbRotatedDimension
1001
ACAD
1000
DSTYLE
1002
{
1070
   172
1070
     1
1002
}
  0
DIMENSION
  5
7AD6
330
1E
100
AcDbEntity
  8
30
  6
Continuous
100
AcDbDimension
  2
*D58
 10
400.0
 20
-62.0
 30
0.0
 11
397.0
 21
-71.99999999999993
 31
0.0
 70
    32
 71
     5
 42
20.0
  3
STANDARD
100
AcDbAlignedDimension
 13
369.2761005756893
 23
-82.0
 33
0.0
 14
369.2761005756893
 24
-62.0
 34
0.0
 50
270.0
100
AcDbRotatedDimension
  0
DIMENSION
  5
7AD7
330
1E
100
AcDbEntity
  8
30
  6
Continuous
100
AcDbDimension
  2
*D59
 10
410.0
 20
-72.0
 30
0.0
 11
407.0
 21
0.0000000000000889
 31
0.0
 70
    32
 71
     5
 42
144.0
  3
STANDARD
100
AcDbAlignedDimension
 13
400.0
 23
72.00000000000007
 33
0.0
 14
400.0
 24
-72.0
 34
0.0
 50
90.0
100
AcDbRotatedDimension
1001
ACAD
1000
DSTYLE
1002
{
1070
    79
1070
     3
1002
}
  0
DIMENSION
  5
7D37
330
1E
100
AcDbEntity
  8
30
  6
Continuous
100
AcDbDimension
  2
*D63
 10
29.99999999999955
 20
340.0
 30
0.0
 11
12.49999999999989
 21
343.0
 31
0.0
 70
    32
 71
     5
 42
34.99999999999932
  3
STANDARD
100
AcDbAlignedDimension
 13
-4.999999999999769
 23
291.0000000000001
 33
0.0
 14
29.99999999999955
 24
326.0000000000001
 34
0.0
100
AcDbRotatedDimension
1001
ACAD
1000
DSTYLE
1002
{
1070
    79
1070
     3
1002
}
  0
DIMENSION
  5
7D38
330
1E
100
AcDbEntity
  8
30
  6
Continuous
100
AcDbDimension
  2
*D64
 10
29.99999999999955
 20
340.0
 30
0.0
 11
47.4999999999992
 21
343.0
 31
0.0
 70
    32
 71
     5
 42
34.99999999999932
  3
STANDARD
100
AcDbAlignedDimension
 13
64.99999999999886
 23
291.0000000000001
 33
0.0
 14
29.99999999999955
 24
326.0000000000001
 34
0.0
 50
180.0
100
AcDbRotatedDimension
1001
ACAD
1000
DSTYLE
1002
{
1070
    79
1070
     3
1002
}
  0
VIEWPORT
  5
9AC
102
{ACAD_XDICTIONARY
360
7D9B
102
}
330
1A
100
AcDbEntity
 67
     1
  8
0
  6
Continuous
100
AcDbViewport
 10
171.999535
 20
144.1384739999999
 30
0.0
 40
488.867686
 41
292.351491
 68
    -1
 69
     1
 12
171.999535
 22
144.1384739999999
 13
0.0
 23
0.0
 14
10.0
 24
10.0
 15
10.0
 25
10.0
 16
0.0
 26
0.0
 36
1.0
 17
0.0
 27
0.0
 37
0.0
 42
50.0
 43
0.0
 44
0.0
 45
292.351491
 50
0.0
 51
0.0
 72
   100
 90
    32800
  1

281
     0
 71
     1
 74
     0
110
0.0
120
0.0
130
0.0
111
1.0
121
0.0
131
0.0
112
0.0
122
1.0
132
0.0
 79
     0
146
0.0
  0
ENDSEC
  0
SECTION
  2
OBJECTS
  0
DICTIONARY
  5
C
330
0
100
AcDbDictionary
281
     1
  3
ACAD_COLOR
350
5ECD
  3
ACAD_GROUP
350
D
  3
ACAD_LAYOUT
350
19
  3
ACAD_MATERIAL
350
5EA0
  3
ACAD_MLEADERSTYLE
350
5EF2
  3
ACAD_MLINESTYLE
350
16
  3
ACAD_PLOTSETTINGS
350
18
  3
ACAD_PLOTSTYLENAME
350
E
  3
ACAD_SCALELIST
350
5ED0
  3
ACAD_TABLESTYLE
350
5ECE
  3
ACAD_VISUALSTYLE
350
5EB9
  3
ACDB_RECOMPOSE_DATA
350
7D99
  3
ACDBVARIABLEDICTIONARY
350
5D91
  3
AEC_PROPERTY_SET_DEFS
350
7AD1
  3
ASE_INDEX_DICTIONARY
350
7BFA
  3
DWGPROPS
350
7D9A
  0
DICTIONARY
  5
5F12
330
8
100
AcDbDictionary
280
     1
281
     1
  0
DICTIONARY
  5
7D2B
330
2
100
AcDbDictionary
280
     1
281
     1
  3
ACAD_LAYERSTATES
360
7D2C
  0
DICTIONARY
  5
5EF6
330
10
100
AcDbDictionary
280
     1
281
     1
  3
ADSK_XREC_LAYER_RECONCILED
360
5EF7
  0
DICTIONARY
  5
5EF8
330
2F
100
AcDbDictionary
280
     1
281
     1
  3
ADSK_XREC_LAYER_RECONCILED
360
5EF9
  0
DICTIONARY
  5
5EFA
330
31
100
AcDbDictionary
280
     1
281
     1
  3
ADSK_XREC_LAYER_RECONCILED
360
5EFB
  0
DICTIONARY
  5
5EFC
330
35
100
AcDbDictionary
280
     1
281
     1
  3
ADSK_XREC_LAYER_RECONCILED
360
5EFD
  0
DICTIONARY
  5
5EFE
330
38
100
AcDbDictionary
280
     1
281
     1
  3
ADSK_XREC_LAYER_RECONCILED
360
5EFF
  0
DICTIONARY
  5
5F00
330
3C
100
AcDbDictionary
280
     1
281
     1
  3
ADSK_XREC_LAYER_RECONCILED
360
5F01
  0
DICTIONARY
  5
5F02
330
3D
100
AcDbDictionary
280
     1
281
     1
  3
ADSK_XREC_LAYER_RECONCILED
360
5F03
  0
DICTIONARY
  5
5F04
330
3A2
100
AcDbDictionary
280
     1
281
     1
  3
ADSK_XREC_LAYER_RECONCILED
360
5F05
  0
DICTIONARY
  5
5F06
330
3BBA
100
AcDbDictionary
280
     1
281
     1
  3
ADSK_XREC_LAYER_RECONCILED
360
5F07
  0
DICTIONARY
  5
5F08
330
3BBB
100
AcDbDictionary
280
     1
281
     1
  3
ADSK_XREC_LAYER_RECONCILED
360
5F09
  0
DICTIONARY
  5
5F0A
330
5116
100
AcDbDictionary
280
     1
281
     1
  3
ADSK_XREC_LAYER_RECONCILED
360
5F0B
  0
DICTIONARY
  5
5F0C
330
5117
100
AcDbDictionary
280
     1
281
     1
  3
ADSK_XREC_LAYER_RECONCILED
360
5F0D
  0
DICTIONARY
  5
178
330
1E
100
AcDbDictionary
280
     1
281
     1
  3
ACAD_LAYOUTSELFREF
360
5E8D
  3
ACAD_SORTENTS
360
6C03
  0
DICTIONARY
  5
17A
330
1A
100
AcDbDictionary
280
     1
281
     1
  3
ACAD_LAYOUTSELFREF
360
5E8C
  0
DICTIONARY
  5
7DC8
330
7C68
100
AcDbDictionary
280
     1
281
     1
  3
ACAD_MTEXT_RT
360
7DC9
  0
DICTIONARY
  5
7DCA
330
7D77
100
AcDbDictionary
280
     1
281
     1
  3
ACAD_MTEXT_RT
360
7DCB
  0
DICTIONARY
  5
7D9B
330
9AC
100
AcDbDictionary
280
     1
281
     1
  3
ACAD_XREC_ROUNDTRIP
360
7D9C
  0
DICTIONARY
  5
5ECD
102
{ACAD_REACTORS
330
C
102
}
330
C
100
AcDbDictionary
281
     1
  0
DICTIONARY
  5
D
102
{ACAD_REACTORS
330
C
102
}
330
C
100
AcDbDictionary
281
     1
  0
DICTIONARY
  5
19
102
{ACAD_REACTORS
330
C
102
}
330
C
100
AcDbDictionary
281
     1
  3
Model
350
5E95
  3
ﾚｲｱｳﾄ1
350
5E96
  0
DICTIONARY
  5
5EA0
102
{ACAD_REACTORS
330
C
102
}
330
C
100
AcDbDictionary
281
     1
  3
ByBlock
350
5EA9
  3
ByLayer
350
5EA1
  3
Global
350
5EB1
  0
DICTIONARY
  5
5EF2
102
{ACAD_REACTORS
330
C
102
}
330
C
100
AcDbDictionary
281
     1
  3
Standard
350
5EF3
  0
DICTIONARY
  5
16
102
{ACAD_REACTORS
330
C
102
}
330
C
100
AcDbDictionary
281
     1
  3
STANDARD
350
17
  0
DICTIONARY
  5
18
102
{ACAD_REACTORS
330
C
102
}
330
C
100
AcDbDictionary
281
     1
  0
ACDBDICTIONARYWDFLT
  5
E
102
{ACAD_REACTORS
330
C
102
}
330
C
100
AcDbDictionary
281
     1
  3
Normal
350
F
100
AcDbDictionaryWithDefault
340
F
  0
DICTIONARY
  5
5ED0
102
{ACAD_REACTORS
330
C
102
}
330
C
100
AcDbDictionary
281
     1
  3
A0
350
5ED1
  3
A1
350
5ED2
  3
A2
350
5ED3
  3
A3
350
5ED4
  3
A4
350
5ED5
  3
A5
350
5ED6
  3
A6
350
5ED7
  3
A7
350
5ED8
  3
A8
350
5ED9
  3
A9
350
5EDA
  3
B0
350
5EDB
  3
B1
350
5EDC
  3
B2
350
5EDD
  3
B3
350
5EDE
  3
B4
350
5EDF
  3
B5
350
5EE0
  3
B6
350
5EE1
  3
B7
350
5EE2
  3
B8
350
5EE3
  3
B9
350
5EE4
  3
C0
350
5EE5
  3
C1
350
5EE6
  3
C2
350
5EE7
  3
C3
350
5EE8
  3
C4
350
5EE9
  3
C5
350
5EEA
  3
C6
350
5EEB
  3
C7
350
5EEC
  3
C8
350
5EED
  3
C9
350
5EEE
  3
D0
350
5EEF
  3
D1
350
5EF0
  3
D2
350
5EF1
  0
DICTIONARY
  5
5ECE
102
{ACAD_REACTORS
330
C
102
}
330
C
100
AcDbDictionary
281
     1
  3
Standard
350
5ECF
  0
DICTIONARY
  5
5EB9
102
{ACAD_REACTORS
330
C
102
}
330
C
100
AcDbDictionary
281
     1
  3
2dWireframe
350
5EBF
  3
3D Hidden
350
5EC1
  3
3dWireframe
350
5EC0
  3
Basic
350
5EBE
  3
Brighten
350
5EC5
  3
ColorChange
350
5EC9
  3
Conceptual
350
5EC2
  3
Dim
350
5EC4
  3
EdgeColorOff
350
5ECC
  3
Facepattern
350
5EC8
  3
Flat
350
5EBA
  3
FlatWithEdges
350
5EBB
  3
Gouraud
350
5EBC
  3
GouraudWithEdges
350
5EBD
  3
JitterOff
350
5ECA
  3
Linepattern
350
5EC7
  3
OverhangOff
350
5ECB
  3
Realistic
350
5EC3
  3
Thicken
350
5EC6
  0
XRECORD
  5
7D99
102
{ACAD_REACTORS
330
C
102
}
330
C
100
AcDbXrecord
280
     1
 90
        1
330
5ECF
  0
DICTIONARY
  5
5D91
102
{ACAD_REACTORS
330
C
102
}
330
C
100
AcDbDictionary
281
     1
  3
CANNOSCALE
350
5F4F
  3
CMLEADERSTYLE
350
5F4E
  3
CTABLESTYLE
350
5F4D
  3
DIMASSOC
350
5D92
  3
INDEXCTL
350
5F51
  3
SORTENTS
350
5F50
  3
XCLIPFRAME
350
7D97
  0
DICTIONARY
  5
7AD1
102
{ACAD_REACTORS
330
C
102
}
330
C
100
AcDbDictionary
281
     1
  0
DICTIONARY
  5
7BFA
102
{ACAD_REACTORS
330
C
102
}
330
C
100
AcDbDictionary
281
     1
  3
ASEBlockHierarchyIndexRecord
350
7BFB
1001
DCO15
1040
1730100310.562
  0
XRECORD
  5
7D9A
102
{ACAD_REACTORS
330
C
102
}
330
C
100
AcDbXrecord
280
     1
  1
DWGPROPS COOKIE
  2

  3

  4

  6

  7

  8
cadm
  9

300
=
301
=
302
=
303
=
304
=
305
=
306
=
307
=
308
=
309
=
 40
1.226893506944444
 41
2452286.555658658
 42
2455827.521001875
  1

 90
        0
  0
DICTIONARY
  5
7D2C
102
{ACAD_REACTORS
330
7D2B
102
}
330
7D2B
100
AcDbDictionary
281
     1
  0
XRECORD
  5
5EF7
102
{ACAD_REACTORS
330
5EF6
102
}
330
5EF6
100
AcDbXrecord
280
     1
290
     1
  0
XRECORD
  5
5EF9
102
{ACAD_REACTORS
330
5EF8
102
}
330
5EF8
100
AcDbXrecord
280
     1
290
     1
  0
XRECORD
  5
5EFB
102
{ACAD_REACTORS
330
5EFA
102
}
330
5EFA
100
AcDbXrecord
280
     1
290
     1
  0
XRECORD
  5
5EFD
102
{ACAD_REACTORS
330
5EFC
102
}
330
5EFC
100
AcDbXrecord
280
     1
290
     1
  0
XRECORD
  5
5EFF
102
{ACAD_REACTORS
330
5EFE
102
}
330
5EFE
100
AcDbXrecord
280
     1
290
     1
  0
XRECORD
  5
5F01
102
{ACAD_REACTORS
330
5F00
102
}
330
5F00
100
AcDbXrecord
280
     1
290
     1
  0
XRECORD
  5
5F03
102
{ACAD_REACTORS
330
5F02
102
}
330
5F02
100
AcDbXrecord
280
     1
290
     1
  0
XRECORD
  5
5F05
102
{ACAD_REACTORS
330
5F04
102
}
330
5F04
100
AcDbXrecord
280
     1
290
     1
  0
XRECORD
  5
5F07
102
{ACAD_REACTORS
330
5F06
102
}
330
5F06
100
AcDbXrecord
280
     1
290
     1
  0
XRECORD
  5
5F09
102
{ACAD_REACTORS
330
5F08
102
}
330
5F08
100
AcDbXrecord
280
     1
290
     1
  0
XRECORD
  5
5F0B
102
{ACAD_REACTORS
330
5F0A
102
}
330
5F0A
100
AcDbXrecord
280
     1
290
     1
  0
XRECORD
  5
5F0D
102
{ACAD_REACTORS
330
5F0C
102
}
330
5F0C
100
AcDbXrecord
280
     1
290
     1
  0
XRECORD
  5
5E8D
102
{ACAD_REACTORS
330
178
102
}
330
178
100
AcDbXrecord
280
     1
340
1E
  0
SORTENTSTABLE
  5
6C03
102
{ACAD_REACTORS
330
178
102
}
330
178
100
AcDbSortentsTable
330
1E
331
B4
  5
B4
331
5E39
  5
5E39
331
6BCE
  5
6BD1
331
B5
  5
B5
331
5E3A
  5
5E3A
331
6BC6
  5
6BC8
331
5E98
  5
5E98
331
4C5A
  5
4C5A
331
6BB3
  5
6BB5
331
6BBC
  5
6BBE
331
6BC8
  5
6BCB
331
2260
  5
2260
331
6BC9
  5
6BCC
331
6BAD
  5
6BAD
331
2261
  5
2261
331
6BB6
  5
6BB8
331
57FE
  5
57FE
331
6BBF
  5
6BC1
331
1C9A
  5
1C9A
331
6BCB
  5
6BCD
331
1C9B
  5
1C9B
331
BF3
  5
BF3
331
6BB0
  5
6BB2
331
6BA8
  5
6BA8
331
6BCD
  5
6BD0
  0
XRECORD
  5
5E8C
102
{ACAD_REACTORS
330
17A
102
}
330
17A
100
AcDbXrecord
280
     1
340
1A
  0
XRECORD
  5
7DC9
102
{ACAD_REACTORS
330
7DC8
102
}
330
7DC8
100
AcDbXrecord
280
     1
 40
4437.0
  1
\A1;\U+22056
  0
XRECORD
  5
7DCB
102
{ACAD_REACTORS
330
7DCA
102
}
330
7DCA
100
AcDbXrecord
280
     1
 40
4437.0
  1
\A1;\U+22056
  0
XRECORD
  5
7D9C
102
{ACAD_REACTORS
330
7D9B
102
}
330
7D9B
100
AcDbXrecord
280
     1
102
SHADEPLOT
 70
     0
  0
LAYOUT
  5
5E95
102
{ACAD_XDICTIONARY
360
7D9D
102
}
102
{ACAD_REACTORS
330
19
102
}
330
19
100
AcDbPlotSettings
  1

  2
Canon LBP3800 LIPSLX
  4
A4
  6

 40
5.873749732971191
 41
5.873747825622557
 42
5.873748779296875
 43
5.873748779296875
 44
209.9733276367186
 45
296.9259948730469
 46
0.0
 47
0.0
 48
0.0
 49
0.0
140
0.0
141
0.0
142
1.0
143
91.09717642980728
 70
 11952
 72
     0
 73
     1
 74
     0
  7
monochrome.ctb
 75
     0
147
0.0109772886404501
148
6757.347994690398
149
9466.901190714972
100
AcDbLayout
  1
Model
 70
     1
 71
     0
 10
0.0
 20
0.0
 11
12.0
 21
9.0
 12
0.0
 22
0.0
 32
0.0
 14
0.0
 24
0.0
 34
0.0
 15
0.0
 25
0.0
 35
0.0
146
0.0
 13
0.0
 23
0.0
 33
0.0
 16
1.0
 26
0.0
 36
0.0
 17
0.0
 27
1.0
 37
0.0
 76
     0
330
1E
331
5E99
1001
ACAD_PSEXT
1000
Canon LBP3800 LIPSLX
1000
Canon LBP3800 LIPSLX
1000
IP_192.168.54.50
1000

1070
     0
  0
LAYOUT
  5
5E96
102
{ACAD_XDICTIONARY
360
7D9F
102
}
102
{ACAD_REACTORS
330
19
102
}
330
19
100
AcDbPlotSettings
  1

  2
Canon LBP3800 LIPSLX
  4

  6

 40
0.0
 41
0.0
 42
0.0
 43
0.0
 44
0.0
 45
0.0
 46
0.0
 47
0.0
 48
0.0
 49
0.0
140
0.0
141
0.0
142
1.0
143
1.0
 70
   688
 72
     0
 73
     0
 74
     5
  7
monochrome.ctb
 75
    16
147
1.0
148
0.0
149
0.0
100
AcDbLayout
  1
ﾚｲｱｳﾄ1
 70
     1
 71
     1
 10
-5.873749
 20
-5.87375
 11
204.099579
 21
291.1369009999999
 12
0.0
 22
0.0
 32
0.0
 14
4.273573
 24
5.205245999999998
 34
0.0
 15
194.610095
 25
283.0697009999997
 35
0.0
146
0.0
 13
0.0
 23
0.0
 33
0.0
 16
1.0
 26
0.0
 36
0.0
 17
0.0
 27
1.0
 37
0.0
 76
     0
330
1A
  0
MATERIAL
  5
5EA9
102
{ACAD_XDICTIONARY
360
5EAA
102
}
102
{ACAD_REACTORS
330
5EA0
102
}
330
5EA0
100
AcDbMaterial
  1
ByBlock
 72
     0
 43
0.0208333333333333
 43
0.0
 43
0.0
 43
0.0
 43
0.0
 43
0.0208333333333333
 43
0.0
 43
0.0
 43
0.0
 43
0.0
 43
1.0
 43
0.0
 43
0.0
 43
0.0
 43
0.0
 43
1.0
 77
     0
 47
0.0208333333333333
 47
0.0
 47
0.0
 47
0.0
 47
0.0
 47
0.0208333333333333
 47
0.0
 47
0.0
 47
0.0
 47
0.0
 47
1.0
 47
0.0
 47
0.0
 47
0.0
 47
0.0
 47
1.0
171
     0
 49
0.0208333333333333
 49
0.0
 49
0.0
 49
0.0
 49
0.0
 49
0.0208333333333333
 49
0.0
 49
0.0
 49
0.0
 49
0.0
 49
1.0
 49
0.0
 49
0.0
 49
0.0
 49
0.0
 49
1.0
175
     0
142
0.0208333333333333
142
0.0
142
0.0
142
0.0
142
0.0
142
0.0208333333333333
142
0.0
142
0.0
142
0.0
142
0.0
142
1.0
142
0.0
142
0.0
142
0.0
142
0.0
142
1.0
179
     0
144
0.0208333333333333
144
0.0
144
0.0
144
0.0
144
0.0
144
0.0208333333333333
144
0.0
144
0.0
144
0.0
144
0.0
144
1.0
144
0.0
144
0.0
144
0.0
144
0.0
144
1.0
147
0.0208333333333333
147
0.0
147
0.0
147
0.0
147
0.0
147
0.0208333333333333
147
0.0
147
0.0
147
0.0
147
0.0
147
1.0
147
0.0
147
0.0
147
0.0
147
0.0
147
1.0
  0
MATERIAL
  5
5EA1
102
{ACAD_XDICTIONARY
360
5EA2
102
}
102
{ACAD_REACTORS
330
5EA0
102
}
330
5EA0
100
AcDbMaterial
  1
ByLayer
 72
     0
 43
0.0208333333333333
 43
0.0
 43
0.0
 43
0.0
 43
0.0
 43
0.0208333333333333
 43
0.0
 43
0.0
 43
0.0
 43
0.0
 43
1.0
 43
0.0
 43
0.0
 43
0.0
 43
0.0
 43
1.0
 77
     0
 47
0.0208333333333333
 47
0.0
 47
0.0
 47
0.0
 47
0.0
 47
0.0208333333333333
 47
0.0
 47
0.0
 47
0.0
 47
0.0
 47
1.0
 47
0.0
 47
0.0
 47
0.0
 47
0.0
 47
1.0
171
     0
 49
0.0208333333333333
 49
0.0
 49
0.0
 49
0.0
 49
0.0
 49
0.0208333333333333
 49
0.0
 49
0.0
 49
0.0
 49
0.0
 49
1.0
 49
0.0
 49
0.0
 49
0.0
 49
0.0
 49
1.0
175
     0
142
0.0208333333333333
142
0.0
142
0.0
142
0.0
142
0.0
142
0.0208333333333333
142
0.0
142
0.0
142
0.0
142
0.0
142
1.0
142
0.0
142
0.0
142
0.0
142
0.0
142
1.0
179
     0
144
0.0208333333333333
144
0.0
144
0.0
144
0.0
144
0.0
144
0.0208333333333333
144
0.0
144
0.0
144
0.0
144
0.0
144
1.0
144
0.0
144
0.0
144
0.0
144
0.0
144
1.0
147
0.0208333333333333
147
0.0
147
0.0
147
0.0
147
0.0
147
0.0208333333333333
147
0.0
147
0.0
147
0.0
147
0.0
147
1.0
147
0.0
147
0.0
147
0.0
147
0.0
147
1.0
  0
MATERIAL
  5
5EB1
102
{ACAD_XDICTIONARY
360
5EB2
102
}
102
{ACAD_REACTORS
330
5EA0
102
}
330
5EA0
100
AcDbMaterial
  1
Global
 72
     0
 43
0.0208333333333333
 43
0.0
 43
0.0
 43
0.0
 43
0.0
 43
0.0208333333333333
 43
0.0
 43
0.0
 43
0.0
 43
0.0
 43
1.0
 43
0.0
 43
0.0
 43
0.0
 43
0.0
 43
1.0
 77
     0
 47
0.0208333333333333
 47
0.0
 47
0.0
 47
0.0
 47
0.0
 47
0.0208333333333333
 47
0.0
 47
0.0
 47
0.0
 47
0.0
 47
1.0
 47
0.0
 47
0.0
 47
0.0
 47
0.0
 47
1.0
171
     0
 49
0.0208333333333333
 49
0.0
 49
0.0
 49
0.0
 49
0.0
 49
0.0208333333333333
 49
0.0
 49
0.0
 49
0.0
 49
0.0
 49
1.0
 49
0.0
 49
0.0
 49
0.0
 49
0.0
 49
1.0
175
     0
142
0.0208333333333333
142
0.0
142
0.0
142
0.0
142
0.0
142
0.0208333333333333
142
0.0
142
0.0
142
0.0
142
0.0
142
1.0
142
0.0
142
0.0
142
0.0
142
0.0
142
1.0
179
     0
144
0.0208333333333333
144
0.0
144
0.0
144
0.0
144
0.0
144
0.0208333333333333
144
0.0
144
0.0
144
0.0
144
0.0
144
1.0
144
0.0
144
0.0
144
0.0
144
0.0
144
1.0
147
0.0208333333333333
147
0.0
147
0.0
147
0.0
147
0.0
147
0.0208333333333333
147
0.0
147
0.0
147
0.0
147
0.0
147
1.0
147
0.0
147
0.0
147
0.0
147
0.0
147
1.0
  0
MLEADERSTYLE
  5
5EF3
102
{ACAD_REACTORS
330
5EF2
102
}
330
5EF2
100
AcDbMLeaderStyle
170
     2
171
     1
172
     0
 90
        2
 40
0.0
 41
0.0
173
     1
 91
-1056964608
340
13
 92
       -2
290
     1
 42
0.09
291
     1
 43
0.36
  3
Standard
 44
0.18
300

342
11
174
     1
178
     6
175
     1
176
     0
 93
-1056964608
 45
0.18
292
     0
297
     0
 46
0.18
 94
-1056964608
 47
1.0
 49
1.0
140
1.0
293
     1
141
0.0
294
     1
177
     0
142
1.0
295
     0
296
     0
143
0.125
1001
ACAD_MLEADERVER
1070
     2
  0
MLINESTYLE
  5
17
102
{ACAD_REACTORS
330
16
102
}
330
16
100
AcDbMlineStyle
  2
STANDARD
 70
     0
  3

 62
   256
 51
90.0
 52
90.0
 71
     2
 49
0.5
 62
   256
  6
BYLAYER
 49
-0.5
 62
   256
  6
BYLAYER
  0
ACDBPLACEHOLDER
  5
F
102
{ACAD_REACTORS
330
E
102
}
330
E
  0
SCALE
  5
5ED1
102
{ACAD_REACTORS
330
5ED0
102
}
330
5ED0
100
AcDbScale
 70
     0
300
1:1
140
1.0
141
1.0
290
     1
  0
SCALE
  5
5ED2
102
{ACAD_REACTORS
330
5ED0
102
}
330
5ED0
100
AcDbScale
 70
     0
300
1:2
140
1.0
141
2.0
290
     0
  0
SCALE
  5
5ED3
102
{ACAD_REACTORS
330
5ED0
102
}
330
5ED0
100
AcDbScale
 70
     0
300
1:4
140
1.0
141
4.0
290
     0
  0
SCALE
  5
5ED4
102
{ACAD_REACTORS
330
5ED0
102
}
330
5ED0
100
AcDbScale
 70
     0
300
1:5
140
1.0
141
5.0
290
     0
  0
SCALE
  5
5ED5
102
{ACAD_REACTORS
330
5ED0
102
}
330
5ED0
100
AcDbScale
 70
     0
300
1:8
140
1.0
141
8.0
290
     0
  0
SCALE
  5
5ED6
102
{ACAD_REACTORS
330
5ED0
102
}
330
5ED0
100
AcDbScale
 70
     0
300
1:10
140
1.0
141
10.0
290
     0
  0
SCALE
  5
5ED7
102
{ACAD_REACTORS
330
5ED0
102
}
330
5ED0
100
AcDbScale
 70
     0
300
1:16
140
1.0
141
16.0
290
     0
  0
SCALE
  5
5ED8
102
{ACAD_REACTORS
330
5ED0
102
}
330
5ED0
100
AcDbScale
 70
     0
300
1:20
140
1.0
141
20.0
290
     0
  0
SCALE
  5
5ED9
102
{ACAD_REACTORS
330
5ED0
102
}
330
5ED0
100
AcDbScale
 70
     0
300
1:30
140
1.0
141
30.0
290
     0
  0
SCALE
  5
5EDA
102
{ACAD_REACTORS
330
5ED0
102
}
330
5ED0
100
AcDbScale
 70
     0
300
1:40
140
1.0
141
40.0
290
     0
  0
SCALE
  5
5EDB
102
{ACAD_REACTORS
330
5ED0
102
}
330
5ED0
100
AcDbScale
 70
     0
300
1:50
140
1.0
141
50.0
290
     0
  0
SCALE
  5
5EDC
102
{ACAD_REACTORS
330
5ED0
102
}
330
5ED0
100
AcDbScale
 70
     0
300
1:100
140
1.0
141
100.0
290
     0
  0
SCALE
  5
5EDD
102
{ACAD_REACTORS
330
5ED0
102
}
330
5ED0
100
AcDbScale
 70
     0
300
2:1
140
2.0
141
1.0
290
     0
  0
SCALE
  5
5EDE
102
{ACAD_REACTORS
330
5ED0
102
}
330
5ED0
100
AcDbScale
 70
     0
300
4:1
140
4.0
141
1.0
290
     0
  0
SCALE
  5
5EDF
102
{ACAD_REACTORS
330
5ED0
102
}
330
5ED0
100
AcDbScale
 70
     0
300
8:1
140
8.0
141
1.0
290
     0
  0
SCALE
  5
5EE0
102
{ACAD_REACTORS
330
5ED0
102
}
330
5ED0
100
AcDbScale
 70
     0
300
10:1
140
10.0
141
1.0
290
     0
  0
SCALE
  5
5EE1
102
{ACAD_REACTORS
330
5ED0
102
}
330
5ED0
100
AcDbScale
 70
     0
300
100:1
140
100.0
141
1.0
290
     0
  0
SCALE
  5
5EE2
102
{ACAD_REACTORS
330
5ED0
102
}
330
5ED0
100
AcDbScale
 70
     0
300
1/128" = 1'-0"
140
0.0078125
141
12.0
290
     0
  0
SCALE
  5
5EE3
102
{ACAD_REACTORS
330
5ED0
102
}
330
5ED0
100
AcDbScale
 70
     0
300
1/64" = 1'-0"
140
0.015625
141
12.0
290
     0
  0
SCALE
  5
5EE4
102
{ACAD_REACTORS
330
5ED0
102
}
330
5ED0
100
AcDbScale
 70
     0
300
1/32" = 1'-0"
140
0.03125
141
12.0
290
     0
  0
SCALE
  5
5EE5
102
{ACAD_REACTORS
330
5ED0
102
}
330
5ED0
100
AcDbScale
 70
     0
300
1/16" = 1'-0"
140
0.0625
141
12.0
290
     0
  0
SCALE
  5
5EE6
102
{ACAD_REACTORS
330
5ED0
102
}
330
5ED0
100
AcDbScale
 70
     0
300
3/32" = 1'-0"
140
0.09375
141
12.0
290
     0
  0
SCALE
  5
5EE7
102
{ACAD_REACTORS
330
5ED0
102
}
330
5ED0
100
AcDbScale
 70
     0
300
1/8" = 1'-0"
140
0.125
141
12.0
290
     0
  0
SCALE
  5
5EE8
102
{ACAD_REACTORS
330
5ED0
102
}
330
5ED0
100
AcDbScale
 70
     0
300
3/16" = 1'-0"
140
0.1875
141
12.0
290
     0
  0
SCALE
  5
5EE9
102
{ACAD_REACTORS
330
5ED0
102
}
330
5ED0
100
AcDbScale
 70
     0
300
1/4" = 1'-0"
140
0.25
141
12.0
290
     0
  0
SCALE
  5
5EEA
102
{ACAD_REACTORS
330
5ED0
102
}
330
5ED0
100
AcDbScale
 70
     0
300
3/8" = 1'-0"
140
0.375
141
12.0
290
     0
  0
SCALE
  5
5EEB
102
{ACAD_REACTORS
330
5ED0
102
}
330
5ED0
100
AcDbScale
 70
     0
300
1/2" = 1'-0"
140
0.5
141
12.0
290
     0
  0
SCALE
  5
5EEC
102
{ACAD_REACTORS
330
5ED0
102
}
330
5ED0
100
AcDbScale
 70
     0
300
3/4" = 1'-0"
140
0.75
141
12.0
290
     0
  0
SCALE
  5
5EED
102
{ACAD_REACTORS
330
5ED0
102
}
330
5ED0
100
AcDbScale
 70
     0
300
1" = 1'-0"
140
1.0
141
12.0
290
     0
  0
SCALE
  5
5EEE
102
{ACAD_REACTORS
330
5ED0
102
}
330
5ED0
100
AcDbScale
 70
     0
300
1-1/2" = 1'-0"
140
1.5
141
12.0
290
     0
  0
SCALE
  5
5EEF
102
{ACAD_REACTORS
330
5ED0
102
}
330
5ED0
100
AcDbScale
 70
     0
300
3" = 1'-0"
140
3.0
141
12.0
290
     0
  0
SCALE
  5
5EF0
102
{ACAD_REACTORS
330
5ED0
102
}
330
5ED0
100
AcDbScale
 70
     0
300
6" = 1'-0"
140
6.0
141
12.0
290
     0
  0
SCALE
  5
5EF1
102
{ACAD_REACTORS
330
5ED0
102
}
330
5ED0
100
AcDbScale
 70
     0
300
1'-0" = 1'-0"
140
12.0
141
12.0
290
     0
  0
TABLESTYLE
  5
5ECF
102
{ACAD_XDICTIONARY
360
5F0E
102
}
102
{ACAD_REACTORS
330
5ECE
102
}
330
5ECE
100
AcDbTableStyle
  3
Standard
 70
     0
 71
     0
 40
0.06
 41
0.06
280
     0
281
     0
  7
STANDARD
140
0.18
170
     2
 62
     0
 63
     7
283
     0
274
    -2
284
     1
 64
     0
275
    -2
285
     1
 65
     0
276
    -2
286
     1
 66
     0
277
    -2
287
     1
 67
     0
278
    -2
288
     1
 68
     0
279
    -2
289
     1
 69
     0
  7
STANDARD
140
0.25
170
     5
 62
     0
 63
     7
283
     0
274
    -2
284
     1
 64
     0
275
    -2
285
     1
 65
     0
276
    -2
286
     1
 66
     0
277
    -2
287
     1
 67
     0
278
    -2
288
     1
 68
     0
279
    -2
289
     1
 69
     0
  7
STANDARD
140
0.18
170
     5
 62
     0
 63
     7
283
     0
274
    -2
284
     1
 64
     0
275
    -2
285
     1
 65
     0
276
    -2
286
     1
 66
     0
277
    -2
287
     1
 67
     0
278
    -2
288
     1
 68
     0
279
    -2
289
     1
 69
     0
  0
VISUALSTYLE
  5
5EBF
102
{ACAD_XDICTIONARY
360
7DAB
102
}
102
{ACAD_REACTORS
330
5EB9
102
}
330
5EB9
100
AcDbVisualStyle
  2

 70
     4
 71
     0
 72
     2
 73
     0
 90
        0
 40
-0.6
 41
-30.0
 62
     5
 63
     7
 74
     1
 91
        4
 64
     7
 65
   257
 75
     1
175
     1
 42
1.0
 92
        0
 66
   257
 43
1.0
 76
     1
 77
     6
 78
     2
 67
     7
 79
     5
170
     0
171
     0
290
     0
174
     0
 93
        1
 44
0.0
173
     0
291
     0
 45
0.0
1001
ACAD
1000
AcDbSavedByObjectVersion
1070
     0
  0
VISUALSTYLE
  5
5EC1
102
{ACAD_XDICTIONARY
360
7DAF
102
}
102
{ACAD_REACTORS
330
5EB9
102
}
330
5EB9
100
AcDbVisualStyle
  2

 70
     6
 71
     1
 72
     2
 73
     2
 90
        0
 40
-0.6
 41
-30.0
 62
     5
 63
     7
 74
     2
 91
        2
 64
     7
 65
   257
 75
     2
175
     1
 42
179.0
 92
        0
 66
   257
 43
1.0
 76
     1
 77
     6
 78
     2
 67
     7
 79
     3
170
     0
171
     0
290
     0
174
     0
 93
        1
 44
0.0
173
     0
291
     0
 45
0.0
1001
ACAD
1000
AcDbSavedByObjectVersion
1070
     0
  0
VISUALSTYLE
  5
5EC0
102
{ACAD_XDICTIONARY
360
7DAD
102
}
102
{ACAD_REACTORS
330
5EB9
102
}
330
5EB9
100
AcDbVisualStyle
  2

 70
     5
 71
     0
 72
     2
 73
     0
 90
        0
 40
-0.6
 41
-30.0
 62
     5
 63
     7
 74
     1
 91
        4
 64
     7
 65
   257
 75
     1
175
     1
 42
1.0
 92
        0
 66
   257
 43
1.0
 76
     1
 77
     6
 78
     2
 67
     7
 79
     5
170
     0
171
     0
290
     0
174
     0
 93
        1
 44
0.0
173
     0
291
     0
 45
0.0
1001
ACAD
1000
AcDbSavedByObjectVersion
1070
     0
  0
VISUALSTYLE
  5
5EBE
102
{ACAD_XDICTIONARY
360
7DA9
102
}
102
{ACAD_REACTORS
330
5EB9
102
}
330
5EB9
100
AcDbVisualStyle
  2

 70
     7
 71
     1
 72
     0
 73
     1
 90
        0
 40
-0.6
 41
-30.0
 62
     5
 63
     7
 74
     0
 91
        4
 64
     7
 65
   257
 75
     1
175
     1
 42
1.0
 92
        8
 66
     7
 43
1.0
 76
     1
 77
     6
 78
     2
 67
     7
 79
     5
170
     0
171
     0
290
     0
174
     0
 93
        1
 44
0.0
173
     0
291
     1
 45
0.0
1001
ACAD
1000
AcDbSavedByObjectVersion
1070
     0
  0
VISUALSTYLE
  5
5EC5
102
{ACAD_XDICTIONARY
360
7DB7
102
}
102
{ACAD_REACTORS
330
5EB9
102
}
330
5EB9
100
AcDbVisualStyle
  2

 70
    12
 71
     2
 72
     2
 73
     0
 90
        0
 40
-0.6
 41
-30.0
 62
     5
 63
     7
 74
     1
 91
        4
 64
     7
 65
   257
 75
     1
175
     1
 42
1.0
 92
        8
 66
     7
 43
1.0
 76
     1
 77
     6
 78
     2
 67
     7
 79
     5
170
     0
171
     0
290
     0
174
     0
 93
        1
 44
50.0
173
     0
291
     1
 45
0.0
1001
ACAD
1000
AcDbSavedByObjectVersion
1070
     0
  0
VISUALSTYLE
  5
5EC9
102
{ACAD_XDICTIONARY
360
7DBF
102
}
102
{ACAD_REACTORS
330
5EB9
102
}
330
5EB9
100
AcDbVisualStyle
  2

 70
    16
 71
     2
 72
     2
 73
     3
 90
        0
 40
-0.6
 41
-30.0
 62
     5
 63
     8
 74
     1
 91
        4
 64
     7
 65
   257
 75
     1
175
     1
 42
1.0
 92
        8
 66
     8
 43
1.0
 76
     1
 77
     6
 78
     2
 67
     7
 79
     5
170
     0
171
     0
290
     0
174
     0
 93
        1
 44
0.0
173
     0
291
     1
 45
0.0
1001
ACAD
1000
AcDbSavedByObjectVersion
1070
     0
  0
VISUALSTYLE
  5
5EC2
102
{ACAD_XDICTIONARY
360
7DB1
102
}
102
{ACAD_REACTORS
330
5EB9
102
}
330
5EB9
100
AcDbVisualStyle
  2

 70
     9
 71
     3
 72
     2
 73
     0
 90
        0
 40
-0.6
 41
-30.0
 62
     5
 63
     7
 74
     2
 91
        2
 64
     7
 65
   257
 75
     1
175
     1
 42
179.0
 92
        8
 66
     7
 43
1.0
 76
     1
 77
     6
 78
     2
 67
     7
 79
     3
170
     0
171
     0
290
     0
174
     0
 93
        1
 44
0.0
173
     0
291
     0
 45
0.0
1001
ACAD
1000
AcDbSavedByObjectVersion
1070
     0
  0
VISUALSTYLE
  5
5EC4
102
{ACAD_XDICTIONARY
360
7DB5
102
}
102
{ACAD_REACTORS
330
5EB9
102
}
330
5EB9
100
AcDbVisualStyle
  2

 70
    11
 71
     2
 72
     2
 73
     0
 90
        0
 40
-0.6
 41
-30.0
 62
     5
 63
     7
 74
     1
 91
        4
 64
     7
 65
   257
 75
     1
175
     1
 42
1.0
 92
        8
 66
     7
 43
1.0
 76
     1
 77
     6
 78
     2
 67
     7
 79
     5
170
     0
171
     0
290
     0
174
     0
 93
        1
 44
-50.0
173
     0
291
     1
 45
0.0
1001
ACAD
1000
AcDbSavedByObjectVersion
1070
     0
  0
VISUALSTYLE
  5
5ECC
102
{ACAD_XDICTIONARY
360
7DC5
102
}
102
{ACAD_REACTORS
330
5EB9
102
}
330
5EB9
100
AcDbVisualStyle
  2

 70
    22
 71
     2
 72
     2
 73
     0
 90
        0
 40
-0.6
 41
-30.0
 62
     5
 63
     7
 74
     1
 91
        4
 64
     7
 65
   257
 75
     1
175
     1
 42
1.0
 92
        8
 66
     7
 43
1.0
 76
     1
 77
     6
 78
     2
 67
     7
 79
     5
170
     0
171
     0
290
     0
174
     0
 93
        1
 44
0.0
173
     0
291
     1
 45
0.0
1001
ACAD
1000
AcDbSavedByObjectVersion
1070
     0
  0
VISUALSTYLE
  5
5EC8
102
{ACAD_XDICTIONARY
360
7DBD
102
}
102
{ACAD_REACTORS
330
5EB9
102
}
330
5EB9
100
AcDbVisualStyle
  2

 70
    15
 71
     2
 72
     2
 73
     0
 90
        0
 40
-0.6
 41
-30.0
 62
     5
 63
     7
 74
     1
 91
        4
 64
     7
 65
   257
 75
     1
175
     1
 42
1.0
 92
        8
 66
     7
 43
1.0
 76
     1
 77
     6
 78
     2
 67
     7
 79
     5
170
     0
171
     0
290
     0
174
     0
 93
        1
 44
0.0
173
     0
291
     1
 45
0.0
1001
ACAD
1000
AcDbSavedByObjectVersion
1070
     0
  0
VISUALSTYLE
  5
5EBA
102
{ACAD_XDICTIONARY
360
7DA1
102
}
102
{ACAD_REACTORS
330
5EB9
102
}
330
5EB9
100
AcDbVisualStyle
  2

 70
     0
 71
     2
 72
     1
 73
     1
 90
        2
 40
-0.6
 41
30.0
 62
     5
 63
     7
 74
     0
 91
        4
 64
     7
 65
   257
 75
     1
175
     1
 42
1.0
 92
        8
 66
     7
 43
1.0
 76
     1
 77
     6
 78
     2
 67
     7
 79
     5
170
     0
171
     0
290
     0
174
     0
 93
       13
 44
0.0
173
     0
291
     1
 45
0.0
1001
ACAD
1000
AcDbSavedByObjectVersion
1070
     0
  0
VISUALSTYLE
  5
5EBB
102
{ACAD_XDICTIONARY
360
7DA3
102
}
102
{ACAD_REACTORS
330
5EB9
102
}
330
5EB9
100
AcDbVisualStyle
  2

 70
     1
 71
     2
 72
     1
 73
     1
 90
        2
 40
-0.6
 41
30.0
 62
     5
 63
     7
 74
     1
 91
        4
 64
     7
 65
   257
 75
     1
175
     1
 42
1.0
 92
        0
 66
   257
 43
1.0
 76
     1
 77
     6
 78
     2
 67
     7
 79
     5
170
     0
171
     0
290
     0
174
     0
 93
       13
 44
0.0
173
     0
291
     1
 45
0.0
1001
ACAD
1000
AcDbSavedByObjectVersion
1070
     0
  0
VISUALSTYLE
  5
5EBC
102
{ACAD_XDICTIONARY
360
7DA5
102
}
102
{ACAD_REACTORS
330
5EB9
102
}
330
5EB9
100
AcDbVisualStyle
  2

 70
     2
 71
     2
 72
     2
 73
     1
 90
        2
 40
-0.6
 41
30.0
 62
     5
 63
     7
 74
     0
 91
        4
 64
     7
 65
   257
 75
     1
175
     1
 42
1.0
 92
        0
 66
     7
 43
1.0
 76
     1
 77
     6
 78
     2
 67
     7
 79
     5
170
     0
171
     0
290
     0
174
     0
 93
       13
 44
0.0
173
     0
291
     1
 45
0.0
1001
ACAD
1000
AcDbSavedByObjectVersion
1070
     0
  0
VISUALSTYLE
  5
5EBD
102
{ACAD_XDICTIONARY
360
7DA7
102
}
102
{ACAD_REACTORS
330
5EB9
102
}
330
5EB9
100
AcDbVisualStyle
  2

 70
     3
 71
     2
 72
     2
 73
     1
 90
        2
 40
-0.6
 41
30.0
 62
     5
 63
     7
 74
     1
 91
        4
 64
     7
 65
   257
 75
     1
175
     1
 42
1.0
 92
        0
 66
   257
 43
1.0
 76
     1
 77
     6
 78
     2
 67
     7
 79
     5
170
     0
171
     0
290
     0
174
     0
 93
       13
 44
0.0
173
     0
291
     1
 45
0.0
1001
ACAD
1000
AcDbSavedByObjectVersion
1070
     0
  0
VISUALSTYLE
  5
5ECA
102
{ACAD_XDICTIONARY
360
7DC1
102
}
102
{ACAD_REACTORS
330
5EB9
102
}
330
5EB9
100
AcDbVisualStyle
  2

 70
    20
 71
     2
 72
     2
 73
     0
 90
        0
 40
-0.6
 41
-30.0
 62
     5
 63
     7
 74
     1
 91
        4
 64
     7
 65
   257
 75
     1
175
     1
 42
1.0
 92
       10
 66
     7
 43
1.0
 76
     1
 77
     6
 78
     2
 67
     7
 79
     5
170
     0
171
     0
290
     0
174
     0
 93
        1
 44
0.0
173
     0
291
     1
 45
0.0
1001
ACAD
1000
AcDbSavedByObjectVersion
1070
     0
  0
VISUALSTYLE
  5
5EC7
102
{ACAD_XDICTIONARY
360
7DBB
102
}
102
{ACAD_REACTORS
330
5EB9
102
}
330
5EB9
100
AcDbVisualStyle
  2

 70
    14
 71
     2
 72
     2
 73
     0
 90
        0
 40
-0.6
 41
-30.0
 62
     5
 63
     7
 74
     1
 91
        4
 64
     7
 65
   257
 75
     7
175
     7
 42
1.0
 92
        8
 66
     7
 43
1.0
 76
     1
 77
     6
 78
     2
 67
     7
 79
     5
170
     0
171
     0
290
     0
174
     0
 93
        1
 44
0.0
173
     0
291
     1
 45
0.0
1001
ACAD
1000
AcDbSavedByObjectVersion
1070
     0
  0
VISUALSTYLE
  5
5ECB
102
{ACAD_XDICTIONARY
360
7DC3
102
}
102
{ACAD_REACTORS
330
5EB9
102
}
330
5EB9
100
AcDbVisualStyle
  2

 70
    21
 71
     2
 72
     2
 73
     0
 90
        0
 40
-0.6
 41
-30.0
 62
     5
 63
     7
 74
     1
 91
        4
 64
     7
 65
   257
 75
     1
175
     1
 42
1.0
 92
        9
 66
     7
 43
1.0
 76
     1
 77
     6
 78
     2
 67
     7
 79
     5
170
     0
171
     0
290
     0
174
     0
 93
        1
 44
0.0
173
     0
291
     1
 45
0.0
1001
ACAD
1000
AcDbSavedByObjectVersion
1070
     0
  0
VISUALSTYLE
  5
5EC3
102
{ACAD_XDICTIONARY
360
7DB3
102
}
102
{ACAD_REACTORS
330
5EB9
102
}
330
5EB9
100
AcDbVisualStyle
  2

 70
     8
 71
     2
 72
     2
 73
     0
 90
        0
 40
-0.6
 41
-30.0
 62
     5
 63
     7
 74
     1
 91
        0
 64
     7
 65
   257
 75
     1
175
     1
 42
1.0
 92
        8
 66
     8
 43
1.0
 76
     1
 77
     6
 78
     2
 67
     7
 79
     5
170
     0
171
     0
290
     0
174
     0
 93
       13
 44
0.0
173
     0
291
     0
 45
0.0
1001
ACAD
1000
AcDbSavedByObjectVersion
1070
     0
  0
VISUALSTYLE
  5
5EC6
102
{ACAD_XDICTIONARY
360
7DB9
102
}
102
{ACAD_REACTORS
330
5EB9
102
}
330
5EB9
100
AcDbVisualStyle
  2

 70
    13
 71
     2
 72
     2
 73
     0
 90
        0
 40
-0.6
 41
-30.0
 62
     5
 63
     7
 74
     1
 91
        4
 64
     7
 65
   257
 75
     1
175
     1
 42
1.0
 92
       12
 66
     7
 43
1.0
 76
     1
 77
     6
 78
     2
 67
     7
 79
     5
170
     0
171
     0
290
     0
174
     0
 93
        1
 44
0.0
173
     0
291
     1
 45
0.0
1001
ACAD
1000
AcDbSavedByObjectVersion
1070
     0
  0
DICTIONARYVAR
  5
5F4F
102
{ACAD_REACTORS
330
5D91
102
}
330
5D91
100
DictionaryVariables
280
     0
  1
1:1
  0
DICTIONARYVAR
  5
5F4E
102
{ACAD_REACTORS
330
5D91
102
}
330
5D91
100
DictionaryVariables
280
     0
  1
STANDARD
  0
DICTIONARYVAR
  5
5F4D
102
{ACAD_REACTORS
330
5D91
102
}
330
5D91
100
DictionaryVariables
280
     0
  1
STANDARD
  0
DICTIONARYVAR
  5
5D92
102
{ACAD_REACTORS
330
5D91
102
}
330
5D91
100
DictionaryVariables
280
     0
  1
1
  0
DICTIONARYVAR
  5
5F51
102
{ACAD_REACTORS
330
5D91
102
}
330
5D91
100
DictionaryVariables
280
     0
  1
0
  0
DICTIONARYVAR
  5
5F50
102
{ACAD_REACTORS
330
5D91
102
}
330
5D91
100
DictionaryVariables
280
     0
  1
127
  0
DICTIONARYVAR
  5
7D97
102
{ACAD_REACTORS
330
5D91
102
}
330
5D91
100
DictionaryVariables
280
     0
  1
2
  0
XRECORD
  5
7BFB
102
{ACAD_REACTORS
330
7BFA
102
}
330
7BFA
100
AcDbXrecord
280
     1
330
7C45
330
7C46
330
7C4E
330
7C4F
330
7C57
330
7C58
330
7C60
330
7C61
330
7820
330
7821
330
7829
330
782A
330
7832
330
7833
330
783B
330
783C
330
7844
330
7845
330
784D
330
784E
330
771E
330
771F
330
7858
330
7859
330
7B27
330
7B28
330
7C69
330
7D78
330
7D80
330
7D81
330
7D89
330
7D8A
330
7B03
330
7B04
330
7B0C
330
7B0D
330
7B15
330
7B16
330
7D66
330
7D67
330
7D6F
330
7D70
  0
DICTIONARY
  5
7D9D
330
5E95
100
AcDbDictionary
280
     1
281
     1
  3
ACAD_XREC_ROUNDTRIP
360
7D9E
  0
DICTIONARY
  5
7D9F
330
5E96
100
AcDbDictionary
280
     1
281
     1
  3
ACAD_XREC_ROUNDTRIP
360
7DA0
  0
DICTIONARY
  5
5EAA
330
5EA9
100
AcDbDictionary
280
     1
281
     1
  3
ACAD_XREC_ROUNDTRIP
360
7C07
  3
BUMPTILE
360
5EAC
  3
DIFFUSETILE
360
5EAB
  3
OPACITYTILE
360
5EAF
  3
REFLECTIONTILE
360
5EAE
  3
REFRACTIONTILE
360
5EB0
  3
SPECULARTILE
360
5EAD
  0
DICTIONARY
  5
5EA2
330
5EA1
100
AcDbDictionary
280
     1
281
     1
  3
ACAD_XREC_ROUNDTRIP
360
7C06
  3
BUMPTILE
360
5EA4
  3
DIFFUSETILE
360
5EA3
  3
OPACITYTILE
360
5EA7
  3
REFLECTIONTILE
360
5EA6
  3
REFRACTIONTILE
360
5EA8
  3
SPECULARTILE
360
5EA5
  0
DICTIONARY
  5
5EB2
330
5EB1
100
AcDbDictionary
280
     1
281
     1
  3
ACAD_XREC_ROUNDTRIP
360
7C08
  3
BUMPTILE
360
5EB4
  3
DIFFUSETILE
360
5EB3
  3
OPACITYTILE
360
5EB7
  3
REFLECTIONTILE
360
5EB6
  3
REFRACTIONTILE
360
5EB8
  3
SPECULARTILE
360
5EB5
  0
DICTIONARY
  5
5F0E
330
5ECF
100
AcDbDictionary
280
     1
281
     1
  3
ACAD_ROUNDTRIP_2008_TABLESTYLE_CELLSTYLEMAP
360
7D98
  3
ACAD_XREC_ROUNDTRIP
360
7DC7
  0
DICTIONARY
  5
7DAB
330
5EBF
100
AcDbDictionary
280
     1
281
     1
  3
ACAD_XREC_ROUNDTRIP
360
7DAC
  0
DICTIONARY
  5
7DAF
330
5EC1
100
AcDbDictionary
280
     1
281
     1
  3
ACAD_XREC_ROUNDTRIP
360
7DB0
  0
DICTIONARY
  5
7DAD
330
5EC0
100
AcDbDictionary
280
     1
281
     1
  3
ACAD_XREC_ROUNDTRIP
360
7DAE
  0
DICTIONARY
  5
7DA9
330
5EBE
100
AcDbDictionary
280
     1
281
     1
  3
ACAD_XREC_ROUNDTRIP
360
7DAA
  0
DICTIONARY
  5
7DB7
330
5EC5
100
AcDbDictionary
280
     1
281
     1
  3
ACAD_XREC_ROUNDTRIP
360
7DB8
  0
DICTIONARY
  5
7DBF
330
5EC9
100
AcDbDictionary
280
     1
281
     1
  3
ACAD_XREC_ROUNDTRIP
360
7DC0
  0
DICTIONARY
  5
7DB1
330
5EC2
100
AcDbDictionary
280
     1
281
     1
  3
ACAD_XREC_ROUNDTRIP
360
7DB2
  0
DICTIONARY
  5
7DB5
330
5EC4
100
AcDbDictionary
280
     1
281
     1
  3
ACAD_XREC_ROUNDTRIP
360
7DB6
  0
DICTIONARY
  5
7DC5
330
5ECC
100
AcDbDictionary
280
     1
281
     1
  3
ACAD_XREC_ROUNDTRIP
360
7DC6
  0
DICTIONARY
  5
7DBD
330
5EC8
100
AcDbDictionary
280
     1
281
     1
  3
ACAD_XREC_ROUNDTRIP
360
7DBE
  0
DICTIONARY
  5
7DA1
330
5EBA
100
AcDbDictionary
280
     1
281
     1
  3
ACAD_XREC_ROUNDTRIP
360
7DA2
  0
DICTIONARY
  5
7DA3
330
5EBB
100
AcDbDictionary
280
     1
281
     1
  3
ACAD_XREC_ROUNDTRIP
360
7DA4
  0
DICTIONARY
  5
7DA5
330
5EBC
100
AcDbDictionary
280
     1
281
     1
  3
ACAD_XREC_ROUNDTRIP
360
7DA6
  0
DICTIONARY
  5
7DA7
330
5EBD
100
AcDbDictionary
280
     1
281
     1
  3
ACAD_XREC_ROUNDTRIP
360
7DA8
  0
DICTIONARY
  5
7DC1
330
5ECA
100
AcDbDictionary
280
     1
281
     1
  3
ACAD_XREC_ROUNDTRIP
360
7DC2
  0
DICTIONARY
  5
7DBB
330
5EC7
100
AcDbDictionary
280
     1
281
     1
  3
ACAD_XREC_ROUNDTRIP
360
7DBC
  0
DICTIONARY
  5
7DC3
330
5ECB
100
AcDbDictionary
280
     1
281
     1
  3
ACAD_XREC_ROUNDTRIP
360
7DC4
  0
DICTIONARY
  5
7DB3
330
5EC3
100
AcDbDictionary
280
     1
281
     1
  3
ACAD_XREC_ROUNDTRIP
360
7DB4
  0
DICTIONARY
  5
7DB9
330
5EC6
100
AcDbDictionary
280
     1
281
     1
  3
ACAD_XREC_ROUNDTRIP
360
7DBA
  0
XRECORD
  5
7D9E
102
{ACAD_REACTORS
330
7D9D
102
}
330
7D9D
100
AcDbXrecord
280
     1
102
SHADEPLOT
 70
     0
102
SHADEPLOTRESLEVEL
 70
     2
102
SHADEPLOTCUSTOMDPI
 70
   300
  0
XRECORD
  5
7DA0
102
{ACAD_REACTORS
330
7D9F
102
}
330
7D9F
100
AcDbXrecord
280
     1
102
SHADEPLOT
 70
     0
102
SHADEPLOTRESLEVEL
 70
     2
102
SHADEPLOTCUSTOMDPI
 70
   300
  0
XRECORD
  5
7C07
102
{ACAD_REACTORS
330
5EAA
102
}
330
5EAA
100
AcDbXrecord
280
     1
102
MATERIAL
148
0.0
149
0.0
149
0.0
 93
        0
 94
      127
282
     0
 72
     0
 77
     0
171
     0
175
     0
179
     0
273
     0
  0
XRECORD
  5
5EAC
102
{ACAD_REACTORS
330
5EAA
102
}
330
5EAA
100
AcDbXrecord
280
     1
270
     1
271
     1
  0
XRECORD
  5
5EAB
102
{ACAD_REACTORS
330
5EAA
102
}
330
5EAA
100
AcDbXrecord
280
     1
270
     1
271
     1
  0
XRECORD
  5
5EAF
102
{ACAD_REACTORS
330
5EAA
102
}
330
5EAA
100
AcDbXrecord
280
     1
270
     1
271
     1
  0
XRECORD
  5
5EAE
102
{ACAD_REACTORS
330
5EAA
102
}
330
5EAA
100
AcDbXrecord
280
     1
270
     1
271
     1
  0
XRECORD
  5
5EB0
102
{ACAD_REACTORS
330
5EAA
102
}
330
5EAA
100
AcDbXrecord
280
     1
270
     1
271
     1
  0
XRECORD
  5
5EAD
102
{ACAD_REACTORS
330
5EAA
102
}
330
5EAA
100
AcDbXrecord
280
     1
270
     1
271
     1
  0
XRECORD
  5
7C06
102
{ACAD_REACTORS
330
5EA2
102
}
330
5EA2
100
AcDbXrecord
280
     1
102
MATERIAL
148
0.0
149
0.0
149
0.0
 93
        0
 94
      127
282
     0
 72
     0
 77
     0
171
     0
175
     0
179
     0
273
     0
  0
XRECORD
  5
5EA4
102
{ACAD_REACTORS
330
5EA2
102
}
330
5EA2
100
AcDbXrecord
280
     1
270
     1
271
     1
  0
XRECORD
  5
5EA3
102
{ACAD_REACTORS
330
5EA2
102
}
330
5EA2
100
AcDbXrecord
280
     1
270
     1
271
     1
  0
XRECORD
  5
5EA7
102
{ACAD_REACTORS
330
5EA2
102
}
330
5EA2
100
AcDbXrecord
280
     1
270
     1
271
     1
  0
XRECORD
  5
5EA6
102
{ACAD_REACTORS
330
5EA2
102
}
330
5EA2
100
AcDbXrecord
280
     1
270
     1
271
     1
  0
XRECORD
  5
5EA8
102
{ACAD_REACTORS
330
5EA2
102
}
330
5EA2
100
AcDbXrecord
280
     1
270
     1
271
     1
  0
XRECORD
  5
5EA5
102
{ACAD_REACTORS
330
5EA2
102
}
330
5EA2
100
AcDbXrecord
280
     1
270
     1
271
     1
  0
XRECORD
  5
7C08
102
{ACAD_REACTORS
330
5EB2
102
}
330
5EB2
100
AcDbXrecord
280
     1
102
MATERIAL
148
0.0
149
0.0
149
0.0
 93
        0
 94
      127
282
     0
 72
     0
 77
     0
171
     0
175
     0
179
     0
273
     0
  0
XRECORD
  5
5EB4
102
{ACAD_REACTORS
330
5EB2
102
}
330
5EB2
100
AcDbXrecord
280
     1
270
     1
271
     1
  0
XRECORD
  5
5EB3
102
{ACAD_REACTORS
330
5EB2
102
}
330
5EB2
100
AcDbXrecord
280
     1
270
     1
271
     1
  0
XRECORD
  5
5EB7
102
{ACAD_REACTORS
330
5EB2
102
}
330
5EB2
100
AcDbXrecord
280
     1
270
     1
271
     1
  0
XRECORD
  5
5EB6
102
{ACAD_REACTORS
330
5EB2
102
}
330
5EB2
100
AcDbXrecord
280
     1
270
     1
271
     1
  0
XRECORD
  5
5EB8
102
{ACAD_REACTORS
330
5EB2
102
}
330
5EB2
100
AcDbXrecord
280
     1
270
     1
271
     1
  0
XRECORD
  5
5EB5
102
{ACAD_REACTORS
330
5EB2
102
}
330
5EB2
100
AcDbXrecord
280
     1
270
     1
271
     1
  0
CELLSTYLEMAP
  5
7D98
102
{ACAD_REACTORS
330
5F0E
102
}
330
5F0E
100
AcDbCellStyleMap
 90
        3
300
CELLSTYLE
  1
TABLEFORMAT_BEGIN
 90
        5
170
     1
 91
        0
 92
    32768
 62
   257
 93
        1
300
CONTENTFORMAT
  1
CONTENTFORMAT_BEGIN
 90
        0
 91
        0
 92
      512
 93
        0
300

 40
0.0
140
1.0
 94
        5
 62
     0
340
11
144
0.25
309
CONTENTFORMAT_END
171
     1
301
MARGIN
  1
CELLMARGIN_BEGIN
 40
0.06
 40
0.06
 40
0.06
 40
0.06
 40
0.18
 40
0.18
309
CELLMARGIN_END
 94
        6
 95
        1
302
GRIDFORMAT
  1
GRIDFORMAT_BEGIN
 90
        0
 91
        1
 62
     0
 92
       -2
340
0
 93
        0
 40
0.045
309
GRIDFORMAT_END
 95
        2
302
GRIDFORMAT
  1
GRIDFORMAT_BEGIN
 90
        0
 91
        1
 62
     0
 92
       -2
340
0
 93
        0
 40
0.045
309
GRIDFORMAT_END
 95
        4
302
GRIDFORMAT
  1
GRIDFORMAT_BEGIN
 90
        0
 91
        1
 62
     0
 92
       -2
340
0
 93
        0
 40
0.045
309
GRIDFORMAT_END
 95
        8
302
GRIDFORMAT
  1
GRIDFORMAT_BEGIN
 90
        0
 91
        1
 62
     0
 92
       -2
340
0
 93
        0
 40
0.045
309
GRIDFORMAT_END
 95
       16
302
GRIDFORMAT
  1
GRIDFORMAT_BEGIN
 90
        0
 91
        1
 62
     0
 92
       -2
340
0
 93
        0
 40
0.045
309
GRIDFORMAT_END
 95
       32
302
GRIDFORMAT
  1
GRIDFORMAT_BEGIN
 90
        0
 91
        1
 62
     0
 92
       -2
340
0
 93
        0
 40
0.045
309
GRIDFORMAT_END
309
TABLEFORMAT_END
  1
CELLSTYLE_BEGIN
 90
        1
 91
        1
300
_TITLE
309
CELLSTYLE_END
300
CELLSTYLE
  1
TABLEFORMAT_BEGIN
 90
        5
170
     1
 91
        0
 92
        0
 62
   257
 93
        1
300
CONTENTFORMAT
  1
CONTENTFORMAT_BEGIN
 90
        0
 91
        0
 92
      512
 93
        0
300

 40
0.0
140
1.0
 94
        5
 62
     0
340
11
144
0.18
309
CONTENTFORMAT_END
171
     1
301
MARGIN
  1
CELLMARGIN_BEGIN
 40
0.06
 40
0.06
 40
0.06
 40
0.06
 40
0.18
 40
0.18
309
CELLMARGIN_END
 94
        6
 95
        1
302
GRIDFORMAT
  1
GRIDFORMAT_BEGIN
 90
        0
 91
        1
 62
     0
 92
       -2
340
0
 93
        0
 40
0.045
309
GRIDFORMAT_END
 95
        2
302
GRIDFORMAT
  1
GRIDFORMAT_BEGIN
 90
        0
 91
        1
 62
     0
 92
       -2
340
0
 93
        0
 40
0.045
309
GRIDFORMAT_END
 95
        4
302
GRIDFORMAT
  1
GRIDFORMAT_BEGIN
 90
        0
 91
        1
 62
     0
 92
       -2
340
0
 93
        0
 40
0.045
309
GRIDFORMAT_END
 95
        8
302
GRIDFORMAT
  1
GRIDFORMAT_BEGIN
 90
        0
 91
        1
 62
     0
 92
       -2
340
0
 93
        0
 40
0.045
309
GRIDFORMAT_END
 95
       16
302
GRIDFORMAT
  1
GRIDFORMAT_BEGIN
 90
        0
 91
        1
 62
     0
 92
       -2
340
0
 93
        0
 40
0.045
309
GRIDFORMAT_END
 95
       32
302
GRIDFORMAT
  1
GRIDFORMAT_BEGIN
 90
        0
 91
        1
 62
     0
 92
       -2
340
0
 93
        0
 40
0.045
309
GRIDFORMAT_END
309
TABLEFORMAT_END
  1
CELLSTYLE_BEGIN
 90
        2
 91
        1
300
_HEADER
309
CELLSTYLE_END
300
CELLSTYLE
  1
TABLEFORMAT_BEGIN
 90
        5
170
     1
 91
        0
 92
        0
 62
   257
 93
        1
300
CONTENTFORMAT
  1
CONTENTFORMAT_BEGIN
 90
        0
 91
        0
 92
      512
 93
        0
300

 40
0.0
140
1.0
 94
        2
 62
     0
340
11
144
0.18
309
CONTENTFORMAT_END
171
     1
301
MARGIN
  1
CELLMARGIN_BEGIN
 40
0.06
 40
0.06
 40
0.06
 40
0.06
 40
0.18
 40
0.18
309
CELLMARGIN_END
 94
        6
 95
        1
302
GRIDFORMAT
  1
GRIDFORMAT_BEGIN
 90
        0
 91
        1
 62
     0
 92
       -2
340
0
 93
        0
 40
0.045
309
GRIDFORMAT_END
 95
        2
302
GRIDFORMAT
  1
GRIDFORMAT_BEGIN
 90
        0
 91
        1
 62
     0
 92
       -2
340
0
 93
        0
 40
0.045
309
GRIDFORMAT_END
 95
        4
302
GRIDFORMAT
  1
GRIDFORMAT_BEGIN
 90
        0
 91
        1
 62
     0
 92
       -2
340
0
 93
        0
 40
0.045
309
GRIDFORMAT_END
 95
        8
302
GRIDFORMAT
  1
GRIDFORMAT_BEGIN
 90
        0
 91
        1
 62
     0
 92
       -2
340
0
 93
        0
 40
0.045
309
GRIDFORMAT_END
 95
       16
302
GRIDFORMAT
  1
GRIDFORMAT_BEGIN
 90
        0
 91
        1
 62
     0
 92
       -2
340
0
 93
        0
 40
0.045
309
GRIDFORMAT_END
 95
       32
302
GRIDFORMAT
  1
GRIDFORMAT_BEGIN
 90
        0
 91
        1
 62
     0
 92
       -2
340
0
 93
        0
 40
0.045
309
GRIDFORMAT_END
309
TABLEFORMAT_END
  1
CELLSTYLE_BEGIN
 90
        3
 91
        2
300
_DATA
309
CELLSTYLE_END
  0
XRECORD
  5
7DC7
102
{ACAD_REACTORS
330
5F0E
102
}
330
5F0E
100
AcDbXrecord
280
     1
102
ACAD_ROUNDTRIP_PRE2007_TABLESTYLE
 90
      512
 91
        0
  1

 92
      512
 93
        0
  2

 94
      512
 95
        0
  3

  0
XRECORD
  5
7DAC
102
{ACAD_REACTORS
330
7DAB
102
}
330
7DAB
100
AcDbXrecord
280
     1
102
RTVSPropertyOp0
 70
     1
102
RTVSPropertyOp1
 70
     1
102
RTVSPropertyOp2
 70
     1
102
RTVSPropertyOp3
 70
     1
102
RTVSPropertyOp4
 70
     1
102
RTVSPropertyOp5
 70
     1
102
RTVSPropertyOp6
 70
     1
102
RTVSPropertyOp7
 70
     1
102
RTVSPropertyOp8
 70
     1
102
RTVSPropertyOp9
 70
     1
102
RTVSPropertyOp10
 70
     1
102
RTVSPropertyOp11
 70
     1
102
RTVSPropertyOp12
 70
     1
102
RTVSPropertyOp13
 70
     1
102
RTVSPropertyOp14
 70
     1
102
RTVSPropertyOp15
 70
     1
102
RTVSPropertyOp16
 70
     1
102
RTVSPropertyOp17
 70
     1
102
RTVSPropertyOp18
 70
     1
102
RTVSPropertyOp19
 70
     1
102
RTVSPropertyOp20
 70
     1
102
RTVSPropertyOp21
 70
     1
102
RTVSPropertyOp22
 70
     1
102
RTVSPropertyOp23
 70
     1
102
RTVSPropertyOp24
 70
     1
102
RTVSPropertyOp25
 70
     1
102
RTVSPropertyOp26
 70
     1
102
RTVSPropertyOp27
 70
     1
  0
XRECORD
  5
7DB0
102
{ACAD_REACTORS
330
7DAF
102
}
330
7DAF
100
AcDbXrecord
280
     1
102
RTVSPropertyOp0
 70
     1
102
RTVSPropertyOp1
 70
     1
102
RTVSPropertyOp2
 70
     1
102
RTVSPropertyOp3
 70
     1
102
RTVSPropertyOp4
 70
     1
102
RTVSPropertyOp5
 70
     1
102
RTVSPropertyOp6
 70
     1
102
RTVSPropertyOp7
 70
     1
102
RTVSPropertyOp8
 70
     1
102
RTVSPropertyOp9
 70
     1
102
RTVSPropertyOp10
 70
     1
102
RTVSPropertyOp11
 70
     1
102
RTVSPropertyOp12
 70
     1
102
RTVSPropertyOp13
 70
     1
102
RTVSPropertyOp14
 70
     1
102
RTVSPropertyOp15
 70
     1
102
RTVSPropertyOp16
 70
     1
102
RTVSPropertyOp17
 70
     1
102
RTVSPropertyOp18
 70
     1
102
RTVSPropertyOp19
 70
     1
102
RTVSPropertyOp20
 70
     1
102
RTVSPropertyOp21
 70
     1
102
RTVSPropertyOp22
 70
     1
102
RTVSPropertyOp23
 70
     1
102
RTVSPropertyOp24
 70
     1
102
RTVSPropertyOp25
 70
     1
102
RTVSPropertyOp26
 70
     1
102
RTVSPropertyOp27
 70
     1
  0
XRECORD
  5
7DAE
102
{ACAD_REACTORS
330
7DAD
102
}
330
7DAD
100
AcDbXrecord
280
     1
102
RTVSPropertyOp0
 70
     1
102
RTVSPropertyOp1
 70
     1
102
RTVSPropertyOp2
 70
     1
102
RTVSPropertyOp3
 70
     1
102
RTVSPropertyOp4
 70
     1
102
RTVSPropertyOp5
 70
     1
102
RTVSPropertyOp6
 70
     1
102
RTVSPropertyOp7
 70
     1
102
RTVSPropertyOp8
 70
     1
102
RTVSPropertyOp9
 70
     1
102
RTVSPropertyOp10
 70
     1
102
RTVSPropertyOp11
 70
     1
102
RTVSPropertyOp12
 70
     1
102
RTVSPropertyOp13
 70
     1
102
RTVSPropertyOp14
 70
     1
102
RTVSPropertyOp15
 70
     1
102
RTVSPropertyOp16
 70
     1
102
RTVSPropertyOp17
 70
     1
102
RTVSPropertyOp18
 70
     1
102
RTVSPropertyOp19
 70
     1
102
RTVSPropertyOp20
 70
     1
102
RTVSPropertyOp21
 70
     1
102
RTVSPropertyOp22
 70
     1
102
RTVSPropertyOp23
 70
     1
102
RTVSPropertyOp24
 70
     1
102
RTVSPropertyOp25
 70
     1
102
RTVSPropertyOp26
 70
     1
102
RTVSPropertyOp27
 70
     1
  0
XRECORD
  5
7DAA
102
{ACAD_REACTORS
330
7DA9
102
}
330
7DA9
100
AcDbXrecord
280
     1
102
RTVSPropertyOp0
 70
     1
102
RTVSPropertyOp1
 70
     1
102
RTVSPropertyOp2
 70
     1
102
RTVSPropertyOp3
 70
     1
102
RTVSPropertyOp4
 70
     1
102
RTVSPropertyOp5
 70
     1
102
RTVSPropertyOp6
 70
     1
102
RTVSPropertyOp7
 70
     1
102
RTVSPropertyOp8
 70
     1
102
RTVSPropertyOp9
 70
     1
102
RTVSPropertyOp10
 70
     1
102
RTVSPropertyOp11
 70
     1
102
RTVSPropertyOp12
 70
     1
102
RTVSPropertyOp13
 70
     1
102
RTVSPropertyOp14
 70
     1
102
RTVSPropertyOp15
 70
     1
102
RTVSPropertyOp16
 70
     1
102
RTVSPropertyOp17
 70
     1
102
RTVSPropertyOp18
 70
     1
102
RTVSPropertyOp19
 70
     1
102
RTVSPropertyOp20
 70
     1
102
RTVSPropertyOp21
 70
     1
102
RTVSPropertyOp22
 70
     1
102
RTVSPropertyOp23
 70
     1
102
RTVSPropertyOp24
 70
     1
102
RTVSPropertyOp25
 70
     1
102
RTVSPropertyOp26
 70
     1
102
RTVSPropertyOp27
 70
     1
  0
XRECORD
  5
7DB8
102
{ACAD_REACTORS
330
7DB7
102
}
330
7DB7
100
AcDbXrecord
280
     1
102
RTVSPropertyOp0
 70
     1
102
RTVSPropertyOp1
 70
     1
102
RTVSPropertyOp2
 70
     1
102
RTVSPropertyOp3
 70
     1
102
RTVSPropertyOp4
 70
     1
102
RTVSPropertyOp5
 70
     1
102
RTVSPropertyOp6
 70
     1
102
RTVSPropertyOp7
 70
     1
102
RTVSPropertyOp8
 70
     1
102
RTVSPropertyOp9
 70
     1
102
RTVSPropertyOp10
 70
     1
102
RTVSPropertyOp11
 70
     1
102
RTVSPropertyOp12
 70
     1
102
RTVSPropertyOp13
 70
     1
102
RTVSPropertyOp14
 70
     1
102
RTVSPropertyOp15
 70
     1
102
RTVSPropertyOp16
 70
     1
102
RTVSPropertyOp17
 70
     1
102
RTVSPropertyOp18
 70
     1
102
RTVSPropertyOp19
 70
     1
102
RTVSPropertyOp20
 70
     1
102
RTVSPropertyOp21
 70
     1
102
RTVSPropertyOp22
 70
     1
102
RTVSPropertyOp23
 70
     1
102
RTVSPropertyOp24
 70
     1
102
RTVSPropertyOp25
 70
     1
102
RTVSPropertyOp26
 70
     1
102
RTVSPropertyOp27
 70
     1
  0
XRECORD
  5
7DC0
102
{ACAD_REACTORS
330
7DBF
102
}
330
7DBF
100
AcDbXrecord
280
     1
102
RTVSPropertyOp0
 70
     1
102
RTVSPropertyOp1
 70
     1
102
RTVSPropertyOp2
 70
     1
102
RTVSPropertyOp3
 70
     1
102
RTVSPropertyOp4
 70
     1
102
RTVSPropertyOp5
 70
     1
102
RTVSPropertyOp6
 70
     1
102
RTVSPropertyOp7
 70
     1
102
RTVSPropertyOp8
 70
     1
102
RTVSPropertyOp9
 70
     1
102
RTVSPropertyOp10
 70
     1
102
RTVSPropertyOp11
 70
     1
102
RTVSPropertyOp12
 70
     1
102
RTVSPropertyOp13
 70
     1
102
RTVSPropertyOp14
 70
     1
102
RTVSPropertyOp15
 70
     1
102
RTVSPropertyOp16
 70
     1
102
RTVSPropertyOp17
 70
     1
102
RTVSPropertyOp18
 70
     1
102
RTVSPropertyOp19
 70
     1
102
RTVSPropertyOp20
 70
     1
102
RTVSPropertyOp21
 70
     1
102
RTVSPropertyOp22
 70
     1
102
RTVSPropertyOp23
 70
     1
102
RTVSPropertyOp24
 70
     1
102
RTVSPropertyOp25
 70
     1
102
RTVSPropertyOp26
 70
     1
102
RTVSPropertyOp27
 70
     1
  0
XRECORD
  5
7DB2
102
{ACAD_REACTORS
330
7DB1
102
}
330
7DB1
100
AcDbXrecord
280
     1
102
RTVSPropertyOp0
 70
     1
102
RTVSPropertyOp1
 70
     1
102
RTVSPropertyOp2
 70
     1
102
RTVSPropertyOp3
 70
     1
102
RTVSPropertyOp4
 70
     1
102
RTVSPropertyOp5
 70
     1
102
RTVSPropertyOp6
 70
     1
102
RTVSPropertyOp7
 70
     1
102
RTVSPropertyOp8
 70
     1
102
RTVSPropertyOp9
 70
     1
102
RTVSPropertyOp10
 70
     1
102
RTVSPropertyOp11
 70
     1
102
RTVSPropertyOp12
 70
     1
102
RTVSPropertyOp13
 70
     1
102
RTVSPropertyOp14
 70
     1
102
RTVSPropertyOp15
 70
     1
102
RTVSPropertyOp16
 70
     1
102
RTVSPropertyOp17
 70
     1
102
RTVSPropertyOp18
 70
     1
102
RTVSPropertyOp19
 70
     1
102
RTVSPropertyOp20
 70
     1
102
RTVSPropertyOp21
 70
     1
102
RTVSPropertyOp22
 70
     1
102
RTVSPropertyOp23
 70
     1
102
RTVSPropertyOp24
 70
     1
102
RTVSPropertyOp25
 70
     1
102
RTVSPropertyOp26
 70
     1
102
RTVSPropertyOp27
 70
     1
  0
XRECORD
  5
7DB6
102
{ACAD_REACTORS
330
7DB5
102
}
330
7DB5
100
AcDbXrecord
280
     1
102
RTVSPropertyOp0
 70
     1
102
RTVSPropertyOp1
 70
     1
102
RTVSPropertyOp2
 70
     1
102
RTVSPropertyOp3
 70
     1
102
RTVSPropertyOp4
 70
     1
102
RTVSPropertyOp5
 70
     1
102
RTVSPropertyOp6
 70
     1
102
RTVSPropertyOp7
 70
     1
102
RTVSPropertyOp8
 70
     1
102
RTVSPropertyOp9
 70
     1
102
RTVSPropertyOp10
 70
     1
102
RTVSPropertyOp11
 70
     1
102
RTVSPropertyOp12
 70
     1
102
RTVSPropertyOp13
 70
     1
102
RTVSPropertyOp14
 70
     1
102
RTVSPropertyOp15
 70
     1
102
RTVSPropertyOp16
 70
     1
102
RTVSPropertyOp17
 70
     1
102
RTVSPropertyOp18
 70
     1
102
RTVSPropertyOp19
 70
     1
102
RTVSPropertyOp20
 70
     1
102
RTVSPropertyOp21
 70
     1
102
RTVSPropertyOp22
 70
     1
102
RTVSPropertyOp23
 70
     1
102
RTVSPropertyOp24
 70
     1
102
RTVSPropertyOp25
 70
     1
102
RTVSPropertyOp26
 70
     1
102
RTVSPropertyOp27
 70
     1
  0
XRECORD
  5
7DC6
102
{ACAD_REACTORS
330
7DC5
102
}
330
7DC5
100
AcDbXrecord
280
     1
102
RTVSPropertyOp0
 70
     0
102
RTVSPropertyOp1
 70
     0
102
RTVSPropertyOp2
 70
     0
102
RTVSPropertyOp3
 70
     0
102
RTVSPropertyOp4
 70
     0
102
RTVSPropertyOp5
 70
     0
102
RTVSPropertyOp6
 70
     0
102
RTVSPropertyOp7
 70
     0
102
RTVSPropertyOp8
 70
     0
102
RTVSPropertyOp9
 70
     0
102
RTVSPropertyOp10
 70
     0
102
RTVSPropertyOp11
 70
     0
102
RTVSPropertyOp12
 70
     0
102
RTVSPropertyOp13
 70
     0
102
RTVSPropertyOp14
 70
     2
102
RTVSPropertyOp15
 70
     0
102
RTVSPropertyOp16
 70
     0
102
RTVSPropertyOp17
 70
     0
102
RTVSPropertyOp18
 70
     0
102
RTVSPropertyOp19
 70
     0
102
RTVSPropertyOp20
 70
     0
102
RTVSPropertyOp21
 70
     0
102
RTVSPropertyOp22
 70
     0
102
RTVSPropertyOp23
 70
     0
102
RTVSPropertyOp24
 70
     0
102
RTVSPropertyOp25
 70
     0
102
RTVSPropertyOp26
 70
     0
102
RTVSPropertyOp27
 70
     0
  0
XRECORD
  5
7DBE
102
{ACAD_REACTORS
330
7DBD
102
}
330
7DBD
100
AcDbXrecord
280
     1
102
RTVSPropertyOp0
 70
     1
102
RTVSPropertyOp1
 70
     1
102
RTVSPropertyOp2
 70
     1
102
RTVSPropertyOp3
 70
     1
102
RTVSPropertyOp4
 70
     1
102
RTVSPropertyOp5
 70
     1
102
RTVSPropertyOp6
 70
     1
102
RTVSPropertyOp7
 70
     1
102
RTVSPropertyOp8
 70
     1
102
RTVSPropertyOp9
 70
     1
102
RTVSPropertyOp10
 70
     1
102
RTVSPropertyOp11
 70
     1
102
RTVSPropertyOp12
 70
     1
102
RTVSPropertyOp13
 70
     1
102
RTVSPropertyOp14
 70
     1
102
RTVSPropertyOp15
 70
     1
102
RTVSPropertyOp16
 70
     1
102
RTVSPropertyOp17
 70
     1
102
RTVSPropertyOp18
 70
     1
102
RTVSPropertyOp19
 70
     1
102
RTVSPropertyOp20
 70
     1
102
RTVSPropertyOp21
 70
     1
102
RTVSPropertyOp22
 70
     1
102
RTVSPropertyOp23
 70
     1
102
RTVSPropertyOp24
 70
     1
102
RTVSPropertyOp25
 70
     1
102
RTVSPropertyOp26
 70
     1
102
RTVSPropertyOp27
 70
     1
  0
XRECORD
  5
7DA2
102
{ACAD_REACTORS
330
7DA1
102
}
330
7DA1
100
AcDbXrecord
280
     1
102
RTVSPropertyOp0
 70
     1
102
RTVSPropertyOp1
 70
     1
102
RTVSPropertyOp2
 70
     1
102
RTVSPropertyOp3
 70
     1
102
RTVSPropertyOp4
 70
     1
102
RTVSPropertyOp5
 70
     1
102
RTVSPropertyOp6
 70
     1
102
RTVSPropertyOp7
 70
     1
102
RTVSPropertyOp8
 70
     1
102
RTVSPropertyOp9
 70
     1
102
RTVSPropertyOp10
 70
     1
102
RTVSPropertyOp11
 70
     1
102
RTVSPropertyOp12
 70
     1
102
RTVSPropertyOp13
 70
     1
102
RTVSPropertyOp14
 70
     1
102
RTVSPropertyOp15
 70
     1
102
RTVSPropertyOp16
 70
     1
102
RTVSPropertyOp17
 70
     1
102
RTVSPropertyOp18
 70
     1
102
RTVSPropertyOp19
 70
     1
102
RTVSPropertyOp20
 70
     1
102
RTVSPropertyOp21
 70
     1
102
RTVSPropertyOp22
 70
     1
102
RTVSPropertyOp23
 70
     1
102
RTVSPropertyOp24
 70
     1
102
RTVSPropertyOp25
 70
     1
102
RTVSPropertyOp26
 70
     1
102
RTVSPropertyOp27
 70
     1
  0
XRECORD
  5
7DA4
102
{ACAD_REACTORS
330
7DA3
102
}
330
7DA3
100
AcDbXrecord
280
     1
102
RTVSPropertyOp0
 70
     1
102
RTVSPropertyOp1
 70
     1
102
RTVSPropertyOp2
 70
     1
102
RTVSPropertyOp3
 70
     1
102
RTVSPropertyOp4
 70
     1
102
RTVSPropertyOp5
 70
     1
102
RTVSPropertyOp6
 70
     1
102
RTVSPropertyOp7
 70
     1
102
RTVSPropertyOp8
 70
     1
102
RTVSPropertyOp9
 70
     1
102
RTVSPropertyOp10
 70
     1
102
RTVSPropertyOp11
 70
     1
102
RTVSPropertyOp12
 70
     1
102
RTVSPropertyOp13
 70
     1
102
RTVSPropertyOp14
 70
     1
102
RTVSPropertyOp15
 70
     1
102
RTVSPropertyOp16
 70
     1
102
RTVSPropertyOp17
 70
     1
102
RTVSPropertyOp18
 70
     1
102
RTVSPropertyOp19
 70
     1
102
RTVSPropertyOp20
 70
     1
102
RTVSPropertyOp21
 70
     1
102
RTVSPropertyOp22
 70
     1
102
RTVSPropertyOp23
 70
     1
102
RTVSPropertyOp24
 70
     1
102
RTVSPropertyOp25
 70
     1
102
RTVSPropertyOp26
 70
     1
102
RTVSPropertyOp27
 70
     1
  0
XRECORD
  5
7DA6
102
{ACAD_REACTORS
330
7DA5
102
}
330
7DA5
100
AcDbXrecord
280
     1
102
RTVSPropertyOp0
 70
     1
102
RTVSPropertyOp1
 70
     1
102
RTVSPropertyOp2
 70
     1
102
RTVSPropertyOp3
 70
     1
102
RTVSPropertyOp4
 70
     1
102
RTVSPropertyOp5
 70
     1
102
RTVSPropertyOp6
 70
     1
102
RTVSPropertyOp7
 70
     1
102
RTVSPropertyOp8
 70
     1
102
RTVSPropertyOp9
 70
     1
102
RTVSPropertyOp10
 70
     1
102
RTVSPropertyOp11
 70
     1
102
RTVSPropertyOp12
 70
     1
102
RTVSPropertyOp13
 70
     1
102
RTVSPropertyOp14
 70
     1
102
RTVSPropertyOp15
 70
     1
102
RTVSPropertyOp16
 70
     1
102
RTVSPropertyOp17
 70
     1
102
RTVSPropertyOp18
 70
     1
102
RTVSPropertyOp19
 70
     1
102
RTVSPropertyOp20
 70
     1
102
RTVSPropertyOp21
 70
     1
102
RTVSPropertyOp22
 70
     1
102
RTVSPropertyOp23
 70
     1
102
RTVSPropertyOp24
 70
     1
102
RTVSPropertyOp25
 70
     1
102
RTVSPropertyOp26
 70
     1
102
RTVSPropertyOp27
 70
     1
  0
XRECORD
  5
7DA8
102
{ACAD_REACTORS
330
7DA7
102
}
330
7DA7
100
AcDbXrecord
280
     1
102
RTVSPropertyOp0
 70
     1
102
RTVSPropertyOp1
 70
     1
102
RTVSPropertyOp2
 70
     1
102
RTVSPropertyOp3
 70
     1
102
RTVSPropertyOp4
 70
     1
102
RTVSPropertyOp5
 70
     1
102
RTVSPropertyOp6
 70
     1
102
RTVSPropertyOp7
 70
     1
102
RTVSPropertyOp8
 70
     1
102
RTVSPropertyOp9
 70
     1
102
RTVSPropertyOp10
 70
     1
102
RTVSPropertyOp11
 70
     1
102
RTVSPropertyOp12
 70
     1
102
RTVSPropertyOp13
 70
     1
102
RTVSPropertyOp14
 70
     1
102
RTVSPropertyOp15
 70
     1
102
RTVSPropertyOp16
 70
     1
102
RTVSPropertyOp17
 70
     1
102
RTVSPropertyOp18
 70
     1
102
RTVSPropertyOp19
 70
     1
102
RTVSPropertyOp20
 70
     1
102
RTVSPropertyOp21
 70
     1
102
RTVSPropertyOp22
 70
     1
102
RTVSPropertyOp23
 70
     1
102
RTVSPropertyOp24
 70
     1
102
RTVSPropertyOp25
 70
     1
102
RTVSPropertyOp26
 70
     1
102
RTVSPropertyOp27
 70
     1
  0
XRECORD
  5
7DC2
102
{ACAD_REACTORS
330
7DC1
102
}
330
7DC1
100
AcDbXrecord
280
     1
102
RTVSPropertyOp0
 70
     0
102
RTVSPropertyOp1
 70
     0
102
RTVSPropertyOp2
 70
     0
102
RTVSPropertyOp3
 70
     0
102
RTVSPropertyOp4
 70
     0
102
RTVSPropertyOp5
 70
     0
102
RTVSPropertyOp6
 70
     0
102
RTVSPropertyOp7
 70
     0
102
RTVSPropertyOp8
 70
     0
102
RTVSPropertyOp9
 70
     0
102
RTVSPropertyOp10
 70
     0
102
RTVSPropertyOp11
 70
     0
102
RTVSPropertyOp12
 70
     0
102
RTVSPropertyOp13
 70
     0
102
RTVSPropertyOp14
 70
     2
102
RTVSPropertyOp15
 70
     0
102
RTVSPropertyOp16
 70
     0
102
RTVSPropertyOp17
 70
     0
102
RTVSPropertyOp18
 70
     0
102
RTVSPropertyOp19
 70
     0
102
RTVSPropertyOp20
 70
     0
102
RTVSPropertyOp21
 70
     0
102
RTVSPropertyOp22
 70
     0
102
RTVSPropertyOp23
 70
     0
102
RTVSPropertyOp24
 70
     0
102
RTVSPropertyOp25
 70
     0
102
RTVSPropertyOp26
 70
     0
102
RTVSPropertyOp27
 70
     0
  0
XRECORD
  5
7DBC
102
{ACAD_REACTORS
330
7DBB
102
}
330
7DBB
100
AcDbXrecord
280
     1
102
RTVSPropertyOp0
 70
     1
102
RTVSPropertyOp1
 70
     1
102
RTVSPropertyOp2
 70
     1
102
RTVSPropertyOp3
 70
     1
102
RTVSPropertyOp4
 70
     1
102
RTVSPropertyOp5
 70
     1
102
RTVSPropertyOp6
 70
     1
102
RTVSPropertyOp7
 70
     1
102
RTVSPropertyOp8
 70
     1
102
RTVSPropertyOp9
 70
     1
102
RTVSPropertyOp10
 70
     1
102
RTVSPropertyOp11
 70
     1
102
RTVSPropertyOp12
 70
     1
102
RTVSPropertyOp13
 70
     1
102
RTVSPropertyOp14
 70
     1
102
RTVSPropertyOp15
 70
     1
102
RTVSPropertyOp16
 70
     1
102
RTVSPropertyOp17
 70
     1
102
RTVSPropertyOp18
 70
     1
102
RTVSPropertyOp19
 70
     1
102
RTVSPropertyOp20
 70
     1
102
RTVSPropertyOp21
 70
     1
102
RTVSPropertyOp22
 70
     1
102
RTVSPropertyOp23
 70
     1
102
RTVSPropertyOp24
 70
     1
102
RTVSPropertyOp25
 70
     1
102
RTVSPropertyOp26
 70
     1
102
RTVSPropertyOp27
 70
     1
  0
XRECORD
  5
7DC4
102
{ACAD_REACTORS
330
7DC3
102
}
330
7DC3
100
AcDbXrecord
280
     1
102
RTVSPropertyOp0
 70
     0
102
RTVSPropertyOp1
 70
     0
102
RTVSPropertyOp2
 70
     0
102
RTVSPropertyOp3
 70
     0
102
RTVSPropertyOp4
 70
     0
102
RTVSPropertyOp5
 70
     0
102
RTVSPropertyOp6
 70
     0
102
RTVSPropertyOp7
 70
     0
102
RTVSPropertyOp8
 70
     0
102
RTVSPropertyOp9
 70
     0
102
RTVSPropertyOp10
 70
     0
102
RTVSPropertyOp11
 70
     0
102
RTVSPropertyOp12
 70
     0
102
RTVSPropertyOp13
 70
     0
102
RTVSPropertyOp14
 70
     2
102
RTVSPropertyOp15
 70
     0
102
RTVSPropertyOp16
 70
     0
102
RTVSPropertyOp17
 70
     0
102
RTVSPropertyOp18
 70
     0
102
RTVSPropertyOp19
 70
     0
102
RTVSPropertyOp20
 70
     0
102
RTVSPropertyOp21
 70
     0
102
RTVSPropertyOp22
 70
     0
102
RTVSPropertyOp23
 70
     0
102
RTVSPropertyOp24
 70
     0
102
RTVSPropertyOp25
 70
     0
102
RTVSPropertyOp26
 70
     0
102
RTVSPropertyOp27
 70
     0
  0
XRECORD
  5
7DB4
102
{ACAD_REACTORS
330
7DB3
102
}
330
7DB3
100
AcDbXrecord
280
     1
102
RTVSPropertyOp0
 70
     1
102
RTVSPropertyOp1
 70
     1
102
RTVSPropertyOp2
 70
     1
102
RTVSPropertyOp3
 70
     1
102
RTVSPropertyOp4
 70
     1
102
RTVSPropertyOp5
 70
     1
102
RTVSPropertyOp6
 70
     1
102
RTVSPropertyOp7
 70
     1
102
RTVSPropertyOp8
 70
     1
102
RTVSPropertyOp9
 70
     1
102
RTVSPropertyOp10
 70
     1
102
RTVSPropertyOp11
 70
     1
102
RTVSPropertyOp12
 70
     1
102
RTVSPropertyOp13
 70
     1
102
RTVSPropertyOp14
 70
     1
102
RTVSPropertyOp15
 70
     1
102
RTVSPropertyOp16
 70
     1
102
RTVSPropertyOp17
 70
     1
102
RTVSPropertyOp18
 70
     1
102
RTVSPropertyOp19
 70
     1
102
RTVSPropertyOp20
 70
     1
102
RTVSPropertyOp21
 70
     1
102
RTVSPropertyOp22
 70
     1
102
RTVSPropertyOp23
 70
     1
102
RTVSPropertyOp24
 70
     1
102
RTVSPropertyOp25
 70
     1
102
RTVSPropertyOp26
 70
     1
102
RTVSPropertyOp27
 70
     1
  0
XRECORD
  5
7DBA
102
{ACAD_REACTORS
330
7DB9
102
}
330
7DB9
100
AcDbXrecord
280
     1
102
RTVSPropertyOp0
 70
     1
102
RTVSPropertyOp1
 70
     1
102
RTVSPropertyOp2
 70
     1
102
RTVSPropertyOp3
 70
     1
102
RTVSPropertyOp4
 70
     1
102
RTVSPropertyOp5
 70
     1
102
RTVSPropertyOp6
 70
     1
102
RTVSPropertyOp7
 70
     1
102
RTVSPropertyOp8
 70
     1
102
RTVSPropertyOp9
 70
     1
102
RTVSPropertyOp10
 70
     1
102
RTVSPropertyOp11
 70
     1
102
RTVSPropertyOp12
 70
     1
102
RTVSPropertyOp13
 70
     1
102
RTVSPropertyOp14
 70
     1
102
RTVSPropertyOp15
 70
     1
102
RTVSPropertyOp16
 70
     1
102
RTVSPropertyOp17
 70
     1
102
RTVSPropertyOp18
 70
     1
102
RTVSPropertyOp19
 70
     1
102
RTVSPropertyOp20
 70
     1
102
RTVSPropertyOp21
 70
     1
102
RTVSPropertyOp22
 70
     1
102
RTVSPropertyOp23
 70
     1
102
RTVSPropertyOp24
 70
     1
102
RTVSPropertyOp25
 70
     1
102
RTVSPropertyOp26
 70
     1
102
RTVSPropertyOp27
 70
     1
  0
ENDSEC
  0
EOF
