  0
SECTION
  2
HEADER
  9
$ACADVER
  1
AC1015
  9
$ACADMAINTVER
 70
    20
  9
$DWGCODEPAGE
  3
ANSI_932
  9
$INSBASE
 10
0.0
 20
0.0
 30
0.0
  9
$EXTMIN
 10
-88.49999999999999
 20
-377.5163681745015
 30
0.0
  9
$EXTMAX
 10
442.2518178735185
 20
348.0
 30
0.0
  9
$LIMMIN
 10
-296.316999476111
 20
-370.7034300441653
  9
$LIMMAX
 10
623.3128432133979
 20
328.6261559379898
  9
$ORTHOMODE
 70
     1
  9
$REGENMODE
 70
     1
  9
$FILLMODE
 70
     1
  9
$QTEXTMODE
 70
     0
  9
$MIRRTEXT
 70
     1
  9
$LTSCALE
 40
10.0
  9
$ATTMODE
 70
     1
  9
$TEXTSIZE
 40
2.0
  9
$TRACEWID
 40
0.05
  9
$TEXTSTYLE
  7
STANDARD
  9
$CLAYER
  8
0
  9
$CELTYPE
  6
CONTINUOUS
  9
$CECOLOR
 62
   256
  9
$CELTSCALE
 40
1.0
  9
$DISPSILH
 70
     0
  9
$DIMSCALE
 40
1.0
  9
$DIMASZ
 40
2.0
  9
$DIMEXO
 40
1.0
  9
$DIMDLI
 40
0.5
  9
$DIMRND
 40
0.0
  9
$DIMDLE
 40
0.0
  9
$DIMEXE
 40
0.5
  9
$DIMTP
 40
0.0
  9
$DIMTM
 40
0.0
  9
$DIMTXT
 40
4.0
  9
$DIMCEN
 40
0.09
  9
$DIMTSZ
 40
0.0
  9
$DIMTOL
 70
     0
  9
$DIMLIM
 70
     0
  9
$DIMTIH
 70
     0
  9
$DIMTOH
 70
     1
  9
$DIMSE1
 70
     0
  9
$DIMSE2
 70
     0
  9
$DIMTAD
 70
     3
  9
$DIMZIN
 70
    12
  9
$DIMBLK
  1
OPEN
  9
$DIMASO
 70
     1
  9
$DIMSHO
 70
     1
  9
$DIMPOST
  1

  9
$DIMAPOST
  1

  9
$DIMALT
 70
     0
  9
$DIMALTD
 70
     2
  9
$DIMALTF
 40
25.4
  9
$DIMLFAC
 40
1.0
  9
$DIMTOFL
 70
     0
  9
$DIMTVP
 40
0.0
  9
$DIMTIX
 70
     0
  9
$DIMSOXD
 70
     0
  9
$DIMSAH
 70
     0
  9
$DIMBLK1
  1

  9
$DIMBLK2
  1

  9
$DIMSTYLE
  2
STANDARD
  9
$DIMCLRD
 70
     0
  9
$DIMCLRE
 70
     0
  9
$DIMCLRT
 70
     0
  9
$DIMTFAC
 40
1.0
  9
$DIMGAP
 40
1.0
  9
$DIMJUST
 70
     0
  9
$DIMSD1
 70
     0
  9
$DIMSD2
 70
     0
  9
$DIMTOLJ
 70
     1
  9
$DIMTZIN
 70
     0
  9
$DIMALTZ
 70
     0
  9
$DIMALTTZ
 70
     0
  9
$DIMUPT
 70
     0
  9
$DIMDEC
 70
     1
  9
$DIMTDEC
 70
     1
  9
$DIMALTU
 70
     2
  9
$DIMALTTD
 70
     2
  9
$DIMTXSTY
  7
STANDARD
  9
$DIMAUNIT
 70
     0
  9
$DIMADEC
 70
     0
  9
$DIMALTRND
 40
0.0
  9
$DIMAZIN
 70
     0
  9
$DIMDSEP
 70
    46
  9
$DIMATFIT
 70
     3
  9
$DIMFRAC
 70
     0
  9
$DIMLDRBLK
  1
OPEN
  9
$DIMLUNIT
 70
     2
  9
$DIMLWD
 70
    -2
  9
$DIMLWE
 70
    -2
  9
$DIMTMOVE
 70
     0
  9
$LUNITS
 70
     2
  9
$LUPREC
 70
     4
  9
$SKETCHINC
 40
0.1
  9
$FILLETRAD
 40
0.0
  9
$AUNITS
 70
     0
  9
$AUPREC
 70
     0
  9
$MENU
  1
.
  9
$ELEVATION
 40
0.0
  9
$PELEVATION
 40
0.0
  9
$THICKNESS
 40
0.0
  9
$LIMCHECK
 70
     0
  9
$CHAMFERA
 40
0.0
  9
$CHAMFERB
 40
0.0
  9
$CHAMFERC
 40
0.0
  9
$CHAMFERD
 40
0.0
  9
$SKPOLY
 70
     0
  9
$TDCREATE
 40
2452286.555658658
  9
$TDUCREATE
 40
2452286.180658658
  9
$TDUPDATE
 40
2457450.481077384
  9
$TDUUPDATE
 40
2457450.106077384
  9
$TDINDWG
 40
1.2593937963
  9
$TDUSRTIMER
 40
1.2593922106
  9
$USRTIMER
 70
     1
  9
$ANGBASE
 50
0.0
  9
$ANGDIR
 70
     0
  9
$PDMODE
 70
     0
  9
$PDSIZE
 40
0.0
  9
$PLINEWID
 40
0.0
  9
$SPLFRAME
 70
     0
  9
$SPLINETYPE
 70
     6
  9
$SPLINESEGS
 70
     8
  9
$HANDSEED
  5
6A31
  9
$SURFTAB1
 70
     6
  9
$SURFTAB2
 70
     6
  9
$SURFTYPE
 70
     6
  9
$SURFU
 70
     6
  9
$SURFV
 70
     6
  9
$UCSBASE
  2

  9
$UCSNAME
  2

  9
$UCSORG
 10
0.0
 20
0.0
 30
0.0
  9
$UCSXDIR
 10
1.0
 20
0.0
 30
0.0
  9
$UCSYDIR
 10
0.0
 20
1.0
 30
0.0
  9
$UCSORTHOREF
  2

  9
$UCSORTHOVIEW
 70
     0
  9
$UCSORGTOP
 10
0.0
 20
0.0
 30
0.0
  9
$UCSORGBOTTOM
 10
0.0
 20
0.0
 30
0.0
  9
$UCSORGLEFT
 10
0.0
 20
0.0
 30
0.0
  9
$UCSORGRIGHT
 10
0.0
 20
0.0
 30
0.0
  9
$UCSORGFRONT
 10
0.0
 20
0.0
 30
0.0
  9
$UCSORGBACK
 10
0.0
 20
0.0
 30
0.0
  9
$PUCSBASE
  2

  9
$PUCSNAME
  2

  9
$PUCSORG
 10
0.0
 20
0.0
 30
0.0
  9
$PUCSXDIR
 10
1.0
 20
0.0
 30
0.0
  9
$PUCSYDIR
 10
0.0
 20
1.0
 30
0.0
  9
$PUCSORTHOREF
  2

  9
$PUCSORTHOVIEW
 70
     0
  9
$PUCSORGTOP
 10
0.0
 20
0.0
 30
0.0
  9
$PUCSORGBOTTOM
 10
0.0
 20
0.0
 30
0.0
  9
$PUCSORGLEFT
 10
0.0
 20
0.0
 30
0.0
  9
$PUCSORGRIGHT
 10
0.0
 20
0.0
 30
0.0
  9
$PUCSORGFRONT
 10
0.0
 20
0.0
 30
0.0
  9
$PUCSORGBACK
 10
0.0
 20
0.0
 30
0.0
  9
$USERI1
 70
     0
  9
$USERI2
 70
     0
  9
$USERI3
 70
     0
  9
$USERI4
 70
     0
  9
$USERI5
 70
     0
  9
$USERR1
 40
0.0
  9
$USERR2
 40
0.0
  9
$USERR3
 40
0.0
  9
$USERR4
 40
0.0
  9
$USERR5
 40
0.0
  9
$WORLDVIEW
 70
     1
  9
$SHADEDGE
 70
     3
  9
$SHADEDIF
 70
    70
  9
$TILEMODE
 70
     1
  9
$MAXACTVP
 70
    48
  9
$PINSBASE
 10
0.0
 20
0.0
 30
0.0
  9
$PLIMCHECK
 70
     0
  9
$PEXTMIN
 10
4.273573
 20
5.205245999999998
 30
0.0
  9
$PEXTMAX
 10
194.610095
 20
283.0697009999996
 30
0.0
  9
$PLIMMIN
 10
-5.873749
 20
-5.87375
  9
$PLIMMAX
 10
204.099579
 20
291.1369009999999
  9
$UNITMODE
 70
     0
  9
$VISRETAIN
 70
     1
  9
$PLINEGEN
 70
     0
  9
$PSLTSCALE
 70
     1
  9
$TREEDEPTH
 70
  3020
  9
$CMLSTYLE
  2
STANDARD
  9
$CMLJUST
 70
     0
  9
$CMLSCALE
 40
1.0
  9
$PROXYGRAPHICS
 70
     1
  9
$MEASUREMENT
 70
     0
  9
$CELWEIGHT
370
    -1
  9
$ENDCAPS
280
     0
  9
$JOINSTYLE
280
     0
  9
$LWDISPLAY
290
     0
  9
$INSUNITS
 70
     0
  9
$HYPERLINKBASE
  1

  9
$STYLESHEET
  1
KIKI.CTB
  9
$XEDIT
290
     1
  9
$CEPSNTYPE
380
     0
  9
$PSTYLEMODE
290
     1
  9
$FINGERPRINTGUID
  2

  9
$VERSIONGUID
  2
{3F9777BF-3587-4AC0-A7B5-227F41E751BF}
  9
$EXTNAMES
290
     1
  9
$PSVPSCALE
 40
0.0
  9
$OLESTARTUP
290
     0
  0
ENDSEC
  0
SECTION
  2
CLASSES
  0
CLASS
  1
ACDBDICTIONARYWDFLT
  2
AcDbDictionaryWithDefault
  3
ObjectDBX Classes
 90
        0
280
     0
281
     0
  0
CLASS
  1
DICTIONARYVAR
  2
AcDbDictionaryVar
  3
ObjectDBX Classes
 90
        0
280
     0
281
     0
  0
CLASS
  1
MATERIAL
  2
AcDbMaterial
  3
ObjectDBX Classes
 90
     1153
280
     0
281
     0
  0
CLASS
  1
VISUALSTYLE
  2
AcDbVisualStyle
  3
ObjectDBX Classes
 90
     4095
280
     0
281
     0
  0
CLASS
  1
TABLESTYLE
  2
AcDbTableStyle
  3
ObjectDBX Classes
 90
     4095
280
     0
281
     0
  0
CLASS
  1
SCALE
  2
AcDbScale
  3
ObjectDBX Classes
 90
     1153
280
     0
281
     0
  0
CLASS
  1
MLEADERSTYLE
  2
AcDbMLeaderStyle
  3
ACDB_MLEADERSTYLE_CLASS
 90
     4095
280
     0
281
     0
  0
CLASS
  1
CELLSTYLEMAP
  2
AcDbCellStyleMap
  3
ObjectDBX Classes
 90
     1152
280
     0
281
     0
  0
CLASS
  1
ACDBSECTIONVIEWSTYLE
  2
AcDbSectionViewStyle
  3
ObjectDBX Classes
 90
     1025
280
     0
281
     0
  0
CLASS
  1
ACDBDETAILVIEWSTYLE
  2
AcDbDetailViewStyle
  3
ObjectDBX Classes
 90
     1025
280
     0
281
     0
  0
CLASS
  1
ACDBPLACEHOLDER
  2
AcDbPlaceHolder
  3
ObjectDBX Classes
 90
        0
280
     0
281
     0
  0
CLASS
  1
LAYOUT
  2
AcDbLayout
  3
ObjectDBX Classes
 90
        0
280
     0
281
     0
  0
ENDSEC
  0
SECTION
  2
TABLES
  0
TABLE
  2
VPORT
  5
8
330
0
100
AcDbSymbolTable
 70
     1
  0
VPORT
  5
631D
330
8
100
AcDbSymbolTableRecord
100
AcDbViewportTableRecord
  2
*Active
 70
     0
 10
0.0
 20
0.0
 11
1.0
 21
1.0
 12
86.11321382293567
 22
164.8537589122541
 13
0.0
 23
0.0
 14
1.0
 24
1.0
 15
10.0
 25
10.0
 16
0.0
 26
0.0
 36
1.0
 17
0.0
 27
0.0
 37
0.0
 40
514.4721331010887
 41
2.108991825613078
 42
50.0
 43
0.0
 44
0.0
 50
0.0
 51
0.0
 71
     0
 72
   100
 73
     1
 74
     1
 75
     0
 76
     0
 77
     0
 78
     0
281
     0
 65
     1
110
0.0
120
0.0
130
0.0
111
1.0
121
0.0
131
0.0
112
0.0
122
1.0
132
0.0
 79
     0
146
0.0
1001
ACAD_NAV_VCDISPLAY
1070
     3
  0
ENDTAB
  0
TABLE
  2
LTYPE
  5
5
330
0
100
AcDbSymbolTable
 70
     6
  0
LTYPE
  5
13
330
5
100
AcDbSymbolTableRecord
100
AcDbLinetypeTableRecord
  2
BYBLOCK
 70
     0
  3

 72
    65
 73
     0
 40
0.0
  0
LTYPE
  5
14
330
5
100
AcDbSymbolTableRecord
100
AcDbLinetypeTableRecord
  2
BYLAYER
 70
     0
  3

 72
    65
 73
     0
 40
0.0
  0
LTYPE
  5
15
330
5
100
AcDbSymbolTableRecord
100
AcDbLinetypeTableRecord
  2
CONTINUOUS
 70
     0
  3
Solid line
 72
    65
 73
     0
 40
0.0
  0
LTYPE
  5
22
330
5
100
AcDbSymbolTableRecord
100
AcDbLinetypeTableRecord
  2
CONTINOUS
 70
     0
  3
Solid line
 72
    65
 73
     0
 40
0.0
  0
LTYPE
  5
23
330
5
100
AcDbSymbolTableRecord
100
AcDbLinetypeTableRecord
  2
DASHED
 70
     0
  3
__ __ __ __ __ __ __ __ __ __ __ __ __ __ __
 72
    65
 73
     2
 40
0.75
 49
0.5
 74
     0
 49
-0.25
 74
     0
  0
LTYPE
  5
24
330
5
100
AcDbSymbolTableRecord
100
AcDbLinetypeTableRecord
  2
DASHDOT
 70
     0
  3
__ . __ . __ . __ . __ . __ . __ . __ . __ . __
 72
    65
 73
     4
 40
1.0
 49
0.5
 74
     0
 49
-0.25
 74
     0
 49
0.0
 74
     0
 49
-0.25
 74
     0
  0
LTYPE
  5
4C47
330
5
100
AcDbSymbolTableRecord
100
AcDbLinetypeTableRecord
  2
DIVIDE
 70
     0
  3
Divide ____ . . ____ . . ____ . . ____ . . ____
 72
    65
 73
     6
 40
1.25
 49
0.5
 74
     0
 49
-0.25
 74
     0
 49
0.0
 74
     0
 49
-0.25
 74
     0
 49
0.0
 74
     0
 49
-0.25
 74
     0
  0
LTYPE
  5
5115
330
5
100
AcDbSymbolTableRecord
100
AcDbLinetypeTableRecord
  2
PHANTOM
 70
     0
  3
_____ _ _ _____ _ _ _____ _ _ _____ _ _ ____
 72
    65
 73
     6
 40
2.5
 49
1.25
 74
     0
 49
-0.25
 74
     0
 49
0.25
 74
     0
 49
-0.25
 74
     0
 49
0.25
 74
     0
 49
-0.25
 74
     0
  0
ENDTAB
  0
TABLE
  2
LAYER
  5
2
330
0
100
AcDbSymbolTable
 70
    14
  0
LAYER
  5
10
102
{ACAD_XDICTIONARY
360
6382
102
}
330
2
100
AcDbSymbolTableRecord
100
AcDbLayerTableRecord
  2
0
 70
     0
 62
     7
  6
CONTINOUS
370
    -3
390
F
  0
LAYER
  5
2F
102
{ACAD_XDICTIONARY
360
6384
102
}
330
2
100
AcDbSymbolTableRecord
100
AcDbLayerTableRecord
  2
10
 70
     0
 62
     4
  6
CONTINOUS
370
    -3
390
F
  0
LAYER
  5
31
102
{ACAD_XDICTIONARY
360
6386
102
}
330
2
100
AcDbSymbolTableRecord
100
AcDbLayerTableRecord
  2
12
 70
     0
 62
     3
  6
CONTINOUS
370
    -3
390
F
  0
LAYER
  5
35
102
{ACAD_XDICTIONARY
360
6388
102
}
330
2
100
AcDbSymbolTableRecord
100
AcDbLayerTableRecord
  2
16
 70
     0
 62
     6
  6
DASHDOT
370
    -3
390
F
  0
LAYER
  5
3C
102
{ACAD_XDICTIONARY
360
638A
102
}
330
2
100
AcDbSymbolTableRecord
100
AcDbLayerTableRecord
  2
11
 70
     0
 62
     1
  6
CONTINOUS
370
    -3
390
F
  0
LAYER
  5
3A2
102
{ACAD_XDICTIONARY
360
638C
102
}
330
2
100
AcDbSymbolTableRecord
100
AcDbLayerTableRecord
  2
30
 70
     0
 62
     9
  6
CONTINUOUS
370
    -3
390
F
  0
LAYER
  5
3A4
330
2
100
AcDbSymbolTableRecord
100
AcDbLayerTableRecord
  2
DEFPOINTS
 70
     0
 62
     7
  6
CONTINUOUS
290
     0
370
    -3
390
F
  0
LAYER
  5
3BBA
102
{ACAD_XDICTIONARY
360
638E
102
}
330
2
100
AcDbSymbolTableRecord
100
AcDbLayerTableRecord
  2
18
 70
     0
 62
     5
  6
DIVIDE
370
    -3
390
F
  0
LAYER
  5
3BBB
102
{ACAD_XDICTIONARY
360
6390
102
}
330
2
100
AcDbSymbolTableRecord
100
AcDbLayerTableRecord
  2
21
 70
     0
 62
     7
  6
CONTINUOUS
370
    -3
390
F
  0
LAYER
  5
5116
102
{ACAD_XDICTIONARY
360
6392
102
}
330
2
100
AcDbSymbolTableRecord
100
AcDbLayerTableRecord
  2
1
 70
     0
 62
     7
  6
CONTINUOUS
370
    -3
390
F
  0
LAYER
  5
5117
102
{ACAD_XDICTIONARY
360
6394
102
}
330
2
100
AcDbSymbolTableRecord
100
AcDbLayerTableRecord
  2
TOP
 70
     0
 62
     7
  6
CONTINUOUS
370
    -3
390
F
  0
LAYER
  5
66DA
330
2
100
AcDbSymbolTableRecord
100
AcDbLayerTableRecord
  2
4
 70
     0
 62
     7
  6
CONTINUOUS
370
    -3
390
F
  0
LAYER
  5
66DB
330
2
100
AcDbSymbolTableRecord
100
AcDbLayerTableRecord
  2
7
 70
     0
 62
     7
  6
CONTINUOUS
370
    -3
390
F
  0
LAYER
  5
66DC
330
2
100
AcDbSymbolTableRecord
100
AcDbLayerTableRecord
  2
5
 70
     0
 62
     7
  6
CONTINUOUS
370
    -3
390
F
  0
ENDTAB
  0
TABLE
  2
STYLE
  5
3
330
0
100
AcDbSymbolTable
 70
     4
  0
STYLE
  5
11
330
3
100
AcDbSymbolTableRecord
100
AcDbTextStyleTableRecord
  2
STANDARD
 70
     0
 40
0.0
 41
1.0
 50
0.0
 71
     0
 42
2.0
  3
txt.shx
  4
bigfont.shx
  0
STYLE
  5
42
330
3
100
AcDbSymbolTableRecord
100
AcDbTextStyleTableRecord
  2
STANDARD1
 70
     0
 40
0.0
 41
1.0
 50
0.0
 71
     0
 42
5.0
  3
MONOTXT
  4
BIGFONT
  0
STYLE
  5
5016
330
3
100
AcDbSymbolTableRecord
100
AcDbTextStyleTableRecord
  2
UGMTXT
 70
     0
 40
0.0
 41
1.0
 50
0.0
 71
     0
 42
0.2
  3
ugmtxt
  4
bigfont
  0
STYLE
  5
66DD
330
3
100
AcDbSymbolTableRecord
100
AcDbTextStyleTableRecord
  2
blockfont
 70
     0
 40
0.0
 41
1.0
 50
0.0
 71
     0
 42
0.2
  3
simplex.shx
  4
bigfont
  0
ENDTAB
  0
TABLE
  2
VIEW
  5
6
330
0
100
AcDbSymbolTable
 70
     3
  0
VIEW
  5
230C
330
6
100
AcDbSymbolTableRecord
100
AcDbViewTableRecord
  2
OLE1
 70
     0
 40
148.912488
 10
429.497628
 20
2.560627
 41
103.145806
 11
0.0
 21
0.0
 31
1.0
 12
0.0
 22
0.0
 32
0.0
 42
50.0
 43
0.0
 44
0.0
 50
0.0
 71
     0
281
     0
 72
     0
  0
VIEW
  5
230E
330
6
100
AcDbSymbolTableRecord
100
AcDbViewTableRecord
  2
OLE2
 70
     0
 40
170.778692
 10
322.66497
 20
-5.978304
 41
102.467215
 11
0.0
 21
0.0
 31
1.0
 12
0.0
 22
0.0
 32
0.0
 42
50.0
 43
0.0
 44
0.0
 50
0.0
 71
     0
281
     0
 72
     0
  0
VIEW
  5
23AA
330
6
100
AcDbSymbolTableRecord
100
AcDbViewTableRecord
  2
OLE3
 70
     0
 40
591.7897389999998
 10
84.79698199999999
 20
-46.09335999999998
 41
388.792096
 11
0.0
 21
0.0
 31
1.0
 12
0.0
 22
0.0
 32
0.0
 42
50.0
 43
0.0
 44
0.0
 50
0.0
 71
     0
281
     0
 72
     0
  0
ENDTAB
  0
TABLE
  2
UCS
  5
7
330
0
100
AcDbSymbolTable
 70
     0
  0
ENDTAB
  0
TABLE
  2
APPID
  5
9
330
0
100
AcDbSymbolTable
 70
     6
  0
APPID
  5
12
330
9
100
AcDbSymbolTableRecord
100
AcDbRegAppTableRecord
  2
ACAD
 70
     0
  0
APPID
  5
ECD
330
9
100
AcDbSymbolTableRecord
100
AcDbRegAppTableRecord
  2
CONTENTBLOCKICON
 70
     0
  0
APPID
  5
637A
330
9
100
AcDbSymbolTableRecord
100
AcDbRegAppTableRecord
  2
ACAD_EXEMPT_FROM_CAD_STANDARDS
 70
     0
  0
APPID
  5
6398
330
9
100
AcDbSymbolTableRecord
100
AcDbRegAppTableRecord
  2
DCO15
 70
     0
  0
APPID
  5
63D6
330
9
100
AcDbSymbolTableRecord
100
AcDbRegAppTableRecord
  2
ACAD_MLEADERVER
 70
     0
  0
APPID
  5
63F7
330
9
100
AcDbSymbolTableRecord
100
AcDbRegAppTableRecord
  2
ACAD_NAV_VCDISPLAY
 70
     0
  0
ENDTAB
  0
TABLE
  2
DIMSTYLE
  5
A
330
0
100
AcDbSymbolTable
 70
     1
100
AcDbDimStyleTable
 71
     1
340
175
  0
DIMSTYLE
105
175
102
{ACAD_REACTORS
330
57FE
330
5BDE
330
5C0F
330
5C1C
330
5C29
330
6144
330
6151
330
6186
330
623B
330
623D
330
6599
330
6556
330
6557
330
6558
330
6559
330
655B
330
655D
330
6572
330
657C
102
}
330
A
100
AcDbSymbolTableRecord
100
AcDbDimStyleTableRecord
  2
STANDARD
 70
     0
 41
2.0
 42
1.0
 43
0.5
 44
0.5
 73
     0
 77
     3
 78
    12
140
4.0
147
1.0
271
     1
272
     1
340
11
341
3B2
342
3B2
  0
ENDTAB
  0
TABLE
  2
BLOCK_RECORD
  5
1
330
0
100
AcDbSymbolTable
 70
    50
  0
BLOCK_RECORD
  5
1E
102
{ACAD_XDICTIONARY
360
178
102
}
330
1
100
AcDbSymbolTableRecord
100
AcDbBlockTableRecord
  2
*MODEL_SPACE
340
6318
  0
BLOCK_RECORD
  5
1A
102
{ACAD_XDICTIONARY
360
17A
102
}
330
1
100
AcDbSymbolTableRecord
100
AcDbBlockTableRecord
  2
*PAPER_SPACE
340
6319
  0
BLOCK_RECORD
  5
3B2
330
1
100
AcDbSymbolTableRecord
100
AcDbBlockTableRecord
  2
_OPEN
340
0
102
{BLKREFS
331
60AC
331
60AD
331
6108
331
6109
331
60FF
331
6100
331
6837
331
6838
331
6840
331
6841
331
6849
331
684A
331
6852
331
6853
331
6659
331
665A
331
6662
331
6663
331
666B
331
666C
331
6674
331
6675
331
667D
331
667E
331
6985
331
6986
331
698E
331
698F
331
6997
331
6998
331
66A2
331
66A3
331
64AA
331
64AB
331
64B6
331
64B7
331
6455
331
6456
331
6461
331
6462
331
646D
331
646E
331
6479
331
647A
331
6486
331
6487
331
6492
331
6493
331
649E
331
649F
331
625F
331
6260
331
6268
331
6269
331
6065
331
6066
331
613E
331
613F
331
6687
331
6688
331
6690
331
6691
331
6699
331
669A
331
611A
331
611B
331
612C
331
612D
331
6135
331
6136
331
60B6
331
60B7
331
604A
331
604B
331
605C
331
605D
331
6053
331
6054
331
606E
331
6076
331
6077
331
60D2
331
60D3
102
}
  0
BLOCK_RECORD
  5
5829
330
1
100
AcDbSymbolTableRecord
100
AcDbBlockTableRecord
  2
*D1
340
0
  0
BLOCK_RECORD
  5
584B
330
1
100
AcDbSymbolTableRecord
100
AcDbBlockTableRecord
  2
*U2
340
0
  0
BLOCK_RECORD
  5
59FC
330
1
100
AcDbSymbolTableRecord
100
AcDbBlockTableRecord
  2
*D3
340
0
  0
BLOCK_RECORD
  5
5A08
330
1
100
AcDbSymbolTableRecord
100
AcDbBlockTableRecord
  2
*D4
340
0
  0
BLOCK_RECORD
  5
5A14
330
1
100
AcDbSymbolTableRecord
100
AcDbBlockTableRecord
  2
*D5
340
0
  0
BLOCK_RECORD
  5
5A20
330
1
100
AcDbSymbolTableRecord
100
AcDbBlockTableRecord
  2
*D6
340
0
  0
BLOCK_RECORD
  5
5A38
330
1
100
AcDbSymbolTableRecord
100
AcDbBlockTableRecord
  2
*D7
340
0
  0
BLOCK_RECORD
  5
5A45
330
1
100
AcDbSymbolTableRecord
100
AcDbBlockTableRecord
  2
*D8
340
0
  0
BLOCK_RECORD
  5
5A51
330
1
100
AcDbSymbolTableRecord
100
AcDbBlockTableRecord
  2
*D9
340
0
  0
BLOCK_RECORD
  5
5A5D
330
1
100
AcDbSymbolTableRecord
100
AcDbBlockTableRecord
  2
*D10
340
0
  0
BLOCK_RECORD
  5
5BDF
330
1
100
AcDbSymbolTableRecord
100
AcDbBlockTableRecord
  2
*D11
340
0
  0
BLOCK_RECORD
  5
5C10
330
1
100
AcDbSymbolTableRecord
100
AcDbBlockTableRecord
  2
*D12
340
0
  0
BLOCK_RECORD
  5
5C1D
330
1
100
AcDbSymbolTableRecord
100
AcDbBlockTableRecord
  2
*D13
340
0
  0
BLOCK_RECORD
  5
5C2A
330
1
100
AcDbSymbolTableRecord
100
AcDbBlockTableRecord
  2
*D14
340
0
  0
BLOCK_RECORD
  5
5C87
330
1
100
AcDbSymbolTableRecord
100
AcDbBlockTableRecord
  2
*D15
340
0
  0
BLOCK_RECORD
  5
60C3
330
1
100
AcDbSymbolTableRecord
100
AcDbBlockTableRecord
  2
*D16
340
0
  0
BLOCK_RECORD
  5
6145
330
1
100
AcDbSymbolTableRecord
100
AcDbBlockTableRecord
  2
*D17
340
0
  0
BLOCK_RECORD
  5
6152
330
1
100
AcDbSymbolTableRecord
100
AcDbBlockTableRecord
  2
*D18
340
0
  0
BLOCK_RECORD
  5
6187
330
1
100
AcDbSymbolTableRecord
100
AcDbBlockTableRecord
  2
*D19
340
0
  0
BLOCK_RECORD
  5
6244
330
1
100
AcDbSymbolTableRecord
100
AcDbBlockTableRecord
  2
*D20
340
0
  0
BLOCK_RECORD
  5
6250
330
1
100
AcDbSymbolTableRecord
100
AcDbBlockTableRecord
  2
*D21
340
0
  0
BLOCK_RECORD
  5
6441
330
1
100
AcDbSymbolTableRecord
100
AcDbBlockTableRecord
  2
*U22
340
0
102
{BLKREFS
331
655C
102
}
  0
BLOCK_RECORD
  5
6447
330
1
100
AcDbSymbolTableRecord
100
AcDbBlockTableRecord
  2
*U23
340
0
102
{BLKREFS
331
656D
102
}
  0
BLOCK_RECORD
  5
6450
330
1
100
AcDbSymbolTableRecord
100
AcDbBlockTableRecord
  2
*D24
340
0
  0
BLOCK_RECORD
  5
645C
330
1
100
AcDbSymbolTableRecord
100
AcDbBlockTableRecord
  2
*D25
340
0
  0
BLOCK_RECORD
  5
6468
330
1
100
AcDbSymbolTableRecord
100
AcDbBlockTableRecord
  2
*D26
340
0
  0
BLOCK_RECORD
  5
6474
330
1
100
AcDbSymbolTableRecord
100
AcDbBlockTableRecord
  2
*D27
340
0
  0
BLOCK_RECORD
  5
6480
330
1
100
AcDbSymbolTableRecord
100
AcDbBlockTableRecord
  2
*D28
340
0
  0
BLOCK_RECORD
  5
648D
330
1
100
AcDbSymbolTableRecord
100
AcDbBlockTableRecord
  2
*D29
340
0
  0
BLOCK_RECORD
  5
6499
330
1
100
AcDbSymbolTableRecord
100
AcDbBlockTableRecord
  2
*D30
340
0
  0
BLOCK_RECORD
  5
64A5
330
1
100
AcDbSymbolTableRecord
100
AcDbBlockTableRecord
  2
*D31
340
0
  0
BLOCK_RECORD
  5
64B1
330
1
100
AcDbSymbolTableRecord
100
AcDbBlockTableRecord
  2
*D32
340
0
  0
BLOCK_RECORD
  5
65E9
330
1
100
AcDbSymbolTableRecord
100
AcDbBlockTableRecord
  2
*D33
340
0
  0
BLOCK_RECORD
  5
65F5
330
1
100
AcDbSymbolTableRecord
100
AcDbBlockTableRecord
  2
*D34
340
0
  0
BLOCK_RECORD
  5
6601
330
1
100
AcDbSymbolTableRecord
100
AcDbBlockTableRecord
  2
*D35
340
0
  0
BLOCK_RECORD
  5
660D
330
1
100
AcDbSymbolTableRecord
100
AcDbBlockTableRecord
  2
*D36
340
0
  0
BLOCK_RECORD
  5
6619
330
1
100
AcDbSymbolTableRecord
100
AcDbBlockTableRecord
  2
*D37
340
0
  0
BLOCK_RECORD
  5
6625
330
1
100
AcDbSymbolTableRecord
100
AcDbBlockTableRecord
  2
*D38
340
0
  0
BLOCK_RECORD
  5
6632
330
1
100
AcDbSymbolTableRecord
100
AcDbBlockTableRecord
  2
*D39
340
0
  0
BLOCK_RECORD
  5
663E
330
1
100
AcDbSymbolTableRecord
100
AcDbBlockTableRecord
  2
*D40
340
0
  0
BLOCK_RECORD
  5
664A
330
1
100
AcDbSymbolTableRecord
100
AcDbBlockTableRecord
  2
*D41
340
0
  0
BLOCK_RECORD
  5
66AA
330
1
100
AcDbSymbolTableRecord
100
AcDbBlockTableRecord
  2
*D42
340
0
  0
BLOCK_RECORD
  5
66B6
330
1
100
AcDbSymbolTableRecord
100
AcDbBlockTableRecord
  2
*D43
340
0
  0
BLOCK_RECORD
  5
66C2
330
1
100
AcDbSymbolTableRecord
100
AcDbBlockTableRecord
  2
*D44
340
0
  0
BLOCK_RECORD
  5
66CE
330
1
100
AcDbSymbolTableRecord
100
AcDbBlockTableRecord
  2
*D45
340
0
  0
BLOCK_RECORD
  5
6804
330
1
100
AcDbSymbolTableRecord
100
AcDbBlockTableRecord
  2
*D46
340
0
  0
BLOCK_RECORD
  5
6810
330
1
100
AcDbSymbolTableRecord
100
AcDbBlockTableRecord
  2
*D47
340
0
  0
BLOCK_RECORD
  5
681C
330
1
100
AcDbSymbolTableRecord
100
AcDbBlockTableRecord
  2
*D48
340
0
  0
BLOCK_RECORD
  5
6828
330
1
100
AcDbSymbolTableRecord
100
AcDbBlockTableRecord
  2
*D49
340
0
  0
ENDTAB
  0
ENDSEC
  0
SECTION
  2
BLOCKS
  0
BLOCK
  5
1F
330
1E
100
AcDbEntity
  8
0
100
AcDbBlockBegin
  2
*MODEL_SPACE
 70
     0
 10
0.0
 20
0.0
 30
0.0
  3
*MODEL_SPACE
  1

  0
ENDBLK
  5
20
330
1E
100
AcDbEntity
  8
0
100
AcDbBlockEnd
  0
BLOCK
  5
1B
330
1A
100
AcDbEntity
 67
     1
  8
0
100
AcDbBlockBegin
  2
*PAPER_SPACE
 70
     0
 10
0.0
 20
0.0
 30
0.0
  3
*PAPER_SPACE
  1

  0
ENDBLK
  5
1C
330
1A
100
AcDbEntity
 67
     1
  8
0
100
AcDbBlockEnd
  0
BLOCK
  5
3B6
330
3B2
100
AcDbEntity
  8
0
100
AcDbBlockBegin
  2
_OPEN
 70
     0
 10
0.0
 20
0.0
 30
0.0
  3
_OPEN
  1

  0
LINE
  5
3B3
330
3B2
100
AcDbEntity
  8
30
  6
Continuous
 62
     0
100
AcDbLine
 10
-1.0
 20
0.166667
 30
0.0
 11
0.0
 21
0.0
 31
0.0
  0
LINE
  5
3B4
330
3B2
100
AcDbEntity
  8
30
  6
Continuous
 62
     0
100
AcDbLine
 10
-1.0
 20
-0.166667
 30
0.0
 11
0.0
 21
0.0
 31
0.0
  0
LINE
  5
3B5
330
3B2
100
AcDbEntity
  8
30
  6
Continuous
 62
     0
100
AcDbLine
 10
0.0
 20
0.0
 30
0.0
 11
-1.0
 21
0.0
 31
0.0
  0
ENDBLK
  5
3B7
330
3B2
100
AcDbEntity
  8
0
100
AcDbBlockEnd
  0
BLOCK
  5
5833
330
5829
100
AcDbEntity
  8
0
100
AcDbBlockBegin
  2
*D1
 70
     1
 10
0.0
 20
0.0
 30
0.0
  3
*D1
  1

  0
LINE
  5
6062
330
5829
100
AcDbEntity
  8
30
  6
Continuous
 62
     0
100
AcDbLine
 10
-78.5
 20
-96.04528757673485
 30
0.0
 11
-78.5
 21
-118.1551789019862
 31
0.0
  0
LINE
  5
6063
330
5829
100
AcDbEntity
  8
30
  6
Continuous
 62
     0
100
AcDbLine
 10
113.5
 20
-96.04528757673485
 30
0.0
 11
113.5
 21
-118.1551789019862
 31
0.0
  0
LINE
  5
6064
330
5829
100
AcDbEntity
  8
30
  6
Continuous
 62
     0
100
AcDbLine
 10
-76.5
 20
-117.6551789019862
 30
0.0
 11
111.4999999999999
 21
-117.6551789019862
 31
0.0
  0
INSERT
  5
6065
330
5829
100
AcDbEntity
  8
30
  6
Continuous
 62
     0
100
AcDbBlockReference
  2
_OPEN
 10
-78.5
 20
-117.6551789019862
 30
0.0
 41
2.0
 42
2.0
 43
2.0
 50
180.0
  0
INSERT
  5
6066
330
5829
100
AcDbEntity
  8
30
  6
Continuous
 62
     0
100
AcDbBlockReference
  2
_OPEN
 10
113.5
 20
-117.6551789019862
 30
0.0
 41
2.0
 42
2.0
 43
2.0
  0
MTEXT
  5
6067
330
5829
100
AcDbEntity
  8
30
  6
Continuous
 62
     0
100
AcDbMText
 10
17.5
 20
-114.6551789019861
 30
0.0
 40
4.0
 41
0.0
 71
     5
 72
     1
  1
\A1;192
 73
     1
 44
1.0
1001
ACAD
1000
MTEXTBEGIN
1070
    73
1070
     1
1070
    44
1040
1.0
1070
    74
1070
     0
1000
MTEXTEND
  0
POINT
  5
6068
330
5829
100
AcDbEntity
  8
DEFPOINTS
  6
Continuous
 62
     0
100
AcDbPoint
 10
-78.5
 20
-95.04528757673485
 30
0.0
  0
POINT
  5
6069
330
5829
100
AcDbEntity
  8
DEFPOINTS
  6
Continuous
 62
     0
100
AcDbPoint
 10
113.5
 20
-95.04528757673485
 30
0.0
  0
POINT
  5
606A
330
5829
100
AcDbEntity
  8
DEFPOINTS
  6
Continuous
 62
     0
100
AcDbPoint
 10
113.5
 20
-117.6551789019862
 30
0.0
  0
ENDBLK
  5
5834
330
5829
100
AcDbEntity
  8
0
100
AcDbBlockEnd
  0
BLOCK
  5
584F
330
584B
100
AcDbEntity
  8
TOP
  6
Continuous
 62
     4
100
AcDbBlockBegin
  2
*U2
 70
     1
 10
0.0
 20
0.0
 30
0.0
  3
*U2
  1

  0
LINE
  5
584C
330
584B
100
AcDbEntity
  8
1
  6
ByBlock
 62
     0
100
AcDbLine
 10
327.8511961722488
 20
79.86472320362056
 30
0.0
 11
333.0330054314933
 21
79.86472320362056
 31
0.0
  0
LINE
  5
584D
330
584B
100
AcDbEntity
  8
1
  6
ByBlock
 62
     0
100
AcDbLine
 10
325.6511961722488
 20
137.4647232036204
 30
0.0
 11
333.0330054314933
 21
137.4647232036204
 31
0.0
  0
TEXT
  5
584E
330
584B
100
AcDbEntity
  8
TOP
  6
ByBlock
 62
     0
100
AcDbText
 10
330.7830054229933
 20
107.7988377856377
 30
0.0
 40
2.500000003799998
  1
 
 50
89.99999999999404
 41
1.189062499999995
  7
UGMTXT
100
AcDbText
  0
ENDBLK
  5
5850
330
584B
100
AcDbEntity
  8
0
100
AcDbBlockEnd
  0
BLOCK
  5
5A06
330
59FC
100
AcDbEntity
  8
0
100
AcDbBlockBegin
  2
*D3
 70
     1
 10
0.0
 20
0.0
 30
0.0
  3
*D3
  1

  0
LINE
  5
613B
330
59FC
100
AcDbEntity
  8
30
  6
Continuous
 62
     0
100
AcDbLine
 10
233.4095201416833
 20
-106.9999999999996
 30
0.0
 11
233.4095201416833
 21
-160.954446411991
 31
0.0
  0
LINE
  5
613C
330
59FC
100
AcDbEntity
  8
30
  6
Continuous
 62
     0
100
AcDbLine
 10
394.4095201416831
 20
-73.00000000000007
 30
0.0
 11
394.4095201416831
 21
-160.954446411991
 31
0.0
  0
LINE
  5
613D
330
59FC
100
AcDbEntity
  8
30
  6
Continuous
 62
     0
100
AcDbLine
 10
235.4095201416833
 20
-160.454446411991
 30
0.0
 11
392.4095201416831
 21
-160.454446411991
 31
0.0
  0
INSERT
  5
613E
330
59FC
100
AcDbEntity
  8
30
  6
Continuous
 62
     0
100
AcDbBlockReference
  2
_OPEN
 10
233.4095201416833
 20
-160.454446411991
 30
0.0
 41
2.0
 42
2.0
 43
2.0
 50
180.0
  0
INSERT
  5
613F
330
59FC
100
AcDbEntity
  8
30
  6
Continuous
 62
     0
100
AcDbBlockReference
  2
_OPEN
 10
394.4095201416831
 20
-160.454446411991
 30
0.0
 41
2.0
 42
2.0
 43
2.0
  0
MTEXT
  5
6140
330
59FC
100
AcDbEntity
  8
30
  6
Continuous
 62
     0
100
AcDbMText
 10
313.9095201416831
 20
-157.454446411991
 30
0.0
 40
4.0
 41
0.0
 71
     5
 72
     1
  1
\A1;161
 73
     1
 44
1.0
1001
ACAD
1000
MTEXTBEGIN
1070
    73
1070
     1
1070
    44
1040
1.0
1070
    74
1070
     0
1000
MTEXTEND
  0
POINT
  5
6141
330
59FC
100
AcDbEntity
  8
DEFPOINTS
  6
Continuous
 62
     0
100
AcDbPoint
 10
233.4095201416833
 20
-105.9999999999996
 30
0.0
  0
POINT
  5
6142
330
59FC
100
AcDbEntity
  8
DEFPOINTS
  6
Continuous
 62
     0
100
AcDbPoint
 10
394.4095201416831
 20
-72.00000000000007
 30
0.0
  0
POINT
  5
6143
330
59FC
100
AcDbEntity
  8
DEFPOINTS
  6
Continuous
 62
     0
100
AcDbPoint
 10
394.4095201416831
 20
-160.454446411991
 30
0.0
  0
ENDBLK
  5
5A07
330
59FC
100
AcDbEntity
  8
0
100
AcDbBlockEnd
  0
BLOCK
  5
5A12
330
5A08
100
AcDbEntity
  8
0
100
AcDbBlockBegin
  2
*D4
 70
     1
 10
0.0
 20
0.0
 30
0.0
  3
*D4
  1

  0
LINE
  5
6117
330
5A08
100
AcDbEntity
  8
30
  6
Continuous
 62
     0
100
AcDbLine
 10
233.4095201416833
 20
-106.9999999999996
 30
0.0
 11
233.4095201416833
 21
-140.9544464119911
 31
0.0
  0
LINE
  5
6118
330
5A08
100
AcDbEntity
  8
30
  6
Continuous
 62
     0
100
AcDbLine
 10
359.4095201416831
 20
-73.00000000000007
 30
0.0
 11
359.4095201416831
 21
-140.9544464119911
 31
0.0
  0
LINE
  5
6119
330
5A08
100
AcDbEntity
  8
30
  6
Continuous
 62
     0
100
AcDbLine
 10
235.4095201416833
 20
-140.4544464119911
 30
0.0
 11
357.4095201416831
 21
-140.4544464119911
 31
0.0
  0
INSERT
  5
611A
330
5A08
100
AcDbEntity
  8
30
  6
Continuous
 62
     0
100
AcDbBlockReference
  2
_OPEN
 10
233.4095201416833
 20
-140.4544464119911
 30
0.0
 41
2.0
 42
2.0
 43
2.0
 50
180.0
  0
INSERT
  5
611B
330
5A08
100
AcDbEntity
  8
30
  6
Continuous
 62
     0
100
AcDbBlockReference
  2
_OPEN
 10
359.4095201416831
 20
-140.4544464119911
 30
0.0
 41
2.0
 42
2.0
 43
2.0
  0
MTEXT
  5
611C
330
5A08
100
AcDbEntity
  8
30
  6
Continuous
 62
     0
100
AcDbMText
 10
296.4095201416831
 20
-137.4544464119911
 30
0.0
 40
4.0
 41
0.0
 71
     5
 72
     1
  1
\A1;126
 73
     1
 44
1.0
1001
ACAD
1000
MTEXTBEGIN
1070
    73
1070
     1
1070
    44
1040
1.0
1070
    74
1070
     0
1000
MTEXTEND
  0
POINT
  5
611D
330
5A08
100
AcDbEntity
  8
DEFPOINTS
  6
Continuous
 62
     0
100
AcDbPoint
 10
233.4095201416833
 20
-105.9999999999996
 30
0.0
  0
POINT
  5
611E
330
5A08
100
AcDbEntity
  8
DEFPOINTS
  6
Continuous
 62
     0
100
AcDbPoint
 10
359.4095201416831
 20
-72.00000000000007
 30
0.0
  0
POINT
  5
611F
330
5A08
100
AcDbEntity
  8
DEFPOINTS
  6
Continuous
 62
     0
100
AcDbPoint
 10
359.4095201416831
 20
-140.4544464119911
 30
0.0
  0
ENDBLK
  5
5A13
330
5A08
100
AcDbEntity
  8
0
100
AcDbBlockEnd
  0
BLOCK
  5
5A1E
330
5A14
100
AcDbEntity
  8
0
100
AcDbBlockBegin
  2
*D5
 70
     1
 10
0.0
 20
0.0
 30
0.0
  3
*D5
  1

  0
LINE
  5
6129
330
5A14
100
AcDbEntity
  8
30
  6
Continuous
 62
     0
100
AcDbLine
 10
218.4095201416833
 20
-97.00000000000006
 30
0.0
 11
218.4095201416833
 21
-140.9544464119911
 31
0.0
  0
LINE
  5
612A
330
5A14
100
AcDbEntity
  8
30
  6
Continuous
 62
     0
100
AcDbLine
 10
233.4095201416833
 20
-106.9999999999996
 30
0.0
 11
233.4095201416833
 21
-140.9544464119911
 31
0.0
  0
LINE
  5
612B
330
5A14
100
AcDbEntity
  8
30
  6
Continuous
 62
     0
100
AcDbLine
 10
220.4095201416834
 20
-140.4544464119911
 30
0.0
 11
231.4095201416833
 21
-140.4544464119911
 31
0.0
  0
INSERT
  5
612C
330
5A14
100
AcDbEntity
  8
30
  6
Continuous
 62
     0
100
AcDbBlockReference
  2
_OPEN
 10
218.4095201416833
 20
-140.4544464119911
 30
0.0
 41
2.0
 42
2.0
 43
2.0
 50
180.0
  0
INSERT
  5
612D
330
5A14
100
AcDbEntity
  8
30
  6
Continuous
 62
     0
100
AcDbBlockReference
  2
_OPEN
 10
233.4095201416833
 20
-140.4544464119911
 30
0.0
 41
2.0
 42
2.0
 43
2.0
  0
MTEXT
  5
612E
330
5A14
100
AcDbEntity
  8
30
  6
Continuous
 62
     0
100
AcDbMText
 10
225.9095201416834
 20
-137.4544464119911
 30
0.0
 40
4.0
 41
0.0
 71
     5
 72
     1
  1
\A1;15
 73
     1
 44
1.0
1001
ACAD
1000
MTEXTBEGIN
1070
    73
1070
     1
1070
    44
1040
1.0
1070
    74
1070
     0
1000
MTEXTEND
  0
POINT
  5
612F
330
5A14
100
AcDbEntity
  8
DEFPOINTS
  6
Continuous
 62
     0
100
AcDbPoint
 10
218.4095201416833
 20
-96.00000000000006
 30
0.0
  0
POINT
  5
6130
330
5A14
100
AcDbEntity
  8
DEFPOINTS
  6
Continuous
 62
     0
100
AcDbPoint
 10
233.4095201416833
 20
-105.9999999999996
 30
0.0
  0
POINT
  5
6131
330
5A14
100
AcDbEntity
  8
DEFPOINTS
  6
Continuous
 62
     0
100
AcDbPoint
 10
233.4095201416833
 20
-140.4544464119911
 30
0.0
  0
ENDBLK
  5
5A1F
330
5A14
100
AcDbEntity
  8
0
100
AcDbBlockEnd
  0
BLOCK
  5
5A2A
330
5A20
100
AcDbEntity
  8
0
100
AcDbBlockBegin
  2
*D6
 70
     1
 10
0.0
 20
0.0
 30
0.0
  3
*D6
  1

  0
LINE
  5
6132
330
5A20
100
AcDbEntity
  8
30
  6
Continuous
 62
     0
100
AcDbLine
 10
196.4095201416833
 20
-3.500000016500051
 30
0.0
 11
196.4095201416833
 21
-160.954446411991
 31
0.0
  0
LINE
  5
6133
330
5A20
100
AcDbEntity
  8
30
  6
Continuous
 62
     0
100
AcDbLine
 10
233.4095201416833
 20
-106.9999999999996
 30
0.0
 11
233.4095201416833
 21
-160.954446411991
 31
0.0
  0
LINE
  5
6134
330
5A20
100
AcDbEntity
  8
30
  6
Continuous
 62
     0
100
AcDbLine
 10
198.4095201416833
 20
-160.454446411991
 30
0.0
 11
231.4095201416833
 21
-160.454446411991
 31
0.0
  0
INSERT
  5
6135
330
5A20
100
AcDbEntity
  8
30
  6
Continuous
 62
     0
100
AcDbBlockReference
  2
_OPEN
 10
196.4095201416833
 20
-160.454446411991
 30
0.0
 41
2.0
 42
2.0
 43
2.0
 50
180.0
  0
INSERT
  5
6136
330
5A20
100
AcDbEntity
  8
30
  6
Continuous
 62
     0
100
AcDbBlockReference
  2
_OPEN
 10
233.4095201416833
 20
-160.454446411991
 30
0.0
 41
2.0
 42
2.0
 43
2.0
  0
MTEXT
  5
6137
330
5A20
100
AcDbEntity
  8
30
  6
Continuous
 62
     0
100
AcDbMText
 10
214.9095201416833
 20
-157.454446411991
 30
0.0
 40
4.0
 41
0.0
 71
     5
 72
     1
  1
\A1;37
 73
     1
 44
1.0
1001
ACAD
1000
MTEXTBEGIN
1070
    73
1070
     1
1070
    44
1040
1.0
1070
    74
1070
     0
1000
MTEXTEND
  0
POINT
  5
6138
330
5A20
100
AcDbEntity
  8
DEFPOINTS
  6
Continuous
 62
     0
100
AcDbPoint
 10
196.4095201416833
 20
-2.500000016500048
 30
0.0
  0
POINT
  5
6139
330
5A20
100
AcDbEntity
  8
DEFPOINTS
  6
Continuous
 62
     0
100
AcDbPoint
 10
233.4095201416833
 20
-105.9999999999996
 30
0.0
  0
POINT
  5
613A
330
5A20
100
AcDbEntity
  8
DEFPOINTS
  6
Continuous
 62
     0
100
AcDbPoint
 10
233.4095201416833
 20
-160.454446411991
 30
0.0
  0
ENDBLK
  5
5A2B
330
5A20
100
AcDbEntity
  8
0
100
AcDbBlockEnd
  0
BLOCK
  5
5A43
330
5A38
100
AcDbEntity
  8
0
100
AcDbBlockBegin
  2
*D7
 70
     1
 10
0.0
 20
0.0
 30
0.0
  3
*D7
  1

  0
LINE
  5
60B2
330
5A38
100
AcDbEntity
  8
30
  6
Continuous
 62
     0
100
AcDbLine
 10
395.4095201416831
 20
69.0
 30
0.0
 11
430.1565297158111
 21
68.99999999999998
 31
0.0
  0
LINE
  5
60B3
330
5A38
100
AcDbEntity
  8
30
  6
Continuous
 62
     0
100
AcDbLine
 10
395.4095201416831
 20
75.0
 30
0.0
 11
430.1565297158111
 21
74.99999999999999
 31
0.0
  0
LINE
  5
60B4
330
5A38
100
AcDbEntity
  8
30
  6
Continuous
 62
     0
100
AcDbLine
 10
429.6565297158111
 20
66.99999999999999
 30
0.0
 11
429.6565297158111
 21
64.99999999999999
 31
0.0
  0
LINE
  5
60B5
330
5A38
100
AcDbEntity
  8
30
  6
Continuous
 62
     0
100
AcDbLine
 10
429.6565297158111
 20
76.99999999999999
 30
0.0
 11
429.6565297158111
 21
78.99999999999998
 31
0.0
  0
INSERT
  5
60B6
330
5A38
100
AcDbEntity
  8
30
  6
Continuous
 62
     0
100
AcDbBlockReference
  2
_OPEN
 10
429.6565297158111
 20
68.99999999999998
 30
0.0
 41
2.0
 42
2.0
 43
2.0
 50
90.0
  0
INSERT
  5
60B7
330
5A38
100
AcDbEntity
  8
30
  6
Continuous
 62
     0
100
AcDbBlockReference
  2
_OPEN
 10
429.6565297158111
 20
74.99999999999999
 30
0.0
 41
2.0
 42
2.0
 43
2.0
 50
270.0
  0
MTEXT
  5
60B8
330
5A38
100
AcDbEntity
  8
30
  6
Continuous
 62
     0
100
AcDbMText
 10
426.6565297158111
 20
72.00000000000007
 30
0.0
 40
4.0
 41
0.0
 71
     5
 72
     1
  1
\A1;6
 11
0.0000000000000001
 21
1.0
 31
0.0
 73
     1
 44
1.0
1001
ACAD
1000
MTEXTBEGIN
1070
    73
1070
     1
1070
    44
1040
1.0
1070
    74
1070
     0
1000
MTEXTEND
  0
POINT
  5
60B9
330
5A38
100
AcDbEntity
  8
DEFPOINTS
  6
Continuous
 62
     0
100
AcDbPoint
 10
394.4095201416831
 20
69.0
 30
0.0
  0
POINT
  5
60BA
330
5A38
100
AcDbEntity
  8
DEFPOINTS
  6
Continuous
 62
     0
100
AcDbPoint
 10
394.4095201416831
 20
75.0
 30
0.0
  0
POINT
  5
60BB
330
5A38
100
AcDbEntity
  8
DEFPOINTS
  6
Continuous
 62
     0
100
AcDbPoint
 10
429.6565297158111
 20
74.99999999999999
 30
0.0
  0
ENDBLK
  5
5A44
330
5A38
100
AcDbEntity
  8
0
100
AcDbBlockEnd
  0
BLOCK
  5
5A4F
330
5A45
100
AcDbEntity
  8
0
100
AcDbBlockBegin
  2
*D8
 70
     1
 10
0.0
 20
0.0
 30
0.0
  3
*D8
  1

  0
LINE
  5
60A9
330
5A45
100
AcDbEntity
  8
30
  6
Continuous
 62
     0
100
AcDbLine
 10
392.7300282173721
 20
-82.00000000000008
 30
0.0
 11
430.1565297158111
 21
-82.00000000000008
 31
0.0
  0
LINE
  5
60AA
330
5A45
100
AcDbEntity
  8
30
  6
Continuous
 62
     0
100
AcDbLine
 10
392.7300282173721
 20
-62.00000000000006
 30
0.0
 11
430.1565297158111
 21
-62.00000000000006
 31
0.0
  0
LINE
  5
60AB
330
5A45
100
AcDbEntity
  8
30
  6
Continuous
 62
     0
100
AcDbLine
 10
429.6565297158111
 20
-80.00000000000007
 30
0.0
 11
429.6565297158111
 21
-64.00000000000007
 31
0.0
  0
INSERT
  5
60AC
330
5A45
100
AcDbEntity
  8
30
  6
Continuous
 62
     0
100
AcDbBlockReference
  2
_OPEN
 10
429.6565297158111
 20
-82.00000000000008
 30
0.0
 41
2.0
 42
2.0
 43
2.0
 50
270.0
  0
INSERT
  5
60AD
330
5A45
100
AcDbEntity
  8
30
  6
Continuous
 62
     0
100
AcDbBlockReference
  2
_OPEN
 10
429.6565297158111
 20
-62.00000000000006
 30
0.0
 41
2.0
 42
2.0
 43
2.0
 50
90.0
  0
MTEXT
  5
60AE
330
5A45
100
AcDbEntity
  8
30
  6
Continuous
 62
     0
100
AcDbMText
 10
426.6565297158111
 20
-72.00000000000001
 30
0.0
 40
4.0
 41
0.0
 71
     5
 72
     1
  1
\A1;20
 11
0.0000000000000001
 21
1.0
 31
0.0
 73
     1
 44
1.0
1001
ACAD
1000
MTEXTBEGIN
1070
    73
1070
     1
1070
    44
1040
1.0
1070
    74
1070
     0
1000
MTEXTEND
  0
POINT
  5
60AF
330
5A45
100
AcDbEntity
  8
DEFPOINTS
  6
Continuous
 62
     0
100
AcDbPoint
 10
391.7300282173721
 20
-82.00000000000008
 30
0.0
  0
POINT
  5
60B0
330
5A45
100
AcDbEntity
  8
DEFPOINTS
  6
Continuous
 62
     0
100
AcDbPoint
 10
391.7300282173721
 20
-62.00000000000006
 30
0.0
  0
POINT
  5
60B1
330
5A45
100
AcDbEntity
  8
DEFPOINTS
  6
Continuous
 62
     0
100
AcDbPoint
 10
429.6565297158111
 20
-62.00000000000006
 30
0.0
  0
ENDBLK
  5
5A50
330
5A45
100
AcDbEntity
  8
0
100
AcDbBlockEnd
  0
BLOCK
  5
5A5B
330
5A51
100
AcDbEntity
  8
0
100
AcDbBlockBegin
  2
*D9
 70
     1
 10
0.0
 20
0.0
 30
0.0
  3
*D9
  1

  0
LINE
  5
6105
330
5A51
100
AcDbEntity
  8
30
  6
Continuous
 62
     0
100
AcDbLine
 10
344.4095201416831
 20
-75.50000001650001
 30
0.0
 11
344.4095201416831
 21
-119.9544464119911
 31
0.0
  0
LINE
  5
6106
330
5A51
100
AcDbEntity
  8
30
  6
Continuous
 62
     0
100
AcDbLine
 10
359.4095201416831
 20
-83.3077641000607
 30
0.0
 11
359.4095201416831
 21
-119.9544464119911
 31
0.0
  0
LINE
  5
6107
330
5A51
100
AcDbEntity
  8
30
  6
Continuous
 62
     0
100
AcDbLine
 10
346.4095201416831
 20
-119.454446411991
 30
0.0
 11
357.4095201416831
 21
-119.454446411991
 31
0.0
  0
INSERT
  5
6108
330
5A51
100
AcDbEntity
  8
30
  6
Continuous
 62
     0
100
AcDbBlockReference
  2
_OPEN
 10
344.4095201416831
 20
-119.454446411991
 30
0.0
 41
2.0
 42
2.0
 43
2.0
 50
180.0
  0
INSERT
  5
6109
330
5A51
100
AcDbEntity
  8
30
  6
Continuous
 62
     0
100
AcDbBlockReference
  2
_OPEN
 10
359.4095201416831
 20
-119.454446411991
 30
0.0
 41
2.0
 42
2.0
 43
2.0
  0
MTEXT
  5
610A
330
5A51
100
AcDbEntity
  8
30
  6
Continuous
 62
     0
100
AcDbMText
 10
351.9095201416831
 20
-116.454446411991
 30
0.0
 40
4.0
 41
0.0
 71
     5
 72
     1
  1
\A1;15
 73
     1
 44
1.0
1001
ACAD
1000
MTEXTBEGIN
1070
    73
1070
     1
1070
    44
1040
1.0
1070
    74
1070
     0
1000
MTEXTEND
  0
POINT
  5
610B
330
5A51
100
AcDbEntity
  8
DEFPOINTS
  6
Continuous
 62
     0
100
AcDbPoint
 10
344.4095201416831
 20
-74.50000001650001
 30
0.0
  0
POINT
  5
610C
330
5A51
100
AcDbEntity
  8
DEFPOINTS
  6
Continuous
 62
     0
100
AcDbPoint
 10
359.4095201416831
 20
-82.30776410006072
 30
0.0
  0
POINT
  5
610D
330
5A51
100
AcDbEntity
  8
DEFPOINTS
  6
Continuous
 62
     0
100
AcDbPoint
 10
359.4095201416831
 20
-119.454446411991
 30
0.0
  0
ENDBLK
  5
5A5C
330
5A51
100
AcDbEntity
  8
0
100
AcDbBlockEnd
  0
BLOCK
  5
5A67
330
5A5D
100
AcDbEntity
  8
0
100
AcDbBlockBegin
  2
*D10
 70
     1
 10
0.0
 20
0.0
 30
0.0
  3
*D10
  1

  0
LINE
  5
60FC
330
5A5D
100
AcDbEntity
  8
30
  6
Continuous
 62
     0
100
AcDbLine
 10
379.4095201416831
 20
-75.50000001650001
 30
0.0
 11
379.4095201416831
 21
-119.9544464119911
 31
0.0
  0
LINE
  5
60FD
330
5A5D
100
AcDbEntity
  8
30
  6
Continuous
 62
     0
100
AcDbLine
 10
394.4095201416831
 20
-83.3077641000607
 30
0.0
 11
394.4095201416831
 21
-119.9544464119911
 31
0.0
  0
LINE
  5
60FE
330
5A5D
100
AcDbEntity
  8
30
  6
Continuous
 62
     0
100
AcDbLine
 10
381.4095201416831
 20
-119.454446411991
 30
0.0
 11
392.4095201416831
 21
-119.454446411991
 31
0.0
  0
INSERT
  5
60FF
330
5A5D
100
AcDbEntity
  8
30
  6
Continuous
 62
     0
100
AcDbBlockReference
  2
_OPEN
 10
379.4095201416831
 20
-119.454446411991
 30
0.0
 41
2.0
 42
2.0
 43
2.0
 50
180.0
  0
INSERT
  5
6100
330
5A5D
100
AcDbEntity
  8
30
  6
Continuous
 62
     0
100
AcDbBlockReference
  2
_OPEN
 10
394.4095201416831
 20
-119.454446411991
 30
0.0
 41
2.0
 42
2.0
 43
2.0
  0
MTEXT
  5
6101
330
5A5D
100
AcDbEntity
  8
30
  6
Continuous
 62
     0
100
AcDbMText
 10
386.9095201416831
 20
-116.454446411991
 30
0.0
 40
4.0
 41
0.0
 71
     5
 72
     1
  1
\A1;15
 73
     1
 44
1.0
1001
ACAD
1000
MTEXTBEGIN
1070
    73
1070
     1
1070
    44
1040
1.0
1070
    74
1070
     0
1000
MTEXTEND
  0
POINT
  5
6102
330
5A5D
100
AcDbEntity
  8
DEFPOINTS
  6
Continuous
 62
     0
100
AcDbPoint
 10
379.4095201416831
 20
-74.50000001650001
 30
0.0
  0
POINT
  5
6103
330
5A5D
100
AcDbEntity
  8
DEFPOINTS
  6
Continuous
 62
     0
100
AcDbPoint
 10
394.4095201416831
 20
-82.30776410006072
 30
0.0
  0
POINT
  5
6104
330
5A5D
100
AcDbEntity
  8
DEFPOINTS
  6
Continuous
 62
     0
100
AcDbPoint
 10
394.4095201416831
 20
-119.454446411991
 30
0.0
  0
ENDBLK
  5
5A68
330
5A5D
100
AcDbEntity
  8
0
100
AcDbBlockEnd
  0
BLOCK
  5
5BE9
330
5BDF
100
AcDbEntity
  8
0
100
AcDbBlockBegin
  2
*D11
 70
     1
 10
0.0
 20
0.0
 30
0.0
  3
*D11
  1

  0
LINE
  5
6047
330
5BDF
100
AcDbEntity
  8
30
  6
Continuous
 62
     0
100
AcDbLine
 10
112.7378508527524
 20
96.0
 30
0.0
 11
141.3363287888389
 21
96.0
 31
0.0
  0
LINE
  5
6048
330
5BDF
100
AcDbEntity
  8
30
  6
Continuous
 62
     0
100
AcDbLine
 10
112.7378508527524
 20
-96.00000000000004
 30
0.0
 11
141.3363287888389
 21
-96.00000000000004
 31
0.0
  0
LINE
  5
6049
330
5BDF
100
AcDbEntity
  8
30
  6
Continuous
 62
     0
100
AcDbLine
 10
140.8363287888388
 20
94.0
 30
0.0
 11
140.8363287888388
 21
-94.00000000000003
 31
0.0
  0
INSERT
  5
604A
330
5BDF
100
AcDbEntity
  8
30
  6
Continuous
 62
     0
100
AcDbBlockReference
  2
_OPEN
 10
140.8363287888388
 20
96.0
 30
0.0
 41
2.0
 42
2.0
 43
2.0
 50
90.0
  0
INSERT
  5
604B
330
5BDF
100
AcDbEntity
  8
30
  6
Continuous
 62
     0
100
AcDbBlockReference
  2
_OPEN
 10
140.8363287888388
 20
-96.00000000000004
 30
0.0
 41
2.0
 42
2.0
 43
2.0
 50
270.0
  0
MTEXT
  5
604C
330
5BDF
100
AcDbEntity
  8
30
  6
Continuous
 62
     0
100
AcDbMText
 10
137.8363287888388
 20
-0.0000000000000012
 30
0.0
 40
4.0
 41
0.0
 71
     5
 72
     1
  1
\A1;192
 11
0.0000000000000001
 21
1.0
 31
0.0
 73
     1
 44
1.0
1001
ACAD
1000
MTEXTBEGIN
1070
    73
1070
     1
1070
    44
1040
1.0
1070
    74
1070
     0
1000
MTEXTEND
  0
POINT
  5
604D
330
5BDF
100
AcDbEntity
  8
DEFPOINTS
  6
Continuous
 62
     0
100
AcDbPoint
 10
111.7378508527524
 20
96.0
 30
0.0
  0
POINT
  5
604E
330
5BDF
100
AcDbEntity
  8
DEFPOINTS
  6
Continuous
 62
     0
100
AcDbPoint
 10
111.7378508527524
 20
-96.00000000000004
 30
0.0
  0
POINT
  5
604F
330
5BDF
100
AcDbEntity
  8
DEFPOINTS
  6
Continuous
 62
     0
100
AcDbPoint
 10
140.8363287888388
 20
-96.00000000000004
 30
0.0
  0
ENDBLK
  5
5BEA
330
5BDF
100
AcDbEntity
  8
0
100
AcDbBlockEnd
  0
BLOCK
  5
5C1A
330
5C10
100
AcDbEntity
  8
0
100
AcDbBlockBegin
  2
*D12
 70
     1
 10
0.0
 20
0.0
 30
0.0
  3
*D12
  1

  0
LINE
  5
6059
330
5C10
100
AcDbEntity
  8
30
  6
Continuous
 62
     0
100
AcDbLine
 10
-63.38009453517108
 20
-344.163123744355
 30
0.0
 11
-63.38009453517108
 21
-366.1895617182886
 31
0.0
  0
LINE
  5
605A
330
5C10
100
AcDbEntity
  8
30
  6
Continuous
 62
     0
100
AcDbLine
 10
97.61990546482893
 20
-344.163123744355
 30
0.0
 11
97.61990546482893
 21
-366.1895617182886
 31
0.0
  0
LINE
  5
605B
330
5C10
100
AcDbEntity
  8
30
  6
Continuous
 62
     0
100
AcDbLine
 10
-61.38009453517108
 20
-365.6895617182887
 30
0.0
 11
95.61990546482894
 21
-365.6895617182887
 31
0.0
  0
INSERT
  5
605C
330
5C10
100
AcDbEntity
  8
30
  6
Continuous
 62
     0
100
AcDbBlockReference
  2
_OPEN
 10
-63.38009453517108
 20
-365.6895617182887
 30
0.0
 41
2.0
 42
2.0
 43
2.0
 50
180.0
  0
INSERT
  5
605D
330
5C10
100
AcDbEntity
  8
30
  6
Continuous
 62
     0
100
AcDbBlockReference
  2
_OPEN
 10
97.61990546482893
 20
-365.6895617182887
 30
0.0
 41
2.0
 42
2.0
 43
2.0
  0
MTEXT
  5
605E
330
5C10
100
AcDbEntity
  8
30
  6
Continuous
 62
     0
100
AcDbMText
 10
17.11990546482891
 20
-362.6895617182886
 30
0.0
 40
4.0
 41
0.0
 71
     5
 72
     1
  1
\A1;161
 73
     1
 44
1.0
1001
ACAD
1000
MTEXTBEGIN
1070
    73
1070
     1
1070
    44
1040
1.0
1070
    74
1070
     0
1000
MTEXTEND
  0
POINT
  5
605F
330
5C10
100
AcDbEntity
  8
DEFPOINTS
  6
Continuous
 62
     0
100
AcDbPoint
 10
-63.38009453517108
 20
-343.163123744355
 30
0.0
  0
POINT
  5
6060
330
5C10
100
AcDbEntity
  8
DEFPOINTS
  6
Continuous
 62
     0
100
AcDbPoint
 10
97.61990546482893
 20
-343.163123744355
 30
0.0
  0
POINT
  5
6061
330
5C10
100
AcDbEntity
  8
DEFPOINTS
  6
Continuous
 62
     0
100
AcDbPoint
 10
97.61990546482893
 20
-365.6895617182887
 30
0.0
  0
ENDBLK
  5
5C1B
330
5C10
100
AcDbEntity
  8
0
100
AcDbBlockEnd
  0
BLOCK
  5
5C27
330
5C1D
100
AcDbEntity
  8
0
100
AcDbBlockBegin
  2
*D13
 70
     1
 10
0.0
 20
0.0
 30
0.0
  3
*D13
  1

  0
LINE
  5
6050
330
5C1D
100
AcDbEntity
  8
30
  6
Continuous
 62
     0
100
AcDbLine
 10
-68.38009453517121
 20
-291.6631237443557
 30
0.0
 11
-68.38009453517121
 21
-377.5163681745015
 31
0.0
  0
LINE
  5
6051
330
5C1D
100
AcDbEntity
  8
30
  6
Continuous
 62
     0
100
AcDbLine
 10
102.6199054648287
 20
-291.6631237443557
 30
0.0
 11
102.6199054648287
 21
-377.5163681745015
 31
0.0
  0
LINE
  5
6052
330
5C1D
100
AcDbEntity
  8
30
  6
Continuous
 62
     0
100
AcDbLine
 10
-66.38009453517121
 20
-377.0163681745015
 30
0.0
 11
100.6199054648287
 21
-377.0163681745015
 31
0.0
  0
INSERT
  5
6053
330
5C1D
100
AcDbEntity
  8
30
  6
Continuous
 62
     0
100
AcDbBlockReference
  2
_OPEN
 10
-68.38009453517121
 20
-377.0163681745015
 30
0.0
 41
2.0
 42
2.0
 43
2.0
 50
180.0
  0
INSERT
  5
6054
330
5C1D
100
AcDbEntity
  8
30
  6
Continuous
 62
     0
100
AcDbBlockReference
  2
_OPEN
 10
102.6199054648287
 20
-377.0163681745015
 30
0.0
 41
2.0
 42
2.0
 43
2.0
  0
MTEXT
  5
6055
330
5C1D
100
AcDbEntity
  8
30
  6
Continuous
 62
     0
100
AcDbMText
 10
17.11990546482876
 20
-374.0163681745015
 30
0.0
 40
4.0
 41
0.0
 71
     5
 72
     1
  1
\A1;171
 73
     1
 44
1.0
1001
ACAD
1000
MTEXTBEGIN
1070
    73
1070
     1
1070
    44
1040
1.0
1070
    74
1070
     0
1000
MTEXTEND
  0
POINT
  5
6056
330
5C1D
100
AcDbEntity
  8
DEFPOINTS
  6
Continuous
 62
     0
100
AcDbPoint
 10
-68.38009453517121
 20
-290.6631237443558
 30
0.0
  0
POINT
  5
6057
330
5C1D
100
AcDbEntity
  8
DEFPOINTS
  6
Continuous
 62
     0
100
AcDbPoint
 10
102.6199054648287
 20
-290.6631237443558
 30
0.0
  0
POINT
  5
6058
330
5C1D
100
AcDbEntity
  8
DEFPOINTS
  6
Continuous
 62
     0
100
AcDbPoint
 10
102.6199054648287
 20
-377.0163681745015
 30
0.0
  0
ENDBLK
  5
5C28
330
5C1D
100
AcDbEntity
  8
0
100
AcDbBlockEnd
  0
BLOCK
  5
5C33
330
5C2A
100
AcDbEntity
  8
0
100
AcDbBlockBegin
  2
*D14
 70
     1
 10
0.0
 20
0.0
 30
0.0
  3
*D14
  1

  0
LINE
  5
606B
330
5C2A
100
AcDbEntity
  8
30
  6
Continuous
 62
     0
100
AcDbLine
 10
137.3833477981619
 20
-203.2939227443548
 30
0.0
 11
129.7166718013934
 21
-203.2939227443548
 31
0.0
  0
LINE
  5
606C
330
5C2A
100
AcDbEntity
  8
30
  6
Continuous
 62
     0
100
AcDbLine
 10
129.7166718013934
 20
-203.2939227443548
 30
0.0
 11
107.1097403058365
 21
-214.3728088222715
 31
0.0
  0
MTEXT
  5
606D
102
{ACAD_XDICTIONARY
360
63A6
102
}
330
5C2A
100
AcDbEntity
  8
30
  6
Continuous
 62
     0
100
AcDbMText
 10
134.0500144648287
 20
-200.2939227443548
 30
0.0
 40
4.0
 41
0.0
 71
     5
 72
     1
  1
\A1;\U+22056
 73
     1
 44
1.0
1001
ACAD
1000
MTEXTBEGIN
1070
    73
1070
     1
1070
    44
1040
1.0
1070
    74
1070
     0
1000
MTEXTEND
  0
INSERT
  5
606E
330
5C2A
100
AcDbEntity
  8
30
  6
Continuous
 62
     0
100
AcDbBlockReference
  2
_OPEN
 10
105.3138064648287
 20
-215.252934744355
 30
0.0
 41
2.0
 42
2.0
 43
2.0
 50
206.1078983677143
  0
LINE
  5
606F
330
5C2A
100
AcDbEntity
  8
30
  6
Continuous
 62
     0
100
AcDbLine
 10
102.5299054648284
 20
-216.5731237443548
 30
0.0
 11
102.7099054648284
 21
-216.5731237443548
 31
0.0
  0
LINE
  5
6070
330
5C2A
100
AcDbEntity
  8
30
  6
Continuous
 62
     0
100
AcDbLine
 10
102.6199054648287
 20
-216.6631237443549
 30
0.0
 11
102.6199054648287
 21
-216.4831237443548
 31
0.0
  0
POINT
  5
6071
330
5C2A
100
AcDbEntity
  8
DEFPOINTS
  6
Continuous
 62
     0
100
AcDbPoint
 10
105.3138064648287
 20
-215.252934744355
 30
0.0
  0
POINT
  5
6072
330
5C2A
100
AcDbEntity
  8
DEFPOINTS
  6
Continuous
 62
     0
100
AcDbPoint
 10
99.92600446482876
 20
-217.8933127443548
 30
0.0
  0
ENDBLK
  5
5C34
330
5C2A
100
AcDbEntity
  8
0
100
AcDbBlockEnd
  0
BLOCK
  5
5C91
330
5C87
100
AcDbEntity
  8
0
100
AcDbBlockBegin
  2
*D15
 70
     1
 10
0.0
 20
0.0
 30
0.0
  3
*D15
  1

  0
LINE
  5
6073
330
5C87
100
AcDbEntity
  8
30
  6
Continuous
 62
     0
100
AcDbLine
 10
434.8671757186888
 20
72.0
 30
0.0
 11
442.2518178735189
 21
72.0
 31
0.0
  0
LINE
  5
6074
330
5C87
100
AcDbEntity
  8
30
  6
Continuous
 62
     0
100
AcDbLine
 10
430.6565297158111
 20
-72.00000000000007
 30
0.0
 11
442.2518178735189
 21
-72.00000000000007
 31
0.0
  0
LINE
  5
6075
330
5C87
100
AcDbEntity
  8
30
  6
Continuous
 62
     0
100
AcDbLine
 10
441.7518178735189
 20
70.0
 30
0.0
 11
441.7518178735189
 21
-70.00000000000007
 31
0.0
  0
INSERT
  5
6076
330
5C87
100
AcDbEntity
  8
30
  6
Continuous
 62
     0
100
AcDbBlockReference
  2
_OPEN
 10
441.7518178735189
 20
72.0
 30
0.0
 41
2.0
 42
2.0
 43
2.0
 50
90.0
  0
INSERT
  5
6077
330
5C87
100
AcDbEntity
  8
30
  6
Continuous
 62
     0
100
AcDbBlockReference
  2
_OPEN
 10
441.7518178735189
 20
-72.00000000000007
 30
0.0
 41
2.0
 42
2.0
 43
2.0
 50
270.0
  0
MTEXT
  5
6078
330
5C87
100
AcDbEntity
  8
30
  6
Continuous
 62
     0
100
AcDbMText
 10
438.7518178735189
 20
0.0000000000000373
 30
0.0
 40
4.0
 41
0.0
 71
     5
 72
     1
  1
\A1;144
 11
0.0000000000000001
 21
1.0
 31
0.0
 73
     1
 44
1.0
1001
ACAD
1000
MTEXTBEGIN
1070
    73
1070
     1
1070
    44
1040
1.0
1070
    74
1070
     0
1000
MTEXTEND
  0
POINT
  5
6079
330
5C87
100
AcDbEntity
  8
DEFPOINTS
  6
Continuous
 62
     0
100
AcDbPoint
 10
433.8671757186888
 20
72.0
 30
0.0
  0
POINT
  5
607A
330
5C87
100
AcDbEntity
  8
DEFPOINTS
  6
Continuous
 62
     0
100
AcDbPoint
 10
429.6565297158111
 20
-72.00000000000007
 30
0.0
  0
POINT
  5
607B
330
5C87
100
AcDbEntity
  8
DEFPOINTS
  6
Continuous
 62
     0
100
AcDbPoint
 10
441.7518178735189
 20
-72.00000000000007
 30
0.0
  0
ENDBLK
  5
5C92
330
5C87
100
AcDbEntity
  8
0
100
AcDbBlockEnd
  0
BLOCK
  5
60CD
330
60C3
100
AcDbEntity
  8
0
100
AcDbBlockBegin
  2
*D16
 70
     1
 10
0.0
 20
0.0
 30
0.0
  3
*D16
  1

  0
LINE
  5
60CF
330
60C3
100
AcDbEntity
  8
30
  6
Continuous
 62
     0
100
AcDbLine
 10
344.4095201416831
 20
-61.00000000000006
 30
0.0
 11
344.4095201416831
 21
-36.5
 31
0.0
  0
LINE
  5
60D0
330
60C3
100
AcDbEntity
  8
30
  6
Continuous
 62
     0
100
AcDbLine
 10
322.4539287970315
 20
-61.00000000000021
 30
0.0
 11
322.4539287970315
 21
-36.5
 31
0.0
  0
LINE
  5
60D1
330
60C3
100
AcDbEntity
  8
30
  6
Continuous
 62
     0
100
AcDbLine
 10
342.4095201416831
 20
-37.0
 30
0.0
 11
324.4539287970315
 21
-37.0
 31
0.0
  0
INSERT
  5
60D2
330
60C3
100
AcDbEntity
  8
30
  6
Continuous
 62
     0
100
AcDbBlockReference
  2
_OPEN
 10
344.4095201416831
 20
-37.0
 30
0.0
 41
2.0
 42
2.0
 43
2.0
  0
INSERT
  5
60D3
330
60C3
100
AcDbEntity
  8
30
  6
Continuous
 62
     0
100
AcDbBlockReference
  2
_OPEN
 10
322.4539287970315
 20
-37.0
 30
0.0
 41
2.0
 42
2.0
 43
2.0
 50
180.0
  0
MTEXT
  5
60D4
330
60C3
100
AcDbEntity
  8
30
  6
Continuous
 62
     0
100
AcDbMText
 10
333.4317244693571
 20
-34.0
 30
0.0
 40
4.0
 41
0.0
 71
     5
 72
     1
  1
\A1;22
 73
     1
 44
1.0
1001
ACAD
1000
MTEXTBEGIN
1070
    73
1070
     1
1070
    44
1040
1.0
1070
    74
1070
     0
1000
MTEXTEND
  0
POINT
  5
60D5
330
60C3
100
AcDbEntity
  8
DEFPOINTS
  6
Continuous
 62
     0
100
AcDbPoint
 10
344.4095201416831
 20
-62.00000000000006
 30
0.0
  0
POINT
  5
60D6
330
60C3
100
AcDbEntity
  8
DEFPOINTS
  6
Continuous
 62
     0
100
AcDbPoint
 10
322.4539287970315
 20
-62.00000000000021
 30
0.0
  0
POINT
  5
60D7
330
60C3
100
AcDbEntity
  8
DEFPOINTS
  6
Continuous
 62
     0
100
AcDbPoint
 10
322.4539287970315
 20
-37.0
 30
0.0
  0
ENDBLK
  5
60CE
330
60C3
100
AcDbEntity
  8
0
100
AcDbBlockEnd
  0
BLOCK
  5
614F
330
6145
100
AcDbEntity
  8
0
100
AcDbBlockBegin
  2
*D17
 70
     1
 10
0.0
 20
0.0
 30
0.0
  3
*D17
  1

  0
LINE
  5
6982
330
6145
100
AcDbEntity
  8
30
  6
Continuous
 62
     0
370
    -2
100
AcDbLine
 10
-34.99999999999991
 20
300.0106271080802
 30
0.0
 11
-34.99999999999991
 21
343.5
 31
0.0
  0
LINE
  5
6983
330
6145
100
AcDbEntity
  8
30
  6
Continuous
 62
     0
370
    -2
100
AcDbLine
 10
0.0000000000000858
 20
335.0106271080802
 30
0.0
 11
0.0000000000000863
 21
343.5
 31
0.0
  0
LINE
  5
6984
330
6145
100
AcDbEntity
  8
30
  6
Continuous
 62
     0
370
    -2
100
AcDbLine
 10
-32.99999999999991
 20
343.0
 30
0.0
 11
-1.999999999999912
 21
343.0
 31
0.0
  0
INSERT
  5
6985
330
6145
100
AcDbEntity
  8
30
  6
Continuous
 62
     0
370
    -2
100
AcDbBlockReference
  2
_OPEN
 10
-34.99999999999991
 20
343.0
 30
0.0
 41
2.0
 42
2.0
 43
2.0
 50
180.0
  0
INSERT
  5
6986
330
6145
100
AcDbEntity
  8
30
  6
Continuous
 62
     0
370
    -2
100
AcDbBlockReference
  2
_OPEN
 10
0.0000000000000863
 20
343.0
 30
0.0
 41
2.0
 42
2.0
 43
2.0
  0
MTEXT
  5
6987
330
6145
100
AcDbEntity
  8
30
  6
Continuous
 62
     0
100
AcDbMText
 10
-17.49999999999991
 20
346.0
 30
0.0
 40
4.0
 41
0.0
 71
     5
 72
     1
  1
\A1;35
 73
     1
 44
1.0
1001
ACAD
1000
MTEXTBEGIN
1070
    73
1070
     1
1070
    44
1040
1.0
1070
    74
1070
     0
1000
MTEXTEND
  0
POINT
  5
6988
330
6145
100
AcDbEntity
  8
DEFPOINTS
  6
Continuous
 62
     0
100
AcDbPoint
 10
-34.99999999999991
 20
299.0106271080802
 30
0.0
  0
POINT
  5
6989
330
6145
100
AcDbEntity
  8
DEFPOINTS
  6
Continuous
 62
     0
100
AcDbPoint
 10
0.0000000000000857
 20
334.0106271080802
 30
0.0
  0
POINT
  5
698A
330
6145
100
AcDbEntity
  8
DEFPOINTS
  6
Continuous
 62
     0
100
AcDbPoint
 10
0.0000000000000863
 20
343.0
 30
0.0
  0
ENDBLK
  5
6150
330
6145
100
AcDbEntity
  8
0
100
AcDbBlockEnd
  0
BLOCK
  5
615C
330
6152
100
AcDbEntity
  8
0
100
AcDbBlockBegin
  2
*D18
 70
     1
 10
0.0
 20
0.0
 30
0.0
  3
*D18
  1

  0
LINE
  5
698B
330
6152
100
AcDbEntity
  8
30
  6
Continuous
 62
     0
370
    -2
100
AcDbLine
 10
0.0000000000000858
 20
335.0106271080802
 30
0.0
 11
0.0000000000000863
 21
343.5
 31
0.0
  0
LINE
  5
698C
330
6152
100
AcDbEntity
  8
30
  6
Continuous
 62
     0
370
    -2
100
AcDbLine
 10
35.00000000000007
 20
300.0106271080802
 30
0.0
 11
35.00000000000007
 21
343.5
 31
0.0
  0
LINE
  5
698D
330
6152
100
AcDbEntity
  8
30
  6
Continuous
 62
     0
370
    -2
100
AcDbLine
 10
2.000000000000085
 20
343.0
 30
0.0
 11
33.00000000000007
 21
343.0
 31
0.0
  0
INSERT
  5
698E
330
6152
100
AcDbEntity
  8
30
  6
Continuous
 62
     0
370
    -2
100
AcDbBlockReference
  2
_OPEN
 10
0.0000000000000863
 20
343.0
 30
0.0
 41
2.0
 42
2.0
 43
2.0
 50
180.0
  0
INSERT
  5
698F
330
6152
100
AcDbEntity
  8
30
  6
Continuous
 62
     0
370
    -2
100
AcDbBlockReference
  2
_OPEN
 10
35.00000000000007
 20
343.0
 30
0.0
 41
2.0
 42
2.0
 43
2.0
  0
MTEXT
  5
6990
330
6152
100
AcDbEntity
  8
30
  6
Continuous
 62
     0
100
AcDbMText
 10
17.50000000000008
 20
346.0
 30
0.0
 40
4.0
 41
0.0
 71
     5
 72
     1
  1
\A1;35
 73
     1
 44
1.0
1001
ACAD
1000
MTEXTBEGIN
1070
    73
1070
     1
1070
    44
1040
1.0
1070
    74
1070
     0
1000
MTEXTEND
  0
POINT
  5
6991
330
6152
100
AcDbEntity
  8
DEFPOINTS
  6
Continuous
 62
     0
100
AcDbPoint
 10
0.0000000000000857
 20
334.0106271080802
 30
0.0
  0
POINT
  5
6992
330
6152
100
AcDbEntity
  8
DEFPOINTS
  6
Continuous
 62
     0
100
AcDbPoint
 10
35.00000000000007
 20
299.0106271080802
 30
0.0
  0
POINT
  5
6993
330
6152
100
AcDbEntity
  8
DEFPOINTS
  6
Continuous
 62
     0
100
AcDbPoint
 10
35.00000000000007
 20
343.0
 30
0.0
  0
ENDBLK
  5
615D
330
6152
100
AcDbEntity
  8
0
100
AcDbBlockEnd
  0
BLOCK
  5
6191
330
6187
100
AcDbEntity
  8
0
100
AcDbBlockBegin
  2
*D19
 70
     1
 10
0.0
 20
0.0
 30
0.0
  3
*D19
  1

  0
LINE
  5
6994
330
6187
100
AcDbEntity
  8
30
  6
Continuous
 62
     0
370
    -2
100
AcDbLine
 10
35.00000000000007
 20
301.0106271080801
 30
0.0
 11
35.00000000000007
 21
343.5
 31
0.0
  0
LINE
  5
6995
330
6187
100
AcDbEntity
  8
30
  6
Continuous
 62
     0
370
    -2
100
AcDbLine
 10
70.00000000000007
 20
335.0106271080802
 30
0.0
 11
70.00000000000007
 21
343.5
 31
0.0
  0
LINE
  5
6996
330
6187
100
AcDbEntity
  8
30
  6
Continuous
 62
     0
370
    -2
100
AcDbLine
 10
37.00000000000007
 20
343.0
 30
0.0
 11
68.00000000000007
 21
343.0
 31
0.0
  0
INSERT
  5
6997
330
6187
100
AcDbEntity
  8
30
  6
Continuous
 62
     0
370
    -2
100
AcDbBlockReference
  2
_OPEN
 10
35.00000000000007
 20
343.0
 30
0.0
 41
2.0
 42
2.0
 43
2.0
 50
180.0
  0
INSERT
  5
6998
330
6187
100
AcDbEntity
  8
30
  6
Continuous
 62
     0
370
    -2
100
AcDbBlockReference
  2
_OPEN
 10
70.00000000000007
 20
343.0
 30
0.0
 41
2.0
 42
2.0
 43
2.0
  0
MTEXT
  5
6999
330
6187
100
AcDbEntity
  8
30
  6
Continuous
 62
     0
100
AcDbMText
 10
52.50000000000007
 20
346.0
 30
0.0
 40
4.0
 41
0.0
 71
     5
 72
     1
  1
\A1;35
 73
     1
 44
1.0
1001
ACAD
1000
MTEXTBEGIN
1070
    73
1070
     1
1070
    44
1040
1.0
1070
    74
1070
     0
1000
MTEXTEND
  0
POINT
  5
699A
330
6187
100
AcDbEntity
  8
DEFPOINTS
  6
Continuous
 62
     0
100
AcDbPoint
 10
35.00000000000007
 20
300.0106271080801
 30
0.0
  0
POINT
  5
699B
330
6187
100
AcDbEntity
  8
DEFPOINTS
  6
Continuous
 62
     0
100
AcDbPoint
 10
70.00000000000007
 20
334.0106271080802
 30
0.0
  0
POINT
  5
699C
330
6187
100
AcDbEntity
  8
DEFPOINTS
  6
Continuous
 62
     0
100
AcDbPoint
 10
70.00000000000007
 20
343.0
 30
0.0
  0
ENDBLK
  5
6192
330
6187
100
AcDbEntity
  8
0
100
AcDbBlockEnd
  0
BLOCK
  5
624E
330
6244
100
AcDbEntity
  8
0
100
AcDbBlockBegin
  2
*D20
 70
     1
 10
0.0
 20
0.0
 30
0.0
  3
*D20
  1

  0
LINE
  5
625C
330
6244
100
AcDbEntity
  8
30
  6
Continuous
 62
     0
100
AcDbLine
 10
-11.0
 20
-26.0
 30
0.0
 11
-11.0
 21
-40.95444641199117
 31
0.0
  0
LINE
  5
625D
330
6244
100
AcDbEntity
  8
30
  6
Continuous
 62
     0
100
AcDbLine
 10
11.0
 20
-26.0
 30
0.0
 11
10.99999999999999
 21
-40.95444641199117
 31
0.0
  0
LINE
  5
625E
330
6244
100
AcDbEntity
  8
30
  6
Continuous
 62
     0
100
AcDbLine
 10
-9.000000000000001
 20
-40.45444641199117
 30
0.0
 11
8.999999999999998
 21
-40.45444641199117
 31
0.0
  0
INSERT
  5
625F
330
6244
100
AcDbEntity
  8
30
  6
Continuous
 62
     0
100
AcDbBlockReference
  2
_OPEN
 10
-11.0
 20
-40.45444641199117
 30
0.0
 41
2.0
 42
2.0
 43
2.0
 50
180.0
  0
INSERT
  5
6260
330
6244
100
AcDbEntity
  8
30
  6
Continuous
 62
     0
100
AcDbBlockReference
  2
_OPEN
 10
10.99999999999999
 20
-40.45444641199117
 30
0.0
 41
2.0
 42
2.0
 43
2.0
  0
MTEXT
  5
6261
330
6244
100
AcDbEntity
  8
30
  6
Continuous
 62
     0
100
AcDbMText
 10
-0.0000000000000016
 20
-37.45444641199117
 30
0.0
 40
4.0
 41
0.0
 71
     5
 72
     1
  1
\A1;22
 73
     1
 44
1.0
1001
ACAD
1000
MTEXTBEGIN
1070
    73
1070
     1
1070
    44
1040
1.0
1070
    74
1070
     0
1000
MTEXTEND
  0
POINT
  5
6262
330
6244
100
AcDbEntity
  8
DEFPOINTS
  6
Continuous
 62
     0
100
AcDbPoint
 10
-11.0
 20
-25.0
 30
0.0
  0
POINT
  5
6263
330
6244
100
AcDbEntity
  8
DEFPOINTS
  6
Continuous
 62
     0
100
AcDbPoint
 10
11.0
 20
-25.0
 30
0.0
  0
POINT
  5
6264
330
6244
100
AcDbEntity
  8
DEFPOINTS
  6
Continuous
 62
     0
100
AcDbPoint
 10
10.99999999999999
 20
-40.45444641199117
 30
0.0
  0
ENDBLK
  5
624F
330
6244
100
AcDbEntity
  8
0
100
AcDbBlockEnd
  0
BLOCK
  5
625A
330
6250
100
AcDbEntity
  8
0
100
AcDbBlockBegin
  2
*D21
 70
     1
 10
0.0
 20
0.0
 30
0.0
  3
*D21
  1

  0
LINE
  5
6265
330
6250
100
AcDbEntity
  8
30
  6
Continuous
 62
     0
100
AcDbLine
 10
-48.99999999999998
 20
26.0
 30
0.0
 11
-48.99999999999998
 21
35.71319198619852
 31
0.0
  0
LINE
  5
6266
330
6250
100
AcDbEntity
  8
30
  6
Continuous
 62
     0
100
AcDbLine
 10
49.00000000000003
 20
26.0
 30
0.0
 11
49.00000000000003
 21
35.71319198619852
 31
0.0
  0
LINE
  5
6267
330
6250
100
AcDbEntity
  8
30
  6
Continuous
 62
     0
100
AcDbLine
 10
-46.99999999999998
 20
35.21319198619853
 30
0.0
 11
47.00000000000001
 21
35.21319198619853
 31
0.0
  0
INSERT
  5
6268
330
6250
100
AcDbEntity
  8
30
  6
Continuous
 62
     0
100
AcDbBlockReference
  2
_OPEN
 10
-48.99999999999998
 20
35.21319198619853
 30
0.0
 41
2.0
 42
2.0
 43
2.0
 50
180.0
  0
INSERT
  5
6269
330
6250
100
AcDbEntity
  8
30
  6
Continuous
 62
     0
100
AcDbBlockReference
  2
_OPEN
 10
49.00000000000003
 20
35.21319198619853
 30
0.0
 41
2.0
 42
2.0
 43
2.0
  0
MTEXT
  5
626A
330
6250
100
AcDbEntity
  8
30
  6
Continuous
 62
     0
100
AcDbMText
 10
0.0000000000000215
 20
38.21319198619852
 30
0.0
 40
4.0
 41
0.0
 71
     5
 72
     1
  1
\A1;98
 73
     1
 44
1.0
1001
ACAD
1000
MTEXTBEGIN
1070
    73
1070
     1
1070
    44
1040
1.0
1070
    74
1070
     0
1000
MTEXTEND
  0
POINT
  5
626B
330
6250
100
AcDbEntity
  8
DEFPOINTS
  6
Continuous
 62
     0
100
AcDbPoint
 10
-48.99999999999998
 20
25.0
 30
0.0
  0
POINT
  5
626C
330
6250
100
AcDbEntity
  8
DEFPOINTS
  6
Continuous
 62
     0
100
AcDbPoint
 10
49.00000000000003
 20
25.0
 30
0.0
  0
POINT
  5
626D
330
6250
100
AcDbEntity
  8
DEFPOINTS
  6
Continuous
 62
     0
100
AcDbPoint
 10
49.00000000000003
 20
35.21319198619853
 30
0.0
  0
ENDBLK
  5
625B
330
6250
100
AcDbEntity
  8
0
100
AcDbBlockEnd
  0
BLOCK
  5
6442
330
6441
100
AcDbEntity
  8
TOP
  6
Continuous
 62
     4
100
AcDbBlockBegin
  2
*U22
 70
     1
 10
0.0
 20
0.0
 30
0.0
  3
*U22
  1

  0
LINE
  5
6443
330
6441
100
AcDbEntity
  8
1
  6
ByBlock
 62
     0
100
AcDbLine
 10
327.8511961722488
 20
79.86472320362056
 30
0.0
 11
333.0330054314933
 21
79.86472320362056
 31
0.0
  0
LINE
  5
6444
330
6441
100
AcDbEntity
  8
1
  6
ByBlock
 62
     0
100
AcDbLine
 10
325.6511961722488
 20
137.4647232036204
 30
0.0
 11
333.0330054314933
 21
137.4647232036204
 31
0.0
  0
TEXT
  5
6445
330
6441
100
AcDbEntity
  8
TOP
  6
ByBlock
 62
     0
100
AcDbText
 10
330.7830054229933
 20
107.7988377856377
 30
0.0
 40
2.500000003799998
  1
 
 50
89.99999999999404
 41
1.189062499999995
  7
UGMTXT
100
AcDbText
  0
ENDBLK
  5
6446
330
6441
100
AcDbEntity
  8
0
100
AcDbBlockEnd
  0
BLOCK
  5
6448
330
6447
100
AcDbEntity
  8
TOP
  6
Continuous
 62
     4
100
AcDbBlockBegin
  2
*U23
 70
     1
 10
0.0
 20
0.0
 30
0.0
  3
*U23
  1

  0
LINE
  5
6449
330
6447
100
AcDbEntity
  8
1
  6
ByBlock
 62
     0
100
AcDbLine
 10
294.8511961722488
 20
82.86472321022058
 30
0.0
 11
294.8511961722488
 21
94.7500000047
 31
0.0
  0
LINE
  5
644A
330
6447
100
AcDbEntity
  8
1
  6
ByBlock
 62
     0
100
AcDbLine
 10
303.6511961722486
 20
80.86472321022059
 30
0.0
 11
303.6511961722486
 21
94.7500000047
 31
0.0
  0
LINE
  5
644B
330
6447
100
AcDbEntity
  8
1
  6
ByBlock
 62
     0
100
AcDbLine
 10
294.8511961722488
 20
93.74999999809999
 30
0.0
 11
303.6511961722486
 21
93.74999999809999
 31
0.0
  0
SOLID
  5
644C
330
6447
100
AcDbEntity
  8
1
  6
ByBlock
 62
     0
100
AcDbTrace
 10
294.8511961722488
 20
93.74999999809999
 30
0.0
 11
296.8511961854486
 21
94.08333333363335
 31
0.0
 12
296.8511961854486
 22
93.41666666256669
 32
0.0
 13
296.8511961854486
 23
93.41666666256669
 33
0.0
  0
SOLID
  5
644D
330
6447
100
AcDbEntity
  8
1
  6
ByBlock
 62
     0
100
AcDbTrace
 10
303.6511961722486
 20
93.74999999809999
 30
0.0
 11
301.6511961590488
 21
93.41666666256669
 31
0.0
 12
301.6511961590488
 22
94.08333333363335
 32
0.0
 13
301.6511961590488
 23
94.08333333363335
 33
0.0
  0
TEXT
  5
644E
330
6447
100
AcDbEntity
  8
TOP
  6
ByBlock
 62
     0
100
AcDbText
 10
297.3944253360932
 20
95.0
 30
0.0
 40
2.500000003799998
  1
22
 41
0.8912499999999965
  7
UGMTXT
100
AcDbText
  0
ENDBLK
  5
644F
330
6447
100
AcDbEntity
  8
0
100
AcDbBlockEnd
  0
BLOCK
  5
6451
330
6450
100
AcDbEntity
  8
0
100
AcDbBlockBegin
  2
*D24
 70
     1
 10
0.0
 20
0.0
 30
0.0
  3
*D24
  1

  0
LINE
  5
6452
330
6450
100
AcDbEntity
  8
30
  6
Continuous
 62
     0
370
    -2
100
AcDbLine
 10
198.1436111629232
 20
-105.8476821548368
 30
0.0
 11
198.1436111629232
 21
-184.802128566828
 31
0.0
  0
LINE
  5
6453
330
6450
100
AcDbEntity
  8
30
  6
Continuous
 62
     0
370
    -2
100
AcDbLine
 10
359.1436111629229
 20
-71.84768215483697
 30
0.0
 11
359.1436111629229
 21
-184.802128566828
 31
0.0
  0
LINE
  5
6454
330
6450
100
AcDbEntity
  8
30
  6
Continuous
 62
     0
370
    -2
100
AcDbLine
 10
200.1436111629232
 20
-184.302128566828
 30
0.0
 11
357.1436111629229
 21
-184.302128566828
 31
0.0
  0
INSERT
  5
6455
330
6450
100
AcDbEntity
  8
30
  6
Continuous
 62
     0
370
    -2
100
AcDbBlockReference
  2
_OPEN
 10
198.1436111629232
 20
-184.302128566828
 30
0.0
 41
2.0
 42
2.0
 43
2.0
 50
180.0
  0
INSERT
  5
6456
330
6450
100
AcDbEntity
  8
30
  6
Continuous
 62
     0
370
    -2
100
AcDbBlockReference
  2
_OPEN
 10
359.1436111629229
 20
-184.302128566828
 30
0.0
 41
2.0
 42
2.0
 43
2.0
  0
MTEXT
  5
6457
330
6450
100
AcDbEntity
  8
30
  6
Continuous
 62
     0
100
AcDbMText
 10
278.6436111629231
 20
-181.3021285668279
 30
0.0
 40
4.0
 41
0.0
 71
     5
 72
     1
  1
\A1;161
 73
     1
 44
1.0
1001
ACAD
1000
MTEXTBEGIN
1070
    73
1070
     1
1070
    44
1040
1.0
1070
    74
1070
     0
1000
MTEXTEND
  0
POINT
  5
6458
330
6450
100
AcDbEntity
  8
DEFPOINTS
  6
Continuous
 62
     0
100
AcDbPoint
 10
198.1436111629232
 20
-104.8476821548368
 30
0.0
  0
POINT
  5
6459
330
6450
100
AcDbEntity
  8
DEFPOINTS
  6
Continuous
 62
     0
100
AcDbPoint
 10
359.1436111629229
 20
-70.84768215483697
 30
0.0
  0
POINT
  5
645A
330
6450
100
AcDbEntity
  8
DEFPOINTS
  6
Continuous
 62
     0
100
AcDbPoint
 10
359.1436111629229
 20
-184.302128566828
 30
0.0
  0
ENDBLK
  5
645B
330
6450
100
AcDbEntity
  8
0
100
AcDbBlockEnd
  0
BLOCK
  5
645D
330
645C
100
AcDbEntity
  8
0
100
AcDbBlockBegin
  2
*D25
 70
     1
 10
0.0
 20
0.0
 30
0.0
  3
*D25
  1

  0
LINE
  5
645E
330
645C
100
AcDbEntity
  8
30
  6
Continuous
 62
     0
370
    -2
100
AcDbLine
 10
198.1436111629232
 20
-105.8476821548368
 30
0.0
 11
198.1436111629232
 21
-159.802128566828
 31
0.0
  0
LINE
  5
645F
330
645C
100
AcDbEntity
  8
30
  6
Continuous
 62
     0
370
    -2
100
AcDbLine
 10
324.143611162923
 20
-71.84768215483697
 30
0.0
 11
324.143611162923
 21
-159.802128566828
 31
0.0
  0
LINE
  5
6460
330
645C
100
AcDbEntity
  8
30
  6
Continuous
 62
     0
370
    -2
100
AcDbLine
 10
200.1436111629232
 20
-159.3021285668279
 30
0.0
 11
322.143611162923
 21
-159.3021285668279
 31
0.0
  0
INSERT
  5
6461
330
645C
100
AcDbEntity
  8
30
  6
Continuous
 62
     0
370
    -2
100
AcDbBlockReference
  2
_OPEN
 10
198.1436111629232
 20
-159.3021285668279
 30
0.0
 41
2.0
 42
2.0
 43
2.0
 50
180.0
  0
INSERT
  5
6462
330
645C
100
AcDbEntity
  8
30
  6
Continuous
 62
     0
370
    -2
100
AcDbBlockReference
  2
_OPEN
 10
324.143611162923
 20
-159.3021285668279
 30
0.0
 41
2.0
 42
2.0
 43
2.0
  0
MTEXT
  5
6463
330
645C
100
AcDbEntity
  8
30
  6
Continuous
 62
     0
100
AcDbMText
 10
261.1436111629231
 20
-156.3021285668279
 30
0.0
 40
4.0
 41
0.0
 71
     5
 72
     1
  1
\A1;126
 73
     1
 44
1.0
1001
ACAD
1000
MTEXTBEGIN
1070
    73
1070
     1
1070
    44
1040
1.0
1070
    74
1070
     0
1000
MTEXTEND
  0
POINT
  5
6464
330
645C
100
AcDbEntity
  8
DEFPOINTS
  6
Continuous
 62
     0
100
AcDbPoint
 10
198.1436111629232
 20
-104.8476821548368
 30
0.0
  0
POINT
  5
6465
330
645C
100
AcDbEntity
  8
DEFPOINTS
  6
Continuous
 62
     0
100
AcDbPoint
 10
324.143611162923
 20
-70.84768215483697
 30
0.0
  0
POINT
  5
6466
330
645C
100
AcDbEntity
  8
DEFPOINTS
  6
Continuous
 62
     0
100
AcDbPoint
 10
324.143611162923
 20
-159.3021285668279
 30
0.0
  0
ENDBLK
  5
6467
330
645C
100
AcDbEntity
  8
0
100
AcDbBlockEnd
  0
BLOCK
  5
6469
330
6468
100
AcDbEntity
  8
0
100
AcDbBlockBegin
  2
*D26
 70
     1
 10
0.0
 20
0.0
 30
0.0
  3
*D26
  1

  0
LINE
  5
646A
330
6468
100
AcDbEntity
  8
30
  6
Continuous
 62
     0
370
    -2
100
AcDbLine
 10
183.1436111629232
 20
-95.84768215483697
 30
0.0
 11
183.1436111629232
 21
-159.802128566828
 31
0.0
  0
LINE
  5
646B
330
6468
100
AcDbEntity
  8
30
  6
Continuous
 62
     0
370
    -2
100
AcDbLine
 10
198.1436111629232
 20
-105.8476821548368
 30
0.0
 11
198.1436111629232
 21
-159.802128566828
 31
0.0
  0
LINE
  5
646C
330
6468
100
AcDbEntity
  8
30
  6
Continuous
 62
     0
370
    -2
100
AcDbLine
 10
185.1436111629232
 20
-159.3021285668279
 30
0.0
 11
196.1436111629232
 21
-159.3021285668279
 31
0.0
  0
INSERT
  5
646D
330
6468
100
AcDbEntity
  8
30
  6
Continuous
 62
     0
370
    -2
100
AcDbBlockReference
  2
_OPEN
 10
183.1436111629232
 20
-159.3021285668279
 30
0.0
 41
2.0
 42
2.0
 43
2.0
 50
180.0
  0
INSERT
  5
646E
330
6468
100
AcDbEntity
  8
30
  6
Continuous
 62
     0
370
    -2
100
AcDbBlockReference
  2
_OPEN
 10
198.1436111629232
 20
-159.3021285668279
 30
0.0
 41
2.0
 42
2.0
 43
2.0
  0
MTEXT
  5
646F
330
6468
100
AcDbEntity
  8
30
  6
Continuous
 62
     0
100
AcDbMText
 10
190.6436111629232
 20
-156.3021285668279
 30
0.0
 40
4.0
 41
0.0
 71
     5
 72
     1
  1
\A1;15
 73
     1
 44
1.0
1001
ACAD
1000
MTEXTBEGIN
1070
    73
1070
     1
1070
    44
1040
1.0
1070
    74
1070
     0
1000
MTEXTEND
  0
POINT
  5
6470
330
6468
100
AcDbEntity
  8
DEFPOINTS
  6
Continuous
 62
     0
100
AcDbPoint
 10
183.1436111629232
 20
-94.84768215483695
 30
0.0
  0
POINT
  5
6471
330
6468
100
AcDbEntity
  8
DEFPOINTS
  6
Continuous
 62
     0
100
AcDbPoint
 10
198.1436111629232
 20
-104.8476821548368
 30
0.0
  0
POINT
  5
6472
330
6468
100
AcDbEntity
  8
DEFPOINTS
  6
Continuous
 62
     0
100
AcDbPoint
 10
198.1436111629232
 20
-159.3021285668279
 30
0.0
  0
ENDBLK
  5
6473
330
6468
100
AcDbEntity
  8
0
100
AcDbBlockEnd
  0
BLOCK
  5
6475
330
6474
100
AcDbEntity
  8
0
100
AcDbBlockBegin
  2
*D27
 70
     1
 10
0.0
 20
0.0
 30
0.0
  3
*D27
  1

  0
LINE
  5
6476
330
6474
100
AcDbEntity
  8
30
  6
Continuous
 62
     0
370
    -2
100
AcDbLine
 10
161.1436111629231
 20
-2.34768217133697
 30
0.0
 11
161.1436111629231
 21
-184.802128566828
 31
0.0
  0
LINE
  5
6477
330
6474
100
AcDbEntity
  8
30
  6
Continuous
 62
     0
370
    -2
100
AcDbLine
 10
198.1436111629232
 20
-105.8476821548368
 30
0.0
 11
198.1436111629232
 21
-184.802128566828
 31
0.0
  0
LINE
  5
6478
330
6474
100
AcDbEntity
  8
30
  6
Continuous
 62
     0
370
    -2
100
AcDbLine
 10
163.1436111629231
 20
-184.302128566828
 30
0.0
 11
196.1436111629232
 21
-184.302128566828
 31
0.0
  0
INSERT
  5
6479
330
6474
100
AcDbEntity
  8
30
  6
Continuous
 62
     0
370
    -2
100
AcDbBlockReference
  2
_OPEN
 10
161.1436111629231
 20
-184.302128566828
 30
0.0
 41
2.0
 42
2.0
 43
2.0
 50
180.0
  0
INSERT
  5
647A
330
6474
100
AcDbEntity
  8
30
  6
Continuous
 62
     0
370
    -2
100
AcDbBlockReference
  2
_OPEN
 10
198.1436111629232
 20
-184.302128566828
 30
0.0
 41
2.0
 42
2.0
 43
2.0
  0
MTEXT
  5
647B
330
6474
100
AcDbEntity
  8
30
  6
Continuous
 62
     0
100
AcDbMText
 10
179.6436111629231
 20
-181.3021285668279
 30
0.0
 40
4.0
 41
0.0
 71
     5
 72
     1
  1
\A1;37
 73
     1
 44
1.0
1001
ACAD
1000
MTEXTBEGIN
1070
    73
1070
     1
1070
    44
1040
1.0
1070
    74
1070
     0
1000
MTEXTEND
  0
POINT
  5
647C
330
6474
100
AcDbEntity
  8
DEFPOINTS
  6
Continuous
 62
     0
100
AcDbPoint
 10
161.1436111629231
 20
-1.347682171336969
 30
0.0
  0
POINT
  5
647D
330
6474
100
AcDbEntity
  8
DEFPOINTS
  6
Continuous
 62
     0
100
AcDbPoint
 10
198.1436111629232
 20
-104.8476821548368
 30
0.0
  0
POINT
  5
647E
330
6474
100
AcDbEntity
  8
DEFPOINTS
  6
Continuous
 62
     0
100
AcDbPoint
 10
198.1436111629232
 20
-184.302128566828
 30
0.0
  0
ENDBLK
  5
647F
330
6474
100
AcDbEntity
  8
0
100
AcDbBlockEnd
  0
BLOCK
  5
6481
330
6480
100
AcDbEntity
  8
0
100
AcDbBlockBegin
  2
*D28
 70
     1
 10
0.0
 20
0.0
 30
0.0
  3
*D28
  1

  0
LINE
  5
6482
330
6480
100
AcDbEntity
  8
30
  6
Continuous
 62
     0
370
    -2
100
AcDbLine
 10
360.1436111629229
 20
70.15231784516308
 30
0.0
 11
394.890620737051
 21
70.15231784516308
 31
0.0
  0
LINE
  5
6483
330
6480
100
AcDbEntity
  8
30
  6
Continuous
 62
     0
370
    -2
100
AcDbLine
 10
360.1436111629229
 20
76.15231784516308
 30
0.0
 11
394.890620737051
 21
76.15231784516308
 31
0.0
  0
LINE
  5
6484
330
6480
100
AcDbEntity
  8
30
  6
Continuous
 62
     0
370
    -2
100
AcDbLine
 10
394.390620737051
 20
68.15231784516308
 30
0.0
 11
394.390620737051
 21
66.15231784516308
 31
0.0
  0
LINE
  5
6485
330
6480
100
AcDbEntity
  8
30
  6
Continuous
 62
     0
370
    -2
100
AcDbLine
 10
394.390620737051
 20
78.15231784516308
 30
0.0
 11
394.390620737051
 21
80.15231784516306
 31
0.0
  0
INSERT
  5
6486
330
6480
100
AcDbEntity
  8
30
  6
Continuous
 62
     0
370
    -2
100
AcDbBlockReference
  2
_OPEN
 10
394.390620737051
 20
70.15231784516308
 30
0.0
 41
2.0
 42
2.0
 43
2.0
 50
90.0
  0
INSERT
  5
6487
330
6480
100
AcDbEntity
  8
30
  6
Continuous
 62
     0
370
    -2
100
AcDbBlockReference
  2
_OPEN
 10
394.390620737051
 20
76.15231784516308
 30
0.0
 41
2.0
 42
2.0
 43
2.0
 50
270.0
  0
MTEXT
  5
6488
330
6480
100
AcDbEntity
  8
30
  6
Continuous
 62
     0
100
AcDbMText
 10
391.390620737051
 20
73.15231784516313
 30
0.0
 40
4.0
 41
0.0
 71
     5
 72
     1
  1
\A1;6
 11
0.0000000000000001
 21
1.0
 31
0.0
 73
     1
 44
1.0
1001
ACAD
1000
MTEXTBEGIN
1070
    73
1070
     1
1070
    44
1040
1.0
1070
    74
1070
     0
1000
MTEXTEND
  0
POINT
  5
6489
330
6480
100
AcDbEntity
  8
DEFPOINTS
  6
Continuous
 62
     0
100
AcDbPoint
 10
359.1436111629229
 20
70.15231784516308
 30
0.0
  0
POINT
  5
648A
330
6480
100
AcDbEntity
  8
DEFPOINTS
  6
Continuous
 62
     0
100
AcDbPoint
 10
359.1436111629229
 20
76.15231784516308
 30
0.0
  0
POINT
  5
648B
330
6480
100
AcDbEntity
  8
DEFPOINTS
  6
Continuous
 62
     0
100
AcDbPoint
 10
394.390620737051
 20
76.15231784516308
 30
0.0
  0
ENDBLK
  5
648C
330
6480
100
AcDbEntity
  8
0
100
AcDbBlockEnd
  0
BLOCK
  5
648E
330
648D
100
AcDbEntity
  8
0
100
AcDbBlockBegin
  2
*D29
 70
     1
 10
0.0
 20
0.0
 30
0.0
  3
*D29
  1

  0
LINE
  5
648F
330
648D
100
AcDbEntity
  8
30
  6
Continuous
 62
     0
370
    -2
100
AcDbLine
 10
357.4641192386118
 20
-80.84768215483697
 30
0.0
 11
394.890620737051
 21
-80.84768215483697
 31
0.0
  0
LINE
  5
6490
330
648D
100
AcDbEntity
  8
30
  6
Continuous
 62
     0
370
    -2
100
AcDbLine
 10
357.4641192386118
 20
-60.84768215483697
 30
0.0
 11
394.890620737051
 21
-60.84768215483698
 31
0.0
  0
LINE
  5
6491
330
648D
100
AcDbEntity
  8
30
  6
Continuous
 62
     0
370
    -2
100
AcDbLine
 10
394.390620737051
 20
-78.84768215483697
 30
0.0
 11
394.390620737051
 21
-62.84768215483698
 31
0.0
  0
INSERT
  5
6492
330
648D
100
AcDbEntity
  8
30
  6
Continuous
 62
     0
370
    -2
100
AcDbBlockReference
  2
_OPEN
 10
394.390620737051
 20
-80.84768215483697
 30
0.0
 41
2.0
 42
2.0
 43
2.0
 50
270.0
  0
INSERT
  5
6493
330
648D
100
AcDbEntity
  8
30
  6
Continuous
 62
     0
370
    -2
100
AcDbBlockReference
  2
_OPEN
 10
394.390620737051
 20
-60.84768215483698
 30
0.0
 41
2.0
 42
2.0
 43
2.0
 50
90.0
  0
MTEXT
  5
6494
330
648D
100
AcDbEntity
  8
30
  6
Continuous
 62
     0
100
AcDbMText
 10
391.390620737051
 20
-70.8476821548369
 30
0.0
 40
4.0
 41
0.0
 71
     5
 72
     1
  1
\A1;20
 11
0.0000000000000001
 21
1.0
 31
0.0
 73
     1
 44
1.0
1001
ACAD
1000
MTEXTBEGIN
1070
    73
1070
     1
1070
    44
1040
1.0
1070
    74
1070
     0
1000
MTEXTEND
  0
POINT
  5
6495
330
648D
100
AcDbEntity
  8
DEFPOINTS
  6
Continuous
 62
     0
100
AcDbPoint
 10
356.4641192386118
 20
-80.84768215483697
 30
0.0
  0
POINT
  5
6496
330
648D
100
AcDbEntity
  8
DEFPOINTS
  6
Continuous
 62
     0
100
AcDbPoint
 10
356.4641192386118
 20
-60.84768215483697
 30
0.0
  0
POINT
  5
6497
330
648D
100
AcDbEntity
  8
DEFPOINTS
  6
Continuous
 62
     0
100
AcDbPoint
 10
394.390620737051
 20
-60.84768215483698
 30
0.0
  0
ENDBLK
  5
6498
330
648D
100
AcDbEntity
  8
0
100
AcDbBlockEnd
  0
BLOCK
  5
649A
330
6499
100
AcDbEntity
  8
0
100
AcDbBlockBegin
  2
*D30
 70
     1
 10
0.0
 20
0.0
 30
0.0
  3
*D30
  1

  0
LINE
  5
649B
330
6499
100
AcDbEntity
  8
30
  6
Continuous
 62
     0
370
    -2
100
AcDbLine
 10
309.1436111629228
 20
-74.34768217133694
 30
0.0
 11
309.1436111629228
 21
-134.802128566828
 31
0.0
  0
LINE
  5
649C
330
6499
100
AcDbEntity
  8
30
  6
Continuous
 62
     0
370
    -2
100
AcDbLine
 10
324.143611162923
 20
-82.15544625489766
 30
0.0
 11
324.143611162923
 21
-134.802128566828
 31
0.0
  0
LINE
  5
649D
330
6499
100
AcDbEntity
  8
30
  6
Continuous
 62
     0
370
    -2
100
AcDbLine
 10
311.1436111629228
 20
-134.302128566828
 30
0.0
 11
322.143611162923
 21
-134.302128566828
 31
0.0
  0
INSERT
  5
649E
330
6499
100
AcDbEntity
  8
30
  6
Continuous
 62
     0
370
    -2
100
AcDbBlockReference
  2
_OPEN
 10
309.1436111629228
 20
-134.302128566828
 30
0.0
 41
2.0
 42
2.0
 43
2.0
 50
180.0
  0
INSERT
  5
649F
330
6499
100
AcDbEntity
  8
30
  6
Continuous
 62
     0
370
    -2
100
AcDbBlockReference
  2
_OPEN
 10
324.143611162923
 20
-134.302128566828
 30
0.0
 41
2.0
 42
2.0
 43
2.0
  0
MTEXT
  5
64A0
330
6499
100
AcDbEntity
  8
30
  6
Continuous
 62
     0
100
AcDbMText
 10
316.6436111629228
 20
-131.302128566828
 30
0.0
 40
4.0
 41
0.0
 71
     5
 72
     1
  1
\A1;15
 73
     1
 44
1.0
1001
ACAD
1000
MTEXTBEGIN
1070
    73
1070
     1
1070
    44
1040
1.0
1070
    74
1070
     0
1000
MTEXTEND
  0
POINT
  5
64A1
330
6499
100
AcDbEntity
  8
DEFPOINTS
  6
Continuous
 62
     0
100
AcDbPoint
 10
309.1436111629228
 20
-73.34768217133694
 30
0.0
  0
POINT
  5
64A2
330
6499
100
AcDbEntity
  8
DEFPOINTS
  6
Continuous
 62
     0
100
AcDbPoint
 10
324.143611162923
 20
-81.15544625489766
 30
0.0
  0
POINT
  5
64A3
330
6499
100
AcDbEntity
  8
DEFPOINTS
  6
Continuous
 62
     0
100
AcDbPoint
 10
324.143611162923
 20
-134.302128566828
 30
0.0
  0
ENDBLK
  5
64A4
330
6499
100
AcDbEntity
  8
0
100
AcDbBlockEnd
  0
BLOCK
  5
64A6
330
64A5
100
AcDbEntity
  8
0
100
AcDbBlockBegin
  2
*D31
 70
     1
 10
0.0
 20
0.0
 30
0.0
  3
*D31
  1

  0
LINE
  5
64A7
330
64A5
100
AcDbEntity
  8
30
  6
Continuous
 62
     0
370
    -2
100
AcDbLine
 10
344.1436111629229
 20
-74.34768217133694
 30
0.0
 11
344.1436111629229
 21
-134.802128566828
 31
0.0
  0
LINE
  5
64A8
330
64A5
100
AcDbEntity
  8
30
  6
Continuous
 62
     0
370
    -2
100
AcDbLine
 10
359.1436111629229
 20
-82.15544625489766
 30
0.0
 11
359.1436111629229
 21
-134.802128566828
 31
0.0
  0
LINE
  5
64A9
330
64A5
100
AcDbEntity
  8
30
  6
Continuous
 62
     0
370
    -2
100
AcDbLine
 10
346.1436111629229
 20
-134.302128566828
 30
0.0
 11
357.1436111629229
 21
-134.302128566828
 31
0.0
  0
INSERT
  5
64AA
330
64A5
100
AcDbEntity
  8
30
  6
Continuous
 62
     0
370
    -2
100
AcDbBlockReference
  2
_OPEN
 10
344.1436111629229
 20
-134.302128566828
 30
0.0
 41
2.0
 42
2.0
 43
2.0
 50
180.0
  0
INSERT
  5
64AB
330
64A5
100
AcDbEntity
  8
30
  6
Continuous
 62
     0
370
    -2
100
AcDbBlockReference
  2
_OPEN
 10
359.1436111629229
 20
-134.302128566828
 30
0.0
 41
2.0
 42
2.0
 43
2.0
  0
MTEXT
  5
64AC
330
64A5
100
AcDbEntity
  8
30
  6
Continuous
 62
     0
100
AcDbMText
 10
351.6436111629229
 20
-131.302128566828
 30
0.0
 40
4.0
 41
0.0
 71
     5
 72
     1
  1
\A1;15
 73
     1
 44
1.0
1001
ACAD
1000
MTEXTBEGIN
1070
    73
1070
     1
1070
    44
1040
1.0
1070
    74
1070
     0
1000
MTEXTEND
  0
POINT
  5
64AD
330
64A5
100
AcDbEntity
  8
DEFPOINTS
  6
Continuous
 62
     0
100
AcDbPoint
 10
344.1436111629229
 20
-73.34768217133694
 30
0.0
  0
POINT
  5
64AE
330
64A5
100
AcDbEntity
  8
DEFPOINTS
  6
Continuous
 62
     0
100
AcDbPoint
 10
359.1436111629229
 20
-81.15544625489766
 30
0.0
  0
POINT
  5
64AF
330
64A5
100
AcDbEntity
  8
DEFPOINTS
  6
Continuous
 62
     0
100
AcDbPoint
 10
359.1436111629229
 20
-134.302128566828
 30
0.0
  0
ENDBLK
  5
64B0
330
64A5
100
AcDbEntity
  8
0
100
AcDbBlockEnd
  0
BLOCK
  5
64B2
330
64B1
100
AcDbEntity
  8
0
100
AcDbBlockBegin
  2
*D32
 70
     1
 10
0.0
 20
0.0
 30
0.0
  3
*D32
  1

  0
LINE
  5
64B3
330
64B1
100
AcDbEntity
  8
30
  6
Continuous
 62
     0
370
    -2
100
AcDbLine
 10
399.6012667399285
 20
73.15231784516308
 30
0.0
 11
406.9859088947586
 21
73.15231784516308
 31
0.0
  0
LINE
  5
64B4
330
64B1
100
AcDbEntity
  8
30
  6
Continuous
 62
     0
370
    -2
100
AcDbLine
 10
395.390620737051
 20
-70.84768215483697
 30
0.0
 11
406.9859088947586
 21
-70.84768215483697
 31
0.0
  0
LINE
  5
64B5
330
64B1
100
AcDbEntity
  8
30
  6
Continuous
 62
     0
370
    -2
100
AcDbLine
 10
406.4859088947586
 20
71.15231784516308
 30
0.0
 11
406.4859088947586
 21
-68.84768215483697
 31
0.0
  0
INSERT
  5
64B6
330
64B1
100
AcDbEntity
  8
30
  6
Continuous
 62
     0
370
    -2
100
AcDbBlockReference
  2
_OPEN
 10
406.4859088947586
 20
73.15231784516308
 30
0.0
 41
2.0
 42
2.0
 43
2.0
 50
90.0
  0
INSERT
  5
64B7
330
64B1
100
AcDbEntity
  8
30
  6
Continuous
 62
     0
370
    -2
100
AcDbBlockReference
  2
_OPEN
 10
406.4859088947586
 20
-70.84768215483697
 30
0.0
 41
2.0
 42
2.0
 43
2.0
 50
270.0
  0
MTEXT
  5
64B8
330
64B1
100
AcDbEntity
  8
30
  6
Continuous
 62
     0
100
AcDbMText
 10
403.4859088947586
 20
1.152317845163113
 30
0.0
 40
4.0
 41
0.0
 71
     5
 72
     1
  1
\A1;144
 11
0.0000000000000001
 21
1.0
 31
0.0
 73
     1
 44
1.0
1001
ACAD
1000
MTEXTBEGIN
1070
    73
1070
     1
1070
    44
1040
1.0
1070
    74
1070
     0
1000
MTEXTEND
  0
POINT
  5
64B9
330
64B1
100
AcDbEntity
  8
DEFPOINTS
  6
Continuous
 62
     0
100
AcDbPoint
 10
398.6012667399285
 20
73.15231784516308
 30
0.0
  0
POINT
  5
64BA
330
64B1
100
AcDbEntity
  8
DEFPOINTS
  6
Continuous
 62
     0
100
AcDbPoint
 10
394.390620737051
 20
-70.84768215483697
 30
0.0
  0
POINT
  5
64BB
330
64B1
100
AcDbEntity
  8
DEFPOINTS
  6
Continuous
 62
     0
100
AcDbPoint
 10
406.4859088947586
 20
-70.84768215483697
 30
0.0
  0
ENDBLK
  5
64BC
330
64B1
100
AcDbEntity
  8
0
100
AcDbBlockEnd
  0
BLOCK
  5
65EA
330
65E9
100
AcDbEntity
  8
0
100
AcDbBlockBegin
  2
*D33
 70
     1
 10
0.0
 20
0.0
 30
0.0
  3
*D33
  1

  0
LINE
  5
6656
330
65E9
100
AcDbEntity
  8
30
  6
Continuous
 62
     0
370
    -2
100
AcDbLine
 10
434.8671757186886
 20
72.0
 30
0.0
 11
442.2518178735185
 21
72.0
 31
0.0
  0
LINE
  5
6657
330
65E9
100
AcDbEntity
  8
30
  6
Continuous
 62
     0
370
    -2
100
AcDbLine
 10
430.656529715811
 20
-72.00000000000007
 30
0.0
 11
442.2518178735185
 21
-72.00000000000007
 31
0.0
  0
LINE
  5
6658
330
65E9
100
AcDbEntity
  8
30
  6
Continuous
 62
     0
370
    -2
100
AcDbLine
 10
441.7518178735186
 20
70.0
 30
0.0
 11
441.7518178735186
 21
-70.00000000000007
 31
0.0
  0
INSERT
  5
6659
330
65E9
100
AcDbEntity
  8
30
  6
Continuous
 62
     0
370
    -2
100
AcDbBlockReference
  2
_OPEN
 10
441.7518178735186
 20
72.0
 30
0.0
 41
2.0
 42
2.0
 43
2.0
 50
90.0
  0
INSERT
  5
665A
330
65E9
100
AcDbEntity
  8
30
  6
Continuous
 62
     0
370
    -2
100
AcDbBlockReference
  2
_OPEN
 10
441.7518178735186
 20
-72.00000000000007
 30
0.0
 41
2.0
 42
2.0
 43
2.0
 50
270.0
  0
MTEXT
  5
665B
330
65E9
100
AcDbEntity
  8
30
  6
Continuous
 62
     0
100
AcDbMText
 10
438.7518178735184
 20
0.0000000000000444
 30
0.0
 40
4.0
 41
0.0
 71
     5
 72
     1
  1
\A1;144
 11
0.0000000000000001
 21
1.0
 31
0.0
 73
     1
 44
1.0
1001
ACAD
1000
MTEXTBEGIN
1070
    73
1070
     1
1070
    44
1040
1.0
1070
    74
1070
     0
1000
MTEXTEND
  0
POINT
  5
665C
330
65E9
100
AcDbEntity
  8
DEFPOINTS
  6
Continuous
 62
     0
100
AcDbPoint
 10
433.8671757186886
 20
72.0
 30
0.0
  0
POINT
  5
665D
330
65E9
100
AcDbEntity
  8
DEFPOINTS
  6
Continuous
 62
     0
100
AcDbPoint
 10
429.6565297158108
 20
-72.00000000000007
 30
0.0
  0
POINT
  5
665E
330
65E9
100
AcDbEntity
  8
DEFPOINTS
  6
Continuous
 62
     0
100
AcDbPoint
 10
441.7518178735186
 20
-72.00000000000007
 30
0.0
  0
ENDBLK
  5
65EB
330
65E9
100
AcDbEntity
  8
0
100
AcDbBlockEnd
  0
BLOCK
  5
65F6
330
65F5
100
AcDbEntity
  8
0
100
AcDbBlockBegin
  2
*D34
 70
     1
 10
0.0
 20
0.0
 30
0.0
  3
*D34
  1

  0
LINE
  5
665F
330
65F5
100
AcDbEntity
  8
30
  6
Continuous
 62
     0
370
    -2
100
AcDbLine
 10
233.4095201416833
 20
-106.9999999999999
 30
0.0
 11
233.4095201416833
 21
-185.954446411991
 31
0.0
  0
LINE
  5
6660
330
65F5
100
AcDbEntity
  8
30
  6
Continuous
 62
     0
370
    -2
100
AcDbLine
 10
394.4095201416831
 20
-73.00000000000007
 30
0.0
 11
394.4095201416831
 21
-185.954446411991
 31
0.0
  0
LINE
  5
6661
330
65F5
100
AcDbEntity
  8
30
  6
Continuous
 62
     0
370
    -2
100
AcDbLine
 10
235.4095201416833
 20
-185.454446411991
 30
0.0
 11
392.4095201416831
 21
-185.454446411991
 31
0.0
  0
INSERT
  5
6662
330
65F5
100
AcDbEntity
  8
30
  6
Continuous
 62
     0
370
    -2
100
AcDbBlockReference
  2
_OPEN
 10
233.4095201416833
 20
-185.454446411991
 30
0.0
 41
2.0
 42
2.0
 43
2.0
 50
180.0
  0
INSERT
  5
6663
330
65F5
100
AcDbEntity
  8
30
  6
Continuous
 62
     0
370
    -2
100
AcDbBlockReference
  2
_OPEN
 10
394.4095201416831
 20
-185.454446411991
 30
0.0
 41
2.0
 42
2.0
 43
2.0
  0
MTEXT
  5
6664
330
65F5
100
AcDbEntity
  8
30
  6
Continuous
 62
     0
100
AcDbMText
 10
313.9095201416832
 20
-182.454446411991
 30
0.0
 40
4.0
 41
0.0
 71
     5
 72
     1
  1
\A1;161
 73
     1
 44
1.0
1001
ACAD
1000
MTEXTBEGIN
1070
    73
1070
     1
1070
    44
1040
1.0
1070
    74
1070
     0
1000
MTEXTEND
  0
POINT
  5
6665
330
65F5
100
AcDbEntity
  8
DEFPOINTS
  6
Continuous
 62
     0
100
AcDbPoint
 10
233.4095201416833
 20
-105.9999999999999
 30
0.0
  0
POINT
  5
6666
330
65F5
100
AcDbEntity
  8
DEFPOINTS
  6
Continuous
 62
     0
100
AcDbPoint
 10
394.4095201416831
 20
-72.00000000000007
 30
0.0
  0
POINT
  5
6667
330
65F5
100
AcDbEntity
  8
DEFPOINTS
  6
Continuous
 62
     0
100
AcDbPoint
 10
394.4095201416831
 20
-185.454446411991
 30
0.0
  0
ENDBLK
  5
65F7
330
65F5
100
AcDbEntity
  8
0
100
AcDbBlockEnd
  0
BLOCK
  5
6602
330
6601
100
AcDbEntity
  8
0
100
AcDbBlockBegin
  2
*D35
 70
     1
 10
0.0
 20
0.0
 30
0.0
  3
*D35
  1

  0
LINE
  5
6668
330
6601
100
AcDbEntity
  8
30
  6
Continuous
 62
     0
370
    -2
100
AcDbLine
 10
233.4095201416833
 20
-106.9999999999999
 30
0.0
 11
233.4095201416833
 21
-160.954446411991
 31
0.0
  0
LINE
  5
6669
330
6601
100
AcDbEntity
  8
30
  6
Continuous
 62
     0
370
    -2
100
AcDbLine
 10
359.4095201416832
 20
-73.00000000000007
 30
0.0
 11
359.4095201416832
 21
-160.954446411991
 31
0.0
  0
LINE
  5
666A
330
6601
100
AcDbEntity
  8
30
  6
Continuous
 62
     0
370
    -2
100
AcDbLine
 10
235.4095201416833
 20
-160.454446411991
 30
0.0
 11
357.4095201416832
 21
-160.454446411991
 31
0.0
  0
INSERT
  5
666B
330
6601
100
AcDbEntity
  8
30
  6
Continuous
 62
     0
370
    -2
100
AcDbBlockReference
  2
_OPEN
 10
233.4095201416833
 20
-160.454446411991
 30
0.0
 41
2.0
 42
2.0
 43
2.0
 50
180.0
  0
INSERT
  5
666C
330
6601
100
AcDbEntity
  8
30
  6
Continuous
 62
     0
370
    -2
100
AcDbBlockReference
  2
_OPEN
 10
359.4095201416832
 20
-160.454446411991
 30
0.0
 41
2.0
 42
2.0
 43
2.0
  0
MTEXT
  5
666D
330
6601
100
AcDbEntity
  8
30
  6
Continuous
 62
     0
100
AcDbMText
 10
296.4095201416832
 20
-157.454446411991
 30
0.0
 40
4.0
 41
0.0
 71
     5
 72
     1
  1
\A1;126
 73
     1
 44
1.0
1001
ACAD
1000
MTEXTBEGIN
1070
    73
1070
     1
1070
    44
1040
1.0
1070
    74
1070
     0
1000
MTEXTEND
  0
POINT
  5
666E
330
6601
100
AcDbEntity
  8
DEFPOINTS
  6
Continuous
 62
     0
100
AcDbPoint
 10
233.4095201416833
 20
-105.9999999999999
 30
0.0
  0
POINT
  5
666F
330
6601
100
AcDbEntity
  8
DEFPOINTS
  6
Continuous
 62
     0
100
AcDbPoint
 10
359.4095201416832
 20
-72.00000000000007
 30
0.0
  0
POINT
  5
6670
330
6601
100
AcDbEntity
  8
DEFPOINTS
  6
Continuous
 62
     0
100
AcDbPoint
 10
359.4095201416832
 20
-160.454446411991
 30
0.0
  0
ENDBLK
  5
6603
330
6601
100
AcDbEntity
  8
0
100
AcDbBlockEnd
  0
BLOCK
  5
660E
330
660D
100
AcDbEntity
  8
0
100
AcDbBlockBegin
  2
*D36
 70
     1
 10
0.0
 20
0.0
 30
0.0
  3
*D36
  1

  0
LINE
  5
6671
330
660D
100
AcDbEntity
  8
30
  6
Continuous
 62
     0
370
    -2
100
AcDbLine
 10
218.4095201416833
 20
-97.00000000000006
 30
0.0
 11
218.4095201416833
 21
-160.954446411991
 31
0.0
  0
LINE
  5
6672
330
660D
100
AcDbEntity
  8
30
  6
Continuous
 62
     0
370
    -2
100
AcDbLine
 10
233.4095201416833
 20
-106.9999999999999
 30
0.0
 11
233.4095201416833
 21
-160.954446411991
 31
0.0
  0
LINE
  5
6673
330
660D
100
AcDbEntity
  8
30
  6
Continuous
 62
     0
370
    -2
100
AcDbLine
 10
220.4095201416833
 20
-160.454446411991
 30
0.0
 11
231.4095201416833
 21
-160.454446411991
 31
0.0
  0
INSERT
  5
6674
330
660D
100
AcDbEntity
  8
30
  6
Continuous
 62
     0
370
    -2
100
AcDbBlockReference
  2
_OPEN
 10
218.4095201416833
 20
-160.454446411991
 30
0.0
 41
2.0
 42
2.0
 43
2.0
 50
180.0
  0
INSERT
  5
6675
330
660D
100
AcDbEntity
  8
30
  6
Continuous
 62
     0
370
    -2
100
AcDbBlockReference
  2
_OPEN
 10
233.4095201416833
 20
-160.454446411991
 30
0.0
 41
2.0
 42
2.0
 43
2.0
  0
MTEXT
  5
6676
330
660D
100
AcDbEntity
  8
30
  6
Continuous
 62
     0
100
AcDbMText
 10
225.9095201416833
 20
-157.454446411991
 30
0.0
 40
4.0
 41
0.0
 71
     5
 72
     1
  1
\A1;15
 73
     1
 44
1.0
1001
ACAD
1000
MTEXTBEGIN
1070
    73
1070
     1
1070
    44
1040
1.0
1070
    74
1070
     0
1000
MTEXTEND
  0
POINT
  5
6677
330
660D
100
AcDbEntity
  8
DEFPOINTS
  6
Continuous
 62
     0
100
AcDbPoint
 10
218.4095201416833
 20
-96.00000000000006
 30
0.0
  0
POINT
  5
6678
330
660D
100
AcDbEntity
  8
DEFPOINTS
  6
Continuous
 62
     0
100
AcDbPoint
 10
233.4095201416833
 20
-105.9999999999999
 30
0.0
  0
POINT
  5
6679
330
660D
100
AcDbEntity
  8
DEFPOINTS
  6
Continuous
 62
     0
100
AcDbPoint
 10
233.4095201416833
 20
-160.454446411991
 30
0.0
  0
ENDBLK
  5
660F
330
660D
100
AcDbEntity
  8
0
100
AcDbBlockEnd
  0
BLOCK
  5
661A
330
6619
100
AcDbEntity
  8
0
100
AcDbBlockBegin
  2
*D37
 70
     1
 10
0.0
 20
0.0
 30
0.0
  3
*D37
  1

  0
LINE
  5
667A
330
6619
100
AcDbEntity
  8
30
  6
Continuous
 62
     0
370
    -2
100
AcDbLine
 10
196.4095201416832
 20
-3.500000016500054
 30
0.0
 11
196.4095201416832
 21
-185.954446411991
 31
0.0
  0
LINE
  5
667B
330
6619
100
AcDbEntity
  8
30
  6
Continuous
 62
     0
370
    -2
100
AcDbLine
 10
233.4095201416833
 20
-106.9999999999999
 30
0.0
 11
233.4095201416833
 21
-185.954446411991
 31
0.0
  0
LINE
  5
667C
330
6619
100
AcDbEntity
  8
30
  6
Continuous
 62
     0
370
    -2
100
AcDbLine
 10
198.4095201416832
 20
-185.454446411991
 30
0.0
 11
231.4095201416833
 21
-185.454446411991
 31
0.0
  0
INSERT
  5
667D
330
6619
100
AcDbEntity
  8
30
  6
Continuous
 62
     0
370
    -2
100
AcDbBlockReference
  2
_OPEN
 10
196.4095201416832
 20
-185.454446411991
 30
0.0
 41
2.0
 42
2.0
 43
2.0
 50
180.0
  0
INSERT
  5
667E
330
6619
100
AcDbEntity
  8
30
  6
Continuous
 62
     0
370
    -2
100
AcDbBlockReference
  2
_OPEN
 10
233.4095201416833
 20
-185.454446411991
 30
0.0
 41
2.0
 42
2.0
 43
2.0
  0
MTEXT
  5
667F
330
6619
100
AcDbEntity
  8
30
  6
Continuous
 62
     0
100
AcDbMText
 10
214.9095201416832
 20
-182.454446411991
 30
0.0
 40
4.0
 41
0.0
 71
     5
 72
     1
  1
\A1;37
 73
     1
 44
1.0
1001
ACAD
1000
MTEXTBEGIN
1070
    73
1070
     1
1070
    44
1040
1.0
1070
    74
1070
     0
1000
MTEXTEND
  0
POINT
  5
6680
330
6619
100
AcDbEntity
  8
DEFPOINTS
  6
Continuous
 62
     0
100
AcDbPoint
 10
196.4095201416832
 20
-2.500000016500054
 30
0.0
  0
POINT
  5
6681
330
6619
100
AcDbEntity
  8
DEFPOINTS
  6
Continuous
 62
     0
100
AcDbPoint
 10
233.4095201416833
 20
-105.9999999999999
 30
0.0
  0
POINT
  5
6682
330
6619
100
AcDbEntity
  8
DEFPOINTS
  6
Continuous
 62
     0
100
AcDbPoint
 10
233.4095201416833
 20
-185.454446411991
 30
0.0
  0
ENDBLK
  5
661B
330
6619
100
AcDbEntity
  8
0
100
AcDbBlockEnd
  0
BLOCK
  5
6626
330
6625
100
AcDbEntity
  8
0
100
AcDbBlockBegin
  2
*D38
 70
     1
 10
0.0
 20
0.0
 30
0.0
  3
*D38
  1

  0
LINE
  5
6683
330
6625
100
AcDbEntity
  8
30
  6
Continuous
 62
     0
370
    -2
100
AcDbLine
 10
395.4095201416831
 20
69.0
 30
0.0
 11
430.156529715811
 21
68.99999999999998
 31
0.0
  0
LINE
  5
6684
330
6625
100
AcDbEntity
  8
30
  6
Continuous
 62
     0
370
    -2
100
AcDbLine
 10
395.4095201416831
 20
75.0
 30
0.0
 11
430.156529715811
 21
74.99999999999999
 31
0.0
  0
LINE
  5
6685
330
6625
100
AcDbEntity
  8
30
  6
Continuous
 62
     0
370
    -2
100
AcDbLine
 10
429.6565297158108
 20
66.99999999999999
 30
0.0
 11
429.6565297158108
 21
64.99999999999999
 31
0.0
  0
LINE
  5
6686
330
6625
100
AcDbEntity
  8
30
  6
Continuous
 62
     0
370
    -2
100
AcDbLine
 10
429.6565297158108
 20
76.99999999999999
 30
0.0
 11
429.6565297158108
 21
78.99999999999998
 31
0.0
  0
INSERT
  5
6687
330
6625
100
AcDbEntity
  8
30
  6
Continuous
 62
     0
370
    -2
100
AcDbBlockReference
  2
_OPEN
 10
429.6565297158108
 20
68.99999999999998
 30
0.0
 41
2.0
 42
2.0
 43
2.0
 50
90.0
  0
INSERT
  5
6688
330
6625
100
AcDbEntity
  8
30
  6
Continuous
 62
     0
370
    -2
100
AcDbBlockReference
  2
_OPEN
 10
429.6565297158108
 20
74.99999999999999
 30
0.0
 41
2.0
 42
2.0
 43
2.0
 50
270.0
  0
MTEXT
  5
6689
330
6625
100
AcDbEntity
  8
30
  6
Continuous
 62
     0
100
AcDbMText
 10
426.656529715811
 20
72.00000000000007
 30
0.0
 40
4.0
 41
0.0
 71
     5
 72
     1
  1
\A1;6
 11
0.0000000000000001
 21
1.0
 31
0.0
 73
     1
 44
1.0
1001
ACAD
1000
MTEXTBEGIN
1070
    73
1070
     1
1070
    44
1040
1.0
1070
    74
1070
     0
1000
MTEXTEND
  0
POINT
  5
668A
330
6625
100
AcDbEntity
  8
DEFPOINTS
  6
Continuous
 62
     0
100
AcDbPoint
 10
394.4095201416831
 20
69.0
 30
0.0
  0
POINT
  5
668B
330
6625
100
AcDbEntity
  8
DEFPOINTS
  6
Continuous
 62
     0
100
AcDbPoint
 10
394.4095201416831
 20
75.0
 30
0.0
  0
POINT
  5
668C
330
6625
100
AcDbEntity
  8
DEFPOINTS
  6
Continuous
 62
     0
100
AcDbPoint
 10
429.6565297158108
 20
74.99999999999999
 30
0.0
  0
ENDBLK
  5
6627
330
6625
100
AcDbEntity
  8
0
100
AcDbBlockEnd
  0
BLOCK
  5
6633
330
6632
100
AcDbEntity
  8
0
100
AcDbBlockBegin
  2
*D39
 70
     1
 10
0.0
 20
0.0
 30
0.0
  3
*D39
  1

  0
LINE
  5
668D
330
6632
100
AcDbEntity
  8
30
  6
Continuous
 62
     0
370
    -2
100
AcDbLine
 10
392.7300282173719
 20
-82.00000000000008
 30
0.0
 11
430.156529715811
 21
-82.00000000000008
 31
0.0
  0
LINE
  5
668E
330
6632
100
AcDbEntity
  8
30
  6
Continuous
 62
     0
370
    -2
100
AcDbLine
 10
392.7300282173719
 20
-62.00000000000006
 30
0.0
 11
430.156529715811
 21
-62.00000000000006
 31
0.0
  0
LINE
  5
668F
330
6632
100
AcDbEntity
  8
30
  6
Continuous
 62
     0
370
    -2
100
AcDbLine
 10
429.6565297158108
 20
-80.00000000000007
 30
0.0
 11
429.6565297158108
 21
-64.00000000000007
 31
0.0
  0
INSERT
  5
6690
330
6632
100
AcDbEntity
  8
30
  6
Continuous
 62
     0
370
    -2
100
AcDbBlockReference
  2
_OPEN
 10
429.6565297158108
 20
-82.00000000000008
 30
0.0
 41
2.0
 42
2.0
 43
2.0
 50
270.0
  0
INSERT
  5
6691
330
6632
100
AcDbEntity
  8
30
  6
Continuous
 62
     0
370
    -2
100
AcDbBlockReference
  2
_OPEN
 10
429.6565297158108
 20
-62.00000000000006
 30
0.0
 41
2.0
 42
2.0
 43
2.0
 50
90.0
  0
MTEXT
  5
6692
330
6632
100
AcDbEntity
  8
30
  6
Continuous
 62
     0
100
AcDbMText
 10
426.656529715811
 20
-72.0
 30
0.0
 40
4.0
 41
0.0
 71
     5
 72
     1
  1
\A1;20
 11
0.0000000000000001
 21
1.0
 31
0.0
 73
     1
 44
1.0
1001
ACAD
1000
MTEXTBEGIN
1070
    73
1070
     1
1070
    44
1040
1.0
1070
    74
1070
     0
1000
MTEXTEND
  0
POINT
  5
6693
330
6632
100
AcDbEntity
  8
DEFPOINTS
  6
Continuous
 62
     0
100
AcDbPoint
 10
391.7300282173719
 20
-82.00000000000008
 30
0.0
  0
POINT
  5
6694
330
6632
100
AcDbEntity
  8
DEFPOINTS
  6
Continuous
 62
     0
100
AcDbPoint
 10
391.7300282173719
 20
-62.00000000000006
 30
0.0
  0
POINT
  5
6695
330
6632
100
AcDbEntity
  8
DEFPOINTS
  6
Continuous
 62
     0
100
AcDbPoint
 10
429.6565297158108
 20
-62.00000000000006
 30
0.0
  0
ENDBLK
  5
6634
330
6632
100
AcDbEntity
  8
0
100
AcDbBlockEnd
  0
BLOCK
  5
663F
330
663E
100
AcDbEntity
  8
0
100
AcDbBlockBegin
  2
*D40
 70
     1
 10
0.0
 20
0.0
 30
0.0
  3
*D40
  1

  0
LINE
  5
6696
330
663E
100
AcDbEntity
  8
30
  6
Continuous
 62
     0
370
    -2
100
AcDbLine
 10
344.4095201416829
 20
-75.50000001650001
 30
0.0
 11
344.4095201416829
 21
-135.9544464119911
 31
0.0
  0
LINE
  5
6697
330
663E
100
AcDbEntity
  8
30
  6
Continuous
 62
     0
370
    -2
100
AcDbLine
 10
359.4095201416832
 20
-83.3077641000607
 30
0.0
 11
359.4095201416832
 21
-135.9544464119911
 31
0.0
  0
LINE
  5
6698
330
663E
100
AcDbEntity
  8
30
  6
Continuous
 62
     0
370
    -2
100
AcDbLine
 10
346.4095201416829
 20
-135.4544464119911
 30
0.0
 11
357.4095201416832
 21
-135.4544464119911
 31
0.0
  0
INSERT
  5
6699
330
663E
100
AcDbEntity
  8
30
  6
Continuous
 62
     0
370
    -2
100
AcDbBlockReference
  2
_OPEN
 10
344.4095201416829
 20
-135.4544464119911
 30
0.0
 41
2.0
 42
2.0
 43
2.0
 50
180.0
  0
INSERT
  5
669A
330
663E
100
AcDbEntity
  8
30
  6
Continuous
 62
     0
370
    -2
100
AcDbBlockReference
  2
_OPEN
 10
359.4095201416832
 20
-135.4544464119911
 30
0.0
 41
2.0
 42
2.0
 43
2.0
  0
MTEXT
  5
669B
330
663E
100
AcDbEntity
  8
30
  6
Continuous
 62
     0
100
AcDbMText
 10
351.9095201416831
 20
-132.4544464119911
 30
0.0
 40
4.0
 41
0.0
 71
     5
 72
     1
  1
\A1;15
 73
     1
 44
1.0
1001
ACAD
1000
MTEXTBEGIN
1070
    73
1070
     1
1070
    44
1040
1.0
1070
    74
1070
     0
1000
MTEXTEND
  0
POINT
  5
669C
330
663E
100
AcDbEntity
  8
DEFPOINTS
  6
Continuous
 62
     0
100
AcDbPoint
 10
344.4095201416829
 20
-74.50000001650001
 30
0.0
  0
POINT
  5
669D
330
663E
100
AcDbEntity
  8
DEFPOINTS
  6
Continuous
 62
     0
100
AcDbPoint
 10
359.4095201416832
 20
-82.30776410006072
 30
0.0
  0
POINT
  5
669E
330
663E
100
AcDbEntity
  8
DEFPOINTS
  6
Continuous
 62
     0
100
AcDbPoint
 10
359.4095201416832
 20
-135.4544464119911
 30
0.0
  0
ENDBLK
  5
6640
330
663E
100
AcDbEntity
  8
0
100
AcDbBlockEnd
  0
BLOCK
  5
664B
330
664A
100
AcDbEntity
  8
0
100
AcDbBlockBegin
  2
*D41
 70
     1
 10
0.0
 20
0.0
 30
0.0
  3
*D41
  1

  0
LINE
  5
669F
330
664A
100
AcDbEntity
  8
30
  6
Continuous
 62
     0
370
    -2
100
AcDbLine
 10
379.4095201416831
 20
-75.50000001650001
 30
0.0
 11
379.4095201416831
 21
-135.9544464119911
 31
0.0
  0
LINE
  5
66A0
330
664A
100
AcDbEntity
  8
30
  6
Continuous
 62
     0
370
    -2
100
AcDbLine
 10
394.4095201416831
 20
-83.3077641000607
 30
0.0
 11
394.4095201416831
 21
-135.9544464119911
 31
0.0
  0
LINE
  5
66A1
330
664A
100
AcDbEntity
  8
30
  6
Continuous
 62
     0
370
    -2
100
AcDbLine
 10
381.4095201416831
 20
-135.4544464119911
 30
0.0
 11
392.4095201416831
 21
-135.4544464119911
 31
0.0
  0
INSERT
  5
66A2
330
664A
100
AcDbEntity
  8
30
  6
Continuous
 62
     0
370
    -2
100
AcDbBlockReference
  2
_OPEN
 10
379.4095201416831
 20
-135.4544464119911
 30
0.0
 41
2.0
 42
2.0
 43
2.0
 50
180.0
  0
INSERT
  5
66A3
330
664A
100
AcDbEntity
  8
30
  6
Continuous
 62
     0
370
    -2
100
AcDbBlockReference
  2
_OPEN
 10
394.4095201416831
 20
-135.4544464119911
 30
0.0
 41
2.0
 42
2.0
 43
2.0
  0
MTEXT
  5
66A4
330
664A
100
AcDbEntity
  8
30
  6
Continuous
 62
     0
100
AcDbMText
 10
386.9095201416831
 20
-132.4544464119911
 30
0.0
 40
4.0
 41
0.0
 71
     5
 72
     1
  1
\A1;15
 73
     1
 44
1.0
1001
ACAD
1000
MTEXTBEGIN
1070
    73
1070
     1
1070
    44
1040
1.0
1070
    74
1070
     0
1000
MTEXTEND
  0
POINT
  5
66A5
330
664A
100
AcDbEntity
  8
DEFPOINTS
  6
Continuous
 62
     0
100
AcDbPoint
 10
379.4095201416831
 20
-74.50000001650001
 30
0.0
  0
POINT
  5
66A6
330
664A
100
AcDbEntity
  8
DEFPOINTS
  6
Continuous
 62
     0
100
AcDbPoint
 10
394.4095201416831
 20
-82.30776410006072
 30
0.0
  0
POINT
  5
66A7
330
664A
100
AcDbEntity
  8
DEFPOINTS
  6
Continuous
 62
     0
100
AcDbPoint
 10
394.4095201416831
 20
-135.4544464119911
 30
0.0
  0
ENDBLK
  5
664C
330
664A
100
AcDbEntity
  8
0
100
AcDbBlockEnd
  0
BLOCK
  5
66AB
330
66AA
100
AcDbEntity
  8
0
370
     0
100
AcDbBlockBegin
  2
*D42
 70
     1
 10
0.0
 20
0.0
 30
0.0
  3
*D42
  1

  0
LINE
  5
66AC
330
66AA
100
AcDbEntity
  8
1
  6
Continuous
 62
     4
370
    -2
100
AcDbLine
 10
976.9551781812593
 20
344.8012361548072
 30
0.0
 11
976.9551781812593
 21
444.0056811548068
 31
0.0
  0
LINE
  5
66AD
330
66AA
100
AcDbEntity
  8
1
  6
Continuous
 62
     4
370
    -2
100
AcDbLine
 10
1011.955178181259
 20
385.3012361548072
 30
0.0
 11
1011.955178181259
 21
444.0056811548068
 31
0.0
  0
LINE
  5
66AE
330
66AA
100
AcDbEntity
  8
1
  6
Continuous
 62
     4
370
    -2
100
AcDbLine
 10
978.9551781812592
 20
443.0056811548069
 30
0.0
 11
1009.955178181259
 21
443.0056811548069
 31
0.0
  0
SOLID
  5
66AF
330
66AA
100
AcDbEntity
  8
1
  6
Continuous
 62
     4
370
     0
100
AcDbTrace
 10
978.9551781812592
 20
443.3390144881403
 30
0.0
 11
978.9551781812592
 21
442.6723478214737
 31
0.0
 12
976.9551781812593
 22
443.0056811548069
 32
0.0
 13
976.9551781812593
 23
443.0056811548069
 33
0.0
  0
SOLID
  5
66B0
330
66AA
100
AcDbEntity
  8
1
  6
Continuous
 62
     4
370
     0
100
AcDbTrace
 10
1009.955178181259
 20
443.3390144881403
 30
0.0
 11
1009.955178181259
 21
442.6723478214737
 31
0.0
 12
1011.955178181259
 22
443.0056811548069
 32
0.0
 13
1011.955178181259
 23
443.0056811548069
 33
0.0
  0
MTEXT
  5
66B1
330
66AA
100
AcDbEntity
  8
1
  6
Continuous
 62
     4
100
AcDbMText
 10
994.455178181259
 20
444.2556811548071
 30
0.0
 40
2.5
 41
0.0
 71
     5
 72
     1
  1
\A1; 35 
 73
     1
 44
1.0
1001
ACAD
1000
MTEXTBEGIN
1070
    73
1070
     1
1070
    44
1040
1.0
1070
    74
1070
     0
1000
MTEXTEND
  0
POINT
  5
66B2
330
66AA
100
AcDbEntity
  8
DEFPOINTS
  6
Continuous
 62
     0
370
     0
100
AcDbPoint
 10
976.9551781812593
 20
343.8012361548071
 30
0.0
  0
POINT
  5
66B3
330
66AA
100
AcDbEntity
  8
DEFPOINTS
  6
Continuous
 62
     0
370
     0
100
AcDbPoint
 10
1011.955178181259
 20
384.3012361548072
 30
0.0
  0
POINT
  5
66B4
330
66AA
100
AcDbEntity
  8
DEFPOINTS
  6
Continuous
 62
     0
370
     0
100
AcDbPoint
 10
1011.955178181259
 20
443.0056811548069
 30
0.0
  0
ENDBLK
  5
66B5
330
66AA
100
AcDbEntity
  8
0
370
     0
100
AcDbBlockEnd
  0
BLOCK
  5
66B7
330
66B6
100
AcDbEntity
  8
0
370
     0
100
AcDbBlockBegin
  2
*D43
 70
     1
 10
0.0
 20
0.0
 30
0.0
  3
*D43
  1

  0
LINE
  5
66B8
330
66B6
100
AcDbEntity
  8
1
  6
Continuous
 62
     4
370
    -2
100
AcDbLine
 10
1011.955178181259
 20
385.3012361548072
 30
0.0
 11
1011.955178181259
 21
444.0056811548068
 31
0.0
  0
LINE
  5
66B9
330
66B6
100
AcDbEntity
  8
1
  6
Continuous
 62
     4
370
    -2
100
AcDbLine
 10
1046.955178181259
 20
344.8012361548072
 30
0.0
 11
1046.955178181259
 21
444.0056811548068
 31
0.0
  0
LINE
  5
66BA
330
66B6
100
AcDbEntity
  8
1
  6
Continuous
 62
     4
370
    -2
100
AcDbLine
 10
1013.955178181259
 20
443.0056811548069
 30
0.0
 11
1044.955178181259
 21
443.0056811548069
 31
0.0
  0
SOLID
  5
66BB
330
66B6
100
AcDbEntity
  8
1
  6
Continuous
 62
     4
370
     0
100
AcDbTrace
 10
1013.955178181259
 20
443.3390144881403
 30
0.0
 11
1013.955178181259
 21
442.6723478214737
 31
0.0
 12
1011.955178181259
 22
443.0056811548069
 32
0.0
 13
1011.955178181259
 23
443.0056811548069
 33
0.0
  0
SOLID
  5
66BC
330
66B6
100
AcDbEntity
  8
1
  6
Continuous
 62
     4
370
     0
100
AcDbTrace
 10
1044.955178181259
 20
443.3390144881403
 30
0.0
 11
1044.955178181259
 21
442.6723478214737
 31
0.0
 12
1046.955178181259
 22
443.0056811548069
 32
0.0
 13
1046.955178181259
 23
443.0056811548069
 33
0.0
  0
MTEXT
  5
66BD
330
66B6
100
AcDbEntity
  8
1
  6
Continuous
 62
     4
100
AcDbMText
 10
1029.455178181259
 20
444.2556811548071
 30
0.0
 40
2.5
 41
0.0
 71
     5
 72
     1
  1
\A1; 35 
 73
     1
 44
1.0
1001
ACAD
1000
MTEXTBEGIN
1070
    73
1070
     1
1070
    44
1040
1.0
1070
    74
1070
     0
1000
MTEXTEND
  0
POINT
  5
66BE
330
66B6
100
AcDbEntity
  8
DEFPOINTS
  6
Continuous
 62
     0
370
     0
100
AcDbPoint
 10
1011.955178181259
 20
384.3012361548072
 30
0.0
  0
POINT
  5
66BF
330
66B6
100
AcDbEntity
  8
DEFPOINTS
  6
Continuous
 62
     0
370
     0
100
AcDbPoint
 10
1046.955178181259
 20
343.8012361548071
 30
0.0
  0
POINT
  5
66C0
330
66B6
100
AcDbEntity
  8
DEFPOINTS
  6
Continuous
 62
     0
370
     0
100
AcDbPoint
 10
1046.955178181259
 20
443.0056811548069
 30
0.0
  0
ENDBLK
  5
66C1
330
66B6
100
AcDbEntity
  8
0
370
     0
100
AcDbBlockEnd
  0
BLOCK
  5
66C3
330
66C2
100
AcDbEntity
  8
0
370
     0
100
AcDbBlockBegin
  2
*D44
 70
     1
 10
0.0
 20
0.0
 30
0.0
  3
*D44
  1

  0
LINE
  5
66C4
330
66C2
100
AcDbEntity
  8
1
  6
Continuous
 62
     4
370
    -2
100
AcDbLine
 10
1046.955178181259
 20
344.8012361548072
 30
0.0
 11
1046.955178181259
 21
444.0056811548068
 31
0.0
  0
LINE
  5
66C5
330
66C2
100
AcDbEntity
  8
1
  6
Continuous
 62
     4
370
    -2
100
AcDbLine
 10
1081.955178181259
 20
385.3012361548072
 30
0.0
 11
1081.955178181259
 21
444.0056811548068
 31
0.0
  0
LINE
  5
66C6
330
66C2
100
AcDbEntity
  8
1
  6
Continuous
 62
     4
370
    -2
100
AcDbLine
 10
1048.955178181259
 20
443.0056811548069
 30
0.0
 11
1079.955178181259
 21
443.0056811548069
 31
0.0
  0
SOLID
  5
66C7
330
66C2
100
AcDbEntity
  8
1
  6
Continuous
 62
     4
370
     0
100
AcDbTrace
 10
1048.955178181259
 20
443.3390144881403
 30
0.0
 11
1048.955178181259
 21
442.6723478214737
 31
0.0
 12
1046.955178181259
 22
443.0056811548069
 32
0.0
 13
1046.955178181259
 23
443.0056811548069
 33
0.0
  0
SOLID
  5
66C8
330
66C2
100
AcDbEntity
  8
1
  6
Continuous
 62
     4
370
     0
100
AcDbTrace
 10
1079.955178181259
 20
443.3390144881403
 30
0.0
 11
1079.955178181259
 21
442.6723478214737
 31
0.0
 12
1081.955178181259
 22
443.0056811548069
 32
0.0
 13
1081.955178181259
 23
443.0056811548069
 33
0.0
  0
MTEXT
  5
66C9
330
66C2
100
AcDbEntity
  8
1
  6
Continuous
 62
     4
100
AcDbMText
 10
1064.455178181259
 20
444.2556811548071
 30
0.0
 40
2.5
 41
0.0
 71
     5
 72
     1
  1
\A1; 35 
 73
     1
 44
1.0
1001
ACAD
1000
MTEXTBEGIN
1070
    73
1070
     1
1070
    44
1040
1.0
1070
    74
1070
     0
1000
MTEXTEND
  0
POINT
  5
66CA
330
66C2
100
AcDbEntity
  8
DEFPOINTS
  6
Continuous
 62
     0
370
     0
100
AcDbPoint
 10
1046.955178181259
 20
343.8012361548071
 30
0.0
  0
POINT
  5
66CB
330
66C2
100
AcDbEntity
  8
DEFPOINTS
  6
Continuous
 62
     0
370
     0
100
AcDbPoint
 10
1081.955178181259
 20
384.3012361548072
 30
0.0
  0
POINT
  5
66CC
330
66C2
100
AcDbEntity
  8
DEFPOINTS
  6
Continuous
 62
     0
370
     0
100
AcDbPoint
 10
1081.955178181259
 20
443.0056811548069
 30
0.0
  0
ENDBLK
  5
66CD
330
66C2
100
AcDbEntity
  8
0
370
     0
100
AcDbBlockEnd
  0
BLOCK
  5
66CF
330
66CE
100
AcDbEntity
  8
0
370
     0
100
AcDbBlockBegin
  2
*D45
 70
     1
 10
0.0
 20
0.0
 30
0.0
  3
*D45
  1

  0
LINE
  5
66D0
330
66CE
100
AcDbEntity
  8
1
  6
Continuous
 62
     4
370
    -2
100
AcDbLine
 10
1011.955178181259
 20
188.8012361548072
 30
0.0
 11
1011.955178181259
 21
198.963043654807
 31
0.0
  0
LINE
  5
66D1
330
66CE
100
AcDbEntity
  8
1
  6
Continuous
 62
     4
370
    -2
100
AcDbLine
 10
1029.455178181259
 20
327.8012361548072
 30
0.0
 11
1029.455178181259
 21
196.9630436548071
 31
0.0
  0
LINE
  5
66D2
330
66CE
100
AcDbEntity
  8
1
  6
Continuous
 62
     4
370
    -2
100
AcDbLine
 10
1013.955178181259
 20
197.963043654807
 30
0.0
 11
1027.455178181259
 21
197.963043654807
 31
0.0
  0
SOLID
  5
66D3
330
66CE
100
AcDbEntity
  8
1
  6
Continuous
 62
     4
370
     0
100
AcDbTrace
 10
1013.955178181259
 20
198.2963769881404
 30
0.0
 11
1013.955178181259
 21
197.6297103214737
 31
0.0
 12
1011.955178181259
 22
197.963043654807
 32
0.0
 13
1011.955178181259
 23
197.963043654807
 33
0.0
  0
SOLID
  5
66D4
330
66CE
100
AcDbEntity
  8
1
  6
Continuous
 62
     4
370
     0
100
AcDbTrace
 10
1027.455178181259
 20
198.2963769881404
 30
0.0
 11
1027.455178181259
 21
197.6297103214737
 31
0.0
 12
1029.455178181259
 22
197.963043654807
 32
0.0
 13
1029.455178181259
 23
197.963043654807
 33
0.0
  0
MTEXT
  5
66D5
330
66CE
100
AcDbEntity
  8
1
  6
Continuous
 62
     4
100
AcDbMText
 10
1020.705178181259
 20
199.213043654807
 30
0.0
 40
2.5
 41
0.0
 71
     5
 72
     1
  1
\A1; 17.5 
 73
     1
 44
1.0
1001
ACAD
1000
MTEXTBEGIN
1070
    73
1070
     1
1070
    44
1040
1.0
1070
    74
1070
     0
1000
MTEXTEND
  0
POINT
  5
66D6
330
66CE
100
AcDbEntity
  8
DEFPOINTS
  6
Continuous
 62
     0
370
     0
100
AcDbPoint
 10
1011.955178181259
 20
187.8012361548072
 30
0.0
  0
POINT
  5
66D7
330
66CE
100
AcDbEntity
  8
DEFPOINTS
  6
Continuous
 62
     0
370
     0
100
AcDbPoint
 10
1029.455178181259
 20
328.8012361548072
 30
0.0
  0
POINT
  5
66D8
330
66CE
100
AcDbEntity
  8
DEFPOINTS
  6
Continuous
 62
     0
370
     0
100
AcDbPoint
 10
1029.455178181259
 20
197.963043654807
 30
0.0
  0
ENDBLK
  5
66D9
330
66CE
100
AcDbEntity
  8
0
370
     0
100
AcDbBlockEnd
  0
BLOCK
  5
6805
330
6804
100
AcDbEntity
  8
0
100
AcDbBlockBegin
  2
*D46
 70
     1
 10
0.0
 20
0.0
 30
0.0
  3
*D46
  1

  0
LINE
  5
6834
330
6804
100
AcDbEntity
  8
1
  6
Continuous
 62
     4
370
    -2
100
AcDbLine
 10
-304.2135672628335
 20
259.2376951666628
 30
0.0
 11
-304.2135672628335
 21
358.4421401666629
 31
0.0
  0
LINE
  5
6835
330
6804
100
AcDbEntity
  8
1
  6
Continuous
 62
     4
370
    -2
100
AcDbLine
 10
-269.2135672628335
 20
299.7376951666628
 30
0.0
 11
-269.2135672628335
 21
358.4421401666629
 31
0.0
  0
LINE
  5
6836
330
6804
100
AcDbEntity
  8
1
  6
Continuous
 62
     4
370
    -2
100
AcDbLine
 10
-302.2135672628335
 20
357.4421401666628
 30
0.0
 11
-271.2135672628335
 21
357.4421401666628
 31
0.0
  0
INSERT
  5
6837
330
6804
100
AcDbEntity
  8
1
  6
Continuous
 62
     4
370
    -2
100
AcDbBlockReference
  2
_OPEN
 10
-304.2135672628335
 20
357.4421401666628
 30
0.0
 41
2.0
 42
2.0
 43
2.0
 50
180.0
  0
INSERT
  5
6838
330
6804
100
AcDbEntity
  8
1
  6
Continuous
 62
     4
370
    -2
100
AcDbBlockReference
  2
_OPEN
 10
-269.2135672628335
 20
357.4421401666628
 30
0.0
 41
2.0
 42
2.0
 43
2.0
  0
MTEXT
  5
6839
330
6804
100
AcDbEntity
  8
1
  6
Continuous
 62
     4
100
AcDbMText
 10
-286.7135672628335
 20
358.6921401666629
 30
0.0
 40
2.5
 41
0.0
 71
     5
 72
     1
  1
\A1; 35 
 73
     1
 44
1.0
1001
ACAD
1000
MTEXTBEGIN
1070
    73
1070
     1
1070
    44
1040
1.0
1070
    74
1070
     0
1000
MTEXTEND
  0
POINT
  5
683A
330
6804
100
AcDbEntity
  8
DEFPOINTS
  6
Continuous
 62
     0
100
AcDbPoint
 10
-304.2135672628335
 20
258.2376951666628
 30
0.0
  0
POINT
  5
683B
330
6804
100
AcDbEntity
  8
DEFPOINTS
  6
Continuous
 62
     0
100
AcDbPoint
 10
-269.2135672628335
 20
298.7376951666628
 30
0.0
  0
POINT
  5
683C
330
6804
100
AcDbEntity
  8
DEFPOINTS
  6
Continuous
 62
     0
100
AcDbPoint
 10
-269.2135672628335
 20
357.4421401666628
 30
0.0
  0
ENDBLK
  5
6806
330
6804
100
AcDbEntity
  8
0
100
AcDbBlockEnd
  0
BLOCK
  5
6811
330
6810
100
AcDbEntity
  8
0
100
AcDbBlockBegin
  2
*D47
 70
     1
 10
0.0
 20
0.0
 30
0.0
  3
*D47
  1

  0
LINE
  5
683D
330
6810
100
AcDbEntity
  8
1
  6
Continuous
 62
     4
370
    -2
100
AcDbLine
 10
-269.2135672628335
 20
299.7376951666628
 30
0.0
 11
-269.2135672628335
 21
358.4421401666629
 31
0.0
  0
LINE
  5
683E
330
6810
100
AcDbEntity
  8
1
  6
Continuous
 62
     4
370
    -2
100
AcDbLine
 10
-234.2135672628335
 20
259.2376951666628
 30
0.0
 11
-234.2135672628335
 21
358.4421401666629
 31
0.0
  0
LINE
  5
683F
330
6810
100
AcDbEntity
  8
1
  6
Continuous
 62
     4
370
    -2
100
AcDbLine
 10
-267.2135672628335
 20
357.4421401666628
 30
0.0
 11
-236.2135672628335
 21
357.4421401666628
 31
0.0
  0
INSERT
  5
6840
330
6810
100
AcDbEntity
  8
1
  6
Continuous
 62
     4
370
    -2
100
AcDbBlockReference
  2
_OPEN
 10
-269.2135672628335
 20
357.4421401666628
 30
0.0
 41
2.0
 42
2.0
 43
2.0
 50
180.0
  0
INSERT
  5
6841
330
6810
100
AcDbEntity
  8
1
  6
Continuous
 62
     4
370
    -2
100
AcDbBlockReference
  2
_OPEN
 10
-234.2135672628335
 20
357.4421401666628
 30
0.0
 41
2.0
 42
2.0
 43
2.0
  0
MTEXT
  5
6842
330
6810
100
AcDbEntity
  8
1
  6
Continuous
 62
     4
100
AcDbMText
 10
-251.7135672628335
 20
358.6921401666629
 30
0.0
 40
2.5
 41
0.0
 71
     5
 72
     1
  1
\A1; 35 
 73
     1
 44
1.0
1001
ACAD
1000
MTEXTBEGIN
1070
    73
1070
     1
1070
    44
1040
1.0
1070
    74
1070
     0
1000
MTEXTEND
  0
POINT
  5
6843
330
6810
100
AcDbEntity
  8
DEFPOINTS
  6
Continuous
 62
     0
100
AcDbPoint
 10
-269.2135672628335
 20
298.7376951666628
 30
0.0
  0
POINT
  5
6844
330
6810
100
AcDbEntity
  8
DEFPOINTS
  6
Continuous
 62
     0
100
AcDbPoint
 10
-234.2135672628335
 20
258.2376951666628
 30
0.0
  0
POINT
  5
6845
330
6810
100
AcDbEntity
  8
DEFPOINTS
  6
Continuous
 62
     0
100
AcDbPoint
 10
-234.2135672628335
 20
357.4421401666628
 30
0.0
  0
ENDBLK
  5
6812
330
6810
100
AcDbEntity
  8
0
100
AcDbBlockEnd
  0
BLOCK
  5
681D
330
681C
100
AcDbEntity
  8
0
100
AcDbBlockBegin
  2
*D48
 70
     1
 10
0.0
 20
0.0
 30
0.0
  3
*D48
  1

  0
LINE
  5
6846
330
681C
100
AcDbEntity
  8
1
  6
Continuous
 62
     4
370
    -2
100
AcDbLine
 10
-234.2135672628335
 20
259.2376951666628
 30
0.0
 11
-234.2135672628335
 21
358.4421401666629
 31
0.0
  0
LINE
  5
6847
330
681C
100
AcDbEntity
  8
1
  6
Continuous
 62
     4
370
    -2
100
AcDbLine
 10
-199.2135672628335
 20
299.7376951666628
 30
0.0
 11
-199.2135672628335
 21
358.4421401666629
 31
0.0
  0
LINE
  5
6848
330
681C
100
AcDbEntity
  8
1
  6
Continuous
 62
     4
370
    -2
100
AcDbLine
 10
-232.2135672628335
 20
357.4421401666628
 30
0.0
 11
-201.2135672628335
 21
357.4421401666628
 31
0.0
  0
INSERT
  5
6849
330
681C
100
AcDbEntity
  8
1
  6
Continuous
 62
     4
370
    -2
100
AcDbBlockReference
  2
_OPEN
 10
-234.2135672628335
 20
357.4421401666628
 30
0.0
 41
2.0
 42
2.0
 43
2.0
 50
180.0
  0
INSERT
  5
684A
330
681C
100
AcDbEntity
  8
1
  6
Continuous
 62
     4
370
    -2
100
AcDbBlockReference
  2
_OPEN
 10
-199.2135672628335
 20
357.4421401666628
 30
0.0
 41
2.0
 42
2.0
 43
2.0
  0
MTEXT
  5
684B
330
681C
100
AcDbEntity
  8
1
  6
Continuous
 62
     4
100
AcDbMText
 10
-216.7135672628335
 20
358.6921401666629
 30
0.0
 40
2.5
 41
0.0
 71
     5
 72
     1
  1
\A1; 35 
 73
     1
 44
1.0
1001
ACAD
1000
MTEXTBEGIN
1070
    73
1070
     1
1070
    44
1040
1.0
1070
    74
1070
     0
1000
MTEXTEND
  0
POINT
  5
684C
330
681C
100
AcDbEntity
  8
DEFPOINTS
  6
Continuous
 62
     0
100
AcDbPoint
 10
-234.2135672628335
 20
258.2376951666628
 30
0.0
  0
POINT
  5
684D
330
681C
100
AcDbEntity
  8
DEFPOINTS
  6
Continuous
 62
     0
100
AcDbPoint
 10
-199.2135672628335
 20
298.7376951666628
 30
0.0
  0
POINT
  5
684E
330
681C
100
AcDbEntity
  8
DEFPOINTS
  6
Continuous
 62
     0
100
AcDbPoint
 10
-199.2135672628335
 20
357.4421401666628
 30
0.0
  0
ENDBLK
  5
681E
330
681C
100
AcDbEntity
  8
0
100
AcDbBlockEnd
  0
BLOCK
  5
6829
330
6828
100
AcDbEntity
  8
0
100
AcDbBlockBegin
  2
*D49
 70
     1
 10
0.0
 20
0.0
 30
0.0
  3
*D49
  1

  0
LINE
  5
684F
330
6828
100
AcDbEntity
  8
1
  6
Continuous
 62
     4
370
    -2
100
AcDbLine
 10
-269.2135672628335
 20
103.2376951666629
 30
0.0
 11
-269.2135672628335
 21
113.3995026666628
 31
0.0
  0
LINE
  5
6850
330
6828
100
AcDbEntity
  8
1
  6
Continuous
 62
     4
370
    -2
100
AcDbLine
 10
-251.7135672628335
 20
242.2376951666628
 30
0.0
 11
-251.7135672628335
 21
111.3995026666628
 31
0.0
  0
LINE
  5
6851
330
6828
100
AcDbEntity
  8
1
  6
Continuous
 62
     4
370
    -2
100
AcDbLine
 10
-267.2135672628335
 20
112.3995026666628
 30
0.0
 11
-253.7135672628335
 21
112.3995026666628
 31
0.0
  0
INSERT
  5
6852
330
6828
100
AcDbEntity
  8
1
  6
Continuous
 62
     4
370
    -2
100
AcDbBlockReference
  2
_OPEN
 10
-269.2135672628335
 20
112.3995026666628
 30
0.0
 41
2.0
 42
2.0
 43
2.0
 50
180.0
  0
INSERT
  5
6853
330
6828
100
AcDbEntity
  8
1
  6
Continuous
 62
     4
370
    -2
100
AcDbBlockReference
  2
_OPEN
 10
-251.7135672628335
 20
112.3995026666628
 30
0.0
 41
2.0
 42
2.0
 43
2.0
  0
MTEXT
  5
6854
330
6828
100
AcDbEntity
  8
1
  6
Continuous
 62
     4
100
AcDbMText
 10
-260.4635672628335
 20
113.6495026666628
 30
0.0
 40
2.5
 41
0.0
 71
     5
 72
     1
  1
\A1; 17.5 
 73
     1
 44
1.0
1001
ACAD
1000
MTEXTBEGIN
1070
    73
1070
     1
1070
    44
1040
1.0
1070
    74
1070
     0
1000
MTEXTEND
  0
POINT
  5
6855
330
6828
100
AcDbEntity
  8
DEFPOINTS
  6
Continuous
 62
     0
100
AcDbPoint
 10
-269.2135672628335
 20
102.2376951666629
 30
0.0
  0
POINT
  5
6856
330
6828
100
AcDbEntity
  8
DEFPOINTS
  6
Continuous
 62
     0
100
AcDbPoint
 10
-251.7135672628335
 20
243.2376951666628
 30
0.0
  0
POINT
  5
6857
330
6828
100
AcDbEntity
  8
DEFPOINTS
  6
Continuous
 62
     0
100
AcDbPoint
 10
-251.7135672628335
 20
112.3995026666628
 30
0.0
  0
ENDBLK
  5
682A
330
6828
100
AcDbEntity
  8
0
100
AcDbBlockEnd
  0
ENDSEC
  0
SECTION
  2
ENTITIES
  0
LINE
  5
B4
330
1E
100
AcDbEntity
  8
16
100
AcDbLine
 10
0.0
 20
-101.8246001220914
 30
0.0
 11
0.0
 21
105.6073578546832
 31
0.0
  0
LINE
  5
B5
330
1E
100
AcDbEntity
  8
16
100
AcDbLine
 10
106.774655642063
 20
-0.0000000000000007
 30
0.0
 11
-83.90588178115756
 21
-0.0000000000000007
 31
0.0
  0
LINE
  5
1C9A
330
1E
100
AcDbEntity
  8
16
100
AcDbLine
 10
0.0000000000001157
 20
118.3138729996612
 30
0.0
 11
0.0000000000001157
 21
260.8138729996611
 31
0.0
  0
LINE
  5
1C9B
330
1E
100
AcDbEntity
  8
16
100
AcDbLine
 10
307.6420106438391
 20
0.0
 30
0.0
 11
175.4767630316695
 21
0.0
 31
0.0
  0
LINE
  5
2260
330
1E
100
AcDbEntity
  8
16
100
AcDbLine
 10
103.5238030142358
 20
-252.6631237443548
 30
0.0
 11
-80.93000773675209
 21
-252.6631237443548
 31
0.0
  0
LINE
  5
2261
330
1E
100
AcDbEntity
  8
16
100
AcDbLine
 10
-0.3800945351711884
 20
-350.4150635072006
 30
0.0
 11
-0.3800945351711884
 21
-151.2797245348689
 31
0.0
  0
DIMENSION
  5
57FE
330
1E
100
AcDbEntity
  8
30
  6
Continuous
100
AcDbDimension
  2
*D1
 10
113.5
 20
-117.6551789019862
 30
0.0
 11
17.5
 21
-114.6551789019861
 31
0.0
 70
    32
 71
     5
 42
-1.0
  3
STANDARD
100
AcDbAlignedDimension
 13
-78.5
 23
-95.04528757673485
 33
0.0
 14
113.5
 24
-95.04528757673485
 34
0.0
 50
180.0
100
AcDbRotatedDimension
1001
ACAD
1000
DSTYLE
1002
{
1070
    79
1070
     3
1002
}
  0
LINE
  5
5805
330
1E
100
AcDbEntity
  8
10
  6
DASHED
100
AcDbLine
 10
-52.5
 20
-82.5
 30
0.0
 11
87.5
 21
-82.5
 31
0.0
  0
LINE
  5
5806
330
1E
100
AcDbEntity
  8
10
  6
DASHED
100
AcDbLine
 10
87.5
 20
82.50000000000001
 30
0.0
 11
-52.5
 21
82.50000000000001
 31
0.0
  0
LINE
  5
5807
330
1E
100
AcDbEntity
  8
10
  6
CONTINOUS
100
AcDbLine
 10
-73.5
 20
-96.00000000000004
 30
0.0
 11
108.4999999999999
 21
-96.00000000000004
 31
0.0
  0
LINE
  5
5808
330
1E
100
AcDbEntity
  8
10
  6
CONTINOUS
100
AcDbLine
 10
108.4999999999999
 20
96.0
 30
0.0
 11
-73.5
 21
96.0
 31
0.0
  0
LINE
  5
580C
330
1E
100
AcDbEntity
  8
10
  6
DASHED
100
AcDbLine
 10
-52.5
 20
82.50000000000001
 30
0.0
 11
-52.5
 21
-82.5
 31
0.0
  0
LINE
  5
580D
330
1E
100
AcDbEntity
  8
10
  6
CONTINOUS
100
AcDbLine
 10
-78.5
 20
91.0
 30
0.0
 11
-78.5
 21
-91.00000000000004
 31
0.0
  0
ARC
  5
580E
330
1E
100
AcDbEntity
  8
10
  6
CONTINOUS
100
AcDbCircle
 10
-73.5
 20
-91.00000000000004
 30
0.0
 40
5.0
100
AcDbArc
 50
180.0
 51
270.0
  0
CIRCLE
  5
580F
330
1E
100
AcDbEntity
  8
12
  6
DASHED
100
AcDbCircle
 10
-68.0
 20
-33.0
 30
0.0
 40
2.5
  0
LINE
  5
5810
330
1E
100
AcDbEntity
  8
12
  6
DASHED
100
AcDbLine
 10
-71.5
 20
-33.0
 30
0.0
 11
-64.5
 21
-33.0
 31
0.0
  0
LINE
  5
5811
330
1E
100
AcDbEntity
  8
12
  6
DASHED
100
AcDbLine
 10
-68.0
 20
-36.5000000000007
 30
0.0
 11
-68.0
 21
-29.50000000000068
 31
0.0
  0
ARC
  5
5815
330
1E
100
AcDbEntity
  8
10
  6
CONTINOUS
100
AcDbCircle
 10
-73.5
 20
91.0
 30
0.0
 40
5.0
100
AcDbArc
 50
90.0
 51
180.0
  0
CIRCLE
  5
5816
330
1E
100
AcDbEntity
  8
12
  6
DASHED
100
AcDbCircle
 10
-68.0
 20
32.99999999999999
 30
0.0
 40
2.5
  0
LINE
  5
5817
330
1E
100
AcDbEntity
  8
12
  6
DASHED
100
AcDbLine
 10
-71.5
 20
32.99999999999999
 30
0.0
 11
-64.5
 21
32.99999999999999
 31
0.0
  0
LINE
  5
5818
330
1E
100
AcDbEntity
  8
12
  6
DASHED
100
AcDbLine
 10
-68.0
 20
29.4999999999993
 30
0.0
 11
-68.0
 21
36.49999999999931
 31
0.0
  0
LINE
  5
581C
330
1E
100
AcDbEntity
  8
10
  6
DASHED
100
AcDbLine
 10
87.5
 20
-82.5
 30
0.0
 11
87.5
 21
82.50000000000001
 31
0.0
  0
LINE
  5
581D
330
1E
100
AcDbEntity
  8
10
  6
CONTINOUS
100
AcDbLine
 10
113.5
 20
-91.00000000000004
 30
0.0
 11
113.5
 21
91.0
 31
0.0
  0
ARC
  5
581E
330
1E
100
AcDbEntity
  8
10
  6
CONTINOUS
100
AcDbCircle
 10
108.4999999999999
 20
-91.00000000000004
 30
0.0
 40
5.0
100
AcDbArc
 50
270.0
 51
0.0
  0
CIRCLE
  5
581F
330
1E
100
AcDbEntity
  8
12
  6
DASHED
100
AcDbCircle
 10
103.0
 20
-33.0
 30
0.0
 40
2.5
  0
LINE
  5
5820
330
1E
100
AcDbEntity
  8
12
  6
DASHED
100
AcDbLine
 10
102.9999999999997
 20
-36.5000000000007
 30
0.0
 11
102.9999999999997
 21
-29.50000000000068
 31
0.0
  0
LINE
  5
5821
330
1E
100
AcDbEntity
  8
12
  6
DASHED
100
AcDbLine
 10
99.50000000000001
 20
-33.0
 30
0.0
 11
106.4999999999999
 21
-33.0
 31
0.0
  0
ARC
  5
5825
330
1E
100
AcDbEntity
  8
10
  6
CONTINOUS
100
AcDbCircle
 10
108.4999999999999
 20
91.0
 30
0.0
 40
5.0
100
AcDbArc
 50
0.0
 51
90.0
  0
CIRCLE
  5
5826
330
1E
100
AcDbEntity
  8
12
  6
DASHED
100
AcDbCircle
 10
103.0
 20
32.99999999999999
 30
0.0
 40
2.5
  0
LINE
  5
5827
330
1E
100
AcDbEntity
  8
12
  6
DASHED
100
AcDbLine
 10
99.50000000000001
 20
32.99999999999999
 30
0.0
 11
106.4999999999999
 21
32.99999999999999
 31
0.0
  0
LINE
  5
5828
330
1E
100
AcDbEntity
  8
12
  6
DASHED
100
AcDbLine
 10
102.9999999999997
 20
29.4999999999993
 30
0.0
 11
102.9999999999997
 21
36.49999999999931
 31
0.0
  0
LINE
  5
5B10
330
1E
100
AcDbEntity
  8
18
100
AcDbLine
 10
113.4999999999998
 20
177.0106271080801
 30
0.0
 11
-88.49999999999999
 21
177.0106271080801
 31
0.0
  0
LINE
  5
5B11
330
1E
100
AcDbEntity
  8
10
  6
CONTINOUS
100
AcDbLine
 10
113.4999999999998
 20
158.0106271080802
 30
0.0
 11
-78.5
 21
158.0106271080802
 31
0.0
  0
LINE
  5
5B12
330
1E
100
AcDbEntity
  8
10
  6
CONTINOUS
100
AcDbLine
 10
113.4999999999998
 20
173.0106271080801
 30
0.0
 11
-78.5
 21
173.0106271080801
 31
0.0
  0
LINE
  5
5B13
330
1E
100
AcDbEntity
  8
12
  6
DASHDOT
 62
     3
100
AcDbLine
 10
13.00000000000004
 20
319.0106271080801
 30
0.0
 11
-12.99999999999987
 21
319.0106271080801
 31
0.0
  0
LINE
  5
5B14
330
1E
100
AcDbEntity
  8
10
  6
CONTINOUS
100
AcDbLine
 10
87.50000000000012
 20
228.0106271080799
 30
0.0
 11
-52.49999999999989
 21
228.0106271080799
 31
0.0
  0
LINE
  5
5B15
330
1E
100
AcDbEntity
  8
10
  6
CONTINOUS
100
AcDbLine
 10
50.01790353517137
 20
156.0106271080802
 30
0.0
 11
-48.99999999999998
 21
156.0106271080802
 31
0.0
  0
LINE
  5
5B17
330
1E
100
AcDbEntity
  8
10
  6
CONTINOUS
100
AcDbLine
 10
-52.49999999999989
 20
173.0106271080801
 30
0.0
 11
-52.49999999999989
 21
228.0106271080799
 31
0.0
  0
LINE
  5
5B19
330
1E
100
AcDbEntity
  8
21
  6
Continuous
100
AcDbLine
 10
-37.99999999999986
 20
262.0106271080802
 30
0.0
 11
-37.99999999999986
 21
299.0106271080802
 31
0.0
  0
LINE
  5
5B1A
330
1E
100
AcDbEntity
  8
21
  6
Continuous
100
AcDbLine
 10
-31.99999999999993
 20
262.0106271080802
 30
0.0
 11
-31.99999999999993
 21
299.0106271080802
 31
0.0
  0
LINE
  5
5B1B
330
1E
100
AcDbEntity
  8
21
  6
Continuous
100
AcDbLine
 10
-9.999999999999868
 20
228.0106271080799
 30
0.0
 11
-9.999999999999868
 21
290.5106271080801
 31
0.0
  0
LINE
  5
5B1C
330
1E
100
AcDbEntity
  8
21
  6
Continuous
100
AcDbLine
 10
10.00000000000011
 20
228.0106271080799
 30
0.0
 11
10.00000000000011
 21
290.5106271080801
 31
0.0
  0
LINE
  5
5B1E
330
1E
100
AcDbEntity
  8
21
  6
Continuous
100
AcDbLine
 10
3.000000000000055
 20
297.0106271080796
 30
0.0
 11
3.000000000000055
 21
334.0106271080802
 31
0.0
  0
LINE
  5
5B1F
330
1E
100
AcDbEntity
  8
21
  6
Continuous
100
AcDbLine
 10
-2.999999999999883
 20
297.0106271080796
 30
0.0
 11
-2.999999999999883
 21
334.0106271080802
 31
0.0
  0
LINE
  5
5B20
330
1E
100
AcDbEntity
  8
21
  6
Continuous
100
AcDbLine
 10
-2.999999999999883
 20
334.0106271080802
 30
0.0
 11
3.000000000000055
 21
334.0106271080802
 31
0.0
  0
LINE
  5
5B21
330
1E
100
AcDbEntity
  8
21
  6
Continuous
100
AcDbLine
 10
-37.99999999999986
 20
299.0106271080802
 30
0.0
 11
-31.99999999999993
 21
299.0106271080802
 31
0.0
  0
LINE
  5
5B22
330
1E
100
AcDbEntity
  8
21
  6
Continuous
100
AcDbLine
 10
10.00000000000011
 20
290.5106271080801
 30
0.0
 11
-9.999999999999868
 21
290.5106271080801
 31
0.0
  0
LINE
  5
5B23
330
1E
100
AcDbEntity
  8
21
  6
Continuous
100
AcDbLine
 10
-4.999999999999883
 20
290.5106271080801
 30
0.0
 11
-4.999999999999883
 21
297.0106271080801
 31
0.0
  0
LINE
  5
5B24
330
1E
100
AcDbEntity
  8
21
  6
Continuous
100
AcDbLine
 10
-2.999999999999883
 20
297.0106271080801
 30
0.0
 11
-4.999999999999883
 21
297.0106271080801
 31
0.0
  0
LINE
  5
5B25
330
1E
100
AcDbEntity
  8
21
  6
Continuous
100
AcDbLine
 10
5.000000000000111
 20
290.5106271080801
 30
0.0
 11
5.000000000000111
 21
297.0106271080801
 31
0.0
  0
LINE
  5
5B26
330
1E
100
AcDbEntity
  8
21
  6
Continuous
100
AcDbLine
 10
5.000000000000111
 20
297.0106271080801
 30
0.0
 11
3.000000000000055
 21
297.0106271080801
 31
0.0
  0
LINE
  5
5B27
330
1E
100
AcDbEntity
  8
12
  6
DASHDOT
 62
     3
100
AcDbLine
 10
-21.99999999999993
 20
284.0106271080802
 30
0.0
 11
-47.99999999999986
 21
284.0106271080802
 31
0.0
  0
LINE
  5
5B28
330
1E
100
AcDbEntity
  8
21
  6
Continuous
100
AcDbLine
 10
-24.99999999999986
 20
255.5106271080801
 30
0.0
 11
-44.99999999999988
 21
255.5106271080801
 31
0.0
  0
LINE
  5
5B29
330
1E
100
AcDbEntity
  8
21
  6
Continuous
100
AcDbLine
 10
-44.99999999999988
 20
228.0106271080799
 30
0.0
 11
-44.99999999999988
 21
255.5106271080801
 31
0.0
  0
LINE
  5
5B2A
330
1E
100
AcDbEntity
  8
21
  6
Continuous
100
AcDbLine
 10
-24.99999999999986
 20
228.0106271080799
 30
0.0
 11
-24.99999999999986
 21
255.5106271080801
 31
0.0
  0
LINE
  5
5B2B
330
1E
100
AcDbEntity
  8
21
  6
Continuous
100
AcDbLine
 10
-39.99999999999988
 20
255.5106271080801
 30
0.0
 11
-39.99999999999988
 21
262.0106271080802
 31
0.0
  0
LINE
  5
5B2C
330
1E
100
AcDbEntity
  8
21
  6
Continuous
100
AcDbLine
 10
-29.99999999999986
 20
255.5106271080801
 30
0.0
 11
-29.99999999999986
 21
262.0106271080802
 31
0.0
  0
LINE
  5
5B2D
330
1E
100
AcDbEntity
  8
21
  6
Continuous
100
AcDbLine
 10
-39.99999999999988
 20
262.0106271080802
 30
0.0
 11
-37.99999999999986
 21
262.0106271080802
 31
0.0
  0
LINE
  5
5B2E
330
1E
100
AcDbEntity
  8
21
  6
Continuous
100
AcDbLine
 10
-31.99999999999993
 20
262.0106271080802
 30
0.0
 11
-29.99999999999986
 21
262.0106271080802
 31
0.0
  0
LINE
  5
5B2F
330
1E
100
AcDbEntity
  8
10
  6
CONTINOUS
100
AcDbLine
 10
-78.5
 20
158.0106271080802
 30
0.0
 11
-78.5
 21
173.0106271080801
 31
0.0
  0
LINE
  5
5B30
330
1E
100
AcDbEntity
  8
18
100
AcDbLine
 10
-78.5
 20
173.0106271080801
 30
0.0
 11
-83.49999999999999
 21
173.0106271080801
 31
0.0
  0
LINE
  5
5B32
330
1E
100
AcDbEntity
  8
10
  6
CONTINOUS
100
AcDbLine
 10
-48.99999999999998
 20
156.0106271080802
 30
0.0
 11
-48.99999999999998
 21
158.0106271080802
 31
0.0
  0
LINE
  5
5B33
330
1E
100
AcDbEntity
  8
10
  6
CONTINOUS
100
AcDbLine
 10
11.0
 20
152.0106271080804
 30
0.0
 11
11.0
 21
156.0106271080802
 31
0.0
  0
LINE
  5
5B34
330
1E
100
AcDbEntity
  8
10
  6
CONTINOUS
100
AcDbLine
 10
-10.99999999999998
 20
152.0106271080804
 30
0.0
 11
-10.99999999999998
 21
156.0106271080802
 31
0.0
  0
LINE
  5
5B35
330
1E
100
AcDbEntity
  8
10
  6
CONTINOUS
100
AcDbLine
 10
-6.999999999999941
 20
140.0153733084849
 30
0.0
 11
7.000000000000111
 21
140.0153733084849
 31
0.0
  0
LINE
  5
5B36
330
1E
100
AcDbEntity
  8
10
  6
CONTINOUS
100
AcDbLine
 10
11.0
 20
152.0106271080801
 30
0.0
 11
-10.99999999999998
 21
152.0106271080801
 31
0.0
  0
LINE
  5
5B37
330
1E
100
AcDbEntity
  8
10
  6
CONTINOUS
100
AcDbLine
 10
-6.999999999999941
 20
152.0106271080801
 30
0.0
 11
-6.999999999999941
 21
140.0153733084849
 31
0.0
  0
LINE
  5
5B38
330
1E
100
AcDbEntity
  8
10
  6
CONTINOUS
100
AcDbLine
 10
7.000000000000111
 20
152.0106271080801
 30
0.0
 11
7.000000000000111
 21
140.0153733084849
 31
0.0
  0
LINE
  5
5B3C
330
1E
100
AcDbEntity
  8
10
  6
CONTINOUS
100
AcDbLine
 10
87.50000000000012
 20
228.0106271080799
 30
0.0
 11
87.50000000000012
 21
173.0106271080801
 31
0.0
  0
LINE
  5
5B3D
330
1E
100
AcDbEntity
  8
21
  6
Continuous
100
AcDbLine
 10
32.0000000000001
 20
262.0106271080802
 30
0.0
 11
32.0000000000001
 21
299.0106271080802
 31
0.0
  0
LINE
  5
5B3E
330
1E
100
AcDbEntity
  8
21
  6
Continuous
100
AcDbLine
 10
38.00000000000004
 20
262.0106271080802
 30
0.0
 11
38.00000000000004
 21
299.0106271080802
 31
0.0
  0
LINE
  5
5B40
330
1E
100
AcDbEntity
  8
21
  6
Continuous
100
AcDbLine
 10
32.0000000000001
 20
299.0106271080802
 30
0.0
 11
38.00000000000004
 21
299.0106271080802
 31
0.0
  0
LINE
  5
5B41
330
1E
100
AcDbEntity
  8
21
  6
Continuous
100
AcDbLine
 10
25.0000000000001
 20
228.0106271080799
 30
0.0
 11
25.0000000000001
 21
255.5106271080801
 31
0.0
  0
LINE
  5
5B42
330
1E
100
AcDbEntity
  8
21
  6
Continuous
100
AcDbLine
 10
45.00000000000009
 20
228.0106271080799
 30
0.0
 11
45.00000000000009
 21
255.5106271080801
 31
0.0
  0
LINE
  5
5B43
330
1E
100
AcDbEntity
  8
12
  6
DASHDOT
 62
     3
100
AcDbLine
 10
47.99999999999986
 20
284.0106271080802
 30
0.0
 11
21.99999999999952
 21
284.0106271080802
 31
0.0
  0
LINE
  5
5B44
330
1E
100
AcDbEntity
  8
21
  6
Continuous
100
AcDbLine
 10
38.00000000000004
 20
262.0106271080802
 30
0.0
 11
40.0000000000001
 21
262.0106271080802
 31
0.0
  0
LINE
  5
5B45
330
1E
100
AcDbEntity
  8
21
  6
Continuous
100
AcDbLine
 10
45.00000000000009
 20
255.5106271080801
 30
0.0
 11
25.0000000000001
 21
255.5106271080801
 31
0.0
  0
LINE
  5
5B46
330
1E
100
AcDbEntity
  8
21
  6
Continuous
100
AcDbLine
 10
30.0000000000001
 20
255.5106271080801
 30
0.0
 11
30.0000000000001
 21
262.0106271080802
 31
0.0
  0
LINE
  5
5B47
330
1E
100
AcDbEntity
  8
21
  6
Continuous
100
AcDbLine
 10
30.0000000000001
 20
262.0106271080802
 30
0.0
 11
32.0000000000001
 21
262.0106271080802
 31
0.0
  0
LINE
  5
5B48
330
1E
100
AcDbEntity
  8
21
  6
Continuous
100
AcDbLine
 10
40.0000000000001
 20
255.5106271080801
 30
0.0
 11
40.0000000000001
 21
262.0106271080802
 31
0.0
  0
LINE
  5
5B49
330
1E
100
AcDbEntity
  8
10
  6
CONTINOUS
100
AcDbLine
 10
50.01790353517137
 20
156.0106271080802
 30
0.0
 11
50.01790353517137
 21
158.0106271080802
 31
0.0
  0
LINE
  5
5B4C
330
1E
100
AcDbEntity
  8
18
100
AcDbLine
 10
118.4999999999998
 20
173.0106271080801
 30
0.0
 11
113.4999999999998
 21
173.0106271080801
 31
0.0
  0
LINE
  5
5BAB
330
1E
100
AcDbEntity
  8
18
  6
DIVIDE
100
AcDbLine
 10
108.1199054648287
 20
-156.663123744355
 30
0.0
 11
-73.88009453517131
 21
-156.663123744355
 31
0.0
  0
LINE
  5
5BAD
330
1E
100
AcDbEntity
  8
18
  6
DIVIDE
100
AcDbLine
 10
-73.88009453517131
 20
-348.663123744355
 30
0.0
 11
108.1199054648287
 21
-348.663123744355
 31
0.0
  0
LINE
  5
5BAE
330
1E
100
AcDbEntity
  8
11
 48
2.0
100
AcDbLine
 10
97.61990546482893
 20
-162.1631237443549
 30
0.0
 11
-63.38009453517108
 21
-162.1631237443549
 31
0.0
  0
LINE
  5
5BAF
330
1E
100
AcDbEntity
  8
11
 48
2.0
100
AcDbLine
 10
-63.3800945351712
 20
-343.163123744355
 30
0.0
 11
97.61990546482893
 21
-343.163123744355
 31
0.0
  0
LINE
  5
5BB0
330
1E
100
AcDbEntity
  8
18
  6
DIVIDE
100
AcDbLine
 10
-78.88009453517131
 20
-161.663123744355
 30
0.0
 11
-78.88009453517131
 21
-343.6631237443547
 31
0.0
  0
LINE
  5
5BB1
330
1E
100
AcDbEntity
  8
11
 48
2.0
100
AcDbLine
 10
-63.38009453517108
 20
-343.163123744355
 30
0.0
 11
-63.38009453517108
 21
-162.1631237443549
 31
0.0
  0
ARC
  5
5BB2
330
1E
100
AcDbEntity
  8
18
  6
DIVIDE
100
AcDbCircle
 10
-73.88009453517131
 20
-343.6631237443547
 30
0.0
 40
5.0
100
AcDbArc
 50
180.0
 51
270.0
  0
CIRCLE
  5
5BB3
330
1E
100
AcDbEntity
  8
12
  6
Continuous
 62
     3
100
AcDbCircle
 10
-68.38009453517121
 20
-219.6631237443548
 30
0.0
 40
3.0
  0
LINE
  5
5BB4
330
1E
100
AcDbEntity
  8
12
  6
Continuous
 62
     3
100
AcDbLine
 10
-68.38009453517121
 20
-224.6631237443557
 30
0.0
 11
-68.38009453517121
 21
-214.6631237443555
 31
0.0
  0
CIRCLE
  5
5BB5
330
1E
100
AcDbEntity
  8
12
  6
Continuous
 62
     3
100
AcDbCircle
 10
-68.38009453517121
 20
-285.663123744355
 30
0.0
 40
3.0
  0
LINE
  5
5BB6
330
1E
100
AcDbEntity
  8
12
  6
Continuous
 62
     3
100
AcDbLine
 10
-73.38009453517121
 20
-285.663123744355
 30
0.0
 11
-63.3800945351712
 21
-285.663123744355
 31
0.0
  0
LINE
  5
5BB7
330
1E
100
AcDbEntity
  8
12
  6
Continuous
 62
     3
100
AcDbLine
 10
-68.38009453517121
 20
-290.6631237443558
 30
0.0
 11
-68.38009453517121
 21
-280.6631237443557
 31
0.0
  0
LINE
  5
5BBB
330
1E
100
AcDbEntity
  8
12
  6
Continuous
 62
     3
100
AcDbLine
 10
-73.38009453517121
 20
-219.6631237443548
 30
0.0
 11
-63.3800945351712
 21
-219.6631237443548
 31
0.0
  0
ARC
  5
5BBC
330
1E
100
AcDbEntity
  8
18
  6
DIVIDE
100
AcDbCircle
 10
-73.88009453517131
 20
-161.663123744355
 30
0.0
 40
5.0
100
AcDbArc
 50
90.0
 51
180.0
  0
LINE
  5
5BBD
330
1E
100
AcDbEntity
  8
18
  6
DIVIDE
100
AcDbLine
 10
113.1199054648284
 20
-343.6631237443547
 30
0.0
 11
113.1199054648284
 21
-161.663123744355
 31
0.0
  0
LINE
  5
5BBE
330
1E
100
AcDbEntity
  8
11
 48
2.0
100
AcDbLine
 10
97.61990546482893
 20
-343.163123744355
 30
0.0
 11
97.61990546482893
 21
-162.1631237443549
 31
0.0
  0
ARC
  5
5BBF
330
1E
100
AcDbEntity
  8
18
  6
DIVIDE
100
AcDbCircle
 10
108.1199054648287
 20
-343.6631237443547
 30
0.0
 40
5.0
100
AcDbArc
 50
270.0
 51
0.0
  0
CIRCLE
  5
5BC0
330
1E
100
AcDbEntity
  8
12
  6
Continuous
 62
     3
100
AcDbCircle
 10
102.6199054648287
 20
-219.6631237443548
 30
0.0
 40
3.0
  0
LINE
  5
5BC1
330
1E
100
AcDbEntity
  8
12
  6
Continuous
 62
     3
100
AcDbLine
 10
102.6199054648287
 20
-224.6631237443557
 30
0.0
 11
102.6199054648287
 21
-214.6631237443555
 31
0.0
  0
CIRCLE
  5
5BC3
330
1E
100
AcDbEntity
  8
12
  6
Continuous
 62
     3
100
AcDbCircle
 10
102.6199054648289
 20
-285.663123744355
 30
0.0
 40
3.0
  0
LINE
  5
5BC5
330
1E
100
AcDbEntity
  8
12
  6
Continuous
 62
     3
100
AcDbLine
 10
97.61990546482893
 20
-285.663123744355
 30
0.0
 11
107.6199054648289
 21
-285.663123744355
 31
0.0
  0
LINE
  5
5BC6
330
1E
100
AcDbEntity
  8
12
  6
Continuous
 62
     3
100
AcDbLine
 10
102.6199054648287
 20
-290.6631237443558
 30
0.0
 11
102.6199054648287
 21
-280.6631237443557
 31
0.0
  0
LINE
  5
5BC8
330
1E
100
AcDbEntity
  8
12
  6
Continuous
 62
     3
100
AcDbLine
 10
97.61990546482877
 20
-219.6631237443548
 30
0.0
 11
107.6199054648287
 21
-219.6631237443548
 31
0.0
  0
ARC
  5
5BC9
330
1E
100
AcDbEntity
  8
18
  6
DIVIDE
100
AcDbCircle
 10
108.1199054648287
 20
-161.663123744355
 30
0.0
 40
5.0
100
AcDbArc
 50
0.0
 51
90.0
  0
LINE
  5
5BCA
330
1E
100
AcDbEntity
  8
10
  6
CONTINOUS
100
AcDbLine
 10
113.4999999999998
 20
158.0106271080802
 30
0.0
 11
113.4999999999998
 21
173.0106271080801
 31
0.0
  0
DIMENSION
  5
5BDE
330
1E
100
AcDbEntity
  8
30
  6
Continuous
100
AcDbDimension
  2
*D11
 10
140.8363287888388
 20
-96.00000000000004
 30
0.0
 11
137.8363287888388
 21
-0.0000000000000012
 31
0.0
 70
    32
 71
     5
 42
-1.0
  3
STANDARD
100
AcDbAlignedDimension
 13
111.7378508527524
 23
96.0
 33
0.0
 14
111.7378508527524
 24
-96.00000000000004
 34
0.0
 50
90.0
100
AcDbRotatedDimension
1001
ACAD
1000
DSTYLE
1002
{
1070
    79
1070
     3
1002
}
  0
DIMENSION
  5
5C0F
330
1E
100
AcDbEntity
  8
30
  6
Continuous
100
AcDbDimension
  2
*D12
 10
97.61990546482893
 20
-365.6895617182887
 30
0.0
 11
17.11990546482891
 21
-362.6895617182886
 31
0.0
 70
    32
 71
     5
 42
-1.0
  3
STANDARD
100
AcDbAlignedDimension
 13
-63.38009453517108
 23
-343.163123744355
 33
0.0
 14
97.61990546482893
 24
-343.163123744355
 34
0.0
100
AcDbRotatedDimension
1001
ACAD
1000
DSTYLE
1002
{
1070
    79
1070
     3
1002
}
  0
DIMENSION
  5
5C1C
330
1E
100
AcDbEntity
  8
30
  6
Continuous
100
AcDbDimension
  2
*D13
 10
102.6199054648287
 20
-377.0163681745015
 30
0.0
 11
17.11990546482876
 21
-374.0163681745015
 31
0.0
 70
    32
 71
     5
 42
-1.0
  3
STANDARD
100
AcDbAlignedDimension
 13
-68.38009453517121
 23
-290.6631237443558
 33
0.0
 14
102.6199054648287
 24
-290.6631237443558
 34
0.0
100
AcDbRotatedDimension
1001
ACAD
1000
DSTYLE
1002
{
1070
    79
1070
     3
1002
}
  0
DIMENSION
  5
5C29
330
1E
100
AcDbEntity
  8
30
  6
Continuous
100
AcDbDimension
  2
*D14
 10
99.92600446482876
 20
-217.8933127443548
 30
0.0
 11
134.0500144648287
 21
-203.2939227443548
 31
0.0
 70
   163
 71
     5
 42
-1.0
  3
STANDARD
100
AcDbDiametricDimension
 15
105.3138064648287
 25
-215.252934744355
 35
0.0
 40
0.0
1001
ACAD
1000
DSTYLE
1002
{
1070
   288
1070
     1
1002
}
  0
DIMENSION
  5
6144
330
1E
100
AcDbEntity
  8
30
  6
Continuous
100
AcDbDimension
  2
*D17
 10
0.0000000000000863
 20
343.0
 30
0.0
 11
-17.49999999999991
 21
346.0
 31
0.0
 70
    32
 71
     5
 42
35.0
  3
STANDARD
100
AcDbAlignedDimension
 13
-34.99999999999991
 23
299.0106271080802
 33
0.0
 14
0.0000000000000857
 24
334.0106271080802
 34
0.0
100
AcDbRotatedDimension
1001
ACAD
1000
DSTYLE
1002
{
1070
    79
1070
     3
1002
}
  0
DIMENSION
  5
6151
330
1E
100
AcDbEntity
  8
30
  6
Continuous
100
AcDbDimension
  2
*D18
 10
35.00000000000007
 20
343.0
 30
0.0
 11
17.50000000000008
 21
346.0
 31
0.0
 70
    32
 71
     5
 42
35.0
  3
STANDARD
100
AcDbAlignedDimension
 13
0.0000000000000857
 23
334.0106271080802
 33
0.0
 14
35.00000000000007
 24
299.0106271080802
 34
0.0
100
AcDbRotatedDimension
1001
ACAD
1000
DSTYLE
1002
{
1070
   287
1070
     4
1070
   287
1070
     4
1070
   287
1070
     4
1070
   279
1070
     1
1070
    79
1070
     3
1002
}
  0
LINE
  5
617B
330
1E
100
AcDbEntity
  8
21
  6
Continuous
100
AcDbLine
 10
67.00000000000009
 20
297.0106271080796
 30
0.0
 11
67.00000000000009
 21
334.0106271080802
 31
0.0
  0
LINE
  5
617C
330
1E
100
AcDbEntity
  8
21
  6
Continuous
100
AcDbLine
 10
73.00000000000007
 20
297.0106271080796
 30
0.0
 11
73.00000000000007
 21
334.0106271080802
 31
0.0
  0
LINE
  5
617D
330
1E
100
AcDbEntity
  8
21
  6
Continuous
100
AcDbLine
 10
80.0000000000001
 20
228.0106271080799
 30
0.0
 11
80.0000000000001
 21
290.5106271080801
 31
0.0
  0
LINE
  5
617E
330
1E
100
AcDbEntity
  8
21
  6
Continuous
100
AcDbLine
 10
60.00000000000011
 20
228.0106271080799
 30
0.0
 11
60.00000000000011
 21
290.5106271080801
 31
0.0
  0
LINE
  5
617F
330
1E
100
AcDbEntity
  8
21
  6
Continuous
100
AcDbLine
 10
80.0000000000001
 20
290.5106271080801
 30
0.0
 11
60.00000000000011
 21
290.5106271080801
 31
0.0
  0
LINE
  5
6180
330
1E
100
AcDbEntity
  8
21
  6
Continuous
100
AcDbLine
 10
65.0000000000001
 20
290.5106271080801
 30
0.0
 11
65.0000000000001
 21
297.0106271080801
 31
0.0
  0
LINE
  5
6181
330
1E
100
AcDbEntity
  8
21
  6
Continuous
100
AcDbLine
 10
67.00000000000009
 20
297.0106271080801
 30
0.0
 11
65.0000000000001
 21
297.0106271080801
 31
0.0
  0
LINE
  5
6182
330
1E
100
AcDbEntity
  8
21
  6
Continuous
100
AcDbLine
 10
75.0000000000001
 20
290.5106271080801
 30
0.0
 11
75.0000000000001
 21
297.0106271080801
 31
0.0
  0
LINE
  5
6183
330
1E
100
AcDbEntity
  8
21
  6
Continuous
100
AcDbLine
 10
75.0000000000001
 20
297.0106271080801
 30
0.0
 11
73.00000000000007
 21
297.0106271080801
 31
0.0
  0
LINE
  5
6184
330
1E
100
AcDbEntity
  8
21
  6
Continuous
100
AcDbLine
 10
67.00000000000009
 20
334.0106271080802
 30
0.0
 11
73.00000000000007
 21
334.0106271080802
 31
0.0
  0
LINE
  5
6185
330
1E
100
AcDbEntity
  8
12
  6
DASHDOT
 62
     3
100
AcDbLine
 10
83.00000000000007
 20
319.0106271080801
 30
0.0
 11
57.00000000000011
 21
319.0106271080801
 31
0.0
  0
DIMENSION
  5
6186
330
1E
100
AcDbEntity
  8
30
  6
Continuous
100
AcDbDimension
  2
*D19
 10
70.00000000000007
 20
343.0
 30
0.0
 11
52.50000000000007
 21
346.0
 31
0.0
 70
    32
 71
     5
 42
35.00000000000002
  3
STANDARD
100
AcDbAlignedDimension
 13
35.00000000000007
 23
300.0106271080801
 33
0.0
 14
70.00000000000007
 24
334.0106271080802
 34
0.0
100
AcDbRotatedDimension
1001
ACAD
1000
DSTYLE
1002
{
1070
    79
1070
     3
1002
}
  0
LINE
  5
6236
330
1E
100
AcDbEntity
  8
10
  6
CONTINOUS
100
AcDbLine
 10
49.00000000000003
 20
25.0
 30
0.0
 11
49.00000000000003
 21
-25.0
 31
0.0
  0
LINE
  5
6237
330
1E
100
AcDbEntity
  8
10
  6
CONTINOUS
100
AcDbLine
 10
-11.0
 20
25.0
 30
0.0
 11
-11.0
 21
-25.0
 31
0.0
  0
LINE
  5
6238
330
1E
100
AcDbEntity
  8
10
  6
CONTINOUS
100
AcDbLine
 10
11.0
 20
25.0
 30
0.0
 11
11.0
 21
-25.0
 31
0.0
  0
LINE
  5
6239
330
1E
100
AcDbEntity
  8
10
  6
CONTINOUS
100
AcDbLine
 10
-48.99999999999998
 20
25.0
 30
0.0
 11
-48.99999999999998
 21
-25.0
 31
0.0
  0
LINE
  5
623A
330
1E
100
AcDbEntity
  8
10
  6
CONTINOUS
100
AcDbLine
 10
-48.99999999999998
 20
-25.0
 30
0.0
 11
49.00000000000003
 21
-25.0
 31
0.0
  0
DIMENSION
  5
623B
330
1E
100
AcDbEntity
  8
30
  6
Continuous
100
AcDbDimension
  2
*D20
 10
10.99999999999999
 20
-40.45444641199117
 30
0.0
 11
-0.0000000000000016
 21
-37.45444641199117
 31
0.0
 70
    32
 71
     5
 42
-1.0
  3
STANDARD
100
AcDbAlignedDimension
 13
-11.0
 23
-25.0
 33
0.0
 14
11.0
 24
-25.0
 34
0.0
 50
180.0
100
AcDbRotatedDimension
1001
ACAD
1000
DSTYLE
1002
{
1070
    79
1070
     3
1002
}
  0
LINE
  5
623C
330
1E
100
AcDbEntity
  8
10
  6
CONTINOUS
100
AcDbLine
 10
-48.99999999999998
 20
25.0
 30
0.0
 11
49.00000000000003
 21
25.0
 31
0.0
  0
DIMENSION
  5
623D
330
1E
100
AcDbEntity
  8
30
  6
Continuous
100
AcDbDimension
  2
*D21
 10
49.00000000000003
 20
35.21319198619853
 30
0.0
 11
0.0000000000000215
 21
38.21319198619852
 31
0.0
 70
    32
 71
     5
 42
-1.0
  3
STANDARD
100
AcDbAlignedDimension
 13
-48.99999999999998
 23
25.0
 33
0.0
 14
49.00000000000003
 24
25.0
 34
0.0
100
AcDbRotatedDimension
1001
ACAD
1000
DSTYLE
1002
{
1070
    79
1070
     3
1002
}
  0
LINE
  5
623E
330
1E
100
AcDbEntity
  8
10
  6
CONTINOUS
100
AcDbLine
 10
7.000000000000013
 20
-18.5
 30
0.0
 11
7.000000000000082
 21
20.1548687058103
 31
0.0
  0
LINE
  5
623F
330
1E
100
AcDbEntity
  8
10
  6
CONTINOUS
100
AcDbLine
 10
-7.0
 20
-18.5
 30
0.0
 11
-6.999999999999912
 21
20.1548687058103
 31
0.0
  0
LINE
  5
6240
330
1E
100
AcDbEntity
  8
10
  6
CONTINOUS
100
AcDbLine
 10
-7.0
 20
-18.5
 30
0.0
 11
7.000000000000013
 21
-18.5
 31
0.0
  0
LINE
  5
6241
330
1E
100
AcDbEntity
  8
10
  6
CONTINOUS
100
AcDbLine
 10
7.000000000000013
 20
15.23995644007664
 30
0.0
 11
-7.0
 21
15.23995644007664
 31
0.0
  0
LINE
  5
6242
330
1E
100
AcDbEntity
  8
10
  6
CONTINOUS
100
AcDbLine
 10
7.000000000000013
 20
20.1548687058103
 30
0.0
 11
-7.000000000000894
 21
20.1548687058103
 31
0.0
  0
LINE
  5
6243
330
1E
100
AcDbEntity
  8
10
  6
CONTINOUS
100
AcDbLine
 10
7.000000000000013
 20
6.840789306861553
 30
0.0
 11
-6.99999999999909
 21
6.840789306861553
 31
0.0
  0
MTEXT
  5
631B
330
1E
100
AcDbEntity
  8
30
  6
Continuous
100
AcDbMText
 10
256.3562362724514
 20
227.6484461938875
 30
0.0
 40
5.0
 41
182.0
 71
     1
 72
     5
  1
E225-NF 4P FP\PS225-NF 4P FP\PS225-GF 4P FP\PS225-NFH 4P FP\PS225-NN 4P FP\PS225-NM 4P FP\PS250-NF 4P FP\PS250-GF 4P FP\PS250-NN 4P FP
  7
STANDARD1
 73
     1
 44
1.0
1001
ACAD
1000
MTEXTBEGIN
1070
    73
1070
     1
1070
    44
1040
1.0
1070
    74
1070
     0
1000
MTEXTEND
  0
DIMENSION
  5
6556
330
1E
100
AcDbEntity
  8
30
  6
Continuous
100
AcDbDimension
  2
*D34
 10
394.4095201416831
 20
-185.454446411991
 30
0.0
 11
313.9095201416832
 21
-182.454446411991
 31
0.0
 70
    32
 71
     5
 42
160.9999999999997
  3
STANDARD
100
AcDbAlignedDimension
 13
233.4095201416833
 23
-105.9999999999999
 33
0.0
 14
394.4095201416831
 24
-72.00000000000007
 34
0.0
 50
180.0
100
AcDbRotatedDimension
  0
DIMENSION
  5
6557
330
1E
100
AcDbEntity
  8
30
  6
Continuous
100
AcDbDimension
  2
*D35
 10
359.4095201416832
 20
-160.454446411991
 30
0.0
 11
296.4095201416832
 21
-157.454446411991
 31
0.0
 70
    32
 71
     5
 42
125.9999999999998
  3
STANDARD
100
AcDbAlignedDimension
 13
233.4095201416833
 23
-105.9999999999999
 33
0.0
 14
359.4095201416832
 24
-72.00000000000007
 34
0.0
 50
180.0
100
AcDbRotatedDimension
  0
DIMENSION
  5
6558
330
1E
100
AcDbEntity
  8
30
  6
Continuous
100
AcDbDimension
  2
*D36
 10
233.4095201416833
 20
-160.454446411991
 30
0.0
 11
225.9095201416833
 21
-157.454446411991
 31
0.0
 70
    32
 71
     5
 42
15.0
  3
STANDARD
100
AcDbAlignedDimension
 13
218.4095201416833
 23
-96.00000000000006
 33
0.0
 14
233.4095201416833
 24
-105.9999999999999
 34
0.0
 50
180.0
100
AcDbRotatedDimension
  0
DIMENSION
  5
6559
330
1E
100
AcDbEntity
  8
30
  6
Continuous
100
AcDbDimension
  2
*D37
 10
233.4095201416833
 20
-185.454446411991
 30
0.0
 11
214.9095201416832
 21
-182.454446411991
 31
0.0
 70
    32
 71
     5
 42
37.00000000000012
  3
STANDARD
100
AcDbAlignedDimension
 13
196.4095201416832
 23
-2.500000016500054
 33
0.0
 14
233.4095201416833
 24
-105.9999999999999
 34
0.0
 50
180.0
100
AcDbRotatedDimension
  0
ARC
  5
655A
330
1E
100
AcDbEntity
  8
30
  6
Continuous
100
AcDbCircle
 10
227.4095201416831
 20
-0.0000000000000022
 30
0.0
 40
31.0
100
AcDbArc
 50
150.5534441956563
 51
180.0
  0
DIMENSION
  5
655B
330
1E
100
AcDbEntity
  8
30
  6
Continuous
100
AcDbDimension
  2
*D38
 10
429.6565297158108
 20
74.99999999999999
 30
0.0
 11
426.656529715811
 21
72.00000000000007
 31
0.0
 70
    32
 71
     5
 42
6.0
  3
STANDARD
100
AcDbAlignedDimension
 13
394.4095201416831
 23
69.0
 33
0.0
 14
394.4095201416831
 24
75.0
 34
0.0
 50
270.0
100
AcDbRotatedDimension
  0
INSERT
  5
655C
330
1E
100
AcDbEntity
  8
0
100
AcDbBlockReference
  2
*U22
 10
-414.7184702889388
 20
-271.6618080090515
 30
0.0
 41
2.5
 42
2.5
 43
2.5
  0
DIMENSION
  5
655D
330
1E
100
AcDbEntity
  8
30
  6
Continuous
100
AcDbDimension
  2
*D39
 10
429.6565297158108
 20
-62.00000000000006
 30
0.0
 11
426.656529715811
 21
-72.0
 31
0.0
 70
    32
 71
     5
 42
20.0
  3
STANDARD
100
AcDbAlignedDimension
 13
391.7300282173719
 23
-82.00000000000008
 33
0.0
 14
391.7300282173719
 24
-62.00000000000006
 34
0.0
 50
270.0
100
AcDbRotatedDimension
  0
LINE
  5
655E
330
1E
100
AcDbEntity
  8
10
  6
CONTINOUS
100
AcDbLine
 10
233.4095201416833
 20
96.0
 30
0.0
 11
233.4095201416833
 21
-96.00000000000006
 31
0.0
  0
LINE
  5
655F
330
1E
100
AcDbEntity
  8
10
  6
CONTINOUS
100
AcDbLine
 10
216.4095201416831
 20
24.99999999999998
 30
0.0
 11
216.4095201416831
 21
-25.00000000000002
 31
0.0
  0
LINE
  5
6560
330
1E
100
AcDbEntity
  8
10
  6
CONTINOUS
100
AcDbLine
 10
212.4095201416831
 20
14.16543683943
 30
0.0
 11
203.8557249601942
 21
20.15486870581054
 31
0.0
  0
LINE
  5
6561
330
1E
100
AcDbEntity
  8
10
  6
CONTINOUS
100
AcDbLine
 10
200.4142663420881
 20
15.23995644007663
 30
0.0
 11
203.8557249601942
 21
20.15486870581054
 31
0.0
  0
LINE
  5
6562
330
1E
100
AcDbEntity
  8
18
100
AcDbLine
 10
237.4095201416831
 20
101.0
 30
0.0
 11
237.4095201416831
 21
-110.9999999999999
 31
0.0
  0
LINE
  5
6563
330
1E
100
AcDbEntity
  8
10
  6
CONTINOUS
100
AcDbLine
 10
218.4095201416833
 20
96.0
 30
0.0
 11
218.4095201416833
 21
-96.00000000000006
 31
0.0
  0
LINE
  5
6564
330
1E
100
AcDbEntity
  8
10
  6
CONTINOUS
100
AcDbLine
 10
212.4095201416831
 20
24.99999999999998
 30
0.0
 11
212.4095201416831
 21
-25.00000000000002
 31
0.0
  0
LINE
  5
6565
330
1E
100
AcDbEntity
  8
0
  6
Continuous
100
AcDbLine
 10
288.4095201416833
 20
-82.00000000000008
 30
0.0
 11
356.7300282173719
 21
-82.00000000000008
 31
0.0
  0
LINE
  5
6566
330
1E
100
AcDbEntity
  8
0
  6
Continuous
100
AcDbLine
 10
298.0595201416836
 20
-62.00000000000006
 30
0.0
 11
356.7300282173719
 21
-62.00000000000006
 31
0.0
  0
LINE
  5
6567
330
1E
100
AcDbEntity
  8
0
  6
Continuous
100
AcDbLine
 10
283.4095201416829
 20
-72.00000000000007
 30
0.0
 11
404.9095201416831
 21
-72.00000000000007
 31
0.0
  0
LINE
  5
6568
330
1E
100
AcDbEntity
  8
0
  6
PHANTOM
100
AcDbLine
 10
233.4095201416833
 20
-96.00000000000006
 30
0.0
 11
233.4095201416833
 21
-105.9999999999999
 31
0.0
  0
LINE
  5
6569
330
1E
100
AcDbEntity
  8
18
100
AcDbLine
 10
233.4095201416833
 20
-105.9999999999999
 30
0.0
 11
237.4095201416831
 21
-110.9999999999999
 31
0.0
  0
LINE
  5
656A
330
1E
100
AcDbEntity
  8
10
  6
CONTINOUS
100
AcDbLine
 10
218.4095201416833
 20
-96.00000000000006
 30
0.0
 11
233.4095201416833
 21
-96.00000000000006
 31
0.0
  0
LINE
  5
656B
330
1E
100
AcDbEntity
  8
10
  6
CONTINOUS
100
AcDbLine
 10
212.4095201416831
 20
-25.00000000000002
 30
0.0
 11
218.4095201416833
 21
-25.00000000000002
 31
0.0
  0
LINE
  5
656C
330
1E
100
AcDbEntity
  8
10
  6
CONTINOUS
100
AcDbLine
 10
212.4095201416831
 20
6.840789306861263
 30
0.0
 11
200.4142663420881
 21
15.23995644007663
 31
0.0
  0
INSERT
  5
656D
330
1E
100
AcDbEntity
  8
30
  6
Continuous
100
AcDbBlockReference
  2
*U23
 10
-414.7184702889388
 20
-271.6618080090515
 30
0.0
 41
2.5
 42
2.5
 43
2.5
  0
LINE
  5
656E
330
1E
100
AcDbEntity
  8
0
  6
Continuous
100
AcDbLine
 10
379.4095201416831
 20
-59.00000000000002
 30
0.0
 11
379.4095201416831
 21
-85.0
 31
0.0
  0
LINE
  5
656F
330
1E
100
AcDbEntity
  8
0
  6
Continuous
100
AcDbLine
 10
344.4095201416829
 20
-59.00000000000002
 30
0.0
 11
344.4095201416829
 21
-85.0
 31
0.0
  0
LINE
  5
6570
330
1E
100
AcDbEntity
  8
0
  6
Continuous
100
AcDbLine
 10
359.4539287970314
 20
-62.00000000000006
 30
0.0
 11
391.7300282173719
 21
-62.00000000000006
 31
0.0
  0
LINE
  5
6571
330
1E
100
AcDbEntity
  8
0
  6
Continuous
100
AcDbLine
 10
359.4539287970314
 20
-82.00000000000008
 30
0.0
 11
391.7300282173719
 21
-82.00000000000008
 31
0.0
  0
DIMENSION
  5
6572
330
1E
100
AcDbEntity
  8
30
  6
Continuous
100
AcDbDimension
  2
*D40
 10
359.4095201416832
 20
-135.4544464119911
 30
0.0
 11
351.9095201416831
 21
-132.4544464119911
 31
0.0
 70
    32
 71
     5
 42
15.00000000000023
  3
STANDARD
100
AcDbAlignedDimension
 13
344.4095201416829
 23
-74.50000001650001
 33
0.0
 14
359.4095201416832
 24
-82.30776410006072
 34
0.0
 50
180.0
100
AcDbRotatedDimension
  0
ARC
  5
6573
330
1E
100
AcDbEntity
  8
0
  6
Continuous
100
AcDbCircle
 10
-341.7744368727202
 20
-72.00000000000007
 30
0.0
 40
20.0
210
0.0
220
0.0
230
-1.0
100
AcDbArc
 50
330.0000000000006
 51
345.5224878140703
  0
LINE
  5
6574
330
1E
100
AcDbEntity
  8
0
  6
Continuous
100
AcDbLine
 10
315.9095201416832
 20
-62.00000000000006
 30
0.0
 11
315.9095201416832
 21
-82.00000000000008
 31
0.0
  0
LINE
  5
6575
330
1E
100
AcDbEntity
  8
0
  6
Continuous
100
AcDbLine
 10
315.9095201416832
 20
-77.00000000000007
 30
0.0
 11
322.4095201416832
 21
-77.00000000000007
 31
0.0
  0
LINE
  5
6576
330
1E
100
AcDbEntity
  8
0
  6
Continuous
100
AcDbLine
 10
315.9095201416832
 20
-67.00000000000007
 30
0.0
 11
322.4095201416832
 21
-67.00000000000007
 31
0.0
  0
ARC
  5
6577
330
1E
100
AcDbEntity
  8
0
  6
Continuous
100
AcDbCircle
 10
-341.7744368727202
 20
-72.00000000000007
 30
0.0
 40
20.0
210
0.0
220
0.0
230
-1.0
100
AcDbArc
 50
14.47751218592969
 51
29.99999999999926
  0
ARC
  5
6578
330
1E
100
AcDbEntity
  8
0
  6
Continuous
100
AcDbCircle
 10
-376.7744368727203
 20
-72.00000000000007
 30
0.0
 40
20.0
210
0.0
220
0.0
230
-1.0
100
AcDbArc
 50
330.0000000000006
 51
339.0869051817071
  0
ARC
  5
6579
330
1E
100
AcDbEntity
  8
0
  6
Continuous
100
AcDbCircle
 10
339.4095201416829
 20
-72.00000000000007
 30
0.0
 40
20.0
100
AcDbArc
 50
330.0000000000006
 51
29.99999999999926
  0
CIRCLE
  5
657A
330
1E
100
AcDbEntity
  8
0
  6
Continuous
100
AcDbCircle
 10
344.4095201416829
 20
-72.00000000000007
 30
0.0
 40
4.5
  0
ARC
  5
657B
330
1E
100
AcDbEntity
  8
0
  6
Continuous
100
AcDbCircle
 10
-376.7744368727203
 20
-72.00000000000007
 30
0.0
 40
20.0
210
0.0
220
0.0
230
-1.0
100
AcDbArc
 50
20.91309481829289
 51
29.99999999999926
  0
DIMENSION
  5
657C
330
1E
100
AcDbEntity
  8
30
  6
Continuous
100
AcDbDimension
  2
*D41
 10
394.4095201416831
 20
-135.4544464119911
 30
0.0
 11
386.9095201416831
 21
-132.4544464119911
 31
0.0
 70
    32
 71
     5
 42
15.0
  3
STANDARD
100
AcDbAlignedDimension
 13
379.4095201416831
 23
-74.50000001650001
 33
0.0
 14
394.4095201416831
 24
-82.30776410006072
 34
0.0
 50
180.0
100
AcDbRotatedDimension
  0
CIRCLE
  5
657D
330
1E
100
AcDbEntity
  8
0
  6
Continuous
100
AcDbCircle
 10
379.4095201416831
 20
-72.00000000000007
 30
0.0
 40
4.5
  0
ARC
  5
657E
330
1E
100
AcDbEntity
  8
0
  6
Continuous
100
AcDbCircle
 10
374.409520141683
 20
-72.00000000000007
 30
0.0
 40
20.0
100
AcDbArc
 50
330.0000000000006
 51
29.99999999999926
  0
LINE
  5
657F
330
1E
100
AcDbEntity
  8
0
  6
Continuous
100
AcDbLine
 10
298.0595201416836
 20
62.0
 30
0.0
 11
350.909520141683
 21
62.0
 31
0.0
  0
LINE
  5
6580
330
1E
100
AcDbEntity
  8
0
  6
Continuous
100
AcDbLine
 10
288.4095201416833
 20
82.0
 30
0.0
 11
350.909520141683
 21
82.0
 31
0.0
  0
LINE
  5
6581
330
1E
100
AcDbEntity
  8
0
  6
Continuous
100
AcDbLine
 10
283.4095201416833
 20
72.0
 30
0.0
 11
399.4095201416831
 21
72.0
 31
0.0
  0
LINE
  5
6582
330
1E
100
AcDbEntity
  8
10
  6
CONTINOUS
100
AcDbLine
 10
212.4095201416831
 20
24.99999999999998
 30
0.0
 11
218.4095201416833
 21
24.99999999999998
 31
0.0
  0
LINE
  5
6583
330
1E
100
AcDbEntity
  8
10
  6
CONTINOUS
100
AcDbLine
 10
218.4095201416833
 20
96.0
 30
0.0
 11
233.4095201416833
 21
96.0
 31
0.0
  0
LINE
  5
6584
330
1E
100
AcDbEntity
  8
18
100
AcDbLine
 10
233.4095201416833
 20
105.9999999999998
 30
0.0
 11
237.4095201416831
 21
101.0
 31
0.0
  0
LINE
  5
6585
330
1E
100
AcDbEntity
  8
18
100
AcDbLine
 10
233.4095201416833
 20
105.9999999999998
 30
0.0
 11
233.4095201416833
 21
96.0
 31
0.0
  0
LINE
  5
6586
330
1E
100
AcDbEntity
  8
0
  6
Continuous
100
AcDbLine
 10
350.909520141683
 20
67.0
 30
0.0
 11
357.4095201416834
 21
67.0
 31
0.0
  0
LINE
  5
6587
330
1E
100
AcDbEntity
  8
0
  6
Continuous
100
AcDbLine
 10
350.909520141683
 20
77.0
 30
0.0
 11
357.4095201416834
 21
77.0
 31
0.0
  0
LINE
  5
6588
330
1E
100
AcDbEntity
  8
0
  6
Continuous
100
AcDbLine
 10
322.4095201416832
 20
69.0
 30
0.0
 11
359.4095201416832
 21
69.0
 31
0.0
  0
LINE
  5
6589
330
1E
100
AcDbEntity
  8
0
  6
Continuous
100
AcDbLine
 10
322.4095201416832
 20
75.0
 30
0.0
 11
359.4095201416832
 21
75.0
 31
0.0
  0
LINE
  5
658A
330
1E
100
AcDbEntity
  8
0
  6
Continuous
100
AcDbLine
 10
322.4095201416832
 20
77.0
 30
0.0
 11
322.4095201416832
 21
75.0
 31
0.0
  0
LINE
  5
658B
330
1E
100
AcDbEntity
  8
0
  6
Continuous
100
AcDbLine
 10
315.9095201416832
 20
82.0
 30
0.0
 11
315.9095201416832
 21
62.0
 31
0.0
  0
LINE
  5
658C
330
1E
100
AcDbEntity
  8
0
  6
Continuous
100
AcDbLine
 10
315.9095201416832
 20
67.0
 30
0.0
 11
322.4095201416832
 21
67.0
 31
0.0
  0
LINE
  5
658D
330
1E
100
AcDbEntity
  8
0
  6
Continuous
100
AcDbLine
 10
322.4095201416832
 20
69.0
 30
0.0
 11
322.4095201416832
 21
67.0
 31
0.0
  0
LINE
  5
658E
330
1E
100
AcDbEntity
  8
0
  6
Continuous
100
AcDbLine
 10
315.9095201416832
 20
77.0
 30
0.0
 11
322.4095201416832
 21
77.0
 31
0.0
  0
LINE
  5
658F
330
1E
100
AcDbEntity
  8
0
  6
Continuous
100
AcDbLine
 10
350.909520141683
 20
82.0
 30
0.0
 11
350.909520141683
 21
75.0
 31
0.0
  0
LINE
  5
6590
330
1E
100
AcDbEntity
  8
0
  6
Continuous
100
AcDbLine
 10
344.4095201416829
 20
85.00000000000001
 30
0.0
 11
344.4095201416829
 21
59.0
 31
0.0
  0
LINE
  5
6591
330
1E
100
AcDbEntity
  8
0
  6
Continuous
100
AcDbLine
 10
350.909520141683
 20
69.0
 30
0.0
 11
350.909520141683
 21
62.0
 31
0.0
  0
LINE
  5
6592
330
1E
100
AcDbEntity
  8
0
  6
Continuous
100
AcDbLine
 10
359.4095201416832
 20
69.0
 30
0.0
 11
359.4095201416832
 21
75.0
 31
0.0
  0
LINE
  5
6593
330
1E
100
AcDbEntity
  8
0
  6
Continuous
100
AcDbLine
 10
357.4095201416828
 20
75.0
 30
0.0
 11
394.4095201416831
 21
75.0
 31
0.0
  0
LINE
  5
6594
330
1E
100
AcDbEntity
  8
0
  6
Continuous
100
AcDbLine
 10
357.4095201416828
 20
69.0
 30
0.0
 11
394.4095201416831
 21
69.0
 31
0.0
  0
LINE
  5
6595
330
1E
100
AcDbEntity
  8
0
  6
Continuous
100
AcDbLine
 10
357.4095201416834
 20
77.0
 30
0.0
 11
357.4095201416834
 21
75.0
 31
0.0
  0
LINE
  5
6596
330
1E
100
AcDbEntity
  8
0
  6
Continuous
100
AcDbLine
 10
379.4095201416831
 20
85.00000000000001
 30
0.0
 11
379.4095201416831
 21
59.0
 31
0.0
  0
LINE
  5
6597
330
1E
100
AcDbEntity
  8
0
  6
Continuous
100
AcDbLine
 10
357.4095201416834
 20
69.0
 30
0.0
 11
357.4095201416834
 21
67.0
 31
0.0
  0
LINE
  5
6598
330
1E
100
AcDbEntity
  8
0
  6
Continuous
100
AcDbLine
 10
394.4095201416831
 20
69.0
 30
0.0
 11
394.4095201416831
 21
75.0
 31
0.0
  0
DIMENSION
  5
6599
330
1E
100
AcDbEntity
  8
30
  6
Continuous
100
AcDbDimension
  2
*D33
 10
441.7518178735186
 20
-72.00000000000007
 30
0.0
 11
438.7518178735184
 21
0.0000000000000444
 31
0.0
 70
    32
 71
     5
 42
144.0
  3
STANDARD
100
AcDbAlignedDimension
 13
433.8671757186886
 23
72.0
 33
0.0
 14
429.6565297158108
 24
-72.00000000000007
 34
0.0
 50
90.0
100
AcDbRotatedDimension
1001
ACAD
1000
DSTYLE
1002
{
1070
    79
1070
     3
1002
}
  0
LINE
  5
659A
330
1E
100
AcDbEntity
  8
10
  6
CONTINOUS
100
AcDbLine
 10
233.4095201416833
 20
-74.99999999999999
 30
0.0
 11
245.2095201416835
 21
-74.99999999999999
 31
0.0
  0
LINE
  5
659B
330
1E
100
AcDbEntity
  8
10
  6
CONTINOUS
100
AcDbLine
 10
245.2095201416835
 20
-50.0
 30
0.0
 11
245.2095201416835
 21
-74.99999999999999
 31
0.0
  0
LINE
  5
659C
330
1E
100
AcDbEntity
  8
10
  6
CONTINOUS
100
AcDbLine
 10
245.2095201416835
 20
-50.0
 30
0.0
 11
292.6095201416836
 21
-50.0
 31
0.0
  0
LINE
  5
659D
330
1E
100
AcDbEntity
  8
10
  6
CONTINOUS
100
AcDbLine
 10
245.2095201416835
 20
50.00000000000003
 30
0.0
 11
292.6095201416836
 21
50.00000000000003
 31
0.0
  0
LINE
  5
659E
330
1E
100
AcDbEntity
  8
10
  6
CONTINOUS
100
AcDbLine
 10
245.2095201416835
 20
75.00000000000004
 30
0.0
 11
245.2095201416835
 21
50.00000000000003
 31
0.0
  0
LINE
  5
659F
330
1E
100
AcDbEntity
  8
10
  6
CONTINOUS
100
AcDbLine
 10
245.2095201416835
 20
75.00000000000004
 30
0.0
 11
233.4095201416833
 21
75.00000000000004
 31
0.0
  0
LINE
  5
65A0
330
1E
100
AcDbEntity
  8
10
  6
CONTINOUS
100
AcDbLine
 10
292.6095201416836
 20
75.00000000000004
 30
0.0
 11
291.0095201416833
 21
75.00000000000004
 31
0.0
  0
LINE
  5
65A1
330
1E
100
AcDbEntity
  8
10
  6
CONTINOUS
100
AcDbLine
 10
292.6095201416836
 20
-74.99999999999999
 30
0.0
 11
291.0095201416833
 21
-74.99999999999999
 31
0.0
  0
LINE
  5
65A2
330
1E
100
AcDbEntity
  8
10
  6
CONTINOUS
100
AcDbLine
 10
288.4095201416833
 20
-76.49999999999998
 30
0.0
 11
291.0095201416833
 21
-76.49999999999998
 31
0.0
  0
LINE
  5
65A3
330
1E
100
AcDbEntity
  8
10
  6
CONTINOUS
100
AcDbLine
 10
293.6095201416833
 20
-50.0
 30
0.0
 11
292.6095201416836
 21
-50.0
 31
0.0
  0
LINE
  5
65A4
330
1E
100
AcDbEntity
  8
10
  6
CONTINOUS
100
AcDbLine
 10
293.6095201416833
 20
-50.0
 30
0.0
 11
293.6095201416833
 21
50.00000000000003
 31
0.0
  0
LINE
  5
65A5
330
1E
100
AcDbEntity
  8
10
  6
CONTINOUS
100
AcDbLine
 10
293.6095201416833
 20
50.00000000000003
 30
0.0
 11
292.6095201416836
 21
50.00000000000003
 31
0.0
  0
LINE
  5
65A6
330
1E
100
AcDbEntity
  8
10
  6
CONTINOUS
100
AcDbLine
 10
288.4095201416833
 20
76.50000000000003
 30
0.0
 11
291.0095201416833
 21
76.50000000000003
 31
0.0
  0
LINE
  5
65A7
330
1E
100
AcDbEntity
  8
10
  6
CONTINOUS
100
AcDbLine
 10
288.4095201416833
 20
-76.49999999999998
 30
0.0
 11
288.4095201416833
 21
-50.0
 31
0.0
  0
LINE
  5
65A8
330
1E
100
AcDbEntity
  8
10
  6
CONTINOUS
100
AcDbLine
 10
291.0095201416833
 20
-76.49999999999998
 30
0.0
 11
291.0095201416833
 21
-50.0
 31
0.0
  0
LINE
  5
65A9
330
1E
100
AcDbEntity
  8
10
  6
CONTINOUS
100
AcDbLine
 10
288.4095201416833
 20
50.00000000000003
 30
0.0
 11
288.4095201416833
 21
76.50000000000003
 31
0.0
  0
LINE
  5
65AA
330
1E
100
AcDbEntity
  8
10
  6
CONTINOUS
100
AcDbLine
 10
291.0095201416833
 20
50.00000000000003
 30
0.0
 11
291.0095201416833
 21
76.50000000000003
 31
0.0
  0
LINE
  5
65AB
330
1E
100
AcDbEntity
  8
10
  6
CONTINOUS
100
AcDbLine
 10
292.6095201416836
 20
50.00000000000003
 30
0.0
 11
292.6095201416836
 21
75.00000000000004
 31
0.0
  0
LINE
  5
65AC
330
1E
100
AcDbEntity
  8
10
  6
CONTINOUS
100
AcDbLine
 10
291.0095201416833
 20
50.00000000000003
 30
0.0
 11
291.0095201416833
 21
75.00000000000004
 31
0.0
  0
LINE
  5
65AD
330
1E
100
AcDbEntity
  8
10
  6
CONTINOUS
100
AcDbLine
 10
291.0095201416833
 20
-74.99999999999999
 30
0.0
 11
291.0095201416833
 21
-50.0
 31
0.0
  0
LINE
  5
65AE
330
1E
100
AcDbEntity
  8
10
  6
CONTINOUS
100
AcDbLine
 10
292.6095201416836
 20
-74.99999999999999
 30
0.0
 11
292.6095201416836
 21
50.00000000000003
 31
0.0
  0
LINE
  5
65AF
330
1E
100
AcDbEntity
  8
10
  6
CONTINOUS
100
AcDbLine
 10
276.8095201416836
 20
20.00000000000004
 30
0.0
 11
243.8095201416834
 21
20.00000000000004
 31
0.0
  0
LINE
  5
65B0
330
1E
100
AcDbEntity
  8
10
  6
CONTINOUS
100
AcDbLine
 10
241.8095201416836
 20
-18.0
 30
0.0
 11
241.8095201416836
 21
18.00000000000001
 31
0.0
  0
LINE
  5
65B1
330
1E
100
AcDbEntity
  8
10
  6
CONTINOUS
100
AcDbLine
 10
276.8095201416836
 20
-20.0
 30
0.0
 11
243.8095201416834
 21
-20.0
 31
0.0
  0
LINE
  5
65B2
330
1E
100
AcDbEntity
  8
10
  6
CONTINOUS
100
AcDbLine
 10
278.8095201416834
 20
-18.0
 30
0.0
 11
278.8095201416834
 21
18.00000000000001
 31
0.0
  0
LINE
  5
65B3
330
1E
100
AcDbEntity
  8
10
  6
CONTINOUS
100
AcDbLine
 10
297.0595201416834
 20
64.40000000000002
 30
0.0
 11
294.8095201416834
 21
64.40000000000002
 31
0.0
  0
LINE
  5
65B4
330
1E
100
AcDbEntity
  8
10
  6
CONTINOUS
100
AcDbLine
 10
297.0595201416834
 20
55.59999999999998
 30
0.0
 11
294.8095201416834
 21
55.59999999999998
 31
0.0
  0
LINE
  5
65B5
330
1E
100
AcDbEntity
  8
10
  6
CONTINOUS
100
AcDbLine
 10
294.6095201416834
 20
64.40000000000002
 30
0.0
 11
293.7095201416834
 21
64.40000000000002
 31
0.0
  0
LINE
  5
65B6
330
1E
100
AcDbEntity
  8
10
  6
CONTINOUS
100
AcDbLine
 10
294.6095201416834
 20
55.59999999999998
 30
0.0
 11
293.7095201416834
 21
55.59999999999998
 31
0.0
  0
LINE
  5
65B7
330
1E
100
AcDbEntity
  8
10
  6
CONTINOUS
100
AcDbLine
 10
294.8095201416834
 20
64.19999999999999
 30
0.0
 11
294.8095201416834
 21
55.80000000000001
 31
0.0
  0
LINE
  5
65B8
330
1E
100
AcDbEntity
  8
10
  6
CONTINOUS
100
AcDbLine
 10
293.3095201416834
 20
64.74999999999998
 30
0.0
 11
292.6095201416836
 21
64.74999999999998
 31
0.0
  0
LINE
  5
65B9
330
1E
100
AcDbEntity
  8
10
  6
CONTINOUS
100
AcDbLine
 10
293.3095201416834
 20
55.25000000000003
 30
0.0
 11
292.6095201416836
 21
55.25000000000003
 31
0.0
  0
LINE
  5
65BA
330
1E
100
AcDbEntity
  8
10
  6
CONTINOUS
100
AcDbLine
 10
293.7095201416834
 20
55.65000000000002
 30
0.0
 11
293.7095201416834
 21
64.34999999999999
 31
0.0
  0
LINE
  5
65BB
330
1E
100
AcDbEntity
  8
10
  6
CONTINOUS
100
AcDbLine
 10
298.0595201416836
 20
63.39999999999999
 30
0.0
 11
298.0595201416836
 21
56.60000000000001
 31
0.0
  0
LINE
  5
65BC
330
1E
100
AcDbEntity
  8
10
  6
CONTINOUS
100
AcDbLine
 10
294.8095201416834
 20
64.40000000000002
 30
0.0
 11
294.8095201416834
 21
55.59999999999998
 31
0.0
  0
LINE
  5
65BD
330
1E
100
AcDbEntity
  8
10
  6
CONTINOUS
100
AcDbLine
 10
293.7095201416834
 20
60.64182500000004
 30
0.0
 11
294.8095201416834
 21
60.54558750000001
 31
0.0
  0
LINE
  5
65BE
330
1E
100
AcDbEntity
  8
10
  6
CONTINOUS
100
AcDbLine
 10
294.8095201416834
 20
59.74444000000001
 30
0.0
 11
293.7095201416834
 21
59.84067749999998
 31
0.0
  0
LINE
  5
65BF
330
1E
100
AcDbEntity
  8
10
  6
CONTINOUS
100
AcDbLine
 10
293.3095201416834
 20
-55.24999999999998
 30
0.0
 11
292.6095201416836
 21
-55.24999999999998
 31
0.0
  0
LINE
  5
65C0
330
1E
100
AcDbEntity
  8
10
  6
CONTINOUS
100
AcDbLine
 10
293.7095201416834
 20
-64.35000000000001
 30
0.0
 11
293.7095201416834
 21
-55.64999999999996
 31
0.0
  0
LINE
  5
65C1
330
1E
100
AcDbEntity
  8
10
  6
CONTINOUS
100
AcDbLine
 10
297.0595201416834
 20
-55.59999999999998
 30
0.0
 11
294.8095201416834
 21
-55.59999999999998
 31
0.0
  0
LINE
  5
65C2
330
1E
100
AcDbEntity
  8
10
  6
CONTINOUS
100
AcDbLine
 10
298.0595201416836
 20
-56.60000000000001
 30
0.0
 11
298.0595201416836
 21
-63.40000000000002
 31
0.0
  0
LINE
  5
65C3
330
1E
100
AcDbEntity
  8
10
  6
CONTINOUS
100
AcDbLine
 10
294.8095201416834
 20
-55.59999999999998
 30
0.0
 11
294.8095201416834
 21
-64.39999999999996
 31
0.0
  0
LINE
  5
65C4
330
1E
100
AcDbEntity
  8
10
  6
CONTINOUS
100
AcDbLine
 10
294.6095201416834
 20
-55.59999999999998
 30
0.0
 11
293.7095201416834
 21
-55.59999999999998
 31
0.0
  0
LINE
  5
65C5
330
1E
100
AcDbEntity
  8
10
  6
CONTINOUS
100
AcDbLine
 10
294.8095201416834
 20
-55.8
 30
0.0
 11
294.8095201416834
 21
-64.19999999999998
 31
0.0
  0
LINE
  5
65C6
330
1E
100
AcDbEntity
  8
10
  6
CONTINOUS
100
AcDbLine
 10
297.0595201416834
 20
-64.39999999999996
 30
0.0
 11
294.8095201416834
 21
-64.39999999999996
 31
0.0
  0
LINE
  5
65C7
330
1E
100
AcDbEntity
  8
10
  6
CONTINOUS
100
AcDbLine
 10
294.6095201416834
 20
-64.39999999999996
 30
0.0
 11
293.7095201416834
 21
-64.39999999999996
 31
0.0
  0
LINE
  5
65C8
330
1E
100
AcDbEntity
  8
10
  6
CONTINOUS
100
AcDbLine
 10
293.7095201416834
 20
-59.358175
 30
0.0
 11
294.8095201416834
 21
-59.45441249999998
 31
0.0
  0
LINE
  5
65C9
330
1E
100
AcDbEntity
  8
10
  6
CONTINOUS
100
AcDbLine
 10
294.8095201416834
 20
-60.25555999999999
 30
0.0
 11
293.7095201416834
 21
-60.15932249999996
 31
0.0
  0
LINE
  5
65CA
330
1E
100
AcDbEntity
  8
10
  6
CONTINOUS
100
AcDbLine
 10
293.3095201416834
 20
-64.74999999999998
 30
0.0
 11
292.6095201416836
 21
-64.74999999999998
 31
0.0
  0
LINE
  5
65CB
330
1E
100
AcDbEntity
  8
10
  6
CONTINOUS
100
AcDbLine
 10
286.8095201416836
 20
62.12432500000002
 30
0.0
 11
286.8095201416836
 21
57.87567499999997
 31
0.0
  0
LINE
  5
65CC
330
1E
100
AcDbEntity
  8
10
  6
CONTINOUS
100
AcDbLine
 10
287.3095201416834
 20
62.41299999999998
 30
0.0
 11
288.4095201416833
 21
62.41299999999998
 31
0.0
  0
LINE
  5
65CD
330
1E
100
AcDbEntity
  8
10
  6
CONTINOUS
100
AcDbLine
 10
287.3095201416834
 20
57.58700000000001
 30
0.0
 11
288.4095201416833
 21
57.58700000000001
 31
0.0
  0
LINE
  5
65CE
330
1E
100
AcDbEntity
  8
10
  6
CONTINOUS
100
AcDbLine
 10
287.3095201416834
 20
62.41299999999998
 30
0.0
 11
286.8095201416836
 21
62.12432500000002
 31
0.0
  0
LINE
  5
65CF
330
1E
100
AcDbEntity
  8
10
  6
CONTINOUS
100
AcDbLine
 10
286.8095201416836
 20
57.87567499999997
 30
0.0
 11
287.3095201416834
 21
57.58700000000001
 31
0.0
  0
LINE
  5
65D0
330
1E
100
AcDbEntity
  8
10
  6
CONTINOUS
100
AcDbLine
 10
286.8095201416836
 20
-62.17432499999997
 30
0.0
 11
287.3095201416834
 21
-62.46299999999995
 31
0.0
  0
LINE
  5
65D1
330
1E
100
AcDbEntity
  8
10
  6
CONTINOUS
100
AcDbLine
 10
286.8095201416836
 20
-57.92567499999993
 30
0.0
 11
286.8095201416836
 21
-62.17432499999997
 31
0.0
  0
LINE
  5
65D2
330
1E
100
AcDbEntity
  8
10
  6
CONTINOUS
100
AcDbLine
 10
287.3095201416834
 20
-57.637
 30
0.0
 11
288.4095201416833
 21
-57.637
 31
0.0
  0
LINE
  5
65D3
330
1E
100
AcDbEntity
  8
10
  6
CONTINOUS
100
AcDbLine
 10
287.3095201416834
 20
-57.637
 30
0.0
 11
286.8095201416836
 21
-57.92567499999993
 31
0.0
  0
LINE
  5
65D4
330
1E
100
AcDbEntity
  8
10
  6
CONTINOUS
100
AcDbLine
 10
287.3095201416834
 20
-62.46299999999995
 30
0.0
 11
288.4095201416833
 21
-62.46299999999995
 31
0.0
  0
LINE
  5
65D5
330
1E
100
AcDbEntity
  8
10
  6
CONTINOUS
100
AcDbLine
 10
288.4095201416833
 20
-50.0
 30
0.0
 11
288.4095201416833
 21
-82.49999999999998
 31
0.0
  0
LINE
  5
65D6
330
1E
100
AcDbEntity
  8
10
  6
CONTINOUS
100
AcDbLine
 10
288.4095201416833
 20
82.50000000000005
 30
0.0
 11
233.4095201416833
 21
82.50000000000005
 31
0.0
  0
LINE
  5
65D7
330
1E
100
AcDbEntity
  8
10
  6
CONTINOUS
100
AcDbLine
 10
233.4095201416833
 20
-82.49999999999998
 30
0.0
 11
288.4095201416833
 21
-82.49999999999998
 31
0.0
  0
LINE
  5
65D8
330
1E
100
AcDbEntity
  8
10
  6
CONTINOUS
100
AcDbLine
 10
288.4095201416833
 20
82.50000000000005
 30
0.0
 11
288.4095201416833
 21
50.00000000000003
 31
0.0
  0
ARC
  5
65D9
330
1E
100
AcDbEntity
  8
10
  6
CONTINOUS
100
AcDbCircle
 10
243.8095201416834
 20
18.00000000000001
 30
0.0
 40
2.0
100
AcDbArc
 50
90.0
 51
180.0
  0
ARC
  5
65DA
330
1E
100
AcDbEntity
  8
10
  6
CONTINOUS
100
AcDbCircle
 10
243.8095201416834
 20
-18.0
 30
0.0
 40
2.0
100
AcDbArc
 50
180.0
 51
270.0
  0
ARC
  5
65DB
330
1E
100
AcDbEntity
  8
10
  6
CONTINOUS
100
AcDbCircle
 10
276.8095201416836
 20
-18.0
 30
0.0
 40
2.0
100
AcDbArc
 50
270.0
 51
0.0
  0
ARC
  5
65DC
330
1E
100
AcDbEntity
  8
10
  6
CONTINOUS
100
AcDbCircle
 10
276.8095201416836
 20
18.00000000000001
 30
0.0
 40
2.0
100
AcDbArc
 50
0.0
 51
90.0
  0
ARC
  5
65DD
330
1E
100
AcDbEntity
  8
10
  6
CONTINOUS
100
AcDbCircle
 10
297.0595201416834
 20
63.39999999999999
 30
0.0
 40
1.0
100
AcDbArc
 50
0.0
 51
90.0
  0
ARC
  5
65DE
330
1E
100
AcDbEntity
  8
10
  6
CONTINOUS
100
AcDbCircle
 10
297.0595201416834
 20
56.60000000000001
 30
0.0
 40
1.0
100
AcDbArc
 50
270.0
 51
0.0
  0
ARC
  5
65DF
330
1E
100
AcDbEntity
  8
10
  6
CONTINOUS
100
AcDbCircle
 10
294.6095201416834
 20
64.19999999999999
 30
0.0
 40
0.2
100
AcDbArc
 50
0.0
 51
90.0
  0
ARC
  5
65E0
330
1E
100
AcDbEntity
  8
10
  6
CONTINOUS
100
AcDbCircle
 10
294.6095201416834
 20
55.80000000000001
 30
0.0
 40
0.2
100
AcDbArc
 50
270.0
 51
0.0
  0
ARC
  5
65E1
330
1E
100
AcDbEntity
  8
10
  6
CONTINOUS
100
AcDbCircle
 10
293.3095201416834
 20
55.65000000000002
 30
0.0
 40
0.4
100
AcDbArc
 50
270.0
 51
0.0
  0
ARC
  5
65E2
330
1E
100
AcDbEntity
  8
10
  6
CONTINOUS
100
AcDbCircle
 10
293.3095201416834
 20
64.34999999999999
 30
0.0
 40
0.4
100
AcDbArc
 50
0.0
 51
90.0
  0
ARC
  5
65E3
330
1E
100
AcDbEntity
  8
10
  6
CONTINOUS
100
AcDbCircle
 10
293.3095201416834
 20
-55.64999999999996
 30
0.0
 40
0.4
100
AcDbArc
 50
0.0
 51
90.0
  0
ARC
  5
65E4
330
1E
100
AcDbEntity
  8
10
  6
CONTINOUS
100
AcDbCircle
 10
297.0595201416834
 20
-56.60000000000001
 30
0.0
 40
1.0
100
AcDbArc
 50
0.0
 51
90.0
  0
ARC
  5
65E5
330
1E
100
AcDbEntity
  8
10
  6
CONTINOUS
100
AcDbCircle
 10
294.6095201416834
 20
-55.8
 30
0.0
 40
0.2
100
AcDbArc
 50
0.0
 51
90.0
  0
ARC
  5
65E6
330
1E
100
AcDbEntity
  8
10
  6
CONTINOUS
100
AcDbCircle
 10
297.0595201416834
 20
-63.40000000000002
 30
0.0
 40
1.0
100
AcDbArc
 50
270.0
 51
0.0
  0
ARC
  5
65E7
330
1E
100
AcDbEntity
  8
10
  6
CONTINOUS
100
AcDbCircle
 10
294.6095201416834
 20
-64.19999999999998
 30
0.0
 40
0.2
100
AcDbArc
 50
270.0
 51
0.0
  0
ARC
  5
65E8
330
1E
100
AcDbEntity
  8
10
  6
CONTINOUS
100
AcDbCircle
 10
293.3095201416834
 20
-64.35000000000001
 30
0.0
 40
0.4
100
AcDbArc
 50
270.0
 51
0.0
  0
LINE
  5
68A7
330
1E
100
AcDbEntity
  8
10
  6
CONTINOUS
100
AcDbLine
 10
-60.99999999999967
 20
230.6106271080802
 30
0.0
 11
-60.99999999999967
 21
228.0106271080802
 31
0.0
  0
LINE
  5
68A8
330
1E
100
AcDbEntity
  8
10
  6
CONTINOUS
100
AcDbLine
 10
96.00000000000008
 20
230.6106271080802
 30
0.0
 11
96.00000000000008
 21
228.0106271080802
 31
0.0
  0
LINE
  5
68A9
330
1E
100
AcDbEntity
  8
10
  6
CONTINOUS
100
AcDbLine
 10
-24.9999999999999
 20
233.2106271080802
 30
0.0
 11
-14.9999999999999
 21
233.2106271080802
 31
0.0
  0
LINE
  5
68AA
330
1E
100
AcDbEntity
  8
10
  6
CONTINOUS
100
AcDbLine
 10
-14.9999999999999
 20
233.2106271080802
 30
0.0
 11
-14.9999999999999
 21
230.6106271080802
 31
0.0
  0
LINE
  5
68AB
330
1E
100
AcDbEntity
  8
10
  6
CONTINOUS
100
AcDbLine
 10
9.990000000000335
 20
233.2106271080802
 30
0.0
 11
9.990000000000335
 21
230.6106271080802
 31
0.0
  0
LINE
  5
68AC
330
1E
100
AcDbEntity
  8
10
  6
CONTINOUS
100
AcDbLine
 10
9.990000000000335
 20
233.2106271080802
 30
0.0
 11
25.0000000000001
 21
233.2106271080802
 31
0.0
  0
LINE
  5
68AD
330
1E
100
AcDbEntity
  8
10
  6
CONTINOUS
100
AcDbLine
 10
-60.99999999999967
 20
230.6106271080802
 30
0.0
 11
-44.99999999999989
 21
230.6106271080802
 31
0.0
  0
LINE
  5
68AE
330
1E
100
AcDbEntity
  8
10
  6
CONTINOUS
100
AcDbLine
 10
-24.9999999999999
 20
230.6106271080802
 30
0.0
 11
-9.999999999999898
 21
230.6106271080802
 31
0.0
  0
LINE
  5
68AF
330
1E
100
AcDbEntity
  8
10
  6
CONTINOUS
100
AcDbLine
 10
10.00000000000009
 20
230.6106271080802
 30
0.0
 11
25.0000000000001
 21
230.6106271080802
 31
0.0
  0
LINE
  5
68B0
330
1E
100
AcDbEntity
  8
10
  6
CONTINOUS
100
AcDbLine
 10
45.00000000000009
 20
230.6106271080802
 30
0.0
 11
60.0000000000001
 21
230.6106271080802
 31
0.0
  0
LINE
  5
68B1
330
1E
100
AcDbEntity
  8
10
  6
CONTINOUS
100
AcDbLine
 10
80.0000000000001
 20
230.6106271080802
 30
0.0
 11
96.00000000000008
 21
230.6106271080802
 31
0.0
  0
LINE
  5
68B2
330
1E
100
AcDbEntity
  8
10
  6
CONTINOUS
100
AcDbLine
 10
-58.49999999999967
 20
228.0106271080802
 30
0.0
 11
-58.49999999999967
 21
173.0106271080801
 31
0.0
  0
LINE
  5
68B3
330
1E
100
AcDbEntity
  8
10
  6
CONTINOUS
100
AcDbLine
 10
-60.0999999999998
 20
173.0106271080801
 30
0.0
 11
-60.0999999999998
 21
228.0106271080802
 31
0.0
  0
LINE
  5
68B4
330
1E
100
AcDbEntity
  8
10
  6
CONTINOUS
100
AcDbLine
 10
93.50000000000006
 20
173.0106271080801
 30
0.0
 11
93.50000000000006
 21
228.0106271080802
 31
0.0
  0
LINE
  5
68B5
330
1E
100
AcDbEntity
  8
10
  6
CONTINOUS
100
AcDbLine
 10
95.09999999999999
 20
173.0106271080801
 30
0.0
 11
95.09999999999999
 21
228.0106271080802
 31
0.0
  0
LINE
  5
68B6
330
1E
100
AcDbEntity
  8
10
  6
CONTINOUS
100
AcDbLine
 10
-60.99999999999967
 20
230.6106271080802
 30
0.0
 11
-60.99999999999967
 21
232.2106271080802
 31
0.0
  0
LINE
  5
68B7
330
1E
100
AcDbEntity
  8
10
  6
CONTINOUS
100
AcDbLine
 10
-44.99999999999989
 20
232.2106271080802
 30
0.0
 11
-60.99999999999967
 21
232.2106271080802
 31
0.0
  0
LINE
  5
68B8
330
1E
100
AcDbEntity
  8
10
  6
CONTINOUS
100
AcDbLine
 10
96.00000000000008
 20
232.2106271080802
 30
0.0
 11
96.00000000000008
 21
230.6106271080802
 31
0.0
  0
LINE
  5
68B9
330
1E
100
AcDbEntity
  8
10
  6
CONTINOUS
100
AcDbLine
 10
96.00000000000008
 20
232.2106271080802
 30
0.0
 11
80.0000000000001
 21
232.2106271080802
 31
0.0
  0
LINE
  5
68BA
330
1E
100
AcDbEntity
  8
10
  6
CONTINOUS
100
AcDbLine
 10
-51.0999999999998
 20
234.2106271080802
 30
0.0
 11
-51.0999999999998
 21
233.3106271080802
 31
0.0
  0
LINE
  5
68BB
330
1E
100
AcDbEntity
  8
10
  6
CONTINOUS
100
AcDbLine
 10
-59.8499999999998
 20
233.3106271080802
 30
0.0
 11
-51.14999999999977
 21
233.3106271080802
 31
0.0
  0
LINE
  5
68BC
330
1E
100
AcDbEntity
  8
10
  6
CONTINOUS
100
AcDbLine
 10
-54.85817499999997
 20
233.3106271080802
 30
0.0
 11
-54.9544125000001
 21
234.4106271080802
 31
0.0
  0
LINE
  5
68BD
330
1E
100
AcDbEntity
  8
10
  6
CONTINOUS
100
AcDbLine
 10
-59.89999999999977
 20
234.2106271080802
 30
0.0
 11
-59.89999999999977
 21
233.3106271080802
 31
0.0
  0
LINE
  5
68BE
330
1E
100
AcDbEntity
  8
10
  6
CONTINOUS
100
AcDbLine
 10
-55.75555999999996
 20
234.4106271080802
 30
0.0
 11
-55.65932250000003
 21
233.3106271080802
 31
0.0
  0
LINE
  5
68BF
330
1E
100
AcDbEntity
  8
10
  6
CONTINOUS
100
AcDbLine
 10
-60.24999999999989
 20
232.9106271080802
 30
0.0
 11
-60.24999999999989
 21
232.2106271080802
 31
0.0
  0
LINE
  5
68C0
330
1E
100
AcDbEntity
  8
10
  6
CONTINOUS
100
AcDbLine
 10
-51.0999999999998
 20
234.4106271080802
 30
0.0
 11
-59.89999999999977
 21
234.4106271080802
 31
0.0
  0
LINE
  5
68C1
330
1E
100
AcDbEntity
  8
10
  6
CONTINOUS
100
AcDbLine
 10
-59.89999999999977
 20
236.6606271080802
 30
0.0
 11
-59.89999999999977
 21
234.4106271080802
 31
0.0
  0
LINE
  5
68C2
330
1E
100
AcDbEntity
  8
10
  6
CONTINOUS
100
AcDbLine
 10
-51.30000000000007
 20
234.4106271080802
 30
0.0
 11
-59.69999999999971
 21
234.4106271080802
 31
0.0
  0
LINE
  5
68C3
330
1E
100
AcDbEntity
  8
10
  6
CONTINOUS
100
AcDbLine
 10
-51.0999999999998
 20
236.6606271080802
 30
0.0
 11
-51.0999999999998
 21
234.4106271080802
 31
0.0
  0
LINE
  5
68C4
330
1E
100
AcDbEntity
  8
10
  6
CONTINOUS
100
AcDbLine
 10
-52.0999999999998
 20
237.6606271080802
 30
0.0
 11
-58.89999999999998
 21
237.6606271080802
 31
0.0
  0
LINE
  5
68C5
330
1E
100
AcDbEntity
  8
10
  6
CONTINOUS
100
AcDbLine
 10
-50.74999999999989
 20
232.9106271080802
 30
0.0
 11
-50.74999999999989
 21
232.2106271080802
 31
0.0
  0
LINE
  5
68C6
330
1E
100
AcDbEntity
  8
10
  6
CONTINOUS
100
AcDbLine
 10
86.10000000000002
 20
234.2106271080802
 30
0.0
 11
86.10000000000002
 21
233.3106271080802
 31
0.0
  0
LINE
  5
68C7
330
1E
100
AcDbEntity
  8
10
  6
CONTINOUS
100
AcDbLine
 10
86.15000000000019
 20
233.3106271080802
 30
0.0
 11
94.84999999999999
 21
233.3106271080802
 31
0.0
  0
LINE
  5
68C8
330
1E
100
AcDbEntity
  8
10
  6
CONTINOUS
100
AcDbLine
 10
94.90000000000021
 20
234.2106271080802
 30
0.0
 11
94.90000000000021
 21
233.3106271080802
 31
0.0
  0
LINE
  5
68C9
330
1E
100
AcDbEntity
  8
10
  6
CONTINOUS
100
AcDbLine
 10
90.24444000000004
 20
234.4106271080802
 30
0.0
 11
90.34067750000039
 21
233.3106271080802
 31
0.0
  0
LINE
  5
68CA
330
1E
100
AcDbEntity
  8
10
  6
CONTINOUS
100
AcDbLine
 10
91.14182499999978
 20
233.3106271080802
 30
0.0
 11
91.04558749999986
 21
234.4106271080802
 31
0.0
  0
LINE
  5
68CB
330
1E
100
AcDbEntity
  8
10
  6
CONTINOUS
100
AcDbLine
 10
94.70000000000036
 20
234.4106271080802
 30
0.0
 11
86.3000000000003
 21
234.4106271080802
 31
0.0
  0
LINE
  5
68CC
330
1E
100
AcDbEntity
  8
10
  6
CONTINOUS
100
AcDbLine
 10
93.90000000000014
 20
237.6606271080802
 30
0.0
 11
87.09999999999999
 21
237.6606271080802
 31
0.0
  0
LINE
  5
68CD
330
1E
100
AcDbEntity
  8
10
  6
CONTINOUS
100
AcDbLine
 10
94.90000000000021
 20
234.4106271080802
 30
0.0
 11
86.10000000000002
 21
234.4106271080802
 31
0.0
  0
LINE
  5
68CE
330
1E
100
AcDbEntity
  8
10
  6
CONTINOUS
100
AcDbLine
 10
94.90000000000021
 20
236.6606271080802
 30
0.0
 11
94.90000000000021
 21
234.4106271080802
 31
0.0
  0
LINE
  5
68CF
330
1E
100
AcDbEntity
  8
10
  6
CONTINOUS
100
AcDbLine
 10
86.10000000000002
 20
236.6606271080802
 30
0.0
 11
86.10000000000002
 21
234.4106271080802
 31
0.0
  0
LINE
  5
68D0
330
1E
100
AcDbEntity
  8
10
  6
CONTINOUS
100
AcDbLine
 10
85.75000000000009
 20
232.9106271080802
 30
0.0
 11
85.75000000000009
 21
232.2106271080802
 31
0.0
  0
LINE
  5
68D1
330
1E
100
AcDbEntity
  8
10
  6
CONTINOUS
100
AcDbLine
 10
95.25000000000007
 20
232.9106271080802
 30
0.0
 11
95.25000000000007
 21
232.2106271080802
 31
0.0
  0
LINE
  5
68D2
330
1E
100
AcDbEntity
  8
10
  6
CONTINOUS
100
AcDbLine
 10
-57.62432499999989
 20
226.4106271080802
 30
0.0
 11
-57.9129999999999
 21
226.9106271080802
 31
0.0
  0
LINE
  5
68D3
330
1E
100
AcDbEntity
  8
10
  6
CONTINOUS
100
AcDbLine
 10
-53.37567499999967
 20
226.4106271080802
 30
0.0
 11
-57.62432499999989
 21
226.4106271080802
 31
0.0
  0
LINE
  5
68D4
330
1E
100
AcDbEntity
  8
10
  6
CONTINOUS
100
AcDbLine
 10
-53.0869999999999
 20
226.9106271080802
 30
0.0
 11
-53.0869999999999
 21
228.0106271080802
 31
0.0
  0
LINE
  5
68D5
330
1E
100
AcDbEntity
  8
10
  6
CONTINOUS
100
AcDbLine
 10
-53.0869999999999
 20
226.9106271080802
 30
0.0
 11
-53.37567499999967
 21
226.4106271080802
 31
0.0
  0
LINE
  5
68D6
330
1E
100
AcDbEntity
  8
10
  6
CONTINOUS
100
AcDbLine
 10
-57.9129999999999
 20
226.9106271080802
 30
0.0
 11
-57.9129999999999
 21
228.0106271080802
 31
0.0
  0
LINE
  5
68D7
330
1E
100
AcDbEntity
  8
10
  6
CONTINOUS
100
AcDbLine
 10
88.37567499999989
 20
226.4106271080802
 30
0.0
 11
88.08700000000007
 21
226.9106271080802
 31
0.0
  0
LINE
  5
68D8
330
1E
100
AcDbEntity
  8
10
  6
CONTINOUS
100
AcDbLine
 10
92.62432500000031
 20
226.4106271080802
 30
0.0
 11
88.37567499999989
 21
226.4106271080802
 31
0.0
  0
LINE
  5
68D9
330
1E
100
AcDbEntity
  8
10
  6
CONTINOUS
100
AcDbLine
 10
92.9130000000001
 20
226.9106271080802
 30
0.0
 11
92.9130000000001
 21
228.0106271080802
 31
0.0
  0
LINE
  5
68DA
330
1E
100
AcDbEntity
  8
10
  6
CONTINOUS
100
AcDbLine
 10
92.9130000000001
 20
226.9106271080802
 30
0.0
 11
92.62432500000031
 21
226.4106271080802
 31
0.0
  0
LINE
  5
68DB
330
1E
100
AcDbEntity
  8
10
  6
CONTINOUS
100
AcDbLine
 10
88.08700000000007
 20
226.9106271080802
 30
0.0
 11
88.08700000000007
 21
228.0106271080802
 31
0.0
  0
ARC
  5
68DC
330
1E
100
AcDbEntity
  8
10
  6
CONTINOUS
100
AcDbCircle
 10
-51.14999999999977
 20
232.9106271080802
 30
0.0
 40
0.4
100
AcDbArc
 50
0.0
 51
90.0
  0
ARC
  5
68DD
330
1E
100
AcDbEntity
  8
10
  6
CONTINOUS
100
AcDbCircle
 10
-59.8499999999998
 20
232.9106271080802
 30
0.0
 40
0.4
100
AcDbArc
 50
90.0
 51
180.0
  0
ARC
  5
68DE
330
1E
100
AcDbEntity
  8
10
  6
CONTINOUS
100
AcDbCircle
 10
-52.0999999999998
 20
236.6606271080802
 30
0.0
 40
1.0
100
AcDbArc
 50
0.0
 51
90.0
  0
ARC
  5
68DF
330
1E
100
AcDbEntity
  8
10
  6
CONTINOUS
100
AcDbCircle
 10
-51.30000000000007
 20
234.2106271080802
 30
0.0
 40
0.2
100
AcDbArc
 50
0.0
 51
90.0
  0
ARC
  5
68E0
330
1E
100
AcDbEntity
  8
10
  6
CONTINOUS
100
AcDbCircle
 10
-58.89999999999998
 20
236.6606271080802
 30
0.0
 40
1.0
100
AcDbArc
 50
90.0
 51
180.0
  0
ARC
  5
68E1
330
1E
100
AcDbEntity
  8
10
  6
CONTINOUS
100
AcDbCircle
 10
-59.69999999999971
 20
234.2106271080802
 30
0.0
 40
0.2
100
AcDbArc
 50
90.0
 51
180.0
  0
ARC
  5
68E2
330
1E
100
AcDbEntity
  8
10
  6
CONTINOUS
100
AcDbCircle
 10
94.84999999999999
 20
232.9106271080802
 30
0.0
 40
0.4
100
AcDbArc
 50
0.0
 51
90.0
  0
ARC
  5
68E3
330
1E
100
AcDbEntity
  8
10
  6
CONTINOUS
100
AcDbCircle
 10
86.15000000000019
 20
232.9106271080802
 30
0.0
 40
0.4
100
AcDbArc
 50
90.0
 51
180.0
  0
ARC
  5
68E4
330
1E
100
AcDbEntity
  8
10
  6
CONTINOUS
100
AcDbCircle
 10
86.3000000000003
 20
234.2106271080802
 30
0.0
 40
0.2
100
AcDbArc
 50
90.0
 51
180.0
  0
ARC
  5
68E5
330
1E
100
AcDbEntity
  8
10
  6
CONTINOUS
100
AcDbCircle
 10
87.09999999999999
 20
236.6606271080802
 30
0.0
 40
1.0
100
AcDbArc
 50
90.0
 51
180.0
  0
ARC
  5
68E6
330
1E
100
AcDbEntity
  8
10
  6
CONTINOUS
100
AcDbCircle
 10
93.90000000000014
 20
236.6606271080802
 30
0.0
 40
1.0
100
AcDbArc
 50
0.0
 51
90.0
  0
ARC
  5
68E7
330
1E
100
AcDbEntity
  8
10
  6
CONTINOUS
100
AcDbCircle
 10
94.70000000000036
 20
234.2106271080802
 30
0.0
 40
0.2
100
AcDbArc
 50
0.0
 51
90.0
  0
VIEWPORT
  5
9AC
102
{ACAD_XDICTIONARY
360
69F1
102
}
330
1A
100
AcDbEntity
 67
     1
  8
0
  6
Continuous
100
AcDbViewport
 10
171.999535
 20
144.1384739999999
 30
0.0
 40
488.867686
 41
292.351491
 68
    -1
 69
     1
 12
171.999535
 22
144.1384739999999
 13
0.0
 23
0.0
 14
10.0
 24
10.0
 15
10.0
 25
10.0
 16
0.0
 26
0.0
 36
1.0
 17
0.0
 27
0.0
 37
0.0
 42
50.0
 43
0.0
 44
0.0
 45
292.351491
 50
0.0
 51
0.0
 72
   100
 90
    32800
  1

281
     0
 71
     1
 74
     0
110
0.0
120
0.0
130
0.0
111
1.0
121
0.0
131
0.0
112
0.0
122
1.0
132
0.0
 79
     0
146
0.0
  0
ENDSEC
  0
SECTION
  2
OBJECTS
  0
DICTIONARY
  5
C
330
0
100
AcDbDictionary
281
     1
  3
ACAD_CIP_PREVIOUS_PRODUCT_INFO
350
63EA
  3
ACAD_COLOR
350
6351
  3
ACAD_DETAILVIEWSTYLE
350
63E6
  3
ACAD_GROUP
350
D
  3
ACAD_LAYOUT
350
19
  3
ACAD_MATERIAL
350
6324
  3
ACAD_MLEADERSTYLE
350
6376
  3
ACAD_MLINESTYLE
350
16
  3
ACAD_PLOTSETTINGS
350
18
  3
ACAD_PLOTSTYLENAME
350
E
  3
ACAD_SCALELIST
350
6354
  3
ACAD_SECTIONVIEWSTYLE
350
63E4
  3
ACAD_TABLESTYLE
350
6352
  3
ACAD_VISUALSTYLE
350
633D
  3
ACDB_RECOMPOSE_DATA
350
69EF
  3
ACDBVARIABLEDICTIONARY
350
5D91
  3
AEC_PROPERTY_SET_DEFS
350
6554
  3
ASE_INDEX_DICTIONARY
350
6397
  3
DWGPROPS
350
69F0
  0
DICTIONARY
  5
6382
330
10
100
AcDbDictionary
280
     1
281
     1
  3
ADSK_XREC_LAYER_RECONCILED
360
6383
  0
DICTIONARY
  5
6384
330
2F
100
AcDbDictionary
280
     1
281
     1
  3
ADSK_XREC_LAYER_RECONCILED
360
6385
  0
DICTIONARY
  5
6386
330
31
100
AcDbDictionary
280
     1
281
     1
  3
ADSK_XREC_LAYER_RECONCILED
360
6387
  0
DICTIONARY
  5
6388
330
35
100
AcDbDictionary
280
     1
281
     1
  3
ADSK_XREC_LAYER_RECONCILED
360
6389
  0
DICTIONARY
  5
638A
330
3C
100
AcDbDictionary
280
     1
281
     1
  3
ADSK_XREC_LAYER_RECONCILED
360
638B
  0
DICTIONARY
  5
638C
330
3A2
100
AcDbDictionary
280
     1
281
     1
  3
ADSK_XREC_LAYER_RECONCILED
360
638D
  0
DICTIONARY
  5
638E
330
3BBA
100
AcDbDictionary
280
     1
281
     1
  3
ADSK_XREC_LAYER_RECONCILED
360
638F
  0
DICTIONARY
  5
6390
330
3BBB
100
AcDbDictionary
280
     1
281
     1
  3
ADSK_XREC_LAYER_RECONCILED
360
6391
  0
DICTIONARY
  5
6392
330
5116
100
AcDbDictionary
280
     1
281
     1
  3
ADSK_XREC_LAYER_RECONCILED
360
6393
  0
DICTIONARY
  5
6394
330
5117
100
AcDbDictionary
280
     1
281
     1
  3
ADSK_XREC_LAYER_RECONCILED
360
6395
  0
DICTIONARY
  5
178
330
1E
100
AcDbDictionary
280
     1
281
     1
  3
ACAD_LAYOUTSELFREF
360
6307
  0
DICTIONARY
  5
17A
330
1A
100
AcDbDictionary
280
     1
281
     1
  3
ACAD_LAYOUTSELFREF
360
6306
  0
DICTIONARY
  5
63A6
330
606D
100
AcDbDictionary
280
     1
281
     1
  3
ACAD_MTEXT_RT
360
69F3
  0
DICTIONARY
  5
69F1
330
9AC
100
AcDbDictionary
280
     1
281
     1
  3
ACAD_XREC_ROUNDTRIP
360
69F2
  0
XRECORD
  5
63EA
102
{ACAD_REACTORS
330
C
102
}
330
C
100
AcDbXrecord
280
     1
300
ACDLT
300
2015
300
ACDLT_F_S
  0
DICTIONARY
  5
6351
102
{ACAD_REACTORS
330
C
102
}
330
C
100
AcDbDictionary
281
     1
  0
DICTIONARY
  5
63E6
102
{ACAD_REACTORS
330
C
102
}
330
C
100
AcDbDictionary
281
     1
  3
Imperial24
350
63E7
  0
DICTIONARY
  5
D
102
{ACAD_REACTORS
330
C
102
}
330
C
100
AcDbDictionary
281
     1
  0
DICTIONARY
  5
19
102
{ACAD_REACTORS
330
C
102
}
330
C
100
AcDbDictionary
281
     1
  3
Model
350
6318
  3
ﾚｲｱｳﾄ1
350
6319
  0
DICTIONARY
  5
6324
102
{ACAD_REACTORS
330
C
102
}
330
C
100
AcDbDictionary
281
     1
  3
ByBlock
350
632D
  3
ByLayer
350
6325
  3
Global
350
6335
  0
DICTIONARY
  5
6376
102
{ACAD_REACTORS
330
C
102
}
330
C
100
AcDbDictionary
281
     1
  3
Standard
350
6377
  0
DICTIONARY
  5
16
102
{ACAD_REACTORS
330
C
102
}
330
C
100
AcDbDictionary
281
     1
  3
STANDARD
350
17
  0
DICTIONARY
  5
18
102
{ACAD_REACTORS
330
C
102
}
330
C
100
AcDbDictionary
281
     1
  0
ACDBDICTIONARYWDFLT
  5
E
102
{ACAD_REACTORS
330
C
102
}
330
C
100
AcDbDictionary
281
     1
  3
Normal
350
F
100
AcDbDictionaryWithDefault
340
F
  0
DICTIONARY
  5
6354
102
{ACAD_REACTORS
330
C
102
}
330
C
100
AcDbDictionary
281
     1
  3
A0
350
6355
  3
A1
350
6356
  3
A2
350
6357
  3
A3
350
6358
  3
A4
350
6359
  3
A5
350
635A
  3
A6
350
635B
  3
A7
350
635C
  3
A8
350
635D
  3
A9
350
635E
  3
B0
350
635F
  3
B1
350
6360
  3
B2
350
6361
  3
B3
350
6362
  3
B4
350
6363
  3
B5
350
6364
  3
B6
350
6365
  3
B7
350
6366
  3
B8
350
6367
  3
B9
350
6368
  3
C0
350
6369
  3
C1
350
636A
  3
C2
350
636B
  3
C3
350
636C
  3
C4
350
636D
  3
C5
350
636E
  3
C6
350
636F
  3
C7
350
6370
  3
C8
350
6371
  3
C9
350
6372
  3
D0
350
6373
  3
D1
350
6374
  3
D2
350
6375
  0
DICTIONARY
  5
63E4
102
{ACAD_REACTORS
330
C
102
}
330
C
100
AcDbDictionary
281
     1
  3
Imperial24
350
63E5
  0
DICTIONARY
  5
6352
102
{ACAD_REACTORS
330
C
102
}
330
C
100
AcDbDictionary
281
     1
  3
Standard
350
6353
  0
DICTIONARY
  5
633D
102
{ACAD_REACTORS
330
C
102
}
330
C
100
AcDbDictionary
281
     1
  3
2dWireframe
350
6343
  3
3D Hidden
350
6345
  3
3dWireframe
350
6344
  3
Basic
350
6342
  3
Brighten
350
6349
  3
ColorChange
350
634D
  3
Conceptual
350
6346
  3
Dim
350
6348
  3
EdgeColorOff
350
6350
  3
Facepattern
350
634C
  3
Flat
350
633E
  3
FlatWithEdges
350
633F
  3
Gouraud
350
6340
  3
GouraudWithEdges
350
6341
  3
Hidden
350
63DE
  3
JitterOff
350
634E
  3
Linepattern
350
634B
  3
OverhangOff
350
634F
  3
Realistic
350
6347
  3
Shaded
350
63E3
  3
Shaded with edges
350
63E2
  3
Shades of Gray
350
63DF
  3
Sketchy
350
63E0
  3
Thicken
350
634A
  3
Wireframe
350
63DD
  3
X-Ray
350
63E1
  0
XRECORD
  5
69EF
102
{ACAD_REACTORS
330
C
102
}
330
C
100
AcDbXrecord
280
     1
 90
        1
330
6353
  0
DICTIONARY
  5
5D91
102
{ACAD_REACTORS
330
C
102
}
330
C
100
AcDbDictionary
281
     1
  3
CANNOSCALE
350
639C
  3
CMLEADERSTYLE
350
639B
  3
CTABLESTYLE
350
639A
  3
CVIEWDETAILSTYLE
350
63F1
  3
CVIEWSECTIONSTYLE
350
63F2
  3
DIMASSOC
350
5D92
  3
INDEXCTL
350
639E
  3
LAYEREVAL
350
63F5
  3
LAYERNOTIFY
350
63F6
  3
LIGHTINGUNITS
350
63F4
  3
LOFTANG1
350
69EB
  3
LOFTANG2
350
69EC
  3
MSLTSCALE
350
63F3
  3
SORTENTS
350
639D
  3
XCLIPFRAME
350
69ED
  0
DICTIONARY
  5
6554
102
{ACAD_REACTORS
330
C
102
}
330
C
100
AcDbDictionary
281
     1
  0
DICTIONARY
  5
6397
102
{ACAD_REACTORS
330
C
102
}
330
C
100
AcDbDictionary
281
     1
  3
ASEBlockHierarchyIndexRecord
350
6399
1001
DCO15
1040
1846671353.683
  0
XRECORD
  5
69F0
102
{ACAD_REACTORS
330
C
102
}
330
C
100
AcDbXrecord
280
     1
  1
DWGPROPS COOKIE
  2

  3

  4

  6

  7

  8
ktomoto
  9

300
=
301
=
302
=
303
=
304
=
305
=
306
=
307
=
308
=
309
=
 40
1.259392129629629
 41
2452286.555658658
 42
2457450.481077384
  1

 90
        0
  0
XRECORD
  5
6383
102
{ACAD_REACTORS
330
6382
102
}
330
6382
100
AcDbXrecord
280
     1
290
     1
  0
XRECORD
  5
6385
102
{ACAD_REACTORS
330
6384
102
}
330
6384
100
AcDbXrecord
280
     1
290
     1
  0
XRECORD
  5
6387
102
{ACAD_REACTORS
330
6386
102
}
330
6386
100
AcDbXrecord
280
     1
290
     1
  0
XRECORD
  5
6389
102
{ACAD_REACTORS
330
6388
102
}
330
6388
100
AcDbXrecord
280
     1
290
     1
  0
XRECORD
  5
638B
102
{ACAD_REACTORS
330
638A
102
}
330
638A
100
AcDbXrecord
280
     1
290
     1
  0
XRECORD
  5
638D
102
{ACAD_REACTORS
330
638C
102
}
330
638C
100
AcDbXrecord
280
     1
290
     1
  0
XRECORD
  5
638F
102
{ACAD_REACTORS
330
638E
102
}
330
638E
100
AcDbXrecord
280
     1
290
     1
  0
XRECORD
  5
6391
102
{ACAD_REACTORS
330
6390
102
}
330
6390
100
AcDbXrecord
280
     1
290
     1
  0
XRECORD
  5
6393
102
{ACAD_REACTORS
330
6392
102
}
330
6392
100
AcDbXrecord
280
     1
290
     1
  0
XRECORD
  5
6395
102
{ACAD_REACTORS
330
6394
102
}
330
6394
100
AcDbXrecord
280
     1
290
     1
  0
XRECORD
  5
6307
102
{ACAD_REACTORS
330
178
102
}
330
178
100
AcDbXrecord
280
     1
340
1E
  0
XRECORD
  5
6306
102
{ACAD_REACTORS
330
17A
102
}
330
17A
100
AcDbXrecord
280
     1
340
1A
  0
XRECORD
  5
69F3
102
{ACAD_REACTORS
330
63A6
102
}
330
63A6
100
AcDbXrecord
280
     1
 40
4437.0
  1
\A1;\U+22056
  0
XRECORD
  5
69F2
102
{ACAD_REACTORS
330
69F1
102
}
330
69F1
100
AcDbXrecord
280
     1
102
SHADEPLOT
 70
     0
  0
ACDBDETAILVIEWSTYLE
  5
63E7
102
{ACAD_XDICTIONARY
360
6A2F
102
}
102
{ACAD_REACTORS
330
63E6
102
}
330
63E6
100
AcDbModelDocViewStyle
 70
     0
  3
Imperial24
290
     0
100
AcDbDetailViewStyle
 70
     0
 71
     0
 90
        3
 71
     1
340
11
 40
0.24
340
0
 40
0.24
300

 40
0.36
280
     3
 71
     2
340
15
 90
       25
 71
     3
340
11
 40
0.24
 90
        1
 40
0.75
 90
        1
300
%<\AcVar ViewType \f "%tc1">% %<\AcVar ViewDetailId>%\PSCALE %<\AcVar ViewScale \f "%sn">%
 71
     4
340
15
 90
       25
340
15
 90
       25
280
     0
  0
LAYOUT
  5
6318
102
{ACAD_XDICTIONARY
360
69F4
102
}
102
{ACAD_REACTORS
330
19
102
}
330
19
100
AcDbPlotSettings
  1

  2
Canon LBP3800 LIPSLX
  4

  6

 40
0.0
 41
0.0
 42
0.0
 43
0.0
 44
0.0
 45
0.0
 46
0.0
 47
0.0
 48
0.0
 49
0.0
140
0.0
141
0.0
142
1.0
143
1.0
 70
  1712
 72
     0
 73
     0
 74
     0
  7
monochrome.ctb
 75
     0
147
1.0
148
0.0
149
0.0
100
AcDbLayout
  1
Model
 70
     1
 71
     0
 10
0.0
 20
0.0
 11
12.0
 21
9.0
 12
0.0
 22
0.0
 32
0.0
 14
0.0
 24
0.0
 34
0.0
 15
0.0
 25
0.0
 35
0.0
146
0.0
 13
0.0
 23
0.0
 33
0.0
 16
1.0
 26
0.0
 36
0.0
 17
0.0
 27
1.0
 37
0.0
 76
     0
330
1E
331
631D
  0
LAYOUT
  5
6319
102
{ACAD_XDICTIONARY
360
69F6
102
}
102
{ACAD_REACTORS
330
19
102
}
330
19
100
AcDbPlotSettings
  1

  2
Canon LBP3800 LIPSLX
  4

  6

 40
0.0
 41
0.0
 42
0.0
 43
0.0
 44
0.0
 45
0.0
 46
0.0
 47
0.0
 48
0.0
 49
0.0
140
0.0
141
0.0
142
1.0
143
1.0
 70
   688
 72
     0
 73
     0
 74
     5
  7
monochrome.ctb
 75
    16
147
1.0
148
0.0
149
0.0
100
AcDbLayout
  1
ﾚｲｱｳﾄ1
 70
     1
 71
     1
 10
-5.873749
 20
-5.87375
 11
204.099579
 21
291.1369009999999
 12
0.0
 22
0.0
 32
0.0
 14
4.273573
 24
5.205245999999998
 34
0.0
 15
194.610095
 25
283.0697009999996
 35
0.0
146
0.0
 13
0.0
 23
0.0
 33
0.0
 16
1.0
 26
0.0
 36
0.0
 17
0.0
 27
1.0
 37
0.0
 76
     0
330
1A
  0
MATERIAL
  5
632D
102
{ACAD_XDICTIONARY
360
632E
102
}
102
{ACAD_REACTORS
330
6324
102
}
330
6324
100
AcDbMaterial
  1
ByBlock
 72
     0
 43
0.0208333333333333
 43
0.0
 43
0.0
 43
0.0
 43
0.0
 43
0.0208333333333333
 43
0.0
 43
0.0
 43
0.0
 43
0.0
 43
1.0
 43
0.0
 43
0.0
 43
0.0
 43
0.0
 43
1.0
 77
     0
 47
0.0208333333333333
 47
0.0
 47
0.0
 47
0.0
 47
0.0
 47
0.0208333333333333
 47
0.0
 47
0.0
 47
0.0
 47
0.0
 47
1.0
 47
0.0
 47
0.0
 47
0.0
 47
0.0
 47
1.0
171
     0
 49
0.0208333333333333
 49
0.0
 49
0.0
 49
0.0
 49
0.0
 49
0.0208333333333333
 49
0.0
 49
0.0
 49
0.0
 49
0.0
 49
1.0
 49
0.0
 49
0.0
 49
0.0
 49
0.0
 49
1.0
175
     0
142
0.0208333333333333
142
0.0
142
0.0
142
0.0
142
0.0
142
0.0208333333333333
142
0.0
142
0.0
142
0.0
142
0.0
142
1.0
142
0.0
142
0.0
142
0.0
142
0.0
142
1.0
179
     0
144
0.0208333333333333
144
0.0
144
0.0
144
0.0
144
0.0
144
0.0208333333333333
144
0.0
144
0.0
144
0.0
144
0.0
144
1.0
144
0.0
144
0.0
144
0.0
144
0.0
144
1.0
147
0.0208333333333333
147
0.0
147
0.0
147
0.0
147
0.0
147
0.0208333333333333
147
0.0
147
0.0
147
0.0
147
0.0
147
1.0
147
0.0
147
0.0
147
0.0
147
0.0
147
1.0
  0
MATERIAL
  5
6325
102
{ACAD_XDICTIONARY
360
6326
102
}
102
{ACAD_REACTORS
330
6324
102
}
330
6324
100
AcDbMaterial
  1
ByLayer
 72
     0
 43
0.0208333333333333
 43
0.0
 43
0.0
 43
0.0
 43
0.0
 43
0.0208333333333333
 43
0.0
 43
0.0
 43
0.0
 43
0.0
 43
1.0
 43
0.0
 43
0.0
 43
0.0
 43
0.0
 43
1.0
 77
     0
 47
0.0208333333333333
 47
0.0
 47
0.0
 47
0.0
 47
0.0
 47
0.0208333333333333
 47
0.0
 47
0.0
 47
0.0
 47
0.0
 47
1.0
 47
0.0
 47
0.0
 47
0.0
 47
0.0
 47
1.0
171
     0
 49
0.0208333333333333
 49
0.0
 49
0.0
 49
0.0
 49
0.0
 49
0.0208333333333333
 49
0.0
 49
0.0
 49
0.0
 49
0.0
 49
1.0
 49
0.0
 49
0.0
 49
0.0
 49
0.0
 49
1.0
175
     0
142
0.0208333333333333
142
0.0
142
0.0
142
0.0
142
0.0
142
0.0208333333333333
142
0.0
142
0.0
142
0.0
142
0.0
142
1.0
142
0.0
142
0.0
142
0.0
142
0.0
142
1.0
179
     0
144
0.0208333333333333
144
0.0
144
0.0
144
0.0
144
0.0
144
0.0208333333333333
144
0.0
144
0.0
144
0.0
144
0.0
144
1.0
144
0.0
144
0.0
144
0.0
144
0.0
144
1.0
147
0.0208333333333333
147
0.0
147
0.0
147
0.0
147
0.0
147
0.0208333333333333
147
0.0
147
0.0
147
0.0
147
0.0
147
1.0
147
0.0
147
0.0
147
0.0
147
0.0
147
1.0
  0
MATERIAL
  5
6335
102
{ACAD_XDICTIONARY
360
6336
102
}
102
{ACAD_REACTORS
330
6324
102
}
330
6324
100
AcDbMaterial
  1
Global
 72
     0
 43
0.0208333333333333
 43
0.0
 43
0.0
 43
0.0
 43
0.0
 43
0.0208333333333333
 43
0.0
 43
0.0
 43
0.0
 43
0.0
 43
1.0
 43
0.0
 43
0.0
 43
0.0
 43
0.0
 43
1.0
 77
     0
 47
0.0208333333333333
 47
0.0
 47
0.0
 47
0.0
 47
0.0
 47
0.0208333333333333
 47
0.0
 47
0.0
 47
0.0
 47
0.0
 47
1.0
 47
0.0
 47
0.0
 47
0.0
 47
0.0
 47
1.0
171
     0
 49
0.0208333333333333
 49
0.0
 49
0.0
 49
0.0
 49
0.0
 49
0.0208333333333333
 49
0.0
 49
0.0
 49
0.0
 49
0.0
 49
1.0
 49
0.0
 49
0.0
 49
0.0
 49
0.0
 49
1.0
175
     0
142
0.0208333333333333
142
0.0
142
0.0
142
0.0
142
0.0
142
0.0208333333333333
142
0.0
142
0.0
142
0.0
142
0.0
142
1.0
142
0.0
142
0.0
142
0.0
142
0.0
142
1.0
179
     0
144
0.0208333333333333
144
0.0
144
0.0
144
0.0
144
0.0
144
0.0208333333333333
144
0.0
144
0.0
144
0.0
144
0.0
144
1.0
144
0.0
144
0.0
144
0.0
144
0.0
144
1.0
147
0.0208333333333333
147
0.0
147
0.0
147
0.0
147
0.0
147
0.0208333333333333
147
0.0
147
0.0
147
0.0
147
0.0
147
1.0
147
0.0
147
0.0
147
0.0
147
0.0
147
1.0
  0
MLEADERSTYLE
  5
6377
102
{ACAD_REACTORS
330
6376
102
}
330
6376
100
AcDbMLeaderStyle
170
     2
171
     1
172
     0
 90
        2
 40
0.0
 41
0.0
173
     1
 91
-1056964608
340
13
 92
       -2
290
     1
 42
0.09
291
     1
 43
0.36
  3
Standard
 44
0.18
300

342
11
174
     1
178
     6
175
     1
176
     0
 93
-1056964608
 45
0.18
292
     0
297
     0
 46
0.18
 94
-1056964608
 47
1.0
 49
1.0
140
1.0
293
     1
141
0.0
294
     1
177
     0
142
1.0
295
     0
296
     0
143
0.125
1001
ACAD_MLEADERVER
1070
     2
  0
MLINESTYLE
  5
17
102
{ACAD_REACTORS
330
16
102
}
330
16
100
AcDbMlineStyle
  2
STANDARD
 70
     0
  3

 62
   256
 51
90.0
 52
90.0
 71
     2
 49
0.5
 62
   256
  6
BYLAYER
 49
-0.5
 62
   256
  6
BYLAYER
  0
ACDBPLACEHOLDER
  5
F
102
{ACAD_REACTORS
330
E
102
}
330
E
  0
SCALE
  5
6355
102
{ACAD_REACTORS
330
6354
102
}
330
6354
100
AcDbScale
 70
     0
300
1:1
140
1.0
141
1.0
290
     1
  0
SCALE
  5
6356
102
{ACAD_REACTORS
330
6354
102
}
330
6354
100
AcDbScale
 70
     0
300
1:2
140
1.0
141
2.0
290
     0
  0
SCALE
  5
6357
102
{ACAD_REACTORS
330
6354
102
}
330
6354
100
AcDbScale
 70
     0
300
1:4
140
1.0
141
4.0
290
     0
  0
SCALE
  5
6358
102
{ACAD_REACTORS
330
6354
102
}
330
6354
100
AcDbScale
 70
     0
300
1:5
140
1.0
141
5.0
290
     0
  0
SCALE
  5
6359
102
{ACAD_REACTORS
330
6354
102
}
330
6354
100
AcDbScale
 70
     0
300
1:8
140
1.0
141
8.0
290
     0
  0
SCALE
  5
635A
102
{ACAD_REACTORS
330
6354
102
}
330
6354
100
AcDbScale
 70
     0
300
1:10
140
1.0
141
10.0
290
     0
  0
SCALE
  5
635B
102
{ACAD_REACTORS
330
6354
102
}
330
6354
100
AcDbScale
 70
     0
300
1:16
140
1.0
141
16.0
290
     0
  0
SCALE
  5
635C
102
{ACAD_REACTORS
330
6354
102
}
330
6354
100
AcDbScale
 70
     0
300
1:20
140
1.0
141
20.0
290
     0
  0
SCALE
  5
635D
102
{ACAD_REACTORS
330
6354
102
}
330
6354
100
AcDbScale
 70
     0
300
1:30
140
1.0
141
30.0
290
     0
  0
SCALE
  5
635E
102
{ACAD_REACTORS
330
6354
102
}
330
6354
100
AcDbScale
 70
     0
300
1:40
140
1.0
141
40.0
290
     0
  0
SCALE
  5
635F
102
{ACAD_REACTORS
330
6354
102
}
330
6354
100
AcDbScale
 70
     0
300
1:50
140
1.0
141
50.0
290
     0
  0
SCALE
  5
6360
102
{ACAD_REACTORS
330
6354
102
}
330
6354
100
AcDbScale
 70
     0
300
1:100
140
1.0
141
100.0
290
     0
  0
SCALE
  5
6361
102
{ACAD_REACTORS
330
6354
102
}
330
6354
100
AcDbScale
 70
     0
300
2:1
140
2.0
141
1.0
290
     0
  0
SCALE
  5
6362
102
{ACAD_REACTORS
330
6354
102
}
330
6354
100
AcDbScale
 70
     0
300
4:1
140
4.0
141
1.0
290
     0
  0
SCALE
  5
6363
102
{ACAD_REACTORS
330
6354
102
}
330
6354
100
AcDbScale
 70
     0
300
8:1
140
8.0
141
1.0
290
     0
  0
SCALE
  5
6364
102
{ACAD_REACTORS
330
6354
102
}
330
6354
100
AcDbScale
 70
     0
300
10:1
140
10.0
141
1.0
290
     0
  0
SCALE
  5
6365
102
{ACAD_REACTORS
330
6354
102
}
330
6354
100
AcDbScale
 70
     0
300
100:1
140
100.0
141
1.0
290
     0
  0
SCALE
  5
6366
102
{ACAD_REACTORS
330
6354
102
}
330
6354
100
AcDbScale
 70
     0
300
1/128" = 1'-0"
140
0.0078125
141
12.0
290
     0
  0
SCALE
  5
6367
102
{ACAD_REACTORS
330
6354
102
}
330
6354
100
AcDbScale
 70
     0
300
1/64" = 1'-0"
140
0.015625
141
12.0
290
     0
  0
SCALE
  5
6368
102
{ACAD_REACTORS
330
6354
102
}
330
6354
100
AcDbScale
 70
     0
300
1/32" = 1'-0"
140
0.03125
141
12.0
290
     0
  0
SCALE
  5
6369
102
{ACAD_REACTORS
330
6354
102
}
330
6354
100
AcDbScale
 70
     0
300
1/16" = 1'-0"
140
0.0625
141
12.0
290
     0
  0
SCALE
  5
636A
102
{ACAD_REACTORS
330
6354
102
}
330
6354
100
AcDbScale
 70
     0
300
3/32" = 1'-0"
140
0.09375
141
12.0
290
     0
  0
SCALE
  5
636B
102
{ACAD_REACTORS
330
6354
102
}
330
6354
100
AcDbScale
 70
     0
300
1/8" = 1'-0"
140
0.125
141
12.0
290
     0
  0
SCALE
  5
636C
102
{ACAD_REACTORS
330
6354
102
}
330
6354
100
AcDbScale
 70
     0
300
3/16" = 1'-0"
140
0.1875
141
12.0
290
     0
  0
SCALE
  5
636D
102
{ACAD_REACTORS
330
6354
102
}
330
6354
100
AcDbScale
 70
     0
300
1/4" = 1'-0"
140
0.25
141
12.0
290
     0
  0
SCALE
  5
636E
102
{ACAD_REACTORS
330
6354
102
}
330
6354
100
AcDbScale
 70
     0
300
3/8" = 1'-0"
140
0.375
141
12.0
290
     0
  0
SCALE
  5
636F
102
{ACAD_REACTORS
330
6354
102
}
330
6354
100
AcDbScale
 70
     0
300
1/2" = 1'-0"
140
0.5
141
12.0
290
     0
  0
SCALE
  5
6370
102
{ACAD_REACTORS
330
6354
102
}
330
6354
100
AcDbScale
 70
     0
300
3/4" = 1'-0"
140
0.75
141
12.0
290
     0
  0
SCALE
  5
6371
102
{ACAD_REACTORS
330
6354
102
}
330
6354
100
AcDbScale
 70
     0
300
1" = 1'-0"
140
1.0
141
12.0
290
     0
  0
SCALE
  5
6372
102
{ACAD_REACTORS
330
6354
102
}
330
6354
100
AcDbScale
 70
     0
300
1-1/2" = 1'-0"
140
1.5
141
12.0
290
     0
  0
SCALE
  5
6373
102
{ACAD_REACTORS
330
6354
102
}
330
6354
100
AcDbScale
 70
     0
300
3" = 1'-0"
140
3.0
141
12.0
290
     0
  0
SCALE
  5
6374
102
{ACAD_REACTORS
330
6354
102
}
330
6354
100
AcDbScale
 70
     0
300
6" = 1'-0"
140
6.0
141
12.0
290
     0
  0
SCALE
  5
6375
102
{ACAD_REACTORS
330
6354
102
}
330
6354
100
AcDbScale
 70
     0
300
1'-0" = 1'-0"
140
12.0
141
12.0
290
     0
  0
ACDBSECTIONVIEWSTYLE
  5
63E5
102
{ACAD_XDICTIONARY
360
6A2D
102
}
102
{ACAD_REACTORS
330
63E4
102
}
330
63E4
100
AcDbModelDocViewStyle
 70
     0
  3
Imperial24
290
     0
100
AcDbSectionViewStyle
 70
     0
 71
     0
 90
       78
 71
     1
340
11
 40
0.24
340
0
340
0
 40
0.24
300
I, O, Q, S, X, Z
 40
0.48
 90
        3
 40
0.18
 90
        1
 71
     2
340
15
 90
       25
340
15
 90
       50
 40
0.24
 40
0.0
 40
0.24
 71
     3
340
11
 40
0.24
 90
        1
 40
0.75
 90
        1
300
%<\AcVar ViewType \f "%tc1">% %<\AcVar ViewSectionStartId>%-%<\AcVar ViewSectionEndId>%\PSCALE %<\AcVar ViewScale \f "%sn">%
 71
     4
300
ANSI31
 40
1.0
 90
        0
290
     0
290
     0
 90
        6
 40
0.0
 40
1.570796326794896
 40
0.2617993877991494
 40
1.308996938995747
 40
-0.2617993877991494
 40
1.832595714594044
  0
TABLESTYLE
  5
6353
102
{ACAD_XDICTIONARY
360
63A0
102
}
102
{ACAD_REACTORS
330
6352
102
}
330
6352
100
AcDbTableStyle
  3
Standard
 70
     0
 71
     0
 40
0.06
 41
0.06
280
     0
281
     0
  7
STANDARD
140
0.18
170
     2
 62
     0
 63
     7
283
     0
274
    -2
284
     1
 64
     0
275
    -2
285
     1
 65
     0
276
    -2
286
     1
 66
     0
277
    -2
287
     1
 67
     0
278
    -2
288
     1
 68
     0
279
    -2
289
     1
 69
     0
  7
STANDARD
140
0.25
170
     5
 62
     0
 63
     7
283
     0
274
    -2
284
     1
 64
     0
275
    -2
285
     1
 65
     0
276
    -2
286
     1
 66
     0
277
    -2
287
     1
 67
     0
278
    -2
288
     1
 68
     0
279
    -2
289
     1
 69
     0
  7
STANDARD
140
0.18
170
     5
 62
     0
 63
     7
283
     0
274
    -2
284
     1
 64
     0
275
    -2
285
     1
 65
     0
276
    -2
286
     1
 66
     0
277
    -2
287
     1
 67
     0
278
    -2
288
     1
 68
     0
279
    -2
289
     1
 69
     0
  0
VISUALSTYLE
  5
6343
102
{ACAD_XDICTIONARY
360
6A02
102
}
102
{ACAD_REACTORS
330
633D
102
}
330
633D
100
AcDbVisualStyle
  2

 70
     4
 71
     0
 72
     2
 73
     0
 90
        0
 40
-0.6
 41
-30.0
 62
     5
 63
     7
 74
     1
 91
        4
 64
     7
 65
   257
 75
     1
175
     1
 42
1.0
 92
        0
 66
   257
 43
1.0
 76
     1
 77
     6
 78
     2
 67
     7
 79
     5
170
     0
171
     0
290
     0
174
     0
 93
        1
 44
0.0
173
     0
291
     0
 45
0.0
1001
ACAD
1000
AcDbSavedByObjectVersion
1070
     0
  0
VISUALSTYLE
  5
6345
102
{ACAD_XDICTIONARY
360
6A06
102
}
102
{ACAD_REACTORS
330
633D
102
}
330
633D
100
AcDbVisualStyle
  2

 70
     6
 71
     1
 72
     2
 73
     2
 90
        0
 40
-0.6
 41
-30.0
 62
     5
 63
     7
 74
     2
 91
        2
 64
     7
 65
   257
 75
     2
175
     1
 42
179.0
 92
        0
 66
   257
 43
1.0
 76
     1
 77
     6
 78
     2
 67
     7
 79
     3
170
     0
171
     0
290
     0
174
     0
 93
        1
 44
0.0
173
     0
291
     0
 45
0.0
1001
ACAD
1000
AcDbSavedByObjectVersion
1070
     0
  0
VISUALSTYLE
  5
6344
102
{ACAD_XDICTIONARY
360
6A04
102
}
102
{ACAD_REACTORS
330
633D
102
}
330
633D
100
AcDbVisualStyle
  2

 70
     5
 71
     0
 72
     2
 73
     0
 90
        0
 40
-0.6
 41
-30.0
 62
     5
 63
     7
 74
     1
 91
        4
 64
     7
 65
   257
 75
     1
175
     1
 42
1.0
 92
        0
 66
   257
 43
1.0
 76
     1
 77
     6
 78
     2
 67
     7
 79
     5
170
     0
171
     0
290
     0
174
     0
 93
        1
 44
0.0
173
     0
291
     0
 45
0.0
1001
ACAD
1000
AcDbSavedByObjectVersion
1070
     0
  0
VISUALSTYLE
  5
6342
102
{ACAD_XDICTIONARY
360
6A00
102
}
102
{ACAD_REACTORS
330
633D
102
}
330
633D
100
AcDbVisualStyle
  2

 70
     7
 71
     1
 72
     0
 73
     1
 90
        0
 40
-0.6
 41
-30.0
 62
     5
 63
     7
 74
     0
 91
        4
 64
     7
 65
   257
 75
     1
175
     1
 42
1.0
 92
        8
 66
     7
 43
1.0
 76
     1
 77
     6
 78
     2
 67
     7
 79
     5
170
     0
171
     0
290
     0
174
     0
 93
        1
 44
0.0
173
     0
291
     1
 45
0.0
1001
ACAD
1000
AcDbSavedByObjectVersion
1070
     0
  0
VISUALSTYLE
  5
6349
102
{ACAD_XDICTIONARY
360
6A0E
102
}
102
{ACAD_REACTORS
330
633D
102
}
330
633D
100
AcDbVisualStyle
  2

 70
    12
 71
     2
 72
     2
 73
     0
 90
        0
 40
-0.6
 41
-30.0
 62
     5
 63
     7
 74
     1
 91
        4
 64
     7
 65
   257
 75
     1
175
     1
 42
1.0
 92
        8
 66
     7
 43
1.0
 76
     1
 77
     6
 78
     2
 67
     7
 79
     5
170
     0
171
     0
290
     0
174
     0
 93
        1
 44
50.0
173
     0
291
     1
 45
0.0
1001
ACAD
1000
AcDbSavedByObjectVersion
1070
     0
  0
VISUALSTYLE
  5
634D
102
{ACAD_XDICTIONARY
360
6A16
102
}
102
{ACAD_REACTORS
330
633D
102
}
330
633D
100
AcDbVisualStyle
  2

 70
    16
 71
     2
 72
     2
 73
     3
 90
        0
 40
-0.6
 41
-30.0
 62
     5
 63
     8
 74
     1
 91
        4
 64
     7
 65
   257
 75
     1
175
     1
 42
1.0
 92
        8
 66
     8
 43
1.0
 76
     1
 77
     6
 78
     2
 67
     7
 79
     5
170
     0
171
     0
290
     0
174
     0
 93
        1
 44
0.0
173
     0
291
     1
 45
0.0
1001
ACAD
1000
AcDbSavedByObjectVersion
1070
     0
  0
VISUALSTYLE
  5
6346
102
{ACAD_XDICTIONARY
360
6A08
102
}
102
{ACAD_REACTORS
330
633D
102
}
330
633D
100
AcDbVisualStyle
  2

 70
     9
 71
     3
 72
     2
 73
     0
 90
        0
 40
-0.6
 41
-30.0
 62
     5
 63
     7
 74
     2
 91
        2
 64
     7
 65
   257
 75
     1
175
     1
 42
179.0
 92
        8
 66
     7
 43
1.0
 76
     1
 77
     6
 78
     2
 67
     7
 79
     3
170
     0
171
     0
290
     0
174
     0
 93
        1
 44
0.0
173
     0
291
     0
 45
0.0
1001
ACAD
1000
AcDbSavedByObjectVersion
1070
     0
  0
VISUALSTYLE
  5
6348
102
{ACAD_XDICTIONARY
360
6A0C
102
}
102
{ACAD_REACTORS
330
633D
102
}
330
633D
100
AcDbVisualStyle
  2

 70
    11
 71
     2
 72
     2
 73
     0
 90
        0
 40
-0.6
 41
-30.0
 62
     5
 63
     7
 74
     1
 91
        4
 64
     7
 65
   257
 75
     1
175
     1
 42
1.0
 92
        8
 66
     7
 43
1.0
 76
     1
 77
     6
 78
     2
 67
     7
 79
     5
170
     0
171
     0
290
     0
174
     0
 93
        1
 44
-50.0
173
     0
291
     1
 45
0.0
1001
ACAD
1000
AcDbSavedByObjectVersion
1070
     0
  0
VISUALSTYLE
  5
6350
102
{ACAD_XDICTIONARY
360
6A1C
102
}
102
{ACAD_REACTORS
330
633D
102
}
330
633D
100
AcDbVisualStyle
  2

 70
    22
 71
     2
 72
     2
 73
     0
 90
        0
 40
-0.6
 41
-30.0
 62
     5
 63
     7
 74
     1
 91
        4
 64
     7
 65
   257
 75
     1
175
     1
 42
1.0
 92
        8
 66
     7
 43
1.0
 76
     1
 77
     6
 78
     2
 67
     7
 79
     5
170
     0
171
     0
290
     0
174
     0
 93
        1
 44
0.0
173
     0
291
     1
 45
0.0
1001
ACAD
1000
AcDbSavedByObjectVersion
1070
     0
  0
VISUALSTYLE
  5
634C
102
{ACAD_XDICTIONARY
360
6A14
102
}
102
{ACAD_REACTORS
330
633D
102
}
330
633D
100
AcDbVisualStyle
  2

 70
    15
 71
     2
 72
     2
 73
     0
 90
        0
 40
-0.6
 41
-30.0
 62
     5
 63
     7
 74
     1
 91
        4
 64
     7
 65
   257
 75
     1
175
     1
 42
1.0
 92
        8
 66
     7
 43
1.0
 76
     1
 77
     6
 78
     2
 67
     7
 79
     5
170
     0
171
     0
290
     0
174
     0
 93
        1
 44
0.0
173
     0
291
     1
 45
0.0
1001
ACAD
1000
AcDbSavedByObjectVersion
1070
     0
  0
VISUALSTYLE
  5
633E
102
{ACAD_XDICTIONARY
360
69F8
102
}
102
{ACAD_REACTORS
330
633D
102
}
330
633D
100
AcDbVisualStyle
  2

 70
     0
 71
     2
 72
     1
 73
     1
 90
        2
 40
-0.6
 41
30.0
 62
     5
 63
     7
 74
     0
 91
        4
 64
     7
 65
   257
 75
     1
175
     1
 42
1.0
 92
        8
 66
     7
 43
1.0
 76
     1
 77
     6
 78
     2
 67
     7
 79
     5
170
     0
171
     0
290
     0
174
     0
 93
       13
 44
0.0
173
     0
291
     1
 45
0.0
1001
ACAD
1000
AcDbSavedByObjectVersion
1070
     0
  0
VISUALSTYLE
  5
633F
102
{ACAD_XDICTIONARY
360
69FA
102
}
102
{ACAD_REACTORS
330
633D
102
}
330
633D
100
AcDbVisualStyle
  2

 70
     1
 71
     2
 72
     1
 73
     1
 90
        2
 40
-0.6
 41
30.0
 62
     5
 63
     7
 74
     1
 91
        4
 64
     7
 65
   257
 75
     1
175
     1
 42
1.0
 92
        0
 66
   257
 43
1.0
 76
     1
 77
     6
 78
     2
 67
     7
 79
     5
170
     0
171
     0
290
     0
174
     0
 93
       13
 44
0.0
173
     0
291
     1
 45
0.0
1001
ACAD
1000
AcDbSavedByObjectVersion
1070
     0
  0
VISUALSTYLE
  5
6340
102
{ACAD_XDICTIONARY
360
69FC
102
}
102
{ACAD_REACTORS
330
633D
102
}
330
633D
100
AcDbVisualStyle
  2

 70
     2
 71
     2
 72
     2
 73
     1
 90
        2
 40
-0.6
 41
30.0
 62
     5
 63
     7
 74
     0
 91
        4
 64
     7
 65
   257
 75
     1
175
     1
 42
1.0
 92
        0
 66
     7
 43
1.0
 76
     1
 77
     6
 78
     2
 67
     7
 79
     5
170
     0
171
     0
290
     0
174
     0
 93
       13
 44
0.0
173
     0
291
     1
 45
0.0
1001
ACAD
1000
AcDbSavedByObjectVersion
1070
     0
  0
VISUALSTYLE
  5
6341
102
{ACAD_XDICTIONARY
360
69FE
102
}
102
{ACAD_REACTORS
330
633D
102
}
330
633D
100
AcDbVisualStyle
  2

 70
     3
 71
     2
 72
     2
 73
     1
 90
        2
 40
-0.6
 41
30.0
 62
     5
 63
     7
 74
     1
 91
        4
 64
     7
 65
   257
 75
     1
175
     1
 42
1.0
 92
        0
 66
   257
 43
1.0
 76
     1
 77
     6
 78
     2
 67
     7
 79
     5
170
     0
171
     0
290
     0
174
     0
 93
       13
 44
0.0
173
     0
291
     1
 45
0.0
1001
ACAD
1000
AcDbSavedByObjectVersion
1070
     0
  0
VISUALSTYLE
  5
63DE
102
{ACAD_XDICTIONARY
360
6A21
102
}
102
{ACAD_REACTORS
330
633D
102
}
330
633D
100
AcDbVisualStyle
  2

 70
     6
 71
     1
 72
     2
 73
     2
 90
        0
 40
-0.6
 41
-30.0
 62
     5
 63
     7
 74
     2
 91
        2
 64
     7
 65
   257
 75
     2
175
     1
 42
40.0
 92
        0
 66
   257
 43
1.0
 76
     1
 77
     6
 78
     2
 67
     7
 79
     3
170
     0
171
     0
290
     0
174
     0
 93
        1
 44
0.0
173
     0
291
     0
 45
0.0
1001
ACAD
1000
AcDbSavedByObjectVersion
1070
     0
  0
VISUALSTYLE
  5
634E
102
{ACAD_XDICTIONARY
360
6A18
102
}
102
{ACAD_REACTORS
330
633D
102
}
330
633D
100
AcDbVisualStyle
  2

 70
    20
 71
     2
 72
     2
 73
     0
 90
        0
 40
-0.6
 41
-30.0
 62
     5
 63
     7
 74
     1
 91
        4
 64
     7
 65
   257
 75
     1
175
     1
 42
1.0
 92
       10
 66
     7
 43
1.0
 76
     1
 77
     6
 78
     2
 67
     7
 79
     5
170
     0
171
     0
290
     0
174
     0
 93
        1
 44
0.0
173
     0
291
     1
 45
0.0
1001
ACAD
1000
AcDbSavedByObjectVersion
1070
     0
  0
VISUALSTYLE
  5
634B
102
{ACAD_XDICTIONARY
360
6A12
102
}
102
{ACAD_REACTORS
330
633D
102
}
330
633D
100
AcDbVisualStyle
  2

 70
    14
 71
     2
 72
     2
 73
     0
 90
        0
 40
-0.6
 41
-30.0
 62
     5
 63
     7
 74
     1
 91
        4
 64
     7
 65
   257
 75
     7
175
     7
 42
1.0
 92
        8
 66
     7
 43
1.0
 76
     1
 77
     6
 78
     2
 67
     7
 79
     5
170
     0
171
     0
290
     0
174
     0
 93
        1
 44
0.0
173
     0
291
     1
 45
0.0
1001
ACAD
1000
AcDbSavedByObjectVersion
1070
     0
  0
VISUALSTYLE
  5
634F
102
{ACAD_XDICTIONARY
360
6A1A
102
}
102
{ACAD_REACTORS
330
633D
102
}
330
633D
100
AcDbVisualStyle
  2

 70
    21
 71
     2
 72
     2
 73
     0
 90
        0
 40
-0.6
 41
-30.0
 62
     5
 63
     7
 74
     1
 91
        4
 64
     7
 65
   257
 75
     1
175
     1
 42
1.0
 92
        9
 66
     7
 43
1.0
 76
     1
 77
     6
 78
     2
 67
     7
 79
     5
170
     0
171
     0
290
     0
174
     0
 93
        1
 44
0.0
173
     0
291
     1
 45
0.0
1001
ACAD
1000
AcDbSavedByObjectVersion
1070
     0
  0
VISUALSTYLE
  5
6347
102
{ACAD_XDICTIONARY
360
6A0A
102
}
102
{ACAD_REACTORS
330
633D
102
}
330
633D
100
AcDbVisualStyle
  2

 70
     8
 71
     2
 72
     2
 73
     0
 90
        0
 40
-0.6
 41
-30.0
 62
     5
 63
     7
 74
     1
 91
        0
 64
     7
 65
   257
 75
     1
175
     1
 42
1.0
 92
        8
 66
     8
 43
1.0
 76
     1
 77
     6
 78
     2
 67
     7
 79
     5
170
     0
171
     0
290
     0
174
     0
 93
       13
 44
0.0
173
     0
291
     0
 45
0.0
1001
ACAD
1000
AcDbSavedByObjectVersion
1070
     0
  0
VISUALSTYLE
  5
63E3
102
{ACAD_XDICTIONARY
360
6A2B
102
}
102
{ACAD_REACTORS
330
633D
102
}
330
633D
100
AcDbVisualStyle
  2

 70
    27
 71
     2
 72
     2
 73
     1
 90
        2
 40
-0.6
 41
30.0
 62
     5
 63
     7
 74
     0
 91
        4
 64
     7
 65
   257
 75
     1
175
     1
 42
1.0
 92
        8
 66
   257
 43
1.0
 76
     1
 77
     6
 78
     2
 67
     8
 79
     3
170
     0
171
     0
290
     0
174
     0
 93
        5
 44
0.0
173
     0
291
     0
 45
0.0
1001
ACAD
1000
AcDbSavedByObjectVersion
1070
     0
  0
VISUALSTYLE
  5
63E2
102
{ACAD_XDICTIONARY
360
6A29
102
}
102
{ACAD_REACTORS
330
633D
102
}
330
633D
100
AcDbVisualStyle
  2

 70
    26
 71
     2
 72
     2
 73
     1
 90
        2
 40
-0.6
 41
30.0
 62
     5
 63
     7
 74
     1
 91
       10
 64
     7
 65
   257
 75
     2
175
     1
 42
1.0
 92
        8
 66
   257
 43
1.0
 76
     1
 77
     6
 78
     2
 67
     7
 79
     3
170
     0
171
     0
290
     0
174
     0
 93
        5
 44
0.0
173
     0
291
     0
 45
0.0
1001
ACAD
1000
AcDbSavedByObjectVersion
1070
     0
  0
VISUALSTYLE
  5
63DF
102
{ACAD_XDICTIONARY
360
6A23
102
}
102
{ACAD_REACTORS
330
633D
102
}
330
633D
100
AcDbVisualStyle
  2

 70
    23
 71
     2
 72
     2
 73
     3
 90
        0
 40
-0.6
 41
-30.0
 62
     5
 63
     7
 74
     2
 91
        2
 64
     7
 65
     7
 75
     1
175
     1
 42
40.0
 92
        8
 66
     7
 43
1.0
 76
     1
 77
     6
 78
     2
 67
     7
 79
     3
170
     0
171
     0
290
     0
174
     0
 93
        1
 44
0.0
173
     0
291
     0
 45
0.0
1001
ACAD
1000
AcDbSavedByObjectVersion
1070
     0
  0
VISUALSTYLE
  5
63E0
102
{ACAD_XDICTIONARY
360
6A25
102
}
102
{ACAD_REACTORS
330
633D
102
}
330
633D
100
AcDbVisualStyle
  2

 70
    24
 71
     1
 72
     2
 73
     2
 90
        0
 40
-0.6
 41
-30.0
 62
     5
 63
     7
 74
     2
 91
        2
 64
     7
 65
     7
 75
     1
175
     1
 42
40.0
 92
       11
 66
     7
 43
1.0
 76
     1
 77
     6
 78
     2
 67
     7
 79
     6
170
     0
171
     0
290
     0
174
     0
 93
        1
 44
0.0
173
     0
291
     0
 45
0.0
1001
ACAD
1000
AcDbSavedByObjectVersion
1070
     0
  0
VISUALSTYLE
  5
634A
102
{ACAD_XDICTIONARY
360
6A10
102
}
102
{ACAD_REACTORS
330
633D
102
}
330
633D
100
AcDbVisualStyle
  2

 70
    13
 71
     2
 72
     2
 73
     0
 90
        0
 40
-0.6
 41
-30.0
 62
     5
 63
     7
 74
     1
 91
        4
 64
     7
 65
   257
 75
     1
175
     1
 42
1.0
 92
       12
 66
     7
 43
1.0
 76
     1
 77
     6
 78
     2
 67
     7
 79
     5
170
     0
171
     0
290
     0
174
     0
 93
        1
 44
0.0
173
     0
291
     1
 45
0.0
1001
ACAD
1000
AcDbSavedByObjectVersion
1070
     0
  0
VISUALSTYLE
  5
63DD
102
{ACAD_XDICTIONARY
360
6A1F
102
}
102
{ACAD_REACTORS
330
633D
102
}
330
633D
100
AcDbVisualStyle
  2

 70
     5
 71
     0
 72
     2
 73
     0
 90
        0
 40
-0.6
 41
-30.0
 62
     5
 63
     7
 74
     1
 91
        4
 64
     7
 65
   257
 75
     1
175
     1
 42
1.0
 92
        0
 66
   257
 43
1.0
 76
     1
 77
     6
 78
     2
 67
     7
 79
     3
170
     0
171
     0
290
     0
174
     0
 93
        1
 44
0.0
173
     0
291
     0
 45
0.0
1001
ACAD
1000
AcDbSavedByObjectVersion
1070
     0
  0
VISUALSTYLE
  5
63E1
102
{ACAD_XDICTIONARY
360
6A27
102
}
102
{ACAD_REACTORS
330
633D
102
}
330
633D
100
AcDbVisualStyle
  2

 70
    25
 71
     2
 72
     2
 73
     1
 90
        1
 40
0.5
 41
-30.0
 62
     5
 63
     7
 74
     1
 91
        0
 64
     7
 65
   257
 75
     1
175
     1
 42
1.0
 92
        8
 66
     7
 43
1.0
 76
     1
 77
     6
 78
     2
 67
     7
 79
     3
170
     0
171
     0
290
     0
174
     0
 93
       13
 44
0.0
173
     0
291
     0
 45
0.0
1001
ACAD
1000
AcDbSavedByObjectVersion
1070
     0
  0
DICTIONARYVAR
  5
639C
102
{ACAD_REACTORS
330
5D91
102
}
330
5D91
100
DictionaryVariables
280
     0
  1
1:1
  0
DICTIONARYVAR
  5
639B
102
{ACAD_REACTORS
330
5D91
102
}
330
5D91
100
DictionaryVariables
280
     0
  1
STANDARD
  0
DICTIONARYVAR
  5
639A
102
{ACAD_REACTORS
330
5D91
102
}
330
5D91
100
DictionaryVariables
280
     0
  1
STANDARD
  0
DICTIONARYVAR
  5
63F1
102
{ACAD_REACTORS
330
5D91
102
}
330
5D91
100
DictionaryVariables
280
     0
  1
Imperial24
  0
DICTIONARYVAR
  5
63F2
102
{ACAD_REACTORS
330
5D91
102
}
330
5D91
100
DictionaryVariables
280
     0
  1
Imperial24
  0
DICTIONARYVAR
  5
5D92
102
{ACAD_REACTORS
330
5D91
102
}
330
5D91
100
DictionaryVariables
280
     0
  1
1
  0
DICTIONARYVAR
  5
639E
102
{ACAD_REACTORS
330
5D91
102
}
330
5D91
100
DictionaryVariables
280
     0
  1
0
  0
DICTIONARYVAR
  5
63F5
102
{ACAD_REACTORS
330
5D91
102
}
330
5D91
100
DictionaryVariables
280
     0
  1
1
  0
DICTIONARYVAR
  5
63F6
102
{ACAD_REACTORS
330
5D91
102
}
330
5D91
100
DictionaryVariables
280
     0
  1
15
  0
DICTIONARYVAR
  5
63F4
102
{ACAD_REACTORS
330
5D91
102
}
330
5D91
100
DictionaryVariables
280
     0
  1
0
  0
DICTIONARYVAR
  5
69EB
102
{ACAD_REACTORS
330
5D91
102
}
330
5D91
100
DictionaryVariables
280
     0
  1
1.570796
  0
DICTIONARYVAR
  5
69EC
102
{ACAD_REACTORS
330
5D91
102
}
330
5D91
100
DictionaryVariables
280
     0
  1
1.570796
  0
DICTIONARYVAR
  5
63F3
102
{ACAD_REACTORS
330
5D91
102
}
330
5D91
100
DictionaryVariables
280
     0
  1
0
  0
DICTIONARYVAR
  5
639D
102
{ACAD_REACTORS
330
5D91
102
}
330
5D91
100
DictionaryVariables
280
     0
  1
127
  0
DICTIONARYVAR
  5
69ED
102
{ACAD_REACTORS
330
5D91
102
}
330
5D91
100
DictionaryVariables
280
     0
  1
2
  0
XRECORD
  5
6399
102
{ACAD_REACTORS
330
6397
102
}
330
6397
100
AcDbXrecord
280
     1
330
59AE
330
6065
330
6066
330
613E
330
613F
330
611A
330
611B
330
612C
330
612D
330
6135
330
6136
330
60B6
330
60B7
330
60AC
330
60AD
330
6108
330
6109
330
60FF
330
6100
330
604A
330
604B
330
605C
330
605D
330
6053
330
6054
330
606E
330
6076
330
6077
330
60D2
330
60D3
330
6149
330
614A
330
630B
330
630C
330
618B
330
618C
330
625F
330
6260
330
6268
330
6269
  0
DICTIONARY
  5
6A2F
330
63E7
100
AcDbDictionary
280
     1
281
     1
  3
ACAD_XREC_ROUNDTRIP
360
6A30
  0
DICTIONARY
  5
69F4
330
6318
100
AcDbDictionary
280
     1
281
     1
  3
ACAD_XREC_ROUNDTRIP
360
69F5
  0
DICTIONARY
  5
69F6
330
6319
100
AcDbDictionary
280
     1
281
     1
  3
ACAD_XREC_ROUNDTRIP
360
69F7
  0
DICTIONARY
  5
632E
330
632D
100
AcDbDictionary
280
     1
281
     1
  3
ACAD_XREC_ROUNDTRIP
360
63AD
  3
BUMPTILE
360
6330
  3
DIFFUSETILE
360
632F
  3
OPACITYTILE
360
6333
  3
REFLECTIONTILE
360
6332
  3
REFRACTIONTILE
360
6334
  3
SPECULARTILE
360
6331
  0
DICTIONARY
  5
6326
330
6325
100
AcDbDictionary
280
     1
281
     1
  3
ACAD_XREC_ROUNDTRIP
360
63AC
  3
BUMPTILE
360
6328
  3
DIFFUSETILE
360
6327
  3
OPACITYTILE
360
632B
  3
REFLECTIONTILE
360
632A
  3
REFRACTIONTILE
360
632C
  3
SPECULARTILE
360
6329
  0
DICTIONARY
  5
6336
330
6335
100
AcDbDictionary
280
     1
281
     1
  3
ACAD_XREC_ROUNDTRIP
360
63AE
  3
BUMPTILE
360
6338
  3
DIFFUSETILE
360
6337
  3
OPACITYTILE
360
633B
  3
REFLECTIONTILE
360
633A
  3
REFRACTIONTILE
360
633C
  3
SPECULARTILE
360
6339
  0
DICTIONARY
  5
6A2D
330
63E5
100
AcDbDictionary
280
     1
281
     1
  3
ACAD_XREC_ROUNDTRIP
360
6A2E
  0
DICTIONARY
  5
63A0
330
6353
100
AcDbDictionary
280
     1
281
     1
  3
ACAD_ROUNDTRIP_2008_TABLESTYLE_CELLSTYLEMAP
360
69EE
  3
ACAD_XREC_ROUNDTRIP
360
6A1E
  0
DICTIONARY
  5
6A02
330
6343
100
AcDbDictionary
280
     1
281
     1
  3
ACAD_XREC_ROUNDTRIP
360
6A03
  0
DICTIONARY
  5
6A06
330
6345
100
AcDbDictionary
280
     1
281
     1
  3
ACAD_XREC_ROUNDTRIP
360
6A07
  0
DICTIONARY
  5
6A04
330
6344
100
AcDbDictionary
280
     1
281
     1
  3
ACAD_XREC_ROUNDTRIP
360
6A05
  0
DICTIONARY
  5
6A00
330
6342
100
AcDbDictionary
280
     1
281
     1
  3
ACAD_XREC_ROUNDTRIP
360
6A01
  0
DICTIONARY
  5
6A0E
330
6349
100
AcDbDictionary
280
     1
281
     1
  3
ACAD_XREC_ROUNDTRIP
360
6A0F
  0
DICTIONARY
  5
6A16
330
634D
100
AcDbDictionary
280
     1
281
     1
  3
ACAD_XREC_ROUNDTRIP
360
6A17
  0
DICTIONARY
  5
6A08
330
6346
100
AcDbDictionary
280
     1
281
     1
  3
ACAD_XREC_ROUNDTRIP
360
6A09
  0
DICTIONARY
  5
6A0C
330
6348
100
AcDbDictionary
280
     1
281
     1
  3
ACAD_XREC_ROUNDTRIP
360
6A0D
  0
DICTIONARY
  5
6A1C
330
6350
100
AcDbDictionary
280
     1
281
     1
  3
ACAD_XREC_ROUNDTRIP
360
6A1D
  0
DICTIONARY
  5
6A14
330
634C
100
AcDbDictionary
280
     1
281
     1
  3
ACAD_XREC_ROUNDTRIP
360
6A15
  0
DICTIONARY
  5
69F8
330
633E
100
AcDbDictionary
280
     1
281
     1
  3
ACAD_XREC_ROUNDTRIP
360
69F9
  0
DICTIONARY
  5
69FA
330
633F
100
AcDbDictionary
280
     1
281
     1
  3
ACAD_XREC_ROUNDTRIP
360
69FB
  0
DICTIONARY
  5
69FC
330
6340
100
AcDbDictionary
280
     1
281
     1
  3
ACAD_XREC_ROUNDTRIP
360
69FD
  0
DICTIONARY
  5
69FE
330
6341
100
AcDbDictionary
280
     1
281
     1
  3
ACAD_XREC_ROUNDTRIP
360
69FF
  0
DICTIONARY
  5
6A21
330
63DE
100
AcDbDictionary
280
     1
281
     1
  3
ACAD_XREC_ROUNDTRIP
360
6A22
  0
DICTIONARY
  5
6A18
330
634E
100
AcDbDictionary
280
     1
281
     1
  3
ACAD_XREC_ROUNDTRIP
360
6A19
  0
DICTIONARY
  5
6A12
330
634B
100
AcDbDictionary
280
     1
281
     1
  3
ACAD_XREC_ROUNDTRIP
360
6A13
  0
DICTIONARY
  5
6A1A
330
634F
100
AcDbDictionary
280
     1
281
     1
  3
ACAD_XREC_ROUNDTRIP
360
6A1B
  0
DICTIONARY
  5
6A0A
330
6347
100
AcDbDictionary
280
     1
281
     1
  3
ACAD_XREC_ROUNDTRIP
360
6A0B
  0
DICTIONARY
  5
6A2B
330
63E3
100
AcDbDictionary
280
     1
281
     1
  3
ACAD_XREC_ROUNDTRIP
360
6A2C
  0
DICTIONARY
  5
6A29
330
63E2
100
AcDbDictionary
280
     1
281
     1
  3
ACAD_XREC_ROUNDTRIP
360
6A2A
  0
DICTIONARY
  5
6A23
330
63DF
100
AcDbDictionary
280
     1
281
     1
  3
ACAD_XREC_ROUNDTRIP
360
6A24
  0
DICTIONARY
  5
6A25
330
63E0
100
AcDbDictionary
280
     1
281
     1
  3
ACAD_XREC_ROUNDTRIP
360
6A26
  0
DICTIONARY
  5
6A10
330
634A
100
AcDbDictionary
280
     1
281
     1
  3
ACAD_XREC_ROUNDTRIP
360
6A11
  0
DICTIONARY
  5
6A1F
330
63DD
100
AcDbDictionary
280
     1
281
     1
  3
ACAD_XREC_ROUNDTRIP
360
6A20
  0
DICTIONARY
  5
6A27
330
63E1
100
AcDbDictionary
280
     1
281
     1
  3
ACAD_XREC_ROUNDTRIP
360
6A28
  0
XRECORD
  5
6A30
102
{ACAD_REACTORS
330
6A2F
102
}
330
6A2F
100
AcDbXrecord
280
     1
102
DISPLAYNAME
  1
Imperial24
102
FLAGS
 90
        0
  0
XRECORD
  5
69F5
102
{ACAD_REACTORS
330
69F4
102
}
330
69F4
100
AcDbXrecord
280
     1
102
SHADEPLOT
 70
     0
102
SHADEPLOTRESLEVEL
 70
     2
102
SHADEPLOTCUSTOMDPI
 70
   300
  0
XRECORD
  5
69F7
102
{ACAD_REACTORS
330
69F6
102
}
330
69F6
100
AcDbXrecord
280
     1
102
SHADEPLOT
 70
     0
102
SHADEPLOTRESLEVEL
 70
     2
102
SHADEPLOTCUSTOMDPI
 70
   300
  0
XRECORD
  5
63AD
102
{ACAD_REACTORS
330
632E
102
}
330
632E
100
AcDbXrecord
280
     1
102
MATERIAL
148
0.0
149
0.0
149
0.0
 93
        0
 94
      127
282
     0
 72
     0
 77
     0
171
     0
175
     0
179
     0
273
     0
  0
XRECORD
  5
6330
102
{ACAD_REACTORS
330
632E
102
}
330
632E
100
AcDbXrecord
280
     1
270
     1
271
     1
  0
XRECORD
  5
632F
102
{ACAD_REACTORS
330
632E
102
}
330
632E
100
AcDbXrecord
280
     1
270
     1
271
     1
  0
XRECORD
  5
6333
102
{ACAD_REACTORS
330
632E
102
}
330
632E
100
AcDbXrecord
280
     1
270
     1
271
     1
  0
XRECORD
  5
6332
102
{ACAD_REACTORS
330
632E
102
}
330
632E
100
AcDbXrecord
280
     1
270
     1
271
     1
  0
XRECORD
  5
6334
102
{ACAD_REACTORS
330
632E
102
}
330
632E
100
AcDbXrecord
280
     1
270
     1
271
     1
  0
XRECORD
  5
6331
102
{ACAD_REACTORS
330
632E
102
}
330
632E
100
AcDbXrecord
280
     1
270
     1
271
     1
  0
XRECORD
  5
63AC
102
{ACAD_REACTORS
330
6326
102
}
330
6326
100
AcDbXrecord
280
     1
102
MATERIAL
148
0.0
149
0.0
149
0.0
 93
        0
 94
      127
282
     0
 72
     0
 77
     0
171
     0
175
     0
179
     0
273
     0
  0
XRECORD
  5
6328
102
{ACAD_REACTORS
330
6326
102
}
330
6326
100
AcDbXrecord
280
     1
270
     1
271
     1
  0
XRECORD
  5
6327
102
{ACAD_REACTORS
330
6326
102
}
330
6326
100
AcDbXrecord
280
     1
270
     1
271
     1
  0
XRECORD
  5
632B
102
{ACAD_REACTORS
330
6326
102
}
330
6326
100
AcDbXrecord
280
     1
270
     1
271
     1
  0
XRECORD
  5
632A
102
{ACAD_REACTORS
330
6326
102
}
330
6326
100
AcDbXrecord
280
     1
270
     1
271
     1
  0
XRECORD
  5
632C
102
{ACAD_REACTORS
330
6326
102
}
330
6326
100
AcDbXrecord
280
     1
270
     1
271
     1
  0
XRECORD
  5
6329
102
{ACAD_REACTORS
330
6326
102
}
330
6326
100
AcDbXrecord
280
     1
270
     1
271
     1
  0
XRECORD
  5
63AE
102
{ACAD_REACTORS
330
6336
102
}
330
6336
100
AcDbXrecord
280
     1
102
MATERIAL
148
0.0
149
0.0
149
0.0
 93
        0
 94
      127
282
     0
 72
     0
 77
     0
171
     0
175
     0
179
     0
273
     0
  0
XRECORD
  5
6338
102
{ACAD_REACTORS
330
6336
102
}
330
6336
100
AcDbXrecord
280
     1
270
     1
271
     1
  0
XRECORD
  5
6337
102
{ACAD_REACTORS
330
6336
102
}
330
6336
100
AcDbXrecord
280
     1
270
     1
271
     1
  0
XRECORD
  5
633B
102
{ACAD_REACTORS
330
6336
102
}
330
6336
100
AcDbXrecord
280
     1
270
     1
271
     1
  0
XRECORD
  5
633A
102
{ACAD_REACTORS
330
6336
102
}
330
6336
100
AcDbXrecord
280
     1
270
     1
271
     1
  0
XRECORD
  5
633C
102
{ACAD_REACTORS
330
6336
102
}
330
6336
100
AcDbXrecord
280
     1
270
     1
271
     1
  0
XRECORD
  5
6339
102
{ACAD_REACTORS
330
6336
102
}
330
6336
100
AcDbXrecord
280
     1
270
     1
271
     1
  0
XRECORD
  5
6A2E
102
{ACAD_REACTORS
330
6A2D
102
}
330
6A2D
100
AcDbXrecord
280
     1
102
DISPLAYNAME
  1
Imperial24
102
FLAGS
 90
        0
  0
CELLSTYLEMAP
  5
69EE
102
{ACAD_REACTORS
330
63A0
102
}
330
63A0
100
AcDbCellStyleMap
 90
        3
300
CELLSTYLE
  1
TABLEFORMAT_BEGIN
 90
        5
170
     1
 91
        0
 92
    32768
 62
   257
 93
        1
300
CONTENTFORMAT
  1
CONTENTFORMAT_BEGIN
 90
        0
 91
        0
 92
      512
 93
        0
300

 40
0.0
140
1.0
 94
        5
 62
     0
340
11
144
0.25
309
CONTENTFORMAT_END
171
     1
301
MARGIN
  1
CELLMARGIN_BEGIN
 40
0.06
 40
0.06
 40
0.06
 40
0.06
 40
0.18
 40
0.18
309
CELLMARGIN_END
 94
        6
 95
        1
302
GRIDFORMAT
  1
GRIDFORMAT_BEGIN
 90
        0
 91
        1
 62
     0
 92
       -2
340
0
 93
        0
 40
0.045
309
GRIDFORMAT_END
 95
        2
302
GRIDFORMAT
  1
GRIDFORMAT_BEGIN
 90
        0
 91
        1
 62
     0
 92
       -2
340
0
 93
        0
 40
0.045
309
GRIDFORMAT_END
 95
        4
302
GRIDFORMAT
  1
GRIDFORMAT_BEGIN
 90
        0
 91
        1
 62
     0
 92
       -2
340
0
 93
        0
 40
0.045
309
GRIDFORMAT_END
 95
        8
302
GRIDFORMAT
  1
GRIDFORMAT_BEGIN
 90
        0
 91
        1
 62
     0
 92
       -2
340
0
 93
        0
 40
0.045
309
GRIDFORMAT_END
 95
       16
302
GRIDFORMAT
  1
GRIDFORMAT_BEGIN
 90
        0
 91
        1
 62
     0
 92
       -2
340
0
 93
        0
 40
0.045
309
GRIDFORMAT_END
 95
       32
302
GRIDFORMAT
  1
GRIDFORMAT_BEGIN
 90
        0
 91
        1
 62
     0
 92
       -2
340
0
 93
        0
 40
0.045
309
GRIDFORMAT_END
309
TABLEFORMAT_END
  1
CELLSTYLE_BEGIN
 90
        1
 91
        1
300
_TITLE
309
CELLSTYLE_END
300
CELLSTYLE
  1
TABLEFORMAT_BEGIN
 90
        5
170
     1
 91
        0
 92
        0
 62
   257
 93
        1
300
CONTENTFORMAT
  1
CONTENTFORMAT_BEGIN
 90
        0
 91
        0
 92
      512
 93
        0
300

 40
0.0
140
1.0
 94
        5
 62
     0
340
11
144
0.18
309
CONTENTFORMAT_END
171
     1
301
MARGIN
  1
CELLMARGIN_BEGIN
 40
0.06
 40
0.06
 40
0.06
 40
0.06
 40
0.18
 40
0.18
309
CELLMARGIN_END
 94
        6
 95
        1
302
GRIDFORMAT
  1
GRIDFORMAT_BEGIN
 90
        0
 91
        1
 62
     0
 92
       -2
340
0
 93
        0
 40
0.045
309
GRIDFORMAT_END
 95
        2
302
GRIDFORMAT
  1
GRIDFORMAT_BEGIN
 90
        0
 91
        1
 62
     0
 92
       -2
340
0
 93
        0
 40
0.045
309
GRIDFORMAT_END
 95
        4
302
GRIDFORMAT
  1
GRIDFORMAT_BEGIN
 90
        0
 91
        1
 62
     0
 92
       -2
340
0
 93
        0
 40
0.045
309
GRIDFORMAT_END
 95
        8
302
GRIDFORMAT
  1
GRIDFORMAT_BEGIN
 90
        0
 91
        1
 62
     0
 92
       -2
340
0
 93
        0
 40
0.045
309
GRIDFORMAT_END
 95
       16
302
GRIDFORMAT
  1
GRIDFORMAT_BEGIN
 90
        0
 91
        1
 62
     0
 92
       -2
340
0
 93
        0
 40
0.045
309
GRIDFORMAT_END
 95
       32
302
GRIDFORMAT
  1
GRIDFORMAT_BEGIN
 90
        0
 91
        1
 62
     0
 92
       -2
340
0
 93
        0
 40
0.045
309
GRIDFORMAT_END
309
TABLEFORMAT_END
  1
CELLSTYLE_BEGIN
 90
        2
 91
        1
300
_HEADER
309
CELLSTYLE_END
300
CELLSTYLE
  1
TABLEFORMAT_BEGIN
 90
        5
170
     1
 91
        0
 92
        0
 62
   257
 93
        1
300
CONTENTFORMAT
  1
CONTENTFORMAT_BEGIN
 90
        0
 91
        0
 92
      512
 93
        0
300

 40
0.0
140
1.0
 94
        2
 62
     0
340
11
144
0.18
309
CONTENTFORMAT_END
171
     1
301
MARGIN
  1
CELLMARGIN_BEGIN
 40
0.06
 40
0.06
 40
0.06
 40
0.06
 40
0.18
 40
0.18
309
CELLMARGIN_END
 94
        6
 95
        1
302
GRIDFORMAT
  1
GRIDFORMAT_BEGIN
 90
        0
 91
        1
 62
     0
 92
       -2
340
0
 93
        0
 40
0.045
309
GRIDFORMAT_END
 95
        2
302
GRIDFORMAT
  1
GRIDFORMAT_BEGIN
 90
        0
 91
        1
 62
     0
 92
       -2
340
0
 93
        0
 40
0.045
309
GRIDFORMAT_END
 95
        4
302
GRIDFORMAT
  1
GRIDFORMAT_BEGIN
 90
        0
 91
        1
 62
     0
 92
       -2
340
0
 93
        0
 40
0.045
309
GRIDFORMAT_END
 95
        8
302
GRIDFORMAT
  1
GRIDFORMAT_BEGIN
 90
        0
 91
        1
 62
     0
 92
       -2
340
0
 93
        0
 40
0.045
309
GRIDFORMAT_END
 95
       16
302
GRIDFORMAT
  1
GRIDFORMAT_BEGIN
 90
        0
 91
        1
 62
     0
 92
       -2
340
0
 93
        0
 40
0.045
309
GRIDFORMAT_END
 95
       32
302
GRIDFORMAT
  1
GRIDFORMAT_BEGIN
 90
        0
 91
        1
 62
     0
 92
       -2
340
0
 93
        0
 40
0.045
309
GRIDFORMAT_END
309
TABLEFORMAT_END
  1
CELLSTYLE_BEGIN
 90
        3
 91
        2
300
_DATA
309
CELLSTYLE_END
  0
XRECORD
  5
6A1E
102
{ACAD_REACTORS
330
63A0
102
}
330
63A0
100
AcDbXrecord
280
     1
102
ACAD_ROUNDTRIP_PRE2007_TABLESTYLE
 90
      512
 91
        0
  1

 92
      512
 93
        0
  2

 94
      512
 95
        0
  3

  0
XRECORD
  5
6A03
102
{ACAD_REACTORS
330
6A02
102
}
330
6A02
100
AcDbXrecord
280
     1
102
RTVSPost2010Prop28
280
     1
102
RTVSPost2010PropOp28
 70
     1
102
RTVSPost2010Prop29
280
     1
102
RTVSPost2010PropOp29
 70
     1
102
RTVSPost2010Prop30
280
     0
102
RTVSPost2010PropOp30
 70
     1
102
RTVSPost2010Prop31
280
     0
102
RTVSPost2010PropOp31
 70
     1
102
RTVSPost2010Prop32
280
     0
102
RTVSPost2010PropOp32
 70
     1
102
RTVSPost2010Prop33
280
     0
102
RTVSPost2010PropOp33
 70
     1
102
RTVSPost2010Prop34
280
     0
102
RTVSPost2010PropOp34
 70
     1
102
RTVSPost2010Prop35
280
     0
102
RTVSPost2010PropOp35
 70
     1
102
RTVSPost2010Prop36
280
     0
102
RTVSPost2010PropOp36
 70
     1
102
RTVSPost2010Prop37
 90
       50
102
RTVSPost2010PropOp37
 70
     1
102
RTVSPost2010Prop38
140
0.0
102
RTVSPost2010PropOp38
 70
     1
102
RTVSPost2010Prop39
140
1.0
102
RTVSPost2010PropOp39
 70
     1
102
RTVSPost2010Prop40
 90
        0
102
RTVSPost2010PropOp40
 70
     1
102
RTVSPost2010Prop41ColorIndex
 90
       18
102
RTVSPost2010Prop41ColorRGB
 90
        0
102
RTVSPost2010PropOp41
 70
     1
102
RTVSPost2010Prop42
 90
       50
102
RTVSPost2010PropOp42
 70
     1
102
RTVSPost2010Prop43
 90
        3
102
RTVSPost2010PropOp43
 70
     1
102
RTVSPost2010Prop44ColorIndex
 90
        5
102
RTVSPost2010Prop44ColorRGB
 90
      255
102
RTVSPost2010PropOp44
 70
     1
102
RTVSPost2010Prop45
280
     0
102
RTVSPost2010PropOp45
 70
     1
102
RTVSPost2010Prop46
 90
       50
102
RTVSPost2010PropOp46
 70
     1
102
RTVSPost2010Prop47
 90
       50
102
RTVSPost2010PropOp47
 70
     1
102
RTVSPost2010Prop48
 90
       50
102
RTVSPost2010PropOp48
 70
     1
102
RTVSPost2010Prop49
280
     0
102
RTVSPost2010PropOp49
 70
     1
102
RTVSPost2010Prop50
 90
       50
102
RTVSPost2010PropOp50
 70
     1
102
RTVSPost2010Prop51ColorIndex
 90
      256
102
RTVSPost2010Prop51ColorRGB
 90
-16777216
102
RTVSPost2010PropOp51
 70
     0
102
RTVSPost2010Prop52
140
1.0
102
RTVSPost2010PropOp52
 70
     0
102
RTVSPost2010Prop53
 90
        2
102
RTVSPost2010PropOp53
 70
     1
102
RTVSPost2010Prop54
  1
strokes_ogs.tif
102
RTVSPost2010PropOp54
 70
     1
102
RTVSPost2010Prop55
280
     0
102
RTVSPost2010PropOp55
 70
     1
102
RTVSPost2010Prop56
140
1.0
102
RTVSPost2010PropOp56
 70
     1
102
RTVSPost2010Prop57
140
1.0
102
RTVSPost2010PropOp57
 70
     1
102
RTVSPropertyOp0
 70
     1
102
RTVSPropertyOp1
 70
     1
102
RTVSPropertyOp2
 70
     1
102
RTVSPropertyOp3
 70
     1
102
RTVSPropertyOp4
 70
     1
102
RTVSPropertyOp5
 70
     1
102
RTVSPropertyOp6
 70
     1
102
RTVSPropertyOp7
 70
     1
102
RTVSPropertyOp8
 70
     1
102
RTVSPropertyOp9
 70
     1
102
RTVSPropertyOp10
 70
     1
102
RTVSPropertyOp11
 70
     1
102
RTVSPropertyOp12
 70
     1
102
RTVSPropertyOp13
 70
     1
102
RTVSPropertyOp14
 70
     1
102
RTVSPropertyOp15
 70
     1
102
RTVSPropertyOp16
 70
     1
102
RTVSPropertyOp17
 70
     1
102
RTVSPropertyOp18
 70
     1
102
RTVSPropertyOp19
 70
     1
102
RTVSPropertyOp20
 70
     1
102
RTVSPropertyOp21
 70
     1
102
RTVSPropertyOp22
 70
     1
102
RTVSPropertyOp23
 70
     1
102
RTVSPropertyOp24
 70
     1
102
RTVSPropertyOp25
 70
     1
102
RTVSPropertyOp26
 70
     1
102
RTVSPropertyOp27
 70
     1
102
RTVSPropertyOp28
 70
     1
102
RTVSPropertyOp29
 70
     1
102
RTVSPropertyOp30
 70
     1
102
RTVSPropertyOp31
 70
     1
102
RTVSPropertyOp32
 70
     1
102
RTVSPropertyOp33
 70
     1
102
RTVSPropertyOp34
 70
     1
102
RTVSPropertyOp35
 70
     1
102
RTVSPropertyOp36
 70
     1
102
RTVSPropertyOp37
 70
     1
102
RTVSPropertyOp38
 70
     1
102
RTVSPropertyOp39
 70
     1
102
RTVSPropertyOp40
 70
     1
102
RTVSPropertyOp41
 70
     1
102
RTVSPropertyOp42
 70
     1
102
RTVSPropertyOp43
 70
     1
102
RTVSPropertyOp44
 70
     1
102
RTVSPropertyOp45
 70
     1
102
RTVSPropertyOp46
 70
     1
102
RTVSPropertyOp47
 70
     1
102
RTVSPropertyOp48
 70
     1
102
RTVSPropertyOp49
 70
     1
102
RTVSPropertyOp50
 70
     1
102
RTVSPropertyOp51
 70
     0
102
RTVSPropertyOp52
 70
     0
102
RTVSPropertyOp53
 70
     1
102
RTVSPropertyOp54
 70
     1
102
RTVSPropertyOp55
 70
     1
102
RTVSPropertyOp56
 70
     1
102
RTVSPropertyOp57
 70
     1
102
RTVSPropertyOp58
 70
     1
102
RTVSPropertyOp59
 70
     1
102
RTVSPropertyOp60
 70
     1
102
RTVSPropertyOp61
 70
     1
102
RTVSPropertyOp62
 70
     1
  0
XRECORD
  5
6A07
102
{ACAD_REACTORS
330
6A06
102
}
330
6A06
100
AcDbXrecord
280
     1
102
RTVSPost2010Prop28
280
     0
102
RTVSPost2010PropOp28
 70
     1
102
RTVSPost2010Prop29
280
     1
102
RTVSPost2010PropOp29
 70
     1
102
RTVSPost2010Prop30
280
     1
102
RTVSPost2010PropOp30
 70
     1
102
RTVSPost2010Prop31
280
     0
102
RTVSPost2010PropOp31
 70
     1
102
RTVSPost2010Prop32
280
     0
102
RTVSPost2010PropOp32
 70
     1
102
RTVSPost2010Prop33
280
     0
102
RTVSPost2010PropOp33
 70
     1
102
RTVSPost2010Prop34
280
     0
102
RTVSPost2010PropOp34
 70
     1
102
RTVSPost2010Prop35
280
     0
102
RTVSPost2010PropOp35
 70
     1
102
RTVSPost2010Prop36
280
     0
102
RTVSPost2010PropOp36
 70
     1
102
RTVSPost2010Prop37
 90
       50
102
RTVSPost2010PropOp37
 70
     1
102
RTVSPost2010Prop38
140
0.0
102
RTVSPost2010PropOp38
 70
     1
102
RTVSPost2010Prop39
140
1.0
102
RTVSPost2010PropOp39
 70
     1
102
RTVSPost2010Prop40
 90
        0
102
RTVSPost2010PropOp40
 70
     1
102
RTVSPost2010Prop41ColorIndex
 90
       18
102
RTVSPost2010Prop41ColorRGB
 90
        0
102
RTVSPost2010PropOp41
 70
     1
102
RTVSPost2010Prop42
 90
       50
102
RTVSPost2010PropOp42
 70
     1
102
RTVSPost2010Prop43
 90
        3
102
RTVSPost2010PropOp43
 70
     1
102
RTVSPost2010Prop44ColorIndex
 90
        5
102
RTVSPost2010Prop44ColorRGB
 90
      255
102
RTVSPost2010PropOp44
 70
     1
102
RTVSPost2010Prop45
280
     0
102
RTVSPost2010PropOp45
 70
     1
102
RTVSPost2010Prop46
 90
       50
102
RTVSPost2010PropOp46
 70
     1
102
RTVSPost2010Prop47
 90
       50
102
RTVSPost2010PropOp47
 70
     1
102
RTVSPost2010Prop48
 90
       50
102
RTVSPost2010PropOp48
 70
     1
102
RTVSPost2010Prop49
280
     0
102
RTVSPost2010PropOp49
 70
     1
102
RTVSPost2010Prop50
 90
       50
102
RTVSPost2010PropOp50
 70
     1
102
RTVSPost2010Prop51ColorIndex
 90
      256
102
RTVSPost2010Prop51ColorRGB
 90
-16777216
102
RTVSPost2010PropOp51
 70
     0
102
RTVSPost2010Prop52
140
1.0
102
RTVSPost2010PropOp52
 70
     0
102
RTVSPost2010Prop53
 90
        2
102
RTVSPost2010PropOp53
 70
     1
102
RTVSPost2010Prop54
  1
strokes_ogs.tif
102
RTVSPost2010PropOp54
 70
     1
102
RTVSPost2010Prop55
280
     0
102
RTVSPost2010PropOp55
 70
     1
102
RTVSPost2010Prop56
140
1.0
102
RTVSPost2010PropOp56
 70
     1
102
RTVSPost2010Prop57
140
1.0
102
RTVSPost2010PropOp57
 70
     1
102
RTVSPropertyOp0
 70
     1
102
RTVSPropertyOp1
 70
     1
102
RTVSPropertyOp2
 70
     1
102
RTVSPropertyOp3
 70
     1
102
RTVSPropertyOp4
 70
     1
102
RTVSPropertyOp5
 70
     1
102
RTVSPropertyOp6
 70
     1
102
RTVSPropertyOp7
 70
     1
102
RTVSPropertyOp8
 70
     1
102
RTVSPropertyOp9
 70
     1
102
RTVSPropertyOp10
 70
     1
102
RTVSPropertyOp11
 70
     1
102
RTVSPropertyOp12
 70
     1
102
RTVSPropertyOp13
 70
     1
102
RTVSPropertyOp14
 70
     1
102
RTVSPropertyOp15
 70
     1
102
RTVSPropertyOp16
 70
     1
102
RTVSPropertyOp17
 70
     1
102
RTVSPropertyOp18
 70
     1
102
RTVSPropertyOp19
 70
     1
102
RTVSPropertyOp20
 70
     1
102
RTVSPropertyOp21
 70
     1
102
RTVSPropertyOp22
 70
     1
102
RTVSPropertyOp23
 70
     1
102
RTVSPropertyOp24
 70
     1
102
RTVSPropertyOp25
 70
     1
102
RTVSPropertyOp26
 70
     1
102
RTVSPropertyOp27
 70
     1
102
RTVSPropertyOp28
 70
     1
102
RTVSPropertyOp29
 70
     1
102
RTVSPropertyOp30
 70
     1
102
RTVSPropertyOp31
 70
     1
102
RTVSPropertyOp32
 70
     1
102
RTVSPropertyOp33
 70
     1
102
RTVSPropertyOp34
 70
     1
102
RTVSPropertyOp35
 70
     1
102
RTVSPropertyOp36
 70
     1
102
RTVSPropertyOp37
 70
     1
102
RTVSPropertyOp38
 70
     1
102
RTVSPropertyOp39
 70
     1
102
RTVSPropertyOp40
 70
     1
102
RTVSPropertyOp41
 70
     1
102
RTVSPropertyOp42
 70
     1
102
RTVSPropertyOp43
 70
     1
102
RTVSPropertyOp44
 70
     1
102
RTVSPropertyOp45
 70
     1
102
RTVSPropertyOp46
 70
     1
102
RTVSPropertyOp47
 70
     1
102
RTVSPropertyOp48
 70
     1
102
RTVSPropertyOp49
 70
     1
102
RTVSPropertyOp50
 70
     1
102
RTVSPropertyOp51
 70
     0
102
RTVSPropertyOp52
 70
     0
102
RTVSPropertyOp53
 70
     1
102
RTVSPropertyOp54
 70
     1
102
RTVSPropertyOp55
 70
     1
102
RTVSPropertyOp56
 70
     1
102
RTVSPropertyOp57
 70
     1
102
RTVSPropertyOp58
 70
     1
102
RTVSPropertyOp59
 70
     1
102
RTVSPropertyOp60
 70
     1
102
RTVSPropertyOp61
 70
     1
102
RTVSPropertyOp62
 70
     1
  0
XRECORD
  5
6A05
102
{ACAD_REACTORS
330
6A04
102
}
330
6A04
100
AcDbXrecord
280
     1
102
RTVSPost2010Prop28
280
     0
102
RTVSPost2010PropOp28
 70
     1
102
RTVSPost2010Prop29
280
     1
102
RTVSPost2010PropOp29
 70
     1
102
RTVSPost2010Prop30
280
     1
102
RTVSPost2010PropOp30
 70
     1
102
RTVSPost2010Prop31
280
     0
102
RTVSPost2010PropOp31
 70
     1
102
RTVSPost2010Prop32
280
     0
102
RTVSPost2010PropOp32
 70
     1
102
RTVSPost2010Prop33
280
     0
102
RTVSPost2010PropOp33
 70
     1
102
RTVSPost2010Prop34
280
     0
102
RTVSPost2010PropOp34
 70
     1
102
RTVSPost2010Prop35
280
     0
102
RTVSPost2010PropOp35
 70
     1
102
RTVSPost2010Prop36
280
     0
102
RTVSPost2010PropOp36
 70
     1
102
RTVSPost2010Prop37
 90
       50
102
RTVSPost2010PropOp37
 70
     1
102
RTVSPost2010Prop38
140
0.0
102
RTVSPost2010PropOp38
 70
     1
102
RTVSPost2010Prop39
140
1.0
102
RTVSPost2010PropOp39
 70
     1
102
RTVSPost2010Prop40
 90
        0
102
RTVSPost2010PropOp40
 70
     1
102
RTVSPost2010Prop41ColorIndex
 90
       18
102
RTVSPost2010Prop41ColorRGB
 90
        0
102
RTVSPost2010PropOp41
 70
     1
102
RTVSPost2010Prop42
 90
       50
102
RTVSPost2010PropOp42
 70
     1
102
RTVSPost2010Prop43
 90
        3
102
RTVSPost2010PropOp43
 70
     1
102
RTVSPost2010Prop44ColorIndex
 90
        5
102
RTVSPost2010Prop44ColorRGB
 90
      255
102
RTVSPost2010PropOp44
 70
     1
102
RTVSPost2010Prop45
280
     0
102
RTVSPost2010PropOp45
 70
     1
102
RTVSPost2010Prop46
 90
       50
102
RTVSPost2010PropOp46
 70
     1
102
RTVSPost2010Prop47
 90
       50
102
RTVSPost2010PropOp47
 70
     1
102
RTVSPost2010Prop48
 90
       50
102
RTVSPost2010PropOp48
 70
     1
102
RTVSPost2010Prop49
280
     0
102
RTVSPost2010PropOp49
 70
     1
102
RTVSPost2010Prop50
 90
       50
102
RTVSPost2010PropOp50
 70
     1
102
RTVSPost2010Prop51ColorIndex
 90
      256
102
RTVSPost2010Prop51ColorRGB
 90
-16777216
102
RTVSPost2010PropOp51
 70
     0
102
RTVSPost2010Prop52
140
1.0
102
RTVSPost2010PropOp52
 70
     0
102
RTVSPost2010Prop53
 90
        2
102
RTVSPost2010PropOp53
 70
     1
102
RTVSPost2010Prop54
  1
strokes_ogs.tif
102
RTVSPost2010PropOp54
 70
     1
102
RTVSPost2010Prop55
280
     0
102
RTVSPost2010PropOp55
 70
     1
102
RTVSPost2010Prop56
140
1.0
102
RTVSPost2010PropOp56
 70
     1
102
RTVSPost2010Prop57
140
1.0
102
RTVSPost2010PropOp57
 70
     1
102
RTVSPropertyOp0
 70
     1
102
RTVSPropertyOp1
 70
     1
102
RTVSPropertyOp2
 70
     1
102
RTVSPropertyOp3
 70
     1
102
RTVSPropertyOp4
 70
     1
102
RTVSPropertyOp5
 70
     1
102
RTVSPropertyOp6
 70
     1
102
RTVSPropertyOp7
 70
     1
102
RTVSPropertyOp8
 70
     1
102
RTVSPropertyOp9
 70
     1
102
RTVSPropertyOp10
 70
     1
102
RTVSPropertyOp11
 70
     1
102
RTVSPropertyOp12
 70
     1
102
RTVSPropertyOp13
 70
     1
102
RTVSPropertyOp14
 70
     1
102
RTVSPropertyOp15
 70
     1
102
RTVSPropertyOp16
 70
     1
102
RTVSPropertyOp17
 70
     1
102
RTVSPropertyOp18
 70
     1
102
RTVSPropertyOp19
 70
     1
102
RTVSPropertyOp20
 70
     1
102
RTVSPropertyOp21
 70
     1
102
RTVSPropertyOp22
 70
     1
102
RTVSPropertyOp23
 70
     1
102
RTVSPropertyOp24
 70
     1
102
RTVSPropertyOp25
 70
     1
102
RTVSPropertyOp26
 70
     1
102
RTVSPropertyOp27
 70
     1
102
RTVSPropertyOp28
 70
     1
102
RTVSPropertyOp29
 70
     1
102
RTVSPropertyOp30
 70
     1
102
RTVSPropertyOp31
 70
     1
102
RTVSPropertyOp32
 70
     1
102
RTVSPropertyOp33
 70
     1
102
RTVSPropertyOp34
 70
     1
102
RTVSPropertyOp35
 70
     1
102
RTVSPropertyOp36
 70
     1
102
RTVSPropertyOp37
 70
     1
102
RTVSPropertyOp38
 70
     1
102
RTVSPropertyOp39
 70
     1
102
RTVSPropertyOp40
 70
     1
102
RTVSPropertyOp41
 70
     1
102
RTVSPropertyOp42
 70
     1
102
RTVSPropertyOp43
 70
     1
102
RTVSPropertyOp44
 70
     1
102
RTVSPropertyOp45
 70
     1
102
RTVSPropertyOp46
 70
     1
102
RTVSPropertyOp47
 70
     1
102
RTVSPropertyOp48
 70
     1
102
RTVSPropertyOp49
 70
     1
102
RTVSPropertyOp50
 70
     1
102
RTVSPropertyOp51
 70
     0
102
RTVSPropertyOp52
 70
     0
102
RTVSPropertyOp53
 70
     1
102
RTVSPropertyOp54
 70
     1
102
RTVSPropertyOp55
 70
     1
102
RTVSPropertyOp56
 70
     1
102
RTVSPropertyOp57
 70
     1
102
RTVSPropertyOp58
 70
     1
102
RTVSPropertyOp59
 70
     1
102
RTVSPropertyOp60
 70
     1
102
RTVSPropertyOp61
 70
     1
102
RTVSPropertyOp62
 70
     1
  0
XRECORD
  5
6A01
102
{ACAD_REACTORS
330
6A00
102
}
330
6A00
100
AcDbXrecord
280
     1
102
RTVSPost2010Prop28
280
     0
102
RTVSPost2010PropOp28
 70
     1
102
RTVSPost2010Prop29
280
     1
102
RTVSPost2010PropOp29
 70
     1
102
RTVSPost2010Prop30
280
     1
102
RTVSPost2010PropOp30
 70
     1
102
RTVSPost2010Prop31
280
     0
102
RTVSPost2010PropOp31
 70
     1
102
RTVSPost2010Prop32
280
     0
102
RTVSPost2010PropOp32
 70
     1
102
RTVSPost2010Prop33
280
     0
102
RTVSPost2010PropOp33
 70
     1
102
RTVSPost2010Prop34
280
     0
102
RTVSPost2010PropOp34
 70
     1
102
RTVSPost2010Prop35
280
     0
102
RTVSPost2010PropOp35
 70
     1
102
RTVSPost2010Prop36
280
     0
102
RTVSPost2010PropOp36
 70
     1
102
RTVSPost2010Prop37
 90
       50
102
RTVSPost2010PropOp37
 70
     1
102
RTVSPost2010Prop38
140
0.0
102
RTVSPost2010PropOp38
 70
     1
102
RTVSPost2010Prop39
140
1.0
102
RTVSPost2010PropOp39
 70
     1
102
RTVSPost2010Prop40
 90
        0
102
RTVSPost2010PropOp40
 70
     1
102
RTVSPost2010Prop41ColorIndex
 90
       18
102
RTVSPost2010Prop41ColorRGB
 90
        0
102
RTVSPost2010PropOp41
 70
     1
102
RTVSPost2010Prop42
 90
       50
102
RTVSPost2010PropOp42
 70
     1
102
RTVSPost2010Prop43
 90
        3
102
RTVSPost2010PropOp43
 70
     1
102
RTVSPost2010Prop44ColorIndex
 90
        5
102
RTVSPost2010Prop44ColorRGB
 90
      255
102
RTVSPost2010PropOp44
 70
     1
102
RTVSPost2010Prop45
280
     0
102
RTVSPost2010PropOp45
 70
     1
102
RTVSPost2010Prop46
 90
       50
102
RTVSPost2010PropOp46
 70
     1
102
RTVSPost2010Prop47
 90
       50
102
RTVSPost2010PropOp47
 70
     1
102
RTVSPost2010Prop48
 90
       50
102
RTVSPost2010PropOp48
 70
     1
102
RTVSPost2010Prop49
280
     0
102
RTVSPost2010PropOp49
 70
     1
102
RTVSPost2010Prop50
 90
       50
102
RTVSPost2010PropOp50
 70
     1
102
RTVSPost2010Prop51ColorIndex
 90
      256
102
RTVSPost2010Prop51ColorRGB
 90
-16777216
102
RTVSPost2010PropOp51
 70
     0
102
RTVSPost2010Prop52
140
1.0
102
RTVSPost2010PropOp52
 70
     0
102
RTVSPost2010Prop53
 90
        2
102
RTVSPost2010PropOp53
 70
     1
102
RTVSPost2010Prop54
  1
strokes_ogs.tif
102
RTVSPost2010PropOp54
 70
     1
102
RTVSPost2010Prop55
280
     0
102
RTVSPost2010PropOp55
 70
     1
102
RTVSPost2010Prop56
140
1.0
102
RTVSPost2010PropOp56
 70
     1
102
RTVSPost2010Prop57
140
1.0
102
RTVSPost2010PropOp57
 70
     1
102
RTVSPropertyOp0
 70
     1
102
RTVSPropertyOp1
 70
     1
102
RTVSPropertyOp2
 70
     1
102
RTVSPropertyOp3
 70
     1
102
RTVSPropertyOp4
 70
     1
102
RTVSPropertyOp5
 70
     1
102
RTVSPropertyOp6
 70
     1
102
RTVSPropertyOp7
 70
     1
102
RTVSPropertyOp8
 70
     1
102
RTVSPropertyOp9
 70
     1
102
RTVSPropertyOp10
 70
     1
102
RTVSPropertyOp11
 70
     1
102
RTVSPropertyOp12
 70
     1
102
RTVSPropertyOp13
 70
     1
102
RTVSPropertyOp14
 70
     1
102
RTVSPropertyOp15
 70
     1
102
RTVSPropertyOp16
 70
     1
102
RTVSPropertyOp17
 70
     1
102
RTVSPropertyOp18
 70
     1
102
RTVSPropertyOp19
 70
     1
102
RTVSPropertyOp20
 70
     1
102
RTVSPropertyOp21
 70
     1
102
RTVSPropertyOp22
 70
     1
102
RTVSPropertyOp23
 70
     1
102
RTVSPropertyOp24
 70
     1
102
RTVSPropertyOp25
 70
     1
102
RTVSPropertyOp26
 70
     1
102
RTVSPropertyOp27
 70
     1
102
RTVSPropertyOp28
 70
     1
102
RTVSPropertyOp29
 70
     1
102
RTVSPropertyOp30
 70
     1
102
RTVSPropertyOp31
 70
     1
102
RTVSPropertyOp32
 70
     1
102
RTVSPropertyOp33
 70
     1
102
RTVSPropertyOp34
 70
     1
102
RTVSPropertyOp35
 70
     1
102
RTVSPropertyOp36
 70
     1
102
RTVSPropertyOp37
 70
     1
102
RTVSPropertyOp38
 70
     1
102
RTVSPropertyOp39
 70
     1
102
RTVSPropertyOp40
 70
     1
102
RTVSPropertyOp41
 70
     1
102
RTVSPropertyOp42
 70
     1
102
RTVSPropertyOp43
 70
     1
102
RTVSPropertyOp44
 70
     1
102
RTVSPropertyOp45
 70
     1
102
RTVSPropertyOp46
 70
     1
102
RTVSPropertyOp47
 70
     1
102
RTVSPropertyOp48
 70
     1
102
RTVSPropertyOp49
 70
     1
102
RTVSPropertyOp50
 70
     1
102
RTVSPropertyOp51
 70
     0
102
RTVSPropertyOp52
 70
     0
102
RTVSPropertyOp53
 70
     1
102
RTVSPropertyOp54
 70
     1
102
RTVSPropertyOp55
 70
     1
102
RTVSPropertyOp56
 70
     1
102
RTVSPropertyOp57
 70
     1
102
RTVSPropertyOp58
 70
     1
102
RTVSPropertyOp59
 70
     1
102
RTVSPropertyOp60
 70
     1
102
RTVSPropertyOp61
 70
     1
102
RTVSPropertyOp62
 70
     1
  0
XRECORD
  5
6A0F
102
{ACAD_REACTORS
330
6A0E
102
}
330
6A0E
100
AcDbXrecord
280
     1
102
RTVSPost2010Prop28
280
     0
102
RTVSPost2010PropOp28
 70
     1
102
RTVSPost2010Prop29
280
     1
102
RTVSPost2010PropOp29
 70
     1
102
RTVSPost2010Prop30
280
     1
102
RTVSPost2010PropOp30
 70
     1
102
RTVSPost2010Prop31
280
     0
102
RTVSPost2010PropOp31
 70
     1
102
RTVSPost2010Prop32
280
     0
102
RTVSPost2010PropOp32
 70
     1
102
RTVSPost2010Prop33
280
     0
102
RTVSPost2010PropOp33
 70
     1
102
RTVSPost2010Prop34
280
     0
102
RTVSPost2010PropOp34
 70
     1
102
RTVSPost2010Prop35
280
     0
102
RTVSPost2010PropOp35
 70
     1
102
RTVSPost2010Prop36
280
     0
102
RTVSPost2010PropOp36
 70
     1
102
RTVSPost2010Prop37
 90
       50
102
RTVSPost2010PropOp37
 70
     1
102
RTVSPost2010Prop38
140
0.0
102
RTVSPost2010PropOp38
 70
     1
102
RTVSPost2010Prop39
140
1.0
102
RTVSPost2010PropOp39
 70
     1
102
RTVSPost2010Prop40
 90
        0
102
RTVSPost2010PropOp40
 70
     1
102
RTVSPost2010Prop41ColorIndex
 90
       18
102
RTVSPost2010Prop41ColorRGB
 90
        0
102
RTVSPost2010PropOp41
 70
     1
102
RTVSPost2010Prop42
 90
       50
102
RTVSPost2010PropOp42
 70
     1
102
RTVSPost2010Prop43
 90
        3
102
RTVSPost2010PropOp43
 70
     1
102
RTVSPost2010Prop44ColorIndex
 90
        5
102
RTVSPost2010Prop44ColorRGB
 90
      255
102
RTVSPost2010PropOp44
 70
     1
102
RTVSPost2010Prop45
280
     0
102
RTVSPost2010PropOp45
 70
     1
102
RTVSPost2010Prop46
 90
       50
102
RTVSPost2010PropOp46
 70
     1
102
RTVSPost2010Prop47
 90
       50
102
RTVSPost2010PropOp47
 70
     1
102
RTVSPost2010Prop48
 90
       50
102
RTVSPost2010PropOp48
 70
     1
102
RTVSPost2010Prop49
280
     0
102
RTVSPost2010PropOp49
 70
     1
102
RTVSPost2010Prop50
 90
       50
102
RTVSPost2010PropOp50
 70
     1
102
RTVSPost2010Prop51ColorIndex
 90
      256
102
RTVSPost2010Prop51ColorRGB
 90
-16777216
102
RTVSPost2010PropOp51
 70
     0
102
RTVSPost2010Prop52
140
1.0
102
RTVSPost2010PropOp52
 70
     0
102
RTVSPost2010Prop53
 90
        2
102
RTVSPost2010PropOp53
 70
     1
102
RTVSPost2010Prop54
  1
strokes_ogs.tif
102
RTVSPost2010PropOp54
 70
     1
102
RTVSPost2010Prop55
280
     0
102
RTVSPost2010PropOp55
 70
     1
102
RTVSPost2010Prop56
140
1.0
102
RTVSPost2010PropOp56
 70
     1
102
RTVSPost2010Prop57
140
1.0
102
RTVSPost2010PropOp57
 70
     1
102
RTVSPropertyOp0
 70
     1
102
RTVSPropertyOp1
 70
     1
102
RTVSPropertyOp2
 70
     1
102
RTVSPropertyOp3
 70
     1
102
RTVSPropertyOp4
 70
     1
102
RTVSPropertyOp5
 70
     1
102
RTVSPropertyOp6
 70
     1
102
RTVSPropertyOp7
 70
     1
102
RTVSPropertyOp8
 70
     1
102
RTVSPropertyOp9
 70
     1
102
RTVSPropertyOp10
 70
     1
102
RTVSPropertyOp11
 70
     1
102
RTVSPropertyOp12
 70
     1
102
RTVSPropertyOp13
 70
     1
102
RTVSPropertyOp14
 70
     1
102
RTVSPropertyOp15
 70
     1
102
RTVSPropertyOp16
 70
     1
102
RTVSPropertyOp17
 70
     1
102
RTVSPropertyOp18
 70
     1
102
RTVSPropertyOp19
 70
     1
102
RTVSPropertyOp20
 70
     1
102
RTVSPropertyOp21
 70
     1
102
RTVSPropertyOp22
 70
     1
102
RTVSPropertyOp23
 70
     1
102
RTVSPropertyOp24
 70
     1
102
RTVSPropertyOp25
 70
     1
102
RTVSPropertyOp26
 70
     1
102
RTVSPropertyOp27
 70
     1
102
RTVSPropertyOp28
 70
     1
102
RTVSPropertyOp29
 70
     1
102
RTVSPropertyOp30
 70
     1
102
RTVSPropertyOp31
 70
     1
102
RTVSPropertyOp32
 70
     1
102
RTVSPropertyOp33
 70
     1
102
RTVSPropertyOp34
 70
     1
102
RTVSPropertyOp35
 70
     1
102
RTVSPropertyOp36
 70
     1
102
RTVSPropertyOp37
 70
     1
102
RTVSPropertyOp38
 70
     1
102
RTVSPropertyOp39
 70
     1
102
RTVSPropertyOp40
 70
     1
102
RTVSPropertyOp41
 70
     1
102
RTVSPropertyOp42
 70
     1
102
RTVSPropertyOp43
 70
     1
102
RTVSPropertyOp44
 70
     1
102
RTVSPropertyOp45
 70
     1
102
RTVSPropertyOp46
 70
     1
102
RTVSPropertyOp47
 70
     1
102
RTVSPropertyOp48
 70
     1
102
RTVSPropertyOp49
 70
     1
102
RTVSPropertyOp50
 70
     1
102
RTVSPropertyOp51
 70
     0
102
RTVSPropertyOp52
 70
     0
102
RTVSPropertyOp53
 70
     1
102
RTVSPropertyOp54
 70
     1
102
RTVSPropertyOp55
 70
     1
102
RTVSPropertyOp56
 70
     1
102
RTVSPropertyOp57
 70
     1
102
RTVSPropertyOp58
 70
     1
102
RTVSPropertyOp59
 70
     1
102
RTVSPropertyOp60
 70
     1
102
RTVSPropertyOp61
 70
     1
102
RTVSPropertyOp62
 70
     1
  0
XRECORD
  5
6A17
102
{ACAD_REACTORS
330
6A16
102
}
330
6A16
100
AcDbXrecord
280
     1
102
RTVSPost2010Prop28
280
     0
102
RTVSPost2010PropOp28
 70
     1
102
RTVSPost2010Prop29
280
     1
102
RTVSPost2010PropOp29
 70
     1
102
RTVSPost2010Prop30
280
     1
102
RTVSPost2010PropOp30
 70
     1
102
RTVSPost2010Prop31
280
     0
102
RTVSPost2010PropOp31
 70
     1
102
RTVSPost2010Prop32
280
     0
102
RTVSPost2010PropOp32
 70
     1
102
RTVSPost2010Prop33
280
     0
102
RTVSPost2010PropOp33
 70
     1
102
RTVSPost2010Prop34
280
     0
102
RTVSPost2010PropOp34
 70
     1
102
RTVSPost2010Prop35
280
     0
102
RTVSPost2010PropOp35
 70
     1
102
RTVSPost2010Prop36
280
     0
102
RTVSPost2010PropOp36
 70
     1
102
RTVSPost2010Prop37
 90
       50
102
RTVSPost2010PropOp37
 70
     1
102
RTVSPost2010Prop38
140
0.0
102
RTVSPost2010PropOp38
 70
     1
102
RTVSPost2010Prop39
140
1.0
102
RTVSPost2010PropOp39
 70
     1
102
RTVSPost2010Prop40
 90
        0
102
RTVSPost2010PropOp40
 70
     1
102
RTVSPost2010Prop41ColorIndex
 90
       18
102
RTVSPost2010Prop41ColorRGB
 90
        0
102
RTVSPost2010PropOp41
 70
     1
102
RTVSPost2010Prop42
 90
       50
102
RTVSPost2010PropOp42
 70
     1
102
RTVSPost2010Prop43
 90
        3
102
RTVSPost2010PropOp43
 70
     1
102
RTVSPost2010Prop44ColorIndex
 90
        5
102
RTVSPost2010Prop44ColorRGB
 90
      255
102
RTVSPost2010PropOp44
 70
     1
102
RTVSPost2010Prop45
280
     0
102
RTVSPost2010PropOp45
 70
     1
102
RTVSPost2010Prop46
 90
       50
102
RTVSPost2010PropOp46
 70
     1
102
RTVSPost2010Prop47
 90
       50
102
RTVSPost2010PropOp47
 70
     1
102
RTVSPost2010Prop48
 90
       50
102
RTVSPost2010PropOp48
 70
     1
102
RTVSPost2010Prop49
280
     0
102
RTVSPost2010PropOp49
 70
     1
102
RTVSPost2010Prop50
 90
       50
102
RTVSPost2010PropOp50
 70
     1
102
RTVSPost2010Prop51ColorIndex
 90
      256
102
RTVSPost2010Prop51ColorRGB
 90
-16777216
102
RTVSPost2010PropOp51
 70
     0
102
RTVSPost2010Prop52
140
1.0
102
RTVSPost2010PropOp52
 70
     0
102
RTVSPost2010Prop53
 90
        2
102
RTVSPost2010PropOp53
 70
     1
102
RTVSPost2010Prop54
  1
strokes_ogs.tif
102
RTVSPost2010PropOp54
 70
     1
102
RTVSPost2010Prop55
280
     0
102
RTVSPost2010PropOp55
 70
     1
102
RTVSPost2010Prop56
140
1.0
102
RTVSPost2010PropOp56
 70
     1
102
RTVSPost2010Prop57
140
1.0
102
RTVSPost2010PropOp57
 70
     1
102
RTVSPropertyOp0
 70
     1
102
RTVSPropertyOp1
 70
     1
102
RTVSPropertyOp2
 70
     1
102
RTVSPropertyOp3
 70
     1
102
RTVSPropertyOp4
 70
     1
102
RTVSPropertyOp5
 70
     1
102
RTVSPropertyOp6
 70
     1
102
RTVSPropertyOp7
 70
     1
102
RTVSPropertyOp8
 70
     1
102
RTVSPropertyOp9
 70
     1
102
RTVSPropertyOp10
 70
     1
102
RTVSPropertyOp11
 70
     1
102
RTVSPropertyOp12
 70
     1
102
RTVSPropertyOp13
 70
     1
102
RTVSPropertyOp14
 70
     1
102
RTVSPropertyOp15
 70
     1
102
RTVSPropertyOp16
 70
     1
102
RTVSPropertyOp17
 70
     1
102
RTVSPropertyOp18
 70
     1
102
RTVSPropertyOp19
 70
     1
102
RTVSPropertyOp20
 70
     1
102
RTVSPropertyOp21
 70
     1
102
RTVSPropertyOp22
 70
     1
102
RTVSPropertyOp23
 70
     1
102
RTVSPropertyOp24
 70
     1
102
RTVSPropertyOp25
 70
     1
102
RTVSPropertyOp26
 70
     1
102
RTVSPropertyOp27
 70
     1
102
RTVSPropertyOp28
 70
     1
102
RTVSPropertyOp29
 70
     1
102
RTVSPropertyOp30
 70
     1
102
RTVSPropertyOp31
 70
     1
102
RTVSPropertyOp32
 70
     1
102
RTVSPropertyOp33
 70
     1
102
RTVSPropertyOp34
 70
     1
102
RTVSPropertyOp35
 70
     1
102
RTVSPropertyOp36
 70
     1
102
RTVSPropertyOp37
 70
     1
102
RTVSPropertyOp38
 70
     1
102
RTVSPropertyOp39
 70
     1
102
RTVSPropertyOp40
 70
     1
102
RTVSPropertyOp41
 70
     1
102
RTVSPropertyOp42
 70
     1
102
RTVSPropertyOp43
 70
     1
102
RTVSPropertyOp44
 70
     1
102
RTVSPropertyOp45
 70
     1
102
RTVSPropertyOp46
 70
     1
102
RTVSPropertyOp47
 70
     1
102
RTVSPropertyOp48
 70
     1
102
RTVSPropertyOp49
 70
     1
102
RTVSPropertyOp50
 70
     1
102
RTVSPropertyOp51
 70
     0
102
RTVSPropertyOp52
 70
     0
102
RTVSPropertyOp53
 70
     1
102
RTVSPropertyOp54
 70
     1
102
RTVSPropertyOp55
 70
     1
102
RTVSPropertyOp56
 70
     1
102
RTVSPropertyOp57
 70
     1
102
RTVSPropertyOp58
 70
     1
102
RTVSPropertyOp59
 70
     1
102
RTVSPropertyOp60
 70
     1
102
RTVSPropertyOp61
 70
     1
102
RTVSPropertyOp62
 70
     1
  0
XRECORD
  5
6A09
102
{ACAD_REACTORS
330
6A08
102
}
330
6A08
100
AcDbXrecord
280
     1
102
RTVSPost2010Prop28
280
     0
102
RTVSPost2010PropOp28
 70
     1
102
RTVSPost2010Prop29
280
     1
102
RTVSPost2010PropOp29
 70
     1
102
RTVSPost2010Prop30
280
     1
102
RTVSPost2010PropOp30
 70
     1
102
RTVSPost2010Prop31
280
     0
102
RTVSPost2010PropOp31
 70
     1
102
RTVSPost2010Prop32
280
     0
102
RTVSPost2010PropOp32
 70
     1
102
RTVSPost2010Prop33
280
     0
102
RTVSPost2010PropOp33
 70
     1
102
RTVSPost2010Prop34
280
     0
102
RTVSPost2010PropOp34
 70
     1
102
RTVSPost2010Prop35
280
     0
102
RTVSPost2010PropOp35
 70
     1
102
RTVSPost2010Prop36
280
     0
102
RTVSPost2010PropOp36
 70
     1
102
RTVSPost2010Prop37
 90
       50
102
RTVSPost2010PropOp37
 70
     1
102
RTVSPost2010Prop38
140
0.0
102
RTVSPost2010PropOp38
 70
     1
102
RTVSPost2010Prop39
140
1.0
102
RTVSPost2010PropOp39
 70
     1
102
RTVSPost2010Prop40
 90
        0
102
RTVSPost2010PropOp40
 70
     1
102
RTVSPost2010Prop41ColorIndex
 90
       18
102
RTVSPost2010Prop41ColorRGB
 90
        0
102
RTVSPost2010PropOp41
 70
     1
102
RTVSPost2010Prop42
 90
       50
102
RTVSPost2010PropOp42
 70
     1
102
RTVSPost2010Prop43
 90
        3
102
RTVSPost2010PropOp43
 70
     1
102
RTVSPost2010Prop44ColorIndex
 90
        5
102
RTVSPost2010Prop44ColorRGB
 90
      255
102
RTVSPost2010PropOp44
 70
     1
102
RTVSPost2010Prop45
280
     0
102
RTVSPost2010PropOp45
 70
     1
102
RTVSPost2010Prop46
 90
       50
102
RTVSPost2010PropOp46
 70
     1
102
RTVSPost2010Prop47
 90
       50
102
RTVSPost2010PropOp47
 70
     1
102
RTVSPost2010Prop48
 90
       50
102
RTVSPost2010PropOp48
 70
     1
102
RTVSPost2010Prop49
280
     0
102
RTVSPost2010PropOp49
 70
     1
102
RTVSPost2010Prop50
 90
       50
102
RTVSPost2010PropOp50
 70
     1
102
RTVSPost2010Prop51ColorIndex
 90
      256
102
RTVSPost2010Prop51ColorRGB
 90
-16777216
102
RTVSPost2010PropOp51
 70
     0
102
RTVSPost2010Prop52
140
1.0
102
RTVSPost2010PropOp52
 70
     0
102
RTVSPost2010Prop53
 90
        2
102
RTVSPost2010PropOp53
 70
     1
102
RTVSPost2010Prop54
  1
strokes_ogs.tif
102
RTVSPost2010PropOp54
 70
     1
102
RTVSPost2010Prop55
280
     0
102
RTVSPost2010PropOp55
 70
     1
102
RTVSPost2010Prop56
140
1.0
102
RTVSPost2010PropOp56
 70
     1
102
RTVSPost2010Prop57
140
1.0
102
RTVSPost2010PropOp57
 70
     1
102
RTVSPropertyOp0
 70
     1
102
RTVSPropertyOp1
 70
     1
102
RTVSPropertyOp2
 70
     1
102
RTVSPropertyOp3
 70
     1
102
RTVSPropertyOp4
 70
     1
102
RTVSPropertyOp5
 70
     1
102
RTVSPropertyOp6
 70
     1
102
RTVSPropertyOp7
 70
     1
102
RTVSPropertyOp8
 70
     1
102
RTVSPropertyOp9
 70
     1
102
RTVSPropertyOp10
 70
     1
102
RTVSPropertyOp11
 70
     1
102
RTVSPropertyOp12
 70
     1
102
RTVSPropertyOp13
 70
     1
102
RTVSPropertyOp14
 70
     1
102
RTVSPropertyOp15
 70
     1
102
RTVSPropertyOp16
 70
     1
102
RTVSPropertyOp17
 70
     1
102
RTVSPropertyOp18
 70
     1
102
RTVSPropertyOp19
 70
     1
102
RTVSPropertyOp20
 70
     1
102
RTVSPropertyOp21
 70
     1
102
RTVSPropertyOp22
 70
     1
102
RTVSPropertyOp23
 70
     1
102
RTVSPropertyOp24
 70
     1
102
RTVSPropertyOp25
 70
     1
102
RTVSPropertyOp26
 70
     1
102
RTVSPropertyOp27
 70
     1
102
RTVSPropertyOp28
 70
     1
102
RTVSPropertyOp29
 70
     1
102
RTVSPropertyOp30
 70
     1
102
RTVSPropertyOp31
 70
     1
102
RTVSPropertyOp32
 70
     1
102
RTVSPropertyOp33
 70
     1
102
RTVSPropertyOp34
 70
     1
102
RTVSPropertyOp35
 70
     1
102
RTVSPropertyOp36
 70
     1
102
RTVSPropertyOp37
 70
     1
102
RTVSPropertyOp38
 70
     1
102
RTVSPropertyOp39
 70
     1
102
RTVSPropertyOp40
 70
     1
102
RTVSPropertyOp41
 70
     1
102
RTVSPropertyOp42
 70
     1
102
RTVSPropertyOp43
 70
     1
102
RTVSPropertyOp44
 70
     1
102
RTVSPropertyOp45
 70
     1
102
RTVSPropertyOp46
 70
     1
102
RTVSPropertyOp47
 70
     1
102
RTVSPropertyOp48
 70
     1
102
RTVSPropertyOp49
 70
     1
102
RTVSPropertyOp50
 70
     1
102
RTVSPropertyOp51
 70
     0
102
RTVSPropertyOp52
 70
     0
102
RTVSPropertyOp53
 70
     1
102
RTVSPropertyOp54
 70
     1
102
RTVSPropertyOp55
 70
     1
102
RTVSPropertyOp56
 70
     1
102
RTVSPropertyOp57
 70
     1
102
RTVSPropertyOp58
 70
     1
102
RTVSPropertyOp59
 70
     1
102
RTVSPropertyOp60
 70
     1
102
RTVSPropertyOp61
 70
     1
102
RTVSPropertyOp62
 70
     1
  0
XRECORD
  5
6A0D
102
{ACAD_REACTORS
330
6A0C
102
}
330
6A0C
100
AcDbXrecord
280
     1
102
RTVSPost2010Prop28
280
     0
102
RTVSPost2010PropOp28
 70
     1
102
RTVSPost2010Prop29
280
     1
102
RTVSPost2010PropOp29
 70
     1
102
RTVSPost2010Prop30
280
     1
102
RTVSPost2010PropOp30
 70
     1
102
RTVSPost2010Prop31
280
     0
102
RTVSPost2010PropOp31
 70
     1
102
RTVSPost2010Prop32
280
     0
102
RTVSPost2010PropOp32
 70
     1
102
RTVSPost2010Prop33
280
     0
102
RTVSPost2010PropOp33
 70
     1
102
RTVSPost2010Prop34
280
     0
102
RTVSPost2010PropOp34
 70
     1
102
RTVSPost2010Prop35
280
     0
102
RTVSPost2010PropOp35
 70
     1
102
RTVSPost2010Prop36
280
     0
102
RTVSPost2010PropOp36
 70
     1
102
RTVSPost2010Prop37
 90
       50
102
RTVSPost2010PropOp37
 70
     1
102
RTVSPost2010Prop38
140
0.0
102
RTVSPost2010PropOp38
 70
     1
102
RTVSPost2010Prop39
140
1.0
102
RTVSPost2010PropOp39
 70
     1
102
RTVSPost2010Prop40
 90
        0
102
RTVSPost2010PropOp40
 70
     1
102
RTVSPost2010Prop41ColorIndex
 90
       18
102
RTVSPost2010Prop41ColorRGB
 90
        0
102
RTVSPost2010PropOp41
 70
     1
102
RTVSPost2010Prop42
 90
       50
102
RTVSPost2010PropOp42
 70
     1
102
RTVSPost2010Prop43
 90
        3
102
RTVSPost2010PropOp43
 70
     1
102
RTVSPost2010Prop44ColorIndex
 90
        5
102
RTVSPost2010Prop44ColorRGB
 90
      255
102
RTVSPost2010PropOp44
 70
     1
102
RTVSPost2010Prop45
280
     0
102
RTVSPost2010PropOp45
 70
     1
102
RTVSPost2010Prop46
 90
       50
102
RTVSPost2010PropOp46
 70
     1
102
RTVSPost2010Prop47
 90
       50
102
RTVSPost2010PropOp47
 70
     1
102
RTVSPost2010Prop48
 90
       50
102
RTVSPost2010PropOp48
 70
     1
102
RTVSPost2010Prop49
280
     0
102
RTVSPost2010PropOp49
 70
     1
102
RTVSPost2010Prop50
 90
       50
102
RTVSPost2010PropOp50
 70
     1
102
RTVSPost2010Prop51ColorIndex
 90
      256
102
RTVSPost2010Prop51ColorRGB
 90
-16777216
102
RTVSPost2010PropOp51
 70
     0
102
RTVSPost2010Prop52
140
1.0
102
RTVSPost2010PropOp52
 70
     0
102
RTVSPost2010Prop53
 90
        2
102
RTVSPost2010PropOp53
 70
     1
102
RTVSPost2010Prop54
  1
strokes_ogs.tif
102
RTVSPost2010PropOp54
 70
     1
102
RTVSPost2010Prop55
280
     0
102
RTVSPost2010PropOp55
 70
     1
102
RTVSPost2010Prop56
140
1.0
102
RTVSPost2010PropOp56
 70
     1
102
RTVSPost2010Prop57
140
1.0
102
RTVSPost2010PropOp57
 70
     1
102
RTVSPropertyOp0
 70
     1
102
RTVSPropertyOp1
 70
     1
102
RTVSPropertyOp2
 70
     1
102
RTVSPropertyOp3
 70
     1
102
RTVSPropertyOp4
 70
     1
102
RTVSPropertyOp5
 70
     1
102
RTVSPropertyOp6
 70
     1
102
RTVSPropertyOp7
 70
     1
102
RTVSPropertyOp8
 70
     1
102
RTVSPropertyOp9
 70
     1
102
RTVSPropertyOp10
 70
     1
102
RTVSPropertyOp11
 70
     1
102
RTVSPropertyOp12
 70
     1
102
RTVSPropertyOp13
 70
     1
102
RTVSPropertyOp14
 70
     1
102
RTVSPropertyOp15
 70
     1
102
RTVSPropertyOp16
 70
     1
102
RTVSPropertyOp17
 70
     1
102
RTVSPropertyOp18
 70
     1
102
RTVSPropertyOp19
 70
     1
102
RTVSPropertyOp20
 70
     1
102
RTVSPropertyOp21
 70
     1
102
RTVSPropertyOp22
 70
     1
102
RTVSPropertyOp23
 70
     1
102
RTVSPropertyOp24
 70
     1
102
RTVSPropertyOp25
 70
     1
102
RTVSPropertyOp26
 70
     1
102
RTVSPropertyOp27
 70
     1
102
RTVSPropertyOp28
 70
     1
102
RTVSPropertyOp29
 70
     1
102
RTVSPropertyOp30
 70
     1
102
RTVSPropertyOp31
 70
     1
102
RTVSPropertyOp32
 70
     1
102
RTVSPropertyOp33
 70
     1
102
RTVSPropertyOp34
 70
     1
102
RTVSPropertyOp35
 70
     1
102
RTVSPropertyOp36
 70
     1
102
RTVSPropertyOp37
 70
     1
102
RTVSPropertyOp38
 70
     1
102
RTVSPropertyOp39
 70
     1
102
RTVSPropertyOp40
 70
     1
102
RTVSPropertyOp41
 70
     1
102
RTVSPropertyOp42
 70
     1
102
RTVSPropertyOp43
 70
     1
102
RTVSPropertyOp44
 70
     1
102
RTVSPropertyOp45
 70
     1
102
RTVSPropertyOp46
 70
     1
102
RTVSPropertyOp47
 70
     1
102
RTVSPropertyOp48
 70
     1
102
RTVSPropertyOp49
 70
     1
102
RTVSPropertyOp50
 70
     1
102
RTVSPropertyOp51
 70
     0
102
RTVSPropertyOp52
 70
     0
102
RTVSPropertyOp53
 70
     1
102
RTVSPropertyOp54
 70
     1
102
RTVSPropertyOp55
 70
     1
102
RTVSPropertyOp56
 70
     1
102
RTVSPropertyOp57
 70
     1
102
RTVSPropertyOp58
 70
     1
102
RTVSPropertyOp59
 70
     1
102
RTVSPropertyOp60
 70
     1
102
RTVSPropertyOp61
 70
     1
102
RTVSPropertyOp62
 70
     1
  0
XRECORD
  5
6A1D
102
{ACAD_REACTORS
330
6A1C
102
}
330
6A1C
100
AcDbXrecord
280
     1
102
RTVSPost2010Prop28
280
     0
102
RTVSPost2010PropOp28
 70
     1
102
RTVSPost2010Prop29
280
     1
102
RTVSPost2010PropOp29
 70
     1
102
RTVSPost2010Prop30
280
     1
102
RTVSPost2010PropOp30
 70
     1
102
RTVSPost2010Prop31
280
     0
102
RTVSPost2010PropOp31
 70
     1
102
RTVSPost2010Prop32
280
     0
102
RTVSPost2010PropOp32
 70
     1
102
RTVSPost2010Prop33
280
     0
102
RTVSPost2010PropOp33
 70
     1
102
RTVSPost2010Prop34
280
     0
102
RTVSPost2010PropOp34
 70
     1
102
RTVSPost2010Prop35
280
     0
102
RTVSPost2010PropOp35
 70
     1
102
RTVSPost2010Prop36
280
     0
102
RTVSPost2010PropOp36
 70
     1
102
RTVSPost2010Prop37
 90
       50
102
RTVSPost2010PropOp37
 70
     1
102
RTVSPost2010Prop38
140
0.0
102
RTVSPost2010PropOp38
 70
     1
102
RTVSPost2010Prop39
140
1.0
102
RTVSPost2010PropOp39
 70
     1
102
RTVSPost2010Prop40
 90
        0
102
RTVSPost2010PropOp40
 70
     1
102
RTVSPost2010Prop41ColorIndex
 90
       18
102
RTVSPost2010Prop41ColorRGB
 90
        0
102
RTVSPost2010PropOp41
 70
     1
102
RTVSPost2010Prop42
 90
       50
102
RTVSPost2010PropOp42
 70
     1
102
RTVSPost2010Prop43
 90
        3
102
RTVSPost2010PropOp43
 70
     1
102
RTVSPost2010Prop44ColorIndex
 90
        5
102
RTVSPost2010Prop44ColorRGB
 90
      255
102
RTVSPost2010PropOp44
 70
     1
102
RTVSPost2010Prop45
280
     0
102
RTVSPost2010PropOp45
 70
     1
102
RTVSPost2010Prop46
 90
       50
102
RTVSPost2010PropOp46
 70
     1
102
RTVSPost2010Prop47
 90
       50
102
RTVSPost2010PropOp47
 70
     1
102
RTVSPost2010Prop48
 90
       50
102
RTVSPost2010PropOp48
 70
     1
102
RTVSPost2010Prop49
280
     0
102
RTVSPost2010PropOp49
 70
     1
102
RTVSPost2010Prop50
 90
       50
102
RTVSPost2010PropOp50
 70
     1
102
RTVSPost2010Prop51ColorIndex
 90
      256
102
RTVSPost2010Prop51ColorRGB
 90
-16777216
102
RTVSPost2010PropOp51
 70
     0
102
RTVSPost2010Prop52
140
1.0
102
RTVSPost2010PropOp52
 70
     0
102
RTVSPost2010Prop53
 90
        2
102
RTVSPost2010PropOp53
 70
     1
102
RTVSPost2010Prop54
  1
strokes_ogs.tif
102
RTVSPost2010PropOp54
 70
     1
102
RTVSPost2010Prop55
280
     0
102
RTVSPost2010PropOp55
 70
     1
102
RTVSPost2010Prop56
140
1.0
102
RTVSPost2010PropOp56
 70
     1
102
RTVSPost2010Prop57
140
1.0
102
RTVSPost2010PropOp57
 70
     1
102
RTVSPropertyOp0
 70
     0
102
RTVSPropertyOp1
 70
     0
102
RTVSPropertyOp2
 70
     0
102
RTVSPropertyOp3
 70
     0
102
RTVSPropertyOp4
 70
     0
102
RTVSPropertyOp5
 70
     0
102
RTVSPropertyOp6
 70
     0
102
RTVSPropertyOp7
 70
     0
102
RTVSPropertyOp8
 70
     0
102
RTVSPropertyOp9
 70
     0
102
RTVSPropertyOp10
 70
     0
102
RTVSPropertyOp11
 70
     0
102
RTVSPropertyOp12
 70
     0
102
RTVSPropertyOp13
 70
     0
102
RTVSPropertyOp14
 70
     2
102
RTVSPropertyOp15
 70
     0
102
RTVSPropertyOp16
 70
     0
102
RTVSPropertyOp17
 70
     0
102
RTVSPropertyOp18
 70
     0
102
RTVSPropertyOp19
 70
     0
102
RTVSPropertyOp20
 70
     0
102
RTVSPropertyOp21
 70
     0
102
RTVSPropertyOp22
 70
     0
102
RTVSPropertyOp23
 70
     0
102
RTVSPropertyOp24
 70
     0
102
RTVSPropertyOp25
 70
     0
102
RTVSPropertyOp26
 70
     0
102
RTVSPropertyOp27
 70
     0
102
RTVSPropertyOp28
 70
     1
102
RTVSPropertyOp29
 70
     1
102
RTVSPropertyOp30
 70
     1
102
RTVSPropertyOp31
 70
     1
102
RTVSPropertyOp32
 70
     1
102
RTVSPropertyOp33
 70
     1
102
RTVSPropertyOp34
 70
     1
102
RTVSPropertyOp35
 70
     1
102
RTVSPropertyOp36
 70
     1
102
RTVSPropertyOp37
 70
     1
102
RTVSPropertyOp38
 70
     1
102
RTVSPropertyOp39
 70
     1
102
RTVSPropertyOp40
 70
     1
102
RTVSPropertyOp41
 70
     1
102
RTVSPropertyOp42
 70
     1
102
RTVSPropertyOp43
 70
     1
102
RTVSPropertyOp44
 70
     1
102
RTVSPropertyOp45
 70
     1
102
RTVSPropertyOp46
 70
     1
102
RTVSPropertyOp47
 70
     1
102
RTVSPropertyOp48
 70
     1
102
RTVSPropertyOp49
 70
     1
102
RTVSPropertyOp50
 70
     1
102
RTVSPropertyOp51
 70
     0
102
RTVSPropertyOp52
 70
     0
102
RTVSPropertyOp53
 70
     1
102
RTVSPropertyOp54
 70
     1
102
RTVSPropertyOp55
 70
     1
102
RTVSPropertyOp56
 70
     1
102
RTVSPropertyOp57
 70
     1
102
RTVSPropertyOp58
 70
     1
102
RTVSPropertyOp59
 70
     1
102
RTVSPropertyOp60
 70
     1
102
RTVSPropertyOp61
 70
     1
102
RTVSPropertyOp62
 70
     1
  0
XRECORD
  5
6A15
102
{ACAD_REACTORS
330
6A14
102
}
330
6A14
100
AcDbXrecord
280
     1
102
RTVSPost2010Prop28
280
     0
102
RTVSPost2010PropOp28
 70
     1
102
RTVSPost2010Prop29
280
     1
102
RTVSPost2010PropOp29
 70
     1
102
RTVSPost2010Prop30
280
     1
102
RTVSPost2010PropOp30
 70
     1
102
RTVSPost2010Prop31
280
     0
102
RTVSPost2010PropOp31
 70
     1
102
RTVSPost2010Prop32
280
     0
102
RTVSPost2010PropOp32
 70
     1
102
RTVSPost2010Prop33
280
     0
102
RTVSPost2010PropOp33
 70
     1
102
RTVSPost2010Prop34
280
     0
102
RTVSPost2010PropOp34
 70
     1
102
RTVSPost2010Prop35
280
     0
102
RTVSPost2010PropOp35
 70
     1
102
RTVSPost2010Prop36
280
     0
102
RTVSPost2010PropOp36
 70
     1
102
RTVSPost2010Prop37
 90
       50
102
RTVSPost2010PropOp37
 70
     1
102
RTVSPost2010Prop38
140
0.0
102
RTVSPost2010PropOp38
 70
     1
102
RTVSPost2010Prop39
140
1.0
102
RTVSPost2010PropOp39
 70
     1
102
RTVSPost2010Prop40
 90
        0
102
RTVSPost2010PropOp40
 70
     1
102
RTVSPost2010Prop41ColorIndex
 90
       18
102
RTVSPost2010Prop41ColorRGB
 90
        0
102
RTVSPost2010PropOp41
 70
     1
102
RTVSPost2010Prop42
 90
       50
102
RTVSPost2010PropOp42
 70
     1
102
RTVSPost2010Prop43
 90
        3
102
RTVSPost2010PropOp43
 70
     1
102
RTVSPost2010Prop44ColorIndex
 90
        5
102
RTVSPost2010Prop44ColorRGB
 90
      255
102
RTVSPost2010PropOp44
 70
     1
102
RTVSPost2010Prop45
280
     0
102
RTVSPost2010PropOp45
 70
     1
102
RTVSPost2010Prop46
 90
       50
102
RTVSPost2010PropOp46
 70
     1
102
RTVSPost2010Prop47
 90
       50
102
RTVSPost2010PropOp47
 70
     1
102
RTVSPost2010Prop48
 90
       50
102
RTVSPost2010PropOp48
 70
     1
102
RTVSPost2010Prop49
280
     0
102
RTVSPost2010PropOp49
 70
     1
102
RTVSPost2010Prop50
 90
       50
102
RTVSPost2010PropOp50
 70
     1
102
RTVSPost2010Prop51ColorIndex
 90
      256
102
RTVSPost2010Prop51ColorRGB
 90
-16777216
102
RTVSPost2010PropOp51
 70
     0
102
RTVSPost2010Prop52
140
1.0
102
RTVSPost2010PropOp52
 70
     0
102
RTVSPost2010Prop53
 90
        2
102
RTVSPost2010PropOp53
 70
     1
102
RTVSPost2010Prop54
  1
strokes_ogs.tif
102
RTVSPost2010PropOp54
 70
     1
102
RTVSPost2010Prop55
280
     0
102
RTVSPost2010PropOp55
 70
     1
102
RTVSPost2010Prop56
140
1.0
102
RTVSPost2010PropOp56
 70
     1
102
RTVSPost2010Prop57
140
1.0
102
RTVSPost2010PropOp57
 70
     1
102
RTVSPropertyOp0
 70
     1
102
RTVSPropertyOp1
 70
     1
102
RTVSPropertyOp2
 70
     1
102
RTVSPropertyOp3
 70
     1
102
RTVSPropertyOp4
 70
     1
102
RTVSPropertyOp5
 70
     1
102
RTVSPropertyOp6
 70
     1
102
RTVSPropertyOp7
 70
     1
102
RTVSPropertyOp8
 70
     1
102
RTVSPropertyOp9
 70
     1
102
RTVSPropertyOp10
 70
     1
102
RTVSPropertyOp11
 70
     1
102
RTVSPropertyOp12
 70
     1
102
RTVSPropertyOp13
 70
     1
102
RTVSPropertyOp14
 70
     1
102
RTVSPropertyOp15
 70
     1
102
RTVSPropertyOp16
 70
     1
102
RTVSPropertyOp17
 70
     1
102
RTVSPropertyOp18
 70
     1
102
RTVSPropertyOp19
 70
     1
102
RTVSPropertyOp20
 70
     1
102
RTVSPropertyOp21
 70
     1
102
RTVSPropertyOp22
 70
     1
102
RTVSPropertyOp23
 70
     1
102
RTVSPropertyOp24
 70
     1
102
RTVSPropertyOp25
 70
     1
102
RTVSPropertyOp26
 70
     1
102
RTVSPropertyOp27
 70
     1
102
RTVSPropertyOp28
 70
     1
102
RTVSPropertyOp29
 70
     1
102
RTVSPropertyOp30
 70
     1
102
RTVSPropertyOp31
 70
     1
102
RTVSPropertyOp32
 70
     1
102
RTVSPropertyOp33
 70
     1
102
RTVSPropertyOp34
 70
     1
102
RTVSPropertyOp35
 70
     1
102
RTVSPropertyOp36
 70
     1
102
RTVSPropertyOp37
 70
     1
102
RTVSPropertyOp38
 70
     1
102
RTVSPropertyOp39
 70
     1
102
RTVSPropertyOp40
 70
     1
102
RTVSPropertyOp41
 70
     1
102
RTVSPropertyOp42
 70
     1
102
RTVSPropertyOp43
 70
     1
102
RTVSPropertyOp44
 70
     1
102
RTVSPropertyOp45
 70
     1
102
RTVSPropertyOp46
 70
     1
102
RTVSPropertyOp47
 70
     1
102
RTVSPropertyOp48
 70
     1
102
RTVSPropertyOp49
 70
     1
102
RTVSPropertyOp50
 70
     1
102
RTVSPropertyOp51
 70
     0
102
RTVSPropertyOp52
 70
     0
102
RTVSPropertyOp53
 70
     1
102
RTVSPropertyOp54
 70
     1
102
RTVSPropertyOp55
 70
     1
102
RTVSPropertyOp56
 70
     1
102
RTVSPropertyOp57
 70
     1
102
RTVSPropertyOp58
 70
     1
102
RTVSPropertyOp59
 70
     1
102
RTVSPropertyOp60
 70
     1
102
RTVSPropertyOp61
 70
     1
102
RTVSPropertyOp62
 70
     1
  0
XRECORD
  5
69F9
102
{ACAD_REACTORS
330
69F8
102
}
330
69F8
100
AcDbXrecord
280
     1
102
RTVSPost2010Prop28
280
     0
102
RTVSPost2010PropOp28
 70
     1
102
RTVSPost2010Prop29
280
     1
102
RTVSPost2010PropOp29
 70
     1
102
RTVSPost2010Prop30
280
     1
102
RTVSPost2010PropOp30
 70
     1
102
RTVSPost2010Prop31
280
     0
102
RTVSPost2010PropOp31
 70
     1
102
RTVSPost2010Prop32
280
     0
102
RTVSPost2010PropOp32
 70
     1
102
RTVSPost2010Prop33
280
     0
102
RTVSPost2010PropOp33
 70
     1
102
RTVSPost2010Prop34
280
     0
102
RTVSPost2010PropOp34
 70
     1
102
RTVSPost2010Prop35
280
     0
102
RTVSPost2010PropOp35
 70
     1
102
RTVSPost2010Prop36
280
     0
102
RTVSPost2010PropOp36
 70
     1
102
RTVSPost2010Prop37
 90
       50
102
RTVSPost2010PropOp37
 70
     1
102
RTVSPost2010Prop38
140
0.0
102
RTVSPost2010PropOp38
 70
     1
102
RTVSPost2010Prop39
140
1.0
102
RTVSPost2010PropOp39
 70
     1
102
RTVSPost2010Prop40
 90
        0
102
RTVSPost2010PropOp40
 70
     1
102
RTVSPost2010Prop41ColorIndex
 90
       18
102
RTVSPost2010Prop41ColorRGB
 90
        0
102
RTVSPost2010PropOp41
 70
     1
102
RTVSPost2010Prop42
 90
       50
102
RTVSPost2010PropOp42
 70
     1
102
RTVSPost2010Prop43
 90
        3
102
RTVSPost2010PropOp43
 70
     1
102
RTVSPost2010Prop44ColorIndex
 90
        5
102
RTVSPost2010Prop44ColorRGB
 90
      255
102
RTVSPost2010PropOp44
 70
     1
102
RTVSPost2010Prop45
280
     0
102
RTVSPost2010PropOp45
 70
     1
102
RTVSPost2010Prop46
 90
       50
102
RTVSPost2010PropOp46
 70
     1
102
RTVSPost2010Prop47
 90
       50
102
RTVSPost2010PropOp47
 70
     1
102
RTVSPost2010Prop48
 90
       50
102
RTVSPost2010PropOp48
 70
     1
102
RTVSPost2010Prop49
280
     0
102
RTVSPost2010PropOp49
 70
     1
102
RTVSPost2010Prop50
 90
       50
102
RTVSPost2010PropOp50
 70
     1
102
RTVSPost2010Prop51ColorIndex
 90
      256
102
RTVSPost2010Prop51ColorRGB
 90
-16777216
102
RTVSPost2010PropOp51
 70
     0
102
RTVSPost2010Prop52
140
1.0
102
RTVSPost2010PropOp52
 70
     0
102
RTVSPost2010Prop53
 90
        2
102
RTVSPost2010PropOp53
 70
     1
102
RTVSPost2010Prop54
  1
strokes_ogs.tif
102
RTVSPost2010PropOp54
 70
     1
102
RTVSPost2010Prop55
280
     0
102
RTVSPost2010PropOp55
 70
     1
102
RTVSPost2010Prop56
140
1.0
102
RTVSPost2010PropOp56
 70
     1
102
RTVSPost2010Prop57
140
1.0
102
RTVSPost2010PropOp57
 70
     1
102
RTVSPropertyOp0
 70
     1
102
RTVSPropertyOp1
 70
     1
102
RTVSPropertyOp2
 70
     1
102
RTVSPropertyOp3
 70
     1
102
RTVSPropertyOp4
 70
     1
102
RTVSPropertyOp5
 70
     1
102
RTVSPropertyOp6
 70
     1
102
RTVSPropertyOp7
 70
     1
102
RTVSPropertyOp8
 70
     1
102
RTVSPropertyOp9
 70
     1
102
RTVSPropertyOp10
 70
     1
102
RTVSPropertyOp11
 70
     1
102
RTVSPropertyOp12
 70
     1
102
RTVSPropertyOp13
 70
     1
102
RTVSPropertyOp14
 70
     1
102
RTVSPropertyOp15
 70
     1
102
RTVSPropertyOp16
 70
     1
102
RTVSPropertyOp17
 70
     1
102
RTVSPropertyOp18
 70
     1
102
RTVSPropertyOp19
 70
     1
102
RTVSPropertyOp20
 70
     1
102
RTVSPropertyOp21
 70
     1
102
RTVSPropertyOp22
 70
     1
102
RTVSPropertyOp23
 70
     1
102
RTVSPropertyOp24
 70
     1
102
RTVSPropertyOp25
 70
     1
102
RTVSPropertyOp26
 70
     1
102
RTVSPropertyOp27
 70
     1
102
RTVSPropertyOp28
 70
     1
102
RTVSPropertyOp29
 70
     1
102
RTVSPropertyOp30
 70
     1
102
RTVSPropertyOp31
 70
     1
102
RTVSPropertyOp32
 70
     1
102
RTVSPropertyOp33
 70
     1
102
RTVSPropertyOp34
 70
     1
102
RTVSPropertyOp35
 70
     1
102
RTVSPropertyOp36
 70
     1
102
RTVSPropertyOp37
 70
     1
102
RTVSPropertyOp38
 70
     1
102
RTVSPropertyOp39
 70
     1
102
RTVSPropertyOp40
 70
     1
102
RTVSPropertyOp41
 70
     1
102
RTVSPropertyOp42
 70
     1
102
RTVSPropertyOp43
 70
     1
102
RTVSPropertyOp44
 70
     1
102
RTVSPropertyOp45
 70
     1
102
RTVSPropertyOp46
 70
     1
102
RTVSPropertyOp47
 70
     1
102
RTVSPropertyOp48
 70
     1
102
RTVSPropertyOp49
 70
     1
102
RTVSPropertyOp50
 70
     1
102
RTVSPropertyOp51
 70
     0
102
RTVSPropertyOp52
 70
     0
102
RTVSPropertyOp53
 70
     1
102
RTVSPropertyOp54
 70
     1
102
RTVSPropertyOp55
 70
     1
102
RTVSPropertyOp56
 70
     1
102
RTVSPropertyOp57
 70
     1
102
RTVSPropertyOp58
 70
     1
102
RTVSPropertyOp59
 70
     1
102
RTVSPropertyOp60
 70
     1
102
RTVSPropertyOp61
 70
     1
102
RTVSPropertyOp62
 70
     1
  0
XRECORD
  5
69FB
102
{ACAD_REACTORS
330
69FA
102
}
330
69FA
100
AcDbXrecord
280
     1
102
RTVSPost2010Prop28
280
     0
102
RTVSPost2010PropOp28
 70
     1
102
RTVSPost2010Prop29
280
     1
102
RTVSPost2010PropOp29
 70
     1
102
RTVSPost2010Prop30
280
     1
102
RTVSPost2010PropOp30
 70
     1
102
RTVSPost2010Prop31
280
     0
102
RTVSPost2010PropOp31
 70
     1
102
RTVSPost2010Prop32
280
     0
102
RTVSPost2010PropOp32
 70
     1
102
RTVSPost2010Prop33
280
     0
102
RTVSPost2010PropOp33
 70
     1
102
RTVSPost2010Prop34
280
     0
102
RTVSPost2010PropOp34
 70
     1
102
RTVSPost2010Prop35
280
     0
102
RTVSPost2010PropOp35
 70
     1
102
RTVSPost2010Prop36
280
     0
102
RTVSPost2010PropOp36
 70
     1
102
RTVSPost2010Prop37
 90
       50
102
RTVSPost2010PropOp37
 70
     1
102
RTVSPost2010Prop38
140
0.0
102
RTVSPost2010PropOp38
 70
     1
102
RTVSPost2010Prop39
140
1.0
102
RTVSPost2010PropOp39
 70
     1
102
RTVSPost2010Prop40
 90
        0
102
RTVSPost2010PropOp40
 70
     1
102
RTVSPost2010Prop41ColorIndex
 90
       18
102
RTVSPost2010Prop41ColorRGB
 90
        0
102
RTVSPost2010PropOp41
 70
     1
102
RTVSPost2010Prop42
 90
       50
102
RTVSPost2010PropOp42
 70
     1
102
RTVSPost2010Prop43
 90
        3
102
RTVSPost2010PropOp43
 70
     1
102
RTVSPost2010Prop44ColorIndex
 90
        5
102
RTVSPost2010Prop44ColorRGB
 90
      255
102
RTVSPost2010PropOp44
 70
     1
102
RTVSPost2010Prop45
280
     0
102
RTVSPost2010PropOp45
 70
     1
102
RTVSPost2010Prop46
 90
       50
102
RTVSPost2010PropOp46
 70
     1
102
RTVSPost2010Prop47
 90
       50
102
RTVSPost2010PropOp47
 70
     1
102
RTVSPost2010Prop48
 90
       50
102
RTVSPost2010PropOp48
 70
     1
102
RTVSPost2010Prop49
280
     0
102
RTVSPost2010PropOp49
 70
     1
102
RTVSPost2010Prop50
 90
       50
102
RTVSPost2010PropOp50
 70
     1
102
RTVSPost2010Prop51ColorIndex
 90
      256
102
RTVSPost2010Prop51ColorRGB
 90
-16777216
102
RTVSPost2010PropOp51
 70
     0
102
RTVSPost2010Prop52
140
1.0
102
RTVSPost2010PropOp52
 70
     0
102
RTVSPost2010Prop53
 90
        2
102
RTVSPost2010PropOp53
 70
     1
102
RTVSPost2010Prop54
  1
strokes_ogs.tif
102
RTVSPost2010PropOp54
 70
     1
102
RTVSPost2010Prop55
280
     0
102
RTVSPost2010PropOp55
 70
     1
102
RTVSPost2010Prop56
140
1.0
102
RTVSPost2010PropOp56
 70
     1
102
RTVSPost2010Prop57
140
1.0
102
RTVSPost2010PropOp57
 70
     1
102
RTVSPropertyOp0
 70
     1
102
RTVSPropertyOp1
 70
     1
102
RTVSPropertyOp2
 70
     1
102
RTVSPropertyOp3
 70
     1
102
RTVSPropertyOp4
 70
     1
102
RTVSPropertyOp5
 70
     1
102
RTVSPropertyOp6
 70
     1
102
RTVSPropertyOp7
 70
     1
102
RTVSPropertyOp8
 70
     1
102
RTVSPropertyOp9
 70
     1
102
RTVSPropertyOp10
 70
     1
102
RTVSPropertyOp11
 70
     1
102
RTVSPropertyOp12
 70
     1
102
RTVSPropertyOp13
 70
     1
102
RTVSPropertyOp14
 70
     1
102
RTVSPropertyOp15
 70
     1
102
RTVSPropertyOp16
 70
     1
102
RTVSPropertyOp17
 70
     1
102
RTVSPropertyOp18
 70
     1
102
RTVSPropertyOp19
 70
     1
102
RTVSPropertyOp20
 70
     1
102
RTVSPropertyOp21
 70
     1
102
RTVSPropertyOp22
 70
     1
102
RTVSPropertyOp23
 70
     1
102
RTVSPropertyOp24
 70
     1
102
RTVSPropertyOp25
 70
     1
102
RTVSPropertyOp26
 70
     1
102
RTVSPropertyOp27
 70
     1
102
RTVSPropertyOp28
 70
     1
102
RTVSPropertyOp29
 70
     1
102
RTVSPropertyOp30
 70
     1
102
RTVSPropertyOp31
 70
     1
102
RTVSPropertyOp32
 70
     1
102
RTVSPropertyOp33
 70
     1
102
RTVSPropertyOp34
 70
     1
102
RTVSPropertyOp35
 70
     1
102
RTVSPropertyOp36
 70
     1
102
RTVSPropertyOp37
 70
     1
102
RTVSPropertyOp38
 70
     1
102
RTVSPropertyOp39
 70
     1
102
RTVSPropertyOp40
 70
     1
102
RTVSPropertyOp41
 70
     1
102
RTVSPropertyOp42
 70
     1
102
RTVSPropertyOp43
 70
     1
102
RTVSPropertyOp44
 70
     1
102
RTVSPropertyOp45
 70
     1
102
RTVSPropertyOp46
 70
     1
102
RTVSPropertyOp47
 70
     1
102
RTVSPropertyOp48
 70
     1
102
RTVSPropertyOp49
 70
     1
102
RTVSPropertyOp50
 70
     1
102
RTVSPropertyOp51
 70
     0
102
RTVSPropertyOp52
 70
     0
102
RTVSPropertyOp53
 70
     1
102
RTVSPropertyOp54
 70
     1
102
RTVSPropertyOp55
 70
     1
102
RTVSPropertyOp56
 70
     1
102
RTVSPropertyOp57
 70
     1
102
RTVSPropertyOp58
 70
     1
102
RTVSPropertyOp59
 70
     1
102
RTVSPropertyOp60
 70
     1
102
RTVSPropertyOp61
 70
     1
102
RTVSPropertyOp62
 70
     1
  0
XRECORD
  5
69FD
102
{ACAD_REACTORS
330
69FC
102
}
330
69FC
100
AcDbXrecord
280
     1
102
RTVSPost2010Prop28
280
     0
102
RTVSPost2010PropOp28
 70
     1
102
RTVSPost2010Prop29
280
     1
102
RTVSPost2010PropOp29
 70
     1
102
RTVSPost2010Prop30
280
     1
102
RTVSPost2010PropOp30
 70
     1
102
RTVSPost2010Prop31
280
     0
102
RTVSPost2010PropOp31
 70
     1
102
RTVSPost2010Prop32
280
     0
102
RTVSPost2010PropOp32
 70
     1
102
RTVSPost2010Prop33
280
     0
102
RTVSPost2010PropOp33
 70
     1
102
RTVSPost2010Prop34
280
     0
102
RTVSPost2010PropOp34
 70
     1
102
RTVSPost2010Prop35
280
     0
102
RTVSPost2010PropOp35
 70
     1
102
RTVSPost2010Prop36
280
     0
102
RTVSPost2010PropOp36
 70
     1
102
RTVSPost2010Prop37
 90
       50
102
RTVSPost2010PropOp37
 70
     1
102
RTVSPost2010Prop38
140
0.0
102
RTVSPost2010PropOp38
 70
     1
102
RTVSPost2010Prop39
140
1.0
102
RTVSPost2010PropOp39
 70
     1
102
RTVSPost2010Prop40
 90
        0
102
RTVSPost2010PropOp40
 70
     1
102
RTVSPost2010Prop41ColorIndex
 90
       18
102
RTVSPost2010Prop41ColorRGB
 90
        0
102
RTVSPost2010PropOp41
 70
     1
102
RTVSPost2010Prop42
 90
       50
102
RTVSPost2010PropOp42
 70
     1
102
RTVSPost2010Prop43
 90
        3
102
RTVSPost2010PropOp43
 70
     1
102
RTVSPost2010Prop44ColorIndex
 90
        5
102
RTVSPost2010Prop44ColorRGB
 90
      255
102
RTVSPost2010PropOp44
 70
     1
102
RTVSPost2010Prop45
280
     0
102
RTVSPost2010PropOp45
 70
     1
102
RTVSPost2010Prop46
 90
       50
102
RTVSPost2010PropOp46
 70
     1
102
RTVSPost2010Prop47
 90
       50
102
RTVSPost2010PropOp47
 70
     1
102
RTVSPost2010Prop48
 90
       50
102
RTVSPost2010PropOp48
 70
     1
102
RTVSPost2010Prop49
280
     0
102
RTVSPost2010PropOp49
 70
     1
102
RTVSPost2010Prop50
 90
       50
102
RTVSPost2010PropOp50
 70
     1
102
RTVSPost2010Prop51ColorIndex
 90
      256
102
RTVSPost2010Prop51ColorRGB
 90
-16777216
102
RTVSPost2010PropOp51
 70
     0
102
RTVSPost2010Prop52
140
1.0
102
RTVSPost2010PropOp52
 70
     0
102
RTVSPost2010Prop53
 90
        2
102
RTVSPost2010PropOp53
 70
     1
102
RTVSPost2010Prop54
  1
strokes_ogs.tif
102
RTVSPost2010PropOp54
 70
     1
102
RTVSPost2010Prop55
280
     0
102
RTVSPost2010PropOp55
 70
     1
102
RTVSPost2010Prop56
140
1.0
102
RTVSPost2010PropOp56
 70
     1
102
RTVSPost2010Prop57
140
1.0
102
RTVSPost2010PropOp57
 70
     1
102
RTVSPropertyOp0
 70
     1
102
RTVSPropertyOp1
 70
     1
102
RTVSPropertyOp2
 70
     1
102
RTVSPropertyOp3
 70
     1
102
RTVSPropertyOp4
 70
     1
102
RTVSPropertyOp5
 70
     1
102
RTVSPropertyOp6
 70
     1
102
RTVSPropertyOp7
 70
     1
102
RTVSPropertyOp8
 70
     1
102
RTVSPropertyOp9
 70
     1
102
RTVSPropertyOp10
 70
     1
102
RTVSPropertyOp11
 70
     1
102
RTVSPropertyOp12
 70
     1
102
RTVSPropertyOp13
 70
     1
102
RTVSPropertyOp14
 70
     1
102
RTVSPropertyOp15
 70
     1
102
RTVSPropertyOp16
 70
     1
102
RTVSPropertyOp17
 70
     1
102
RTVSPropertyOp18
 70
     1
102
RTVSPropertyOp19
 70
     1
102
RTVSPropertyOp20
 70
     1
102
RTVSPropertyOp21
 70
     1
102
RTVSPropertyOp22
 70
     1
102
RTVSPropertyOp23
 70
     1
102
RTVSPropertyOp24
 70
     1
102
RTVSPropertyOp25
 70
     1
102
RTVSPropertyOp26
 70
     1
102
RTVSPropertyOp27
 70
     1
102
RTVSPropertyOp28
 70
     1
102
RTVSPropertyOp29
 70
     1
102
RTVSPropertyOp30
 70
     1
102
RTVSPropertyOp31
 70
     1
102
RTVSPropertyOp32
 70
     1
102
RTVSPropertyOp33
 70
     1
102
RTVSPropertyOp34
 70
     1
102
RTVSPropertyOp35
 70
     1
102
RTVSPropertyOp36
 70
     1
102
RTVSPropertyOp37
 70
     1
102
RTVSPropertyOp38
 70
     1
102
RTVSPropertyOp39
 70
     1
102
RTVSPropertyOp40
 70
     1
102
RTVSPropertyOp41
 70
     1
102
RTVSPropertyOp42
 70
     1
102
RTVSPropertyOp43
 70
     1
102
RTVSPropertyOp44
 70
     1
102
RTVSPropertyOp45
 70
     1
102
RTVSPropertyOp46
 70
     1
102
RTVSPropertyOp47
 70
     1
102
RTVSPropertyOp48
 70
     1
102
RTVSPropertyOp49
 70
     1
102
RTVSPropertyOp50
 70
     1
102
RTVSPropertyOp51
 70
     0
102
RTVSPropertyOp52
 70
     0
102
RTVSPropertyOp53
 70
     1
102
RTVSPropertyOp54
 70
     1
102
RTVSPropertyOp55
 70
     1
102
RTVSPropertyOp56
 70
     1
102
RTVSPropertyOp57
 70
     1
102
RTVSPropertyOp58
 70
     1
102
RTVSPropertyOp59
 70
     1
102
RTVSPropertyOp60
 70
     1
102
RTVSPropertyOp61
 70
     1
102
RTVSPropertyOp62
 70
     1
  0
XRECORD
  5
69FF
102
{ACAD_REACTORS
330
69FE
102
}
330
69FE
100
AcDbXrecord
280
     1
102
RTVSPost2010Prop28
280
     0
102
RTVSPost2010PropOp28
 70
     1
102
RTVSPost2010Prop29
280
     1
102
RTVSPost2010PropOp29
 70
     1
102
RTVSPost2010Prop30
280
     1
102
RTVSPost2010PropOp30
 70
     1
102
RTVSPost2010Prop31
280
     0
102
RTVSPost2010PropOp31
 70
     1
102
RTVSPost2010Prop32
280
     0
102
RTVSPost2010PropOp32
 70
     1
102
RTVSPost2010Prop33
280
     0
102
RTVSPost2010PropOp33
 70
     1
102
RTVSPost2010Prop34
280
     0
102
RTVSPost2010PropOp34
 70
     1
102
RTVSPost2010Prop35
280
     0
102
RTVSPost2010PropOp35
 70
     1
102
RTVSPost2010Prop36
280
     0
102
RTVSPost2010PropOp36
 70
     1
102
RTVSPost2010Prop37
 90
       50
102
RTVSPost2010PropOp37
 70
     1
102
RTVSPost2010Prop38
140
0.0
102
RTVSPost2010PropOp38
 70
     1
102
RTVSPost2010Prop39
140
1.0
102
RTVSPost2010PropOp39
 70
     1
102
RTVSPost2010Prop40
 90
        0
102
RTVSPost2010PropOp40
 70
     1
102
RTVSPost2010Prop41ColorIndex
 90
       18
102
RTVSPost2010Prop41ColorRGB
 90
        0
102
RTVSPost2010PropOp41
 70
     1
102
RTVSPost2010Prop42
 90
       50
102
RTVSPost2010PropOp42
 70
     1
102
RTVSPost2010Prop43
 90
        3
102
RTVSPost2010PropOp43
 70
     1
102
RTVSPost2010Prop44ColorIndex
 90
        5
102
RTVSPost2010Prop44ColorRGB
 90
      255
102
RTVSPost2010PropOp44
 70
     1
102
RTVSPost2010Prop45
280
     0
102
RTVSPost2010PropOp45
 70
     1
102
RTVSPost2010Prop46
 90
       50
102
RTVSPost2010PropOp46
 70
     1
102
RTVSPost2010Prop47
 90
       50
102
RTVSPost2010PropOp47
 70
     1
102
RTVSPost2010Prop48
 90
       50
102
RTVSPost2010PropOp48
 70
     1
102
RTVSPost2010Prop49
280
     0
102
RTVSPost2010PropOp49
 70
     1
102
RTVSPost2010Prop50
 90
       50
102
RTVSPost2010PropOp50
 70
     1
102
RTVSPost2010Prop51ColorIndex
 90
      256
102
RTVSPost2010Prop51ColorRGB
 90
-16777216
102
RTVSPost2010PropOp51
 70
     0
102
RTVSPost2010Prop52
140
1.0
102
RTVSPost2010PropOp52
 70
     0
102
RTVSPost2010Prop53
 90
        2
102
RTVSPost2010PropOp53
 70
     1
102
RTVSPost2010Prop54
  1
strokes_ogs.tif
102
RTVSPost2010PropOp54
 70
     1
102
RTVSPost2010Prop55
280
     0
102
RTVSPost2010PropOp55
 70
     1
102
RTVSPost2010Prop56
140
1.0
102
RTVSPost2010PropOp56
 70
     1
102
RTVSPost2010Prop57
140
1.0
102
RTVSPost2010PropOp57
 70
     1
102
RTVSPropertyOp0
 70
     1
102
RTVSPropertyOp1
 70
     1
102
RTVSPropertyOp2
 70
     1
102
RTVSPropertyOp3
 70
     1
102
RTVSPropertyOp4
 70
     1
102
RTVSPropertyOp5
 70
     1
102
RTVSPropertyOp6
 70
     1
102
RTVSPropertyOp7
 70
     1
102
RTVSPropertyOp8
 70
     1
102
RTVSPropertyOp9
 70
     1
102
RTVSPropertyOp10
 70
     1
102
RTVSPropertyOp11
 70
     1
102
RTVSPropertyOp12
 70
     1
102
RTVSPropertyOp13
 70
     1
102
RTVSPropertyOp14
 70
     1
102
RTVSPropertyOp15
 70
     1
102
RTVSPropertyOp16
 70
     1
102
RTVSPropertyOp17
 70
     1
102
RTVSPropertyOp18
 70
     1
102
RTVSPropertyOp19
 70
     1
102
RTVSPropertyOp20
 70
     1
102
RTVSPropertyOp21
 70
     1
102
RTVSPropertyOp22
 70
     1
102
RTVSPropertyOp23
 70
     1
102
RTVSPropertyOp24
 70
     1
102
RTVSPropertyOp25
 70
     1
102
RTVSPropertyOp26
 70
     1
102
RTVSPropertyOp27
 70
     1
102
RTVSPropertyOp28
 70
     1
102
RTVSPropertyOp29
 70
     1
102
RTVSPropertyOp30
 70
     1
102
RTVSPropertyOp31
 70
     1
102
RTVSPropertyOp32
 70
     1
102
RTVSPropertyOp33
 70
     1
102
RTVSPropertyOp34
 70
     1
102
RTVSPropertyOp35
 70
     1
102
RTVSPropertyOp36
 70
     1
102
RTVSPropertyOp37
 70
     1
102
RTVSPropertyOp38
 70
     1
102
RTVSPropertyOp39
 70
     1
102
RTVSPropertyOp40
 70
     1
102
RTVSPropertyOp41
 70
     1
102
RTVSPropertyOp42
 70
     1
102
RTVSPropertyOp43
 70
     1
102
RTVSPropertyOp44
 70
     1
102
RTVSPropertyOp45
 70
     1
102
RTVSPropertyOp46
 70
     1
102
RTVSPropertyOp47
 70
     1
102
RTVSPropertyOp48
 70
     1
102
RTVSPropertyOp49
 70
     1
102
RTVSPropertyOp50
 70
     1
102
RTVSPropertyOp51
 70
     0
102
RTVSPropertyOp52
 70
     0
102
RTVSPropertyOp53
 70
     1
102
RTVSPropertyOp54
 70
     1
102
RTVSPropertyOp55
 70
     1
102
RTVSPropertyOp56
 70
     1
102
RTVSPropertyOp57
 70
     1
102
RTVSPropertyOp58
 70
     1
102
RTVSPropertyOp59
 70
     1
102
RTVSPropertyOp60
 70
     1
102
RTVSPropertyOp61
 70
     1
102
RTVSPropertyOp62
 70
     1
  0
XRECORD
  5
6A22
102
{ACAD_REACTORS
330
6A21
102
}
330
6A21
100
AcDbXrecord
280
     1
102
RTVSPost2010Prop28
280
     0
102
RTVSPost2010PropOp28
 70
     1
102
RTVSPost2010Prop29
280
     1
102
RTVSPost2010PropOp29
 70
     1
102
RTVSPost2010Prop30
280
     1
102
RTVSPost2010PropOp30
 70
     1
102
RTVSPost2010Prop31
280
     0
102
RTVSPost2010PropOp31
 70
     1
102
RTVSPost2010Prop32
280
     0
102
RTVSPost2010PropOp32
 70
     1
102
RTVSPost2010Prop33
280
     0
102
RTVSPost2010PropOp33
 70
     1
102
RTVSPost2010Prop34
280
     0
102
RTVSPost2010PropOp34
 70
     1
102
RTVSPost2010Prop35
280
     0
102
RTVSPost2010PropOp35
 70
     1
102
RTVSPost2010Prop36
280
     0
102
RTVSPost2010PropOp36
 70
     1
102
RTVSPost2010Prop37
 90
       50
102
RTVSPost2010PropOp37
 70
     1
102
RTVSPost2010Prop38
140
0.0
102
RTVSPost2010PropOp38
 70
     1
102
RTVSPost2010Prop39
140
1.0
102
RTVSPost2010PropOp39
 70
     1
102
RTVSPost2010Prop40
 90
        0
102
RTVSPost2010PropOp40
 70
     1
102
RTVSPost2010Prop41ColorIndex
 90
       18
102
RTVSPost2010Prop41ColorRGB
 90
        0
102
RTVSPost2010PropOp41
 70
     1
102
RTVSPost2010Prop42
 90
       50
102
RTVSPost2010PropOp42
 70
     1
102
RTVSPost2010Prop43
 90
        3
102
RTVSPost2010PropOp43
 70
     1
102
RTVSPost2010Prop44ColorIndex
 90
        5
102
RTVSPost2010Prop44ColorRGB
 90
      255
102
RTVSPost2010PropOp44
 70
     1
102
RTVSPost2010Prop45
280
     0
102
RTVSPost2010PropOp45
 70
     1
102
RTVSPost2010Prop46
 90
       50
102
RTVSPost2010PropOp46
 70
     1
102
RTVSPost2010Prop47
 90
       50
102
RTVSPost2010PropOp47
 70
     1
102
RTVSPost2010Prop48
 90
       50
102
RTVSPost2010PropOp48
 70
     1
102
RTVSPost2010Prop49
280
     0
102
RTVSPost2010PropOp49
 70
     1
102
RTVSPost2010Prop50
 90
       50
102
RTVSPost2010PropOp50
 70
     1
102
RTVSPost2010Prop51ColorIndex
 90
      256
102
RTVSPost2010Prop51ColorRGB
 90
-16777216
102
RTVSPost2010PropOp51
 70
     0
102
RTVSPost2010Prop52
140
1.0
102
RTVSPost2010PropOp52
 70
     0
102
RTVSPost2010Prop53
 90
        2
102
RTVSPost2010PropOp53
 70
     1
102
RTVSPost2010Prop54
  1
strokes_ogs.tif
102
RTVSPost2010PropOp54
 70
     1
102
RTVSPost2010Prop55
280
     0
102
RTVSPost2010PropOp55
 70
     1
102
RTVSPost2010Prop56
140
1.0
102
RTVSPost2010PropOp56
 70
     1
102
RTVSPost2010Prop57
140
1.0
102
RTVSPost2010PropOp57
 70
     1
102
RTVSPropertyOp0
 70
     1
102
RTVSPropertyOp1
 70
     1
102
RTVSPropertyOp2
 70
     1
102
RTVSPropertyOp3
 70
     1
102
RTVSPropertyOp4
 70
     1
102
RTVSPropertyOp5
 70
     1
102
RTVSPropertyOp6
 70
     1
102
RTVSPropertyOp7
 70
     1
102
RTVSPropertyOp8
 70
     1
102
RTVSPropertyOp9
 70
     1
102
RTVSPropertyOp10
 70
     1
102
RTVSPropertyOp11
 70
     1
102
RTVSPropertyOp12
 70
     1
102
RTVSPropertyOp13
 70
     1
102
RTVSPropertyOp14
 70
     1
102
RTVSPropertyOp15
 70
     1
102
RTVSPropertyOp16
 70
     1
102
RTVSPropertyOp17
 70
     1
102
RTVSPropertyOp18
 70
     1
102
RTVSPropertyOp19
 70
     1
102
RTVSPropertyOp20
 70
     1
102
RTVSPropertyOp21
 70
     1
102
RTVSPropertyOp22
 70
     1
102
RTVSPropertyOp23
 70
     1
102
RTVSPropertyOp24
 70
     1
102
RTVSPropertyOp25
 70
     1
102
RTVSPropertyOp26
 70
     1
102
RTVSPropertyOp27
 70
     1
102
RTVSPropertyOp28
 70
     1
102
RTVSPropertyOp29
 70
     1
102
RTVSPropertyOp30
 70
     1
102
RTVSPropertyOp31
 70
     1
102
RTVSPropertyOp32
 70
     1
102
RTVSPropertyOp33
 70
     1
102
RTVSPropertyOp34
 70
     1
102
RTVSPropertyOp35
 70
     1
102
RTVSPropertyOp36
 70
     1
102
RTVSPropertyOp37
 70
     1
102
RTVSPropertyOp38
 70
     1
102
RTVSPropertyOp39
 70
     1
102
RTVSPropertyOp40
 70
     1
102
RTVSPropertyOp41
 70
     1
102
RTVSPropertyOp42
 70
     1
102
RTVSPropertyOp43
 70
     1
102
RTVSPropertyOp44
 70
     1
102
RTVSPropertyOp45
 70
     1
102
RTVSPropertyOp46
 70
     1
102
RTVSPropertyOp47
 70
     1
102
RTVSPropertyOp48
 70
     1
102
RTVSPropertyOp49
 70
     1
102
RTVSPropertyOp50
 70
     1
102
RTVSPropertyOp51
 70
     0
102
RTVSPropertyOp52
 70
     0
102
RTVSPropertyOp53
 70
     1
102
RTVSPropertyOp54
 70
     1
102
RTVSPropertyOp55
 70
     1
102
RTVSPropertyOp56
 70
     1
102
RTVSPropertyOp57
 70
     1
102
RTVSPropertyOp58
 70
     1
102
RTVSPropertyOp59
 70
     1
102
RTVSPropertyOp60
 70
     1
102
RTVSPropertyOp61
 70
     1
102
RTVSPropertyOp62
 70
     1
  0
XRECORD
  5
6A19
102
{ACAD_REACTORS
330
6A18
102
}
330
6A18
100
AcDbXrecord
280
     1
102
RTVSPost2010Prop28
280
     0
102
RTVSPost2010PropOp28
 70
     1
102
RTVSPost2010Prop29
280
     1
102
RTVSPost2010PropOp29
 70
     1
102
RTVSPost2010Prop30
280
     1
102
RTVSPost2010PropOp30
 70
     1
102
RTVSPost2010Prop31
280
     0
102
RTVSPost2010PropOp31
 70
     1
102
RTVSPost2010Prop32
280
     0
102
RTVSPost2010PropOp32
 70
     1
102
RTVSPost2010Prop33
280
     0
102
RTVSPost2010PropOp33
 70
     1
102
RTVSPost2010Prop34
280
     0
102
RTVSPost2010PropOp34
 70
     1
102
RTVSPost2010Prop35
280
     0
102
RTVSPost2010PropOp35
 70
     1
102
RTVSPost2010Prop36
280
     0
102
RTVSPost2010PropOp36
 70
     1
102
RTVSPost2010Prop37
 90
       50
102
RTVSPost2010PropOp37
 70
     1
102
RTVSPost2010Prop38
140
0.0
102
RTVSPost2010PropOp38
 70
     1
102
RTVSPost2010Prop39
140
1.0
102
RTVSPost2010PropOp39
 70
     1
102
RTVSPost2010Prop40
 90
        0
102
RTVSPost2010PropOp40
 70
     1
102
RTVSPost2010Prop41ColorIndex
 90
       18
102
RTVSPost2010Prop41ColorRGB
 90
        0
102
RTVSPost2010PropOp41
 70
     1
102
RTVSPost2010Prop42
 90
       50
102
RTVSPost2010PropOp42
 70
     1
102
RTVSPost2010Prop43
 90
        3
102
RTVSPost2010PropOp43
 70
     1
102
RTVSPost2010Prop44ColorIndex
 90
        5
102
RTVSPost2010Prop44ColorRGB
 90
      255
102
RTVSPost2010PropOp44
 70
     1
102
RTVSPost2010Prop45
280
     0
102
RTVSPost2010PropOp45
 70
     1
102
RTVSPost2010Prop46
 90
       50
102
RTVSPost2010PropOp46
 70
     1
102
RTVSPost2010Prop47
 90
       50
102
RTVSPost2010PropOp47
 70
     1
102
RTVSPost2010Prop48
 90
       50
102
RTVSPost2010PropOp48
 70
     1
102
RTVSPost2010Prop49
280
     0
102
RTVSPost2010PropOp49
 70
     1
102
RTVSPost2010Prop50
 90
       50
102
RTVSPost2010PropOp50
 70
     1
102
RTVSPost2010Prop51ColorIndex
 90
      256
102
RTVSPost2010Prop51ColorRGB
 90
-16777216
102
RTVSPost2010PropOp51
 70
     0
102
RTVSPost2010Prop52
140
1.0
102
RTVSPost2010PropOp52
 70
     0
102
RTVSPost2010Prop53
 90
        2
102
RTVSPost2010PropOp53
 70
     1
102
RTVSPost2010Prop54
  1
strokes_ogs.tif
102
RTVSPost2010PropOp54
 70
     1
102
RTVSPost2010Prop55
280
     0
102
RTVSPost2010PropOp55
 70
     1
102
RTVSPost2010Prop56
140
1.0
102
RTVSPost2010PropOp56
 70
     1
102
RTVSPost2010Prop57
140
1.0
102
RTVSPost2010PropOp57
 70
     1
102
RTVSPropertyOp0
 70
     0
102
RTVSPropertyOp1
 70
     0
102
RTVSPropertyOp2
 70
     0
102
RTVSPropertyOp3
 70
     0
102
RTVSPropertyOp4
 70
     0
102
RTVSPropertyOp5
 70
     0
102
RTVSPropertyOp6
 70
     0
102
RTVSPropertyOp7
 70
     0
102
RTVSPropertyOp8
 70
     0
102
RTVSPropertyOp9
 70
     0
102
RTVSPropertyOp10
 70
     0
102
RTVSPropertyOp11
 70
     0
102
RTVSPropertyOp12
 70
     0
102
RTVSPropertyOp13
 70
     0
102
RTVSPropertyOp14
 70
     2
102
RTVSPropertyOp15
 70
     0
102
RTVSPropertyOp16
 70
     0
102
RTVSPropertyOp17
 70
     0
102
RTVSPropertyOp18
 70
     0
102
RTVSPropertyOp19
 70
     0
102
RTVSPropertyOp20
 70
     0
102
RTVSPropertyOp21
 70
     0
102
RTVSPropertyOp22
 70
     0
102
RTVSPropertyOp23
 70
     0
102
RTVSPropertyOp24
 70
     0
102
RTVSPropertyOp25
 70
     0
102
RTVSPropertyOp26
 70
     0
102
RTVSPropertyOp27
 70
     0
102
RTVSPropertyOp28
 70
     1
102
RTVSPropertyOp29
 70
     1
102
RTVSPropertyOp30
 70
     1
102
RTVSPropertyOp31
 70
     1
102
RTVSPropertyOp32
 70
     1
102
RTVSPropertyOp33
 70
     1
102
RTVSPropertyOp34
 70
     1
102
RTVSPropertyOp35
 70
     1
102
RTVSPropertyOp36
 70
     1
102
RTVSPropertyOp37
 70
     1
102
RTVSPropertyOp38
 70
     1
102
RTVSPropertyOp39
 70
     1
102
RTVSPropertyOp40
 70
     1
102
RTVSPropertyOp41
 70
     1
102
RTVSPropertyOp42
 70
     1
102
RTVSPropertyOp43
 70
     1
102
RTVSPropertyOp44
 70
     1
102
RTVSPropertyOp45
 70
     1
102
RTVSPropertyOp46
 70
     1
102
RTVSPropertyOp47
 70
     1
102
RTVSPropertyOp48
 70
     1
102
RTVSPropertyOp49
 70
     1
102
RTVSPropertyOp50
 70
     1
102
RTVSPropertyOp51
 70
     0
102
RTVSPropertyOp52
 70
     0
102
RTVSPropertyOp53
 70
     1
102
RTVSPropertyOp54
 70
     1
102
RTVSPropertyOp55
 70
     1
102
RTVSPropertyOp56
 70
     1
102
RTVSPropertyOp57
 70
     1
102
RTVSPropertyOp58
 70
     1
102
RTVSPropertyOp59
 70
     1
102
RTVSPropertyOp60
 70
     1
102
RTVSPropertyOp61
 70
     1
102
RTVSPropertyOp62
 70
     1
  0
XRECORD
  5
6A13
102
{ACAD_REACTORS
330
6A12
102
}
330
6A12
100
AcDbXrecord
280
     1
102
RTVSPost2010Prop28
280
     0
102
RTVSPost2010PropOp28
 70
     1
102
RTVSPost2010Prop29
280
     1
102
RTVSPost2010PropOp29
 70
     1
102
RTVSPost2010Prop30
280
     1
102
RTVSPost2010PropOp30
 70
     1
102
RTVSPost2010Prop31
280
     0
102
RTVSPost2010PropOp31
 70
     1
102
RTVSPost2010Prop32
280
     0
102
RTVSPost2010PropOp32
 70
     1
102
RTVSPost2010Prop33
280
     0
102
RTVSPost2010PropOp33
 70
     1
102
RTVSPost2010Prop34
280
     0
102
RTVSPost2010PropOp34
 70
     1
102
RTVSPost2010Prop35
280
     0
102
RTVSPost2010PropOp35
 70
     1
102
RTVSPost2010Prop36
280
     0
102
RTVSPost2010PropOp36
 70
     1
102
RTVSPost2010Prop37
 90
       50
102
RTVSPost2010PropOp37
 70
     1
102
RTVSPost2010Prop38
140
0.0
102
RTVSPost2010PropOp38
 70
     1
102
RTVSPost2010Prop39
140
1.0
102
RTVSPost2010PropOp39
 70
     1
102
RTVSPost2010Prop40
 90
        0
102
RTVSPost2010PropOp40
 70
     1
102
RTVSPost2010Prop41ColorIndex
 90
       18
102
RTVSPost2010Prop41ColorRGB
 90
        0
102
RTVSPost2010PropOp41
 70
     1
102
RTVSPost2010Prop42
 90
       50
102
RTVSPost2010PropOp42
 70
     1
102
RTVSPost2010Prop43
 90
        3
102
RTVSPost2010PropOp43
 70
     1
102
RTVSPost2010Prop44ColorIndex
 90
        5
102
RTVSPost2010Prop44ColorRGB
 90
      255
102
RTVSPost2010PropOp44
 70
     1
102
RTVSPost2010Prop45
280
     0
102
RTVSPost2010PropOp45
 70
     1
102
RTVSPost2010Prop46
 90
       50
102
RTVSPost2010PropOp46
 70
     1
102
RTVSPost2010Prop47
 90
       50
102
RTVSPost2010PropOp47
 70
     1
102
RTVSPost2010Prop48
 90
       50
102
RTVSPost2010PropOp48
 70
     1
102
RTVSPost2010Prop49
280
     0
102
RTVSPost2010PropOp49
 70
     1
102
RTVSPost2010Prop50
 90
       50
102
RTVSPost2010PropOp50
 70
     1
102
RTVSPost2010Prop51ColorIndex
 90
      256
102
RTVSPost2010Prop51ColorRGB
 90
-16777216
102
RTVSPost2010PropOp51
 70
     0
102
RTVSPost2010Prop52
140
1.0
102
RTVSPost2010PropOp52
 70
     0
102
RTVSPost2010Prop53
 90
        2
102
RTVSPost2010PropOp53
 70
     1
102
RTVSPost2010Prop54
  1
strokes_ogs.tif
102
RTVSPost2010PropOp54
 70
     1
102
RTVSPost2010Prop55
280
     0
102
RTVSPost2010PropOp55
 70
     1
102
RTVSPost2010Prop56
140
1.0
102
RTVSPost2010PropOp56
 70
     1
102
RTVSPost2010Prop57
140
1.0
102
RTVSPost2010PropOp57
 70
     1
102
RTVSPropertyOp0
 70
     1
102
RTVSPropertyOp1
 70
     1
102
RTVSPropertyOp2
 70
     1
102
RTVSPropertyOp3
 70
     1
102
RTVSPropertyOp4
 70
     1
102
RTVSPropertyOp5
 70
     1
102
RTVSPropertyOp6
 70
     1
102
RTVSPropertyOp7
 70
     1
102
RTVSPropertyOp8
 70
     1
102
RTVSPropertyOp9
 70
     1
102
RTVSPropertyOp10
 70
     1
102
RTVSPropertyOp11
 70
     1
102
RTVSPropertyOp12
 70
     1
102
RTVSPropertyOp13
 70
     1
102
RTVSPropertyOp14
 70
     1
102
RTVSPropertyOp15
 70
     1
102
RTVSPropertyOp16
 70
     1
102
RTVSPropertyOp17
 70
     1
102
RTVSPropertyOp18
 70
     1
102
RTVSPropertyOp19
 70
     1
102
RTVSPropertyOp20
 70
     1
102
RTVSPropertyOp21
 70
     1
102
RTVSPropertyOp22
 70
     1
102
RTVSPropertyOp23
 70
     1
102
RTVSPropertyOp24
 70
     1
102
RTVSPropertyOp25
 70
     1
102
RTVSPropertyOp26
 70
     1
102
RTVSPropertyOp27
 70
     1
102
RTVSPropertyOp28
 70
     1
102
RTVSPropertyOp29
 70
     1
102
RTVSPropertyOp30
 70
     1
102
RTVSPropertyOp31
 70
     1
102
RTVSPropertyOp32
 70
     1
102
RTVSPropertyOp33
 70
     1
102
RTVSPropertyOp34
 70
     1
102
RTVSPropertyOp35
 70
     1
102
RTVSPropertyOp36
 70
     1
102
RTVSPropertyOp37
 70
     1
102
RTVSPropertyOp38
 70
     1
102
RTVSPropertyOp39
 70
     1
102
RTVSPropertyOp40
 70
     1
102
RTVSPropertyOp41
 70
     1
102
RTVSPropertyOp42
 70
     1
102
RTVSPropertyOp43
 70
     1
102
RTVSPropertyOp44
 70
     1
102
RTVSPropertyOp45
 70
     1
102
RTVSPropertyOp46
 70
     1
102
RTVSPropertyOp47
 70
     1
102
RTVSPropertyOp48
 70
     1
102
RTVSPropertyOp49
 70
     1
102
RTVSPropertyOp50
 70
     1
102
RTVSPropertyOp51
 70
     0
102
RTVSPropertyOp52
 70
     0
102
RTVSPropertyOp53
 70
     1
102
RTVSPropertyOp54
 70
     1
102
RTVSPropertyOp55
 70
     1
102
RTVSPropertyOp56
 70
     1
102
RTVSPropertyOp57
 70
     1
102
RTVSPropertyOp58
 70
     1
102
RTVSPropertyOp59
 70
     1
102
RTVSPropertyOp60
 70
     1
102
RTVSPropertyOp61
 70
     1
102
RTVSPropertyOp62
 70
     1
  0
XRECORD
  5
6A1B
102
{ACAD_REACTORS
330
6A1A
102
}
330
6A1A
100
AcDbXrecord
280
     1
102
RTVSPost2010Prop28
280
     0
102
RTVSPost2010PropOp28
 70
     1
102
RTVSPost2010Prop29
280
     1
102
RTVSPost2010PropOp29
 70
     1
102
RTVSPost2010Prop30
280
     1
102
RTVSPost2010PropOp30
 70
     1
102
RTVSPost2010Prop31
280
     0
102
RTVSPost2010PropOp31
 70
     1
102
RTVSPost2010Prop32
280
     0
102
RTVSPost2010PropOp32
 70
     1
102
RTVSPost2010Prop33
280
     0
102
RTVSPost2010PropOp33
 70
     1
102
RTVSPost2010Prop34
280
     0
102
RTVSPost2010PropOp34
 70
     1
102
RTVSPost2010Prop35
280
     0
102
RTVSPost2010PropOp35
 70
     1
102
RTVSPost2010Prop36
280
     0
102
RTVSPost2010PropOp36
 70
     1
102
RTVSPost2010Prop37
 90
       50
102
RTVSPost2010PropOp37
 70
     1
102
RTVSPost2010Prop38
140
0.0
102
RTVSPost2010PropOp38
 70
     1
102
RTVSPost2010Prop39
140
1.0
102
RTVSPost2010PropOp39
 70
     1
102
RTVSPost2010Prop40
 90
        0
102
RTVSPost2010PropOp40
 70
     1
102
RTVSPost2010Prop41ColorIndex
 90
       18
102
RTVSPost2010Prop41ColorRGB
 90
        0
102
RTVSPost2010PropOp41
 70
     1
102
RTVSPost2010Prop42
 90
       50
102
RTVSPost2010PropOp42
 70
     1
102
RTVSPost2010Prop43
 90
        3
102
RTVSPost2010PropOp43
 70
     1
102
RTVSPost2010Prop44ColorIndex
 90
        5
102
RTVSPost2010Prop44ColorRGB
 90
      255
102
RTVSPost2010PropOp44
 70
     1
102
RTVSPost2010Prop45
280
     0
102
RTVSPost2010PropOp45
 70
     1
102
RTVSPost2010Prop46
 90
       50
102
RTVSPost2010PropOp46
 70
     1
102
RTVSPost2010Prop47
 90
       50
102
RTVSPost2010PropOp47
 70
     1
102
RTVSPost2010Prop48
 90
       50
102
RTVSPost2010PropOp48
 70
     1
102
RTVSPost2010Prop49
280
     0
102
RTVSPost2010PropOp49
 70
     1
102
RTVSPost2010Prop50
 90
       50
102
RTVSPost2010PropOp50
 70
     1
102
RTVSPost2010Prop51ColorIndex
 90
      256
102
RTVSPost2010Prop51ColorRGB
 90
-16777216
102
RTVSPost2010PropOp51
 70
     0
102
RTVSPost2010Prop52
140
1.0
102
RTVSPost2010PropOp52
 70
     0
102
RTVSPost2010Prop53
 90
        2
102
RTVSPost2010PropOp53
 70
     1
102
RTVSPost2010Prop54
  1
strokes_ogs.tif
102
RTVSPost2010PropOp54
 70
     1
102
RTVSPost2010Prop55
280
     0
102
RTVSPost2010PropOp55
 70
     1
102
RTVSPost2010Prop56
140
1.0
102
RTVSPost2010PropOp56
 70
     1
102
RTVSPost2010Prop57
140
1.0
102
RTVSPost2010PropOp57
 70
     1
102
RTVSPropertyOp0
 70
     0
102
RTVSPropertyOp1
 70
     0
102
RTVSPropertyOp2
 70
     0
102
RTVSPropertyOp3
 70
     0
102
RTVSPropertyOp4
 70
     0
102
RTVSPropertyOp5
 70
     0
102
RTVSPropertyOp6
 70
     0
102
RTVSPropertyOp7
 70
     0
102
RTVSPropertyOp8
 70
     0
102
RTVSPropertyOp9
 70
     0
102
RTVSPropertyOp10
 70
     0
102
RTVSPropertyOp11
 70
     0
102
RTVSPropertyOp12
 70
     0
102
RTVSPropertyOp13
 70
     0
102
RTVSPropertyOp14
 70
     2
102
RTVSPropertyOp15
 70
     0
102
RTVSPropertyOp16
 70
     0
102
RTVSPropertyOp17
 70
     0
102
RTVSPropertyOp18
 70
     0
102
RTVSPropertyOp19
 70
     0
102
RTVSPropertyOp20
 70
     0
102
RTVSPropertyOp21
 70
     0
102
RTVSPropertyOp22
 70
     0
102
RTVSPropertyOp23
 70
     0
102
RTVSPropertyOp24
 70
     0
102
RTVSPropertyOp25
 70
     0
102
RTVSPropertyOp26
 70
     0
102
RTVSPropertyOp27
 70
     0
102
RTVSPropertyOp28
 70
     1
102
RTVSPropertyOp29
 70
     1
102
RTVSPropertyOp30
 70
     1
102
RTVSPropertyOp31
 70
     1
102
RTVSPropertyOp32
 70
     1
102
RTVSPropertyOp33
 70
     1
102
RTVSPropertyOp34
 70
     1
102
RTVSPropertyOp35
 70
     1
102
RTVSPropertyOp36
 70
     1
102
RTVSPropertyOp37
 70
     1
102
RTVSPropertyOp38
 70
     1
102
RTVSPropertyOp39
 70
     1
102
RTVSPropertyOp40
 70
     1
102
RTVSPropertyOp41
 70
     1
102
RTVSPropertyOp42
 70
     1
102
RTVSPropertyOp43
 70
     1
102
RTVSPropertyOp44
 70
     1
102
RTVSPropertyOp45
 70
     1
102
RTVSPropertyOp46
 70
     1
102
RTVSPropertyOp47
 70
     1
102
RTVSPropertyOp48
 70
     1
102
RTVSPropertyOp49
 70
     1
102
RTVSPropertyOp50
 70
     1
102
RTVSPropertyOp51
 70
     0
102
RTVSPropertyOp52
 70
     0
102
RTVSPropertyOp53
 70
     1
102
RTVSPropertyOp54
 70
     1
102
RTVSPropertyOp55
 70
     1
102
RTVSPropertyOp56
 70
     1
102
RTVSPropertyOp57
 70
     1
102
RTVSPropertyOp58
 70
     1
102
RTVSPropertyOp59
 70
     1
102
RTVSPropertyOp60
 70
     1
102
RTVSPropertyOp61
 70
     1
102
RTVSPropertyOp62
 70
     1
  0
XRECORD
  5
6A0B
102
{ACAD_REACTORS
330
6A0A
102
}
330
6A0A
100
AcDbXrecord
280
     1
102
RTVSPost2010Prop28
280
     0
102
RTVSPost2010PropOp28
 70
     1
102
RTVSPost2010Prop29
280
     1
102
RTVSPost2010PropOp29
 70
     1
102
RTVSPost2010Prop30
280
     1
102
RTVSPost2010PropOp30
 70
     1
102
RTVSPost2010Prop31
280
     0
102
RTVSPost2010PropOp31
 70
     1
102
RTVSPost2010Prop32
280
     0
102
RTVSPost2010PropOp32
 70
     1
102
RTVSPost2010Prop33
280
     0
102
RTVSPost2010PropOp33
 70
     1
102
RTVSPost2010Prop34
280
     0
102
RTVSPost2010PropOp34
 70
     1
102
RTVSPost2010Prop35
280
     0
102
RTVSPost2010PropOp35
 70
     1
102
RTVSPost2010Prop36
280
     0
102
RTVSPost2010PropOp36
 70
     1
102
RTVSPost2010Prop37
 90
       50
102
RTVSPost2010PropOp37
 70
     1
102
RTVSPost2010Prop38
140
0.0
102
RTVSPost2010PropOp38
 70
     1
102
RTVSPost2010Prop39
140
1.0
102
RTVSPost2010PropOp39
 70
     1
102
RTVSPost2010Prop40
 90
        0
102
RTVSPost2010PropOp40
 70
     1
102
RTVSPost2010Prop41ColorIndex
 90
       18
102
RTVSPost2010Prop41ColorRGB
 90
        0
102
RTVSPost2010PropOp41
 70
     1
102
RTVSPost2010Prop42
 90
       50
102
RTVSPost2010PropOp42
 70
     1
102
RTVSPost2010Prop43
 90
        3
102
RTVSPost2010PropOp43
 70
     1
102
RTVSPost2010Prop44ColorIndex
 90
        5
102
RTVSPost2010Prop44ColorRGB
 90
      255
102
RTVSPost2010PropOp44
 70
     1
102
RTVSPost2010Prop45
280
     0
102
RTVSPost2010PropOp45
 70
     1
102
RTVSPost2010Prop46
 90
       50
102
RTVSPost2010PropOp46
 70
     1
102
RTVSPost2010Prop47
 90
       50
102
RTVSPost2010PropOp47
 70
     1
102
RTVSPost2010Prop48
 90
       50
102
RTVSPost2010PropOp48
 70
     1
102
RTVSPost2010Prop49
280
     0
102
RTVSPost2010PropOp49
 70
     1
102
RTVSPost2010Prop50
 90
       50
102
RTVSPost2010PropOp50
 70
     1
102
RTVSPost2010Prop51ColorIndex
 90
      256
102
RTVSPost2010Prop51ColorRGB
 90
-16777216
102
RTVSPost2010PropOp51
 70
     0
102
RTVSPost2010Prop52
140
1.0
102
RTVSPost2010PropOp52
 70
     0
102
RTVSPost2010Prop53
 90
        2
102
RTVSPost2010PropOp53
 70
     1
102
RTVSPost2010Prop54
  1
strokes_ogs.tif
102
RTVSPost2010PropOp54
 70
     1
102
RTVSPost2010Prop55
280
     0
102
RTVSPost2010PropOp55
 70
     1
102
RTVSPost2010Prop56
140
1.0
102
RTVSPost2010PropOp56
 70
     1
102
RTVSPost2010Prop57
140
1.0
102
RTVSPost2010PropOp57
 70
     1
102
RTVSPropertyOp0
 70
     1
102
RTVSPropertyOp1
 70
     1
102
RTVSPropertyOp2
 70
     1
102
RTVSPropertyOp3
 70
     1
102
RTVSPropertyOp4
 70
     1
102
RTVSPropertyOp5
 70
     1
102
RTVSPropertyOp6
 70
     1
102
RTVSPropertyOp7
 70
     1
102
RTVSPropertyOp8
 70
     1
102
RTVSPropertyOp9
 70
     1
102
RTVSPropertyOp10
 70
     1
102
RTVSPropertyOp11
 70
     1
102
RTVSPropertyOp12
 70
     1
102
RTVSPropertyOp13
 70
     1
102
RTVSPropertyOp14
 70
     1
102
RTVSPropertyOp15
 70
     1
102
RTVSPropertyOp16
 70
     1
102
RTVSPropertyOp17
 70
     1
102
RTVSPropertyOp18
 70
     1
102
RTVSPropertyOp19
 70
     1
102
RTVSPropertyOp20
 70
     1
102
RTVSPropertyOp21
 70
     1
102
RTVSPropertyOp22
 70
     1
102
RTVSPropertyOp23
 70
     1
102
RTVSPropertyOp24
 70
     1
102
RTVSPropertyOp25
 70
     1
102
RTVSPropertyOp26
 70
     1
102
RTVSPropertyOp27
 70
     1
102
RTVSPropertyOp28
 70
     1
102
RTVSPropertyOp29
 70
     1
102
RTVSPropertyOp30
 70
     1
102
RTVSPropertyOp31
 70
     1
102
RTVSPropertyOp32
 70
     1
102
RTVSPropertyOp33
 70
     1
102
RTVSPropertyOp34
 70
     1
102
RTVSPropertyOp35
 70
     1
102
RTVSPropertyOp36
 70
     1
102
RTVSPropertyOp37
 70
     1
102
RTVSPropertyOp38
 70
     1
102
RTVSPropertyOp39
 70
     1
102
RTVSPropertyOp40
 70
     1
102
RTVSPropertyOp41
 70
     1
102
RTVSPropertyOp42
 70
     1
102
RTVSPropertyOp43
 70
     1
102
RTVSPropertyOp44
 70
     1
102
RTVSPropertyOp45
 70
     1
102
RTVSPropertyOp46
 70
     1
102
RTVSPropertyOp47
 70
     1
102
RTVSPropertyOp48
 70
     1
102
RTVSPropertyOp49
 70
     1
102
RTVSPropertyOp50
 70
     1
102
RTVSPropertyOp51
 70
     0
102
RTVSPropertyOp52
 70
     0
102
RTVSPropertyOp53
 70
     1
102
RTVSPropertyOp54
 70
     1
102
RTVSPropertyOp55
 70
     1
102
RTVSPropertyOp56
 70
     1
102
RTVSPropertyOp57
 70
     1
102
RTVSPropertyOp58
 70
     1
102
RTVSPropertyOp59
 70
     1
102
RTVSPropertyOp60
 70
     1
102
RTVSPropertyOp61
 70
     1
102
RTVSPropertyOp62
 70
     1
  0
XRECORD
  5
6A2C
102
{ACAD_REACTORS
330
6A2B
102
}
330
6A2B
100
AcDbXrecord
280
     1
102
RTVSPost2010Prop28
280
     0
102
RTVSPost2010PropOp28
 70
     1
102
RTVSPost2010Prop29
280
     1
102
RTVSPost2010PropOp29
 70
     1
102
RTVSPost2010Prop30
280
     1
102
RTVSPost2010PropOp30
 70
     1
102
RTVSPost2010Prop31
280
     0
102
RTVSPost2010PropOp31
 70
     1
102
RTVSPost2010Prop32
280
     0
102
RTVSPost2010PropOp32
 70
     1
102
RTVSPost2010Prop33
280
     0
102
RTVSPost2010PropOp33
 70
     1
102
RTVSPost2010Prop34
280
     0
102
RTVSPost2010PropOp34
 70
     1
102
RTVSPost2010Prop35
280
     0
102
RTVSPost2010PropOp35
 70
     1
102
RTVSPost2010Prop36
280
     0
102
RTVSPost2010PropOp36
 70
     1
102
RTVSPost2010Prop37
 90
       50
102
RTVSPost2010PropOp37
 70
     1
102
RTVSPost2010Prop38
140
0.0
102
RTVSPost2010PropOp38
 70
     1
102
RTVSPost2010Prop39
140
1.0
102
RTVSPost2010PropOp39
 70
     1
102
RTVSPost2010Prop40
 90
        0
102
RTVSPost2010PropOp40
 70
     1
102
RTVSPost2010Prop41ColorIndex
 90
       18
102
RTVSPost2010Prop41ColorRGB
 90
        0
102
RTVSPost2010PropOp41
 70
     1
102
RTVSPost2010Prop42
 90
       50
102
RTVSPost2010PropOp42
 70
     1
102
RTVSPost2010Prop43
 90
        3
102
RTVSPost2010PropOp43
 70
     1
102
RTVSPost2010Prop44ColorIndex
 90
        5
102
RTVSPost2010Prop44ColorRGB
 90
      255
102
RTVSPost2010PropOp44
 70
     1
102
RTVSPost2010Prop45
280
     0
102
RTVSPost2010PropOp45
 70
     1
102
RTVSPost2010Prop46
 90
       50
102
RTVSPost2010PropOp46
 70
     1
102
RTVSPost2010Prop47
 90
       50
102
RTVSPost2010PropOp47
 70
     1
102
RTVSPost2010Prop48
 90
       50
102
RTVSPost2010PropOp48
 70
     1
102
RTVSPost2010Prop49
280
     0
102
RTVSPost2010PropOp49
 70
     1
102
RTVSPost2010Prop50
 90
       50
102
RTVSPost2010PropOp50
 70
     1
102
RTVSPost2010Prop51ColorIndex
 90
      256
102
RTVSPost2010Prop51ColorRGB
 90
-16777216
102
RTVSPost2010PropOp51
 70
     0
102
RTVSPost2010Prop52
140
1.0
102
RTVSPost2010PropOp52
 70
     0
102
RTVSPost2010Prop53
 90
        2
102
RTVSPost2010PropOp53
 70
     1
102
RTVSPost2010Prop54
  1
strokes_ogs.tif
102
RTVSPost2010PropOp54
 70
     1
102
RTVSPost2010Prop55
280
     0
102
RTVSPost2010PropOp55
 70
     1
102
RTVSPost2010Prop56
140
1.0
102
RTVSPost2010PropOp56
 70
     1
102
RTVSPost2010Prop57
140
1.0
102
RTVSPost2010PropOp57
 70
     1
102
RTVSPropertyOp0
 70
     1
102
RTVSPropertyOp1
 70
     1
102
RTVSPropertyOp2
 70
     1
102
RTVSPropertyOp3
 70
     1
102
RTVSPropertyOp4
 70
     1
102
RTVSPropertyOp5
 70
     1
102
RTVSPropertyOp6
 70
     1
102
RTVSPropertyOp7
 70
     1
102
RTVSPropertyOp8
 70
     1
102
RTVSPropertyOp9
 70
     1
102
RTVSPropertyOp10
 70
     1
102
RTVSPropertyOp11
 70
     1
102
RTVSPropertyOp12
 70
     1
102
RTVSPropertyOp13
 70
     1
102
RTVSPropertyOp14
 70
     1
102
RTVSPropertyOp15
 70
     1
102
RTVSPropertyOp16
 70
     1
102
RTVSPropertyOp17
 70
     1
102
RTVSPropertyOp18
 70
     1
102
RTVSPropertyOp19
 70
     1
102
RTVSPropertyOp20
 70
     1
102
RTVSPropertyOp21
 70
     1
102
RTVSPropertyOp22
 70
     1
102
RTVSPropertyOp23
 70
     1
102
RTVSPropertyOp24
 70
     1
102
RTVSPropertyOp25
 70
     1
102
RTVSPropertyOp26
 70
     1
102
RTVSPropertyOp27
 70
     1
102
RTVSPropertyOp28
 70
     1
102
RTVSPropertyOp29
 70
     1
102
RTVSPropertyOp30
 70
     1
102
RTVSPropertyOp31
 70
     1
102
RTVSPropertyOp32
 70
     1
102
RTVSPropertyOp33
 70
     1
102
RTVSPropertyOp34
 70
     1
102
RTVSPropertyOp35
 70
     1
102
RTVSPropertyOp36
 70
     1
102
RTVSPropertyOp37
 70
     1
102
RTVSPropertyOp38
 70
     1
102
RTVSPropertyOp39
 70
     1
102
RTVSPropertyOp40
 70
     1
102
RTVSPropertyOp41
 70
     1
102
RTVSPropertyOp42
 70
     1
102
RTVSPropertyOp43
 70
     1
102
RTVSPropertyOp44
 70
     1
102
RTVSPropertyOp45
 70
     1
102
RTVSPropertyOp46
 70
     1
102
RTVSPropertyOp47
 70
     1
102
RTVSPropertyOp48
 70
     1
102
RTVSPropertyOp49
 70
     1
102
RTVSPropertyOp50
 70
     1
102
RTVSPropertyOp51
 70
     0
102
RTVSPropertyOp52
 70
     0
102
RTVSPropertyOp53
 70
     1
102
RTVSPropertyOp54
 70
     1
102
RTVSPropertyOp55
 70
     1
102
RTVSPropertyOp56
 70
     1
102
RTVSPropertyOp57
 70
     1
102
RTVSPropertyOp58
 70
     1
102
RTVSPropertyOp59
 70
     1
102
RTVSPropertyOp60
 70
     1
102
RTVSPropertyOp61
 70
     1
102
RTVSPropertyOp62
 70
     1
  0
XRECORD
  5
6A2A
102
{ACAD_REACTORS
330
6A29
102
}
330
6A29
100
AcDbXrecord
280
     1
102
RTVSPost2010Prop28
280
     0
102
RTVSPost2010PropOp28
 70
     1
102
RTVSPost2010Prop29
280
     1
102
RTVSPost2010PropOp29
 70
     1
102
RTVSPost2010Prop30
280
     1
102
RTVSPost2010PropOp30
 70
     1
102
RTVSPost2010Prop31
280
     0
102
RTVSPost2010PropOp31
 70
     1
102
RTVSPost2010Prop32
280
     0
102
RTVSPost2010PropOp32
 70
     1
102
RTVSPost2010Prop33
280
     0
102
RTVSPost2010PropOp33
 70
     1
102
RTVSPost2010Prop34
280
     0
102
RTVSPost2010PropOp34
 70
     1
102
RTVSPost2010Prop35
280
     0
102
RTVSPost2010PropOp35
 70
     1
102
RTVSPost2010Prop36
280
     0
102
RTVSPost2010PropOp36
 70
     1
102
RTVSPost2010Prop37
 90
       50
102
RTVSPost2010PropOp37
 70
     1
102
RTVSPost2010Prop38
140
0.0
102
RTVSPost2010PropOp38
 70
     1
102
RTVSPost2010Prop39
140
1.0
102
RTVSPost2010PropOp39
 70
     1
102
RTVSPost2010Prop40
 90
        0
102
RTVSPost2010PropOp40
 70
     1
102
RTVSPost2010Prop41ColorIndex
 90
       18
102
RTVSPost2010Prop41ColorRGB
 90
        0
102
RTVSPost2010PropOp41
 70
     1
102
RTVSPost2010Prop42
 90
       50
102
RTVSPost2010PropOp42
 70
     1
102
RTVSPost2010Prop43
 90
        3
102
RTVSPost2010PropOp43
 70
     1
102
RTVSPost2010Prop44ColorIndex
 90
        5
102
RTVSPost2010Prop44ColorRGB
 90
      255
102
RTVSPost2010PropOp44
 70
     1
102
RTVSPost2010Prop45
280
     0
102
RTVSPost2010PropOp45
 70
     1
102
RTVSPost2010Prop46
 90
       50
102
RTVSPost2010PropOp46
 70
     1
102
RTVSPost2010Prop47
 90
       50
102
RTVSPost2010PropOp47
 70
     1
102
RTVSPost2010Prop48
 90
       50
102
RTVSPost2010PropOp48
 70
     1
102
RTVSPost2010Prop49
280
     0
102
RTVSPost2010PropOp49
 70
     1
102
RTVSPost2010Prop50
 90
       50
102
RTVSPost2010PropOp50
 70
     1
102
RTVSPost2010Prop51ColorIndex
 90
      256
102
RTVSPost2010Prop51ColorRGB
 90
-16777216
102
RTVSPost2010PropOp51
 70
     0
102
RTVSPost2010Prop52
140
1.0
102
RTVSPost2010PropOp52
 70
     0
102
RTVSPost2010Prop53
 90
        2
102
RTVSPost2010PropOp53
 70
     1
102
RTVSPost2010Prop54
  1
strokes_ogs.tif
102
RTVSPost2010PropOp54
 70
     1
102
RTVSPost2010Prop55
280
     0
102
RTVSPost2010PropOp55
 70
     1
102
RTVSPost2010Prop56
140
1.0
102
RTVSPost2010PropOp56
 70
     1
102
RTVSPost2010Prop57
140
1.0
102
RTVSPost2010PropOp57
 70
     1
102
RTVSPropertyOp0
 70
     1
102
RTVSPropertyOp1
 70
     1
102
RTVSPropertyOp2
 70
     1
102
RTVSPropertyOp3
 70
     1
102
RTVSPropertyOp4
 70
     1
102
RTVSPropertyOp5
 70
     1
102
RTVSPropertyOp6
 70
     1
102
RTVSPropertyOp7
 70
     1
102
RTVSPropertyOp8
 70
     1
102
RTVSPropertyOp9
 70
     1
102
RTVSPropertyOp10
 70
     1
102
RTVSPropertyOp11
 70
     1
102
RTVSPropertyOp12
 70
     1
102
RTVSPropertyOp13
 70
     1
102
RTVSPropertyOp14
 70
     1
102
RTVSPropertyOp15
 70
     1
102
RTVSPropertyOp16
 70
     1
102
RTVSPropertyOp17
 70
     1
102
RTVSPropertyOp18
 70
     1
102
RTVSPropertyOp19
 70
     1
102
RTVSPropertyOp20
 70
     1
102
RTVSPropertyOp21
 70
     1
102
RTVSPropertyOp22
 70
     1
102
RTVSPropertyOp23
 70
     1
102
RTVSPropertyOp24
 70
     1
102
RTVSPropertyOp25
 70
     1
102
RTVSPropertyOp26
 70
     1
102
RTVSPropertyOp27
 70
     1
102
RTVSPropertyOp28
 70
     1
102
RTVSPropertyOp29
 70
     1
102
RTVSPropertyOp30
 70
     1
102
RTVSPropertyOp31
 70
     1
102
RTVSPropertyOp32
 70
     1
102
RTVSPropertyOp33
 70
     1
102
RTVSPropertyOp34
 70
     1
102
RTVSPropertyOp35
 70
     1
102
RTVSPropertyOp36
 70
     1
102
RTVSPropertyOp37
 70
     1
102
RTVSPropertyOp38
 70
     1
102
RTVSPropertyOp39
 70
     1
102
RTVSPropertyOp40
 70
     1
102
RTVSPropertyOp41
 70
     1
102
RTVSPropertyOp42
 70
     1
102
RTVSPropertyOp43
 70
     1
102
RTVSPropertyOp44
 70
     1
102
RTVSPropertyOp45
 70
     1
102
RTVSPropertyOp46
 70
     1
102
RTVSPropertyOp47
 70
     1
102
RTVSPropertyOp48
 70
     1
102
RTVSPropertyOp49
 70
     1
102
RTVSPropertyOp50
 70
     1
102
RTVSPropertyOp51
 70
     0
102
RTVSPropertyOp52
 70
     0
102
RTVSPropertyOp53
 70
     1
102
RTVSPropertyOp54
 70
     1
102
RTVSPropertyOp55
 70
     1
102
RTVSPropertyOp56
 70
     1
102
RTVSPropertyOp57
 70
     1
102
RTVSPropertyOp58
 70
     1
102
RTVSPropertyOp59
 70
     1
102
RTVSPropertyOp60
 70
     1
102
RTVSPropertyOp61
 70
     1
102
RTVSPropertyOp62
 70
     1
  0
XRECORD
  5
6A24
102
{ACAD_REACTORS
330
6A23
102
}
330
6A23
100
AcDbXrecord
280
     1
102
RTVSPost2010Prop28
280
     0
102
RTVSPost2010PropOp28
 70
     1
102
RTVSPost2010Prop29
280
     1
102
RTVSPost2010PropOp29
 70
     1
102
RTVSPost2010Prop30
280
     1
102
RTVSPost2010PropOp30
 70
     1
102
RTVSPost2010Prop31
280
     0
102
RTVSPost2010PropOp31
 70
     1
102
RTVSPost2010Prop32
280
     0
102
RTVSPost2010PropOp32
 70
     1
102
RTVSPost2010Prop33
280
     0
102
RTVSPost2010PropOp33
 70
     1
102
RTVSPost2010Prop34
280
     0
102
RTVSPost2010PropOp34
 70
     1
102
RTVSPost2010Prop35
280
     0
102
RTVSPost2010PropOp35
 70
     1
102
RTVSPost2010Prop36
280
     0
102
RTVSPost2010PropOp36
 70
     1
102
RTVSPost2010Prop37
 90
       50
102
RTVSPost2010PropOp37
 70
     1
102
RTVSPost2010Prop38
140
0.0
102
RTVSPost2010PropOp38
 70
     1
102
RTVSPost2010Prop39
140
1.0
102
RTVSPost2010PropOp39
 70
     1
102
RTVSPost2010Prop40
 90
        0
102
RTVSPost2010PropOp40
 70
     1
102
RTVSPost2010Prop41ColorIndex
 90
       18
102
RTVSPost2010Prop41ColorRGB
 90
        0
102
RTVSPost2010PropOp41
 70
     1
102
RTVSPost2010Prop42
 90
       50
102
RTVSPost2010PropOp42
 70
     1
102
RTVSPost2010Prop43
 90
        3
102
RTVSPost2010PropOp43
 70
     1
102
RTVSPost2010Prop44ColorIndex
 90
        5
102
RTVSPost2010Prop44ColorRGB
 90
      255
102
RTVSPost2010PropOp44
 70
     1
102
RTVSPost2010Prop45
280
     0
102
RTVSPost2010PropOp45
 70
     1
102
RTVSPost2010Prop46
 90
       50
102
RTVSPost2010PropOp46
 70
     1
102
RTVSPost2010Prop47
 90
       50
102
RTVSPost2010PropOp47
 70
     1
102
RTVSPost2010Prop48
 90
       50
102
RTVSPost2010PropOp48
 70
     1
102
RTVSPost2010Prop49
280
     0
102
RTVSPost2010PropOp49
 70
     1
102
RTVSPost2010Prop50
 90
       50
102
RTVSPost2010PropOp50
 70
     1
102
RTVSPost2010Prop51ColorIndex
 90
      256
102
RTVSPost2010Prop51ColorRGB
 90
-16777216
102
RTVSPost2010PropOp51
 70
     0
102
RTVSPost2010Prop52
140
1.0
102
RTVSPost2010PropOp52
 70
     0
102
RTVSPost2010Prop53
 90
        2
102
RTVSPost2010PropOp53
 70
     1
102
RTVSPost2010Prop54
  1
strokes_ogs.tif
102
RTVSPost2010PropOp54
 70
     1
102
RTVSPost2010Prop55
280
     0
102
RTVSPost2010PropOp55
 70
     1
102
RTVSPost2010Prop56
140
1.0
102
RTVSPost2010PropOp56
 70
     1
102
RTVSPost2010Prop57
140
1.0
102
RTVSPost2010PropOp57
 70
     1
102
RTVSPropertyOp0
 70
     1
102
RTVSPropertyOp1
 70
     1
102
RTVSPropertyOp2
 70
     1
102
RTVSPropertyOp3
 70
     1
102
RTVSPropertyOp4
 70
     1
102
RTVSPropertyOp5
 70
     1
102
RTVSPropertyOp6
 70
     1
102
RTVSPropertyOp7
 70
     1
102
RTVSPropertyOp8
 70
     1
102
RTVSPropertyOp9
 70
     1
102
RTVSPropertyOp10
 70
     1
102
RTVSPropertyOp11
 70
     1
102
RTVSPropertyOp12
 70
     1
102
RTVSPropertyOp13
 70
     1
102
RTVSPropertyOp14
 70
     1
102
RTVSPropertyOp15
 70
     1
102
RTVSPropertyOp16
 70
     1
102
RTVSPropertyOp17
 70
     1
102
RTVSPropertyOp18
 70
     1
102
RTVSPropertyOp19
 70
     1
102
RTVSPropertyOp20
 70
     1
102
RTVSPropertyOp21
 70
     1
102
RTVSPropertyOp22
 70
     1
102
RTVSPropertyOp23
 70
     1
102
RTVSPropertyOp24
 70
     1
102
RTVSPropertyOp25
 70
     1
102
RTVSPropertyOp26
 70
     1
102
RTVSPropertyOp27
 70
     1
102
RTVSPropertyOp28
 70
     1
102
RTVSPropertyOp29
 70
     1
102
RTVSPropertyOp30
 70
     1
102
RTVSPropertyOp31
 70
     1
102
RTVSPropertyOp32
 70
     1
102
RTVSPropertyOp33
 70
     1
102
RTVSPropertyOp34
 70
     1
102
RTVSPropertyOp35
 70
     1
102
RTVSPropertyOp36
 70
     1
102
RTVSPropertyOp37
 70
     1
102
RTVSPropertyOp38
 70
     1
102
RTVSPropertyOp39
 70
     1
102
RTVSPropertyOp40
 70
     1
102
RTVSPropertyOp41
 70
     1
102
RTVSPropertyOp42
 70
     1
102
RTVSPropertyOp43
 70
     1
102
RTVSPropertyOp44
 70
     1
102
RTVSPropertyOp45
 70
     1
102
RTVSPropertyOp46
 70
     1
102
RTVSPropertyOp47
 70
     1
102
RTVSPropertyOp48
 70
     1
102
RTVSPropertyOp49
 70
     1
102
RTVSPropertyOp50
 70
     1
102
RTVSPropertyOp51
 70
     0
102
RTVSPropertyOp52
 70
     0
102
RTVSPropertyOp53
 70
     1
102
RTVSPropertyOp54
 70
     1
102
RTVSPropertyOp55
 70
     1
102
RTVSPropertyOp56
 70
     1
102
RTVSPropertyOp57
 70
     1
102
RTVSPropertyOp58
 70
     1
102
RTVSPropertyOp59
 70
     1
102
RTVSPropertyOp60
 70
     1
102
RTVSPropertyOp61
 70
     1
102
RTVSPropertyOp62
 70
     1
  0
XRECORD
  5
6A26
102
{ACAD_REACTORS
330
6A25
102
}
330
6A25
100
AcDbXrecord
280
     1
102
RTVSPost2010Prop28
280
     0
102
RTVSPost2010PropOp28
 70
     1
102
RTVSPost2010Prop29
280
     1
102
RTVSPost2010PropOp29
 70
     1
102
RTVSPost2010Prop30
280
     1
102
RTVSPost2010PropOp30
 70
     1
102
RTVSPost2010Prop31
280
     0
102
RTVSPost2010PropOp31
 70
     1
102
RTVSPost2010Prop32
280
     0
102
RTVSPost2010PropOp32
 70
     1
102
RTVSPost2010Prop33
280
     0
102
RTVSPost2010PropOp33
 70
     1
102
RTVSPost2010Prop34
280
     0
102
RTVSPost2010PropOp34
 70
     1
102
RTVSPost2010Prop35
280
     0
102
RTVSPost2010PropOp35
 70
     1
102
RTVSPost2010Prop36
280
     0
102
RTVSPost2010PropOp36
 70
     1
102
RTVSPost2010Prop37
 90
       50
102
RTVSPost2010PropOp37
 70
     1
102
RTVSPost2010Prop38
140
0.0
102
RTVSPost2010PropOp38
 70
     1
102
RTVSPost2010Prop39
140
1.0
102
RTVSPost2010PropOp39
 70
     1
102
RTVSPost2010Prop40
 90
        0
102
RTVSPost2010PropOp40
 70
     1
102
RTVSPost2010Prop41ColorIndex
 90
       18
102
RTVSPost2010Prop41ColorRGB
 90
        0
102
RTVSPost2010PropOp41
 70
     1
102
RTVSPost2010Prop42
 90
       50
102
RTVSPost2010PropOp42
 70
     1
102
RTVSPost2010Prop43
 90
        3
102
RTVSPost2010PropOp43
 70
     1
102
RTVSPost2010Prop44ColorIndex
 90
        5
102
RTVSPost2010Prop44ColorRGB
 90
      255
102
RTVSPost2010PropOp44
 70
     1
102
RTVSPost2010Prop45
280
     0
102
RTVSPost2010PropOp45
 70
     1
102
RTVSPost2010Prop46
 90
       50
102
RTVSPost2010PropOp46
 70
     1
102
RTVSPost2010Prop47
 90
       50
102
RTVSPost2010PropOp47
 70
     1
102
RTVSPost2010Prop48
 90
       50
102
RTVSPost2010PropOp48
 70
     1
102
RTVSPost2010Prop49
280
     0
102
RTVSPost2010PropOp49
 70
     1
102
RTVSPost2010Prop50
 90
       50
102
RTVSPost2010PropOp50
 70
     1
102
RTVSPost2010Prop51ColorIndex
 90
      256
102
RTVSPost2010Prop51ColorRGB
 90
-16777216
102
RTVSPost2010PropOp51
 70
     0
102
RTVSPost2010Prop52
140
1.0
102
RTVSPost2010PropOp52
 70
     0
102
RTVSPost2010Prop53
 90
        2
102
RTVSPost2010PropOp53
 70
     1
102
RTVSPost2010Prop54
  1
strokes_ogs.tif
102
RTVSPost2010PropOp54
 70
     1
102
RTVSPost2010Prop55
280
     0
102
RTVSPost2010PropOp55
 70
     1
102
RTVSPost2010Prop56
140
1.0
102
RTVSPost2010PropOp56
 70
     1
102
RTVSPost2010Prop57
140
1.0
102
RTVSPost2010PropOp57
 70
     1
102
RTVSPropertyOp0
 70
     1
102
RTVSPropertyOp1
 70
     1
102
RTVSPropertyOp2
 70
     1
102
RTVSPropertyOp3
 70
     1
102
RTVSPropertyOp4
 70
     1
102
RTVSPropertyOp5
 70
     1
102
RTVSPropertyOp6
 70
     1
102
RTVSPropertyOp7
 70
     1
102
RTVSPropertyOp8
 70
     1
102
RTVSPropertyOp9
 70
     1
102
RTVSPropertyOp10
 70
     1
102
RTVSPropertyOp11
 70
     1
102
RTVSPropertyOp12
 70
     1
102
RTVSPropertyOp13
 70
     1
102
RTVSPropertyOp14
 70
     1
102
RTVSPropertyOp15
 70
     1
102
RTVSPropertyOp16
 70
     1
102
RTVSPropertyOp17
 70
     1
102
RTVSPropertyOp18
 70
     1
102
RTVSPropertyOp19
 70
     1
102
RTVSPropertyOp20
 70
     1
102
RTVSPropertyOp21
 70
     1
102
RTVSPropertyOp22
 70
     1
102
RTVSPropertyOp23
 70
     1
102
RTVSPropertyOp24
 70
     1
102
RTVSPropertyOp25
 70
     1
102
RTVSPropertyOp26
 70
     1
102
RTVSPropertyOp27
 70
     1
102
RTVSPropertyOp28
 70
     1
102
RTVSPropertyOp29
 70
     1
102
RTVSPropertyOp30
 70
     1
102
RTVSPropertyOp31
 70
     1
102
RTVSPropertyOp32
 70
     1
102
RTVSPropertyOp33
 70
     1
102
RTVSPropertyOp34
 70
     1
102
RTVSPropertyOp35
 70
     1
102
RTVSPropertyOp36
 70
     1
102
RTVSPropertyOp37
 70
     1
102
RTVSPropertyOp38
 70
     1
102
RTVSPropertyOp39
 70
     1
102
RTVSPropertyOp40
 70
     1
102
RTVSPropertyOp41
 70
     1
102
RTVSPropertyOp42
 70
     1
102
RTVSPropertyOp43
 70
     1
102
RTVSPropertyOp44
 70
     1
102
RTVSPropertyOp45
 70
     1
102
RTVSPropertyOp46
 70
     1
102
RTVSPropertyOp47
 70
     1
102
RTVSPropertyOp48
 70
     1
102
RTVSPropertyOp49
 70
     1
102
RTVSPropertyOp50
 70
     1
102
RTVSPropertyOp51
 70
     0
102
RTVSPropertyOp52
 70
     0
102
RTVSPropertyOp53
 70
     1
102
RTVSPropertyOp54
 70
     1
102
RTVSPropertyOp55
 70
     1
102
RTVSPropertyOp56
 70
     1
102
RTVSPropertyOp57
 70
     1
102
RTVSPropertyOp58
 70
     1
102
RTVSPropertyOp59
 70
     1
102
RTVSPropertyOp60
 70
     1
102
RTVSPropertyOp61
 70
     1
102
RTVSPropertyOp62
 70
     1
  0
XRECORD
  5
6A11
102
{ACAD_REACTORS
330
6A10
102
}
330
6A10
100
AcDbXrecord
280
     1
102
RTVSPost2010Prop28
280
     0
102
RTVSPost2010PropOp28
 70
     1
102
RTVSPost2010Prop29
280
     1
102
RTVSPost2010PropOp29
 70
     1
102
RTVSPost2010Prop30
280
     1
102
RTVSPost2010PropOp30
 70
     1
102
RTVSPost2010Prop31
280
     0
102
RTVSPost2010PropOp31
 70
     1
102
RTVSPost2010Prop32
280
     0
102
RTVSPost2010PropOp32
 70
     1
102
RTVSPost2010Prop33
280
     0
102
RTVSPost2010PropOp33
 70
     1
102
RTVSPost2010Prop34
280
     0
102
RTVSPost2010PropOp34
 70
     1
102
RTVSPost2010Prop35
280
     0
102
RTVSPost2010PropOp35
 70
     1
102
RTVSPost2010Prop36
280
     0
102
RTVSPost2010PropOp36
 70
     1
102
RTVSPost2010Prop37
 90
       50
102
RTVSPost2010PropOp37
 70
     1
102
RTVSPost2010Prop38
140
0.0
102
RTVSPost2010PropOp38
 70
     1
102
RTVSPost2010Prop39
140
1.0
102
RTVSPost2010PropOp39
 70
     1
102
RTVSPost2010Prop40
 90
        0
102
RTVSPost2010PropOp40
 70
     1
102
RTVSPost2010Prop41ColorIndex
 90
       18
102
RTVSPost2010Prop41ColorRGB
 90
        0
102
RTVSPost2010PropOp41
 70
     1
102
RTVSPost2010Prop42
 90
       50
102
RTVSPost2010PropOp42
 70
     1
102
RTVSPost2010Prop43
 90
        3
102
RTVSPost2010PropOp43
 70
     1
102
RTVSPost2010Prop44ColorIndex
 90
        5
102
RTVSPost2010Prop44ColorRGB
 90
      255
102
RTVSPost2010PropOp44
 70
     1
102
RTVSPost2010Prop45
280
     0
102
RTVSPost2010PropOp45
 70
     1
102
RTVSPost2010Prop46
 90
       50
102
RTVSPost2010PropOp46
 70
     1
102
RTVSPost2010Prop47
 90
       50
102
RTVSPost2010PropOp47
 70
     1
102
RTVSPost2010Prop48
 90
       50
102
RTVSPost2010PropOp48
 70
     1
102
RTVSPost2010Prop49
280
     0
102
RTVSPost2010PropOp49
 70
     1
102
RTVSPost2010Prop50
 90
       50
102
RTVSPost2010PropOp50
 70
     1
102
RTVSPost2010Prop51ColorIndex
 90
      256
102
RTVSPost2010Prop51ColorRGB
 90
-16777216
102
RTVSPost2010PropOp51
 70
     0
102
RTVSPost2010Prop52
140
1.0
102
RTVSPost2010PropOp52
 70
     0
102
RTVSPost2010Prop53
 90
        2
102
RTVSPost2010PropOp53
 70
     1
102
RTVSPost2010Prop54
  1
strokes_ogs.tif
102
RTVSPost2010PropOp54
 70
     1
102
RTVSPost2010Prop55
280
     0
102
RTVSPost2010PropOp55
 70
     1
102
RTVSPost2010Prop56
140
1.0
102
RTVSPost2010PropOp56
 70
     1
102
RTVSPost2010Prop57
140
1.0
102
RTVSPost2010PropOp57
 70
     1
102
RTVSPropertyOp0
 70
     1
102
RTVSPropertyOp1
 70
     1
102
RTVSPropertyOp2
 70
     1
102
RTVSPropertyOp3
 70
     1
102
RTVSPropertyOp4
 70
     1
102
RTVSPropertyOp5
 70
     1
102
RTVSPropertyOp6
 70
     1
102
RTVSPropertyOp7
 70
     1
102
RTVSPropertyOp8
 70
     1
102
RTVSPropertyOp9
 70
     1
102
RTVSPropertyOp10
 70
     1
102
RTVSPropertyOp11
 70
     1
102
RTVSPropertyOp12
 70
     1
102
RTVSPropertyOp13
 70
     1
102
RTVSPropertyOp14
 70
     1
102
RTVSPropertyOp15
 70
     1
102
RTVSPropertyOp16
 70
     1
102
RTVSPropertyOp17
 70
     1
102
RTVSPropertyOp18
 70
     1
102
RTVSPropertyOp19
 70
     1
102
RTVSPropertyOp20
 70
     1
102
RTVSPropertyOp21
 70
     1
102
RTVSPropertyOp22
 70
     1
102
RTVSPropertyOp23
 70
     1
102
RTVSPropertyOp24
 70
     1
102
RTVSPropertyOp25
 70
     1
102
RTVSPropertyOp26
 70
     1
102
RTVSPropertyOp27
 70
     1
102
RTVSPropertyOp28
 70
     1
102
RTVSPropertyOp29
 70
     1
102
RTVSPropertyOp30
 70
     1
102
RTVSPropertyOp31
 70
     1
102
RTVSPropertyOp32
 70
     1
102
RTVSPropertyOp33
 70
     1
102
RTVSPropertyOp34
 70
     1
102
RTVSPropertyOp35
 70
     1
102
RTVSPropertyOp36
 70
     1
102
RTVSPropertyOp37
 70
     1
102
RTVSPropertyOp38
 70
     1
102
RTVSPropertyOp39
 70
     1
102
RTVSPropertyOp40
 70
     1
102
RTVSPropertyOp41
 70
     1
102
RTVSPropertyOp42
 70
     1
102
RTVSPropertyOp43
 70
     1
102
RTVSPropertyOp44
 70
     1
102
RTVSPropertyOp45
 70
     1
102
RTVSPropertyOp46
 70
     1
102
RTVSPropertyOp47
 70
     1
102
RTVSPropertyOp48
 70
     1
102
RTVSPropertyOp49
 70
     1
102
RTVSPropertyOp50
 70
     1
102
RTVSPropertyOp51
 70
     0
102
RTVSPropertyOp52
 70
     0
102
RTVSPropertyOp53
 70
     1
102
RTVSPropertyOp54
 70
     1
102
RTVSPropertyOp55
 70
     1
102
RTVSPropertyOp56
 70
     1
102
RTVSPropertyOp57
 70
     1
102
RTVSPropertyOp58
 70
     1
102
RTVSPropertyOp59
 70
     1
102
RTVSPropertyOp60
 70
     1
102
RTVSPropertyOp61
 70
     1
102
RTVSPropertyOp62
 70
     1
  0
XRECORD
  5
6A20
102
{ACAD_REACTORS
330
6A1F
102
}
330
6A1F
100
AcDbXrecord
280
     1
102
RTVSPost2010Prop28
280
     0
102
RTVSPost2010PropOp28
 70
     1
102
RTVSPost2010Prop29
280
     1
102
RTVSPost2010PropOp29
 70
     1
102
RTVSPost2010Prop30
280
     1
102
RTVSPost2010PropOp30
 70
     1
102
RTVSPost2010Prop31
280
     0
102
RTVSPost2010PropOp31
 70
     1
102
RTVSPost2010Prop32
280
     0
102
RTVSPost2010PropOp32
 70
     1
102
RTVSPost2010Prop33
280
     0
102
RTVSPost2010PropOp33
 70
     1
102
RTVSPost2010Prop34
280
     0
102
RTVSPost2010PropOp34
 70
     1
102
RTVSPost2010Prop35
280
     0
102
RTVSPost2010PropOp35
 70
     1
102
RTVSPost2010Prop36
280
     0
102
RTVSPost2010PropOp36
 70
     1
102
RTVSPost2010Prop37
 90
       50
102
RTVSPost2010PropOp37
 70
     1
102
RTVSPost2010Prop38
140
0.0
102
RTVSPost2010PropOp38
 70
     1
102
RTVSPost2010Prop39
140
1.0
102
RTVSPost2010PropOp39
 70
     1
102
RTVSPost2010Prop40
 90
        0
102
RTVSPost2010PropOp40
 70
     1
102
RTVSPost2010Prop41ColorIndex
 90
       18
102
RTVSPost2010Prop41ColorRGB
 90
        0
102
RTVSPost2010PropOp41
 70
     1
102
RTVSPost2010Prop42
 90
       50
102
RTVSPost2010PropOp42
 70
     1
102
RTVSPost2010Prop43
 90
        3
102
RTVSPost2010PropOp43
 70
     1
102
RTVSPost2010Prop44ColorIndex
 90
        5
102
RTVSPost2010Prop44ColorRGB
 90
      255
102
RTVSPost2010PropOp44
 70
     1
102
RTVSPost2010Prop45
280
     0
102
RTVSPost2010PropOp45
 70
     1
102
RTVSPost2010Prop46
 90
       50
102
RTVSPost2010PropOp46
 70
     1
102
RTVSPost2010Prop47
 90
       50
102
RTVSPost2010PropOp47
 70
     1
102
RTVSPost2010Prop48
 90
       50
102
RTVSPost2010PropOp48
 70
     1
102
RTVSPost2010Prop49
280
     0
102
RTVSPost2010PropOp49
 70
     1
102
RTVSPost2010Prop50
 90
       50
102
RTVSPost2010PropOp50
 70
     1
102
RTVSPost2010Prop51ColorIndex
 90
      256
102
RTVSPost2010Prop51ColorRGB
 90
-16777216
102
RTVSPost2010PropOp51
 70
     0
102
RTVSPost2010Prop52
140
1.0
102
RTVSPost2010PropOp52
 70
     0
102
RTVSPost2010Prop53
 90
        2
102
RTVSPost2010PropOp53
 70
     1
102
RTVSPost2010Prop54
  1
strokes_ogs.tif
102
RTVSPost2010PropOp54
 70
     1
102
RTVSPost2010Prop55
280
     0
102
RTVSPost2010PropOp55
 70
     1
102
RTVSPost2010Prop56
140
1.0
102
RTVSPost2010PropOp56
 70
     1
102
RTVSPost2010Prop57
140
1.0
102
RTVSPost2010PropOp57
 70
     1
102
RTVSPropertyOp0
 70
     1
102
RTVSPropertyOp1
 70
     1
102
RTVSPropertyOp2
 70
     1
102
RTVSPropertyOp3
 70
     1
102
RTVSPropertyOp4
 70
     1
102
RTVSPropertyOp5
 70
     1
102
RTVSPropertyOp6
 70
     1
102
RTVSPropertyOp7
 70
     1
102
RTVSPropertyOp8
 70
     1
102
RTVSPropertyOp9
 70
     1
102
RTVSPropertyOp10
 70
     1
102
RTVSPropertyOp11
 70
     1
102
RTVSPropertyOp12
 70
     1
102
RTVSPropertyOp13
 70
     1
102
RTVSPropertyOp14
 70
     1
102
RTVSPropertyOp15
 70
     1
102
RTVSPropertyOp16
 70
     1
102
RTVSPropertyOp17
 70
     1
102
RTVSPropertyOp18
 70
     1
102
RTVSPropertyOp19
 70
     1
102
RTVSPropertyOp20
 70
     1
102
RTVSPropertyOp21
 70
     1
102
RTVSPropertyOp22
 70
     1
102
RTVSPropertyOp23
 70
     1
102
RTVSPropertyOp24
 70
     1
102
RTVSPropertyOp25
 70
     1
102
RTVSPropertyOp26
 70
     1
102
RTVSPropertyOp27
 70
     1
102
RTVSPropertyOp28
 70
     1
102
RTVSPropertyOp29
 70
     1
102
RTVSPropertyOp30
 70
     1
102
RTVSPropertyOp31
 70
     1
102
RTVSPropertyOp32
 70
     1
102
RTVSPropertyOp33
 70
     1
102
RTVSPropertyOp34
 70
     1
102
RTVSPropertyOp35
 70
     1
102
RTVSPropertyOp36
 70
     1
102
RTVSPropertyOp37
 70
     1
102
RTVSPropertyOp38
 70
     1
102
RTVSPropertyOp39
 70
     1
102
RTVSPropertyOp40
 70
     1
102
RTVSPropertyOp41
 70
     1
102
RTVSPropertyOp42
 70
     1
102
RTVSPropertyOp43
 70
     1
102
RTVSPropertyOp44
 70
     1
102
RTVSPropertyOp45
 70
     1
102
RTVSPropertyOp46
 70
     1
102
RTVSPropertyOp47
 70
     1
102
RTVSPropertyOp48
 70
     1
102
RTVSPropertyOp49
 70
     1
102
RTVSPropertyOp50
 70
     1
102
RTVSPropertyOp51
 70
     0
102
RTVSPropertyOp52
 70
     0
102
RTVSPropertyOp53
 70
     1
102
RTVSPropertyOp54
 70
     1
102
RTVSPropertyOp55
 70
     1
102
RTVSPropertyOp56
 70
     1
102
RTVSPropertyOp57
 70
     1
102
RTVSPropertyOp58
 70
     1
102
RTVSPropertyOp59
 70
     1
102
RTVSPropertyOp60
 70
     1
102
RTVSPropertyOp61
 70
     1
102
RTVSPropertyOp62
 70
     1
  0
XRECORD
  5
6A28
102
{ACAD_REACTORS
330
6A27
102
}
330
6A27
100
AcDbXrecord
280
     1
102
RTVSPost2010Prop28
280
     0
102
RTVSPost2010PropOp28
 70
     1
102
RTVSPost2010Prop29
280
     1
102
RTVSPost2010PropOp29
 70
     1
102
RTVSPost2010Prop30
280
     1
102
RTVSPost2010PropOp30
 70
     1
102
RTVSPost2010Prop31
280
     0
102
RTVSPost2010PropOp31
 70
     1
102
RTVSPost2010Prop32
280
     0
102
RTVSPost2010PropOp32
 70
     1
102
RTVSPost2010Prop33
280
     0
102
RTVSPost2010PropOp33
 70
     1
102
RTVSPost2010Prop34
280
     0
102
RTVSPost2010PropOp34
 70
     1
102
RTVSPost2010Prop35
280
     0
102
RTVSPost2010PropOp35
 70
     1
102
RTVSPost2010Prop36
280
     0
102
RTVSPost2010PropOp36
 70
     1
102
RTVSPost2010Prop37
 90
       50
102
RTVSPost2010PropOp37
 70
     1
102
RTVSPost2010Prop38
140
0.0
102
RTVSPost2010PropOp38
 70
     1
102
RTVSPost2010Prop39
140
1.0
102
RTVSPost2010PropOp39
 70
     1
102
RTVSPost2010Prop40
 90
        0
102
RTVSPost2010PropOp40
 70
     1
102
RTVSPost2010Prop41ColorIndex
 90
       18
102
RTVSPost2010Prop41ColorRGB
 90
        0
102
RTVSPost2010PropOp41
 70
     1
102
RTVSPost2010Prop42
 90
       50
102
RTVSPost2010PropOp42
 70
     1
102
RTVSPost2010Prop43
 90
        3
102
RTVSPost2010PropOp43
 70
     1
102
RTVSPost2010Prop44ColorIndex
 90
        5
102
RTVSPost2010Prop44ColorRGB
 90
      255
102
RTVSPost2010PropOp44
 70
     1
102
RTVSPost2010Prop45
280
     0
102
RTVSPost2010PropOp45
 70
     1
102
RTVSPost2010Prop46
 90
       50
102
RTVSPost2010PropOp46
 70
     1
102
RTVSPost2010Prop47
 90
       50
102
RTVSPost2010PropOp47
 70
     1
102
RTVSPost2010Prop48
 90
       50
102
RTVSPost2010PropOp48
 70
     1
102
RTVSPost2010Prop49
280
     0
102
RTVSPost2010PropOp49
 70
     1
102
RTVSPost2010Prop50
 90
       50
102
RTVSPost2010PropOp50
 70
     1
102
RTVSPost2010Prop51ColorIndex
 90
      256
102
RTVSPost2010Prop51ColorRGB
 90
-16777216
102
RTVSPost2010PropOp51
 70
     0
102
RTVSPost2010Prop52
140
1.0
102
RTVSPost2010PropOp52
 70
     0
102
RTVSPost2010Prop53
 90
        2
102
RTVSPost2010PropOp53
 70
     1
102
RTVSPost2010Prop54
  1
strokes_ogs.tif
102
RTVSPost2010PropOp54
 70
     1
102
RTVSPost2010Prop55
280
     0
102
RTVSPost2010PropOp55
 70
     1
102
RTVSPost2010Prop56
140
1.0
102
RTVSPost2010PropOp56
 70
     1
102
RTVSPost2010Prop57
140
1.0
102
RTVSPost2010PropOp57
 70
     1
102
RTVSPropertyOp0
 70
     1
102
RTVSPropertyOp1
 70
     1
102
RTVSPropertyOp2
 70
     1
102
RTVSPropertyOp3
 70
     1
102
RTVSPropertyOp4
 70
     1
102
RTVSPropertyOp5
 70
     1
102
RTVSPropertyOp6
 70
     1
102
RTVSPropertyOp7
 70
     1
102
RTVSPropertyOp8
 70
     1
102
RTVSPropertyOp9
 70
     1
102
RTVSPropertyOp10
 70
     1
102
RTVSPropertyOp11
 70
     1
102
RTVSPropertyOp12
 70
     1
102
RTVSPropertyOp13
 70
     1
102
RTVSPropertyOp14
 70
     1
102
RTVSPropertyOp15
 70
     1
102
RTVSPropertyOp16
 70
     1
102
RTVSPropertyOp17
 70
     1
102
RTVSPropertyOp18
 70
     1
102
RTVSPropertyOp19
 70
     1
102
RTVSPropertyOp20
 70
     1
102
RTVSPropertyOp21
 70
     1
102
RTVSPropertyOp22
 70
     1
102
RTVSPropertyOp23
 70
     1
102
RTVSPropertyOp24
 70
     1
102
RTVSPropertyOp25
 70
     1
102
RTVSPropertyOp26
 70
     1
102
RTVSPropertyOp27
 70
     1
102
RTVSPropertyOp28
 70
     1
102
RTVSPropertyOp29
 70
     1
102
RTVSPropertyOp30
 70
     1
102
RTVSPropertyOp31
 70
     1
102
RTVSPropertyOp32
 70
     1
102
RTVSPropertyOp33
 70
     1
102
RTVSPropertyOp34
 70
     1
102
RTVSPropertyOp35
 70
     1
102
RTVSPropertyOp36
 70
     1
102
RTVSPropertyOp37
 70
     1
102
RTVSPropertyOp38
 70
     1
102
RTVSPropertyOp39
 70
     1
102
RTVSPropertyOp40
 70
     1
102
RTVSPropertyOp41
 70
     1
102
RTVSPropertyOp42
 70
     1
102
RTVSPropertyOp43
 70
     1
102
RTVSPropertyOp44
 70
     1
102
RTVSPropertyOp45
 70
     1
102
RTVSPropertyOp46
 70
     1
102
RTVSPropertyOp47
 70
     1
102
RTVSPropertyOp48
 70
     1
102
RTVSPropertyOp49
 70
     1
102
RTVSPropertyOp50
 70
     1
102
RTVSPropertyOp51
 70
     0
102
RTVSPropertyOp52
 70
     0
102
RTVSPropertyOp53
 70
     1
102
RTVSPropertyOp54
 70
     1
102
RTVSPropertyOp55
 70
     1
102
RTVSPropertyOp56
 70
     1
102
RTVSPropertyOp57
 70
     1
102
RTVSPropertyOp58
 70
     1
102
RTVSPropertyOp59
 70
     1
102
RTVSPropertyOp60
 70
     1
102
RTVSPropertyOp61
 70
     1
102
RTVSPropertyOp62
 70
     1
  0
ENDSEC
  0
EOF
