  0
SECTION
  2
HEADER
  9
$ACADVER
  1
AC1015
  9
$ACADMAINTVER
 70
    10
  9
$DWGCODEPAGE
  3
ANSI_932
  9
$INSBASE
 10
0.0
 20
0.0
 30
0.0
  9
$EXTMIN
 10
-82.76978724598629
 20
-364.1533134887597
 30
0.0
  9
$EXTMAX
 10
355.6017193994841
 20
322.8530787477598
 30
0.0
  9
$LIMMIN
 10
-296.316999476111
 20
-370.7034300441653
  9
$LIMMAX
 10
623.3128432133979
 20
328.6261559379898
  9
$ORTHOMODE
 70
     1
  9
$REGENMODE
 70
     1
  9
$FILLMODE
 70
     1
  9
$QTEXTMODE
 70
     0
  9
$MIRRTEXT
 70
     1
  9
$LTSCALE
 40
10.0
  9
$ATTMODE
 70
     1
  9
$TEXTSIZE
 40
3.0
  9
$TRACEWID
 40
0.05
  9
$TEXTSTYLE
  7
STANDARD1
  9
$CLAYER
  8
30
  9
$CELTYPE
  6
CONTINUOUS
  9
$CECOLOR
 62
   256
  9
$CELTSCALE
 40
1.0
  9
$DISPSILH
 70
     0
  9
$DIMSCALE
 40
1.0
  9
$DIMASZ
 40
2.0
  9
$DIMEXO
 40
1.0
  9
$DIMDLI
 40
0.5
  9
$DIMRND
 40
0.0
  9
$DIMDLE
 40
0.0
  9
$DIMEXE
 40
0.5
  9
$DIMTP
 40
0.0
  9
$DIMTM
 40
0.0
  9
$DIMTXT
 40
4.0
  9
$DIMCEN
 40
0.09
  9
$DIMTSZ
 40
0.0
  9
$DIMTOL
 70
     0
  9
$DIMLIM
 70
     0
  9
$DIMTIH
 70
     0
  9
$DIMTOH
 70
     1
  9
$DIMSE1
 70
     0
  9
$DIMSE2
 70
     0
  9
$DIMTAD
 70
     3
  9
$DIMZIN
 70
    12
  9
$DIMBLK
  1
OPEN
  9
$DIMASO
 70
     1
  9
$DIMSHO
 70
     1
  9
$DIMPOST
  1

  9
$DIMAPOST
  1

  9
$DIMALT
 70
     0
  9
$DIMALTD
 70
     2
  9
$DIMALTF
 40
25.4
  9
$DIMLFAC
 40
1.0
  9
$DIMTOFL
 70
     0
  9
$DIMTVP
 40
0.0
  9
$DIMTIX
 70
     0
  9
$DIMSOXD
 70
     0
  9
$DIMSAH
 70
     0
  9
$DIMBLK1
  1

  9
$DIMBLK2
  1

  9
$DIMSTYLE
  2
STANDARD
  9
$DIMCLRD
 70
     0
  9
$DIMCLRE
 70
     0
  9
$DIMCLRT
 70
     0
  9
$DIMTFAC
 40
1.0
  9
$DIMGAP
 40
1.0
  9
$DIMJUST
 70
     0
  9
$DIMSD1
 70
     0
  9
$DIMSD2
 70
     0
  9
$DIMTOLJ
 70
     1
  9
$DIMTZIN
 70
     0
  9
$DIMALTZ
 70
     0
  9
$DIMALTTZ
 70
     0
  9
$DIMUPT
 70
     0
  9
$DIMDEC
 70
     1
  9
$DIMTDEC
 70
     1
  9
$DIMALTU
 70
     2
  9
$DIMALTTD
 70
     2
  9
$DIMTXSTY
  7
STANDARD
  9
$DIMAUNIT
 70
     0
  9
$DIMADEC
 70
     0
  9
$DIMALTRND
 40
0.0
  9
$DIMAZIN
 70
     3
  9
$DIMDSEP
 70
    46
  9
$DIMATFIT
 70
     3
  9
$DIMFRAC
 70
     0
  9
$DIMLDRBLK
  1
OPEN
  9
$DIMLUNIT
 70
     2
  9
$DIMLWD
 70
    -2
  9
$DIMLWE
 70
    -2
  9
$DIMTMOVE
 70
     0
  9
$LUNITS
 70
     2
  9
$LUPREC
 70
     4
  9
$SKETCHINC
 40
0.1
  9
$FILLETRAD
 40
0.0
  9
$AUNITS
 70
     0
  9
$AUPREC
 70
     0
  9
$MENU
  1
.
  9
$ELEVATION
 40
0.0
  9
$PELEVATION
 40
0.0
  9
$THICKNESS
 40
0.0
  9
$LIMCHECK
 70
     0
  9
$CHAMFERA
 40
0.0
  9
$CHAMFERB
 40
0.0
  9
$CHAMFERC
 40
0.0
  9
$CHAMFERD
 40
0.0
  9
$SKPOLY
 70
     0
  9
$TDCREATE
 40
2452286.555658657
  9
$TDUCREATE
 40
2452286.180658657
  9
$TDUPDATE
 40
2454907.589083113
  9
$TDUUPDATE
 40
2454907.214083113
  9
$TDINDWG
 40
1.2434339352
  9
$TDUSRTIMER
 40
1.2434283218
  9
$USRTIMER
 70
     1
  9
$ANGBASE
 50
0.0
  9
$ANGDIR
 70
     0
  9
$PDMODE
 70
     0
  9
$PDSIZE
 40
0.0
  9
$PLINEWID
 40
0.0
  9
$SPLFRAME
 70
     0
  9
$SPLINETYPE
 70
     6
  9
$SPLINESEGS
 70
     8
  9
$HANDSEED
  5
6E6C
  9
$SURFTAB1
 70
     6
  9
$SURFTAB2
 70
     6
  9
$SURFTYPE
 70
     6
  9
$SURFU
 70
     6
  9
$SURFV
 70
     6
  9
$UCSBASE
  2

  9
$UCSNAME
  2

  9
$UCSORG
 10
0.0
 20
0.0
 30
0.0
  9
$UCSXDIR
 10
1.0
 20
0.0
 30
0.0
  9
$UCSYDIR
 10
0.0
 20
1.0
 30
0.0
  9
$UCSORTHOREF
  2

  9
$UCSORTHOVIEW
 70
     0
  9
$UCSORGTOP
 10
0.0
 20
0.0
 30
0.0
  9
$UCSORGBOTTOM
 10
0.0
 20
0.0
 30
0.0
  9
$UCSORGLEFT
 10
0.0
 20
0.0
 30
0.0
  9
$UCSORGRIGHT
 10
0.0
 20
0.0
 30
0.0
  9
$UCSORGFRONT
 10
0.0
 20
0.0
 30
0.0
  9
$UCSORGBACK
 10
0.0
 20
0.0
 30
0.0
  9
$PUCSBASE
  2

  9
$PUCSNAME
  2

  9
$PUCSORG
 10
0.0
 20
0.0
 30
0.0
  9
$PUCSXDIR
 10
1.0
 20
0.0
 30
0.0
  9
$PUCSYDIR
 10
0.0
 20
1.0
 30
0.0
  9
$PUCSORTHOREF
  2

  9
$PUCSORTHOVIEW
 70
     0
  9
$PUCSORGTOP
 10
0.0
 20
0.0
 30
0.0
  9
$PUCSORGBOTTOM
 10
0.0
 20
0.0
 30
0.0
  9
$PUCSORGLEFT
 10
0.0
 20
0.0
 30
0.0
  9
$PUCSORGRIGHT
 10
0.0
 20
0.0
 30
0.0
  9
$PUCSORGFRONT
 10
0.0
 20
0.0
 30
0.0
  9
$PUCSORGBACK
 10
0.0
 20
0.0
 30
0.0
  9
$USERI1
 70
     0
  9
$USERI2
 70
     0
  9
$USERI3
 70
     0
  9
$USERI4
 70
     0
  9
$USERI5
 70
     0
  9
$USERR1
 40
0.0
  9
$USERR2
 40
0.0
  9
$USERR3
 40
0.0
  9
$USERR4
 40
0.0
  9
$USERR5
 40
0.0
  9
$WORLDVIEW
 70
     1
  9
$SHADEDGE
 70
     3
  9
$SHADEDIF
 70
    70
  9
$TILEMODE
 70
     1
  9
$MAXACTVP
 70
    48
  9
$PINSBASE
 10
0.0
 20
0.0
 30
0.0
  9
$PLIMCHECK
 70
     0
  9
$PEXTMIN
 10
4.273573
 20
5.205245999999998
 30
0.0
  9
$PEXTMAX
 10
194.610095
 20
283.0697009999996
 30
0.0
  9
$PLIMMIN
 10
-5.873749
 20
-5.87375
  9
$PLIMMAX
 10
204.099579
 20
291.1369009999999
  9
$UNITMODE
 70
     0
  9
$VISRETAIN
 70
     1
  9
$PLINEGEN
 70
     0
  9
$PSLTSCALE
 70
     1
  9
$TREEDEPTH
 70
  3020
  9
$CMLSTYLE
  2
STANDARD
  9
$CMLJUST
 70
     0
  9
$CMLSCALE
 40
1.0
  9
$PROXYGRAPHICS
 70
     1
  9
$MEASUREMENT
 70
     0
  9
$CELWEIGHT
370
    -1
  9
$ENDCAPS
280
     0
  9
$JOINSTYLE
280
     0
  9
$LWDISPLAY
290
     0
  9
$INSUNITS
 70
     0
  9
$HYPERLINKBASE
  1

  9
$STYLESHEET
  1
KIKI.ctb
  9
$XEDIT
290
     1
  9
$CEPSNTYPE
380
     0
  9
$PSTYLEMODE
290
     1
  9
$FINGERPRINTGUID
  2

  9
$VERSIONGUID
  2
{80BEDC14-8C36-4AF8-8F30-BD49C06D8172}
  9
$EXTNAMES
290
     1
  9
$PSVPSCALE
 40
0.0
  9
$OLESTARTUP
290
     0
  0
ENDSEC
  0
SECTION
  2
CLASSES
  0
CLASS
  1
ACDBDICTIONARYWDFLT
  2
AcDbDictionaryWithDefault
  3
AutoCAD 2000
 90
        0
280
     0
281
     0
  0
CLASS
  1
ACDBPLACEHOLDER
  2
AcDbPlaceHolder
  3
AutoCAD 2000
 90
        0
280
     0
281
     0
  0
CLASS
  1
LAYOUT
  2
AcDbLayout
  3
AutoCAD 2000
 90
        0
280
     0
281
     0
  0
CLASS
  1
LONG_TRANSACTION
  2
AcDbLongTransaction
  3
AutoCAD 2000
 90
    32768
280
     0
281
     0
  0
CLASS
  1
LWPOLYLINE
  2
AcDbPolyline
  3
AutoCAD 2000
 90
    32768
280
     0
281
     1
  0
CLASS
  1
HATCH
  2
AcDbHatch
  3
AutoCAD 2000
 90
    32768
280
     0
281
     1
  0
CLASS
  1
XRECORD
  2
AcDbXrecord
  3
AutoCAD 2000
 90
    32768
280
     0
281
     0
  0
CLASS
  1
LONG_TRANSACTION
  2
AcDbLongTransaction
  3
AutoCAD 2000
 90
    32768
280
     0
281
     0
  0
CLASS
  1
LWPOLYLINE
  2
AcDbPolyline
  3
AutoCAD 2000
 90
    32768
280
     0
281
     1
  0
CLASS
  1
HATCH
  2
AcDbHatch
  3
AutoCAD 2000
 90
    32768
280
     0
281
     1
  0
CLASS
  1
XRECORD
  2
AcDbXrecord
  3
AutoCAD 2000
 90
    32768
280
     0
281
     0
  0
CLASS
  1
LONG_TRANSACTION
  2
AcDbLongTransaction
  3
AutoCAD 2000
 90
    32768
280
     0
281
     0
  0
CLASS
  1
LWPOLYLINE
  2
AcDbPolyline
  3
AutoCAD 2000
 90
    32768
280
     0
281
     1
  0
CLASS
  1
HATCH
  2
AcDbHatch
  3
AutoCAD 2000
 90
    32768
280
     0
281
     1
  0
CLASS
  1
XRECORD
  2
AcDbXrecord
  3
AutoCAD 2000
 90
    32768
280
     0
281
     0
  0
CLASS
  1
LONG_TRANSACTION
  2
AcDbLongTransaction
  3
AutoCAD 2000
 90
    32768
280
     0
281
     0
  0
CLASS
  1
LWPOLYLINE
  2
AcDbPolyline
  3
AutoCAD 2000
 90
    32768
280
     0
281
     1
  0
CLASS
  1
HATCH
  2
AcDbHatch
  3
AutoCAD 2000
 90
    32768
280
     0
281
     1
  0
CLASS
  1
XRECORD
  2
AcDbXrecord
  3
AutoCAD 2000
 90
    32768
280
     0
281
     0
  0
CLASS
  1
LONG_TRANSACTION
  2
AcDbLongTransaction
  3
AutoCAD 2000
 90
    32768
280
     0
281
     0
  0
CLASS
  1
LWPOLYLINE
  2
AcDbPolyline
  3
AutoCAD 2000
 90
    32768
280
     0
281
     1
  0
CLASS
  1
HATCH
  2
AcDbHatch
  3
AutoCAD 2000
 90
    32768
280
     0
281
     1
  0
CLASS
  1
XRECORD
  2
AcDbXrecord
  3
AutoCAD 2000
 90
    32768
280
     0
281
     0
  0
CLASS
  1
LONG_TRANSACTION
  2
AcDbLongTransaction
  3
AutoCAD 2000
 90
    32768
280
     0
281
     0
  0
CLASS
  1
LWPOLYLINE
  2
AcDbPolyline
  3
AutoCAD 2000
 90
    32768
280
     0
281
     1
  0
CLASS
  1
HATCH
  2
AcDbHatch
  3
AutoCAD 2000
 90
    32768
280
     0
281
     1
  0
CLASS
  1
XRECORD
  2
AcDbXrecord
  3
AutoCAD 2000
 90
    32768
280
     0
281
     0
  0
CLASS
  1
LONG_TRANSACTION
  2
AcDbLongTransaction
  3
AutoCAD 2000
 90
    32768
280
     0
281
     0
  0
CLASS
  1
LWPOLYLINE
  2
AcDbPolyline
  3
AutoCAD 2000
 90
    32768
280
     0
281
     1
  0
CLASS
  1
HATCH
  2
AcDbHatch
  3
AutoCAD 2000
 90
    32768
280
     0
281
     1
  0
CLASS
  1
XRECORD
  2
AcDbXrecord
  3
AutoCAD 2000
 90
    32768
280
     0
281
     0
  0
CLASS
  1
LONG_TRANSACTION
  2
AcDbLongTransaction
  3
AutoCAD 2000
 90
    32768
280
     0
281
     0
  0
CLASS
  1
LWPOLYLINE
  2
AcDbPolyline
  3
AutoCAD 2000
 90
    32768
280
     0
281
     1
  0
CLASS
  1
HATCH
  2
AcDbHatch
  3
AutoCAD 2000
 90
    32768
280
     0
281
     1
  0
CLASS
  1
XRECORD
  2
AcDbXrecord
  3
AutoCAD 2000
 90
    32768
280
     0
281
     0
  0
CLASS
  1
LONG_TRANSACTION
  2
AcDbLongTransaction
  3
AutoCAD 2000
 90
    32768
280
     0
281
     0
  0
CLASS
  1
LWPOLYLINE
  2
AcDbPolyline
  3
AutoCAD 2000
 90
    32768
280
     0
281
     1
  0
CLASS
  1
HATCH
  2
AcDbHatch
  3
AutoCAD 2000
 90
    32768
280
     0
281
     1
  0
CLASS
  1
XRECORD
  2
AcDbXrecord
  3
AutoCAD 2000
 90
    32768
280
     0
281
     0
  0
CLASS
  1
LONG_TRANSACTION
  2
AcDbLongTransaction
  3
AutoCAD 2000
 90
    32768
280
     0
281
     0
  0
CLASS
  1
LWPOLYLINE
  2
AcDbPolyline
  3
AutoCAD 2000
 90
    32768
280
     0
281
     1
  0
CLASS
  1
HATCH
  2
AcDbHatch
  3
AutoCAD 2000
 90
    32768
280
     0
281
     1
  0
CLASS
  1
XRECORD
  2
AcDbXrecord
  3
AutoCAD 2000
 90
    32768
280
     0
281
     0
  0
CLASS
  1
LONG_TRANSACTION
  2
AcDbLongTransaction
  3
AutoCAD 2000
 90
    32768
280
     0
281
     0
  0
CLASS
  1
LWPOLYLINE
  2
AcDbPolyline
  3
AutoCAD 2000
 90
    32768
280
     0
281
     1
  0
CLASS
  1
HATCH
  2
AcDbHatch
  3
AutoCAD 2000
 90
    32768
280
     0
281
     1
  0
CLASS
  1
XRECORD
  2
AcDbXrecord
  3
AutoCAD 2000
 90
    32768
280
     0
281
     0
  0
CLASS
  1
LONG_TRANSACTION
  2
AcDbLongTransaction
  3
AutoCAD 2000
 90
    32768
280
     0
281
     0
  0
CLASS
  1
LWPOLYLINE
  2
AcDbPolyline
  3
AutoCAD 2000
 90
    32768
280
     0
281
     1
  0
CLASS
  1
HATCH
  2
AcDbHatch
  3
AutoCAD 2000
 90
    32768
280
     0
281
     1
  0
CLASS
  1
XRECORD
  2
AcDbXrecord
  3
AutoCAD 2000
 90
    32768
280
     0
281
     0
  0
CLASS
  1
LONG_TRANSACTION
  2
AcDbLongTransaction
  3
AutoCAD 2000
 90
    32768
280
     0
281
     0
  0
CLASS
  1
LWPOLYLINE
  2
AcDbPolyline
  3
AutoCAD 2000
 90
    32768
280
     0
281
     1
  0
CLASS
  1
HATCH
  2
AcDbHatch
  3
AutoCAD 2000
 90
    32768
280
     0
281
     1
  0
CLASS
  1
XRECORD
  2
AcDbXrecord
  3
AutoCAD 2000
 90
    32768
280
     0
281
     0
  0
CLASS
  1
LONG_TRANSACTION
  2
AcDbLongTransaction
  3
AutoCAD 2000
 90
    32768
280
     0
281
     0
  0
CLASS
  1
LWPOLYLINE
  2
AcDbPolyline
  3
AutoCAD 2000
 90
    32768
280
     0
281
     1
  0
CLASS
  1
HATCH
  2
AcDbHatch
  3
AutoCAD 2000
 90
    32768
280
     0
281
     1
  0
CLASS
  1
XRECORD
  2
AcDbXrecord
  3
AutoCAD 2000
 90
    32768
280
     0
281
     0
  0
CLASS
  1
LONG_TRANSACTION
  2
AcDbLongTransaction
  3
AutoCAD 2000
 90
    32768
280
     0
281
     0
  0
CLASS
  1
LWPOLYLINE
  2
AcDbPolyline
  3
AutoCAD 2000
 90
    32768
280
     0
281
     1
  0
CLASS
  1
HATCH
  2
AcDbHatch
  3
AutoCAD 2000
 90
    32768
280
     0
281
     1
  0
CLASS
  1
XRECORD
  2
AcDbXrecord
  3
AutoCAD 2000
 90
    32768
280
     0
281
     0
  0
CLASS
  1
LONG_TRANSACTION
  2
AcDbLongTransaction
  3
AutoCAD 2000
 90
    32768
280
     0
281
     0
  0
CLASS
  1
LWPOLYLINE
  2
AcDbPolyline
  3
AutoCAD 2000
 90
    32768
280
     0
281
     1
  0
CLASS
  1
HATCH
  2
AcDbHatch
  3
AutoCAD 2000
 90
    32768
280
     0
281
     1
  0
CLASS
  1
XRECORD
  2
AcDbXrecord
  3
AutoCAD 2000
 90
    32768
280
     0
281
     0
  0
CLASS
  1
LONG_TRANSACTION
  2
AcDbLongTransaction
  3
AutoCAD 2000
 90
    32768
280
     0
281
     0
  0
CLASS
  1
LWPOLYLINE
  2
AcDbPolyline
  3
AutoCAD 2000
 90
    32768
280
     0
281
     1
  0
CLASS
  1
HATCH
  2
AcDbHatch
  3
AutoCAD 2000
 90
    32768
280
     0
281
     1
  0
CLASS
  1
XRECORD
  2
AcDbXrecord
  3
AutoCAD 2000
 90
    32768
280
     0
281
     0
  0
CLASS
  1
LONG_TRANSACTION
  2
AcDbLongTransaction
  3
AutoCAD 2000
 90
    32768
280
     0
281
     0
  0
CLASS
  1
LWPOLYLINE
  2
AcDbPolyline
  3
AutoCAD 2000
 90
    32768
280
     0
281
     1
  0
CLASS
  1
HATCH
  2
AcDbHatch
  3
AutoCAD 2000
 90
    32768
280
     0
281
     1
  0
CLASS
  1
XRECORD
  2
AcDbXrecord
  3
AutoCAD 2000
 90
    32768
280
     0
281
     0
  0
CLASS
  1
LONG_TRANSACTION
  2
AcDbLongTransaction
  3
AutoCAD 2000
 90
    32768
280
     0
281
     0
  0
CLASS
  1
LWPOLYLINE
  2
AcDbPolyline
  3
AutoCAD 2000
 90
    32768
280
     0
281
     1
  0
CLASS
  1
HATCH
  2
AcDbHatch
  3
AutoCAD 2000
 90
    32768
280
     0
281
     1
  0
CLASS
  1
XRECORD
  2
AcDbXrecord
  3
AutoCAD 2000
 90
    32768
280
     0
281
     0
  0
CLASS
  1
LONG_TRANSACTION
  2
AcDbLongTransaction
  3
AutoCAD 2000
 90
    32768
280
     0
281
     0
  0
CLASS
  1
LWPOLYLINE
  2
AcDbPolyline
  3
AutoCAD 2000
 90
    32768
280
     0
281
     1
  0
CLASS
  1
HATCH
  2
AcDbHatch
  3
AutoCAD 2000
 90
    32768
280
     0
281
     1
  0
CLASS
  1
XRECORD
  2
AcDbXrecord
  3
AutoCAD 2000
 90
    32768
280
     0
281
     0
  0
CLASS
  1
LONG_TRANSACTION
  2
AcDbLongTransaction
  3
AutoCAD 2000
 90
    32768
280
     0
281
     0
  0
CLASS
  1
LWPOLYLINE
  2
AcDbPolyline
  3
AutoCAD 2000
 90
    32768
280
     0
281
     1
  0
CLASS
  1
HATCH
  2
AcDbHatch
  3
AutoCAD 2000
 90
    32768
280
     0
281
     1
  0
CLASS
  1
XRECORD
  2
AcDbXrecord
  3
AutoCAD 2000
 90
    32768
280
     0
281
     0
  0
CLASS
  1
LONG_TRANSACTION
  2
AcDbLongTransaction
  3
AutoCAD 2000
 90
    32768
280
     0
281
     0
  0
CLASS
  1
LWPOLYLINE
  2
AcDbPolyline
  3
AutoCAD 2000
 90
    32768
280
     0
281
     1
  0
CLASS
  1
HATCH
  2
AcDbHatch
  3
AutoCAD 2000
 90
    32768
280
     0
281
     1
  0
CLASS
  1
XRECORD
  2
AcDbXrecord
  3
AutoCAD 2000
 90
    32768
280
     0
281
     0
  0
CLASS
  1
LONG_TRANSACTION
  2
AcDbLongTransaction
  3
AutoCAD 2000
 90
    32768
280
     0
281
     0
  0
CLASS
  1
LWPOLYLINE
  2
AcDbPolyline
  3
AutoCAD 2000
 90
    32768
280
     0
281
     1
  0
CLASS
  1
HATCH
  2
AcDbHatch
  3
AutoCAD 2000
 90
    32768
280
     0
281
     1
  0
CLASS
  1
XRECORD
  2
AcDbXrecord
  3
AutoCAD 2000
 90
    32768
280
     0
281
     0
  0
CLASS
  1
LONG_TRANSACTION
  2
AcDbLongTransaction
  3
AutoCAD 2000
 90
    32768
280
     0
281
     0
  0
CLASS
  1
LWPOLYLINE
  2
AcDbPolyline
  3
AutoCAD 2000
 90
    32768
280
     0
281
     1
  0
CLASS
  1
HATCH
  2
AcDbHatch
  3
AutoCAD 2000
 90
    32768
280
     0
281
     1
  0
CLASS
  1
XRECORD
  2
AcDbXrecord
  3
AutoCAD 2000
 90
    32768
280
     0
281
     0
  0
CLASS
  1
LONG_TRANSACTION
  2
AcDbLongTransaction
  3
AutoCAD 2000
 90
    32768
280
     0
281
     0
  0
CLASS
  1
LWPOLYLINE
  2
AcDbPolyline
  3
AutoCAD 2000
 90
    32768
280
     0
281
     1
  0
CLASS
  1
HATCH
  2
AcDbHatch
  3
AutoCAD 2000
 90
    32768
280
     0
281
     1
  0
CLASS
  1
XRECORD
  2
AcDbXrecord
  3
AutoCAD 2000
 90
    32768
280
     0
281
     0
  0
CLASS
  1
LONG_TRANSACTION
  2
AcDbLongTransaction
  3
AutoCAD 2000
 90
    32768
280
     0
281
     0
  0
CLASS
  1
LWPOLYLINE
  2
AcDbPolyline
  3
AutoCAD 2000
 90
    32768
280
     0
281
     1
  0
CLASS
  1
HATCH
  2
AcDbHatch
  3
AutoCAD 2000
 90
    32768
280
     0
281
     1
  0
CLASS
  1
XRECORD
  2
AcDbXrecord
  3
AutoCAD 2000
 90
    32768
280
     0
281
     0
  0
CLASS
  1
LONG_TRANSACTION
  2
AcDbLongTransaction
  3
AutoCAD 2000
 90
    32768
280
     0
281
     0
  0
CLASS
  1
LWPOLYLINE
  2
AcDbPolyline
  3
AutoCAD 2000
 90
    32768
280
     0
281
     1
  0
CLASS
  1
HATCH
  2
AcDbHatch
  3
AutoCAD 2000
 90
    32768
280
     0
281
     1
  0
CLASS
  1
XRECORD
  2
AcDbXrecord
  3
AutoCAD 2000
 90
    32768
280
     0
281
     0
  0
CLASS
  1
LONG_TRANSACTION
  2
AcDbLongTransaction
  3
AutoCAD 2000
 90
    32768
280
     0
281
     0
  0
CLASS
  1
LWPOLYLINE
  2
AcDbPolyline
  3
AutoCAD 2000
 90
    32768
280
     0
281
     1
  0
CLASS
  1
HATCH
  2
AcDbHatch
  3
AutoCAD 2000
 90
    32768
280
     0
281
     1
  0
CLASS
  1
XRECORD
  2
AcDbXrecord
  3
AutoCAD 2000
 90
    32768
280
     0
281
     0
  0
CLASS
  1
LONG_TRANSACTION
  2
AcDbLongTransaction
  3
AutoCAD 2000
 90
    32768
280
     0
281
     0
  0
CLASS
  1
LWPOLYLINE
  2
AcDbPolyline
  3
AutoCAD 2000
 90
    32768
280
     0
281
     1
  0
CLASS
  1
HATCH
  2
AcDbHatch
  3
AutoCAD 2000
 90
    32768
280
     0
281
     1
  0
CLASS
  1
XRECORD
  2
AcDbXrecord
  3
AutoCAD 2000
 90
    32768
280
     0
281
     0
  0
CLASS
  1
LONG_TRANSACTION
  2
AcDbLongTransaction
  3
AutoCAD 2000
 90
    32768
280
     0
281
     0
  0
CLASS
  1
LWPOLYLINE
  2
AcDbPolyline
  3
AutoCAD 2000
 90
    32768
280
     0
281
     1
  0
CLASS
  1
HATCH
  2
AcDbHatch
  3
AutoCAD 2000
 90
    32768
280
     0
281
     1
  0
CLASS
  1
XRECORD
  2
AcDbXrecord
  3
AutoCAD 2000
 90
    32768
280
     0
281
     0
  0
CLASS
  1
LONG_TRANSACTION
  2
AcDbLongTransaction
  3
AutoCAD 2000
 90
    32768
280
     0
281
     0
  0
CLASS
  1
LWPOLYLINE
  2
AcDbPolyline
  3
AutoCAD 2000
 90
    32768
280
     0
281
     1
  0
CLASS
  1
HATCH
  2
AcDbHatch
  3
AutoCAD 2000
 90
    32768
280
     0
281
     1
  0
CLASS
  1
XRECORD
  2
AcDbXrecord
  3
AutoCAD 2000
 90
    32768
280
     0
281
     0
  0
CLASS
  1
LONG_TRANSACTION
  2
AcDbLongTransaction
  3
AutoCAD 2000
 90
    32768
280
     0
281
     0
  0
CLASS
  1
LWPOLYLINE
  2
AcDbPolyline
  3
AutoCAD 2000
 90
    32768
280
     0
281
     1
  0
CLASS
  1
HATCH
  2
AcDbHatch
  3
AutoCAD 2000
 90
    32768
280
     0
281
     1
  0
CLASS
  1
XRECORD
  2
AcDbXrecord
  3
AutoCAD 2000
 90
    32768
280
     0
281
     0
  0
CLASS
  1
LONG_TRANSACTION
  2
AcDbLongTransaction
  3
AutoCAD 2000
 90
    32768
280
     0
281
     0
  0
CLASS
  1
LWPOLYLINE
  2
AcDbPolyline
  3
AutoCAD 2000
 90
    32768
280
     0
281
     1
  0
CLASS
  1
HATCH
  2
AcDbHatch
  3
AutoCAD 2000
 90
    32768
280
     0
281
     1
  0
CLASS
  1
XRECORD
  2
AcDbXrecord
  3
AutoCAD 2000
 90
    32768
280
     0
281
     0
  0
CLASS
  1
DICTIONARYVAR
  2
AcDbDictionaryVar
  3
AutoCAD 2000
 90
        0
280
     0
281
     0
  0
CLASS
  1
LONG_TRANSACTION
  2
AcDbLongTransaction
  3
AutoCAD 2000
 90
    32768
280
     0
281
     0
  0
CLASS
  1
LWPOLYLINE
  2
AcDbPolyline
  3
AutoCAD 2000
 90
    32768
280
     0
281
     1
  0
CLASS
  1
HATCH
  2
AcDbHatch
  3
AutoCAD 2000
 90
    32768
280
     0
281
     1
  0
CLASS
  1
XRECORD
  2
AcDbXrecord
  3
AutoCAD 2000
 90
    32768
280
     0
281
     0
  0
CLASS
  1
LONG_TRANSACTION
  2
AcDbLongTransaction
  3
AutoCAD 2000
 90
    32768
280
     0
281
     0
  0
CLASS
  1
LWPOLYLINE
  2
AcDbPolyline
  3
AutoCAD 2000
 90
    32768
280
     0
281
     1
  0
CLASS
  1
HATCH
  2
AcDbHatch
  3
AutoCAD 2000
 90
    32768
280
     0
281
     1
  0
CLASS
  1
XRECORD
  2
AcDbXrecord
  3
AutoCAD 2000
 90
    32768
280
     0
281
     0
  0
CLASS
  1
LONG_TRANSACTION
  2
AcDbLongTransaction
  3
AutoCAD 2000
 90
    32768
280
     0
281
     0
  0
CLASS
  1
LWPOLYLINE
  2
AcDbPolyline
  3
AutoCAD 2000
 90
    32768
280
     0
281
     1
  0
CLASS
  1
HATCH
  2
AcDbHatch
  3
AutoCAD 2000
 90
    32768
280
     0
281
     1
  0
CLASS
  1
XRECORD
  2
AcDbXrecord
  3
AutoCAD 2000
 90
    32768
280
     0
281
     0
  0
CLASS
  1
LONG_TRANSACTION
  2
AcDbLongTransaction
  3
AutoCAD 2000
 90
    32768
280
     0
281
     0
  0
CLASS
  1
LWPOLYLINE
  2
AcDbPolyline
  3
AutoCAD 2000
 90
    32768
280
     0
281
     1
  0
CLASS
  1
HATCH
  2
AcDbHatch
  3
AutoCAD 2000
 90
    32768
280
     0
281
     1
  0
CLASS
  1
XRECORD
  2
AcDbXrecord
  3
AutoCAD 2000
 90
    32768
280
     0
281
     0
  0
CLASS
  1
LONG_TRANSACTION
  2
AcDbLongTransaction
  3
AutoCAD 2000
 90
    32768
280
     0
281
     0
  0
CLASS
  1
LWPOLYLINE
  2
AcDbPolyline
  3
AutoCAD 2000
 90
    32768
280
     0
281
     1
  0
CLASS
  1
HATCH
  2
AcDbHatch
  3
AutoCAD 2000
 90
    32768
280
     0
281
     1
  0
CLASS
  1
XRECORD
  2
AcDbXrecord
  3
AutoCAD 2000
 90
    32768
280
     0
281
     0
  0
CLASS
  1
LONG_TRANSACTION
  2
AcDbLongTransaction
  3
AutoCAD 2000
 90
    32768
280
     0
281
     0
  0
CLASS
  1
LWPOLYLINE
  2
AcDbPolyline
  3
AutoCAD 2000
 90
    32768
280
     0
281
     1
  0
CLASS
  1
HATCH
  2
AcDbHatch
  3
AutoCAD 2000
 90
    32768
280
     0
281
     1
  0
CLASS
  1
XRECORD
  2
AcDbXrecord
  3
AutoCAD 2000
 90
    32768
280
     0
281
     0
  0
ENDSEC
  0
SECTION
  2
TABLES
  0
TABLE
  2
VPORT
  5
8
330
0
100
AcDbSymbolTable
 70
     3
  0
VPORT
  5
6E6B
330
8
100
AcDbSymbolTableRecord
100
AcDbViewportTableRecord
  2
*Active
 70
     0
 10
0.0
 20
0.0
 11
1.0
 21
1.0
 12
233.1811048221712
 22
190.7900082159744
 13
0.0
 23
0.0
 14
1.0
 24
1.0
 15
10.0
 25
10.0
 16
0.0
 26
0.0
 36
1.0
 17
0.0
 27
0.0
 37
0.0
 40
121.1873304658142
 41
1.700716845878136
 42
50.0
 43
0.0
 44
0.0
 50
0.0
 51
0.0
 71
     0
 72
   100
 73
     1
 74
     1
 75
     0
 76
     0
 77
     0
 78
     0
281
     0
 65
     1
110
0.0
120
0.0
130
0.0
111
1.0
121
0.0
131
0.0
112
0.0
122
1.0
132
0.0
 79
     0
146
0.0
  0
ENDTAB
  0
TABLE
  2
LTYPE
  5
5
330
0
100
AcDbSymbolTable
 70
     5
  0
LTYPE
  5
13
330
5
100
AcDbSymbolTableRecord
100
AcDbLinetypeTableRecord
  2
BYBLOCK
 70
     0
  3

 72
    65
 73
     0
 40
0.0
  0
LTYPE
  5
14
330
5
100
AcDbSymbolTableRecord
100
AcDbLinetypeTableRecord
  2
BYLAYER
 70
     0
  3

 72
    65
 73
     0
 40
0.0
  0
LTYPE
  5
15
330
5
100
AcDbSymbolTableRecord
100
AcDbLinetypeTableRecord
  2
CONTINUOUS
 70
     0
  3
Solid line
 72
    65
 73
     0
 40
0.0
  0
LTYPE
  5
22
330
5
100
AcDbSymbolTableRecord
100
AcDbLinetypeTableRecord
  2
CONTINOUS
 70
     0
  3
Solid line
 72
    65
 73
     0
 40
0.0
  0
LTYPE
  5
23
330
5
100
AcDbSymbolTableRecord
100
AcDbLinetypeTableRecord
  2
DASHED
 70
     0
  3
__ __ __ __ __ __ __ __ __ __ __ __ __ __ __
 72
    65
 73
     2
 40
0.75
 49
0.5
 74
     0
 49
-0.25
 74
     0
  0
LTYPE
  5
24
330
5
100
AcDbSymbolTableRecord
100
AcDbLinetypeTableRecord
  2
DASHDOT
 70
     0
  3
__ . __ . __ . __ . __ . __ . __ . __ . __ . __
 72
    65
 73
     4
 40
1.0
 49
0.5
 74
     0
 49
-0.25
 74
     0
 49
0.0
 74
     0
 49
-0.25
 74
     0
  0
LTYPE
  5
4C47
330
5
100
AcDbSymbolTableRecord
100
AcDbLinetypeTableRecord
  2
DIVIDE
 70
     0
  3
Divide ____ . . ____ . . ____ . . ____ . . ____
 72
    65
 73
     6
 40
1.25
 49
0.5
 74
     0
 49
-0.25
 74
     0
 49
0.0
 74
     0
 49
-0.25
 74
     0
 49
0.0
 74
     0
 49
-0.25
 74
     0
  0
ENDTAB
  0
TABLE
  2
LAYER
  5
2
330
0
100
AcDbSymbolTable
 70
    13
  0
LAYER
  5
10
330
2
100
AcDbSymbolTableRecord
100
AcDbLayerTableRecord
  2
0
 70
     0
 62
     7
  6
CONTINOUS
370
    -3
390
F
  0
LAYER
  5
2F
330
2
100
AcDbSymbolTableRecord
100
AcDbLayerTableRecord
  2
10
 70
     0
 62
     4
  6
CONTINOUS
370
    -3
390
F
  0
LAYER
  5
31
330
2
100
AcDbSymbolTableRecord
100
AcDbLayerTableRecord
  2
12
 70
     0
 62
     3
  6
CONTINOUS
370
    -3
390
F
  0
LAYER
  5
35
330
2
100
AcDbSymbolTableRecord
100
AcDbLayerTableRecord
  2
16
 70
     0
 62
     6
  6
DASHDOT
370
    -3
390
F
  0
LAYER
  5
38
330
2
100
AcDbSymbolTableRecord
100
AcDbLayerTableRecord
  2
19
 70
     0
 62
     7
  6
CONTINOUS
370
    -3
390
F
  0
LAYER
  5
3C
330
2
100
AcDbSymbolTableRecord
100
AcDbLayerTableRecord
  2
11
 70
     0
 62
     1
  6
CONTINOUS
370
    -3
390
F
  0
LAYER
  5
3D
330
2
100
AcDbSymbolTableRecord
100
AcDbLayerTableRecord
  2
24
 70
     0
 62
     2
  6
CONTINOUS
370
    -3
390
F
  0
LAYER
  5
3A2
330
2
100
AcDbSymbolTableRecord
100
AcDbLayerTableRecord
  2
30
 70
     0
 62
     9
  6
CONTINUOUS
370
    -3
390
F
  0
LAYER
  5
3A4
330
2
100
AcDbSymbolTableRecord
100
AcDbLayerTableRecord
  2
DEFPOINTS
 70
     0
 62
     7
  6
CONTINUOUS
290
     0
370
    -3
390
F
  0
LAYER
  5
3BBA
330
2
100
AcDbSymbolTableRecord
100
AcDbLayerTableRecord
  2
18
 70
     0
 62
     5
  6
DIVIDE
370
    -3
390
F
  0
LAYER
  5
5117
330
2
100
AcDbSymbolTableRecord
100
AcDbLayerTableRecord
  2
TOP
 70
     0
 62
     7
  6
CONTINUOUS
370
    -3
390
F
  0
LAYER
  5
64C0
330
2
100
AcDbSymbolTableRecord
100
AcDbLayerTableRecord
  2
5
 70
     0
 62
     7
  6
CONTINUOUS
370
    -3
390
F
  0
LAYER
  5
6A80
330
2
100
AcDbSymbolTableRecord
100
AcDbLayerTableRecord
  2
1
 70
     0
 62
     7
  6
CONTINUOUS
370
    -3
390
F
  0
ENDTAB
  0
TABLE
  2
STYLE
  5
3
330
0
100
AcDbSymbolTable
 70
     3
  0
STYLE
  5
11
330
3
100
AcDbSymbolTableRecord
100
AcDbTextStyleTableRecord
  2
STANDARD
 70
     0
 40
0.0
 41
1.0
 50
0.0
 71
     0
 42
2.0
  3
txt.shx
  4
bigfont.shx
  0
STYLE
  5
42
330
3
100
AcDbSymbolTableRecord
100
AcDbTextStyleTableRecord
  2
STANDARD1
 70
     0
 40
0.0
 41
1.0
 50
0.0
 71
     0
 42
3.0
  3
MONOTXT
  4
BIGFONT
  0
STYLE
  5
5016
330
3
100
AcDbSymbolTableRecord
100
AcDbTextStyleTableRecord
  2
UGMTXT
 70
     0
 40
0.0
 41
1.0
 50
0.0
 71
     0
 42
0.2
  3
ugmtxt
  4
bigfont
  0
ENDTAB
  0
TABLE
  2
VIEW
  5
6
330
0
100
AcDbSymbolTable
 70
     3
  0
VIEW
  5
230C
330
6
100
AcDbSymbolTableRecord
100
AcDbViewTableRecord
  2
OLE1
 70
     0
 40
148.912488
 10
429.497628
 20
2.560627
 41
103.145806
 11
0.0
 21
0.0
 31
1.0
 12
0.0
 22
0.0
 32
0.0
 42
50.0
 43
0.0
 44
0.0
 50
0.0
 71
     0
281
     0
 72
     0
  0
VIEW
  5
230E
330
6
100
AcDbSymbolTableRecord
100
AcDbViewTableRecord
  2
OLE2
 70
     0
 40
170.778692
 10
322.66497
 20
-5.978304
 41
102.467215
 11
0.0
 21
0.0
 31
1.0
 12
0.0
 22
0.0
 32
0.0
 42
50.0
 43
0.0
 44
0.0
 50
0.0
 71
     0
281
     0
 72
     0
  0
VIEW
  5
23AA
330
6
100
AcDbSymbolTableRecord
100
AcDbViewTableRecord
  2
OLE3
 70
     0
 40
591.7897389999998
 10
84.79698199999999
 20
-46.09335999999998
 41
388.792096
 11
0.0
 21
0.0
 31
1.0
 12
0.0
 22
0.0
 32
0.0
 42
50.0
 43
0.0
 44
0.0
 50
0.0
 71
     0
281
     0
 72
     0
  0
ENDTAB
  0
TABLE
  2
UCS
  5
7
330
0
100
AcDbSymbolTable
 70
     0
  0
ENDTAB
  0
TABLE
  2
APPID
  5
9
330
0
100
AcDbSymbolTable
 70
     2
  0
APPID
  5
12
330
9
100
AcDbSymbolTableRecord
100
AcDbRegAppTableRecord
  2
ACAD
 70
     0
  0
APPID
  5
ECD
330
9
100
AcDbSymbolTableRecord
100
AcDbRegAppTableRecord
  2
CONTENTBLOCKICON
 70
     0
  0
ENDTAB
  0
TABLE
  2
DIMSTYLE
  5
A
330
0
100
AcDbSymbolTable
 70
     1
100
AcDbDimStyleTable
 71
     0
  0
DIMSTYLE
105
175
102
{ACAD_REACTORS
330
62D4
330
62D3
330
62F8
330
62D2
330
657D
330
657C
330
6592
330
65B0
330
65AC
330
67C1
330
6571
330
6575
330
6573
330
6570
330
6593
330
63B5
330
63C8
330
6817
330
68F3
330
6909
330
6916
330
694B
330
6967
330
6974
330
6A8F
330
6A8B
330
6D30
330
6D3F
330
6D55
102
}
330
A
100
AcDbSymbolTableRecord
100
AcDbDimStyleTableRecord
  2
STANDARD
 70
     0
 41
2.0
 42
1.0
 43
0.5
 44
0.5
 73
     0
 77
     3
 78
    12
140
4.0
147
1.0
271
     1
272
     1
340
11
341
3B2
342
3B2
  0
ENDTAB
  0
TABLE
  2
BLOCK_RECORD
  5
1
330
0
100
AcDbSymbolTable
 70
    39
  0
BLOCK_RECORD
  5
1E
102
{ACAD_XDICTIONARY
360
178
102
}
330
1
100
AcDbSymbolTableRecord
100
AcDbBlockTableRecord
  2
*MODEL_SPACE
340
6E67
  0
BLOCK_RECORD
  5
1A
102
{ACAD_XDICTIONARY
360
17A
102
}
330
1
100
AcDbSymbolTableRecord
100
AcDbBlockTableRecord
  2
*PAPER_SPACE
340
6E68
  0
BLOCK_RECORD
  5
3B2
330
1
100
AcDbSymbolTableRecord
100
AcDbBlockTableRecord
  2
_OPEN
340
0
102
{BLKREFS
331
6750
331
6751
331
68B1
331
68B2
331
6B4A
331
6B4B
331
6747
331
6748
331
6DD8
331
6DD9
331
6DB8
331
6C42
331
6C43
331
6C67
331
6C68
331
6C54
331
6C55
331
6C1D
331
6C1E
331
676B
331
676C
331
6762
331
6763
331
6BEF
331
6BF0
331
6CB9
331
6CBA
331
67BB
331
67BC
331
67B2
331
67B3
331
6C5E
331
6C5F
331
6D9E
331
6D9F
331
6DCF
331
6DD0
331
6B53
331
6B54
331
6B65
331
6B66
331
6928
331
6929
331
69F9
331
69FA
331
6A02
331
6A03
331
6DC0
331
6DC1
331
6BA7
331
6BA8
331
6979
331
697A
331
6CCD
331
6CCE
331
6ADD
331
6ADE
331
6D35
331
6D36
331
6D4F
331
6D50
331
6D65
331
6D66
331
6D96
102
}
  0
BLOCK_RECORD
  5
6328
330
1
100
AcDbSymbolTableRecord
100
AcDbBlockTableRecord
  2
*D1
340
0
  0
BLOCK_RECORD
  5
6334
330
1
100
AcDbSymbolTableRecord
100
AcDbBlockTableRecord
  2
*D2
340
0
  0
BLOCK_RECORD
  5
6340
330
1
100
AcDbSymbolTableRecord
100
AcDbBlockTableRecord
  2
*D3
340
0
  0
BLOCK_RECORD
  5
634C
330
1
100
AcDbSymbolTableRecord
100
AcDbBlockTableRecord
  2
*D4
340
0
  0
BLOCK_RECORD
  5
63CC
330
1
100
AcDbSymbolTableRecord
100
AcDbBlockTableRecord
  2
*D5
340
0
  0
BLOCK_RECORD
  5
63D8
330
1
100
AcDbSymbolTableRecord
100
AcDbBlockTableRecord
  2
*D6
340
0
  0
BLOCK_RECORD
  5
6402
330
1
100
AcDbSymbolTableRecord
100
AcDbBlockTableRecord
  2
*U7
340
0
102
{BLKREFS
331
65AF
102
}
  0
BLOCK_RECORD
  5
6406
330
1
100
AcDbSymbolTableRecord
100
AcDbBlockTableRecord
  2
*U8
340
0
102
{BLKREFS
331
65AE
102
}
  0
BLOCK_RECORD
  5
640A
330
1
100
AcDbSymbolTableRecord
100
AcDbBlockTableRecord
  2
*U9
340
0
102
{BLKREFS
331
65BC
102
}
  0
BLOCK_RECORD
  5
640E
330
1
100
AcDbSymbolTableRecord
100
AcDbBlockTableRecord
  2
*U10
340
0
102
{BLKREFS
331
65BB
102
}
  0
BLOCK_RECORD
  5
641D
330
1
100
AcDbSymbolTableRecord
100
AcDbBlockTableRecord
  2
*U11
340
0
102
{BLKREFS
331
65AD
102
}
  0
BLOCK_RECORD
  5
65BE
330
1
100
AcDbSymbolTableRecord
100
AcDbBlockTableRecord
  2
*D12
340
0
  0
BLOCK_RECORD
  5
65CA
330
1
100
AcDbSymbolTableRecord
100
AcDbBlockTableRecord
  2
*D13
340
0
  0
BLOCK_RECORD
  5
65D6
330
1
100
AcDbSymbolTableRecord
100
AcDbBlockTableRecord
  2
*D14
340
0
  0
BLOCK_RECORD
  5
65E2
330
1
100
AcDbSymbolTableRecord
100
AcDbBlockTableRecord
  2
*D15
340
0
  0
BLOCK_RECORD
  5
65EE
330
1
100
AcDbSymbolTableRecord
100
AcDbBlockTableRecord
  2
*D16
340
0
  0
BLOCK_RECORD
  5
65FA
330
1
100
AcDbSymbolTableRecord
100
AcDbBlockTableRecord
  2
*D17
340
0
  0
BLOCK_RECORD
  5
6612
330
1
100
AcDbSymbolTableRecord
100
AcDbBlockTableRecord
  2
*D18
340
0
  0
BLOCK_RECORD
  5
661E
330
1
100
AcDbSymbolTableRecord
100
AcDbBlockTableRecord
  2
*D19
340
0
  0
BLOCK_RECORD
  5
662A
330
1
100
AcDbSymbolTableRecord
100
AcDbBlockTableRecord
  2
*D20
340
0
  0
BLOCK_RECORD
  5
6636
330
1
100
AcDbSymbolTableRecord
100
AcDbBlockTableRecord
  2
*D21
340
0
  0
BLOCK_RECORD
  5
67C2
330
1
100
AcDbSymbolTableRecord
100
AcDbBlockTableRecord
  2
*D22
340
0
  0
BLOCK_RECORD
  5
6818
330
1
100
AcDbSymbolTableRecord
100
AcDbBlockTableRecord
  2
*D23
340
0
  0
BLOCK_RECORD
  5
68F4
330
1
100
AcDbSymbolTableRecord
100
AcDbBlockTableRecord
  2
*D24
340
0
  0
BLOCK_RECORD
  5
690A
330
1
100
AcDbSymbolTableRecord
100
AcDbBlockTableRecord
  2
*D25
340
0
  0
BLOCK_RECORD
  5
6917
330
1
100
AcDbSymbolTableRecord
100
AcDbBlockTableRecord
  2
*D26
340
0
  0
BLOCK_RECORD
  5
6924
330
1
100
AcDbSymbolTableRecord
100
AcDbBlockTableRecord
  2
*D27
340
0
  0
BLOCK_RECORD
  5
6931
330
1
100
AcDbSymbolTableRecord
100
AcDbBlockTableRecord
  2
*D28
340
0
  0
BLOCK_RECORD
  5
693E
330
1
100
AcDbSymbolTableRecord
100
AcDbBlockTableRecord
  2
*D29
340
0
  0
BLOCK_RECORD
  5
694C
330
1
100
AcDbSymbolTableRecord
100
AcDbBlockTableRecord
  2
*D30
340
0
  0
BLOCK_RECORD
  5
6968
330
1
100
AcDbSymbolTableRecord
100
AcDbBlockTableRecord
  2
*D31
340
0
  0
BLOCK_RECORD
  5
6975
330
1
100
AcDbSymbolTableRecord
100
AcDbBlockTableRecord
  2
*D32
340
0
  0
BLOCK_RECORD
  5
6A91
330
1
100
AcDbSymbolTableRecord
100
AcDbBlockTableRecord
  2
*D33
340
0
  0
BLOCK_RECORD
  5
6A9D
330
1
100
AcDbSymbolTableRecord
100
AcDbBlockTableRecord
  2
*D34
340
0
  0
BLOCK_RECORD
  5
6D31
330
1
100
AcDbSymbolTableRecord
100
AcDbBlockTableRecord
  2
*D35
340
0
  0
BLOCK_RECORD
  5
6D40
330
1
100
AcDbSymbolTableRecord
100
AcDbBlockTableRecord
  2
*D36
340
0
  0
BLOCK_RECORD
  5
6D56
330
1
100
AcDbSymbolTableRecord
100
AcDbBlockTableRecord
  2
*D37
340
0
  0
BLOCK_RECORD
  5
6D80
330
1
100
AcDbSymbolTableRecord
100
AcDbBlockTableRecord
  2
*D38
340
0
  0
ENDTAB
  0
ENDSEC
  0
SECTION
  2
BLOCKS
  0
BLOCK
  5
1F
330
1E
100
AcDbEntity
  8
0
100
AcDbBlockBegin
  2
*MODEL_SPACE
 70
     0
 10
0.0
 20
0.0
 30
0.0
  3
*MODEL_SPACE
  1

  0
ENDBLK
  5
20
330
1E
100
AcDbEntity
  8
0
100
AcDbBlockEnd
  0
BLOCK
  5
1B
330
1A
100
AcDbEntity
 67
     1
  8
0
100
AcDbBlockBegin
  2
*PAPER_SPACE
 70
     0
 10
0.0
 20
0.0
 30
0.0
  3
*PAPER_SPACE
  1

  0
ENDBLK
  5
1C
330
1A
100
AcDbEntity
 67
     1
  8
0
100
AcDbBlockEnd
  0
BLOCK
  5
3B6
330
3B2
100
AcDbEntity
  8
0
100
AcDbBlockBegin
  2
_OPEN
 70
     0
 10
0.0
 20
0.0
 30
0.0
  3
_OPEN
  1

  0
LINE
  5
3B3
330
3B2
100
AcDbEntity
  8
30
  6
Continuous
 62
     0
100
AcDbLine
 10
-1.0
 20
0.166667
 30
0.0
 11
0.0
 21
0.0
 31
0.0
  0
LINE
  5
3B4
330
3B2
100
AcDbEntity
  8
30
  6
Continuous
 62
     0
100
AcDbLine
 10
-1.0
 20
-0.166667
 30
0.0
 11
0.0
 21
0.0
 31
0.0
  0
LINE
  5
3B5
330
3B2
100
AcDbEntity
  8
30
  6
Continuous
 62
     0
100
AcDbLine
 10
0.0
 20
0.0
 30
0.0
 11
-1.0
 21
0.0
 31
0.0
  0
ENDBLK
  5
3B7
330
3B2
100
AcDbEntity
  8
0
100
AcDbBlockEnd
  0
BLOCK
  5
6332
330
6328
100
AcDbEntity
  8
0
100
AcDbBlockBegin
  2
*D1
 70
     1
 10
0.0
 20
0.0
 30
0.0
  3
*D1
  1

  0
LINE
  5
674D
330
6328
100
AcDbEntity
  8
30
  6
Continuous
 62
     0
100
AcDbLine
 10
-47.8639054648287
 20
27.15231784516308
 30
0.0
 11
-47.8639054648287
 21
36.8655098313616
 31
0.0
  0
LINE
  5
674E
330
6328
100
AcDbEntity
  8
30
  6
Continuous
 62
     0
100
AcDbLine
 10
50.13609453517131
 20
27.15231784516308
 30
0.0
 11
50.13609453517131
 21
36.8655098313616
 31
0.0
  0
LINE
  5
674F
330
6328
100
AcDbEntity
  8
30
  6
Continuous
 62
     0
100
AcDbLine
 10
-45.8639054648287
 20
36.3655098313616
 30
0.0
 11
48.1360945351713
 21
36.3655098313616
 31
0.0
  0
INSERT
  5
6750
330
6328
100
AcDbEntity
  8
30
  6
Continuous
 62
     0
100
AcDbBlockReference
  2
_OPEN
 10
-47.8639054648287
 20
36.3655098313616
 30
0.0
 41
2.0
 42
2.0
 43
2.0
 50
180.0
  0
INSERT
  5
6751
330
6328
100
AcDbEntity
  8
30
  6
Continuous
 62
     0
100
AcDbBlockReference
  2
_OPEN
 10
50.13609453517131
 20
36.3655098313616
 30
0.0
 41
2.0
 42
2.0
 43
2.0
  0
MTEXT
  5
6752
330
6328
100
AcDbEntity
  8
30
  6
Continuous
 62
     0
100
AcDbMText
 10
1.1360945351713
 20
39.36550983136161
 30
0.0
 40
4.0
 41
0.0
 71
     5
 72
     1
  1
\A1;98
 73
     1
 44
1.0
1001
ACAD
1000
MTEXTBEGIN
1070
    73
1070
     1
1070
    44
1040
1.0
1070
    74
1070
     0
1000
MTEXTEND
1000
MTEXTBEGIN
1070
    73
1070
     1
1070
    44
1040
1.0
1070
    74
1070
     0
1000
MTEXTEND
1000
MTEXTBEGIN
1070
    73
1070
     1
1070
    44
1040
1.0
1070
    74
1070
     0
1000
MTEXTEND
  0
POINT
  5
6753
330
6328
100
AcDbEntity
  8
DEFPOINTS
  6
Continuous
 62
     0
100
AcDbPoint
 10
-47.8639054648287
 20
26.15231784516308
 30
0.0
  0
POINT
  5
6754
330
6328
100
AcDbEntity
  8
DEFPOINTS
  6
Continuous
 62
     0
100
AcDbPoint
 10
50.13609453517131
 20
26.15231784516308
 30
0.0
  0
POINT
  5
6755
330
6328
100
AcDbEntity
  8
DEFPOINTS
  6
Continuous
 62
     0
100
AcDbPoint
 10
50.13609453517131
 20
36.3655098313616
 30
0.0
  0
ENDBLK
  5
6333
330
6328
100
AcDbEntity
  8
0
100
AcDbBlockEnd
  0
BLOCK
  5
633E
330
6334
100
AcDbEntity
  8
0
100
AcDbBlockBegin
  2
*D2
 70
     1
 10
0.0
 20
0.0
 30
0.0
  3
*D2
  1

  0
LINE
  5
68AE
330
6334
100
AcDbEntity
  8
30
  6
Continuous
 62
     0
100
AcDbLine
 10
-51.36390546482873
 20
-82.34768215483692
 30
0.0
 11
-51.36390546482873
 21
-129.802128566828
 31
0.0
  0
LINE
  5
68AF
330
6334
100
AcDbEntity
  8
30
  6
Continuous
 62
     0
100
AcDbLine
 10
88.63609453517133
 20
-82.34768215483692
 30
0.0
 11
88.63609453517133
 21
-129.802128566828
 31
0.0
  0
LINE
  5
68B0
330
6334
100
AcDbEntity
  8
30
  6
Continuous
 62
     0
100
AcDbLine
 10
-49.36390546482873
 20
-129.3021285668281
 30
0.0
 11
86.6360945351713
 21
-129.3021285668281
 31
0.0
  0
INSERT
  5
68B1
330
6334
100
AcDbEntity
  8
30
  6
Continuous
 62
     0
100
AcDbBlockReference
  2
_OPEN
 10
-51.36390546482873
 20
-129.3021285668281
 30
0.0
 41
2.0
 42
2.0
 43
2.0
 50
180.0
  0
INSERT
  5
68B2
330
6334
100
AcDbEntity
  8
30
  6
Continuous
 62
     0
100
AcDbBlockReference
  2
_OPEN
 10
88.63609453517133
 20
-129.3021285668281
 30
0.0
 41
2.0
 42
2.0
 43
2.0
  0
MTEXT
  5
68B3
330
6334
100
AcDbEntity
  8
30
  6
Continuous
 62
     0
100
AcDbMText
 10
18.63609453517129
 20
-126.302128566828
 30
0.0
 40
4.0
 41
0.0
 71
     5
 72
     1
  1
\A1;140
 73
     1
 44
1.0
1001
ACAD
1000
MTEXTBEGIN
1070
    73
1070
     1
1070
    44
1040
1.0
1070
    74
1070
     0
1000
MTEXTEND
1000
MTEXTBEGIN
1070
    73
1070
     1
1070
    44
1040
1.0
1070
    74
1070
     0
1000
MTEXTEND
1000
MTEXTBEGIN
1070
    73
1070
     1
1070
    44
1040
1.0
1070
    74
1070
     0
1000
MTEXTEND
  0
POINT
  5
68B4
330
6334
100
AcDbEntity
  8
DEFPOINTS
  6
Continuous
 62
     0
100
AcDbPoint
 10
-51.36390546482873
 20
-81.34768215483692
 30
0.0
  0
POINT
  5
68B5
330
6334
100
AcDbEntity
  8
DEFPOINTS
  6
Continuous
 62
     0
100
AcDbPoint
 10
88.63609453517133
 20
-81.34768215483692
 30
0.0
  0
POINT
  5
68B6
330
6334
100
AcDbEntity
  8
DEFPOINTS
  6
Continuous
 62
     0
100
AcDbPoint
 10
88.63609453517133
 20
-129.3021285668281
 30
0.0
  0
ENDBLK
  5
633F
330
6334
100
AcDbEntity
  8
0
100
AcDbBlockEnd
  0
BLOCK
  5
634A
330
6340
100
AcDbEntity
  8
0
100
AcDbBlockBegin
  2
*D3
 70
     1
 10
0.0
 20
0.0
 30
0.0
  3
*D3
  1

  0
LINE
  5
6B47
330
6340
100
AcDbEntity
  8
30
  6
Continuous
 62
     0
100
AcDbLine
 10
-33.86390546482871
 20
-106.8476821548369
 30
0.0
 11
-33.86390546482871
 21
-120.177069909307
 31
0.0
  0
LINE
  5
6B48
330
6340
100
AcDbEntity
  8
30
  6
Continuous
 62
     0
100
AcDbLine
 10
1.136094535171279
 20
-106.8476821548369
 30
0.0
 11
1.136094535171278
 21
-120.177069909307
 31
0.0
  0
LINE
  5
6B49
330
6340
100
AcDbEntity
  8
30
  6
Continuous
 62
     0
100
AcDbLine
 10
-31.86390546482871
 20
-119.677069909307
 30
0.0
 11
-0.8639054648287217
 21
-119.677069909307
 31
0.0
  0
INSERT
  5
6B4A
330
6340
100
AcDbEntity
  8
30
  6
Continuous
 62
     0
100
AcDbBlockReference
  2
_OPEN
 10
-33.86390546482871
 20
-119.677069909307
 30
0.0
 41
2.0
 42
2.0
 43
2.0
 50
180.0
  0
INSERT
  5
6B4B
330
6340
100
AcDbEntity
  8
30
  6
Continuous
 62
     0
100
AcDbBlockReference
  2
_OPEN
 10
1.136094535171278
 20
-119.677069909307
 30
0.0
 41
2.0
 42
2.0
 43
2.0
  0
MTEXT
  5
6B4C
330
6340
100
AcDbEntity
  8
30
  6
Continuous
 62
     0
100
AcDbMText
 10
-16.36390546482871
 20
-116.677069909307
 30
0.0
 40
4.0
 41
0.0
 71
     5
 72
     1
  1
\A1;35
 73
     1
 44
1.0
1001
ACAD
1000
MTEXTBEGIN
1070
    73
1070
     1
1070
    44
1040
1.0
1070
    74
1070
     0
1000
MTEXTEND
1000
MTEXTBEGIN
1070
    73
1070
     1
1070
    44
1040
1.0
1070
    74
1070
     0
1000
MTEXTEND
1000
MTEXTBEGIN
1070
    73
1070
     1
1070
    44
1040
1.0
1070
    74
1070
     0
1000
MTEXTEND
  0
POINT
  5
6B4D
330
6340
100
AcDbEntity
  8
DEFPOINTS
  6
Continuous
 62
     0
100
AcDbPoint
 10
-33.86390546482871
 20
-105.8476821548369
 30
0.0
  0
POINT
  5
6B4E
330
6340
100
AcDbEntity
  8
DEFPOINTS
  6
Continuous
 62
     0
100
AcDbPoint
 10
1.136094535171279
 20
-105.8476821548369
 30
0.0
  0
POINT
  5
6B4F
330
6340
100
AcDbEntity
  8
DEFPOINTS
  6
Continuous
 62
     0
100
AcDbPoint
 10
1.136094535171278
 20
-119.677069909307
 30
0.0
  0
ENDBLK
  5
634B
330
6340
100
AcDbEntity
  8
0
100
AcDbBlockEnd
  0
BLOCK
  5
6356
330
634C
100
AcDbEntity
  8
0
100
AcDbBlockBegin
  2
*D4
 70
     1
 10
0.0
 20
0.0
 30
0.0
  3
*D4
  1

  0
LINE
  5
6744
330
634C
100
AcDbEntity
  8
30
  6
Continuous
 62
     0
100
AcDbLine
 10
-9.863905464828716
 20
-24.84768215483692
 30
0.0
 11
-9.863905464828722
 21
-39.80212856682808
 31
0.0
  0
LINE
  5
6745
330
634C
100
AcDbEntity
  8
30
  6
Continuous
 62
     0
100
AcDbLine
 10
12.13609453517128
 20
-24.84768215483692
 30
0.0
 11
12.13609453517128
 21
-39.80212856682808
 31
0.0
  0
LINE
  5
6746
330
634C
100
AcDbEntity
  8
30
  6
Continuous
 62
     0
100
AcDbLine
 10
-7.86390546482872
 20
-39.30212856682809
 30
0.0
 11
10.13609453517126
 21
-39.30212856682809
 31
0.0
  0
INSERT
  5
6747
330
634C
100
AcDbEntity
  8
30
  6
Continuous
 62
     0
100
AcDbBlockReference
  2
_OPEN
 10
-9.863905464828722
 20
-39.30212856682809
 30
0.0
 41
2.0
 42
2.0
 43
2.0
 50
180.0
  0
INSERT
  5
6748
330
634C
100
AcDbEntity
  8
30
  6
Continuous
 62
     0
100
AcDbBlockReference
  2
_OPEN
 10
12.13609453517128
 20
-39.30212856682809
 30
0.0
 41
2.0
 42
2.0
 43
2.0
  0
MTEXT
  5
6749
330
634C
100
AcDbEntity
  8
30
  6
Continuous
 62
     0
100
AcDbMText
 10
1.136094535171279
 20
-36.30212856682808
 30
0.0
 40
4.0
 41
0.0
 71
     5
 72
     1
  1
\A1;22
 73
     1
 44
1.0
1001
ACAD
1000
MTEXTBEGIN
1070
    73
1070
     1
1070
    44
1040
1.0
1070
    74
1070
     0
1000
MTEXTEND
1000
MTEXTBEGIN
1070
    73
1070
     1
1070
    44
1040
1.0
1070
    74
1070
     0
1000
MTEXTEND
1000
MTEXTBEGIN
1070
    73
1070
     1
1070
    44
1040
1.0
1070
    74
1070
     0
1000
MTEXTEND
  0
POINT
  5
674A
330
634C
100
AcDbEntity
  8
DEFPOINTS
  6
Continuous
 62
     0
100
AcDbPoint
 10
-9.863905464828716
 20
-23.84768215483691
 30
0.0
  0
POINT
  5
674B
330
634C
100
AcDbEntity
  8
DEFPOINTS
  6
Continuous
 62
     0
100
AcDbPoint
 10
12.13609453517128
 20
-23.84768215483691
 30
0.0
  0
POINT
  5
674C
330
634C
100
AcDbEntity
  8
DEFPOINTS
  6
Continuous
 62
     0
100
AcDbPoint
 10
12.13609453517128
 20
-39.30212856682809
 30
0.0
  0
ENDBLK
  5
6357
330
634C
100
AcDbEntity
  8
0
100
AcDbBlockEnd
  0
BLOCK
  5
63D6
330
63CC
100
AcDbEntity
  8
0
100
AcDbBlockBegin
  2
*D5
 70
     1
 10
0.0
 20
0.0
 30
0.0
  3
*D5
  1

  0
LINE
  5
6DD5
330
63CC
100
AcDbEntity
  8
30
  6
Continuous
 62
     0
100
AcDbLine
 10
-16.7439999999999
 20
-321.0108058991918
 30
0.0
 11
-16.7439999999999
 21
-362.465252311183
 31
0.0
  0
LINE
  5
6DD6
330
63CC
100
AcDbEntity
  8
30
  6
Continuous
 62
     0
100
AcDbLine
 10
18.25600000000006
 20
-318.0108059156916
 30
0.0
 11
18.25600000000006
 21
-362.465252311183
 31
0.0
  0
LINE
  5
6DD7
330
63CC
100
AcDbEntity
  8
30
  6
Continuous
 62
     0
100
AcDbLine
 10
-14.7439999999999
 20
-361.965252311183
 30
0.0
 11
16.25600000000008
 21
-361.965252311183
 31
0.0
  0
INSERT
  5
6DD8
330
63CC
100
AcDbEntity
  8
30
  6
Continuous
 62
     0
100
AcDbBlockReference
  2
_OPEN
 10
-16.7439999999999
 20
-361.965252311183
 30
0.0
 41
2.0
 42
2.0
 43
2.0
 50
180.0
  0
INSERT
  5
6DD9
330
63CC
100
AcDbEntity
  8
30
  6
Continuous
 62
     0
100
AcDbBlockReference
  2
_OPEN
 10
18.25600000000006
 20
-361.965252311183
 30
0.0
 41
2.0
 42
2.0
 43
2.0
  0
MTEXT
  5
6DDA
330
63CC
100
AcDbEntity
  8
30
  6
Continuous
 62
     0
100
AcDbMText
 10
0.7560000000000893
 20
-358.965252311183
 30
0.0
 40
4.0
 41
0.0
 71
     5
 72
     1
  1
\A1;35
 73
     1
 44
1.0
1001
ACAD
1000
MTEXTBEGIN
1070
    73
1070
     1
1070
    44
1040
1.0
1070
    74
1070
     0
1000
MTEXTEND
1000
MTEXTBEGIN
1070
    73
1070
     1
1070
    44
1040
1.0
1070
    74
1070
     0
1000
MTEXTEND
1000
MTEXTBEGIN
1070
    73
1070
     1
1070
    44
1040
1.0
1070
    74
1070
     0
1000
MTEXTEND
  0
POINT
  5
6DDB
330
63CC
100
AcDbEntity
  8
DEFPOINTS
  6
Continuous
 62
     0
100
AcDbPoint
 10
-16.7439999999999
 20
-320.0108058991918
 30
0.0
  0
POINT
  5
6DDC
330
63CC
100
AcDbEntity
  8
DEFPOINTS
  6
Continuous
 62
     0
100
AcDbPoint
 10
18.25600000000006
 20
-317.0108059156916
 30
0.0
  0
POINT
  5
6DDD
330
63CC
100
AcDbEntity
  8
DEFPOINTS
  6
Continuous
 62
     0
100
AcDbPoint
 10
18.25600000000006
 20
-361.965252311183
 30
0.0
  0
ENDBLK
  5
63D7
330
63CC
100
AcDbEntity
  8
0
100
AcDbBlockEnd
  0
BLOCK
  5
63E1
330
63D8
100
AcDbEntity
  8
0
100
AcDbBlockBegin
  2
*D6
 70
     1
 10
0.0
 20
0.0
 30
0.0
  3
*D6
  1

  0
LINE
  5
6DB5
330
63D8
100
AcDbEntity
  8
30
  6
Continuous
 62
     0
100
AcDbLine
 10
263.8516982110051
 20
-214.7366547359573
 30
0.0
 11
257.5183648776719
 21
-214.7366547359573
 31
0.0
  0
LINE
  5
6DB6
330
63D8
100
AcDbEntity
  8
30
  6
Continuous
 62
     0
100
AcDbLine
 10
257.5183648776719
 20
-214.7366547359573
 30
0.0
 11
251.4072557930123
 21
-224.0061393932386
 31
0.0
  0
MTEXT
  5
6DB7
330
63D8
100
AcDbEntity
  8
30
  6
Continuous
 62
     0
100
AcDbMText
 10
261.1850315443386
 20
-211.7366547359575
 30
0.0
 40
4.0
 41
0.0
 71
     5
 72
     1
  1
\A1;R1
 73
     1
 44
1.0
1001
ACAD
1000
MTEXTBEGIN
1070
    73
1070
     1
1070
    44
1040
1.0
1070
    74
1070
     0
1000
MTEXTEND
1000
MTEXTBEGIN
1070
    73
1070
     1
1070
    44
1040
1.0
1070
    74
1070
     0
1000
MTEXTEND
1000
MTEXTBEGIN
1070
    73
1070
     1
1070
    44
1040
1.0
1070
    74
1070
     0
1000
MTEXTEND
  0
INSERT
  5
6DB8
330
63D8
100
AcDbEntity
  8
30
  6
Continuous
 62
     0
100
AcDbBlockReference
  2
_OPEN
 10
250.3064185976706
 20
-225.675917063874
 30
0.0
 41
2.0
 42
2.0
 43
2.0
 50
236.6042647419413
  0
LINE
  5
6DB9
330
63D8
100
AcDbEntity
  8
30
  6
Continuous
 62
     0
100
AcDbLine
 10
249.6660000000002
 20
-226.5108058991915
 30
0.0
 11
249.8460000000001
 21
-226.5108058991915
 31
0.0
  0
LINE
  5
6DBA
330
63D8
100
AcDbEntity
  8
30
  6
Continuous
 62
     0
100
AcDbLine
 10
249.7560000000002
 20
-226.6008058991916
 30
0.0
 11
249.7560000000002
 21
-226.4208058991915
 31
0.0
  0
POINT
  5
6DBB
330
63D8
100
AcDbEntity
  8
DEFPOINTS
  6
Continuous
 62
     0
100
AcDbPoint
 10
250.3064185976706
 20
-225.675917063874
 30
0.0
  0
POINT
  5
6DBC
330
63D8
100
AcDbEntity
  8
DEFPOINTS
  6
Continuous
 62
     0
100
AcDbPoint
 10
249.7560000000002
 20
-226.5108058991915
 30
0.0
  0
ENDBLK
  5
63E2
330
63D8
100
AcDbEntity
  8
0
100
AcDbBlockEnd
  0
BLOCK
  5
6404
330
6402
100
AcDbEntity
  8
TOP
  6
Continuous
 62
     4
100
AcDbBlockBegin
  2
*U7
 70
     1
 10
0.0
 20
0.0
 30
0.0
  3
*U7
  1

  0
TEXT
  5
6403
330
6402
100
AcDbEntity
  8
TOP
  6
ByBlock
 62
     0
100
AcDbText
 10
241.0
 20
103.4999999999999
 30
0.0
 40
2.500000003799998
  1
25
 41
0.8912499999999965
  7
UGMTXT
100
AcDbText
  0
ENDBLK
  5
6405
330
6402
100
AcDbEntity
  8
0
100
AcDbBlockEnd
  0
BLOCK
  5
6408
330
6406
100
AcDbEntity
  8
TOP
  6
Continuous
 62
     4
100
AcDbBlockBegin
  2
*U8
 70
     1
 10
0.0
 20
0.0
 30
0.0
  3
*U8
  1

  0
TEXT
  5
6407
330
6406
100
AcDbEntity
  8
TOP
  6
ByBlock
 62
     0
100
AcDbText
 10
245.0
 20
103.4999999999999
 30
0.0
 40
2.500000003799998
  1
(max.)
 41
0.8216911764705852
  7
UGMTXT
100
AcDbText
  0
ENDBLK
  5
6409
330
6406
100
AcDbEntity
  8
0
100
AcDbBlockEnd
  0
BLOCK
  5
640C
330
640A
100
AcDbEntity
  8
TOP
  6
Continuous
 62
     4
100
AcDbBlockBegin
  2
*U9
 70
     1
 10
0.0
 20
0.0
 30
0.0
  3
*U9
  1

  0
TEXT
  5
640B
330
640A
100
AcDbEntity
  8
TOP
  6
ByBlock
 62
     0
100
AcDbText
 10
262.5
 20
115.0
 30
0.0
 40
2.500000003799998
  1
10
 50
90.00000000000005
 41
0.8912499999999965
  7
UGMTXT
100
AcDbText
  0
ENDBLK
  5
640D
330
640A
100
AcDbEntity
  8
0
100
AcDbBlockEnd
  0
BLOCK
  5
6410
330
640E
100
AcDbEntity
  8
TOP
  6
Continuous
 62
     4
100
AcDbBlockBegin
  2
*U10
 70
     1
 10
0.0
 20
0.0
 30
0.0
  3
*U10
  1

  0
TEXT
  5
640F
330
640E
100
AcDbEntity
  8
TOP
  6
ByBlock
 62
     0
100
AcDbText
 10
262.5
 20
119.5
 30
0.0
 40
2.500000003799998
  1
(max.)
 50
90.00000000000005
 41
0.8216911764705852
  7
UGMTXT
100
AcDbText
  0
ENDBLK
  5
6411
330
640E
100
AcDbEntity
  8
0
100
AcDbBlockEnd
  0
BLOCK
  5
641F
330
641D
100
AcDbEntity
  8
TOP
  6
Continuous
 62
     4
100
AcDbBlockBegin
  2
*U11
 70
     1
 10
0.0
 20
0.0
 30
0.0
  3
*U11
  1

  0
TEXT
  5
641E
330
641D
100
AcDbEntity
  8
TOP
  6
ByBlock
 62
     0
100
AcDbText
 10
243.0
 20
98.50000000000001
 30
0.0
 40
2.500000003799998
  1
max.t7
 41
0.8216911764705852
  7
UGMTXT
100
AcDbText
  0
ENDBLK
  5
6420
330
641D
100
AcDbEntity
  8
0
100
AcDbBlockEnd
  0
BLOCK
  5
65C8
330
65BE
100
AcDbEntity
  8
0
100
AcDbBlockBegin
  2
*D12
 70
     1
 10
0.0
 20
0.0
 30
0.0
  3
*D12
  1

  0
LINE
  5
6C3F
330
65BE
100
AcDbEntity
  8
30
  6
Continuous
 62
     0
100
AcDbLine
 10
192.3963764936061
 20
-54.06965955924138
 30
0.0
 11
192.3963764936061
 21
-114.7241155615665
 31
0.0
  0
LINE
  5
6C40
330
65BE
100
AcDbEntity
  8
30
  6
Continuous
 62
     0
100
AcDbLine
 10
260.396376493606
 20
-85.56965955924136
 30
0.0
 11
260.396376493606
 21
-114.7241155615665
 31
0.0
  0
LINE
  5
6C41
330
65BE
100
AcDbEntity
  8
30
  6
Continuous
 62
     0
100
AcDbLine
 10
194.3963764936061
 20
-114.2241155615665
 30
0.0
 11
258.3963764936061
 21
-114.2241155615665
 31
0.0
  0
INSERT
  5
6C42
330
65BE
100
AcDbEntity
  8
30
  6
Continuous
 62
     0
100
AcDbBlockReference
  2
_OPEN
 10
192.3963764936061
 20
-114.2241155615665
 30
0.0
 41
2.0
 42
2.0
 43
2.0
 50
180.0
  0
INSERT
  5
6C43
330
65BE
100
AcDbEntity
  8
30
  6
Continuous
 62
     0
100
AcDbBlockReference
  2
_OPEN
 10
260.396376493606
 20
-114.2241155615665
 30
0.0
 41
2.0
 42
2.0
 43
2.0
  0
MTEXT
  5
6C44
330
65BE
100
AcDbEntity
  8
30
  6
Continuous
 62
     0
100
AcDbMText
 10
226.3963764936061
 20
-111.2241155615665
 30
0.0
 40
4.0
 41
0.0
 71
     5
 72
     1
  1
\A1;68
 73
     1
 44
1.0
1001
ACAD
1000
MTEXTBEGIN
1070
    73
1070
     1
1070
    44
1040
1.0
1070
    74
1070
     0
1000
MTEXTEND
1000
MTEXTBEGIN
1070
    73
1070
     1
1070
    44
1040
1.0
1070
    74
1070
     0
1000
MTEXTEND
1000
MTEXTBEGIN
1070
    73
1070
     1
1070
    44
1040
1.0
1070
    74
1070
     0
1000
MTEXTEND
  0
POINT
  5
6C45
330
65BE
100
AcDbEntity
  8
DEFPOINTS
  6
Continuous
 62
     0
100
AcDbPoint
 10
192.3963764936061
 20
-53.06965955924138
 30
0.0
  0
POINT
  5
6C46
330
65BE
100
AcDbEntity
  8
DEFPOINTS
  6
Continuous
 62
     0
100
AcDbPoint
 10
260.396376493606
 20
-84.56965955924136
 30
0.0
  0
POINT
  5
6C47
330
65BE
100
AcDbEntity
  8
DEFPOINTS
  6
Continuous
 62
     0
100
AcDbPoint
 10
260.396376493606
 20
-114.2241155615665
 30
0.0
  0
ENDBLK
  5
65C9
330
65BE
100
AcDbEntity
  8
0
100
AcDbBlockEnd
  0
BLOCK
  5
65D4
330
65CA
100
AcDbEntity
  8
0
100
AcDbBlockBegin
  2
*D13
 70
     1
 10
0.0
 20
0.0
 30
0.0
  3
*D13
  1

  0
LINE
  5
6C64
330
65CA
100
AcDbEntity
  8
30
  6
Continuous
 62
     0
100
AcDbLine
 10
168.3963764936059
 20
-3.069659559241358
 30
0.0
 11
168.3963764936059
 21
-138.8844165195405
 31
0.0
  0
LINE
  5
6C65
330
65CA
100
AcDbEntity
  8
30
  6
Continuous
 62
     0
100
AcDbLine
 10
260.396376493606
 20
-85.56965955924136
 30
0.0
 11
260.396376493606
 21
-138.8844165195405
 31
0.0
  0
LINE
  5
6C66
330
65CA
100
AcDbEntity
  8
30
  6
Continuous
 62
     0
100
AcDbLine
 10
170.3963764936059
 20
-138.3844165195405
 30
0.0
 11
258.3963764936061
 21
-138.3844165195405
 31
0.0
  0
INSERT
  5
6C67
330
65CA
100
AcDbEntity
  8
30
  6
Continuous
 62
     0
100
AcDbBlockReference
  2
_OPEN
 10
168.3963764936059
 20
-138.3844165195405
 30
0.0
 41
2.0
 42
2.0
 43
2.0
 50
180.0
  0
INSERT
  5
6C68
330
65CA
100
AcDbEntity
  8
30
  6
Continuous
 62
     0
100
AcDbBlockReference
  2
_OPEN
 10
260.396376493606
 20
-138.3844165195405
 30
0.0
 41
2.0
 42
2.0
 43
2.0
  0
MTEXT
  5
6C69
330
65CA
100
AcDbEntity
  8
30
  6
Continuous
 62
     0
100
AcDbMText
 10
214.396376493606
 20
-135.3844165195405
 30
0.0
 40
4.0
 41
0.0
 71
     5
 72
     1
  1
\A1;92
 73
     1
 44
1.0
1001
ACAD
1000
MTEXTBEGIN
1070
    73
1070
     1
1070
    44
1040
1.0
1070
    74
1070
     0
1000
MTEXTEND
1000
MTEXTBEGIN
1070
    73
1070
     1
1070
    44
1040
1.0
1070
    74
1070
     0
1000
MTEXTEND
1000
MTEXTBEGIN
1070
    73
1070
     1
1070
    44
1040
1.0
1070
    74
1070
     0
1000
MTEXTEND
  0
POINT
  5
6C6A
330
65CA
100
AcDbEntity
  8
DEFPOINTS
  6
Continuous
 62
     0
100
AcDbPoint
 10
168.3963764936059
 20
-2.069659559241358
 30
0.0
  0
POINT
  5
6C6B
330
65CA
100
AcDbEntity
  8
DEFPOINTS
  6
Continuous
 62
     0
100
AcDbPoint
 10
260.396376493606
 20
-84.56965955924136
 30
0.0
  0
POINT
  5
6C6C
330
65CA
100
AcDbEntity
  8
DEFPOINTS
  6
Continuous
 62
     0
100
AcDbPoint
 10
260.396376493606
 20
-138.3844165195405
 30
0.0
  0
ENDBLK
  5
65D5
330
65CA
100
AcDbEntity
  8
0
100
AcDbBlockEnd
  0
BLOCK
  5
65E0
330
65D6
100
AcDbEntity
  8
0
100
AcDbBlockBegin
  2
*D14
 70
     1
 10
0.0
 20
0.0
 30
0.0
  3
*D14
  1

  0
LINE
  5
6C51
330
65D6
100
AcDbEntity
  8
30
  6
Continuous
 62
     0
100
AcDbLine
 10
188.3963764936061
 20
-28.06965955924136
 30
0.0
 11
188.3963764936061
 21
-126.8388243031583
 31
0.0
  0
LINE
  5
6C52
330
65D6
100
AcDbEntity
  8
30
  6
Continuous
 62
     0
100
AcDbLine
 10
260.396376493606
 20
-85.56965955924136
 30
0.0
 11
260.396376493606
 21
-126.8388243031583
 31
0.0
  0
LINE
  5
6C53
330
65D6
100
AcDbEntity
  8
30
  6
Continuous
 62
     0
100
AcDbLine
 10
190.3963764936061
 20
-126.3388243031583
 30
0.0
 11
258.3963764936061
 21
-126.3388243031583
 31
0.0
  0
INSERT
  5
6C54
330
65D6
100
AcDbEntity
  8
30
  6
Continuous
 62
     0
100
AcDbBlockReference
  2
_OPEN
 10
188.3963764936061
 20
-126.3388243031583
 30
0.0
 41
2.0
 42
2.0
 43
2.0
 50
180.0
  0
INSERT
  5
6C55
330
65D6
100
AcDbEntity
  8
30
  6
Continuous
 62
     0
100
AcDbBlockReference
  2
_OPEN
 10
260.396376493606
 20
-126.3388243031583
 30
0.0
 41
2.0
 42
2.0
 43
2.0
  0
MTEXT
  5
6C56
330
65D6
100
AcDbEntity
  8
30
  6
Continuous
 62
     0
100
AcDbMText
 10
224.3963764936061
 20
-123.3388243031583
 30
0.0
 40
4.0
 41
0.0
 71
     5
 72
     1
  1
\A1;72
 73
     1
 44
1.0
1001
ACAD
1000
MTEXTBEGIN
1070
    73
1070
     1
1070
    44
1040
1.0
1070
    74
1070
     0
1000
MTEXTEND
1000
MTEXTBEGIN
1070
    73
1070
     1
1070
    44
1040
1.0
1070
    74
1070
     0
1000
MTEXTEND
1000
MTEXTBEGIN
1070
    73
1070
     1
1070
    44
1040
1.0
1070
    74
1070
     0
1000
MTEXTEND
  0
POINT
  5
6C57
330
65D6
100
AcDbEntity
  8
DEFPOINTS
  6
Continuous
 62
     0
100
AcDbPoint
 10
188.3963764936061
 20
-27.06965955924136
 30
0.0
  0
POINT
  5
6C58
330
65D6
100
AcDbEntity
  8
DEFPOINTS
  6
Continuous
 62
     0
100
AcDbPoint
 10
260.396376493606
 20
-84.56965955924136
 30
0.0
  0
POINT
  5
6C59
330
65D6
100
AcDbEntity
  8
DEFPOINTS
  6
Continuous
 62
     0
100
AcDbPoint
 10
260.396376493606
 20
-126.3388243031583
 30
0.0
  0
ENDBLK
  5
65E1
330
65D6
100
AcDbEntity
  8
0
100
AcDbBlockEnd
  0
BLOCK
  5
65EC
330
65E2
100
AcDbEntity
  8
0
100
AcDbBlockBegin
  2
*D15
 70
     1
 10
0.0
 20
0.0
 30
0.0
  3
*D15
  1

  0
LINE
  5
6C1A
330
65E2
100
AcDbEntity
  8
30
  6
Continuous
 62
     0
100
AcDbLine
 10
199.396376493606
 20
-85.56965955924136
 30
0.0
 11
199.396376493606
 21
-105.4255832243834
 31
0.0
  0
LINE
  5
6C1B
330
65E2
100
AcDbEntity
  8
30
  6
Continuous
 62
     0
100
AcDbLine
 10
260.396376493606
 20
-85.56965955924136
 30
0.0
 11
260.396376493606
 21
-105.4255832243834
 31
0.0
  0
LINE
  5
6C1C
330
65E2
100
AcDbEntity
  8
30
  6
Continuous
 62
     0
100
AcDbLine
 10
201.396376493606
 20
-104.9255832243834
 30
0.0
 11
258.3963764936061
 21
-104.9255832243834
 31
0.0
  0
INSERT
  5
6C1D
330
65E2
100
AcDbEntity
  8
30
  6
Continuous
 62
     0
100
AcDbBlockReference
  2
_OPEN
 10
199.396376493606
 20
-104.9255832243834
 30
0.0
 41
2.0
 42
2.0
 43
2.0
 50
180.0
  0
INSERT
  5
6C1E
330
65E2
100
AcDbEntity
  8
30
  6
Continuous
 62
     0
100
AcDbBlockReference
  2
_OPEN
 10
260.396376493606
 20
-104.9255832243834
 30
0.0
 41
2.0
 42
2.0
 43
2.0
  0
MTEXT
  5
6C1F
330
65E2
100
AcDbEntity
  8
30
  6
Continuous
 62
     0
100
AcDbMText
 10
229.8963764936059
 20
-101.9255832243834
 30
0.0
 40
4.0
 41
0.0
 71
     5
 72
     1
  1
\A1;61
 73
     1
 44
1.0
1001
ACAD
1000
MTEXTBEGIN
1070
    73
1070
     1
1070
    44
1040
1.0
1070
    74
1070
     0
1000
MTEXTEND
1000
MTEXTBEGIN
1070
    73
1070
     1
1070
    44
1040
1.0
1070
    74
1070
     0
1000
MTEXTEND
1000
MTEXTBEGIN
1070
    73
1070
     1
1070
    44
1040
1.0
1070
    74
1070
     0
1000
MTEXTEND
  0
POINT
  5
6C20
330
65E2
100
AcDbEntity
  8
DEFPOINTS
  6
Continuous
 62
     0
100
AcDbPoint
 10
199.396376493606
 20
-84.56965955924136
 30
0.0
  0
POINT
  5
6C21
330
65E2
100
AcDbEntity
  8
DEFPOINTS
  6
Continuous
 62
     0
100
AcDbPoint
 10
260.396376493606
 20
-84.56965955924136
 30
0.0
  0
POINT
  5
6C22
330
65E2
100
AcDbEntity
  8
DEFPOINTS
  6
Continuous
 62
     0
100
AcDbPoint
 10
260.396376493606
 20
-104.9255832243834
 30
0.0
  0
ENDBLK
  5
65ED
330
65E2
100
AcDbEntity
  8
0
100
AcDbBlockEnd
  0
BLOCK
  5
65F8
330
65EE
100
AcDbEntity
  8
0
100
AcDbBlockBegin
  2
*D16
 70
     1
 10
0.0
 20
0.0
 30
0.0
  3
*D16
  1

  0
LINE
  5
6768
330
65EE
100
AcDbEntity
  8
30
  6
Continuous
 62
     0
100
AcDbLine
 10
191.3963764936061
 20
48.93034044075864
 30
0.0
 11
124.8933860677339
 21
48.93034044075864
 31
0.0
  0
LINE
  5
6769
330
65EE
100
AcDbEntity
  8
30
  6
Continuous
 62
     0
100
AcDbLine
 10
191.3963764936061
 20
-53.06965955924138
 30
0.0
 11
124.8933860677339
 21
-53.06965955924138
 31
0.0
  0
LINE
  5
676A
330
65EE
100
AcDbEntity
  8
30
  6
Continuous
 62
     0
100
AcDbLine
 10
125.393386067734
 20
46.93034044075864
 30
0.0
 11
125.393386067734
 21
-51.06965955924136
 31
0.0
  0
INSERT
  5
676B
330
65EE
100
AcDbEntity
  8
30
  6
Continuous
 62
     0
100
AcDbBlockReference
  2
_OPEN
 10
125.393386067734
 20
48.93034044075864
 30
0.0
 41
2.0
 42
2.0
 43
2.0
 50
90.0
  0
INSERT
  5
676C
330
65EE
100
AcDbEntity
  8
30
  6
Continuous
 62
     0
100
AcDbBlockReference
  2
_OPEN
 10
125.393386067734
 20
-53.06965955924138
 30
0.0
 41
2.0
 42
2.0
 43
2.0
 50
270.0
  0
MTEXT
  5
676D
330
65EE
100
AcDbEntity
  8
30
  6
Continuous
 62
     0
100
AcDbMText
 10
122.393386067734
 20
-2.069659559241328
 30
0.0
 40
4.0
 41
0.0
 71
     5
 72
     1
  1
\A1;102
 11
0.0000000000000001
 21
1.0
 31
0.0
 73
     1
 44
1.0
1001
ACAD
1000
MTEXTBEGIN
1070
    73
1070
     1
1070
    44
1040
1.0
1070
    74
1070
     0
1000
MTEXTEND
1000
MTEXTBEGIN
1070
    73
1070
     1
1070
    44
1040
1.0
1070
    74
1070
     0
1000
MTEXTEND
1000
MTEXTBEGIN
1070
    73
1070
     1
1070
    44
1040
1.0
1070
    74
1070
     0
1000
MTEXTEND
  0
POINT
  5
676E
330
65EE
100
AcDbEntity
  8
DEFPOINTS
  6
Continuous
 62
     0
100
AcDbPoint
 10
192.3963764936061
 20
48.93034044075864
 30
0.0
  0
POINT
  5
676F
330
65EE
100
AcDbEntity
  8
DEFPOINTS
  6
Continuous
 62
     0
100
AcDbPoint
 10
192.3963764936061
 20
-53.06965955924138
 30
0.0
  0
POINT
  5
6770
330
65EE
100
AcDbEntity
  8
DEFPOINTS
  6
Continuous
 62
     0
100
AcDbPoint
 10
125.393386067734
 20
-53.06965955924138
 30
0.0
  0
ENDBLK
  5
65F9
330
65EE
100
AcDbEntity
  8
0
100
AcDbBlockEnd
  0
BLOCK
  5
6604
330
65FA
100
AcDbEntity
  8
0
100
AcDbBlockBegin
  2
*D17
 70
     1
 10
0.0
 20
0.0
 30
0.0
  3
*D17
  1

  0
LINE
  5
675F
330
65FA
100
AcDbEntity
  8
30
  6
Continuous
 62
     0
100
AcDbLine
 10
183.396376493606
 20
22.93034044075862
 30
0.0
 11
143.6433860677339
 21
22.93034044075862
 31
0.0
  0
LINE
  5
6760
330
65FA
100
AcDbEntity
  8
30
  6
Continuous
 62
     0
100
AcDbLine
 10
183.396376493606
 20
-27.06965955924135
 30
0.0
 11
143.6433860677339
 21
-27.06965955924133
 31
0.0
  0
LINE
  5
6761
330
65FA
100
AcDbEntity
  8
30
  6
Continuous
 62
     0
100
AcDbLine
 10
144.1433860677338
 20
20.93034044075865
 30
0.0
 11
144.1433860677338
 21
-25.06965955924131
 31
0.0
  0
INSERT
  5
6762
330
65FA
100
AcDbEntity
  8
30
  6
Continuous
 62
     0
100
AcDbBlockReference
  2
_OPEN
 10
144.1433860677338
 20
22.93034044075862
 30
0.0
 41
2.0
 42
2.0
 43
2.0
 50
90.0
  0
INSERT
  5
6763
330
65FA
100
AcDbEntity
  8
30
  6
Continuous
 62
     0
100
AcDbBlockReference
  2
_OPEN
 10
144.1433860677338
 20
-27.06965955924133
 30
0.0
 41
2.0
 42
2.0
 43
2.0
 50
270.0
  0
MTEXT
  5
6764
330
65FA
100
AcDbEntity
  8
30
  6
Continuous
 62
     0
100
AcDbMText
 10
141.1433860677339
 20
-2.06965955924132
 30
0.0
 40
4.0
 41
0.0
 71
     5
 72
     1
  1
\A1;50
 11
0.0000000000000001
 21
1.0
 31
0.0
 73
     1
 44
1.0
1001
ACAD
1000
MTEXTBEGIN
1070
    73
1070
     1
1070
    44
1040
1.0
1070
    74
1070
     0
1000
MTEXTEND
1000
MTEXTBEGIN
1070
    73
1070
     1
1070
    44
1040
1.0
1070
    74
1070
     0
1000
MTEXTEND
1000
MTEXTBEGIN
1070
    73
1070
     1
1070
    44
1040
1.0
1070
    74
1070
     0
1000
MTEXTEND
  0
POINT
  5
6765
330
65FA
100
AcDbEntity
  8
DEFPOINTS
  6
Continuous
 62
     0
100
AcDbPoint
 10
184.396376493606
 20
22.93034044075862
 30
0.0
  0
POINT
  5
6766
330
65FA
100
AcDbEntity
  8
DEFPOINTS
  6
Continuous
 62
     0
100
AcDbPoint
 10
184.396376493606
 20
-27.06965955924136
 30
0.0
  0
POINT
  5
6767
330
65FA
100
AcDbEntity
  8
DEFPOINTS
  6
Continuous
 62
     0
100
AcDbPoint
 10
144.1433860677338
 20
-27.06965955924133
 30
0.0
  0
ENDBLK
  5
6605
330
65FA
100
AcDbEntity
  8
0
100
AcDbBlockEnd
  0
BLOCK
  5
661C
330
6612
100
AcDbEntity
  8
0
100
AcDbBlockBegin
  2
*D18
 70
     1
 10
0.0
 20
0.0
 30
0.0
  3
*D18
  1

  0
LINE
  5
6BEC
330
6612
100
AcDbEntity
  8
30
  6
Continuous
 62
     0
100
AcDbLine
 10
260.396376493606
 20
-85.56965955924136
 30
0.0
 11
260.396376493606
 21
-95.00058166240496
 31
0.0
  0
LINE
  5
6BED
330
6612
100
AcDbEntity
  8
30
  6
Continuous
 62
     0
100
AcDbLine
 10
268.396376493606
 20
-68.31965955924139
 30
0.0
 11
268.396376493606
 21
-95.00058166240496
 31
0.0
  0
LINE
  5
6BEE
330
6612
100
AcDbEntity
  8
30
  6
Continuous
 62
     0
100
AcDbLine
 10
262.396376493606
 20
-94.50058166240495
 30
0.0
 11
266.396376493606
 21
-94.50058166240495
 31
0.0
  0
INSERT
  5
6BEF
330
6612
100
AcDbEntity
  8
30
  6
Continuous
 62
     0
100
AcDbBlockReference
  2
_OPEN
 10
260.396376493606
 20
-94.50058166240495
 30
0.0
 41
2.0
 42
2.0
 43
2.0
 50
180.0
  0
INSERT
  5
6BF0
330
6612
100
AcDbEntity
  8
30
  6
Continuous
 62
     0
100
AcDbBlockReference
  2
_OPEN
 10
268.396376493606
 20
-94.50058166240495
 30
0.0
 41
2.0
 42
2.0
 43
2.0
  0
MTEXT
  5
6BF1
330
6612
100
AcDbEntity
  8
30
  6
Continuous
 62
     0
100
AcDbMText
 10
264.396376493606
 20
-91.50058166240496
 30
0.0
 40
4.0
 41
0.0
 71
     5
 72
     1
  1
\A1;8
 73
     1
 44
1.0
1001
ACAD
1000
MTEXTBEGIN
1070
    73
1070
     1
1070
    44
1040
1.0
1070
    74
1070
     0
1000
MTEXTEND
1000
MTEXTBEGIN
1070
    73
1070
     1
1070
    44
1040
1.0
1070
    74
1070
     0
1000
MTEXTEND
1000
MTEXTBEGIN
1070
    73
1070
     1
1070
    44
1040
1.0
1070
    74
1070
     0
1000
MTEXTEND
  0
POINT
  5
6BF2
330
6612
100
AcDbEntity
  8
DEFPOINTS
  6
Continuous
 62
     0
100
AcDbPoint
 10
260.396376493606
 20
-84.56965955924136
 30
0.0
  0
POINT
  5
6BF3
330
6612
100
AcDbEntity
  8
DEFPOINTS
  6
Continuous
 62
     0
100
AcDbPoint
 10
268.396376493606
 20
-67.31965955924138
 30
0.0
  0
POINT
  5
6BF4
330
6612
100
AcDbEntity
  8
DEFPOINTS
  6
Continuous
 62
     0
100
AcDbPoint
 10
268.396376493606
 20
-94.50058166240495
 30
0.0
  0
ENDBLK
  5
661D
330
6612
100
AcDbEntity
  8
0
100
AcDbBlockEnd
  0
BLOCK
  5
6628
330
661E
100
AcDbEntity
  8
0
100
AcDbBlockBegin
  2
*D19
 70
     1
 10
0.0
 20
0.0
 30
0.0
  3
*D19
  1

  0
LINE
  5
6CB6
330
661E
100
AcDbEntity
  8
30
  6
Continuous
 62
     0
100
AcDbLine
 10
215.3963764936061
 20
-70.31965955924139
 30
0.0
 11
215.3963764936061
 21
-95.00058166240496
 31
0.0
  0
LINE
  5
6CB7
330
661E
100
AcDbEntity
  8
30
  6
Continuous
 62
     0
100
AcDbLine
 10
260.396376493606
 20
-85.56965955924136
 30
0.0
 11
260.396376493606
 21
-95.00058166240496
 31
0.0
  0
LINE
  5
6CB8
330
661E
100
AcDbEntity
  8
30
  6
Continuous
 62
     0
100
AcDbLine
 10
217.3963764936061
 20
-94.50058166240495
 30
0.0
 11
258.3963764936061
 21
-94.50058166240495
 31
0.0
  0
INSERT
  5
6CB9
330
661E
100
AcDbEntity
  8
30
  6
Continuous
 62
     0
100
AcDbBlockReference
  2
_OPEN
 10
215.3963764936061
 20
-94.50058166240495
 30
0.0
 41
2.0
 42
2.0
 43
2.0
 50
180.0
  0
INSERT
  5
6CBA
330
661E
100
AcDbEntity
  8
30
  6
Continuous
 62
     0
100
AcDbBlockReference
  2
_OPEN
 10
260.396376493606
 20
-94.50058166240495
 30
0.0
 41
2.0
 42
2.0
 43
2.0
  0
MTEXT
  5
6CBB
330
661E
100
AcDbEntity
  8
30
  6
Continuous
 62
     0
100
AcDbMText
 10
241.894857570237
 20
-91.50058166240496
 30
0.0
 40
4.0
 41
0.0
 71
     5
 72
     1
  1
\A1;45
 73
     1
 44
1.0
1001
ACAD
1000
MTEXTBEGIN
1070
    73
1070
     1
1070
    44
1040
1.0
1070
    74
1070
     0
1000
MTEXTEND
1000
MTEXTBEGIN
1070
    73
1070
     1
1070
    44
1040
1.0
1070
    74
1070
     0
1000
MTEXTEND
1000
MTEXTBEGIN
1070
    73
1070
     1
1070
    44
1040
1.0
1070
    74
1070
     0
1000
MTEXTEND
  0
POINT
  5
6CBC
330
661E
100
AcDbEntity
  8
DEFPOINTS
  6
Continuous
 62
     0
100
AcDbPoint
 10
215.3963764936061
 20
-69.31965955924138
 30
0.0
  0
POINT
  5
6CBD
330
661E
100
AcDbEntity
  8
DEFPOINTS
  6
Continuous
 62
     0
100
AcDbPoint
 10
260.396376493606
 20
-84.56965955924136
 30
0.0
  0
POINT
  5
6CBE
330
661E
100
AcDbEntity
  8
DEFPOINTS
  6
Continuous
 62
     0
100
AcDbPoint
 10
260.396376493606
 20
-94.50058166240495
 30
0.0
  0
ENDBLK
  5
6629
330
661E
100
AcDbEntity
  8
0
100
AcDbBlockEnd
  0
BLOCK
  5
6634
330
662A
100
AcDbEntity
  8
0
100
AcDbBlockBegin
  2
*D20
 70
     1
 10
0.0
 20
0.0
 30
0.0
  3
*D20
  1

  0
LINE
  5
67B8
330
662A
100
AcDbEntity
  8
30
  6
Continuous
 62
     0
100
AcDbLine
 10
304.3963764936041
 20
45.85538869117397
 30
0.0
 11
304.3963764936041
 21
22.64353242695715
 31
0.0
  0
LINE
  5
67B9
330
662A
100
AcDbEntity
  8
30
  6
Continuous
 62
     0
100
AcDbLine
 10
329.3963764936041
 20
45.85538869117397
 30
0.0
 11
329.3963764936041
 21
22.64353242695715
 31
0.0
  0
LINE
  5
67BA
330
662A
100
AcDbEntity
  8
30
  6
Continuous
 62
     0
100
AcDbLine
 10
306.3963764936041
 20
23.14353242695716
 30
0.0
 11
327.3963764936041
 21
23.14353242695716
 31
0.0
  0
INSERT
  5
67BB
330
662A
100
AcDbEntity
  8
30
  6
Continuous
 62
     0
100
AcDbBlockReference
  2
_OPEN
 10
304.3963764936041
 20
23.14353242695716
 30
0.0
 41
2.0
 42
2.0
 43
2.0
 50
180.0
  0
INSERT
  5
67BC
330
662A
100
AcDbEntity
  8
30
  6
Continuous
 62
     0
100
AcDbBlockReference
  2
_OPEN
 10
329.3963764936041
 20
23.14353242695716
 30
0.0
 41
2.0
 42
2.0
 43
2.0
  0
MTEXT
  5
67BD
330
662A
100
AcDbEntity
  8
30
  6
Continuous
 62
     0
100
AcDbMText
 10
316.8963764936041
 20
26.14353242695715
 30
0.0
 40
4.0
 41
0.0
 71
     5
 72
     1
  1
\A1;25
 73
     1
 44
1.0
1001
ACAD
1000
MTEXTBEGIN
1070
    73
1070
     1
1070
    44
1040
1.0
1070
    74
1070
     0
1000
MTEXTEND
1000
MTEXTBEGIN
1070
    73
1070
     1
1070
    44
1040
1.0
1070
    74
1070
     0
1000
MTEXTEND
1000
MTEXTBEGIN
1070
    73
1070
     1
1070
    44
1040
1.0
1070
    74
1070
     0
1000
MTEXTEND
  0
POINT
  5
67BE
330
662A
100
AcDbEntity
  8
DEFPOINTS
  6
Continuous
 62
     0
100
AcDbPoint
 10
304.3963764936041
 20
46.85538869117396
 30
0.0
  0
POINT
  5
67BF
330
662A
100
AcDbEntity
  8
DEFPOINTS
  6
Continuous
 62
     0
100
AcDbPoint
 10
329.3963764936041
 20
46.85538869117396
 30
0.0
  0
POINT
  5
67C0
330
662A
100
AcDbEntity
  8
DEFPOINTS
  6
Continuous
 62
     0
100
AcDbPoint
 10
329.3963764936041
 20
23.14353242695716
 30
0.0
  0
ENDBLK
  5
6635
330
662A
100
AcDbEntity
  8
0
100
AcDbBlockEnd
  0
BLOCK
  5
6640
330
6636
100
AcDbEntity
  8
0
100
AcDbBlockBegin
  2
*D21
 70
     1
 10
0.0
 20
0.0
 30
0.0
  3
*D21
  1

  0
LINE
  5
67AF
330
6636
100
AcDbEntity
  8
30
  6
Continuous
 62
     0
100
AcDbLine
 10
330.3963764936042
 20
46.85538869117396
 30
0.0
 11
340.2189841538581
 21
46.85538869117396
 31
0.0
  0
LINE
  5
67B0
330
6636
100
AcDbEntity
  8
30
  6
Continuous
 62
     0
100
AcDbLine
 10
320.3963765101041
 20
56.85538869117397
 30
0.0
 11
340.2189841538581
 21
56.85538869117396
 31
0.0
  0
LINE
  5
67B1
330
6636
100
AcDbEntity
  8
30
  6
Continuous
 62
     0
100
AcDbLine
 10
339.7189841538581
 20
48.85538869117397
 30
0.0
 11
339.7189841538581
 21
54.85538869117396
 31
0.0
  0
INSERT
  5
67B2
330
6636
100
AcDbEntity
  8
30
  6
Continuous
 62
     0
100
AcDbBlockReference
  2
_OPEN
 10
339.7189841538581
 20
46.85538869117396
 30
0.0
 41
2.0
 42
2.0
 43
2.0
 50
270.0
  0
INSERT
  5
67B3
330
6636
100
AcDbEntity
  8
30
  6
Continuous
 62
     0
100
AcDbBlockReference
  2
_OPEN
 10
339.7189841538581
 20
56.85538869117396
 30
0.0
 41
2.0
 42
2.0
 43
2.0
 50
90.0
  0
MTEXT
  5
67B4
330
6636
100
AcDbEntity
  8
30
  6
Continuous
 62
     0
100
AcDbMText
 10
336.7189841538581
 20
51.85538869117402
 30
0.0
 40
4.0
 41
0.0
 71
     5
 72
     1
  1
\A1;10
 11
0.0000000000000001
 21
1.0
 31
0.0
 73
     1
 44
1.0
1001
ACAD
1000
MTEXTBEGIN
1070
    73
1070
     1
1070
    44
1040
1.0
1070
    74
1070
     0
1000
MTEXTEND
1000
MTEXTBEGIN
1070
    73
1070
     1
1070
    44
1040
1.0
1070
    74
1070
     0
1000
MTEXTEND
1000
MTEXTBEGIN
1070
    73
1070
     1
1070
    44
1040
1.0
1070
    74
1070
     0
1000
MTEXTEND
  0
POINT
  5
67B5
330
6636
100
AcDbEntity
  8
DEFPOINTS
  6
Continuous
 62
     0
100
AcDbPoint
 10
329.3963764936041
 20
46.85538869117396
 30
0.0
  0
POINT
  5
67B6
330
6636
100
AcDbEntity
  8
DEFPOINTS
  6
Continuous
 62
     0
100
AcDbPoint
 10
319.3963765101041
 20
56.85538869117397
 30
0.0
  0
POINT
  5
67B7
330
6636
100
AcDbEntity
  8
DEFPOINTS
  6
Continuous
 62
     0
100
AcDbPoint
 10
339.7189841538581
 20
56.85538869117396
 30
0.0
  0
ENDBLK
  5
6641
330
6636
100
AcDbEntity
  8
0
100
AcDbBlockEnd
  0
BLOCK
  5
67CD
330
67C2
100
AcDbEntity
  8
0
100
AcDbBlockBegin
  2
*D22
 70
     1
 10
0.0
 20
0.0
 30
0.0
  3
*D22
  1

  0
LINE
  5
6C5A
330
67C2
100
AcDbEntity
  8
30
  6
Continuous
 62
     0
100
AcDbLine
 10
184.396376493606
 20
-28.06965955924136
 30
0.0
 11
184.396376493606
 21
-126.8388243031583
 31
0.0
  0
LINE
  5
6C5B
330
67C2
100
AcDbEntity
  8
30
  6
Continuous
 62
     0
100
AcDbLine
 10
188.3963764936061
 20
-28.06965955924136
 30
0.0
 11
188.3963764936061
 21
-126.8388243031583
 31
0.0
  0
LINE
  5
6C5C
330
67C2
100
AcDbEntity
  8
30
  6
Continuous
 62
     0
100
AcDbLine
 10
182.396376493606
 20
-126.3388243031583
 30
0.0
 11
180.3963764936059
 21
-126.3388243031583
 31
0.0
  0
LINE
  5
6C5D
330
67C2
100
AcDbEntity
  8
30
  6
Continuous
 62
     0
100
AcDbLine
 10
190.3963764936061
 20
-126.3388243031583
 30
0.0
 11
197.0630431602726
 21
-126.3388243031583
 31
0.0
  0
INSERT
  5
6C5E
330
67C2
100
AcDbEntity
  8
30
  6
Continuous
 62
     0
100
AcDbBlockReference
  2
_OPEN
 10
184.396376493606
 20
-126.3388243031583
 30
0.0
 41
2.0
 42
2.0
 43
2.0
  0
INSERT
  5
6C5F
330
67C2
100
AcDbEntity
  8
30
  6
Continuous
 62
     0
100
AcDbBlockReference
  2
_OPEN
 10
188.3963764936061
 20
-126.3388243031583
 30
0.0
 41
2.0
 42
2.0
 43
2.0
 50
180.0
  0
MTEXT
  5
6C60
330
67C2
100
AcDbEntity
  8
30
  6
Continuous
 62
     0
100
AcDbMText
 10
194.7297098269394
 20
-123.3388243031583
 30
0.0
 40
4.0
 41
0.0
 71
     5
 72
     1
  1
\A1;4
 73
     1
 44
1.0
1001
ACAD
1000
MTEXTBEGIN
1070
    73
1070
     1
1070
    44
1040
1.0
1070
    74
1070
     0
1000
MTEXTEND
1000
MTEXTBEGIN
1070
    73
1070
     1
1070
    44
1040
1.0
1070
    74
1070
     0
1000
MTEXTEND
1000
MTEXTBEGIN
1070
    73
1070
     1
1070
    44
1040
1.0
1070
    74
1070
     0
1000
MTEXTEND
  0
POINT
  5
6C61
330
67C2
100
AcDbEntity
  8
DEFPOINTS
  6
Continuous
 62
     0
100
AcDbPoint
 10
184.396376493606
 20
-27.06965955924136
 30
0.0
  0
POINT
  5
6C62
330
67C2
100
AcDbEntity
  8
DEFPOINTS
  6
Continuous
 62
     0
100
AcDbPoint
 10
188.3963764936061
 20
-27.06965955924136
 30
0.0
  0
POINT
  5
6C63
330
67C2
100
AcDbEntity
  8
DEFPOINTS
  6
Continuous
 62
     0
100
AcDbPoint
 10
188.3963764936061
 20
-126.3388243031583
 30
0.0
  0
ENDBLK
  5
67CE
330
67C2
100
AcDbEntity
  8
0
100
AcDbBlockEnd
  0
BLOCK
  5
6822
330
6818
100
AcDbEntity
  8
0
100
AcDbBlockBegin
  2
*D23
 70
     1
 10
0.0
 20
0.0
 30
0.0
  3
*D23
  1

  0
LINE
  5
6D9B
330
6818
100
AcDbEntity
  8
30
  6
Continuous
 62
     0
100
AcDbLine
 10
250.7560000000003
 20
-225.5108058991918
 30
0.0
 11
298.1866349733516
 21
-225.5108058991918
 31
0.0
  0
LINE
  5
6D9C
330
6818
100
AcDbEntity
  8
30
  6
Continuous
 62
     0
100
AcDbLine
 10
250.7560000000003
 20
-277.5108058991918
 30
0.0
 11
298.1866349733516
 21
-277.5108058991918
 31
0.0
  0
LINE
  5
6D9D
330
6818
100
AcDbEntity
  8
30
  6
Continuous
 62
     0
100
AcDbLine
 10
297.6866349733516
 20
-227.5108058991917
 30
0.0
 11
297.6866349733516
 21
-275.5108058991918
 31
0.0
  0
INSERT
  5
6D9E
330
6818
100
AcDbEntity
  8
30
  6
Continuous
 62
     0
100
AcDbBlockReference
  2
_OPEN
 10
297.6866349733516
 20
-225.5108058991918
 30
0.0
 41
2.0
 42
2.0
 43
2.0
 50
90.0
  0
INSERT
  5
6D9F
330
6818
100
AcDbEntity
  8
30
  6
Continuous
 62
     0
100
AcDbBlockReference
  2
_OPEN
 10
297.6866349733516
 20
-277.5108058991918
 30
0.0
 41
2.0
 42
2.0
 43
2.0
 50
270.0
  0
MTEXT
  5
6DA0
330
6818
100
AcDbEntity
  8
30
  6
Continuous
 62
     0
100
AcDbMText
 10
294.6866349733516
 20
-251.5108058991918
 30
0.0
 40
4.0
 41
0.0
 71
     5
 72
     1
  1
\A1;52
 11
0.0000000000000001
 21
1.0
 31
0.0
 73
     1
 44
1.0
1001
ACAD
1000
MTEXTBEGIN
1070
    73
1070
     1
1070
    44
1040
1.0
1070
    74
1070
     0
1000
MTEXTEND
1000
MTEXTBEGIN
1070
    73
1070
     1
1070
    44
1040
1.0
1070
    74
1070
     0
1000
MTEXTEND
1000
MTEXTBEGIN
1070
    73
1070
     1
1070
    44
1040
1.0
1070
    74
1070
     0
1000
MTEXTEND
  0
POINT
  5
6DA1
330
6818
100
AcDbEntity
  8
DEFPOINTS
  6
Continuous
 62
     0
100
AcDbPoint
 10
249.7560000000003
 20
-225.5108058991918
 30
0.0
  0
POINT
  5
6DA2
330
6818
100
AcDbEntity
  8
DEFPOINTS
  6
Continuous
 62
     0
100
AcDbPoint
 10
249.7560000000003
 20
-277.5108058991918
 30
0.0
  0
POINT
  5
6DA3
330
6818
100
AcDbEntity
  8
DEFPOINTS
  6
Continuous
 62
     0
100
AcDbPoint
 10
297.6866349733516
 20
-277.5108058991918
 30
0.0
  0
ENDBLK
  5
6823
330
6818
100
AcDbEntity
  8
0
100
AcDbBlockEnd
  0
BLOCK
  5
68FE
330
68F4
100
AcDbEntity
  8
0
100
AcDbBlockBegin
  2
*D24
 70
     1
 10
0.0
 20
0.0
 30
0.0
  3
*D24
  1

  0
LINE
  5
6DCC
330
68F4
100
AcDbEntity
  8
30
  6
Continuous
 62
     0
100
AcDbLine
 10
24.75599999999996
 20
-188.5108058991915
 30
0.0
 11
109.8308767933672
 21
-188.5108058991915
 31
0.0
  0
LINE
  5
6DCD
330
68F4
100
AcDbEntity
  8
30
  6
Continuous
 62
     0
100
AcDbLine
 10
24.75600000000007
 20
-314.5108058991918
 30
0.0
 11
109.8308767933672
 21
-314.5108058991918
 31
0.0
  0
LINE
  5
6DCE
330
68F4
100
AcDbEntity
  8
30
  6
Continuous
 62
     0
100
AcDbLine
 10
109.3308767933671
 20
-190.5108058991918
 30
0.0
 11
109.3308767933671
 21
-312.5108058991918
 31
0.0
  0
INSERT
  5
6DCF
330
68F4
100
AcDbEntity
  8
30
  6
Continuous
 62
     0
100
AcDbBlockReference
  2
_OPEN
 10
109.3308767933671
 20
-188.5108058991915
 30
0.0
 41
2.0
 42
2.0
 43
2.0
 50
90.0
  0
INSERT
  5
6DD0
330
68F4
100
AcDbEntity
  8
30
  6
Continuous
 62
     0
100
AcDbBlockReference
  2
_OPEN
 10
109.3308767933671
 20
-314.5108058991918
 30
0.0
 41
2.0
 42
2.0
 43
2.0
 50
270.0
  0
MTEXT
  5
6DD1
330
68F4
100
AcDbEntity
  8
30
  6
Continuous
 62
     0
100
AcDbMText
 10
106.3308767933671
 20
-251.5108058991918
 30
0.0
 40
4.0
 41
0.0
 71
     5
 72
     1
  1
\A1;126
 11
0.0000000000000001
 21
1.0
 31
0.0
 73
     1
 44
1.0
1001
ACAD
1000
MTEXTBEGIN
1070
    73
1070
     1
1070
    44
1040
1.0
1070
    74
1070
     0
1000
MTEXTEND
1000
MTEXTBEGIN
1070
    73
1070
     1
1070
    44
1040
1.0
1070
    74
1070
     0
1000
MTEXTEND
1000
MTEXTBEGIN
1070
    73
1070
     1
1070
    44
1040
1.0
1070
    74
1070
     0
1000
MTEXTEND
  0
POINT
  5
6DD2
330
68F4
100
AcDbEntity
  8
DEFPOINTS
  6
Continuous
 62
     0
100
AcDbPoint
 10
23.75599999999996
 20
-188.5108058991915
 30
0.0
  0
POINT
  5
6DD3
330
68F4
100
AcDbEntity
  8
DEFPOINTS
  6
Continuous
 62
     0
100
AcDbPoint
 10
23.75600000000007
 20
-314.5108058991918
 30
0.0
  0
POINT
  5
6DD4
330
68F4
100
AcDbEntity
  8
DEFPOINTS
  6
Continuous
 62
     0
100
AcDbPoint
 10
109.3308767933671
 20
-314.5108058991918
 30
0.0
  0
ENDBLK
  5
68FF
330
68F4
100
AcDbEntity
  8
0
100
AcDbBlockEnd
  0
BLOCK
  5
6914
330
690A
100
AcDbEntity
  8
0
100
AcDbBlockBegin
  2
*D25
 70
     1
 10
0.0
 20
0.0
 30
0.0
  3
*D25
  1

  0
LINE
  5
6B50
330
690A
100
AcDbEntity
  8
30
  6
Continuous
 62
     0
100
AcDbLine
 10
1.136094535171279
 20
-106.8476821548369
 30
0.0
 11
1.136094535171278
 21
-120.177069909307
 31
0.0
  0
LINE
  5
6B51
330
690A
100
AcDbEntity
  8
30
  6
Continuous
 62
     0
100
AcDbLine
 10
36.13609453517131
 20
-106.8476821548369
 30
0.0
 11
36.13609453517131
 21
-120.177069909307
 31
0.0
  0
LINE
  5
6B52
330
690A
100
AcDbEntity
  8
30
  6
Continuous
 62
     0
100
AcDbLine
 10
3.136094535171277
 20
-119.677069909307
 30
0.0
 11
34.13609453517131
 21
-119.677069909307
 31
0.0
  0
INSERT
  5
6B53
330
690A
100
AcDbEntity
  8
30
  6
Continuous
 62
     0
100
AcDbBlockReference
  2
_OPEN
 10
1.136094535171278
 20
-119.677069909307
 30
0.0
 41
2.0
 42
2.0
 43
2.0
 50
180.0
  0
INSERT
  5
6B54
330
690A
100
AcDbEntity
  8
30
  6
Continuous
 62
     0
100
AcDbBlockReference
  2
_OPEN
 10
36.13609453517131
 20
-119.677069909307
 30
0.0
 41
2.0
 42
2.0
 43
2.0
  0
MTEXT
  5
6B55
330
690A
100
AcDbEntity
  8
30
  6
Continuous
 62
     0
100
AcDbMText
 10
18.6360945351713
 20
-116.677069909307
 30
0.0
 40
4.0
 41
0.0
 71
     5
 72
     1
  1
\A1;35
 73
     1
 44
1.0
1001
ACAD
1000
MTEXTBEGIN
1070
    73
1070
     1
1070
    44
1040
1.0
1070
    74
1070
     0
1000
MTEXTEND
1000
MTEXTBEGIN
1070
    73
1070
     1
1070
    44
1040
1.0
1070
    74
1070
     0
1000
MTEXTEND
1000
MTEXTBEGIN
1070
    73
1070
     1
1070
    44
1040
1.0
1070
    74
1070
     0
1000
MTEXTEND
  0
POINT
  5
6B56
330
690A
100
AcDbEntity
  8
DEFPOINTS
  6
Continuous
 62
     0
100
AcDbPoint
 10
1.136094535171279
 20
-105.8476821548369
 30
0.0
  0
POINT
  5
6B57
330
690A
100
AcDbEntity
  8
DEFPOINTS
  6
Continuous
 62
     0
100
AcDbPoint
 10
36.13609453517131
 20
-105.8476821548369
 30
0.0
  0
POINT
  5
6B58
330
690A
100
AcDbEntity
  8
DEFPOINTS
  6
Continuous
 62
     0
100
AcDbPoint
 10
36.13609453517131
 20
-119.677069909307
 30
0.0
  0
ENDBLK
  5
6915
330
690A
100
AcDbEntity
  8
0
100
AcDbBlockEnd
  0
BLOCK
  5
6921
330
6917
100
AcDbEntity
  8
0
100
AcDbBlockBegin
  2
*D26
 70
     1
 10
0.0
 20
0.0
 30
0.0
  3
*D26
  1

  0
LINE
  5
6B62
330
6917
100
AcDbEntity
  8
30
  6
Continuous
 62
     0
100
AcDbLine
 10
36.13609453517131
 20
-106.8476821548369
 30
0.0
 11
36.13609453517131
 21
-120.177069909307
 31
0.0
  0
LINE
  5
6B63
330
6917
100
AcDbEntity
  8
30
  6
Continuous
 62
     0
100
AcDbLine
 10
71.13609453517131
 20
-106.8476821548367
 30
0.0
 11
71.13609453517131
 21
-120.177069909307
 31
0.0
  0
LINE
  5
6B64
330
6917
100
AcDbEntity
  8
30
  6
Continuous
 62
     0
100
AcDbLine
 10
38.13609453517129
 20
-119.677069909307
 30
0.0
 11
69.13609453517131
 21
-119.677069909307
 31
0.0
  0
INSERT
  5
6B65
330
6917
100
AcDbEntity
  8
30
  6
Continuous
 62
     0
100
AcDbBlockReference
  2
_OPEN
 10
36.13609453517131
 20
-119.677069909307
 30
0.0
 41
2.0
 42
2.0
 43
2.0
 50
180.0
  0
INSERT
  5
6B66
330
6917
100
AcDbEntity
  8
30
  6
Continuous
 62
     0
100
AcDbBlockReference
  2
_OPEN
 10
71.13609453517131
 20
-119.677069909307
 30
0.0
 41
2.0
 42
2.0
 43
2.0
  0
MTEXT
  5
6B67
330
6917
100
AcDbEntity
  8
30
  6
Continuous
 62
     0
100
AcDbMText
 10
53.63609453517131
 20
-116.677069909307
 30
0.0
 40
4.0
 41
0.0
 71
     5
 72
     1
  1
\A1;35
 73
     1
 44
1.0
1001
ACAD
1000
MTEXTBEGIN
1070
    73
1070
     1
1070
    44
1040
1.0
1070
    74
1070
     0
1000
MTEXTEND
1000
MTEXTBEGIN
1070
    73
1070
     1
1070
    44
1040
1.0
1070
    74
1070
     0
1000
MTEXTEND
1000
MTEXTBEGIN
1070
    73
1070
     1
1070
    44
1040
1.0
1070
    74
1070
     0
1000
MTEXTEND
  0
POINT
  5
6B68
330
6917
100
AcDbEntity
  8
DEFPOINTS
  6
Continuous
 62
     0
100
AcDbPoint
 10
36.13609453517131
 20
-105.8476821548369
 30
0.0
  0
POINT
  5
6B69
330
6917
100
AcDbEntity
  8
DEFPOINTS
  6
Continuous
 62
     0
100
AcDbPoint
 10
71.13609453517131
 20
-105.8476821548367
 30
0.0
  0
POINT
  5
6B6A
330
6917
100
AcDbEntity
  8
DEFPOINTS
  6
Continuous
 62
     0
100
AcDbPoint
 10
71.13609453517131
 20
-119.677069909307
 30
0.0
  0
ENDBLK
  5
6922
330
6917
100
AcDbEntity
  8
0
100
AcDbBlockEnd
  0
BLOCK
  5
692E
330
6924
100
AcDbEntity
  8
0
100
AcDbBlockBegin
  2
*D27
 70
     1
 10
0.0
 20
0.0
 30
0.0
  3
*D27
  1

  0
LINE
  5
6925
330
6924
100
AcDbEntity
  8
30
  6
Continuous
 62
     0
100
AcDbLine
 10
-33.86390546482871
 20
279.568193504375
 30
0.0
 11
-33.86390546482871
 21
329.166520299289
 31
0.0
  0
LINE
  5
6926
330
6924
100
AcDbEntity
  8
30
  6
Continuous
 62
     0
100
AcDbLine
 10
1.136094535171281
 20
276.568193504375
 30
0.0
 11
1.136094535171284
 21
329.166520299289
 31
0.0
  0
LINE
  5
6927
330
6924
100
AcDbEntity
  8
30
  6
Continuous
 62
     0
100
AcDbLine
 10
-31.86390546482872
 20
328.666520299289
 30
0.0
 11
-0.8639054648287151
 21
328.666520299289
 31
0.0
  0
INSERT
  5
6928
330
6924
100
AcDbEntity
  8
30
  6
Continuous
 62
     0
100
AcDbBlockReference
  2
_OPEN
 10
-33.86390546482871
 20
328.666520299289
 30
0.0
 41
2.0
 42
2.0
 43
2.0
 50
180.0
  0
INSERT
  5
6929
330
6924
100
AcDbEntity
  8
30
  6
Continuous
 62
     0
100
AcDbBlockReference
  2
_OPEN
 10
1.136094535171284
 20
328.666520299289
 30
0.0
 41
2.0
 42
2.0
 43
2.0
  0
MTEXT
  5
692A
330
6924
100
AcDbEntity
  8
30
  6
Continuous
 62
     0
100
AcDbMText
 10
-16.36390546482871
 20
331.666520299289
 30
0.0
 40
4.0
 41
0.0
 71
     5
 72
     1
  1
\A1;35
 73
     1
 44
1.0
1001
ACAD
1000
MTEXTBEGIN
1070
    73
1070
     1
1070
    44
1040
1.0
1070
    74
1070
     0
1000
MTEXTEND
1000
MTEXTBEGIN
1070
    73
1070
     1
1070
    44
1040
1.0
1070
    74
1070
     0
1000
MTEXTEND
1000
MTEXTBEGIN
1070
    73
1070
     1
1070
    44
1040
1.0
1070
    74
1070
     0
1000
MTEXTEND
  0
POINT
  5
692B
330
6924
100
AcDbEntity
  8
DEFPOINTS
  6
Continuous
 62
     0
100
AcDbPoint
 10
-33.86390546482871
 20
278.568193504375
 30
0.0
  0
POINT
  5
692C
330
6924
100
AcDbEntity
  8
DEFPOINTS
  6
Continuous
 62
     0
100
AcDbPoint
 10
1.136094535171281
 20
275.568193504375
 30
0.0
  0
POINT
  5
692D
330
6924
100
AcDbEntity
  8
DEFPOINTS
  6
Continuous
 62
     0
100
AcDbPoint
 10
1.136094535171284
 20
328.666520299289
 30
0.0
  0
ENDBLK
  5
692F
330
6924
100
AcDbEntity
  8
0
100
AcDbBlockEnd
  0
BLOCK
  5
693B
330
6931
100
AcDbEntity
  8
0
100
AcDbBlockBegin
  2
*D28
 70
     1
 10
0.0
 20
0.0
 30
0.0
  3
*D28
  1

  0
LINE
  5
69F6
330
6931
100
AcDbEntity
  8
30
  6
Continuous
 62
     0
100
AcDbLine
 10
1.136094535171281
 20
276.568193504375
 30
0.0
 11
1.136094535171284
 21
329.166520299289
 31
0.0
  0
LINE
  5
69F7
330
6931
100
AcDbEntity
  8
30
  6
Continuous
 62
     0
100
AcDbLine
 10
36.13609453517131
 20
279.568193504375
 30
0.0
 11
36.13609453517131
 21
329.166520299289
 31
0.0
  0
LINE
  5
69F8
330
6931
100
AcDbEntity
  8
30
  6
Continuous
 62
     0
100
AcDbLine
 10
3.136094535171285
 20
328.666520299289
 30
0.0
 11
34.13609453517131
 21
328.666520299289
 31
0.0
  0
INSERT
  5
69F9
330
6931
100
AcDbEntity
  8
30
  6
Continuous
 62
     0
100
AcDbBlockReference
  2
_OPEN
 10
1.136094535171284
 20
328.666520299289
 30
0.0
 41
2.0
 42
2.0
 43
2.0
 50
180.0
  0
INSERT
  5
69FA
330
6931
100
AcDbEntity
  8
30
  6
Continuous
 62
     0
100
AcDbBlockReference
  2
_OPEN
 10
36.13609453517131
 20
328.666520299289
 30
0.0
 41
2.0
 42
2.0
 43
2.0
  0
MTEXT
  5
69FB
330
6931
100
AcDbEntity
  8
30
  6
Continuous
 62
     0
100
AcDbMText
 10
18.63609453517129
 20
331.666520299289
 30
0.0
 40
4.0
 41
0.0
 71
     5
 72
     1
  1
\A1;35
 73
     1
 44
1.0
1001
ACAD
1000
MTEXTBEGIN
1070
    73
1070
     1
1070
    44
1040
1.0
1070
    74
1070
     0
1000
MTEXTEND
1000
MTEXTBEGIN
1070
    73
1070
     1
1070
    44
1040
1.0
1070
    74
1070
     0
1000
MTEXTEND
1000
MTEXTBEGIN
1070
    73
1070
     1
1070
    44
1040
1.0
1070
    74
1070
     0
1000
MTEXTEND
  0
POINT
  5
69FC
330
6931
100
AcDbEntity
  8
DEFPOINTS
  6
Continuous
 62
     0
100
AcDbPoint
 10
1.136094535171281
 20
275.568193504375
 30
0.0
  0
POINT
  5
69FD
330
6931
100
AcDbEntity
  8
DEFPOINTS
  6
Continuous
 62
     0
100
AcDbPoint
 10
36.13609453517131
 20
278.568193504375
 30
0.0
  0
POINT
  5
69FE
330
6931
100
AcDbEntity
  8
DEFPOINTS
  6
Continuous
 62
     0
100
AcDbPoint
 10
36.13609453517131
 20
328.666520299289
 30
0.0
  0
ENDBLK
  5
693C
330
6931
100
AcDbEntity
  8
0
100
AcDbBlockEnd
  0
BLOCK
  5
6948
330
693E
100
AcDbEntity
  8
0
100
AcDbBlockBegin
  2
*D29
 70
     1
 10
0.0
 20
0.0
 30
0.0
  3
*D29
  1

  0
LINE
  5
69FF
330
693E
100
AcDbEntity
  8
30
  6
Continuous
 62
     0
100
AcDbLine
 10
36.13609453517131
 20
279.568193504375
 30
0.0
 11
36.13609453517131
 21
329.166520299289
 31
0.0
  0
LINE
  5
6A00
330
693E
100
AcDbEntity
  8
30
  6
Continuous
 62
     0
100
AcDbLine
 10
71.13609453517131
 20
279.568193504375
 30
0.0
 11
71.13609453517131
 21
329.166520299289
 31
0.0
  0
LINE
  5
6A01
330
693E
100
AcDbEntity
  8
30
  6
Continuous
 62
     0
100
AcDbLine
 10
38.13609453517129
 20
328.666520299289
 30
0.0
 11
69.13609453517131
 21
328.666520299289
 31
0.0
  0
INSERT
  5
6A02
330
693E
100
AcDbEntity
  8
30
  6
Continuous
 62
     0
100
AcDbBlockReference
  2
_OPEN
 10
36.13609453517131
 20
328.666520299289
 30
0.0
 41
2.0
 42
2.0
 43
2.0
 50
180.0
  0
INSERT
  5
6A03
330
693E
100
AcDbEntity
  8
30
  6
Continuous
 62
     0
100
AcDbBlockReference
  2
_OPEN
 10
71.13609453517131
 20
328.666520299289
 30
0.0
 41
2.0
 42
2.0
 43
2.0
  0
MTEXT
  5
6A04
330
693E
100
AcDbEntity
  8
30
  6
Continuous
 62
     0
100
AcDbMText
 10
53.63609453517131
 20
331.666520299289
 30
0.0
 40
4.0
 41
0.0
 71
     5
 72
     1
  1
\A1;35
 73
     1
 44
1.0
1001
ACAD
1000
MTEXTBEGIN
1070
    73
1070
     1
1070
    44
1040
1.0
1070
    74
1070
     0
1000
MTEXTEND
1000
MTEXTBEGIN
1070
    73
1070
     1
1070
    44
1040
1.0
1070
    74
1070
     0
1000
MTEXTEND
1000
MTEXTBEGIN
1070
    73
1070
     1
1070
    44
1040
1.0
1070
    74
1070
     0
1000
MTEXTEND
  0
POINT
  5
6A05
330
693E
100
AcDbEntity
  8
DEFPOINTS
  6
Continuous
 62
     0
100
AcDbPoint
 10
36.13609453517131
 20
278.568193504375
 30
0.0
  0
POINT
  5
6A06
330
693E
100
AcDbEntity
  8
DEFPOINTS
  6
Continuous
 62
     0
100
AcDbPoint
 10
71.13609453517131
 20
278.568193504375
 30
0.0
  0
POINT
  5
6A07
330
693E
100
AcDbEntity
  8
DEFPOINTS
  6
Continuous
 62
     0
100
AcDbPoint
 10
71.13609453517131
 20
328.666520299289
 30
0.0
  0
ENDBLK
  5
6949
330
693E
100
AcDbEntity
  8
0
100
AcDbBlockEnd
  0
BLOCK
  5
6956
330
694C
100
AcDbEntity
  8
0
100
AcDbBlockBegin
  2
*D30
 70
     1
 10
0.0
 20
0.0
 30
0.0
  3
*D30
  1

  0
LINE
  5
6DBD
330
694C
100
AcDbEntity
  8
30
  6
Continuous
 62
     0
100
AcDbLine
 10
150.7559999999999
 20
-277.5108058991918
 30
0.0
 11
150.7559999999999
 21
-364.1533134887597
 31
0.0
  0
LINE
  5
6DBE
330
694C
100
AcDbEntity
  8
30
  6
Continuous
 62
     0
100
AcDbLine
 10
250.7560000000003
 20
-277.5108058991918
 30
0.0
 11
250.7560000000003
 21
-364.1533134887597
 31
0.0
  0
LINE
  5
6DBF
330
694C
100
AcDbEntity
  8
30
  6
Continuous
 62
     0
100
AcDbLine
 10
152.756
 20
-363.6533134887597
 30
0.0
 11
248.7560000000003
 21
-363.6533134887597
 31
0.0
  0
INSERT
  5
6DC0
330
694C
100
AcDbEntity
  8
30
  6
Continuous
 62
     0
100
AcDbBlockReference
  2
_OPEN
 10
150.7559999999999
 20
-363.6533134887597
 30
0.0
 41
2.0
 42
2.0
 43
2.0
 50
180.0
  0
INSERT
  5
6DC1
330
694C
100
AcDbEntity
  8
30
  6
Continuous
 62
     0
100
AcDbBlockReference
  2
_OPEN
 10
250.7560000000003
 20
-363.6533134887597
 30
0.0
 41
2.0
 42
2.0
 43
2.0
  0
MTEXT
  5
6DC2
330
694C
100
AcDbEntity
  8
30
  6
Continuous
 62
     0
100
AcDbMText
 10
200.7560000000002
 20
-360.6533134887596
 30
0.0
 40
4.0
 41
0.0
 71
     5
 72
     1
  1
\A1;100
 73
     1
 44
1.0
1001
ACAD
1000
MTEXTBEGIN
1070
    73
1070
     1
1070
    44
1040
1.0
1070
    74
1070
     0
1000
MTEXTEND
1000
MTEXTBEGIN
1070
    73
1070
     1
1070
    44
1040
1.0
1070
    74
1070
     0
1000
MTEXTEND
1000
MTEXTBEGIN
1070
    73
1070
     1
1070
    44
1040
1.0
1070
    74
1070
     0
1000
MTEXTEND
  0
POINT
  5
6DC3
330
694C
100
AcDbEntity
  8
DEFPOINTS
  6
Continuous
 62
     0
100
AcDbPoint
 10
150.7559999999999
 20
-276.5108058991919
 30
0.0
  0
POINT
  5
6DC4
330
694C
100
AcDbEntity
  8
DEFPOINTS
  6
Continuous
 62
     0
100
AcDbPoint
 10
250.7560000000003
 20
-276.5108058991919
 30
0.0
  0
POINT
  5
6DC5
330
694C
100
AcDbEntity
  8
DEFPOINTS
  6
Continuous
 62
     0
100
AcDbPoint
 10
250.7560000000003
 20
-363.6533134887597
 30
0.0
  0
ENDBLK
  5
6957
330
694C
100
AcDbEntity
  8
0
100
AcDbBlockEnd
  0
BLOCK
  5
6972
330
6968
100
AcDbEntity
  8
0
100
AcDbBlockBegin
  2
*D31
 70
     1
 10
0.0
 20
0.0
 30
0.0
  3
*D31
  1

  0
LINE
  5
6BA4
330
6968
100
AcDbEntity
  8
30
  6
Continuous
 62
     0
100
AcDbLine
 10
-18.86390546482871
 20
183.652317845163
 30
0.0
 11
-71.79340837720698
 21
183.652317845163
 31
0.0
  0
LINE
  5
6BA5
330
6968
100
AcDbEntity
  8
30
  6
Continuous
 62
     0
100
AcDbLine
 10
-52.36390546482873
 20
83.65231784516309
 30
0.0
 11
-71.79340837720701
 21
83.65231784516309
 31
0.0
  0
LINE
  5
6BA6
330
6968
100
AcDbEntity
  8
30
  6
Continuous
 62
     0
100
AcDbLine
 10
-71.29340837720699
 20
181.652317845163
 30
0.0
 11
-71.29340837720701
 21
85.6523178451631
 31
0.0
  0
INSERT
  5
6BA7
330
6968
100
AcDbEntity
  8
30
  6
Continuous
 62
     0
100
AcDbBlockReference
  2
_OPEN
 10
-71.29340837720699
 20
183.652317845163
 30
0.0
 41
2.0
 42
2.0
 43
2.0
 50
90.0
  0
INSERT
  5
6BA8
330
6968
100
AcDbEntity
  8
30
  6
Continuous
 62
     0
100
AcDbBlockReference
  2
_OPEN
 10
-71.29340837720701
 20
83.65231784516309
 30
0.0
 41
2.0
 42
2.0
 43
2.0
 50
270.0
  0
MTEXT
  5
6BA9
330
6968
100
AcDbEntity
  8
30
  6
Continuous
 62
     0
100
AcDbMText
 10
-74.29340837720701
 20
133.652317845163
 30
0.0
 40
4.0
 41
0.0
 71
     5
 72
     1
  1
\A1;100
 11
0.0000000000000001
 21
1.0
 31
0.0
 73
     1
 44
1.0
1001
ACAD
1000
MTEXTBEGIN
1070
    73
1070
     1
1070
    44
1040
1.0
1070
    74
1070
     0
1000
MTEXTEND
1000
MTEXTBEGIN
1070
    73
1070
     1
1070
    44
1040
1.0
1070
    74
1070
     0
1000
MTEXTEND
1000
MTEXTBEGIN
1070
    73
1070
     1
1070
    44
1040
1.0
1070
    74
1070
     0
1000
MTEXTEND
  0
POINT
  5
6BAA
330
6968
100
AcDbEntity
  8
DEFPOINTS
  6
Continuous
 62
     0
100
AcDbPoint
 10
-17.86390546482872
 20
183.652317845163
 30
0.0
  0
POINT
  5
6BAB
330
6968
100
AcDbEntity
  8
DEFPOINTS
  6
Continuous
 62
     0
100
AcDbPoint
 10
-51.36390546482873
 20
83.65231784516309
 30
0.0
  0
POINT
  5
6BAC
330
6968
100
AcDbEntity
  8
DEFPOINTS
  6
Continuous
 62
     0
100
AcDbPoint
 10
-71.29340837720701
 20
83.65231784516309
 30
0.0
  0
ENDBLK
  5
6973
330
6968
100
AcDbEntity
  8
0
100
AcDbBlockEnd
  0
BLOCK
  5
697F
330
6975
100
AcDbEntity
  8
0
100
AcDbBlockBegin
  2
*D32
 70
     1
 10
0.0
 20
0.0
 30
0.0
  3
*D32
  1

  0
LINE
  5
6976
330
6975
100
AcDbEntity
  8
30
  6
Continuous
 62
     0
100
AcDbLine
 10
-72.29340837720702
 20
83.65231784516309
 30
0.0
 11
-71.79340837720701
 21
83.65231784516309
 31
0.0
  0
LINE
  5
6977
330
6975
100
AcDbEntity
  8
30
  6
Continuous
 62
     0
100
AcDbLine
 10
-52.36390546482873
 20
-81.34768215483692
 30
0.0
 11
-71.79340837720705
 21
-81.34768215483692
 31
0.0
  0
LINE
  5
6978
330
6975
100
AcDbEntity
  8
30
  6
Continuous
 62
     0
100
AcDbLine
 10
-71.29340837720701
 20
81.6523178451631
 30
0.0
 11
-71.29340837720704
 21
-79.34768215483692
 31
0.0
  0
INSERT
  5
6979
330
6975
100
AcDbEntity
  8
30
  6
Continuous
 62
     0
100
AcDbBlockReference
  2
_OPEN
 10
-71.29340837720701
 20
83.65231784516309
 30
0.0
 41
2.0
 42
2.0
 43
2.0
 50
90.0
  0
INSERT
  5
697A
330
6975
100
AcDbEntity
  8
30
  6
Continuous
 62
     0
100
AcDbBlockReference
  2
_OPEN
 10
-71.29340837720704
 20
-81.34768215483692
 30
0.0
 41
2.0
 42
2.0
 43
2.0
 50
270.0
  0
MTEXT
  5
697B
330
6975
100
AcDbEntity
  8
30
  6
Continuous
 62
     0
100
AcDbMText
 10
-74.29340837720703
 20
1.15231784516308
 30
0.0
 40
4.0
 41
0.0
 71
     5
 72
     1
  1
\A1;165
 11
0.0000000000000001
 21
1.0
 31
0.0
 73
     1
 44
1.0
1001
ACAD
1000
MTEXTBEGIN
1070
    73
1070
     1
1070
    44
1040
1.0
1070
    74
1070
     0
1000
MTEXTEND
1000
MTEXTBEGIN
1070
    73
1070
     1
1070
    44
1040
1.0
1070
    74
1070
     0
1000
MTEXTEND
1000
MTEXTBEGIN
1070
    73
1070
     1
1070
    44
1040
1.0
1070
    74
1070
     0
1000
MTEXTEND
  0
POINT
  5
697C
330
6975
100
AcDbEntity
  8
DEFPOINTS
  6
Continuous
 62
     0
100
AcDbPoint
 10
-71.29340837720701
 20
83.65231784516309
 30
0.0
  0
POINT
  5
697D
330
6975
100
AcDbEntity
  8
DEFPOINTS
  6
Continuous
 62
     0
100
AcDbPoint
 10
-51.36390546482873
 20
-81.34768215483692
 30
0.0
  0
POINT
  5
697E
330
6975
100
AcDbEntity
  8
DEFPOINTS
  6
Continuous
 62
     0
100
AcDbPoint
 10
-71.29340837720704
 20
-81.34768215483692
 30
0.0
  0
ENDBLK
  5
6980
330
6975
100
AcDbEntity
  8
0
100
AcDbBlockEnd
  0
BLOCK
  5
6A9B
330
6A91
100
AcDbEntity
  8
0
100
AcDbBlockBegin
  2
*D33
 70
     1
 10
0.0
 20
0.0
 30
0.0
  3
*D33
  1

  0
LINE
  5
6CCA
330
6A91
100
AcDbEntity
  8
30
  6
Continuous
 62
     0
100
AcDbLine
 10
232.3963764936059
 20
111.8678404407587
 30
0.0
 11
232.3963764936059
 21
136.6272119888344
 31
0.0
  0
LINE
  5
6CCB
330
6A91
100
AcDbEntity
  8
30
  6
Continuous
 62
     0
100
AcDbLine
 10
260.396376493606
 20
81.36784044075865
 30
0.0
 11
260.396376493606
 21
136.6272119888344
 31
0.0
  0
LINE
  5
6CCC
330
6A91
100
AcDbEntity
  8
30
  6
Continuous
 62
     0
100
AcDbLine
 10
234.3963764936059
 20
136.1272119888343
 30
0.0
 11
258.3963764936061
 21
136.1272119888343
 31
0.0
  0
INSERT
  5
6CCD
330
6A91
100
AcDbEntity
  8
30
  6
Continuous
 62
     0
100
AcDbBlockReference
  2
_OPEN
 10
232.3963764936059
 20
136.1272119888343
 30
0.0
 41
2.0
 42
2.0
 43
2.0
 50
180.0
  0
INSERT
  5
6CCE
330
6A91
100
AcDbEntity
  8
30
  6
Continuous
 62
     0
100
AcDbBlockReference
  2
_OPEN
 10
260.396376493606
 20
136.1272119888343
 30
0.0
 41
2.0
 42
2.0
 43
2.0
  0
MTEXT
  5
6CCF
330
6A91
100
AcDbEntity
  8
30
  6
Continuous
 62
     0
100
AcDbMText
 10
246.3963764936059
 20
138.6272119888344
 30
0.0
 40
3.0
 41
0.0
 71
     5
 72
     1
  1
\A1;28
 73
     1
 44
1.0
1001
ACAD
1000
MTEXTBEGIN
1070
    73
1070
     1
1070
    44
1040
1.0
1070
    74
1070
     0
1000
MTEXTEND
1000
MTEXTBEGIN
1070
    73
1070
     1
1070
    44
1040
1.0
1070
    74
1070
     0
1000
MTEXTEND
1000
MTEXTBEGIN
1070
    73
1070
     1
1070
    44
1040
1.0
1070
    74
1070
     0
1000
MTEXTEND
  0
POINT
  5
6CD0
330
6A91
100
AcDbEntity
  8
DEFPOINTS
  6
Continuous
 62
     0
100
AcDbPoint
 10
232.3963764936059
 20
110.8678404407587
 30
0.0
  0
POINT
  5
6CD1
330
6A91
100
AcDbEntity
  8
DEFPOINTS
  6
Continuous
 62
     0
100
AcDbPoint
 10
260.396376493606
 20
80.36784044075865
 30
0.0
  0
POINT
  5
6CD2
330
6A91
100
AcDbEntity
  8
DEFPOINTS
  6
Continuous
 62
     0
100
AcDbPoint
 10
260.396376493606
 20
136.1272119888343
 30
0.0
  0
ENDBLK
  5
6A9C
330
6A91
100
AcDbEntity
  8
0
100
AcDbBlockEnd
  0
BLOCK
  5
6AA8
330
6A9D
100
AcDbEntity
  8
0
100
AcDbBlockBegin
  2
*D34
 70
     1
 10
0.0
 20
0.0
 30
0.0
  3
*D34
  1

  0
LINE
  5
6AD9
330
6A9D
100
AcDbEntity
  8
30
  6
Continuous
 62
     0
100
AcDbLine
 10
232.3963764936059
 20
111.8678404407587
 30
0.0
 11
232.3963764936059
 21
120.7291222102708
 31
0.0
  0
LINE
  5
6ADA
330
6A9D
100
AcDbEntity
  8
30
  6
Continuous
 62
     0
100
AcDbLine
 10
236.3963764936058
 20
111.8678404407587
 30
0.0
 11
236.3963764936058
 21
120.7291222102708
 31
0.0
  0
LINE
  5
6ADB
330
6A9D
100
AcDbEntity
  8
30
  6
Continuous
 62
     0
100
AcDbLine
 10
230.396376493606
 20
120.2291222102708
 30
0.0
 11
228.396376493606
 21
120.2291222102708
 31
0.0
  0
LINE
  5
6ADC
330
6A9D
100
AcDbEntity
  8
30
  6
Continuous
 62
     0
100
AcDbLine
 10
238.3963764936058
 20
120.2291222102708
 30
0.0
 11
245.0630431602724
 21
120.2291222102708
 31
0.0
  0
INSERT
  5
6ADD
330
6A9D
100
AcDbEntity
  8
30
  6
Continuous
 62
     0
100
AcDbBlockReference
  2
_OPEN
 10
232.3963764936059
 20
120.2291222102708
 30
0.0
 41
2.0
 42
2.0
 43
2.0
  0
INSERT
  5
6ADE
330
6A9D
100
AcDbEntity
  8
30
  6
Continuous
 62
     0
100
AcDbBlockReference
  2
_OPEN
 10
236.3963764936058
 20
120.2291222102708
 30
0.0
 41
2.0
 42
2.0
 43
2.0
 50
180.0
  0
MTEXT
  5
6ADF
330
6A9D
100
AcDbEntity
  8
30
  6
Continuous
 62
     0
100
AcDbMText
 10
242.7297098269393
 20
123.2291222102708
 30
0.0
 40
4.0
 41
0.0
 71
     5
 72
     1
  1
\A1;4
 73
     1
 44
1.0
1001
ACAD
1000
MTEXTBEGIN
1070
    73
1070
     1
1070
    44
1040
1.0
1070
    74
1070
     0
1000
MTEXTEND
1000
MTEXTBEGIN
1070
    73
1070
     1
1070
    44
1040
1.0
1070
    74
1070
     0
1000
MTEXTEND
1000
MTEXTBEGIN
1070
    73
1070
     1
1070
    44
1040
1.0
1070
    74
1070
     0
1000
MTEXTEND
  0
POINT
  5
6AE0
330
6A9D
100
AcDbEntity
  8
DEFPOINTS
  6
Continuous
 62
     0
100
AcDbPoint
 10
232.3963764936059
 20
110.8678404407587
 30
0.0
  0
POINT
  5
6AE1
330
6A9D
100
AcDbEntity
  8
DEFPOINTS
  6
Continuous
 62
     0
100
AcDbPoint
 10
236.3963764936058
 20
110.8678404407587
 30
0.0
  0
POINT
  5
6AE2
330
6A9D
100
AcDbEntity
  8
DEFPOINTS
  6
Continuous
 62
     0
100
AcDbPoint
 10
236.3963764936058
 20
120.2291222102708
 30
0.0
  0
ENDBLK
  5
6AA9
330
6A9D
100
AcDbEntity
  8
0
100
AcDbBlockEnd
  0
BLOCK
  5
6D3B
330
6D31
100
AcDbEntity
  8
0
100
AcDbBlockBegin
  2
*D35
 70
     1
 10
0.0
 20
0.0
 30
0.0
  3
*D35
  1

  0
LINE
  5
6D32
330
6D31
100
AcDbEntity
  8
30
  6
Continuous
 62
     0
100
AcDbLine
 10
-33.86390546482873
 20
281.568193504375
 30
0.0
 11
-33.86390546482873
 21
318.3530787477597
 31
0.0
  0
LINE
  5
6D33
330
6D31
100
AcDbEntity
  8
30
  6
Continuous
 62
     0
100
AcDbLine
 10
1.136094535171277
 20
281.568193504375
 30
0.0
 11
1.136094535171279
 21
318.3530787477597
 31
0.0
  0
LINE
  5
6D34
330
6D31
100
AcDbEntity
  8
30
  6
Continuous
 62
     0
100
AcDbLine
 10
-31.86390546482873
 20
317.8530787477598
 30
0.0
 11
-0.8639054648287203
 21
317.8530787477598
 31
0.0
  0
INSERT
  5
6D35
330
6D31
100
AcDbEntity
  8
30
  6
Continuous
 62
     0
100
AcDbBlockReference
  2
_OPEN
 10
-33.86390546482873
 20
317.8530787477598
 30
0.0
 41
2.0
 42
2.0
 43
2.0
 50
180.0
  0
INSERT
  5
6D36
330
6D31
100
AcDbEntity
  8
30
  6
Continuous
 62
     0
100
AcDbBlockReference
  2
_OPEN
 10
1.136094535171279
 20
317.8530787477598
 30
0.0
 41
2.0
 42
2.0
 43
2.0
  0
MTEXT
  5
6D37
330
6D31
100
AcDbEntity
  8
30
  6
Continuous
 62
     0
100
AcDbMText
 10
-16.36390546482871
 20
320.8530787477598
 30
0.0
 40
4.0
 41
0.0
 71
     5
 72
     1
  1
\A1;35
 73
     1
 44
1.0
1001
ACAD
1000
MTEXTBEGIN
1070
    73
1070
     1
1070
    44
1040
1.0
1070
    74
1070
     0
1000
MTEXTEND
1000
MTEXTBEGIN
1070
    73
1070
     1
1070
    44
1040
1.0
1070
    74
1070
     0
1000
MTEXTEND
1000
MTEXTBEGIN
1070
    73
1070
     1
1070
    44
1040
1.0
1070
    74
1070
     0
1000
MTEXTEND
  0
POINT
  5
6D38
330
6D31
100
AcDbEntity
  8
DEFPOINTS
  6
Continuous
 62
     0
100
AcDbPoint
 10
-33.86390546482873
 20
280.568193504375
 30
0.0
  0
POINT
  5
6D39
330
6D31
100
AcDbEntity
  8
DEFPOINTS
  6
Continuous
 62
     0
100
AcDbPoint
 10
1.136094535171277
 20
280.568193504375
 30
0.0
  0
POINT
  5
6D3A
330
6D31
100
AcDbEntity
  8
DEFPOINTS
  6
Continuous
 62
     0
100
AcDbPoint
 10
1.136094535171279
 20
317.8530787477598
 30
0.0
  0
ENDBLK
  5
6D3C
330
6D31
100
AcDbEntity
  8
0
100
AcDbBlockEnd
  0
BLOCK
  5
6D4A
330
6D40
100
AcDbEntity
  8
0
100
AcDbBlockBegin
  2
*D36
 70
     1
 10
0.0
 20
0.0
 30
0.0
  3
*D36
  1

  0
LINE
  5
6D4C
330
6D40
100
AcDbEntity
  8
30
  6
Continuous
 62
     0
100
AcDbLine
 10
1.136094535171281
 20
281.568193504375
 30
0.0
 11
1.136094535171281
 21
318.3530787477597
 31
0.0
  0
LINE
  5
6D4D
330
6D40
100
AcDbEntity
  8
30
  6
Continuous
 62
     0
100
AcDbLine
 10
36.13609453517129
 20
281.568193504375
 30
0.0
 11
36.13609453517129
 21
318.3530787477597
 31
0.0
  0
LINE
  5
6D4E
330
6D40
100
AcDbEntity
  8
30
  6
Continuous
 62
     0
100
AcDbLine
 10
3.136094535171283
 20
317.8530787477598
 30
0.0
 11
34.13609453517128
 21
317.8530787477598
 31
0.0
  0
INSERT
  5
6D4F
330
6D40
100
AcDbEntity
  8
30
  6
Continuous
 62
     0
100
AcDbBlockReference
  2
_OPEN
 10
1.136094535171281
 20
317.8530787477598
 30
0.0
 41
2.0
 42
2.0
 43
2.0
 50
180.0
  0
INSERT
  5
6D50
330
6D40
100
AcDbEntity
  8
30
  6
Continuous
 62
     0
100
AcDbBlockReference
  2
_OPEN
 10
36.13609453517129
 20
317.8530787477598
 30
0.0
 41
2.0
 42
2.0
 43
2.0
  0
MTEXT
  5
6D51
330
6D40
100
AcDbEntity
  8
30
  6
Continuous
 62
     0
100
AcDbMText
 10
18.63609453517128
 20
320.8530787477598
 30
0.0
 40
4.0
 41
0.0
 71
     5
 72
     1
  1
\A1;35
 73
     1
 44
1.0
1001
ACAD
1000
MTEXTBEGIN
1070
    73
1070
     1
1070
    44
1040
1.0
1070
    74
1070
     0
1000
MTEXTEND
1000
MTEXTBEGIN
1070
    73
1070
     1
1070
    44
1040
1.0
1070
    74
1070
     0
1000
MTEXTEND
1000
MTEXTBEGIN
1070
    73
1070
     1
1070
    44
1040
1.0
1070
    74
1070
     0
1000
MTEXTEND
  0
POINT
  5
6D52
330
6D40
100
AcDbEntity
  8
DEFPOINTS
  6
Continuous
 62
     0
100
AcDbPoint
 10
1.136094535171281
 20
280.568193504375
 30
0.0
  0
POINT
  5
6D53
330
6D40
100
AcDbEntity
  8
DEFPOINTS
  6
Continuous
 62
     0
100
AcDbPoint
 10
36.13609453517129
 20
280.568193504375
 30
0.0
  0
POINT
  5
6D54
330
6D40
100
AcDbEntity
  8
DEFPOINTS
  6
Continuous
 62
     0
100
AcDbPoint
 10
36.13609453517129
 20
317.8530787477598
 30
0.0
  0
ENDBLK
  5
6D4B
330
6D40
100
AcDbEntity
  8
0
100
AcDbBlockEnd
  0
BLOCK
  5
6D60
330
6D56
100
AcDbEntity
  8
0
100
AcDbBlockBegin
  2
*D37
 70
     1
 10
0.0
 20
0.0
 30
0.0
  3
*D37
  1

  0
LINE
  5
6D62
330
6D56
100
AcDbEntity
  8
30
  6
Continuous
 62
     0
100
AcDbLine
 10
36.13609453517131
 20
281.568193504375
 30
0.0
 11
36.13609453517131
 21
318.3530787477597
 31
0.0
  0
LINE
  5
6D63
330
6D56
100
AcDbEntity
  8
30
  6
Continuous
 62
     0
100
AcDbLine
 10
71.13609453517131
 20
281.568193504375
 30
0.0
 11
71.13609453517131
 21
318.3530787477597
 31
0.0
  0
LINE
  5
6D64
330
6D56
100
AcDbEntity
  8
30
  6
Continuous
 62
     0
100
AcDbLine
 10
38.13609453517129
 20
317.8530787477598
 30
0.0
 11
69.13609453517132
 21
317.8530787477598
 31
0.0
  0
INSERT
  5
6D65
330
6D56
100
AcDbEntity
  8
30
  6
Continuous
 62
     0
100
AcDbBlockReference
  2
_OPEN
 10
36.13609453517131
 20
317.8530787477598
 30
0.0
 41
2.0
 42
2.0
 43
2.0
 50
180.0
  0
INSERT
  5
6D66
330
6D56
100
AcDbEntity
  8
30
  6
Continuous
 62
     0
100
AcDbBlockReference
  2
_OPEN
 10
71.13609453517131
 20
317.8530787477598
 30
0.0
 41
2.0
 42
2.0
 43
2.0
  0
MTEXT
  5
6D67
330
6D56
100
AcDbEntity
  8
30
  6
Continuous
 62
     0
100
AcDbMText
 10
53.63609453517131
 20
320.8530787477598
 30
0.0
 40
4.0
 41
0.0
 71
     5
 72
     1
  1
\A1;35
 73
     1
 44
1.0
1001
ACAD
1000
MTEXTBEGIN
1070
    73
1070
     1
1070
    44
1040
1.0
1070
    74
1070
     0
1000
MTEXTEND
1000
MTEXTBEGIN
1070
    73
1070
     1
1070
    44
1040
1.0
1070
    74
1070
     0
1000
MTEXTEND
1000
MTEXTBEGIN
1070
    73
1070
     1
1070
    44
1040
1.0
1070
    74
1070
     0
1000
MTEXTEND
  0
POINT
  5
6D68
330
6D56
100
AcDbEntity
  8
DEFPOINTS
  6
Continuous
 62
     0
100
AcDbPoint
 10
36.13609453517131
 20
280.568193504375
 30
0.0
  0
POINT
  5
6D69
330
6D56
100
AcDbEntity
  8
DEFPOINTS
  6
Continuous
 62
     0
100
AcDbPoint
 10
71.13609453517131
 20
280.568193504375
 30
0.0
  0
POINT
  5
6D6A
330
6D56
100
AcDbEntity
  8
DEFPOINTS
  6
Continuous
 62
     0
100
AcDbPoint
 10
71.13609453517131
 20
317.8530787477598
 30
0.0
  0
ENDBLK
  5
6D61
330
6D56
100
AcDbEntity
  8
0
100
AcDbBlockEnd
  0
BLOCK
  5
6D89
330
6D80
100
AcDbEntity
  8
0
100
AcDbBlockBegin
  2
*D38
 70
     1
 10
0.0
 20
0.0
 30
0.0
  3
*D38
  1

  0
LINE
  5
6D93
330
6D80
100
AcDbEntity
  8
30
  6
Continuous
 62
     0
100
AcDbLine
 10
260.1850315443384
 20
-223.6428351593878
 30
0.0
 11
253.8516982110049
 21
-223.6428351593878
 31
0.0
  0
LINE
  5
6D94
330
6D80
100
AcDbEntity
  8
30
  6
Continuous
 62
     0
100
AcDbLine
 10
253.8516982110049
 20
-223.6428351593878
 30
0.0
 11
252.213418926603
 21
-224.7900234553092
 31
0.0
  0
MTEXT
  5
6D95
330
6D80
100
AcDbEntity
  8
30
  6
Continuous
 62
     0
100
AcDbMText
 10
257.5183648776715
 20
-220.6428351593878
 30
0.0
 40
4.0
 41
0.0
 71
     5
 72
     1
  1
\A1;R1
 73
     1
 44
1.0
1001
ACAD
1000
MTEXTBEGIN
1070
    73
1070
     1
1070
    44
1040
1.0
1070
    74
1070
     0
1000
MTEXTEND
1000
MTEXTBEGIN
1070
    73
1070
     1
1070
    44
1040
1.0
1070
    74
1070
     0
1000
MTEXTEND
1000
MTEXTBEGIN
1070
    73
1070
     1
1070
    44
1040
1.0
1070
    74
1070
     0
1000
MTEXTEND
  0
INSERT
  5
6D96
330
6D80
100
AcDbEntity
  8
30
  6
Continuous
 62
     0
100
AcDbBlockReference
  2
_OPEN
 10
250.5751396422009
 20
-225.9372117512308
 30
0.0
 41
2.0
 42
2.0
 43
2.0
 50
215.0012388520244
  0
LINE
  5
6D97
330
6D80
100
AcDbEntity
  8
30
  6
Continuous
 62
     0
100
AcDbLine
 10
249.6660000000002
 20
-226.5108058991915
 30
0.0
 11
249.8460000000001
 21
-226.5108058991915
 31
0.0
  0
LINE
  5
6D98
330
6D80
100
AcDbEntity
  8
30
  6
Continuous
 62
     0
100
AcDbLine
 10
249.7560000000003
 20
-226.6008058991916
 30
0.0
 11
249.7560000000002
 21
-226.4208058991915
 31
0.0
  0
POINT
  5
6D99
330
6D80
100
AcDbEntity
  8
DEFPOINTS
  6
Continuous
 62
     0
100
AcDbPoint
 10
250.5751396422009
 20
-225.9372117512308
 30
0.0
  0
POINT
  5
6D9A
330
6D80
100
AcDbEntity
  8
DEFPOINTS
  6
Continuous
 62
     0
100
AcDbPoint
 10
249.7560000000003
 20
-226.5108058991915
 30
0.0
  0
ENDBLK
  5
6D8A
330
6D80
100
AcDbEntity
  8
0
100
AcDbBlockEnd
  0
ENDSEC
  0
SECTION
  2
ENTITIES
  0
LINE
  5
B4
330
1E
100
AcDbEntity
  8
16
100
AcDbLine
 10
1.136094535171281
 20
-100.6722822769285
 30
0.0
 11
1.136094535171281
 21
106.7596756998463
 31
0.0
  0
MTEXT
  5
BF3
330
1E
100
AcDbEntity
  8
24
  6
Continuous
100
AcDbMText
 10
142.118191
 20
177.5
 30
0.0
 40
3.0
 41
0.0
 71
     1
 72
     1
  1
\A1;
 73
     1
 44
1.0
1001
ACAD
1000
MTEXTBEGIN
1070
    73
1070
     1
1070
    44
1040
1.0
1070
    74
1070
     0
1000
MTEXTEND
1000
MTEXTBEGIN
1070
    73
1070
     1
1070
    44
1040
1.0
1070
    74
1070
     0
1000
MTEXTEND
1000
MTEXTBEGIN
1070
    73
1070
     1
1070
    44
1040
1.0
1070
    74
1070
     0
1000
MTEXTEND
  0
LINE
  5
1C9B
330
1E
100
AcDbEntity
  8
16
100
AcDbLine
 10
281.407882336998
 20
1.15231784516308
 30
0.0
 11
118.3137526875211
 21
1.15231784516308
 31
0.0
  0
LINE
  5
2260
330
1E
100
AcDbEntity
  8
16
100
AcDbLine
 10
69.65989754940711
 20
-251.5108058991919
 30
0.0
 11
-79.79391320158081
 21
-251.5108058991919
 31
0.0
  0
LINE
  5
2261
330
1E
100
AcDbEntity
  8
16
100
AcDbLine
 10
0.7560000000000926
 20
-349.2627456620376
 30
0.0
 11
0.7560000000000926
 21
-150.1274066897059
 31
0.0
  0
LINE
  5
4C5A
330
1E
100
AcDbEntity
  8
16
100
AcDbLine
 10
89.63051261991314
 20
1.15231784516308
 30
0.0
 11
-82.76978724598629
 21
1.15231784516308
 31
0.0
  0
TEXT
  5
5C39
330
1E
100
AcDbEntity
  8
30
  6
Continuous
100
AcDbText
 10
291.4345591182101
 20
81.47188476509962
 30
0.0
 40
5.0
  1
%%c9
  7
STANDARD1
100
AcDbText
  0
MTEXT
  5
5C78
330
1E
100
AcDbEntity
  8
30
  6
Continuous
100
AcDbMText
 10
163.4658593933072
 20
90.15025714526428
 30
0.0
 40
4.0
 41
0.0
 71
     9
 72
     1
  1

 73
     1
 44
1.0
1001
ACAD
1000
MTEXTBEGIN
1070
    73
1070
     1
1070
    44
1040
1.0
1070
    74
1070
     0
1000
MTEXTEND
1000
MTEXTBEGIN
1070
    73
1070
     1
1070
    44
1040
1.0
1070
    74
1070
     0
1000
MTEXTEND
1000
MTEXTBEGIN
1070
    73
1070
     1
1070
    44
1040
1.0
1070
    74
1070
     0
1000
MTEXTEND
  0
LEADER
  5
5C79
330
1E
100
AcDbEntity
  8
30
  6
Continuous
100
AcDbLeader
  3
STANDARD
 40
4.0
 76
     3
 10
312.7342471450059
 20
60.47259628599658
 30
0.0
 10
303.3982495164485
 20
79.57960242179706
 30
0.0
 10
290.0611059911808
 20
80.02395084083808
 30
0.0
213
0.0
223
2.0
233
0.0
1001
ACAD
1000
DSTYLE
1002
{
1070
     5
1000
OPEN
1070
    77
1070
     0
1070
    79
1070
     3
1070
   147
1040
1.0
1070
   342
1005
3B2
1002
}
  0
LINE
  5
5C86
330
1E
100
AcDbEntity
  8
10
  6
CONTINOUS
100
AcDbLine
 10
-51.3639054648286
 20
229.5681935043748
 30
0.0
 11
-51.36390546482873
 21
297.568193504375
 31
0.0
  0
LINE
  5
5C8A
330
1E
100
AcDbEntity
  8
10
  6
CONTINOUS
100
AcDbLine
 10
88.63609453517133
 20
229.5681935043749
 30
0.0
 11
88.63609453517133
 21
297.568193504375
 31
0.0
  0
LINE
  5
5C8B
330
1E
100
AcDbEntity
  8
10
  6
CONTINOUS
100
AcDbLine
 10
-51.3639054648286
 20
229.5681935043748
 30
0.0
 11
88.63609453517133
 21
229.5681935043749
 31
0.0
  0
LINE
  5
5C8C
330
1E
100
AcDbEntity
  8
10
  6
CONTINOUS
100
AcDbLine
 10
-51.36390546482861
 20
236.5681935043749
 30
0.0
 11
88.63609453517133
 21
236.5681935043749
 31
0.0
  0
LINE
  5
5C8D
330
1E
100
AcDbEntity
  8
10
  6
CONTINOUS
100
AcDbLine
 10
50.13609453517132
 20
225.568193504375
 30
0.0
 11
50.13609453517132
 21
229.5681935043749
 31
0.0
  0
LINE
  5
5C8E
330
1E
100
AcDbEntity
  8
10
  6
CONTINOUS
100
AcDbLine
 10
-10.3907607675857
 20
221.5681935043749
 30
0.0
 11
11.62714276758558
 21
221.5681935043749
 31
0.0
  0
LINE
  5
5C8F
330
1E
100
AcDbEntity
  8
10
  6
CONTINOUS
100
AcDbLine
 10
-47.86390546482869
 20
225.5681935043749
 30
0.0
 11
50.13609453517132
 21
225.568193504375
 31
0.0
  0
LINE
  5
5C91
330
1E
100
AcDbEntity
  8
10
  6
CONTINOUS
100
AcDbLine
 10
11.62714276758558
 20
221.5681935043749
 30
0.0
 11
11.62714276758558
 21
225.5681935043749
 31
0.0
  0
LINE
  5
5C96
330
1E
100
AcDbEntity
  8
10
  6
CONTINOUS
100
AcDbLine
 10
-10.3907607675857
 20
221.5681935043749
 30
0.0
 11
-10.3907607675857
 21
225.5681935043749
 31
0.0
  0
LINE
  5
5C97
330
1E
100
AcDbEntity
  8
10
  6
CONTINOUS
100
AcDbLine
 10
-47.86390546482869
 20
225.5681935043749
 30
0.0
 11
-47.86390546482869
 21
229.5681935043749
 31
0.0
  0
LINE
  5
5C98
330
1E
100
AcDbEntity
  8
10
  6
CONTINOUS
100
AcDbLine
 10
-51.36390546482873
 20
297.568193504375
 30
0.0
 11
88.63609453517133
 21
297.568193504375
 31
0.0
  0
LWPOLYLINE
  5
5CCD
330
1E
100
AcDbEntity
  8
10
  6
CONTINOUS
100
AcDbPolyline
 90
        4
 70
     1
 43
0.0
 10
-6.372857232414387
 20
221.5681935043749
 10
7.627142767585552
 20
221.5681935043749
 10
7.627142767585552
 20
213.4961720886788
 10
-6.372857232414387
 20
213.4961720886788
  0
MTEXT
  5
6068
330
1E
100
AcDbEntity
  8
30
  6
Continuous
100
AcDbMText
 10
-32.98718375015141
 20
-163.7563795703974
 30
0.0
 40
4.0
 41
0.0
 71
     9
 72
     1
  1

 73
     1
 44
1.0
1001
ACAD
1000
MTEXTBEGIN
1070
    73
1070
     1
1070
    44
1040
1.0
1070
    74
1070
     0
1000
MTEXTEND
1000
MTEXTBEGIN
1070
    73
1070
     1
1070
    44
1040
1.0
1070
    74
1070
     0
1000
MTEXTEND
1000
MTEXTBEGIN
1070
    73
1070
     1
1070
    44
1040
1.0
1070
    74
1070
     0
1000
MTEXTEND
  0
DIMENSION
  5
62D2
330
1E
100
AcDbEntity
  8
30
  6
Continuous
100
AcDbDimension
  2
*D1
 10
50.13609453517131
 20
36.3655098313616
 30
0.0
 11
1.1360945351713
 21
39.36550983136161
 31
0.0
 70
    32
 71
     5
 42
-1.0
  3
STANDARD
100
AcDbAlignedDimension
 13
-47.8639054648287
 23
26.15231784516308
 33
0.0
 14
50.13609453517131
 24
26.15231784516308
 34
0.0
100
AcDbRotatedDimension
1001
ACAD
1000
DSTYLE
1002
{
1070
    79
1070
     3
1002
}
  0
DIMENSION
  5
62D3
330
1E
100
AcDbEntity
  8
30
  6
Continuous
100
AcDbDimension
  2
*D2
 10
88.63609453517133
 20
-129.3021285668281
 30
0.0
 11
18.63609453517129
 21
-126.302128566828
 31
0.0
 70
    32
 71
     5
 42
-1.0
  3
STANDARD
100
AcDbAlignedDimension
 13
-51.36390546482873
 23
-81.34768215483692
 33
0.0
 14
88.63609453517133
 24
-81.34768215483692
 34
0.0
 50
180.0
100
AcDbRotatedDimension
1001
ACAD
1000
DSTYLE
1002
{
1070
    79
1070
     3
1002
}
  0
DIMENSION
  5
62D4
330
1E
100
AcDbEntity
  8
30
  6
Continuous
100
AcDbDimension
  2
*D3
 10
1.136094535171278
 20
-119.677069909307
 30
0.0
 11
-16.36390546482871
 21
-116.677069909307
 31
0.0
 70
    32
 71
     5
 42
-1.0
  3
STANDARD
100
AcDbAlignedDimension
 13
-33.86390546482871
 23
-105.8476821548369
 33
0.0
 14
1.136094535171279
 24
-105.8476821548369
 34
0.0
 50
180.0
100
AcDbRotatedDimension
1001
ACAD
1000
DSTYLE
1002
{
1070
    79
1070
     3
1002
}
  0
LINE
  5
62D5
330
1E
100
AcDbEntity
  8
12
  6
DASHED
100
AcDbLine
 10
13.1360945351713
 20
-61.84768215483693
 30
0.0
 11
24.13609453517128
 21
-61.84768215483693
 31
0.0
  0
LINE
  5
62D6
330
1E
100
AcDbEntity
  8
10
  6
CONTINOUS
100
AcDbLine
 10
-47.8639054648287
 20
-23.84768215483691
 30
0.0
 11
50.13609453517131
 21
-23.84768215483691
 31
0.0
  0
LINE
  5
62D7
330
1E
100
AcDbEntity
  8
10
  6
CONTINOUS
100
AcDbLine
 10
-51.36390546482873
 20
-49.84768215483693
 30
0.0
 11
88.63609453517133
 21
-49.84768215483693
 31
0.0
  0
LINE
  5
62D8
330
1E
100
AcDbEntity
  8
10
  6
CONTINOUS
100
AcDbLine
 10
-51.36390546482873
 20
52.15231784516308
 30
0.0
 11
88.63609453517133
 21
52.15231784516308
 31
0.0
  0
LINE
  5
62DA
330
1E
100
AcDbEntity
  8
10
  6
CONTINOUS
100
AcDbLine
 10
88.63609453517133
 20
83.65231784516309
 30
0.0
 11
82.63609453517139
 21
83.65231784516311
 31
0.0
  0
LINE
  5
62DB
330
1E
100
AcDbEntity
  8
10
  6
CONTINOUS
100
AcDbLine
 10
-51.36390546482873
 20
-81.34768215483692
 30
0.0
 11
-45.36390546482864
 21
-81.34768215483692
 31
0.0
  0
LINE
  5
62DC
330
1E
100
AcDbEntity
  8
10
  6
CONTINOUS
100
AcDbLine
 10
-47.8639054648287
 20
26.15231784516308
 30
0.0
 11
50.13609453517131
 21
26.15231784516308
 31
0.0
  0
LINE
  5
62DE
330
1E
100
AcDbEntity
  8
18
100
AcDbLine
 10
17.13609453517128
 20
183.652317845163
 30
0.0
 11
17.13609453517128
 21
83.65231784516295
 31
0.0
  0
LINE
  5
62DF
330
1E
100
AcDbEntity
  8
18
100
AcDbLine
 10
-14.86390546482871
 20
183.652317845163
 30
0.0
 11
-14.86390546482871
 21
83.65231784516295
 31
0.0
  0
LINE
  5
62E0
330
1E
100
AcDbEntity
  8
18
100
AcDbLine
 10
-17.86390546482872
 20
183.652317845163
 30
0.0
 11
-17.86390546482872
 21
83.65231784516295
 31
0.0
  0
LINE
  5
62E1
330
1E
100
AcDbEntity
  8
18
100
AcDbLine
 10
20.13609453517131
 20
183.652317845163
 30
0.0
 11
20.13609453517131
 21
83.65231784516295
 31
0.0
  0
LINE
  5
62E2
330
1E
100
AcDbEntity
  8
10
  6
CONTINOUS
100
AcDbLine
 10
-47.8639054648287
 20
26.15231784516308
 30
0.0
 11
-47.8639054648287
 21
-23.84768215483691
 31
0.0
  0
LINE
  5
62E4
330
1E
100
AcDbEntity
  8
10
  6
CONTINOUS
100
AcDbLine
 10
12.13609453517128
 20
26.15231784516308
 30
0.0
 11
12.13609453517128
 21
-23.84768215483691
 31
0.0
  0
LINE
  5
62E5
330
1E
100
AcDbEntity
  8
10
  6
CONTINOUS
100
AcDbLine
 10
-9.863905464828716
 20
26.15231784516308
 30
0.0
 11
-9.863905464828716
 21
-23.84768215483691
 31
0.0
  0
LINE
  5
62E6
330
1E
100
AcDbEntity
  8
10
  6
CONTINOUS
100
AcDbLine
 10
-51.36390546482873
 20
83.65231784516309
 30
0.0
 11
-51.36390546482873
 21
-81.34768215483692
 31
0.0
  0
CIRCLE
  5
62F6
330
1E
100
AcDbEntity
  8
12
  6
DASHED
100
AcDbCircle
 10
18.63609453517128
 20
-61.84768215483693
 30
0.0
 40
4.0
  0
LINE
  5
62F7
330
1E
100
AcDbEntity
  8
12
  6
DASHED
100
AcDbLine
 10
18.63609453517128
 20
-56.34768215483692
 30
0.0
 11
18.63609453517128
 21
-67.34768215483694
 31
0.0
  0
DIMENSION
  5
62F8
330
1E
100
AcDbEntity
  8
30
  6
Continuous
100
AcDbDimension
  2
*D4
 10
12.13609453517128
 20
-39.30212856682809
 30
0.0
 11
1.136094535171279
 21
-36.30212856682808
 31
0.0
 70
    32
 71
     5
 42
-1.0
  3
STANDARD
100
AcDbAlignedDimension
 13
-9.863905464828716
 23
-23.84768215483691
 33
0.0
 14
12.13609453517128
 24
-23.84768215483691
 34
0.0
 50
180.0
100
AcDbRotatedDimension
1001
ACAD
1000
DSTYLE
1002
{
1070
    79
1070
     3
1002
}
  0
LINE
  5
62FA
330
1E
100
AcDbEntity
  8
10
  6
CONTINOUS
100
AcDbLine
 10
-5.863905464828717
 20
-17.34768215483691
 30
0.0
 11
-5.863905464828633
 21
21.30718655097339
 31
0.0
  0
LINE
  5
62FB
330
1E
100
AcDbEntity
  8
10
  6
CONTINOUS
100
AcDbLine
 10
8.136094535171295
 20
-17.34768215483691
 30
0.0
 11
8.136094535171361
 21
21.30718655097339
 31
0.0
  0
LINE
  5
62FC
330
1E
100
AcDbEntity
  8
10
  6
CONTINOUS
100
AcDbLine
 10
-5.863905464828717
 20
-17.34768215483691
 30
0.0
 11
8.136094535171295
 21
-17.34768215483691
 31
0.0
  0
LINE
  5
62FD
330
1E
100
AcDbEntity
  8
10
  6
CONTINOUS
100
AcDbLine
 10
8.136094535171295
 20
7.993107152024633
 30
0.0
 11
-5.863905464827808
 21
7.993107152024633
 31
0.0
  0
LINE
  5
62FE
330
1E
100
AcDbEntity
  8
10
  6
CONTINOUS
100
AcDbLine
 10
8.136094535171295
 20
21.30718655097339
 30
0.0
 11
-5.863905464829612
 21
21.30718655097339
 31
0.0
  0
LINE
  5
62FF
330
1E
100
AcDbEntity
  8
10
  6
CONTINOUS
100
AcDbLine
 10
8.136094535171295
 20
16.39227428523972
 30
0.0
 11
-5.863905464828717
 21
16.39227428523972
 31
0.0
  0
CIRCLE
  5
6300
330
1E
100
AcDbEntity
  8
12
  6
DASHED
100
AcDbCircle
 10
-16.36390546482871
 20
64.15231784516308
 30
0.0
 40
4.0
  0
LINE
  5
6301
330
1E
100
AcDbEntity
  8
12
  6
DASHED
100
AcDbLine
 10
-21.8639054648287
 20
64.15231784516308
 30
0.0
 11
-10.8639054648287
 21
64.15231784516308
 31
0.0
  0
CIRCLE
  5
6302
330
1E
100
AcDbEntity
  8
24
  6
CONTINOUS
100
AcDbCircle
 10
-33.86390546482871
 20
73.15231784516308
 30
0.0
 40
5.0
  0
LINE
  5
6305
330
1E
100
AcDbEntity
  8
24
  6
CONTINOUS
100
AcDbLine
 10
-33.86390546482871
 20
80.15231784516306
 30
0.0
 11
-33.86390546482871
 21
66.15231784516308
 31
0.0
  0
LINE
  5
6309
330
1E
100
AcDbEntity
  8
24
  6
CONTINOUS
100
AcDbLine
 10
-40.86390546482872
 20
73.15231784516308
 30
0.0
 11
-26.8639054648287
 21
73.15231784516308
 31
0.0
  0
CIRCLE
  5
630A
330
1E
100
AcDbEntity
  8
24
  6
CONTINOUS
100
AcDbCircle
 10
1.136094535171281
 20
73.15231784516308
 30
0.0
 40
5.0
  0
LINE
  5
630F
330
1E
100
AcDbEntity
  8
12
  6
DASHED
100
AcDbLine
 10
-16.36390546482871
 20
69.65231784516308
 30
0.0
 11
-16.36390546482871
 21
58.65231784516307
 31
0.0
  0
LINE
  5
6311
330
1E
100
AcDbEntity
  8
24
  6
CONTINOUS
100
AcDbLine
 10
-5.863905464828717
 20
73.15231784516308
 30
0.0
 11
8.136094535171295
 21
73.15231784516308
 31
0.0
  0
LINE
  5
6314
330
1E
100
AcDbEntity
  8
18
100
AcDbLine
 10
-14.86390546482871
 20
183.652317845163
 30
0.0
 11
-17.86390546482872
 21
183.652317845163
 31
0.0
  0
LINE
  5
6315
330
1E
100
AcDbEntity
  8
18
100
AcDbLine
 10
17.13609453517128
 20
183.652317845163
 30
0.0
 11
20.13609453517131
 21
183.652317845163
 31
0.0
  0
LINE
  5
6316
330
1E
100
AcDbEntity
  8
10
  6
CONTINOUS
100
AcDbLine
 10
50.13609453517131
 20
26.15231784516308
 30
0.0
 11
50.13609453517131
 21
-23.84768215483691
 31
0.0
  0
LINE
  5
6317
330
1E
100
AcDbEntity
  8
10
  6
CONTINOUS
100
AcDbLine
 10
88.63609453517133
 20
-81.34768215483692
 30
0.0
 11
88.63609453517133
 21
83.65231784516309
 31
0.0
  0
CIRCLE
  5
6320
330
1E
100
AcDbEntity
  8
24
  6
CONTINOUS
100
AcDbCircle
 10
36.13609453517131
 20
73.15231784516308
 30
0.0
 40
5.0
  0
LINE
  5
6323
330
1E
100
AcDbEntity
  8
24
  6
CONTINOUS
100
AcDbLine
 10
36.13609453517131
 20
80.15231784516306
 30
0.0
 11
36.13609453517131
 21
66.15231784516308
 31
0.0
  0
LINE
  5
6327
330
1E
100
AcDbEntity
  8
24
  6
CONTINOUS
100
AcDbLine
 10
29.13609453517125
 20
73.15231784516308
 30
0.0
 11
43.1360945351713
 21
73.15231784516308
 31
0.0
  0
DIMENSION
  5
63B5
330
1E
100
AcDbEntity
  8
30
  6
Continuous
100
AcDbDimension
  2
*D5
 10
18.25600000000006
 20
-361.965252311183
 30
0.0
 11
0.7560000000000893
 21
-358.965252311183
 31
0.0
 70
    32
 71
     5
 42
-1.0
  3
STANDARD
100
AcDbAlignedDimension
 13
-16.7439999999999
 23
-320.0108058991918
 33
0.0
 14
18.25600000000006
 24
-317.0108059156916
 34
0.0
 50
180.0
100
AcDbRotatedDimension
1001
ACAD
1000
DSTYLE
1002
{
1070
    79
1070
     3
1002
}
  0
LINE
  5
63B7
330
1E
100
AcDbEntity
  8
18
  6
DIVIDE
100
AcDbLine
 10
-51.74399999999991
 20
-169.0108058991919
 30
0.0
 11
-51.74399999999991
 21
-334.0108058991918
 31
0.0
  0
LINE
  5
63B8
330
1E
100
AcDbEntity
  8
18
  6
DIVIDE
100
AcDbLine
 10
88.25600000000006
 20
-334.0108058991918
 30
0.0
 11
88.25600000000006
 21
-169.0108058991919
 31
0.0
  0
LINE
  5
63BA
330
1E
100
AcDbEntity
  8
18
  6
DIVIDE
100
AcDbLine
 10
-51.74399999999991
 20
-334.0108058991918
 30
0.0
 11
88.25600000000006
 21
-334.0108058991918
 31
0.0
  0
CIRCLE
  5
63BC
330
1E
100
AcDbEntity
  8
12
  6
Continuous
 62
     3
100
AcDbCircle
 10
18.25600000000006
 20
-314.5108058991918
 30
0.0
 40
2.0
  0
LINE
  5
63BD
330
1E
100
AcDbEntity
  8
12
  6
Continuous
 62
     3
100
AcDbLine
 10
12.7560000000002
 20
-314.5108058991918
 30
0.0
 11
23.75600000000007
 21
-314.5108058991918
 31
0.0
  0
LINE
  5
63BE
330
1E
100
AcDbEntity
  8
12
  6
Continuous
 62
     3
100
AcDbLine
 10
18.25600000000006
 20
-309.0108058991918
 30
0.0
 11
18.25600000000006
 21
-320.0108058991918
 31
0.0
  0
LINE
  5
63C3
330
1E
100
AcDbEntity
  8
18
  6
DIVIDE
100
AcDbLine
 10
88.25600000000006
 20
-169.0108058991919
 30
0.0
 11
-51.74399999999991
 21
-169.0108058991919
 31
0.0
  0
DIMENSION
  5
63C8
330
1E
100
AcDbEntity
  8
30
  6
Continuous
100
AcDbDimension
  2
*D6
 10
249.7560000000002
 20
-226.5108058991915
 30
0.0
 11
261.1850315443386
 21
-214.7366547359573
 31
0.0
 70
   164
 71
     5
 42
-1.0
  3
STANDARD
100
AcDbRadialDimension
 15
250.3064185976706
 25
-225.675917063874
 35
0.0
 40
0.0
1001
ACAD
1000
DSTYLE
1002
{
1070
    79
1070
     3
1002
}
  0
LINE
  5
63C9
330
1E
100
AcDbEntity
  8
12
  6
Continuous
 62
     3
100
AcDbLine
 10
-22.24399999999979
 20
-188.5108058991915
 30
0.0
 11
-11.2439999999999
 21
-188.5108058991915
 31
0.0
  0
CIRCLE
  5
63CA
330
1E
100
AcDbEntity
  8
12
  6
Continuous
 62
     3
100
AcDbCircle
 10
-16.7439999999999
 20
-188.5108058991915
 30
0.0
 40
2.0
  0
LINE
  5
63CB
330
1E
100
AcDbEntity
  8
12
  6
Continuous
 62
     3
100
AcDbLine
 10
-16.7439999999999
 20
-183.0108058991918
 30
0.0
 11
-16.7439999999999
 21
-194.0108058991919
 31
0.0
  0
DIMENSION
  5
6570
330
1E
100
AcDbEntity
  8
30
  6
Continuous
100
AcDbDimension
  2
*D12
 10
260.396376493606
 20
-114.2241155615665
 30
0.0
 11
226.3963764936061
 21
-111.2241155615665
 31
0.0
 70
    32
 71
     5
 42
-1.0
  3
STANDARD
100
AcDbAlignedDimension
 13
192.3963764936061
 23
-53.06965955924138
 33
0.0
 14
260.396376493606
 24
-84.56965955924136
 34
0.0
 50
180.0
100
AcDbRotatedDimension
1001
ACAD
1000
DSTYLE
1002
{
1070
    79
1070
     3
1002
}
  0
DIMENSION
  5
6571
330
1E
100
AcDbEntity
  8
30
  6
Continuous
100
AcDbDimension
  2
*D13
 10
260.396376493606
 20
-138.3844165195405
 30
0.0
 11
214.396376493606
 21
-135.3844165195405
 31
0.0
 70
    32
 71
     5
 42
-1.0
  3
STANDARD
100
AcDbAlignedDimension
 13
168.3963764936059
 23
-2.069659559241358
 33
0.0
 14
260.396376493606
 24
-84.56965955924136
 34
0.0
 50
180.0
100
AcDbRotatedDimension
1001
ACAD
1000
DSTYLE
1002
{
1070
    79
1070
     3
1002
}
  0
DIMENSION
  5
6573
330
1E
100
AcDbEntity
  8
30
  6
Continuous
100
AcDbDimension
  2
*D14
 10
260.396376493606
 20
-126.3388243031583
 30
0.0
 11
224.3963764936061
 21
-123.3388243031583
 31
0.0
 70
    32
 71
     5
 42
-1.0
  3
STANDARD
100
AcDbAlignedDimension
 13
188.3963764936061
 23
-27.06965955924136
 33
0.0
 14
260.396376493606
 24
-84.56965955924136
 34
0.0
 50
180.0
100
AcDbRotatedDimension
1001
ACAD
1000
DSTYLE
1002
{
1070
    79
1070
     3
1002
}
  0
DIMENSION
  5
6575
330
1E
100
AcDbEntity
  8
30
  6
Continuous
100
AcDbDimension
  2
*D15
 10
260.396376493606
 20
-104.9255832243834
 30
0.0
 11
229.8963764936059
 21
-101.9255832243834
 31
0.0
 70
    32
 71
     5
 42
-1.0
  3
STANDARD
100
AcDbAlignedDimension
 13
199.396376493606
 23
-84.56965955924136
 33
0.0
 14
260.396376493606
 24
-84.56965955924136
 34
0.0
 50
180.0
100
AcDbRotatedDimension
1001
ACAD
1000
DSTYLE
1002
{
1070
    79
1070
     3
1002
}
  0
LINE
  5
6576
330
1E
100
AcDbEntity
  8
12
  6
DASHED
100
AcDbLine
 10
199.3963764936054
 20
-60.81965955924136
 30
0.0
 11
215.3963764936061
 21
-60.81965955924136
 31
0.0
  0
LINE
  5
6577
330
1E
100
AcDbEntity
  8
12
  6
DASHED
100
AcDbLine
 10
194.3963764936059
 20
-65.06965955924136
 30
0.0
 11
278.396376493606
 21
-65.06965955924136
 31
0.0
  0
LINE
  5
6579
330
1E
100
AcDbEntity
  8
10
  6
CONTINOUS
100
AcDbLine
 10
260.396376493606
 20
80.43034044075865
 30
0.0
 11
199.396376493606
 21
80.43034044075865
 31
0.0
  0
LINE
  5
657A
330
1E
100
AcDbEntity
  8
10
  6
CONTINOUS
100
AcDbLine
 10
199.396376493606
 20
-84.56965955924136
 30
0.0
 11
260.396376493606
 21
-84.56965955924136
 31
0.0
  0
LINE
  5
657B
330
1E
100
AcDbEntity
  8
12
  6
DASHED
100
AcDbLine
 10
199.3963764936054
 20
-69.31965955924138
 30
0.0
 11
215.3963764936061
 21
-69.31965955924138
 31
0.0
  0
DIMENSION
  5
657C
330
1E
100
AcDbEntity
  8
30
  6
Continuous
100
AcDbDimension
  2
*D16
 10
125.393386067734
 20
-53.06965955924138
 30
0.0
 11
122.393386067734
 21
-2.069659559241328
 31
0.0
 70
    32
 71
     5
 42
-1.0
  3
STANDARD
100
AcDbAlignedDimension
 13
192.3963764936061
 23
48.93034044075864
 33
0.0
 14
192.3963764936061
 24
-53.06965955924138
 34
0.0
 50
90.0
100
AcDbRotatedDimension
1001
ACAD
1000
DSTYLE
1002
{
1070
    79
1070
     3
1002
}
  0
DIMENSION
  5
657D
330
1E
100
AcDbEntity
  8
30
  6
Continuous
100
AcDbDimension
  2
*D17
 10
144.1433860677338
 20
-27.06965955924133
 30
0.0
 11
141.1433860677339
 21
-2.06965955924132
 31
0.0
 70
    32
 71
     5
 42
-1.0
  3
STANDARD
100
AcDbAlignedDimension
 13
184.396376493606
 23
22.93034044075862
 33
0.0
 14
184.396376493606
 24
-27.06965955924136
 34
0.0
 50
90.0
100
AcDbRotatedDimension
1001
ACAD
1000
DSTYLE
1002
{
1070
    79
1070
     3
1002
}
  0
LINE
  5
657E
330
1E
100
AcDbEntity
  8
10
  6
CONTINOUS
100
AcDbLine
 10
192.3963764936061
 20
48.93034044075864
 30
0.0
 11
192.3963764936061
 21
-53.06965955924138
 31
0.0
  0
LINE
  5
657F
330
1E
100
AcDbEntity
  8
10
  6
CONTINOUS
100
AcDbLine
 10
184.396376493606
 20
22.93034044075862
 30
0.0
 11
184.396376493606
 21
-27.06965955924136
 31
0.0
  0
LINE
  5
6580
330
1E
100
AcDbEntity
  8
10
  6
CONTINOUS
100
AcDbLine
 10
188.3963764936061
 20
22.93034044075862
 30
0.0
 11
188.3963764936061
 21
-27.06965955924136
 31
0.0
  0
LINE
  5
6581
330
1E
100
AcDbEntity
  8
10
  6
CONTINOUS
100
AcDbLine
 10
199.396376493606
 20
-53.06965955924138
 30
0.0
 11
199.396376493606
 21
-84.56965955924136
 31
0.0
  0
LINE
  5
6582
330
1E
100
AcDbEntity
  8
10
  6
CONTINOUS
100
AcDbLine
 10
184.396376493606
 20
-27.06965955924136
 30
0.0
 11
192.3963764936061
 21
-27.06965955924136
 31
0.0
  0
LINE
  5
6583
330
1E
100
AcDbEntity
  8
10
  6
CONTINOUS
100
AcDbLine
 10
192.3963764936061
 20
-53.06965955924138
 30
0.0
 11
199.396376493606
 21
-53.06965955924138
 31
0.0
  0
ARC
  5
6586
330
1E
100
AcDbEntity
  8
30
  6
Continuous
100
AcDbCircle
 10
199.396376493606
 20
-2.069659559241358
 30
0.0
 40
31.0
100
AcDbArc
 50
150.5534441956585
 51
180.0
  0
LINE
  5
6587
330
1E
100
AcDbEntity
  8
10
  6
CONTINOUS
100
AcDbLine
 10
184.396376493606
 20
4.771129747619909
 30
0.0
 11
172.4011226940103
 21
13.17029688083528
 31
0.0
  0
LINE
  5
6588
330
1E
100
AcDbEntity
  8
10
  6
CONTINOUS
100
AcDbLine
 10
184.396376493606
 20
22.93034044075862
 30
0.0
 11
192.3963764936061
 21
22.93034044075862
 31
0.0
  0
LINE
  5
6589
330
1E
100
AcDbEntity
  8
10
  6
CONTINOUS
100
AcDbLine
 10
172.4011226940103
 20
13.17029688083528
 30
0.0
 11
175.842581312117
 21
18.08520914656918
 31
0.0
  0
LINE
  5
658A
330
1E
100
AcDbEntity
  8
10
  6
CONTINOUS
100
AcDbLine
 10
184.396376493606
 20
12.09577728018862
 30
0.0
 11
175.842581312117
 21
18.08520914656918
 31
0.0
  0
LINE
  5
658B
330
1E
100
AcDbEntity
  8
10
  6
CONTINOUS
100
AcDbLine
 10
199.396376493606
 20
80.43034044075865
 30
0.0
 11
199.396376493606
 21
48.93034044075864
 31
0.0
  0
LINE
  5
658C
330
1E
100
AcDbEntity
  8
10
  6
CONTINOUS
100
AcDbLine
 10
192.3963764936061
 20
48.93034044075864
 30
0.0
 11
199.396376493606
 21
48.93034044075864
 31
0.0
  0
LINE
  5
6590
330
1E
100
AcDbEntity
  8
10
  6
CONTINOUS
100
AcDbLine
 10
260.396376493606
 20
80.43034044075865
 30
0.0
 11
260.396376493606
 21
-84.56965955924136
 31
0.0
  0
DIMENSION
  5
6592
330
1E
100
AcDbEntity
  8
30
  6
Continuous
100
AcDbDimension
  2
*D18
 10
268.396376493606
 20
-94.50058166240495
 30
0.0
 11
264.396376493606
 21
-91.50058166240496
 31
0.0
 70
    32
 71
     5
 42
-1.0
  3
STANDARD
100
AcDbAlignedDimension
 13
260.396376493606
 23
-84.56965955924136
 33
0.0
 14
268.396376493606
 24
-67.31965955924138
 34
0.0
 50
180.0
100
AcDbRotatedDimension
1001
ACAD
1000
DSTYLE
1002
{
1070
    79
1070
     3
1002
}
  0
DIMENSION
  5
6593
330
1E
100
AcDbEntity
  8
30
  6
Continuous
100
AcDbDimension
  2
*D19
 10
260.396376493606
 20
-94.50058166240495
 30
0.0
 11
241.894857570237
 21
-94.50058166240495
 31
0.0
 70
   160
 71
     5
 42
-1.0
  3
STANDARD
100
AcDbAlignedDimension
 13
215.3963764936061
 23
-69.31965955924138
 33
0.0
 14
260.396376493606
 24
-84.56965955924136
 34
0.0
 50
180.0
100
AcDbRotatedDimension
1001
ACAD
1000
DSTYLE
1002
{
1070
    79
1070
     3
1002
}
  0
LINE
  5
6595
330
1E
100
AcDbEntity
  8
12
  6
DASHED
100
AcDbLine
 10
215.3963764936061
 20
-67.31965955924138
 30
0.0
 11
260.396376493606
 21
-67.31965955924138
 31
0.0
  0
LINE
  5
6596
330
1E
100
AcDbEntity
  8
12
  6
DASHED
100
AcDbLine
 10
215.3963764936061
 20
-62.81965955924142
 30
0.0
 11
260.396376493606
 21
-62.81965955924142
 31
0.0
  0
LINE
  5
6597
330
1E
100
AcDbEntity
  8
12
  6
DASHED
100
AcDbLine
 10
215.3963764936061
 20
-60.81965955924136
 30
0.0
 11
215.3963764936061
 21
-69.31965955924138
 31
0.0
  0
LINE
  5
6598
330
1E
100
AcDbEntity
  8
12
  6
DASHED
100
AcDbLine
 10
209.3963764936058
 20
-60.81965955924136
 30
0.0
 11
209.3963764936058
 21
-69.31965955924138
 31
0.0
  0
LINE
  5
6599
330
1E
100
AcDbEntity
  8
12
  6
DASHED
100
AcDbLine
 10
215.3963764936061
 20
-67.31965955924138
 30
0.0
 11
215.3963764936061
 21
-69.31965955924138
 31
0.0
  0
LINE
  5
659A
330
1E
100
AcDbEntity
  8
12
  6
DASHED
100
AcDbLine
 10
215.3963764936061
 20
-60.81965955924136
 30
0.0
 11
215.3963764936061
 21
-62.81965955924142
 31
0.0
  0
LINE
  5
659B
330
1E
100
AcDbEntity
  8
12
  6
DASHED
100
AcDbLine
 10
260.396376493606
 20
-62.81965955924142
 30
0.0
 11
268.396376493606
 21
-62.81965955924142
 31
0.0
  0
LINE
  5
659C
330
1E
100
AcDbEntity
  8
12
  6
DASHED
100
AcDbLine
 10
260.396376493606
 20
-67.31965955924138
 30
0.0
 11
268.396376493606
 21
-67.31965955924138
 31
0.0
  0
LINE
  5
659D
330
1E
100
AcDbEntity
  8
12
  6
DASHED
100
AcDbLine
 10
268.396376493606
 20
-62.81965955924142
 30
0.0
 11
268.396376493606
 21
-67.31965955924138
 31
0.0
  0
TEXT
  5
659E
330
1E
100
AcDbEntity
  8
30
  6
Continuous
100
AcDbText
 10
293.8987489607855
 20
-86.47875901847497
 30
0.0
 40
5.0
  1
M4x0.7
 41
0.8216911764705923
100
AcDbText
  0
DIMENSION
  5
65AC
330
1E
100
AcDbEntity
  8
30
  6
Continuous
100
AcDbDimension
  2
*D20
 10
329.3963764936041
 20
23.14353242695716
 30
0.0
 11
316.8963764936041
 21
26.14353242695715
 31
0.0
 70
    32
 71
     5
 42
-1.0
  3
STANDARD
100
AcDbAlignedDimension
 13
304.3963764936041
 23
46.85538869117396
 33
0.0
 14
329.3963764936041
 24
46.85538869117396
 34
0.0
 50
180.0
100
AcDbRotatedDimension
1001
ACAD
1000
DSTYLE
1002
{
1070
    79
1070
     3
1002
}
  0
INSERT
  5
65AD
330
1E
100
AcDbEntity
  8
30
  6
Continuous
100
AcDbBlockReference
  2
*U11
 10
-302.731613937016
 20
-248.7314675682925
 30
0.0
 41
2.5
 42
2.5
 43
2.5
  0
INSERT
  5
65AE
330
1E
100
AcDbEntity
  8
30
  6
Continuous
100
AcDbBlockReference
  2
*U8
 10
-302.731613937016
 20
-248.7314675682925
 30
0.0
 41
2.5
 42
2.5
 43
2.5
  0
INSERT
  5
65AF
330
1E
100
AcDbEntity
  8
30
  6
Continuous
100
AcDbBlockReference
  2
*U7
 10
-302.731613937016
 20
-248.7314675682925
 30
0.0
 41
2.5
 42
2.5
 43
2.5
  0
DIMENSION
  5
65B0
330
1E
100
AcDbEntity
  8
30
  6
Continuous
100
AcDbDimension
  2
*D21
 10
339.7189841538581
 20
56.85538869117396
 30
0.0
 11
336.7189841538581
 21
51.85538869117402
 31
0.0
 70
    32
 71
     5
 42
-1.0
  3
STANDARD
100
AcDbAlignedDimension
 13
329.3963764936041
 23
46.85538869117396
 33
0.0
 14
319.3963765101041
 24
56.85538869117397
 34
0.0
 50
270.0
100
AcDbRotatedDimension
1001
ACAD
1000
DSTYLE
1002
{
1070
    79
1070
     3
1002
}
  0
LINE
  5
65B1
330
1E
100
AcDbEntity
  8
24
  6
Continuous
100
AcDbLine
 10
304.3963764936041
 20
78.85538869117389
 30
0.0
 11
304.3963764936041
 21
46.85538869117396
 31
0.0
  0
LINE
  5
65B2
330
1E
100
AcDbEntity
  8
24
  6
Continuous
100
AcDbLine
 10
329.3963764936041
 20
79.0052921903432
 30
0.0
 11
329.3963764936041
 21
46.85538869117396
 31
0.0
  0
CIRCLE
  5
65B3
330
1E
100
AcDbEntity
  8
24
  6
Continuous
100
AcDbCircle
 10
316.8963764936041
 20
56.85538869117397
 30
0.0
 40
4.5
  0
LINE
  5
65B4
330
1E
100
AcDbEntity
  8
24
  6
Continuous
100
AcDbLine
 10
310.6463764936041
 20
56.85538869117397
 30
0.0
 11
323.1463764936041
 21
56.85538869117397
 31
0.0
  0
LINE
  5
65B5
330
1E
100
AcDbEntity
  8
24
  6
Continuous
100
AcDbLine
 10
304.3963764936041
 20
46.85538869117396
 30
0.0
 11
329.3963764936041
 21
46.85538869117396
 31
0.0
  0
LINE
  5
65B6
330
1E
100
AcDbEntity
  8
24
  6
Continuous
100
AcDbLine
 10
316.8963764936041
 20
63.10538869117397
 30
0.0
 11
316.8963764936041
 21
50.60538869117397
 31
0.0
  0
LINE
  5
65B7
330
1E
100
AcDbEntity
  8
24
  6
Continuous
100
AcDbLine
 10
312.6542541766171
 20
78.85064178519479
 30
0.0
 11
316.5093854867258
 21
77.42964919241387
 31
0.0
  0
ARC
  5
65B8
330
1E
100
AcDbEntity
  8
24
  6
Continuous
100
AcDbCircle
 10
308.5213764936042
 20
72.00087375574639
 30
0.0
 40
8.0
100
AcDbArc
 50
58.9607599896022
 51
121.0392400103977
  0
LINE
  5
65B9
330
1E
100
AcDbEntity
  8
24
  6
Continuous
100
AcDbLine
 10
323.4588582784201
 20
77.01062033544054
 30
0.0
 11
329.3963764936041
 21
79.0052921903432
 31
0.0
  0
ARC
  5
65BA
330
1E
100
AcDbEntity
  8
24
  6
Continuous
100
AcDbCircle
 10
320.3839583145506
 20
83.85130672002174
 30
0.0
 40
7.5
100
AcDbArc
 50
238.8948889125936
 51
294.2039969225378
  0
INSERT
  5
65BB
330
1E
100
AcDbEntity
  8
30
  6
Continuous
100
AcDbBlockReference
  2
*U10
 10
-302.731613937016
 20
-248.7314675682925
 30
0.0
 41
2.5
 42
2.5
 43
2.5
  0
INSERT
  5
65BC
330
1E
100
AcDbEntity
  8
30
  6
Continuous
100
AcDbBlockReference
  2
*U9
 10
-302.731613937016
 20
-248.7314675682925
 30
0.0
 41
2.5
 42
2.5
 43
2.5
  0
TEXT
  5
67AA
330
1E
100
AcDbEntity
  8
TOP
  6
ByBlock
 62
     0
100
AcDbText
 10
371.3280318172496
 20
-98.62309151624522
 30
0.0
 40
7.500000049499999
  1
 
 41
1.189062499999995
  7
UGMTXT
100
AcDbText
  0
LEADER
  5
67AD
330
1E
100
AcDbEntity
  8
30
  6
Continuous
100
AcDbLeader
  3
STANDARD
 73
     0
 40
4.0
 41
2.399999999999999
 76
     3
 10
268.396376493606
 20
-67.31965955924138
 30
0.0
 10
285.1024891192823
 20
-90.55541206498741
 30
0.0
 10
324.5577924942462
 20
-90.55541206498741
 30
0.0
340
67AE
213
-0.5638802661778755
223
16.02352430882751
233
0.0
1001
ACAD
1000
DSTYLE
1002
{
1070
     5
1000
OPEN
1070
    77
1070
     0
1070
    79
1070
     3
1070
   147
1040
1.0
1070
   342
1005
3B2
1002
}
  0
MTEXT
  5
67AE
102
{ACAD_REACTORS
330
67AD
102
}
330
1E
100
AcDbEntity
  8
30
  6
Continuous
100
AcDbMText
 10
326.1216727604241
 20
-106.5789363738149
 30
0.0
 40
4.0
 41
0.0
 71
     1
 72
     1
  1
 
 73
     1
 44
1.0
1001
ACAD
1000
MTEXTBEGIN
1070
    73
1070
     1
1070
    44
1040
1.0
1070
    74
1070
     0
1000
MTEXTEND
1000
MTEXTBEGIN
1070
    73
1070
     1
1070
    44
1040
1.0
1070
    74
1070
     0
1000
MTEXTEND
1000
MTEXTBEGIN
1070
    73
1070
     1
1070
    44
1040
1.0
1070
    74
1070
     0
1000
MTEXTEND
  0
DIMENSION
  5
67C1
330
1E
100
AcDbEntity
  8
30
  6
Continuous
100
AcDbDimension
  2
*D22
 10
188.3963764936061
 20
-126.3388243031583
 30
0.0
 11
194.7297098269394
 21
-123.3388243031583
 31
0.0
 70
    32
 71
     5
 42
-1.0
  3
STANDARD
100
AcDbAlignedDimension
 13
184.396376493606
 23
-27.06965955924136
 33
0.0
 14
188.3963764936061
 24
-27.06965955924136
 34
0.0
100
AcDbRotatedDimension
1001
ACAD
1000
DSTYLE
1002
{
1070
    79
1070
     3
1002
}
  0
DIMENSION
  5
6817
330
1E
100
AcDbEntity
  8
30
  6
Continuous
100
AcDbDimension
  2
*D23
 10
297.6866349733516
 20
-277.5108058991918
 30
0.0
 11
294.6866349733516
 21
-251.5108058991918
 31
0.0
 70
    32
 71
     5
 42
-1.0
  3
STANDARD
100
AcDbAlignedDimension
 13
249.7560000000003
 23
-225.5108058991918
 33
0.0
 14
249.7560000000003
 24
-277.5108058991918
 34
0.0
 50
90.0
100
AcDbRotatedDimension
1001
ACAD
1000
DSTYLE
1002
{
1070
    79
1070
     3
1002
}
  0
MTEXT
  5
682D
330
1E
100
AcDbEntity
  8
30
  6
Continuous
100
AcDbMText
 10
-31.51016339395761
 20
-159.7709521955065
 30
0.0
 40
4.0
 41
0.0
 71
     5
 72
     1
  1
\U+22057
 73
     1
 44
1.0
1001
ACAD
1000
MTEXTBEGIN
1070
    73
1070
     1
1070
    44
1040
1.0
1070
    74
1070
     0
1000
MTEXTEND
1000
MTEXTBEGIN
1070
    73
1070
     1
1070
    44
1040
1.0
1070
    74
1070
     0
1000
MTEXTEND
1000
MTEXTBEGIN
1070
    73
1070
     1
1070
    44
1040
1.0
1070
    74
1070
     0
1000
MTEXTEND
  0
LEADER
  5
682E
330
1E
100
AcDbEntity
  8
30
  6
Continuous
100
AcDbLeader
  3
STANDARD
 40
4.0
 76
     3
 10
-18.33843121215403
 20
-186.6139282670059
 30
0.0
 10
-27.4814590917926
 20
-162.9822998755408
 30
0.0
 10
-36.08161496230553
 20
-162.8595019382113
 30
0.0
213
0.0
223
2.0
233
0.0
1001
ACAD
1000
DSTYLE
1002
{
1070
     5
1000
OPEN
1070
    77
1070
     0
1070
    79
1070
     3
1070
   147
1040
1.0
1070
   342
1005
3B2
1002
}
  0
LINE
  5
68C2
330
1E
100
AcDbEntity
  8
18
100
AcDbLine
 10
52.13609453517128
 20
183.652317845163
 30
0.0
 11
52.13609453517128
 21
83.65231784516295
 31
0.0
  0
LINE
  5
68C3
330
1E
100
AcDbEntity
  8
18
100
AcDbLine
 10
55.13609453517131
 20
183.652317845163
 30
0.0
 11
55.13609453517131
 21
83.65231784516295
 31
0.0
  0
LINE
  5
68C4
330
1E
100
AcDbEntity
  8
18
100
AcDbLine
 10
52.13609453517128
 20
183.652317845163
 30
0.0
 11
55.13609453517131
 21
183.652317845163
 31
0.0
  0
LINE
  5
68C7
330
1E
100
AcDbEntity
  8
24
  6
CONTINOUS
100
AcDbLine
 10
64.13609453517125
 20
73.15231784516308
 30
0.0
 11
78.1360945351713
 21
73.15231784516308
 31
0.0
  0
CIRCLE
  5
68C8
330
1E
100
AcDbEntity
  8
24
  6
CONTINOUS
100
AcDbCircle
 10
71.13609453517131
 20
73.15231784516308
 30
0.0
 40
5.0
  0
LINE
  5
68CA
330
1E
100
AcDbEntity
  8
24
  6
CONTINOUS
100
AcDbLine
 10
71.13609453517131
 20
80.15231784516306
 30
0.0
 11
71.13609453517131
 21
66.15231784516308
 31
0.0
  0
DIMENSION
  5
68F3
330
1E
100
AcDbEntity
  8
30
  6
Continuous
100
AcDbDimension
  2
*D24
 10
109.3308767933671
 20
-314.5108058991918
 30
0.0
 11
106.3308767933671
 21
-251.5108058991918
 31
0.0
 70
    32
 71
     5
 42
-1.0
  3
STANDARD
100
AcDbAlignedDimension
 13
23.75599999999996
 23
-188.5108058991915
 33
0.0
 14
23.75600000000007
 24
-314.5108058991918
 34
0.0
 50
90.0
100
AcDbRotatedDimension
1001
ACAD
1000
DSTYLE
1002
{
1070
    79
1070
     3
1002
}
  0
DIMENSION
  5
6909
330
1E
100
AcDbEntity
  8
30
  6
Continuous
100
AcDbDimension
  2
*D25
 10
36.13609453517131
 20
-119.677069909307
 30
0.0
 11
18.6360945351713
 21
-116.677069909307
 31
0.0
 70
    32
 71
     5
 42
-1.0
  3
STANDARD
100
AcDbAlignedDimension
 13
1.136094535171279
 23
-105.8476821548369
 33
0.0
 14
36.13609453517131
 24
-105.8476821548369
 34
0.0
100
AcDbRotatedDimension
1001
ACAD
1000
DSTYLE
1002
{
1070
    79
1070
     3
1002
}
  0
DIMENSION
  5
6916
330
1E
100
AcDbEntity
  8
30
  6
Continuous
100
AcDbDimension
  2
*D26
 10
71.13609453517131
 20
-119.677069909307
 30
0.0
 11
53.63609453517131
 21
-116.677069909307
 31
0.0
 70
    32
 71
     5
 42
-1.0
  3
STANDARD
100
AcDbAlignedDimension
 13
36.13609453517131
 23
-105.8476821548369
 33
0.0
 14
71.13609453517131
 24
-105.8476821548367
 34
0.0
100
AcDbRotatedDimension
1001
ACAD
1000
DSTYLE
1002
{
1070
    79
1070
     3
1002
}
  0
DIMENSION
  5
694B
330
1E
100
AcDbEntity
  8
30
  6
Continuous
100
AcDbDimension
  2
*D30
 10
250.7560000000003
 20
-363.6533134887597
 30
0.0
 11
200.7560000000002
 21
-360.6533134887596
 31
0.0
 70
    32
 71
     5
 42
-1.0
  3
STANDARD
100
AcDbAlignedDimension
 13
150.7559999999999
 23
-276.5108058991919
 33
0.0
 14
250.7560000000003
 24
-276.5108058991919
 34
0.0
100
AcDbRotatedDimension
1001
ACAD
1000
DSTYLE
1002
{
1070
    79
1070
     3
1002
}
  0
DIMENSION
  5
6967
330
1E
100
AcDbEntity
  8
30
  6
Continuous
100
AcDbDimension
  2
*D31
 10
-71.29340837720701
 20
83.65231784516309
 30
0.0
 11
-74.29340837720701
 21
133.652317845163
 31
0.0
 70
    32
 71
     5
 42
-1.0
  3
STANDARD
100
AcDbAlignedDimension
 13
-17.86390546482872
 23
183.652317845163
 33
0.0
 14
-51.36390546482873
 24
83.65231784516309
 34
0.0
 50
90.0
100
AcDbRotatedDimension
1001
ACAD
1000
DSTYLE
1002
{
1070
    79
1070
     3
1002
}
  0
DIMENSION
  5
6974
330
1E
100
AcDbEntity
  8
30
  6
Continuous
100
AcDbDimension
  2
*D32
 10
-71.29340837720704
 20
-81.34768215483692
 30
0.0
 11
-74.29340837720703
 21
1.15231784516308
 31
0.0
 70
    32
 71
     5
 42
-1.0
  3
STANDARD
100
AcDbAlignedDimension
 13
-71.29340837720701
 23
83.65231784516309
 33
0.0
 14
-51.36390546482873
 24
-81.34768215483692
 34
0.0
 50
90.0
100
AcDbRotatedDimension
1001
ACAD
1000
DSTYLE
1002
{
1070
    79
1070
     3
1002
}
  0
ARC
  5
6A3B
330
1E
100
AcDbEntity
  8
10
  6
CONTINOUS
100
AcDbCircle
 10
-26.86390546482857
 20
66.15231784516286
 30
0.0
 40
4.999999999999801
100
AcDbArc
 50
270.0
 51
334.1580672368348
  0
LINE
  5
6A3C
330
1E
100
AcDbEntity
  8
10
  6
CONTINOUS
100
AcDbLine
 10
-45.36390546482864
 20
114.1523178451631
 30
0.0
 11
-22.36390546482863
 21
114.1523178451631
 31
0.0
  0
LINE
  5
6A3D
330
1E
100
AcDbEntity
  8
10
  6
CONTINOUS
100
AcDbLine
 10
-45.36390546482864
 20
114.1523178451631
 30
0.0
 11
-45.36390546482864
 21
63.97286837339274
 31
0.0
  0
ARC
  5
6A3E
330
1E
100
AcDbEntity
  8
10
  6
CONTINOUS
100
AcDbCircle
 10
-40.86390546482884
 20
66.15231784516274
 30
0.0
 40
4.999999999999686
100
AcDbArc
 50
205.841932763165
 51
270.0000000000016
  0
LINE
  5
6A3F
330
1E
100
AcDbEntity
  8
10
  6
CONTINOUS
100
AcDbLine
 10
-26.86390546482861
 20
61.15231784516304
 30
0.0
 11
-40.8639054648287
 21
61.15231784516304
 31
0.0
  0
LINE
  5
6A41
330
1E
100
AcDbEntity
  8
24
  6
CONTINOUS
100
AcDbLine
 10
-33.86390546482871
 20
110.1523178451629
 30
0.0
 11
-33.86390546482871
 21
95.15231784516306
 31
0.0
  0
LINE
  5
6A42
330
1E
100
AcDbEntity
  8
24
  6
CONTINOUS
100
AcDbLine
 10
-41.3639054648287
 20
102.6523178451629
 30
0.0
 11
-26.36390546482871
 21
102.6523178451629
 31
0.0
  0
CIRCLE
  5
6A43
330
1E
100
AcDbEntity
  8
24
  6
CONTINOUS
100
AcDbCircle
 10
-33.86390546482871
 20
102.6523178451629
 30
0.0
 40
5.5
  0
LINE
  5
6A44
330
1E
100
AcDbEntity
  8
10
  6
CONTINOUS
100
AcDbLine
 10
82.63609453517139
 20
114.1523178451631
 30
0.0
 11
82.63609453517139
 21
63.97286837339274
 31
0.0
  0
LINE
  5
6A45
330
1E
100
AcDbEntity
  8
10
  6
CONTINOUS
100
AcDbLine
 10
59.6360945351714
 20
114.1523178451631
 30
0.0
 11
59.6360945351714
 21
63.97286837339274
 31
0.0
  0
LINE
  5
6A46
330
1E
100
AcDbEntity
  8
10
  6
CONTINOUS
100
AcDbLine
 10
47.63609453517132
 20
114.1523178451631
 30
0.0
 11
47.63609453517132
 21
63.97286837339274
 31
0.0
  0
LINE
  5
6A47
330
1E
100
AcDbEntity
  8
10
  6
CONTINOUS
100
AcDbLine
 10
24.63609453517137
 20
114.1523178451631
 30
0.0
 11
24.63609453517137
 21
63.97286837339274
 31
0.0
  0
LINE
  5
6A48
330
1E
100
AcDbEntity
  8
10
  6
CONTINOUS
100
AcDbLine
 10
12.63609453517134
 20
114.1523178451631
 30
0.0
 11
12.63609453517134
 21
63.97286837339274
 31
0.0
  0
LINE
  5
6A49
330
1E
100
AcDbEntity
  8
10
  6
CONTINOUS
100
AcDbLine
 10
-10.36390546482859
 20
114.1523178451631
 30
0.0
 11
-10.36390546482859
 21
63.97286837339274
 31
0.0
  0
LINE
  5
6A4A
330
1E
100
AcDbEntity
  8
10
  6
CONTINOUS
100
AcDbLine
 10
-22.36390546482863
 20
114.1523178451631
 30
0.0
 11
-22.36390546482863
 21
63.97286837339274
 31
0.0
  0
ARC
  5
6A4B
330
1E
100
AcDbEntity
  8
10
  6
CONTINOUS
100
AcDbCircle
 10
-64.13609453517122
 20
66.15231784516282
 30
0.0
 40
4.999999999999771
210
0.0
220
0.0
230
-1.0
100
AcDbArc
 50
269.999999999998
 51
334.1580672368348
  0
LINE
  5
6A4C
330
1E
100
AcDbEntity
  8
10
  6
CONTINOUS
100
AcDbLine
 10
8.136094535171316
 20
61.15231784516304
 30
0.0
 11
-5.863905464828737
 21
61.15231784516304
 31
0.0
  0
ARC
  5
6A4D
330
1E
100
AcDbEntity
  8
10
  6
CONTINOUS
100
AcDbCircle
 10
-5.532499434900976
 20
66.68105403327527
 30
0.0
 40
5.538659927673356
100
AcDbArc
 50
209.2722779564502
 51
266.5696548067144
  0
ARC
  5
6A4E
330
1E
100
AcDbEntity
  8
10
  6
CONTINOUS
100
AcDbCircle
 10
8.136094535171402
 20
66.15231784516296
 30
0.0
 40
4.999999999999912
100
AcDbArc
 50
269.999999999998
 51
334.1580672368348
  0
LINE
  5
6A4F
330
1E
100
AcDbEntity
  8
10
  6
CONTINOUS
100
AcDbLine
 10
43.13609453517134
 20
61.15231784516304
 30
0.0
 11
29.13609453517137
 21
61.15231784516304
 31
0.0
  0
ARC
  5
6A50
330
1E
100
AcDbEntity
  8
10
  6
CONTINOUS
100
AcDbCircle
 10
29.13609453517128
 20
66.15231784516303
 30
0.0
 40
4.999999999999912
100
AcDbArc
 50
205.8419327631665
 51
270.0000000000016
  0
ARC
  5
6A51
330
1E
100
AcDbEntity
  8
10
  6
CONTINOUS
100
AcDbCircle
 10
43.13609453517137
 20
66.15231784516282
 30
0.0
 40
4.999999999999771
100
AcDbArc
 50
270.0
 51
334.1580672368348
  0
ARC
  5
6A52
330
1E
100
AcDbEntity
  8
10
  6
CONTINOUS
100
AcDbCircle
 10
-78.13609453517139
 20
66.152317845163
 30
0.0
 40
4.999999999999938
210
0.0
220
0.0
230
-1.0
100
AcDbArc
 50
205.8419327631665
 51
270.0
  0
LINE
  5
6A53
330
1E
100
AcDbEntity
  8
10
  6
CONTINOUS
100
AcDbLine
 10
64.13609453517135
 20
61.15231784516304
 30
0.0
 11
78.13609453517138
 21
61.15231784516304
 31
0.0
  0
LINE
  5
6A55
330
1E
100
AcDbEntity
  8
24
  6
CONTINOUS
100
AcDbLine
 10
-6.363905464828683
 20
102.6523178451629
 30
0.0
 11
8.636094535171316
 21
102.6523178451629
 31
0.0
  0
CIRCLE
  5
6A56
330
1E
100
AcDbEntity
  8
24
  6
CONTINOUS
100
AcDbCircle
 10
1.136094535171314
 20
102.6523178451629
 30
0.0
 40
5.5
  0
LINE
  5
6A57
330
1E
100
AcDbEntity
  8
10
  6
CONTINOUS
100
AcDbLine
 10
-10.36390546482859
 20
114.1523178451631
 30
0.0
 11
12.63609453517134
 21
114.1523178451631
 31
0.0
  0
LINE
  5
6A58
330
1E
100
AcDbEntity
  8
24
  6
CONTINOUS
100
AcDbLine
 10
36.13609453517131
 20
110.1523178451629
 30
0.0
 11
36.13609453517131
 21
95.15231784516306
 31
0.0
  0
LINE
  5
6A59
330
1E
100
AcDbEntity
  8
24
  6
CONTINOUS
100
AcDbLine
 10
28.63609453517131
 20
102.6523178451629
 30
0.0
 11
43.63609453517129
 21
102.6523178451629
 31
0.0
  0
CIRCLE
  5
6A5A
330
1E
100
AcDbEntity
  8
24
  6
CONTINOUS
100
AcDbCircle
 10
36.13609453517131
 20
102.6523178451629
 30
0.0
 40
5.5
  0
LINE
  5
6A5B
330
1E
100
AcDbEntity
  8
10
  6
CONTINOUS
100
AcDbLine
 10
24.63609453517137
 20
114.1523178451631
 30
0.0
 11
47.63609453517132
 21
114.1523178451631
 31
0.0
  0
LINE
  5
6A5C
330
1E
100
AcDbEntity
  8
24
  6
CONTINOUS
100
AcDbLine
 10
71.13609453517131
 20
110.1523178451629
 30
0.0
 11
71.13609453517131
 21
95.15231784516306
 31
0.0
  0
LINE
  5
6A5D
330
1E
100
AcDbEntity
  8
24
  6
CONTINOUS
100
AcDbLine
 10
63.63609453517131
 20
102.6523178451629
 30
0.0
 11
78.63609453517131
 21
102.6523178451629
 31
0.0
  0
CIRCLE
  5
6A5E
330
1E
100
AcDbEntity
  8
24
  6
CONTINOUS
100
AcDbCircle
 10
71.13609453517131
 20
102.6523178451629
 30
0.0
 40
5.5
  0
LINE
  5
6A5F
330
1E
100
AcDbEntity
  8
10
  6
CONTINOUS
100
AcDbLine
 10
59.6360945351714
 20
114.1523178451631
 30
0.0
 11
82.63609453517139
 21
114.1523178451631
 31
0.0
  0
DIMENSION
  5
6A8B
330
1E
100
AcDbEntity
  8
30
  6
Continuous
100
AcDbDimension
  2
*D33
 10
260.396376493606
 20
136.1272119888343
 30
0.0
 11
246.3963764936059
 21
138.6272119888344
 31
0.0
 70
    32
 71
     5
 42
-1.0
  3
STANDARD
100
AcDbAlignedDimension
 13
232.3963764936059
 23
110.8678404407587
 33
0.0
 14
260.396376493606
 24
80.36784044075865
 34
0.0
100
AcDbRotatedDimension
1001
ACAD
1000
DSTYLE
1002
{
1070
   140
1040
3.0
1070
    79
1070
     3
1002
}
  0
LINE
  5
6A8C
330
1E
100
AcDbEntity
  8
10
  6
CONTINOUS
100
AcDbLine
 10
232.3963764936059
 20
110.8678404407585
 30
0.0
 11
232.3963764936059
 21
80.36784044075863
 31
0.0
  0
LINE
  5
6A8D
330
1E
100
AcDbEntity
  8
10
  6
CONTINOUS
100
AcDbLine
 10
236.3963764936058
 20
110.8678404407585
 30
0.0
 11
236.3963764936058
 21
80.36784044075863
 31
0.0
  0
LINE
  5
6A8E
330
1E
100
AcDbEntity
  8
10
  6
CONTINOUS
100
AcDbLine
 10
232.3963764936059
 20
110.8678404407585
 30
0.0
 11
236.3963764936058
 21
110.8678404407585
 31
0.0
  0
DIMENSION
  5
6A8F
330
1E
100
AcDbEntity
  8
30
  6
Continuous
100
AcDbDimension
  2
*D34
 10
236.3963764936058
 20
120.2291222102708
 30
0.0
 11
242.7297098269393
 21
123.2291222102708
 31
0.0
 70
    32
 71
     5
 42
-1.0
  3
STANDARD
100
AcDbAlignedDimension
 13
232.3963764936059
 23
110.8678404407587
 33
0.0
 14
236.3963764936058
 24
110.8678404407587
 34
0.0
100
AcDbRotatedDimension
1001
ACAD
1000
DSTYLE
1002
{
1070
    79
1070
     3
1002
}
  0
LINE
  5
6AEC
330
1E
100
AcDbEntity
  8
10
  6
CONTINOUS
100
AcDbLine
 10
-45.36390546482864
 20
-111.8476821548369
 30
0.0
 11
-45.36390546482864
 21
-61.6682326830666
 31
0.0
  0
LINE
  5
6AED
330
1E
100
AcDbEntity
  8
10
  6
CONTINOUS
100
AcDbLine
 10
-22.36390546482863
 20
-111.8476821548369
 30
0.0
 11
-22.36390546482863
 21
-61.66823268306657
 31
0.0
  0
ARC
  5
6AEE
330
1E
100
AcDbEntity
  8
10
  6
CONTINOUS
100
AcDbCircle
 10
-40.86390546482883
 20
-63.84768215483656
 30
0.0
 40
4.999999999999686
100
AcDbArc
 50
89.9999999999984
 51
154.1580672368349
  0
ARC
  5
6AEF
330
1E
100
AcDbEntity
  8
10
  6
CONTINOUS
100
AcDbCircle
 10
-26.86390546482856
 20
-63.84768215483671
 30
0.0
 40
4.999999999999801
100
AcDbArc
 50
25.84193276316508
 51
90.00000000000005
  0
LINE
  5
6AF0
330
1E
100
AcDbEntity
  8
10
  6
CONTINOUS
100
AcDbLine
 10
-26.86390546482861
 20
-58.84768215483689
 30
0.0
 11
-40.86390546482869
 21
-58.8476821548369
 31
0.0
  0
LINE
  5
6AF1
330
1E
100
AcDbEntity
  8
24
  6
CONTINOUS
100
AcDbLine
 10
-40.86390546482872
 20
-70.84768215483695
 30
0.0
 11
-26.86390546482869
 21
-70.84768215483695
 31
0.0
  0
CIRCLE
  5
6AF2
330
1E
100
AcDbEntity
  8
24
  6
CONTINOUS
100
AcDbCircle
 10
-33.8639054648287
 20
-70.84768215483695
 30
0.0
 40
5.0
  0
LINE
  5
6AF3
330
1E
100
AcDbEntity
  8
24
  6
CONTINOUS
100
AcDbLine
 10
-33.8639054648287
 20
-77.84768215483691
 30
0.0
 11
-33.8639054648287
 21
-63.84768215483692
 31
0.0
  0
CIRCLE
  5
6AF4
330
1E
100
AcDbEntity
  8
24
  6
CONTINOUS
100
AcDbCircle
 10
-33.8639054648287
 20
-100.3476821548369
 30
0.0
 40
5.5
  0
LINE
  5
6AF5
330
1E
100
AcDbEntity
  8
24
  6
CONTINOUS
100
AcDbLine
 10
-41.36390546482868
 20
-100.3476821548369
 30
0.0
 11
-26.3639054648287
 21
-100.3476821548369
 31
0.0
  0
LINE
  5
6AF6
330
1E
100
AcDbEntity
  8
10
  6
CONTINOUS
100
AcDbLine
 10
-45.36390546482864
 20
-111.8476821548369
 30
0.0
 11
-22.36390546482863
 21
-111.8476821548369
 31
0.0
  0
LINE
  5
6AF7
330
1E
100
AcDbEntity
  8
24
  6
CONTINOUS
100
AcDbLine
 10
-33.8639054648287
 20
-107.8476821548369
 30
0.0
 11
-33.8639054648287
 21
-92.84768215483692
 31
0.0
  0
CIRCLE
  5
6AF8
330
1E
100
AcDbEntity
  8
24
  6
CONTINOUS
100
AcDbCircle
 10
1.136094535171327
 20
-100.3476821548369
 30
0.0
 40
5.5
  0
LINE
  5
6AF9
330
1E
100
AcDbEntity
  8
24
  6
CONTINOUS
100
AcDbLine
 10
-6.363905464828672
 20
-100.3476821548369
 30
0.0
 11
8.636094535171327
 21
-100.3476821548369
 31
0.0
  0
LINE
  5
6AFA
330
1E
100
AcDbEntity
  8
10
  6
CONTINOUS
100
AcDbLine
 10
-10.36390546482859
 20
-111.8476821548369
 30
0.0
 11
12.63609453517138
 21
-111.8476821548369
 31
0.0
  0
CIRCLE
  5
6AFB
330
1E
100
AcDbEntity
  8
24
  6
CONTINOUS
100
AcDbCircle
 10
36.13609453517131
 20
-100.3476821548369
 30
0.0
 40
5.5
  0
LINE
  5
6AFC
330
1E
100
AcDbEntity
  8
24
  6
CONTINOUS
100
AcDbLine
 10
28.63609453517133
 20
-100.3476821548369
 30
0.0
 11
43.6360945351713
 21
-100.3476821548369
 31
0.0
  0
LINE
  5
6AFD
330
1E
100
AcDbEntity
  8
10
  6
CONTINOUS
100
AcDbLine
 10
24.63609453517138
 20
-111.8476821548369
 30
0.0
 11
47.63609453517132
 21
-111.8476821548369
 31
0.0
  0
LINE
  5
6AFE
330
1E
100
AcDbEntity
  8
24
  6
CONTINOUS
100
AcDbLine
 10
36.13609453517131
 20
-107.8476821548369
 30
0.0
 11
36.13609453517131
 21
-92.84768215483692
 31
0.0
  0
CIRCLE
  5
6AFF
330
1E
100
AcDbEntity
  8
24
  6
CONTINOUS
100
AcDbCircle
 10
71.13609453517131
 20
-100.3476821548367
 30
0.0
 40
5.5
  0
LINE
  5
6B00
330
1E
100
AcDbEntity
  8
24
  6
CONTINOUS
100
AcDbLine
 10
63.63609453517131
 20
-100.3476821548369
 30
0.0
 11
78.63609453517131
 21
-100.3476821548367
 31
0.0
  0
LINE
  5
6B01
330
1E
100
AcDbEntity
  8
10
  6
CONTINOUS
100
AcDbLine
 10
59.63609453517142
 20
-111.8476821548369
 30
0.0
 11
82.63609453517139
 21
-111.8476821548369
 31
0.0
  0
LINE
  5
6B02
330
1E
100
AcDbEntity
  8
24
  6
CONTINOUS
100
AcDbLine
 10
71.13609453517131
 20
-107.8476821548367
 30
0.0
 11
71.13609453517131
 21
-92.84768215483689
 31
0.0
  0
LINE
  5
6B03
330
1E
100
AcDbEntity
  8
10
  6
CONTINOUS
100
AcDbLine
 10
12.63609453517138
 20
-111.8476821548369
 30
0.0
 11
12.63609453517138
 21
-61.66823268306657
 31
0.0
  0
ARC
  5
6B04
330
1E
100
AcDbEntity
  8
10
  6
CONTINOUS
100
AcDbCircle
 10
8.136094535171409
 20
-63.84768215483681
 30
0.0
 40
4.999999999999912
100
AcDbArc
 50
25.84193276316508
 51
90.00000000000161
  0
LINE
  5
6B05
330
1E
100
AcDbEntity
  8
10
  6
CONTINOUS
100
AcDbLine
 10
8.136094535171324
 20
-58.84768215483689
 30
0.0
 11
-5.863905464828731
 21
-58.84768215483689
 31
0.0
  0
LINE
  5
6B06
330
1E
100
AcDbEntity
  8
24
  6
CONTINOUS
100
AcDbLine
 10
-5.863905464828709
 20
-70.84768215483695
 30
0.0
 11
8.136094535171302
 21
-70.84768215483695
 31
0.0
  0
CIRCLE
  5
6B07
330
1E
100
AcDbEntity
  8
24
  6
CONTINOUS
100
AcDbCircle
 10
1.136094535171288
 20
-70.84768215483695
 30
0.0
 40
5.0
  0
LINE
  5
6B08
330
1E
100
AcDbEntity
  8
10
  6
CONTINOUS
100
AcDbLine
 10
47.63609453517132
 20
-111.8476821548369
 30
0.0
 11
47.63609453517132
 21
-61.66823268306657
 31
0.0
  0
LINE
  5
6B09
330
1E
100
AcDbEntity
  8
10
  6
CONTINOUS
100
AcDbLine
 10
24.63609453517138
 20
-111.8476821548369
 30
0.0
 11
24.63609453517138
 21
-61.66823268306657
 31
0.0
  0
LINE
  5
6B0A
330
1E
100
AcDbEntity
  8
10
  6
CONTINOUS
100
AcDbLine
 10
59.63609453517142
 20
-111.8476821548369
 30
0.0
 11
59.6360945351714
 21
-61.66823268306657
 31
0.0
  0
LINE
  5
6B0B
330
1E
100
AcDbEntity
  8
10
  6
CONTINOUS
100
AcDbLine
 10
82.63609453517139
 20
-111.8476821548369
 30
0.0
 11
82.63609453517139
 21
-61.66823268306657
 31
0.0
  0
ARC
  5
6B0C
330
1E
100
AcDbEntity
  8
10
  6
CONTINOUS
100
AcDbCircle
 10
43.13609453517138
 20
-63.84768215483667
 30
0.0
 40
4.999999999999771
100
AcDbArc
 50
25.84193276316508
 51
90.00000000000005
  0
ARC
  5
6B0D
330
1E
100
AcDbEntity
  8
10
  6
CONTINOUS
100
AcDbCircle
 10
29.13609453517128
 20
-63.84768215483687
 30
0.0
 40
4.999999999999912
100
AcDbArc
 50
89.9999999999984
 51
154.1580672368333
  0
LINE
  5
6B0E
330
1E
100
AcDbEntity
  8
10
  6
CONTINOUS
100
AcDbLine
 10
43.13609453517136
 20
-58.84768215483688
 30
0.0
 11
29.13609453517138
 21
-58.84768215483689
 31
0.0
  0
LINE
  5
6B0F
330
1E
100
AcDbEntity
  8
24
  6
CONTINOUS
100
AcDbLine
 10
29.13609453517126
 20
-70.84768215483695
 30
0.0
 11
43.1360945351713
 21
-70.84768215483695
 31
0.0
  0
CIRCLE
  5
6B10
330
1E
100
AcDbEntity
  8
24
  6
CONTINOUS
100
AcDbCircle
 10
36.13609453517131
 20
-70.84768215483695
 30
0.0
 40
5.0
  0
LINE
  5
6B11
330
1E
100
AcDbEntity
  8
24
  6
CONTINOUS
100
AcDbLine
 10
36.13609453517131
 20
-77.84768215483691
 30
0.0
 11
36.13609453517131
 21
-63.84768215483692
 31
0.0
  0
ARC
  5
6B12
330
1E
100
AcDbEntity
  8
10
  6
CONTINOUS
100
AcDbCircle
 10
-64.13609453517122
 20
-63.84768215483667
 30
0.0
 40
4.999999999999771
210
0.0
220
0.0
230
-1.0
100
AcDbArc
 50
25.84193276316506
 51
90.00000000000161
  0
ARC
  5
6B13
330
1E
100
AcDbEntity
  8
10
  6
CONTINOUS
100
AcDbCircle
 10
-78.13609453517139
 20
-63.84768215483681
 30
0.0
 40
4.999999999999938
210
0.0
220
0.0
230
-1.0
100
AcDbArc
 50
90.0
 51
154.1580672368333
  0
LINE
  5
6B14
330
1E
100
AcDbEntity
  8
10
  6
CONTINOUS
100
AcDbLine
 10
64.13609453517135
 20
-58.84768215483688
 30
0.0
 11
78.13609453517138
 21
-58.84768215483688
 31
0.0
  0
CIRCLE
  5
6B15
330
1E
100
AcDbEntity
  8
24
  6
CONTINOUS
100
AcDbCircle
 10
71.13609453517131
 20
-70.8476821548369
 30
0.0
 40
5.0
  0
LINE
  5
6B16
330
1E
100
AcDbEntity
  8
24
  6
CONTINOUS
100
AcDbLine
 10
64.13609453517127
 20
-70.84768215483695
 30
0.0
 11
78.1360945351713
 21
-70.8476821548369
 31
0.0
  0
LINE
  5
6B17
330
1E
100
AcDbEntity
  8
24
  6
CONTINOUS
100
AcDbLine
 10
71.13609453517131
 20
-77.84768215483689
 30
0.0
 11
71.13609453517131
 21
-63.8476821548369
 31
0.0
  0
LINE
  5
6B18
330
1E
100
AcDbEntity
  8
10
  6
CONTINOUS
100
AcDbLine
 10
-10.36390546482859
 20
-111.8476821548369
 30
0.0
 11
-10.36390546482859
 21
-61.66823268306657
 31
0.0
  0
ARC
  5
6B19
330
1E
100
AcDbEntity
  8
10
  6
CONTINOUS
100
AcDbCircle
 10
-5.863905464828697
 20
-63.84768215483687
 30
0.0
 40
4.999999999999912
100
AcDbArc
 50
89.9999999999984
 51
154.1580672368333
  0
LINE
  5
6BAD
330
1E
100
AcDbEntity
  8
10
  6
CONTINOUS
100
AcDbLine
 10
-45.36390546482864
 20
83.65231784516309
 30
0.0
 11
-51.36390546482873
 21
83.65231784516309
 31
0.0
  0
LINE
  5
6BAE
330
1E
100
AcDbEntity
  8
10
  6
CONTINOUS
100
AcDbLine
 10
-10.36390546482859
 20
83.65231784516309
 30
0.0
 11
-22.36390546482863
 21
83.65231784516309
 31
0.0
  0
LINE
  5
6BAF
330
1E
100
AcDbEntity
  8
10
  6
CONTINOUS
100
AcDbLine
 10
24.63609453517137
 20
83.65231784516309
 30
0.0
 11
12.63609453517138
 21
83.65231784516309
 31
0.0
  0
LINE
  5
6BB0
330
1E
100
AcDbEntity
  8
10
  6
CONTINOUS
100
AcDbLine
 10
59.6360945351714
 20
83.65231784516311
 30
0.0
 11
47.63609453517132
 21
83.65231784516309
 31
0.0
  0
LINE
  5
6BB1
330
1E
100
AcDbEntity
  8
10
  6
CONTINOUS
100
AcDbLine
 10
-22.36390546482863
 20
-81.34768215483692
 30
0.0
 11
-10.36390546482859
 21
-81.34768215483692
 31
0.0
  0
LINE
  5
6BB2
330
1E
100
AcDbEntity
  8
10
  6
CONTINOUS
100
AcDbLine
 10
12.63609453517138
 20
-81.34768215483692
 30
0.0
 11
24.63609453517138
 21
-81.34768215483692
 31
0.0
  0
LINE
  5
6BB3
330
1E
100
AcDbEntity
  8
10
  6
CONTINOUS
100
AcDbLine
 10
47.63609453517132
 20
-81.34768215483692
 30
0.0
 11
59.63609453517142
 21
-81.34768215483692
 31
0.0
  0
LINE
  5
6BB4
330
1E
100
AcDbEntity
  8
10
  6
CONTINOUS
100
AcDbLine
 10
82.63609453517139
 20
-81.34768215483692
 30
0.0
 11
88.63609453517133
 21
-81.34768215483692
 31
0.0
  0
LINE
  5
6CA9
330
1E
100
AcDbEntity
  8
10
  6
CONTINOUS
100
AcDbLine
 10
236.3963764936058
 20
-115.0071595592414
 30
0.0
 11
236.3963764936058
 21
-84.50715955924135
 31
0.0
  0
LINE
  5
6CAA
330
1E
100
AcDbEntity
  8
10
  6
CONTINOUS
100
AcDbLine
 10
232.3963764936059
 20
-115.0071595592414
 30
0.0
 11
232.3963764936059
 21
-84.50715955924135
 31
0.0
  0
LINE
  5
6CAB
330
1E
100
AcDbEntity
  8
10
  6
CONTINOUS
100
AcDbLine
 10
232.3963764936059
 20
-115.0071595592414
 30
0.0
 11
236.3963764936058
 21
-115.0071595592414
 31
0.0
  0
LEADER
  5
6CBF
330
1E
100
AcDbEntity
  8
30
  6
Continuous
100
AcDbLeader
  3
STANDARD
 76
     3
 10
73.99280393554409
 20
106.0977645213467
 30
0.0
 10
77.80582788017636
 20
126.8722298226172
 30
0.0
 10
103.1104364220545
 20
126.8722298226172
 30
0.0
1001
ACAD
1000
DSTYLE
1002
{
1070
     5
1000
OPEN
1070
    77
1070
     0
1070
    79
1070
     3
1070
   147
1040
1.0
1070
   342
1005
3B2
1002
}
  0
TEXT
  5
6CC0
330
1E
100
AcDbEntity
  8
30
  6
Continuous
100
AcDbText
 10
85.43187576944182
 20
128.9496755164915
 30
0.0
 40
4.0
  1
φ11
  7
STANDARD1
100
AcDbText
  0
LINE
  5
6CFC
330
1E
100
AcDbEntity
  8
24
  6
CONTINOUS
100
AcDbLine
 10
25.6360945351713
 20
277.568193504375
 30
0.0
 11
46.63609453517143
 21
277.568193504375
 31
0.0
  0
LINE
  5
6CFD
330
1E
100
AcDbEntity
  8
24
  6
CONTINOUS
100
AcDbLine
 10
25.6360945351713
 20
275.568193504375
 30
0.0
 11
46.63609453517143
 21
275.568193504375
 31
0.0
  0
LWPOLYLINE
  5
6CFE
330
1E
100
AcDbEntity
  8
24
  6
CONTINOUS
100
AcDbPolyline
 90
        4
 70
     1
 43
0.0
 10
-41.86390546482871
 20
272.3681935043749
 10
-25.86390546482872
 20
272.3681935043749
 10
-25.86390546482872
 20
275.568193504375
 10
-41.86390546482871
 20
275.568193504375
  0
LINE
  5
6CFF
330
1E
100
AcDbEntity
  8
24
  6
CONTINOUS
100
AcDbLine
 10
-44.36390546482874
 20
277.568193504375
 30
0.0
 11
-23.36390546482861
 21
277.568193504375
 31
0.0
  0
LINE
  5
6D00
330
1E
100
AcDbEntity
  8
24
  6
CONTINOUS
100
AcDbLine
 10
-41.56390546482866
 20
270.3681935043749
 30
0.0
 11
-26.16390546482868
 21
270.3681935043749
 31
0.0
  0
LINE
  5
6D01
330
1E
100
AcDbEntity
  8
24
  6
CONTINOUS
100
AcDbLine
 10
-44.36390546482874
 20
275.568193504375
 30
0.0
 11
-23.36390546482861
 21
275.568193504375
 31
0.0
  0
LINE
  5
6D02
330
1E
100
AcDbEntity
  8
24
  6
CONTINOUS
100
AcDbLine
 10
-38.86390546482875
 20
265.1681935043749
 30
0.0
 11
-28.86390546482873
 21
265.1681935043749
 31
0.0
  0
LINE
  5
6D03
330
1E
100
AcDbEntity
  8
24
  6
CONTINOUS
100
AcDbLine
 10
-41.56390546482866
 20
270.3681935043749
 30
0.0
 11
-41.56390546482866
 21
272.3681935043749
 31
0.0
  0
ARC
  5
6D04
330
1E
100
AcDbEntity
  8
24
  6
CONTINOUS
100
AcDbCircle
 10
-38.86390546482871
 20
267.1681935043749
 30
0.0
 40
2.0
100
AcDbArc
 50
180.0
 51
270.0
  0
LINE
  5
6D05
330
1E
100
AcDbEntity
  8
24
  6
CONTINOUS
100
AcDbLine
 10
-40.86390546482874
 20
267.1681935043749
 30
0.0
 11
-40.86390546482874
 21
270.3681935043749
 31
0.0
  0
LINE
  5
6D06
330
1E
100
AcDbEntity
  8
24
  6
CONTINOUS
100
AcDbLine
 10
-33.86390546482873
 20
263.3681935043747
 30
0.0
 11
-33.86390546482873
 21
280.568193504375
 31
0.0
  0
ARC
  5
6D07
330
1E
100
AcDbEntity
  8
24
  6
CONTINOUS
100
AcDbCircle
 10
-28.86390546482871
 20
267.1681935043749
 30
0.0
 40
2.0
100
AcDbArc
 50
270.0
 51
0.0
  0
LINE
  5
6D08
330
1E
100
AcDbEntity
  8
24
  6
CONTINOUS
100
AcDbLine
 10
-26.16390546482868
 20
270.3681935043749
 30
0.0
 11
-26.16390546482868
 21
272.3681935043749
 31
0.0
  0
LINE
  5
6D09
330
1E
100
AcDbEntity
  8
24
  6
CONTINOUS
100
AcDbLine
 10
-26.86390546482873
 20
267.1681935043749
 30
0.0
 11
-26.86390546482873
 21
270.3681935043749
 31
0.0
  0
LWPOLYLINE
  5
6D0A
330
1E
100
AcDbEntity
  8
24
  6
CONTINOUS
100
AcDbPolyline
 90
        4
 70
     1
 43
0.0
 10
-6.86390546482872
 20
272.3681935043749
 10
9.136094535171274
 20
272.3681935043749
 10
9.136094535171274
 20
275.568193504375
 10
-6.86390546482872
 20
275.568193504375
  0
LINE
  5
6D0B
330
1E
100
AcDbEntity
  8
24
  6
CONTINOUS
100
AcDbLine
 10
-3.863905464828718
 20
265.1681935043749
 30
0.0
 11
6.136094535171277
 21
265.1681935043749
 31
0.0
  0
LINE
  5
6D0C
330
1E
100
AcDbEntity
  8
24
  6
CONTINOUS
100
AcDbLine
 10
-9.363905464828702
 20
275.568193504375
 30
0.0
 11
11.63609453517138
 21
275.568193504375
 31
0.0
  0
LINE
  5
6D0D
330
1E
100
AcDbEntity
  8
24
  6
CONTINOUS
100
AcDbLine
 10
-6.563905464828652
 20
270.3681935043749
 30
0.0
 11
8.836094535171323
 21
270.3681935043749
 31
0.0
  0
LINE
  5
6D0E
330
1E
100
AcDbEntity
  8
24
  6
CONTINOUS
100
AcDbLine
 10
-9.363905464828702
 20
277.568193504375
 30
0.0
 11
11.63609453517138
 21
277.568193504375
 31
0.0
  0
LINE
  5
6D0F
330
1E
100
AcDbEntity
  8
24
  6
CONTINOUS
100
AcDbLine
 10
1.136094535171277
 20
263.3681935043747
 30
0.0
 11
1.136094535171277
 21
280.568193504375
 31
0.0
  0
ARC
  5
6D10
330
1E
100
AcDbEntity
  8
24
  6
CONTINOUS
100
AcDbCircle
 10
-3.863905464828691
 20
267.1681935043749
 30
0.0
 40
2.0
100
AcDbArc
 50
180.0
 51
270.0
  0
LINE
  5
6D11
330
1E
100
AcDbEntity
  8
24
  6
CONTINOUS
100
AcDbLine
 10
-6.563905464828652
 20
270.3681935043749
 30
0.0
 11
-6.563905464828652
 21
272.3681935043749
 31
0.0
  0
LINE
  5
6D12
330
1E
100
AcDbEntity
  8
24
  6
CONTINOUS
100
AcDbLine
 10
-5.86390546482872
 20
267.1681935043749
 30
0.0
 11
-5.86390546482872
 21
270.3681935043749
 31
0.0
  0
LINE
  5
6D13
330
1E
100
AcDbEntity
  8
24
  6
CONTINOUS
100
AcDbLine
 10
8.836094535171323
 20
270.3681935043749
 30
0.0
 11
8.836094535171323
 21
272.3681935043749
 31
0.0
  0
LINE
  5
6D14
330
1E
100
AcDbEntity
  8
24
  6
CONTINOUS
100
AcDbLine
 10
8.136094535171277
 20
267.1681935043749
 30
0.0
 11
8.136094535171277
 21
270.3681935043749
 31
0.0
  0
ARC
  5
6D15
330
1E
100
AcDbEntity
  8
24
  6
CONTINOUS
100
AcDbCircle
 10
6.136094535171307
 20
267.1681935043749
 30
0.0
 40
2.0
100
AcDbArc
 50
270.0
 51
0.0
  0
LINE
  5
6D16
330
1E
100
AcDbEntity
  8
24
  6
CONTINOUS
100
AcDbLine
 10
36.13609453517131
 20
263.3681935043747
 30
0.0
 11
36.13609453517131
 21
280.568193504375
 31
0.0
  0
LWPOLYLINE
  5
6D17
330
1E
100
AcDbEntity
  8
24
  6
CONTINOUS
100
AcDbPolyline
 90
        4
 70
     1
 43
0.0
 10
28.1360945351713
 20
272.3681935043749
 10
44.13609453517131
 20
272.3681935043749
 10
44.13609453517131
 20
275.568193504375
 10
28.1360945351713
 20
275.568193504375
  0
LINE
  5
6D18
330
1E
100
AcDbEntity
  8
24
  6
CONTINOUS
100
AcDbLine
 10
31.13609453517129
 20
265.1681935043749
 30
0.0
 11
41.13609453517129
 21
265.1681935043749
 31
0.0
  0
LINE
  5
6D19
330
1E
100
AcDbEntity
  8
24
  6
CONTINOUS
100
AcDbLine
 10
28.43609453517139
 20
270.3681935043749
 30
0.0
 11
43.83609453517135
 21
270.3681935043749
 31
0.0
  0
LINE
  5
6D1A
330
1E
100
AcDbEntity
  8
24
  6
CONTINOUS
100
AcDbLine
 10
29.13609453517132
 20
267.1681935043749
 30
0.0
 11
29.13609453517132
 21
270.3681935043749
 31
0.0
  0
ARC
  5
6D1B
330
1E
100
AcDbEntity
  8
24
  6
CONTINOUS
100
AcDbCircle
 10
31.13609453517135
 20
267.1681935043749
 30
0.0
 40
2.0
100
AcDbArc
 50
180.0
 51
270.0
  0
LINE
  5
6D1C
330
1E
100
AcDbEntity
  8
24
  6
CONTINOUS
100
AcDbLine
 10
28.43609453517139
 20
270.3681935043749
 30
0.0
 11
28.43609453517139
 21
272.3681935043749
 31
0.0
  0
LINE
  5
6D1D
330
1E
100
AcDbEntity
  8
24
  6
CONTINOUS
100
AcDbLine
 10
43.1360945351713
 20
267.1681935043749
 30
0.0
 11
43.1360945351713
 21
270.3681935043749
 31
0.0
  0
ARC
  5
6D1E
330
1E
100
AcDbEntity
  8
24
  6
CONTINOUS
100
AcDbCircle
 10
41.13609453517134
 20
267.1681935043749
 30
0.0
 40
2.0
100
AcDbArc
 50
270.0
 51
0.0
  0
LINE
  5
6D1F
330
1E
100
AcDbEntity
  8
24
  6
CONTINOUS
100
AcDbLine
 10
43.83609453517135
 20
270.3681935043749
 30
0.0
 11
43.83609453517135
 21
272.3681935043749
 31
0.0
  0
LINE
  5
6D23
330
1E
100
AcDbEntity
  8
24
  6
CONTINOUS
100
AcDbLine
 10
66.13609453517131
 20
265.1681935043749
 30
0.0
 11
76.13609453517131
 21
265.1681935043749
 31
0.0
  0
LINE
  5
6D24
330
1E
100
AcDbEntity
  8
24
  6
CONTINOUS
100
AcDbLine
 10
60.6360945351713
 20
277.568193504375
 30
0.0
 11
81.63609453517144
 21
277.568193504375
 31
0.0
  0
LINE
  5
6D25
330
1E
100
AcDbEntity
  8
24
  6
CONTINOUS
100
AcDbLine
 10
60.6360945351713
 20
275.568193504375
 30
0.0
 11
81.63609453517144
 21
275.568193504375
 31
0.0
  0
LWPOLYLINE
  5
6D26
330
1E
100
AcDbEntity
  8
24
  6
CONTINOUS
100
AcDbPolyline
 90
        4
 70
     1
 43
0.0
 10
63.1360945351713
 20
272.3681935043749
 10
79.13609453517131
 20
272.3681935043749
 10
79.13609453517131
 20
275.568193504375
 10
63.1360945351713
 20
275.568193504375
  0
LINE
  5
6D27
330
1E
100
AcDbEntity
  8
24
  6
CONTINOUS
100
AcDbLine
 10
63.43609453517139
 20
270.3681935043749
 30
0.0
 11
78.83609453517134
 21
270.3681935043749
 31
0.0
  0
LINE
  5
6D28
330
1E
100
AcDbEntity
  8
24
  6
CONTINOUS
100
AcDbLine
 10
71.13609453517131
 20
263.3681935043747
 30
0.0
 11
71.13609453517131
 21
280.568193504375
 31
0.0
  0
LINE
  5
6D29
330
1E
100
AcDbEntity
  8
24
  6
CONTINOUS
100
AcDbLine
 10
64.13609453517132
 20
267.1681935043749
 30
0.0
 11
64.13609453517132
 21
270.3681935043749
 31
0.0
  0
ARC
  5
6D2A
330
1E
100
AcDbEntity
  8
24
  6
CONTINOUS
100
AcDbCircle
 10
66.13609453517135
 20
267.1681935043749
 30
0.0
 40
2.0
100
AcDbArc
 50
180.0
 51
270.0
  0
LINE
  5
6D2B
330
1E
100
AcDbEntity
  8
24
  6
CONTINOUS
100
AcDbLine
 10
63.43609453517139
 20
270.3681935043749
 30
0.0
 11
63.43609453517139
 21
272.3681935043749
 31
0.0
  0
LINE
  5
6D2C
330
1E
100
AcDbEntity
  8
24
  6
CONTINOUS
100
AcDbLine
 10
78.1360945351713
 20
267.1681935043749
 30
0.0
 11
78.1360945351713
 21
270.3681935043749
 31
0.0
  0
ARC
  5
6D2D
330
1E
100
AcDbEntity
  8
24
  6
CONTINOUS
100
AcDbCircle
 10
76.13609453517135
 20
267.1681935043749
 30
0.0
 40
2.0
100
AcDbArc
 50
270.0
 51
0.0
  0
LINE
  5
6D2E
330
1E
100
AcDbEntity
  8
24
  6
CONTINOUS
100
AcDbLine
 10
78.83609453517134
 20
270.3681935043749
 30
0.0
 11
78.83609453517134
 21
272.3681935043749
 31
0.0
  0
LINE
  5
6D2F
330
1E
100
AcDbEntity
  8
16
100
AcDbLine
 10
1.136094535171281
 20
200.0394197322321
 30
0.0
 11
1.136094535171281
 21
317.8530787477598
 31
0.0
  0
DIMENSION
  5
6D30
330
1E
100
AcDbEntity
  8
30
  6
Continuous
100
AcDbDimension
  2
*D35
 10
1.136094535171279
 20
317.8530787477598
 30
0.0
 11
-16.36390546482871
 21
320.8530787477598
 31
0.0
 70
    32
 71
     5
 42
-1.0
  3
STANDARD
100
AcDbAlignedDimension
 13
-33.86390546482873
 23
280.568193504375
 33
0.0
 14
1.136094535171277
 24
280.568193504375
 34
0.0
100
AcDbRotatedDimension
1001
ACAD
1000
DSTYLE
1002
{
1070
    79
1070
     3
1002
}
  0
DIMENSION
  5
6D3F
330
1E
100
AcDbEntity
  8
30
  6
Continuous
100
AcDbDimension
  2
*D36
 10
36.13609453517129
 20
317.8530787477598
 30
0.0
 11
18.63609453517128
 21
320.8530787477598
 31
0.0
 70
    32
 71
     5
 42
-1.0
  3
STANDARD
100
AcDbAlignedDimension
 13
1.136094535171281
 23
280.568193504375
 33
0.0
 14
36.13609453517129
 24
280.568193504375
 34
0.0
100
AcDbRotatedDimension
1001
ACAD
1000
DSTYLE
1002
{
1070
    79
1070
     3
1002
}
  0
DIMENSION
  5
6D55
330
1E
100
AcDbEntity
  8
30
  6
Continuous
100
AcDbDimension
  2
*D37
 10
71.13609453517131
 20
317.8530787477598
 30
0.0
 11
53.63609453517131
 21
320.8530787477598
 31
0.0
 70
    32
 71
     5
 42
-1.0
  3
STANDARD
100
AcDbAlignedDimension
 13
36.13609453517131
 23
280.568193504375
 33
0.0
 14
71.13609453517131
 24
280.568193504375
 34
0.0
100
AcDbRotatedDimension
1001
ACAD
1000
DSTYLE
1002
{
1070
    79
1070
     3
1002
}
  0
LINE
  5
6D71
330
1E
100
AcDbEntity
  8
11
 48
2.0
100
AcDbLine
 10
150.7559999999999
 20
-226.5108058991919
 30
0.0
 11
150.7559999999999
 21
-276.5108058991919
 31
0.0
  0
LINE
  5
6D72
330
1E
100
AcDbEntity
  8
11
 48
2.0
100
AcDbLine
 10
250.7560000000002
 20
-226.5108058991919
 30
0.0
 11
250.7560000000002
 21
-276.5108058991919
 31
0.0
  0
LINE
  5
6D73
330
1E
100
AcDbEntity
  8
11
 48
2.0
100
AcDbLine
 10
151.7560000000002
 20
-277.5108058991917
 30
0.0
 11
249.7560000000003
 21
-277.5108058991917
 31
0.0
  0
ARC
  5
6D74
330
1E
100
AcDbEntity
  8
11
 48
2.0
100
AcDbCircle
 10
151.7560000000002
 20
-276.5108058991919
 30
0.0
 40
1.0
100
AcDbArc
 50
180.0
 51
270.0
  0
ARC
  5
6D75
330
1E
100
AcDbEntity
  8
11
 48
2.0
100
AcDbCircle
 10
249.7560000000003
 20
-276.5108058991919
 30
0.0
 40
1.0
100
AcDbArc
 50
270.0
 51
0.0
  0
LINE
  5
6D76
330
1E
100
AcDbEntity
  8
11
 48
2.0
100
AcDbLine
 10
151.7560000000002
 20
-225.5108058991918
 30
0.0
 11
249.7560000000003
 21
-225.5108058991918
 31
0.0
  0
ARC
  5
6D77
330
1E
100
AcDbEntity
  8
11
 48
2.0
100
AcDbCircle
 10
151.7560000000002
 20
-226.5108058991919
 30
0.0
 40
1.0
100
AcDbArc
 50
90.0
 51
180.0
  0
ARC
  5
6D79
330
1E
100
AcDbEntity
  8
11
 48
2.0
100
AcDbCircle
 10
249.7560000000003
 20
-226.5108058991919
 30
0.0
 40
1.0
100
AcDbArc
 50
0.0
 51
90.0
  0
LINE
  5
6D7A
330
1E
100
AcDbEntity
  8
16
100
AcDbLine
 10
200.7559999999999
 20
-349.2627456620376
 30
0.0
 11
200.7559999999999
 21
-150.1274066897059
 31
0.0
  0
LINE
  5
6D7B
330
1E
100
AcDbEntity
  8
16
100
AcDbLine
 10
269.6598975494071
 20
-251.5108058991919
 30
0.0
 11
120.2060867984189
 21
-251.5108058991919
 31
0.0
  0
LINE
  5
6D7C
330
1E
100
AcDbEntity
  8
18
  6
DIVIDE
100
AcDbLine
 10
288.2560000000001
 20
-169.0108058991919
 30
0.0
 11
148.2560000000001
 21
-169.0108058991919
 31
0.0
  0
LINE
  5
6D7D
330
1E
100
AcDbEntity
  8
18
  6
DIVIDE
100
AcDbLine
 10
288.2560000000001
 20
-334.0108058991918
 30
0.0
 11
288.2560000000001
 21
-169.0108058991919
 31
0.0
  0
LINE
  5
6D7E
330
1E
100
AcDbEntity
  8
18
  6
DIVIDE
100
AcDbLine
 10
148.2560000000001
 20
-334.0108058991918
 30
0.0
 11
288.2560000000001
 21
-334.0108058991918
 31
0.0
  0
LINE
  5
6D7F
330
1E
100
AcDbEntity
  8
18
  6
DIVIDE
100
AcDbLine
 10
148.2560000000001
 20
-169.0108058991919
 30
0.0
 11
148.2560000000001
 21
-334.0108058991918
 31
0.0
  0
LINE
  5
6DC6
330
1E
100
AcDbEntity
  8
12
  6
Continuous
 62
     3
100
AcDbLine
 10
-11.244
 20
-314.5108058991918
 30
0.0
 11
-22.24399999999989
 21
-314.5108058991918
 31
0.0
  0
CIRCLE
  5
6DC7
330
1E
100
AcDbEntity
  8
12
  6
Continuous
 62
     3
100
AcDbCircle
 10
-16.7439999999999
 20
-314.5108058991918
 30
0.0
 40
2.0
  0
LINE
  5
6DC8
330
1E
100
AcDbEntity
  8
12
  6
Continuous
 62
     3
100
AcDbLine
 10
-16.7439999999999
 20
-309.0108058991918
 30
0.0
 11
-16.7439999999999
 21
-320.0108058991918
 31
0.0
  0
LINE
  5
6DC9
330
1E
100
AcDbEntity
  8
12
  6
Continuous
 62
     3
100
AcDbLine
 10
18.25600000000006
 20
-183.0108058991918
 30
0.0
 11
18.25600000000006
 21
-194.0108058991919
 31
0.0
  0
CIRCLE
  5
6DCA
330
1E
100
AcDbEntity
  8
12
  6
Continuous
 62
     3
100
AcDbCircle
 10
18.25600000000006
 20
-188.5108058991915
 30
0.0
 40
2.0
  0
LINE
  5
6DCB
330
1E
100
AcDbEntity
  8
12
  6
Continuous
 62
     3
100
AcDbLine
 10
23.75599999999996
 20
-188.5108058991915
 30
0.0
 11
12.75600000000008
 21
-188.5108058991915
 31
0.0
  0
MTEXT
  5
6E69
330
1E
100
AcDbEntity
  8
30
  6
Continuous
100
AcDbMText
 10
148.3743032005072
 20
225.6612726780561
 30
0.0
 40
3.0
 41
95.546
 71
     1
 72
     5
  1
E225-NF 4P FC + BAR\PS225-NF 4P FC + BAR\PS225-GF 4P FC + BAR\PS225-NFH 4P FC + BAR\PS225-NN 4P FC + BAR\PS225-NM 4P FC + BAR\PS250-NF 4P FC + BAR\PS250-GF 4P FC + BAR\PS250-NN 4P FC + BAR
  7
STANDARD1
 73
     1
 44
1.0
  0
VIEWPORT
  5
9AC
330
1A
100
AcDbEntity
 67
     1
  8
0
  6
Continuous
100
AcDbViewport
 10
171.999535
 20
144.1384739999999
 30
0.0
 40
488.867686
 41
292.351491
 68
    -1
 69
     1
 12
171.999535
 22
144.1384739999999
 13
0.0
 23
0.0
 14
10.0
 24
10.0
 15
10.0
 25
10.0
 16
0.0
 26
0.0
 36
1.0
 17
0.0
 27
0.0
 37
0.0
 42
50.0
 43
0.0
 44
0.0
 45
292.351491
 50
0.0
 51
0.0
 72
   100
 90
    32800
  1

281
     0
 71
     1
 74
     0
110
0.0
120
0.0
130
0.0
111
1.0
121
0.0
131
0.0
112
0.0
122
1.0
132
0.0
 79
     0
146
0.0
  0
ENDSEC
  0
SECTION
  2
OBJECTS
  0
DICTIONARY
  5
C
330
0
100
AcDbDictionary
281
     1
  3
ACAD_GROUP
350
D
  3
ACAD_LAYOUT
350
19
  3
ACAD_MLINESTYLE
350
16
  3
ACAD_PLOTSETTINGS
350
18
  3
ACAD_PLOTSTYLENAME
350
E
  3
ACADDIM
350
67AC
  3
ACDBVARIABLEDICTIONARY
350
5697
  0
DICTIONARY
  5
178
330
1E
100
AcDbDictionary
280
     1
281
     1
  3
ACAD_LAYOUTSELFREF
360
6E5E
  0
DICTIONARY
  5
17A
330
1A
100
AcDbDictionary
280
     1
281
     1
  3
ACAD_LAYOUTSELFREF
360
6E5D
  0
DICTIONARY
  5
D
102
{ACAD_REACTORS
330
C
102
}
330
C
100
AcDbDictionary
281
     1
  0
DICTIONARY
  5
19
102
{ACAD_REACTORS
330
C
102
}
330
C
100
AcDbDictionary
281
     1
  3
Model
350
6E67
  3
ﾚｲｱｳﾄ1
350
6E68
  0
DICTIONARY
  5
16
102
{ACAD_REACTORS
330
C
102
}
330
C
100
AcDbDictionary
281
     1
  3
STANDARD
350
17
  0
DICTIONARY
  5
18
102
{ACAD_REACTORS
330
C
102
}
330
C
100
AcDbDictionary
281
     1
  0
ACDBDICTIONARYWDFLT
  5
E
102
{ACAD_REACTORS
330
C
102
}
330
C
100
AcDbDictionary
281
     1
  3
Normal
350
F
100
AcDbDictionaryWithDefault
340
F
  0
XRECORD
  5
67AC
102
{ACAD_REACTORS
330
C
102
}
330
C
100
AcDbXrecord
280
     1
 90
   990106
  3

 60
     0
 61
     0
 62
     1
 63
     3
 64
     0
 65
     0
 66
     0
 67
     3
 68
     1
 69
     0
 70
     0
 71
     0
 72
     0
 40
0.0
170
     0
340
67AE
  0
DICTIONARY
  5
5697
102
{ACAD_REACTORS
330
C
102
}
330
C
100
AcDbDictionary
281
     1
  3
DIMASSOC
350
5698
  0
XRECORD
  5
6E5E
102
{ACAD_REACTORS
330
178
102
}
330
178
100
AcDbXrecord
280
     1
340
1E
  0
XRECORD
  5
6E5D
102
{ACAD_REACTORS
330
17A
102
}
330
17A
100
AcDbXrecord
280
     1
340
1A
  0
LAYOUT
  5
6E67
102
{ACAD_REACTORS
330
19
102
}
330
19
100
AcDbPlotSettings
  1

  2
Canon LBP3800 LIPSLX
  4

  6

 40
0.0
 41
0.0
 42
0.0
 43
0.0
 44
0.0
 45
0.0
 46
0.0
 47
0.0
 48
0.0
 49
0.0
140
0.0
141
0.0
142
1.0
143
1.0
 70
  1712
 72
     0
 73
     0
 74
     0
  7
monochrome.ctb
 75
     0
147
1.0
148
0.0
149
0.0
100
AcDbLayout
  1
Model
 70
     1
 71
     0
 10
0.0
 20
0.0
 11
12.0
 21
9.0
 12
0.0
 22
0.0
 32
0.0
 14
0.0
 24
0.0
 34
0.0
 15
0.0
 25
0.0
 35
0.0
146
0.0
 13
0.0
 23
0.0
 33
0.0
 16
1.0
 26
0.0
 36
0.0
 17
0.0
 27
1.0
 37
0.0
 76
     0
330
1E
  0
LAYOUT
  5
6E68
102
{ACAD_REACTORS
330
19
102
}
330
19
100
AcDbPlotSettings
  1

  2
Canon LBP3800 LIPSLX
  4

  6

 40
0.0
 41
0.0
 42
0.0
 43
0.0
 44
0.0
 45
0.0
 46
0.0
 47
0.0
 48
0.0
 49
0.0
140
0.0
141
0.0
142
1.0
143
1.0
 70
   688
 72
     0
 73
     0
 74
     5
  7
monochrome.ctb
 75
    16
147
1.0
148
0.0
149
0.0
100
AcDbLayout
  1
ﾚｲｱｳﾄ1
 70
     1
 71
     1
 10
-5.873749
 20
-5.87375
 11
204.099579
 21
291.1369009999999
 12
0.0
 22
0.0
 32
0.0
 14
4.273573
 24
5.205245999999998
 34
0.0
 15
194.610095
 25
283.0697009999996
 35
0.0
146
0.0
 13
0.0
 23
0.0
 33
0.0
 16
1.0
 26
0.0
 36
0.0
 17
0.0
 27
1.0
 37
0.0
 76
     0
330
1A
  0
MLINESTYLE
  5
17
102
{ACAD_REACTORS
330
16
102
}
330
16
100
AcDbMlineStyle
  2
STANDARD
 70
     0
  3

 62
   256
 51
90.0
 52
90.0
 71
     2
 49
0.5
 62
   256
  6
BYLAYER
 49
-0.5
 62
   256
  6
BYLAYER
  0
ACDBPLACEHOLDER
  5
F
102
{ACAD_REACTORS
330
E
102
}
330
E
  0
DICTIONARYVAR
  5
5698
102
{ACAD_REACTORS
330
5697
102
}
330
5697
100
DictionaryVariables
280
     0
  1
1
  0
ENDSEC
  0
EOF
