  0
SECTION
  2
HEADER
  9
$ACADVER
  1
AC1015
  9
$ACADMAINTVER
 70
    10
  9
$DWGCODEPAGE
  3
ANSI_932
  9
$INSBASE
 10
0.0
 20
0.0
 30
0.0
  9
$EXTMIN
 10
-54.89493462656309
 20
-335.2751428602207
 30
0.0
  9
$EXTMAX
 10
364.5609929336933
 20
318.4340221653556
 30
0.0
  9
$LIMMIN
 10
-111.6607628231322
 20
-393.6846650918833
  9
$LIMMAX
 10
267.0001487158915
 20
364.8672605553396
  9
$ORTHOMODE
 70
     1
  9
$REGENMODE
 70
     1
  9
$FILLMODE
 70
     1
  9
$QTEXTMODE
 70
     0
  9
$MIRRTEXT
 70
     1
  9
$LTSCALE
 40
5.0
  9
$ATTMODE
 70
     1
  9
$TEXTSIZE
 40
5.0
  9
$TRACEWID
 40
0.05
  9
$TEXTSTYLE
  7
STANDARD1
  9
$CLAYER
  8
30
  9
$CELTYPE
  6
BYLAYER
  9
$CECOLOR
 62
   256
  9
$CELTSCALE
 40
1.0
  9
$DISPSILH
 70
     0
  9
$DIMSCALE
 40
1.0
  9
$DIMASZ
 40
2.0
  9
$DIMEXO
 40
1.0
  9
$DIMDLI
 40
0.5
  9
$DIMRND
 40
0.0
  9
$DIMDLE
 40
0.0
  9
$DIMEXE
 40
0.5
  9
$DIMTP
 40
0.0
  9
$DIMTM
 40
0.0
  9
$DIMTXT
 40
4.0
  9
$DIMCEN
 40
0.09
  9
$DIMTSZ
 40
0.0
  9
$DIMTOL
 70
     0
  9
$DIMLIM
 70
     0
  9
$DIMTIH
 70
     0
  9
$DIMTOH
 70
     0
  9
$DIMSE1
 70
     0
  9
$DIMSE2
 70
     0
  9
$DIMTAD
 70
     3
  9
$DIMZIN
 70
    12
  9
$DIMBLK
  1
OPEN
  9
$DIMASO
 70
     1
  9
$DIMSHO
 70
     1
  9
$DIMPOST
  1

  9
$DIMAPOST
  1

  9
$DIMALT
 70
     0
  9
$DIMALTD
 70
     2
  9
$DIMALTF
 40
25.4
  9
$DIMLFAC
 40
1.0
  9
$DIMTOFL
 70
     0
  9
$DIMTVP
 40
0.0
  9
$DIMTIX
 70
     0
  9
$DIMSOXD
 70
     0
  9
$DIMSAH
 70
     0
  9
$DIMBLK1
  1

  9
$DIMBLK2
  1

  9
$DIMSTYLE
  2
STANDARD
  9
$DIMCLRD
 70
     0
  9
$DIMCLRE
 70
     0
  9
$DIMCLRT
 70
     0
  9
$DIMTFAC
 40
1.0
  9
$DIMGAP
 40
1.0
  9
$DIMJUST
 70
     0
  9
$DIMSD1
 70
     0
  9
$DIMSD2
 70
     0
  9
$DIMTOLJ
 70
     1
  9
$DIMTZIN
 70
     0
  9
$DIMALTZ
 70
     0
  9
$DIMALTTZ
 70
     0
  9
$DIMUPT
 70
     0
  9
$DIMDEC
 70
     1
  9
$DIMTDEC
 70
     1
  9
$DIMALTU
 70
     2
  9
$DIMALTTD
 70
     2
  9
$DIMTXSTY
  7
STANDARD
  9
$DIMAUNIT
 70
     0
  9
$DIMADEC
 70
     0
  9
$DIMALTRND
 40
0.0
  9
$DIMAZIN
 70
     3
  9
$DIMDSEP
 70
    46
  9
$DIMATFIT
 70
     3
  9
$DIMFRAC
 70
     0
  9
$DIMLDRBLK
  1
OPEN
  9
$DIMLUNIT
 70
     2
  9
$DIMLWD
 70
    -2
  9
$DIMLWE
 70
    -2
  9
$DIMTMOVE
 70
     0
  9
$LUNITS
 70
     2
  9
$LUPREC
 70
     4
  9
$SKETCHINC
 40
0.1
  9
$FILLETRAD
 40
2.75
  9
$AUNITS
 70
     0
  9
$AUPREC
 70
     0
  9
$MENU
  1
.
  9
$ELEVATION
 40
0.0
  9
$PELEVATION
 40
0.0
  9
$THICKNESS
 40
0.0
  9
$LIMCHECK
 70
     0
  9
$CHAMFERA
 40
0.0
  9
$CHAMFERB
 40
0.0
  9
$CHAMFERC
 40
0.0
  9
$CHAMFERD
 40
0.0
  9
$SKPOLY
 70
     0
  9
$TDCREATE
 40
2452286.555658657
  9
$TDUCREATE
 40
2452286.180658657
  9
$TDUPDATE
 40
2454907.489570313
  9
$TDUUPDATE
 40
2454907.114570312
  9
$TDINDWG
 40
1.3527155208
  9
$TDUSRTIMER
 40
1.3527148148
  9
$USRTIMER
 70
     1
  9
$ANGBASE
 50
0.0
  9
$ANGDIR
 70
     0
  9
$PDMODE
 70
     0
  9
$PDSIZE
 40
0.0
  9
$PLINEWID
 40
0.0
  9
$SPLFRAME
 70
     0
  9
$SPLINETYPE
 70
     6
  9
$SPLINESEGS
 70
     8
  9
$HANDSEED
  5
9454
  9
$SURFTAB1
 70
     6
  9
$SURFTAB2
 70
     6
  9
$SURFTYPE
 70
     6
  9
$SURFU
 70
     6
  9
$SURFV
 70
     6
  9
$UCSBASE
  2

  9
$UCSNAME
  2

  9
$UCSORG
 10
0.0
 20
0.0
 30
0.0
  9
$UCSXDIR
 10
1.0
 20
0.0
 30
0.0
  9
$UCSYDIR
 10
0.0
 20
1.0
 30
0.0
  9
$UCSORTHOREF
  2

  9
$UCSORTHOVIEW
 70
     0
  9
$UCSORGTOP
 10
0.0
 20
0.0
 30
0.0
  9
$UCSORGBOTTOM
 10
0.0
 20
0.0
 30
0.0
  9
$UCSORGLEFT
 10
0.0
 20
0.0
 30
0.0
  9
$UCSORGRIGHT
 10
0.0
 20
0.0
 30
0.0
  9
$UCSORGFRONT
 10
0.0
 20
0.0
 30
0.0
  9
$UCSORGBACK
 10
0.0
 20
0.0
 30
0.0
  9
$PUCSBASE
  2

  9
$PUCSNAME
  2

  9
$PUCSORG
 10
0.0
 20
0.0
 30
0.0
  9
$PUCSXDIR
 10
1.0
 20
0.0
 30
0.0
  9
$PUCSYDIR
 10
0.0
 20
1.0
 30
0.0
  9
$PUCSORTHOREF
  2

  9
$PUCSORTHOVIEW
 70
     0
  9
$PUCSORGTOP
 10
0.0
 20
0.0
 30
0.0
  9
$PUCSORGBOTTOM
 10
0.0
 20
0.0
 30
0.0
  9
$PUCSORGLEFT
 10
0.0
 20
0.0
 30
0.0
  9
$PUCSORGRIGHT
 10
0.0
 20
0.0
 30
0.0
  9
$PUCSORGFRONT
 10
0.0
 20
0.0
 30
0.0
  9
$PUCSORGBACK
 10
0.0
 20
0.0
 30
0.0
  9
$USERI1
 70
     0
  9
$USERI2
 70
     0
  9
$USERI3
 70
     0
  9
$USERI4
 70
     0
  9
$USERI5
 70
     0
  9
$USERR1
 40
0.0
  9
$USERR2
 40
0.0
  9
$USERR3
 40
0.0
  9
$USERR4
 40
0.0
  9
$USERR5
 40
0.0
  9
$WORLDVIEW
 70
     1
  9
$SHADEDGE
 70
     3
  9
$SHADEDIF
 70
    70
  9
$TILEMODE
 70
     1
  9
$MAXACTVP
 70
    48
  9
$PINSBASE
 10
0.0
 20
0.0
 30
0.0
  9
$PLIMCHECK
 70
     0
  9
$PEXTMIN
 10
4.273573370203961
 20
5.205246163471485
 30
0.0
  9
$PEXTMAX
 10
194.6100952986349
 20
283.0697008572913
 30
0.0
  9
$PLIMMIN
 10
-5.873748779296875
 20
-5.873749732971191
  9
$PLIMMAX
 10
204.0995788574218
 20
291.1369009017943
  9
$UNITMODE
 70
     0
  9
$VISRETAIN
 70
     1
  9
$PLINEGEN
 70
     0
  9
$PSLTSCALE
 70
     1
  9
$TREEDEPTH
 70
  3020
  9
$CMLSTYLE
  2
STANDARD
  9
$CMLJUST
 70
     0
  9
$CMLSCALE
 40
1.0
  9
$PROXYGRAPHICS
 70
     1
  9
$MEASUREMENT
 70
     0
  9
$CELWEIGHT
370
    -1
  9
$ENDCAPS
280
     0
  9
$JOINSTYLE
280
     0
  9
$LWDISPLAY
290
     0
  9
$INSUNITS
 70
     0
  9
$HYPERLINKBASE
  1

  9
$STYLESHEET
  1
KIKI.CTB
  9
$XEDIT
290
     1
  9
$CEPSNTYPE
380
     0
  9
$PSTYLEMODE
290
     1
  9
$FINGERPRINTGUID
  2

  9
$VERSIONGUID
  2
{659F9D20-6F2D-4BEF-9752-1BE7423D7F32}
  9
$EXTNAMES
290
     1
  9
$PSVPSCALE
 40
0.0
  9
$OLESTARTUP
290
     0
  0
ENDSEC
  0
SECTION
  2
CLASSES
  0
CLASS
  1
ACDBDICTIONARYWDFLT
  2
AcDbDictionaryWithDefault
  3
AutoCAD 2000
 90
        0
280
     0
281
     0
  0
CLASS
  1
ACDBPLACEHOLDER
  2
AcDbPlaceHolder
  3
AutoCAD 2000
 90
        0
280
     0
281
     0
  0
CLASS
  1
LAYOUT
  2
AcDbLayout
  3
AutoCAD 2000
 90
        0
280
     0
281
     0
  0
CLASS
  1
LONG_TRANSACTION
  2
AcDbLongTransaction
  3
AutoCAD 2000
 90
    32768
280
     0
281
     0
  0
CLASS
  1
LWPOLYLINE
  2
AcDbPolyline
  3
AutoCAD 2000
 90
    32768
280
     0
281
     1
  0
CLASS
  1
HATCH
  2
AcDbHatch
  3
AutoCAD 2000
 90
    32768
280
     0
281
     1
  0
CLASS
  1
XRECORD
  2
AcDbXrecord
  3
AutoCAD 2000
 90
    32768
280
     0
281
     0
  0
CLASS
  1
LONG_TRANSACTION
  2
AcDbLongTransaction
  3
AutoCAD 2000
 90
    32768
280
     0
281
     0
  0
CLASS
  1
LWPOLYLINE
  2
AcDbPolyline
  3
AutoCAD 2000
 90
    32768
280
     0
281
     1
  0
CLASS
  1
HATCH
  2
AcDbHatch
  3
AutoCAD 2000
 90
    32768
280
     0
281
     1
  0
CLASS
  1
XRECORD
  2
AcDbXrecord
  3
AutoCAD 2000
 90
    32768
280
     0
281
     0
  0
CLASS
  1
LONG_TRANSACTION
  2
AcDbLongTransaction
  3
AutoCAD 2000
 90
    32768
280
     0
281
     0
  0
CLASS
  1
LWPOLYLINE
  2
AcDbPolyline
  3
AutoCAD 2000
 90
    32768
280
     0
281
     1
  0
CLASS
  1
HATCH
  2
AcDbHatch
  3
AutoCAD 2000
 90
    32768
280
     0
281
     1
  0
CLASS
  1
XRECORD
  2
AcDbXrecord
  3
AutoCAD 2000
 90
    32768
280
     0
281
     0
  0
CLASS
  1
LONG_TRANSACTION
  2
AcDbLongTransaction
  3
AutoCAD 2000
 90
    32768
280
     0
281
     0
  0
CLASS
  1
LWPOLYLINE
  2
AcDbPolyline
  3
AutoCAD 2000
 90
    32768
280
     0
281
     1
  0
CLASS
  1
HATCH
  2
AcDbHatch
  3
AutoCAD 2000
 90
    32768
280
     0
281
     1
  0
CLASS
  1
XRECORD
  2
AcDbXrecord
  3
AutoCAD 2000
 90
    32768
280
     0
281
     0
  0
CLASS
  1
LONG_TRANSACTION
  2
AcDbLongTransaction
  3
AutoCAD 2000
 90
    32768
280
     0
281
     0
  0
CLASS
  1
LWPOLYLINE
  2
AcDbPolyline
  3
AutoCAD 2000
 90
    32768
280
     0
281
     1
  0
CLASS
  1
HATCH
  2
AcDbHatch
  3
AutoCAD 2000
 90
    32768
280
     0
281
     1
  0
CLASS
  1
XRECORD
  2
AcDbXrecord
  3
AutoCAD 2000
 90
    32768
280
     0
281
     0
  0
CLASS
  1
LONG_TRANSACTION
  2
AcDbLongTransaction
  3
AutoCAD 2000
 90
    32768
280
     0
281
     0
  0
CLASS
  1
LWPOLYLINE
  2
AcDbPolyline
  3
AutoCAD 2000
 90
    32768
280
     0
281
     1
  0
CLASS
  1
HATCH
  2
AcDbHatch
  3
AutoCAD 2000
 90
    32768
280
     0
281
     1
  0
CLASS
  1
XRECORD
  2
AcDbXrecord
  3
AutoCAD 2000
 90
    32768
280
     0
281
     0
  0
CLASS
  1
LONG_TRANSACTION
  2
AcDbLongTransaction
  3
AutoCAD 2000
 90
    32768
280
     0
281
     0
  0
CLASS
  1
LWPOLYLINE
  2
AcDbPolyline
  3
AutoCAD 2000
 90
    32768
280
     0
281
     1
  0
CLASS
  1
HATCH
  2
AcDbHatch
  3
AutoCAD 2000
 90
    32768
280
     0
281
     1
  0
CLASS
  1
XRECORD
  2
AcDbXrecord
  3
AutoCAD 2000
 90
    32768
280
     0
281
     0
  0
CLASS
  1
LONG_TRANSACTION
  2
AcDbLongTransaction
  3
AutoCAD 2000
 90
    32768
280
     0
281
     0
  0
CLASS
  1
LWPOLYLINE
  2
AcDbPolyline
  3
AutoCAD 2000
 90
    32768
280
     0
281
     1
  0
CLASS
  1
HATCH
  2
AcDbHatch
  3
AutoCAD 2000
 90
    32768
280
     0
281
     1
  0
CLASS
  1
XRECORD
  2
AcDbXrecord
  3
AutoCAD 2000
 90
    32768
280
     0
281
     0
  0
CLASS
  1
LONG_TRANSACTION
  2
AcDbLongTransaction
  3
AutoCAD 2000
 90
    32768
280
     0
281
     0
  0
CLASS
  1
LWPOLYLINE
  2
AcDbPolyline
  3
AutoCAD 2000
 90
    32768
280
     0
281
     1
  0
CLASS
  1
HATCH
  2
AcDbHatch
  3
AutoCAD 2000
 90
    32768
280
     0
281
     1
  0
CLASS
  1
XRECORD
  2
AcDbXrecord
  3
AutoCAD 2000
 90
    32768
280
     0
281
     0
  0
CLASS
  1
LONG_TRANSACTION
  2
AcDbLongTransaction
  3
AutoCAD 2000
 90
    32768
280
     0
281
     0
  0
CLASS
  1
LWPOLYLINE
  2
AcDbPolyline
  3
AutoCAD 2000
 90
    32768
280
     0
281
     1
  0
CLASS
  1
HATCH
  2
AcDbHatch
  3
AutoCAD 2000
 90
    32768
280
     0
281
     1
  0
CLASS
  1
XRECORD
  2
AcDbXrecord
  3
AutoCAD 2000
 90
    32768
280
     0
281
     0
  0
CLASS
  1
LONG_TRANSACTION
  2
AcDbLongTransaction
  3
AutoCAD 2000
 90
    32768
280
     0
281
     0
  0
CLASS
  1
LWPOLYLINE
  2
AcDbPolyline
  3
AutoCAD 2000
 90
    32768
280
     0
281
     1
  0
CLASS
  1
HATCH
  2
AcDbHatch
  3
AutoCAD 2000
 90
    32768
280
     0
281
     1
  0
CLASS
  1
XRECORD
  2
AcDbXrecord
  3
AutoCAD 2000
 90
    32768
280
     0
281
     0
  0
CLASS
  1
LONG_TRANSACTION
  2
AcDbLongTransaction
  3
AutoCAD 2000
 90
    32768
280
     0
281
     0
  0
CLASS
  1
LWPOLYLINE
  2
AcDbPolyline
  3
AutoCAD 2000
 90
    32768
280
     0
281
     1
  0
CLASS
  1
HATCH
  2
AcDbHatch
  3
AutoCAD 2000
 90
    32768
280
     0
281
     1
  0
CLASS
  1
XRECORD
  2
AcDbXrecord
  3
AutoCAD 2000
 90
    32768
280
     0
281
     0
  0
CLASS
  1
LONG_TRANSACTION
  2
AcDbLongTransaction
  3
AutoCAD 2000
 90
    32768
280
     0
281
     0
  0
CLASS
  1
LWPOLYLINE
  2
AcDbPolyline
  3
AutoCAD 2000
 90
    32768
280
     0
281
     1
  0
CLASS
  1
HATCH
  2
AcDbHatch
  3
AutoCAD 2000
 90
    32768
280
     0
281
     1
  0
CLASS
  1
XRECORD
  2
AcDbXrecord
  3
AutoCAD 2000
 90
    32768
280
     0
281
     0
  0
CLASS
  1
LONG_TRANSACTION
  2
AcDbLongTransaction
  3
AutoCAD 2000
 90
    32768
280
     0
281
     0
  0
CLASS
  1
LWPOLYLINE
  2
AcDbPolyline
  3
AutoCAD 2000
 90
    32768
280
     0
281
     1
  0
CLASS
  1
HATCH
  2
AcDbHatch
  3
AutoCAD 2000
 90
    32768
280
     0
281
     1
  0
CLASS
  1
XRECORD
  2
AcDbXrecord
  3
AutoCAD 2000
 90
    32768
280
     0
281
     0
  0
CLASS
  1
LONG_TRANSACTION
  2
AcDbLongTransaction
  3
AutoCAD 2000
 90
    32768
280
     0
281
     0
  0
CLASS
  1
LWPOLYLINE
  2
AcDbPolyline
  3
AutoCAD 2000
 90
    32768
280
     0
281
     1
  0
CLASS
  1
HATCH
  2
AcDbHatch
  3
AutoCAD 2000
 90
    32768
280
     0
281
     1
  0
CLASS
  1
XRECORD
  2
AcDbXrecord
  3
AutoCAD 2000
 90
    32768
280
     0
281
     0
  0
CLASS
  1
LONG_TRANSACTION
  2
AcDbLongTransaction
  3
AutoCAD 2000
 90
    32768
280
     0
281
     0
  0
CLASS
  1
LWPOLYLINE
  2
AcDbPolyline
  3
AutoCAD 2000
 90
    32768
280
     0
281
     1
  0
CLASS
  1
HATCH
  2
AcDbHatch
  3
AutoCAD 2000
 90
    32768
280
     0
281
     1
  0
CLASS
  1
XRECORD
  2
AcDbXrecord
  3
AutoCAD 2000
 90
    32768
280
     0
281
     0
  0
CLASS
  1
LONG_TRANSACTION
  2
AcDbLongTransaction
  3
AutoCAD 2000
 90
    32768
280
     0
281
     0
  0
CLASS
  1
LWPOLYLINE
  2
AcDbPolyline
  3
AutoCAD 2000
 90
    32768
280
     0
281
     1
  0
CLASS
  1
HATCH
  2
AcDbHatch
  3
AutoCAD 2000
 90
    32768
280
     0
281
     1
  0
CLASS
  1
XRECORD
  2
AcDbXrecord
  3
AutoCAD 2000
 90
    32768
280
     0
281
     0
  0
CLASS
  1
LONG_TRANSACTION
  2
AcDbLongTransaction
  3
AutoCAD 2000
 90
    32768
280
     0
281
     0
  0
CLASS
  1
LWPOLYLINE
  2
AcDbPolyline
  3
AutoCAD 2000
 90
    32768
280
     0
281
     1
  0
CLASS
  1
HATCH
  2
AcDbHatch
  3
AutoCAD 2000
 90
    32768
280
     0
281
     1
  0
CLASS
  1
XRECORD
  2
AcDbXrecord
  3
AutoCAD 2000
 90
    32768
280
     0
281
     0
  0
CLASS
  1
LONG_TRANSACTION
  2
AcDbLongTransaction
  3
AutoCAD 2000
 90
    32768
280
     0
281
     0
  0
CLASS
  1
LWPOLYLINE
  2
AcDbPolyline
  3
AutoCAD 2000
 90
    32768
280
     0
281
     1
  0
CLASS
  1
HATCH
  2
AcDbHatch
  3
AutoCAD 2000
 90
    32768
280
     0
281
     1
  0
CLASS
  1
XRECORD
  2
AcDbXrecord
  3
AutoCAD 2000
 90
    32768
280
     0
281
     0
  0
CLASS
  1
LONG_TRANSACTION
  2
AcDbLongTransaction
  3
AutoCAD 2000
 90
    32768
280
     0
281
     0
  0
CLASS
  1
LWPOLYLINE
  2
AcDbPolyline
  3
AutoCAD 2000
 90
    32768
280
     0
281
     1
  0
CLASS
  1
HATCH
  2
AcDbHatch
  3
AutoCAD 2000
 90
    32768
280
     0
281
     1
  0
CLASS
  1
XRECORD
  2
AcDbXrecord
  3
AutoCAD 2000
 90
    32768
280
     0
281
     0
  0
CLASS
  1
LONG_TRANSACTION
  2
AcDbLongTransaction
  3
AutoCAD 2000
 90
    32768
280
     0
281
     0
  0
CLASS
  1
LWPOLYLINE
  2
AcDbPolyline
  3
AutoCAD 2000
 90
    32768
280
     0
281
     1
  0
CLASS
  1
HATCH
  2
AcDbHatch
  3
AutoCAD 2000
 90
    32768
280
     0
281
     1
  0
CLASS
  1
XRECORD
  2
AcDbXrecord
  3
AutoCAD 2000
 90
    32768
280
     0
281
     0
  0
CLASS
  1
LONG_TRANSACTION
  2
AcDbLongTransaction
  3
AutoCAD 2000
 90
    32768
280
     0
281
     0
  0
CLASS
  1
LWPOLYLINE
  2
AcDbPolyline
  3
AutoCAD 2000
 90
    32768
280
     0
281
     1
  0
CLASS
  1
HATCH
  2
AcDbHatch
  3
AutoCAD 2000
 90
    32768
280
     0
281
     1
  0
CLASS
  1
XRECORD
  2
AcDbXrecord
  3
AutoCAD 2000
 90
    32768
280
     0
281
     0
  0
CLASS
  1
LONG_TRANSACTION
  2
AcDbLongTransaction
  3
AutoCAD 2000
 90
    32768
280
     0
281
     0
  0
CLASS
  1
LWPOLYLINE
  2
AcDbPolyline
  3
AutoCAD 2000
 90
    32768
280
     0
281
     1
  0
CLASS
  1
HATCH
  2
AcDbHatch
  3
AutoCAD 2000
 90
    32768
280
     0
281
     1
  0
CLASS
  1
XRECORD
  2
AcDbXrecord
  3
AutoCAD 2000
 90
    32768
280
     0
281
     0
  0
CLASS
  1
LONG_TRANSACTION
  2
AcDbLongTransaction
  3
AutoCAD 2000
 90
    32768
280
     0
281
     0
  0
CLASS
  1
LWPOLYLINE
  2
AcDbPolyline
  3
AutoCAD 2000
 90
    32768
280
     0
281
     1
  0
CLASS
  1
HATCH
  2
AcDbHatch
  3
AutoCAD 2000
 90
    32768
280
     0
281
     1
  0
CLASS
  1
XRECORD
  2
AcDbXrecord
  3
AutoCAD 2000
 90
    32768
280
     0
281
     0
  0
CLASS
  1
LONG_TRANSACTION
  2
AcDbLongTransaction
  3
AutoCAD 2000
 90
    32768
280
     0
281
     0
  0
CLASS
  1
LWPOLYLINE
  2
AcDbPolyline
  3
AutoCAD 2000
 90
    32768
280
     0
281
     1
  0
CLASS
  1
HATCH
  2
AcDbHatch
  3
AutoCAD 2000
 90
    32768
280
     0
281
     1
  0
CLASS
  1
XRECORD
  2
AcDbXrecord
  3
AutoCAD 2000
 90
    32768
280
     0
281
     0
  0
CLASS
  1
LONG_TRANSACTION
  2
AcDbLongTransaction
  3
AutoCAD 2000
 90
    32768
280
     0
281
     0
  0
CLASS
  1
LWPOLYLINE
  2
AcDbPolyline
  3
AutoCAD 2000
 90
    32768
280
     0
281
     1
  0
CLASS
  1
HATCH
  2
AcDbHatch
  3
AutoCAD 2000
 90
    32768
280
     0
281
     1
  0
CLASS
  1
XRECORD
  2
AcDbXrecord
  3
AutoCAD 2000
 90
    32768
280
     0
281
     0
  0
CLASS
  1
LONG_TRANSACTION
  2
AcDbLongTransaction
  3
AutoCAD 2000
 90
    32768
280
     0
281
     0
  0
CLASS
  1
LWPOLYLINE
  2
AcDbPolyline
  3
AutoCAD 2000
 90
    32768
280
     0
281
     1
  0
CLASS
  1
HATCH
  2
AcDbHatch
  3
AutoCAD 2000
 90
    32768
280
     0
281
     1
  0
CLASS
  1
XRECORD
  2
AcDbXrecord
  3
AutoCAD 2000
 90
    32768
280
     0
281
     0
  0
CLASS
  1
LONG_TRANSACTION
  2
AcDbLongTransaction
  3
AutoCAD 2000
 90
    32768
280
     0
281
     0
  0
CLASS
  1
LWPOLYLINE
  2
AcDbPolyline
  3
AutoCAD 2000
 90
    32768
280
     0
281
     1
  0
CLASS
  1
HATCH
  2
AcDbHatch
  3
AutoCAD 2000
 90
    32768
280
     0
281
     1
  0
CLASS
  1
XRECORD
  2
AcDbXrecord
  3
AutoCAD 2000
 90
    32768
280
     0
281
     0
  0
CLASS
  1
LONG_TRANSACTION
  2
AcDbLongTransaction
  3
AutoCAD 2000
 90
    32768
280
     0
281
     0
  0
CLASS
  1
LWPOLYLINE
  2
AcDbPolyline
  3
AutoCAD 2000
 90
    32768
280
     0
281
     1
  0
CLASS
  1
HATCH
  2
AcDbHatch
  3
AutoCAD 2000
 90
    32768
280
     0
281
     1
  0
CLASS
  1
XRECORD
  2
AcDbXrecord
  3
AutoCAD 2000
 90
    32768
280
     0
281
     0
  0
CLASS
  1
LONG_TRANSACTION
  2
AcDbLongTransaction
  3
AutoCAD 2000
 90
    32768
280
     0
281
     0
  0
CLASS
  1
LWPOLYLINE
  2
AcDbPolyline
  3
AutoCAD 2000
 90
    32768
280
     0
281
     1
  0
CLASS
  1
HATCH
  2
AcDbHatch
  3
AutoCAD 2000
 90
    32768
280
     0
281
     1
  0
CLASS
  1
XRECORD
  2
AcDbXrecord
  3
AutoCAD 2000
 90
    32768
280
     0
281
     0
  0
CLASS
  1
LONG_TRANSACTION
  2
AcDbLongTransaction
  3
AutoCAD 2000
 90
    32768
280
     0
281
     0
  0
CLASS
  1
LWPOLYLINE
  2
AcDbPolyline
  3
AutoCAD 2000
 90
    32768
280
     0
281
     1
  0
CLASS
  1
HATCH
  2
AcDbHatch
  3
AutoCAD 2000
 90
    32768
280
     0
281
     1
  0
CLASS
  1
XRECORD
  2
AcDbXrecord
  3
AutoCAD 2000
 90
    32768
280
     0
281
     0
  0
CLASS
  1
LONG_TRANSACTION
  2
AcDbLongTransaction
  3
AutoCAD 2000
 90
    32768
280
     0
281
     0
  0
CLASS
  1
LWPOLYLINE
  2
AcDbPolyline
  3
AutoCAD 2000
 90
    32768
280
     0
281
     1
  0
CLASS
  1
HATCH
  2
AcDbHatch
  3
AutoCAD 2000
 90
    32768
280
     0
281
     1
  0
CLASS
  1
XRECORD
  2
AcDbXrecord
  3
AutoCAD 2000
 90
    32768
280
     0
281
     0
  0
CLASS
  1
DICTIONARYVAR
  2
AcDbDictionaryVar
  3
AutoCAD 2000
 90
        0
280
     0
281
     0
  0
CLASS
  1
LONG_TRANSACTION
  2
AcDbLongTransaction
  3
AutoCAD 2000
 90
    32768
280
     0
281
     0
  0
CLASS
  1
LWPOLYLINE
  2
AcDbPolyline
  3
AutoCAD 2000
 90
    32768
280
     0
281
     1
  0
CLASS
  1
HATCH
  2
AcDbHatch
  3
AutoCAD 2000
 90
    32768
280
     0
281
     1
  0
CLASS
  1
XRECORD
  2
AcDbXrecord
  3
AutoCAD 2000
 90
    32768
280
     0
281
     0
  0
CLASS
  1
LONG_TRANSACTION
  2
AcDbLongTransaction
  3
AutoCAD 2000
 90
    32768
280
     0
281
     0
  0
CLASS
  1
LWPOLYLINE
  2
AcDbPolyline
  3
AutoCAD 2000
 90
    32768
280
     0
281
     1
  0
CLASS
  1
HATCH
  2
AcDbHatch
  3
AutoCAD 2000
 90
    32768
280
     0
281
     1
  0
CLASS
  1
XRECORD
  2
AcDbXrecord
  3
AutoCAD 2000
 90
    32768
280
     0
281
     0
  0
CLASS
  1
LONG_TRANSACTION
  2
AcDbLongTransaction
  3
AutoCAD 2000
 90
    32768
280
     0
281
     0
  0
CLASS
  1
LWPOLYLINE
  2
AcDbPolyline
  3
AutoCAD 2000
 90
    32768
280
     0
281
     1
  0
CLASS
  1
HATCH
  2
AcDbHatch
  3
AutoCAD 2000
 90
    32768
280
     0
281
     1
  0
CLASS
  1
XRECORD
  2
AcDbXrecord
  3
AutoCAD 2000
 90
    32768
280
     0
281
     0
  0
CLASS
  1
LONG_TRANSACTION
  2
AcDbLongTransaction
  3
AutoCAD 2000
 90
    32768
280
     0
281
     0
  0
CLASS
  1
LWPOLYLINE
  2
AcDbPolyline
  3
AutoCAD 2000
 90
    32768
280
     0
281
     1
  0
CLASS
  1
HATCH
  2
AcDbHatch
  3
AutoCAD 2000
 90
    32768
280
     0
281
     1
  0
CLASS
  1
XRECORD
  2
AcDbXrecord
  3
AutoCAD 2000
 90
    32768
280
     0
281
     0
  0
CLASS
  1
LONG_TRANSACTION
  2
AcDbLongTransaction
  3
AutoCAD 2000
 90
    32768
280
     0
281
     0
  0
CLASS
  1
LWPOLYLINE
  2
AcDbPolyline
  3
AutoCAD 2000
 90
    32768
280
     0
281
     1
  0
CLASS
  1
HATCH
  2
AcDbHatch
  3
AutoCAD 2000
 90
    32768
280
     0
281
     1
  0
CLASS
  1
XRECORD
  2
AcDbXrecord
  3
AutoCAD 2000
 90
    32768
280
     0
281
     0
  0
ENDSEC
  0
SECTION
  2
TABLES
  0
TABLE
  2
VPORT
  5
8
330
0
100
AcDbSymbolTable
 70
     2
  0
VPORT
  5
9453
330
8
100
AcDbSymbolTableRecord
100
AcDbViewportTableRecord
  2
*Active
 70
     0
 10
0.0
 20
0.0
 11
1.0
 21
1.0
 12
259.3001951523407
 22
231.1350692426785
 13
0.0
 23
0.0
 14
1.0
 24
1.0
 15
10.0
 25
10.0
 16
0.0
 26
0.0
 36
1.0
 17
0.0
 27
0.0
 37
0.0
 40
66.37186995376305
 41
1.700716845878136
 42
50.0
 43
0.0
 44
0.0
 50
0.0
 51
0.0
 71
     0
 72
   100
 73
     1
 74
     1
 75
     0
 76
     0
 77
     0
 78
     0
281
     0
 65
     1
110
0.0
120
0.0
130
0.0
111
1.0
121
0.0
131
0.0
112
0.0
122
1.0
132
0.0
 79
     0
146
0.0
  0
ENDTAB
  0
TABLE
  2
LTYPE
  5
5
330
0
100
AcDbSymbolTable
 70
     4
  0
LTYPE
  5
13
330
5
100
AcDbSymbolTableRecord
100
AcDbLinetypeTableRecord
  2
BYBLOCK
 70
     0
  3

 72
    65
 73
     0
 40
0.0
  0
LTYPE
  5
14
330
5
100
AcDbSymbolTableRecord
100
AcDbLinetypeTableRecord
  2
BYLAYER
 70
     0
  3

 72
    65
 73
     0
 40
0.0
  0
LTYPE
  5
15
330
5
100
AcDbSymbolTableRecord
100
AcDbLinetypeTableRecord
  2
CONTINUOUS
 70
     0
  3
Solid line
 72
    65
 73
     0
 40
0.0
  0
LTYPE
  5
22
330
5
100
AcDbSymbolTableRecord
100
AcDbLinetypeTableRecord
  2
CONTINOUS
 70
     0
  3
Solid line
 72
    65
 73
     0
 40
0.0
  0
LTYPE
  5
24
330
5
100
AcDbSymbolTableRecord
100
AcDbLinetypeTableRecord
  2
DASHDOT
 70
     0
  3
__ . __ . __ . __ . __ . __ . __ . __ . __ . __
 72
    65
 73
     4
 40
1.0
 49
0.5
 74
     0
 49
-0.25
 74
     0
 49
0.0
 74
     0
 49
-0.25
 74
     0
  0
LTYPE
  5
429E
330
5
100
AcDbSymbolTableRecord
100
AcDbLinetypeTableRecord
  2
DIVIDE
 70
     0
  3
Divide ____ . . ____ . . ____ . . ____ . . ____
 72
    65
 73
     6
 40
1.25
 49
0.5
 74
     0
 49
-0.25
 74
     0
 49
0.0
 74
     0
 49
-0.25
 74
     0
 49
0.0
 74
     0
 49
-0.25
 74
     0
  0
ENDTAB
  0
TABLE
  2
LAYER
  5
2
330
0
100
AcDbSymbolTable
 70
    11
  0
LAYER
  5
10
330
2
100
AcDbSymbolTableRecord
100
AcDbLayerTableRecord
  2
0
 70
     0
 62
     7
  6
CONTINOUS
370
    -3
390
F
  0
LAYER
  5
2F
330
2
100
AcDbSymbolTableRecord
100
AcDbLayerTableRecord
  2
10
 70
     0
 62
     4
  6
CONTINOUS
370
    -3
390
F
  0
LAYER
  5
31
330
2
100
AcDbSymbolTableRecord
100
AcDbLayerTableRecord
  2
12
 70
     0
 62
     3
  6
CONTINOUS
370
    -3
390
F
  0
LAYER
  5
35
330
2
100
AcDbSymbolTableRecord
100
AcDbLayerTableRecord
  2
16
 70
     0
 62
     6
  6
DASHDOT
370
    -3
390
F
  0
LAYER
  5
36
330
2
100
AcDbSymbolTableRecord
100
AcDbLayerTableRecord
  2
17
 70
     0
 62
     2
  6
DASHDOT
370
    -3
390
F
  0
LAYER
  5
3D
330
2
100
AcDbSymbolTableRecord
100
AcDbLayerTableRecord
  2
24
 70
     0
 62
     2
  6
CONTINOUS
370
    -3
390
F
  0
LAYER
  5
3A2
330
2
100
AcDbSymbolTableRecord
100
AcDbLayerTableRecord
  2
30
 70
     0
 62
     9
  6
CONTINUOUS
370
    -3
390
F
  0
LAYER
  5
3A4
330
2
100
AcDbSymbolTableRecord
100
AcDbLayerTableRecord
  2
DEFPOINTS
 70
     0
 62
     7
  6
CONTINUOUS
290
     0
370
    -3
390
F
  0
LAYER
  5
3BBA
330
2
100
AcDbSymbolTableRecord
100
AcDbLayerTableRecord
  2
18
 70
     0
 62
     5
  6
DIVIDE
370
    -3
390
F
  0
LAYER
  5
3BBB
330
2
100
AcDbSymbolTableRecord
100
AcDbLayerTableRecord
  2
21
 70
     0
 62
     7
  6
CONTINUOUS
370
    -3
390
F
  0
LAYER
  5
40E3
330
2
100
AcDbSymbolTableRecord
100
AcDbLayerTableRecord
  2
22
 70
     0
 62
     3
  6
CONTINUOUS
370
    -3
390
F
  0
ENDTAB
  0
TABLE
  2
STYLE
  5
3
330
0
100
AcDbSymbolTable
 70
     4
  0
STYLE
  5
11
330
3
100
AcDbSymbolTableRecord
100
AcDbTextStyleTableRecord
  2
STANDARD
 70
     0
 40
0.0
 41
1.0
 50
0.0
 71
     0
 42
2.0
  3
txt.shx
  4
bigfont.shx
  0
STYLE
  5
42
330
3
100
AcDbSymbolTableRecord
100
AcDbTextStyleTableRecord
  2
STANDARD1
 70
     0
 40
0.0
 41
1.0
 50
0.0
 71
     0
 42
5.0
  3
MONOTXT
  4
BIGFONT
  0
STYLE
  5
5CC0
330
3
100
AcDbSymbolTableRecord
100
AcDbTextStyleTableRecord
  2
SMP-SET
 70
     0
 40
0.0
 41
1.0
 50
0.0
 71
     0
 42
3.0
  3
SIMPLEX
  4
BIGFONT
  0
STYLE
  5
93DB
330
3
100
AcDbSymbolTableRecord
100
AcDbTextStyleTableRecord
  2
UGMTXT
 70
     0
 40
0.0
 41
1.0
 50
0.0
 71
     0
 42
0.2
  3
ugmtxt
  4
bigfont
  0
ENDTAB
  0
TABLE
  2
VIEW
  5
6
330
0
100
AcDbSymbolTable
 70
     5
  0
VIEW
  5
230C
330
6
100
AcDbSymbolTableRecord
100
AcDbViewTableRecord
  2
OLE1
 70
     0
 40
148.9124878027714
 10
429.4976280407222
 20
2.560626997828478
 41
103.1458057716444
 11
0.0
 21
0.0
 31
1.0
 12
0.0
 22
0.0
 32
0.0
 42
50.0
 43
0.0
 44
0.0
 50
0.0
 71
     0
281
     0
 72
     0
  0
VIEW
  5
230E
330
6
100
AcDbSymbolTableRecord
100
AcDbViewTableRecord
  2
OLE2
 70
     0
 40
170.7786920545775
 10
322.664969958371
 20
-5.978304054290276
 41
102.4672152327465
 11
0.0
 21
0.0
 31
1.0
 12
0.0
 22
0.0
 32
0.0
 42
50.0
 43
0.0
 44
0.0
 50
0.0
 71
     0
281
     0
 72
     0
  0
VIEW
  5
23AA
330
6
100
AcDbSymbolTableRecord
100
AcDbViewTableRecord
  2
OLE3
 70
     0
 40
591.7897393182231
 10
84.79698158148218
 20
-46.09336010803995
 41
388.7920961799953
 11
0.0
 21
0.0
 31
1.0
 12
0.0
 22
0.0
 32
0.0
 42
50.0
 43
0.0
 44
0.0
 50
0.0
 71
     0
281
     0
 72
     0
  0
VIEW
  5
4402
330
6
100
AcDbSymbolTableRecord
100
AcDbViewTableRecord
  2
OLE4
 70
     0
 40
151.7917771380923
 10
15.38766885376364
 20
-193.752550173716
 41
398.5527551557765
 11
0.0
 21
0.0
 31
1.0
 12
0.0
 22
0.0
 32
0.0
 42
50.0
 43
0.0
 44
0.0
 50
0.0
 71
     0
281
     0
 72
     0
  0
VIEW
  5
8D79
330
6
100
AcDbSymbolTableRecord
100
AcDbViewTableRecord
  2
OLE5
 70
     0
 40
473.0465752437631
 10
40.72308557678552
 20
-190.6885064073368
 41
1018.166770320803
 11
0.0
 21
0.0
 31
1.0
 12
0.0
 22
0.0
 32
0.0
 42
50.0
 43
0.0
 44
0.0
 50
0.0
 71
     0
281
     0
 72
     0
  0
ENDTAB
  0
TABLE
  2
UCS
  5
7
330
0
100
AcDbSymbolTable
 70
     0
  0
ENDTAB
  0
TABLE
  2
APPID
  5
9
330
0
100
AcDbSymbolTable
 70
     2
  0
APPID
  5
12
330
9
100
AcDbSymbolTableRecord
100
AcDbRegAppTableRecord
  2
ACAD
 70
     0
  0
APPID
  5
ECD
330
9
100
AcDbSymbolTableRecord
100
AcDbRegAppTableRecord
  2
CONTENTBLOCKICON
 70
     0
  0
ENDTAB
  0
TABLE
  2
DIMSTYLE
  5
A
330
0
100
AcDbSymbolTable
 70
     1
100
AcDbDimStyleTable
 71
     0
  0
DIMSTYLE
105
175
102
{ACAD_REACTORS
330
8393
330
81A8
330
85E9
330
85DF
330
85DE
330
85E2
330
85DA
330
85D9
330
85DB
330
8618
330
85D6
330
85D8
330
87F5
330
81CA
330
883C
330
8852
330
885F
330
8D3E
330
8D63
330
9297
330
9301
330
931B
330
85F0
330
93E8
102
}
330
A
100
AcDbSymbolTableRecord
100
AcDbDimStyleTableRecord
  2
STANDARD
 70
     0
 41
2.0
 42
1.0
 43
0.5
 44
0.5
 73
     0
 74
     0
 77
     3
 78
    12
140
4.0
147
1.0
271
     1
272
     1
340
11
341
3B2
342
3B2
  0
ENDTAB
  0
TABLE
  2
BLOCK_RECORD
  5
1
330
0
100
AcDbSymbolTable
 70
    26
  0
BLOCK_RECORD
  5
1E
102
{ACAD_XDICTIONARY
360
178
102
}
330
1
100
AcDbSymbolTableRecord
100
AcDbBlockTableRecord
  2
*MODEL_SPACE
340
9445
  0
BLOCK_RECORD
  5
1A
102
{ACAD_XDICTIONARY
360
17A
102
}
330
1
100
AcDbSymbolTableRecord
100
AcDbBlockTableRecord
  2
*PAPER_SPACE
340
9446
  0
BLOCK_RECORD
  5
3B2
330
1
100
AcDbSymbolTableRecord
100
AcDbBlockTableRecord
  2
_OPEN
340
0
102
{BLKREFS
331
9393
331
9394
331
9401
331
9402
331
9366
331
9367
331
9355
331
9356
331
8BFB
331
8BFC
331
8BF2
331
8BF3
331
8D01
331
8D02
331
8D0A
331
8D0B
331
8D1D
331
8D1E
331
8CE6
331
8CE7
331
8CEF
331
8CF0
331
8D13
331
8D14
331
8D38
331
8D39
331
9334
331
9335
331
942F
331
9430
331
938A
331
938B
331
9381
331
9382
331
93F8
331
93F9
331
8D4E
331
8D4F
331
8D73
331
8D74
331
93AF
331
93B0
331
9438
331
9439
331
93A6
331
93A7
102
}
  0
BLOCK_RECORD
  5
8264
330
1
100
AcDbSymbolTableRecord
100
AcDbBlockTableRecord
  2
*D1
340
0
  0
BLOCK_RECORD
  5
8270
330
1
100
AcDbSymbolTableRecord
100
AcDbBlockTableRecord
  2
*D2
340
0
  0
BLOCK_RECORD
  5
83B8
330
1
100
AcDbSymbolTableRecord
100
AcDbBlockTableRecord
  2
*D3
340
0
  0
BLOCK_RECORD
  5
861D
330
1
100
AcDbSymbolTableRecord
100
AcDbBlockTableRecord
  2
*D4
340
0
  0
BLOCK_RECORD
  5
862A
330
1
100
AcDbSymbolTableRecord
100
AcDbBlockTableRecord
  2
*D5
340
0
  0
BLOCK_RECORD
  5
8636
330
1
100
AcDbSymbolTableRecord
100
AcDbBlockTableRecord
  2
*D6
340
0
  0
BLOCK_RECORD
  5
8642
330
1
100
AcDbSymbolTableRecord
100
AcDbBlockTableRecord
  2
*D7
340
0
  0
BLOCK_RECORD
  5
864E
330
1
100
AcDbSymbolTableRecord
100
AcDbBlockTableRecord
  2
*D8
340
0
  0
BLOCK_RECORD
  5
865A
330
1
100
AcDbSymbolTableRecord
100
AcDbBlockTableRecord
  2
*D9
340
0
  0
BLOCK_RECORD
  5
8667
330
1
100
AcDbSymbolTableRecord
100
AcDbBlockTableRecord
  2
*D10
340
0
  0
BLOCK_RECORD
  5
8673
330
1
100
AcDbSymbolTableRecord
100
AcDbBlockTableRecord
  2
*D11
340
0
  0
BLOCK_RECORD
  5
867F
330
1
100
AcDbSymbolTableRecord
100
AcDbBlockTableRecord
  2
*D12
340
0
  0
BLOCK_RECORD
  5
868B
330
1
100
AcDbSymbolTableRecord
100
AcDbBlockTableRecord
  2
*D13
340
0
  0
BLOCK_RECORD
  5
8697
330
1
100
AcDbSymbolTableRecord
100
AcDbBlockTableRecord
  2
*D14
340
0
  0
BLOCK_RECORD
  5
87F6
330
1
100
AcDbSymbolTableRecord
100
AcDbBlockTableRecord
  2
*D15
340
0
  0
BLOCK_RECORD
  5
883D
330
1
100
AcDbSymbolTableRecord
100
AcDbBlockTableRecord
  2
*D16
340
0
  0
BLOCK_RECORD
  5
8853
330
1
100
AcDbSymbolTableRecord
100
AcDbBlockTableRecord
  2
*D17
340
0
  0
BLOCK_RECORD
  5
8860
330
1
100
AcDbSymbolTableRecord
100
AcDbBlockTableRecord
  2
*D18
340
0
  0
BLOCK_RECORD
  5
8D3F
330
1
100
AcDbSymbolTableRecord
100
AcDbBlockTableRecord
  2
*D19
340
0
  0
BLOCK_RECORD
  5
8D64
330
1
100
AcDbSymbolTableRecord
100
AcDbBlockTableRecord
  2
*D20
340
0
  0
BLOCK_RECORD
  5
92AF
330
1
100
AcDbSymbolTableRecord
100
AcDbBlockTableRecord
  2
*D21
340
0
  0
BLOCK_RECORD
  5
9302
330
1
100
AcDbSymbolTableRecord
100
AcDbBlockTableRecord
  2
*D22
340
0
  0
BLOCK_RECORD
  5
931C
330
1
100
AcDbSymbolTableRecord
100
AcDbBlockTableRecord
  2
*D23
340
0
  0
BLOCK_RECORD
  5
93CE
330
1
100
AcDbSymbolTableRecord
100
AcDbBlockTableRecord
  2
*D24
340
0
  0
BLOCK_RECORD
  5
93DC
330
1
100
AcDbSymbolTableRecord
100
AcDbBlockTableRecord
  2
A$C29012A4E
340
0
  0
ENDTAB
  0
ENDSEC
  0
SECTION
  2
BLOCKS
  0
BLOCK
  5
1F
330
1E
100
AcDbEntity
  8
0
100
AcDbBlockBegin
  2
*MODEL_SPACE
 70
     0
 10
0.0
 20
0.0
 30
0.0
  3
*MODEL_SPACE
  1

  0
ENDBLK
  5
20
330
1E
100
AcDbEntity
  8
0
100
AcDbBlockEnd
  0
BLOCK
  5
1B
330
1A
100
AcDbEntity
 67
     1
  8
0
100
AcDbBlockBegin
  2
*PAPER_SPACE
 70
     0
 10
0.0
 20
0.0
 30
0.0
  3
*PAPER_SPACE
  1

  0
ENDBLK
  5
1C
330
1A
100
AcDbEntity
 67
     1
  8
0
100
AcDbBlockEnd
  0
BLOCK
  5
3B6
330
3B2
100
AcDbEntity
  8
0
100
AcDbBlockBegin
  2
_OPEN
 70
     0
 10
0.0
 20
0.0
 30
0.0
  3
_OPEN
  1

  0
LINE
  5
3B3
330
3B2
100
AcDbEntity
  8
30
  6
Continuous
 62
     0
100
AcDbLine
 10
-1.0
 20
0.1666666666666666
 30
0.0
 11
0.0
 21
0.0
 31
0.0
  0
LINE
  5
3B4
330
3B2
100
AcDbEntity
  8
30
  6
Continuous
 62
     0
100
AcDbLine
 10
-1.0
 20
-0.1666666666666666
 30
0.0
 11
0.0
 21
0.0
 31
0.0
  0
LINE
  5
3B5
330
3B2
100
AcDbEntity
  8
30
  6
Continuous
 62
     0
100
AcDbLine
 10
0.0
 20
0.0
 30
0.0
 11
-1.0
 21
0.0
 31
0.0
  0
ENDBLK
  5
3B7
330
3B2
100
AcDbEntity
  8
0
100
AcDbBlockEnd
  0
BLOCK
  5
826E
330
8264
100
AcDbEntity
  8
0
100
AcDbBlockBegin
  2
*D1
 70
     1
 10
0.0
 20
0.0
 30
0.0
  3
*D1
  1

  0
LINE
  5
9390
330
8264
100
AcDbEntity
  8
30
 62
     0
100
AcDbLine
 10
-15.0
 20
-78.5
 30
0.0
 11
-15.0
 21
-95.55260904743505
 31
0.0
  0
LINE
  5
9391
330
8264
100
AcDbEntity
  8
30
 62
     0
100
AcDbLine
 10
45.00000000000002
 20
-78.5
 30
0.0
 11
45.00000000000002
 21
-95.55260904743505
 31
0.0
  0
LINE
  5
9392
330
8264
100
AcDbEntity
  8
30
 62
     0
100
AcDbLine
 10
-13.0
 20
-95.05260904743506
 30
0.0
 11
43.00000000000003
 21
-95.05260904743506
 31
0.0
  0
INSERT
  5
9393
330
8264
100
AcDbEntity
  8
30
 62
     0
100
AcDbBlockReference
  2
_OPEN
 10
-15.0
 20
-95.05260904743506
 30
0.0
 41
2.0
 42
2.0
 43
2.0
 50
180.0
  0
INSERT
  5
9394
330
8264
100
AcDbEntity
  8
30
 62
     0
100
AcDbBlockReference
  2
_OPEN
 10
45.00000000000002
 20
-95.05260904743506
 30
0.0
 41
2.0
 42
2.0
 43
2.0
  0
MTEXT
  5
9395
330
8264
100
AcDbEntity
  8
30
 62
     0
100
AcDbMText
 10
15.0
 20
-92.05260904743502
 30
0.0
 40
4.0
 41
0.0
 71
     5
 72
     1
  1
\A1;60
 73
     1
 44
1.0
1001
ACAD
1000
MTEXTBEGIN
1070
    73
1070
     1
1070
    44
1040
1.0
1070
    74
1070
     0
1000
MTEXTEND
  0
POINT
  5
9396
330
8264
100
AcDbEntity
  8
DEFPOINTS
 62
     0
100
AcDbPoint
 10
-15.0
 20
-77.5
 30
0.0
  0
POINT
  5
9397
330
8264
100
AcDbEntity
  8
DEFPOINTS
 62
     0
100
AcDbPoint
 10
45.00000000000002
 20
-77.5
 30
0.0
  0
POINT
  5
9398
330
8264
100
AcDbEntity
  8
DEFPOINTS
 62
     0
100
AcDbPoint
 10
45.00000000000002
 20
-95.05260904743506
 30
0.0
  0
ENDBLK
  5
826F
330
8264
100
AcDbEntity
  8
0
100
AcDbBlockEnd
  0
BLOCK
  5
827A
330
8270
100
AcDbEntity
  8
0
100
AcDbBlockBegin
  2
*D2
 70
     1
 10
0.0
 20
0.0
 30
0.0
  3
*D2
  1

  0
LINE
  5
93FE
330
8270
100
AcDbEntity
  8
30
 62
     0
100
AcDbLine
 10
-12.5
 20
25.99999999999996
 30
0.0
 11
-12.5
 21
33.09950840068008
 31
0.0
  0
LINE
  5
93FF
330
8270
100
AcDbEntity
  8
30
 62
     0
100
AcDbLine
 10
42.50000000000002
 20
25.99999999999996
 30
0.0
 11
42.50000000000002
 21
33.09950840068008
 31
0.0
  0
LINE
  5
9400
330
8270
100
AcDbEntity
  8
30
 62
     0
100
AcDbLine
 10
-10.5
 20
32.59950840068007
 30
0.0
 11
40.50000000000003
 21
32.59950840068007
 31
0.0
  0
INSERT
  5
9401
330
8270
100
AcDbEntity
  8
30
 62
     0
100
AcDbBlockReference
  2
_OPEN
 10
-12.5
 20
32.59950840068007
 30
0.0
 41
2.0
 42
2.0
 43
2.0
 50
180.0
  0
INSERT
  5
9402
330
8270
100
AcDbEntity
  8
30
 62
     0
100
AcDbBlockReference
  2
_OPEN
 10
42.50000000000002
 20
32.59950840068007
 30
0.0
 41
2.0
 42
2.0
 43
2.0
  0
MTEXT
  5
9403
330
8270
100
AcDbEntity
  8
30
 62
     0
100
AcDbMText
 10
15.0
 20
35.59950840068009
 30
0.0
 40
4.0
 41
0.0
 71
     5
 72
     1
  1
\A1;55
 73
     1
 44
1.0
1001
ACAD
1000
MTEXTBEGIN
1070
    73
1070
     1
1070
    44
1040
1.0
1070
    74
1070
     0
1000
MTEXTEND
  0
POINT
  5
9404
330
8270
100
AcDbEntity
  8
DEFPOINTS
 62
     0
100
AcDbPoint
 10
-12.5
 20
24.99999999999996
 30
0.0
  0
POINT
  5
9405
330
8270
100
AcDbEntity
  8
DEFPOINTS
 62
     0
100
AcDbPoint
 10
42.50000000000002
 20
24.99999999999996
 30
0.0
  0
POINT
  5
9406
330
8270
100
AcDbEntity
  8
DEFPOINTS
 62
     0
100
AcDbPoint
 10
42.50000000000002
 20
32.59950840068007
 30
0.0
  0
ENDBLK
  5
827B
330
8270
100
AcDbEntity
  8
0
100
AcDbBlockEnd
  0
BLOCK
  5
83C2
330
83B8
100
AcDbEntity
  8
0
100
AcDbBlockBegin
  2
*D3
 70
     1
 10
0.0
 20
0.0
 30
0.0
  3
*D3
  1

  0
LINE
  5
9363
330
83B8
100
AcDbEntity
  8
30
 62
     0
100
AcDbLine
 10
18.00000000000011
 20
210.8811670622456
 30
0.0
 11
72.82358783816857
 21
210.8811670622456
 31
0.0
  0
LINE
  5
9364
330
83B8
100
AcDbEntity
  8
30
 62
     0
100
AcDbLine
 10
48.73686534538001
 20
202.8811670622455
 30
0.0
 11
72.82358783816857
 21
202.8811670622455
 31
0.0
  0
LINE
  5
9365
330
83B8
100
AcDbEntity
  8
30
 62
     0
100
AcDbLine
 10
72.32358783816858
 20
208.8811670622454
 30
0.0
 11
72.32358783816858
 21
204.8811670622455
 31
0.0
  0
INSERT
  5
9366
330
83B8
100
AcDbEntity
  8
30
 62
     0
100
AcDbBlockReference
  2
_OPEN
 10
72.32358783816858
 20
210.8811670622456
 30
0.0
 41
2.0
 42
2.0
 43
2.0
 50
90.0
  0
INSERT
  5
9367
330
83B8
100
AcDbEntity
  8
30
 62
     0
100
AcDbBlockReference
  2
_OPEN
 10
72.32358783816858
 20
202.8811670622455
 30
0.0
 41
2.0
 42
2.0
 43
2.0
 50
270.0
  0
MTEXT
  5
9368
330
83B8
100
AcDbEntity
  8
30
 62
     0
100
AcDbMText
 10
69.32358783816855
 20
206.8811670622455
 30
0.0
 40
4.0
 41
0.0
 71
     5
 72
     1
  1
\A1;8
 11
0.0000000000000001
 21
1.0
 31
0.0
 73
     1
 44
1.0
1001
ACAD
1000
MTEXTBEGIN
1070
    73
1070
     1
1070
    44
1040
1.0
1070
    74
1070
     0
1000
MTEXTEND
  0
POINT
  5
9369
330
83B8
100
AcDbEntity
  8
DEFPOINTS
 62
     0
100
AcDbPoint
 10
17.00000000000011
 20
210.8811670622456
 30
0.0
  0
POINT
  5
936A
330
83B8
100
AcDbEntity
  8
DEFPOINTS
 62
     0
100
AcDbPoint
 10
47.73686534538001
 20
202.8811670622455
 30
0.0
  0
POINT
  5
936B
330
83B8
100
AcDbEntity
  8
DEFPOINTS
 62
     0
100
AcDbPoint
 10
72.32358783816858
 20
202.8811670622455
 30
0.0
  0
ENDBLK
  5
83C3
330
83B8
100
AcDbEntity
  8
0
100
AcDbBlockEnd
  0
BLOCK
  5
8628
330
861D
100
AcDbEntity
  8
0
100
AcDbBlockBegin
  2
*D4
 70
     1
 10
0.0
 20
0.0
 30
0.0
  3
*D4
  1

  0
LINE
  5
9350
330
861D
100
AcDbEntity
  8
30
 62
     0
100
AcDbLine
 10
325.0415450433536
 20
64.49999999999993
 30
0.0
 11
348.5191311370208
 21
64.49999999999993
 31
0.0
  0
LINE
  5
9351
330
861D
100
AcDbEntity
  8
30
 62
     0
100
AcDbLine
 10
325.0415450433536
 20
69.49999999999993
 30
0.0
 11
348.5191311370208
 21
69.49999999999993
 31
0.0
  0
LINE
  5
9352
330
861D
100
AcDbEntity
  8
30
 62
     0
100
AcDbLine
 10
348.0191311370207
 20
62.49999999999991
 30
0.0
 11
348.0191311370207
 21
60.4999999999999
 31
0.0
  0
LINE
  5
9353
330
861D
100
AcDbEntity
  8
30
 62
     0
100
AcDbLine
 10
348.0191311370207
 20
71.49999999999995
 30
0.0
 11
348.0191311370207
 21
78.16666666666661
 31
0.0
  0
LINE
  5
9354
330
861D
100
AcDbEntity
  8
30
 62
     0
100
AcDbLine
 10
348.0191311370207
 20
64.49999999999993
 30
0.0
 11
348.0191311370207
 21
69.49999999999993
 31
0.0
  0
INSERT
  5
9355
330
861D
100
AcDbEntity
  8
30
 62
     0
100
AcDbBlockReference
  2
_OPEN
 10
348.0191311370207
 20
64.49999999999993
 30
0.0
 41
2.0
 42
2.0
 43
2.0
 50
90.0
  0
INSERT
  5
9356
330
861D
100
AcDbEntity
  8
30
 62
     0
100
AcDbBlockReference
  2
_OPEN
 10
348.0191311370207
 20
69.49999999999993
 30
0.0
 41
2.0
 42
2.0
 43
2.0
 50
270.0
  0
MTEXT
  5
9357
330
861D
100
AcDbEntity
  8
30
 62
     0
100
AcDbMText
 10
345.0191311370208
 20
75.83333333333333
 30
0.0
 40
4.0
 41
0.0
 71
     5
 72
     1
  1
\A1;5
 11
0.0000000000000001
 21
1.0
 31
0.0
 73
     1
 44
1.0
1001
ACAD
1000
MTEXTBEGIN
1070
    73
1070
     1
1070
    44
1040
1.0
1070
    74
1070
     0
1000
MTEXTEND
  0
POINT
  5
9358
330
861D
100
AcDbEntity
  8
DEFPOINTS
 62
     0
100
AcDbPoint
 10
324.0415450433536
 20
64.49999999999993
 30
0.0
  0
POINT
  5
9359
330
861D
100
AcDbEntity
  8
DEFPOINTS
 62
     0
100
AcDbPoint
 10
324.0415450433536
 20
69.49999999999993
 30
0.0
  0
POINT
  5
935A
330
861D
100
AcDbEntity
  8
DEFPOINTS
 62
     0
100
AcDbPoint
 10
348.0191311370207
 20
69.49999999999993
 30
0.0
  0
ENDBLK
  5
8629
330
861D
100
AcDbEntity
  8
0
100
AcDbBlockEnd
  0
BLOCK
  5
8634
330
862A
100
AcDbEntity
  8
0
100
AcDbBlockBegin
  2
*D5
 70
     1
 10
0.0
 20
0.0
 30
0.0
  3
*D5
  1

  0
LINE
  5
8BF8
330
862A
100
AcDbEntity
  8
30
 62
     0
100
AcDbLine
 10
322.8979515039046
 20
-75.0
 30
0.0
 11
348.6282675361418
 21
-75.0
 31
0.0
  0
LINE
  5
8BF9
330
862A
100
AcDbEntity
  8
30
 62
     0
100
AcDbLine
 10
322.8979515039046
 20
-59.00000000000003
 30
0.0
 11
348.6282675361418
 21
-59.00000000000003
 31
0.0
  0
LINE
  5
8BFA
330
862A
100
AcDbEntity
  8
30
 62
     0
100
AcDbLine
 10
348.1282675361418
 20
-73.0
 30
0.0
 11
348.1282675361418
 21
-61.00000000000004
 31
0.0
  0
INSERT
  5
8BFB
330
862A
100
AcDbEntity
  8
30
 62
     0
100
AcDbBlockReference
  2
_OPEN
 10
348.1282675361418
 20
-75.0
 30
0.0
 41
2.0
 42
2.0
 43
2.0
 50
270.0
  0
INSERT
  5
8BFC
330
862A
100
AcDbEntity
  8
30
 62
     0
100
AcDbBlockReference
  2
_OPEN
 10
348.1282675361418
 20
-59.00000000000003
 30
0.0
 41
2.0
 42
2.0
 43
2.0
 50
90.0
  0
MTEXT
  5
8BFD
330
862A
100
AcDbEntity
  8
30
 62
     0
100
AcDbMText
 10
345.1282675361418
 20
-66.99999999999995
 30
0.0
 40
4.0
 41
0.0
 71
     5
 72
     1
  1
\A1;16
 11
0.0000000000000001
 21
1.0
 31
0.0
 73
     1
 44
1.0
1001
ACAD
1000
MTEXTBEGIN
1070
    73
1070
     1
1070
    44
1040
1.0
1070
    74
1070
     0
1000
MTEXTEND
  0
POINT
  5
8BFE
330
862A
100
AcDbEntity
  8
DEFPOINTS
 62
     0
100
AcDbPoint
 10
321.8979515039046
 20
-75.0
 30
0.0
  0
POINT
  5
8BFF
330
862A
100
AcDbEntity
  8
DEFPOINTS
 62
     0
100
AcDbPoint
 10
321.8979515039046
 20
-59.00000000000003
 30
0.0
  0
POINT
  5
8C00
330
862A
100
AcDbEntity
  8
DEFPOINTS
 62
     0
100
AcDbPoint
 10
348.1282675361418
 20
-59.00000000000003
 30
0.0
  0
ENDBLK
  5
8635
330
862A
100
AcDbEntity
  8
0
100
AcDbBlockEnd
  0
BLOCK
  5
8640
330
8636
100
AcDbEntity
  8
0
100
AcDbBlockBegin
  2
*D6
 70
     1
 10
0.0
 20
0.0
 30
0.0
  3
*D6
  1

  0
LINE
  5
8BEF
330
8636
100
AcDbEntity
  8
30
 62
     0
100
AcDbLine
 10
244.0415450433536
 20
-58.99999998350003
 30
0.0
 11
244.0415450433536
 21
-34.40049159931986
 31
0.0
  0
LINE
  5
8BF0
330
8636
100
AcDbEntity
  8
30
 62
     0
100
AcDbLine
 10
259.0415450433535
 20
-63.49999998350003
 30
0.0
 11
259.0415450433535
 21
-34.40049159931986
 31
0.0
  0
LINE
  5
8BF1
330
8636
100
AcDbEntity
  8
30
 62
     0
100
AcDbLine
 10
246.0415450433536
 20
-34.90049159931984
 30
0.0
 11
257.0415450433535
 21
-34.90049159931984
 31
0.0
  0
INSERT
  5
8BF2
330
8636
100
AcDbEntity
  8
30
 62
     0
100
AcDbBlockReference
  2
_OPEN
 10
244.0415450433536
 20
-34.90049159931984
 30
0.0
 41
2.0
 42
2.0
 43
2.0
 50
180.0
  0
INSERT
  5
8BF3
330
8636
100
AcDbEntity
  8
30
 62
     0
100
AcDbBlockReference
  2
_OPEN
 10
259.0415450433535
 20
-34.90049159931984
 30
0.0
 41
2.0
 42
2.0
 43
2.0
  0
MTEXT
  5
8BF4
330
8636
100
AcDbEntity
  8
30
 62
     0
100
AcDbMText
 10
251.5415450433534
 20
-31.90049159931985
 30
0.0
 40
4.0
 41
0.0
 71
     5
 72
     1
  1
\A1;15
 73
     1
 44
1.0
1001
ACAD
1000
MTEXTBEGIN
1070
    73
1070
     1
1070
    44
1040
1.0
1070
    74
1070
     0
1000
MTEXTEND
  0
POINT
  5
8BF5
330
8636
100
AcDbEntity
  8
DEFPOINTS
 62
     0
100
AcDbPoint
 10
244.0415450433536
 20
-59.99999998350003
 30
0.0
  0
POINT
  5
8BF6
330
8636
100
AcDbEntity
  8
DEFPOINTS
 62
     0
100
AcDbPoint
 10
259.0415450433535
 20
-64.49999998350003
 30
0.0
  0
POINT
  5
8BF7
330
8636
100
AcDbEntity
  8
DEFPOINTS
 62
     0
100
AcDbPoint
 10
259.0415450433535
 20
-34.90049159931984
 30
0.0
  0
ENDBLK
  5
8641
330
8636
100
AcDbEntity
  8
0
100
AcDbBlockEnd
  0
BLOCK
  5
864C
330
8642
100
AcDbEntity
  8
0
100
AcDbBlockBegin
  2
*D7
 70
     1
 10
0.0
 20
0.0
 30
0.0
  3
*D7
  1

  0
LINE
  5
8CFE
330
8642
100
AcDbEntity
  8
30
 62
     0
100
AcDbLine
 10
154.0415450433536
 20
-52.00000000000002
 30
0.0
 11
154.0415450433536
 21
-121.6323124432111
 31
0.0
  0
LINE
  5
8CFF
330
8642
100
AcDbEntity
  8
30
 62
     0
100
AcDbLine
 10
222.0415450433534
 20
-78.5
 30
0.0
 11
222.0415450433534
 21
-121.6323124432111
 31
0.0
  0
LINE
  5
8D00
330
8642
100
AcDbEntity
  8
30
 62
     0
100
AcDbLine
 10
156.0415450433536
 20
-121.1323124432112
 30
0.0
 11
220.0415450433534
 21
-121.1323124432112
 31
0.0
  0
INSERT
  5
8D01
330
8642
100
AcDbEntity
  8
30
 62
     0
100
AcDbBlockReference
  2
_OPEN
 10
154.0415450433536
 20
-121.1323124432112
 30
0.0
 41
2.0
 42
2.0
 43
2.0
 50
180.0
  0
INSERT
  5
8D02
330
8642
100
AcDbEntity
  8
30
 62
     0
100
AcDbBlockReference
  2
_OPEN
 10
222.0415450433534
 20
-121.1323124432112
 30
0.0
 41
2.0
 42
2.0
 43
2.0
  0
MTEXT
  5
8D03
330
8642
100
AcDbEntity
  8
30
 62
     0
100
AcDbMText
 10
188.0415450433535
 20
-118.1323124432112
 30
0.0
 40
4.0
 41
0.0
 71
     5
 72
     1
  1
\A1;68
 73
     1
 44
1.0
1001
ACAD
1000
MTEXTBEGIN
1070
    73
1070
     1
1070
    44
1040
1.0
1070
    74
1070
     0
1000
MTEXTEND
  0
POINT
  5
8D04
330
8642
100
AcDbEntity
  8
DEFPOINTS
 62
     0
100
AcDbPoint
 10
154.0415450433536
 20
-51.00000000000003
 30
0.0
  0
POINT
  5
8D05
330
8642
100
AcDbEntity
  8
DEFPOINTS
 62
     0
100
AcDbPoint
 10
222.0415450433534
 20
-77.5
 30
0.0
  0
POINT
  5
8D06
330
8642
100
AcDbEntity
  8
DEFPOINTS
 62
     0
100
AcDbPoint
 10
222.0415450433534
 20
-121.1323124432112
 30
0.0
  0
ENDBLK
  5
864D
330
8642
100
AcDbEntity
  8
0
100
AcDbBlockEnd
  0
BLOCK
  5
8658
330
864E
100
AcDbEntity
  8
0
100
AcDbBlockBegin
  2
*D8
 70
     1
 10
0.0
 20
0.0
 30
0.0
  3
*D8
  1

  0
LINE
  5
8D07
330
864E
100
AcDbEntity
  8
30
 62
     0
100
AcDbLine
 10
150.0415450433536
 20
-26.00000000000003
 30
0.0
 11
150.0415450433536
 21
-142.8823124432113
 31
0.0
  0
LINE
  5
8D08
330
864E
100
AcDbEntity
  8
30
 62
     0
100
AcDbLine
 10
222.0415450433534
 20
-78.5
 30
0.0
 11
222.0415450433534
 21
-142.8823124432113
 31
0.0
  0
LINE
  5
8D09
330
864E
100
AcDbEntity
  8
30
 62
     0
100
AcDbLine
 10
152.0415450433536
 20
-142.3823124432113
 30
0.0
 11
220.0415450433534
 21
-142.3823124432113
 31
0.0
  0
INSERT
  5
8D0A
330
864E
100
AcDbEntity
  8
30
 62
     0
100
AcDbBlockReference
  2
_OPEN
 10
150.0415450433536
 20
-142.3823124432113
 30
0.0
 41
2.0
 42
2.0
 43
2.0
 50
180.0
  0
INSERT
  5
8D0B
330
864E
100
AcDbEntity
  8
30
 62
     0
100
AcDbBlockReference
  2
_OPEN
 10
222.0415450433534
 20
-142.3823124432113
 30
0.0
 41
2.0
 42
2.0
 43
2.0
  0
MTEXT
  5
8D0C
330
864E
100
AcDbEntity
  8
30
 62
     0
100
AcDbMText
 10
186.0415450433535
 20
-139.3823124432112
 30
0.0
 40
4.0
 41
0.0
 71
     5
 72
     1
  1
\A1;72
 73
     1
 44
1.0
1001
ACAD
1000
MTEXTBEGIN
1070
    73
1070
     1
1070
    44
1040
1.0
1070
    74
1070
     0
1000
MTEXTEND
  0
POINT
  5
8D0D
330
864E
100
AcDbEntity
  8
DEFPOINTS
 62
     0
100
AcDbPoint
 10
150.0415450433536
 20
-25.00000000000003
 30
0.0
  0
POINT
  5
8D0E
330
864E
100
AcDbEntity
  8
DEFPOINTS
 62
     0
100
AcDbPoint
 10
222.0415450433534
 20
-77.5
 30
0.0
  0
POINT
  5
8D0F
330
864E
100
AcDbEntity
  8
DEFPOINTS
 62
     0
100
AcDbPoint
 10
222.0415450433534
 20
-142.3823124432113
 30
0.0
  0
ENDBLK
  5
8659
330
864E
100
AcDbEntity
  8
0
100
AcDbBlockEnd
  0
BLOCK
  5
8665
330
865A
100
AcDbEntity
  8
0
100
AcDbBlockBegin
  2
*D9
 70
     1
 10
0.0
 20
0.0
 30
0.0
  3
*D9
  1

  0
LINE
  5
8D19
330
865A
100
AcDbEntity
  8
30
 62
     0
100
AcDbLine
 10
146.0415450433536
 20
-26.00000000000003
 30
0.0
 11
146.0415450433536
 21
-142.8823124432113
 31
0.0
  0
LINE
  5
8D1A
330
865A
100
AcDbEntity
  8
30
 62
     0
100
AcDbLine
 10
150.0415450433536
 20
-26.00000000000003
 30
0.0
 11
150.0415450433536
 21
-142.8823124432113
 31
0.0
  0
LINE
  5
8D1B
330
865A
100
AcDbEntity
  8
30
 62
     0
100
AcDbLine
 10
144.0415450433536
 20
-142.3823124432113
 30
0.0
 11
142.0415450433536
 21
-142.3823124432113
 31
0.0
  0
LINE
  5
8D1C
330
865A
100
AcDbEntity
  8
30
 62
     0
100
AcDbLine
 10
152.0415450433536
 20
-142.3823124432113
 30
0.0
 11
158.7082117100201
 21
-142.3823124432113
 31
0.0
  0
INSERT
  5
8D1D
330
865A
100
AcDbEntity
  8
30
 62
     0
100
AcDbBlockReference
  2
_OPEN
 10
146.0415450433536
 20
-142.3823124432113
 30
0.0
 41
2.0
 42
2.0
 43
2.0
  0
INSERT
  5
8D1E
330
865A
100
AcDbEntity
  8
30
 62
     0
100
AcDbBlockReference
  2
_OPEN
 10
150.0415450433536
 20
-142.3823124432113
 30
0.0
 41
2.0
 42
2.0
 43
2.0
 50
180.0
  0
MTEXT
  5
8D1F
330
865A
100
AcDbEntity
  8
30
 62
     0
100
AcDbMText
 10
156.3748783766868
 20
-139.3823124432112
 30
0.0
 40
4.0
 41
0.0
 71
     5
 72
     1
  1
\A1;4
 73
     1
 44
1.0
1001
ACAD
1000
MTEXTBEGIN
1070
    73
1070
     1
1070
    44
1040
1.0
1070
    74
1070
     0
1000
MTEXTEND
  0
POINT
  5
8D20
330
865A
100
AcDbEntity
  8
DEFPOINTS
 62
     0
100
AcDbPoint
 10
146.0415450433536
 20
-25.00000000000003
 30
0.0
  0
POINT
  5
8D21
330
865A
100
AcDbEntity
  8
DEFPOINTS
 62
     0
100
AcDbPoint
 10
150.0415450433536
 20
-25.00000000000003
 30
0.0
  0
POINT
  5
8D22
330
865A
100
AcDbEntity
  8
DEFPOINTS
 62
     0
100
AcDbPoint
 10
150.0415450433536
 20
-142.3823124432113
 30
0.0
  0
ENDBLK
  5
8666
330
865A
100
AcDbEntity
  8
0
100
AcDbBlockEnd
  0
BLOCK
  5
8671
330
8667
100
AcDbEntity
  8
0
100
AcDbBlockBegin
  2
*D10
 70
     1
 10
0.0
 20
0.0
 30
0.0
  3
*D10
  1

  0
LINE
  5
8CE3
330
8667
100
AcDbEntity
  8
30
 62
     0
100
AcDbLine
 10
222.0415450433534
 20
-98.00000000000004
 30
0.0
 11
222.0415450433534
 21
-101.6323124432112
 31
0.0
  0
LINE
  5
8CE4
330
8667
100
AcDbEntity
  8
30
 62
     0
100
AcDbLine
 10
274.0415450433534
 20
-68.0
 30
0.0
 11
274.0415450433534
 21
-101.6323124432112
 31
0.0
  0
LINE
  5
8CE5
330
8667
100
AcDbEntity
  8
30
 62
     0
100
AcDbLine
 10
224.0415450433534
 20
-101.1323124432112
 30
0.0
 11
272.0415450433534
 21
-101.1323124432112
 31
0.0
  0
INSERT
  5
8CE6
330
8667
100
AcDbEntity
  8
30
 62
     0
100
AcDbBlockReference
  2
_OPEN
 10
222.0415450433534
 20
-101.1323124432112
 30
0.0
 41
2.0
 42
2.0
 43
2.0
 50
180.0
  0
INSERT
  5
8CE7
330
8667
100
AcDbEntity
  8
30
 62
     0
100
AcDbBlockReference
  2
_OPEN
 10
274.0415450433534
 20
-101.1323124432112
 30
0.0
 41
2.0
 42
2.0
 43
2.0
  0
MTEXT
  5
8CE8
330
8667
100
AcDbEntity
  8
30
 62
     0
100
AcDbMText
 10
248.0415450433536
 20
-98.1323124432113
 30
0.0
 40
4.0
 41
0.0
 71
     5
 72
     1
  1
\A1;52
 73
     1
 44
1.0
1001
ACAD
1000
MTEXTBEGIN
1070
    73
1070
     1
1070
    44
1040
1.0
1070
    74
1070
     0
1000
MTEXTEND
  0
POINT
  5
8CE9
330
8667
100
AcDbEntity
  8
DEFPOINTS
 62
     0
100
AcDbPoint
 10
222.0415450433534
 20
-97.00000000000002
 30
0.0
  0
POINT
  5
8CEA
330
8667
100
AcDbEntity
  8
DEFPOINTS
 62
     0
100
AcDbPoint
 10
274.0415450433534
 20
-67.0
 30
0.0
  0
POINT
  5
8CEB
330
8667
100
AcDbEntity
  8
DEFPOINTS
 62
     0
100
AcDbPoint
 10
274.0415450433534
 20
-101.1323124432112
 30
0.0
  0
ENDBLK
  5
8672
330
8667
100
AcDbEntity
  8
0
100
AcDbBlockEnd
  0
BLOCK
  5
867D
330
8673
100
AcDbEntity
  8
0
100
AcDbBlockBegin
  2
*D11
 70
     1
 10
0.0
 20
0.0
 30
0.0
  3
*D11
  1

  0
LINE
  5
8CEC
330
8673
100
AcDbEntity
  8
30
 62
     0
100
AcDbLine
 10
222.0415450433534
 20
-98.00000000000004
 30
0.0
 11
222.0415450433534
 21
-121.6323124432111
 31
0.0
  0
LINE
  5
8CED
330
8673
100
AcDbEntity
  8
30
 62
     0
100
AcDbLine
 10
324.0415450433536
 20
-68.0
 30
0.0
 11
324.0415450433536
 21
-121.6323124432111
 31
0.0
  0
LINE
  5
8CEE
330
8673
100
AcDbEntity
  8
30
 62
     0
100
AcDbLine
 10
224.0415450433534
 20
-121.1323124432112
 30
0.0
 11
322.0415450433536
 21
-121.1323124432112
 31
0.0
  0
INSERT
  5
8CEF
330
8673
100
AcDbEntity
  8
30
 62
     0
100
AcDbBlockReference
  2
_OPEN
 10
222.0415450433534
 20
-121.1323124432112
 30
0.0
 41
2.0
 42
2.0
 43
2.0
 50
180.0
  0
INSERT
  5
8CF0
330
8673
100
AcDbEntity
  8
30
 62
     0
100
AcDbBlockReference
  2
_OPEN
 10
324.0415450433536
 20
-121.1323124432112
 30
0.0
 41
2.0
 42
2.0
 43
2.0
  0
MTEXT
  5
8CF1
330
8673
100
AcDbEntity
  8
30
 62
     0
100
AcDbMText
 10
273.0415450433535
 20
-118.1323124432112
 30
0.0
 40
4.0
 41
0.0
 71
     5
 72
     1
  1
\A1;102
 73
     1
 44
1.0
1001
ACAD
1000
MTEXTBEGIN
1070
    73
1070
     1
1070
    44
1040
1.0
1070
    74
1070
     0
1000
MTEXTEND
  0
POINT
  5
8CF2
330
8673
100
AcDbEntity
  8
DEFPOINTS
 62
     0
100
AcDbPoint
 10
222.0415450433534
 20
-97.00000000000002
 30
0.0
  0
POINT
  5
8CF3
330
8673
100
AcDbEntity
  8
DEFPOINTS
 62
     0
100
AcDbPoint
 10
324.0415450433536
 20
-67.0
 30
0.0
  0
POINT
  5
8CF4
330
8673
100
AcDbEntity
  8
DEFPOINTS
 62
     0
100
AcDbPoint
 10
324.0415450433536
 20
-121.1323124432112
 30
0.0
  0
ENDBLK
  5
867E
330
8673
100
AcDbEntity
  8
0
100
AcDbBlockEnd
  0
BLOCK
  5
8689
330
867F
100
AcDbEntity
  8
0
100
AcDbBlockBegin
  2
*D12
 70
     1
 10
0.0
 20
0.0
 30
0.0
  3
*D12
  1

  0
LINE
  5
8D10
330
867F
100
AcDbEntity
  8
30
 62
     0
100
AcDbLine
 10
161.0415450433536
 20
-78.5
 30
0.0
 11
161.0415450433536
 21
-101.6323124432112
 31
0.0
  0
LINE
  5
8D11
330
867F
100
AcDbEntity
  8
30
 62
     0
100
AcDbLine
 10
222.0415450433534
 20
-78.5
 30
0.0
 11
222.0415450433534
 21
-101.6323124432112
 31
0.0
  0
LINE
  5
8D12
330
867F
100
AcDbEntity
  8
30
 62
     0
100
AcDbLine
 10
163.0415450433536
 20
-101.1323124432112
 30
0.0
 11
220.0415450433534
 21
-101.1323124432112
 31
0.0
  0
INSERT
  5
8D13
330
867F
100
AcDbEntity
  8
30
 62
     0
100
AcDbBlockReference
  2
_OPEN
 10
161.0415450433536
 20
-101.1323124432112
 30
0.0
 41
2.0
 42
2.0
 43
2.0
 50
180.0
  0
INSERT
  5
8D14
330
867F
100
AcDbEntity
  8
30
 62
     0
100
AcDbBlockReference
  2
_OPEN
 10
222.0415450433534
 20
-101.1323124432112
 30
0.0
 41
2.0
 42
2.0
 43
2.0
  0
MTEXT
  5
8D15
330
867F
100
AcDbEntity
  8
30
 62
     0
100
AcDbMText
 10
191.5415450433535
 20
-98.1323124432113
 30
0.0
 40
4.0
 41
0.0
 71
     5
 72
     1
  1
\A1;61
 73
     1
 44
1.0
1001
ACAD
1000
MTEXTBEGIN
1070
    73
1070
     1
1070
    44
1040
1.0
1070
    74
1070
     0
1000
MTEXTEND
  0
POINT
  5
8D16
330
867F
100
AcDbEntity
  8
DEFPOINTS
 62
     0
100
AcDbPoint
 10
161.0415450433536
 20
-77.5
 30
0.0
  0
POINT
  5
8D17
330
867F
100
AcDbEntity
  8
DEFPOINTS
 62
     0
100
AcDbPoint
 10
222.0415450433534
 20
-77.5
 30
0.0
  0
POINT
  5
8D18
330
867F
100
AcDbEntity
  8
DEFPOINTS
 62
     0
100
AcDbPoint
 10
222.0415450433534
 20
-101.1323124432112
 30
0.0
  0
ENDBLK
  5
868A
330
867F
100
AcDbEntity
  8
0
100
AcDbBlockEnd
  0
BLOCK
  5
8695
330
868B
100
AcDbEntity
  8
0
100
AcDbBlockBegin
  2
*D13
 70
     1
 10
0.0
 20
0.0
 30
0.0
  3
*D13
  1

  0
LINE
  5
8D35
330
868B
100
AcDbEntity
  8
30
 62
     0
100
AcDbLine
 10
259.0415450433535
 20
-70.50000001650001
 30
0.0
 11
259.0415450433535
 21
-91.85521683906721
 31
0.0
  0
LINE
  5
8D36
330
868B
100
AcDbEntity
  8
30
 62
     0
100
AcDbLine
 10
274.0415450433534
 20
-77.28708784337164
 30
0.0
 11
274.0415450433534
 21
-91.85521683906721
 31
0.0
  0
LINE
  5
8D37
330
868B
100
AcDbEntity
  8
30
 62
     0
100
AcDbLine
 10
261.0415450433535
 20
-91.35521683906722
 30
0.0
 11
272.0415450433534
 21
-91.35521683906722
 31
0.0
  0
INSERT
  5
8D38
330
868B
100
AcDbEntity
  8
30
 62
     0
100
AcDbBlockReference
  2
_OPEN
 10
259.0415450433535
 20
-91.35521683906722
 30
0.0
 41
2.0
 42
2.0
 43
2.0
 50
180.0
  0
INSERT
  5
8D39
330
868B
100
AcDbEntity
  8
30
 62
     0
100
AcDbBlockReference
  2
_OPEN
 10
274.0415450433534
 20
-91.35521683906722
 30
0.0
 41
2.0
 42
2.0
 43
2.0
  0
MTEXT
  5
8D3A
330
868B
100
AcDbEntity
  8
30
 62
     0
100
AcDbMText
 10
266.5415450433534
 20
-88.35521683906723
 30
0.0
 40
4.0
 41
0.0
 71
     5
 72
     1
  1
\A1;15
 73
     1
 44
1.0
1001
ACAD
1000
MTEXTBEGIN
1070
    73
1070
     1
1070
    44
1040
1.0
1070
    74
1070
     0
1000
MTEXTEND
  0
POINT
  5
8D3B
330
868B
100
AcDbEntity
  8
DEFPOINTS
 62
     0
100
AcDbPoint
 10
259.0415450433535
 20
-69.50000001650002
 30
0.0
  0
POINT
  5
8D3C
330
868B
100
AcDbEntity
  8
DEFPOINTS
 62
     0
100
AcDbPoint
 10
274.0415450433534
 20
-76.28708784337162
 30
0.0
  0
POINT
  5
8D3D
330
868B
100
AcDbEntity
  8
DEFPOINTS
 62
     0
100
AcDbPoint
 10
274.0415450433534
 20
-91.35521683906722
 30
0.0
  0
ENDBLK
  5
8696
330
868B
100
AcDbEntity
  8
0
100
AcDbBlockEnd
  0
BLOCK
  5
86A1
330
8697
100
AcDbEntity
  8
0
100
AcDbBlockBegin
  2
*D14
 70
     1
 10
0.0
 20
0.0
 30
0.0
  3
*D14
  1

  0
LINE
  5
9331
330
8697
100
AcDbEntity
  8
30
 62
     0
100
AcDbLine
 10
309.0415450433535
 20
-70.50000001650001
 30
0.0
 11
309.0415450433535
 21
-81.6323124432113
 31
0.0
  0
LINE
  5
9332
330
8697
100
AcDbEntity
  8
30
 62
     0
100
AcDbLine
 10
324.0415450433536
 20
-77.28708784337164
 30
0.0
 11
324.0415450433536
 21
-81.6323124432113
 31
0.0
  0
LINE
  5
9333
330
8697
100
AcDbEntity
  8
30
 62
     0
100
AcDbLine
 10
311.0415450433535
 20
-81.13231244321132
 30
0.0
 11
322.0415450433536
 21
-81.13231244321132
 31
0.0
  0
INSERT
  5
9334
330
8697
100
AcDbEntity
  8
30
 62
     0
100
AcDbBlockReference
  2
_OPEN
 10
309.0415450433535
 20
-81.13231244321132
 30
0.0
 41
2.0
 42
2.0
 43
2.0
 50
180.0
  0
INSERT
  5
9335
330
8697
100
AcDbEntity
  8
30
 62
     0
100
AcDbBlockReference
  2
_OPEN
 10
324.0415450433536
 20
-81.13231244321132
 30
0.0
 41
2.0
 42
2.0
 43
2.0
  0
MTEXT
  5
9336
330
8697
100
AcDbEntity
  8
30
 62
     0
100
AcDbMText
 10
316.5415450433536
 20
-78.1323124432113
 30
0.0
 40
4.0
 41
0.0
 71
     5
 72
     1
  1
\A1;15
 73
     1
 44
1.0
1001
ACAD
1000
MTEXTBEGIN
1070
    73
1070
     1
1070
    44
1040
1.0
1070
    74
1070
     0
1000
MTEXTEND
  0
POINT
  5
9337
330
8697
100
AcDbEntity
  8
DEFPOINTS
 62
     0
100
AcDbPoint
 10
309.0415450433535
 20
-69.50000001650002
 30
0.0
  0
POINT
  5
9338
330
8697
100
AcDbEntity
  8
DEFPOINTS
 62
     0
100
AcDbPoint
 10
324.0415450433536
 20
-76.28708784337162
 30
0.0
  0
POINT
  5
9339
330
8697
100
AcDbEntity
  8
DEFPOINTS
 62
     0
100
AcDbPoint
 10
324.0415450433536
 20
-81.13231244321132
 30
0.0
  0
ENDBLK
  5
86A2
330
8697
100
AcDbEntity
  8
0
100
AcDbBlockEnd
  0
BLOCK
  5
8800
330
87F6
100
AcDbEntity
  8
0
100
AcDbBlockBegin
  2
*D15
 70
     1
 10
0.0
 20
0.0
 30
0.0
  3
*D15
  1

  0
LINE
  5
942C
330
87F6
100
AcDbEntity
  8
30
 62
     0
100
AcDbLine
 10
-0.0000000000002273
 20
305.8811670622456
 30
0.0
 11
-0.0000000000002268
 21
313.9340221653556
 31
0.0
  0
LINE
  5
942D
330
87F6
100
AcDbEntity
  8
30
 62
     0
100
AcDbLine
 10
29.99999999999977
 20
260.8811670622456
 30
0.0
 11
29.99999999999977
 21
313.9340221653556
 31
0.0
  0
LINE
  5
942E
330
87F6
100
AcDbEntity
  8
30
 62
     0
100
AcDbLine
 10
1.999999999999771
 20
313.4340221653556
 30
0.0
 11
27.99999999999977
 21
313.4340221653556
 31
0.0
  0
INSERT
  5
942F
330
87F6
100
AcDbEntity
  8
30
 62
     0
100
AcDbBlockReference
  2
_OPEN
 10
-0.0000000000002268
 20
313.4340221653556
 30
0.0
 41
2.0
 42
2.0
 43
2.0
 50
180.0
  0
INSERT
  5
9430
330
87F6
100
AcDbEntity
  8
30
 62
     0
100
AcDbBlockReference
  2
_OPEN
 10
29.99999999999977
 20
313.4340221653556
 30
0.0
 41
2.0
 42
2.0
 43
2.0
  0
MTEXT
  5
9431
330
87F6
100
AcDbEntity
  8
30
 62
     0
100
AcDbMText
 10
14.99999999999976
 20
316.4340221653556
 30
0.0
 40
4.0
 41
0.0
 71
     5
 72
     1
  1
\A1;30
 73
     1
 44
1.0
  0
POINT
  5
9432
330
87F6
100
AcDbEntity
  8
DEFPOINTS
 62
     0
100
AcDbPoint
 10
-0.0000000000002274
 20
304.8811670622456
 30
0.0
  0
POINT
  5
9433
330
87F6
100
AcDbEntity
  8
DEFPOINTS
 62
     0
100
AcDbPoint
 10
29.99999999999977
 20
259.8811670622456
 30
0.0
  0
POINT
  5
9434
330
87F6
100
AcDbEntity
  8
DEFPOINTS
 62
     0
100
AcDbPoint
 10
29.99999999999977
 20
313.4340221653556
 30
0.0
  0
ENDBLK
  5
8801
330
87F6
100
AcDbEntity
  8
0
100
AcDbBlockEnd
  0
BLOCK
  5
8847
330
883D
100
AcDbEntity
  8
0
100
AcDbBlockBegin
  2
*D16
 70
     1
 10
0.0
 20
0.0
 30
0.0
  3
*D16
  1

  0
LINE
  5
9387
330
883D
100
AcDbEntity
  8
30
 62
     0
100
AcDbLine
 10
-16.0
 20
77.49999999999992
 30
0.0
 11
-50.39493462656307
 21
77.49999999999996
 31
0.0
  0
LINE
  5
9388
330
883D
100
AcDbEntity
  8
30
 62
     0
100
AcDbLine
 10
-16.0
 20
-77.5
 30
0.0
 11
-50.39493462656309
 21
-77.49999999999999
 31
0.0
  0
LINE
  5
9389
330
883D
100
AcDbEntity
  8
30
 62
     0
100
AcDbLine
 10
-49.89493462656307
 20
75.49999999999996
 30
0.0
 11
-49.8949346265631
 21
-75.49999999999998
 31
0.0
  0
INSERT
  5
938A
330
883D
100
AcDbEntity
  8
30
 62
     0
100
AcDbBlockReference
  2
_OPEN
 10
-49.89493462656307
 20
77.49999999999996
 30
0.0
 41
2.0
 42
2.0
 43
2.0
 50
90.0
  0
INSERT
  5
938B
330
883D
100
AcDbEntity
  8
30
 62
     0
100
AcDbBlockReference
  2
_OPEN
 10
-49.8949346265631
 20
-77.49999999999999
 30
0.0
 41
2.0
 42
2.0
 43
2.0
 50
270.0
  0
MTEXT
  5
938C
330
883D
100
AcDbEntity
  8
30
 62
     0
100
AcDbMText
 10
-52.89493462656309
 20
-0.000000000000025
 30
0.0
 40
4.0
 41
0.0
 71
     5
 72
     1
  1
\A1;155
 11
0.0000000000000001
 21
1.0
 31
0.0
 73
     1
 44
1.0
1001
ACAD
1000
MTEXTBEGIN
1070
    73
1070
     1
1070
    44
1040
1.0
1070
    74
1070
     0
1000
MTEXTEND
  0
POINT
  5
938D
330
883D
100
AcDbEntity
  8
DEFPOINTS
 62
     0
100
AcDbPoint
 10
-15.0
 20
77.49999999999992
 30
0.0
  0
POINT
  5
938E
330
883D
100
AcDbEntity
  8
DEFPOINTS
 62
     0
100
AcDbPoint
 10
-15.0
 20
-77.5
 30
0.0
  0
POINT
  5
938F
330
883D
100
AcDbEntity
  8
DEFPOINTS
 62
     0
100
AcDbPoint
 10
-49.8949346265631
 20
-77.49999999999999
 30
0.0
  0
ENDBLK
  5
8848
330
883D
100
AcDbEntity
  8
0
100
AcDbBlockEnd
  0
BLOCK
  5
885D
330
8853
100
AcDbEntity
  8
0
100
AcDbBlockBegin
  2
*D17
 70
     1
 10
0.0
 20
0.0
 30
0.0
  3
*D17
  1

  0
LINE
  5
937E
330
8853
100
AcDbEntity
  8
30
 62
     0
100
AcDbLine
 10
-16.0
 20
50.99999999999989
 30
0.0
 11
-39.83461828766346
 21
50.99999999999989
 31
0.0
  0
LINE
  5
937F
330
8853
100
AcDbEntity
  8
30
 62
     0
100
AcDbLine
 10
-16.0
 20
-51.00000000000003
 30
0.0
 11
-39.83461828766349
 21
-51.00000000000002
 31
0.0
  0
LINE
  5
9380
330
8853
100
AcDbEntity
  8
30
 62
     0
100
AcDbLine
 10
-39.33461828766346
 20
48.99999999999989
 30
0.0
 11
-39.33461828766349
 21
-49.00000000000002
 31
0.0
  0
INSERT
  5
9381
330
8853
100
AcDbEntity
  8
30
 62
     0
100
AcDbBlockReference
  2
_OPEN
 10
-39.33461828766346
 20
50.99999999999989
 30
0.0
 41
2.0
 42
2.0
 43
2.0
 50
90.0
  0
INSERT
  5
9382
330
8853
100
AcDbEntity
  8
30
 62
     0
100
AcDbBlockReference
  2
_OPEN
 10
-39.33461828766349
 20
-51.00000000000002
 30
0.0
 41
2.0
 42
2.0
 43
2.0
 50
270.0
  0
MTEXT
  5
9383
330
8853
100
AcDbEntity
  8
30
 62
     0
100
AcDbMText
 10
-42.33461828766347
 20
-0.0000000000000683
 30
0.0
 40
4.0
 41
0.0
 71
     5
 72
     1
  1
\A1;102
 11
0.0000000000000001
 21
1.0
 31
0.0
 73
     1
 44
1.0
1001
ACAD
1000
MTEXTBEGIN
1070
    73
1070
     1
1070
    44
1040
1.0
1070
    74
1070
     0
1000
MTEXTEND
  0
POINT
  5
9384
330
8853
100
AcDbEntity
  8
DEFPOINTS
 62
     0
100
AcDbPoint
 10
-15.0
 20
50.99999999999988
 30
0.0
  0
POINT
  5
9385
330
8853
100
AcDbEntity
  8
DEFPOINTS
 62
     0
100
AcDbPoint
 10
-15.0
 20
-51.00000000000003
 30
0.0
  0
POINT
  5
9386
330
8853
100
AcDbEntity
  8
DEFPOINTS
 62
     0
100
AcDbPoint
 10
-39.33461828766349
 20
-51.00000000000002
 30
0.0
  0
ENDBLK
  5
885E
330
8853
100
AcDbEntity
  8
0
100
AcDbBlockEnd
  0
BLOCK
  5
886A
330
8860
100
AcDbEntity
  8
0
100
AcDbBlockBegin
  2
*D18
 70
     1
 10
0.0
 20
0.0
 30
0.0
  3
*D18
  1

  0
LINE
  5
93F5
330
8860
100
AcDbEntity
  8
30
 62
     0
100
AcDbLine
 10
-13.5
 20
24.99999999999994
 30
0.0
 11
-30.44766848119387
 21
24.99999999999994
 31
0.0
  0
LINE
  5
93F6
330
8860
100
AcDbEntity
  8
30
 62
     0
100
AcDbLine
 10
-13.5
 20
-25.0
 30
0.0
 11
-30.44766848119389
 21
-25.0
 31
0.0
  0
LINE
  5
93F7
330
8860
100
AcDbEntity
  8
30
 62
     0
100
AcDbLine
 10
-29.94766848119387
 20
22.99999999999994
 30
0.0
 11
-29.94766848119388
 21
-22.99999999999998
 31
0.0
  0
INSERT
  5
93F8
330
8860
100
AcDbEntity
  8
30
 62
     0
100
AcDbBlockReference
  2
_OPEN
 10
-29.94766848119387
 20
24.99999999999994
 30
0.0
 41
2.0
 42
2.0
 43
2.0
 50
90.0
  0
INSERT
  5
93F9
330
8860
100
AcDbEntity
  8
30
 62
     0
100
AcDbBlockReference
  2
_OPEN
 10
-29.94766848119388
 20
-25.0
 30
0.0
 41
2.0
 42
2.0
 43
2.0
 50
270.0
  0
MTEXT
  5
93FA
330
8860
100
AcDbEntity
  8
30
 62
     0
100
AcDbMText
 10
-32.94766848119388
 20
-0.0000000000000298
 30
0.0
 40
4.0
 41
0.0
 71
     5
 72
     1
  1
\A1;50
 11
0.0000000000000001
 21
1.0
 31
0.0
 73
     1
 44
1.0
1001
ACAD
1000
MTEXTBEGIN
1070
    73
1070
     1
1070
    44
1040
1.0
1070
    74
1070
     0
1000
MTEXTEND
  0
POINT
  5
93FB
330
8860
100
AcDbEntity
  8
DEFPOINTS
 62
     0
100
AcDbPoint
 10
-12.5
 20
24.99999999999994
 30
0.0
  0
POINT
  5
93FC
330
8860
100
AcDbEntity
  8
DEFPOINTS
 62
     0
100
AcDbPoint
 10
-12.5
 20
-25.0
 30
0.0
  0
POINT
  5
93FD
330
8860
100
AcDbEntity
  8
DEFPOINTS
 62
     0
100
AcDbPoint
 10
-29.94766848119388
 20
-25.0
 30
0.0
  0
ENDBLK
  5
886B
330
8860
100
AcDbEntity
  8
0
100
AcDbBlockEnd
  0
BLOCK
  5
8D49
330
8D3F
100
AcDbEntity
  8
0
100
AcDbBlockBegin
  2
*D19
 70
     1
 10
0.0
 20
0.0
 30
0.0
  3
*D19
  1

  0
LINE
  5
8D4B
330
8D3F
100
AcDbEntity
  8
30
 62
     0
100
AcDbLine
 10
130.0415450433536
 20
-0.9999999999999962
 30
0.0
 11
130.0415450433536
 21
-155.6114571606904
 31
0.0
  0
LINE
  5
8D4C
330
8D3F
100
AcDbEntity
  8
30
 62
     0
100
AcDbLine
 10
222.0415450433534
 20
-143.8823124432111
 30
0.0
 11
222.0415450433534
 21
-155.6114571606904
 31
0.0
  0
LINE
  5
8D4D
330
8D3F
100
AcDbEntity
  8
30
 62
     0
100
AcDbLine
 10
132.0415450433536
 20
-155.1114571606904
 30
0.0
 11
220.0415450433534
 21
-155.1114571606904
 31
0.0
  0
INSERT
  5
8D4E
330
8D3F
100
AcDbEntity
  8
30
 62
     0
100
AcDbBlockReference
  2
_OPEN
 10
130.0415450433536
 20
-155.1114571606904
 30
0.0
 41
2.0
 42
2.0
 43
2.0
 50
180.0
  0
INSERT
  5
8D4F
330
8D3F
100
AcDbEntity
  8
30
 62
     0
100
AcDbBlockReference
  2
_OPEN
 10
222.0415450433534
 20
-155.1114571606904
 30
0.0
 41
2.0
 42
2.0
 43
2.0
  0
MTEXT
  5
8D50
330
8D3F
100
AcDbEntity
  8
30
 62
     0
100
AcDbMText
 10
176.0415450433534
 20
-152.1114571606904
 30
0.0
 40
4.0
 41
0.0
 71
     5
 72
     1
  1
\A1;92
 73
     1
 44
1.0
1001
ACAD
1000
MTEXTBEGIN
1070
    73
1070
     1
1070
    44
1040
1.0
1070
    74
1070
     0
1000
MTEXTEND
  0
POINT
  5
8D51
330
8D3F
100
AcDbEntity
  8
DEFPOINTS
 62
     0
100
AcDbPoint
 10
130.0415450433536
 20
0.0000000000000038
 30
0.0
  0
POINT
  5
8D52
330
8D3F
100
AcDbEntity
  8
DEFPOINTS
 62
     0
100
AcDbPoint
 10
222.0415450433534
 20
-142.8823124432113
 30
0.0
  0
POINT
  5
8D53
330
8D3F
100
AcDbEntity
  8
DEFPOINTS
 62
     0
100
AcDbPoint
 10
222.0415450433534
 20
-155.1114571606904
 30
0.0
  0
ENDBLK
  5
8D4A
330
8D3F
100
AcDbEntity
  8
0
100
AcDbBlockEnd
  0
BLOCK
  5
8D6E
330
8D64
100
AcDbEntity
  8
0
100
AcDbBlockBegin
  2
*D20
 70
     1
 10
0.0
 20
0.0
 30
0.0
  3
*D20
  1

  0
LINE
  5
8D70
330
8D64
100
AcDbEntity
  8
30
 62
     0
100
AcDbLine
 10
335.0415450433536
 20
66.99999999999993
 30
0.0
 11
364.5609929336933
 21
66.99999999999993
 31
0.0
  0
LINE
  5
8D71
330
8D64
100
AcDbEntity
  8
30
 62
     0
100
AcDbLine
 10
335.0415450433536
 20
-67.0
 30
0.0
 11
364.5609929336933
 21
-67.00000000000001
 31
0.0
  0
LINE
  5
8D72
330
8D64
100
AcDbEntity
  8
30
 62
     0
100
AcDbLine
 10
364.0609929336933
 20
64.99999999999992
 30
0.0
 11
364.0609929336933
 21
-65.00000000000001
 31
0.0
  0
INSERT
  5
8D73
330
8D64
100
AcDbEntity
  8
30
 62
     0
100
AcDbBlockReference
  2
_OPEN
 10
364.0609929336933
 20
66.99999999999993
 30
0.0
 41
2.0
 42
2.0
 43
2.0
 50
90.0
  0
INSERT
  5
8D74
330
8D64
100
AcDbEntity
  8
30
 62
     0
100
AcDbBlockReference
  2
_OPEN
 10
364.0609929336933
 20
-67.00000000000001
 30
0.0
 41
2.0
 42
2.0
 43
2.0
 50
270.0
  0
MTEXT
  5
8D75
330
8D64
100
AcDbEntity
  8
30
 62
     0
100
AcDbMText
 10
361.0609929336933
 20
0.0000000000000207
 30
0.0
 40
4.0
 41
0.0
 71
     5
 72
     1
  1
\A1;134
 11
0.0000000000000001
 21
1.0
 31
0.0
 73
     1
 44
1.0
1001
ACAD
1000
MTEXTBEGIN
1070
    73
1070
     1
1070
    44
1040
1.0
1070
    74
1070
     0
1000
MTEXTEND
  0
POINT
  5
8D76
330
8D64
100
AcDbEntity
  8
DEFPOINTS
 62
     0
100
AcDbPoint
 10
334.0415450433535
 20
66.99999999999993
 30
0.0
  0
POINT
  5
8D77
330
8D64
100
AcDbEntity
  8
DEFPOINTS
 62
     0
100
AcDbPoint
 10
334.0415450433535
 20
-67.0
 30
0.0
  0
POINT
  5
8D78
330
8D64
100
AcDbEntity
  8
DEFPOINTS
 62
     0
100
AcDbPoint
 10
364.0609929336933
 20
-67.00000000000001
 30
0.0
  0
ENDBLK
  5
8D6F
330
8D64
100
AcDbEntity
  8
0
100
AcDbBlockEnd
  0
BLOCK
  5
92B9
330
92AF
100
AcDbEntity
  8
0
100
AcDbBlockBegin
  2
*D21
 70
     1
 10
0.0
 20
0.0
 30
0.0
  3
*D21
  1

  0
LINE
  5
93AC
330
92AF
100
AcDbEntity
  8
30
 62
     0
100
AcDbLine
 10
33.50000001650004
 20
-302.0
 30
0.0
 11
86.63994386719968
 21
-302.0
 31
0.0
  0
LINE
  5
93AD
330
92AF
100
AcDbEntity
  8
30
 62
     0
100
AcDbLine
 10
33.50000001650004
 20
-168.0
 30
0.0
 11
86.63994386719974
 21
-168.0
 31
0.0
  0
LINE
  5
93AE
330
92AF
100
AcDbEntity
  8
30
 62
     0
100
AcDbLine
 10
86.13994386719969
 20
-300.0
 30
0.0
 11
86.13994386719971
 21
-170.0
 31
0.0
  0
INSERT
  5
93AF
330
92AF
100
AcDbEntity
  8
30
 62
     0
100
AcDbBlockReference
  2
_OPEN
 10
86.13994386719969
 20
-302.0
 30
0.0
 41
2.0
 42
2.0
 43
2.0
 50
270.0
  0
INSERT
  5
93B0
330
92AF
100
AcDbEntity
  8
30
 62
     0
100
AcDbBlockReference
  2
_OPEN
 10
86.13994386719971
 20
-168.0
 30
0.0
 41
2.0
 42
2.0
 43
2.0
 50
90.0
  0
MTEXT
  5
93B1
330
92AF
100
AcDbEntity
  8
30
 62
     0
100
AcDbMText
 10
83.13994386719974
 20
-235.0
 30
0.0
 40
4.0
 41
0.0
 71
     5
 72
     1
  1
\A1;134
 11
0.0000000000000001
 21
1.0
 31
0.0
 73
     1
 44
1.0
1001
ACAD
1000
MTEXTBEGIN
1070
    73
1070
     1
1070
    44
1040
1.0
1070
    74
1070
     0
1000
MTEXTEND
  0
POINT
  5
93B2
330
92AF
100
AcDbEntity
  8
DEFPOINTS
 62
     0
100
AcDbPoint
 10
32.50000001650004
 20
-302.0
 30
0.0
  0
POINT
  5
93B3
330
92AF
100
AcDbEntity
  8
DEFPOINTS
 62
     0
100
AcDbPoint
 10
32.50000001650004
 20
-168.0
 30
0.0
  0
POINT
  5
93B4
330
92AF
100
AcDbEntity
  8
DEFPOINTS
 62
     0
100
AcDbPoint
 10
86.13994386719971
 20
-168.0
 30
0.0
  0
ENDBLK
  5
92BA
330
92AF
100
AcDbEntity
  8
0
100
AcDbBlockEnd
  0
BLOCK
  5
930C
330
9302
100
AcDbEntity
  8
0
100
AcDbBlockBegin
  2
*D22
 70
     1
 10
0.0
 20
0.0
 30
0.0
  3
*D22
  1

  0
LINE
  5
9435
330
9302
100
AcDbEntity
  8
30
 62
     0
100
AcDbLine
 10
-0.0000000000000001
 20
-318.4374692359974
 30
0.0
 11
-0.0000000000000011
 21
-335.2751428602207
 31
0.0
  0
LINE
  5
9436
330
9302
100
AcDbEntity
  8
30
 62
     0
100
AcDbLine
 10
30.0
 20
-315.0
 30
0.0
 11
30.0
 21
-335.2751428602207
 31
0.0
  0
LINE
  5
9437
330
9302
100
AcDbEntity
  8
30
 62
     0
100
AcDbLine
 10
1.999999999999998
 20
-334.7751428602208
 30
0.0
 11
28.0
 21
-334.7751428602208
 31
0.0
  0
INSERT
  5
9438
330
9302
100
AcDbEntity
  8
30
 62
     0
100
AcDbBlockReference
  2
_OPEN
 10
-0.0000000000000011
 20
-334.7751428602208
 30
0.0
 41
2.0
 42
2.0
 43
2.0
 50
180.0
  0
INSERT
  5
9439
330
9302
100
AcDbEntity
  8
30
 62
     0
100
AcDbBlockReference
  2
_OPEN
 10
30.0
 20
-334.7751428602208
 30
0.0
 41
2.0
 42
2.0
 43
2.0
  0
MTEXT
  5
943A
330
9302
100
AcDbEntity
  8
30
 62
     0
100
AcDbMText
 10
15.0
 20
-331.7751428602207
 30
0.0
 40
4.0
 41
0.0
 71
     5
 72
     1
  1
\A1;30
 73
     1
 44
1.0
  0
POINT
  5
943B
330
9302
100
AcDbEntity
  8
DEFPOINTS
 62
     0
100
AcDbPoint
 10
0.0
 20
-317.4374692359974
 30
0.0
  0
POINT
  5
943C
330
9302
100
AcDbEntity
  8
DEFPOINTS
 62
     0
100
AcDbPoint
 10
30.0
 20
-314.0
 30
0.0
  0
POINT
  5
943D
330
9302
100
AcDbEntity
  8
DEFPOINTS
 62
     0
100
AcDbPoint
 10
30.0
 20
-334.7751428602208
 30
0.0
  0
ENDBLK
  5
930D
330
9302
100
AcDbEntity
  8
0
100
AcDbBlockEnd
  0
BLOCK
  5
9326
330
931C
100
AcDbEntity
  8
0
100
AcDbBlockBegin
  2
*D23
 70
     1
 10
0.0
 20
0.0
 30
0.0
  3
*D23
  1

  0
LINE
  5
93A3
330
931C
100
AcDbEntity
  8
30
 62
     0
100
AcDbLine
 10
20.00000000000022
 20
-169.0
 30
0.0
 11
71.24733980819749
 21
-169.0
 31
0.0
  0
LINE
  5
93A4
330
931C
100
AcDbEntity
  8
30
 62
     0
100
AcDbLine
 10
20.00000000000022
 20
-301.0
 30
0.0
 11
71.24733980819745
 21
-301.0
 31
0.0
  0
LINE
  5
93A5
330
931C
100
AcDbEntity
  8
30
 62
     0
100
AcDbLine
 10
70.7473398081975
 20
-171.0
 30
0.0
 11
70.74733980819745
 21
-299.0
 31
0.0
  0
INSERT
  5
93A6
330
931C
100
AcDbEntity
  8
30
 62
     0
100
AcDbBlockReference
  2
_OPEN
 10
70.7473398081975
 20
-169.0
 30
0.0
 41
2.0
 42
2.0
 43
2.0
 50
90.0
  0
INSERT
  5
93A7
330
931C
100
AcDbEntity
  8
30
 62
     0
100
AcDbBlockReference
  2
_OPEN
 10
70.74733980819745
 20
-301.0
 30
0.0
 41
2.0
 42
2.0
 43
2.0
 50
270.0
  0
MTEXT
  5
93A8
330
931C
100
AcDbEntity
  8
30
 62
     0
100
AcDbMText
 10
67.74733980819751
 20
-235.0
 30
0.0
 40
4.0
 41
0.0
 71
     5
 72
     1
  1
\A1;132
 11
0.0000000000000001
 21
1.0
 31
0.0
 73
     1
 44
1.0
1001
ACAD
1000
MTEXTBEGIN
1070
    73
1070
     1
1070
    44
1040
1.0
1070
    74
1070
     0
1000
MTEXTEND
  0
POINT
  5
93A9
330
931C
100
AcDbEntity
  8
DEFPOINTS
 62
     0
100
AcDbPoint
 10
19.00000000000022
 20
-169.0
 30
0.0
  0
POINT
  5
93AA
330
931C
100
AcDbEntity
  8
DEFPOINTS
 62
     0
100
AcDbPoint
 10
19.00000000000022
 20
-301.0
 30
0.0
  0
POINT
  5
93AB
330
931C
100
AcDbEntity
  8
DEFPOINTS
 62
     0
100
AcDbPoint
 10
70.74733980819745
 20
-301.0
 30
0.0
  0
ENDBLK
  5
9327
330
931C
100
AcDbEntity
  8
0
100
AcDbBlockEnd
  0
BLOCK
  5
93D9
330
93CE
100
AcDbEntity
  8
0
100
AcDbBlockBegin
  2
*D24
 70
     1
 10
0.0
 20
0.0
 30
0.0
  3
*D24
  1

  0
LINE
  5
93CF
330
93CE
100
AcDbEntity
  8
0
 62
     0
100
AcDbLine
 10
-7.984688995215321
 20
132.7726966378279
 30
0.0
 11
-7.984688995215321
 21
140.4897050385079
 31
0.0
  0
LINE
  5
93D0
330
93CE
100
AcDbEntity
  8
0
 62
     0
100
AcDbLine
 10
47.01531100478468
 20
132.7726966378279
 30
0.0
 11
47.01531100478468
 21
140.4897050385079
 31
0.0
  0
LINE
  5
93D1
330
93CE
100
AcDbEntity
  8
0
 62
     0
100
AcDbLine
 10
-7.804688995215322
 20
140.3097050385079
 30
0.0
 11
18.8938824333561
 21
140.3097050385079
 31
0.0
  0
LINE
  5
93D2
330
93CE
100
AcDbEntity
  8
0
 62
     0
100
AcDbLine
 10
46.83531100478467
 20
140.3097050385079
 30
0.0
 11
20.13673957621322
 21
140.3097050385079
 31
0.0
  0
SOLID
  5
93D3
330
93CE
100
AcDbEntity
  8
0
 62
     0
100
AcDbTrace
 10
-7.804688995215322
 20
140.3397050385079
 30
0.0
 11
-7.804688995215322
 21
140.2797050385079
 31
0.0
 12
-7.984688995215321
 22
140.3097050385079
 32
0.0
 13
-7.984688995215321
 23
140.3097050385079
 33
0.0
  0
SOLID
  5
93D4
330
93CE
100
AcDbEntity
  8
0
 62
     0
100
AcDbTrace
 10
46.83531100478467
 20
140.3397050385079
 30
0.0
 11
46.83531100478467
 21
140.2797050385079
 31
0.0
 12
47.01531100478468
 22
140.3097050385079
 32
0.0
 13
47.01531100478468
 23
140.3097050385079
 33
0.0
  0
MTEXT
  5
93D5
330
93CE
100
AcDbEntity
  8
0
 62
     0
100
AcDbMText
 10
19.51531100478467
 20
140.3097050385079
 30
0.0
 40
0.18
 41
0.0
 71
     5
 72
     1
  1
\A1;55.0000
 73
     1
 44
1.0
1001
ACAD
1000
MTEXTBEGIN
1070
    73
1070
     1
1070
    44
1040
1.0
1070
    74
1070
     0
1000
MTEXTEND
  0
POINT
  5
93D6
330
93CE
100
AcDbEntity
  8
DEFPOINTS
 62
     0
100
AcDbPoint
 10
-7.984688995215321
 20
132.7101966378279
 30
0.0
  0
POINT
  5
93D7
330
93CE
100
AcDbEntity
  8
DEFPOINTS
 62
     0
100
AcDbPoint
 10
47.01531100478468
 20
132.7101966378279
 30
0.0
  0
POINT
  5
93D8
330
93CE
100
AcDbEntity
  8
DEFPOINTS
 62
     0
100
AcDbPoint
 10
47.01531100478468
 20
140.3097050385079
 30
0.0
  0
ENDBLK
  5
93DA
330
93CE
100
AcDbEntity
  8
0
100
AcDbBlockEnd
  0
BLOCK
  5
93EA
330
93DC
100
AcDbEntity
  8
0
100
AcDbBlockBegin
  2
A$C29012A4E
 70
     0
 10
0.0
 20
0.0
 30
0.0
  3
A$C29012A4E
  1

  0
LINE
  5
93DD
330
93DC
100
AcDbEntity
  8
0
100
AcDbLine
 10
49.49999999999995
 20
4.845131294189641
 30
0.0
 11
49.49999999999995
 21
-45.15486870581033
 31
0.0
  0
LINE
  5
93DE
330
93DC
100
AcDbEntity
  8
0
100
AcDbLine
 10
-5.50000000000004
 20
4.845131294189641
 30
0.0
 11
-5.50000000000004
 21
-45.15486870581033
 31
0.0
  0
LINE
  5
93DF
330
93DC
100
AcDbEntity
  8
0
100
AcDbLine
 10
-4.000000000000055
 20
4.845131294189641
 30
0.0
 11
-4.000000000000055
 21
-45.15486870581033
 31
0.0
  0
LINE
  5
93E0
330
93DC
100
AcDbEntity
  8
0
100
AcDbLine
 10
17.99999999999996
 20
4.845131294189641
 30
0.0
 11
17.99999999999996
 21
-45.15486870581033
 31
0.0
  0
LINE
  5
93E1
330
93DC
100
AcDbEntity
  8
0
100
AcDbLine
 10
13.99999999999995
 20
0.0
 30
0.0
 11
-0.0000000000009521
 21
0.0
 31
0.0
  0
LINE
  5
93E2
330
93DC
100
AcDbEntity
  8
0
100
AcDbLine
 10
13.99999999999995
 20
-4.914912265733731
 30
0.0
 11
-0.0000000000000497
 21
-4.914912265733731
 31
0.0
  0
LINE
  5
93E3
330
93DC
100
AcDbEntity
  8
0
100
AcDbLine
 10
13.99999999999995
 20
-13.31407939894889
 30
0.0
 11
0.0000000000008598
 21
-13.3140793989488
 31
0.0
  0
LINE
  5
93E4
330
93DC
100
AcDbEntity
  8
0
100
AcDbLine
 10
-0.0000000000000497
 20
-38.65486870581035
 30
0.0
 11
13.99999999999995
 21
-38.65486870581035
 31
0.0
  0
LINE
  5
93E5
330
93DC
100
AcDbEntity
  8
0
100
AcDbLine
 10
-5.50000000000004
 20
-45.15486870581033
 30
0.0
 11
49.49999999999995
 21
-45.15486870581033
 31
0.0
  0
LINE
  5
93E6
330
93DC
100
AcDbEntity
  8
0
100
AcDbLine
 10
-0.0000000000000497
 20
-38.65486870581035
 30
0.0
 11
0.0
 21
0.0
 31
0.0
  0
LINE
  5
93E7
330
93DC
100
AcDbEntity
  8
0
100
AcDbLine
 10
13.99999999999995
 20
-38.65486870581035
 30
0.0
 11
14.0
 21
0.0
 31
0.0
  0
DIMENSION
  5
93E8
330
93DC
100
AcDbEntity
  8
0
100
AcDbDimension
  2
*D24
 10
49.49999999999995
 20
12.44463969486975
 30
0.0
 11
21.99999999999994
 21
12.44463969486975
 31
0.0
 12
2.484688995215279
 22
-127.8650653436382
 32
0.0
 71
     5
 42
-1.0
  3
STANDARD
100
AcDbAlignedDimension
 13
-5.50000000000004
 23
4.845131294189641
 33
0.0
 14
49.49999999999995
 24
4.845131294189641
 34
0.0
100
AcDbRotatedDimension
1001
ACAD
1000
DSTYLE
1002
{
1070
   340
1005
11
1002
}
  0
LINE
  5
93E9
330
93DC
100
AcDbEntity
  8
0
100
AcDbLine
 10
-5.50000000000004
 20
4.845131294189641
 30
0.0
 11
49.49999999999995
 21
4.845131294189641
 31
0.0
  0
ENDBLK
  5
93EB
330
93DC
100
AcDbEntity
  8
0
100
AcDbBlockEnd
  0
ENDSEC
  0
SECTION
  2
ENTITIES
  0
LINE
  5
B4
330
1E
100
AcDbEntity
  8
16
100
AcDbLine
 10
0.0
 20
-105.0883879261505
 30
0.0
 11
0.0
 21
86.25
 31
0.0
  0
LINE
  5
B5
330
1E
100
AcDbEntity
  8
16
100
AcDbLine
 10
59.74013214434672
 20
0.0000000000000089
 30
0.0
 11
-26.60868885537141
 21
0.0
 31
0.0
  0
MTEXT
  5
BF3
330
1E
100
AcDbEntity
  8
24
  6
Continuous
100
AcDbMText
 10
142.1181906098743
 20
192.5
 30
0.0
 40
3.0
 41
0.0
 71
     1
 72
     1
  1
\A1;
 73
     1
 44
1.0
1001
ACAD
1000
MTEXTBEGIN
1070
    73
1070
     1
1070
    44
1040
1.0
1070
    74
1070
     0
1000
MTEXTEND
  0
LINE
  5
1C9A
330
1E
100
AcDbEntity
  8
16
100
AcDbLine
 10
0.0
 20
126.8811670622457
 30
0.0
 11
0.0
 21
269.3811670622458
 31
0.0
  0
LINE
  5
1C9B
330
1E
100
AcDbEntity
  8
16
100
AcDbLine
 10
280.529464512613
 20
0.0
 30
0.0
 11
121.0450763366921
 21
0.0
 31
0.0
  0
LINE
  5
2260
330
1E
100
AcDbEntity
  8
16
100
AcDbLine
 10
59.90743607736431
 20
-235.0
 30
0.0
 11
-37.93042662644571
 21
-235.0
 31
0.0
  0
LINE
  5
2261
330
1E
100
AcDbEntity
  8
16
100
AcDbLine
 10
0.0
 20
-317.4374692359974
 30
0.0
 11
0.0
 21
-149.5
 31
0.0
  0
LINE
  5
819E
330
1E
100
AcDbEntity
  8
10
100
AcDbLine
 10
-15.0
 20
-77.5
 30
0.0
 11
45.0
 21
-77.5
 31
0.0
  0
LINE
  5
819F
330
1E
100
AcDbEntity
  8
10
100
AcDbLine
 10
45.0
 20
77.49999999999992
 30
0.0
 11
-15.0
 21
77.49999999999992
 31
0.0
  0
LINE
  5
81A0
330
1E
100
AcDbEntity
  8
10
100
AcDbLine
 10
-15.0
 20
50.99999999999988
 30
0.0
 11
45.0
 21
50.99999999999988
 31
0.0
  0
LINE
  5
81A1
330
1E
100
AcDbEntity
  8
10
100
AcDbLine
 10
-15.0
 20
-51.00000000000003
 30
0.0
 11
45.0
 21
-51.00000000000003
 31
0.0
  0
DIMENSION
  5
81A8
330
1E
100
AcDbEntity
  8
30
100
AcDbDimension
  2
*D1
 10
45.00000000000002
 20
-95.05260904743506
 30
0.0
 11
15.0
 21
-92.05260904743502
 31
0.0
 70
    32
 71
     5
 42
-1.0
  3
STANDARD
100
AcDbAlignedDimension
 13
-15.0
 23
-77.5
 33
0.0
 14
45.00000000000002
 24
-77.5
 34
0.0
 50
180.0
100
AcDbRotatedDimension
  0
LINE
  5
81A9
330
1E
100
AcDbEntity
  8
10
100
AcDbLine
 10
-15.0
 20
77.49999999999992
 30
0.0
 11
-15.0
 21
-77.5
 31
0.0
  0
LINE
  5
81AB
330
1E
100
AcDbEntity
  8
17
100
AcDbLine
 10
30.0
 20
-74.00000000000003
 30
0.0
 11
30.0
 21
-60.0
 31
0.0
  0
LINE
  5
81AE
330
1E
100
AcDbEntity
  8
12
100
AcDbLine
 10
15.0
 20
-60.49999999999982
 30
0.0
 11
15.0
 21
-71.49999999999981
 31
0.0
  0
ARC
  5
81AF
330
1E
100
AcDbEntity
  8
10
100
AcDbCircle
 10
3.75
 20
-66.00000000000003
 30
0.0
 40
5.0
210
0.0
220
0.0
230
-1.0
100
AcDbArc
 50
0.0
 51
90.0
  0
ARC
  5
81B0
330
1E
100
AcDbEntity
  8
10
100
AcDbCircle
 10
-3.75
 20
-66.00000000000003
 30
0.0
 40
5.0
210
0.0
220
0.0
230
-1.0
100
AcDbArc
 50
90.0
 51
180.0
  0
ARC
  5
81B3
330
1E
100
AcDbEntity
  8
10
100
AcDbCircle
 10
-26.25
 20
-66.00000000000003
 30
0.0
 40
5.0
210
0.0
220
0.0
230
-1.0
100
AcDbArc
 50
0.0
 51
90.0
  0
ARC
  5
81B4
330
1E
100
AcDbEntity
  8
10
100
AcDbCircle
 10
-33.75
 20
-66.00000000000003
 30
0.0
 40
5.0
210
0.0
220
0.0
230
-1.0
100
AcDbArc
 50
90.0
 51
180.0
  0
LINE
  5
81B6
330
1E
100
AcDbEntity
  8
12
100
AcDbLine
 10
9.5
 20
-65.99999999999984
 30
0.0
 11
20.50000000000005
 21
-65.99999999999984
 31
0.0
  0
CIRCLE
  5
81B7
330
1E
100
AcDbEntity
  8
12
100
AcDbCircle
 10
-15.0
 20
-65.99999999999984
 30
0.0
 40
4.0
210
0.0
220
0.0
230
-1.0
  0
LINE
  5
81BE
330
1E
100
AcDbEntity
  8
17
100
AcDbLine
 10
-6.999999999999943
 20
-67.0
 30
0.0
 11
7.0
 21
-67.0
 31
0.0
  0
CIRCLE
  5
81BF
330
1E
100
AcDbEntity
  8
24
100
AcDbCircle
 10
0.0
 20
-67.0
 30
0.0
 40
5.0
  0
LINE
  5
81C1
330
1E
100
AcDbEntity
  8
10
100
AcDbLine
 10
8.75
 20
-66.00000000000003
 30
0.0
 11
8.75
 21
-77.5
 31
0.0
  0
LINE
  5
81C2
330
1E
100
AcDbEntity
  8
17
100
AcDbLine
 10
23.00000000000005
 20
-67.0
 30
0.0
 11
37.00000000000002
 21
-67.0
 31
0.0
  0
CIRCLE
  5
81C3
330
1E
100
AcDbEntity
  8
24
100
AcDbCircle
 10
30.0
 20
-67.0
 30
0.0
 40
5.0
  0
LINE
  5
81C4
330
1E
100
AcDbEntity
  8
10
100
AcDbLine
 10
21.25
 20
-66.00000000000003
 30
0.0
 11
21.25
 21
-77.5
 31
0.0
  0
LINE
  5
81C5
330
1E
100
AcDbEntity
  8
10
100
AcDbLine
 10
38.75
 20
-66.00000000000003
 30
0.0
 11
38.75
 21
-77.5
 31
0.0
  0
LINE
  5
81C8
330
1E
100
AcDbEntity
  8
10
100
AcDbLine
 10
-12.5
 20
24.99999999999994
 30
0.0
 11
42.50000000000002
 21
24.99999999999994
 31
0.0
  0
LINE
  5
81C9
330
1E
100
AcDbEntity
  8
10
100
AcDbLine
 10
-12.5
 20
-25.0
 30
0.0
 11
42.50000000000002
 21
-25.0
 31
0.0
  0
DIMENSION
  5
81CA
330
1E
100
AcDbEntity
  8
30
100
AcDbDimension
  2
*D2
 10
42.50000000000002
 20
32.59950840068007
 30
0.0
 11
15.0
 21
35.59950840068009
 31
0.0
 70
    32
 71
     5
 42
-1.0
  3
STANDARD
100
AcDbAlignedDimension
 13
-12.5
 23
24.99999999999996
 33
0.0
 14
42.50000000000002
 24
24.99999999999996
 34
0.0
100
AcDbRotatedDimension
  0
LINE
  5
81CB
330
1E
100
AcDbEntity
  8
10
100
AcDbLine
 10
-12.5
 20
24.99999999999994
 30
0.0
 11
-12.5
 21
-25.0
 31
0.0
  0
LINE
  5
81CC
330
1E
100
AcDbEntity
  8
10
100
AcDbLine
 10
11.0
 20
24.99999999999994
 30
0.0
 11
11.0
 21
-25.0
 31
0.0
  0
LINE
  5
81CD
330
1E
100
AcDbEntity
  8
10
100
AcDbLine
 10
-11.5
 20
24.99999999999994
 30
0.0
 11
-11.5
 21
-25.0
 31
0.0
  0
LINE
  5
81CE
330
1E
100
AcDbEntity
  8
10
100
AcDbLine
 10
-6.999999999999943
 20
-18.50000000000003
 30
0.0
 11
-6.999999999999943
 21
20.1548687058103
 31
0.0
  0
LINE
  5
81CF
330
1E
100
AcDbEntity
  8
10
100
AcDbLine
 10
7.0
 20
-18.50000000000003
 30
0.0
 11
7.000000000000111
 21
20.1548687058103
 31
0.0
  0
LINE
  5
81D0
330
1E
100
AcDbEntity
  8
10
100
AcDbLine
 10
42.50000000000002
 20
24.99999999999994
 30
0.0
 11
42.50000000000002
 21
-25.0
 31
0.0
  0
LINE
  5
81D2
330
1E
100
AcDbEntity
  8
10
100
AcDbLine
 10
3.75
 20
-61.00000000000003
 30
0.0
 11
-3.75
 21
-61.00000000000003
 31
0.0
  0
LINE
  5
81D3
330
1E
100
AcDbEntity
  8
10
100
AcDbLine
 10
-6.999999999999943
 20
-18.50000000000003
 30
0.0
 11
7.0
 21
-18.50000000000003
 31
0.0
  0
LINE
  5
81D4
330
1E
100
AcDbEntity
  8
10
100
AcDbLine
 10
7.0
 20
15.23995644007658
 30
0.0
 11
-6.999999999999943
 21
15.23995644007658
 31
0.0
  0
LINE
  5
81D5
330
1E
100
AcDbEntity
  8
10
100
AcDbLine
 10
7.0
 20
6.840789306861437
 30
0.0
 11
-6.99999999999909
 21
6.840789306861493
 31
0.0
  0
LINE
  5
81D6
330
1E
100
AcDbEntity
  8
10
100
AcDbLine
 10
33.75
 20
-61.00000000000003
 30
0.0
 11
26.25
 21
-61.00000000000003
 31
0.0
  0
LINE
  5
81D8
330
1E
100
AcDbEntity
  8
12
100
AcDbLine
 10
9.5
 20
65.99999999999977
 30
0.0
 11
20.50000000000005
 21
65.99999999999977
 31
0.0
  0
CIRCLE
  5
81D9
330
1E
100
AcDbEntity
  8
12
100
AcDbCircle
 10
15.0
 20
65.99999999999977
 30
0.0
 40
4.0
  0
LINE
  5
81DA
330
1E
100
AcDbEntity
  8
10
100
AcDbLine
 10
7.0
 20
20.1548687058103
 30
0.0
 11
-7.000000000000909
 21
20.1548687058103
 31
0.0
  0
LINE
  5
81E6
330
1E
100
AcDbEntity
  8
10
100
AcDbLine
 10
-8.75
 20
65.99999999999988
 30
0.0
 11
-8.75
 21
77.49999999999992
 31
0.0
  0
LINE
  5
81E7
330
1E
100
AcDbEntity
  8
10
100
AcDbLine
 10
8.75
 20
65.99999999999988
 30
0.0
 11
8.75
 21
77.49999999999992
 31
0.0
  0
LINE
  5
81E8
330
1E
100
AcDbEntity
  8
17
100
AcDbLine
 10
-6.999999999999943
 20
66.99999999999993
 30
0.0
 11
7.0
 21
66.99999999999993
 31
0.0
  0
LINE
  5
81E9
330
1E
100
AcDbEntity
  8
10
100
AcDbLine
 10
3.75
 20
60.99999999999988
 30
0.0
 11
-3.75
 21
60.99999999999988
 31
0.0
  0
CIRCLE
  5
81EA
330
1E
100
AcDbEntity
  8
24
100
AcDbCircle
 10
0.0
 20
66.99999999999993
 30
0.0
 40
5.0
  0
ARC
  5
81EB
330
1E
100
AcDbEntity
  8
10
100
AcDbCircle
 10
-3.75
 20
65.99999999999988
 30
0.0
 40
5.0
100
AcDbArc
 50
180.0
 51
270.0
  0
ARC
  5
81EC
330
1E
100
AcDbEntity
  8
10
100
AcDbCircle
 10
3.75
 20
65.99999999999988
 30
0.0
 40
5.0
100
AcDbArc
 50
270.0
 51
0.0
  0
LINE
  5
8252
330
1E
100
AcDbEntity
  8
10
100
AcDbLine
 10
21.25
 20
65.99999999999988
 30
0.0
 11
21.25
 21
77.49999999999992
 31
0.0
  0
LINE
  5
8253
330
1E
100
AcDbEntity
  8
10
100
AcDbLine
 10
38.75
 20
65.99999999999988
 30
0.0
 11
38.75
 21
77.49999999999992
 31
0.0
  0
LINE
  5
8254
330
1E
100
AcDbEntity
  8
17
100
AcDbLine
 10
23.00000000000005
 20
66.99999999999993
 30
0.0
 11
37.00000000000002
 21
66.99999999999993
 31
0.0
  0
LINE
  5
8255
330
1E
100
AcDbEntity
  8
10
100
AcDbLine
 10
33.75
 20
60.99999999999988
 30
0.0
 11
26.25
 21
60.99999999999988
 31
0.0
  0
CIRCLE
  5
8256
330
1E
100
AcDbEntity
  8
24
100
AcDbCircle
 10
30.0
 20
66.99999999999993
 30
0.0
 40
5.0
  0
LINE
  5
8257
330
1E
100
AcDbEntity
  8
12
100
AcDbLine
 10
15.0
 20
71.50000000000024
 30
0.0
 11
15.0
 21
60.50000000000022
 31
0.0
  0
ARC
  5
8258
330
1E
100
AcDbEntity
  8
10
100
AcDbCircle
 10
26.25
 20
65.99999999999988
 30
0.0
 40
5.0
100
AcDbArc
 50
180.0
 51
270.0
  0
LINE
  5
8259
330
1E
100
AcDbEntity
  8
17
100
AcDbLine
 10
30.0
 20
73.99999999999995
 30
0.0
 11
30.0
 21
59.99999999999993
 31
0.0
  0
ARC
  5
825A
330
1E
100
AcDbEntity
  8
10
100
AcDbCircle
 10
33.75
 20
65.99999999999988
 30
0.0
 40
5.0
100
AcDbArc
 50
270.0
 51
0.0
  0
LINE
  5
8260
330
1E
100
AcDbEntity
  8
10
100
AcDbLine
 10
45.0
 20
-77.5
 30
0.0
 11
45.0
 21
77.49999999999992
 31
0.0
  0
LINE
  5
8349
330
1E
100
AcDbEntity
  8
21
100
AcDbLine
 10
2.499999999999772
 20
269.3811670622455
 30
0.0
 11
2.499999999999772
 21
304.8811670622456
 31
0.0
  0
LINE
  5
834E
330
1E
100
AcDbEntity
  8
21
100
AcDbLine
 10
-2.500000000000226
 20
269.3811670622455
 30
0.0
 11
-2.500000000000226
 21
304.8811670622456
 31
0.0
  0
LINE
  5
8352
330
1E
100
AcDbEntity
  8
21
100
AcDbLine
 10
6.249999999999772
 20
289.8811670622456
 30
0.0
 11
-6.250000000000227
 21
289.8811670622456
 31
0.0
  0
LINE
  5
8355
330
1E
100
AcDbEntity
  8
21
100
AcDbLine
 10
2.499999999999772
 20
304.8811670622456
 30
0.0
 11
-2.500000000000226
 21
304.8811670622456
 31
0.0
  0
LINE
  5
8356
330
1E
100
AcDbEntity
  8
21
100
AcDbLine
 10
2.499999999999772
 20
304.8811670622456
 30
0.0
 11
-2.500000000000226
 21
304.8811670622456
 31
0.0
  0
LINE
  5
8357
330
1E
100
AcDbEntity
  8
21
100
AcDbLine
 10
2.499999999999772
 20
274.8811670622456
 30
0.0
 11
-2.500000000000226
 21
274.8811670622456
 31
0.0
  0
LINE
  5
835C
330
1E
100
AcDbEntity
  8
21
100
AcDbLine
 10
7.124999999999772
 20
269.3811670622455
 30
0.0
 11
-7.125000000000227
 21
269.3811670622455
 31
0.0
  0
LINE
  5
835D
330
1E
100
AcDbEntity
  8
10
100
AcDbLine
 10
45.0
 20
141.8811670622458
 30
0.0
 11
-15.0
 21
141.8811670622458
 31
0.0
  0
LINE
  5
835E
330
1E
100
AcDbEntity
  8
10
100
AcDbLine
 10
41.99999999999953
 20
130.8811670622457
 30
0.0
 11
-15.0
 21
130.8811670622457
 31
0.0
  0
LINE
  5
835F
330
1E
100
AcDbEntity
  8
10
100
AcDbLine
 10
45.0
 20
202.8811670622455
 30
0.0
 11
-15.0
 21
202.8811670622455
 31
0.0
  0
LINE
  5
8360
330
1E
100
AcDbEntity
  8
10
100
AcDbLine
 10
10.99999999999975
 20
126.8811670622457
 30
0.0
 11
-10.99999999999975
 21
126.8811670622457
 31
0.0
  0
LINE
  5
8361
330
1E
100
AcDbEntity
  8
10
100
AcDbLine
 10
45.0
 20
134.8811670622455
 30
0.0
 11
-15.0
 21
134.8811670622455
 31
0.0
  0
LINE
  5
8362
330
1E
100
AcDbEntity
  8
10
100
AcDbLine
 10
7.0
 20
114.8859132626504
 30
0.0
 11
-7.0
 21
114.8859132626504
 31
0.0
  0
LINE
  5
8366
330
1E
100
AcDbEntity
  8
10
100
AcDbLine
 10
-15.0
 20
130.8811670622457
 30
0.0
 11
-15.0
 21
202.8811670622455
 31
0.0
  0
LINE
  5
8368
330
1E
100
AcDbEntity
  8
21
100
AcDbLine
 10
-7.125000000000227
 20
202.8811670622455
 30
0.0
 11
-7.125000000000227
 21
269.3811670622455
 31
0.0
  0
LINE
  5
8376
330
1E
100
AcDbEntity
  8
10
100
AcDbLine
 10
-11.00000000000022
 20
126.8811670622457
 30
0.0
 11
-11.00000000000022
 21
130.8811670622457
 31
0.0
  0
LINE
  5
8377
330
1E
100
AcDbEntity
  8
10
100
AcDbLine
 10
-7.0
 20
126.8811670622457
 30
0.0
 11
-7.0
 21
114.8859132626503
 31
0.0
  0
LINE
  5
837A
330
1E
100
AcDbEntity
  8
10
100
AcDbLine
 10
45.0
 20
202.8811670622455
 30
0.0
 11
45.0
 21
134.8811670622455
 31
0.0
  0
LINE
  5
837D
330
1E
100
AcDbEntity
  8
21
100
AcDbLine
 10
7.124999999999772
 20
202.8811670622455
 30
0.0
 11
7.124999999999772
 21
269.3811670622455
 31
0.0
  0
LINE
  5
837F
330
1E
100
AcDbEntity
  8
21
100
AcDbLine
 10
32.49999999999977
 20
219.3811670622455
 30
0.0
 11
32.49999999999977
 21
254.8811670622455
 31
0.0
  0
LINE
  5
8380
330
1E
100
AcDbEntity
  8
21
100
AcDbLine
 10
27.49999999999977
 20
219.3811670622455
 30
0.0
 11
27.49999999999977
 21
254.8811670622455
 31
0.0
  0
LINE
  5
8381
330
1E
100
AcDbEntity
  8
21
100
AcDbLine
 10
29.99999999999977
 20
197.8811670622455
 30
0.0
 11
29.99999999999977
 21
259.8811670622456
 31
0.0
  0
LINE
  5
8382
330
1E
100
AcDbEntity
  8
21
100
AcDbLine
 10
32.49999999999977
 20
254.8811670622455
 30
0.0
 11
27.49999999999977
 21
254.8811670622455
 31
0.0
  0
LINE
  5
8383
330
1E
100
AcDbEntity
  8
21
100
AcDbLine
 10
36.24999999999977
 20
239.8811670622456
 30
0.0
 11
23.74999999999977
 21
239.8811670622456
 31
0.0
  0
LINE
  5
8384
330
1E
100
AcDbEntity
  8
21
100
AcDbLine
 10
37.12499999999977
 20
219.3811670622455
 30
0.0
 11
22.87499999999977
 21
219.3811670622455
 31
0.0
  0
LINE
  5
8385
330
1E
100
AcDbEntity
  8
21
100
AcDbLine
 10
32.49999999999977
 20
224.8811670622457
 30
0.0
 11
27.49999999999977
 21
224.8811670622457
 31
0.0
  0
LINE
  5
8386
330
1E
100
AcDbEntity
  8
21
100
AcDbLine
 10
22.87499999999977
 20
202.8811670622455
 30
0.0
 11
22.87499999999977
 21
219.3811670622455
 31
0.0
  0
LINE
  5
8387
330
1E
100
AcDbEntity
  8
12
100
AcDbLine
 10
13.0
 20
210.8811670622456
 30
0.0
 11
17.0
 21
210.8811670622456
 31
0.0
  0
LINE
  5
8388
330
1E
100
AcDbEntity
  8
12
100
AcDbLine
 10
17.0
 20
202.8811670622455
 30
0.0
 11
17.0
 21
210.8811670622456
 31
0.0
  0
LINE
  5
8389
330
1E
100
AcDbEntity
  8
12
100
AcDbLine
 10
13.0
 20
202.8811670622455
 30
0.0
 11
13.0
 21
210.8811670622456
 31
0.0
  0
LINE
  5
838A
330
1E
100
AcDbEntity
  8
21
100
AcDbLine
 10
37.12499999999977
 20
202.8811670622455
 30
0.0
 11
37.12499999999977
 21
219.3811670622455
 31
0.0
  0
LINE
  5
838C
330
1E
100
AcDbEntity
  8
18
100
AcDbLine
 10
47.73686534538001
 20
202.8811670622455
 30
0.0
 11
45.0
 21
202.8811670622455
 31
0.0
  0
LINE
  5
838D
330
1E
100
AcDbEntity
  8
10
100
AcDbLine
 10
7.0
 20
126.8811670622457
 30
0.0
 11
7.0
 21
114.8859132626503
 31
0.0
  0
LINE
  5
838E
330
1E
100
AcDbEntity
  8
10
100
AcDbLine
 10
10.99999999999975
 20
126.8811670622457
 30
0.0
 11
10.99999999999975
 21
130.8811670622457
 31
0.0
  0
LINE
  5
838F
330
1E
100
AcDbEntity
  8
10
100
AcDbLine
 10
42.0
 20
130.8811670622457
 30
0.0
 11
42.0
 21
134.8811670622455
 31
0.0
  0
LINE
  5
8391
330
1E
100
AcDbEntity
  8
18
100
AcDbLine
 10
47.73686534538001
 20
206.0811670622455
 30
0.0
 11
-45.23175851109782
 21
206.0811670622455
 31
0.0
  0
LINE
  5
8392
330
1E
100
AcDbEntity
  8
18
100
AcDbLine
 10
-15.0
 20
202.8811670622455
 30
0.0
 11
-45.23175851109772
 21
202.8811670622455
 31
0.0
  0
DIMENSION
  5
8393
330
1E
100
AcDbEntity
  8
30
100
AcDbDimension
  2
*D3
 10
72.32358783816858
 20
202.8811670622455
 30
0.0
 11
69.32358783816855
 21
206.8811670622455
 31
0.0
 70
    32
 71
     5
 42
-1.0
  3
STANDARD
100
AcDbAlignedDimension
 13
17.00000000000011
 23
210.8811670622456
 33
0.0
 14
47.73686534538001
 24
202.8811670622455
 34
0.0
 50
90.0
100
AcDbRotatedDimension
1001
ACAD
1000
DSTYLE
1002
{
1070
   340
1005
11
1002
}
  0
LINE
  5
85CB
330
1E
100
AcDbEntity
  8
0
100
AcDbLine
 10
238.5415450433534
 20
-59.875
 30
0.0
 11
238.5415450433534
 21
-74.12500000000003
 31
0.0
  0
LINE
  5
85CC
330
1E
100
AcDbEntity
  8
10
100
AcDbLine
 10
222.0415450433534
 20
77.5000000000001
 30
0.0
 11
222.0415450433534
 21
-77.5
 31
0.0
  0
LINE
  5
85CD
330
1E
100
AcDbEntity
  8
10
100
AcDbLine
 10
161.0415450433536
 20
-51.00000000000003
 30
0.0
 11
161.0415450433536
 21
-77.5
 31
0.0
  0
LINE
  5
85CE
330
1E
100
AcDbEntity
  8
18
100
AcDbLine
 10
225.2415450433535
 20
96.99999999999995
 30
0.0
 11
225.2415450433535
 21
-97.0
 31
0.0
  0
LINE
  5
85CF
330
1E
100
AcDbEntity
  8
0
100
AcDbLine
 10
288.5415450433536
 20
-59.875
 30
0.0
 11
288.5415450433536
 21
-74.12500000000003
 31
0.0
  0
LINE
  5
85D0
330
1E
100
AcDbEntity
  8
17
100
AcDbLine
 10
259.0415450433535
 20
-54.00000000000003
 30
0.0
 11
259.0415450433535
 21
-80.0
 31
0.0
  0
LINE
  5
85D1
330
1E
100
AcDbEntity
  8
17
100
AcDbLine
 10
309.0415450433535
 20
-54.00000000000003
 30
0.0
 11
309.0415450433535
 21
-80.0
 31
0.0
  0
ARC
  5
85D2
330
1E
100
AcDbEntity
  8
0
100
AcDbCircle
 10
258.0415450433534
 20
-67.0
 30
0.0
 40
16.0
100
AcDbArc
 50
329.999999999999
 51
30.00000000000098
  0
ARC
  5
85D3
330
1E
100
AcDbEntity
  8
0
100
AcDbCircle
 10
308.0415450433536
 20
-67.0
 30
0.0
 40
16.0
100
AcDbArc
 50
329.999999999999
 51
30.00000000000098
  0
ARC
  5
85D4
330
1E
100
AcDbEntity
  8
0
100
AcDbCircle
 10
-262.9558253627314
 20
-69.00000000000003
 30
0.0
 40
20.0
210
0.0
220
0.0
230
-1.0
100
AcDbArc
 50
18.96557498884839
 51
30.00000000000098
  0
ARC
  5
85D5
330
1E
100
AcDbEntity
  8
0
100
AcDbCircle
 10
-312.9558253627314
 20
-69.00000000000003
 30
0.0
 40
20.0
210
0.0
220
0.0
230
-1.0
100
AcDbArc
 50
18.96557498884839
 51
30.00000000000098
  0
DIMENSION
  5
85D6
330
1E
100
AcDbEntity
  8
30
100
AcDbDimension
  2
*D5
 10
348.1282675361418
 20
-59.00000000000003
 30
0.0
 11
345.1282675361418
 21
-66.99999999999995
 31
0.0
 70
    32
 71
     5
 42
-1.0
  3
STANDARD
100
AcDbAlignedDimension
 13
321.8979515039046
 23
-75.0
 33
0.0
 14
321.8979515039046
 24
-59.00000000000003
 34
0.0
 50
270.0
100
AcDbRotatedDimension
  0
DIMENSION
  5
85D8
330
1E
100
AcDbEntity
  8
30
100
AcDbDimension
  2
*D6
 10
259.0415450433535
 20
-34.90049159931984
 30
0.0
 11
251.5415450433534
 21
-31.90049159931985
 31
0.0
 70
    32
 71
     5
 42
-1.0
  3
STANDARD
100
AcDbAlignedDimension
 13
244.0415450433536
 23
-59.99999998350003
 33
0.0
 14
259.0415450433535
 24
-64.49999998350003
 34
0.0
100
AcDbRotatedDimension
  0
DIMENSION
  5
85D9
330
1E
100
AcDbEntity
  8
30
100
AcDbDimension
  2
*D7
 10
222.0415450433534
 20
-121.1323124432112
 30
0.0
 11
188.0415450433535
 21
-118.1323124432112
 31
0.0
 70
    32
 71
     5
 42
-1.0
  3
STANDARD
100
AcDbAlignedDimension
 13
154.0415450433536
 23
-51.00000000000003
 33
0.0
 14
222.0415450433534
 24
-77.5
 34
0.0
 50
180.0
100
AcDbRotatedDimension
  0
DIMENSION
  5
85DA
330
1E
100
AcDbEntity
  8
30
100
AcDbDimension
  2
*D8
 10
222.0415450433534
 20
-142.3823124432113
 30
0.0
 11
186.0415450433535
 21
-139.3823124432112
 31
0.0
 70
    32
 71
     5
 42
-1.0
  3
STANDARD
100
AcDbAlignedDimension
 13
150.0415450433536
 23
-25.00000000000003
 33
0.0
 14
222.0415450433534
 24
-77.5
 34
0.0
 50
180.0
100
AcDbRotatedDimension
  0
DIMENSION
  5
85DB
330
1E
100
AcDbEntity
  8
30
100
AcDbDimension
  2
*D9
 10
150.0415450433536
 20
-142.3823124432113
 30
0.0
 11
156.3748783766868
 21
-139.3823124432112
 31
0.0
 70
    32
 71
     5
 42
-1.0
  3
STANDARD
100
AcDbAlignedDimension
 13
146.0415450433536
 23
-25.00000000000003
 33
0.0
 14
150.0415450433536
 24
-25.00000000000003
 34
0.0
 50
180.0
100
AcDbRotatedDimension
  0
LINE
  5
85DC
330
1E
100
AcDbEntity
  8
0
100
AcDbLine
 10
217.0415450433535
 20
-67.0
 30
0.0
 11
334.0415450433535
 21
-67.0
 31
0.0
  0
ARC
  5
85DD
330
1E
100
AcDbEntity
  8
0
100
AcDbCircle
 10
262.9558253627314
 20
-65.0
 30
0.0
 40
20.0
100
AcDbArc
 50
198.9655749888484
 51
210.0000000000008
  0
DIMENSION
  5
85DE
330
1E
100
AcDbEntity
  8
30
100
AcDbDimension
  2
*D10
 10
274.0415450433534
 20
-101.1323124432112
 30
0.0
 11
248.0415450433536
 21
-98.1323124432113
 31
0.0
 70
    32
 71
     5
 42
-1.0
  3
STANDARD
100
AcDbAlignedDimension
 13
222.0415450433534
 23
-97.00000000000002
 33
0.0
 14
274.0415450433534
 24
-67.0
 34
0.0
 50
180.0
100
AcDbRotatedDimension
  0
DIMENSION
  5
85DF
330
1E
100
AcDbEntity
  8
30
100
AcDbDimension
  2
*D11
 10
324.0415450433536
 20
-121.1323124432112
 30
0.0
 11
273.0415450433535
 21
-118.1323124432112
 31
0.0
 70
    32
 71
     5
 42
-1.0
  3
STANDARD
100
AcDbAlignedDimension
 13
222.0415450433534
 23
-97.00000000000002
 33
0.0
 14
324.0415450433536
 24
-67.0
 34
0.0
 50
180.0
100
AcDbRotatedDimension
  0
LINE
  5
85E1
330
1E
100
AcDbEntity
  8
10
100
AcDbLine
 10
161.0415450433536
 20
-77.5
 30
0.0
 11
222.0415450433534
 21
-77.5
 31
0.0
  0
DIMENSION
  5
85E2
330
1E
100
AcDbEntity
  8
30
100
AcDbDimension
  2
*D12
 10
222.0415450433534
 20
-101.1323124432112
 30
0.0
 11
191.5415450433535
 21
-98.1323124432113
 31
0.0
 70
    32
 71
     5
 42
-1.0
  3
STANDARD
100
AcDbAlignedDimension
 13
161.0415450433536
 23
-77.5
 33
0.0
 14
222.0415450433534
 24
-77.5
 34
0.0
 50
180.0
100
AcDbRotatedDimension
  0
LINE
  5
85E4
330
1E
100
AcDbEntity
  8
0
100
AcDbLine
 10
222.0415450433534
 20
-77.5
 30
0.0
 11
222.0415450433534
 21
-97.00000000000002
 31
0.0
  0
LINE
  5
85E5
330
1E
100
AcDbEntity
  8
0
100
AcDbLine
 10
222.0415450433534
 20
-74.12500000000003
 30
0.0
 11
245.1587926044314
 21
-74.12500000000003
 31
0.0
  0
LINE
  5
85E6
330
1E
100
AcDbEntity
  8
0
100
AcDbLine
 10
238.5415450433534
 20
-71.50000000000003
 30
0.0
 11
244.0415450433536
 21
-71.50000000000003
 31
0.0
  0
LINE
  5
85E7
330
1E
100
AcDbEntity
  8
0
100
AcDbLine
 10
238.5415450433534
 20
-62.5
 30
0.0
 11
244.0415450433536
 21
-62.5
 31
0.0
  0
LINE
  5
85E8
330
1E
100
AcDbEntity
  8
0
100
AcDbLine
 10
295.6353172870425
 20
-75.0
 30
0.0
 11
321.8979515039046
 21
-75.0
 31
0.0
  0
DIMENSION
  5
85E9
330
1E
100
AcDbEntity
  8
30
100
AcDbDimension
  2
*D13
 10
274.0415450433534
 20
-91.35521683906722
 30
0.0
 11
266.5415450433534
 21
-88.35521683906723
 31
0.0
 70
    32
 71
     5
 42
-1.0
  3
STANDARD
100
AcDbAlignedDimension
 13
259.0415450433535
 23
-69.50000001650002
 33
0.0
 14
274.0415450433534
 24
-76.28708784337162
 34
0.0
 50
180.0
100
AcDbRotatedDimension
  0
LINE
  5
85EA
330
1E
100
AcDbEntity
  8
0
100
AcDbLine
 10
245.6353172870425
 20
-75.0
 30
0.0
 11
271.8979515039046
 21
-75.0
 31
0.0
  0
CIRCLE
  5
85EB
330
1E
100
AcDbEntity
  8
24
100
AcDbCircle
 10
259.0415450433535
 20
-67.0
 30
0.0
 40
4.25
  0
LINE
  5
85EC
330
1E
100
AcDbEntity
  8
0
100
AcDbLine
 10
272.3675484986094
 20
-74.12500000000003
 30
0.0
 11
288.5415450433536
 21
-74.12500000000003
 31
0.0
  0
LINE
  5
85ED
330
1E
100
AcDbEntity
  8
0
100
AcDbLine
 10
288.5415450433536
 20
-71.50000000000003
 30
0.0
 11
294.0415450433535
 21
-71.50000000000003
 31
0.0
  0
ARC
  5
85EE
330
1E
100
AcDbEntity
  8
0
100
AcDbCircle
 10
312.9558253627314
 20
-65.0
 30
0.0
 40
20.0
100
AcDbArc
 50
198.9655749888484
 51
210.0000000000008
  0
LINE
  5
85EF
330
1E
100
AcDbEntity
  8
0
100
AcDbLine
 10
288.5415450433536
 20
-62.5
 30
0.0
 11
294.0415450433535
 21
-62.5
 31
0.0
  0
DIMENSION
  5
85F0
330
1E
100
AcDbEntity
  8
30
100
AcDbDimension
  2
*D14
 10
324.0415450433536
 20
-81.13231244321132
 30
0.0
 11
316.5415450433536
 21
-78.1323124432113
 31
0.0
 70
    32
 71
     5
 42
-1.0
  3
STANDARD
100
AcDbAlignedDimension
 13
309.0415450433535
 23
-69.50000001650002
 33
0.0
 14
324.0415450433536
 24
-76.28708784337162
 34
0.0
 50
180.0
100
AcDbRotatedDimension
  0
CIRCLE
  5
85F1
330
1E
100
AcDbEntity
  8
24
100
AcDbCircle
 10
309.0415450433535
 20
-67.0
 30
0.0
 40
4.25
  0
LINE
  5
85F2
330
1E
100
AcDbEntity
  8
0
100
AcDbLine
 10
222.0415450433534
 20
74.12499999999987
 30
0.0
 11
288.5415450433536
 21
74.12499999999987
 31
0.0
  0
LINE
  5
85F3
330
1E
100
AcDbEntity
  8
0
100
AcDbLine
 10
222.0415450433534
 20
59.87499999999993
 30
0.0
 11
288.5415450433536
 21
59.87499999999993
 31
0.0
  0
LINE
  5
85F4
330
1E
100
AcDbEntity
  8
0
100
AcDbLine
 10
217.0415450433535
 20
66.99999999999993
 30
0.0
 11
334.0415450433535
 21
66.99999999999993
 31
0.0
  0
LINE
  5
85F5
330
1E
100
AcDbEntity
  8
0
100
AcDbLine
 10
238.5415450433534
 20
69.49999999999993
 30
0.0
 11
274.0415450433534
 21
69.49999999999993
 31
0.0
  0
LINE
  5
85F6
330
1E
100
AcDbEntity
  8
0
100
AcDbLine
 10
238.5415450433534
 20
64.49999999999993
 30
0.0
 11
274.0415450433534
 21
64.49999999999993
 31
0.0
  0
LINE
  5
85F9
330
1E
100
AcDbEntity
  8
18
100
AcDbLine
 10
222.0415450433534
 20
96.99999999999995
 30
0.0
 11
222.0415450433534
 21
77.5000000000001
 31
0.0
  0
LINE
  5
85FB
330
1E
100
AcDbEntity
  8
10
100
AcDbLine
 10
146.0415450433536
 20
6.840789306861211
 30
0.0
 11
134.046291243758
 21
15.23995644007658
 31
0.0
  0
LINE
  5
85FC
330
1E
100
AcDbEntity
  8
10
100
AcDbLine
 10
146.0415450433536
 20
14.16543683942999
 30
0.0
 11
137.4877498618644
 21
20.1548687058106
 31
0.0
  0
LINE
  5
85FF
330
1E
100
AcDbEntity
  8
10
100
AcDbLine
 10
134.046291243758
 20
15.23995644007658
 30
0.0
 11
137.4877498618644
 21
20.1548687058106
 31
0.0
  0
ARC
  5
8602
330
1E
100
AcDbEntity
  8
30
100
AcDbCircle
 10
161.0415450433536
 20
0.0
 30
0.0
 40
31.0
100
AcDbArc
 50
150.5534441956585
 51
180.0
  0
LINE
  5
8603
330
1E
100
AcDbEntity
  8
10
100
AcDbLine
 10
154.0415450433536
 20
50.99999999999988
 30
0.0
 11
154.0415450433536
 21
-51.00000000000003
 31
0.0
  0
LINE
  5
8604
330
1E
100
AcDbEntity
  8
10
100
AcDbLine
 10
150.0415450433536
 20
24.99999999999994
 30
0.0
 11
150.0415450433536
 21
-25.0
 31
0.0
  0
LINE
  5
8605
330
1E
100
AcDbEntity
  8
10
100
AcDbLine
 10
146.0415450433536
 20
24.99999999999994
 30
0.0
 11
146.0415450433536
 21
-25.0
 31
0.0
  0
LINE
  5
8606
330
1E
100
AcDbEntity
  8
10
100
AcDbLine
 10
154.0415450433536
 20
-51.00000000000003
 30
0.0
 11
161.0415450433536
 21
-51.00000000000003
 31
0.0
  0
LINE
  5
8607
330
1E
100
AcDbEntity
  8
10
100
AcDbLine
 10
146.0415450433536
 20
-25.0
 30
0.0
 11
154.0415450433536
 21
-25.0
 31
0.0
  0
LINE
  5
8608
330
1E
100
AcDbEntity
  8
0
100
AcDbLine
 10
222.0415450433534
 20
-59.875
 30
0.0
 11
245.1587926044314
 21
-59.875
 31
0.0
  0
LINE
  5
8609
330
1E
100
AcDbEntity
  8
10
100
AcDbLine
 10
161.0415450433536
 20
77.5000000000001
 30
0.0
 11
222.0415450433534
 21
77.5000000000001
 31
0.0
  0
LINE
  5
860A
330
1E
100
AcDbEntity
  8
10
100
AcDbLine
 10
161.0415450433536
 20
77.5000000000001
 30
0.0
 11
161.0415450433536
 21
50.99999999999988
 31
0.0
  0
LINE
  5
860B
330
1E
100
AcDbEntity
  8
10
100
AcDbLine
 10
146.0415450433536
 20
24.99999999999994
 30
0.0
 11
154.0415450433536
 21
24.99999999999994
 31
0.0
  0
LINE
  5
860C
330
1E
100
AcDbEntity
  8
10
100
AcDbLine
 10
154.0415450433536
 20
50.99999999999988
 30
0.0
 11
161.0415450433536
 21
50.99999999999988
 31
0.0
  0
LINE
  5
860D
330
1E
100
AcDbEntity
  8
0
100
AcDbLine
 10
238.5415450433534
 20
74.12499999999987
 30
0.0
 11
238.5415450433534
 21
59.87499999999993
 31
0.0
  0
LINE
  5
860E
330
1E
100
AcDbEntity
  8
0
100
AcDbLine
 10
244.0415450433536
 20
69.49999999999993
 30
0.0
 11
244.0415450433536
 21
64.49999999999993
 31
0.0
  0
LINE
  5
860F
330
1E
100
AcDbEntity
  8
0
100
AcDbLine
 10
295.6353172870425
 20
-59.00000000000003
 30
0.0
 11
321.8979515039046
 21
-59.00000000000003
 31
0.0
  0
LINE
  5
8610
330
1E
100
AcDbEntity
  8
0
100
AcDbLine
 10
245.6353172870425
 20
-59.00000000000003
 30
0.0
 11
271.8979515039046
 21
-59.00000000000003
 31
0.0
  0
LINE
  5
8611
330
1E
100
AcDbEntity
  8
0
100
AcDbLine
 10
272.3675484986094
 20
-59.875
 30
0.0
 11
288.5415450433536
 21
-59.875
 31
0.0
  0
LINE
  5
8612
330
1E
100
AcDbEntity
  8
0
100
AcDbLine
 10
288.5415450433536
 20
64.49999999999993
 30
0.0
 11
324.0415450433536
 21
64.49999999999993
 31
0.0
  0
LINE
  5
8613
330
1E
100
AcDbEntity
  8
0
100
AcDbLine
 10
288.5415450433536
 20
69.49999999999993
 30
0.0
 11
324.0415450433536
 21
69.49999999999993
 31
0.0
  0
LINE
  5
8614
330
1E
100
AcDbEntity
  8
17
100
AcDbLine
 10
259.0415450433535
 20
73.24999999999993
 30
0.0
 11
259.0415450433535
 21
60.74999999999992
 31
0.0
  0
LINE
  5
8615
330
1E
100
AcDbEntity
  8
0
100
AcDbLine
 10
274.0415450433534
 20
69.49999999999993
 30
0.0
 11
274.0415450433534
 21
64.49999999999993
 31
0.0
  0
LINE
  5
8616
330
1E
100
AcDbEntity
  8
0
100
AcDbLine
 10
288.5415450433536
 20
74.12499999999987
 30
0.0
 11
288.5415450433536
 21
59.87499999999993
 31
0.0
  0
LINE
  5
8617
330
1E
100
AcDbEntity
  8
0
100
AcDbLine
 10
294.0415450433535
 20
69.49999999999993
 30
0.0
 11
294.0415450433535
 21
64.49999999999993
 31
0.0
  0
DIMENSION
  5
8618
330
1E
100
AcDbEntity
  8
30
100
AcDbDimension
  2
*D4
 10
348.0191311370207
 20
69.49999999999993
 30
0.0
 11
348.0191311370207
 21
75.83333333333333
 31
0.0
 70
   160
 71
     5
 42
-1.0
  3
STANDARD
100
AcDbAlignedDimension
 13
324.0415450433536
 23
64.49999999999993
 33
0.0
 14
324.0415450433536
 24
69.49999999999993
 34
0.0
 50
270.0
100
AcDbRotatedDimension
1001
ACAD
1000
DSTYLE
1002
{
1070
   172
1070
     1
1002
}
  0
LINE
  5
8619
330
1E
100
AcDbEntity
  8
17
100
AcDbLine
 10
309.0415450433535
 20
73.24999999999993
 30
0.0
 11
309.0415450433535
 21
60.74999999999992
 31
0.0
  0
LINE
  5
861A
330
1E
100
AcDbEntity
  8
0
100
AcDbLine
 10
324.0415450433536
 20
69.49999999999993
 30
0.0
 11
324.0415450433536
 21
64.49999999999993
 31
0.0
  0
DIMENSION
  5
87F5
330
1E
100
AcDbEntity
  8
30
100
AcDbDimension
  2
*D15
 10
29.99999999999977
 20
313.4340221653556
 30
0.0
 11
14.99999999999976
 21
316.4340221653556
 31
0.0
 70
    32
 71
     5
 42
-1.0
  3
STANDARD
100
AcDbAlignedDimension
 13
-0.0000000000002274
 23
304.8811670622456
 33
0.0
 14
29.99999999999977
 24
259.8811670622456
 34
0.0
100
AcDbRotatedDimension
1001
ACAD
1000
DSTYLE
1002
{
1070
   287
1070
     4
1070
   279
1070
     1
1070
    79
1070
     3
1002
}
  0
DIMENSION
  5
883C
330
1E
100
AcDbEntity
  8
30
100
AcDbDimension
  2
*D16
 10
-49.8949346265631
 20
-77.49999999999999
 30
0.0
 11
-52.89493462656309
 21
-0.000000000000025
 31
0.0
 70
    32
 71
     5
 42
-1.0
  3
STANDARD
100
AcDbAlignedDimension
 13
-15.0
 23
77.49999999999992
 33
0.0
 14
-15.0
 24
-77.5
 34
0.0
 50
90.0
100
AcDbRotatedDimension
1001
ACAD
1000
DSTYLE
1002
{
1070
    79
1070
     3
1002
}
  0
DIMENSION
  5
8852
330
1E
100
AcDbEntity
  8
30
100
AcDbDimension
  2
*D17
 10
-39.33461828766349
 20
-51.00000000000002
 30
0.0
 11
-42.33461828766347
 21
-0.0000000000000683
 31
0.0
 70
    32
 71
     5
 42
-1.0
  3
STANDARD
100
AcDbAlignedDimension
 13
-15.0
 23
50.99999999999988
 33
0.0
 14
-15.0
 24
-51.00000000000003
 34
0.0
 50
90.0
100
AcDbRotatedDimension
1001
ACAD
1000
DSTYLE
1002
{
1070
    79
1070
     3
1002
}
  0
DIMENSION
  5
885F
330
1E
100
AcDbEntity
  8
30
100
AcDbDimension
  2
*D18
 10
-29.94766848119388
 20
-25.0
 30
0.0
 11
-32.94766848119388
 21
-0.0000000000000298
 31
0.0
 70
    32
 71
     5
 42
-1.0
  3
STANDARD
100
AcDbAlignedDimension
 13
-12.5
 23
24.99999999999994
 33
0.0
 14
-12.5
 24
-25.0
 34
0.0
 50
90.0
100
AcDbRotatedDimension
1001
ACAD
1000
DSTYLE
1002
{
1070
    79
1070
     3
1002
}
  0
DIMENSION
  5
8D3E
330
1E
100
AcDbEntity
  8
30
100
AcDbDimension
  2
*D19
 10
222.0415450433534
 20
-155.1114571606904
 30
0.0
 11
176.0415450433534
 21
-152.1114571606904
 31
0.0
 70
    32
 71
     5
 42
-1.0
  3
STANDARD
100
AcDbAlignedDimension
 13
130.0415450433536
 23
0.0000000000000038
 33
0.0
 14
222.0415450433534
 24
-142.8823124432113
 34
0.0
100
AcDbRotatedDimension
  0
DIMENSION
  5
8D63
330
1E
100
AcDbEntity
  8
30
100
AcDbDimension
  2
*D20
 10
364.0609929336933
 20
-67.00000000000001
 30
0.0
 11
361.0609929336933
 21
0.0000000000000207
 31
0.0
 70
    32
 71
     5
 42
-1.0
  3
STANDARD
100
AcDbAlignedDimension
 13
334.0415450433535
 23
66.99999999999993
 33
0.0
 14
334.0415450433535
 24
-67.0
 34
0.0
 50
90.0
100
AcDbRotatedDimension
  0
LINE
  5
928D
330
1E
100
AcDbEntity
  8
18
 48
2.0
100
AcDbLine
 10
-15.0
 20
-157.5
 30
0.0
 11
-15.0
 21
-312.5
 31
0.0
  0
LINE
  5
928E
330
1E
100
AcDbEntity
  8
18
 48
2.0
100
AcDbLine
 10
45.0
 20
-312.5
 30
0.0
 11
45.0
 21
-157.5
 31
0.0
  0
LINE
  5
928F
330
1E
100
AcDbEntity
  8
0
100
AcDbLine
 10
30.0
 20
-290.0
 30
0.0
 11
30.0
 21
-314.0
 31
0.0
  0
CIRCLE
  5
9293
330
1E
100
AcDbEntity
  8
22
100
AcDbCircle
 10
0.0
 20
-302.0
 30
0.0
 40
9.0
210
0.0
220
0.0
230
-1.0
  0
CIRCLE
  5
9294
330
1E
100
AcDbEntity
  8
22
100
AcDbCircle
 10
-30.0
 20
-302.0
 30
0.0
 40
9.0
210
0.0
220
0.0
230
-1.0
  0
DIMENSION
  5
9297
330
1E
100
AcDbEntity
  8
30
100
AcDbDimension
  2
*D21
 10
86.13994386719971
 20
-168.0
 30
0.0
 11
83.13994386719974
 21
-235.0
 31
0.0
 70
    32
 71
     5
 42
-1.0
  3
STANDARD
100
AcDbAlignedDimension
 13
32.50000001650004
 23
-302.0
 33
0.0
 14
32.50000001650004
 24
-168.0
 34
0.0
 50
270.0
100
AcDbRotatedDimension
  0
LINE
  5
9298
330
1E
100
AcDbEntity
  8
18
 48
2.0
100
AcDbLine
 10
-15.0
 20
-312.5
 30
0.0
 11
45.0
 21
-312.5
 31
0.0
  0
LINE
  5
9299
330
1E
100
AcDbEntity
  8
22
100
AcDbLine
 10
-11.99999999999975
 20
-302.0
 30
0.0
 11
42.00000000000023
 21
-302.0
 31
0.0
  0
LINE
  5
929D
330
1E
100
AcDbEntity
  8
22
100
AcDbLine
 10
11.00000000000022
 20
-301.0
 30
0.0
 11
19.00000000000022
 21
-301.0
 31
0.0
  0
CIRCLE
  5
929E
330
1E
100
AcDbEntity
  8
12
100
AcDbCircle
 10
-15.0
 20
-301.0
 30
0.0
 40
2.0
210
0.0
220
0.0
230
-1.0
  0
LINE
  5
929F
330
1E
100
AcDbEntity
  8
22
100
AcDbLine
 10
14.99999999999841
 20
-296.9999999999998
 30
0.0
 11
14.99999999999841
 21
-304.9999999999998
 31
0.0
  0
LINE
  5
92A0
330
1E
100
AcDbEntity
  8
18
 48
2.0
100
AcDbLine
 10
45.0
 20
-157.5
 30
0.0
 11
-15.0
 21
-157.5
 31
0.0
  0
LINE
  5
92A1
330
1E
100
AcDbEntity
  8
22
100
AcDbLine
 10
-11.99999999999975
 20
-168.0
 30
0.0
 11
42.00000000000023
 21
-168.0
 31
0.0
  0
LINE
  5
92A7
330
1E
100
AcDbEntity
  8
22
100
AcDbLine
 10
30.0
 20
-156.0
 30
0.0
 11
30.0
 21
-180.0
 31
0.0
  0
LINE
  5
92A8
330
1E
100
AcDbEntity
  8
22
100
AcDbLine
 10
11.00000000000022
 20
-169.0
 30
0.0
 11
19.00000000000022
 21
-169.0
 31
0.0
  0
CIRCLE
  5
92A9
330
1E
100
AcDbEntity
  8
12
100
AcDbCircle
 10
15.0
 20
-169.0
 30
0.0
 40
2.0
  0
CIRCLE
  5
92AA
330
1E
100
AcDbEntity
  8
22
100
AcDbCircle
 10
0.0
 20
-168.0
 30
0.0
 40
9.0
  0
LINE
  5
92AB
330
1E
100
AcDbEntity
  8
22
100
AcDbLine
 10
14.99999999999841
 20
-173.0000000000002
 30
0.0
 11
14.99999999999841
 21
-165.0000000000002
 31
0.0
  0
CIRCLE
  5
92AC
330
1E
100
AcDbEntity
  8
22
100
AcDbCircle
 10
30.0
 20
-168.0
 30
0.0
 40
9.0
  0
LEADER
  5
92DA
330
1E
100
AcDbEntity
  8
30
100
AcDbLeader
  3
STANDARD
 76
     3
 10
14.99999999999841
 20
-167.0
 30
0.0
 10
7.921553770740954
 20
-140.0564045549737
 30
0.0
 10
-5.233291312049002
 20
-140.0564045549737
 30
0.0
1001
ACAD
1000
DSTYLE
1002
{
1070
     5
1000
OPEN
1070
    77
1070
     0
1070
    79
1070
     3
1070
   147
1040
1.0
1002
}
  0
TEXT
  5
92DB
330
1E
100
AcDbEntity
  8
30
100
AcDbText
 10
-3.904517734419187
 20
-139.3927796677433
 30
0.0
 40
5.0
  1
M4
  7
STANDARD1
100
AcDbText
  0
LEADER
  5
92DC
330
1E
100
AcDbEntity
  8
30
100
AcDbLeader
  3
STANDARD
 76
     3
 10
-4.331503706066087
 20
-309.8887041697705
 30
0.0
 10
-9.779471163060406
 20
-321.1703174697388
 30
0.0
 10
-29.44530045930423
 20
-321.1703174697388
 30
0.0
1001
ACAD
1000
DSTYLE
1002
{
1070
     5
1000
OPEN
1070
    77
1070
     0
1070
    79
1070
     3
1070
   147
1040
1.0
1002
}
  0
TEXT
  5
92DD
330
1E
100
AcDbEntity
  8
30
100
AcDbText
 10
-25.19322641465169
 20
-320.1085183023666
 30
0.0
 40
5.0
  1
%%c18
  7
STANDARD1
100
AcDbText
  0
DIMENSION
  5
9301
330
1E
100
AcDbEntity
  8
30
100
AcDbDimension
  2
*D22
 10
30.0
 20
-334.7751428602208
 30
0.0
 11
15.0
 21
-331.7751428602207
 31
0.0
 70
    32
 71
     5
 42
-1.0
  3
STANDARD
100
AcDbAlignedDimension
 13
0.0
 23
-317.4374692359974
 33
0.0
 14
30.0
 24
-314.0
 34
0.0
100
AcDbRotatedDimension
1001
ACAD
1000
DSTYLE
1002
{
1070
   287
1070
     4
1070
   279
1070
     1
1070
    79
1070
     3
1002
}
  0
DIMENSION
  5
931B
330
1E
100
AcDbEntity
  8
30
100
AcDbDimension
  2
*D23
 10
70.74733980819745
 20
-301.0
 30
0.0
 11
67.74733980819751
 21
-235.0
 31
0.0
 70
    32
 71
     5
 42
-1.0
  3
STANDARD
100
AcDbAlignedDimension
 13
19.00000000000022
 23
-169.0
 33
0.0
 14
19.00000000000022
 24
-301.0
 34
0.0
 50
90.0
100
AcDbRotatedDimension
1001
ACAD
1000
DSTYLE
1002
{
1070
    79
1070
     3
1002
}
  0
LEADER
  5
933A
330
1E
100
AcDbEntity
  8
30
100
AcDbLeader
  3
STANDARD
 76
     3
 10
259.0415450433535
 20
-63.49999998350003
 30
0.0
 10
272.9729837313509
 20
-45.65132818552386
 30
0.0
 10
300.6048603186798
 20
-45.65132818552386
 30
0.0
1001
ACAD
1000
DSTYLE
1002
{
1070
     5
1000
OPEN
1070
    77
1070
     0
1070
    79
1070
     3
1070
   147
1040
1.0
1002
}
  0
TEXT
  5
933B
330
1E
100
AcDbEntity
  8
30
100
AcDbText
 10
277.170230319256
 20
-44.60321862834007
 30
0.0
 40
4.0
  1
%%c8.5
  7
STANDARD1
100
AcDbText
  0
LINE
  5
93A2
330
1E
100
AcDbEntity
  8
10
100
AcDbLine
 10
-8.75
 20
-66.00000000000003
 30
0.0
 11
-8.75
 21
-77.5
 31
0.0
  0
MTEXT
  5
9448
330
1E
100
AcDbEntity
  8
30
100
AcDbMText
 10
210.0260113535264
 20
249.0357221965895
 30
0.0
 40
5.0
 41
172.222
 71
     1
 72
     5
  1
S100-NF 2P RC\PS100-GF 2P RC\PS125-NF 2P RC\PS125-GF 2P RC
  7
STANDARD1
 73
     1
 44
1.0
  0
VIEWPORT
  5
9AC
330
1A
100
AcDbEntity
 67
     1
  8
0
  6
Continuous
100
AcDbViewport
 10
171.9995348790992
 20
144.1384735538403
 30
0.0
 40
488.8676857773511
 41
292.3514905034161
 68
     1
 69
     1
 12
171.9995348790992
 22
144.1384735538403
 13
0.0
 23
0.0
 14
10.0
 24
10.0
 15
10.0
 25
10.0
 16
0.0
 26
0.0
 36
1.0
 17
0.0
 27
0.0
 37
0.0
 42
50.0
 43
0.0
 44
0.0
 45
292.3514905034161
 50
0.0
 51
0.0
 72
   100
 90
    32800
  1

281
     0
 71
     1
 74
     0
110
0.0
120
0.0
130
0.0
111
1.0
121
0.0
131
0.0
112
0.0
122
1.0
132
0.0
 79
     0
146
0.0
  0
ENDSEC
  0
SECTION
  2
OBJECTS
  0
DICTIONARY
  5
C
330
0
100
AcDbDictionary
281
     1
  3
ACAD_GROUP
350
D
  3
ACAD_LAYOUT
350
19
  3
ACAD_MLINESTYLE
350
16
  3
ACAD_PLOTSETTINGS
350
18
  3
ACAD_PLOTSTYLENAME
350
E
  3
ACADDIM
350
92CE
  3
ACDBVARIABLEDICTIONARY
350
5B5E
  0
DICTIONARY
  5
178
330
1E
100
AcDbDictionary
280
     1
281
     1
  3
ACAD_LAYOUTSELFREF
360
942B
  0
DICTIONARY
  5
17A
330
1A
100
AcDbDictionary
280
     1
281
     1
  3
ACAD_LAYOUTSELFREF
360
942A
  0
DICTIONARY
  5
D
102
{ACAD_REACTORS
330
C
102
}
330
C
100
AcDbDictionary
281
     1
  0
DICTIONARY
  5
19
102
{ACAD_REACTORS
330
C
102
}
330
C
100
AcDbDictionary
281
     1
  3
Model
350
9445
  3
ﾚｲｱｳﾄ1
350
9446
  0
DICTIONARY
  5
16
102
{ACAD_REACTORS
330
C
102
}
330
C
100
AcDbDictionary
281
     1
  3
STANDARD
350
17
  0
DICTIONARY
  5
18
102
{ACAD_REACTORS
330
C
102
}
330
C
100
AcDbDictionary
281
     1
  0
ACDBDICTIONARYWDFLT
  5
E
102
{ACAD_REACTORS
330
C
102
}
330
C
100
AcDbDictionary
281
     1
  3
Normal
350
F
100
AcDbDictionaryWithDefault
340
F
  0
XRECORD
  5
92CE
102
{ACAD_REACTORS
330
C
102
}
330
C
100
AcDbXrecord
280
     1
 90
   990106
  3

 60
     0
 61
     0
 62
     1
 63
     3
 64
     0
 65
     0
 66
     0
 67
     3
 68
     1
 69
     0
 70
     0
 71
     0
 72
     0
 40
0.0
170
     0
  0
DICTIONARY
  5
5B5E
102
{ACAD_REACTORS
330
C
102
}
330
C
100
AcDbDictionary
281
     1
  3
DIMASSOC
350
5B5F
  0
XRECORD
  5
942B
102
{ACAD_REACTORS
330
178
102
}
330
178
100
AcDbXrecord
280
     1
340
1E
  0
XRECORD
  5
942A
102
{ACAD_REACTORS
330
17A
102
}
330
17A
100
AcDbXrecord
280
     1
340
1A
  0
LAYOUT
  5
9445
102
{ACAD_REACTORS
330
19
102
}
330
19
100
AcDbPlotSettings
  1

  2
Canon LBP3800 LIPSLX
  4

  6

 40
0.0
 41
0.0
 42
0.0
 43
0.0
 44
0.0
 45
0.0
 46
0.0
 47
0.0
 48
0.0
 49
0.0
140
0.0
141
0.0
142
1.0
143
1.0
 70
  1712
 72
     0
 73
     0
 74
     0
  7
monochrome.ctb
 75
     0
147
1.0
148
0.0
149
0.0
100
AcDbLayout
  1
Model
 70
     1
 71
     0
 10
0.0
 20
0.0
 11
12.0
 21
9.0
 12
0.0
 22
0.0
 32
0.0
 14
0.0
 24
0.0
 34
0.0
 15
0.0
 25
0.0
 35
0.0
146
0.0
 13
0.0
 23
0.0
 33
0.0
 16
1.0
 26
0.0
 36
0.0
 17
0.0
 27
1.0
 37
0.0
 76
     0
330
1E
  0
LAYOUT
  5
9446
102
{ACAD_REACTORS
330
19
102
}
330
19
100
AcDbPlotSettings
  1

  2
Canon LBP3800 LIPSLX
  4

  6

 40
0.0
 41
0.0
 42
0.0
 43
0.0
 44
0.0
 45
0.0
 46
0.0
 47
0.0
 48
0.0
 49
0.0
140
0.0
141
0.0
142
1.0
143
1.0
 70
   688
 72
     0
 73
     0
 74
     5
  7
monochrome.ctb
 75
    16
147
1.0
148
0.0
149
0.0
100
AcDbLayout
  1
ﾚｲｱｳﾄ1
 70
     1
 71
     1
 10
-5.873748779296875
 20
-5.873749732971191
 11
204.0995788574218
 21
291.1369009017943
 12
0.0
 22
0.0
 32
0.0
 14
4.273573370203961
 24
5.205246163471485
 34
0.0
 15
194.6100952986349
 25
283.0697008572913
 35
0.0
146
0.0
 13
0.0
 23
0.0
 33
0.0
 16
1.0
 26
0.0
 36
0.0
 17
0.0
 27
1.0
 37
0.0
 76
     0
330
1A
331
9AC
  0
MLINESTYLE
  5
17
102
{ACAD_REACTORS
330
16
102
}
330
16
100
AcDbMlineStyle
  2
STANDARD
 70
     0
  3

 62
   256
 51
90.0
 52
90.0
 71
     2
 49
0.5
 62
   256
  6
BYLAYER
 49
-0.5
 62
   256
  6
BYLAYER
  0
ACDBPLACEHOLDER
  5
F
102
{ACAD_REACTORS
330
E
102
}
330
E
  0
DICTIONARYVAR
  5
5B5F
102
{ACAD_REACTORS
330
5B5E
102
}
330
5B5E
100
DictionaryVariables
280
     0
  1
1
  0
ENDSEC
  0
EOF
