  0
SECTION
  2
HEADER
  9
$ACADVER
  1
AC1015
  9
$ACADMAINTVER
 70
    20
  9
$DWGCODEPAGE
  3
ANSI_932
  9
$INSBASE
 10
0.0
 20
0.0
 30
0.0
  9
$EXTMIN
 10
-1546.347003917846
 20
-358.8229132311226
 30
-0.0000000000000221
  9
$EXTMAX
 10
2621.381266939898
 20
1476.068747757548
 30
0.0000000000000085
  9
$LIMMIN
 10
-1981.0
 20
-1245.0
  9
$LIMMAX
 10
2725.0
 20
1972.0
  9
$ORTHOMODE
 70
     1
  9
$REGENMODE
 70
     1
  9
$FILLMODE
 70
     1
  9
$QTEXTMODE
 70
     0
  9
$MIRRTEXT
 70
     1
  9
$LTSCALE
 40
30.0
  9
$ATTMODE
 70
     1
  9
$TEXTSIZE
 40
2.0
  9
$TRACEWID
 40
0.05
  9
$TEXTSTYLE
  7
Standard
  9
$CLAYER
  8
30
  9
$CELTYPE
  6
ByLayer
  9
$CECOLOR
 62
   256
  9
$CELTSCALE
 40
1.0
  9
$DISPSILH
 70
     0
  9
$DIMSCALE
 40
1.0
  9
$DIMASZ
 40
5.0
  9
$DIMEXO
 40
10.0
  9
$DIMDLI
 40
0.5
  9
$DIMRND
 40
0.0
  9
$DIMDLE
 40
0.0
  9
$DIMEXE
 40
1.0
  9
$DIMTP
 40
0.0
  9
$DIMTM
 40
0.0
  9
$DIMTXT
 40
10.0
  9
$DIMCEN
 40
0.09
  9
$DIMTSZ
 40
0.0
  9
$DIMTOL
 70
     0
  9
$DIMLIM
 70
     0
  9
$DIMTIH
 70
     0
  9
$DIMTOH
 70
     0
  9
$DIMSE1
 70
     0
  9
$DIMSE2
 70
     0
  9
$DIMTAD
 70
     3
  9
$DIMZIN
 70
    12
  9
$DIMBLK
  1
Open
  9
$DIMASO
 70
     1
  9
$DIMSHO
 70
     1
  9
$DIMPOST
  1

  9
$DIMAPOST
  1

  9
$DIMALT
 70
     0
  9
$DIMALTD
 70
     2
  9
$DIMALTF
 40
25.4
  9
$DIMLFAC
 40
1.0
  9
$DIMTOFL
 70
     1
  9
$DIMTVP
 40
0.0
  9
$DIMTIX
 70
     1
  9
$DIMSOXD
 70
     1
  9
$DIMSAH
 70
     0
  9
$DIMBLK1
  1

  9
$DIMBLK2
  1

  9
$DIMSTYLE
  2
Standard
  9
$DIMCLRD
 70
     0
  9
$DIMCLRE
 70
     0
  9
$DIMCLRT
 70
     0
  9
$DIMTFAC
 40
1.0
  9
$DIMGAP
 40
3.0
  9
$DIMJUST
 70
     0
  9
$DIMSD1
 70
     0
  9
$DIMSD2
 70
     0
  9
$DIMTOLJ
 70
     1
  9
$DIMTZIN
 70
     0
  9
$DIMALTZ
 70
     0
  9
$DIMALTTZ
 70
     0
  9
$DIMUPT
 70
     0
  9
$DIMDEC
 70
     1
  9
$DIMTDEC
 70
     1
  9
$DIMALTU
 70
     2
  9
$DIMALTTD
 70
     2
  9
$DIMTXSTY
  7
Standard
  9
$DIMAUNIT
 70
     0
  9
$DIMADEC
 70
     0
  9
$DIMALTRND
 40
0.0
  9
$DIMAZIN
 70
     3
  9
$DIMDSEP
 70
    46
  9
$DIMATFIT
 70
     3
  9
$DIMFRAC
 70
     0
  9
$DIMLDRBLK
  1
Open
  9
$DIMLUNIT
 70
     2
  9
$DIMLWD
 70
    -2
  9
$DIMLWE
 70
    -2
  9
$DIMTMOVE
 70
     1
  9
$LUNITS
 70
     2
  9
$LUPREC
 70
     4
  9
$SKETCHINC
 40
0.1
  9
$FILLETRAD
 40
0.0
  9
$AUNITS
 70
     0
  9
$AUPREC
 70
     0
  9
$MENU
  1
.
  9
$ELEVATION
 40
0.0
  9
$PELEVATION
 40
0.0
  9
$THICKNESS
 40
0.0
  9
$LIMCHECK
 70
     0
  9
$CHAMFERA
 40
0.0
  9
$CHAMFERB
 40
0.0
  9
$CHAMFERC
 40
0.0
  9
$CHAMFERD
 40
0.0
  9
$SKPOLY
 70
     0
  9
$TDCREATE
 40
2452286.555658658
  9
$TDUCREATE
 40
2452286.180658658
  9
$TDUPDATE
 40
2456974.368066216
  9
$TDUUPDATE
 40
2456973.993066215
  9
$TDINDWG
 40
1.9608468171
  9
$TDUSRTIMER
 40
1.9608457407
  9
$USRTIMER
 70
     1
  9
$ANGBASE
 50
0.0
  9
$ANGDIR
 70
     0
  9
$PDMODE
 70
     0
  9
$PDSIZE
 40
0.0
  9
$PLINEWID
 40
0.0
  9
$SPLFRAME
 70
     0
  9
$SPLINETYPE
 70
     6
  9
$SPLINESEGS
 70
     8
  9
$HANDSEED
  5
C5EB
  9
$SURFTAB1
 70
     6
  9
$SURFTAB2
 70
     6
  9
$SURFTYPE
 70
     6
  9
$SURFU
 70
     6
  9
$SURFV
 70
     6
  9
$UCSBASE
  2

  9
$UCSNAME
  2

  9
$UCSORG
 10
0.0
 20
0.0
 30
0.0
  9
$UCSXDIR
 10
1.0
 20
0.0
 30
0.0
  9
$UCSYDIR
 10
0.0
 20
1.0
 30
0.0
  9
$UCSORTHOREF
  2

  9
$UCSORTHOVIEW
 70
     0
  9
$UCSORGTOP
 10
0.0
 20
0.0
 30
0.0
  9
$UCSORGBOTTOM
 10
0.0
 20
0.0
 30
0.0
  9
$UCSORGLEFT
 10
0.0
 20
0.0
 30
0.0
  9
$UCSORGRIGHT
 10
0.0
 20
0.0
 30
0.0
  9
$UCSORGFRONT
 10
0.0
 20
0.0
 30
0.0
  9
$UCSORGBACK
 10
0.0
 20
0.0
 30
0.0
  9
$PUCSBASE
  2

  9
$PUCSNAME
  2

  9
$PUCSORG
 10
0.0
 20
0.0
 30
0.0
  9
$PUCSXDIR
 10
1.0
 20
0.0
 30
0.0
  9
$PUCSYDIR
 10
0.0
 20
1.0
 30
0.0
  9
$PUCSORTHOREF
  2

  9
$PUCSORTHOVIEW
 70
     0
  9
$PUCSORGTOP
 10
0.0
 20
0.0
 30
0.0
  9
$PUCSORGBOTTOM
 10
0.0
 20
0.0
 30
0.0
  9
$PUCSORGLEFT
 10
0.0
 20
0.0
 30
0.0
  9
$PUCSORGRIGHT
 10
0.0
 20
0.0
 30
0.0
  9
$PUCSORGFRONT
 10
0.0
 20
0.0
 30
0.0
  9
$PUCSORGBACK
 10
0.0
 20
0.0
 30
0.0
  9
$USERI1
 70
     0
  9
$USERI2
 70
     0
  9
$USERI3
 70
     0
  9
$USERI4
 70
     0
  9
$USERI5
 70
     0
  9
$USERR1
 40
0.0
  9
$USERR2
 40
0.0
  9
$USERR3
 40
0.0
  9
$USERR4
 40
0.0
  9
$USERR5
 40
0.0
  9
$WORLDVIEW
 70
     1
  9
$SHADEDGE
 70
     3
  9
$SHADEDIF
 70
    70
  9
$TILEMODE
 70
     1
  9
$MAXACTVP
 70
    48
  9
$PINSBASE
 10
0.0
 20
0.0
 30
0.0
  9
$PLIMCHECK
 70
     0
  9
$PEXTMIN
 10
1.000000000000000E+20
 20
1.000000000000000E+20
 30
1.000000000000000E+20
  9
$PEXTMAX
 10
-1.000000000000000E+20
 20
-1.000000000000000E+20
 30
-1.000000000000000E+20
  9
$PLIMMIN
 10
-5.873748779296875
 20
-5.873749732971191
  9
$PLIMMAX
 10
204.0995788574218
 20
291.1369009017943
  9
$UNITMODE
 70
     0
  9
$VISRETAIN
 70
     1
  9
$PLINEGEN
 70
     0
  9
$PSLTSCALE
 70
     0
  9
$TREEDEPTH
 70
  3020
  9
$CMLSTYLE
  2
Standard
  9
$CMLJUST
 70
     0
  9
$CMLSCALE
 40
1.0
  9
$PROXYGRAPHICS
 70
     1
  9
$MEASUREMENT
 70
     0
  9
$CELWEIGHT
370
    -1
  9
$ENDCAPS
280
     0
  9
$JOINSTYLE
280
     0
  9
$LWDISPLAY
290
     0
  9
$INSUNITS
 70
     0
  9
$HYPERLINKBASE
  1

  9
$STYLESHEET
  1
monochrome.ctb
  9
$XEDIT
290
     1
  9
$CEPSNTYPE
380
     0
  9
$PSTYLEMODE
290
     1
  9
$FINGERPRINTGUID
  2

  9
$VERSIONGUID
  2
{93525393-6BD6-4491-AACC-73D6BD2965E7}
  9
$EXTNAMES
290
     1
  9
$PSVPSCALE
 40
0.0
  9
$OLESTARTUP
290
     0
  0
ENDSEC
  0
SECTION
  2
CLASSES
  0
CLASS
  1
ACDBDICTIONARYWDFLT
  2
AcDbDictionaryWithDefault
  3
ObjectDBX Classes
 90
        0
280
     0
281
     0
  0
CLASS
  1
ACDBPLACEHOLDER
  2
AcDbPlaceHolder
  3
ObjectDBX Classes
 90
        0
280
     0
281
     0
  0
CLASS
  1
LAYOUT
  2
AcDbLayout
  3
ObjectDBX Classes
 90
        0
280
     0
281
     0
  0
CLASS
  1
DICTIONARYVAR
  2
AcDbDictionaryVar
  3
ObjectDBX Classes
 90
        0
280
     0
281
     0
  0
CLASS
  1
MATERIAL
  2
AcDbMaterial
  3
ObjectDBX Classes
 90
     1153
280
     0
281
     0
  0
CLASS
  1
VISUALSTYLE
  2
AcDbVisualStyle
  3
ObjectDBX Classes
 90
     4095
280
     0
281
     0
  0
CLASS
  1
TABLESTYLE
  2
AcDbTableStyle
  3
ObjectDBX Classes
 90
     4095
280
     0
281
     0
  0
CLASS
  1
SCALE
  2
AcDbScale
  3
ObjectDBX Classes
 90
     1153
280
     0
281
     0
  0
CLASS
  1
MLEADERSTYLE
  2
AcDbMLeaderStyle
  3
ACDB_MLEADERSTYLE_CLASS
 90
     4095
280
     0
281
     0
  0
CLASS
  1
CELLSTYLEMAP
  2
AcDbCellStyleMap
  3
ObjectDBX Classes
 90
     1152
280
     0
281
     0
  0
ENDSEC
  0
SECTION
  2
TABLES
  0
TABLE
  2
VPORT
  5
8
330
0
100
AcDbSymbolTable
 70
     1
  0
VPORT
  5
C50B
330
8
100
AcDbSymbolTableRecord
100
AcDbViewportTableRecord
  2
*Active
 70
     0
 10
0.0
 20
0.0
 11
1.0
 21
1.0
 12
537.5171315110256
 22
558.6229172632129
 13
0.0
 23
0.0
 14
1.0
 24
1.0
 15
50.0
 25
50.0
 16
0.0
 26
0.0
 36
1.0
 17
0.0
 27
0.0
 37
0.0
 40
2259.862421177551
 41
1.851449275362318
 42
50.0
 43
0.0
 44
0.0
 50
0.0
 51
0.0
 71
     0
 72
   100
 73
     1
 74
     1
 75
     0
 76
     1
 77
     0
 78
     0
281
     0
 65
     1
110
0.0
120
0.0
130
0.0
111
1.0
121
0.0
131
0.0
112
0.0
122
1.0
132
0.0
 79
     0
146
0.0
  0
ENDTAB
  0
TABLE
  2
LTYPE
  5
5
330
0
100
AcDbSymbolTable
 70
     5
  0
LTYPE
  5
13
330
5
100
AcDbSymbolTableRecord
100
AcDbLinetypeTableRecord
  2
ByBlock
 70
     0
  3

 72
    65
 73
     0
 40
0.0
  0
LTYPE
  5
14
330
5
100
AcDbSymbolTableRecord
100
AcDbLinetypeTableRecord
  2
ByLayer
 70
     0
  3

 72
    65
 73
     0
 40
0.0
  0
LTYPE
  5
15
330
5
100
AcDbSymbolTableRecord
100
AcDbLinetypeTableRecord
  2
Continuous
 70
     0
  3
Solid line
 72
    65
 73
     0
 40
0.0
  0
LTYPE
  5
22
330
5
100
AcDbSymbolTableRecord
100
AcDbLinetypeTableRecord
  2
CONTINOUS
 70
     0
  3
Solid line
 72
    65
 73
     0
 40
0.0
  0
LTYPE
  5
24
330
5
100
AcDbSymbolTableRecord
100
AcDbLinetypeTableRecord
  2
DASHDOT
 70
     0
  3
__ . __ . __ . __ . __ . __ . __ . __ . __ . __
 72
    65
 73
     4
 40
1.0
 49
0.5
 74
     0
 49
-0.25
 74
     0
 49
0.0
 74
     0
 49
-0.25
 74
     0
  0
LTYPE
  5
33CB
330
5
100
AcDbSymbolTableRecord
100
AcDbLinetypeTableRecord
  2
DIVIDE
 70
     0
  3
Divide ____ . . ____ . . ____ . . ____ . . ____
 72
    65
 73
     6
 40
1.25
 49
0.5
 74
     0
 49
-0.25
 74
     0
 49
0.0
 74
     0
 49
-0.25
 74
     0
 49
0.0
 74
     0
 49
-0.25
 74
     0
  0
LTYPE
  5
941B
330
5
100
AcDbSymbolTableRecord
100
AcDbLinetypeTableRecord
  2
HIDDEN
 70
     0
  3
Hidden __ __ __ __ __ __ __ __ __ __ __ __ __ __
 72
    65
 73
     2
 40
1.905
 49
1.27
 74
     0
 49
-0.635
 74
     0
  0
ENDTAB
  0
TABLE
  2
LAYER
  5
2
102
{ACAD_XDICTIONARY
360
C58E
102
}
330
0
100
AcDbSymbolTable
 70
    11
  0
LAYER
  5
10
102
{ACAD_XDICTIONARY
360
C59F
102
}
330
2
100
AcDbSymbolTableRecord
100
AcDbLayerTableRecord
  2
0
 70
     0
 62
     6
  6
DASHDOT
370
    -3
390
F
  0
LAYER
  5
2F
102
{ACAD_XDICTIONARY
360
C5A1
102
}
330
2
100
AcDbSymbolTableRecord
100
AcDbLayerTableRecord
  2
10
 70
     0
 62
     4
  6
CONTINOUS
370
    -3
390
F
  0
LAYER
  5
31
102
{ACAD_XDICTIONARY
360
C5A3
102
}
330
2
100
AcDbSymbolTableRecord
100
AcDbLayerTableRecord
  2
12
 70
     0
 62
     3
  6
CONTINOUS
370
    -3
390
F
  0
LAYER
  5
35
102
{ACAD_XDICTIONARY
360
C5A5
102
}
330
2
100
AcDbSymbolTableRecord
100
AcDbLayerTableRecord
  2
16
 70
     0
 62
     6
  6
DASHDOT
370
    -3
390
F
  0
LAYER
  5
38
102
{ACAD_XDICTIONARY
360
C5A7
102
}
330
2
100
AcDbSymbolTableRecord
100
AcDbLayerTableRecord
  2
19
 70
     0
 62
     7
  6
CONTINOUS
370
    -3
390
F
  0
LAYER
  5
3C
102
{ACAD_XDICTIONARY
360
C5A9
102
}
330
2
100
AcDbSymbolTableRecord
100
AcDbLayerTableRecord
  2
11
 70
     0
 62
     1
  6
CONTINOUS
370
    -3
390
F
  0
LAYER
  5
3A2
102
{ACAD_XDICTIONARY
360
C5AB
102
}
330
2
100
AcDbSymbolTableRecord
100
AcDbLayerTableRecord
  2
30
 70
     0
 62
     9
  6
Continuous
370
    -3
390
F
  0
LAYER
  5
3A4
330
2
100
AcDbSymbolTableRecord
100
AcDbLayerTableRecord
  2
Defpoints
 70
     0
 62
     2
  6
DASHDOT
290
     0
370
    -3
390
F
  0
LAYER
  5
33C8
102
{ACAD_XDICTIONARY
360
C5AD
102
}
330
2
100
AcDbSymbolTableRecord
100
AcDbLayerTableRecord
  2
18
 70
     0
 62
     5
  6
DIVIDE
370
    -3
390
F
  0
LAYER
  5
39DB
102
{ACAD_XDICTIONARY
360
C5AF
102
}
330
2
100
AcDbSymbolTableRecord
100
AcDbLayerTableRecord
  2
27
 70
     0
 62
     2
  6
Continuous
370
    -3
390
F
  0
LAYER
  5
BEF5
102
{ACAD_XDICTIONARY
360
C5B1
102
}
330
2
100
AcDbSymbolTableRecord
100
AcDbLayerTableRecord
  2
34
 70
     0
 62
     2
  6
DIVIDE
370
    -3
390
F
  0
ENDTAB
  0
TABLE
  2
STYLE
  5
3
330
0
100
AcDbSymbolTable
 70
     2
  0
STYLE
  5
11
330
3
100
AcDbSymbolTableRecord
100
AcDbTextStyleTableRecord
  2
Standard
 70
     0
 40
0.0
 41
1.0
 50
0.0
 71
     0
 42
2.0
  3
simplex.shx
  4
bigfont.shx
  0
STYLE
  5
941E
330
3
100
AcDbSymbolTableRecord
100
AcDbTextStyleTableRecord
  2
SLDTEXTSTYLE1
 70
     0
 40
0.0
 41
0.75
 50
0.0
 71
     0
 42
0.0
  3
txt
  4

  0
ENDTAB
  0
TABLE
  2
VIEW
  5
6
330
0
100
AcDbSymbolTable
 70
     4
  0
VIEW
  5
3817
330
6
100
AcDbSymbolTableRecord
100
AcDbViewTableRecord
  2
OLE1
 70
     0
 40
440.4976618414746
 10
298.4341836359813
 20
-51.57564428994924
 41
312.0191771377112
 11
0.0
 21
0.0
 31
1.0
 12
0.0
 22
0.0
 32
0.0
 42
50.0
 43
0.0
 44
0.0
 50
0.0
 71
     0
281
     0
 72
     0
  0
VIEW
  5
3819
330
6
100
AcDbSymbolTableRecord
100
AcDbViewTableRecord
  2
OLE2
 70
     0
 40
1141.80233015935
 10
166.182610057254
 20
-77.11925276944589
 41
611.5415870006012
 11
0.0
 21
0.0
 31
1.0
 12
0.0
 22
0.0
 32
0.0
 42
50.0
 43
0.0
 44
0.0
 50
0.0
 71
     0
281
     0
 72
     0
  0
ENDTAB
  0
TABLE
  2
UCS
  5
7
330
0
100
AcDbSymbolTable
 70
     0
  0
ENDTAB
  0
TABLE
  2
APPID
  5
9
330
0
100
AcDbSymbolTable
 70
     3
  0
APPID
  5
12
330
9
100
AcDbSymbolTableRecord
100
AcDbRegAppTableRecord
  2
ACAD
 70
     0
  0
APPID
  5
ECD
330
9
100
AcDbSymbolTableRecord
100
AcDbRegAppTableRecord
  2
CONTENTBLOCKICON
 70
     0
  0
APPID
  5
C5EA
330
9
100
AcDbSymbolTableRecord
100
AcDbRegAppTableRecord
  2
ACAD_MLEADERVER
 70
     0
  0
ENDTAB
  0
TABLE
  2
DIMSTYLE
  5
A
330
0
100
AcDbSymbolTable
 70
     1
100
AcDbDimStyleTable
 71
     1
340
175
  0
DIMSTYLE
105
175
102
{ACAD_REACTORS
330
6DE2
330
6DD5
330
9991
330
9944
330
993F
330
997D
330
9997
330
9949
330
994C
330
990F
330
9912
330
990D
330
990E
330
9950
330
ABF4
330
B28F
330
B290
330
B3E2
330
B3E4
330
B3E5
330
B3E6
330
B467
330
B58E
330
B536
330
B53F
330
B535
330
B538
330
B839
330
B845
330
B837
330
B838
330
B83B
330
B83C
330
BB44
330
AC6E
330
BD79
330
BE9A
330
C1AD
330
C1AE
330
C1B5
330
C1B7
330
975C
330
977B
330
9917
330
992F
330
9934
330
994E
330
A208
330
B441
330
B6CB
330
C1BB
102
}
330
A
100
AcDbSymbolTableRecord
100
AcDbDimStyleTableRecord
  2
Standard
 70
     0
 41
5.0
 42
10.0
 43
0.5
 44
1.0
 73
     0
 74
     0
 77
     3
 78
    12
 79
     3
140
10.0
147
3.0
172
     1
174
     1
175
     1
271
     1
272
     1
279
     1
340
11
341
3B2
342
3B2
  0
ENDTAB
  0
TABLE
  2
BLOCK_RECORD
  5
1
330
0
100
AcDbSymbolTable
 70
    51
  0
BLOCK_RECORD
  5
1E
102
{ACAD_XDICTIONARY
360
178
102
}
330
1
100
AcDbSymbolTableRecord
100
AcDbBlockTableRecord
  2
*Model_Space
340
21
  0
BLOCK_RECORD
  5
1A
102
{ACAD_XDICTIONARY
360
17A
102
}
330
1
100
AcDbSymbolTableRecord
100
AcDbBlockTableRecord
  2
*Paper_Space
340
1D
  0
BLOCK_RECORD
  5
3B2
330
1
100
AcDbSymbolTableRecord
100
AcDbBlockTableRecord
  2
_Open
340
0
102
{BLKREFS
331
C0EB
331
C0EC
331
C0F4
331
C0F5
331
C0FD
331
C0FE
331
C106
331
C107
331
C18F
331
C190
331
C183
331
C184
331
C177
331
C178
331
C16B
331
C16C
331
C39D
331
C39E
331
C3A6
331
C3A7
331
C3B0
331
C3B1
331
C3B9
331
C3BA
331
C3C2
331
C3C3
331
C3CB
331
C3CC
331
C3D4
331
C3D5
331
C3DD
331
C3DE
331
C3E6
331
C3E7
331
C3EF
331
C3F0
331
C3F9
331
C3FA
331
C402
331
C403
331
C40B
331
C40C
331
C414
331
C415
331
C41D
331
C41E
331
C426
331
C427
331
C42F
331
C430
331
C438
331
C439
331
C441
331
C442
331
C451
331
C452
331
C459
331
C45A
331
C463
331
C464
331
C46C
331
C46D
331
C475
331
C476
331
C47E
331
C47F
331
C487
331
C488
331
C490
331
C491
331
C499
331
C49A
331
C4A3
331
C4A4
331
C4AC
331
C4AD
331
C4B5
331
C4B6
331
C4BE
331
C4BF
331
C4C7
331
C4C8
331
C4D0
331
C4D1
331
C4E1
331
C4E2
331
C4EA
331
C4EB
331
C4F3
331
C4F4
331
C4FC
331
C4FD
331
C505
331
C506
102
}
  0
BLOCK_RECORD
  5
6DD6
330
1
100
AcDbSymbolTableRecord
100
AcDbBlockTableRecord
  2
*D1
340
0
  0
BLOCK_RECORD
  5
6DE3
330
1
100
AcDbSymbolTableRecord
100
AcDbBlockTableRecord
  2
*D2
340
0
  0
BLOCK_RECORD
  5
9BD3
330
1
100
AcDbSymbolTableRecord
100
AcDbBlockTableRecord
  2
*D3
340
0
  0
BLOCK_RECORD
  5
9BDF
330
1
100
AcDbSymbolTableRecord
100
AcDbBlockTableRecord
  2
*D4
340
0
  0
BLOCK_RECORD
  5
9BEB
330
1
100
AcDbSymbolTableRecord
100
AcDbBlockTableRecord
  2
*D5
340
0
  0
BLOCK_RECORD
  5
9C0F
330
1
100
AcDbSymbolTableRecord
100
AcDbBlockTableRecord
  2
*D6
340
0
  0
BLOCK_RECORD
  5
9C7B
330
1
100
AcDbSymbolTableRecord
100
AcDbBlockTableRecord
  2
*D7
340
0
  0
BLOCK_RECORD
  5
9C88
330
1
100
AcDbSymbolTableRecord
100
AcDbBlockTableRecord
  2
*D8
340
0
  0
BLOCK_RECORD
  5
9C94
330
1
100
AcDbSymbolTableRecord
100
AcDbBlockTableRecord
  2
*D9
340
0
  0
BLOCK_RECORD
  5
9CAD
330
1
100
AcDbSymbolTableRecord
100
AcDbBlockTableRecord
  2
*D10
340
0
  0
BLOCK_RECORD
  5
9CB8
330
1
100
AcDbSymbolTableRecord
100
AcDbBlockTableRecord
  2
*D11
340
0
  0
BLOCK_RECORD
  5
9CDE
330
1
100
AcDbSymbolTableRecord
100
AcDbBlockTableRecord
  2
*D12
340
0
  0
BLOCK_RECORD
  5
9D04
330
1
100
AcDbSymbolTableRecord
100
AcDbBlockTableRecord
  2
*D13
340
0
  0
BLOCK_RECORD
  5
9D2A
330
1
100
AcDbSymbolTableRecord
100
AcDbBlockTableRecord
  2
*D14
340
0
  0
BLOCK_RECORD
  5
AD63
330
1
100
AcDbSymbolTableRecord
100
AcDbBlockTableRecord
  2
*D15
340
0
  0
BLOCK_RECORD
  5
AE8A
330
1
100
AcDbSymbolTableRecord
100
AcDbBlockTableRecord
  2
*D16
340
0
  0
BLOCK_RECORD
  5
B292
330
1
100
AcDbSymbolTableRecord
100
AcDbBlockTableRecord
  2
*D17
340
0
  0
BLOCK_RECORD
  5
B29E
330
1
100
AcDbSymbolTableRecord
100
AcDbBlockTableRecord
  2
*D18
340
0
  0
BLOCK_RECORD
  5
B33A
330
1
100
AcDbSymbolTableRecord
100
AcDbBlockTableRecord
  2
_DotSmall
340
0
102
{BLKREFS
331
C4D9
331
C4DA
102
}
  0
BLOCK_RECORD
  5
B3F1
330
1
100
AcDbSymbolTableRecord
100
AcDbBlockTableRecord
  2
*D20
340
0
  0
BLOCK_RECORD
  5
B3FD
330
1
100
AcDbSymbolTableRecord
100
AcDbBlockTableRecord
  2
*D21
340
0
  0
BLOCK_RECORD
  5
B409
330
1
100
AcDbSymbolTableRecord
100
AcDbBlockTableRecord
  2
*D22
340
0
  0
BLOCK_RECORD
  5
B413
330
1
100
AcDbSymbolTableRecord
100
AcDbBlockTableRecord
  2
*D23
340
0
  0
BLOCK_RECORD
  5
B468
330
1
100
AcDbSymbolTableRecord
100
AcDbBlockTableRecord
  2
*D24
340
0
  0
BLOCK_RECORD
  5
B595
330
1
100
AcDbSymbolTableRecord
100
AcDbBlockTableRecord
  2
*D25
340
0
  0
BLOCK_RECORD
  5
B5A1
330
1
100
AcDbSymbolTableRecord
100
AcDbBlockTableRecord
  2
*D26
340
0
  0
BLOCK_RECORD
  5
B5AD
330
1
100
AcDbSymbolTableRecord
100
AcDbBlockTableRecord
  2
*D27
340
0
  0
BLOCK_RECORD
  5
B5B9
330
1
100
AcDbSymbolTableRecord
100
AcDbBlockTableRecord
  2
*D28
340
0
  0
BLOCK_RECORD
  5
B5C5
330
1
100
AcDbSymbolTableRecord
100
AcDbBlockTableRecord
  2
*D29
340
0
  0
BLOCK_RECORD
  5
B6E1
330
1
100
AcDbSymbolTableRecord
100
AcDbBlockTableRecord
  2
*D30
340
0
  0
BLOCK_RECORD
  5
B6ED
330
1
100
AcDbSymbolTableRecord
100
AcDbBlockTableRecord
  2
*D31
340
0
  0
BLOCK_RECORD
  5
B6F9
330
1
100
AcDbSymbolTableRecord
100
AcDbBlockTableRecord
  2
*D32
340
0
  0
BLOCK_RECORD
  5
B705
330
1
100
AcDbSymbolTableRecord
100
AcDbBlockTableRecord
  2
*D33
340
0
  0
BLOCK_RECORD
  5
B846
330
1
100
AcDbSymbolTableRecord
100
AcDbBlockTableRecord
  2
*D34
340
0
  0
BLOCK_RECORD
  5
B853
330
1
100
AcDbSymbolTableRecord
100
AcDbBlockTableRecord
  2
*D35
340
0
  0
BLOCK_RECORD
  5
B85F
330
1
100
AcDbSymbolTableRecord
100
AcDbBlockTableRecord
  2
*D36
340
0
  0
BLOCK_RECORD
  5
B86B
330
1
100
AcDbSymbolTableRecord
100
AcDbBlockTableRecord
  2
*D37
340
0
  0
BLOCK_RECORD
  5
B877
330
1
100
AcDbSymbolTableRecord
100
AcDbBlockTableRecord
  2
*D38
340
0
  0
BLOCK_RECORD
  5
B88F
330
1
100
AcDbSymbolTableRecord
100
AcDbBlockTableRecord
  2
*D39
340
0
  0
BLOCK_RECORD
  5
BB6C
330
1
100
AcDbSymbolTableRecord
100
AcDbBlockTableRecord
  2
*D40
340
0
  0
BLOCK_RECORD
  5
BD7D
330
1
100
AcDbSymbolTableRecord
100
AcDbBlockTableRecord
  2
*D41
340
0
  0
BLOCK_RECORD
  5
BE9B
330
1
100
AcDbSymbolTableRecord
100
AcDbBlockTableRecord
  2
*D42
340
0
  0
BLOCK_RECORD
  5
C167
330
1
100
AcDbSymbolTableRecord
100
AcDbBlockTableRecord
  2
*D43
340
0
  0
BLOCK_RECORD
  5
C173
330
1
100
AcDbSymbolTableRecord
100
AcDbBlockTableRecord
  2
*D44
340
0
  0
BLOCK_RECORD
  5
C17F
330
1
100
AcDbSymbolTableRecord
100
AcDbBlockTableRecord
  2
*D45
340
0
  0
BLOCK_RECORD
  5
C18B
330
1
100
AcDbSymbolTableRecord
100
AcDbBlockTableRecord
  2
*D46
340
0
  0
BLOCK_RECORD
  5
C1BF
330
1
100
AcDbSymbolTableRecord
100
AcDbBlockTableRecord
  2
*D47
340
0
  0
BLOCK_RECORD
  5
C1CB
330
1
100
AcDbSymbolTableRecord
100
AcDbBlockTableRecord
  2
*D48
340
0
  0
BLOCK_RECORD
  5
C1D7
330
1
100
AcDbSymbolTableRecord
100
AcDbBlockTableRecord
  2
*D49
340
0
  0
BLOCK_RECORD
  5
C1E3
330
1
100
AcDbSymbolTableRecord
100
AcDbBlockTableRecord
  2
*D50
340
0
  0
ENDTAB
  0
ENDSEC
  0
SECTION
  2
BLOCKS
  0
BLOCK
  5
1F
330
1E
100
AcDbEntity
  8
0
100
AcDbBlockBegin
  2
*Model_Space
 70
     0
 10
0.0
 20
0.0
 30
0.0
  3
*Model_Space
  1

  0
ENDBLK
  5
20
330
1E
100
AcDbEntity
  8
0
100
AcDbBlockEnd
  0
BLOCK
  5
1B
330
1A
100
AcDbEntity
 67
     1
  8
0
100
AcDbBlockBegin
  2
*Paper_Space
 70
     0
 10
0.0
 20
0.0
 30
0.0
  3
*Paper_Space
  1

  0
ENDBLK
  5
1C
330
1A
100
AcDbEntity
 67
     1
  8
0
100
AcDbBlockEnd
  0
BLOCK
  5
3B6
330
3B2
100
AcDbEntity
  8
0
100
AcDbBlockBegin
  2
_Open
 70
     0
 10
0.0
 20
0.0
 30
0.0
  3
_Open
  1

  0
LINE
  5
3B3
330
3B2
100
AcDbEntity
  8
30
  6
Continuous
 62
     0
370
    -2
100
AcDbLine
 10
-1.0
 20
0.1666666666666666
 30
0.0
 11
0.0
 21
0.0
 31
0.0
  0
LINE
  5
3B4
330
3B2
100
AcDbEntity
  8
30
  6
Continuous
 62
     0
370
    -2
100
AcDbLine
 10
-1.0
 20
-0.1666666666666666
 30
0.0
 11
0.0
 21
0.0
 31
0.0
  0
LINE
  5
3B5
330
3B2
100
AcDbEntity
  8
30
  6
Continuous
 62
     0
370
    -2
100
AcDbLine
 10
0.0
 20
0.0
 30
0.0
 11
-1.0
 21
0.0
 31
0.0
  0
ENDBLK
  5
3B7
330
3B2
100
AcDbEntity
  8
0
100
AcDbBlockEnd
  0
BLOCK
  5
6DE0
330
6DD6
100
AcDbEntity
  8
0
100
AcDbBlockBegin
  2
*D1
 70
     1
 10
0.0
 20
0.0
 30
0.0
  3
*D1
  1

  0
LINE
  5
C3A3
330
6DD6
100
AcDbEntity
  8
30
 62
     0
370
    -2
100
AcDbLine
 10
-0.0001008250008147
 20
973.0
 30
0.0
 11
-0.000100825000816
 21
952.0091017753019
 31
0.0
  0
LINE
  5
C3A4
330
6DD6
100
AcDbEntity
  8
30
 62
     0
370
    -2
100
AcDbLine
 10
118.999899174999
 20
973.0
 30
0.0
 11
118.999899174999
 21
952.0091017753019
 31
0.0
  0
LINE
  5
C3A5
330
6DD6
100
AcDbEntity
  8
30
 62
     0
370
    -2
100
AcDbLine
 10
4.999899174999183
 20
953.0091017753019
 30
0.0
 11
113.9998991749989
 21
953.0091017753019
 31
0.0
  0
INSERT
  5
C3A6
330
6DD6
100
AcDbEntity
  8
30
 62
     0
370
    -2
100
AcDbBlockReference
  2
_Open
 10
-0.0001008250008159
 20
953.0091017753019
 30
0.0
 41
5.0
 42
5.0
 43
5.0
 50
180.0
  0
INSERT
  5
C3A7
330
6DD6
100
AcDbEntity
  8
30
 62
     0
370
    -2
100
AcDbBlockReference
  2
_Open
 10
118.999899174999
 20
953.0091017753019
 30
0.0
 41
5.0
 42
5.0
 43
5.0
  0
MTEXT
  5
C3A8
330
6DD6
100
AcDbEntity
  8
30
 62
     0
100
AcDbMText
 10
59.49989917499909
 20
961.0091017753019
 30
0.0
 40
10.0
 41
0.0
 71
     5
 72
     1
  1
\A1;119
 73
     1
 44
1.0
1001
ACAD
1000
MTEXTBEGIN
1070
    73
1070
     1
1070
    44
1040
1.0
1070
    74
1070
     0
1000
MTEXTEND
  0
POINT
  5
C3A9
330
6DD6
100
AcDbEntity
  8
Defpoints
 62
     0
100
AcDbPoint
 10
-0.0001008250008141
 20
983.0
 30
0.0
  0
POINT
  5
C3AA
330
6DD6
100
AcDbEntity
  8
Defpoints
 62
     0
100
AcDbPoint
 10
118.999899174999
 20
983.0
 30
0.0
  0
POINT
  5
C3AB
330
6DD6
100
AcDbEntity
  8
Defpoints
 62
     0
100
AcDbPoint
 10
118.999899174999
 20
953.0091017753019
 30
0.0
  0
ENDBLK
  5
6DE1
330
6DD6
100
AcDbEntity
  8
0
100
AcDbBlockEnd
  0
BLOCK
  5
6DED
330
6DE3
100
AcDbEntity
  8
0
100
AcDbBlockBegin
  2
*D2
 70
     1
 10
0.0
 20
0.0
 30
0.0
  3
*D2
  1

  0
LINE
  5
C39A
330
6DE3
100
AcDbEntity
  8
30
 62
     0
370
    -2
100
AcDbLine
 10
-0.0001008250008147
 20
973.0
 30
0.0
 11
-0.000100825000816
 21
951.1757684419686
 31
0.0
  0
LINE
  5
C39B
330
6DE3
100
AcDbEntity
  8
30
 62
     0
370
    -2
100
AcDbLine
 10
-119.0001008250008
 20
973.0
 30
0.0
 11
-119.0001008250008
 21
951.1757684419686
 31
0.0
  0
LINE
  5
C39C
330
6DE3
100
AcDbEntity
  8
30
 62
     0
370
    -2
100
AcDbLine
 10
-5.000100825000814
 20
952.1757684419686
 30
0.0
 11
-114.0001008250008
 21
952.1757684419686
 31
0.0
  0
INSERT
  5
C39D
330
6DE3
100
AcDbEntity
  8
30
 62
     0
370
    -2
100
AcDbBlockReference
  2
_Open
 10
-0.000100825000816
 20
952.1757684419686
 30
0.0
 41
5.0
 42
5.0
 43
5.0
  0
INSERT
  5
C39E
330
6DE3
100
AcDbEntity
  8
30
 62
     0
370
    -2
100
AcDbBlockReference
  2
_Open
 10
-119.0001008250008
 20
952.1757684419686
 30
0.0
 41
5.0
 42
5.0
 43
5.0
 50
180.0
  0
MTEXT
  5
C39F
330
6DE3
100
AcDbEntity
  8
30
 62
     0
100
AcDbMText
 10
-59.50010082500082
 20
960.1757684419686
 30
0.0
 40
10.0
 41
0.0
 71
     5
 72
     1
  1
\A1;119
 73
     1
 44
1.0
1001
ACAD
1000
MTEXTBEGIN
1070
    73
1070
     1
1070
    44
1040
1.0
1070
    74
1070
     0
1000
MTEXTEND
  0
POINT
  5
C3A0
330
6DE3
100
AcDbEntity
  8
Defpoints
 62
     0
100
AcDbPoint
 10
-0.0001008250008141
 20
983.0
 30
0.0
  0
POINT
  5
C3A1
330
6DE3
100
AcDbEntity
  8
Defpoints
 62
     0
100
AcDbPoint
 10
-119.0001008250008
 20
983.0
 30
0.0
  0
POINT
  5
C3A2
330
6DE3
100
AcDbEntity
  8
Defpoints
 62
     0
100
AcDbPoint
 10
-119.0001008250008
 20
952.1757684419686
 30
0.0
  0
ENDBLK
  5
6DEE
330
6DE3
100
AcDbEntity
  8
0
100
AcDbBlockEnd
  0
BLOCK
  5
9BDD
330
9BD3
100
AcDbEntity
  8
0
100
AcDbBlockBegin
  2
*D3
 70
     1
 10
0.0
 20
0.0
 30
0.0
  3
*D3
  1

  0
LINE
  5
C3FE
330
9BD3
100
AcDbEntity
  8
30
 62
     0
370
    -2
100
AcDbLine
 10
1106.0
 20
-48.39230421200067
 30
0.0
 11
1106.0
 21
-175.3558024000007
 31
0.0
  0
LINE
  5
C3FF
330
9BD3
100
AcDbEntity
  8
30
 62
     0
370
    -2
100
AcDbLine
 10
1078.0
 20
-122.2872557790007
 30
0.0
 11
1078.0
 21
-175.3558024000007
 31
0.0
  0
LINE
  5
C400
330
9BD3
100
AcDbEntity
  8
30
 62
     0
370
    -2
100
AcDbLine
 10
1101.0
 20
-174.3558024000007
 30
0.0
 11
1083.0
 21
-174.3558024000007
 31
0.0
  0
MTEXT
  5
C401
330
9BD3
100
AcDbEntity
  8
30
 62
     0
100
AcDbMText
 10
1093.139112677999
 20
-166.5762283560008
 30
0.0
 40
10.0
 41
0.0
 71
     5
 72
     1
  1
\A1;28
 73
     1
 44
1.0
1001
ACAD
1000
MTEXTBEGIN
1070
    73
1070
     1
1070
    44
1040
1.0
1070
    74
1070
     0
1000
MTEXTEND
  0
INSERT
  5
C402
330
9BD3
100
AcDbEntity
  8
30
 62
     0
370
    -2
100
AcDbBlockReference
  2
_Open
 10
1106.0
 20
-174.3558024000007
 30
0.0
 41
5.0
 42
5.0
 43
5.0
  0
INSERT
  5
C403
330
9BD3
100
AcDbEntity
  8
30
 62
     0
370
    -2
100
AcDbBlockReference
  2
_Open
 10
1078.0
 20
-174.3558024000007
 30
0.0
 41
5.0
 42
5.0
 43
5.0
 50
180.0
  0
POINT
  5
C404
330
9BD3
100
AcDbEntity
  8
Defpoints
 62
     0
100
AcDbPoint
 10
1106.0
 20
-38.39230421200068
 30
0.0
  0
POINT
  5
C405
330
9BD3
100
AcDbEntity
  8
Defpoints
 62
     0
100
AcDbPoint
 10
1078.0
 20
-112.2872557790006
 30
0.0
  0
POINT
  5
C406
330
9BD3
100
AcDbEntity
  8
Defpoints
 62
     0
100
AcDbPoint
 10
1078.0
 20
-174.3558024000007
 30
0.0
  0
ENDBLK
  5
9BDE
330
9BD3
100
AcDbEntity
  8
0
100
AcDbBlockEnd
  0
BLOCK
  5
9BE9
330
9BDF
100
AcDbEntity
  8
0
100
AcDbBlockBegin
  2
*D4
 70
     1
 10
0.0
 20
0.0
 30
0.0
  3
*D4
  1

  0
LINE
  5
C407
330
9BDF
100
AcDbEntity
  8
30
 62
     0
370
    -2
100
AcDbLine
 10
1140.999999999998
 20
-10.0
 30
0.0
 11
1140.999999999998
 21
-175.3558024000007
 31
0.0
  0
LINE
  5
C408
330
9BDF
100
AcDbEntity
  8
30
 62
     0
370
    -2
100
AcDbLine
 10
1106.0
 20
-30.00000000000067
 30
0.0
 11
1106.0
 21
-175.3558024000007
 31
0.0
  0
LINE
  5
C409
330
9BDF
100
AcDbEntity
  8
30
 62
     0
370
    -2
100
AcDbLine
 10
1135.999999999998
 20
-174.3558024000007
 30
0.0
 11
1111.0
 21
-174.3558024000007
 31
0.0
  0
MTEXT
  5
C40A
330
9BDF
100
AcDbEntity
  8
30
 62
     0
100
AcDbMText
 10
1122.282431669999
 20
-166.4092456660006
 30
0.0
 40
10.0
 41
0.0
 71
     5
 72
     1
  1
\A1;35
 73
     1
 44
1.0
1001
ACAD
1000
MTEXTBEGIN
1070
    73
1070
     1
1070
    44
1040
1.0
1070
    74
1070
     0
1000
MTEXTEND
  0
INSERT
  5
C40B
330
9BDF
100
AcDbEntity
  8
30
 62
     0
370
    -2
100
AcDbBlockReference
  2
_Open
 10
1140.999999999998
 20
-174.3558024000007
 30
0.0
 41
5.0
 42
5.0
 43
5.0
  0
INSERT
  5
C40C
330
9BDF
100
AcDbEntity
  8
30
 62
     0
370
    -2
100
AcDbBlockReference
  2
_Open
 10
1106.0
 20
-174.3558024000007
 30
0.0
 41
5.0
 42
5.0
 43
5.0
 50
180.0
  0
POINT
  5
C40D
330
9BDF
100
AcDbEntity
  8
Defpoints
 62
     0
100
AcDbPoint
 10
1140.999999999998
 20
0.0
 30
0.0
  0
POINT
  5
C40E
330
9BDF
100
AcDbEntity
  8
Defpoints
 62
     0
100
AcDbPoint
 10
1106.0
 20
-20.00000000000067
 30
0.0
  0
POINT
  5
C40F
330
9BDF
100
AcDbEntity
  8
Defpoints
 62
     0
100
AcDbPoint
 10
1106.0
 20
-174.3558024000007
 30
0.0
  0
ENDBLK
  5
9BEA
330
9BDF
100
AcDbEntity
  8
0
100
AcDbBlockEnd
  0
BLOCK
  5
9BF5
330
9BEB
100
AcDbEntity
  8
0
100
AcDbBlockBegin
  2
*D5
 70
     1
 10
0.0
 20
0.0
 30
0.0
  3
*D5
  1

  0
LINE
  5
C3EB
330
9BEB
100
AcDbEntity
  8
30
 62
     0
370
    -2
100
AcDbLine
 10
978.0
 20
-122.2872557790007
 30
0.0
 11
978.0
 21
-175.3558024000007
 31
0.0
  0
LINE
  5
C3EC
330
9BEB
100
AcDbEntity
  8
30
 62
     0
370
    -2
100
AcDbLine
 10
1078.0
 20
-122.2872557790007
 30
0.0
 11
1078.0
 21
-175.3558024000007
 31
0.0
  0
LINE
  5
C3ED
330
9BEB
100
AcDbEntity
  8
30
 62
     0
370
    -2
100
AcDbLine
 10
983.0
 20
-174.3558024000007
 30
0.0
 11
1073.0
 21
-174.3558024000007
 31
0.0
  0
MTEXT
  5
C3EE
330
9BEB
100
AcDbEntity
  8
30
 62
     0
100
AcDbMText
 10
1030.592592592
 20
-166.3558024000006
 30
0.0
 40
10.0
 41
0.0
 71
     5
 72
     1
  1
\A1;100
 73
     1
 44
1.0
1001
ACAD
1000
MTEXTBEGIN
1070
    73
1070
     1
1070
    44
1040
1.0
1070
    74
1070
     0
1000
MTEXTEND
  0
INSERT
  5
C3EF
330
9BEB
100
AcDbEntity
  8
30
 62
     0
370
    -2
100
AcDbBlockReference
  2
_Open
 10
978.0
 20
-174.3558024000007
 30
0.0
 41
5.0
 42
5.0
 43
5.0
 50
180.0
  0
INSERT
  5
C3F0
330
9BEB
100
AcDbEntity
  8
30
 62
     0
370
    -2
100
AcDbBlockReference
  2
_Open
 10
1078.0
 20
-174.3558024000007
 30
0.0
 41
5.0
 42
5.0
 43
5.0
  0
POINT
  5
C3F1
330
9BEB
100
AcDbEntity
  8
Defpoints
 62
     0
100
AcDbPoint
 10
978.0
 20
-112.2872557790006
 30
0.0
  0
POINT
  5
C3F2
330
9BEB
100
AcDbEntity
  8
Defpoints
 62
     0
100
AcDbPoint
 10
1078.0
 20
-112.2872557790006
 30
0.0
  0
POINT
  5
C3F3
330
9BEB
100
AcDbEntity
  8
Defpoints
 62
     0
100
AcDbPoint
 10
1078.0
 20
-174.3558024000007
 30
0.0
  0
ENDBLK
  5
9BF6
330
9BEB
100
AcDbEntity
  8
0
100
AcDbBlockEnd
  0
BLOCK
  5
9C1A
330
9C0F
100
AcDbEntity
  8
0
100
AcDbBlockBegin
  2
*D6
 70
     1
 10
0.0
 20
0.0
 30
0.0
  3
*D6
  1

  0
LINE
  5
C3F4
330
9C0F
100
AcDbEntity
  8
30
 62
     0
370
    -2
100
AcDbLine
 10
978.0
 20
-122.2872557790007
 30
0.0
 11
978.0
 21
-175.3558024000007
 31
0.0
  0
LINE
  5
C3F5
330
9C0F
100
AcDbEntity
  8
30
 62
     0
370
    -2
100
AcDbLine
 10
941.0
 20
-29.12765978700053
 30
0.0
 11
941.0
 21
-175.3558024000007
 31
0.0
  0
LINE
  5
C3F6
330
9C0F
100
AcDbEntity
  8
30
 62
     0
370
    -2
100
AcDbLine
 10
973.0
 20
-174.3558024000007
 30
0.0
 11
946.0
 21
-174.3558024000007
 31
0.0
  0
LINE
  5
C3F7
330
9C0F
100
AcDbEntity
  8
30
 62
     0
370
    -2
100
AcDbLine
 10
903.2187789707617
 20
-174.3558024000007
 30
0.0
 11
941.0
 21
-174.3558024000007
 31
0.0
  0
MTEXT
  5
C3F8
330
9C0F
100
AcDbEntity
  8
30
 62
     0
100
AcDbMText
 10
914.3140170659998
 20
-166.3558024000006
 30
0.0
 40
10.0
 41
0.0
 71
     5
 72
     1
  1
\A1;37
 73
     1
 44
1.0
1001
ACAD
1000
MTEXTBEGIN
1070
    73
1070
     1
1070
    44
1040
1.0
1070
    74
1070
     0
1000
MTEXTEND
  0
INSERT
  5
C3F9
330
9C0F
100
AcDbEntity
  8
30
 62
     0
370
    -2
100
AcDbBlockReference
  2
_Open
 10
978.0
 20
-174.3558024000007
 30
0.0
 41
5.0
 42
5.0
 43
5.0
  0
INSERT
  5
C3FA
330
9C0F
100
AcDbEntity
  8
30
 62
     0
370
    -2
100
AcDbBlockReference
  2
_Open
 10
941.0
 20
-174.3558024000007
 30
0.0
 41
5.0
 42
5.0
 43
5.0
 50
180.0
  0
POINT
  5
C3FB
330
9C0F
100
AcDbEntity
  8
Defpoints
 62
     0
100
AcDbPoint
 10
978.0
 20
-112.2872557790006
 30
0.0
  0
POINT
  5
C3FC
330
9C0F
100
AcDbEntity
  8
Defpoints
 62
     0
100
AcDbPoint
 10
941.0
 20
-19.12765978700053
 30
0.0
  0
POINT
  5
C3FD
330
9C0F
100
AcDbEntity
  8
Defpoints
 62
     0
100
AcDbPoint
 10
941.0
 20
-174.3558024000007
 30
0.0
  0
ENDBLK
  5
9C1B
330
9C0F
100
AcDbEntity
  8
0
100
AcDbBlockEnd
  0
BLOCK
  5
9C86
330
9C7B
100
AcDbEntity
  8
0
100
AcDbBlockBegin
  2
*D7
 70
     1
 10
0.0
 20
0.0
 30
0.0
  3
*D7
  1

  0
LINE
  5
C3BE
330
9C7B
100
AcDbEntity
  8
30
 62
     0
370
    -2
100
AcDbLine
 10
1068.0
 20
441.9999999999991
 30
0.0
 11
1240.725593749999
 21
441.9999999999991
 31
0.0
  0
LINE
  5
C3BF
330
9C7B
100
AcDbEntity
  8
30
 62
     0
370
    -2
100
AcDbLine
 10
1076.0
 20
459.9999999999993
 30
0.0
 11
1240.725593749999
 21
459.9999999999993
 31
0.0
  0
LINE
  5
C3C0
330
9C7B
100
AcDbEntity
  8
30
 62
     0
370
    -2
100
AcDbLine
 10
1239.725593749999
 20
446.999999999999
 30
0.0
 11
1239.725593749999
 21
454.9999999999993
 31
0.0
  0
MTEXT
  5
C3C1
330
9C7B
100
AcDbEntity
  8
30
 62
     0
100
AcDbMText
 10
1232.554533340105
 20
451.1011607721356
 30
0.0
 40
10.0
 41
0.0
 71
     5
 72
     1
  1
\A1;18
 11
0.0000000000000001
 21
1.0
 31
0.0
 73
     1
 44
1.0
1001
ACAD
1000
MTEXTBEGIN
1070
    73
1070
     1
1070
    44
1040
1.0
1070
    74
1070
     0
1000
MTEXTEND
  0
INSERT
  5
C3C2
330
9C7B
100
AcDbEntity
  8
30
 62
     0
370
    -2
100
AcDbBlockReference
  2
_Open
 10
1239.725593749999
 20
441.9999999999991
 30
0.0
 41
5.0
 42
5.0
 43
5.0
 50
270.0
  0
INSERT
  5
C3C3
330
9C7B
100
AcDbEntity
  8
30
 62
     0
370
    -2
100
AcDbBlockReference
  2
_Open
 10
1239.725593749999
 20
459.9999999999993
 30
0.0
 41
5.0
 42
5.0
 43
5.0
 50
90.0
  0
POINT
  5
C3C4
330
9C7B
100
AcDbEntity
  8
Defpoints
 62
     0
100
AcDbPoint
 10
1058.0
 20
441.9999999999991
 30
0.0
  0
POINT
  5
C3C5
330
9C7B
100
AcDbEntity
  8
Defpoints
 62
     0
100
AcDbPoint
 10
1066.0
 20
459.9999999999993
 30
0.0
  0
POINT
  5
C3C6
330
9C7B
100
AcDbEntity
  8
Defpoints
 62
     0
100
AcDbPoint
 10
1239.725593749999
 20
459.9999999999993
 30
0.0
  0
ENDBLK
  5
9C87
330
9C7B
100
AcDbEntity
  8
0
100
AcDbBlockEnd
  0
BLOCK
  5
9C92
330
9C88
100
AcDbEntity
  8
0
100
AcDbBlockBegin
  2
*D8
 70
     1
 10
0.0
 20
0.0
 30
0.0
  3
*D8
  1

  0
LINE
  5
C3B5
330
9C88
100
AcDbEntity
  8
30
 62
     0
370
    -2
100
AcDbLine
 10
991.0
 20
489.9999999999995
 30
0.0
 11
1351.0
 21
489.9999999999994
 31
0.0
  0
LINE
  5
C3B6
330
9C88
100
AcDbEntity
  8
30
 62
     0
370
    -2
100
AcDbLine
 10
1151.0
 20
-0.0000000000006849
 30
0.0
 11
1351.0
 21
-0.0000000000007416
 31
0.0
  0
LINE
  5
C3B7
330
9C88
100
AcDbEntity
  8
30
 62
     0
370
    -2
100
AcDbLine
 10
1350.0
 20
484.9999999999993
 30
0.0
 11
1350.0
 21
4.999999999999258
 31
0.0
  0
MTEXT
  5
C3B8
330
9C88
100
AcDbEntity
  8
30
 62
     0
100
AcDbMText
 10
1342.0
 20
244.9999999999992
 30
0.0
 40
10.0
 41
0.0
 71
     5
 72
     1
  1
\A1;490
 11
0.0000000000000001
 21
1.0
 31
0.0
 73
     1
 44
1.0
1001
ACAD
1000
MTEXTBEGIN
1070
    73
1070
     1
1070
    44
1040
1.0
1070
    74
1070
     0
1000
MTEXTEND
  0
INSERT
  5
C3B9
330
9C88
100
AcDbEntity
  8
30
 62
     0
370
    -2
100
AcDbBlockReference
  2
_Open
 10
1350.0
 20
489.9999999999994
 30
0.0
 41
5.0
 42
5.0
 43
5.0
 50
90.0
  0
INSERT
  5
C3BA
330
9C88
100
AcDbEntity
  8
30
 62
     0
370
    -2
100
AcDbBlockReference
  2
_Open
 10
1350.0
 20
-0.0000000000007413
 30
0.0
 41
5.0
 42
5.0
 43
5.0
 50
270.0
  0
POINT
  5
C3BB
330
9C88
100
AcDbEntity
  8
Defpoints
 62
     0
100
AcDbPoint
 10
981.0
 20
489.9999999999995
 30
0.0
  0
POINT
  5
C3BC
330
9C88
100
AcDbEntity
  8
Defpoints
 62
     0
100
AcDbPoint
 10
1141.0
 20
-0.0000000000006821
 30
0.0
  0
POINT
  5
C3BD
330
9C88
100
AcDbEntity
  8
Defpoints
 62
     0
100
AcDbPoint
 10
1350.0
 20
-0.0000000000007413
 30
0.0
  0
ENDBLK
  5
9C93
330
9C88
100
AcDbEntity
  8
0
100
AcDbBlockEnd
  0
BLOCK
  5
9C9E
330
9C94
100
AcDbEntity
  8
0
100
AcDbBlockBegin
  2
*D9
 70
     1
 10
0.0
 20
0.0
 30
0.0
  3
*D9
  1

  0
LINE
  5
C3D9
330
9C94
100
AcDbEntity
  8
30
 62
     0
370
    -2
100
AcDbLine
 10
837.0
 20
361.9999999999992
 30
0.0
 11
767.4562246197718
 21
361.9999999999992
 31
0.0
  0
LINE
  5
C3DA
330
9C94
100
AcDbEntity
  8
30
 62
     0
370
    -2
100
AcDbLine
 10
854.0
 20
32.99999999999907
 30
0.0
 11
767.4562246197718
 21
32.99999999999911
 31
0.0
  0
LINE
  5
C3DB
330
9C94
100
AcDbEntity
  8
30
 62
     0
370
    -2
100
AcDbLine
 10
768.4562246197717
 20
356.9999999999991
 30
0.0
 11
768.4562246197717
 21
37.99999999999911
 31
0.0
  0
MTEXT
  5
C3DC
330
9C94
100
AcDbEntity
  8
30
 62
     0
100
AcDbMText
 10
760.456224619772
 20
185.6084298369993
 30
0.0
 40
10.0
 41
0.0
 71
     5
 72
     1
  1
\A1;329
 11
0.0000000000000001
 21
1.0
 31
0.0
 73
     1
 44
1.0
1001
ACAD
1000
MTEXTBEGIN
1070
    73
1070
     1
1070
    44
1040
1.0
1070
    74
1070
     0
1000
MTEXTEND
  0
INSERT
  5
C3DD
330
9C94
100
AcDbEntity
  8
30
 62
     0
370
    -2
100
AcDbBlockReference
  2
_Open
 10
768.4562246197717
 20
361.9999999999992
 30
0.0
 41
5.0
 42
5.0
 43
5.0
 50
90.0
  0
INSERT
  5
C3DE
330
9C94
100
AcDbEntity
  8
30
 62
     0
370
    -2
100
AcDbBlockReference
  2
_Open
 10
768.4562246197717
 20
32.99999999999911
 30
0.0
 41
5.0
 42
5.0
 43
5.0
 50
270.0
  0
POINT
  5
C3DF
330
9C94
100
AcDbEntity
  8
Defpoints
 62
     0
100
AcDbPoint
 10
847.0
 20
361.9999999999992
 30
0.0
  0
POINT
  5
C3E0
330
9C94
100
AcDbEntity
  8
Defpoints
 62
     0
100
AcDbPoint
 10
864.0
 20
32.99999999999907
 30
0.0
  0
POINT
  5
C3E1
330
9C94
100
AcDbEntity
  8
Defpoints
 62
     0
100
AcDbPoint
 10
768.4562246197717
 20
32.99999999999911
 30
0.0
  0
ENDBLK
  5
9C9F
330
9C94
100
AcDbEntity
  8
0
100
AcDbBlockEnd
  0
BLOCK
  5
9CB6
330
9CAD
100
AcDbEntity
  8
0
100
AcDbBlockBegin
  2
*D10
 70
     1
 10
0.0
 20
0.0
 30
0.0
  3
*D10
  1

  0
LINE
  5
C3E2
330
9CAD
100
AcDbEntity
  8
30
 62
     0
370
    -2
100
AcDbLine
 10
951.0
 20
549.9999999999994
 30
0.0
 11
725.0960629859137
 21
549.9999999999994
 31
0.0
  0
LINE
  5
C3E3
330
9CAD
100
AcDbEntity
  8
30
 62
     0
370
    -2
100
AcDbLine
 10
911.0
 20
-0.0000000000006793
 30
0.0
 11
725.0960629859137
 21
-0.0000000000006266
 31
0.0
  0
LINE
  5
C3E4
330
9CAD
100
AcDbEntity
  8
30
 62
     0
370
    -2
100
AcDbLine
 10
726.0960629859137
 20
544.9999999999994
 30
0.0
 11
726.0960629859137
 21
4.999999999999372
 31
0.0
  0
MTEXT
  5
C3E5
330
9CAD
100
AcDbEntity
  8
30
 62
     0
100
AcDbMText
 10
718.0960629859137
 20
274.9999999999995
 30
0.0
 40
10.0
 41
0.0
 71
     5
 72
     1
  1
\A1;550 
 11
0.0000000000000001
 21
1.0
 31
0.0
 73
     1
 44
1.0
1001
ACAD
1000
MTEXTBEGIN
1070
    73
1070
     1
1070
    44
1040
1.0
1070
    74
1070
     0
1000
MTEXTEND
  0
INSERT
  5
C3E6
330
9CAD
100
AcDbEntity
  8
30
 62
     0
370
    -2
100
AcDbBlockReference
  2
_Open
 10
726.0960629859137
 20
549.9999999999994
 30
0.0
 41
5.0
 42
5.0
 43
5.0
 50
90.0
  0
INSERT
  5
C3E7
330
9CAD
100
AcDbEntity
  8
30
 62
     0
370
    -2
100
AcDbBlockReference
  2
_Open
 10
726.0960629859137
 20
-0.0000000000006269
 30
0.0
 41
5.0
 42
5.0
 43
5.0
 50
270.0
  0
POINT
  5
C3E8
330
9CAD
100
AcDbEntity
  8
Defpoints
 62
     0
100
AcDbPoint
 10
961.0
 20
549.9999999999994
 30
0.0
  0
POINT
  5
C3E9
330
9CAD
100
AcDbEntity
  8
Defpoints
 62
     0
100
AcDbPoint
 10
921.0
 20
-0.0000000000006821
 30
0.0
  0
POINT
  5
C3EA
330
9CAD
100
AcDbEntity
  8
Defpoints
 62
     0
100
AcDbPoint
 10
726.0960629859137
 20
-0.0000000000006269
 30
0.0
  0
ENDBLK
  5
9CB7
330
9CAD
100
AcDbEntity
  8
0
100
AcDbBlockEnd
  0
BLOCK
  5
9CC3
330
9CB8
100
AcDbEntity
  8
0
100
AcDbBlockBegin
  2
*D11
 70
     1
 10
0.0
 20
0.0
 30
0.0
  3
*D11
  1

  0
LINE
  5
C410
330
9CB8
100
AcDbEntity
  8
30
 62
     0
370
    -2
100
AcDbLine
 10
854.0
 20
32.99999999999907
 30
0.0
 11
767.4562246197718
 21
32.99999999999911
 31
0.0
  0
LINE
  5
C411
330
9CB8
100
AcDbEntity
  8
30
 62
     0
370
    -2
100
AcDbLine
 10
911.0
 20
-0.0000000000006793
 30
0.0
 11
767.4562246197718
 21
-0.0000000000006386
 31
0.0
  0
LINE
  5
C412
330
9CB8
100
AcDbEntity
  8
30
 62
     0
370
    -2
100
AcDbLine
 10
768.4562246197717
 20
27.99999999999911
 30
0.0
 11
768.4562246197717
 21
4.999999999999361
 31
0.0
  0
MTEXT
  5
C413
330
9CB8
100
AcDbEntity
  8
30
 62
     0
100
AcDbMText
 10
760.456224619772
 20
17.24416644114533
 30
0.0
 40
10.0
 41
0.0
 71
     5
 72
     1
  1
\A1;33
 11
0.0000000000000001
 21
1.0
 31
0.0
 73
     1
 44
1.0
1001
ACAD
1000
MTEXTBEGIN
1070
    73
1070
     1
1070
    44
1040
1.0
1070
    74
1070
     0
1000
MTEXTEND
  0
INSERT
  5
C414
330
9CB8
100
AcDbEntity
  8
30
 62
     0
370
    -2
100
AcDbBlockReference
  2
_Open
 10
768.4562246197717
 20
32.99999999999911
 30
0.0
 41
5.0
 42
5.0
 43
5.0
 50
90.0
  0
INSERT
  5
C415
330
9CB8
100
AcDbEntity
  8
30
 62
     0
370
    -2
100
AcDbBlockReference
  2
_Open
 10
768.4562246197717
 20
-0.0000000000006389
 30
0.0
 41
5.0
 42
5.0
 43
5.0
 50
270.0
  0
POINT
  5
C416
330
9CB8
100
AcDbEntity
  8
Defpoints
 62
     0
100
AcDbPoint
 10
864.0
 20
32.99999999999907
 30
0.0
  0
POINT
  5
C417
330
9CB8
100
AcDbEntity
  8
Defpoints
 62
     0
100
AcDbPoint
 10
921.0
 20
-0.0000000000006821
 30
0.0
  0
POINT
  5
C418
330
9CB8
100
AcDbEntity
  8
Defpoints
 62
     0
100
AcDbPoint
 10
768.4562246197717
 20
-0.0000000000006389
 30
0.0
  0
ENDBLK
  5
9CC4
330
9CB8
100
AcDbEntity
  8
0
100
AcDbBlockEnd
  0
BLOCK
  5
9CE8
330
9CDE
100
AcDbEntity
  8
0
100
AcDbBlockBegin
  2
*D12
 70
     1
 10
0.0
 20
0.0
 30
0.0
  3
*D12
  1

  0
LINE
  5
C3C7
330
9CDE
100
AcDbEntity
  8
30
 62
     0
370
    -2
100
AcDbLine
 10
1058.0
 20
451.9999999999991
 30
0.0
 11
1058.0
 21
596.433569358104
 31
0.0
  0
LINE
  5
C3C8
330
9CDE
100
AcDbEntity
  8
30
 62
     0
370
    -2
100
AcDbLine
 10
859.0
 20
481.9999999999991
 30
0.0
 11
859.0
 21
596.433569358104
 31
0.0
  0
LINE
  5
C3C9
330
9CDE
100
AcDbEntity
  8
30
 62
     0
370
    -2
100
AcDbLine
 10
1053.0
 20
595.433569358104
 30
0.0
 11
864.0
 21
595.433569358104
 31
0.0
  0
MTEXT
  5
C3CA
330
9CDE
100
AcDbEntity
  8
30
 62
     0
100
AcDbMText
 10
955.02872842019
 20
602.433569358104
 30
0.0
 40
10.0
 41
0.0
 71
     5
 72
     1
  1
\A1;199
 73
     1
 44
1.0
1001
ACAD
1000
MTEXTBEGIN
1070
    73
1070
     1
1070
    44
1040
1.0
1070
    74
1070
     0
1000
MTEXTEND
  0
INSERT
  5
C3CB
330
9CDE
100
AcDbEntity
  8
30
 62
     0
370
    -2
100
AcDbBlockReference
  2
_Open
 10
1058.0
 20
595.433569358104
 30
0.0
 41
5.0
 42
5.0
 43
5.0
  0
INSERT
  5
C3CC
330
9CDE
100
AcDbEntity
  8
30
 62
     0
370
    -2
100
AcDbBlockReference
  2
_Open
 10
859.0
 20
595.433569358104
 30
0.0
 41
5.0
 42
5.0
 43
5.0
 50
180.0
  0
POINT
  5
C3CD
330
9CDE
100
AcDbEntity
  8
Defpoints
 62
     0
100
AcDbPoint
 10
1058.0
 20
441.9999999999991
 30
0.0
  0
POINT
  5
C3CE
330
9CDE
100
AcDbEntity
  8
Defpoints
 62
     0
100
AcDbPoint
 10
859.0
 20
471.9999999999991
 30
0.0
  0
POINT
  5
C3CF
330
9CDE
100
AcDbEntity
  8
Defpoints
 62
     0
100
AcDbPoint
 10
859.0
 20
595.433569358104
 30
0.0
  0
ENDBLK
  5
9CE9
330
9CDE
100
AcDbEntity
  8
0
100
AcDbBlockEnd
  0
BLOCK
  5
9D0E
330
9D04
100
AcDbEntity
  8
0
100
AcDbBlockBegin
  2
*D13
 70
     1
 10
0.0
 20
0.0
 30
0.0
  3
*D13
  1

  0
LINE
  5
C3AC
330
9D04
100
AcDbEntity
  8
30
 62
     0
370
    -2
100
AcDbLine
 10
1076.0
 20
459.9999999999993
 30
0.0
 11
1322.0
 21
459.9999999999993
 31
0.0
  0
LINE
  5
C3AD
330
9D04
100
AcDbEntity
  8
30
 62
     0
370
    -2
100
AcDbLine
 10
1151.0
 20
-0.0000000000006849
 30
0.0
 11
1322.0
 21
-0.0000000000007334
 31
0.0
  0
LINE
  5
C3AE
330
9D04
100
AcDbEntity
  8
30
 62
     0
370
    -2
100
AcDbLine
 10
1321.0
 20
454.9999999999993
 30
0.0
 11
1321.0
 21
4.999999999999267
 31
0.0
  0
MTEXT
  5
C3AF
330
9D04
100
AcDbEntity
  8
30
 62
     0
100
AcDbMText
 10
1313.0
 20
229.9999999999992
 30
0.0
 40
10.0
 41
0.0
 71
     5
 72
     1
  1
\A1;460
 11
0.0000000000000001
 21
1.0
 31
0.0
 73
     1
 44
1.0
1001
ACAD
1000
MTEXTBEGIN
1070
    73
1070
     1
1070
    44
1040
1.0
1070
    74
1070
     0
1000
MTEXTEND
  0
INSERT
  5
C3B0
330
9D04
100
AcDbEntity
  8
30
 62
     0
370
    -2
100
AcDbBlockReference
  2
_Open
 10
1321.0
 20
459.9999999999993
 30
0.0
 41
5.0
 42
5.0
 43
5.0
 50
90.0
  0
INSERT
  5
C3B1
330
9D04
100
AcDbEntity
  8
30
 62
     0
370
    -2
100
AcDbBlockReference
  2
_Open
 10
1321.0
 20
-0.0000000000007331
 30
0.0
 41
5.0
 42
5.0
 43
5.0
 50
270.0
  0
POINT
  5
C3B2
330
9D04
100
AcDbEntity
  8
Defpoints
 62
     0
100
AcDbPoint
 10
1066.0
 20
459.9999999999993
 30
0.0
  0
POINT
  5
C3B3
330
9D04
100
AcDbEntity
  8
Defpoints
 62
     0
100
AcDbPoint
 10
1141.0
 20
-0.0000000000006821
 30
0.0
  0
POINT
  5
C3B4
330
9D04
100
AcDbEntity
  8
Defpoints
 62
     0
100
AcDbPoint
 10
1321.0
 20
-0.0000000000007331
 30
0.0
  0
ENDBLK
  5
9D0F
330
9D04
100
AcDbEntity
  8
0
100
AcDbBlockEnd
  0
BLOCK
  5
9D35
330
9D2A
100
AcDbEntity
  8
0
100
AcDbBlockBegin
  2
*D14
 70
     1
 10
0.0
 20
0.0
 30
0.0
  3
*D14
  1

  0
LINE
  5
C3D0
330
9D2A
100
AcDbEntity
  8
30
 62
     0
370
    -2
100
AcDbLine
 10
1136.0
 20
34.9999999999993
 30
0.0
 11
1249.104021733264
 21
34.99999999999927
 31
0.0
  0
LINE
  5
C3D1
330
9D2A
100
AcDbEntity
  8
30
 62
     0
370
    -2
100
AcDbLine
 10
1174.0
 20
-0.0000000000006849
 30
0.0
 11
1249.104021733264
 21
-0.0000000000007062
 31
0.0
  0
LINE
  5
C3D2
330
9D2A
100
AcDbEntity
  8
30
 62
     0
370
    -2
100
AcDbLine
 10
1248.104021733264
 20
29.99999999999927
 30
0.0
 11
1248.104021733264
 21
4.999999999999293
 31
0.0
  0
MTEXT
  5
C3D3
330
9D2A
100
AcDbEntity
  8
30
 62
     0
100
AcDbMText
 10
1239.104021733264
 20
17.82298464493396
 30
0.0
 40
10.0
 41
0.0
 71
     5
 72
     1
  1
\A1;35
 11
0.0000000000000001
 21
1.0
 31
0.0
 73
     1
 44
1.0
1001
ACAD
1000
MTEXTBEGIN
1070
    73
1070
     1
1070
    44
1040
1.0
1070
    74
1070
     0
1000
MTEXTEND
  0
INSERT
  5
C3D4
330
9D2A
100
AcDbEntity
  8
30
 62
     0
370
    -2
100
AcDbBlockReference
  2
_Open
 10
1248.104021733264
 20
34.99999999999927
 30
0.0
 41
5.0
 42
5.0
 43
5.0
 50
90.0
  0
INSERT
  5
C3D5
330
9D2A
100
AcDbEntity
  8
30
 62
     0
370
    -2
100
AcDbBlockReference
  2
_Open
 10
1248.104021733264
 20
-0.0000000000007059
 30
0.0
 41
5.0
 42
5.0
 43
5.0
 50
270.0
  0
POINT
  5
C3D6
330
9D2A
100
AcDbEntity
  8
Defpoints
 62
     0
100
AcDbPoint
 10
1126.0
 20
34.99999999999931
 30
0.0
  0
POINT
  5
C3D7
330
9D2A
100
AcDbEntity
  8
Defpoints
 62
     0
100
AcDbPoint
 10
1164.0
 20
-0.0000000000006821
 30
0.0
  0
POINT
  5
C3D8
330
9D2A
100
AcDbEntity
  8
Defpoints
 62
     0
100
AcDbPoint
 10
1248.104021733264
 20
-0.0000000000007059
 30
0.0
  0
ENDBLK
  5
9D36
330
9D2A
100
AcDbEntity
  8
0
100
AcDbBlockEnd
  0
BLOCK
  5
AD6D
330
AD63
100
AcDbEntity
  8
0
100
AcDbBlockBegin
  2
*D15
 70
     1
 10
0.0
 20
0.0
 30
0.0
  3
*D15
  1

  0
LINE
  5
C419
330
AD63
100
AcDbEntity
  8
30
 62
     0
370
    -2
100
AcDbLine
 10
1915.0
 20
528.997400984
 30
0.0
 11
1915.0
 21
562.2650820209996
 31
0.0
  0
LINE
  5
C41A
330
AD63
100
AcDbEntity
  8
30
 62
     0
370
    -2
100
AcDbLine
 10
2000.0
 20
528.6787719999998
 30
0.0
 11
2000.0
 21
562.2650820209996
 31
0.0
  0
LINE
  5
C41B
330
AD63
100
AcDbEntity
  8
30
 62
     0
370
    -2
100
AcDbLine
 10
1920.0
 20
561.2650820209998
 30
0.0
 11
1995.0
 21
561.2650820209998
 31
0.0
  0
MTEXT
  5
C41C
330
AD63
100
AcDbEntity
  8
30
 62
     0
100
AcDbMText
 10
1957.499999999999
 20
569.2650820209998
 30
0.0
 40
10.0
 41
0.0
 71
     5
 72
     1
  1
\A1;85
 73
     1
 44
1.0
1001
ACAD
1000
MTEXTBEGIN
1070
    73
1070
     1
1070
    44
1040
1.0
1070
    74
1070
     0
1000
MTEXTEND
  0
INSERT
  5
C41D
330
AD63
100
AcDbEntity
  8
30
 62
     0
370
    -2
100
AcDbBlockReference
  2
_Open
 10
1915.0
 20
561.2650820209998
 30
0.0
 41
5.0
 42
5.0
 43
5.0
 50
180.0
  0
INSERT
  5
C41E
330
AD63
100
AcDbEntity
  8
30
 62
     0
370
    -2
100
AcDbBlockReference
  2
_Open
 10
2000.0
 20
561.2650820209998
 30
0.0
 41
5.0
 42
5.0
 43
5.0
  0
POINT
  5
C41F
330
AD63
100
AcDbEntity
  8
Defpoints
 62
     0
100
AcDbPoint
 10
1915.0
 20
518.997400984
 30
0.0
  0
POINT
  5
C420
330
AD63
100
AcDbEntity
  8
Defpoints
 62
     0
100
AcDbPoint
 10
2000.0
 20
518.6787719999998
 30
0.0
  0
POINT
  5
C421
330
AD63
100
AcDbEntity
  8
Defpoints
 62
     0
100
AcDbPoint
 10
2000.0
 20
561.2650820209998
 30
0.0
  0
ENDBLK
  5
AD6E
330
AD63
100
AcDbEntity
  8
0
100
AcDbBlockEnd
  0
BLOCK
  5
AE94
330
AE8A
100
AcDbEntity
  8
0
100
AcDbBlockBegin
  2
*D16
 70
     1
 10
0.0
 20
0.0
 30
0.0
  3
*D16
  1

  0
LINE
  5
C4CC
330
AE8A
100
AcDbEntity
  8
30
 62
     0
370
    -2
100
AcDbLine
 10
2000.0
 20
528.6787719999998
 30
0.0
 11
2000.0
 21
562.2650820209996
 31
0.0
  0
LINE
  5
C4CD
330
AE8A
100
AcDbEntity
  8
30
 62
     0
370
    -2
100
AcDbLine
 10
2085.0
 20
528.997400984
 30
0.0
 11
2085.0
 21
562.2650820209996
 31
0.0
  0
LINE
  5
C4CE
330
AE8A
100
AcDbEntity
  8
30
 62
     0
370
    -2
100
AcDbLine
 10
2005.0
 20
561.2650820209998
 30
0.0
 11
2080.0
 21
561.2650820209998
 31
0.0
  0
MTEXT
  5
C4CF
330
AE8A
100
AcDbEntity
  8
30
 62
     0
100
AcDbMText
 10
2042.499999999999
 20
569.2650820209998
 30
0.0
 40
10.0
 41
0.0
 71
     5
 72
     1
  1
\A1;85
 73
     1
 44
1.0
1001
ACAD
1000
MTEXTBEGIN
1070
    73
1070
     1
1070
    44
1040
1.0
1070
    74
1070
     0
1000
MTEXTEND
  0
INSERT
  5
C4D0
330
AE8A
100
AcDbEntity
  8
30
 62
     0
370
    -2
100
AcDbBlockReference
  2
_Open
 10
2000.0
 20
561.2650820209998
 30
0.0
 41
5.0
 42
5.0
 43
5.0
 50
180.0
  0
INSERT
  5
C4D1
330
AE8A
100
AcDbEntity
  8
30
 62
     0
370
    -2
100
AcDbBlockReference
  2
_Open
 10
2085.0
 20
561.2650820209998
 30
0.0
 41
5.0
 42
5.0
 43
5.0
  0
POINT
  5
C4D2
330
AE8A
100
AcDbEntity
  8
Defpoints
 62
     0
100
AcDbPoint
 10
2000.0
 20
518.6787719999998
 30
0.0
  0
POINT
  5
C4D3
330
AE8A
100
AcDbEntity
  8
Defpoints
 62
     0
100
AcDbPoint
 10
2085.0
 20
518.997400984
 30
0.0
  0
POINT
  5
C4D4
330
AE8A
100
AcDbEntity
  8
Defpoints
 62
     0
100
AcDbPoint
 10
2085.0
 20
561.2650820209998
 30
0.0
  0
ENDBLK
  5
AE95
330
AE8A
100
AcDbEntity
  8
0
100
AcDbBlockEnd
  0
BLOCK
  5
B29C
330
B292
100
AcDbEntity
  8
0
100
AcDbBlockBegin
  2
*D17
 70
     1
 10
0.0
 20
0.0
 30
0.0
  3
*D17
  1

  0
LINE
  5
C422
330
B292
100
AcDbEntity
  8
30
 62
     0
370
    -2
100
AcDbLine
 10
1234.0
 20
137.9999999999991
 30
0.0
 11
1291.252270915998
 21
137.9999999999991
 31
0.0
  0
LINE
  5
C423
330
B292
100
AcDbEntity
  8
30
 62
     0
370
    -2
100
AcDbLine
 10
1151.0
 20
-0.0000000000006849
 30
0.0
 11
1291.252270915998
 21
-0.0000000000007247
 31
0.0
  0
LINE
  5
C424
330
B292
100
AcDbEntity
  8
30
 62
     0
370
    -2
100
AcDbLine
 10
1290.252270915998
 20
132.999999999999
 30
0.0
 11
1290.252270915998
 21
4.999999999999275
 31
0.0
  0
MTEXT
  5
C425
330
B292
100
AcDbEntity
  8
30
 62
     0
100
AcDbMText
 10
1282.252270916
 20
75.92028629099947
 30
0.0
 40
10.0
 41
0.0
 71
     5
 72
     1
  1
\A1;138
 11
0.0000000000000001
 21
1.0
 31
0.0
 73
     1
 44
1.0
1001
ACAD
1000
MTEXTBEGIN
1070
    73
1070
     1
1070
    44
1040
1.0
1070
    74
1070
     0
1000
MTEXTEND
  0
INSERT
  5
C426
330
B292
100
AcDbEntity
  8
30
 62
     0
370
    -2
100
AcDbBlockReference
  2
_Open
 10
1290.252270915998
 20
137.9999999999991
 30
0.0
 41
5.0
 42
5.0
 43
5.0
 50
90.0
  0
INSERT
  5
C427
330
B292
100
AcDbEntity
  8
30
 62
     0
370
    -2
100
AcDbBlockReference
  2
_Open
 10
1290.252270915998
 20
-0.0000000000007244
 30
0.0
 41
5.0
 42
5.0
 43
5.0
 50
270.0
  0
POINT
  5
C428
330
B292
100
AcDbEntity
  8
Defpoints
 62
     0
100
AcDbPoint
 10
1224.0
 20
137.9999999999991
 30
0.0
  0
POINT
  5
C429
330
B292
100
AcDbEntity
  8
Defpoints
 62
     0
100
AcDbPoint
 10
1141.0
 20
-0.0000000000006821
 30
0.0
  0
POINT
  5
C42A
330
B292
100
AcDbEntity
  8
Defpoints
 62
     0
100
AcDbPoint
 10
1290.252270915998
 20
-0.0000000000007244
 30
0.0
  0
ENDBLK
  5
B29D
330
B292
100
AcDbEntity
  8
0
100
AcDbBlockEnd
  0
BLOCK
  5
B2A8
330
B29E
100
AcDbEntity
  8
0
100
AcDbBlockBegin
  2
*D18
 70
     1
 10
0.0
 20
0.0
 30
0.0
  3
*D18
  1

  0
LINE
  5
C42B
330
B29E
100
AcDbEntity
  8
30
 62
     0
370
    -2
100
AcDbLine
 10
1244.0
 20
311.9999999999992
 30
0.0
 11
1291.252270915998
 21
311.9999999999992
 31
0.0
  0
LINE
  5
C42C
330
B29E
100
AcDbEntity
  8
30
 62
     0
370
    -2
100
AcDbLine
 10
1234.0
 20
137.9999999999991
 30
0.0
 11
1291.252270915998
 21
137.9999999999991
 31
0.0
  0
LINE
  5
C42D
330
B29E
100
AcDbEntity
  8
30
 62
     0
370
    -2
100
AcDbLine
 10
1290.252270915998
 20
306.9999999999992
 30
0.0
 11
1290.252270915998
 21
142.999999999999
 31
0.0
  0
MTEXT
  5
C42E
330
B29E
100
AcDbEntity
  8
30
 62
     0
100
AcDbMText
 10
1282.252270916
 20
220.580800145999
 30
0.0
 40
10.0
 41
0.0
 71
     5
 72
     1
  1
\A1;174
 11
0.0000000000000001
 21
1.0
 31
0.0
 73
     1
 44
1.0
1001
ACAD
1000
MTEXTBEGIN
1070
    73
1070
     1
1070
    44
1040
1.0
1070
    74
1070
     0
1000
MTEXTEND
  0
INSERT
  5
C42F
330
B29E
100
AcDbEntity
  8
30
 62
     0
370
    -2
100
AcDbBlockReference
  2
_Open
 10
1290.252270915998
 20
311.9999999999992
 30
0.0
 41
5.0
 42
5.0
 43
5.0
 50
90.0
  0
INSERT
  5
C430
330
B29E
100
AcDbEntity
  8
30
 62
     0
370
    -2
100
AcDbBlockReference
  2
_Open
 10
1290.252270915998
 20
137.9999999999991
 30
0.0
 41
5.0
 42
5.0
 43
5.0
 50
270.0
  0
POINT
  5
C431
330
B29E
100
AcDbEntity
  8
Defpoints
 62
     0
100
AcDbPoint
 10
1234.0
 20
311.9999999999992
 30
0.0
  0
POINT
  5
C432
330
B29E
100
AcDbEntity
  8
Defpoints
 62
     0
100
AcDbPoint
 10
1224.0
 20
137.9999999999991
 30
0.0
  0
POINT
  5
C433
330
B29E
100
AcDbEntity
  8
Defpoints
 62
     0
100
AcDbPoint
 10
1290.252270915998
 20
137.9999999999991
 30
0.0
  0
ENDBLK
  5
B2A9
330
B29E
100
AcDbEntity
  8
0
100
AcDbBlockEnd
  0
BLOCK
  5
B33C
330
B33A
100
AcDbEntity
  8
0
100
AcDbBlockBegin
  2
_DotSmall
 70
     0
 10
0.0
 20
0.0
 30
0.0
  3
_DotSmall
  1

  0
LWPOLYLINE
  5
B33B
330
B33A
100
AcDbEntity
  8
0
  6
ByBlock
 62
     0
100
AcDbPolyline
 90
        2
 70
     1
 43
0.5
 10
-0.0625
 20
0.0
 42
1.0
 10
0.0625
 20
0.0
 42
1.0
  0
ENDBLK
  5
B33D
330
B33A
100
AcDbEntity
  8
0
100
AcDbBlockEnd
  0
BLOCK
  5
B3FB
330
B3F1
100
AcDbEntity
  8
0
100
AcDbBlockBegin
  2
*D20
 70
     1
 10
0.0
 20
0.0
 30
0.0
  3
*D20
  1

  0
LINE
  5
C434
330
B3F1
100
AcDbEntity
  8
30
 62
     0
370
    -2
100
AcDbLine
 10
-99.21350010199969
 20
1360.0
 30
0.0
 11
-99.21350010199969
 21
1423.824129261998
 31
0.0
  0
LINE
  5
C435
330
B3F1
100
AcDbEntity
  8
30
 62
     0
370
    -2
100
AcDbLine
 10
-74.2135001019997
 20
1360.0
 30
0.0
 11
-74.2135001019997
 21
1423.824129261998
 31
0.0
  0
LINE
  5
C436
330
B3F1
100
AcDbEntity
  8
30
 62
     0
370
    -2
100
AcDbLine
 10
-94.21350010199969
 20
1422.824129261998
 30
0.0
 11
-79.2135001019997
 21
1422.824129261998
 31
0.0
  0
MTEXT
  5
C437
330
B3F1
100
AcDbEntity
  8
30
 62
     0
100
AcDbMText
 10
-85.96231508199961
 20
1430.824129261998
 30
0.0
 40
10.0
 41
0.0
 71
     5
 72
     1
  1
\A1;25
 73
     1
 44
1.0
1001
ACAD
1000
MTEXTBEGIN
1070
    73
1070
     1
1070
    44
1040
1.0
1070
    74
1070
     0
1000
MTEXTEND
  0
INSERT
  5
C438
330
B3F1
100
AcDbEntity
  8
30
 62
     0
370
    -2
100
AcDbBlockReference
  2
_Open
 10
-99.21350010199969
 20
1422.824129261998
 30
0.0
 41
5.0
 42
5.0
 43
5.0
 50
180.0
  0
INSERT
  5
C439
330
B3F1
100
AcDbEntity
  8
30
 62
     0
370
    -2
100
AcDbBlockReference
  2
_Open
 10
-74.2135001019997
 20
1422.824129261998
 30
0.0
 41
5.0
 42
5.0
 43
5.0
  0
POINT
  5
C43A
330
B3F1
100
AcDbEntity
  8
Defpoints
 62
     0
100
AcDbPoint
 10
-99.21350010199969
 20
1350.0
 30
0.0
  0
POINT
  5
C43B
330
B3F1
100
AcDbEntity
  8
Defpoints
 62
     0
100
AcDbPoint
 10
-74.2135001019997
 20
1350.0
 30
0.0
  0
POINT
  5
C43C
330
B3F1
100
AcDbEntity
  8
Defpoints
 62
     0
100
AcDbPoint
 10
-74.2135001019997
 20
1422.824129261998
 30
0.0
  0
ENDBLK
  5
B3FC
330
B3F1
100
AcDbEntity
  8
0
100
AcDbBlockEnd
  0
BLOCK
  5
B407
330
B3FD
100
AcDbEntity
  8
0
100
AcDbBlockBegin
  2
*D21
 70
     1
 10
0.0
 20
0.0
 30
0.0
  3
*D21
  1

  0
LINE
  5
C43D
330
B3FD
100
AcDbEntity
  8
30
 62
     0
370
    -2
100
AcDbLine
 10
-110.9999999999998
 20
1375.0
 30
0.0
 11
-110.9999999999998
 21
1463.901372868
 31
0.0
  0
LINE
  5
C43E
330
B3FD
100
AcDbEntity
  8
30
 62
     0
370
    -2
100
AcDbLine
 10
-59.00000000000003
 20
1375.0
 30
0.0
 11
-59.00000000000002
 21
1463.901372868
 31
0.0
  0
LINE
  5
C43F
330
B3FD
100
AcDbEntity
  8
30
 62
     0
370
    -2
100
AcDbLine
 10
-105.9999999999998
 20
1462.901372868
 30
0.0
 11
-64.00000000000003
 21
1462.901372868
 31
0.0
  0
MTEXT
  5
C440
330
B3FD
100
AcDbEntity
  8
30
 62
     0
100
AcDbMText
 10
-83.98359291099952
 20
1470.901372868
 30
0.0
 40
10.0
 41
0.0
 71
     5
 72
     1
  1
\A1;52
 73
     1
 44
1.0
1001
ACAD
1000
MTEXTBEGIN
1070
    73
1070
     1
1070
    44
1040
1.0
1070
    74
1070
     0
1000
MTEXTEND
  0
INSERT
  5
C441
330
B3FD
100
AcDbEntity
  8
30
 62
     0
370
    -2
100
AcDbBlockReference
  2
_Open
 10
-110.9999999999998
 20
1462.901372868
 30
0.0
 41
5.0
 42
5.0
 43
5.0
 50
180.0
  0
INSERT
  5
C442
330
B3FD
100
AcDbEntity
  8
30
 62
     0
370
    -2
100
AcDbBlockReference
  2
_Open
 10
-59.00000000000002
 20
1462.901372868
 30
0.0
 41
5.0
 42
5.0
 43
5.0
  0
POINT
  5
C443
330
B3FD
100
AcDbEntity
  8
Defpoints
 62
     0
100
AcDbPoint
 10
-110.9999999999998
 20
1365.0
 30
0.0
  0
POINT
  5
C444
330
B3FD
100
AcDbEntity
  8
Defpoints
 62
     0
100
AcDbPoint
 10
-59.00000000000003
 20
1365.0
 30
0.0
  0
POINT
  5
C445
330
B3FD
100
AcDbEntity
  8
Defpoints
 62
     0
100
AcDbPoint
 10
-59.00000000000002
 20
1462.901372868
 30
0.0
  0
ENDBLK
  5
B408
330
B3FD
100
AcDbEntity
  8
0
100
AcDbBlockEnd
  0
BLOCK
  5
B411
330
B409
100
AcDbEntity
  8
0
100
AcDbBlockBegin
  2
*D22
 70
     1
 10
0.0
 20
0.0
 30
0.0
  3
*D22
  1

  0
LINE
  5
C446
330
B409
100
AcDbEntity
  8
30
 62
     0
370
    -2
100
AcDbLine
 10
-109.2135001019996
 20
1350.0
 30
0.0
 11
-159.0474159479999
 21
1350.0
 31
0.0
  0
LINE
  5
C447
330
B409
100
AcDbEntity
  8
30
 62
     0
370
    -2
100
AcDbLine
 10
-120.9999999999999
 20
1365.0
 30
0.0
 11
-159.0474159479999
 21
1365.0
 31
0.0
  0
MTEXT
  5
C448
330
B409
100
AcDbEntity
  8
30
 62
     0
100
AcDbMText
 10
-166.0474159479999
 20
1357.318341476
 30
0.0
 40
10.0
 41
0.0
 71
     5
 72
     1
  1
\A1;15
 11
0.0000000000000001
 21
1.0
 31
0.0
 73
     1
 44
1.0
1001
ACAD
1000
MTEXTBEGIN
1070
    73
1070
     1
1070
    44
1040
1.0
1070
    74
1070
     0
1000
MTEXTEND
  0
LINE
  5
C449
330
B409
100
AcDbEntity
  8
30
 62
     0
370
    -2
100
AcDbLine
 10
-158.0474159479999
 20
1350.0
 30
0.0
 11
-158.0474159479999
 21
1365.0
 31
0.0
  0
POINT
  5
C44A
330
B409
100
AcDbEntity
  8
Defpoints
 62
     0
100
AcDbPoint
 10
-99.21350010199969
 20
1350.0
 30
0.0
  0
POINT
  5
C44B
330
B409
100
AcDbEntity
  8
Defpoints
 62
     0
100
AcDbPoint
 10
-110.9999999999998
 20
1365.0
 30
0.0
  0
POINT
  5
C44C
330
B409
100
AcDbEntity
  8
Defpoints
 62
     0
100
AcDbPoint
 10
-158.0474159479999
 20
1365.0
 30
0.0
  0
ENDBLK
  5
B412
330
B409
100
AcDbEntity
  8
0
100
AcDbBlockEnd
  0
BLOCK
  5
B41D
330
B413
100
AcDbEntity
  8
0
100
AcDbBlockBegin
  2
*D23
 70
     1
 10
0.0
 20
0.0
 30
0.0
  3
*D23
  1

  0
LINE
  5
C44D
330
B413
100
AcDbEntity
  8
30
 62
     0
370
    -2
100
AcDbLine
 10
-111.1477709159994
 20
1330.0
 30
0.0
 11
-210.2814536159993
 21
1330.0
 31
0.0
  0
LINE
  5
C44E
330
B413
100
AcDbEntity
  8
30
 62
     0
370
    -2
100
AcDbLine
 10
-120.9999999999999
 20
1365.0
 30
0.0
 11
-210.2814536159993
 21
1365.0
 31
0.0
  0
LINE
  5
C44F
330
B413
100
AcDbEntity
  8
30
 62
     0
370
    -2
100
AcDbLine
 10
-209.2814536159993
 20
1335.0
 30
0.0
 11
-209.2814536159993
 21
1360.0
 31
0.0
  0
MTEXT
  5
C450
330
B413
100
AcDbEntity
  8
30
 62
     0
100
AcDbMText
 10
-217.2814536159993
 20
1347.5
 30
0.0
 40
10.0
 41
0.0
 71
     5
 72
     1
  1
\A1;35*
 11
0.0000000000000001
 21
1.0
 31
0.0
 73
     1
 44
1.0
1001
ACAD
1000
MTEXTBEGIN
1070
    73
1070
     1
1070
    44
1040
1.0
1070
    74
1070
     0
1000
MTEXTEND
  0
INSERT
  5
C451
330
B413
100
AcDbEntity
  8
30
 62
     0
370
    -2
100
AcDbBlockReference
  2
_Open
 10
-209.2814536159993
 20
1330.0
 30
0.0
 41
5.0
 42
5.0
 43
5.0
 50
270.0
  0
INSERT
  5
C452
330
B413
100
AcDbEntity
  8
30
 62
     0
370
    -2
100
AcDbBlockReference
  2
_Open
 10
-209.2814536159993
 20
1365.0
 30
0.0
 41
5.0
 42
5.0
 43
5.0
 50
90.0
  0
POINT
  5
C453
330
B413
100
AcDbEntity
  8
Defpoints
 62
     0
100
AcDbPoint
 10
-101.1477709159994
 20
1330.0
 30
0.0
  0
POINT
  5
C454
330
B413
100
AcDbEntity
  8
Defpoints
 62
     0
100
AcDbPoint
 10
-110.9999999999998
 20
1365.0
 30
0.0
  0
POINT
  5
C455
330
B413
100
AcDbEntity
  8
Defpoints
 62
     0
100
AcDbPoint
 10
-209.2814536159993
 20
1365.0
 30
0.0
  0
ENDBLK
  5
B41E
330
B413
100
AcDbEntity
  8
0
100
AcDbBlockEnd
  0
BLOCK
  5
B472
330
B468
100
AcDbEntity
  8
0
100
AcDbBlockBegin
  2
*D24
 70
     1
 10
0.0
 20
0.0
 30
0.0
  3
*D24
  1

  0
LINE
  5
C456
330
B468
100
AcDbEntity
  8
30
 62
     0
370
    -2
100
AcDbLine
 10
1126.0
 20
44.99999999999931
 30
0.0
 11
1126.0
 21
47.80150950799906
 31
0.0
  0
LINE
  5
C457
330
B468
100
AcDbEntity
  8
30
 62
     0
370
    -2
100
AcDbLine
 10
1224.0
 20
117.999999265999
 30
0.0
 11
1224.0
 21
45.80150950799906
 31
0.0
  0
LINE
  5
C458
330
B468
100
AcDbEntity
  8
30
 62
     0
370
    -2
100
AcDbLine
 10
1131.0
 20
46.80150950799905
 30
0.0
 11
1219.0
 21
46.80150950799905
 31
0.0
  0
INSERT
  5
C459
330
B468
100
AcDbEntity
  8
30
 62
     0
370
    -2
100
AcDbBlockReference
  2
_Open
 10
1126.0
 20
46.80150950799905
 30
0.0
 41
5.0
 42
5.0
 43
5.0
 50
180.0
  0
INSERT
  5
C45A
330
B468
100
AcDbEntity
  8
30
 62
     0
370
    -2
100
AcDbBlockReference
  2
_Open
 10
1224.0
 20
46.80150950799905
 30
0.0
 41
5.0
 42
5.0
 43
5.0
  0
MTEXT
  5
C45B
330
B468
100
AcDbEntity
  8
30
 62
     0
100
AcDbMText
 10
1175.0
 20
54.80150950799906
 30
0.0
 40
10.0
 41
0.0
 71
     5
 72
     1
  1
\A1;98
 73
     1
 44
1.0
1001
ACAD
1000
MTEXTBEGIN
1070
    73
1070
     1
1070
    44
1040
1.0
1070
    74
1070
     0
1000
MTEXTEND
  0
POINT
  5
C45C
330
B468
100
AcDbEntity
  8
Defpoints
 62
     0
100
AcDbPoint
 10
1126.0
 20
34.99999999999931
 30
0.0
  0
POINT
  5
C45D
330
B468
100
AcDbEntity
  8
Defpoints
 62
     0
100
AcDbPoint
 10
1224.0
 20
127.999999265999
 30
0.0
  0
POINT
  5
C45E
330
B468
100
AcDbEntity
  8
Defpoints
 62
     0
100
AcDbPoint
 10
1224.0
 20
46.80150950799905
 30
0.0
  0
ENDBLK
  5
B473
330
B468
100
AcDbEntity
  8
0
100
AcDbBlockEnd
  0
BLOCK
  5
B59F
330
B595
100
AcDbEntity
  8
0
100
AcDbBlockBegin
  2
*D25
 70
     1
 10
0.0
 20
0.0
 30
0.0
  3
*D25
  1

  0
LINE
  5
C47A
330
B595
100
AcDbEntity
  8
30
 62
     0
370
    -2
100
AcDbLine
 10
-119.9999999999999
 20
22.99999999999977
 30
0.0
 11
-119.9999999999999
 21
-51.43418283799998
 31
0.0
  0
LINE
  5
C47B
330
B595
100
AcDbEntity
  8
30
 62
     0
370
    -2
100
AcDbLine
 10
117.9999999999997
 20
22.99999999999977
 30
0.0
 11
117.9999999999997
 21
-51.43418283799998
 31
0.0
  0
LINE
  5
C47C
330
B595
100
AcDbEntity
  8
30
 62
     0
370
    -2
100
AcDbLine
 10
-114.9999999999999
 20
-50.43418283799997
 30
0.0
 11
112.9999999999997
 21
-50.43418283799997
 31
0.0
  0
MTEXT
  5
C47D
330
B595
100
AcDbEntity
  8
30
 62
     0
100
AcDbMText
 10
0.9795717110000911
 20
-42.43418283799996
 30
0.0
 40
10.0
 41
0.0
 71
     5
 72
     1
  1
\A1;238
 73
     1
 44
1.0
1001
ACAD
1000
MTEXTBEGIN
1070
    73
1070
     1
1070
    44
1040
1.0
1070
    74
1070
     0
1000
MTEXTEND
  0
INSERT
  5
C47E
330
B595
100
AcDbEntity
  8
30
 62
     0
370
    -2
100
AcDbBlockReference
  2
_Open
 10
-119.9999999999999
 20
-50.43418283799997
 30
0.0
 41
5.0
 42
5.0
 43
5.0
 50
180.0
  0
INSERT
  5
C47F
330
B595
100
AcDbEntity
  8
30
 62
     0
370
    -2
100
AcDbBlockReference
  2
_Open
 10
117.9999999999997
 20
-50.43418283799997
 30
0.0
 41
5.0
 42
5.0
 43
5.0
  0
POINT
  5
C480
330
B595
100
AcDbEntity
  8
Defpoints
 62
     0
100
AcDbPoint
 10
-119.9999999999999
 20
32.99999999999978
 30
0.0
  0
POINT
  5
C481
330
B595
100
AcDbEntity
  8
Defpoints
 62
     0
100
AcDbPoint
 10
117.9999999999997
 20
32.99999999999978
 30
0.0
  0
POINT
  5
C482
330
B595
100
AcDbEntity
  8
Defpoints
 62
     0
100
AcDbPoint
 10
117.9999999999997
 20
-50.43418283799997
 30
0.0
  0
ENDBLK
  5
B5A0
330
B595
100
AcDbEntity
  8
0
100
AcDbBlockEnd
  0
BLOCK
  5
B5AB
330
B5A1
100
AcDbEntity
  8
0
100
AcDbBlockBegin
  2
*D26
 70
     1
 10
0.0
 20
0.0
 30
0.0
  3
*D26
  1

  0
LINE
  5
C468
330
B5A1
100
AcDbEntity
  8
30
 62
     0
370
    -2
100
AcDbLine
 10
0.0000000000000651
 20
573.2000000000002
 30
0.0
 11
0.0000000000000666
 21
596.8015095079997
 31
0.0
  0
LINE
  5
C469
330
B5A1
100
AcDbEntity
  8
30
 62
     0
370
    -2
100
AcDbLine
 10
-174.9999999999999
 20
573.2000000000001
 30
0.0
 11
-174.9999999999999
 21
596.8015095079997
 31
0.0
  0
LINE
  5
C46A
330
B5A1
100
AcDbEntity
  8
30
 62
     0
370
    -2
100
AcDbLine
 10
-4.999999999999934
 20
595.8015095079997
 30
0.0
 11
-169.9999999999999
 21
595.8015095079997
 31
0.0
  0
MTEXT
  5
C46B
330
B5A1
100
AcDbEntity
  8
30
 62
     0
100
AcDbMText
 10
-86.01458980000025
 20
603.8015095079997
 30
0.0
 40
10.0
 41
0.0
 71
     5
 72
     1
  1
\A1;175
 73
     1
 44
1.0
1001
ACAD
1000
MTEXTBEGIN
1070
    73
1070
     1
1070
    44
1040
1.0
1070
    74
1070
     0
1000
MTEXTEND
  0
INSERT
  5
C46C
330
B5A1
100
AcDbEntity
  8
30
 62
     0
370
    -2
100
AcDbBlockReference
  2
_Open
 10
0.0000000000000665
 20
595.8015095079997
 30
0.0
 41
5.0
 42
5.0
 43
5.0
  0
INSERT
  5
C46D
330
B5A1
100
AcDbEntity
  8
30
 62
     0
370
    -2
100
AcDbBlockReference
  2
_Open
 10
-174.9999999999999
 20
595.8015095079997
 30
0.0
 41
5.0
 42
5.0
 43
5.0
 50
180.0
  0
POINT
  5
C46E
330
B5A1
100
AcDbEntity
  8
Defpoints
 62
     0
100
AcDbPoint
 10
0.0000000000000645
 20
563.2000000000003
 30
0.0
  0
POINT
  5
C46F
330
B5A1
100
AcDbEntity
  8
Defpoints
 62
     0
100
AcDbPoint
 10
-174.9999999999999
 20
563.2000000000001
 30
0.0
  0
POINT
  5
C470
330
B5A1
100
AcDbEntity
  8
Defpoints
 62
     0
100
AcDbPoint
 10
-174.9999999999999
 20
595.8015095079997
 30
0.0
  0
ENDBLK
  5
B5AC
330
B5A1
100
AcDbEntity
  8
0
100
AcDbBlockEnd
  0
BLOCK
  5
B5B7
330
B5AD
100
AcDbEntity
  8
0
100
AcDbBlockBegin
  2
*D27
 70
     1
 10
0.0
 20
0.0
 30
0.0
  3
*D27
  1

  0
LINE
  5
C483
330
B5AD
100
AcDbEntity
  8
30
 62
     0
370
    -2
100
AcDbLine
 10
0.0000000000000278
 20
-67.33361189100015
 30
0.0
 11
0.0000000000000257
 21
-101.734736882
 31
0.0
  0
LINE
  5
C484
330
B5AD
100
AcDbEntity
  8
30
 62
     0
370
    -2
100
AcDbLine
 10
-179.9999999999999
 20
-10.0
 30
0.0
 11
-179.9999999999999
 21
-101.734736882
 31
0.0
  0
LINE
  5
C485
330
B5AD
100
AcDbEntity
  8
30
 62
     0
370
    -2
100
AcDbLine
 10
-4.999999999999973
 20
-100.734736882
 30
0.0
 11
-174.9999999999999
 21
-100.734736882
 31
0.0
  0
MTEXT
  5
C486
330
B5AD
100
AcDbEntity
  8
30
 62
     0
100
AcDbMText
 10
-86.01458980000026
 20
-92.73473688200001
 30
0.0
 40
10.0
 41
0.0
 71
     5
 72
     1
  1
\A1;180
 73
     1
 44
1.0
1001
ACAD
1000
MTEXTBEGIN
1070
    73
1070
     1
1070
    44
1040
1.0
1070
    74
1070
     0
1000
MTEXTEND
  0
INSERT
  5
C487
330
B5AD
100
AcDbEntity
  8
30
 62
     0
370
    -2
100
AcDbBlockReference
  2
_Open
 10
0.0000000000000257
 20
-100.734736882
 30
0.0
 41
5.0
 42
5.0
 43
5.0
  0
INSERT
  5
C488
330
B5AD
100
AcDbEntity
  8
30
 62
     0
370
    -2
100
AcDbBlockReference
  2
_Open
 10
-179.9999999999999
 20
-100.734736882
 30
0.0
 41
5.0
 42
5.0
 43
5.0
 50
180.0
  0
POINT
  5
C489
330
B5AD
100
AcDbEntity
  8
Defpoints
 62
     0
100
AcDbPoint
 10
0.0000000000000284
 20
-57.33361189100015
 30
0.0
  0
POINT
  5
C48A
330
B5AD
100
AcDbEntity
  8
Defpoints
 62
     0
100
AcDbPoint
 10
-179.9999999999999
 20
0.0
 30
0.0
  0
POINT
  5
C48B
330
B5AD
100
AcDbEntity
  8
Defpoints
 62
     0
100
AcDbPoint
 10
-179.9999999999999
 20
-100.734736882
 30
0.0
  0
ENDBLK
  5
B5B8
330
B5AD
100
AcDbEntity
  8
0
100
AcDbBlockEnd
  0
BLOCK
  5
B5C3
330
B5B9
100
AcDbEntity
  8
0
100
AcDbBlockBegin
  2
*D28
 70
     1
 10
0.0
 20
0.0
 30
0.0
  3
*D28
  1

  0
LINE
  5
C471
330
B5B9
100
AcDbEntity
  8
30
 62
     0
370
    -2
100
AcDbLine
 10
0.0000000000000278
 20
-67.33361189100015
 30
0.0
 11
0.0000000000000257
 21
-100.9135722189998
 31
0.0
  0
LINE
  5
C472
330
B5B9
100
AcDbEntity
  8
30
 62
     0
370
    -2
100
AcDbLine
 10
265.0
 20
-10.0
 30
0.0
 11
265.0
 21
-100.9135722189998
 31
0.0
  0
LINE
  5
C473
330
B5B9
100
AcDbEntity
  8
30
 62
     0
370
    -2
100
AcDbLine
 10
5.000000000000025
 20
-99.91357221899988
 30
0.0
 11
260.0
 21
-99.91357221899988
 31
0.0
  0
MTEXT
  5
C474
330
B5B9
100
AcDbEntity
  8
30
 62
     0
100
AcDbMText
 10
136.5210339739998
 20
-91.91357221899989
 30
0.0
 40
10.0
 41
0.0
 71
     5
 72
     1
  1
\A1;265
 73
     1
 44
1.0
1001
ACAD
1000
MTEXTBEGIN
1070
    73
1070
     1
1070
    44
1040
1.0
1070
    74
1070
     0
1000
MTEXTEND
  0
INSERT
  5
C475
330
B5B9
100
AcDbEntity
  8
30
 62
     0
370
    -2
100
AcDbBlockReference
  2
_Open
 10
0.0000000000000258
 20
-99.91357221899988
 30
0.0
 41
5.0
 42
5.0
 43
5.0
 50
180.0
  0
INSERT
  5
C476
330
B5B9
100
AcDbEntity
  8
30
 62
     0
370
    -2
100
AcDbBlockReference
  2
_Open
 10
265.0
 20
-99.91357221899988
 30
0.0
 41
5.0
 42
5.0
 43
5.0
  0
POINT
  5
C477
330
B5B9
100
AcDbEntity
  8
Defpoints
 62
     0
100
AcDbPoint
 10
0.0000000000000284
 20
-57.33361189100015
 30
0.0
  0
POINT
  5
C478
330
B5B9
100
AcDbEntity
  8
Defpoints
 62
     0
100
AcDbPoint
 10
265.0
 20
0.0
 30
0.0
  0
POINT
  5
C479
330
B5B9
100
AcDbEntity
  8
Defpoints
 62
     0
100
AcDbPoint
 10
265.0
 20
-99.91357221899988
 30
0.0
  0
ENDBLK
  5
B5C4
330
B5B9
100
AcDbEntity
  8
0
100
AcDbBlockEnd
  0
BLOCK
  5
B5CF
330
B5C5
100
AcDbEntity
  8
0
100
AcDbBlockBegin
  2
*D29
 70
     1
 10
0.0
 20
0.0
 30
0.0
  3
*D29
  1

  0
LINE
  5
C45F
330
B5C5
100
AcDbEntity
  8
30
 62
     0
370
    -2
100
AcDbLine
 10
0.000000000000029
 20
600.0385861509995
 30
0.0
 11
0.0000000000000288
 21
596.8015095079997
 31
0.0
  0
LINE
  5
C460
330
B5C5
100
AcDbEntity
  8
30
 62
     0
370
    -2
100
AcDbLine
 10
260.0
 20
573.2000000000001
 30
0.0
 11
260.0
 21
596.8015095079997
 31
0.0
  0
LINE
  5
C461
330
B5C5
100
AcDbEntity
  8
30
 62
     0
370
    -2
100
AcDbLine
 10
5.000000000000028
 20
595.8015095079997
 30
0.0
 11
255.0
 21
595.8015095079997
 31
0.0
  0
MTEXT
  5
C462
330
B5C5
100
AcDbEntity
  8
30
 62
     0
100
AcDbMText
 10
130.0
 20
602.8015095079997
 30
0.0
 40
10.0
 41
0.0
 71
     5
 72
     1
  1
\A1;260
 73
     1
 44
1.0
1001
ACAD
1000
MTEXTBEGIN
1070
    73
1070
     1
1070
    44
1040
1.0
1070
    74
1070
     0
1000
MTEXTEND
  0
INSERT
  5
C463
330
B5C5
100
AcDbEntity
  8
30
 62
     0
370
    -2
100
AcDbBlockReference
  2
_Open
 10
0.0000000000000288
 20
595.8015095079997
 30
0.0
 41
5.0
 42
5.0
 43
5.0
 50
180.0
  0
INSERT
  5
C464
330
B5C5
100
AcDbEntity
  8
30
 62
     0
370
    -2
100
AcDbBlockReference
  2
_Open
 10
260.0
 20
595.8015095079997
 30
0.0
 41
5.0
 42
5.0
 43
5.0
  0
POINT
  5
C465
330
B5C5
100
AcDbEntity
  8
Defpoints
 62
     0
100
AcDbPoint
 10
0.0000000000000284
 20
590.0385861509995
 30
0.0
  0
POINT
  5
C466
330
B5C5
100
AcDbEntity
  8
Defpoints
 62
     0
100
AcDbPoint
 10
260.0
 20
563.2000000000001
 30
0.0
  0
POINT
  5
C467
330
B5C5
100
AcDbEntity
  8
Defpoints
 62
     0
100
AcDbPoint
 10
260.0
 20
595.8015095079997
 30
0.0
  0
ENDBLK
  5
B5D0
330
B5C5
100
AcDbEntity
  8
0
100
AcDbBlockEnd
  0
BLOCK
  5
B6EB
330
B6E1
100
AcDbEntity
  8
0
100
AcDbBlockBegin
  2
*D30
 70
     1
 10
0.0
 20
0.0
 30
0.0
  3
*D30
  1

  0
LINE
  5
C0E8
330
B6E1
100
AcDbEntity
  8
30
 62
     0
370
    -2
100
AcDbLine
 10
-1165.0
 20
1062.0
 30
0.0
 11
-1165.0
 21
947.3842652287068
 31
0.0
  0
LINE
  5
C0E9
330
B6E1
100
AcDbEntity
  8
30
 62
     0
370
    -2
100
AcDbLine
 10
-1000.0
 20
990.0
 30
0.0
 11
-1000.0
 21
947.3842652287068
 31
0.0
  0
LINE
  5
C0EA
330
B6E1
100
AcDbEntity
  8
30
 62
     0
370
    -2
100
AcDbLine
 10
-1160.0
 20
948.3842652287068
 30
0.0
 11
-1005.0
 21
948.3842652287068
 31
0.0
  0
INSERT
  5
C0EB
330
B6E1
100
AcDbEntity
  8
30
 62
     0
370
    -2
100
AcDbBlockReference
  2
_Open
 10
-1165.0
 20
948.3842652287068
 30
0.0
 41
5.0
 42
5.0
 43
5.0
 50
180.0
  0
INSERT
  5
C0EC
330
B6E1
100
AcDbEntity
  8
30
 62
     0
370
    -2
100
AcDbBlockReference
  2
_Open
 10
-1000.0
 20
948.3842652287068
 30
0.0
 41
5.0
 42
5.0
 43
5.0
  0
MTEXT
  5
C0ED
330
B6E1
100
AcDbEntity
  8
30
 62
     0
100
AcDbMText
 10
-1082.5
 20
956.3842652287068
 30
0.0
 40
10.0
 41
0.0
 71
     5
 72
     1
  1
\A1;165
 73
     1
 44
1.0
1001
ACAD
1000
MTEXTBEGIN
1070
    73
1070
     1
1070
    44
1040
1.0
1070
    74
1070
     0
1000
MTEXTEND
  0
POINT
  5
C0EE
330
B6E1
100
AcDbEntity
  8
Defpoints
 62
     0
100
AcDbPoint
 10
-1165.0
 20
1072.0
 30
0.0
  0
POINT
  5
C0EF
330
B6E1
100
AcDbEntity
  8
Defpoints
 62
     0
100
AcDbPoint
 10
-1000.0
 20
1000.0
 30
0.0
  0
POINT
  5
C0F0
330
B6E1
100
AcDbEntity
  8
Defpoints
 62
     0
100
AcDbPoint
 10
-1000.0
 20
948.3842652287068
 30
0.0
  0
ENDBLK
  5
B6EC
330
B6E1
100
AcDbEntity
  8
0
100
AcDbBlockEnd
  0
BLOCK
  5
B6F7
330
B6ED
100
AcDbEntity
  8
0
100
AcDbBlockBegin
  2
*D31
 70
     1
 10
0.0
 20
0.0
 30
0.0
  3
*D31
  1

  0
LINE
  5
C0F1
330
B6ED
100
AcDbEntity
  8
30
 62
     0
370
    -2
100
AcDbLine
 10
-729.9999389999997
 20
1247.000122
 30
0.0
 11
-660.1453061497758
 21
1247.000122
 31
0.0
  0
LINE
  5
C0F2
330
B6ED
100
AcDbEntity
  8
30
 62
     0
370
    -2
100
AcDbLine
 10
-729.9999390000002
 20
1081.999999999997
 30
0.0
 11
-660.1453061497758
 21
1081.999999999997
 31
0.0
  0
LINE
  5
C0F3
330
B6ED
100
AcDbEntity
  8
30
 62
     0
370
    -2
100
AcDbLine
 10
-661.1453061497758
 20
1242.000122
 30
0.0
 11
-661.1453061497758
 21
1086.999999999997
 31
0.0
  0
INSERT
  5
C0F4
330
B6ED
100
AcDbEntity
  8
30
 62
     0
370
    -2
100
AcDbBlockReference
  2
_Open
 10
-661.1453061497758
 20
1247.000122
 30
0.0
 41
5.0
 42
5.0
 43
5.0
 50
90.0
  0
INSERT
  5
C0F5
330
B6ED
100
AcDbEntity
  8
30
 62
     0
370
    -2
100
AcDbBlockReference
  2
_Open
 10
-661.1453061497758
 20
1081.999999999997
 30
0.0
 41
5.0
 42
5.0
 43
5.0
 50
270.0
  0
MTEXT
  5
C0F6
330
B6ED
100
AcDbEntity
  8
30
 62
     0
100
AcDbMText
 10
-669.1453061497758
 20
1164.500060999998
 30
0.0
 40
10.0
 41
0.0
 71
     5
 72
     1
  1
\A1;165.000122
 11
0.0000000000000001
 21
1.0
 31
0.0
 73
     1
 44
1.0
1001
ACAD
1000
MTEXTBEGIN
1070
    73
1070
     1
1070
    44
1040
1.0
1070
    74
1070
     0
1000
MTEXTEND
  0
POINT
  5
C0F7
330
B6ED
100
AcDbEntity
  8
Defpoints
 62
     0
100
AcDbPoint
 10
-739.9999389999996
 20
1247.000122
 30
0.0
  0
POINT
  5
C0F8
330
B6ED
100
AcDbEntity
  8
Defpoints
 62
     0
100
AcDbPoint
 10
-739.9999390000003
 20
1081.999999999997
 30
0.0
  0
POINT
  5
C0F9
330
B6ED
100
AcDbEntity
  8
Defpoints
 62
     0
100
AcDbPoint
 10
-661.1453061497758
 20
1081.999999999997
 30
0.0
  0
ENDBLK
  5
B6F8
330
B6ED
100
AcDbEntity
  8
0
100
AcDbBlockEnd
  0
BLOCK
  5
B703
330
B6F9
100
AcDbEntity
  8
0
100
AcDbBlockBegin
  2
*D32
 70
     1
 10
0.0
 20
0.0
 30
0.0
  3
*D32
  1

  0
LINE
  5
C0FA
330
B6F9
100
AcDbEntity
  8
30
 62
     0
370
    -2
100
AcDbLine
 10
-732.9999389999997
 20
1081.999999999997
 30
0.0
 11
-659.6453061497758
 21
1081.999999999997
 31
0.0
  0
LINE
  5
C0FB
330
B6F9
100
AcDbEntity
  8
30
 62
     0
370
    -2
100
AcDbLine
 10
-732.9999389999997
 20
1000.0
 30
0.0
 11
-659.6453061497758
 21
1000.0
 31
0.0
  0
LINE
  5
C0FC
330
B6F9
100
AcDbEntity
  8
30
 62
     0
370
    -2
100
AcDbLine
 10
-660.6453061497758
 20
1076.999999999997
 30
0.0
 11
-660.6453061497758
 21
1005.0
 31
0.0
  0
INSERT
  5
C0FD
330
B6F9
100
AcDbEntity
  8
30
 62
     0
370
    -2
100
AcDbBlockReference
  2
_Open
 10
-660.6453061497758
 20
1081.999999999997
 30
0.0
 41
5.0
 42
5.0
 43
5.0
 50
90.0
  0
INSERT
  5
C0FE
330
B6F9
100
AcDbEntity
  8
30
 62
     0
370
    -2
100
AcDbBlockReference
  2
_Open
 10
-660.6453061497758
 20
1000.0
 30
0.0
 41
5.0
 42
5.0
 43
5.0
 50
270.0
  0
MTEXT
  5
C0FF
330
B6F9
100
AcDbEntity
  8
30
 62
     0
100
AcDbMText
 10
-668.6453061497758
 20
1040.999999999999
 30
0.0
 40
10.0
 41
0.0
 71
     5
 72
     1
  1
\A1;82
 11
0.0000000000000001
 21
1.0
 31
0.0
 73
     1
 44
1.0
1001
ACAD
1000
MTEXTBEGIN
1070
    73
1070
     1
1070
    44
1040
1.0
1070
    74
1070
     0
1000
MTEXTEND
  0
POINT
  5
C100
330
B6F9
100
AcDbEntity
  8
Defpoints
 62
     0
100
AcDbPoint
 10
-742.9999389999997
 20
1081.999999999997
 30
0.0
  0
POINT
  5
C101
330
B6F9
100
AcDbEntity
  8
Defpoints
 62
     0
100
AcDbPoint
 10
-742.9999389999997
 20
1000.0
 30
0.0
  0
POINT
  5
C102
330
B6F9
100
AcDbEntity
  8
Defpoints
 62
     0
100
AcDbPoint
 10
-660.6453061497758
 20
1000.0
 30
0.0
  0
ENDBLK
  5
B704
330
B6F9
100
AcDbEntity
  8
0
100
AcDbBlockEnd
  0
BLOCK
  5
B70F
330
B705
100
AcDbEntity
  8
0
100
AcDbBlockBegin
  2
*D33
 70
     1
 10
0.0
 20
0.0
 30
0.0
  3
*D33
  1

  0
LINE
  5
C103
330
B705
100
AcDbEntity
  8
30
 62
     0
370
    -2
100
AcDbLine
 10
-1000.0
 20
988.0
 30
0.0
 11
-1000.0
 21
947.3842652287068
 31
0.0
  0
LINE
  5
C104
330
B705
100
AcDbEntity
  8
30
 62
     0
370
    -2
100
AcDbLine
 10
-749.9999390000002
 20
1061.999999999998
 30
0.0
 11
-749.9999390000002
 21
947.3842652287068
 31
0.0
  0
LINE
  5
C105
330
B705
100
AcDbEntity
  8
30
 62
     0
370
    -2
100
AcDbLine
 10
-995.0
 20
948.3842652287068
 30
0.0
 11
-754.9999390000002
 21
948.3842652287068
 31
0.0
  0
INSERT
  5
C106
330
B705
100
AcDbEntity
  8
30
 62
     0
370
    -2
100
AcDbBlockReference
  2
_Open
 10
-1000.0
 20
948.3842652287068
 30
0.0
 41
5.0
 42
5.0
 43
5.0
 50
180.0
  0
INSERT
  5
C107
330
B705
100
AcDbEntity
  8
30
 62
     0
370
    -2
100
AcDbBlockReference
  2
_Open
 10
-749.9999390000002
 20
948.3842652287068
 30
0.0
 41
5.0
 42
5.0
 43
5.0
  0
MTEXT
  5
C108
330
B705
100
AcDbEntity
  8
30
 62
     0
100
AcDbMText
 10
-874.9999695000001
 20
956.3842652287068
 30
0.0
 40
10.0
 41
0.0
 71
     5
 72
     1
  1
\A1;250.000061
 73
     1
 44
1.0
1001
ACAD
1000
MTEXTBEGIN
1070
    73
1070
     1
1070
    44
1040
1.0
1070
    74
1070
     0
1000
MTEXTEND
  0
POINT
  5
C109
330
B705
100
AcDbEntity
  8
Defpoints
 62
     0
100
AcDbPoint
 10
-1000.0
 20
998.0
 30
0.0
  0
POINT
  5
C10A
330
B705
100
AcDbEntity
  8
Defpoints
 62
     0
100
AcDbPoint
 10
-749.9999390000002
 20
1071.999999999998
 30
0.0
  0
POINT
  5
C10B
330
B705
100
AcDbEntity
  8
Defpoints
 62
     0
100
AcDbPoint
 10
-749.9999390000002
 20
948.3842652287068
 30
0.0
  0
ENDBLK
  5
B710
330
B705
100
AcDbEntity
  8
0
100
AcDbBlockEnd
  0
BLOCK
  5
B851
330
B846
100
AcDbEntity
  8
0
100
AcDbBlockBegin
  2
*D34
 70
     1
 10
0.0
 20
0.0
 30
0.0
  3
*D34
  1

  0
LINE
  5
C49E
330
B846
100
AcDbEntity
  8
30
 62
     0
370
    -2
100
AcDbLine
 10
-865.0
 20
29.99999999999987
 30
0.0
 11
-775.493442411
 21
29.99999999999984
 31
0.0
  0
LINE
  5
C49F
330
B846
100
AcDbEntity
  8
30
 62
     0
370
    -2
100
AcDbLine
 10
-865.0
 20
-0.0000000000000028
 30
0.0
 11
-775.493442411
 21
-0.0000000000000282
 31
0.0
  0
LINE
  5
C4A0
330
B846
100
AcDbEntity
  8
30
 62
     0
370
    -2
100
AcDbLine
 10
-776.493442411
 20
24.99999999999984
 30
0.0
 11
-776.493442411
 21
4.999999999999971
 31
0.0
  0
LINE
  5
C4A1
330
B846
100
AcDbEntity
  8
30
 62
     0
370
    -2
100
AcDbLine
 10
-776.493442411
 20
-35.89086825023811
 30
0.0
 11
-776.493442411
 21
-0.0000000000000279
 31
0.0
  0
MTEXT
  5
C4A2
330
B846
100
AcDbEntity
  8
30
 62
     0
100
AcDbMText
 10
-784.493442411
 20
-24.79563015500013
 30
0.0
 40
10.0
 41
0.0
 71
     5
 72
     1
  1
\A1;30
 11
0.0000000000000001
 21
1.0
 31
0.0
 73
     1
 44
1.0
1001
ACAD
1000
MTEXTBEGIN
1070
    73
1070
     1
1070
    44
1040
1.0
1070
    74
1070
     0
1000
MTEXTEND
  0
INSERT
  5
C4A3
330
B846
100
AcDbEntity
  8
30
 62
     0
370
    -2
100
AcDbBlockReference
  2
_Open
 10
-776.493442411
 20
29.99999999999984
 30
0.0
 41
5.0
 42
5.0
 43
5.0
 50
90.0
  0
INSERT
  5
C4A4
330
B846
100
AcDbEntity
  8
30
 62
     0
370
    -2
100
AcDbBlockReference
  2
_Open
 10
-776.493442411
 20
-0.0000000000000279
 30
0.0
 41
5.0
 42
5.0
 43
5.0
 50
270.0
  0
POINT
  5
C4A5
330
B846
100
AcDbEntity
  8
Defpoints
 62
     0
100
AcDbPoint
 10
-875.0
 20
29.99999999999987
 30
0.0
  0
POINT
  5
C4A6
330
B846
100
AcDbEntity
  8
Defpoints
 62
     0
100
AcDbPoint
 10
-875.0
 20
0.0
 30
0.0
  0
POINT
  5
C4A7
330
B846
100
AcDbEntity
  8
Defpoints
 62
     0
100
AcDbPoint
 10
-776.493442411
 20
-0.0000000000000279
 30
0.0
  0
ENDBLK
  5
B852
330
B846
100
AcDbEntity
  8
0
100
AcDbBlockEnd
  0
BLOCK
  5
B85D
330
B853
100
AcDbEntity
  8
0
100
AcDbBlockBegin
  2
*D35
 70
     1
 10
0.0
 20
0.0
 30
0.0
  3
*D35
  1

  0
LINE
  5
C4A8
330
B853
100
AcDbEntity
  8
30
 62
     0
370
    -2
100
AcDbLine
 10
-1125.0
 20
19.99999999999987
 30
0.0
 11
-1125.0
 21
-69.34452665800006
 31
0.0
  0
LINE
  5
C4A9
330
B853
100
AcDbEntity
  8
30
 62
     0
370
    -2
100
AcDbLine
 10
-875.0
 20
19.99999999999987
 30
0.0
 11
-875.0
 21
-69.34452665800006
 31
0.0
  0
LINE
  5
C4AA
330
B853
100
AcDbEntity
  8
30
 62
     0
370
    -2
100
AcDbLine
 10
-1120.0
 20
-68.34452665800006
 30
0.0
 11
-880.0
 21
-68.34452665800006
 31
0.0
  0
MTEXT
  5
C4AB
330
B853
100
AcDbEntity
  8
30
 62
     0
100
AcDbMText
 10
-996.0432078769999
 20
-60.34452665800007
 30
0.0
 40
10.0
 41
0.0
 71
     5
 72
     1
  1
\A1;250
 73
     1
 44
1.0
1001
ACAD
1000
MTEXTBEGIN
1070
    73
1070
     1
1070
    44
1040
1.0
1070
    74
1070
     0
1000
MTEXTEND
  0
INSERT
  5
C4AC
330
B853
100
AcDbEntity
  8
30
 62
     0
370
    -2
100
AcDbBlockReference
  2
_Open
 10
-1125.0
 20
-68.34452665800006
 30
0.0
 41
5.0
 42
5.0
 43
5.0
 50
180.0
  0
INSERT
  5
C4AD
330
B853
100
AcDbEntity
  8
30
 62
     0
370
    -2
100
AcDbBlockReference
  2
_Open
 10
-875.0
 20
-68.34452665800006
 30
0.0
 41
5.0
 42
5.0
 43
5.0
  0
POINT
  5
C4AE
330
B853
100
AcDbEntity
  8
Defpoints
 62
     0
100
AcDbPoint
 10
-1125.0
 20
29.99999999999987
 30
0.0
  0
POINT
  5
C4AF
330
B853
100
AcDbEntity
  8
Defpoints
 62
     0
100
AcDbPoint
 10
-875.0
 20
29.99999999999987
 30
0.0
  0
POINT
  5
C4B0
330
B853
100
AcDbEntity
  8
Defpoints
 62
     0
100
AcDbPoint
 10
-875.0
 20
-68.34452665800006
 30
0.0
  0
ENDBLK
  5
B85E
330
B853
100
AcDbEntity
  8
0
100
AcDbBlockEnd
  0
BLOCK
  5
B869
330
B85F
100
AcDbEntity
  8
0
100
AcDbBlockBegin
  2
*D36
 70
     1
 10
0.0
 20
0.0
 30
0.0
  3
*D36
  1

  0
LINE
  5
C48C
330
B85F
100
AcDbEntity
  8
30
 62
     0
370
    -2
100
AcDbLine
 10
-701.8355980780001
 20
-0.0000000000001165
 30
0.0
 11
-586.6109068119999
 21
-0.0000000000001492
 31
0.0
  0
LINE
  5
C48D
330
B85F
100
AcDbEntity
  8
30
 62
     0
370
    -2
100
AcDbLine
 10
-665.0
 20
549.9999999999996
 30
0.0
 11
-586.6109068119999
 21
549.9999999999996
 31
0.0
  0
LINE
  5
C48E
330
B85F
100
AcDbEntity
  8
30
 62
     0
370
    -2
100
AcDbLine
 10
-587.6109068119999
 20
4.999999999999849
 30
0.0
 11
-587.6109068119999
 21
544.9999999999996
 31
0.0
  0
MTEXT
  5
C48F
330
B85F
100
AcDbEntity
  8
30
 62
     0
100
AcDbMText
 10
-595.6109068119999
 20
265.9598367739998
 30
0.0
 40
10.0
 41
0.0
 71
     5
 72
     1
  1
\A1;550
 11
0.0000000000000001
 21
1.0
 31
0.0
 73
     1
 44
1.0
1001
ACAD
1000
MTEXTBEGIN
1070
    73
1070
     1
1070
    44
1040
1.0
1070
    74
1070
     0
1000
MTEXTEND
  0
INSERT
  5
C490
330
B85F
100
AcDbEntity
  8
30
 62
     0
370
    -2
100
AcDbBlockReference
  2
_Open
 10
-587.6109068119999
 20
-0.0000000000001489
 30
0.0
 41
5.0
 42
5.0
 43
5.0
 50
270.0
  0
INSERT
  5
C491
330
B85F
100
AcDbEntity
  8
30
 62
     0
370
    -2
100
AcDbBlockReference
  2
_Open
 10
-587.6109068119999
 20
549.9999999999996
 30
0.0
 41
5.0
 42
5.0
 43
5.0
 50
90.0
  0
POINT
  5
C492
330
B85F
100
AcDbEntity
  8
Defpoints
 62
     0
100
AcDbPoint
 10
-711.8355980780002
 20
-0.0000000000001137
 30
0.0
  0
POINT
  5
C493
330
B85F
100
AcDbEntity
  8
Defpoints
 62
     0
100
AcDbPoint
 10
-675.0
 20
549.9999999999996
 30
0.0
  0
POINT
  5
C494
330
B85F
100
AcDbEntity
  8
Defpoints
 62
     0
100
AcDbPoint
 10
-587.6109068119999
 20
549.9999999999996
 30
0.0
  0
ENDBLK
  5
B86A
330
B85F
100
AcDbEntity
  8
0
100
AcDbBlockEnd
  0
BLOCK
  5
B875
330
B86B
100
AcDbEntity
  8
0
100
AcDbBlockBegin
  2
*D37
 70
     1
 10
0.0
 20
0.0
 30
0.0
  3
*D37
  1

  0
LINE
  5
C4B1
330
B86B
100
AcDbEntity
  8
30
 62
     0
370
    -2
100
AcDbLine
 10
-1000.0
 20
-87.8840870380003
 30
0.0
 11
-1000.0
 21
-184.8987974260001
 31
0.0
  0
LINE
  5
C4B2
330
B86B
100
AcDbEntity
  8
30
 62
     0
370
    -2
100
AcDbLine
 10
-675.0
 20
-110.0
 30
0.0
 11
-675.0
 21
-184.8987974260001
 31
0.0
  0
LINE
  5
C4B3
330
B86B
100
AcDbEntity
  8
30
 62
     0
370
    -2
100
AcDbLine
 10
-995.0
 20
-183.8987974260001
 30
0.0
 11
-680.0
 21
-183.8987974260001
 31
0.0
  0
MTEXT
  5
C4B4
330
B86B
100
AcDbEntity
  8
30
 62
     0
100
AcDbMText
 10
-842.7943398449999
 20
-175.898797426
 30
0.0
 40
10.0
 41
0.0
 71
     5
 72
     1
  1
\A1;325
 73
     1
 44
1.0
1001
ACAD
1000
MTEXTBEGIN
1070
    73
1070
     1
1070
    44
1040
1.0
1070
    74
1070
     0
1000
MTEXTEND
  0
INSERT
  5
C4B5
330
B86B
100
AcDbEntity
  8
30
 62
     0
370
    -2
100
AcDbBlockReference
  2
_Open
 10
-1000.0
 20
-183.8987974260001
 30
0.0
 41
5.0
 42
5.0
 43
5.0
 50
180.0
  0
INSERT
  5
C4B6
330
B86B
100
AcDbEntity
  8
30
 62
     0
370
    -2
100
AcDbBlockReference
  2
_Open
 10
-675.0
 20
-183.8987974260001
 30
0.0
 41
5.0
 42
5.0
 43
5.0
  0
POINT
  5
C4B7
330
B86B
100
AcDbEntity
  8
Defpoints
 62
     0
100
AcDbPoint
 10
-1000.0
 20
-77.8840870380003
 30
0.0
  0
POINT
  5
C4B8
330
B86B
100
AcDbEntity
  8
Defpoints
 62
     0
100
AcDbPoint
 10
-675.0
 20
-100.0000000000001
 30
0.0
  0
POINT
  5
C4B9
330
B86B
100
AcDbEntity
  8
Defpoints
 62
     0
100
AcDbPoint
 10
-675.0
 20
-183.8987974260001
 30
0.0
  0
ENDBLK
  5
B876
330
B86B
100
AcDbEntity
  8
0
100
AcDbBlockEnd
  0
BLOCK
  5
B881
330
B877
100
AcDbEntity
  8
0
100
AcDbBlockBegin
  2
*D38
 70
     1
 10
0.0
 20
0.0
 30
0.0
  3
*D38
  1

  0
LINE
  5
C4BA
330
B877
100
AcDbEntity
  8
30
 62
     0
370
    -2
100
AcDbLine
 10
-1000.0
 20
-87.8840870380003
 30
0.0
 11
-1000.0
 21
-184.8987974260001
 31
0.0
  0
LINE
  5
C4BB
330
B877
100
AcDbEntity
  8
30
 62
     0
370
    -2
100
AcDbLine
 10
-1240.0
 20
-110.0
 30
0.0
 11
-1240.0
 21
-184.8987974260001
 31
0.0
  0
LINE
  5
C4BC
330
B877
100
AcDbEntity
  8
30
 62
     0
370
    -2
100
AcDbLine
 10
-1005.0
 20
-183.8987974260001
 30
0.0
 11
-1235.0
 21
-183.8987974260001
 31
0.0
  0
MTEXT
  5
C4BD
330
B877
100
AcDbEntity
  8
30
 62
     0
100
AcDbMText
 10
-1120.40545096
 20
-175.898797426
 30
0.0
 40
10.0
 41
0.0
 71
     5
 72
     1
  1
\A1;240
 73
     1
 44
1.0
1001
ACAD
1000
MTEXTBEGIN
1070
    73
1070
     1
1070
    44
1040
1.0
1070
    74
1070
     0
1000
MTEXTEND
  0
INSERT
  5
C4BE
330
B877
100
AcDbEntity
  8
30
 62
     0
370
    -2
100
AcDbBlockReference
  2
_Open
 10
-1000.0
 20
-183.8987974260001
 30
0.0
 41
5.0
 42
5.0
 43
5.0
  0
INSERT
  5
C4BF
330
B877
100
AcDbEntity
  8
30
 62
     0
370
    -2
100
AcDbBlockReference
  2
_Open
 10
-1240.0
 20
-183.8987974260001
 30
0.0
 41
5.0
 42
5.0
 43
5.0
 50
180.0
  0
POINT
  5
C4C0
330
B877
100
AcDbEntity
  8
Defpoints
 62
     0
100
AcDbPoint
 10
-1000.0
 20
-77.8840870380003
 30
0.0
  0
POINT
  5
C4C1
330
B877
100
AcDbEntity
  8
Defpoints
 62
     0
100
AcDbPoint
 10
-1240.0
 20
-100.0000000000001
 30
0.0
  0
POINT
  5
C4C2
330
B877
100
AcDbEntity
  8
Defpoints
 62
     0
100
AcDbPoint
 10
-1240.0
 20
-183.8987974260001
 30
0.0
  0
ENDBLK
  5
B882
330
B877
100
AcDbEntity
  8
0
100
AcDbBlockEnd
  0
BLOCK
  5
B899
330
B88F
100
AcDbEntity
  8
0
100
AcDbBlockBegin
  2
*D39
 70
     1
 10
0.0
 20
0.0
 30
0.0
  3
*D39
  1

  0
LINE
  5
C495
330
B88F
100
AcDbEntity
  8
30
 62
     0
370
    -2
100
AcDbLine
 10
-865.0
 20
364.9999999999995
 30
0.0
 11
-775.4934424109999
 21
364.9999999999995
 31
0.0
  0
LINE
  5
C496
330
B88F
100
AcDbEntity
  8
30
 62
     0
370
    -2
100
AcDbLine
 10
-865.0
 20
29.99999999999987
 30
0.0
 11
-775.493442411
 21
29.99999999999984
 31
0.0
  0
LINE
  5
C497
330
B88F
100
AcDbEntity
  8
30
 62
     0
370
    -2
100
AcDbLine
 10
-776.4934424109999
 20
359.9999999999994
 30
0.0
 11
-776.493442411
 21
34.99999999999984
 31
0.0
  0
MTEXT
  5
C498
330
B88F
100
AcDbEntity
  8
30
 62
     0
100
AcDbMText
 10
-784.493442411
 20
211.8006790989999
 30
0.0
 40
10.0
 41
0.0
 71
     5
 72
     1
  1
\A1;335
 11
0.0000000000000001
 21
1.0
 31
0.0
 73
     1
 44
1.0
1001
ACAD
1000
MTEXTBEGIN
1070
    73
1070
     1
1070
    44
1040
1.0
1070
    74
1070
     0
1000
MTEXTEND
  0
INSERT
  5
C499
330
B88F
100
AcDbEntity
  8
30
 62
     0
370
    -2
100
AcDbBlockReference
  2
_Open
 10
-776.4934424109999
 20
364.9999999999995
 30
0.0
 41
5.0
 42
5.0
 43
5.0
 50
90.0
  0
INSERT
  5
C49A
330
B88F
100
AcDbEntity
  8
30
 62
     0
370
    -2
100
AcDbBlockReference
  2
_Open
 10
-776.493442411
 20
29.99999999999984
 30
0.0
 41
5.0
 42
5.0
 43
5.0
 50
270.0
  0
POINT
  5
C49B
330
B88F
100
AcDbEntity
  8
Defpoints
 62
     0
100
AcDbPoint
 10
-875.0
 20
364.9999999999995
 30
0.0
  0
POINT
  5
C49C
330
B88F
100
AcDbEntity
  8
Defpoints
 62
     0
100
AcDbPoint
 10
-875.0
 20
29.99999999999987
 30
0.0
  0
POINT
  5
C49D
330
B88F
100
AcDbEntity
  8
Defpoints
 62
     0
100
AcDbPoint
 10
-776.493442411
 20
29.99999999999984
 30
0.0
  0
ENDBLK
  5
B89A
330
B88F
100
AcDbEntity
  8
0
100
AcDbBlockEnd
  0
BLOCK
  5
BB76
330
BB6C
100
AcDbEntity
  8
0
100
AcDbBlockBegin
  2
*D40
 70
     1
 10
0.0
 20
0.0
 30
0.0
  3
*D40
  1

  0
LINE
  5
C4C3
330
BB6C
100
AcDbEntity
  8
30
 62
     0
370
    -2
100
AcDbLine
 10
1830.0
 20
523.0
 30
0.0
 11
1830.0
 21
562.2650820209996
 31
0.0
  0
LINE
  5
C4C4
330
BB6C
100
AcDbEntity
  8
30
 62
     0
370
    -2
100
AcDbLine
 10
1915.0
 20
528.9974009839998
 30
0.0
 11
1915.0
 21
562.2650820209996
 31
0.0
  0
LINE
  5
C4C5
330
BB6C
100
AcDbEntity
  8
30
 62
     0
370
    -2
100
AcDbLine
 10
1835.0
 20
561.2650820209998
 30
0.0
 11
1910.0
 21
561.2650820209998
 31
0.0
  0
MTEXT
  5
C4C6
330
BB6C
100
AcDbEntity
  8
30
 62
     0
100
AcDbMText
 10
1872.5
 20
569.2650820209998
 30
0.0
 40
10.0
 41
0.0
 71
     5
 72
     1
  1
\A1;85
 73
     1
 44
1.0
1001
ACAD
1000
MTEXTBEGIN
1070
    73
1070
     1
1070
    44
1040
1.0
1070
    74
1070
     0
1000
MTEXTEND
  0
INSERT
  5
C4C7
330
BB6C
100
AcDbEntity
  8
30
 62
     0
370
    -2
100
AcDbBlockReference
  2
_Open
 10
1830.0
 20
561.2650820209998
 30
0.0
 41
5.0
 42
5.0
 43
5.0
 50
180.0
  0
INSERT
  5
C4C8
330
BB6C
100
AcDbEntity
  8
30
 62
     0
370
    -2
100
AcDbBlockReference
  2
_Open
 10
1915.0
 20
561.2650820209998
 30
0.0
 41
5.0
 42
5.0
 43
5.0
  0
POINT
  5
C4C9
330
BB6C
100
AcDbEntity
  8
Defpoints
 62
     0
100
AcDbPoint
 10
1830.0
 20
513.0
 30
0.0
  0
POINT
  5
C4CA
330
BB6C
100
AcDbEntity
  8
Defpoints
 62
     0
100
AcDbPoint
 10
1915.0
 20
518.9974009839999
 30
0.0
  0
POINT
  5
C4CB
330
BB6C
100
AcDbEntity
  8
Defpoints
 62
     0
100
AcDbPoint
 10
1915.0
 20
561.2650820209998
 30
0.0
  0
ENDBLK
  5
BB77
330
BB6C
100
AcDbEntity
  8
0
100
AcDbBlockEnd
  0
BLOCK
  5
BD88
330
BD7D
100
AcDbEntity
  8
0
100
AcDbBlockBegin
  2
*D41
 70
     1
 10
0.0
 20
0.0
 30
0.0
  3
*D41
  1

  0
LINE
  5
C4D5
330
BD7D
100
AcDbEntity
  8
30
 62
     0
370
    -2
100
AcDbLine
 10
1234.0
 20
301.9999999999992
 30
0.0
 11
1264.829965325999
 21
301.9999999999992
 31
0.0
  0
LINE
  5
C4D6
330
BD7D
100
AcDbEntity
  8
30
 62
     0
370
    -2
100
AcDbLine
 10
1234.0
 20
321.999999999999
 30
0.0
 11
1264.829965325999
 21
321.999999999999
 31
0.0
  0
LINE
  5
C4D7
330
BD7D
100
AcDbEntity
  8
30
 62
     0
370
    -2
100
AcDbLine
 10
1263.829965325999
 20
301.9999999999992
 30
0.0
 11
1263.829965325999
 21
321.999999999999
 31
0.0
  0
MTEXT
  5
C4D8
330
BD7D
100
AcDbEntity
  8
30
 62
     0
100
AcDbMText
 10
1255.829965325998
 20
337.801509507999
 30
0.0
 40
10.0
 41
0.0
 71
     5
 72
     1
  1
\A1;20
 11
0.0000000000000001
 21
1.0
 31
0.0
 73
     1
 44
1.0
1001
ACAD
1000
MTEXTBEGIN
1070
    73
1070
     1
1070
    44
1040
1.0
1070
    74
1070
     0
1000
MTEXTEND
  0
INSERT
  5
C4D9
330
BD7D
100
AcDbEntity
  8
30
 62
     0
370
    -2
100
AcDbBlockReference
  2
_DotSmall
 10
1263.829965325999
 20
301.9999999999992
 30
0.0
 41
5.0
 42
5.0
 43
5.0
 50
270.0
  0
INSERT
  5
C4DA
330
BD7D
100
AcDbEntity
  8
30
 62
     0
370
    -2
100
AcDbBlockReference
  2
_DotSmall
 10
1263.829965325999
 20
321.999999999999
 30
0.0
 41
5.0
 42
5.0
 43
5.0
 50
90.0
  0
POINT
  5
C4DB
330
BD7D
100
AcDbEntity
  8
Defpoints
 62
     0
100
AcDbPoint
 10
1224.0
 20
301.9999999999992
 30
0.0
  0
POINT
  5
C4DC
330
BD7D
100
AcDbEntity
  8
Defpoints
 62
     0
100
AcDbPoint
 10
1224.0
 20
321.999999999999
 30
0.0
  0
POINT
  5
C4DD
330
BD7D
100
AcDbEntity
  8
Defpoints
 62
     0
100
AcDbPoint
 10
1263.829965325999
 20
321.999999999999
 30
0.0
  0
ENDBLK
  5
BD89
330
BD7D
100
AcDbEntity
  8
0
100
AcDbBlockEnd
  0
BLOCK
  5
BEA5
330
BE9B
100
AcDbEntity
  8
0
100
AcDbBlockBegin
  2
*D42
 70
     1
 10
0.0
 20
0.0
 30
0.0
  3
*D42
  1

  0
LINE
  5
C4DE
330
BE9B
100
AcDbEntity
  8
30
 62
     0
370
    -2
100
AcDbLine
 10
-665.0
 20
-0.0000000000001165
 30
0.0
 11
-586.6109068119999
 21
-0.0000000000001387
 31
0.0
  0
LINE
  5
C4DF
330
BE9B
100
AcDbEntity
  8
30
 62
     0
370
    -2
100
AcDbLine
 10
-665.0
 20
-99.99999999999996
 30
0.0
 11
-586.6109068119999
 21
-100.0
 31
0.0
  0
LINE
  5
C4E0
330
BE9B
100
AcDbEntity
  8
30
 62
     0
370
    -2
100
AcDbLine
 10
-587.6109068119999
 20
-5.000000000000137
 30
0.0
 11
-587.6109068119999
 21
-94.99999999999998
 31
0.0
  0
INSERT
  5
C4E1
330
BE9B
100
AcDbEntity
  8
30
 62
     0
370
    -2
100
AcDbBlockReference
  2
_Open
 10
-587.6109068119999
 20
-0.0000000000001385
 30
0.0
 41
5.0
 42
5.0
 43
5.0
 50
90.0
  0
INSERT
  5
C4E2
330
BE9B
100
AcDbEntity
  8
30
 62
     0
370
    -2
100
AcDbBlockReference
  2
_Open
 10
-587.6109068119999
 20
-100.0
 30
0.0
 41
5.0
 42
5.0
 43
5.0
 50
270.0
  0
MTEXT
  5
C4E3
330
BE9B
100
AcDbEntity
  8
30
 62
     0
100
AcDbMText
 10
-595.6109068119999
 20
-50.00000000000015
 30
0.0
 40
10.0
 41
0.0
 71
     5
 72
     1
  1
\A1;100
 11
0.0000000000000001
 21
1.0
 31
0.0
 73
     1
 44
1.0
1001
ACAD
1000
MTEXTBEGIN
1070
    73
1070
     1
1070
    44
1040
1.0
1070
    74
1070
     0
1000
MTEXTEND
  0
POINT
  5
C4E4
330
BE9B
100
AcDbEntity
  8
Defpoints
 62
     0
100
AcDbPoint
 10
-675.0
 20
-0.0000000000001137
 30
0.0
  0
POINT
  5
C4E5
330
BE9B
100
AcDbEntity
  8
Defpoints
 62
     0
100
AcDbPoint
 10
-675.0
 20
-99.99999999999994
 30
0.0
  0
POINT
  5
C4E6
330
BE9B
100
AcDbEntity
  8
Defpoints
 62
     0
100
AcDbPoint
 10
-587.6109068119999
 20
-100.0
 30
0.0
  0
ENDBLK
  5
BEA6
330
BE9B
100
AcDbEntity
  8
0
100
AcDbBlockEnd
  0
BLOCK
  5
C171
330
C167
100
AcDbEntity
  8
0
100
AcDbBlockBegin
  2
*D43
 70
     1
 10
0.0
 20
0.0
 30
0.0
  3
*D43
  1

  0
LINE
  5
C168
330
C167
100
AcDbEntity
  8
30
 62
     0
370
    -2
100
AcDbLine
 10
-729.9999999999997
 20
1246.999999999997
 30
0.0
 11
-659.6453671497756
 21
1246.999999999997
 31
0.0
  0
LINE
  5
C169
330
C167
100
AcDbEntity
  8
30
 62
     0
370
    -2
100
AcDbLine
 10
-730.0000000000001
 20
1081.999999999996
 30
0.0
 11
-659.6453671497756
 21
1081.999999999996
 31
0.0
  0
LINE
  5
C16A
330
C167
100
AcDbEntity
  8
30
 62
     0
370
    -2
100
AcDbLine
 10
-660.6453671497757
 20
1241.999999999997
 30
0.0
 11
-660.6453671497757
 21
1086.999999999996
 31
0.0
  0
INSERT
  5
C16B
330
C167
100
AcDbEntity
  8
30
 62
     0
370
    -2
100
AcDbBlockReference
  2
_Open
 10
-660.6453671497757
 20
1246.999999999997
 30
0.0
 41
5.0
 42
5.0
 43
5.0
 50
90.0
  0
INSERT
  5
C16C
330
C167
100
AcDbEntity
  8
30
 62
     0
370
    -2
100
AcDbBlockReference
  2
_Open
 10
-660.6453671497757
 20
1081.999999999996
 30
0.0
 41
5.0
 42
5.0
 43
5.0
 50
270.0
  0
MTEXT
  5
C16D
330
C167
100
AcDbEntity
  8
30
 62
     0
100
AcDbMText
 10
-668.6453671497758
 20
1164.499999999996
 30
0.0
 40
10.0
 41
0.0
 71
     5
 72
     1
  1
\A1;165
 11
0.0000000000000001
 21
1.0
 31
0.0
 73
     1
 44
1.0
1001
ACAD
1000
MTEXTBEGIN
1070
    73
1070
     1
1070
    44
1040
1.0
1070
    74
1070
     0
1000
MTEXTEND
  0
POINT
  5
C16E
330
C167
100
AcDbEntity
  8
Defpoints
 62
     0
100
AcDbPoint
 10
-739.9999999999996
 20
1246.999999999997
 30
0.0
  0
POINT
  5
C16F
330
C167
100
AcDbEntity
  8
Defpoints
 62
     0
100
AcDbPoint
 10
-740.0000000000001
 20
1081.999999999996
 30
0.0
  0
POINT
  5
C170
330
C167
100
AcDbEntity
  8
Defpoints
 62
     0
100
AcDbPoint
 10
-660.6453671497757
 20
1081.999999999996
 30
0.0
  0
ENDBLK
  5
C172
330
C167
100
AcDbEntity
  8
0
100
AcDbBlockEnd
  0
BLOCK
  5
C17D
330
C173
100
AcDbEntity
  8
0
100
AcDbBlockBegin
  2
*D44
 70
     1
 10
0.0
 20
0.0
 30
0.0
  3
*D44
  1

  0
LINE
  5
C174
330
C173
100
AcDbEntity
  8
30
 62
     0
370
    -2
100
AcDbLine
 10
-732.9999999999996
 20
1081.999999999996
 30
0.0
 11
-659.6453671497756
 21
1081.999999999996
 31
0.0
  0
LINE
  5
C175
330
C173
100
AcDbEntity
  8
30
 62
     0
370
    -2
100
AcDbLine
 10
-732.9999999999996
 20
1000.0
 30
0.0
 11
-659.6453671497756
 21
1000.0
 31
0.0
  0
LINE
  5
C176
330
C173
100
AcDbEntity
  8
30
 62
     0
370
    -2
100
AcDbLine
 10
-660.6453671497757
 20
1076.999999999996
 30
0.0
 11
-660.6453671497757
 21
1005.0
 31
0.0
  0
INSERT
  5
C177
330
C173
100
AcDbEntity
  8
30
 62
     0
370
    -2
100
AcDbBlockReference
  2
_Open
 10
-660.6453671497757
 20
1081.999999999996
 30
0.0
 41
5.0
 42
5.0
 43
5.0
 50
90.0
  0
INSERT
  5
C178
330
C173
100
AcDbEntity
  8
30
 62
     0
370
    -2
100
AcDbBlockReference
  2
_Open
 10
-660.6453671497757
 20
1000.0
 30
0.0
 41
5.0
 42
5.0
 43
5.0
 50
270.0
  0
MTEXT
  5
C179
330
C173
100
AcDbEntity
  8
30
 62
     0
100
AcDbMText
 10
-668.6453671497758
 20
1040.999999999998
 30
0.0
 40
10.0
 41
0.0
 71
     5
 72
     1
  1
\A1;82
 11
0.0000000000000001
 21
1.0
 31
0.0
 73
     1
 44
1.0
1001
ACAD
1000
MTEXTBEGIN
1070
    73
1070
     1
1070
    44
1040
1.0
1070
    74
1070
     0
1000
MTEXTEND
  0
POINT
  5
C17A
330
C173
100
AcDbEntity
  8
Defpoints
 62
     0
100
AcDbPoint
 10
-742.9999999999997
 20
1081.999999999996
 30
0.0
  0
POINT
  5
C17B
330
C173
100
AcDbEntity
  8
Defpoints
 62
     0
100
AcDbPoint
 10
-742.9999999999997
 20
1000.0
 30
0.0
  0
POINT
  5
C17C
330
C173
100
AcDbEntity
  8
Defpoints
 62
     0
100
AcDbPoint
 10
-660.6453671497757
 20
1000.0
 30
0.0
  0
ENDBLK
  5
C17E
330
C173
100
AcDbEntity
  8
0
100
AcDbBlockEnd
  0
BLOCK
  5
C189
330
C17F
100
AcDbEntity
  8
0
100
AcDbBlockBegin
  2
*D45
 70
     1
 10
0.0
 20
0.0
 30
0.0
  3
*D45
  1

  0
LINE
  5
C180
330
C17F
100
AcDbEntity
  8
30
 62
     0
370
    -2
100
AcDbLine
 10
-1165.0
 20
1062.0
 30
0.0
 11
-1165.0
 21
947.3842652287068
 31
0.0
  0
LINE
  5
C181
330
C17F
100
AcDbEntity
  8
30
 62
     0
370
    -2
100
AcDbLine
 10
-999.9999999999996
 20
990.0
 30
0.0
 11
-999.9999999999996
 21
947.3842652287068
 31
0.0
  0
LINE
  5
C182
330
C17F
100
AcDbEntity
  8
30
 62
     0
370
    -2
100
AcDbLine
 10
-1160.0
 20
948.3842652287068
 30
0.0
 11
-1004.999999999999
 21
948.3842652287068
 31
0.0
  0
INSERT
  5
C183
330
C17F
100
AcDbEntity
  8
30
 62
     0
370
    -2
100
AcDbBlockReference
  2
_Open
 10
-1165.0
 20
948.3842652287068
 30
0.0
 41
5.0
 42
5.0
 43
5.0
 50
180.0
  0
INSERT
  5
C184
330
C17F
100
AcDbEntity
  8
30
 62
     0
370
    -2
100
AcDbBlockReference
  2
_Open
 10
-999.9999999999996
 20
948.3842652287068
 30
0.0
 41
5.0
 42
5.0
 43
5.0
  0
MTEXT
  5
C185
330
C17F
100
AcDbEntity
  8
30
 62
     0
100
AcDbMText
 10
-1082.499999999998
 20
956.3842652287068
 30
0.0
 40
10.0
 41
0.0
 71
     5
 72
     1
  1
\A1;165
 73
     1
 44
1.0
1001
ACAD
1000
MTEXTBEGIN
1070
    73
1070
     1
1070
    44
1040
1.0
1070
    74
1070
     0
1000
MTEXTEND
  0
POINT
  5
C186
330
C17F
100
AcDbEntity
  8
Defpoints
 62
     0
100
AcDbPoint
 10
-1165.0
 20
1072.0
 30
0.0
  0
POINT
  5
C187
330
C17F
100
AcDbEntity
  8
Defpoints
 62
     0
100
AcDbPoint
 10
-999.9999999999996
 20
1000.0
 30
0.0
  0
POINT
  5
C188
330
C17F
100
AcDbEntity
  8
Defpoints
 62
     0
100
AcDbPoint
 10
-999.9999999999996
 20
948.3842652287068
 30
0.0
  0
ENDBLK
  5
C18A
330
C17F
100
AcDbEntity
  8
0
100
AcDbBlockEnd
  0
BLOCK
  5
C195
330
C18B
100
AcDbEntity
  8
0
100
AcDbBlockBegin
  2
*D46
 70
     1
 10
0.0
 20
0.0
 30
0.0
  3
*D46
  1

  0
LINE
  5
C18C
330
C18B
100
AcDbEntity
  8
30
 62
     0
370
    -2
100
AcDbLine
 10
-999.9999999999996
 20
988.0
 30
0.0
 11
-999.9999999999996
 21
947.3842652287068
 31
0.0
  0
LINE
  5
C18D
330
C18B
100
AcDbEntity
  8
30
 62
     0
370
    -2
100
AcDbLine
 10
-749.9999999999996
 20
1061.999999999998
 30
0.0
 11
-749.9999999999996
 21
947.3842652287068
 31
0.0
  0
LINE
  5
C18E
330
C18B
100
AcDbEntity
  8
30
 62
     0
370
    -2
100
AcDbLine
 10
-994.9999999999997
 20
948.3842652287068
 30
0.0
 11
-754.9999999999997
 21
948.3842652287068
 31
0.0
  0
INSERT
  5
C18F
330
C18B
100
AcDbEntity
  8
30
 62
     0
370
    -2
100
AcDbBlockReference
  2
_Open
 10
-999.9999999999996
 20
948.3842652287068
 30
0.0
 41
5.0
 42
5.0
 43
5.0
 50
180.0
  0
INSERT
  5
C190
330
C18B
100
AcDbEntity
  8
30
 62
     0
370
    -2
100
AcDbBlockReference
  2
_Open
 10
-749.9999999999996
 20
948.3842652287068
 30
0.0
 41
5.0
 42
5.0
 43
5.0
  0
MTEXT
  5
C191
330
C18B
100
AcDbEntity
  8
30
 62
     0
100
AcDbMText
 10
-874.9999999999996
 20
956.3842652287068
 30
0.0
 40
10.0
 41
0.0
 71
     5
 72
     1
  1
\A1;250
 73
     1
 44
1.0
1001
ACAD
1000
MTEXTBEGIN
1070
    73
1070
     1
1070
    44
1040
1.0
1070
    74
1070
     0
1000
MTEXTEND
  0
POINT
  5
C192
330
C18B
100
AcDbEntity
  8
Defpoints
 62
     0
100
AcDbPoint
 10
-999.9999999999996
 20
998.0
 30
0.0
  0
POINT
  5
C193
330
C18B
100
AcDbEntity
  8
Defpoints
 62
     0
100
AcDbPoint
 10
-749.9999999999996
 20
1071.999999999998
 30
0.0
  0
POINT
  5
C194
330
C18B
100
AcDbEntity
  8
Defpoints
 62
     0
100
AcDbPoint
 10
-749.9999999999996
 20
948.3842652287068
 30
0.0
  0
ENDBLK
  5
C196
330
C18B
100
AcDbEntity
  8
0
100
AcDbBlockEnd
  0
BLOCK
  5
C1C9
330
C1BF
100
AcDbEntity
  8
0
100
AcDbBlockBegin
  2
*D47
 70
     1
 10
0.0
 20
0.0
 30
0.0
  3
*D47
  1

  0
LINE
  5
C4E7
330
C1BF
100
AcDbEntity
  8
30
 62
     0
370
    -2
100
AcDbLine
 10
-999.9999999999996
 20
988.0
 30
0.0
 11
-999.9999999999996
 21
947.3842652287068
 31
0.0
  0
LINE
  5
C4E8
330
C1BF
100
AcDbEntity
  8
30
 62
     0
370
    -2
100
AcDbLine
 10
-749.9999999999996
 20
1061.999999999998
 30
0.0
 11
-749.9999999999996
 21
947.3842652287068
 31
0.0
  0
LINE
  5
C4E9
330
C1BF
100
AcDbEntity
  8
30
 62
     0
370
    -2
100
AcDbLine
 10
-994.9999999999997
 20
948.3842652287068
 30
0.0
 11
-754.9999999999997
 21
948.3842652287068
 31
0.0
  0
INSERT
  5
C4EA
330
C1BF
100
AcDbEntity
  8
30
 62
     0
370
    -2
100
AcDbBlockReference
  2
_Open
 10
-999.9999999999996
 20
948.3842652287068
 30
0.0
 41
5.0
 42
5.0
 43
5.0
 50
180.0
  0
INSERT
  5
C4EB
330
C1BF
100
AcDbEntity
  8
30
 62
     0
370
    -2
100
AcDbBlockReference
  2
_Open
 10
-749.9999999999996
 20
948.3842652287068
 30
0.0
 41
5.0
 42
5.0
 43
5.0
  0
MTEXT
  5
C4EC
330
C1BF
100
AcDbEntity
  8
30
 62
     0
100
AcDbMText
 10
-874.9999999999996
 20
956.3842652287068
 30
0.0
 40
10.0
 41
0.0
 71
     5
 72
     1
  1
\A1;250
 73
     1
 44
1.0
1001
ACAD
1000
MTEXTBEGIN
1070
    73
1070
     1
1070
    44
1040
1.0
1070
    74
1070
     0
1000
MTEXTEND
  0
POINT
  5
C4ED
330
C1BF
100
AcDbEntity
  8
Defpoints
 62
     0
100
AcDbPoint
 10
-999.9999999999996
 20
998.0
 30
0.0
  0
POINT
  5
C4EE
330
C1BF
100
AcDbEntity
  8
Defpoints
 62
     0
100
AcDbPoint
 10
-749.9999999999996
 20
1071.999999999998
 30
0.0
  0
POINT
  5
C4EF
330
C1BF
100
AcDbEntity
  8
Defpoints
 62
     0
100
AcDbPoint
 10
-749.9999999999996
 20
948.3842652287068
 30
0.0
  0
ENDBLK
  5
C1CA
330
C1BF
100
AcDbEntity
  8
0
100
AcDbBlockEnd
  0
BLOCK
  5
C1D5
330
C1CB
100
AcDbEntity
  8
0
100
AcDbBlockBegin
  2
*D48
 70
     1
 10
0.0
 20
0.0
 30
0.0
  3
*D48
  1

  0
LINE
  5
C4F0
330
C1CB
100
AcDbEntity
  8
30
 62
     0
370
    -2
100
AcDbLine
 10
-1165.0
 20
1062.0
 30
0.0
 11
-1165.0
 21
947.3842652287068
 31
0.0
  0
LINE
  5
C4F1
330
C1CB
100
AcDbEntity
  8
30
 62
     0
370
    -2
100
AcDbLine
 10
-999.9999999999996
 20
990.0
 30
0.0
 11
-999.9999999999996
 21
947.3842652287068
 31
0.0
  0
LINE
  5
C4F2
330
C1CB
100
AcDbEntity
  8
30
 62
     0
370
    -2
100
AcDbLine
 10
-1160.0
 20
948.3842652287068
 30
0.0
 11
-1004.999999999999
 21
948.3842652287068
 31
0.0
  0
INSERT
  5
C4F3
330
C1CB
100
AcDbEntity
  8
30
 62
     0
370
    -2
100
AcDbBlockReference
  2
_Open
 10
-1165.0
 20
948.3842652287068
 30
0.0
 41
5.0
 42
5.0
 43
5.0
 50
180.0
  0
INSERT
  5
C4F4
330
C1CB
100
AcDbEntity
  8
30
 62
     0
370
    -2
100
AcDbBlockReference
  2
_Open
 10
-999.9999999999996
 20
948.3842652287068
 30
0.0
 41
5.0
 42
5.0
 43
5.0
  0
MTEXT
  5
C4F5
330
C1CB
100
AcDbEntity
  8
30
 62
     0
100
AcDbMText
 10
-1082.499999999999
 20
956.3842652287068
 30
0.0
 40
10.0
 41
0.0
 71
     5
 72
     1
  1
\A1;165
 73
     1
 44
1.0
1001
ACAD
1000
MTEXTBEGIN
1070
    73
1070
     1
1070
    44
1040
1.0
1070
    74
1070
     0
1000
MTEXTEND
  0
POINT
  5
C4F6
330
C1CB
100
AcDbEntity
  8
Defpoints
 62
     0
100
AcDbPoint
 10
-1165.0
 20
1072.0
 30
0.0
  0
POINT
  5
C4F7
330
C1CB
100
AcDbEntity
  8
Defpoints
 62
     0
100
AcDbPoint
 10
-999.9999999999996
 20
1000.0
 30
0.0
  0
POINT
  5
C4F8
330
C1CB
100
AcDbEntity
  8
Defpoints
 62
     0
100
AcDbPoint
 10
-999.9999999999996
 20
948.3842652287068
 30
0.0
  0
ENDBLK
  5
C1D6
330
C1CB
100
AcDbEntity
  8
0
100
AcDbBlockEnd
  0
BLOCK
  5
C1E1
330
C1D7
100
AcDbEntity
  8
0
100
AcDbBlockBegin
  2
*D49
 70
     1
 10
0.0
 20
0.0
 30
0.0
  3
*D49
  1

  0
LINE
  5
C4F9
330
C1D7
100
AcDbEntity
  8
30
 62
     0
370
    -2
100
AcDbLine
 10
-732.9999999999996
 20
1081.999999999996
 30
0.0
 11
-659.6453671497758
 21
1081.999999999996
 31
0.0
  0
LINE
  5
C4FA
330
C1D7
100
AcDbEntity
  8
30
 62
     0
370
    -2
100
AcDbLine
 10
-732.9999999999996
 20
1000.0
 30
0.0
 11
-659.6453671497758
 21
1000.0
 31
0.0
  0
LINE
  5
C4FB
330
C1D7
100
AcDbEntity
  8
30
 62
     0
370
    -2
100
AcDbLine
 10
-660.6453671497757
 20
1076.999999999996
 30
0.0
 11
-660.6453671497757
 21
1005.0
 31
0.0
  0
INSERT
  5
C4FC
330
C1D7
100
AcDbEntity
  8
30
 62
     0
370
    -2
100
AcDbBlockReference
  2
_Open
 10
-660.6453671497757
 20
1081.999999999996
 30
0.0
 41
5.0
 42
5.0
 43
5.0
 50
90.0
  0
INSERT
  5
C4FD
330
C1D7
100
AcDbEntity
  8
30
 62
     0
370
    -2
100
AcDbBlockReference
  2
_Open
 10
-660.6453671497757
 20
1000.0
 30
0.0
 41
5.0
 42
5.0
 43
5.0
 50
270.0
  0
MTEXT
  5
C4FE
330
C1D7
100
AcDbEntity
  8
30
 62
     0
100
AcDbMText
 10
-668.6453671497758
 20
1040.999999999998
 30
0.0
 40
10.0
 41
0.0
 71
     5
 72
     1
  1
\A1;82
 11
0.0000000000000001
 21
1.0
 31
0.0
 73
     1
 44
1.0
1001
ACAD
1000
MTEXTBEGIN
1070
    73
1070
     1
1070
    44
1040
1.0
1070
    74
1070
     0
1000
MTEXTEND
  0
POINT
  5
C4FF
330
C1D7
100
AcDbEntity
  8
Defpoints
 62
     0
100
AcDbPoint
 10
-742.9999999999997
 20
1081.999999999996
 30
0.0
  0
POINT
  5
C500
330
C1D7
100
AcDbEntity
  8
Defpoints
 62
     0
100
AcDbPoint
 10
-742.9999999999997
 20
1000.0
 30
0.0
  0
POINT
  5
C501
330
C1D7
100
AcDbEntity
  8
Defpoints
 62
     0
100
AcDbPoint
 10
-660.6453671497757
 20
1000.0
 30
0.0
  0
ENDBLK
  5
C1E2
330
C1D7
100
AcDbEntity
  8
0
100
AcDbBlockEnd
  0
BLOCK
  5
C1ED
330
C1E3
100
AcDbEntity
  8
0
100
AcDbBlockBegin
  2
*D50
 70
     1
 10
0.0
 20
0.0
 30
0.0
  3
*D50
  1

  0
LINE
  5
C502
330
C1E3
100
AcDbEntity
  8
30
 62
     0
370
    -2
100
AcDbLine
 10
-729.9999999999997
 20
1246.999999999997
 30
0.0
 11
-659.6453671497758
 21
1246.999999999997
 31
0.0
  0
LINE
  5
C503
330
C1E3
100
AcDbEntity
  8
30
 62
     0
370
    -2
100
AcDbLine
 10
-730.0000000000003
 20
1081.999999999996
 30
0.0
 11
-659.6453671497758
 21
1081.999999999996
 31
0.0
  0
LINE
  5
C504
330
C1E3
100
AcDbEntity
  8
30
 62
     0
370
    -2
100
AcDbLine
 10
-660.6453671497757
 20
1241.999999999997
 30
0.0
 11
-660.6453671497757
 21
1086.999999999996
 31
0.0
  0
INSERT
  5
C505
330
C1E3
100
AcDbEntity
  8
30
 62
     0
370
    -2
100
AcDbBlockReference
  2
_Open
 10
-660.6453671497757
 20
1246.999999999997
 30
0.0
 41
5.0
 42
5.0
 43
5.0
 50
90.0
  0
INSERT
  5
C506
330
C1E3
100
AcDbEntity
  8
30
 62
     0
370
    -2
100
AcDbBlockReference
  2
_Open
 10
-660.6453671497757
 20
1081.999999999996
 30
0.0
 41
5.0
 42
5.0
 43
5.0
 50
270.0
  0
MTEXT
  5
C507
330
C1E3
100
AcDbEntity
  8
30
 62
     0
100
AcDbMText
 10
-668.6453671497758
 20
1164.499999999996
 30
0.0
 40
10.0
 41
0.0
 71
     5
 72
     1
  1
\A1;165
 11
0.0000000000000001
 21
1.0
 31
0.0
 73
     1
 44
1.0
1001
ACAD
1000
MTEXTBEGIN
1070
    73
1070
     1
1070
    44
1040
1.0
1070
    74
1070
     0
1000
MTEXTEND
  0
POINT
  5
C508
330
C1E3
100
AcDbEntity
  8
Defpoints
 62
     0
100
AcDbPoint
 10
-739.9999999999996
 20
1246.999999999997
 30
0.0
  0
POINT
  5
C509
330
C1E3
100
AcDbEntity
  8
Defpoints
 62
     0
100
AcDbPoint
 10
-740.0000000000003
 20
1081.999999999996
 30
0.0
  0
POINT
  5
C50A
330
C1E3
100
AcDbEntity
  8
Defpoints
 62
     0
100
AcDbPoint
 10
-660.6453671497757
 20
1081.999999999996
 30
0.0
  0
ENDBLK
  5
C1EE
330
C1E3
100
AcDbEntity
  8
0
100
AcDbBlockEnd
  0
ENDSEC
  0
SECTION
  2
ENTITIES
  0
LINE
  5
47EF
330
1E
100
AcDbEntity
  8
16
100
AcDbLine
 10
-999.9999999999996
 20
900.0
 30
0.0
 11
-999.9999999999996
 21
1343.000122
 31
0.0
  0
LINE
  5
4815
330
1E
100
AcDbEntity
  8
16
100
AcDbLine
 10
-1000.0
 20
649.9999849999998
 30
0.0
 11
-1000.0
 21
-100.0
 31
0.0
  0
MTEXT
  5
4816
330
1E
100
AcDbEntity
  8
19
100
AcDbMText
 10
193.0507158932632
 20
-238.0159935205936
 30
0.0
 40
10.0
 41
0.0
 71
     1
 72
     1
  1
 \A1;
 73
     1
 44
1.0
1001
ACAD
1000
MTEXTBEGIN
1070
    73
1070
     1
1070
    44
1040
1.0
1070
    74
1070
     0
1000
MTEXTEND
  0
MTEXT
  5
4821
330
1E
100
AcDbEntity
  8
19
100
AcDbMText
 10
-806.9492841067367
 20
749.9840064794061
 30
0.0
 40
10.0
 41
0.0
 71
     1
 72
     1
  1
 \A1;
 73
     1
 44
1.0
1001
ACAD
1000
MTEXTBEGIN
1070
    73
1070
     1
1070
    44
1040
1.0
1070
    74
1070
     0
1000
MTEXTEND
  0
TEXT
  5
49B8
330
1E
100
AcDbEntity
  8
19
100
AcDbText
 10
2045.888184
 20
1351.478026999999
 30
0.0
 40
30.0
  1
FIXED TYPE
 41
0.833333
100
AcDbText
  0
LINE
  5
4A70
330
1E
100
AcDbEntity
  8
10
100
AcDbLine
 10
119.0
 20
983.0
 30
0.0
 11
119.0
 21
1000.0
 31
0.0
  0
LINE
  5
4A71
330
1E
100
AcDbEntity
  8
10
100
AcDbLine
 10
-119.0
 20
1000.0
 30
0.0
 11
-119.0
 21
983.0
 31
0.0
  0
LINE
  5
4A72
330
1E
100
AcDbEntity
  8
10
100
AcDbLine
 10
119.0
 20
983.0
 30
0.0
 11
-119.0
 21
983.0
 31
0.0
  0
TEXT
  5
4ACC
330
1E
100
AcDbEntity
  8
19
100
AcDbText
 10
1738.013184
 20
1117.178101
 30
0.0
 40
20.0
  1
*:CONDUCTOR OVERLAP.MAX
100
AcDbText
  0
LINE
  5
58B0
330
1E
100
AcDbEntity
  8
Defpoints
100
AcDbLine
 10
-1546.0
 20
0.0
 30
0.0
 11
2621.04102329482
 21
0.0
 31
0.0
  0
LINE
  5
5A04
330
1E
100
AcDbEntity
  8
Defpoints
100
AcDbLine
 10
-1533.0
 20
1000.0
 30
0.0
 11
1000.0
 21
1000.0
 31
0.0
  0
LINE
  5
6A68
330
1E
100
AcDbEntity
  8
16
100
AcDbLine
 10
2000.0
 20
-31.00920100000007
 30
0.0
 11
2000.0
 21
528.6787719999998
 31
0.0
  0
DIMENSION
  5
6DD5
330
1E
100
AcDbEntity
  8
30
100
AcDbDimension
  2
*D1
 10
118.999899174999
 20
953.0091017753019
 30
0.0
 11
59.49989917499909
 21
961.0091017753019
 31
0.0
 70
    32
 71
     5
 42
118.9999999999998
  3
Standard
100
AcDbAlignedDimension
 13
-0.0001008250008141
 23
983.0
 33
0.0
 14
118.999899174999
 24
983.0
 34
0.0
100
AcDbRotatedDimension
  0
DIMENSION
  5
6DE2
330
1E
100
AcDbEntity
  8
30
100
AcDbDimension
  2
*D2
 10
-119.0001008250008
 20
952.1757684419686
 30
0.0
 11
-59.50010082500082
 21
960.1757684419686
 31
0.0
 70
    32
 71
     5
 42
118.9999999999999
  3
Standard
100
AcDbAlignedDimension
 13
-0.0001008250008141
 23
983.0
 33
0.0
 14
-119.0001008250008
 24
983.0
 34
0.0
100
AcDbRotatedDimension
  0
TEXT
  5
6F91
330
1E
100
AcDbEntity
  8
19
100
AcDbText
 10
1648.331070345976
 20
1251.378903112565
 30
0.0
 40
30.0
  1
HORIZONTAL CONNECTION
 41
0.833333
100
AcDbText
  0
MTEXT
  5
7E44
330
1E
100
AcDbEntity
  8
30
100
AcDbMText
 10
1593.944797869426
 20
-94.55833755944604
 30
0.0
 40
10.0
 41
0.0
 71
     1
 72
     1
  1
\A1;
 73
     1
 44
1.0
1001
ACAD
1000
MTEXTBEGIN
1070
    73
1070
     1
1070
    44
1040
1.0
1070
    74
1070
     0
1000
MTEXTEND
  0
LEADER
  5
975C
330
1E
100
AcDbEntity
  8
19
100
AcDbLeader
  3
Standard
 76
     3
 10
1016.465290281999
 20
-79.40515634200095
 30
0.0
 10
895.7482048910001
 20
-322.5899205200007
 30
0.0
 10
553.4108369979999
 20
-322.5899205200007
 30
0.0
  0
MTEXT
  5
975D
330
1E
100
AcDbEntity
  8
19
100
AcDbMText
 10
553.4316304389998
 20
-295.2168115056272
 30
0.0
 40
20.0
 41
0.0
 71
     1
 72
     5
  1
MAINTENANCE SPACE
 73
     1
 44
1.0
1001
ACAD
1000
MTEXTBEGIN
1070
    73
1070
     1
1070
    44
1040
1.0
1070
    74
1070
     0
1000
MTEXTEND
  0
MTEXT
  5
977A
330
1E
100
AcDbEntity
  8
19
100
AcDbMText
 10
-524.6604435992685
 20
695.4266929660002
 30
0.0
 40
20.0
 41
0.0
 71
     1
 72
     5
  1
(NOT SUPPLIED)
 73
     1
 44
1.0
1001
ACAD
1000
MTEXTBEGIN
1070
    73
1070
     1
1070
    44
1040
1.0
1070
    74
1070
     0
1000
MTEXTEND
  0
LEADER
  5
977B
330
1E
100
AcDbEntity
  8
19
100
AcDbLeader
  3
Standard
 76
     3
 10
-145.2837289439998
 20
563.2000000000003
 30
0.0
 10
-300.1401105639997
 20
704.0740025570004
 30
0.0
 10
-523.4291506969998
 20
704.0740025570004
 30
0.0
  0
MTEXT
  5
977C
330
1E
100
AcDbEntity
  8
19
100
AcDbMText
 10
-523.3936190539998
 20
737.8759808249647
 30
0.0
 40
20.0
 41
0.0
 71
     1
 72
     5
  1
ARC BARRIER
 73
     1
 44
1.0
1001
ACAD
1000
MTEXTBEGIN
1070
    73
1070
     1
1070
    44
1040
1.0
1070
    74
1070
     0
1000
MTEXTEND
  0
DIMENSION
  5
990D
330
1E
100
AcDbEntity
  8
30
100
AcDbDimension
  2
*D3
 10
1078.0
 20
-174.3558024000007
 30
0.0
 11
1093.139112677999
 21
-174.5762283560008
 31
0.0
 70
   160
 71
     5
 42
28.0
  3
Standard
100
AcDbAlignedDimension
 13
1106.0
 23
-38.39230421200068
 33
0.0
 14
1078.0
 24
-112.2872557790006
 34
0.0
100
AcDbRotatedDimension
  0
DIMENSION
  5
990E
330
1E
100
AcDbEntity
  8
30
100
AcDbDimension
  2
*D4
 10
1106.0
 20
-174.3558024000007
 30
0.0
 11
1122.282431669999
 21
-174.4092456660006
 31
0.0
 70
   160
 71
     5
 42
34.99999999999795
  3
Standard
100
AcDbAlignedDimension
 13
1140.999999999998
 23
0.0
 33
0.0
 14
1106.0
 24
-20.00000000000067
 34
0.0
100
AcDbRotatedDimension
  0
DIMENSION
  5
990F
330
1E
100
AcDbEntity
  8
30
100
AcDbDimension
  2
*D5
 10
1078.0
 20
-174.3558024000007
 30
0.0
 11
1030.592592592
 21
-174.3558024000007
 31
0.0
 70
   160
 71
     5
 42
100.0
  3
Standard
100
AcDbAlignedDimension
 13
978.0
 23
-112.2872557790006
 33
0.0
 14
1078.0
 24
-112.2872557790006
 34
0.0
100
AcDbRotatedDimension
  0
DIMENSION
  5
9912
330
1E
100
AcDbEntity
  8
30
100
AcDbDimension
  2
*D6
 10
941.0
 20
-174.3558024000007
 30
0.0
 11
914.3140170659998
 21
-174.3558024000007
 31
0.0
 70
   160
 71
     5
 42
37.0
  3
Standard
100
AcDbAlignedDimension
 13
978.0
 23
-112.2872557790006
 33
0.0
 14
941.0
 24
-19.12765978700053
 34
0.0
100
AcDbRotatedDimension
  0
LEADER
  5
9917
330
1E
100
AcDbEntity
  8
19
100
AcDbLeader
  3
Standard
 74
     0
 76
     3
 10
1126.0
 20
34.99999999999931
 30
0.0
 10
1357.639629639999
 20
-150.7436496170009
 30
0.0
 10
1640.452833654
 20
-150.7436496170009
 30
0.0
  0
MTEXT
  5
9918
330
1E
100
AcDbEntity
  8
19
100
AcDbMText
 10
1362.650914169998
 20
-123.5458790449931
 30
0.0
 40
20.0
 41
0.0
 71
     1
 72
     5
  1
EARTH TERMINAL
 73
     1
 44
1.0
1001
ACAD
1000
MTEXTBEGIN
1070
    73
1070
     1
1070
    44
1040
1.0
1070
    74
1070
     0
1000
MTEXTEND
  0
MTEXT
  5
9919
330
1E
100
AcDbEntity
  8
19
100
AcDbMText
 10
1355.805243818455
 20
-155.4390665703481
 30
0.0
 40
20.0
 41
0.0
 71
     1
 72
     5
  1
(RIGHT SIDE ONLY)
 73
     1
 44
1.0
1001
ACAD
1000
MTEXTBEGIN
1070
    73
1070
     1
1070
    44
1040
1.0
1070
    74
1070
     0
1000
MTEXTEND
  0
MTEXT
  5
9928
330
1E
100
AcDbEntity
  8
19
100
AcDbMText
 10
649.731664978
 20
-328.2822730480007
 30
0.0
 40
20.0
 41
0.0
 71
     1
 72
     5
  1
(min)
 73
     1
 44
1.0
1001
ACAD
1000
MTEXTBEGIN
1070
    73
1070
     1
1070
    44
1040
1.0
1070
    74
1070
     0
1000
MTEXTEND
  0
LEADER
  5
992F
330
1E
100
AcDbEntity
  8
19
100
AcDbLeader
  3
Standard
 74
     0
 76
     3
 10
1266.445079172149
 20
489.5767041169992
 30
0.0
 10
1299.118423725148
 20
580.4663771389987
 30
0.0
 10
1627.577566282724
 20
580.4886151641148
 30
0.0
  0
MTEXT
  5
9930
330
1E
100
AcDbEntity
  8
19
100
AcDbMText
 10
1304.166888633149
 20
606.2426006036137
 30
0.0
 40
20.0
 41
0.0
 71
     1
 72
     5
  1
WITH TERMINAL COVER
 73
     1
 44
1.0
1001
ACAD
1000
MTEXTBEGIN
1070
    73
1070
     1
1070
    44
1040
1.0
1070
    74
1070
     0
1000
MTEXTEND
  0
MTEXT
  5
9932
330
1E
100
AcDbEntity
  8
19
100
AcDbMText
 10
1131.909022972606
 20
676.7910921119876
 30
0.0
 40
20.0
 41
0.0
 71
     1
 72
     5
  1
LIFTING HOLES
 73
     1
 44
1.0
1001
ACAD
1000
MTEXTBEGIN
1070
    73
1070
     1
1070
    44
1040
1.0
1070
    74
1070
     0
1000
MTEXTEND
  0
MTEXT
  5
9933
330
1E
100
AcDbEntity
  8
19
100
AcDbMText
 10
475.7259882326175
 20
695.1701932293318
 30
0.0
 40
20.0
 41
0.0
 71
     1
 72
     5
  1
PADLOCK COVER
 73
     1
 44
1.0
1001
ACAD
1000
MTEXTBEGIN
1070
    73
1070
     1
1070
    44
1040
1.0
1070
    74
1070
     0
1000
MTEXTEND
  0
LEADER
  5
9934
330
1E
100
AcDbEntity
  8
19
100
AcDbLeader
  3
Standard
 76
     3
 10
842.0
 20
256.9999999999992
 30
0.0
 10
754.9713420149997
 20
700.2745878409992
 30
0.0
 10
452.2998637539997
 20
700.2745878409992
 30
0.0
  0
MTEXT
  5
9935
330
1E
100
AcDbEntity
  8
19
100
AcDbMText
 10
474.1429799925744
 20
725.6237090751149
 30
0.0
 40
20.0
 41
0.0
 71
     1
 72
     5
  1
WITH PUSHBUTTON
 73
     1
 44
1.0
1001
ACAD
1000
MTEXTBEGIN
1070
    73
1070
     1
1070
    44
1040
1.0
1070
    74
1070
     0
1000
MTEXTEND
  0
CIRCLE
  5
993A
330
1E
100
AcDbEntity
  8
10
100
AcDbCircle
 10
1058.0
 20
441.9999999999991
 30
0.0
 40
10.0
  0
LINE
  5
993C
330
1E
100
AcDbEntity
  8
10
100
AcDbLine
 10
921.0
 20
129.1756275409989
 30
0.0
 11
1125.724947483
 21
129.1756275409989
 31
0.0
  0
LINE
  5
993D
330
1E
100
AcDbEntity
  8
10
100
AcDbLine
 10
921.0
 20
136.824372459999
 30
0.0
 11
1126.0
 21
136.824372459999
 31
0.0
  0
DIMENSION
  5
993F
330
1E
100
AcDbEntity
  8
30
100
AcDbDimension
  2
*D7
 10
1239.725593749999
 20
459.9999999999993
 30
0.0
 11
1240.554533340105
 21
451.1011607721356
 31
0.0
 70
   160
 71
     5
 42
18.00000000000022
  3
Standard
100
AcDbAlignedDimension
 13
1058.0
 23
441.9999999999991
 33
0.0
 14
1066.0
 24
459.9999999999993
 34
0.0
 50
90.0
100
AcDbRotatedDimension
  0
LINE
  5
9940
330
1E
100
AcDbEntity
  8
0
  6
HIDDEN
 62
     7
100
AcDbLine
 10
978.0
 20
-0.1984904920009285
 30
0.0
 11
1078.0
 21
-0.1984904920009285
 31
0.0
  0
LINE
  5
9943
330
1E
100
AcDbEntity
  8
0
  6
Continuous
 62
     7
100
AcDbLine
 10
1131.0
 20
-0.0000000000006821
 30
0.0
 11
931.0
 21
-0.0000000000006821
 31
0.0
  0
DIMENSION
  5
9944
330
1E
100
AcDbEntity
  8
30
100
AcDbDimension
  2
*D8
 10
1350.0
 20
-0.0000000000007413
 30
0.0
 11
1350.0
 21
244.9999999999992
 31
0.0
 70
   160
 71
     5
 42
490.0000000000002
  3
Standard
100
AcDbAlignedDimension
 13
981.0
 23
489.9999999999995
 33
0.0
 14
1141.0
 24
-0.0000000000006821
 34
0.0
 50
90.0
100
AcDbRotatedDimension
  0
DIMENSION
  5
9949
330
1E
100
AcDbEntity
  8
30
100
AcDbDimension
  2
*D9
 10
768.4562246197717
 20
32.99999999999911
 30
0.0
 11
768.456224619772
 21
185.6084298369993
 31
0.0
 70
   160
 71
     5
 42
329.0
  3
Standard
100
AcDbAlignedDimension
 13
847.0
 23
361.9999999999992
 33
0.0
 14
864.0
 24
32.99999999999907
 34
0.0
 50
90.0
100
AcDbRotatedDimension
  0
MTEXT
  5
994B
330
1E
100
AcDbEntity
  8
19
100
AcDbMText
 10
679.4985689320979
 20
88.80105345631273
 30
0.0
 40
20.0
 41
0.0
 71
     1
 72
     5
  1
AIR GAP DISTANCE (min)
 11
0.0000000000000001
 21
1.0
 31
0.0
 73
     1
 44
1.0
1001
ACAD
1000
MTEXTBEGIN
1070
    73
1070
     1
1070
    44
1040
1.0
1070
    74
1070
     0
1000
MTEXTEND
  0
DIMENSION
  5
994C
330
1E
100
AcDbEntity
  8
30
100
AcDbDimension
  2
*D10
 10
726.0960629859137
 20
-0.0000000000006269
 30
0.0
 11
726.0960629859137
 21
274.9999999999995
 31
0.0
 70
   160
  1
<> 
 71
     5
 42
550.0
  3
Standard
100
AcDbAlignedDimension
 13
961.0
 23
549.9999999999994
 33
0.0
 14
921.0
 24
-0.0000000000006821
 34
0.0
 50
270.0
100
AcDbRotatedDimension
  0
MTEXT
  5
994D
330
1E
100
AcDbEntity
  8
19
100
AcDbMText
 10
603.9608824052933
 20
94.77104985784423
 30
0.0
 40
20.0
 41
0.0
 71
     1
 72
     5
  1
500(INSULATION)\P550(METAL)
 11
0.0000000000000001
 21
1.0
 31
0.0
 73
     1
 44
1.0
1001
ACAD
1000
MTEXTBEGIN
1070
    73
1070
     1
1070
    44
1040
1.0
1070
    74
1070
     0
1000
MTEXTEND
  0
LEADER
  5
994E
330
1E
100
AcDbEntity
  8
19
100
AcDbLeader
  3
Standard
 76
     3
 10
859.0
 20
-31.05850214500061
 30
0.0
 10
754.4140945230001
 20
-128.2004556370007
 30
0.0
 10
650.1733821489997
 20
-128.2004556370007
 30
0.0
  0
MTEXT
  5
994F
330
1E
100
AcDbEntity
  8
19
100
AcDbMText
 10
650.2184051379997
 20
-95.82817192033663
 30
0.0
 40
20.0
 41
0.0
 71
     1
 72
     5
  1
PANEL
 73
     1
 44
1.0
1001
ACAD
1000
MTEXTBEGIN
1070
    73
1070
     1
1070
    44
1040
1.0
1070
    74
1070
     0
1000
MTEXTEND
  0
DIMENSION
  5
9950
330
1E
100
AcDbEntity
  8
30
100
AcDbDimension
  2
*D11
 10
768.4562246197717
 20
-0.0000000000006389
 30
0.0
 11
768.456224619772
 21
17.24416644114533
 31
0.0
 70
   160
 71
     5
 42
32.99999999999974
  3
Standard
100
AcDbAlignedDimension
 13
864.0
 23
32.99999999999907
 33
0.0
 14
921.0
 24
-0.0000000000006821
 34
0.0
 50
90.0
100
AcDbRotatedDimension
  0
LINE
  5
995F
330
1E
100
AcDbEntity
  8
12
100
AcDbLine
 10
941.0
 20
-19.12765978700053
 30
0.0
 11
941.0
 21
23.19999999999912
 31
0.0
  0
DIMENSION
  5
997D
330
1E
100
AcDbEntity
  8
30
100
AcDbDimension
  2
*D12
 10
859.0
 20
595.433569358104
 30
0.0
 11
955.02872842019
 21
594.433569358104
 31
0.0
 70
   160
 71
     5
 42
199.0
  3
Standard
100
AcDbAlignedDimension
 13
1058.0
 23
441.9999999999991
 33
0.0
 14
859.0
 24
471.9999999999991
 34
0.0
100
AcDbRotatedDimension
  0
DIMENSION
  5
9991
330
1E
100
AcDbEntity
  8
30
100
AcDbDimension
  2
*D13
 10
1321.0
 20
-0.0000000000007331
 30
0.0
 11
1321.0
 21
229.9999999999992
 31
0.0
 70
   160
 71
     5
 42
460.0
  3
Standard
100
AcDbAlignedDimension
 13
1066.0
 23
459.9999999999993
 33
0.0
 14
1141.0
 24
-0.0000000000006821
 34
0.0
 50
90.0
100
AcDbRotatedDimension
  0
DIMENSION
  5
9997
330
1E
100
AcDbEntity
  8
30
100
AcDbDimension
  2
*D14
 10
1248.104021733264
 20
-0.0000000000007059
 30
0.0
 11
1247.104021733264
 21
17.82298464493396
 31
0.0
 70
   160
 71
     5
 42
34.99999999999998
  3
Standard
100
AcDbAlignedDimension
 13
1126.0
 23
34.99999999999931
 33
0.0
 14
1164.0
 24
-0.0000000000006821
 34
0.0
 50
90.0
100
AcDbRotatedDimension
  0
LINE
  5
999D
330
1E
100
AcDbEntity
  8
0
  6
Continuous
 62
     7
100
AcDbLine
 10
1106.0
 20
-38.39230421200068
 30
0.0
 11
1106.0
 21
-56.48283355100057
 31
0.0
  0
LINE
  5
99A2
330
1E
100
AcDbEntity
  8
12
100
AcDbLine
 10
1106.0
 20
-20.00000000000067
 30
0.0
 11
1106.0
 21
23.19999999999912
 31
0.0
  0
CIRCLE
  5
99AB
330
1E
100
AcDbEntity
  8
0
  6
Continuous
 62
     7
100
AcDbCircle
 10
1126.0
 20
34.99999999999931
 30
0.0
 40
4.0
  0
TEXT
  5
A1B6
330
1E
100
AcDbEntity
  8
19
100
AcDbText
 10
1991.356813493693
 20
576.68948231774
 30
0.0
 40
20.0
  1
C
 41
0.75
100
AcDbText
  0
TEXT
  5
A1B7
330
1E
100
AcDbEntity
  8
19
100
AcDbText
 10
2002.772380920899
 20
590.4457115220695
 30
0.0
 40
20.0
  1
P
 41
0.75
100
AcDbText
  0
LWPOLYLINE
  5
A1EE
330
1E
100
AcDbEntity
  8
18
100
AcDbPolyline
 90
        4
 70
     1
 43
0.0
 10
1126.0
 20
549.9999999999994
 10
1126.0
 20
559.9999999999994
 10
961.0
 20
559.9999999999994
 10
961.0
 20
549.9999999999994
  0
LWPOLYLINE
  5
A1F2
330
1E
100
AcDbEntity
  8
11
  6
DASHDOT
100
AcDbPolyline
 90
        4
 70
     0
 43
0.0
 10
859.0
 20
471.9999999999991
 10
859.0
 20
371.9999999999992
 10
869.0
 20
371.9999999999992
 10
869.0
 20
471.9999999999991
  0
LWPOLYLINE
  5
A1F5
330
1E
100
AcDbEntity
  8
11
  6
DASHDOT
100
AcDbPolyline
 90
        4
 70
     0
 43
0.0
 10
859.0
 20
-77.00000000000091
 10
859.0
 20
22.99999999999907
 10
869.0
 20
22.99999999999907
 10
869.0
 20
-77.00000000000091
  0
LEADER
  5
A208
330
1E
100
AcDbEntity
  8
30
100
AcDbLeader
  3
Standard
 76
     3
 10
1064.917608011749
 20
449.3309305438542
 30
0.0
 10
1164.189270386118
 20
626.999076699356
 30
0.0
 10
1330.743981529215
 20
626.999076699356
 30
0.0
1001
ACAD
1000
DSTYLE
1002
{
1070
   147
1040
3.0
1070
    77
1070
     0
1002
}
  0
MTEXT
  5
A209
330
1E
100
AcDbEntity
  8
30
100
AcDbMText
 10
1205.165410556401
 20
650.3713834008241
 30
0.0
 40
20.0
 41
0.0
 71
     1
 72
     5
  1
2-%%C20
  7
SLDTEXTSTYLE1
 73
     1
 44
1.0
1001
ACAD
1000
MTEXTBEGIN
1070
    73
1070
     1
1070
    44
1040
1.0
1070
    74
1070
     0
1000
MTEXTEND
  0
LWPOLYLINE
  5
A2C5
330
1E
100
AcDbEntity
  8
10
100
AcDbPolyline
 90
        6
 70
     0
 43
0.0
 10
859.0
 20
229.9999999999992
 10
842.0
 20
229.9999999999992
 10
842.0
 20
256.9999999999992
 10
849.0
 20
258.9999999999992
 10
849.0
 20
278.9999999999992
 10
859.0
 20
278.9999999999992
  0
LWPOLYLINE
  5
A2C6
330
1E
100
AcDbEntity
  8
10
100
AcDbPolyline
 90
        9
 70
     0
 43
0.0
 10
921.0
 20
29.9999999999993
 10
902.0
 20
29.9999999999993
 10
902.0
 20
32.99999999999907
 10
864.0
 20
32.99999999999907
 10
859.0
 20
32.99999999999907
 10
859.0
 20
320.9999999999991
 10
847.0
 20
355.9999999999992
 10
847.0
 20
361.9999999999992
 10
902.0
 20
361.9999999999992
  0
LWPOLYLINE
  5
A2C8
330
1E
100
AcDbEntity
  8
10
100
AcDbPolyline
 90
        5
 70
     0
 43
0.0
 10
864.0
 20
32.99999999999907
 10
864.0
 20
38.99999999999931
 10
902.0
 20
38.99999999999931
 10
902.0
 20
418.4999999999991
 10
916.0
 20
418.4999999999991
  0
LWPOLYLINE
  5
A2CC
330
1E
100
AcDbEntity
  8
10
100
AcDbPolyline
 90
        4
 70
     0
 43
0.0
 10
859.0
 20
133.7431201279991
 10
850.0
 20
133.7431201279991
 10
850.0
 20
130.7431201279991
 10
859.0
 20
130.7431201279991
  0
LWPOLYLINE
  5
A2D8
330
1E
100
AcDbEntity
  8
10
100
AcDbPolyline
 90
        2
 70
     0
 43
0.0
 10
902.0
 20
38.99999999999931
 10
921.0
 20
38.99999999999931
  0
LWPOLYLINE
  5
A2D9
330
1E
100
AcDbEntity
  8
10
100
AcDbPolyline
 90
       20
 70
     0
 43
0.0
 10
1126.0
 20
136.824372459999
 10
1126.0
 20
332.8578643769992
 42
0.1989123673821482
 10
1123.071067811797
 20
339.9289321889326
 10
1071.0
 20
391.9999999999991
 10
1071.0
 20
449.9999999999992
 42
0.5239433179324801
 10
1066.0
 20
459.9999999999993
 10
926.0
 20
459.9999999999993
 42
0.4142135623730951
 10
916.0
 20
449.9999999999992
 10
915.9999999999996
 20
161.4142135629992
 42
0.1989123673520185
 10
916.2928932187382
 20
160.7071067818879
 10
921.0
 20
155.999999999999
 10
921.0
 20
136.824372459999
 10
921.0
 20
132.7015038679991
 10
921.0
 20
130.1572629199992
 10
921.0
 20
129.1756275409989
 10
921.0
 20
6.199999999999133
 10
921.0
 20
3.199999999999133
 10
931.0
 20
3.199999999999133
 10
1131.0
 20
3.199999999999133
 10
1141.0
 20
3.199999999999133
  0
LWPOLYLINE
  5
A2E9
330
1E
100
AcDbEntity
  8
10
100
AcDbPolyline
 90
        8
 70
     0
 43
0.0
 10
1141.0
 20
3.199999999999133
 10
1141.0
 20
105.8578643769988
 42
0.198912367390427
 10
1138.071067811572
 20
112.9289321891572
 10
1126.0
 20
124.9999999999992
 10
1126.0
 20
129.1756275409989
 10
1126.0
 20
130.1572629199992
 10
1126.0
 20
132.7015038679991
 10
1126.0
 20
136.824372459999
  0
LWPOLYLINE
  5
A2FA
330
1E
100
AcDbEntity
  8
10
100
AcDbPolyline
 90
        2
 70
     0
 43
0.0
 10
1135.999997897
 20
117.5500011849989
 10
1133.449997897
 20
117.5500011849989
  0
LWPOLYLINE
  5
A302
330
1E
100
AcDbEntity
  8
12
  6
DASHDOT
100
AcDbPolyline
 90
        8
 70
     1
 43
0.0
 10
965.0
 20
-39.4647103790005
 10
965.0
 20
-50.19849049200093
 10
971.0
 20
-50.19849049200093
 10
971.0
 20
-39.4647103790005
 10
971.0
 20
-0.1984904920009285
 10
921.0
 20
-0.0000000000006821
 10
921.0
 20
-6.198490492000927
 10
965.0
 20
-6.198490492000927
  0
LWPOLYLINE
  5
A308
330
1E
100
AcDbEntity
  8
12
  6
DASHDOT
100
AcDbPolyline
 90
        8
 70
     1
 43
0.0
 10
1086.0
 20
-39.4647103790005
 10
1086.0
 20
-50.19849049200093
 10
1080.0
 20
-50.19849049200093
 10
1080.0
 20
-39.4647103790005
 10
1080.0
 20
-0.1984904920009285
 10
1130.0
 20
-0.0000000000006821
 10
1130.0
 20
-6.198490492000927
 10
1086.0
 20
-6.198490492000927
  0
LWPOLYLINE
  5
A51C
330
1E
100
AcDbEntity
  8
10
100
AcDbPolyline
 90
        6
 70
   128
 43
0.0
 10
920.9999999999991
 20
3.199999999998908
 10
920.9999999999991
 20
0.0
 10
930.9999999999991
 20
0.0
 10
1130.999999999998
 20
0.0
 10
1140.999999999998
 20
0.0
 10
1140.999999999998
 20
3.199999999998908
  0
LWPOLYLINE
  5
A532
330
1E
100
AcDbEntity
  8
34
100
AcDbPolyline
 90
        4
 70
     0
 43
0.0
 10
981.0
 20
489.9999999999995
 10
874.0
 20
489.9999999999995
 10
874.0
 20
428.9999999999991
 10
888.4999999999999
 20
428.9999999999991
  0
LWPOLYLINE
  5
A559
330
1E
100
AcDbEntity
  8
18
100
AcDbPolyline
 90
        4
 70
     0
 43
0.0
 10
1078.0
 20
-0.1984904920009285
 10
1078.0
 20
-112.2872557790006
 10
978.0
 20
-112.2872557790006
 10
978.0
 20
-0.1984904920009285
  0
TEXT
  5
A580
330
1E
100
AcDbEntity
  8
19
100
AcDbText
 10
-0.8055864487669166
 20
674.9071811729574
 30
0.0
 40
20.0
  1
P
 41
0.75
100
AcDbText
  0
TEXT
  5
A581
330
1E
100
AcDbEntity
  8
19
100
AcDbText
 10
-12.22115387597205
 20
661.1509519686278
 30
0.0
 40
20.0
  1
C
 41
0.75
100
AcDbText
  0
LWPOLYLINE
  5
A5B7
330
1E
100
AcDbEntity
  8
16
100
AcDbPolyline
 90
        2
 70
     0
 43
0.0
 10
0.000000000000199
 20
910.4944792356036
 10
0.000000000000199
 20
1400.0
  0
LWPOLYLINE
  5
A5CD
330
1E
100
AcDbEntity
  8
10
100
AcDbPolyline
 90
        4
 70
     1
 43
0.0
 10
-158.5
 20
1277.0
 10
244.9999999999999
 20
1277.0
 10
244.9999999999999
 20
1000.0
 10
-158.5
 20
1000.0
  0
DIMENSION
  5
ABF4
330
1E
100
AcDbEntity
  8
30
100
AcDbDimension
  2
*D15
 10
2000.0
 20
561.2650820209998
 30
0.0
 11
1957.499999999999
 21
561.2650820209998
 31
0.0
 70
   160
 71
     5
 42
85.0
  3
Standard
100
AcDbAlignedDimension
 13
1915.0
 23
518.997400984
 33
0.0
 14
2000.0
 24
518.6787719999998
 34
0.0
100
AcDbRotatedDimension
  0
DIMENSION
  5
AC6E
330
1E
100
AcDbEntity
  8
30
100
AcDbDimension
  2
*D16
 10
2085.0
 20
561.2650820209998
 30
0.0
 11
2042.499999999999
 21
561.2650820209998
 31
0.0
 70
   160
 71
     5
 42
85.0
  3
Standard
100
AcDbAlignedDimension
 13
2000.0
 23
518.6787719999998
 33
0.0
 14
2085.0
 24
518.997400984
 34
0.0
100
AcDbRotatedDimension
  0
DIMENSION
  5
B28F
330
1E
100
AcDbEntity
  8
30
100
AcDbDimension
  2
*D17
 10
1290.252270915998
 20
-0.0000000000007244
 30
0.0
 11
1290.252270916
 21
75.92028629099947
 31
0.0
 70
   160
 71
     5
 42
137.9999999999998
  3
Standard
100
AcDbAlignedDimension
 13
1224.0
 23
137.9999999999991
 33
0.0
 14
1141.0
 24
-0.0000000000006821
 34
0.0
 50
90.0
100
AcDbRotatedDimension
  0
DIMENSION
  5
B290
330
1E
100
AcDbEntity
  8
30
100
AcDbDimension
  2
*D18
 10
1290.252270915998
 20
137.9999999999991
 30
0.0
 11
1290.252270916
 21
220.580800145999
 31
0.0
 70
   160
 71
     5
 42
174.0000000000001
  3
Standard
100
AcDbAlignedDimension
 13
1234.0
 23
311.9999999999992
 33
0.0
 14
1224.0
 24
137.9999999999991
 34
0.0
 50
90.0
100
AcDbRotatedDimension
  0
DIMENSION
  5
B3E2
330
1E
100
AcDbEntity
  8
30
100
AcDbDimension
  2
*D20
 10
-74.2135001019997
 20
1422.824129261998
 30
0.0
 11
-85.96231508199961
 21
1422.824129261998
 31
0.0
 70
   160
 71
     5
 42
24.99999999999998
  3
Standard
100
AcDbAlignedDimension
 13
-99.21350010199969
 23
1350.0
 33
0.0
 14
-74.2135001019997
 24
1350.0
 34
0.0
 50
180.0
100
AcDbRotatedDimension
  0
DIMENSION
  5
B3E4
330
1E
100
AcDbEntity
  8
30
100
AcDbDimension
  2
*D21
 10
-59.00000000000002
 20
1462.901372868
 30
0.0
 11
-83.98359291099952
 21
1462.901372868
 31
0.0
 70
   160
 71
     5
 42
51.99999999999986
  3
Standard
100
AcDbAlignedDimension
 13
-110.9999999999998
 23
1365.0
 33
0.0
 14
-59.00000000000003
 24
1365.0
 34
0.0
 50
180.0
100
AcDbRotatedDimension
  0
DIMENSION
  5
B3E5
330
1E
100
AcDbEntity
  8
30
100
AcDbDimension
  2
*D22
 10
-158.0474159479999
 20
1365.0
 30
0.0
 11
-158.0474159479999
 21
1357.318341476
 31
0.0
 70
   160
 71
     5
 42
15.0
  3
Standard
100
AcDbAlignedDimension
 13
-99.21350010199969
 23
1350.0
 33
0.0
 14
-110.9999999999998
 24
1365.0
 34
0.0
 50
90.0
100
AcDbRotatedDimension
  0
DIMENSION
  5
B3E6
330
1E
100
AcDbEntity
  8
30
100
AcDbDimension
  2
*D23
 10
-209.2814536159993
 20
1365.0
 30
0.0
 11
-209.2814536159993
 21
1347.5
 31
0.0
 70
   160
  1
<>*
 71
     5
 42
35.0
  3
Standard
100
AcDbAlignedDimension
 13
-101.1477709159994
 23
1330.0
 33
0.0
 14
-110.9999999999998
 24
1365.0
 34
0.0
 50
90.0
100
AcDbRotatedDimension
  0
LWPOLYLINE
  5
B3E7
330
1E
100
AcDbEntity
  8
27
100
AcDbPolyline
 90
        4
 70
   128
 43
0.0
 10
-26.00000000000003
 20
1277.0
 10
-26.00000000000003
 20
1365.0
 10
26.00000000000042
 20
1365.0
 10
26.00000000000042
 20
1277.0
  0
LWPOLYLINE
  5
B3E8
330
1E
100
AcDbEntity
  8
27
100
AcDbPolyline
 90
        4
 70
   128
 43
0.0
 10
-110.9999999999998
 20
1277.0
 10
-110.9999999999998
 20
1365.0
 10
-59.00000000000003
 20
1365.0
 10
-59.00000000000003
 20
1277.0
  0
CIRCLE
  5
B3E9
330
1E
100
AcDbEntity
  8
27
100
AcDbCircle
 10
-72.49999999999956
 20
1350.0
 30
0.0
 40
5.5
  0
CIRCLE
  5
B3EA
330
1E
100
AcDbEntity
  8
27
100
AcDbCircle
 10
-97.49999999999957
 20
1350.0
 30
0.0
 40
5.5
  0
CIRCLE
  5
B3EB
330
1E
100
AcDbEntity
  8
27
100
AcDbCircle
 10
-12.49999999999957
 20
1350.0
 30
0.0
 40
5.5
  0
LWPOLYLINE
  5
B3EC
330
1E
100
AcDbEntity
  8
27
100
AcDbPolyline
 90
        4
 70
   128
 43
0.0
 10
59.00000000000042
 20
1277.0
 10
59.00000000000042
 20
1365.0
 10
111.0000000000004
 20
1365.0
 10
111.0000000000004
 20
1277.0
  0
CIRCLE
  5
B3ED
330
1E
100
AcDbEntity
  8
27
100
AcDbCircle
 10
12.50000000000041
 20
1350.0
 30
0.0
 40
5.5
  0
CIRCLE
  5
B3EE
330
1E
100
AcDbEntity
  8
27
100
AcDbCircle
 10
72.50000000000042
 20
1350.0
 30
0.0
 40
5.5
  0
CIRCLE
  5
B3EF
330
1E
100
AcDbEntity
  8
27
100
AcDbCircle
 10
97.50000000000042
 20
1350.0
 30
0.0
 40
5.5
  0
MTEXT
  5
B3F0
330
1E
100
AcDbEntity
  8
30
100
AcDbMText
 10
172.4181207419999
 20
1423.571013654
 30
0.0
 40
20.0
 41
0.0
 71
     1
 72
     5
  1
2-%%C11
  7
SLDTEXTSTYLE1
 73
     1
 44
1.0
1001
ACAD
1000
MTEXTBEGIN
1070
    73
1070
     1
1070
    44
1040
1.0
1070
    74
1070
     0
1000
MTEXTEND
  0
LEADER
  5
B441
330
1E
100
AcDbEntity
  8
30
100
AcDbLeader
  3
Standard
 76
     3
 10
102.6827667340369
 20
1351.84090439202
 30
0.0
 10
156.0
 20
1400.0
 30
0.0
 10
242.0
 20
1400.0
 30
0.0
1001
ACAD
1000
DSTYLE
1002
{
1070
   147
1040
3.0
1070
    77
1070
     0
1002
}
  0
DIMENSION
  5
B467
330
1E
100
AcDbEntity
  8
30
100
AcDbDimension
  2
*D24
 10
1224.0
 20
46.80150950799905
 30
0.0
 11
1175.0
 21
54.80150950799906
 31
0.0
 70
    32
 71
     5
 42
98.0
  3
Standard
100
AcDbAlignedDimension
 13
1126.0
 23
34.99999999999931
 33
0.0
 14
1224.0
 24
127.999999265999
 34
0.0
100
AcDbRotatedDimension
  0
XLINE
  5
B531
330
1E
100
AcDbEntity
  8
30
100
AcDbXline
 10
-23.0
 20
-950.0
 30
0.0
 11
1.0
 21
0.0
 31
0.0
  0
LWPOLYLINE
  5
B532
330
1E
100
AcDbEntity
  8
10
100
AcDbPolyline
 90
       25
 70
   128
 43
0.0
 10
-138.000000195
 20
286.299996715
 10
-138.0
 20
129.1756275409998
 10
-138.0
 20
6.200000000000042
 42
-0.4142135623730951
 10
-144.2000000000001
 20
0.0000000000001137
 10
-170.0
 20
0.0
 10
-180.0
 20
0.0
 10
-180.0
 20
3.200000000000044
 10
-170.0
 20
3.200000000000044
 10
-144.2000000000001
 20
3.200000000000044
 42
0.4142135623730951
 10
-141.1999999999999
 20
6.200000000000042
 10
-141.1999999999999
 20
129.1756275409998
 42
0.3590488101077241
 10
-142.0092331720916
 20
130.1572629200334
 10
-155.1012206772094
 20
132.7015038680591
 42
-0.3590487989075565
 10
-158.4999999999999
 20
136.8243722933196
 10
-158.5000007609998
 20
156.0000001299999
 10
-155.2999987469999
 20
156.0000001299999
 10
-155.3
 20
160.7071067820001
 10
-155.3
 20
161.414213563
 10
-155.3
 20
450.0000000000001
 10
-155.3
 20
460.0000000000001
 10
-158.5
 20
460.0000000000001
 10
-158.5
 20
450.0000000000001
 10
-158.5
 20
161.414213563
 10
-158.5
 20
160.7071067820001
 10
-158.5000007609998
 20
156.0000001299999
  0
LWPOLYLINE
  5
B533
330
1E
100
AcDbEntity
  8
10
100
AcDbPolyline
 90
       25
 70
   128
 43
0.0
 10
222.9999900599999
 20
286.299996715
 10
223.0
 20
129.1756275409998
 10
223.0
 20
6.200000000000042
 42
0.414213562373098
 10
229.1999999999999
 20
0.0000000000001137
 10
255.0
 20
0.0
 10
265.0
 20
0.0
 10
265.0
 20
3.200000000000044
 10
255.0
 20
3.200000000000044
 10
229.1999999999999
 20
3.200000000000044
 42
-0.4142135623730951
 10
226.2
 20
6.200000000000042
 10
226.2
 20
129.1756275409998
 42
-0.3590488101117551
 10
227.0092331721059
 20
130.1572629200359
 10
240.1012206771506
 20
132.7015038680477
 42
0.3590488932546812
 10
243.4999999999998
 20
136.8243736972894
 10
243.4999943509998
 20
156.0000001299999
 10
243.5
 20
160.7071067820001
 10
243.5
 20
161.414213563
 10
243.5
 20
450.0000000000001
 10
243.5
 20
460.0000000000001
 10
240.2999999999999
 20
460.0000000000001
 10
240.2999999999999
 20
450.0000000000001
 10
240.2999999999999
 20
161.414213563
 10
240.2999999999999
 20
160.7071067820001
 10
240.299999787
 20
156.0000001299999
 10
243.4999943509998
 20
156.0000001299999
  0
DIMENSION
  5
B535
330
1E
100
AcDbEntity
  8
30
100
AcDbDimension
  2
*D25
 10
117.9999999999997
 20
-50.43418283799997
 30
0.0
 11
0.9795717110000907
 21
-50.43418283799997
 31
0.0
 70
   160
 71
     5
 42
237.9999999999995
  3
Standard
100
AcDbAlignedDimension
 13
-119.9999999999999
 23
32.99999999999978
 33
0.0
 14
117.9999999999997
 24
32.99999999999978
 34
0.0
100
AcDbRotatedDimension
  0
DIMENSION
  5
B536
330
1E
100
AcDbEntity
  8
30
100
AcDbDimension
  2
*D26
 10
-174.9999999999999
 20
595.8015095079997
 30
0.0
 11
-86.01458980000025
 21
595.8015095079997
 31
0.0
 70
   160
 71
     5
 42
174.9999999999999
  3
Standard
100
AcDbAlignedDimension
 13
0.0000000000000645
 23
563.2000000000003
 33
0.0
 14
-174.9999999999999
 24
563.2000000000001
 34
0.0
100
AcDbRotatedDimension
  0
LWPOLYLINE
  5
B537
330
1E
100
AcDbEntity
  8
10
100
AcDbPolyline
 90
        4
 70
   129
 43
0.0
 10
215.999990775
 20
12.60000531000014
 10
-131.0000009100002
 20
12.60000531000014
 10
-131.0000009100002
 20
10.60000125700024
 10
215.999990775
 20
10.60000125700024
  0
DIMENSION
  5
B538
330
1E
100
AcDbEntity
  8
30
100
AcDbDimension
  2
*D27
 10
-179.9999999999999
 20
-100.734736882
 30
0.0
 11
-86.01458980000026
 21
-100.734736882
 31
0.0
 70
   160
 71
     5
 42
179.9999999999999
  3
Standard
100
AcDbAlignedDimension
 13
0.0000000000000284
 23
-57.33361189100015
 33
0.0
 14
-179.9999999999999
 24
0.0
 34
0.0
100
AcDbRotatedDimension
  0
LWPOLYLINE
  5
B539
330
1E
100
AcDbEntity
  8
10
100
AcDbPolyline
 90
        9
 70
   128
 43
0.0
 10
-122.500000448
 20
9.00000397500014
 10
-122.500000448
 20
10.60000125700024
 10
-136.3999991879998
 20
10.60000125700024
 10
-136.3999991879998
 20
18.00000731300007
 10
-138.000000195
 20
18.00000731300007
 10
-138.000000195
 20
9.00000397500014
 10
-122.500000448
 20
9.00000397500014
 10
-119.499999957
 20
9.00000397500014
 10
-119.499999957
 20
10.60000125700024
  0
LWPOLYLINE
  5
B53A
330
1E
100
AcDbEntity
  8
10
100
AcDbPolyline
 90
        5
 70
   128
 43
0.0
 10
-138.000000195
 20
20.99999849100026
 10
-136.3999991879998
 20
20.99999849100026
 10
-128.000000419
 20
20.99999849100026
 10
-128.000000419
 20
13.09999887300023
 10
-136.3999991879998
 20
13.09999887300023
  0
LWPOLYLINE
  5
B53B
330
1E
100
AcDbEntity
  8
10
100
AcDbPolyline
 90
        3
 70
   128
 43
0.0
 10
-133.9999995389999
 20
10.60000125700024
 10
-133.9999995389999
 20
12.60000531000014
 10
-131.0000009100002
 20
12.60000531000014
  0
LWPOLYLINE
  5
B53C
330
1E
100
AcDbEntity
  8
10
100
AcDbPolyline
 90
        2
 70
   128
 43
0.0
 10
-136.3999991879998
 20
20.99999849100026
 10
-136.3999991879998
 20
18.00000731300007
  0
LWPOLYLINE
  5
B53D
330
1E
100
AcDbEntity
  8
10
100
AcDbPolyline
 90
        4
 70
   128
 43
0.0
 10
-129.100000413
 20
9.00000397500014
 10
-129.0999999999999
 20
7.499999999999999
 10
-123.9
 20
7.499999999999999
 10
-123.8999999329998
 20
9.00000397500014
  0
LWPOLYLINE
  5
B53E
330
1E
100
AcDbEntity
  8
10
100
AcDbPolyline
 90
       11
 70
   128
 43
0.0
 10
221.3999927779999
 20
18.00000731300007
 10
222.9999900599999
 20
18.00000731300007
 10
222.9999900599999
 20
9.00000397500014
 10
207.5000108019998
 20
9.00000397500014
 10
207.5000108019998
 20
10.60000125700024
 10
221.3999927779999
 20
10.60000125700024
 10
221.3999927779999
 20
18.00000731300007
 10
221.3999927779999
 20
20.99999849100026
 10
212.9999995959999
 20
20.99999849100026
 10
212.9999995959999
 20
13.09999887300023
 10
221.3999927779999
 20
13.09999887300023
  0
DIMENSION
  5
B53F
330
1E
100
AcDbEntity
  8
30
100
AcDbDimension
  2
*D28
 10
265.0
 20
-99.91357221899988
 30
0.0
 11
136.5210339739998
 21
-99.91357221899988
 31
0.0
 70
   160
 71
     5
 42
265.0
  3
Standard
100
AcDbAlignedDimension
 13
0.0000000000000284
 23
-57.33361189100015
 33
0.0
 14
265.0
 24
0.0
 34
0.0
100
AcDbRotatedDimension
  0
LWPOLYLINE
  5
B541
330
1E
100
AcDbEntity
  8
10
100
AcDbPolyline
 90
        3
 70
   128
 43
0.0
 10
207.5000108019998
 20
9.00000397500014
 10
204.4999898209999
 20
9.00000397500014
 10
204.4999898209999
 20
10.60000125700024
  0
LWPOLYLINE
  5
B542
330
1E
100
AcDbEntity
  8
10
100
AcDbPolyline
 90
        4
 70
   128
 43
0.0
 10
208.9000046979999
 20
9.00000397500014
 10
208.8999999999999
 20
7.499999999999999
 10
214.1
 20
7.499999999999999
 10
214.1000033159999
 20
9.00000397500014
  0
LWPOLYLINE
  5
B543
330
1E
100
AcDbEntity
  8
10
100
AcDbPolyline
 90
        3
 70
   128
 43
0.0
 10
219.0000117559998
 20
10.60000125700024
 10
219.0000117559998
 20
12.60000531000014
 10
215.999990775
 20
12.60000531000014
  0
LWPOLYLINE
  5
B544
330
1E
100
AcDbEntity
  8
10
100
AcDbPolyline
 90
        2
 70
   128
 43
0.0
 10
221.3999927779999
 20
20.99999849100026
 10
222.9999900599999
 20
20.99999849100026
  0
LWPOLYLINE
  5
B545
330
1E
100
AcDbEntity
  8
10
100
AcDbPolyline
 90
        8
 70
   128
 43
0.0
 10
118.0000007879999
 20
33.99999503400022
 10
214.5000100869998
 20
33.99999503400022
 10
214.5000100869998
 20
379.5000023059998
 10
128.999993278
 20
379.5000023059998
 10
128.999993278
 20
418.5000068360002
 10
-131.0000009100002
 20
418.5000068360002
 10
-131.0000009100002
 20
39.00000516700016
 10
-120.0000000389999
 20
39.00000516700016
  0
LWPOLYLINE
  5
B546
330
1E
100
AcDbEntity
  8
10
100
AcDbPolyline
 90
        5
 70
   128
 43
0.0
 10
118.0000007879999
 20
356.0000068360003
 10
118.0000007879999
 20
362.0000040939998
 10
-120.0000000389999
 20
362.0000040939998
 10
-120.0000000389999
 20
356.0000068360003
 10
-120.0000000389999
 20
321.000002962
  0
LWPOLYLINE
  5
B547
330
1E
100
AcDbEntity
  8
10
100
AcDbPolyline
 90
       13
 70
   128
 43
0.0
 10
118.0000007879999
 20
321.000002962
 10
114.9999947089998
 20
321.000002962
 10
114.9999947089998
 20
356.0000068360003
 10
118.0000007879999
 20
356.0000068360003
 10
118.0000007879999
 20
321.000002962
 10
118.0000007879999
 20
32.99999300799981
 10
-120.0000000389999
 20
32.99999300799981
 10
-120.0000000389999
 20
321.000002962
 10
-117.0000000129998
 20
321.000002962
 10
-117.0000000129998
 20
356.0000068360003
 10
-117.0000000129998
 20
358.9999980140001
 10
114.9999947089998
 20
358.9999980140001
 10
114.9999947089998
 20
356.0000068360003
  0
LWPOLYLINE
  5
B548
330
1E
100
AcDbEntity
  8
10
100
AcDbPolyline
 90
        4
 70
   129
 43
0.0
 10
234.8000109929996
 20
422.1999949629998
 10
234.8000109929996
 20
424.5000040939998
 10
-149.799998777
 20
424.5000040939998
 10
-149.799998777
 20
422.1999949629998
  0
LWPOLYLINE
  5
B549
330
1E
100
AcDbEntity
  8
10
100
AcDbPolyline
 90
        2
 70
   128
 43
0.0
 10
-155.3
 20
455.0000000000001
 10
240.2999999999999
 20
455.0000000000001
  0
LWPOLYLINE
  5
B54A
330
1E
100
AcDbEntity
  8
34
100
AcDbPolyline
 90
        4
 70
   128
 43
0.0
 10
-158.5
 20
460.0000000000001
 10
-158.5
 20
490.0000000000002
 10
243.5
 20
490.0000000000002
 10
243.5
 20
460.0000000000001
  0
LWPOLYLINE
  5
B54B
330
1E
100
AcDbEntity
  8
10
100
AcDbPolyline
 90
        4
 70
   128
 43
0.0
 10
-94.33333382200004
 20
32.99999300799981
 10
-90.99999994200004
 20
30.00000182900021
 10
89.00000162299987
 20
30.00000182900021
 10
92.33333177699988
 20
32.99999300799981
  0
LWPOLYLINE
  5
B54C
330
1E
100
AcDbEntity
  8
10
100
AcDbPolyline
 90
        4
 70
   129
 43
0.0
 10
-45.00000171500004
 20
328.9999968219998
 10
-115.00000015
 20
328.9999968219998
 10
-115.00000015
 20
138.9999992070002
 10
-45.00000171500004
 20
138.9999992070002
  0
LWPOLYLINE
  5
B54D
330
1E
100
AcDbEntity
  8
10
100
AcDbPolyline
 90
        4
 70
   129
 43
0.0
 10
-67.49999888399996
 20
350.9999967030001
 10
-97.5000000760002
 20
350.9999967030001
 10
-97.5000000760002
 20
341.0000062399999
 10
-67.49999888399996
 20
341.0000062399999
  0
LINE
  5
B54E
330
1E
100
AcDbEntity
  8
18
100
AcDbLine
 10
-175.0
 20
553.2000000000001
 30
0.0
 11
260.0
 21
553.2000000000001
 31
0.0
  0
LINE
  5
B54F
330
1E
100
AcDbEntity
  8
18
100
AcDbLine
 10
-175.0
 20
563.2000000000003
 30
0.0
 11
260.0
 21
563.2000000000003
 31
0.0
  0
LWPOLYLINE
  5
B550
330
1E
100
AcDbEntity
  8
10
100
AcDbPolyline
 90
        5
 70
   128
 43
0.0
 10
-138.0
 20
129.1756275409998
 42
0.3590488100909824
 10
-141.3987793225413
 20
133.2984961328925
 10
-154.4907668279095
 20
135.8427370809669
 42
-0.3590488285491303
 10
-155.3
 20
136.8243725253433
 10
-155.2999987469999
 20
156.0000001299999
  0
LWPOLYLINE
  5
B551
330
1E
100
AcDbEntity
  8
10
100
AcDbPolyline
 90
        3
 70
   128
 43
0.0
 10
-131.0000009100002
 20
68.00000433300009
 10
-132.9999891674947
 20
68.00000000001159
 42
-0.4142141969267084
 10
-138.0
 20
72.9999999999999
  0
LWPOLYLINE
  5
B552
330
1E
100
AcDbEntity
  8
10
100
AcDbPolyline
 90
        6
 70
   128
 43
0.0
 10
-138.000000195
 20
100.9999967029999
 10
-137.7000000000001
 20
100.9999999999999
 10
-137.7000000000001
 20
101.9999999999999
 10
-137.7000000000001
 20
124.9999999999999
 10
-137.7000000000001
 20
125.9999999999999
 10
-138.000000195
 20
126.0000026639999
  0
LWPOLYLINE
  5
B553
330
1E
100
AcDbEntity
  8
10
100
AcDbPolyline
 90
        2
 70
   128
 43
0.0
 10
-131.000000000001
 20
187.487468592765
 42
0.3015113445775663
 10
-131.000000000001
 20
182.5125314072348
  0
LWPOLYLINE
  5
B554
330
1E
100
AcDbEntity
  8
10
100
AcDbPolyline
 90
        6
 70
   128
 43
0.0
 10
-138.000000195
 20
324.6999985390001
 10
-138.0
 20
379.0000000107736
 42
-0.4142135727441417
 10
-134.9999998829995
 20
381.9999999999998
 10
-132.9999993759999
 20
381.9999999219998
 10
-132.9999993759999
 20
378.0000067169997
 10
-131.0000009100002
 20
378.0000067169997
  0
LWPOLYLINE
  5
B555
330
1E
100
AcDbEntity
  8
10
100
AcDbPolyline
 90
        2
 70
   128
 43
0.0
 10
-138.000000195
 20
289.49999873
 10
-138.000000195
 20
321.499996524
  0
LWPOLYLINE
  5
B556
330
1E
100
AcDbEntity
  8
10
100
AcDbPolyline
 90
        8
 70
   129
 43
0.0
 10
-133.5
 20
321.5000000000001
 10
-136.7000000000001
 20
321.5000000000001
 10
-136.7000000000001
 20
318.5000000000001
 10
-136.7000000000001
 20
292.5000000000001
 10
-136.7000000000001
 20
289.5000000000001
 10
-133.5
 20
289.5000000000001
 10
-133.5
 20
292.5000000000001
 10
-133.5
 20
318.5000000000001
  0
LWPOLYLINE
  5
B557
330
1E
100
AcDbEntity
  8
10
100
AcDbPolyline
 90
        6
 70
   128
 43
0.0
 10
-133.4999999999999
 20
289.5000000000001
 42
-0.4142134998955482
 10
-136.6999993174027
 20
286.3000000000003
 10
-152.1000004570001
 20
286.299996715
 10
-152.0999999999999
 20
272.5
 10
-152.0999999999999
 20
269.5
 10
-155.2999987469999
 20
269.499999177
  0
LWPOLYLINE
  5
B558
330
1E
100
AcDbEntity
  8
10
100
AcDbPolyline
 90
        2
 70
   128
 43
0.0
 10
-131.000000000001
 20
267.4874685927653
 42
0.3015113445775663
 10
-131.000000000001
 20
262.512531407235
  0
LWPOLYLINE
  5
B559
330
1E
100
AcDbEntity
  8
10
100
AcDbPolyline
 90
        3
 70
   128
 43
0.0
 10
-155.3
 20
286.3000000000003
 42
-0.4142135623730946
 10
-152.0999999999999
 20
289.5000000000001
 10
-136.7000000000001
 20
289.5000000000001
  0
LWPOLYLINE
  5
B55A
330
1E
100
AcDbEntity
  8
10
100
AcDbPolyline
 90
        2
 70
   128
 43
0.0
 10
-155.2999987469999
 20
308.5199675370001
 10
-138.000000195
 20
308.5199675370001
  0
LWPOLYLINE
  5
B55B
330
1E
100
AcDbEntity
  8
10
100
AcDbPolyline
 90
        4
 70
   128
 43
0.0
 10
-158.5000007609998
 20
326.4999992070003
 10
-159.6
 20
326.5000000000001
 10
-159.6
 20
306.5000000000001
 10
-158.5000007609998
 20
306.5000033789999
  0
LWPOLYLINE
  5
B55C
330
1E
100
AcDbEntity
  8
10
100
AcDbPolyline
 90
        4
 70
   128
 43
0.0
 10
-155.2949323520001
 20
324.5199701600002
 10
-155.294931807834
 20
324.5199701600002
 42
0.3978213496080842
 10
-152.0999999999999
 20
321.5000000000001
 10
-136.7000000000001
 20
321.5000000000001
  0
LWPOLYLINE
  5
B55D
330
1E
100
AcDbEntity
  8
10
100
AcDbPolyline
 90
        6
 70
   128
 43
0.0
 10
-133.4999999999999
 20
321.5000000000001
 42
0.4142135901599144
 10
-136.7000003035844
 20
324.6999999999998
 10
-152.1000004570001
 20
324.6999985390001
 10
-152.0999999999999
 20
338.5000000000001
 10
-152.0999999999999
 20
341.5000000000001
 10
-155.2999987469999
 20
341.4999998030001
  0
LWPOLYLINE
  5
B55E
330
1E
100
AcDbEntity
  8
10
100
AcDbPolyline
 90
       10
 70
   128
 43
0.0
 10
-131.0000009100002
 20
386.5000015910002
 10
-138.7999999999999
 20
386.4999999999998
 10
-138.7999999999999
 20
389.8000000000001
 10
-138.800000699
 20
390.0000012329998
 10
-151.0000000000002
 20
390.0000000000002
 10
-153.0
 20
390.0000000000002
 10
-153.0000007910001
 20
393.0000073129996
 10
-153.0000007910001
 20
434.0000009950001
 10
-153.0000007910001
 20
437.0000070739997
 10
-155.2999987469999
 20
437.0000070739997
  0
LWPOLYLINE
  5
B55F
330
1E
100
AcDbEntity
  8
10
100
AcDbPolyline
 90
        2
 70
   128
 43
0.0
 10
-153.0
 20
390.0000000000002
 10
-155.2999987469999
 20
390.0000012329998
  0
LWPOLYLINE
  5
B560
330
1E
100
AcDbEntity
  8
10
100
AcDbPolyline
 90
        2
 70
   128
 43
0.0
 10
-153.0000007910001
 20
393.0000073129996
 10
-155.2999987469999
 20
393.0000073129996
  0
LWPOLYLINE
  5
B561
330
1E
100
AcDbEntity
  8
10
100
AcDbPolyline
 90
        2
 70
   128
 43
0.0
 10
-120.0000000389999
 20
356.0000068360003
 10
-117.0000000129998
 20
356.0000068360003
  0
LWPOLYLINE
  5
B562
330
1E
100
AcDbEntity
  8
10
100
AcDbPolyline
 90
        4
 70
   128
 43
0.0
 10
-153.0
 20
421.0000000000001
 10
-151.0000000000002
 20
421.0000000000001
 10
-149.799998777
 20
421.000004452
 10
-149.799998777
 20
422.1999949629998
  0
LWPOLYLINE
  5
B563
330
1E
100
AcDbEntity
  8
10
100
AcDbPolyline
 90
        2
 70
   128
 43
0.0
 10
-153.0000007910001
 20
434.0000009950001
 10
-155.2999987469999
 20
434.0000009950001
  0
LWPOLYLINE
  5
B564
330
1E
100
AcDbEntity
  8
10
100
AcDbPolyline
 90
        2
 70
   128
 43
0.0
 10
-114.3500000899999
 20
422.1999949629998
 10
-114.3500000899999
 20
418.5000068360002
  0
LWPOLYLINE
  5
B565
330
1E
100
AcDbEntity
  8
10
100
AcDbPolyline
 90
        2
 70
   128
 43
0.0
 10
-109.250000023
 20
418.5000068360002
 10
-109.250000023
 20
422.1999949629998
  0
LINE
  5
B566
330
1E
100
AcDbEntity
  8
18
100
AcDbLine
 10
-175.0
 20
563.2000000000003
 30
0.0
 11
-175.0
 21
553.2000000000001
 31
0.0
  0
LWPOLYLINE
  5
B567
330
1E
100
AcDbEntity
  8
10
100
AcDbPolyline
 90
       12
 70
   128
 43
0.0
 10
222.9999900599999
 20
324.6999985390001
 10
223.0
 20
378.9999994508288
 42
0.4142136274121236
 10
219.9999998829996
 20
381.9999999999998
 10
217.9999948279998
 20
381.9999999219998
 10
217.9999948279998
 20
378.0000067169997
 10
215.0000036489998
 20
378.0000067169997
 10
214.9999999999966
 20
380.0000036490122
 42
0.4142130299320661
 10
212.9999999867234
 20
382.0000000000002
 10
201.24998696
 20
381.9999999219998
 10
138.7500018610001
 20
381.9999999219998
 10
129.9999953049996
 20
381.9999999219998
 10
129.9999953049996
 20
379.5000023059998
  0
LWPOLYLINE
  5
B568
330
1E
100
AcDbEntity
  8
10
100
AcDbPolyline
 90
        3
 70
   128
 43
0.0
 10
214.5000100869998
 20
68.00000433300009
 10
217.999993809982
 20
68.00000000000375
 42
0.4142139249760063
 10
223.0
 20
72.9999999999999
  0
LWPOLYLINE
  5
B569
330
1E
100
AcDbEntity
  8
10
100
AcDbPolyline
 90
       10
 70
   128
 43
0.0
 10
218.0000000000001
 20
289.5000000000001
 42
0.4142134998955953
 10
221.1999993174031
 20
286.3000000000003
 10
236.6000116599999
 20
286.299996715
 10
236.5999999999999
 20
272.5
 10
236.5999999999999
 20
269.5
 10
239.8
 20
269.5
 10
239.8
 20
272.5
 10
239.7999999999999
 20
286.3000000000003
 42
0.4142135623730903
 10
236.6
 20
289.5000000000001
 10
221.1999999999999
 20
289.5000000000001
  0
LWPOLYLINE
  5
B56A
330
1E
100
AcDbEntity
  8
10
100
AcDbPolyline
 90
       10
 70
   128
 43
0.0
 10
221.1999999999999
 20
321.5000000000001
 10
236.6
 20
321.5000000000001
 42
0.4142135623730903
 10
239.7999999999999
 20
324.7000000000002
 10
239.8
 20
338.5000000000001
 10
239.8
 20
341.5000000000001
 10
236.5999999999999
 20
341.5000000000001
 10
236.5999999999999
 20
338.5000000000001
 10
236.6000116599999
 20
324.6999985390001
 10
221.2000003035841
 20
324.6999999999998
 42
0.4142135901598962
 10
218.0000000000001
 20
321.5000000000001
  0
LWPOLYLINE
  5
B56B
330
1E
100
AcDbEntity
  8
10
100
AcDbPolyline
 90
        8
 70
   129
 43
0.0
 10
221.1999999999999
 20
318.5000000000001
 10
221.1999999999999
 20
292.5000000000001
 10
221.1999999999999
 20
289.5000000000001
 10
218.0000000000001
 20
289.5000000000001
 10
218.0000000000001
 20
292.5000000000001
 10
218.0000000000001
 20
318.5000000000001
 10
218.0000000000001
 20
321.5000000000001
 10
221.1999999999999
 20
321.5000000000001
  0
LWPOLYLINE
  5
B56C
330
1E
100
AcDbEntity
  8
10
100
AcDbPolyline
 90
       10
 70
   128
 43
0.0
 10
240.299999787
 20
437.0000070739997
 10
238.0000055569999
 20
437.0000070739997
 10
238.0000055569999
 20
434.0000009950001
 10
238.0000055569999
 20
393.0000073129996
 10
238.0
 20
390.0000000000002
 10
236.0000000000002
 20
390.0000000000002
 10
223.8000036019995
 20
390.0000012329998
 10
223.7999999999999
 20
389.8000000000001
 10
223.7999999999999
 20
386.4999999999998
 10
128.999993278
 20
386.5000015910002
  0
LWPOLYLINE
  5
B56D
330
1E
100
AcDbEntity
  8
10
100
AcDbPolyline
 90
        2
 70
   128
 43
0.0
 10
175.2999999999999
 20
435.0000000000001
 10
225.2999999999999
 20
435.0000000000001
  0
LWPOLYLINE
  5
B56E
330
1E
100
AcDbEntity
  8
10
100
AcDbPolyline
 90
        2
 70
   128
 43
0.0
 10
175.2999999999999
 20
445.0000000000001
 10
225.2999999999999
 20
445.0000000000001
  0
LWPOLYLINE
  5
B56F
330
1E
100
AcDbEntity
  8
10
100
AcDbPolyline
 90
        4
 70
   129
 43
0.0
 10
87.999999596
 20
344.9999994450001
 10
87.999999596
 20
69.99999348400002
 10
113.0000055569999
 20
69.99999348400002
 10
113.0000055569999
 20
344.9999994450001
  0
LWPOLYLINE
  5
B570
330
1E
100
AcDbEntity
  8
10
100
AcDbPolyline
 90
        4
 70
   129
 43
0.0
 10
63.99999566199994
 20
64.99999825300005
 10
-65.99999956900006
 20
64.99999825300005
 10
-65.99999956900006
 20
34.99999706100004
 10
63.99999566199994
 20
34.99999706100004
  0
CIRCLE
  5
B571
330
1E
100
AcDbEntity
  8
10
100
AcDbCircle
 10
-66.00000000000021
 20
103.4999999999999
 30
0.0
 40
21.0
  0
LWPOLYLINE
  5
B572
330
1E
100
AcDbEntity
  8
10
100
AcDbPolyline
 90
        3
 70
   128
 43
0.0
 10
90.11110670699993
 20
31.00000385600003
 10
116.2499935169998
 20
31.00000385600003
 10
116.2499935169998
 20
32.99999300799981
  0
LWPOLYLINE
  5
B573
330
1E
100
AcDbEntity
  8
10
100
AcDbPolyline
 90
        4
 70
   128
 43
0.0
 10
116.2499935169998
 20
31.00000385600003
 10
117.4999938304319
 20
31.00000000000942
 42
0.4142155267512652
 10
119.4999999999869
 20
33.0000072440357
 10
119.4999963779998
 20
33.99999503400022
  0
LWPOLYLINE
  5
B574
330
1E
100
AcDbEntity
  8
10
100
AcDbPolyline
 90
        2
 70
   128
 43
0.0
 10
214.5000000000002
 20
181.1028856829698
 42
0.5773502691896255
 10
214.5000000000002
 20
188.8971143170299
  0
LWPOLYLINE
  5
B575
330
1E
100
AcDbEntity
  8
10
100
AcDbPolyline
 90
        4
 70
   129
 43
0.0
 10
70.99999494699972
 20
265.9999995340001
 10
45.0000018610001
 20
265.9999995340001
 10
45.0000018610001
 20
240.9999991619999
 10
70.99999494699972
 20
240.9999991619999
  0
LWPOLYLINE
  5
B576
330
1E
100
AcDbEntity
  8
10
100
AcDbPolyline
 90
        4
 70
   129
 43
0.0
 10
70.99999494699972
 20
300.9999996829999
 10
45.0000018610001
 20
300.9999996829999
 10
45.0000018610001
 20
285.9999990869999
 10
70.99999494699972
 20
285.9999990869999
  0
LWPOLYLINE
  5
B577
330
1E
100
AcDbEntity
  8
10
100
AcDbPolyline
 90
        4
 70
   129
 43
0.0
 10
-1.000001953000263
 20
300.9999996829999
 10
-1.000001953000263
 20
285.9999990869999
 10
25.00000603399997
 20
285.9999990869999
 10
25.00000603399997
 20
300.9999996829999
  0
LWPOLYLINE
  5
B578
330
1E
100
AcDbEntity
  8
10
100
AcDbPolyline
 90
        4
 70
   129
 43
0.0
 10
-1.000001953000263
 20
240.9999991619999
 10
25.00000603399997
 20
240.9999991619999
 10
25.00000603399997
 20
265.9999995340001
 10
-1.000001953000263
 20
265.9999995340001
  0
LWPOLYLINE
  5
B579
330
1E
100
AcDbEntity
  8
10
100
AcDbPolyline
 90
        3
 70
   128
 43
0.0
 10
-88.25000000000017
 20
430.473281713
 10
-88.25000000000017
 20
435.0000000000001
 10
21.74999999999982
 20
435.0000000000001
  0
LWPOLYLINE
  5
B57A
330
1E
100
AcDbEntity
  8
10
100
AcDbPolyline
 90
        2
 70
   128
 43
0.0
 10
-88.25000000000017
 20
445.0000000000001
 10
21.74999999999982
 20
445.0000000000001
  0
LWPOLYLINE
  5
B57B
330
1E
100
AcDbEntity
  8
10
100
AcDbPolyline
 90
        2
 70
   128
 43
0.0
 10
-88.25000000000017
 20
455.0000000000001
 10
-88.25000000000017
 20
424.5000000000001
  0
LWPOLYLINE
  5
B57C
330
1E
100
AcDbEntity
  8
10
100
AcDbPolyline
 90
        2
 70
   128
 43
0.0
 10
-76.99999951000023
 20
422.1999949629998
 10
-76.99999951000023
 20
418.5000068360002
  0
LWPOLYLINE
  5
B57D
330
1E
100
AcDbEntity
  8
10
100
AcDbPolyline
 90
        2
 70
   128
 43
0.0
 10
21.74999999999982
 20
455.0000000000001
 10
21.74999999999982
 20
424.5000000000001
  0
LWPOLYLINE
  5
B57E
330
1E
100
AcDbEntity
  8
10
100
AcDbPolyline
 90
        2
 70
   128
 43
0.0
 10
10.49999899999986
 20
418.5000068360002
 10
10.49999899999986
 20
422.1999949629998
  0
LWPOLYLINE
  5
B57F
330
1E
100
AcDbEntity
  8
10
100
AcDbPolyline
 90
        2
 70
   128
 43
0.0
 10
214.5000000000002
 20
261.1028856829704
 42
0.5773502691896255
 10
214.5000000000002
 20
268.8971143170301
  0
LWPOLYLINE
  5
B580
330
1E
100
AcDbEntity
  8
10
100
AcDbPolyline
 90
        2
 70
   128
 43
0.0
 10
138.7500018610001
 20
381.9999999219998
 10
138.7500018610001
 20
379.5000023059998
  0
LWPOLYLINE
  5
B581
330
1E
100
AcDbEntity
  8
10
100
AcDbPolyline
 90
        2
 70
   128
 43
0.0
 10
201.24998696
 20
379.5000023059998
 10
201.24998696
 20
381.9999999219998
  0
LWPOLYLINE
  5
B582
330
1E
100
AcDbEntity
  8
10
100
AcDbPolyline
 90
        2
 70
   128
 43
0.0
 10
175.2999999999999
 20
455.0000000000001
 10
175.2999999999999
 20
424.5000000000001
  0
LWPOLYLINE
  5
B583
330
1E
100
AcDbEntity
  8
10
100
AcDbPolyline
 90
        5
 70
   128
 43
0.0
 10
240.299999787
 20
156.0000001299999
 10
240.3
 20
136.8243724711079
 42
-0.3590488132423017
 10
239.4907668279095
 20
135.8427370809669
 10
226.3987793224822
 20
133.2984961328808
 42
0.3590488100869422
 10
223.0
 20
129.1756275409998
  0
LWPOLYLINE
  5
B584
330
1E
100
AcDbEntity
  8
10
100
AcDbPolyline
 90
        5
 70
   128
 43
0.0
 10
222.9999900599999
 20
40.99999431899993
 10
221.0000000000002
 20
40.99999999999996
 10
221.0000000000002
 20
35.0
 10
221.0000000000002
 20
29.00000000000011
 10
222.9999900599999
 20
28.99999980300015
  0
LWPOLYLINE
  5
B585
330
1E
100
AcDbEntity
  8
10
100
AcDbPolyline
 90
        6
 70
   128
 43
0.0
 10
222.9999900599999
 20
100.9999967029999
 10
222.6999999999999
 20
100.9999999999999
 10
222.6999999999999
 20
101.9999999999999
 10
222.6999999999999
 20
124.9999999999999
 10
222.6999999999999
 20
125.9999999999999
 10
222.9999900599999
 20
126.0000026639999
  0
LWPOLYLINE
  5
B586
330
1E
100
AcDbEntity
  8
10
100
AcDbPolyline
 90
        2
 70
   128
 43
0.0
 10
222.9999900599999
 20
321.499996524
 10
222.9999900599999
 20
289.49999873
  0
LWPOLYLINE
  5
B587
330
1E
100
AcDbEntity
  8
10
100
AcDbPolyline
 90
        2
 70
   128
 43
0.0
 10
222.9999900599999
 20
308.5199675370001
 10
240.299999787
 20
308.5199675370001
  0
LWPOLYLINE
  5
B588
330
1E
100
AcDbEntity
  8
10
100
AcDbPolyline
 90
        2
 70
   128
 43
0.0
 10
240.299999787
 20
324.5199701600002
 10
239.7949398299999
 20
324.5199701600002
  0
LWPOLYLINE
  5
B589
330
1E
100
AcDbEntity
  8
10
100
AcDbPolyline
 90
        2
 70
   128
 43
0.0
 10
240.299999787
 20
390.0000012329998
 10
238.0
 20
390.0000000000002
  0
LWPOLYLINE
  5
B58A
330
1E
100
AcDbEntity
  8
10
100
AcDbPolyline
 90
        2
 70
   128
 43
0.0
 10
238.0000055569999
 20
393.0000073129996
 10
240.299999787
 20
393.0000073129996
  0
LWPOLYLINE
  5
B58B
330
1E
100
AcDbEntity
  8
10
100
AcDbPolyline
 90
        2
 70
   128
 43
0.0
 10
225.2999999999999
 20
455.0000000000001
 10
225.2999999999999
 20
424.5000000000001
  0
LWPOLYLINE
  5
B58C
330
1E
100
AcDbEntity
  8
10
100
AcDbPolyline
 90
        4
 70
   128
 43
0.0
 10
234.8000109929996
 20
422.1999949629998
 10
234.8000109929996
 20
421.000004452
 10
236.0000000000002
 20
421.0000000000001
 10
238.0
 20
421.0000000000001
  0
LWPOLYLINE
  5
B58D
330
1E
100
AcDbEntity
  8
10
100
AcDbPolyline
 90
        2
 70
   128
 43
0.0
 10
240.299999787
 20
434.0000009950001
 10
238.0000055569999
 20
434.0000009950001
  0
DIMENSION
  5
B58E
330
1E
100
AcDbEntity
  8
30
100
AcDbDimension
  2
*D29
 10
260.0
 20
595.8015095079997
 30
0.0
 11
130.0
 21
594.8015095079997
 31
0.0
 70
   160
 71
     5
 42
260.0
  3
Standard
100
AcDbAlignedDimension
 13
0.0000000000000284
 23
590.0385861509995
 33
0.0
 14
260.0
 24
563.2000000000001
 34
0.0
100
AcDbRotatedDimension
  0
LINE
  5
B591
330
1E
100
AcDbEntity
  8
18
100
AcDbLine
 10
260.0
 20
563.2000000000003
 30
0.0
 11
260.0
 21
553.2000000000001
 31
0.0
  0
LWPOLYLINE
  5
B6BF
330
1E
100
AcDbEntity
  8
16
100
AcDbPolyline
 90
        2
 70
     0
 43
0.0
 10
0.000000000000199
 20
-32.19849049200002
 10
0.000000000000199
 20
649.8015095079997
  0
MTEXT
  5
B6C6
330
1E
100
AcDbEntity
  8
19
100
AcDbMText
 10
-1114.32873818
 20
-231.4711700350003
 30
0.0
 40
20.0
 41
0.0
 71
     1
 72
     5
  1
PANEL CUTOUT
 73
     1
 44
1.0
1001
ACAD
1000
MTEXTBEGIN
1070
    73
1070
     1
1070
    44
1040
1.0
1070
    74
1070
     0
1000
MTEXTEND
  0
LEADER
  5
B6CB
330
1E
100
AcDbEntity
  8
19
100
AcDbLeader
  3
Standard
 74
     0
 76
     3
 10
-1128.880913773
 20
547.9391534589995
 30
0.0
 10
-1176.682251760998
 20
657.9143388149997
 30
0.0
 10
-762.880913773
 20
658.9391534589995
 30
0.0
  0
MTEXT
  5
B6CC
330
1E
100
AcDbEntity
  8
19
100
AcDbMText
 10
-1171.634200468
 20
687.9000191939995
 30
0.0
 40
20.0
 41
0.0
 71
     1
 72
     5
  1
MAINTENANCE SPACE(min)
 73
     1
 44
1.0
1001
ACAD
1000
MTEXTBEGIN
1070
    73
1070
     1
1070
    44
1040
1.0
1070
    74
1070
     0
1000
MTEXTEND
  0
LINE
  5
B6D5
330
1E
100
AcDbEntity
  8
16
100
AcDbLine
 10
-1000.0
 20
1000.0
 30
0.0
 11
-1000.0
 21
1343.000122
 31
0.0
  0
DIMENSION
  5
B837
330
1E
100
AcDbEntity
  8
30
100
AcDbDimension
  2
*D34
 10
-776.493442411
 20
-0.0000000000000279
 30
0.0
 11
-776.493442411
 21
-24.79563015500014
 31
0.0
 70
   160
 71
     5
 42
29.99999999999987
  3
Standard
100
AcDbAlignedDimension
 13
-875.0
 23
29.99999999999987
 33
0.0
 14
-875.0
 24
0.0
 34
0.0
 50
90.0
100
AcDbRotatedDimension
  0
DIMENSION
  5
B838
330
1E
100
AcDbEntity
  8
30
100
AcDbDimension
  2
*D35
 10
-875.0
 20
-68.34452665800006
 30
0.0
 11
-996.0432078769999
 21
-68.34452665800006
 31
0.0
 70
   160
 71
     5
 42
250.0
  3
Standard
100
AcDbAlignedDimension
 13
-1125.0
 23
29.99999999999987
 33
0.0
 14
-875.0
 24
29.99999999999987
 34
0.0
100
AcDbRotatedDimension
  0
DIMENSION
  5
B839
330
1E
100
AcDbEntity
  8
30
100
AcDbDimension
  2
*D36
 10
-587.6109068119999
 20
549.9999999999996
 30
0.0
 11
-587.6109068119999
 21
265.9598367739998
 31
0.0
 70
   160
 71
     5
 42
549.9999999999999
  3
Standard
100
AcDbAlignedDimension
 13
-711.8355980780002
 23
-0.0000000000001137
 33
0.0
 14
-675.0
 24
549.9999999999996
 34
0.0
 50
90.0
100
AcDbRotatedDimension
  0
DIMENSION
  5
B83B
330
1E
100
AcDbEntity
  8
30
100
AcDbDimension
  2
*D37
 10
-675.0
 20
-183.8987974260001
 30
0.0
 11
-842.7943398449999
 21
-183.8987974260001
 31
0.0
 70
   160
 71
     5
 42
325.0
  3
Standard
100
AcDbAlignedDimension
 13
-1000.0
 23
-77.8840870380003
 33
0.0
 14
-675.0
 24
-100.0000000000001
 34
0.0
100
AcDbRotatedDimension
  0
DIMENSION
  5
B83C
330
1E
100
AcDbEntity
  8
30
100
AcDbDimension
  2
*D38
 10
-1240.0
 20
-183.8987974260001
 30
0.0
 11
-1120.40545096
 21
-183.8987974260001
 31
0.0
 70
   160
 71
     5
 42
240.0
  3
Standard
100
AcDbAlignedDimension
 13
-1000.0
 23
-77.8840870380003
 33
0.0
 14
-1240.0
 24
-100.0000000000001
 34
0.0
100
AcDbRotatedDimension
  0
DIMENSION
  5
B845
330
1E
100
AcDbEntity
  8
30
100
AcDbDimension
  2
*D39
 10
-776.493442411
 20
29.99999999999984
 30
0.0
 11
-776.493442411
 21
211.8006790989999
 31
0.0
 70
   160
 71
     5
 42
334.9999999999996
  3
Standard
100
AcDbAlignedDimension
 13
-875.0
 23
364.9999999999995
 33
0.0
 14
-875.0
 24
29.99999999999987
 34
0.0
 50
90.0
100
AcDbRotatedDimension
  0
LWPOLYLINE
  5
B912
330
1E
100
AcDbEntity
  8
11
100
AcDbPolyline
 90
        4
 70
     1
 43
0.0
 10
-875.0
 20
364.9999999999997
 10
-1125.0
 20
364.9999999999997
 10
-1125.0
 20
30.00000000000005
 10
-875.0
 20
30.00000000000005
  0
LWPOLYLINE
  5
B916
330
1E
100
AcDbEntity
  8
18
100
AcDbPolyline
 90
        4
 70
     1
 43
0.0
 10
-1240.0
 20
-99.99999999999994
 10
-1240.0
 20
549.9999999999999
 10
-675.0
 20
549.9999999999999
 10
-675.0
 20
-99.99999999999994
  0
DIMENSION
  5
BB44
330
1E
100
AcDbEntity
  8
30
100
AcDbDimension
  2
*D40
 10
1915.0
 20
561.2650820209998
 30
0.0
 11
1872.5
 21
561.2650820209998
 31
0.0
 70
   160
 71
     5
 42
85.0
  3
Standard
100
AcDbAlignedDimension
 13
1830.0
 23
513.0
 33
0.0
 14
1915.0
 24
518.9974009839999
 34
0.0
100
AcDbRotatedDimension
  0
CIRCLE
  5
BC34
330
1E
100
AcDbEntity
  8
27
100
AcDbCircle
 10
182.5
 20
1350.0
 30
0.0
 40
5.5
  0
CIRCLE
  5
BC35
330
1E
100
AcDbEntity
  8
27
100
AcDbCircle
 10
157.5
 20
1350.0
 30
0.0
 40
5.5
  0
LWPOLYLINE
  5
BC9A
330
1E
100
AcDbEntity
  8
27
100
AcDbPolyline
 90
        4
 70
     0
 43
0.0
 10
144.0
 20
1277.0
 10
144.0
 20
1365.0
 10
196.0
 20
1365.0
 10
196.0
 20
1277.0
  0
MTEXT
  5
BCA8
330
1E
100
AcDbEntity
  8
19
100
AcDbMText
 10
1648.447411273792
 20
1407.746749896173
 30
0.0
 40
25.0
 41
0.0
 71
     1
 72
     5
  1
AR216S AR220S 4P\PAR212H AR216H 4P\PAR220H 4P
 73
     1
 44
1.0
1001
ACAD
1000
MTEXTBEGIN
1070
    73
1070
     1
1070
    44
1040
1.0
1070
    74
1070
     0
1000
MTEXTEND
  0
LINE
  5
BD1F
330
1E
100
AcDbEntity
  8
10
100
AcDbLine
 10
1179.999997658
 20
151.2000008339988
 30
0.0
 11
1176.999999029
 21
151.2000008339988
 31
0.0
  0
LINE
  5
BD20
330
1E
100
AcDbEntity
  8
10
100
AcDbLine
 10
1176.999999029
 20
298.7999996949993
 30
0.0
 11
1179.999997658
 21
298.7999996949993
 31
0.0
  0
LINE
  5
BD21
330
1E
100
AcDbEntity
  8
10
100
AcDbLine
 10
1155.2
 20
127.9999999999988
 30
0.0
 11
1179.999997658
 21
127.999999265999
 31
0.0
  0
LINE
  5
BD22
330
1E
100
AcDbEntity
  8
10
100
AcDbLine
 10
1155.2
 20
124.799999999999
 30
0.0
 11
1179.999997658
 21
124.7999972519989
 31
0.0
  0
LINE
  5
BD23
330
1E
100
AcDbEntity
  8
10
100
AcDbLine
 10
1179.999997658
 20
325.199999551999
 30
0.0
 11
1155.2
 21
325.1999999999991
 31
0.0
  0
LINE
  5
BD24
330
1E
100
AcDbEntity
  8
10
100
AcDbLine
 10
1155.2
 20
321.9999999999992
 30
0.0
 11
1179.999997658
 21
321.9999975379991
 31
0.0
  0
LINE
  5
BD29
330
1E
100
AcDbEntity
  8
10
100
AcDbLine
 10
1149.000001889999
 20
265.000001232999
 30
0.0
 11
1149.000001889999
 21
184.9999992959989
 31
0.0
  0
LINE
  5
BD2A
330
1E
100
AcDbEntity
  8
10
100
AcDbLine
 10
1135.999997897
 20
378.0000067169988
 30
0.0
 11
1135.999997897
 21
117.5500011849989
 31
0.0
  0
LINE
  5
BD2D
330
1E
100
AcDbEntity
  8
10
100
AcDbLine
 10
1149.999996466
 20
69.99999348399903
 30
0.0
 11
1150.0
 21
122.7999999999989
 31
0.0
  0
LINE
  5
BD2E
330
1E
100
AcDbEntity
  8
10
100
AcDbLine
 10
1153.199998480999
 20
69.99999348399903
 30
0.0
 11
1153.199999999998
 21
122.7999999999989
 31
0.0
  0
LINE
  5
BD2F
330
1E
100
AcDbEntity
  8
10
100
AcDbLine
 10
1149.999996466
 20
69.99999348399903
 30
0.0
 11
1153.199998480999
 21
69.99999348399903
 31
0.0
  0
LINE
  5
BD30
330
1E
100
AcDbEntity
  8
10
100
AcDbLine
 10
1141.000000578999
 20
71.50000397499916
 30
0.0
 11
1149.999996466
 21
71.50000397499916
 31
0.0
  0
ARC
  5
BD37
330
1E
100
AcDbEntity
  8
10
100
AcDbCircle
 10
1155.2
 20
122.7999999999989
 30
0.0
 40
5.2
100
AcDbArc
 50
90.0
 51
180.0
  0
ARC
  5
BD38
330
1E
100
AcDbEntity
  8
10
100
AcDbCircle
 10
1155.2
 20
122.7999999999989
 30
0.0
 40
2.0
100
AcDbArc
 50
90.0
 51
180.0
  0
ARC
  5
BD39
330
1E
100
AcDbEntity
  8
10
100
AcDbCircle
 10
1155.2
 20
127.799999999999
 30
0.0
 40
5.2
100
AcDbArc
 50
177.7957724960015
 51
180.0
  0
LINE
  5
BD3A
330
1E
100
AcDbEntity
  8
10
100
AcDbLine
 10
1150.0
 20
122.7999999999989
 30
0.0
 11
1150.0
 21
127.799999999999
 31
0.0
  0
LINE
  5
BD3B
330
1E
100
AcDbEntity
  8
10
100
AcDbLine
 10
1153.199998480999
 20
127.599999945999
 30
0.0
 11
1153.199999999998
 21
127.799999999999
 31
0.0
  0
ARC
  5
BD3C
330
1E
100
AcDbEntity
  8
10
100
AcDbCircle
 10
1155.2
 20
127.799999999999
 30
0.0
 40
2.0
100
AcDbArc
 50
174.2608295226993
 51
180.0
  0
LINE
  5
BD3D
330
1E
100
AcDbEntity
  8
10
100
AcDbLine
 10
1149.999996466
 20
83.49999849099928
 30
0.0
 11
1141.000000578999
 21
83.49999849099928
 31
0.0
  0
LINE
  5
BD3E
330
1E
100
AcDbEntity
  8
10
100
AcDbLine
 10
1141.699997526999
 20
183.000000830999
 30
0.0
 11
1138.500002962999
 21
183.000000830999
 31
0.0
  0
ARC
  5
BD3F
330
1E
100
AcDbEntity
  8
10
100
AcDbCircle
 10
1143.7
 20
153.199999999999
 30
0.0
 40
5.2
100
AcDbArc
 50
180.0
 51
270.0
  0
LINE
  5
BD40
330
1E
100
AcDbEntity
  8
10
100
AcDbLine
 10
1141.699997526999
 20
177.000001709999
 30
0.0
 11
1138.500002962999
 21
177.000001709999
 31
0.0
  0
LINE
  5
BD41
330
1E
100
AcDbEntity
  8
10
100
AcDbLine
 10
1149.000001889999
 20
184.9999992959989
 30
0.0
 11
1135.999997897
 21
184.9999992959989
 31
0.0
  0
LINE
  5
BD42
330
1E
100
AcDbEntity
  8
10
100
AcDbLine
 10
1138.500002962999
 20
177.000001709999
 30
0.0
 11
1138.5
 21
153.199999999999
 31
0.0
  0
LINE
  5
BD43
330
1E
100
AcDbEntity
  8
10
100
AcDbLine
 10
1138.5
 20
153.199999999999
 30
0.0
 11
1138.5
 21
148.1999999999989
 31
0.0
  0
ARC
  5
BD44
330
1E
100
AcDbEntity
  8
10
100
AcDbCircle
 10
1143.7
 20
148.1999999999989
 30
0.0
 40
5.2
100
AcDbArc
 50
180.0
 51
182.2042275041031
  0
LINE
  5
BD46
330
1E
100
AcDbEntity
  8
10
100
AcDbLine
 10
1138.500002962999
 20
184.9999992959989
 30
0.0
 11
1138.500002962999
 21
183.000000830999
 31
0.0
  0
LINE
  5
BD47
330
1E
100
AcDbEntity
  8
10
100
AcDbLine
 10
1138.500002962999
 20
183.000000830999
 30
0.0
 11
1138.500002962999
 21
177.000001709999
 31
0.0
  0
LINE
  5
BD48
330
1E
100
AcDbEntity
  8
10
100
AcDbLine
 10
1141.699997526999
 20
183.000000830999
 30
0.0
 11
1141.699997526999
 21
177.000001709999
 31
0.0
  0
LINE
  5
BD49
330
1E
100
AcDbEntity
  8
10
100
AcDbLine
 10
1176.999999029
 20
148.000002543999
 30
0.0
 11
1143.7
 21
147.9999999999987
 31
0.0
  0
LINE
  5
BD4A
330
1E
100
AcDbEntity
  8
10
100
AcDbLine
 10
1176.999999029
 20
151.2000008339988
 30
0.0
 11
1143.7
 21
151.199999999999
 31
0.0
  0
ARC
  5
BD4B
330
1E
100
AcDbEntity
  8
10
100
AcDbCircle
 10
1143.7
 20
153.199999999999
 30
0.0
 40
2.0
100
AcDbArc
 50
180.0
 51
270.0
  0
LINE
  5
BD4C
330
1E
100
AcDbEntity
  8
10
100
AcDbLine
 10
1141.699997526999
 20
177.000001709999
 30
0.0
 11
1141.699999999999
 21
153.199999999999
 31
0.0
  0
LINE
  5
BD4D
330
1E
100
AcDbEntity
  8
10
100
AcDbLine
 10
1176.999999029
 20
151.2000008339988
 30
0.0
 11
1176.999999029
 21
148.000002543999
 31
0.0
  0
ARC
  5
BD4E
330
1E
100
AcDbEntity
  8
10
100
AcDbCircle
 10
1143.7
 20
148.1999999999989
 30
0.0
 40
2.0
100
AcDbArc
 50
180.0
 51
185.739170477399
  0
LINE
  5
BD4F
330
1E
100
AcDbEntity
  8
10
100
AcDbLine
 10
1141.699997526999
 20
148.4000018649991
 30
0.0
 11
1141.699999999999
 21
148.1999999999989
 31
0.0
  0
LINE
  5
BD50
330
1E
100
AcDbEntity
  8
10
100
AcDbLine
 10
1141.699997526999
 20
184.9999992959989
 30
0.0
 11
1141.699997526999
 21
183.000000830999
 31
0.0
  0
LINE
  5
BD51
330
1E
100
AcDbEntity
  8
10
100
AcDbLine
 10
1150.0
 20
327.1999999999991
 30
0.0
 11
1149.999996466
 21
379.999995868999
 31
0.0
  0
LINE
  5
BD52
330
1E
100
AcDbEntity
  8
10
100
AcDbLine
 10
1153.199999999998
 20
327.1999999999991
 30
0.0
 11
1153.199998480999
 21
379.999995868999
 31
0.0
  0
LINE
  5
BD54
330
1E
100
AcDbEntity
  8
10
100
AcDbLine
 10
1138.5
 20
296.7999999999991
 30
0.0
 11
1138.500002962999
 21
272.9999988189989
 31
0.0
  0
LINE
  5
BD55
330
1E
100
AcDbEntity
  8
10
100
AcDbLine
 10
1141.699999999999
 20
296.7999999999991
 30
0.0
 11
1141.699997526999
 21
272.9999988189989
 31
0.0
  0
LINE
  5
BD56
330
1E
100
AcDbEntity
  8
10
100
AcDbLine
 10
1141.699997526999
 20
267.0000015609992
 30
0.0
 11
1138.500002962999
 21
267.0000015609992
 31
0.0
  0
LINE
  5
BD57
330
1E
100
AcDbEntity
  8
10
100
AcDbLine
 10
1141.699997526999
 20
272.9999988189989
 30
0.0
 11
1138.500002962999
 21
272.9999988189989
 31
0.0
  0
LINE
  5
BD58
330
1E
100
AcDbEntity
  8
10
100
AcDbLine
 10
1149.000001889999
 20
265.000001232999
 30
0.0
 11
1135.999997897
 21
265.000001232999
 31
0.0
  0
LINE
  5
BD59
330
1E
100
AcDbEntity
  8
10
100
AcDbLine
 10
1138.500002962999
 20
267.0000015609992
 30
0.0
 11
1138.500002962999
 21
265.000001232999
 31
0.0
  0
LINE
  5
BD5A
330
1E
100
AcDbEntity
  8
10
100
AcDbLine
 10
1138.500002962999
 20
272.9999988189989
 30
0.0
 11
1138.500002962999
 21
267.0000015609992
 31
0.0
  0
LINE
  5
BD5B
330
1E
100
AcDbEntity
  8
10
100
AcDbLine
 10
1141.699997526999
 20
267.0000015609992
 30
0.0
 11
1141.699997526999
 21
265.000001232999
 31
0.0
  0
LINE
  5
BD5C
330
1E
100
AcDbEntity
  8
10
100
AcDbLine
 10
1141.699997526999
 20
272.9999988189989
 30
0.0
 11
1141.699997526999
 21
267.0000015609992
 31
0.0
  0
ARC
  5
BD5D
330
1E
100
AcDbEntity
  8
10
100
AcDbCircle
 10
1143.7
 20
296.7999999999991
 30
0.0
 40
5.2
100
AcDbArc
 50
90.0
 51
180.0
  0
ARC
  5
BD5E
330
1E
100
AcDbEntity
  8
10
100
AcDbCircle
 10
1143.7
 20
301.7999999999992
 30
0.0
 40
5.2
100
AcDbArc
 50
177.7957724958968
 51
180.0
  0
LINE
  5
BD5F
330
1E
100
AcDbEntity
  8
10
100
AcDbLine
 10
1138.5
 20
301.7999999999992
 30
0.0
 11
1138.5
 21
296.7999999999991
 31
0.0
  0
LINE
  5
BD61
330
1E
100
AcDbEntity
  8
10
100
AcDbLine
 10
1176.999999029
 20
302.000001709999
 30
0.0
 11
1143.7
 21
301.9999999999992
 31
0.0
  0
LINE
  5
BD62
330
1E
100
AcDbEntity
  8
10
100
AcDbLine
 10
1143.7
 20
298.7999999999992
 30
0.0
 11
1176.999999029
 21
298.7999996949993
 31
0.0
  0
ARC
  5
BD63
330
1E
100
AcDbEntity
  8
10
100
AcDbCircle
 10
1143.7
 20
296.7999999999991
 30
0.0
 40
2.0
100
AcDbArc
 50
90.0
 51
180.0
  0
LINE
  5
BD64
330
1E
100
AcDbEntity
  8
10
100
AcDbLine
 10
1176.999999029
 20
298.7999996949993
 30
0.0
 11
1176.999999029
 21
302.000001709999
 31
0.0
  0
ARC
  5
BD65
330
1E
100
AcDbEntity
  8
10
100
AcDbCircle
 10
1155.2
 20
327.1999999999991
 30
0.0
 40
5.2
100
AcDbArc
 50
180.0
 51
270.0
  0
ARC
  5
BD66
330
1E
100
AcDbEntity
  8
10
100
AcDbCircle
 10
1155.2
 20
327.1999999999991
 30
0.0
 40
2.0
100
AcDbArc
 50
180.0
 51
270.0
  0
LINE
  5
BD67
330
1E
100
AcDbEntity
  8
10
100
AcDbLine
 10
1141.699999999999
 20
301.7999999999992
 30
0.0
 11
1141.699997526999
 21
301.6000023889992
 31
0.0
  0
ARC
  5
BD68
330
1E
100
AcDbEntity
  8
10
100
AcDbCircle
 10
1143.7
 20
301.7999999999992
 30
0.0
 40
2.0
100
AcDbArc
 50
174.2608295226993
 51
180.0
  0
LINE
  5
BD69
330
1E
100
AcDbEntity
  8
10
100
AcDbLine
 10
1150.0
 20
322.1999999999993
 30
0.0
 11
1150.0
 21
327.1999999999991
 31
0.0
  0
ARC
  5
BD6A
330
1E
100
AcDbEntity
  8
10
100
AcDbCircle
 10
1155.2
 20
322.1999999999993
 30
0.0
 40
5.2
100
AcDbArc
 50
180.0
 51
182.2042275039984
  0
ARC
  5
BD6B
330
1E
100
AcDbEntity
  8
10
100
AcDbCircle
 10
1155.2
 20
322.1999999999993
 30
0.0
 40
2.0
100
AcDbArc
 50
180.0
 51
185.7391704773004
  0
LINE
  5
BD6C
330
1E
100
AcDbEntity
  8
10
100
AcDbLine
 10
1153.199999999998
 20
322.1999999999993
 30
0.0
 11
1153.199998480999
 21
322.399996857999
 31
0.0
  0
LINE
  5
BD6D
330
1E
100
AcDbEntity
  8
10
100
AcDbLine
 10
1136.0
 20
381.9999999999991
 30
0.0
 11
1081.000000056999
 21
381.9999999219989
 31
0.0
  0
LINE
  5
BD6E
330
1E
100
AcDbEntity
  8
10
100
AcDbLine
 10
1085.000000713
 20
378.0000067169988
 30
0.0
 11
1135.999997897
 21
378.0000067169988
 31
0.0
  0
LINE
  5
BD6F
330
1E
100
AcDbEntity
  8
10
100
AcDbLine
 10
1091.999999998
 20
381.9999999219989
 30
0.0
 11
1081.000000056999
 21
381.9999999219989
 31
0.0
  0
LINE
  5
BD70
330
1E
100
AcDbEntity
  8
10
100
AcDbLine
 10
1149.999996466
 20
378.5000002789991
 30
0.0
 11
1135.999997897
 21
378.5000002789991
 31
0.0
  0
LINE
  5
BD71
330
1E
100
AcDbEntity
  8
10
100
AcDbLine
 10
1135.999997897
 20
366.5000057629989
 30
0.0
 11
1149.999996466
 21
366.5000057629989
 31
0.0
  0
LINE
  5
BD72
330
1E
100
AcDbEntity
  8
10
100
AcDbLine
 10
1125.000001682
 20
381.9999999219989
 30
0.0
 11
1136.0
 21
381.9999999999991
 31
0.0
  0
LINE
  5
BD73
330
1E
100
AcDbEntity
  8
10
100
AcDbLine
 10
1136.0
 20
381.9999999999991
 30
0.0
 11
1136.0
 21
379.9999999999991
 31
0.0
  0
LINE
  5
BD74
330
1E
100
AcDbEntity
  8
10
100
AcDbLine
 10
1136.0
 20
379.9999999999991
 30
0.0
 11
1135.999997897
 21
378.0000067169988
 31
0.0
  0
LINE
  5
BD75
330
1E
100
AcDbEntity
  8
10
100
AcDbLine
 10
1149.999996466
 20
379.999995868999
 30
0.0
 11
1153.199998480999
 21
379.999995868999
 31
0.0
  0
LINE
  5
BD77
330
1E
100
AcDbEntity
  8
10
100
AcDbLine
 10
1179.999997658
 20
124.7999972519989
 30
0.0
 11
1179.999997658
 21
127.999999265999
 31
0.0
  0
LINE
  5
BD78
330
1E
100
AcDbEntity
  8
10
100
AcDbLine
 10
1179.999997658
 20
151.2000008339988
 30
0.0
 11
1179.999997658
 21
148.000002543999
 31
0.0
  0
DIMENSION
  5
BD79
330
1E
100
AcDbEntity
  8
30
100
AcDbDimension
  2
*D41
 10
1263.829965325999
 20
321.999999999999
 30
0.0
 11
1263.829965325999
 21
337.801509507999
 31
0.0
 70
   160
 71
     5
 42
19.99999999999988
  3
Standard
100
AcDbAlignedDimension
 13
1224.0
 23
301.9999999999992
 33
0.0
 14
1224.0
 24
321.999999999999
 34
0.0
 50
90.0
100
AcDbRotatedDimension
1001
ACAD
1000
DSTYLE
1002
{
1070
   173
1070
     1
1070
   342
1005
0
1070
   343
1005
B33A
1070
   344
1005
B33A
1002
}
  0
LINE
  5
BD7A
330
1E
100
AcDbEntity
  8
10
100
AcDbLine
 10
1179.999997658
 20
298.7999996949993
 30
0.0
 11
1179.999997658
 21
302.000001709999
 31
0.0
  0
LINE
  5
BD7B
330
1E
100
AcDbEntity
  8
10
100
AcDbLine
 10
1179.999997658
 20
325.199999551999
 30
0.0
 11
1179.999997658
 21
321.9999975379991
 31
0.0
  0
LWPOLYLINE
  5
BDA7
330
1E
100
AcDbEntity
  8
27
100
AcDbPolyline
 90
        4
 70
     0
 43
0.0
 10
1135.999997897
 20
321.9999975379991
 10
1224.000004869999
 20
321.9999975379991
 10
1224.000004869999
 20
302.000001709999
 10
1135.999997897
 20
302.000001709999
  0
LWPOLYLINE
  5
BDAA
330
1E
100
AcDbEntity
  8
27
100
AcDbPolyline
 90
        4
 70
     0
 43
0.0
 10
1135.999997897
 20
148.000002543999
 10
1224.000004869999
 20
148.000002543999
 10
1224.000004869999
 20
127.999999265999
 10
1135.999997897
 20
127.999999265999
  0
LWPOLYLINE
  5
BDD5
330
1E
100
AcDbEntity
  8
10
100
AcDbPolyline
 90
        4
 70
   129
 43
0.0
 10
2158.5
 20
459.9999999999993
 10
1755.0
 20
459.9999999999993
 10
1755.0
 20
0.0
 10
2158.5
 20
0.0
  0
LWPOLYLINE
  5
BDD6
330
1E
100
AcDbEntity
  8
27
100
AcDbPolyline
 90
        4
 70
   129
 43
0.0
 10
2111.0
 20
301.9999999999992
 10
2111.0
 20
321.9999999999992
 10
2059.0
 20
321.9999999999992
 10
2059.0
 20
301.9999999999992
  0
LWPOLYLINE
  5
BDD7
330
1E
100
AcDbEntity
  8
27
100
AcDbPolyline
 90
        4
 70
   129
 43
0.0
 10
2111.0
 20
127.999999999999
 10
2111.0
 20
147.9999999999989
 10
2059.0
 20
147.9999999999989
 10
2059.0
 20
127.999999999999
  0
LWPOLYLINE
  5
BDD8
330
1E
100
AcDbEntity
  8
27
100
AcDbPolyline
 90
        4
 70
   129
 43
0.0
 10
1941.0
 20
127.999999999999
 10
1941.0
 20
147.9999999999989
 10
1889.0
 20
147.9999999999989
 10
1889.0
 20
127.999999999999
  0
LWPOLYLINE
  5
BDD9
330
1E
100
AcDbEntity
  8
27
100
AcDbPolyline
 90
        4
 70
   129
 43
0.0
 10
1855.999999999999
 20
147.9999999999989
 10
1855.999999999999
 20
127.999999999999
 10
1804.0
 20
127.999999999999
 10
1804.0
 20
147.9999999999989
  0
LWPOLYLINE
  5
BDDA
330
1E
100
AcDbEntity
  8
27
100
AcDbPolyline
 90
        4
 70
   129
 43
0.0
 10
2026.0
 20
147.9999999999989
 10
2026.0
 20
127.999999999999
 10
1974.0
 20
127.999999999999
 10
1974.0
 20
147.9999999999989
  0
LWPOLYLINE
  5
BDDB
330
1E
100
AcDbEntity
  8
27
100
AcDbPolyline
 90
        4
 70
   129
 43
0.0
 10
1941.0
 20
301.9999999999992
 10
1941.0
 20
321.9999999999992
 10
1889.0
 20
321.9999999999992
 10
1889.0
 20
301.9999999999992
  0
LWPOLYLINE
  5
BDDC
330
1E
100
AcDbEntity
  8
27
100
AcDbPolyline
 90
        4
 70
   129
 43
0.0
 10
1855.999999999999
 20
301.9999999999992
 10
1855.999999999999
 20
321.9999999999992
 10
1804.0
 20
321.9999999999992
 10
1804.0
 20
301.9999999999992
  0
LWPOLYLINE
  5
BDDD
330
1E
100
AcDbEntity
  8
27
100
AcDbPolyline
 90
        4
 70
   129
 43
0.0
 10
2026.0
 20
301.9999999999992
 10
2026.0
 20
321.9999999999992
 10
1974.0
 20
321.9999999999992
 10
1974.0
 20
301.9999999999992
  0
TEXT
  5
BE84
330
1E
100
AcDbEntity
  8
19
100
AcDbText
 10
1775.375992527211
 20
1168.411716685818
 30
0.0
 40
20.0
  1
:FRONT PANEL CENTER LINE
100
AcDbText
  0
TEXT
  5
BE85
330
1E
100
AcDbEntity
  8
19
100
AcDbText
 10
1745.127761621656
 20
1173.134931797841
 30
-0.0000000000000136
 40
20.0
  1
P
 50
0.000002504494757
100
AcDbText
  0
TEXT
  5
BE86
330
1E
100
AcDbEntity
  8
19
100
AcDbText
 10
1737.80964638728
 20
1159.257978672841
 30
-0.0000000000000136
 40
20.0
  1
C
 50
0.000002504494757
100
AcDbText
  0
DIMENSION
  5
BE9A
330
1E
100
AcDbEntity
  8
30
100
AcDbDimension
  2
*D42
 10
-587.6109068119999
 20
-100.0
 30
0.0
 11
-595.6109068119999
 21
-50.00000000000015
 31
0.0
 70
    32
 71
     5
 42
99.99999999999985
  3
Standard
100
AcDbAlignedDimension
 13
-675.0
 23
-0.0000000000001137
 33
0.0
 14
-675.0
 24
-99.99999999999994
 34
0.0
 50
90.0
100
AcDbRotatedDimension
  0
DIMENSION
  5
C1AD
330
1E
100
AcDbEntity
  8
30
100
AcDbDimension
  2
*D47
 10
-749.9999999999996
 20
948.3842652287068
 30
0.0
 11
-874.9999999999996
 21
956.3842652287068
 31
0.0
 70
    32
 71
     5
 42
250.0
  3
Standard
100
AcDbAlignedDimension
 13
-999.9999999999996
 23
998.0
 33
0.0
 14
-749.9999999999996
 24
1071.999999999998
 34
0.0
100
AcDbRotatedDimension
  0
DIMENSION
  5
C1AE
330
1E
100
AcDbEntity
  8
30
100
AcDbDimension
  2
*D48
 10
-999.9999999999996
 20
948.3842652287068
 30
0.0
 11
-1082.499999999999
 21
956.3842652287068
 31
0.0
 70
    32
 71
     5
 42
165.0000000000003
  3
Standard
100
AcDbAlignedDimension
 13
-1165.0
 23
1072.0
 33
0.0
 14
-999.9999999999996
 24
1000.0
 34
0.0
100
AcDbRotatedDimension
  0
LINE
  5
C1AF
330
1E
100
AcDbEntity
  8
12
100
AcDbLine
 10
-1154.999999999998
 20
1247.000122
 30
0.0
 11
-1174.999999999998
 21
1247.000122
 31
0.0
  0
CIRCLE
  5
C1B0
330
1E
100
AcDbEntity
  8
12
100
AcDbCircle
 10
-1164.999999999998
 20
1247.000122
 30
0.0
 40
7.0
  0
CIRCLE
  5
C1B1
330
1E
100
AcDbEntity
  8
12
100
AcDbCircle
 10
-1164.999999999998
 20
1081.999999999996
 30
0.0
 40
7.0
  0
LINE
  5
C1B2
330
1E
100
AcDbEntity
  8
12
100
AcDbLine
 10
-1155.0
 20
1082.0
 30
0.0
 11
-1175.0
 21
1082.0
 31
0.0
  0
LINE
  5
C1B3
330
1E
100
AcDbEntity
  8
12
100
AcDbLine
 10
-1164.999999999998
 20
1257.000121999999
 30
0.0
 11
-1164.999999999998
 21
1237.000121999999
 31
0.0
  0
LINE
  5
C1B4
330
1E
100
AcDbEntity
  8
12
100
AcDbLine
 10
-1165.0
 20
1092.0
 30
0.0
 11
-1165.0
 21
1072.0
 31
0.0
  0
DIMENSION
  5
C1B5
330
1E
100
AcDbEntity
  8
30
100
AcDbDimension
  2
*D49
 10
-660.6453671497757
 20
1000.0
 30
0.0
 11
-668.6453671497758
 21
1040.999999999998
 31
0.0
 70
    32
 71
     5
 42
81.99999999999603
  3
Standard
100
AcDbAlignedDimension
 13
-742.9999999999997
 23
1081.999999999996
 33
0.0
 14
-742.9999999999997
 24
1000.0
 34
0.0
 50
90.0
100
AcDbRotatedDimension
  0
LINE
  5
C1B6
330
1E
100
AcDbEntity
  8
12
100
AcDbLine
 10
-749.9999999999996
 20
1256.999999999996
 30
0.0
 11
-749.9999999999996
 21
1236.999999999996
 31
0.0
  0
DIMENSION
  5
C1B7
330
1E
100
AcDbEntity
  8
30
100
AcDbDimension
  2
*D50
 10
-660.6453671497757
 20
1081.999999999996
 30
0.0
 11
-668.6453671497758
 21
1164.499999999996
 31
0.0
 70
    32
 71
     5
 42
165.0000000000009
  3
Standard
100
AcDbAlignedDimension
 13
-739.9999999999996
 23
1246.999999999997
 33
0.0
 14
-740.0000000000003
 24
1081.999999999996
 34
0.0
 50
90.0
100
AcDbRotatedDimension
  0
LINE
  5
C1B8
330
1E
100
AcDbEntity
  8
12
100
AcDbLine
 10
-749.9999999999996
 20
1091.999999999998
 30
0.0
 11
-749.9999999999996
 21
1071.999999999998
 31
0.0
  0
CIRCLE
  5
C1B9
330
1E
100
AcDbEntity
  8
12
100
AcDbCircle
 10
-749.9999999999996
 20
1081.999999999996
 30
0.0
 40
7.0
  0
LINE
  5
C1BA
330
1E
100
AcDbEntity
  8
12
100
AcDbLine
 10
-740.0000000000003
 20
1081.999999999996
 30
0.0
 11
-760.0000000000001
 21
1081.999999999996
 31
0.0
  0
LEADER
  5
C1BB
330
1E
100
AcDbEntity
  8
30
100
AcDbLeader
  3
Standard
 76
     3
 10
-749.9999999999996
 20
1253.999999999995
 30
0.0
 10
-722.3635968900135
 20
1279.717112470873
 30
0.0
 10
-677.0646758933263
 20
1279.717112470873
 30
0.0
1001
ACAD
1000
DSTYLE
1002
{
1070
     5
1000
OPEN
1070
   342
1005
3B2
1002
}
  0
LINE
  5
C1BC
330
1E
100
AcDbEntity
  8
12
100
AcDbLine
 10
-739.9999999999996
 20
1246.999999999997
 30
0.0
 11
-759.9999999999996
 21
1246.999999999997
 31
0.0
  0
CIRCLE
  5
C1BD
330
1E
100
AcDbEntity
  8
12
100
AcDbCircle
 10
-749.9999999999996
 20
1246.999999999997
 30
0.0
 40
7.0
  0
TEXT
  5
C1BE
330
1E
100
AcDbEntity
  8
30
100
AcDbText
 10
-714.4610932706902
 20
1284.523724235808
 30
0.0
 40
10.0
  1
%%C14
100
AcDbText
  0
VIEWPORT
  5
9AC
102
{ACAD_XDICTIONARY
360
C5BE
102
}
330
1A
100
AcDbEntity
 67
     1
  8
0
  6
Continuous
100
AcDbViewport
 10
99.11291503906245
 20
142.6315755844115
 30
0.0
 40
553.8801308809937
 41
299.1603055247638
 68
     1
 69
     1
 12
99.11291503906245
 22
142.6315755844115
 13
0.0
 23
0.0
 14
10.0
 24
10.0
 15
10.0
 25
10.0
 16
0.0
 26
0.0
 36
1.0
 17
0.0
 27
0.0
 37
0.0
 42
50.0
 43
0.0
 44
0.0
 45
299.1603055247638
 50
0.0
 51
0.0
 72
   100
 90
    32800
  1

281
     0
 71
     1
 74
     0
110
0.0
120
0.0
130
0.0
111
1.0
121
0.0
131
0.0
112
0.0
122
1.0
132
0.0
 79
     0
146
0.0
  0
ENDSEC
  0
SECTION
  2
OBJECTS
  0
DICTIONARY
  5
C
330
0
100
AcDbDictionary
281
     1
  3
ACAD_COLOR
350
C563
  3
ACAD_GROUP
350
D
  3
ACAD_LAYOUT
350
19
  3
ACAD_MATERIAL
350
C536
  3
ACAD_MLEADERSTYLE
350
C588
  3
ACAD_MLINESTYLE
350
16
  3
ACAD_PLOTSETTINGS
350
18
  3
ACAD_PLOTSTYLENAME
350
E
  3
ACAD_SCALELIST
350
C566
  3
ACAD_TABLESTYLE
350
C564
  3
ACAD_VISUALSTYLE
350
C54F
  3
ACDB_RECOMPOSE_DATA
350
C5BA
  3
AcDbVariableDictionary
350
6CB8
  3
DWGPROPS
350
C5BB
  0
DICTIONARY
  5
C58E
330
2
100
AcDbDictionary
280
     1
281
     1
  3
ACAD_LAYERSTATES
360
C58F
  0
DICTIONARY
  5
C59F
330
10
100
AcDbDictionary
280
     1
281
     1
  3
ADSK_XREC_LAYER_RECONCILED
360
C5A0
  0
DICTIONARY
  5
C5A1
330
2F
100
AcDbDictionary
280
     1
281
     1
  3
ADSK_XREC_LAYER_RECONCILED
360
C5A2
  0
DICTIONARY
  5
C5A3
330
31
100
AcDbDictionary
280
     1
281
     1
  3
ADSK_XREC_LAYER_RECONCILED
360
C5A4
  0
DICTIONARY
  5
C5A5
330
35
100
AcDbDictionary
280
     1
281
     1
  3
ADSK_XREC_LAYER_RECONCILED
360
C5A6
  0
DICTIONARY
  5
C5A7
330
38
100
AcDbDictionary
280
     1
281
     1
  3
ADSK_XREC_LAYER_RECONCILED
360
C5A8
  0
DICTIONARY
  5
C5A9
330
3C
100
AcDbDictionary
280
     1
281
     1
  3
ADSK_XREC_LAYER_RECONCILED
360
C5AA
  0
DICTIONARY
  5
C5AB
330
3A2
100
AcDbDictionary
280
     1
281
     1
  3
ADSK_XREC_LAYER_RECONCILED
360
C5AC
  0
DICTIONARY
  5
C5AD
330
33C8
100
AcDbDictionary
280
     1
281
     1
  3
ADSK_XREC_LAYER_RECONCILED
360
C5AE
  0
DICTIONARY
  5
C5AF
330
39DB
100
AcDbDictionary
280
     1
281
     1
  3
ADSK_XREC_LAYER_RECONCILED
360
C5B0
  0
DICTIONARY
  5
C5B1
330
BEF5
100
AcDbDictionary
280
     1
281
     1
  3
ADSK_XREC_LAYER_RECONCILED
360
C5B2
  0
DICTIONARY
  5
178
330
1E
100
AcDbDictionary
280
     1
281
     1
  3
ACAD_LAYOUTSELFREF
360
818C
  0
DICTIONARY
  5
17A
330
1A
100
AcDbDictionary
280
     1
281
     1
  3
ACAD_LAYOUTSELFREF
360
818B
  0
DICTIONARY
  5
C5BE
330
9AC
100
AcDbDictionary
280
     1
281
     1
  3
ACAD_XREC_ROUNDTRIP
360
C5BF
  0
DICTIONARY
  5
C563
102
{ACAD_REACTORS
330
C
102
}
330
C
100
AcDbDictionary
281
     1
  0
DICTIONARY
  5
D
102
{ACAD_REACTORS
330
C
102
}
330
C
100
AcDbDictionary
281
     1
  3
*A1
350
133D
  3
*A2
350
1341
  0
DICTIONARY
  5
19
102
{ACAD_REACTORS
330
C
102
}
330
C
100
AcDbDictionary
281
     1
  3
Model
350
21
  3
ﾚｲｱｳﾄ1
350
1D
  0
DICTIONARY
  5
C536
102
{ACAD_REACTORS
330
C
102
}
330
C
100
AcDbDictionary
281
     1
  3
ByBlock
350
C53F
  3
ByLayer
350
C537
  3
Global
350
C547
  0
DICTIONARY
  5
C588
102
{ACAD_REACTORS
330
C
102
}
330
C
100
AcDbDictionary
281
     1
  3
Standard
350
C589
  0
DICTIONARY
  5
16
102
{ACAD_REACTORS
330
C
102
}
330
C
100
AcDbDictionary
281
     1
  3
Standard
350
17
  0
DICTIONARY
  5
18
102
{ACAD_REACTORS
330
C
102
}
330
C
100
AcDbDictionary
281
     1
  0
ACDBDICTIONARYWDFLT
  5
E
102
{ACAD_REACTORS
330
C
102
}
330
C
100
AcDbDictionary
281
     1
  3
Normal
350
F
100
AcDbDictionaryWithDefault
340
F
  0
DICTIONARY
  5
C566
102
{ACAD_REACTORS
330
C
102
}
330
C
100
AcDbDictionary
281
     1
  3
A0
350
C567
  3
A1
350
C568
  3
A2
350
C569
  3
A3
350
C56A
  3
A4
350
C56B
  3
A5
350
C56C
  3
A6
350
C56D
  3
A7
350
C56E
  3
A8
350
C56F
  3
A9
350
C570
  3
B0
350
C571
  3
B1
350
C572
  3
B2
350
C573
  3
B3
350
C574
  3
B4
350
C575
  3
B5
350
C576
  3
B6
350
C577
  3
B7
350
C578
  3
B8
350
C579
  3
B9
350
C57A
  3
C0
350
C57B
  3
C1
350
C57C
  3
C2
350
C57D
  3
C3
350
C57E
  3
C4
350
C57F
  3
C5
350
C580
  3
C6
350
C581
  3
C7
350
C582
  3
C8
350
C583
  3
C9
350
C584
  3
D0
350
C585
  3
D1
350
C586
  3
D2
350
C587
  0
DICTIONARY
  5
C564
102
{ACAD_REACTORS
330
C
102
}
330
C
100
AcDbDictionary
281
     1
  3
Standard
350
C565
  0
DICTIONARY
  5
C54F
102
{ACAD_REACTORS
330
C
102
}
330
C
100
AcDbDictionary
281
     1
  3
2dWireframe
350
C555
  3
3D Hidden
350
C557
  3
3dWireframe
350
C556
  3
Basic
350
C554
  3
Brighten
350
C55B
  3
ColorChange
350
C55F
  3
Conceptual
350
C558
  3
Dim
350
C55A
  3
EdgeColorOff
350
C562
  3
Facepattern
350
C55E
  3
Flat
350
C550
  3
FlatWithEdges
350
C551
  3
Gouraud
350
C552
  3
GouraudWithEdges
350
C553
  3
JitterOff
350
C560
  3
Linepattern
350
C55D
  3
OverhangOff
350
C561
  3
Realistic
350
C559
  3
Thicken
350
C55C
  0
XRECORD
  5
C5BA
102
{ACAD_REACTORS
330
C
102
}
330
C
100
AcDbXrecord
280
     1
 90
        1
330
C565
  0
DICTIONARY
  5
6CB8
102
{ACAD_REACTORS
330
C
102
}
330
C
100
AcDbDictionary
281
     1
  3
CANNOSCALE
350
C5B5
  3
CMLEADERSTYLE
350
C5B4
  3
CTABLESTYLE
350
C5B3
  3
DIMASSOC
350
81A4
  3
INDEXCTL
350
C5B6
  3
SORTENTS
350
6CB9
  3
XCLIPFRAME
350
C5B7
  0
XRECORD
  5
C5BB
102
{ACAD_REACTORS
330
C
102
}
330
C
100
AcDbXrecord
280
     1
  1
DWGPROPS COOKIE
  2

  3

  4

  6

  7

  8
CAD-PC
  9

300
=
301
=
302
=
303
=
304
=
305
=
306
=
307
=
308
=
309
=
 40
1.960846643518518
 41
2452286.555658658
 42
2456974.368066216
  1

 90
        0
  0
DICTIONARY
  5
C58F
102
{ACAD_REACTORS
330
C58E
102
}
330
C58E
100
AcDbDictionary
281
     1
  0
XRECORD
  5
C5A0
102
{ACAD_REACTORS
330
C59F
102
}
330
C59F
100
AcDbXrecord
280
     1
290
     1
  0
XRECORD
  5
C5A2
102
{ACAD_REACTORS
330
C5A1
102
}
330
C5A1
100
AcDbXrecord
280
     1
290
     1
  0
XRECORD
  5
C5A4
102
{ACAD_REACTORS
330
C5A3
102
}
330
C5A3
100
AcDbXrecord
280
     1
290
     1
  0
XRECORD
  5
C5A6
102
{ACAD_REACTORS
330
C5A5
102
}
330
C5A5
100
AcDbXrecord
280
     1
290
     1
  0
XRECORD
  5
C5A8
102
{ACAD_REACTORS
330
C5A7
102
}
330
C5A7
100
AcDbXrecord
280
     1
290
     1
  0
XRECORD
  5
C5AA
102
{ACAD_REACTORS
330
C5A9
102
}
330
C5A9
100
AcDbXrecord
280
     1
290
     1
  0
XRECORD
  5
C5AC
102
{ACAD_REACTORS
330
C5AB
102
}
330
C5AB
100
AcDbXrecord
280
     1
290
     1
  0
XRECORD
  5
C5AE
102
{ACAD_REACTORS
330
C5AD
102
}
330
C5AD
100
AcDbXrecord
280
     1
290
     1
  0
XRECORD
  5
C5B0
102
{ACAD_REACTORS
330
C5AF
102
}
330
C5AF
100
AcDbXrecord
280
     1
290
     1
  0
XRECORD
  5
C5B2
102
{ACAD_REACTORS
330
C5B1
102
}
330
C5B1
100
AcDbXrecord
280
     1
290
     1
  0
XRECORD
  5
818C
102
{ACAD_REACTORS
330
178
102
}
330
178
100
AcDbXrecord
280
     1
340
1E
  0
XRECORD
  5
818B
102
{ACAD_REACTORS
330
17A
102
}
330
17A
100
AcDbXrecord
280
     1
340
1A
  0
XRECORD
  5
C5BF
102
{ACAD_REACTORS
330
C5BE
102
}
330
C5BE
100
AcDbXrecord
280
     1
102
SHADEPLOT
 70
     0
  0
GROUP
  5
133D
102
{ACAD_REACTORS
330
D
102
}
330
D
100
AcDbGroup
300

 70
     0
 71
     1
  0
GROUP
  5
1341
102
{ACAD_REACTORS
330
D
102
}
330
D
100
AcDbGroup
300

 70
     1
 71
     1
  0
LAYOUT
  5
21
102
{ACAD_XDICTIONARY
360
C594
102
}
102
{ACAD_REACTORS
330
19
102
}
330
19
100
AcDbPlotSettings
  1

  2
DocuWorks Printer
  4
A3
  6
OLE1
 40
5.408083438873291
 41
5.408078670501708
 42
5.4080810546875
 43
5.4080810546875
 44
297.0106506347656
 45
419.9889831542968
 46
49.96999999999999
 47
-3.799999999999998
 48
0.0
 49
0.0
140
0.0
141
0.0
142
1.0
143
10.0
 70
 11956
 72
     1
 73
     1
 74
     1
  7
monochrome.ctb
 75
    20
147
0.1
148
1546.347003917846
149
358.5774756087666
100
AcDbLayout
  1
Model
 70
     1
 71
     0
 10
0.0
 20
0.0
 11
12.0
 21
9.0
 12
0.0
 22
0.0
 32
0.0
 14
0.0
 24
0.0
 34
0.0
 15
0.0
 25
0.0
 35
0.0
146
0.0
 13
0.0
 23
0.0
 33
0.0
 16
1.0
 26
0.0
 36
0.0
 17
0.0
 27
1.0
 37
0.0
 76
     0
330
1E
331
C50B
  0
LAYOUT
  5
1D
102
{ACAD_XDICTIONARY
360
C59D
102
}
102
{ACAD_REACTORS
330
19
102
}
330
19
100
AcDbPlotSettings
  1

  2
EPSON LP-8300
  4
A4
  6

 40
5.873749732971191
 41
5.873747825622557
 42
5.873748779296875
 43
5.873748779296875
 44
297.0106506347656
 45
209.9733276367186
 46
0.0
 47
0.0
 48
0.0
 49
0.0
140
0.0
141
0.0
142
1.0
143
1.0
 70
   672
 72
     1
 73
     1
 74
     5
  7
MCCB.ctb
 75
     0
147
1.0
148
0.0
149
0.0
100
AcDbLayout
  1
ﾚｲｱｳﾄ1
 70
     0
 71
     1
 10
-5.873748779296875
 20
-5.873749732971191
 11
204.0995788574218
 21
291.1369009017943
 12
0.0
 22
0.0
 32
0.0
 14
1.000000000000000E+20
 24
1.000000000000000E+20
 34
1.000000000000000E+20
 15
-1.000000000000000E+20
 25
-1.000000000000000E+20
 35
-1.000000000000000E+20
146
0.0
 13
0.0
 23
0.0
 33
0.0
 16
1.0
 26
0.0
 36
0.0
 17
0.0
 27
1.0
 37
0.0
 76
     0
330
1A
331
9AC
  0
MATERIAL
  5
C53F
102
{ACAD_XDICTIONARY
360
C540
102
}
102
{ACAD_REACTORS
330
C536
102
}
330
C536
100
AcDbMaterial
  1
ByBlock
 72
     0
 43
0.0208333333333333
 43
0.0
 43
0.0
 43
0.0
 43
0.0
 43
0.0208333333333333
 43
0.0
 43
0.0
 43
0.0
 43
0.0
 43
1.0
 43
0.0
 43
0.0
 43
0.0
 43
0.0
 43
1.0
 77
     0
 47
0.0208333333333333
 47
0.0
 47
0.0
 47
0.0
 47
0.0
 47
0.0208333333333333
 47
0.0
 47
0.0
 47
0.0
 47
0.0
 47
1.0
 47
0.0
 47
0.0
 47
0.0
 47
0.0
 47
1.0
171
     0
 49
0.0208333333333333
 49
0.0
 49
0.0
 49
0.0
 49
0.0
 49
0.0208333333333333
 49
0.0
 49
0.0
 49
0.0
 49
0.0
 49
1.0
 49
0.0
 49
0.0
 49
0.0
 49
0.0
 49
1.0
175
     0
142
0.0208333333333333
142
0.0
142
0.0
142
0.0
142
0.0
142
0.0208333333333333
142
0.0
142
0.0
142
0.0
142
0.0
142
1.0
142
0.0
142
0.0
142
0.0
142
0.0
142
1.0
179
     0
144
0.0208333333333333
144
0.0
144
0.0
144
0.0
144
0.0
144
0.0208333333333333
144
0.0
144
0.0
144
0.0
144
0.0
144
1.0
144
0.0
144
0.0
144
0.0
144
0.0
144
1.0
147
0.0208333333333333
147
0.0
147
0.0
147
0.0
147
0.0
147
0.0208333333333333
147
0.0
147
0.0
147
0.0
147
0.0
147
1.0
147
0.0
147
0.0
147
0.0
147
0.0
147
1.0
  0
MATERIAL
  5
C537
102
{ACAD_XDICTIONARY
360
C538
102
}
102
{ACAD_REACTORS
330
C536
102
}
330
C536
100
AcDbMaterial
  1
ByLayer
 72
     0
 43
0.0208333333333333
 43
0.0
 43
0.0
 43
0.0
 43
0.0
 43
0.0208333333333333
 43
0.0
 43
0.0
 43
0.0
 43
0.0
 43
1.0
 43
0.0
 43
0.0
 43
0.0
 43
0.0
 43
1.0
 77
     0
 47
0.0208333333333333
 47
0.0
 47
0.0
 47
0.0
 47
0.0
 47
0.0208333333333333
 47
0.0
 47
0.0
 47
0.0
 47
0.0
 47
1.0
 47
0.0
 47
0.0
 47
0.0
 47
0.0
 47
1.0
171
     0
 49
0.0208333333333333
 49
0.0
 49
0.0
 49
0.0
 49
0.0
 49
0.0208333333333333
 49
0.0
 49
0.0
 49
0.0
 49
0.0
 49
1.0
 49
0.0
 49
0.0
 49
0.0
 49
0.0
 49
1.0
175
     0
142
0.0208333333333333
142
0.0
142
0.0
142
0.0
142
0.0
142
0.0208333333333333
142
0.0
142
0.0
142
0.0
142
0.0
142
1.0
142
0.0
142
0.0
142
0.0
142
0.0
142
1.0
179
     0
144
0.0208333333333333
144
0.0
144
0.0
144
0.0
144
0.0
144
0.0208333333333333
144
0.0
144
0.0
144
0.0
144
0.0
144
1.0
144
0.0
144
0.0
144
0.0
144
0.0
144
1.0
147
0.0208333333333333
147
0.0
147
0.0
147
0.0
147
0.0
147
0.0208333333333333
147
0.0
147
0.0
147
0.0
147
0.0
147
1.0
147
0.0
147
0.0
147
0.0
147
0.0
147
1.0
  0
MATERIAL
  5
C547
102
{ACAD_XDICTIONARY
360
C548
102
}
102
{ACAD_REACTORS
330
C536
102
}
330
C536
100
AcDbMaterial
  1
Global
 72
     0
 43
0.0208333333333333
 43
0.0
 43
0.0
 43
0.0
 43
0.0
 43
0.0208333333333333
 43
0.0
 43
0.0
 43
0.0
 43
0.0
 43
1.0
 43
0.0
 43
0.0
 43
0.0
 43
0.0
 43
1.0
 77
     0
 47
0.0208333333333333
 47
0.0
 47
0.0
 47
0.0
 47
0.0
 47
0.0208333333333333
 47
0.0
 47
0.0
 47
0.0
 47
0.0
 47
1.0
 47
0.0
 47
0.0
 47
0.0
 47
0.0
 47
1.0
171
     0
 49
0.0208333333333333
 49
0.0
 49
0.0
 49
0.0
 49
0.0
 49
0.0208333333333333
 49
0.0
 49
0.0
 49
0.0
 49
0.0
 49
1.0
 49
0.0
 49
0.0
 49
0.0
 49
0.0
 49
1.0
175
     0
142
0.0208333333333333
142
0.0
142
0.0
142
0.0
142
0.0
142
0.0208333333333333
142
0.0
142
0.0
142
0.0
142
0.0
142
1.0
142
0.0
142
0.0
142
0.0
142
0.0
142
1.0
179
     0
144
0.0208333333333333
144
0.0
144
0.0
144
0.0
144
0.0
144
0.0208333333333333
144
0.0
144
0.0
144
0.0
144
0.0
144
1.0
144
0.0
144
0.0
144
0.0
144
0.0
144
1.0
147
0.0208333333333333
147
0.0
147
0.0
147
0.0
147
0.0
147
0.0208333333333333
147
0.0
147
0.0
147
0.0
147
0.0
147
1.0
147
0.0
147
0.0
147
0.0
147
0.0
147
1.0
  0
MLEADERSTYLE
  5
C589
102
{ACAD_REACTORS
330
C588
102
}
330
C588
100
AcDbMLeaderStyle
170
     2
171
     1
172
     0
 90
        2
 40
0.0
 41
0.0
173
     1
 91
-1056964608
340
13
 92
       -2
290
     1
 42
0.09
291
     1
 43
0.36
  3
Standard
 44
0.18
300

342
11
174
     1
178
     6
175
     1
176
     0
 93
-1056964608
 45
0.18
292
     0
297
     0
 46
0.18
 94
-1056964608
 47
1.0
 49
1.0
140
1.0
293
     1
141
0.0
294
     1
177
     0
142
1.0
295
     0
296
     0
143
0.125
1001
ACAD_MLEADERVER
1070
     2
  0
MLINESTYLE
  5
17
102
{ACAD_REACTORS
330
16
102
}
330
16
100
AcDbMlineStyle
  2
STANDARD
 70
     0
  3

 62
   256
 51
90.0
 52
90.0
 71
     2
 49
0.5
 62
   256
  6
BYLAYER
 49
-0.5
 62
   256
  6
BYLAYER
  0
ACDBPLACEHOLDER
  5
F
102
{ACAD_REACTORS
330
E
102
}
330
E
  0
SCALE
  5
C567
102
{ACAD_REACTORS
330
C566
102
}
330
C566
100
AcDbScale
 70
     0
300
1:1
140
1.0
141
1.0
290
     1
  0
SCALE
  5
C568
102
{ACAD_REACTORS
330
C566
102
}
330
C566
100
AcDbScale
 70
     0
300
1:2
140
1.0
141
2.0
290
     0
  0
SCALE
  5
C569
102
{ACAD_REACTORS
330
C566
102
}
330
C566
100
AcDbScale
 70
     0
300
1:4
140
1.0
141
4.0
290
     0
  0
SCALE
  5
C56A
102
{ACAD_REACTORS
330
C566
102
}
330
C566
100
AcDbScale
 70
     0
300
1:5
140
1.0
141
5.0
290
     0
  0
SCALE
  5
C56B
102
{ACAD_REACTORS
330
C566
102
}
330
C566
100
AcDbScale
 70
     0
300
1:8
140
1.0
141
8.0
290
     0
  0
SCALE
  5
C56C
102
{ACAD_REACTORS
330
C566
102
}
330
C566
100
AcDbScale
 70
     0
300
1:10
140
1.0
141
10.0
290
     0
  0
SCALE
  5
C56D
102
{ACAD_REACTORS
330
C566
102
}
330
C566
100
AcDbScale
 70
     0
300
1:16
140
1.0
141
16.0
290
     0
  0
SCALE
  5
C56E
102
{ACAD_REACTORS
330
C566
102
}
330
C566
100
AcDbScale
 70
     0
300
1:20
140
1.0
141
20.0
290
     0
  0
SCALE
  5
C56F
102
{ACAD_REACTORS
330
C566
102
}
330
C566
100
AcDbScale
 70
     0
300
1:30
140
1.0
141
30.0
290
     0
  0
SCALE
  5
C570
102
{ACAD_REACTORS
330
C566
102
}
330
C566
100
AcDbScale
 70
     0
300
1:40
140
1.0
141
40.0
290
     0
  0
SCALE
  5
C571
102
{ACAD_REACTORS
330
C566
102
}
330
C566
100
AcDbScale
 70
     0
300
1:50
140
1.0
141
50.0
290
     0
  0
SCALE
  5
C572
102
{ACAD_REACTORS
330
C566
102
}
330
C566
100
AcDbScale
 70
     0
300
1:100
140
1.0
141
100.0
290
     0
  0
SCALE
  5
C573
102
{ACAD_REACTORS
330
C566
102
}
330
C566
100
AcDbScale
 70
     0
300
2:1
140
2.0
141
1.0
290
     0
  0
SCALE
  5
C574
102
{ACAD_REACTORS
330
C566
102
}
330
C566
100
AcDbScale
 70
     0
300
4:1
140
4.0
141
1.0
290
     0
  0
SCALE
  5
C575
102
{ACAD_REACTORS
330
C566
102
}
330
C566
100
AcDbScale
 70
     0
300
8:1
140
8.0
141
1.0
290
     0
  0
SCALE
  5
C576
102
{ACAD_REACTORS
330
C566
102
}
330
C566
100
AcDbScale
 70
     0
300
10:1
140
10.0
141
1.0
290
     0
  0
SCALE
  5
C577
102
{ACAD_REACTORS
330
C566
102
}
330
C566
100
AcDbScale
 70
     0
300
100:1
140
100.0
141
1.0
290
     0
  0
SCALE
  5
C578
102
{ACAD_REACTORS
330
C566
102
}
330
C566
100
AcDbScale
 70
     0
300
1/128" = 1'-0"
140
0.0078125
141
12.0
290
     0
  0
SCALE
  5
C579
102
{ACAD_REACTORS
330
C566
102
}
330
C566
100
AcDbScale
 70
     0
300
1/64" = 1'-0"
140
0.015625
141
12.0
290
     0
  0
SCALE
  5
C57A
102
{ACAD_REACTORS
330
C566
102
}
330
C566
100
AcDbScale
 70
     0
300
1/32" = 1'-0"
140
0.03125
141
12.0
290
     0
  0
SCALE
  5
C57B
102
{ACAD_REACTORS
330
C566
102
}
330
C566
100
AcDbScale
 70
     0
300
1/16" = 1'-0"
140
0.0625
141
12.0
290
     0
  0
SCALE
  5
C57C
102
{ACAD_REACTORS
330
C566
102
}
330
C566
100
AcDbScale
 70
     0
300
3/32" = 1'-0"
140
0.09375
141
12.0
290
     0
  0
SCALE
  5
C57D
102
{ACAD_REACTORS
330
C566
102
}
330
C566
100
AcDbScale
 70
     0
300
1/8" = 1'-0"
140
0.125
141
12.0
290
     0
  0
SCALE
  5
C57E
102
{ACAD_REACTORS
330
C566
102
}
330
C566
100
AcDbScale
 70
     0
300
3/16" = 1'-0"
140
0.1875
141
12.0
290
     0
  0
SCALE
  5
C57F
102
{ACAD_REACTORS
330
C566
102
}
330
C566
100
AcDbScale
 70
     0
300
1/4" = 1'-0"
140
0.25
141
12.0
290
     0
  0
SCALE
  5
C580
102
{ACAD_REACTORS
330
C566
102
}
330
C566
100
AcDbScale
 70
     0
300
3/8" = 1'-0"
140
0.375
141
12.0
290
     0
  0
SCALE
  5
C581
102
{ACAD_REACTORS
330
C566
102
}
330
C566
100
AcDbScale
 70
     0
300
1/2" = 1'-0"
140
0.5
141
12.0
290
     0
  0
SCALE
  5
C582
102
{ACAD_REACTORS
330
C566
102
}
330
C566
100
AcDbScale
 70
     0
300
3/4" = 1'-0"
140
0.75
141
12.0
290
     0
  0
SCALE
  5
C583
102
{ACAD_REACTORS
330
C566
102
}
330
C566
100
AcDbScale
 70
     0
300
1" = 1'-0"
140
1.0
141
12.0
290
     0
  0
SCALE
  5
C584
102
{ACAD_REACTORS
330
C566
102
}
330
C566
100
AcDbScale
 70
     0
300
1-1/2" = 1'-0"
140
1.5
141
12.0
290
     0
  0
SCALE
  5
C585
102
{ACAD_REACTORS
330
C566
102
}
330
C566
100
AcDbScale
 70
     0
300
3" = 1'-0"
140
3.0
141
12.0
290
     0
  0
SCALE
  5
C586
102
{ACAD_REACTORS
330
C566
102
}
330
C566
100
AcDbScale
 70
     0
300
6" = 1'-0"
140
6.0
141
12.0
290
     0
  0
SCALE
  5
C587
102
{ACAD_REACTORS
330
C566
102
}
330
C566
100
AcDbScale
 70
     0
300
1'-0" = 1'-0"
140
12.0
141
12.0
290
     0
  0
TABLESTYLE
  5
C565
102
{ACAD_XDICTIONARY
360
C5B8
102
}
102
{ACAD_REACTORS
330
C564
102
}
330
C564
100
AcDbTableStyle
  3
Standard
 70
     0
 71
     0
 40
0.06
 41
0.06
280
     0
281
     0
  7
Standard
140
0.18
170
     2
 62
     0
 63
     7
283
     0
274
    -2
284
     1
 64
     0
275
    -2
285
     1
 65
     0
276
    -2
286
     1
 66
     0
277
    -2
287
     1
 67
     0
278
    -2
288
     1
 68
     0
279
    -2
289
     1
 69
     0
  7
Standard
140
0.25
170
     5
 62
     0
 63
     7
283
     0
274
    -2
284
     1
 64
     0
275
    -2
285
     1
 65
     0
276
    -2
286
     1
 66
     0
277
    -2
287
     1
 67
     0
278
    -2
288
     1
 68
     0
279
    -2
289
     1
 69
     0
  7
Standard
140
0.18
170
     5
 62
     0
 63
     7
283
     0
274
    -2
284
     1
 64
     0
275
    -2
285
     1
 65
     0
276
    -2
286
     1
 66
     0
277
    -2
287
     1
 67
     0
278
    -2
288
     1
 68
     0
279
    -2
289
     1
 69
     0
  0
VISUALSTYLE
  5
C555
102
{ACAD_XDICTIONARY
360
C5CD
102
}
102
{ACAD_REACTORS
330
C54F
102
}
330
C54F
100
AcDbVisualStyle
  2
2dWireframe
 70
     4
 71
     0
 72
     2
 73
     0
 90
        0
 40
-0.6
 41
-30.0
 62
     5
 63
     7
 74
     1
 91
        4
 64
     7
 65
   257
 75
     1
175
     1
 42
1.0
 92
        0
 66
   257
 43
1.0
 76
     1
 77
     6
 78
     2
 67
     7
 79
     5
170
     0
171
     0
290
     0
174
     0
 93
        1
 44
0.0
173
     0
291
     0
 45
0.0
1001
ACAD
1000
AcDbSavedByObjectVersion
1070
     0
  0
VISUALSTYLE
  5
C557
102
{ACAD_XDICTIONARY
360
C5D1
102
}
102
{ACAD_REACTORS
330
C54F
102
}
330
C54F
100
AcDbVisualStyle
  2
3D Hidden
 70
     6
 71
     1
 72
     2
 73
     2
 90
        0
 40
-0.6
 41
-30.0
 62
     5
 63
     7
 74
     2
 91
        2
 64
     7
 65
   257
 75
     2
175
     1
 42
179.0
 92
        0
 66
   257
 43
1.0
 76
     1
 77
     6
 78
     2
 67
     7
 79
     3
170
     0
171
     0
290
     0
174
     0
 93
        1
 44
0.0
173
     0
291
     0
 45
0.0
1001
ACAD
1000
AcDbSavedByObjectVersion
1070
     0
  0
VISUALSTYLE
  5
C556
102
{ACAD_XDICTIONARY
360
C5CF
102
}
102
{ACAD_REACTORS
330
C54F
102
}
330
C54F
100
AcDbVisualStyle
  2
3dWireframe
 70
     5
 71
     0
 72
     2
 73
     0
 90
        0
 40
-0.6
 41
-30.0
 62
     5
 63
     7
 74
     1
 91
        4
 64
     7
 65
   257
 75
     1
175
     1
 42
1.0
 92
        0
 66
   257
 43
1.0
 76
     1
 77
     6
 78
     2
 67
     7
 79
     5
170
     0
171
     0
290
     0
174
     0
 93
        1
 44
0.0
173
     0
291
     0
 45
0.0
1001
ACAD
1000
AcDbSavedByObjectVersion
1070
     0
  0
VISUALSTYLE
  5
C554
102
{ACAD_XDICTIONARY
360
C5CB
102
}
102
{ACAD_REACTORS
330
C54F
102
}
330
C54F
100
AcDbVisualStyle
  2
Basic
 70
     7
 71
     1
 72
     0
 73
     1
 90
        0
 40
-0.6
 41
-30.0
 62
     5
 63
     7
 74
     0
 91
        4
 64
     7
 65
   257
 75
     1
175
     1
 42
1.0
 92
        8
 66
     7
 43
1.0
 76
     1
 77
     6
 78
     2
 67
     7
 79
     5
170
     0
171
     0
290
     0
174
     0
 93
        1
 44
0.0
173
     0
291
     1
 45
0.0
1001
ACAD
1000
AcDbSavedByObjectVersion
1070
     0
  0
VISUALSTYLE
  5
C55B
102
{ACAD_XDICTIONARY
360
C5D9
102
}
102
{ACAD_REACTORS
330
C54F
102
}
330
C54F
100
AcDbVisualStyle
  2
Brighten
 70
    12
 71
     2
 72
     2
 73
     0
 90
        0
 40
-0.6
 41
-30.0
 62
     5
 63
     7
 74
     1
 91
        4
 64
     7
 65
   257
 75
     1
175
     1
 42
1.0
 92
        8
 66
     7
 43
1.0
 76
     1
 77
     6
 78
     2
 67
     7
 79
     5
170
     0
171
     0
290
     0
174
     0
 93
        1
 44
50.0
173
     0
291
     1
 45
0.0
1001
ACAD
1000
AcDbSavedByObjectVersion
1070
     0
  0
VISUALSTYLE
  5
C55F
102
{ACAD_XDICTIONARY
360
C5E1
102
}
102
{ACAD_REACTORS
330
C54F
102
}
330
C54F
100
AcDbVisualStyle
  2
ColorChange
 70
    16
 71
     2
 72
     2
 73
     3
 90
        0
 40
-0.6
 41
-30.0
 62
     5
 63
     8
 74
     1
 91
        4
 64
     7
 65
   257
 75
     1
175
     1
 42
1.0
 92
        8
 66
     8
 43
1.0
 76
     1
 77
     6
 78
     2
 67
     7
 79
     5
170
     0
171
     0
290
     0
174
     0
 93
        1
 44
0.0
173
     0
291
     1
 45
0.0
1001
ACAD
1000
AcDbSavedByObjectVersion
1070
     0
  0
VISUALSTYLE
  5
C558
102
{ACAD_XDICTIONARY
360
C5D3
102
}
102
{ACAD_REACTORS
330
C54F
102
}
330
C54F
100
AcDbVisualStyle
  2
Conceptual
 70
     9
 71
     3
 72
     2
 73
     0
 90
        0
 40
-0.6
 41
-30.0
 62
     5
 63
     7
 74
     2
 91
        2
 64
     7
 65
   257
 75
     1
175
     1
 42
179.0
 92
        8
 66
     7
 43
1.0
 76
     1
 77
     6
 78
     2
 67
     7
 79
     3
170
     0
171
     0
290
     0
174
     0
 93
        1
 44
0.0
173
     0
291
     0
 45
0.0
1001
ACAD
1000
AcDbSavedByObjectVersion
1070
     0
  0
VISUALSTYLE
  5
C55A
102
{ACAD_XDICTIONARY
360
C5D7
102
}
102
{ACAD_REACTORS
330
C54F
102
}
330
C54F
100
AcDbVisualStyle
  2
Dim
 70
    11
 71
     2
 72
     2
 73
     0
 90
        0
 40
-0.6
 41
-30.0
 62
     5
 63
     7
 74
     1
 91
        4
 64
     7
 65
   257
 75
     1
175
     1
 42
1.0
 92
        8
 66
     7
 43
1.0
 76
     1
 77
     6
 78
     2
 67
     7
 79
     5
170
     0
171
     0
290
     0
174
     0
 93
        1
 44
-50.0
173
     0
291
     1
 45
0.0
1001
ACAD
1000
AcDbSavedByObjectVersion
1070
     0
  0
VISUALSTYLE
  5
C562
102
{ACAD_XDICTIONARY
360
C5E7
102
}
102
{ACAD_REACTORS
330
C54F
102
}
330
C54F
100
AcDbVisualStyle
  2
EdgeColorOff
 70
    22
 71
     2
 72
     2
 73
     0
 90
        0
 40
-0.6
 41
-30.0
 62
     5
 63
     7
 74
     1
 91
        4
 64
     7
 65
   257
 75
     1
175
     1
 42
1.0
 92
        8
 66
     7
 43
1.0
 76
     1
 77
     6
 78
     2
 67
     7
 79
     5
170
     0
171
     0
290
     0
174
     0
 93
        1
 44
0.0
173
     0
291
     1
 45
0.0
1001
ACAD
1000
AcDbSavedByObjectVersion
1070
     0
  0
VISUALSTYLE
  5
C55E
102
{ACAD_XDICTIONARY
360
C5DF
102
}
102
{ACAD_REACTORS
330
C54F
102
}
330
C54F
100
AcDbVisualStyle
  2
Facepattern
 70
    15
 71
     2
 72
     2
 73
     0
 90
        0
 40
-0.6
 41
-30.0
 62
     5
 63
     7
 74
     1
 91
        4
 64
     7
 65
   257
 75
     1
175
     1
 42
1.0
 92
        8
 66
     7
 43
1.0
 76
     1
 77
     6
 78
     2
 67
     7
 79
     5
170
     0
171
     0
290
     0
174
     0
 93
        1
 44
0.0
173
     0
291
     1
 45
0.0
1001
ACAD
1000
AcDbSavedByObjectVersion
1070
     0
  0
VISUALSTYLE
  5
C550
102
{ACAD_XDICTIONARY
360
C5C3
102
}
102
{ACAD_REACTORS
330
C54F
102
}
330
C54F
100
AcDbVisualStyle
  2
Flat
 70
     0
 71
     2
 72
     1
 73
     1
 90
        2
 40
-0.6
 41
30.0
 62
     5
 63
     7
 74
     0
 91
        4
 64
     7
 65
   257
 75
     1
175
     1
 42
1.0
 92
        8
 66
     7
 43
1.0
 76
     1
 77
     6
 78
     2
 67
     7
 79
     5
170
     0
171
     0
290
     0
174
     0
 93
       13
 44
0.0
173
     0
291
     1
 45
0.0
1001
ACAD
1000
AcDbSavedByObjectVersion
1070
     0
  0
VISUALSTYLE
  5
C551
102
{ACAD_XDICTIONARY
360
C5C5
102
}
102
{ACAD_REACTORS
330
C54F
102
}
330
C54F
100
AcDbVisualStyle
  2
FlatWithEdges
 70
     1
 71
     2
 72
     1
 73
     1
 90
        2
 40
-0.6
 41
30.0
 62
     5
 63
     7
 74
     1
 91
        4
 64
     7
 65
   257
 75
     1
175
     1
 42
1.0
 92
        0
 66
   257
 43
1.0
 76
     1
 77
     6
 78
     2
 67
     7
 79
     5
170
     0
171
     0
290
     0
174
     0
 93
       13
 44
0.0
173
     0
291
     1
 45
0.0
1001
ACAD
1000
AcDbSavedByObjectVersion
1070
     0
  0
VISUALSTYLE
  5
C552
102
{ACAD_XDICTIONARY
360
C5C7
102
}
102
{ACAD_REACTORS
330
C54F
102
}
330
C54F
100
AcDbVisualStyle
  2
Gouraud
 70
     2
 71
     2
 72
     2
 73
     1
 90
        2
 40
-0.6
 41
30.0
 62
     5
 63
     7
 74
     0
 91
        4
 64
     7
 65
   257
 75
     1
175
     1
 42
1.0
 92
        0
 66
     7
 43
1.0
 76
     1
 77
     6
 78
     2
 67
     7
 79
     5
170
     0
171
     0
290
     0
174
     0
 93
       13
 44
0.0
173
     0
291
     1
 45
0.0
1001
ACAD
1000
AcDbSavedByObjectVersion
1070
     0
  0
VISUALSTYLE
  5
C553
102
{ACAD_XDICTIONARY
360
C5C9
102
}
102
{ACAD_REACTORS
330
C54F
102
}
330
C54F
100
AcDbVisualStyle
  2
GouraudWithEdges
 70
     3
 71
     2
 72
     2
 73
     1
 90
        2
 40
-0.6
 41
30.0
 62
     5
 63
     7
 74
     1
 91
        4
 64
     7
 65
   257
 75
     1
175
     1
 42
1.0
 92
        0
 66
   257
 43
1.0
 76
     1
 77
     6
 78
     2
 67
     7
 79
     5
170
     0
171
     0
290
     0
174
     0
 93
       13
 44
0.0
173
     0
291
     1
 45
0.0
1001
ACAD
1000
AcDbSavedByObjectVersion
1070
     0
  0
VISUALSTYLE
  5
C560
102
{ACAD_XDICTIONARY
360
C5E3
102
}
102
{ACAD_REACTORS
330
C54F
102
}
330
C54F
100
AcDbVisualStyle
  2
JitterOff
 70
    20
 71
     2
 72
     2
 73
     0
 90
        0
 40
-0.6
 41
-30.0
 62
     5
 63
     7
 74
     1
 91
        4
 64
     7
 65
   257
 75
     1
175
     1
 42
1.0
 92
       10
 66
     7
 43
1.0
 76
     1
 77
     6
 78
     2
 67
     7
 79
     5
170
     0
171
     0
290
     0
174
     0
 93
        1
 44
0.0
173
     0
291
     1
 45
0.0
1001
ACAD
1000
AcDbSavedByObjectVersion
1070
     0
  0
VISUALSTYLE
  5
C55D
102
{ACAD_XDICTIONARY
360
C5DD
102
}
102
{ACAD_REACTORS
330
C54F
102
}
330
C54F
100
AcDbVisualStyle
  2
Linepattern
 70
    14
 71
     2
 72
     2
 73
     0
 90
        0
 40
-0.6
 41
-30.0
 62
     5
 63
     7
 74
     1
 91
        4
 64
     7
 65
   257
 75
     7
175
     7
 42
1.0
 92
        8
 66
     7
 43
1.0
 76
     1
 77
     6
 78
     2
 67
     7
 79
     5
170
     0
171
     0
290
     0
174
     0
 93
        1
 44
0.0
173
     0
291
     1
 45
0.0
1001
ACAD
1000
AcDbSavedByObjectVersion
1070
     0
  0
VISUALSTYLE
  5
C561
102
{ACAD_XDICTIONARY
360
C5E5
102
}
102
{ACAD_REACTORS
330
C54F
102
}
330
C54F
100
AcDbVisualStyle
  2
OverhangOff
 70
    21
 71
     2
 72
     2
 73
     0
 90
        0
 40
-0.6
 41
-30.0
 62
     5
 63
     7
 74
     1
 91
        4
 64
     7
 65
   257
 75
     1
175
     1
 42
1.0
 92
        9
 66
     7
 43
1.0
 76
     1
 77
     6
 78
     2
 67
     7
 79
     5
170
     0
171
     0
290
     0
174
     0
 93
        1
 44
0.0
173
     0
291
     1
 45
0.0
1001
ACAD
1000
AcDbSavedByObjectVersion
1070
     0
  0
VISUALSTYLE
  5
C559
102
{ACAD_XDICTIONARY
360
C5D5
102
}
102
{ACAD_REACTORS
330
C54F
102
}
330
C54F
100
AcDbVisualStyle
  2
Realistic
 70
     8
 71
     2
 72
     2
 73
     0
 90
        0
 40
-0.6
 41
-30.0
 62
     5
 63
     7
 74
     1
 91
        0
 64
     7
 65
   257
 75
     1
175
     1
 42
1.0
 92
        8
 66
     8
 43
1.0
 76
     1
 77
     6
 78
     2
 67
     7
 79
     5
170
     0
171
     0
290
     0
174
     0
 93
       13
 44
0.0
173
     0
291
     0
 45
0.0
1001
ACAD
1000
AcDbSavedByObjectVersion
1070
     0
  0
VISUALSTYLE
  5
C55C
102
{ACAD_XDICTIONARY
360
C5DB
102
}
102
{ACAD_REACTORS
330
C54F
102
}
330
C54F
100
AcDbVisualStyle
  2
Thicken
 70
    13
 71
     2
 72
     2
 73
     0
 90
        0
 40
-0.6
 41
-30.0
 62
     5
 63
     7
 74
     1
 91
        4
 64
     7
 65
   257
 75
     1
175
     1
 42
1.0
 92
       12
 66
     7
 43
1.0
 76
     1
 77
     6
 78
     2
 67
     7
 79
     5
170
     0
171
     0
290
     0
174
     0
 93
        1
 44
0.0
173
     0
291
     1
 45
0.0
1001
ACAD
1000
AcDbSavedByObjectVersion
1070
     0
  0
DICTIONARYVAR
  5
C5B5
102
{ACAD_REACTORS
330
6CB8
102
}
330
6CB8
100
DictionaryVariables
280
     0
  1
1:1
  0
DICTIONARYVAR
  5
C5B4
102
{ACAD_REACTORS
330
6CB8
102
}
330
6CB8
100
DictionaryVariables
280
     0
  1
STANDARD
  0
DICTIONARYVAR
  5
C5B3
102
{ACAD_REACTORS
330
6CB8
102
}
330
6CB8
100
DictionaryVariables
280
     0
  1
STANDARD
  0
DICTIONARYVAR
  5
81A4
102
{ACAD_REACTORS
330
6CB8
102
}
330
6CB8
100
DictionaryVariables
280
     0
  1
1
  0
DICTIONARYVAR
  5
C5B6
102
{ACAD_REACTORS
330
6CB8
102
}
330
6CB8
100
DictionaryVariables
280
     0
  1
0
  0
DICTIONARYVAR
  5
6CB9
102
{ACAD_REACTORS
330
6CB8
102
}
330
6CB8
100
DictionaryVariables
280
     0
  1
96
  0
DICTIONARYVAR
  5
C5B7
102
{ACAD_REACTORS
330
6CB8
102
}
330
6CB8
100
DictionaryVariables
280
     0
  1
2
  0
DICTIONARY
  5
C594
330
21
100
AcDbDictionary
280
     1
281
     1
  3
ACAD_XREC_ROUNDTRIP
360
C5BD
  3
ADSK_XREC_LAYOUTTHUMBNAIL
360
C595
  0
DICTIONARY
  5
C59D
330
1D
100
AcDbDictionary
280
     1
281
     1
  3
ACAD_XREC_ROUNDTRIP
360
C5BC
  3
ADSK_XREC_LAYOUTTHUMBNAIL
360
C59E
  0
DICTIONARY
  5
C540
330
C53F
100
AcDbDictionary
280
     1
281
     1
  3
ACAD_XREC_ROUNDTRIP
360
C5C1
  3
BUMPTILE
360
C542
  3
DIFFUSETILE
360
C541
  3
OPACITYTILE
360
C545
  3
REFLECTIONTILE
360
C544
  3
REFRACTIONTILE
360
C546
  3
SPECULARTILE
360
C543
  0
DICTIONARY
  5
C538
330
C537
100
AcDbDictionary
280
     1
281
     1
  3
ACAD_XREC_ROUNDTRIP
360
C5C0
  3
BUMPTILE
360
C53A
  3
DIFFUSETILE
360
C539
  3
OPACITYTILE
360
C53D
  3
REFLECTIONTILE
360
C53C
  3
REFRACTIONTILE
360
C53E
  3
SPECULARTILE
360
C53B
  0
DICTIONARY
  5
C548
330
C547
100
AcDbDictionary
280
     1
281
     1
  3
ACAD_XREC_ROUNDTRIP
360
C5C2
  3
BUMPTILE
360
C54A
  3
DIFFUSETILE
360
C549
  3
OPACITYTILE
360
C54D
  3
REFLECTIONTILE
360
C54C
  3
REFRACTIONTILE
360
C54E
  3
SPECULARTILE
360
C54B
  0
DICTIONARY
  5
C5B8
330
C565
100
AcDbDictionary
280
     1
281
     1
  3
ACAD_ROUNDTRIP_2008_TABLESTYLE_CELLSTYLEMAP
360
C5B9
  3
ACAD_XREC_ROUNDTRIP
360
C5E9
  0
DICTIONARY
  5
C5CD
330
C555
100
AcDbDictionary
280
     1
281
     1
  3
ACAD_XREC_ROUNDTRIP
360
C5CE
  0
DICTIONARY
  5
C5D1
330
C557
100
AcDbDictionary
280
     1
281
     1
  3
ACAD_XREC_ROUNDTRIP
360
C5D2
  0
DICTIONARY
  5
C5CF
330
C556
100
AcDbDictionary
280
     1
281
     1
  3
ACAD_XREC_ROUNDTRIP
360
C5D0
  0
DICTIONARY
  5
C5CB
330
C554
100
AcDbDictionary
280
     1
281
     1
  3
ACAD_XREC_ROUNDTRIP
360
C5CC
  0
DICTIONARY
  5
C5D9
330
C55B
100
AcDbDictionary
280
     1
281
     1
  3
ACAD_XREC_ROUNDTRIP
360
C5DA
  0
DICTIONARY
  5
C5E1
330
C55F
100
AcDbDictionary
280
     1
281
     1
  3
ACAD_XREC_ROUNDTRIP
360
C5E2
  0
DICTIONARY
  5
C5D3
330
C558
100
AcDbDictionary
280
     1
281
     1
  3
ACAD_XREC_ROUNDTRIP
360
C5D4
  0
DICTIONARY
  5
C5D7
330
C55A
100
AcDbDictionary
280
     1
281
     1
  3
ACAD_XREC_ROUNDTRIP
360
C5D8
  0
DICTIONARY
  5
C5E7
330
C562
100
AcDbDictionary
280
     1
281
     1
  3
ACAD_XREC_ROUNDTRIP
360
C5E8
  0
DICTIONARY
  5
C5DF
330
C55E
100
AcDbDictionary
280
     1
281
     1
  3
ACAD_XREC_ROUNDTRIP
360
C5E0
  0
DICTIONARY
  5
C5C3
330
C550
100
AcDbDictionary
280
     1
281
     1
  3
ACAD_XREC_ROUNDTRIP
360
C5C4
  0
DICTIONARY
  5
C5C5
330
C551
100
AcDbDictionary
280
     1
281
     1
  3
ACAD_XREC_ROUNDTRIP
360
C5C6
  0
DICTIONARY
  5
C5C7
330
C552
100
AcDbDictionary
280
     1
281
     1
  3
ACAD_XREC_ROUNDTRIP
360
C5C8
  0
DICTIONARY
  5
C5C9
330
C553
100
AcDbDictionary
280
     1
281
     1
  3
ACAD_XREC_ROUNDTRIP
360
C5CA
  0
DICTIONARY
  5
C5E3
330
C560
100
AcDbDictionary
280
     1
281
     1
  3
ACAD_XREC_ROUNDTRIP
360
C5E4
  0
DICTIONARY
  5
C5DD
330
C55D
100
AcDbDictionary
280
     1
281
     1
  3
ACAD_XREC_ROUNDTRIP
360
C5DE
  0
DICTIONARY
  5
C5E5
330
C561
100
AcDbDictionary
280
     1
281
     1
  3
ACAD_XREC_ROUNDTRIP
360
C5E6
  0
DICTIONARY
  5
C5D5
330
C559
100
AcDbDictionary
280
     1
281
     1
  3
ACAD_XREC_ROUNDTRIP
360
C5D6
  0
DICTIONARY
  5
C5DB
330
C55C
100
AcDbDictionary
280
     1
281
     1
  3
ACAD_XREC_ROUNDTRIP
360
C5DC
  0
XRECORD
  5
C5BD
102
{ACAD_REACTORS
330
C594
102
}
330
C594
100
AcDbXrecord
280
     1
102
SHADEPLOT
 70
     0
102
SHADEPLOTRESLEVEL
 70
     2
102
SHADEPLOTCUSTOMDPI
 70
   300
  0
XRECORD
  5
C595
102
{ACAD_REACTORS
330
C594
102
}
330
C594
100
AcDbXrecord
280
     1
310
28000000000100008A0000000100080000000000008A0000000000000000000000010000000000000000000000000000FFFFFF000000000000000000000000000000000000000000000000000000000000000000330000006600000099000000CC000000FF00000000330000333300006633000099330000CC330000FF3300
310
0000660000336600006666000099660000CC660000FF66000000990000339900006699000099990000CC990000FF99000000CC000033CC000066CC000099CC0000CCCC0000FFCC000000FF000033FF000066FF000099FF0000CCFF0000FFFF000000003300330033006600330099003300CC003300FF003300003333003333
310
33006633330099333300CC333300FF33330000663300336633006666330099663300CC663300FF66330000993300339933006699330099993300CC993300FF99330000CC330033CC330066CC330099CC3300CCCC3300FFCC330000FF330033FF330066FF330099FF3300CCFF3300FFFF330000006600330066006600660099
310
006600CC006600FF00660000336600333366006633660099336600CC336600FF33660000666600336666006666660099666600CC666600FF66660000996600339966006699660099996600CC996600FF99660000CC660033CC660066CC660099CC6600CCCC6600FFCC660000FF660033FF660066FF660099FF6600CCFF6600
310
FFFF660000009900330099006600990099009900CC009900FF00990000339900333399006633990099339900CC339900FF33990000669900336699006666990099669900CC669900FF66990000999900339999006699990099999900CC999900FF99990000CC990033CC990066CC990099CC9900CCCC9900FFCC990000FF99
310
0033FF990066FF990099FF9900CCFF9900FFFF99000000CC003300CC006600CC009900CC00CC00CC00FF00CC000033CC003333CC006633CC009933CC00CC33CC00FF33CC000066CC003366CC006666CC009966CC00CC66CC00FF66CC000099CC003399CC006699CC009999CC00CC99CC00FF99CC0000CCCC0033CCCC0066CC
310
CC0099CCCC00CCCCCC00FFCCCC0000FFCC0033FFCC0066FFCC0099FFCC00CCFFCC00FFFFCC000000FF003300FF006600FF009900FF00CC00FF00FF00FF000033FF003333FF006633FF009933FF00CC33FF00FF33FF000066FF003366FF006666FF009966FF00CC66FF00FF66FF000099FF003399FF006699FF009999FF00CC
310
99FF00FF99FF0000CCFF0033CCFF0066CCFF0099CCFF00CCCCFF00FFCCFF0000FFFF0033FFFF0066FFFF0099FFFF00CCFFFF00FFFFFF00000000000D0D0D001A1A1A00282828003535350043434300505050005D5D5D006B6B6B00787878008686860093939300A1A1A100AEAEAE00BBBBBB00C9C9C900D6D6D600E4E4E400
310
F1F1F100FFFFFF0000000000000000000000000000000000000000000000000000000000000000000000000000000000E2E2E2E2E2E2E2E2E2E2E2E2E2E2E2E2E2E2E2E2E2E2E2E2E2E2E2E2E2E2E2E2E2E2E2E2E2E2E2E2E2E2E2E2E2E2E2E2E2E2E2E2E2E2E2E2E2E2E2E2E2E2E2E2E2E2E2E2E2E2E2E2E2E2E2E2E2E2E2
310
E2E2E2E2E2E2E2E2E2E2E2E2E2E2E2E2E2E2E2E2E2E2E2E2E2E2E2E2E2E2E2E2E2E2E2E2E2E2E2E2E2E2E2E2E2E2E2E2E2E2E2E2E2E2E2E2E2E2E2E2E2E2E2E2E2E2E2E2E2E2E2E2E2E2E2E2E2E2E2E2E2E2E2E2E2E2E2E2E2E2E2E2E2E2E2E2E2E2E2E2E2E2E2E2E2E2E2E2E2E2E2E2E2E2E2E2E2E2E2E2E2E2E2E2E2E2E2
310
E2E2E2E2E2E2E2E2E2E2E2E2E2E2E2E2E2E2E2E2E2E2E2E2E2E2E2E2E2E2E2E2E2E2E2E2E2E2E2E2E2E2E2E2E2E2E2E2E2E2E2E2E2E2E2E2E2E2E2E2E2E2E2E2E2E2E2E2E2E2E2E2E2E2E2E2E2E2E2E2E2E2E2E2E2E2E2E2E2E2E2E2E2E2E2E2E2E2E2E2E2E2E2E2E2E2E2E2E2E2E2E2E2E2E2E2E2E2E2E2E2E2E2E2E2E2E2
310
E2E2E2E2E2E2E2E2E2E2E2E2E2E2E2E2E2E2E2E2E2E2E2E2E2E2E2E2E2E2E2E2E2E2E2E2E2E2E2E2E2E2E2E2E2E2E2E2E2E2E2E2E2E2E2E2E2E2E2E2E2E2E2E2E2E2E2E2E2E2E2E2E2E2E2E2E2E2E2E2E2E2E2E2E2E2E2E2E2E2E2E2E2E2E2E2E2E2E2E2E2E2E2E2E2E2E2E2E2E2E2E2E2E2E2E2E2E2E2E2E2E2E2E2E2E2E2
310
E2E2E2E2E2E2E2E2E2E2E2E2E2E2E2E2E2E2E2E2E2E2E2E2E2E2E2E2E2E2E2E2E2E2E2E2E2E2E2E2E2E2E2E2E2E2E2E2E2E2E2E2E2E2E2E2E2E2E2E2E2E2E2E2E2E2E2E2E2E2E2E2E2E2E2E2E2E2E2E2E2E2E2E2E2E2E2E2E2E2E2E2E2E2E2E2E2E2E2E2E2E2E2E2E2E2E2E2E2E2E2E2E2E2E2E2E2E2E2E2E2E2E2E2E2E2E2
310
E2E2E2E2E2E2E2E2E2E2E2E2E2E2E2E2E2E2E2E2E2E2E2E2E2E2E2E2E2E2E2E2E2E2E2E2E2E2E2E2E2E2E2E2E2E2E2E2E2E2E2E2E2E2E2E2E2E2E2E2E2E2E2E2E2E2E2E2E2E2E2E2E2E2E2E2E2E2E2E2E2E2E2E2E2E2E2E2E2E2E2E2E2E2E2E2E2E2E2E2E2E2E2E2E2E2E2E2E2E2E2E2E2E2E2E2E2E2E2E2E2E2E2E2E2E2E2
310
E2E2E2E2E2E2E2E2E2E2E2E2E2E2E2E2E2E2E2E2E2E2E2E2E2E2E2E2E2E2E2E2E2E2E2E2E2E2E2E2E2E2E2E2E2E2E2E2E2E2E2E2E2E2E2E2E2E2E2E2E2E2E2E2E2E2E2E2E2E2E2E2E2E2E2E2E2E2E2E2E2E2E2E2E2E2E2E2E2E2E2E2E2E2E2E2E2E2E2E2E2E2E2E2E2E2E2E2E2E2E2E2E2E2E2E2E2E2E2E2E2E2E2E2E2E2E2
310
E2E2E2E2E2E2E2E2E2E2E2E2E2E2E2E2E2E2E2E2E2E2E2E2E2E2E2E2E2E2E2E2E2E2E2E2E2E2E2E2E2E2E2E2E2E2E2E2E2E2E2E2E2E2E2E2E2E2E2E2E2E2E2E2E2E2E2E2E2E2E2E2E2E2E2E2E2E2E2E2E2E2E2E2E2E2E2E2E2E2E2E2E2E2E2E2E2E2E2E2E2E2E2E2E2E2E2E2E2E2E2E2E2E2E2E2E2E2E2E2E2E2E2E2E2E2E2
310
E2E2E2E2E2E2E2E2E2E2E2E2E2E2E2E2E2E2E2E2E2E2E2E2E2E2E2E2E2E2E2E2E2E2E2E2E2E2E2E2E2E2E2E2E2E2E2E2E2E2E2E2E2E2E2E2E2E2E2E2E2E2E2E2E2E2E2E2E2E2E2E2E2E2E2E2E2E2E2E2E2E2E2E2E2E2E2E2E2E2E2E2E2E2E2E2E2E2E2E2E2E2E2E2E2E2E2E2E2E2E2E2E2E2E2E2E2E2E2E2E2E2E2E2E2E2E2
310
E2E2E2E2E2E2E2E2E2E2E2E2E2E2E2E2E2E2E2E2E2E2E2E2E2E2E2E2E2E2E2E2E2E2E2E2E2E2E2E2E2E2E2E2E2E2E2E2E2E2E2E2E2E2E2E2E2E2E2E2E2E2E2E2E2E2E2E2E2E2E2E2E2E2E2E2E2E2E2E2E2E2E2E2E2E2E2E2E2E2E2E2E2E2E2E2E2E2E2E2E2E2E2E2E2E2E2E2E2E2E2E2E2E2E2E2E2E2E2E2E2E2E2E2E2E2E2
310
E2E2E2E2E2E2E2E2E2E2E2E2E2E2E2E2E2E2E2E2E2E2E2E2E2E2E2E2E2E2E2E2E2E2E2E2E2E2E2E2E2E2E2E2E2E2E2E2E2E2E2E2E2E2E2E2E2E2E2E2E2E2E2E2E2E2E2E2E2E2E2E2E2E2E2E2E2E2E2E2E2E2E2E2E2E2E2E2E2E2E2E2E2E2E2E2E2E2E2E2E2E2E2E2E2E2E2E2E2E2E2E2E2E2E2E2E2E2E2E2E2E2E2E2E2E2E2
310
E2E2E2E2E2E2E2E2E2E2E2E2E2E2E2E2E2E2E2E2E2E2E2E2E2E2E2E2E2E2E2E2E2E2E2E2E2E2E2E2E2E2E2E2E2E2E2E2E2E2E2E2E2E2E2E2E2E2E2E2E2E2E2E2E2E2E2E2E2E2E2E2E2E2E2E2E2E2E2E2E2E2E2E2E2E2E2E2E2E2E2E2E2E2E2E2E2E2E2E2E2E2E2E2E2E2E2E2E2E2E2E2E2E2E2E2E2E2E2E2E2E2E2E2E2E2E2
310
E2E2E2E2E2E2E2E2E2E2E2E2E2E2E2E2E2E2E2E2E2E2E2E2E2E2E2E2E2E2E2E2E2E2E2E2E2E2E2E2E2E2E2E2E2E2E2E2E2E2E2E2E2E2E2E2E2E2E2E2E2E2E2E2E2E2E2E2E2E2E2E2E2E2E2E2E2E2E2E2E2E2E2E2E2E2E2E2E2E2E2E2E2E2E2E2E2E2E2E2E2E2E2E2E2E2E2E2E2E2E2E2E2E2E2E2E2E2E2E2E2E2E2E2E2E2E2
310
E2E2E2E2E2E2E2E2E2E2E2E2E2E2E2E2E2E2E2E2E2E2E2E2E2E2E2E2E2E2E2E2E2E2E2E2E2E2E2E2E2E2E2E2E2E2E2E2E2E2E2E2E2E2E2E2E2E2E2E2E2E2E2E2E2E2E2E2E2E2E2E2E2E2E2E2E2E2E2E2E2E2E2E2E2E2E2E2E2E2E2E2E2E2E2E2E2E2E2E2E2E2E2E2E2E2E2E2E2E2E2E2E2E2E2E2E2E2E2E2E2E2E2E2E2E2E2
310
E2E2E2E2E2E2E2E2E2E2E2E2E2E2E2E2E2E2E2E2E2E2E2E2E2E2E2E2E2E2E2E2E2E2E2E2E2E2E2E2E2E2E2E2E2E2E2E2E2E2E2E2E2E2E2E2E2E2E2E2E2E2E2E2E2E2E2E2E2E2E2E2E2E2E2E2E2E2E2E2E2E2E2E2E2E2E2E2E2E2E2E2E2E2E2E2E2E2E2E2E2E2E2E2E2E2E2E2E2E2E2E2E2E2E2E2E2E2E2E2E2E2E2E2E2E2E2
310
E2E2E2E2E2E2E2E2E2E2E2E2E2E2E2E2E2E2E2E2E2E2E2E2E2E2E2E2E2E2E2E2E2E2E2E2E2E2E2E2E2E2E2E2E2E2E2E2E2E2E2E2E2E2E2E2E2E2E2E2E2E2E2E2E2E2E2E2E2E2E2E2E2E2E2E2E2E2E2E2E2E2E2E2E2E2E2E2E2E2E2E2E2E2E2E2E2E2E2E2E2E2E2E2E2E2E2E2E2E2E2E2E2E2E2E2E2E2E2E2E2E2E2E2E2E2E2
310
E2E2E2E2E2E2E2E2E2E2E2E2E2E2E2E2E2E2E2E2E2E2E2E2E2E2E2E2E2E2E2E2E2E2E2E2E2E2E2E2E2E2E2E2E2E2E2E2E2E2E2E2E2E2E2E2E2E2E2E2E2E2E2E2E2E2E2E2E2E2E2E2E2E2E2E2E2E2E2E2E2E2E2E2E2E2E2E2E2E2E2E2E2E2E2E2E2E2E2E2E2E2E2E2E2E2E2E2E2E2E2E2E2E2E2E2E2E2E2E2E2E2E2E2E2E2E2
310
E2E2E2E2E2E2E2E2E2E2E2E2E2E2E2E2E2E2E2E2E2E2E2E2E2E2E2E2E2E2E2E2E2E2E2E2E2E2E2E2E2E2E2E2E2E2E2E2E2E2E2E2E2E2E2E2E2E2E2E2E2E2E2E2E2E2E2E2E2E2E2E2E2E2E2E2E2E2E2E2E2E2E2E2E2E2E2E2E2E2E2E2E2E2E2E2E2E2E2E2E2E2E2E2E2E2E2E2E2E2E2E2E2E2E2E2E2E2E2E2E2E2E2E2E2E2E2
310
E2E2E2E2E2E2E2E2E2E2E2E2E2E2E2E2E2E2E2E2E2E2E2E2E2E2E2E2E2E2E2E2E2E2E2E2E2E2E2E2E2E2E2E2E2E2E2E2E2E2E2E2E2E2E2E2E2E2E2E2E2E2E2E2E2E2E2E2E2E2E2E2E2E2E2E2E2E2E2E2E2E2E2E2E2E2E2E2E2E2E2E2E2E2E2E2E2E2E2E2E2E2E2E2E2E2E2E2E2E2E2E2E2E2E2E2E2E2E2E2E2E2E2E2E2E2E2
310
E2E2E2E2E2E2E2E2E2E2E2E2E2E2E2E2E2E2E2E2E2E2E2E2E2E2E2E2E2E2E2E2E2E2E2E2E2E2E2E2E2E2E2E2E2E2E2E2E2E2E2E2E2E2E2E2E2E2E2E2E2E2E2E2E2E2E2E2E2E2E2E2E2E2E2E2E2E2E2E2E2E2E2E2E2E2E2E2E2E2E2E2E2E2E2E2E2E2E2E2E2E2E2E2E2E2E2E2E2E2E2E2E2E2E2E2E2E2E2E2E2E2E2E2E2E2E2
310
E2E2E2E2E2E2E2E2E2E2E2E2E2E2E2E2E2E2E2E2E2E2E2E2E2E2E2E2E2E2E2E2E2E2E2E2E2E2E2E2E2E2E2E2E2E2E2E2E2E2E2E2E2E2E2E2E2E2E2E2E2E2E2E2E2E2E2E2E2E2E2E2E2E2E2E2E2E2E2E2E2E2E2E2E2E2E2E2E2E2E2E2E2E2E2E2E2E2E2E2E2E2E2E2E2E2E2E2E2E2E2E2E2E2E2E2E2E2E2E2E2E2E2E2E2E2E2
310
E2E2E2E2E2E2E2E2E2E2E2E2E2E2E2E2E2E2E2E2E2E2E2E2E2E2E2E2E2E2E2E2E2E2E2E2E2E2E2E2E2E2E2E2E2E2E2E2E2E2E2E2E2E2E2E2E2E2E2E2E2E2E2E2E2E2E2E2E2E2E2E2E2E2E2E2E2E2E2E2E2E2E2E2E2E2E2E2E2E2E2E2E2E2E2E2E2E2E2E2E2E2E2E2E2E2E2E2E2E2E2E2E2E2E2E2E2E2E2E2E2E2E2E2E2E2E2
310
E2E2E2E2E2E2E2E2E2E2E2E2E2E2E2E2E2E2E2E2E2E2E2E2E2E2E2E2E2E2E2E2E2E2E2E2E2E2E2E2E2E2E2E2E2E2E2E2E2E2E2E2E2E2E2E2E2E2E2E2E2E2E2E2E2E2E2E2E2E2E2E2E2E2E2E2E2E2E2E2E2E2E2E2E2E2E2E2E2E2E2E2E2E2E2E2E2E2E2E2E2E2E2E2E2E2E2E2E2E2E2E2E2E2E2E2E2E2E2E2E2E2E2E2E2E2E2
310
E2E2E2E2E2E2E2E2E2E2E2E2E2E2E2E2E2E2E2E2E2E2E2E2E2E2E2E2E2E2E2E2E2E2E2E2E2E2E2E2E2E2E2E2E2E2E2E2E2E2E2E2E2E2E2E2E2E2E2E2E2E2E2E2E2E2E2E2E2E2E2E2E2E2E2E2E2E2E2E2E2E2E2E2E2E2E2E2E2E2E2E2E2E2E2E2E2E2E2E2E2E2E2E2E2E2E2E2E2E2E2E2E2E2E2E2E2E2E2E2E2E2E2E2E2E2E2
310
E2E2E2E2E2E2E2E2E2E2E2E2E2E2E2E2E2E2E2E2E2E2E2E2E2E2E2E2E2E2E2E2E2E2E2E2E2E2E2E2E2E2E2E2E2E2E2E2E2E2E2E2E2E2E2E2E2E2E2E2E2E2E2E2E2E2E2E2E2E2E2E2E2E2E2E2E2E2E2E2E2E2E2E2E2E2E2E2E2E2E2E2E2E2E2E2E2E2E2E2E2E2E2E2E2E2E2E2E2E2E2E2E2E2E2E2E2E2E2E2E2E2E2E2E2E2E2
310
E2E2E2E2E2E2E2E2E2E2E2E2E2E2E2E2E2E2E2E2E2E2E2E2E2E2E2E2E2E2E2E2E2E2E2E2E2E2E2E2E2E2E2E2E2E2E2E2E2E2E2E2E2E2E2E2E2E2E2E2E2E2E2E2E2E2E2E2E2E2E2E2E2E2E2E2E2E2E2E2E2E2E2E2E2E2E2E2E2E2E2E2E2E2E2E2E2E2E2E2E2E2E2E2E2E2E2E2E2E2E2E2E2E2E2E2E2E2E2E2E2E2E2E2E2E2E2
310
E2E2E2E2E2E2E2E2E2E2E2E2E2E2E2E2E2E2E2E2E2E2E2E2E2E2E2E2E2E2E2E2E2E2E2E2E2E2E2E2E2E2E2E2E2E2E2E2E2E2E2E2E2E2E2E2E2E2E2E2E2E2E2E2E2E2E2E2E2E2E2E2E2E2E2E2E2E2E2E2E2E2E2E2E2E2E2E2E2E2E2E2E2E2E2E2E2E2E2E2E2E2E2E2E2E2E2E2E2E2E2E2E2E2E2E2E2E2E2E2E2E2E2E2E2E2E2
310
E2E2E2E2E2E2E2E2E2E2E2E2E2E2E2E2E2E2E2E2E2E2E2E2E2E2E2E2E2E2E2E2E2E2E2E2E2E2E2E2E2E2E2E2E2E2E2E2E2E2E2E2E2E2E2E2E2E2E2E2E2E2E2E2E2E2E2E2E2E2E2E2E2E2E2E2E2E2E2E2E2E2E2E2E2E2E2E2E2E2E2E2E2E2E2E2E2E2E2E2E2E2E2E2E2E2E2E2E2E2E2E2E2E2E2E2E2E2E2E2E2E2E2E2E2E2E2
310
E2E2E2E2E2E2E2E2E2E2E2E2E2E2E2E2E2E2E2E2E2E2E2E2E2E2E2E2E2E2E2E2E2E2E2E2E2E2E2E2E2E2E2E2E2E2E2E2E2E2E2E2E2E2E2E2E2E2E2E2E2E2E2E2E2E2E2E2E2E2E2E2E2E2E2E2E2E2E2E2E2E2E2E2E2E2E2E2E2E2E2E2E2E2E2E2E2E2E2E2E2E2E2E2E2E2E2E2E2E2E2E2E2E2E2E2E2E2E2E2E2E2E2E2E2E2E2
310
E2E2E2E2E2E2E2E2E2E2E2E2E2E2E2E2E2E2E2E2E2E2E2E2E2E2E2E2E2E2E2E2E2E2E2E2E2E2E2E2E2E2E2E2E2E2E2E2E2E2E2E2E2E2E2E2E2E2E2E2E2E2E2E2E2E2E2E2E2E2E2E2E2E2E2E2E2E2E2E2E2E2E2E2E2E2E2E2E2E2E2E2E2E2E2E2E2E2E2E2E2E2E2E2E2E2E2E2E2E2E2E2E2E2E2E2E2E2E2E2E2E2E2E2E2E2E2
310
E2E2E2E2E2E2E2E2E2E2E2E2E2E2E2E2E2E2E2E2E2E2E2E2E2E2E2E2E2E2E2E2E2E2E2E2E2E2E2E2E2E2E2E2E2E2E2E2E2E2E2E2E2E2E2E2E2E2E2E2E2E2E2E2E2E2E2E2E2E2E2E2E2E2E2E2E2E2E2E2E2E2E2E2E2E2E2E2E2E2E2E2E2E2E2E2E2E2E2E2E2E2E2E2E2E2E2E2E2E2E2E2E2E2E2E2E2E2E2E2E2E2E2E2E2E2E2
310
E2E2E2E2E2E2E2E2E2E2E2E2E2E2E2E2E2E2E2E2E2E2E2E2E2E2E2E2E2E2E2E2E2E2E2E2E2E2E2E2E2E2E2E2E2E2E2E2E2E2E2E2E2E2E2E2E2E2E2E2E2E2E2E2E2E2E2E2E2E2E2E2E2E2E2E2E2E2E2E2E2E2E2E2E2E2E2E2E2E2E2E2E2E2E2E2E2E2E2E2E2E2E2E2E2E2E2E2E2E2E2E2E2E2E2E2E2E2E2E2E2E2E2E2E2E2E2
310
E2E2E2E2E2E2E2E2E2E2E2E2E2E2E2E2E2E2E2E2E2E2E2E2E2E2E2E2E2E2E2E2E2E2E2E2E2E2E2E2E2E2E2E2E2E2E2E2E2E2E2E2E2E2E2E2E2E2E2E2E2E2E2E2E2E2E2E2E2E2E2E2E2E2E2E2E2E2E2E2E2E2E2E2E2E2E2E2E2E2E2E2E2E2E2E2E2E2E2E2E2E2E2E2E2E2E2E2E2E2E2E2E2E2E2E2E2E2E2E2E2E2E2E2E2E2E2
310
E2E2E2E2E2E2E2E2E2E2E2E2E2E2E2E2E2E2E2E2E2E2E2E2E2E2E2E2E2E2E2E2E2E2E2E2E2E2E2E2E2E2E2E2E2E2E2E2E2E2E2E2E2E2E2E2E2E2E2E2E2E2E2E2E2E2E2E2E2E2E2E2E2E2E2E2E2E2E2E2E2E2E2E2E2E2E2E2E2E2E2E2E2E2E2E2E2E2E2E2E2E2E2E2E2E2E2E2E2E2E2E2E2E2E2E2E2E2E2E2E2E2E2E2E2E2E2
310
E2E2E2E2E2E2E2E2E2E2E2E2E2E2E2E2E2E2E2E2E2E2E2E2E2E2E2E2E2E2E2E2E2E2E2E2E2E2E2E2E2E2E2E2E2E2E2E2E2E2E2E2E2E2E2E2E2E2E2E2E2E2E2E2E2E2E2E2E2E2E2E2E2E2E2E2E2E2E2E2E2E2E2E2E2E2E2E2E2E2E2E2E2E2E2E2E2E2E2E2E2E2E2E2E2E2E2E2E2E2E2E2E2E2E2E2E2E2E2E2E2E2E2E2E2E2E2
310
E2E2E2E2E2E2E2E2E2E2E2E2E2E2E2E2E2E2E2E2E2E2E2E2E2E2E2E2E2E2E2E2E2E2E2E2E2E2E2E2E2E2E2E2E2E2E2E2E2E2E2E2E2E2E2E2E2E2E2E2E2E2E2E2E2E2E2E2E2E2E2E2E2E2E2E2E2E2E2E2E2E2E2E2E2E2E2E2E2E2E2E2E2E2E2E2E2E2E2E2E2E2E2E2E2E2E2E2E2E2E2E2E2E2E2E2E2E2E2E2E2E2E2E2E2E2E2
310
E2E2E2E2E2E2E2E2E2E2E2E2E2E2E2E2E2E2E2E2E2E2E2E2E2E2E2E2E2E2E2E2E2E2E2E2E2E2E2E2E2E2E2E2E2E2E2E2E2E2E2E2E2E2E2E2E2E2E2E2E2E2E2E2E2E2E2E2E2E2E2E2E2E2E2E2E2E2E2E2E2E2E2E2E2E2E2E2E2E2E2E2E2E2E2E2E2E2E2E2E2E2E2E2E2E2E2E2E2E2E2E2E2E2E2E2E2E2E2E2E2E2E2E2E2E2E2
310
E2E2E2E2E2E2E2E2E2E2E2E2E2E2E2E2E2E2E2E2E2E2E2E2E2E2E2E2E2E2E2E2E2E2E2E2E2E2E2E2E2E2E2E2E2E2E2E2E2E2E2E2E2E2E2E2E2E2E2E2E2E2E2E2E2E2E2E2E2E2E2E2E2E2E2E2E2E2E2E2E2E2E2E2E2E2E2E2E2E2E2E2E2E2E2E2E2E2E2E2E2E2E2E2E2E2E2E2E2E2E2E2E2E2E2E2E2E2E2E2E2E2E2E2E2E2E2
310
E2E2E2E2E2E2E2E2E2E2E2E2E2E2E2E2E2E2E2E2E2E2E2E2E2E2E2E2E2E2E2E2E2E2E2E2E2E2E2E2E2E2E2E2E2E2E2E2E2E2E2E2E2E2E2E2E2E2E2E2E2E2E2E2E2E2E2E2E2E2E2E2E2E2E2E2E2E2E2E2E2E2E2E2E2E2E2E2E2E2E2E2E2E2E2E2E2E2E2E2E2E2E2E2E2E2E2E2E2E2E2E2E2E2E2E2E2E2E2E2E2E2E2E2E2E2E2
310
E2E2E2E2E2E2E2E2E2E2E2E2E2E2E2E2E2E2E2E2E2E2E2E2E2E2E2E2E2E2E2E2E2E2E2E2E2E2E2E2E2E2E2E2E2E2E2E2E2E2E2E2E2E2E2E2E2E2E2E2E2E2E2E2E2E2E2E2E2E2E2E2E2E2E2E2E2E2F5E2E2F5E2E2E2E2E2E2E2E2E2E2E2E2E2E2E2E2E2E2E2E2E2E2E2E2E2E2E2E2E2E2E2E2E2E2E2E2E2E2E2E2E2E2E2E2E2
310
E2E2E2E2E2E2E2E2E2E2E2E2E2E2E2E2E2E2E2E2E2E2E2E2E2E2E2E2E2E2E2E2E2E2E2E2E2E2E2E2E2E2E2E2E2E2E2E2E2E2E2E2E2E2E2E2E2E2E2E2E2E2E2E2E2E2E2E2E2E2E2E2E2E2E2E2E2E2E2E2E2E2E2E2E2E2E2E2E2E2E2E2E2E2E2E2E2E2E2E2E2E2E2E2E2E2E2E2E2E2E2E2E2E2E2E2E2E2E2E2E2E2E2E2E2E2E2
310
E2E2E2E2E2E2E2E2E2E2E2E2E2E2E2E2E2E2E2E2E2E2E2E2E2E2E2E2E2E2E2E2E2E2E2E2E2E2E2E2E2E2E2E2E2E2E2E2E2E2E2E2E2E2E2E2E2E2E2E2E2E2E2E2E2E2E2E2E2E2E2E2E2E2E2E2E2E2E2E2F5F5F5F5F5E2E2E2E2E2E2E2E2E2E2E2E2E2E2E2E2E2E2E2E2E2E2E2E2E2E2E2E2E2E2E2E2E2E2E2E2E2E2E2E2E2E2
310
E2E2E2E2E2E2E2E2E2E2E2E2E2E2E2E2E2E2E2E2E2E2E2E2E2E2E2E2E2E2E2E2E2E2E2E2E2E2E2E2E2E2E2E2E2E2E2E2E2E2E2E2E2E2E2E2E2E2E2E2E2E2E2E2E2E2E2E2E2E2E2E2E2E2E2E2E2E2E2E2E2E2E2E2E2E2E2E2E2E2E2E2E2E2E2E2E2E2E2E2E2E2E2E2E2E2E2E2E2E2E2E2E2E2E2E2E2E2E2E2E2E2E2E2E2E2E2
310
E2E2E2E2E2E2E2E2E2E2E2E2E2E2E2E2E2E2E2E2E2E2E2E2E2E2E2E2E2E2E2E2E2E2E2E2E2E2E2E2E2E2E2E2E2E2E2E2E2E2E2E2E2E2E2E2E2E2E2E2E2E2E2E2E2E2E2E2E2E2E2E2E2E2E2E2E2F5F5F5F5F5F5F5F5F5F5F5F5F5F5F5F5F5F5F5E2E2E2E2E2E2E2E2E2E2E2E2E2E2E2E2E2E2E2E2E2E2E2E2E2E2E2E2E2E2E2
310
E2E2E2E2E2E2E2E2E2E2E2E2E2E2E2E2E2E2E2E2E2E2E2E2E2E2E2E2E2E2E2E2E2E2E2E2E2E2E2E2E2E2E2E2E2E2E2E2E2E2E2E2E2E2E2E2E2E2E2E2E2E2E2E2E2E2E2E2E2E2E2E2E2E2E2E2E2E2E2E2E2E2E2E2E2E2E2E2E2E2E2E2E2E2E2E2E2E2E2E2E2E2E2E2E2E2E2E2E2E2E2E2E2E2E2E2E2E2E2E2E2E2E2E2E2E2E2
310
E2E2E2E2E2E2E2E2E2E2E2E2E2E2E2E2E2E2E2E2E2E2E2E2E2E2E2E2E2E2E2E2E2E2E2E2E2E2E2E2E2E2E2E2E2E2E2E2E2E2E2E2E2E2E2E2E2E2E2E2E2E2E2E2E2E2E2E2E2E2E2E2E2E2E2E2E2E2E2F5F5F5F5F5F5F5F5F5F5F5F5F5F5F5F5F5E2F5E2E2E2E2E2E2E2E2E2E2E2E2E2E2E2E2E2E2E2E2E2E2E2E2E2E2E2E2E2
310
E2E2E2E2E2E2E2E2E2E2E2E2E2E2E2E2E2E2E2E2E2E2E2E2E2E2E2E2E2E2E2E2E2E2E2E2E2E2E2E2E2E2E2E2E2E2E2E2E2E2E2E2E2E2E2E2E2E2E2E2E2E2E2E2E2E2E2E2E2E2E2E2E2E2E2E2E2E2E2E2E2E2E2E2E2E2E2E2E2E2E2E2E2E2E2E2E2E2E2E2E2E2E2E2E2E2E2E2E2E2E2E2E2E2E2E2E2E2E2E2E2E2E2E2E2E2E2
310
E2E2E2E2E2E2E2E2E2E2E2E2E2E2E2E2E2E2E2E2E2E2E2E2E2E2E2E2E2E2E2E2E2E2E2E2E2E2E2E2E2E2E2E2E2E2E2E2E2E2E2E2E2E2E2E2E2E2E2E2E2E2E2E2E2E2E2E2E2E2E2E2E2E2E2E2E2E2E2E2E2F5F5F5F5F5F5F5F5F5F5F5F5F5F5F5F5F5E2E2F5E2E2E2E2E2E2E2E2E2E2E2E2E2E2E2E2E2E2E2E2E2E2E2E2E2E2
310
E2E2E2E2E2E2E2E2E2E2E2E2E2E2E2E2E2E2E2E2E2E2E2E2E2E2E2E2E2E2E2E2E2E2E2E2E2E2E2E2E2E2E2E2E2E2E2E2E2E2E2E2E2E2E2E2E2E2E2E2E2E2E2E2E2E2E2E2E2E2E2E2E2E2E2E2E2E2E2E2E2E2E2E2E2E2E2E2E2E2E2E2E2E2E2E2E2E2E2E2E2E2E2E2E2E2E2E2E2E2E2E2E2E2E2E2E2E2E2E2E2E2E2E2E2E2E2
310
E2E2E2E2E2E2E2E2E2E2E2E2E2E2E2E2E2E2E2E2E2E2E2E2E2E2E2E2E2E2E2E2E2E2E2E2E2E2E2E2E2E2E2E2E2E2E2E2E2E2E2E2E2E2E2E2E2E2E2E2E2E2E2E2E2E2E2E2E2E2E2E2E2E2E2E2E2E2E2E2E2E2E2E2E2E2E2E2E2E2E2E2E2E2E2E2E2E2E2E2E2E2F5E2E2E2E2E2E2E2E2E2E2E2E2E2E2E2E2E2E2E2E2E2E2E2E2
310
E2E2E2E2E2E2E2E2E2E2E2E2E2E2E2E2E2E2E2E2E2E2E2E2E2E2E2E2E2E2E2E2E2E2E2E2E2E2E2E2E2E2E2E2E2E2E2E2E2E2E2E2E2E2E2E2E2E2E2E2E2E2E2E2E2E2E2E2E2E2E2E2E2E2E2E2E2E2E2E2E2E2E2E2E2E2E2E2E2E2E2E2E2E2E2E2E2E2E2E2E2E2E2E2E2E2E2E2E2E2E2E2E2E2E2E2E2E2E2E2E2E2F5F5F5F5F5
310
F5F5F5F5F5F5F5F5E2E2E2E2E2E2E2E2E2E2E2E2E2E2E2E2E2E2E2E2E2E2E2E2E2E2E2E2E2E2E2E2E2E2E2E2E2E2E2E2E2E2E2E2E2E2E2E2E2E2E2E2E2E2E2E2E2E2E2E2E2E2E2E2E2E2E2E2E2E2E2E2E2E2E2E2E2E2E2E2E2E2E2E2E2E2E2E2E2E2E2E2E2E2E2E2E2F5E2E2E2E2E2E2E2E2E2E2E2E2E2E2E2E2E2E2E2E2E2
310
E2E2E2E2E2E2E2E2E2E2E2E2E2E2E2E2E2E2E2E2E2E2E2E2E2E2E2E2E2E2E2E2E2E2E2E2E2E2E2E2E2E2E2E2E2E2E2E2E2E2E2E2E2E2E2E2E2E2E2E2E2E2E2E2E2E2E2E2E2E2E2E2E2E2E2E2E2E2E2E2E2E2E2E2E2E2E2E2E2E2E2E2E2E2E2E2E2E2E2E2E2E2E2E2E2E2E2E2E2E2E2E2E2E2E2E2E2E2E2E2E2E2E2E2F5F5F5
310
F5F5E2F5F5F5F5F5F5F5E2E2E2E2E2E2E2E2E2E2E2E2E2E2E2E2E2E2E2E2E2E2E2E2E2E2E2E2E2E2E2E2E2E2E2E2E2E2E2E2E2E2E2E2E2E2E2E2E2E2E2E2E2E2E2E2E2E2E2E2E2E2E2E2E2E2E2E2E2E2E2E2E2E2E2E2E2E2E2E2E2E2E2E2E2E2E2E2E2E2E2E2E2E2E2E2E2F5E2E2E2E2E2E2E2E2E2E2E2E2E2E2E2E2E2E2E2
310
E2E2E2E2E2E2E2E2E2E2E2E2E2E2E2E2E2E2E2E2E2E2E2E2E2E2E2E2E2E2E2E2E2E2E2E2E2E2E2E2E2E2E2E2E2E2E2E2E2E2E2E2E2E2E2E2E2E2E2E2E2E2E2E2E2E2E2E2E2E2E2E2E2E2E2E2E2E2E2E2E2E2E2E2E2E2E2E2E2E2E2E2E2E2E2E2E2E2E2E2E2E2E2E2E2E2E2E2E2E2E2E2E2E2E2E2E2E2E2E2E2E2E2E2E2E2E2
310
E2E2E2E2E2E2E2E2E2E2E2E2E2E2E2E2E2E2E2E2E2E2E2E2E2E2E2E2E2E2E2E2E2E2E2E2E2E2E2E2E2E2E2E2E2E2E2E2E2E2E2E2E2E2E2E2E2E2E2E2E2E2E2E2E2E2E2E2E2E2E2E2E2E2E2E2E2E2E2E2E2E2E2E2E2E2E2E2E2E2E2E2E2E2E2E2E2E2E2E2E2E2E2E2E2E2E2E2E2E2F5E2E2E2E2E2E2E2E2E2E2E2E2E2E2E2E2
310
E2E2E2E2E2E2E2E2E2E2E2E2E2E2E2E2E2E2E2E2E2E2E2E2E2E2E2E2E2E2E2E2E2E2E2E2E2E2E2E2E2E2E2E2E2E2E2E2E2E2E2E2E2E2E2E2E2E2E2E2E2E2E2E2E2E2E2E2E2E2E2E2E2E2E2E2E2E2E2E2E2E2E2E2E2E2E2E2E2E2E2E2E2E2E2E2E2E2E2E2E2E2E2E2E2E2E2E2E2E2E2E2E2E2E2E2E2E2E2E2E2E2E2E2E2E2E2
310
E2E2E2E2E2E2E2E2E2E2E2E2E2E2E2E2E2E2E2E2E2E2E2E2E2E2E2E2E2E2E2E2E2E2E2E2E2E2E2E2E2E2E2E2E2E2E2E2E2E2E2E2E2E2E2E2E2E2E2E2E2E2E2E2E2E2E2E2E2E2E2E2E2E2E2E2E2E2E2E2E2E2E2E2E2E2E2E2E2E2E2E2E2E2E2E2E2E2E2E2E2E2E2E2E2E2E2E2E2E2E2E2F5E2E2E2E2E2E2E2E2E2E2E2E2E2E2
310
E2E2E2E2E2E2E2E2E2E2E2E2E2E2E2E2E2E2E2E2E2E2E2E2E2E2E2E2E2E2E2E2E2E2E2E2E2E2E2E2E2E2E2E2E2E2E2E2E2E2E2E2E2E2E2E2E2E2E2E2E2E2E2E2E2E2E2E2E2E2E2E2E2E2E2E2E2E2E2E2E2E2E2E2E2E2E2E2E2E2E2E2E2E2E2E2E2E2E2E2E2E2E2E2E2E2E2E2E2E2E2E2E2E2E2E2E2E2E2E2E2E2E2F0F0F0F0
310
F0F0F0F0F0F0F0F0F0F0F0F0F0F0F0F0F0F0F0F0F0F0F0F0F0F0F0F0E2E2E2E2E2E2E2E2E2E2E2E2E2E2E2E2E2E2E2E2E2E2E2E2E2E2E2E2E2E2E2E2E2E2E2E2E2E2E2E2E2E2E2E2E2E2E2E2E2E2E2E2E2E2E2E2E2E2E2E2E2E2E2E2E2E2E2E2E2E2E2E2E2E2E2E2E2E2E2E2E2E2E2F0F0F0F0F5F0F0F0F0F0F0F0F0F0E2E2
310
E2E2E2E2E2E2E2E2E2F5F5F5F5F5E2F5F5F5F5F5F5F5F5F5E2E2E2E2E2E2E2E2E2E2E2E2E2E2E2E2E2E2E2E2E2E2E2E2E2E2E2E2E2E2E2E2E2E2E2E2E2E2E2E2E2E2E2E2E2E2E2E2E2E2E2E2E2E2E2E2E2E2E2E2E2E2E2E2E2E2E2E2E2E2E2E2E2E2E2E2E2E2E2E2E2E2E2E2E2E2E2E2E2E2E2E2E2E2E2E2E2E2E2E2E2F0E2
310
E2E2E2E2F0F0E2E2E2E2E2F0E2E2E2E2E2E2E2F0F0E2E2E2E2E2E2E2E2F0E2E2E2E2E2E2E2E2E2E2E2E2E2E2E2E2E2E2E2E2E2E2E2E2E2E2E2E2E2E2E2E2E2E2E2E2E2E2E2E2E2E2E2E2E2E2E2E2E2E2E2E2E2E2E2E2E2E2E2E2E2E2E2E2E2E2E2E2E2E2E2E2E2E2E2E2E2E2E2E2E2E2E2E2F0F0E2F5E2E2F0F0E2F0F0F0F0
310
E2E2E2E2E2E2E2E2E2E2E2F5F5F5F5F5F5F5F5F5F5F5F5F5F5F5E2E2E2E2E2E2E2E2E2E2E2E2E2E2E2E2E2E2E2E2E2E2E2E2E2E2E2E2E2E2E2E2E2E2E2E2E2E2E2E2E2E2E2E2E2E2E2E2E2E2E2E2E2E2E2E2E2E2E2E2E2E2E2E2E2E2E2E2E2E2E2E2E2E2E2E2E2E2E2E2E2E2E2E2E2E2E2E2E2E2E2E2E2E2E2E2E2E2E2E2E2
310
F0E2E2E2E2E2E2E2E2E2E2E2E2F0E2E2E2E2E2E2E2E2E2E2E2E2E2E2E2E2E2F0E2E2E2E2E2E2E2E2E2E2E2E2E2E2E2E2E2E2E2E2E2E2E2E2E2E2E2E2E2E2E2E2E2E2E2E2E2E2E2E2E2E2E2E2E2E2E2E2E2E2E2E2E2E2E2E2E2E2E2E2E2E2E2E2E2E2E2E2E2E2E2E2E2E2E2E2E2E2E2E2E2E2E2E2E2F0E2F0F5E2E2E2E2F0F0
310
E2F0E2E2E2E2E2E2E2E2E2E2E2F5F5F5F5F5F5F5F5F5F5F5F5F5F5F5F5E2E2E2E2E2E2E2E2E2E2E2E2E2E2E2E2E2E2E2E2E2E2E2E2E2E2E2E2E2E2E2E2E2E2E2E2E2E2E2E2E2E2E2E2E2E2E2E2E2E2E2E2E2E2E2E2E2E2E2E2E2E2E2E2E2E2E2E2E2E2E2E2E2E2E2E2E2E2E2E2E2E2E2E2E2E2E2E2E2E2E2E2E2E2E2E2E2E2
310
E2E2F0E2E2E2E2E2E2E2E2E2E2E2E2F0E2E2E2E2E2E2E2E2E2E2E2E2E2E2E2E2E2F0E2E2E2E2E2E2E2E2E2E2E2E2E2E2E2E2E2E2E2E2E2E2E2E2E2E2E2E2E2E2E2E2E2E2E2E2E2E2E2E2E2E2E2E2E2E2E2E2E2E2E2E2E2E2E2E2E2E2E2E2E2E2E2E2E2E2E2E2E2E2F5F5F5F5F5F5E2E2E2E2E2E2E2E2E2F0E2F0F5E2E2E2E2
310
F0F0E2F0E2E2E2E2E2E2E2E2E2F5F5F5F5F5F5F5F5F5F5F5F5F5F5F5F5E2E2E2E2E2E2E2E2E2E2E2E2E2E2E2E2E2E2E2E2E2E2E2E2E2E2E2E2E2E2E2E2E2E2E2E2E2E2E2E2E2E2E2E2E2E2E2E2E2E2E2E2E2E2E2E2E2E2E2E2E2E2E2E2E2E2E2E2E2E2E2E2E2E2E2E2E2E2E2E2E2E2E2E2E2E2E2E2E2E2E2E2E2E2E2E2E2E2
310
E2E2E2E20F0F0F0F0F0F0F0F0F0F0F0F0F0F0F0F0F0F0F0F0F0F0F0F0F0F0F0F0F0F0FF0F0F0F0F0E2E2E2E2E2E2E2E2E2E2E2E2E2E2E2E2E2E2E2E2E2F0F0F0F0F0F0F0F0F0F0F0F0F0F0F0F0F0F0F0F0F0F0F0F0F0E2E2E2E2E2E2E2E2E2E2E2E2E2E2E2E2E2E2E2E2F5F5F5F5F5E2F5E2E2E2E2E2E2E2E2F0E20F0FF50F
310
0F0F0FF0E2F0E2E2E2E2E2E2E2E2F5E2E2E2E2E2E2E2E2E2E2E2E2E2E2E2E2E2E2E2E2E2E2E2E2E2E2E2E2E2E2E2E2E2E2E2E2E2E2E2E2E2E2E2E2E2E2E2E2E2E2E2E2E2E2E2E2E2E2E2E2E2E2E2E2E2E2E2E2E2E2E2E2E2E2E2E2E2E2E2E2E2E2E2E2E2E2E2E2E2E2E2E2E2E2E2E2E2E2E2E2E2E2E2E2E2E2E2E2E2E2E2E2
310
E2E2E2E2E2E20FE2E2E2E2E2E2E2E2E2E2E2E2F0E2E2E2E2E2E2E2E2E2E2E2E2E2E2E2E2E20FE2E2E2F0E2E2E2E2E2E2E2E2E2E2E2E2E2E2E2E2E2E2E2E2E2F0E2E2E2E2F0F0E2E2E2F0E2E2E2E2E2E2F0F0E2E2E2E2E2F0E2E2E2E2E2E2E2E2E2E2E2E2E2E2E2E2E2E2E2E2F5F5F5F5F5E2E2F5F5E2E2E2E2E2E2F0E20FE2
310
F5E2E2E20FF0E2F0E2E2E2E2E2E2E2F5E2E2E2E2E2E2E2E2E2E2E2E2E2E2E2E2E2E2E2E2E2E2E2E2E2E2E2E2E2E2E2E2E2E2E2E2E2E2E2E2E2E2E2E2E2E2E2E2E2E2E2E2E2E2E2E2E2E2E2E2E2E2E2E2E2E2E2E2E2E2E2E2E2E2E2E2E2E2E2E2E2E2E2E2E2E2E2E2E2E2E2E2E2E2E2E2E2E2E2E2E2E2E2E2E2E2E2E2E2E2E2
310
E2E2E2E2E2E2E2E20FE2E2E2E2E2F0F0F0F0F0F0F0F0F0F0F0F0F0F0F0E2E2E2E2E2E2E2E2E2E20FE2E2E2F0E2E2E2E2E2E2E2E2E2E2E2E2E2E2E2E2E2E2E2E2E2F0E2E2E2E2E2E2E2E2E2F0E2E2E2E2E2E2E2E2E2E2E2E2E2F0E2E2E2E2E2E2E2E2E2E2E2E2E2E2E2E2E2E2E2E2E2E2E2E2E2E2E2E2E2F5E2BEBEE2E2F0E2
310
0FE2E2E2E2E20FF0E2F0E2E2E2E2E2F5F5E2E2E2E2E2E2E2E2E2E2E2E2E2E2E2E2E2E2E2E2E2E2E2E2E2E2E2E2E2E2E2E2E2E2E2E2E2E2E2E2E2E2E2E2E2E2E2E2E2E2E2E2E2E2E2E2E2E2E2E2E2E2E2E2E2E2E2E2E2E2E2E2E2E2E2E2E2E2E2E2E2E2E2E2E2E2E2E2E2E2E2E2E2E2E2E2E2E2E2E2E2E2E2E2E2E2E2E2E2E2
310
E2E2E2E2E2E2E2E2E2E20FE2E2E2E2E2F0E2E2E2E2E2E2F0F0E2E2E2E2E2F0E2E2E2E2E2E2E2E2E2E20FE2E2E2F0E2E2E2E2E2E2E2E2E2E2E2E2E2E2E2E2E2E2E2E2E2F0E2E2F0F0F0F0F0F0F0F0F0F0F0F0F0F0E2E2E2E2E2E2E2F0E2E2E2E2E2E2E2E2E2E2E2E2E2E2E2E2E2E2E2E2E2E2E2E2E2E2E2E2E2E2F5BEBEE2E2
310
F0E20FE2E2E2E2E20FF5E2F0E2E2E2E2F5E2E2E2E2E2E2E2E2E2E2E2E2E2E2E2E2E2E2E2E2E2E2E2E2E2E2E2E2E2E2E2E2E2E2E2E2E2E2E2E2E2E2E2E2E2E2E2E2E2E2E2E2E2E2E2E2E2E2E2E2E2E2E2E2E2E2E2E2E2E2E2E2E2E2E2E2E2E2E2E2E2E2E2E2E2E2E2E2E2E2E2E2E2E2E2E2E2E2E2E2E2E2E2E2E2E2E2E2E2E2
310
E2E2E2E2E2E2E2E2E2E2E2E20FE2E2E2E2E2F0E2E2E2E2E2E2C3E2E2E2E2E2E2F0E2E2E2F0F0E2E2E2E2E20FE2E2E2F0E2E2E2E2E2E2E2E2E2E2E2E2E2E2E2E2E2E2E2E2E2F0E2E2F0E2E2E2E2E2F0C3F0E2E2E2E2F0E2E2E2E2E2E2E2F0E2E2E2E2E2E2E2E2E2E2E2E2E2E2E2E2E2E2E2E2E2E2E2E2E2E2E2E2E2E2E2F5BE
310
E2E2F0E20FE2E2E2E2E20FF5E2F0E2E2E2F5E2E2E2E2E2E2E2E2E2E2E2E2E2E2E2E2E2E2E2E2E2E2E2E2E2E2E2E2E2E2E2E2E2E2E2E2E2E2E2E2E2C3E2E2E2E2E2E2E2E2E2E2E2E2E2E2E2E2E2E2E2E2E2E2E2E2E2E2E2E2E2E2E2E2E2E2E2E2E2E2E2E2E2E2E2E2E2E2E2E2E2E2E2E2E2E2E2E2E2E2E2E2E2E2E2E2E2E2E2
310
E2E2E2E2E2E2E2E2E2E2E2E2E2E20FE2E2E2E2E2F0E2E2E2E2E2E2C3E2E2E2E2E2E2F0E2E2E2F0F0E2E2E2E2E20FE2E2E2F0E2E2E2E2E2E2E2E2E2E2E2E2E2E2E2E2E2E2E2E2E2F0E2E2F0E2E2E2E2E2E2C3E2E2E2E2E2F0E2E2E2E2E2E2E2F0E2E2E2E2E2E2E2E2E2E2E2E2E2E2E2E2E2E2E2E2E2E2E2E2E2E2E2E2E2E2E2
310
BEBEE22828280FE2E2E2E2E20F282828E2F5F5E2E2E2E2E2E2E2E2E2E2E2E2E2E2E2E2E2E2E2E2E2E2E2E2E2E2E2E2E2E2E2E2E2E2E2E2E2E2E2E2E2E2C3E2E2E2E2E2E2E2E2E2E2E2E2E2E2E2E2E2E2E2E2E2E2E2E2E2E2E2E2E2E2E2E2E2E2E2E2E2E2E2E2E2E2E2E2E2E2E2E2E2E2E2E2E2E2E2E2E2E2E2E2E2E2E2E2E2
310
DCDCDCDCDCDCDCDCDCDCDCDCDCDCDCDC0FDCDCDCDCDCF0DCDCDCDCDCDCDCDCDCDCDCDCDCF0F0F0F0F0F0DCDCDCF0F0F0F0F0F0F0DCDCDCDCDCDCDCDCDCDCDCDCDCDCDCDCDCDCDCDCDCF02D2D2D2D2D2D2D2D2DC32D2D2D2D2D2D2D2D2D2D2D2D2DF0DCDCDCDCDCDCDCDCDCDCDCDCDCDCDCDCDCDCDCDCDCDCDCDCF0F0F0F0F0
310
F0F0BEBEF02D2D2D0F2D2D2D2D2D0F2D2DF0F5F0F0F0F0F0F0F0F0F0F0DCDCDCDCDCDCDCDCDCDCDCDCDCDCDCDCDCDCDCDCDC2D2D2D2D2D2D2D2D2D2D2D2D2D2D2D2D2D2D2D2D2D2D2DDCDCDCDCDCDCDCDCDCDCDCDCDCDCDCDCDCDCDCDCDCDCDCDCDCE2E2E2E2E2E2E2E2E2E2E2E2E2E2E2E2E2E2E2E2E2E2E2E2E2E2E2E2E2
310
E2E2E2E2E2E2E2E2E2E2E2E2E2E2E2E2E2E20FE2E2E2E2E2BEBEBEBEBEBEBEBEBEBEBEBEBEBEBEF0F0F0F0F0E2E2E2E2E20FE2E2E2F0E2E2E2E2E2E2E2E2E2E2E2E2E2E2E2E2E2E2E2E2E2E2E22D2D2D2D2D2D2D2DC32D2D2D2D2D2D2D2D2D2D2D2DE2E2E2E2E2E2E2E2E2E2E2E2E2E2E2E2E2E2E2E2E2E2E2E2E2E2F0F0F0
310
F0F0F0F02D2D2D2D28E2E2E2E2E2E2E2E228F5F5E2E2E2E2F0F0E2F0E2F0F0E2E2E2E2E2E2E2E2E2E2E2E2E2E2E2E2E2E2E2E2E22DE2E2E2E2E2E2E2E2E2E2E2E2C3E2E2E2E2E2E2E2E22DE2E2E2E2E2E2E2E2E2E2E2E2E2E2E2E2E2E2E2E2E2E2E2E2E2E2E2E2E2E2E2E2E2E2E2E2E2E2E2E2E2E2E2E2E2E2E2E2E2E2E2E2
310
E2E2E2E2E2E2E2E2E2E2E2E2E2E2E2E2E2E2E2E20FE2E2E2E2E2BEE2E2E2E2E2E2C3E2E2E2E2E2E2BEE2E2E2E2F0E2E2E2E2E20FE2E2E2F0E2E2E2E2E2E2E2E2E2E2E2E2E2E2E2E2E2E2E2E2E2E2E22D2DE2E22D2D2D2DC32D2D2DE2E22DE2E2E2E22D2DE2E2E2E2E2E2E2E2E2E2E2E2E2E2E2E2E2E2E2E2E2E2E2E2E2E2F0
310
E2F0E2E2E2E22D2D2D2DE2E2E2E2E2E2E2E2E2E2F5F0F0F0F0F0F0F0E2F0E2F0F0E2E2E2E2E2E2E2E2E2E2E2E2E2E2E2E2E2E2E2E2E22DE2E2E2E2E2E2E2E2E2E2E2E2C3E2E2E2E2E2E2E2E22DE2E2E2E2E2E2E2E2E2E2E2E2E2E2E2E2E2E2E2E2E2E2E2E2E2E2E2E2E2E2E2E2E2E2E2E2E2E2E2E2E2E2E2E2E2E2E2E2E2E2
310
E2E2E2E2E2E2E2E2E2E2E2E2E2E2E2E2E2E2E2E2E2E20FE2E2E2E2E2BEE2E2E2E2E2E2C3E2E2E2E2E2E2BEE2E2E2E2F0E2E2E2E2E20FE2E2E2F0E2E2E2E2E2E2E2E2E2E2E2E2E2E2E2E2E2E2E2E2E2E2E22D2DE2E22D2D2D2DC32D2D2DE22D2DE2E2E2E22D2DE2E2E2E2E2E2E2E2E2E2E2E2E2E2E2E2E2E2E2E2E2E2E2E2E2
310
E2F0E2F0E2E2E2E22DE22D2DE2E2E2E2E2E2E2E2E2E2E22D2DF0E2E2F0E2F0F0E2F0F0E2E2E2E2E2E2E2E2E2E2E2E2E2E2E2E2E2E2E2E2E22DE2E2E2E2E2E2E2E2E2E2E2E2C3E2E2E2E2E2E2E2E22DE2E2E2E2E2E2E2E2E2E2E2E2E2E2E2E2E2E2E2E2E2E2E2E2E2E2E2E2E2E2E2E2E2E2E2E2E2E2E2E2E2E2E2E2E2E2E2E2
310
E2E2E2E2E2E2E2E2E2E2E2E2E2E2E2E2E2E2E2E2E2E2E2E20FE2E2E2E2E2BEE2E2E2E2E2E2C3E2E2E2E2E2E2BEE2E2E2E2F0E2E2E2E2E20FE2E2E2F0E2E2E2E2E2E2E2E2E2E2E2E2E2E2E2E2E2E2E2E2E2E2E22D2DE22D2D2DE2E2C3E2E2E2E22D2DE2E2E2E22D2DE2E2E2E2E2E2E2E2E2E2E2E2E2E2E2E2E2E2E2E2E2E2E2
310
E2E2F5F0E2F0E2E2E2E22DE22D2DE2E2E2E2E2E2E2E2E2E2E22D2DE2E2E2F0E2F0F0E2F0F0E2E2E2E2E2E2E2E2E2E2E2E2E2E2E2E2E2E2E2E2E22DE2E2E2E2E2E2E2E2E2E2E2E2C3E2E2E2E2E2E2E2E22DE2E2E2E2E2E2E2E2E2E2E2E2E2E2E2E2E2E2E2E2E2E2E2E2E2E2E2E2E2E2E2E2E2E2E2E2E2E2E2E2E2E2E2E2E2E2
310
E2E2E2E2E2E2E2E2E2E2E2E2E2E2E2E2E2E2E2E2E2E2E2E2E2E20FE2E2E2E2E2BEE2E2E2E2E2E2C3E2E2E2E2E2E2BEE2E2E2E2F0E2E2E2E2E20FE2E2E2F0E2E2E2E2E2E2E2E2E2E2E2E2E2E2E2E2E2E2E2E2E2E2E22D2DE22DE22DE2E2C3E2E2E2E22D2DE2E2E2E22D2DE2E2E2E2E2E2E2E2E2E2E2E2E2E2E2E2E2E2E2F5F5
310
F5F5F5F5F5F0E2F0E2E2E2E22DE22D2DE2E2E2E2E2E2E2E2E2E2E22D2DE2E2E2F0E2E2F0E2F0F0E2E2E2E2E2E2E2E2E2E2E2E2E2E2E2E2E2E2E2E2E22DE2E2E2E2E2E2E2E2E2E2E2E2C3E2E2E2E2E2E2E2E22DE2E2E2E2E2E2E2E2E2E2E2E2E2E2E2E2E2E2E2E2E2E2E2E2E2E2E2E2E2E2E2E2E2E2E2E2E2E2E2E2E2E2E2E2
310
E2E2E2E2E2E2E2E2E2E2E2E2E2E2E2E2E2E2E2E2E2E2E2E2E2E2E2E20FE2E2E2E2E2BEE2E2E2E2E2E2C3E2E2E2E2E2E2BEE2E2E2E2F0E2E2E2E2E20FE2E2E2F0E2E2E2E2E2E2E2E2E2E2E2E2E2E2E2E2E2E2E2E2E2E2E22D2DE22D2D2DE2E2C3E2E2E2E22D2DE2E2E2E22D2DE2E2E2E2E2E2E2E2E2E2E2E2E2E2E2E2E2E2E2
310
F5F5F5F5F5F5F5F0E2F0E2E2E2E22DE22D2DE2E2E2E2E2E2E2E2E2E22DDCDCDCDCDCDCE2E2F0E2F0F0E2E2E2E2E2E2E2E2E2E2E2E2E2E2E2E2E2E2E2E2E22DE2E2DCDCDCDCDCDCDCDCE2DCDCDCDCDCDCDCDCE2E22DE2E2E2E2E2E2E2E2E2E2E2E2E2E2E2E2E2E2E2E2E2E2E2E2E2E2E2E2E2E2E2E2E2E2E2E2E2E2E2E2E2E2
310
E2E2E2E2E2E2E2E2E2E2E2E2E2E2E2E2E2E2E2E2E2E2E2E2E2E2E2E2E2E20FE2E2E2E2E2BEE2E2E2E2E2E2C3E2E2E2E2E2E2BEE2E2E2E2F0E2E2E2E2E20FE2E2E2F0E2E2E2E2E2E2E2E2E2E2E2E2E2E2E2E2E2E2E2E2E2E22D2D2D2D2D2D2DE2E2C3E2E2E2E22D2DE2E2E2E22D2D2DE2E2E2E2E2E2E2E2E2E2E2E2E2E2E2E2
310
E2E2F5F5F5F5F5F5F5F0E2F0E2E2E22D2DE22D2D2D2D2D2D2D2D2D2D2D2D2D2DE2E2E2E2DCF0F0F0E2F0F0E2E2E2E2E2E2E2E2E2E2E2E2E2E2E2E2E2E2E2E2E22DE2E2DCE2E2DCDCE2E2DCE2DCC3E2DCDCE2E2DCE2E22DE2E2E2E2E2E2E2E2E2E2E2E2E2E2E2E2E2E2E2E2E2E2E2E2E2E2E2E2E2E2E2E2E2E2E2E2E2E2E2E2
310
E2E2E2E2E2E2E2E2E2E2E2E2E2E2E2E2E2E2E2E2E2E2E2E2E2E2E2E2E2E2E2E20FE2E2E2E2E2BEE2E2E2E2E2E2C3E2E2E2E2E2E2BEE2E2E2E2F0E2E2E2E2E20FE2E2E2F0E2E2E2E2E2E2E2E2E2E2E2E2E2E2E2E2E2E2E2E2E2E22D2D2D2DE2E22DE2E2C3E2E2E2E22D2DE2E2E2E22D2D2DE2E2E2E2E2E2E2E2E2E2E2E2E2E2
310
E2E2E2E2F5F5F5F5F5F5F5F0E2F0E2E2E2E22DE22D2DE2E2E2E2E2E2E2E2E2E22DDCDCDCDCDCDCE2E2F0E2F0F0E2E2E2E2E2E2E2E2E2E2E2E2E2E2E2E2E2E2E2E2E22DE2E2DCDCDCDCDCDCDCDCE2DCDCDCDCDCDCDCDCE2E22DE2E2E2E2E2E2E2E2E2E2E2E2E2E2E2E2E2E2E2E2E2E2E2E2E2E2E2E2E2E2E2E2E2E2E2E2E2E2
310
E2E2E2E2E2E2E2E2E2E2E2E2E2E2E2E2E2E2E2E2E2E2E2E2E2E2E2E2E2E2E2E2E2E20FE2E2E2E2E2BEE2E2E2E2E2E2C3E2E2E2E2E2E2BEE2E2E2E2F0E2E2E2E2E20FE2E2E2F0E2E2E2E2E2E2E2E2E2E2E2E2E2E2E2E2E2E2E2E2E2E22D2D2D2DE2E22DE2E2C3E2E2E2E22D2DE2E2E2E22D2D2DE2E2E2E2E2E2E2E2E2E2E2E2
310
E2E2E2E2E2E2F5F5F5F5F5F5F5F0F0F0E2E2E2E22DE22D2DE2E2E2E2E2E2E2E2E2E22D2DE2E2E2E2E2E2E2F0E2F0F0E2E2E2E2E2E2E2E2E2E2E2E2E2E2E2E2E2E2E2E2E22DE2E2E2E2E2E2E2E2E2E2E2E2C3E2E2E2E2E2E2E2E22DE2E2E2E2E2E2E2E2E2E2E2E2E2E2E2E2E2E2E2E2E2E2E2E2E2E2E2E2E2E2E2E2E2E2E2E2
310
E2E2E2E2E2E2E2E2E2E2E2E2E2E2E2E2E2E2E2E2E2E2E2E2E2E2E2E2E2E2E2E2E2E2E2E20FE2E2E2E2E2BEE2E2E2E2E2E2C3E2E2E2E2E2E2BEE2E2E2F0F0E2E2E2E2E20FE2E2E2F0E2E2E2E2E2E2E2E2E2E2E2E2E2E2E2E2E2E2E2E2E2E22D2D2D2DE2E22DE2E2C3E2E2E2E22D2DE2E2E2E22D2D2DE2E2E2E2E2E2E2E2E2E2
310
E2E2E2E2E2E2E2E2F5F5F5F5F5F5F5F0F0F0E2E2E2E22DE22D2DE2E2E2E2E2E2E2E2E2E22D2D2DE2E2E2E2E2E2F0E2F0F0E2E2E2E2E2E2E2E2E2E2E2E2E2E2E2E2E2E2E2E2E22DE2E2E2E2E2E2E2E2E2E2E2E2C3E2E2E2E2E2E2E2E22DE2E2E2E2E2E2E2E2E2E2E2E2E2E2E2E2E2E2E2E2E2E2E2E2E2E2E2E2E2E2E2E2E2E2
310
E2E2E2E2E2E2E2E2E2E2E2E2E2E2E2E2E2E2E2E2E2E2E2E2E2E2E2E2E2E2E2E2E2E2E2E2E2E20FE2E2E2E2E2BEE2E2E2E2E2E2C3E2E2E2E2E2E2BEE2E2E2F0F0E2E2E2E2E20FE2E2E2F0E2E2E2E2E2E2E2E2E2E2E2E2E2E2E2E2E2E2E2E2E2E22D2D2D2DE2E22DE2E2C3E2E2E2E22D2DE2E2E2E22D2D2DE2E2E2E2E2E2E2E2
310
E2E2E2E2E2E2E2E2E2E2F5F5F5F5F5F5E2F0E2F0E2E2E2E22DE22D2DE2E2E2E2E2E2E2E2E2E22D2D2DE2E2E2E2E2F0F0F0F0F0E2E2E2E2E2E2E2E2E2E2E2E2E2E2E2E2E2E2E2E2E22DE2E2E2E2E2E2E2E2E2E2E2E2C3E2E2E2E2E2E2E2E22DE2E2E2E2E2E2E2E2E2E2E2E2E2E2E2E2E2E2E2E2E2E2E2E2E2E2E2E2E2E2E2E2
310
E2E2E2E2E2E2E2E2E2E2E2E2E2E2E2E2E2E2E2E2E2E2E2E2E2E2E2E2E2E2E2E2E2E2E2E2E2E2E2E20FE2E2E2E2E2BEE2E2E2E2E2E2C3E2E2E2E2E2E2BEE2E2E2F0F0E2E2E2E2E20FE2E2E2F0E2E2E2E2E2E2E2E2E2E2E2E2E2E2E2E2E2E2E2E2E2E22D2D2D2DE2E22DE2E2C3E2E2E2E22D2DE2E2E2E22D2D2DE2E2E2E2E2E2
310
E2E2E2E2E2E2E2E2E2E2E2E2F5F5F5F5F5F5F5F0E2F0E2E2E22D2DE22D2DE2E2E2E2E2E2E2E2E2E22D2D2DE2E2E2E2E2F0F0F0F0F0E2E2E2E2E2E2E2E2E2E2E2E2E2E2E2E2E2E2E2E2E22DE2E2E2E2E2E2E2E2E2E2E2E2C3E2E2E2E2E2E2E2E22DE2E2E2E2E2E2E2E2E2E2E2E2E2E2E2E2E2E2E2E2E2E2E2E2E2E2E2E2E2E2
310
E2E2E2E2E2E2E2E2E2E2E2E2E2E2E2E2E2E2E2E2E2E2E2E2E2E2E2E2E2E2E2E2E2E2E2E2E2E2E2E2E2E20FE2E2E2E2E2BEE2E2E2E2E2E2C3E2E2E2E2E2E2BEE2E2E2E2F0E2E2E2E2E20FE2E2E2F0E2E2E2E2E2E2E2E2E2E2E2E2E2E2E2E2E2E2E2E2E2E22D2D2D2DE2E22DE2E2C32D2D2D2D2D2DE2E2E2E22D2D2DE2E2E2E2
310
E2E2E2E2E2E2E2E2E2E2E2E2E2E2F5F5F5F5F5F5F5F0E2F0E2E2E2F52DE22D2DE2E2E2E2E2E2E2E2E2E22D2D2DE2E2E2E2E2E2F0F0F0F0E2E2E2E2E2E2E2E2E2E2E2E2E2E2E2E2E2E2E2E2E22DE2E2E2E2E2E2E2E2E2E2E2E2C3E2E2E2E2E2E2E2E22DE2E2E2E2E2E2E2E2E2E2E2E2E2E2E2E2E2E2E2E2E2E2E2E2E2E2E2E2
310
E2E2E2E2E2E2E2E2E2E2E2E2E2E2E2E2E2E2E2E2E2E2E2E2E2E2E2E2E2E2E2E2E2E2E2E2E2E2E2E2E2E2E2E20FE2E2E2E2E2BEE2E2E2E2E2E2C3E2E2E2E2E2E2BEE2E2E2E2F0E2E2E2E2E20FE2E2E2F0E2E2E2E2E2E2E2E2E2E2E2E2E2E2E2E2E2E2E2E2E2E22D2D2D2DE2E22DE2E2C32D2D2D2D2D2DE2E2E2E22D2D2DE2E2
310
E2E2E2E2E2E2E2E2E2E2E2E2E2E2E2E2F5F5F5F5F5F5F0F0E2F0E2E2E2F52DE22D2DE2E2E2E2E2E2E2E2E2E22D2D2DE2E2E2E2E2E2F0E2F0F0E2E2E2E2E2E2E2E2E2E2E2E2E2E2E2E2E2E2E2E2E22DE2E2E2E2E2E2E2E2E2E2E2E2C3E2E2E2E2E2E2E2E22DE2E2E2E2E2E2E2E2E2E2E2E2E2E2E2E2E2E2E2E2E2E2E2E2E2E2
310
E2E2E2E2E2E2E2E2E2E2E2E2E2E2E2E2E2E2E2E2E2E2E2E2E2E2E2E2E2E2E2E2E2E2E2E2E2E2E2E2E2E2E2E2E2E20FE2E2E2E2E2BEE2E2E2E2E2E2C3E2E2E2E2E2E2BEE2E2E2E2F0E2E2E2E2E20FE2E2E2F0E2E2E2E2E2E2E2E2E2E2E2E2E2E2E2E2E2E2E2E2E2E22D2D2D2DE2E22DE2E2C32D2D2D2D2D2DE2E2E2E22D2D2D
310
E2E2E2E2E2E2E2E2E2E2E2E2E2E2E2E2E2E2F5F5F5E2E2F5F0F0E2F0E2E2E2F52DE22D2DE2E2E2E2E2E2E2E2E2E22D2DE2E2E2E2E2E2E2F0E2F0F0E2E2E2E2E2E2E2E2E2E2E2E2E2E2E2E2E2E2E2E2E22DE2E2E2E2E2E2E2E2E2E2E2E2C3E2E2E2E2E2E2E2E22DE2E2E2E2E2E2E2E2E2E2E2E2E2E2E2E2E2E2E2E2E2E2E2E2
310
E2E2E2E2E2E2E2E2E2E2E2E2E2E2E2E2E2E2E2E2E2E2E2E2E2E2E2E2E2E2E2E2E2E2E2E2E2E2E2E2E2E2E2E2E2E2E2E20FE2E2E2E2E2BEE2E2E2E2E2E2C3E2E2E2E2E2E2BEE2E2E2E2F0E2E2E2E2E20FE2E2E2F0E2E2E2E2E2E2E2E2E2E2E2E2E2E2E2E2E2E2E2E2E2E22D2D2D2DE2E22DE2E2C32D2D2D2D2D2DE2E2E2E22D
310
2D2DE2E2E2E2E2E2E2E2E2E2E2E2E2E2E2E2E2E2F5F5F5E2E2F5F5F0E2F0E2E2E2F52DE22D2DE2E2E2E2E2E2E2E2E2E22DDCDCDCDCDCDCF0F0F0E2F0F0E2E2E2E2E2E2E2E2E2E2E2E2E2E2E2E2E2E2E2E2E22DE2E2DCDCDCDCDCDCDCDCE2DCDCDCDCDCDCDCDCE2E22DE2E2E2E2E2E2E2E2E2E2E2E2E2E2E2E2E2E2E2E2E2E2
310
E2E2E2E2E2E2E2E2E2E2E2E2E2E2E2E2E2E2E2E2E2E2E2E2E2E2E2E2E2E2E2E2E2E2E2E2E2E2E2E2E2E2E2E2E2E2E2E2E2E20FE2E2E2E2E2BEE2E2E2E2E2E2C3E2E2E2E2E2E2BEE2E2E2E2F0E2E2E2E2E20FE2E2E2F0E2E2E2E2E2E2E2E2E2E2E2E2E2E2E2E2E2E2E2E2E2E22D2D2D2D2D2D2DE2E2C3E2E2E2E22D2DE2E2E2
310
E22D2D2DE2E2E2E2E2E2E2E2E2E2E2E2E2E2E2E2E2E2F5F5F5E2E2F5F5F0E2F0E2E2F5E22DE22D2DE2E2E2E2E2E2E2E2E2E22DDCDCDCDCDCDCF0F0E2E2F0F0E2E2E2E2E2E2E2E2E2E2E2E2E2E2E2E2E2E2E2E2E22DE2E2DCDCDCDCDCDCDCDCE2DCDCDCDCDCDCDCDCE2E22DE2E2E2E2E2E2E2E2E2E2E2E2E2E2E2E2E2E2E2E2
310
E2E2E2E2E2E2E2E2E2E2E2E2E2E2E2E2E2E2E2E2E2E2E2E2E2E2E2E2E2E2E2E2E2E2E2E2E2E2E2E2E2E2E2E2E2E2E2E2E2E2E2E20FE2E2E2E2E2BEE2E2E2E2E2E2C3E2E2E2E2E2E2BEE2E2E2E2F0E2E2E2E2E20FE2E2E2F0E2E2E2E2E2E2E2E2E2E2E2E2E2E2E2E2E2E2E2E2E2E22D2D2D2D2D2DE2E2E2C3E2E2E2E22D2DE2
310
E2E2E22D2D2DE2E2E2E2E2E2E2E2E2E2E2E2E2E2E2E2E2E2F5F5F5E2E2F5F5F0E2F0E2E2F5E22DE22D2DE2E2E2E2E2E2E2E2E2E22D2D2DE2E2E2E2F0F0E2E2F0F0E2E2E2E2E2E2E2E2E2E2E2E2E2E2E2E2E2E2E2E2E22DE2E2E2E2E2E2E2E2E2E2E2E2C3E2E2E2E2E2E2E2E22DE2E2E2E2E2E2E2E2E2E2E2E2E2E2E2E2E2E2
310
E2E2E2E2E2E2E2E2E2E2E2E2E2E2E2E2E2E2E2E2E2E2E2E2E2E2E2E2E2E2E2E2E2E2E2E2E2E2E2E2E2E2E2E2E2E2E2E2E2E2E2E2E2E20FE2E2E2E2E2BEBEBEBEBEBEBEBEBEBEBEBEBEBEBEF0F0F0F0F0E2E2E2E2E20FE2E2E2F0E2E2E2E2E2E2E2E2E2E2E2E2E2E2E2E2E2E2E2E2E2E22D2D2D2D2D2D2D2D2DC32D2D2D2D2D
310
2DE2E2E2E22D2D2DE2E2E2E2E2E2E2E2E2E2E2E2E2E2E2E2E2E2E2E2E2E2E2F5F5F0E2F0F0F0F52D2D2D2D2DE2E2E2E2E2E2E2E2E22DE22D2DE2E2E2E2E2E2E2E2F0F0E2E2E2E2E2E2E2E2E2E2E2E2E2E2E2E2E2E2E2E2E22DE2E2E2E2E2E2E2E2E2E2E2E2C3E2E2E2E2E2E2E2E22DE2E2E2E2E2E2E2E2E2E2E2E2E2E2E2E2
310
E2E2E2E2E2E2E2E2E2E2E2E2E2E2E2E2E2E2E2E2E2E2E2E2E2E2E2E2E2E2E2E2E2E2E2E2E2E2E2E2E2E2E2E2E2E2E2E2E2E2E2E2E2E2E2E20FE2E2E2E2E2E2E2E2E2E2E2E2C3E2E2E2E2E2E2E2E2E2E2E2E2E2E2E2E2E20FE2E2E2F0E2E2E2E2E2E2E2E2E2E2E2E2E2E2E2E2E2E2E2E2E2E22D2D2DE2E2E2E2E2E2C3E2E2E2
310
E2E2E22D2D2D2D2D2D2DE2E2E2E2E2E2E2E2E2E2E2E2E2E2E2E2E2E2E2E2E2E2F5F5F5F0E2E2E2E2F5E2BEBE2D2DE2E2E2E2E2E2E2E22D2D2D2D2DE2E2E2E2E2E2E2E2F0F0E2E2E2E2E2E2E2E2E2E2E2E2E2E2E2E2E2E2E2E2E22DE2E2E2E2E2E2E2E2E2E2E2E2C3E2E2E2E2E2E2E2E22DE2E2E2E2E2E2E2E2E2E2E2E2E2E2
310
E2E2E2E2E2E2E2E2E2E2E2E2E2E2E2E2E2E2E2E2E2E2E2E2E2E2E2E2E2E2E2E2E2E2E2E2E2E2E2E2E2E2E2E2E2E2E2E2E2E2E2E2E2E2E2E2E2E20FE2E2E2E2E2E2E2E2E2E2E2E2C3E2E2E2E2E2E2E2E2E2E2E2E2E2E2E2E2E20FE2E2E2F0E2E2E2E2E2E2E2E2E2E2E2E2E2E2E2E2E2E2E2E2E2E22D2D2DE2E2E2E2E2E2C3E2
310
E2E2E2E2E22DE2E2E2E2E22DE2E2E2E2E2E2E2E2E2E2E2E2E2E2E2E2E2E2E2E2E2E2E2F5F5F0E2E2E2F5E2E2BEBE2D2DE2E2E2E2E2E2E22DE2E2E2E2E2E2E2E2E2E2E2E2E2F0F0E2E2E2E2E2E2E2E2E2E2E2E2E2E2E2E2E2E2E2E2E22DE2E2E2E2E2E2E2E2E2E2E2E2C3E2E2E2E2E2E2E2E22DE2E2E2E2E2E2E2E2E2E2E2E2
310
E2E2E2E2E2E2E2E2E2E2E2E2E2E2E2E2E2E2E2E2E2E2E2E2E2E2E2E2E2E2E2E2E2E2E2E2E2E2E2E2E2E2E2E2E2E2E2E2E2E2E2E2E2E2E2E2E2E2E2E20FE2E2E2E2E2E2E2E2E2E2E2E2C3E2E2E2E2E2E2E2E2E2E2E2E2E2E2E2E2E20FE2E2E2F0E2E2E2E2E2E2E2E2E2E2E2E2E2E2E2E2E2E2E2E2E2E22D2D2D2D2D2D2D2D2D
310
C32D2D2D2D2D2D2D2D2D2D2D2D2DE2E2E2E2E2E2E2E2E2E2E2E2E2E2E2E2E2E2E2E2E2E2E2F5F5F0E2E2E2F5E2E2BEBE2D2DE2E2E2E2E2E2E22DE2E2E2E2E2E2E2E2E2E2E2E2E2F0F0E2E2E2E2E2E2E2E2E2E2E2E2E2E2E2E2E2E2E2E2E22DE2E2E2E2E2E2E2E2E2E2E2E2C3E2E2E2E2E2E2E2E22DE2E2E2E2E2E2E2E2E2E2
310
E2E2E2E2E2E2E2E2E2E2E2E2E2E2E2E2E2E2E2E2E2E2E2E2E2E2E2E2E2E2E2E2E2E2E2E2E2E2E2E2E2E2E2E2E2E2E2E2E2E2E2E2E2E2E2E2E2E2E2E2E2E20FE2E2E2E2E2E2E2E2E2E2E2E2C3E2E2E2E2E2E2E2E2E2E2E2E2E2E2E2E2E20FE2E2E2F0E2E2E2E2E2E2E2E2E2E2E2E2E2E2E2E2E2E2E2E2E2E22D2DE2E22D2D2D
310
2D2DC32DE2E2E2E2E2E2E22D2D2D2D2DE2E2E2E2E2E2E2E2E2E2E2E2E2E2E2E2E2E2E2E2E2E2F5F5F5F0E2E2E2F5E2E2BEDCDC2DE2E2E2E2E2E22D2DF0F0F0F0F0F0F0F0F0E2E2E2E2F0F0E2E2E2E2E2E2E2E2E2E2E2E2E2E2E2E2E2E2E2E2E22DE2E2E2E2E2E2E2E2E2E2E2E2C3E2E2E2E2E2E2E2E22DE2E2E2E2E2E2E2E2
310
E2E2E2E2E2E2E2E2E2E2E2E2E2E2E2E2E2E2E2E2E2E2E2E2E2E2E2E2E2E2E2E2E2E2E2E2E2E2E2E2E2E2E2E2E2E2E2E2E2E2E2E2E2E2E2E2E2E2E2E2E2E2E2E20FE2E2E2E2E2E2E2E2E2E2E2E2C3E2E2E2E2E2E2E2E2E2E2E2E2E2E2E2E2E20FE2E2E2F0E2E2E2E2E2E2E2E2E2E2E2E2E2E2E2E2E2E2E2E2E2E2DC2D2D2D2D
310
2D2D2D2DC32D2D2D2D2D2D2D2D2D2D2D2DDCE2E2E2E2E2E2E2E2E2E2E2E2E2E2E2E2E2E2E2E2E2E2F5F5F5F0E2E2E2F5E2E2BEDCE22D2D2D2D2D2D2D2DF0F0F0F0F0F0F0F0F0F0F0F0F0F0F0F0E2E2E2E2E2E2E2E2E2E2E2E2E2E2E2E2E2E2E2E2E22D2D2D2D2D2D2D2D2D2D2D2D2D2D2D2D2D2D2D2D2D2D2DE2E2E2E2E2E2
310
E2E2E2E2E2E2E2E2E2E2E2E2E2E2E2E2E2E2E2E2E2E2E2E2E2E2E2E2E2E2E2E2E2E2E2E2E2E2E2E2E2E2E2E2E2E2E2E2E2E2E2E2E2E2E2E2E2E2E2E2E2E2E2E2E2E20FE2E2E2E2E2E2E2E2E2E2E2E2C3E2E2E2E2E2E2E2E2E2E2E2E2E2E2E2E2E20FE2E2E2F0E2E2E2E2E2E2E2E2E2E2E2E2E2E2E2E2E2E2E2E2E2E2DCE2E2
310
E2E2E2E2E2E2C3E2E2E2E2E2E2E2E2E2E2E2E2DCE2E2E2E2E2E2E2E2E2E2E2E2E2E2E2E2E2E2E2E2E2E2E2E2E2F0E2E2E2F5E2E2BEDCE2E2E2E2E2E2E2E2E2F0F0E2E2E2E2E2E2E2E2E2E2E2E2E2F0E2E2E2E2E2E2E2E2E2E2E2E2E2E2E2E2E2E2E2E2E2E2E2E2E2E2E2E2E2E2E2E2E2E2C3E2E2E2E2E2E2E2E2E2E2E2E2E2
310
E2E2E2E2E2E2E2E2E2E2E2E2E2E2E2E2E2E2E2E2E2E2E2E2E2E2E2E2E2E2E2E2E2E2E2E2E2E2E2E2E2E2E2E2E2E2E2E2E2E2E2E2E2E2E2E2E2E2E2E2E2E2E2E2E2E2E2E20FE2E2E2E2E2E2E2E2E2E2E2E2C3E2E2E2E2E2E2E2E2E2E2E2E2E2E2E2E2E20FE2E2E2F0E2E2E2E2E2E2E2E2E2E2E2E2E2E2E2E2E2E2E2E2E2E2DC
310
DCDCDCDCDCDCDCDCC3DCDCDCDCDCDCDCDCDCDCDCDCDCE2E2E2E2E2E2E2E2E2E2E2E2E2E2E2E2E2E2E2E2E2E2E2E2E2F0E2E2F5E2E2E2F0DCDCDCDCDCDCDCF0F0F0F0F0F0F0F0F0F0F0F0F0F0F5F0F0F0F0E2E2E2E2E2E2E2E2E2E2E2E2E2E2E2E2E2E2E2E2E2E2E2E2E2E2E2E2E2E2E2E2E2E2C3E2E2E2E2E2E2E2E2E2E2E2
310
E2E2E2E2E2E2E2E2E2E2E2E2E2E2E2E2E2E2E2E2E2E2E2E2E2E2E2E2E2E2E2E2E2E2E2E2E2E2E2E2E2E2E2E2E2E2E2E2E2E2E2E2E2E2E2E2E2E2E2E2E2E2E2E2E2E2E2E2E2E20FE2E2E2E2E2E2E2E2E2E2E2E2C3E2E2E2E2E2E2E2E2E2E2E2E2E2E2E2E2E20FE2E2E2F0E2E2E2E2E2E2E2E2E2E2E2E2E2E2E2E2E2E2E2E2E2
310
E2E2E2E2E2E2E2E2E2E2C3E2E2E2E2E2E2E2E2E2E2E2E2E2E2E2E2E2E2E2E2E2E2E2E2E2E2E2E2E2E2E2E2E2E2E2E2E2E2F0E2E2F5E2E2E2F0E2E2E2E2E2E2E2E2E2E2F0E2F0E2E2E2E2E2E2E2E2F5E2E2E2E2E2E2E2E2E2E2E2E2E2E2E2E2E2E2E2E2E2E2E2E2E2E2E2E2E2F0E2E2E2E2F0E2E2E2F0E2E2E2E2F0E2E2E2E2
310
E2E2E2E2E2E2E2E2E2E2E2E2E2E2E2E2E2E2E2E2E2E2E2E2E2E2E2E2E2E2E2E2E2E2E2E2E2E2E2E2E2E2E2E2E2E2E2E2E2E2E2E2E2E2E2E2E2E2E2E2E2E2E2E2E2E2E2E2E2E2E2E20FE2E2E2E2E2E2E2E2E2E2E2E2C3E2E2E2E2E2E2E2E2E2E2E2E2E2E2E2E2E20FE2E2E2F0E2E2E2E2E2E2E2E2E2E2E2E2E2E2E2E2E2E2E2
310
E2E2E2E2E2E2E2E2E2E2E2E2C3E2E2E2E2E2E2E2E2E2E2E2E2E2E2E2E2E2E2E2E2E2E2E2E2E2E2E2E2E2E2E2E2E2E2E2E2E2E2F0E2E2F5E2E2E2F0E2E2E2E2E2E2E2E2E2E2F0E2F0E2E2E2E2E2E2E2E2E2F5E2E2E2E2E2E2E2E2E2E2E2E2E2E2E2E2E2E2E2E2E2E2E2E2E2E2E2E2F0E2E2E2E2F0E2E2E2F0E2E2E2E2F0E2E2
310
E2E2E2E2E2E2E2E2E2E2E2E2E2E2E2E2E2E2E2E2E2E2E2E2E2E2E2E2E2E2E2E2E2E2E2E2E2E2E2E2E2E2E2E2E2E2E2E2E2E2E2E2E2E2E2E2E2E2E2E2E2E2E2E2E2E2E2E2E2E2E2E2E2E20F0F0F0F0F0FF50F0F0F0F0F0F0F0F0F0F0F0F0F0F0F0F0F0F0F0F0F0F0F0F0FF0F0F0F0E2E2E2E2E2E2E2E2E2E2E2E2E2E2E2E2E2
310
E2E2E2E20F0F0F0F0F0F0F0F0F0FC30F0F0F0F0F0F0F0F0F0F0F0F0F0FE2E2E2E2E2E2E2E2E2E2E2E2E2E2E2E2E2E2E2E2E2E2E2E2F0F0F0F5F0F0F0F0F0F0F0F00F0F0F0F0F0F0F0F0FF0E2E2E2E2E2E2E2E2F5E2E2E2E2E2E2E2E2E2E2E2E2E2E2E2E2E2E2E2E2E2E2E2E2E2E2E2E2F0E2E2E2E2F0E2E2E2F0E2E2E2E2F0
310
E2E2E2E2E2E2E2E2E2E2E2E2E2E2E2E2E2E2E2E2E2E2E2E2E2E2E2E2E2E2E2E2E2E2E2E2E2E2E2E2E2E2E2E2E2E2E2E2E2E2E2E2E2E2E2E2E2E2E2E2E2E2E2E2E2E2E2E2E2E2E2E2E2E2E2E2E2E2E2E2E2E2F5E2E2E2E2E2E2C3E2E2E2E2E2E2E2E2E2E2E2E2E2E2E2E2E2E2E2E2E2E2E2E2E2E2E2E2E2E2E2E2E2E2E2E2E2
310
E2E2E2E2E2E20F0FF50F0F0F0F0F0F0FC30F0F0F0F0F0F0F0F0F0F0F0F0F0FE2E2E2E2E2E2E2E2E2E2E2E2E2E2E2E2E2E2E2E2E2E2E2E2E2E2E2F5E2E2E2F0E2E2E2E20F0F0F0F0F0F0F0F0FF0E2E2E2E2E2E2E2E2E2F5E2E2E2E2E2E2E2E2E2E2E2E2E2E2E2E2E2E2E2E2E2E2E2E2E2E2E2F0F0F0F0F0F0F0F0F0F0F0F0F0
310
F0F0E2E2E2E2E2E2E2E2E2E2E2E2E2E2E2E2E2E2E2E2E2E2E2E2E2E2E2E2E2E2E2E2E2E2E2E2E2E2E2E2E2E2E2E2E2E2E2E2E2E2E2E2E2E2E2E2E2E2E2E2E2E2E2E2E2E2E2E2E2E2E2E2E2E2E2E2E2E2E2E2E2F5E2E2E2E2E2E2E2C3E2E2E2E2E2E2E2E2E2E2E2E2E2E2E2E2E2E2E2E2E2E2E2E2E2E2E2E2E2E2E2E2E2E2E2
310
E2E2E2E2E2E2E2E2F0F5F0F0F0F0F0F0F0F0C3F0F0F0F0F0F0F0F0F0F0F0F0F0F0E2E2E2E2E2E2E2E2E2E2E2E2E2E2E2E2E2E2E2E2E2E2E2E2E2E2F5E2E2E2E2F0F0F0F0F0F0F0F0F0F0F0F0E2E2E2F0E2E2E2E2E2E2E2E2F5F5F5F5F5F5F5F5F5F5F5F5F5F5F5F5F5F5E2E2E2E2E2E2E2E2E2E2E2E2E2E2E2E2E2E2E2F5E2
310
E2E2E2E2E2E2E2E2E2E2E2E2E2E2E2E2E2E2E2E2E2E2E2E2E2E2E2E2E2E2E2E2E2E2E2E2E2E2E2E2E2E2E2E2E2E2E2E2E2E2E2E2E2E2E2E2E2E2E2E2E2E2E2E2E2E2E2E2E2E2E2E2E2E2E2E2E2E2E2E2E2E2E2E2E2F5E2E2E2E2E2E2E2C3E2E2E2E2E2E2E2E2E2E2E2E2E2E2E2E2E2E2E2E2E2E2E2E2E2E2E2E2E2E2E2E2E2
310
E2E2E2E2E2E2E2E2E2E2F5F0E2E2E2F0F0E2E2E2C3E2E2E2E2E2F0F0F0E2E2E2E2E2F0E2E2E2E2E2E2E2E2E2E2E2E2E2E2E2E2E2E2E2E2E2E2E2E2E2E2F5E2E2E2E2F0E2E2E2E2F0F0E2E2E2F0F0E2E2E2F0E2E2E2E2E2E2E2E2F5F5F5F5F5F5F5F5F5F5F5F5E2F5F5F5F5F5E2E2E2E2E2E2E2E2E2E2E2E2E2E2E2E2E2E2E2
310
F5F5E2E2E2E2E2E2E2E2E2E2E2E2E2E2E2E2E2E2E2E2E2E2E2E2E2E2E2E2E2E2E2E2E2E2E2E2E2E2E2E2E2E2E2E2E2E2E2E2E2E2E2E2E2E2E2E2E2E2E2E2E2E2E2E2E2E2E2E2E2E2E2E2E2E2E2E2E2E2E2E2E2E2E2E2E2F5E2E2E2E2E2E2E2C3E2E2E2E2E2E2E2E2E2E2E2E2E2E2E2E2E2E2E2E2E2E2E2E2E2E2E2E2E2E2E2
310
E2E2E2E2E2E2E2E2E2E2E2F5E2E2E2E2E2E2E2E2E2E2C3E2E2E2E2E2E2E2E2E2E2E2E2E2E2E2E2E2E2E2E2E2E2E2E2E2E2E2E2E2E2E2E2E2E2E2E2E2E2E2E2F5E2E2E2E2E2E2E2E2E2E2E2E2E2E2E2E2E2E2E2E2F0F0F0F0F0F0F0F0F0F0E2E2E2E2E2E2E2E2E2E2E2E2E2E2E2E2E2E2E2E2E2E2E2E2E2E2E2E2E2E2E2E2E2
310
E2E2E2E2E2E2E2E2E2E2E2E2E2E2E2E2E2E2E2E2E2E2E2E2E2E2E2E2E2E2E2E2E2E2E2E2E2E2E2E2E2E2E2E2E2E2E2E2E2E2E2E2E2E2E2E2E2E2E2E2E2E2E2E2E2E2E2E2E2E2E2E2E2E2E2E2E2E2E2E2E2E2E2E2E2E2E2E2F5E2E2E2E2E2E2E2E2C3E2E2E2E2E2E2E2E2E2E2E2E2E2E2E2E2E2E2E2E2E2E2E2E2E2E2E2E2E2
310
E2E2E2E2E2E2E2E2E2E2E2F5F5E2E2E2E2E2E2E2E2E2E2E2C3E2E2E2E2E2E2E2E2E2E2E2E2E2E2E2E2E2E2E2E2E2E2E2E2E2E2E2E2E2E2E2E2E2E2E2E2E2E2E2E2F5E2E2E2E2E2E2E2E2E2E2E2E2E2E2E2E2E2E2E2E2E2E2E2F0F0F0F0E2E2E2E2E2E2E2E2E2E2E2E2E2E2E2E2E2E2E2E2E2E2E2E2E2E2E2E2E2E2E2E2E2E2
310
E2E2E2E2E2E2E2E2E2E2E2E2E2E2E2E2E2E2E2E2E2E2E2E2E2E2E2E2E2E2E2E2E2E2E2E2E2E2E2E2E2E2E2E2E2E2E2E2E2E2E2E2E2E2E2E2E2E2E2E2E2E2E2E2E2E2E2E2E2E2E2E2E2E2E2E2E2E2E2E2E2E2E2E2E2E2E2E2E2E2F5F5F5F5F5F5F5F5F5F5F5F5F5F5F5F5F5F5F5F5F5F5F5E2E2E2E2E2E2E2E2E2E2E2E2F5E2
310
E2E2E2E2E2E2E2E2E2E2F5E2F5E2E2E2E2E2E2E2E2E2E2E2E2F5F5E2E2E2E2E2E2E2E2E2E2E2E2E2E2E2E2E2E2E2E2E2E2E2E2E2E2E2E2E2E2E2E2E2E2E2E2E2E2E2F5E2E2E2E2E2E2E2E2E2E2E2E2E2E2E2E2E2E2E2E2F5F5F5F5F5F5F5F5F5F5F5F5E2E2E2E2E2E2E2E2E2E2E2E2E2E2E2E2E2E2E2E2E2E2E2E2E2E2E2E2
310
E2E2E2E2E2E2E2E2E2E2E2E2E2E2E2E2E2E2E2E2E2E2E2E2E2E2E2E2E2E2E2E2E2E2E2E2E2E2E2E2E2E2E2E2E2E2E2E2E2E2E2E2E2E2E2E2E2E2E2E2E2E2E2E2E2E2E2E2E2E2E2E2E2E2E2E2E2E2E2E2E2E2E2E2E2E2E2E2E2E2E2E2F5F5F5F5F5F5F5F5F5F5F5F5F5F5F5F5F5F5F5F5F5F5E2E2E2E2E2E2E2E2E2E2E2E2E2
310
F5F5F5F5F5F5F5F5F5F5F5F5F5F5E2E2E2E2E2E2E2E2E2E2E2E2E2F5F5E2E2E2E2E2E2E2E2E2E2E2E2E2E2E2E2E2E2E2E2E2E2E2E2F5F5F5F5F5F5F5F5F5F5F5F5F5F5E2F5E2E2E2E2E2E2E2E2E2E2E2E2E2E2E2E2E2E2E2E2F5F5F5F5F5F5F5F5F5F5F5F5E2E2E2E2E2E2E2E2E2E2E2E2E2E2E2E2E2E2E2E2E2E2E2E2E2E2
310
E2E2E2E2E2E2E2E2E2E2E2E2E2E2E2E2E2E2E2E2E2E2E2E2E2E2E2E2E2E2E2E2E2E2E2E2E2E2E2E2E2E2E2E2E2E2E2E2E2E2E2E2E2E2E2E2E2E2E2E2E2E2E2E2E2E2E2E2E2E2E2E2E2E2E2E2E2E2E2E2E2E2E2E2E2E2E2E2E2E2E2E2E2E2E2E2E2E2E2E2E2E2E2E2E2E2E2E2E2E2E2E2E2E2E2E2E2E2E2E2E2E2E2E2E2E2E2
310
E2E2F5F5F5F5F5F5F5F5F5F5F5F5F5E2E2E2E2E2E2E2E2E2E2E2E2E2E2E2F5E2E2E2E2E2E2E2E2E2E2E2E2E2E2E2E2E2E2E2E2E2E2E2F5F5F5F5F5F5F5F5F5F5F5F5F5F5F5F5F5E2E2E2E2E2E2E2E2E2E2E2E2E2E2E2E2E2E2E2E2E2E2E2E2E2E2E2E2E2E2E2E2E2E2E2E2E2E2E2E2E2E2E2E2E2E2E2E2E2E2E2E2E2E2E2E2
310
E2E2E2E2E2E2E2E2E2E2E2E2E2E2E2E2E2E2E2E2E2E2E2E2E2E2E2E2E2E2E2E2E2E2E2E2E2E2E2E2E2E2E2E2E2E2E2E2E2E2E2E2E2E2E2E2E2E2E2E2E2E2E2E2E2E2E2E2E2E2E2E2E2E2E2E2E2E2E2E2E2E2E2E2E2E2E2E2E2E2E2E2E2E2E2E2E2E2E2E2E2E2E2E2E2E2E2E2E2E2E2E2E2E2E2E2E2E2E2E2E2E2E2E2E2E2E2
310
E2E2E2E2F5F5F5F5F5F5F5F5F5F5F5E2E2E2E2E2E2E2E2E2E2E2E2E2E2E2E2E2E2E2E2E2E2E2E2E2E2E2E2E2E2E2E2E2E2E2E2E2E2E2E2E2E2F5F5F5F5F5F5F5F5F5F5F5F5F5F5F5F5E2E2E2E2E2E2E2E2E2E2E2E2E2E2E2E2E2E2E2E2E2E2E2E2E2E2E2E2E2E2E2E2E2E2E2E2E2E2E2E2E2E2E2E2E2E2E2E2E2E2E2E2E2E2
310
E2E2E2E2E2E2E2E2E2E2E2E2E2E2E2E2E2E2E2E2E2E2E2E2E2E2E2E2E2E2E2E2E2E2E2E2E2E2E2E2E2E2E2E2E2E2E2E2E2E2E2E2E2E2E2E2E2E2E2E2E2E2E2E2E2E2E2E2E2E2E2E2E2E2E2E2E2E2E2E2E2E2E2E2E2E2E2E2E2E2E2E2E2E2E2E2E2E2E2E2E2E2E2E2E2E2E2E2E2E2E2E2E2E2E2E2E2E2E2E2E2E2E2E2E2E2E2
310
E2E2E2E2E2E2F5F5F5F5F5F5F5F5F5F5F5E2E2E2E2E2E2E2E2E2E2E2E2E2E2E2E2E2E2E2E2E2E2E2E2E2E2E2E2E2E2E2E2E2E2E2E2E2E2E2E2E2E2E2E2E2E2E2E2E2E2E2E2E2E2E2E2E2E2E2E2E2E2E2E2E2E2E2E2E2E2E2E2E2E2E2E2E2E2E2E2E2E2E2E2E2E2E2E2E2E2E2E2E2E2E2E2E2E2E2E2E2E2E2E2E2E2E2E2E2E2
310
E2E2E2E2E2E2E2E2E2E2E2E2E2E2E2E2E2E2E2E2E2E2E2E2E2E2E2E2E2E2E2E2E2E2E2E2E2E2E2E2E2E2E2E2E2E2E2E2E2E2E2E2E2E2E2E2E2E2E2E2E2E2E2E2E2E2E2E2E2E2E2E2E2E2E2E2E2E2E2E2E2E2E2E2E2E2E2E2E2E2E2E2E2E2E2E2E2E2E2E2E2E2E2E2E2E2E2E2E2E2E2E2E2E2E2E2E2E2E2E2E2E2E2E2E2E2E2
310
E2E2E2E2E2E2E2E2E2E2E2E2E2E2E2E2E2E2E2E2E2E2E2E2E2E2E2E2E2E2E2E2E2E2E2E2E2E2E2E2E2E2E2E2E2E2E2E2E2E2E2E2E2E2E2E2E2E2E2E2E2E2E2E2E2E2E2E2E2E2E2E2E2E2E2E2E2E2E2E2E2E2E2E2E2E2E2E2E2E2E2E2E2E2E2E2E2E2E2E2E2E2E2E2E2E2E2E2E2E2E2E2E2E2E2E2E2E2E2E2E2E2E2E2E2E2E2
310
E2E2E2E2E2E2E2E2E2E2E2E2E2E2E2E2E2E2E2E2E2E2E2E2E2E2E2E2E2E2E2E2E2E2E2E2E2E2E2E2E2E2E2E2E2E2E2E2E2E2E2E2E2E2E2E2E2E2E2E2E2E2E2E2E2E2E2E2E2E2E2E2E2E2E2E2E2E2E2E2E2E2E2E2E2E2E2E2E2E2E2E2E2E2E2E2E2E2E2E2E2E2E2E2E2E2E2E2E2E2E2E2E2E2E2E2E2E2E2E2E2E2E2E2E2E2E2
310
E2E2E2E2E2E2E2E2E2E2E2E2E2E2E2E2E2E2E2E2E2E2E2E2E2E2E2E2E2E2E2E2E2E2E2E2E2E2E2E2E2E2E2E2E2E2E2E2E2E2E2E2E2E2E2E2E2E2E2E2E2E2E2E2E2E2E2E2E2E2E2E2E2E2E2E2E2E2E2E2E2E2E2E2E2E2E2E2E2E2E2E2E2E2E2E2E2E2E2E2E2E2E2E2E2E2E2E2E2E2E2E2E2E2E2E2E2E2E2E2E2E2E2E2E2E2E2
310
E2E2E2E2E2E2E2E2E2E2E2E2E2E2E2E2E2E2E2E2E2E2E2E2E2E2E2E2E2E2E2E2E2E2E2E2E2E2E2E2E2E2E2E2E2E2E2E2E2E2E2E2E2E2E2E2E2E2E2E2E2E2E2E2E2E2E2E2E2E2E2E2E2E2E2E2E2E2E2E2E2E2E2E2E2E2E2E2E2E2E2E2E2E2E2E2E2E2E2E2E2E2E2E2E2E2E2E2E2E2E2E2E2E2E2E2E2E2E2E2E2E2E2E2E2E2E2
310
E2E2E2E2E2E2E2E2E2E2E2E2E2E2E2E2E2E2E2E2E2E2E2E2E2E2E2E2E2E2E2E2E2E2E2E2E2E2E2E2E2E2E2E2E2E2E2E2E2E2E2E2E2E2E2E2E2E2E2E2E2E2E2E2E2E2E2E2E2E2E2E2E2E2E2E2E2E2E2E2E2E2E2E2E2E2E2E2E2E2E2E2E2E2E2E2E2E2E2E2E2E2E2E2E2E2E2E2E2E2E2E2E2E2E2E2E2E2E2E2E2E2E2E2E2E2E2
310
E2E2E2E2E2E2E2E2E2E2E2E2E2E2E2E2E2E2E2E2E2E2E2E2E2E2E2E2E2E2E2E2E2E2E2E2E2E2E2E2E2E2E2E2E2E2E2E2E2E2E2E2E2E2E2E2E2E2E2E2E2E2E2E2E2E2E2E2E2E2E2E2E2E2E2E2E2E2E2E2E2E2E2E2E2E2E2E2E2E2E2E2E2E2E2E2E2E2E2E2E2E2E2E2E2E2E2E2E2E2E2E2E2E2E2E2E2E2E2E2E2E2E2E2E2E2E2
310
E2E2E2E2E2E2E2E2E2E2E2E2E2E2E2E2E2E2E2E2E2E2E2E2E2E2E2E2E2E2E2E2E2E2E2E2E2E2E2E2E2E2E2E2E2E2E2E2E2E2E2E2E2E2E2E2E2E2E2E2E2E2E2E2E2E2E2E2E2E2E2E2E2E2E2E2E2E2E2E2E2E2E2E2E2E2E2E2E2E2E2E2E2E2E2E2E2E2E2E2E2E2E2E2E2E2E2E2E2E2E2E2E2E2E2E2E2E2E2E2E2E2E2E2E2E2E2
310
E2E2E2E2E2E2E2E2E2E2E2E2E2E2E2E2E2E2E2E2E2E2E2E2E2E2E2E2E2E2E2E2E2E2E2E2E2E2E2E2E2E2E2E2E2E2E2E2E2E2E2E2E2E2E2E2E2E2E2E2E2E2E2E2E2E2E2E2E2E2E2E2E2E2E2E2E2E2E2E2E2E2E2E2E2E2E2E2E2E2E2E2E2E2E2E2E2E2E2E2E2E2E2E2E2E2E2E2E2E2E2E2E2E2E2E2E2E2E2E2E2E2E2E2E2E2E2
310
E2E2E2E2E2E2E2E2E2E2E2E2E2E2E2E2E2E2E2E2E2E2E2E2E2E2E2E2E2E2E2E2E2E2E2E2E2E2E2E2E2E2E2E2E2E2E2E2E2E2E2E2E2E2E2E2E2E2E2E2E2E2E2E2E2E2E2E2E2E2E2E2E2E2E2E2E2E2E2E2E2E2E2E2E2E2E2E2E2E2E2E2E2E2E2E2E2E2E2E2E2E2E2E2E2E2E2E2E2E2E2E2E2E2E2E2E2E2E2E2E2E2E2E2E2E2E2
310
E2E2E2E2E2E2E2E2E2E2E2E2E2E2E2E2E2E2E2E2E2E2E2E2E2E2E2E2E2E2E2E2E2E2E2E2E2E2E2E2E2E2E2E2E2E2E2E2E2E2E2E2E2E2E2E2E2E2E2E2E2E2E2E2E2E2E2E2E2E2E2E2E2E2E2E2E2E2E2E2E2E2E2E2E2E2E2E2E2E2E2E2E2E2E2E2E2E2E2E2E2E2E2E2E2E2E2E2E2E2E2E2E2E2E2E2E2E2E2E2E2E2E2E2E2E2E2
310
E2E2E2E2E2E2E2E2E2E2E2E2E2E2E2E2E2E2E2E2E2E2E2E2E2E2E2E2E2E2E2E2E2E2E2E2E2E2E2E2E2E2E2E2E2E2E2E2E2E2E2E2E2E2E2E2E2E2E2E2E2E2E2E2E2E2E2E2E2E2E2E2E2E2E2E2E2E2E2E2E2E2E2E2E2E2E2E2E2E2E2E2E2E2E2E2E2E2E2E2E2E2E2E2E2E2E2E2E2E2E2E2E2E2E2E2E2E2E2E2E2E2E2E2E2E2E2
310
E2E2E2E2E2E2E2E2E2E2E2E2E2E2E2E2E2E2E2E2E2E2E2E2E2E2E2E2E2E2E2E2E2E2E2E2E2E2E2E2E2E2E2E2E2E2E2E2E2E2E2E2E2E2E2E2E2E2E2E2E2E2E2E2E2E2E2E2E2E2E2E2E2E2E2E2E2E2E2E2E2E2E2E2E2E2E2E2E2E2E2E2E2E2E2E2E2E2E2E2E2E2E2E2E2E2E2E2E2E2E2E2E2E2E2E2E2E2E2E2E2E2E2E2E2E2E2
310
E2E2E2E2E2E2E2E2E2E2E2E2E2E2E2E2E2E2E2E2E2E2E2E2E2E2E2E2E2E2E2E2E2E2E2E2E2E2E2E2E2E2E2E2E2E2E2E2E2E2E2E2E2E2E2E2E2E2E2E2E2E2E2E2E2E2E2E2E2E2E2E2E2E2E2E2E2E2E2E2E2E2E2E2E2E2E2E2E2E2E2E2E2E2E2E2E2E2E2E2E2E2E2E2E2E2E2E2E2E2E2E2E2E2E2E2E2E2E2E2E2E2E2E2E2E2E2
310
E2E2E2E2E2E2E2E2E2E2E2E2E2E2E2E2E2E2E2E2E2E2E2E2E2E2E2E2E2E2E2E2E2E2E2E2E2E2E2E2E2E2E2E2E2E2E2E2E2E2E2E2E2E2E2E2E2E2E2E2E2E2E2E2E2E2E2E2E2E2E2E2E2E2E2E2E2E2E2E2E2E2E2E2E2E2E2E2E2E2E2E2E2E2E2E2E2E2E2E2E2E2E2E2E2E2E2E2E2E2E2E2E2E2E2E2E2E2E2E2E2E2E2E2E2E2E2
310
E2E2E2E2E2E2E2E2E2E2E2E2E2E2E2E2E2E2E2E2E2E2E2E2E2E2E2E2E2E2E2E2E2E2E2E2E2E2E2E2E2E2E2E2E2E2E2E2E2E2E2E2E2E2E2E2E2E2E2E2E2E2E2E2E2E2E2E2E2E2E2E2E2E2E2E2E2E2E2E2E2E2E2E2E2E2E2E2E2E2E2E2E2E2E2E2E2E2E2E2E2E2E2E2E2E2E2E2E2E2E2E2E2E2E2E2E2E2E2E2E2E2E2E2E2E2E2
310
E2E2E2E2E2E2E2E2E2E2E2E2E2E2E2E2E2E2E2E2E2E2E2E2E2E2E2E2E2E2E2E2E2E2E2E2E2E2E2E2E2E2E2E2E2E2E2E2E2E2E2E2E2E2E2E2E2E2E2E2E2E2E2E2E2E2E2E2E2E2E2E2E2E2E2E2E2E2E2E2E2E2E2E2E2E2E2E2E2E2E2E2E2E2E2E2E2E2E2E2E2E2E2E2E2E2E2E2E2E2E2E2E2E2E2E2E2E2E2E2E2E2E2E2E2C3E2
310
E2E2E2E2E2E2E2E2E2E2E2E2E2E2E2E2E2E2E2E2E2E2E2E2E2E2E2E2E2E2E2E2E2E2E2E2E2E2E2E2E2E2E2E2E2E2E2E2E2E2E2E2C3E2E2E2E2E2E2E2E2E2E2E2E2E2E2E2E2E2E2E2E2E2E2E2E2E2E2E2E2E2E2E2E2E2E2E2E2E2E2E2E2E2E2E2E2E2E2E2E2E2E2E2E2E2E2E2E2E2E2E2E2E2E2E2E2E2E2E2E2E2E2E2E2E2E2
310
E2E2E2E2E2E2E2E2E2E2E2E2E2E2E2E2E2E2E2E2E2E2E2E2E2E2E2E2E2E2E2E2E2E2E2E2E2E2E2E2E2E2E2E2E2E2E2E2E2E2E2E2E2E2E2E2E2E2E2E2E2E2E2E2E2E2E2E2E2E2E2E2E2E2E2E2E2E2E2E2E2E2E2E2E2E2E2E2E2E2E2E2E2E2E2E2E2E2E2E2E2E2E2E2E2E2E2E2E2E2E2E2E2E2E2E2E2E2E2E2E2E2E2E2E2E2E2
310
C3E2E2E2E2E2E2E2E2E2E2E2E2E2E2E2E2E2E2E2E2E2E2E2E2E2E2E2E2E2E2E2E2E2E2E2E2E2E2E2E2E2E2E2E2E2E2E2E2E2E2E2E2E2C3E2E2E2E2E2E2E2E2E2E2E2E2E2E2E2E2E2E2E2E2E2E2E2E2E2E2E2E2E2E2E2E2E2E2E2E2E2E2E2E2E2E2E2E2E2E2E2E2E2E2E2E2E2E2E2E2E2E2E2E2E2E2E2E2E2E2E2E2E2E2E2E2
310
E2E2E2E2E2E2E2E2E2E2E2E2E2E2E2E2E2E2E2E2E2E2E2E2E2E2E2E2E2E2E2E2E2E2E2E2E2E2E2E2E2E2E2E2E2E2E2E2E2E2E2E2E2E2E2E2E2E2E2E2E2E2E2E2E2E2E2E2E2E2E2E2E2E2E2E2E2E2E2E2E2E2E2E2E2E2E2E2E2E2E2E2E2E2E2E2E2E2E2E2E2E2E2E2E2E2E2E2E2E2E2E2E2E2E2E2E2E2E2E2F0F0F0F0F0F0F0
310
F0F0F0F0F0F0F0F0F0F0F0F0F0F0F0F0F0E2E2E2E2E2E2E2E2E2E2E2E2E2E2E2E2E2E2E2E2E2E2E2E2E2E2E2E2E2E2E2E2F0F0E2E2E2E2E2C3E2E2E2E2E2E2E2E2E2E2E2E2E2E2E2E2E2E2E2E2E2E2E2E2E2E2E2E2E2E2E2E2E2E2E2E2E2E2E2E2E2E2E2E2E2E2E2E2E2E2E2E2E2E2E2E2E2E2E2E2E2E2E2E2E2E2E2E2E2E2
310
E2E2E2E2E2E2E2E2E2E2E2E2E2E2E2E2E2E2E2E2E2E2E2E2E2E2E2E2E2E2E2E2E2E2E2E2E2E2E2E2E2E2E2E2E2E2E2E2E2E2E2E2E2E2E2E2E2E2E2E2E2E2E2E2E2E2E2E2E2E2E2E2E2E2E2E2E2E2E2E2E2E2E2E2E2E2E2E2E2E2E2E2E2E2E2E2E2E2E2E2E2E2E2E2E2E2E2E2E2E2E2E2E2E2E2E2E2E2E2E2E2E2F0E2E2E2F0
310
F0E2E2E2F0E2E2E2E2E2F0F0F0E2E2E2E2E2F0E2E2E2E2E2E2E2E2E2E2E2E2E2E2E2E2E2E2E2E2E2E2E2E2E2E2E2E2E2E2E2E2F0F0F0F0F0F0F0C3F0F0F0F0F0F0E2E2E2E2E2E2E2E2E2E2E2E2E2E2E2E2E2E2E2E2E2E2E2E2E2E2E2E2E2E2E2E2E2E2E2E2E2E2E2E2E2E2E2E2E2E2E2E2E2E2E2E2E2E2E2E2E2E2E2E2E2E2
310
E2E2E2E2E2E2E2E2E2E2E2E2E2E2E2E2E2E2E2E2E2E2E2E2E2E2E2E2E2E2E2E2E2E2E2E2E2E2E2E2E2E2E2E2E2E2E2E2E2E2E2E2E2E2E2E2E2E2E2E2E2E2E2E2E2E2E2E2E2E2E2E2E2E2E2E2E2E2E2E2E2E2E2E2E2E2E2E2E2E2E2E2E2E2E2E2E2E2E2E2E2E2E2E2E2E2E2E2E2E2E2E2E2E2E2E2E2E2E2E2E2E2E2E2F0E2E2
310
E2E2E2E2E2E2F0E2E2E2E2E2E2E2E2E2E2E2E2E2F0E2E2E2E2E2E2E2E2E2E2E2E2E2E2E2E2E2E2E2E2E2E2E2E2E2E2E2E2E2E2E2E2F02D2D2D2D2D2DC32D2D2D2D2DF0E2E2E2E2E2E2E2E2E2E2E2E2E2E2E2E2E2E2E2E2E2E2E2E2E2E2E2E2E2E2E2E2E2E2E2E2E2E2E2E2E2E2E2E2E2E2E2E2E2E2E2E2E2E2E2E2E2E2E2E2
310
E2E2E2E2E2E2E2E2E2E2E2E2E2E2E2E2E2E2E2E2E2E2E2E2E2E2E2E2E2E2E2E2E2E2E2E2E2E2E2E2E2E2E2E2E2E2E2E2E2E2E2E2E2E2E2E2E2E2E2E2E2E2E2E2E2E2E2E2E2E2E2E2E2E2E2E2E2E2E2E2E2E2E2E2E2E2E2E2E2E2E2E2E2E2E2E2E2E2E2E2E2E2E2E2E2E2DCDCDCDCDCDCDCDCDCDCDCDCDCDCDCDCDCDCDCDCF0
310
DCDCDCDCDCDCDCDCF0DCDCDCDCDCDCDCDCDCDCDCDCDCF0F0F0F0F0DCDCDCDCDCDCDCDCDCDCDCDCDCDCDCDCDCDCDCDCDCDCDCDCDCDC2D2D2D2D2D2D2D2D2D2D2D2D2D2D2D2D2D2D2D2D2D2D2DDCDCDCDCDCDCDCDCDCDCDCDCDCDCDCDCDCDCDCDCDCDCDCDCDCDCDCDCDCDCDCDCDCDCDCDCDCDCDCDCDCE2E2E2E2E2E2E2E2E2E2
310
E2E2E2E2E2E2E2E2E2E2E2E2E2E2E2E2E2E2E2E2E2E2E2E2E2E2E2E2E2E2E2E2E2E2E2E2E2E2E2E2E2E2E2E2E2E2E2E2E2E2E2E2E2E2E2E2E2E2E2E2E2E2E2E2E2E2E2E2E2E2E2E2E2E2E2E2E2E2E2E2E2E2E2E2E2E2E2E2E2E2E2E2E2E2E2E2E2E2E2E2E2E2E2E2E2E2E2E2E2E2E2E2E2E2E2E2E2E2E2E2E2E2E2E2E2E2E2
310
E2F0E2E2E2E2E2E2E2E2C3E2E2E2E2E2E2E2E2E2E2E2E2E2F0E2E2E2F0E2E2E2E2E2E2E2E2E2E2E2E2E2E2E2E2E2E2E2E2E2E2E2E2E2E22DE2E2E2E2E2E2E2E2C3E2E2E2E2E2E2E2E2E2E2E2E22DE2E2E2E2E2E2E2E2E2E2E2E2E2E2E2E2E2E2E2E2E2E2E2E2E2E2E2E2E2E2E2E2E2E2E2E2E2E2E2E2E2E2E2E2E2E2E2E2E2
310
E2E2E2E2E2E2E2E2E2E2E2E2E2E2E2E2E2E2E2E2E2E2E2E2E2E2E2E2E2E2E2E2E2E2E2E2E2E2E2E2E2E2E2E2E2E2E2E2E2E2E2E2E2E2E2E2E2E2E2E2E2E2E2E2E2E2E2E2E2E2E2E2E2E2E2E2E2E2E2E2E2E2E2E2E2E2E2E2E2E2E2E2E2E2E2E2E2E2E2E2E2E2E2E2E2E2E2E2E2E2E2E2E2E2E2E2E2E2E2E2E2E2E2E2E2E2E2
310
E2E2E2F0E2E2E2E2E2E2E2E2C3E2E2E2E2E2E2E2E2E2E2E2E2E2F0E2E2E2F0E2E2E2E2E2E2E2E2E2E2E2E2E2E2E2E2E2E2E2E2E2E2E2E2E2E22DE2E2E2E2E2E2E2E2C3E2E2E2E2E2E2E2E2E2E2E2E22DE2E2E2E2E2E2E2E2E2E2E2E2E2E2E2E2E2E2E2E2E2E2E2E2E2E2E2E2E2E2E2E2E2E2E2E2E2E2E2E2E2E2E2E2E2E2E2
310
E2E2E2E2E2E2E2E2E2E2E2E2E2E2E2E2E2E2E2E2E2E2E2E2E2E2E2E2E2E2E2E2E2E2E2E2E2E2E2E2E2E2E2E2E2E2E2E2E2E2E2E2E2E2E2E2E2E2E2E2E2E2E2E2E2E2E2E2E2E2E2E2E2E2E2E2E2E2E2E2E2E2E2E2E2E2E2E2E2E2E2E2E2E2E2E2E2E2E2E2E2E2E2E2E2E2E2E2E2E2E2E2E2E2E2E2E2E2E2E2E2E2E2E2E2E2E2
310
E2E2E2E2E2F0E2E2E2E2E2E2E2E2C3E2E2E2E2E2E2E2E2E2E2E2E2E2F0E2E2E2F0E2E2E2E2E2E2E2E2E2E2E2E2E2E2E2E2E2E2E2E2E2E2E2E2E2E22DE2E2E2E2E2E2E2E2C3E2E2E2E2E2E2E2E2E2E2E2E22DE2E2E2E2E2E2E2E2E2E2E2E2E2E2E2E2E2E2E2E2E2E2E2E2E2E2E2E2E2E2E2E2E2E2E2E2E2E2E2E2E2E2E2E2E2
310
E2E2E2E2E2E2E2E2E2E2E2E2E2E2E2E2E2E2E2E2E2E2E2E2E2E2E2E2E2E2E2E2E2E2E2E2E2E2E2E2E2E2E2E2E2E2E2E2E2E2E2E2E2E2E2E2E2E2E2E2E2E2E2E2E2E2E2E2E2E2E2E2E2E2E2E2E2E2E2E2E2E2E2E2E2E2E2E2E2E2E2E2E2E2E2E2E2E2E2E2E2E2E2E2E2E2E2E2E2E2E2E2E2E2E2E2E2E2E2E2E2E2E2E2E2E2E2
310
E2E2E2E2E2E2E22828E2E2E2E2E2E2E2C3E2E2E2E2E2E2E2E2E2E2E2E22828F0F0F0F0E2E2E2E2E2E2E2E2E2E2E2E2E2E2E2E2E2E2E2E2E2E2E2E2E2E22DE2E2E2E2E2E2E2E2C3E2E2E2E2E2E2E2E2E2E2E2E22DE2E2E2E2E2E2E2E2E2E2E2E2E2E2E2E2E2E2E2E2E2E2E2E2E2E2E2E2E2E2E2E2E2E2E2E2E2E2E2E2E2E2E2
310
E2E2E2E2E2E2E2E2E2E2E2E2E2E2E2E2E2E2E2E2E2E2E2E2E2E2E2E2E2E2E2E2E2E2E2E2E2E2E2E2E2E2E2E2E2E2E2E2E2E2E2E2E2E2E2E2E2E2E2E2E2E2E2E2E2E2E2E2E2E2E2E2E2E2E2E2E2E2E2E2E2E2E2E2E2E2E2E2E2E2E2E2E2E2E2E2E2E2E2E2E2E2E2E2E2E2E2E2E2E2E2E2E2E2E2E2E2E2E2E2E2E2E2E2E2E2E2
310
E2E2E2E2E2E2E2E2E22828E2E2E2E2E2E2E2C3E2E2E2E2E2E2E2E2E2E2E2E22828E2E2E2F0E2E2E2E2E2E2E2E2E2E2E2E2E2E2E2E2E2E2E2E2E2E2E2E2E2E22DE2E2E2E2E2E2E2E2C3E2E2E2E2E2E2E2E2E2E2E2E22DE2E2E2E2E2E2E2E2E2E2E2E2E2E2E2E2E2E2E2E2E2E2E2E2E2E2E2E2E2E2E2E2E2E2E2E2E2E2E2E2E2
310
E2E2E2E2E2E2E2E2E2E2E2E2E2E2E2E2E2E2E2E2E2E2E2E2E2E2E2E2E2E2E2E2E2E2E2E2E2E2E2E2E2E2E2E2E2E2E2E2E2E2E2E2E2E2E2E2E2E2E2E2E2E2E2E2E2E2E2E2E2E2E2E2E2E2E2E2E2E2E2E2E2E2E2E2E2E2E2E2E2E2E2E2E2E2E2E2E2E2E2E2E2E2E2E2E2E2E2E2E2E2E2E2E2E2E2E2E2E2E2E2E2E2E2E2E2E2E2
310
E2E2E2E2E2E2E2E2E2E2E2E2E2E2E2E2E2E2E2E2C3E2E2E2E2E2E2E2E2E2E2E2E2E2E2E2E2E2F0E2E2E2E2E2E2E2E2E2E2E2E2E2E2E2E2E2E2E2E2E2E2E2E2E2E22DE2E2E2E2E2E2E2E2C3E2E2E2E2E2E2E2E2E2E2E2E22DE2E2E2E2E2E2E2E2E2E2E2E2E2E2E2E2E2E2E2E2E2E2E2E2E2E2E2E2E2E2E2E2E2E2E2E2E2E2E2
310
E2E2E2E2E2E2E2E2E2E2E2E2E2E2E2E2E2E2E2E2E2E2E2E2E2E2E2E2E2E2E2E2E2E2E2E2E2E2E2E2E2F5F5F5F5F5F5F5F5F5F5F5F5F5F5F5F5F5F5F5F5F5F5F5E2E2E2E2E2E2E2E2E2E2E2E2E2E2E2E2E2E2E2E2E2E2E2E2E2E2E2E2E2E2E2E2E2E2E2E2E2E2E2E2E2E2E2E2E2E2E2E2E2E2E2E2E2E2E2E2E2E2E2E2E2E2E2
310
E2E2E2E2E2E2E2E2E2E2E2E2E2E2E2E2E2E2E2E2E2E2C3E2E2E2E2E2E2E2E2E2E2E2E2E2E2E2E2E2F0E2E2E2E2E2E2E2E2E2E2E2E2E2E2E2E2E2E2E2E2E2E2E2E2E2E22DE2E2E2E2E2E2E2E2C3E2E2E2E2E2E2E2E2E2E2E2E22DE2E2E2E2E2E2E2E2E2E2E2E2E2E2E2E2E2E2E2E2E2E2E2E2E2E2E2E2E2E2E2E2E2E2E2E2E2
310
E2E2E2E2E2E2E2E2E2E2E2E2E2E2E2E2E2E2E2E2E2E2E2E2E2E2E2E2E2E2E2E2E2E2E2E2E2E2E2E2E2E2F5F5F5F5F5F5F5F5F5F5F5F5F5F5F5F5F5F5F5F5F5F5F5F5E2E2E2E2E2E2E2E2E2E2E2E2E2E2E2E2E2E2E2E2E2E2E2E2E2E2E2E2E2E2E2E2E2E2E2E2E2E2E2E2E2E2E2E2E2E2E2E2E2E2E2E2E2E2E2E2E2E2E2E2E2
310
E2E2E2E2E2E2E2E2E2E2E2E2E2E2E2E2E2E2E2E2E2E2E2E2C3E2E2E2E2E2E2E2E2E2E2E2E2E2E2E2E2E2F0E2E2E2E2E2E2E2E2E2E2E2E2E2E2E2E2E2E2E2E2E2E2E2E2E2E22DE2E2E2E2E2E2E2E2C3E2E2E2E2E2E2E2E2E2E2E2E22DE2E2E2E2E2E2E2E2E2E2E2E2E2E2E2E2E2E2E2E2E2E2E2E2E2E2E2E2E2E2E2E2E2E2E2
310
E2E2E2E2E2E2E2E2E2E2E2E2E2E2E2E2E2E2E2E2E2E2E2E2E2E2E2E2E2E2E2E2E2E2E2E2E2E2E2E2E2E2E2E2E2E2E2E2E2E2E2E2E2E2E2E2E2E2E2E2E2E2E2E2E2E2E2E2E2E2E2E2E2E2E2E2E2E2E2E2E2E2E2E2E2E2E2E2E2E2E2E2E2E2E2E2E2E2E2E2E2E2E2E2E2E2E2E2E2E2E2E2E2E2E2E2E2E2E2E2E2E2E2E2E2E2E2
310
E2E2E2E2E2E2E2E2E2E2E2E2E2E2E2E2E2E2E2E2E2E2E2E2E2E2C3E2E2E2E2E2E2E2E2E2E2E2E2E2E2E2E2E2F0E2E2E2E2E2E2E2E2E2E2E2E2E2E2E2E2E2E2E2E2E2E2E2E2E2E22DE2E2E2E2E2E2E2E2C3E2E2E2E2E2E2E2E2E2E2E2E22DE2E2E2E2E2E2E2E2E2E2E2E2E2E2E2E2E2E2E2E2E2E2E2E2E2E2E2E2E2E2E2E2E2
310
E2E2E2E2E2E2E2E2E2E2E2E2E2E2E2E2E2E2E2E2E2E2E2E2E2E2E2E2E2E2E2E2E2E2E2E2E2E2E2E2E2E2E2E2E2E2F5F5F5F5F5F5F5F5F5F5F5F5F5F5F5F5F5F5F5F5F5F5F5F5F5E2E2E2E2E2E2E2E2E2E2E2E2E2E2E2E2E2E2E2E2E2E2E2E2E2E2E2E2E2E2E2E2E2E2E2E2E2E2E2E2E2E2E2E2E2E2E2E2E2E2E2E2E2E2E2E2
310
E2E2E2E2E2E2E2E2E2E2E2E2E2E2E2E2E2E2E2E2E2E2E2E2E2E2E2E2C3E2E2E2E2E2E2E2E2E2E2E2E2E2E2E2E2E2F0E2E2E2E2E2E2E2E2E2E2E2E2E2E2E2E2E2E2E2E2E2E2E2E2E2E22DE2E2E2E2E2E2E2E2C3E2E2E2E2E2E2E2E2E2E2E2E22DE2E2E2E2E2E2E2E2E2E2E2E2E2E2E2E2E2E2E2E2E2E2E2E2E2E2E2E2E2E2E2
310
E2E2E2E2E2E2E2E2E2E2E2E2E2E2E2E2E2E2E2E2E2E2E2E2E2E2E2E2E2E2E2E2E2E2E2E2E2E2E2E2E2E2E2E2E2E2E2E2F5F5F5F5F5F5F5F5F5F5F5F5F5F5E2F5F5F5F5F5F5F5F5F5F5E2E2E2E2E2E2E2E2E2E2E2E2E2E2E2E2E2E2E2E2E2E2E2E2E2E2E2E2E2E2E2E2E2E2E2E2E2E2E2E2E2E2E2E2E2E2E2E2E2E2E2E2E2E2
310
E2E2E2E2E2E2E2E2E2E2E2E2E2E2E2E2E2E2E2E2E2E2E2E2E2E2E2E2E2E2C3E2E2E2E2E2E2E2E2E2E2E2E2E2E2E2E2E2F0E2E2E2E2E2E2E2E2E2E2E2E2E2E2E2E2E2E2E2E2E2E2E2E2E2E22DE2E2E2E2E2E2E2E2C3E2E2E2E2E2E2E2E2E2E2E2E22DE2E2E2E2E2E2E2E2E2E2E2E2E2E2E2E2E2E2E2E2E2E2E2E2E2E2E2E2E2
310
E2E2E2E2E2E2E2E2E2E2E2E2E2E2E2E2E2E2E2E2E2E2E2E2E2E2E2E2E2E2E2E2E2E2E2E2E2E2E2E2E2E2E2E2E2E2E2E2E2E2E2E2E2E2E2E2E2E2E2E2E2E2E2E2E2E2E2E2E2E2E2E2E2E2E2E2E2E2E2E2E2E2E2E2E2E2E2E2E2E2E2E2E2E2E2E2E2E2E2E2E2E2E2E2E2E2E2E2E2E2E2E2E2E2E2E2E2E2E2E2E2E2E2E2E2E2E2
310
E2E2E2E2E2E2E2E2E2E2E2E2E2E2E2E2E2E2E2E2E2E2E2E2E2E2E2E2E2E2E2E2C3E2E2E2E2E2E2E2E2E2E2E2E2E2E2E2E2E2F0E2E2E2E2E2E2E2E2E2E2E2E2E2E2E2E2E2E2E2E2E2E2E2E2E2E22DE2E2E2E2E2E2E2E2C3E2E2E2E2E2E2E2E2E2E2E2E22DE2E2E2E2E2E2E2E2E2E2E2E2E2E2E2E2E2E2E2E2E2E2E2E2E2E2E2
310
E2E2E2E2E2E2E2E2E2E2E2E2E2E2E2E2E2E2E2E2E2E2E2E2E2E2E2E2E2E2E2E2E2E2E2E2E2E2E2E2E2E2E2E2E2E2E2E2E2E2E2E2E2E2E2E2E2E2E2E2E2E2E2E2E2E2E2E2E2E2E2E2E2E2E2E2E2E2E2E2E2E2E2E2E2E2E2E2E2E2E2E2E2E2E2E2E2E2E2E2E2E2E2E2E2E2E2E2E2E2E2E2E2E2E2E2E2E2E2E2E2E2E2E2E2E2E2
310
E2E2E2E2E2E2E2E2E2E2E2E2E2E2E2E2E2E2E2E2E2E2E2E2E22828E2E2E2E2E2E2E2C3E2E2E2E2E2E2E2E2E2E2E2E22828F0F0F0F0E2E2E2E2E2E2E2E2E2E2E2E2E2E2E2E2E2E2E2E2E2E2E2E2E2E22DE2E2E2E2E2E2E2E2C3E2E2E2E2E2E2E2E2E2E2E2E22DE2E2E2E2E2E2E2E2E2E2E2E2E2E2E2E2E2E2E2E2E2E2E2E2E2
310
E2E2E2E2E2E2E2E2E2E2E2E2E2E2E2E2E2E2E2E2E2E2E2E2E2E2E2E2E2E2E2E2E2E2E2E2E2E2E2E2E2E2E2E2E2E2E2E2E2E2E2E2E2E2E2E2E2E2E2E2E2E2E2E2E2E2E2E2E2E2E2E2E2E2E2E2E2E2E2E2E2E2E2E2E2E2E2E2E2E2E2E2E2E2E2E2E2E2E2E2E2E2E2E2E2E2E2E2E2E2E2E2E2E2E2E2E2E2E2E2E2E2E2E2E2E2E2
310
E2E2E2E2E2E2E2E2E2E2E2E2E2E2E2E2E2E2E2E2E2E2E2E2E2E2E22828E2E2E2E2E2E2E2C3E2E2E2E2E2E2E2E2E2E2E2E228F0E2E2E2E2E2E2E2E2E2E2E2E2E2E2E2E2E2E2E2E2E2E2E2E2E2E2E2E2E2E22DE2E2E2E2E2E2E2E2C3E2E2E2E2E2E2E2E2E2E2E2E22DE2E2E2E2E2E2E2E2E2E2E2E2E2E2E2E2E2E2E2E2E2E2E2
310
E2E2E2E2E2E2E2E2E2E2E2E2E2E2E2E2E2E2E2E2E2E2E2E2E2E2E2E2E2E2E2E2E2E2E2E2E2E2E2E2E2E2E2E2E2E2E2E2E2E2E2F5F5F5F5F5F5F5F5F5F5F5F5F5E2F5F5F5F5F5F5F5F5F5F5F5F5F5E2E2E2E2E2E2E2E2E2E2E2E2E2E2E2E2E2E2E2E2E2E2E2E2E2E2E2E2E2E2E2E2E2E2E2E2E2E2E2E2E2E2E2E2E2E2E2E2E2
310
E2E2E2E2E2E2E2E2E2E2E2E2E2E2E2E2E2E2E2E2E2E2E2E2E2E2E2E2E2E2E2E2E2E2E2E2E2E2C3E2E2E2E2E2E2E2E2E2E2E2E2E2E2F0F0F0E2E2E2E2E2E2E2E2E2E2E2E2E2E2E2E2E2E2E2E2E2E2E2E2E2E2E22D2D2DDC2D2DDCDC2D2DDC2DDC2D2DDC2DDC2DDC2D2D2DE2E2E2E2E2E2E2E2E2E2E2E2E2E2E2E2E2E2E2E2E2
310
E2E2E2E2E2E2E2E2E2E2E2E2E2E2E2E2E2E2E2E2E2E2E2E2E2E2E2E2E2E2E2E2E2E2E2E2E2E2E2E2E2E2E2E2E2E2E2E2E2E2E2E2E2F5F5F5F5F5F5F5F5F5F5F5F5F5E2F5F5F5F5F5F5F5F5F5F5F5F5F5E2E2E2E2E2E2E2E2E2E2E2E2E2E2E2E2E2E2E2E2E2E2E2E2E2E2E2E2E2E2E2E2E2E2E2E2E2E2E2E2E2E2E2E2E2E2E2
310
E2E2E2E2E2E2E2E2E2E2E2E2E2E2E2E2E2E2E2E2E2E2E2E2E2E2E2E2E2E2E2E2E2E2E2E2E2E2E2E2C3E2E2E2E2E2E2E2E2E2E2E2E2E2E2F0F0F0E2E2E2E2E2E2E2E2E2E2E2E2E2E2E2E2E2E2E2E2E2E2E2E2E2E2E2E2E2E2DCE2E2DCDCE2C3DCE2DCE2E2DCE2DCE2DCE2E2E2E2E2E2E2E2E2E2E2E2E2E2E2E2E2E2E2E2E2E2
310
E2E2E2E2E2E2E2E2E2E2E2E2E2E2E2E2E2E2E2E2E2E2E2E2E2E2E2E2E2E2E2E2E2E2E2E2E2E2E2E2E2E2E2E2E2E2E2E2E2E2E2E2E2E2E2F5F5F5F5F5F5F5F5F5E2F5E2E2E2E2E2E2E2E2E2E2E2E2E2E2E2E2E2E2E2E2E2E2E2E2E2E2E2E2E2E2E2E2E2E2E2E2E2E2E2E2E2E2E2E2E2E2E2E2E2E2E2E2E2E2E2E2E2E2E2E2E2
310
E2E2E2E2E2E2E2E2E2E2E2E2E2E2E2E2E2E2E2E2E2E2E2E2E2E2E2E2E2E2E2E2E2E2E2E2E2E2E2E2E2E2C3E2E2E2E2E2E2E2E2E2E2E2E2E2E2E2E2E2E2E2E2E2E2E2E2E2E2E2E2E2E2E2E2E2E2E2E2E2E2E2E2E2E2E2E2E2E2E2DCE2E2DCDCE2C3DCE2DCE2E2DCE2DCE2DCE2E2E2E2E2E2E2E2E2E2E2E2E2E2E2E2E2E2E2E2
310
E2E2E2E2E2E2E2E2E2E2E2E2E2E2E2E2E2E2E2E2E2E2E2E2E2E2E2E2E2E2E2E2E2E2E2E2E2E2E2E2E2E2E2E2E2E2E2E2E2E2E2E2E2E2E2E2E2E2F5F5F5F5F5F5F5F5F5F5F5E2E2E2E2E2E2E2E2E2E2E2E2E2E2E2E2E2E2E2E2E2E2E2E2E2E2E2E2E2E2E2E2E2E2E2E2E2E2E2E2E2E2E2E2E2E2E2E2E2E2E2E2E2E2E2E2E2E2
310
E2E2E2E2E2E2E2E2E2E2E2E2E2E2E2E2E2E2E2E2E2E2E2E2E2E2E2E2E2E2E2E2E2E2E2E2E2E2E2E2E2E2E2E2C3E2E2E2E2E2E2E2E2E2E2E2E2E2E2E2E2E2E2E2E2E2E2E2E2E2E2E2E2E2E2E2E2E2E2E2E2E2E2E2E2E2F0F0F0F0F0F0DCDCDCDCDCDCC3DCE2DCDCDCDCE2DCE2DCE2E2E2E2E2E2E2E2E2E2E2E2E2E2E2E2E2E2
310
E2E2E2E2E2E2E2E2E2E2E2E2E2E2E2E2E2E2E2E2E2E2E2E2E2E2E2E2E2E2E2E2E2E2E2E2E2E2E2E2E2E2E2E2E2E2E2E2E2E2E2E2E2E2E2E2E2E2E2F5F5F5F5F5F5F5F5F5F5F5F5F5F5F5F5F5E2F5F5E2E2E2E2E2E2E2E2E2E2E2E2E2E2E2E2E2E2E2E2E2E2E2E2E2E2E2E2E2E2E2E2E2E2E2E2E2E2E2E2E2E2E2E2E2E2E2E2
310
E2E2E2E2E2E2E2E2E2E2E2E2E2E2E2E2E2E2E2E2E2E2E2E2E2E2E2E2E2E2E2E2E2E2E2E2E2E2E2E2E2E2E2E2E2E2E2E2E2E2E2E2E2E2E2E2E2E2E2E2E2E2E2E2E2E2E2E2E2E2E2E2E2E2E2E2E2E2E2E2E2E2E2E2E2E2E2E2F0F0E2F0F0F0DCDCDCDCDCDCDCDCE2DCDCF0F0E2DCDCDCE2E2E2E2E2E2E2E2E2E2E2E2E2E2E2E2
310
E2E2E2E2E2E2E2E2E2E2E2E2E2E2E2E2E2E2E2E2E2E2E2E2E2E2E2E2E2E2E2E2E2E2E2E2E2E2E2E2E2E2E2E2E2E2E2E2E2E2E2E2E2E2E2E2E2E2E2E2E2E2F5F5F5F5F5F5F5F5F5F5F5F5F5F5F5F5F5F5F5F5E2F5F5F5F5F5F5F5E2F5E2F5F5E2E2E2E2E2E2E2E2E2E2E2E2E2E2E2E2E2E2E2E2E2E2E2E2E2E2E2E2E2E2E2E2
310
E2E2E2E2E2E2E2E2E2E2E2E2E2E2E2E2E2E2E2E2E2E2E2E2E2E2E2E2E2E2E2E2E2E2E2E2E2E2E2E2E2E2E2E2E2E2E2E2E2E2E2E2E2E2E2E2E2E2E2E2E2E2E2E2E2E2E2E2E2E2E2E2E2E2E2E2E2E2E2E2E2E2E2E2E2E2E2E2E2E2E2F0F0F0F0F0DCDCDCDCDCDCDCDCE2DCDCDCDCF0DCDCDCE2E2E2E2E2E2E2E2E2E2E2E2E2E2
310
E2E2E2E2E2E2E2E2E2E2E2E2E2E2E2E2E2E2E2E2E2E2E2E2E2E2E2E2E2E2E2E2E2E2E2E2E2E2E2E2E2E2E2E2E2E2E2E2E2E2E2E2E2E2E2E2E2E2E2E2E2E2E2E2F5F5F5F5F5F5F5F5F5F5F5F5F5F5F5F5E2F5F5F5E2F5F5F5F5F5F5F5F5F5F5F5F5E2E2E2E2E2E2E2E2E2E2E2E2E2E2E2E2E2E2E2E2E2E2E2E2E2E2E2E2E2E2
310
E2E2E2E2E2E2E2E2E2E2E2E2E2E2E2E2E2E2E2E2E2E2E2E2E2E2E2E2E2E2E2E2E2E2E2E2E2E2E2E2E2E2E2E2E2E2E2E2E2E2E2E2E2E2E2E2E2E2E2E2E2E2E2E2E2E2E2E2E2E2E2E2E2E2E2E2E2E2E2E2E2E2E2E2E2E2E2E2E2E2E2E2E2E2E2E2E2E2F0F0F0F0E2E2C3E2E2E2E2E2E2E2F0F0F0F0F0F0E2E2E2E2E2E2E2E2E2
310
E2E2E2E2E2E2E2E2E2E2E2E2E2E2E2E2E2E2E2E2E2E2E2E2E2E2E2E2E2E2E2E2E2E2E2E2E2E2E2E2E2E2E2E2E2E2E2E2E2E2E2E2E2E2E2E2E2E2E2E2E2E2E2E2E2F5F5F5F5F5F5F5F5F5F5F5F5F5F5F5F5F5F5F5F5F5E2E2E2E2E2E2E2E2E2E2E2E2E2E2E2E2E2E2E2E2E2E2E2E2E2E2E2E2E2E2E2E2E2E2E2E2E2E2E2E2E2
310
E2E2E2E2E2E2E2E2E2E2E2E2E2E2E2E2E2E2E2E2E2E2E2E2E2E2E2E2E2E2E2E2E2E2E2E2E2E2E2E2E2E2E2E2E2E2E2E2E2E2E2E2E2E2E2E2E2E2E2E2E2E2E2E2E2E2E2E2E2E2E2E2E2E2E2E2E2E2E2E2E2E2E2E2E2E2E2E2E2E2E2E2E2E2E2E2E2E2E2E2F0F0F0F0E2E2E2E2E2E2E2E2E2E2E2F0F0F0F0E2E2E2E2E2E2E2E2
310
E2E2E2E2E2E2E2E2E2E2E2E2E2E2E2E2E2E2E2E2E2E2E2E2E2E2E2E2E2E2E2E2E2E2E2E2E2E2E2E2E2E2E2E2E2E2E2E2E2E2E2E2E2E2E2E2E2E2E2E2E2E2E2E2E2E2E2E2F5F5F5F5F5F5F5F5F5F5F5F5F5F5F5F5E2F5F5F5E2E2E2E2E2E2E2E2E2E2E2E2E2E2E2E2E2E2E2E2E2E2E2E2E2E2E2E2E2E2E2E2E2E2E2E2E2E2E2
310
E2E2E2E2E2E2E2E2E2E2E2E2E2E2E2E2E2E2E2E2E2E2E2E2E2E2E2E2E2E2E2E2E2E2E2E2E2E2E2E2E2E2E2E2E2E2E2E2E2E2E2E2E2E2E2E2E2E2E2E2E2E2E2E2E2E2E2E2E2E2E2E2E2E2E2E2E2E2E2E2E2E2E2E2E2E2E2E2E2E2E2E2E2E2E2E2E2E2E2E2E2E2F0F0F0F0E2E2E2E2E2E2E2E2E2E2E2F0F0F0F0E2E2E2E2E2E2
310
E2E2E2E2E2E2E2E2E2E2E2E2E2E2E2E2E2E2E2E2E2E2E2E2E2E2E2E2E2E2E2E2E2E2E2E2E2E2E2E2E2E2E2E2E2E2E2E2E2E2E2E2E2E2E2E2E2E2E2E2E2E2E2E2E2E2E2E2E2E2E2E2E2E2E2E2E2E2E2E2E2E2E2E2E2E2E2E2E2E2E2E2E2E2E2E2E2E2E2E2E2E2E2E2E2E2E2E2E2E2E2E2E2E2E2E2E2E2E2E2E2E2E2E2E2E2E2
310
E2E2E2E2E2E2E2E2E2E2E2E2E2E2E2E2E2E2E2E2E2E2E2E2E2E2E2E2E2E2E2E2E2E2E2E2E2E2E2E2E2E2E2E2E2E2E2E2E2E2E2E2E2E2E2E2E2E2E2E2E2E2E2E2E2E2E2E2E2E2E2E2E2E2E2E2E2E2E2E2E2E2E2E2E2E2E2E2E2E2E2E2E2E2E2E2E2E2E2E2E2E2E2E2F0E2E2F0E2E2E2E2E2E2E2E2E2E2E2E2E2E2E2E2E2E2E2
310
E2E2E2E2E2E2E2E2E2E2E2E2E2E2E2E2E2E2E2E2E2E2E2E2E2E2E2E2E2E2E2E2E2E2E2E2E2E2E2E2E2E2E2E2E2E2E2E2E2E2E2E2E2E2E2E2E2E2E2E2E2E2E2E2E2E2E2E2E2E2E2E2E2E2E2E2E2E2E2E2E2E2E2E2E2E2E2E2E2E2E2E2E2E2E2E2E2E2E2E2E2E2E2E2E2E2E2E2E2E2E2E2E2E2E2E2E2E2E2E2E2E2E2E2E2E2E2
310
E2E2E2E2E2E2E2E2E2E2E2E2E2E2E2E2E2E2E2E2E2E2E2E2E2E2E2E2E2E2E2E2E2E2E2E2E2E2E2E2E2E2E2E2E2E2E2E2E2E2E2E2E2E2E2E2E2E2E2E2E2E2E2E2E2E2E2E2E2E2E2E2E2E2E2E2E2E2E2E2E2E2E2E2E2E2E2E2E2E2E2E2E2E2E2E2E2E2E2E2E2E2E2E2E2E2F0F0F0F0E2E2E2E2E2E2E2E2E2E2E2E2E2E2E2E2E2
310
E2E2E2E2E2E2E2E2E2E2E2E2E2E2E2E2E2E2E2E2E2E2E2E2E2E2E2E2E2E2E2E2E2E2E2E2E2E2E2E2E2E2E2E2E2E2E2E2E2E2E2E2E2E2E2E2E2E2E2E2E2E2E2E2E2E2E2E2E2E2E2E2E2E2E2E2E2E2E2E2E2E2E2E2E2E2E2E2E2E2E2E2E2E2E2E2E2E2E2E2E2E2E2E2E2E2E2E2E2E2E2E2E2E2E2E2E2E2E2E2E2E2E2E2E2E2E2
310
E2E2E2E2E2E2E2E2E2E2E2E2E2E2E2E2E2E2E2E2E2E2E2E2E2E2E2E2E2E2E2E2E2E2E2E2E2E2E2E2E2E2E2E2E2E2E2E2E2E2E2E2E2E2E2E2E2E2E2E2E2E2E2E2E2E2E2E2E2E2E2E2E2E2E2E2E2E2E2E2E2E2E2E2E2E2E2E2E2E2E2E2E2E2E2E2E2E2E2E2E2E2E2E2E2E2E2E2E2F0F0E2E2E2E2E2E2E2E2E2E2E2E2E2E2E2E2
310
E2E2E2E2E2E2E2E2E2E2E2E2E2E2E2E2E2E2E2E2E2E2E2E2E2E2E2E2E2E2E2E2E2E2E2E2E2E2E2E2E2E2E2E2E2E2E2E2E2E2E2E2E2E2E2E2E2E2E2E2E2E2E2E2E2E2E2E2E2E2E2E2E2E2E2E2E2E2E2E2E2E2E2E2E2E2E2E2E2E2E2E2E2E2E2E2E2E2E2E2E2E2E2E2E2E2E2E2E2E2E2E2E2E2E2E2E2E2E2E2E2E2E2E2E2E2E2
310
E2E2E2E2E2E2E2E2E2E2E2E2E2E2E2E2E2E2E2E2E2E2E2E2E2E2E2E2E2E2E2E2E2E2E2E2E2E2E2E2E2E2E2E2E2E2E2E2E2E2E2E2E2E2E2E2E2E2E2E2E2E2E2E2E2E2E2E2E2E2E2E2E2E2E2E2E2E2E2E2E2E2E2E2E2E2E2E2E2E2E2E2E2E2E2E2E2E2E2E2E2E2E2E2E2E2E2E2E2E2E2E2E2E2E2E2E2E2E2E2E2E2E2E2E2E2E2
310
E2E2E2E2E2E2E2E2E2E2E2E2E2E2E2E2E2E2E2E2E2E2E2E2E2E2E2E2E2E2E2E2E2E2E2E2E2E2E2E2E2E2E2E2E2E2E2E2E2E2E2E2E2E2E2E2E2E2E2E2E2E2E2E2E2E2E2E2E2E2E2E2E2E2E2E2E2E2E2E2E2E2E2E2E2E2E2E2E2E2E2E2E2E2E2E2E2E2E2E2E2E2E2E2E2E2E2E2E2E2E2E2E2E2E2E2E2E2E2E2E2E2E2E2E2E2E2
310
E2E2E2E2E2E2E2E2E2E2E2E2E2E2E2E2E2E2E2E2E2E2E2E2E2E2E2E2E2E2E2E2E2E2E2E2E2E2E2E2E2E2E2E2E2E2E2E2E2E2E2E2E2E2E2E2E2E2E2E2E2E2E2E2E2E2E2E2E2E2E2E2E2E2E2E2E2E2E2E2E2E2E2E2E2E2E2E2E2E2E2E2E2E2E2E2E2E2E2E2E2E2E2E2E2E2E2E2E2E2E2E2E2E2E2E2E2E2E2E2E2E2E2E2E2E2E2
310
E2E2E2E2E2E2E2E2E2E2E2E2E2E2E2E2E2E2E2E2E2E2E2E2E2E2E2E2E2E2E2E2E2E2E2E2E2E2E2E2E2E2E2E2E2E2E2E2E2E2E2E2E2E2E2E2E2E2E2E2E2E2E2E2E2E2E2E2E2E2E2E2E2E2E2E2E2E2E2E2E2E2E2E2E2E2E2E2E2E2E2E2E2E2E2E2E2E2E2E2E2E2E2E2E2E2E2E2E2E2E2E2E2E2E2E2E2E2E2E2E2E2E2E2E2E2E2
310
E2E2E2E2E2E2E2E2E2E2E2E2E2E2E2E2E2E2E2E2E2E2E2E2E2E2E2E2E2E2E2E2E2E2E2E2E2E2E2E2E2E2E2E2E2E2E2E2E2E2E2E2E2E2E2E2E2E2E2E2E2E2E2E2E2E2E2E2E2E2E2E2E2E2E2E2E2E2E2E2E2E2E2E2E2E2E2E2E2E2E2E2E2E2E2E2E2E2E2E2E2E2E2E2E2E2E2E2E2E2E2E2E2E2E2E2E2E2E2E2E2E2E2E2E2E2E2
310
E2E2E2E2E2E2E2E2E2E2E2E2E2E2E2E2E2E2E2E2E2E2E2E2E2E2E2E2E2E2E2E2E2E2E2E2E2E2E2E2E2E2E2E2E2E2E2E2E2E2E2E2E2E2E2E2E2E2E2E2E2E2E2E2E2E2E2E2E2E2E2E2E2E2E2E2E2E2E2E2E2E2E2E2E2E2E2E2E2E2E2E2E2E2E2E2E2E2E2E2E2E2E2E2E2E2E2E2E2E2E2E2E2E2E2E2E2E2E2E2E2E2E2E2E2E2E2
310
E2E2E2E2E2E2E2E2E2E2E2E2E2E2E2E2E2E2E2E2E2E2E2E2E2E2E2E2E2E2E2E2E2E2E2E2E2E2E2E2E2E2E2E2E2E2E2E2E2E2E2E2E2E2E2E2E2E2E2E2E2E2E2E2E2E2E2E2E2E2E2E2E2E2E2E2E2E2E2E2E2E2E2E2E2E2E2E2E2E2E2E2E2E2E2E2E2E2E2E2E2E2E2E2E2E2E2E2E2E2E2E2E2E2E2E2E2E2E2E2E2E2E2E2E2E2E2
310
E2E2E2E2E2E2E2E2E2E2E2E2E2E2E2E2E2E2E2E2E2E2E2E2E2E2E2E2E2E2E2E2E2E2E2E2E2E2E2E2E2E2E2E2E2E2E2E2E2E2E2E2E2E2E2E2E2E2E2E2E2E2E2E2E2E2E2E2E2E2E2E2E2E2E2E2E2E2E2E2E2E2E2E2E2E2E2E2E2E2E2E2E2E2E2E2E2E2E2E2E2E2E2E2E2E2E2E2E2E2E2E2E2E2E2E2E2E2E2E2E2E2E2E2E2E2E2
310
E2E2E2E2E2E2E2E2E2E2E2E2E2E2E2E2E2E2E2E2E2E2E2E2E2E2E2E2E2E2E2E2E2E2E2E2E2E2E2E2E2E2E2E2E2E2E2E2E2E2E2E2E2E2E2E2E2E2E2E2E2E2E2E2E2E2E2E2E2E2E2E2E2E2E2E2E2E2E2E2E2E2E2E2E2E2E2E2E2E2E2E2E2E2E2E2E2E2E2E2E2E2E2E2E2E2E2E2E2E2E2E2E2E2E2E2E2E2E2E2E2E2E2E2E2E2E2
310
E2E2E2E2E2E2E2E2E2E2E2E2E2E2E2E2E2E2E2E2E2E2E2E2E2E2E2E2E2E2E2E2E2E2E2E2E2E2E2E2E2E2E2E2E2E2E2E2E2E2E2E2E2E2E2E2E2E2E2E2E2E2E2E2E2E2E2E2E2E2E2E2E2E2E2E2E2E2E2E2E2E2E2E2E2E2E2E2E2E2E2E2E2E2E2E2E2E2E2E2E2E2E2E2E2E2E2E2E2E2E2E2E2E2E2E2E2E2E2E2E2E2E2E2E2E2E2
310
E2E2E2E2E2E2E2E2E2E2E2E2E2E2E2E2E2E2E2E2E2E2E2E2E2E2E2E2E2E2E2E2E2E2E2E2E2E2E2E2E2E2E2E2E2E2E2E2E2E2E2E2E2E2E2E2E2E2E2E2E2E2E2E2E2E2E2E2E2E2E2E2E2E2E2E2E2E2E2E2E2E2E2E2E2E2E2E2E2E2E2E2E2E2E2E2E2E2E2E2E2E2E2E2E2E2E2E2E2E2E2E2E2E2E2E2E2E2E2E2E2E2E2E2E2E2E2
310
E2E2E2E2E2E2E2E2E2E2E2E2E2E2E2E2E2E2E2E2E2E2E2E2E2E2E2E2E2E2E2E2E2E2E2E2E2E2E2E2E2E2E2E2E2E2E2E2E2E2E2E2E2E2E2E2E2E2E2E2E2E2E2E2E2E2E2E2E2E2E2E2E2E2E2E2E2E2E2E2E2E2E2E2E2E2E2E2E2E2E2E2E2E2E2E2E2E2E2E2E2E2E2E2E2E2E2E2E2E2E2E2E2E2E2E2E2E2E2E2E2E2E2E2E2E2E2
310
E2E2E2E2E2E2E2E2E2E2E2E2E2E2E2E2E2E2E2E2E2E2E2E2E2E2E2E2E2E2E2E2E2E2E2E2E2E2E2E2E2E2E2E2E2E2E2E2E2E2E2E2E2E2E2E2E2E2E2E2E2E2E2E2E2E2E2E2E2E2E2E2E2E2E2E2E2E2E2E2E2E2E2E2E2E2E2E2E2E2E2E2E2E2E2E2E2E2E2E2E2E2E2E2E2E2E2E2E2E2E2E2E2E2E2E2E2E2E2E2E2E2E2E2E2E2E2
310
E2E2E2E2E2E2E2E2E2E2E2E2E2E2E2E2E2E2E2E2E2E2E2E2E2E2E2E2E2E2E2E2E2E2E2E2E2E2E2E2E2E2E2E2E2E2E2E2E2E2E2E2E2E2E2E2E2E2E2E2E2E2E2E2E2E2E2E2E2E2E2E2E2E2E2E2E2E2E2E2E2E2E2E2E2E2E2E2E2E2E2E2E2E2E2E2E2E2E2E2E2E2E2E2E2E2E2E2E2E2E2E2E2E2E2E2E2E2E2E2E2E2E2E2E2E2E2
310
E2E2E2E2E2E2E2E2E2E2E2E2E2E2E2E2E2E2E2E2E2E2E2E2E2E2E2E2E2E2E2E2E2E2E2E2E2E2E2E2E2E2E2E2E2E2E2E2E2E2E2E2E2E2E2E2E2E2E2E2E2E2E2E2E2E2E2E2E2E2E2E2E2E2E2E2E2E2E2E2E2E2E2E2E2E2E2E2E2E2E2E2E2E2E2E2E2E2E2E2E2E2E2E2E2E2E2E2E2E2E2E2E2E2E2E2E2E2E2E2E2E2E2E2E2E2E2
310
E2E2E2E2E2E2E2E2E2E2E2E2E2E2E2E2E2E2E2E2E2E2E2E2E2E2E2E2E2E2E2E2E2E2E2E2E2E2E2E2E2E2E2E2E2E2E2E2E2E2E2E2E2E2E2E2E2E2E2E2E2E2E2E2E2E2E2E2E2E2E2E2E2E2E2E2E2E2E2E2E2E2E2E2E2E2E2E2E2E2E2E2E2E2E2E2E2E2E2E2E2E2E2E2E2E2E2E2E2E2E2E2E2E2E2E2E2E2E2E2E2E2E2E2E2E2E2
310
E2E2E2E2E2E2E2E2E2E2E2E2E2E2E2E2E2E2E2E2E2E2E2E2E2E2E2E2E2E2E2E2E2E2E2E2E2E2E2E2E2E2E2E2E2E2E2E2E2E2E2E2E2E2E2E2E2E2E2E2E2E2E2E2E2E2E2E2E2E2E2E2E2E2E2E2E2E2E2E2E2E2E2E2E2E2E2E2E2E2E2E2E2E2E2E2E2E2E2E2E2E2E2E2E2E2E2E2E2E2E2E2E2E2E2E2E2E2E2E2E2E2E2E2E2E2E2
310
E2E2E2E2E2E2E2E2E2E2E2E2E2E2E2E2E2E2E2E2E2E2E2E2E2E2E2E2E2E2E2E2E2E2E2E2E2E2E2E2E2E2E2E2E2E2E2E2E2E2E2E2E2E2E2E2E2E2E2E2E2E2E2E2E2E2E2E2E2E2E2E2E2E2E2E2E2E2E2E2E2E2E2E2E2E2E2E2E2E2E2E2E2E2E2E2E2E2E2E2E2E2E2E2E2E2E2E2E2E2E2E2E2E2E2E2E2E2E2E2E2E2E2E2E2E2E2
310
E2E2E2E2E2E2E2E2E2E2E2E2E2E2E2E2E2E2E2E2E2E2E2E2E2E2E2E2E2E2E2E2E2E2E2E2E2E2E2E2E2E2E2E2E2E2E2E2E2E2E2E2E2E2E2E2E2E2E2E2E2E2E2E2E2E2E2E2E2E2E2E2E2E2E2E2E2E2E2E2E2E2E2E2E2E2E2E2E2E2E2E2E2E2E2E2E2E2E2E2E2E2E2E2E2E2E2E2E2E2E2E2E2E2E2E2E2E2E2E2E2E2E2E2E2E2E2
310
E2E2E2E2E2E2E2E2E2E2E2E2E2E2E2E2E2E2E2E2E2E2E2E2E2E2E2E2E2E2E2E2E2E2E2E2E2E2E2E2E2E2E2E2E2E2E2E2E2E2E2E2E2E2E2E2E2E2E2E2E2E2E2E2E2E2E2E2E2E2E2E2E2E2E2E2E2E2E2E2E2E2E2E2E2E2E2E2E2E2E2E2E2E2E2E2E2E2E2E2E2E2E2E2E2E2E2E2E2E2E2E2E2E2E2E2E2E2E2E2E2E2E2E2E2E2E2
310
E2E2E2E2E2E2E2E2E2E2E2E2E2E2E2E2E2E2E2E2E2E2E2E2E2E2E2E2E2E2E2E2E2E2E2E2E2E2E2E2E2E2E2E2E2E2E2E2E2E2E2E2E2E2E2E2E2E2E2E2E2E2E2E2E2E2E2E2E2E2E2E2E2E2E2E2E2E2E2E2E2E2E2E2E2E2E2E2E2E2E2E2E2E2E2E2E2E2E2E2E2E2E2E2E2E2E2E2E2E2E2E2E2E2E2E2E2E2E2E2E2E2E2E2E2E2E2
310
E2E2E2E2E2E2E2E2E2E2E2E2E2E2E2E2E2E2E2E2E2E2E2E2E2E2E2E2E2E2E2E2E2E2E2E2E2E2E2E2E2E2E2E2E2E2E2E2E2E2E2E2E2E2E2E2E2E2E2E2E2E2E2E2E2E2E2E2E2E2E2E2E2E2E2E2E2E2E2E2E2E2E2E2E2E2E2E2E2E2E2E2E2E2E2E2E2E2E2E2E2E2E2E2E2E2E2E2E2E2E2E2E2E2E2E2E2E2E2E2E2E2E2E2E2E2E2
310
E2E2E2E2E2E2E2E2E2E2E2E2E2E2E2E2E2E2E2E2E2E2E2E2E2E2E2E2E2E2E2E2E2E2E2E2E2E2E2E2E2E2E2E2E2E2E2E2E2E2E2E2E2E2E2E2E2E2E2E2E2E2E2E2E2E2E2E2E2E2E2E2E2E2E2E2E2E2E2E2E2E2E2E2E2E2E2E2E2E2E2E2E2E2E2E2E2E2E2E2E2E2E2E2E2E2E2E2E2E2E2E2E2E2E2E2E2E2E2E2E2E2E2E2E2E2E2
310
E2E2E2E2E2E2E2E2E2E2E2E2E2E2E2E2E2E2E2E2E2E2E2E2E2E2E2E2E2E2E2E2E2E2E2E2E2E2E2E2E2E2E2E2E2E2E2E2E2E2E2E2E2E2E2E2E2E2E2E2E2E2E2E2E2E2E2E2E2E2E2E2E2E2E2E2E2E2E2E2E2E2E2E2E2E2E2E2E2E2E2E2E2E2E2E2E2E2E2E2E2E2E2E2E2E2E2E2E2E2E2E2E2E2E2E2E2E2E2E2E2E2E2E2E2E2E2
310
E2E2E2E2E2E2E2E2E2E2E2E2E2E2E2E2E2E2E2E2E2E2E2E2E2E2E2E2E2E2E2E2E2E2E2E2E2E2E2E2E2E2E2E2E2E2E2E2E2E2E2E2E2E2E2E2E2E2E2E2E2E2E2E2E2E2E2E2E2E2E2E2E2E2E2E2E2E2E2E2E2E2E2E2E2E2E2E2E2E2E2E2E2E2E2E2E2E2E2E2E2E2E2E2E2E2E2E2E2E2E2E2E2E2E2E2E2E2E2E2E2E2E2E2E2E2E2
310
E2E2E2E2E2E2E2E2E2E2E2E2E2E2E2E2E2E2E2E2E2E2E2E2E2E2E2E2E2E2E2E2E2E2E2E2E2E2E2E2E2E2E2E2E2E2E2E2E2E2E2E2E2E2E2E2E2E2E2E2E2E2E2E2E2E2E2E2E2E2E2E2E2E2E2E2E2E2E2E2E2E2E2E2E2E2E2E2E2E2E2E2E2E2E2E2E2E2E2E2E2E2E2E2E2E2E2E2E2E2E2E2E2E2E2E2E2E2E2E2E2E2E2E2E2E2E2
310
E2E2E2E2E2E2E2E2E2E2E2E2E2E2E2E2E2E2E2E2E2E2E2E2E2E2E2E2E2E2E2E2E2E2E2E2E2E2E2E2E2E2E2E2E2E2E2E2E2E2E2E2E2E2E2E2E2E2E2E2E2E2E2E2E2E2E2E2E2E2E2E2E2E2E2E2E2E2E2E2E2E2E2E2E2E2E2E2E2E2E2E2E2E2E2E2E2E2E2E2E2E2E2E2E2E2E2E2E2E2E2E2E2E2E2E2E2E2E2E2E2E2E2E2E2E2E2
310
E2E2E2E2E2E2E2E2E2E2E2E2E2E2E2E2E2E2E2E2E2E2E2E2E2E2E2E2E2E2E2E2E2E2E2E2E2E2E2E2E2E2E2E2E2E2E2E2E2E2E2E2E2E2E2E2E2E2E2E2E2E2E2E2E2E2E2E2E2E2E2E2E2E2E2E2E2E2E2E2E2E2E2E2E2E2E2E2E2E2E2E2E2E2E2E2E2E2E2E2E2E2E2E2E2E2E2E2E2E2E2E2E2E2E2E2E2E2E2E2E2E2E2E2E2E2E2
310
E2E2E2E2E2E2E2E2E2E2E2E2E2E2E2E2E2E2E2E2E2E2E2E2E2E2E2E2E2E2E2E2E2E2E2E2E2E2E2E2E2E2E2E2E2E2E2E2E2E2E2E2E2E2E2E2E2E2E2E2E2E2E2E2E2E2E2E2E2E2E2E2E2E2E2E2E2E2E2E2E2E2E2E2E2E2E2E2E2E2E2E2E2E2E2E2E2E2E2E2E2E2E2E2E2E2E2E2E2E2E2E2E2E2E2E2E2E2E2E2E2E2E2E2E2E2E2
310
E2E2E2E2E2E2E2E2E2E2E2E2E2E2E2E2E2E2E2E2E2E2E2E2E2E2E2E2E2E2E2E2E2E2E2E2E2E2E2E2E2E2E2E2E2E2E2E2E2E2E2E2E2E2E2E2E2E2E2E2E2E2E2E2E2E2E2E2E2E2E2E2E2E2E2E2E2E2E2E2E2E2E2E2E2E2E2E2E2E2E2E2E2E2E2E2E2E2E2E2E2E2E2E2E2E2E2E2E2E2E2E2E2E2E2E2E2E2E2E2E2E2E2E2E2E2E2
310
E2E2E2E2E2E2E2E2E2E2E2E2E2E2E2E2E2E2E2E2E2E2E2E2E2E2E2E2E2E2E2E2E2E2E2E2E2E2E2E2E2E2E2E2E2E2E2E2E2E2E2E2E2E2E2E2E2E2E2E2E2E2E2E2E2E2E2E2E2E2E2E2E2E2E2E2E2E2E2E2E2E2E2E2E2E2E2E2E2E2E2E2E2E2E2E2E2E2E2E2E2E2E2E2E2E2E2E2E2E2E2E2E2E2E2E2E2E2E2E2E2E2E2E2E2E2E2
310
E2E2E2E2E2E2E2E2E2E2E2E2E2E2E2E2E2E2E2E2E2E2E2E2E2E2E2E2E2E2E2E2E2E2E2E2E2E2E2E2E2E2E2E2E2E2E2E2E2E2E2E2E2E2E2E2E2E2E2E2E2E2E2E2E2E2E2E2E2E2E2E2E2E2E2E2E2E2E2E2E2E2E2E2E2E2E2E2E2E2E2E2E2E2E2E2E2E2E2E2E2E2E2E2E2E2E2E2E2E2E2E2E2E2E2E2E2E2E2E2E2E2E2E2E2E2E2
310
E2E2E2E2E2E2E2E2E2E2E2E2E2E2E2E2E2E2E2E2E2E2E2E2E2E2E2E2E2E2E2E2E2E2E2E2E2E2E2E2E2E2E2E2E2E2E2E2E2E2E2E2E2E2E2E2E2E2E2E2E2E2E2E2E2E2E2E2E2E2E2E2E2E2E2E2E2E2E2E2E2E2E2E2E2E2E2E2E2E2E2E2E2E2E2E2E2E2E2E2E2E2E2E2E2E2E2E2E2E2E2E2E2E2E2E2E2E2E2E2E2E2E2E2E2E2E2
310
E2E2E2E2E2E2E2E2E2E2E2E2E2E2E2E2E2E2E2E2E2E2E2E2E2E2E2E2E2E2E2E2E2E2E2E2E2E2E2E2E2E2E2E2E2E2E2E2E2E2E2E2E2E2E2E2E2E2E2E2E2E2E2E2E2E2E2E2E2E2E2E2E2E2E2E2E2E2E2E2E2E2E2E2E2E2E2E2E2E2E2E2E2E2E2E2E2E2E2E2E2E2E2E2E2E2E2E2E2E2E2E2E2E2E2E2E2E2E2E2E2E2E2E2E2E2E2
310
E2E2E2E2E2E2E2E2E2E2E2E2E2E2E2E2E2E2E2E2E2E2E2E2E2E2E2E2E2E2E2E2E2E2E2E2E2E2E2E2E2E2E2E2E2E2E2E2E2E2E2E2E2E2E2E2E2E2E2E2E2E2E2E2E2E2E2E2E2E2E2E2E2E2E2E2E2E2E2E2E2E2E2E2E2E2E2E2E2E2E2E2E2E2E2E2E2E2E2E2E2E2E2E2E2E2E2E2E2E2E2E2E2E2E2E2E2E2E2E2E2E2E2E2E2E2E2
310
E2E2E2E2E2E2E2E2E2E2E2E2E2E2E2E2E2E2E2E2E2E2E2E2E2E2E2E2E2E2E2E2E2E2E2E2E2E2E2E2E2E2E2E2E2E2E2E2E2E2E2E2E2E2E2E2E2E2E2E2E2E2E2E2E2E2E2E2E2E2E2E2E2E2E2E2E2E2E2E2E2E2E2E2E2E2E2E2E2E2E2E2E2E2E2E2E2E2E2E2E2E2E2E2E2E2E2E2E2E2E2E2E2E2E2E2E2E2E2E2E2E2E2E2E2E2E2
310
E2E2E2E2E2E2E2E2E2E2E2E2E2E2E2E2E2E2E2E2E2E2E2E2E2E2E2E2E2E2E2E2E2E2E2E2E2E2E2E2E2E2E2E2E2E2E2E2E2E2E2E2E2E2E2E2E2E2E2E2E2E2E2E2E2E2E2E2E2E2E2E2E2E2E2E2E2E2E2E2E2E2E2E2E2E2E2E2E2E2E2E2E2E2E2E2E2E2E2E2E2E2E2E2E2E2E2E2E2E2E2E2E2E2E2E2E2E2E2E2E2E2E2E2E2E2E2
310
E2E2E2E2E2E2E2E2E2E2E2E2E2E2E2E2E2E2E2E2E2E2E2E2E2E2E2E2E2E2E2E2E2E2E2E2E2E2E2E2E2E2E2E2E2E2E2E2E2E2E2E2E2E2E2E2E2E2E2E2E2E2E2E2E2E2E2E2E2E2E2E2E2E2E2E2E2E2E2E2E2E2E2E2E2E2E2E2E2E2E2E2E2E2E2E2E2E2E2E2E2E2E2E2E2E2E2E2E2E2E2E2E2E2E2E2E2E2E2E2E2E2E2E2E2E2E2
310
E2E2E2E2E2E2E2E2E2E2E2E2E2E2E2E2E2E2E2E2E2E2E2E2E2E2E2E2E2E2E2E2E2E2E2E2E2E2E2E2E2E2E2E2E2E2E2E2E2E2E2E2E2E2E2E2E2E2E2E2E2E2E2E2E2E2E2E2E2E2
  0
XRECORD
  5
C5BC
102
{ACAD_REACTORS
330
C59D
102
}
330
C59D
100
AcDbXrecord
280
     1
102
SHADEPLOT
 70
     0
102
SHADEPLOTRESLEVEL
 70
     2
102
SHADEPLOTCUSTOMDPI
 70
   300
  0
XRECORD
  5
C59E
102
{ACAD_REACTORS
330
C59D
102
}
330
C59D
100
AcDbXrecord
280
     1
310
28000000630000008C0000000100080000000000B0360000000000000000000000010000000000000000000000000000FFFFFF000000000000000000000000000000000000000000000000000000000000000000330000006600000099000000CC000000FF00000000330000333300006633000099330000CC330000FF3300
310
0000660000336600006666000099660000CC660000FF66000000990000339900006699000099990000CC990000FF99000000CC000033CC000066CC000099CC0000CCCC0000FFCC000000FF000033FF000066FF000099FF0000CCFF0000FFFF000000003300330033006600330099003300CC003300FF003300003333003333
310
33006633330099333300CC333300FF33330000663300336633006666330099663300CC663300FF66330000993300339933006699330099993300CC993300FF99330000CC330033CC330066CC330099CC3300CCCC3300FFCC330000FF330033FF330066FF330099FF3300CCFF3300FFFF330000006600330066006600660099
310
006600CC006600FF00660000336600333366006633660099336600CC336600FF33660000666600336666006666660099666600CC666600FF66660000996600339966006699660099996600CC996600FF99660000CC660033CC660066CC660099CC6600CCCC6600FFCC660000FF660033FF660066FF660099FF6600CCFF6600
310
FFFF660000009900330099006600990099009900CC009900FF00990000339900333399006633990099339900CC339900FF33990000669900336699006666990099669900CC669900FF66990000999900339999006699990099999900CC999900FF99990000CC990033CC990066CC990099CC9900CCCC9900FFCC990000FF99
310
0033FF990066FF990099FF9900CCFF9900FFFF99000000CC003300CC006600CC009900CC00CC00CC00FF00CC000033CC003333CC006633CC009933CC00CC33CC00FF33CC000066CC003366CC006666CC009966CC00CC66CC00FF66CC000099CC003399CC006699CC009999CC00CC99CC00FF99CC0000CCCC0033CCCC0066CC
310
CC0099CCCC00CCCCCC00FFCCCC0000FFCC0033FFCC0066FFCC0099FFCC00CCFFCC00FFFFCC000000FF003300FF006600FF009900FF00CC00FF00FF00FF000033FF003333FF006633FF009933FF00CC33FF00FF33FF000066FF003366FF006666FF009966FF00CC66FF00FF66FF000099FF003399FF006699FF009999FF00CC
310
99FF00FF99FF0000CCFF0033CCFF0066CCFF0099CCFF00CCCCFF00FFCCFF0000FFFF0033FFFF0066FFFF0099FFFF00CCFFFF00FFFFFF00000000000D0D0D001A1A1A00282828003535350043434300505050005D5D5D006B6B6B00787878008686860093939300A1A1A100AEAEAE00BBBBBB00C9C9C900D6D6D600E4E4E400
310
F1F1F100FFFFFF0000000000000000000000000000000000000000000000000000000000000000000000000000000000F5F5F5F5F5F5F5F5F5F5F5F5F5F5F5F5F5F5F5F5F5F5F5F5F5F5F5F5F5F5F5F5F5F5F5F5F5F5F5F5F5F5F5F5F5F5F5F5F5F5F5F5F5F5F5F5F5F5F5F5F5F5F5F5F5F5F5F5F5F5F5F5F5F5F5F5F5F5F5
310
F5F5F5F5F5F5F5F5F5F5F5F5F5F5F5F5F5F5F5F539F5E2E2E2E2E2E2E2E2E2E2E2E2E2E2E2E2E2E2E2E2E2E2E2E2E2E2E2E2E2E2E2E2E2E2E2E2E2E2E2E2E2E2E2E2E2E2E2E2E2E2E2E2E2E2E2E2E2E2E2E2E2E2E2E2E2E2E2E2E2E2E2E2E2E2E2E2E2E2E2E2E2E2E2E2E2E2E2E2E2E2E2E2E2E2E2E2E2E245F5E2E2E2E2E2
310
E2E2E2E2E2E2E2E2E2E2E2E2E2E2E2E2E2E2E2E2E2E2E2E2E2E2E2E2E2E2E2E2E2E2E2E2E2E2E2E2E2E2E2E2E2E2E2E2E2E2E2E2E2E2E2E2E2E2E2E2E2E2E2E2E2E2E2E2E2E2E2E2E2E2E2E2E2E2E2E2E2E2E2E2E2E2E2E2E2E2E2E2E23AF5E2E2F5F5F5F5F5F5F5F5E2E2E2E2E2E2E2E2F5F5F5F5F5F5F5F5F5F5F5F5F5F5
310
F5E2E2E2E2E2E2E2E2E2F5F5F5F5F5F5F5F5F5F5F5F5F5F5E2E2E2E2E2E2E2E2E2F5F5F5F5F5F5F5F5F5F5F5F5F5F5F5E2E2E2E2E2E2E2E2F5F5F5F5F5F5F5F5E2E245F5E2E2F5E2E2E2E2E2E2E2E2E2E2E2E2E2E2E2E2E2E2E2E2E2E2E2E2E2E2E2E2E2E2E2E2E2E2E2E2E2E2E2E2E2E2E2E2E2E2E2E2E2E2E2E2E2E2E2E2
310
E2E2E2E2E2E2E2E2E2E2E2E2E2E2E2E2E2E2E2E2E2E2E2E2E2E2E2E2E2E2E2E2E2E2E2E2F5E2E23BF5E2E2F5E2E2E2E2E2E2E2E2E2E2E2E2E2E2E2E2E2E2E2E2E2E2E2E2E2E2E2E2E2E2E2E2E2E2E2E2E2E2E2E2E2E2E2E2E2E2E2E2E2E2E2E2E2E2E2E2E2E2E2E2E2E2E2E2E2E2E2E2E2E2E2E2E2E2E2E2E2E2E2E2E2E2E2
310
E2E2E2E2E2E2E2E2E2F5E2E245F5E2E2F5E2E2E2E2E2E2E2E2E2E2E2E2E2E2E2E2E2E2E2E2E2E2E2E2E2E2E2E2E2E2E2E2E2E2E2E2E2E2E2E2E2E2E2E2E2E2E2E2E2E2E2E2E2E2E2E2E2E2E2E2E2E2E2E2E2E2E2E2E2E2E2E2E2E2E2E2E2E2E2E2E2E2E2E2E2E2E2E2E2E2E2E2F5E2E23CF5E2E2F5E2E2E2E2E2E2E2E2E2E2
310
E2E2E2E2E2E2E2E2E2E2E2E2E2E2E2E2E2E2E2E2E2E2E2E2E2E2E2E2E2E2E2E2E2E2E2E2E2E2E2E2E2E2E2E2E2E2E2E2E2E2E2E2E2E2E2E2E2E2E2E2E2E2E2E2E2E2E2E2E2E2E2E2E2E2E2E2E2E2E2E2E2E2F5E2E245F5E2E2F5E2E2E2E2E2E2E2E2E2E2E2E2E2E2E2E2E2E2E2E2E2E2E2E2E2E2E2E2E2E2E2E2E2E2E2E2E2
310
E2E2E2E2E2E2E2E2E2E2E2E2E2E2E2E2E2E2E2E2E2E2E2E2E2E2E2E2E2E2E2E2E2E2E2E2E2E2E2E2E2E2E2E2E2E2E2E2E2E2E2E2E2E2E2F5E2E23DF5E2E2F5E2E2E2E2E2E2E2E2E2E2E2E2E2E2E2E2E2E2E2E2E2E2E2E2E2E2E2E2E2E2E2E2E2E2E2E2E2E2E2E2E2E2E2E2E2E2E2E2E2E2E2E2E2E2E2E2E2E2E2E2E2E2E2E2
310
E2E2E2E2E2E2E2E2E2E2E2E2E2E2E2E2E2E2E2E2E2E2E2E2E2E2E2E2F5E2E245F5E2E2F5E2E2E2E2E2E2E2E2E2E2E2E2E2E2E2E2E2E2E2E2E2E2E2E2E2E2E2E2E2E2E2E2E2E2E2E2E2E2E2E2E2E2E2E2E2E2E2E2E2E2E2E2E2E2E2E2E2E2E2E2E2E2E2E2E2E2E2E2E2E2E2E2E2E2E2E2E2E2E2E2E2E2E2E2E2E2E2E2E2E2E2
310
E2F5E2E23EF5E2E2F5E2E2E2E2E2E2E2E2E2E2E2E2E2E2E2E2E2E2E2E2E2E2E2E2E2E2E2E2E2E2E2E2E2E2E2E2E2E2E2E2E2E2E2E2E2E2E2E2E2E2E2E2E2E2E2E2E2E2E2E2E2E2E2E2E2E2E2E2E2E2E2E2E2E2E2E2E2E2E2E2E2E2E2E2E2E2E2E2E2E2E2E2F5E2E245F5E2E2E2E2E2E2E2E2E2E2E2E2E2E2E2E2E2E2E2E2E2
310
E2E2E2E2E2E2E2E2E2E2E2E2E2E2E2E2E2E2E2E2E2E2E2E2E2E2E2E2E2E2E2E2E2E2E2E2E2E2E2E2E2E2E2E2E2E2E2E2E2E2E2E2E2E2E2E2E2E2E2E2E2E2E2E2E2E2E2E2E2E2E2E2E2E2E2E2E23FF5E2E2E2E2E2E2E2E2E2E2E2E2E2E2E2E2E2E2E2E2E2E2E2E2E2E2E2E2E2E2E2E2E2E2E2E2E2E2E2E2E2E2E2E2E2E2E2E2
310
E2E2E2E2E2E2E2E2E2E2E2E2E2E2E2E2E2E2E2E2E2E2E2E2E2E2E2E2E2E2E2E2E2E2E2E2E2E2E2E2E2E2E2E2E2E2E2E2E2E245F5E2E2E2E2E2E2E2E2E2E2E2E2E2E2E2E2E2E2E2E2E2E2E2E2E2E2E2E2E2E2E2E2E2E2E2E2E2E2E2E2E2E2E2E2E2E2E2E2E2E2E2E2E2E2E2E2E2E2E2E2E2E2E2E2E2E2E2E2E2E2E2E2E2E2E2
310
E2E2E2E2E2E2E2E2E2E2E2E2E2E2E2E2E2E2E2E2E2E2E240F5E2E2E2E2E2E2E2E2E2E2E2E2E2E2E2E2E2E2E2E2E2E2E2E2E2E2E2E2E2E2E2E2E2E2E2E2E2E2E2E2E2E2E2E2E2E2E2E2E2E2E2E2E2E2E2E2E2E2E2E2E2E2E2E2E2E2E2E2E2E2E2E2E2E2E2E2E2E2E2E2E2E2E2E2E2E2E2E2E2E2E2E2E2E2E2E2E2E245F5E2E2
310
E2E2E2E2E2E2E2E2E2E2E2E2E2E2E2E2E2E2E2E2E2E2E2E2E2E2E2E2E2E2E2E2E2E2E2E2E2E2E2E2E2E2E2E2E2E2E2E2E2E2E2E2E2E2E2E2E2E2E2E2E2E2E2E2E2E2E2E2E2E2E2E2E2E2E2E2E2E2E2E2E2E2E2E2E2E2E2E2E2E2E2E2E2E2E2E241F5E2E2E2E2E2E2E2E2E2E2E2E2E2E2E2E2E2E2E2E2E2E2E2E2E2E2E2E2E2
310
E2E2E2E2E2E2E2E2E2E2E2E2E2E2E2E2E2E2E2E2E2E2E2E2E2E2E2E2E2E2E2E2E2E2E2E2E2E2E2E2E2E2E2E2E2E2E2E2E2E2E2E2E2E2E2E2E2E2E2E2E2E2E2E2E2E2E2E2E200F5E2E2E2E2E2E2E2E2E2E2E2E2E2E2E2E2E2E2E2E2E2E2E2E2E2E2E2E2E2E2E2E2E2E2E2E2E2E2E2E2E2E2E2E2E2E2E2E2E2E2E2E2E2E2E2E2
310
E2E2E2E2E2E2E2E2E2E2E2E2E2E2E2E2E2E2E2E2E2E2E2E2E2E2E2E2E2E2E2E2E2E2E2E2E2E2E2E2E2E200F5E2E2E2E2E2E2E2E2E2E2E2E2E2E2E2E2E2E2E2E2E2E2E2E2E2E2E2E2E2E2E2E2E2E2E2E2E2E2E2E2E2E2E2E2E2E2E2E2E2E2E2E2E2E2E2E2E2E2E2E2E2E2E2E2E2E2E2E2E2E2E2E2E2E2E2E2E2E2E2E2E2E2E2
310
E2E2E2E2E2E2E2E2E2E2E2E2E2E2E200F5E2E2E2E2E2E2E2E2E2E2E2E2E2E2E2E2E2E2E2E2E2E2E2E2E2E2E2E2E2E2E2E2E2E2E2E2E2E2E2E2E2E2E2E2E2E2E2E2E2E2E2E2E2E2E2E2E2E2E2E2E2E2E2E2E2E2E2E2E2E2E2E2E2E2E2E2E2E2E2E2E2E2E2E2E2E2E2E2E2E2E2E2E2E2E2E2E2E200F5E2E2E2E2E2E2E2E2E2E2
310
E2E2E2E2E2E2E2E2E2E2E2E2E2E2E2E2E2E2E2E2E2E2E2E2E2E2E2E2E2E2E2E2E2E2E2E2E2E2E2E2E2E2E2E2E2E2E2E2E2E2E2E2E2E2E2E2E2E2E2E2E2E2E2E2E2E2E2E2E2E2E2E2E2E2E2E2E2E2E2E2E2E2E2E2E2E2E2E200F5E2E2F5E2E2E2E2E2E2E2E2E2E2E2E2E2E2E2E2E2E2E2E2E2E2E2E2E2E2E2E2E2E2E2E2E2E2
310
E2E2E2E2E2E2E2E2E2E2E2E2E2E2E2E2E2E2E2E2E2E2E2E2E2E2E2E2E2E2E2E2E2E2E2E2E2E2E2E2E2E2E2E2E2E2E2E2E2E2E2E2E2E2E2E2E2E2F5E2E200F5E2E2F5E2E2E2E2E2E2E2E2E2E2E2E2E2E2E2E2E2E2E2E2E2E2E2E2E2E2E2E2E2E2E2E2E2E2E2E2E2E2E2E2E2E2E2E2E2E2E2E2E2E2E2E2E2E2E2E2E2E2E2E2E2
310
E2E2E2E2E2E2E2E2E2E2E2E2E2E2E2E2E2E2E2E2E2E2E2E2E2E2E2E2E2E2E2F5E2E200F5E2E2F5E2E2E2E2E2E2E2E2E2E2E2E2E2E2E2E2E2E2E2E2E2E2E2E2E2E2E2E2E2E2E2E2E2E2E2E2E2E2E2E2E2E2E2E2E2E2E2E2E2E2E2E2E2E2E2E2E2E2E2E2E2E2E2E2E2E2E2E2E2E2E2E2E2E2E2E2E2E2E2E2E2E2E2E2E2E2E2E2
310
E2E2E2E2F5E2E200F5E2E2F5E2E2E2E2E2E2E2E2E2E2E2E2E2E2E2E2E2E2E2E2E2E2E2E2E2E2E2E2E2E2E2E2E2E2E2E2E2E2E2E2E2E2E2E2E2E2E2E2E2E2E2E2E2E2E2E2E2E2E2E2E2E2E2E2E2E2E2E2E2E2E2E2E2E2E2E2E2E2E2E2E2E2E2E2E2E2E2E2E2E2E2E2F5E2E200F5E2E2F5E2E2E2E2E2E2E2E2E2E2E2E2E2E2E2
310
E2E2E2E2E2E2E2E2E2E2E2E2E2E2E2E2E2E2E2E2E2E2E2E2E2E2E2E2E2E2E2E2E2E2E2E2E2E2E2E2E2E2E2E2E2E2E2E2E2E2E2E2E2E2E2E2E2E2E2E2E2E2E2E2E2E2E2E2E2E2E2E2E2E2E2E2E2F5E2E200F5E2E2F5E2E2E2E2E2E2E2E2E2E2E2E2E2E2E2E2E2E2E2E2E2E2E2E2E2E2E2E2E2E2E2E2E2E2E2E2E2E2E2E2E2E2
310
E2E2E2E2E2E2E2E2E2E2E2E2E2E2E2E2E2E2E2E2E2E2E2E2E2E2E2E2E2E2E2E2E2E2E2E2E2E2E2E2E2E2E2E2E2E2E2E2E2E2F5E2E2FFF5E2E2F5E2E2E2E2E2E2E2E2E2E2E2E2E2E2E2E2E2E2E2E2E2E2E2E2E2E2E2E2E2E2E2E2E2E2E2E2E2E2E2E2E2E2E2E2E2E2E2E2E2E2E2E2E2E2E2E2E2E2E2E2E2E2E2E2E2E2E2E2E2
310
E2E2E2E2E2E2E2E2E2E2E2E2E2E2E2E2E2E2E2E2E2E2E2F5E2E200F5E2E2F5E2E2E2E2E2E2E2E2E2E2E2E2E2E2E2E2E2E2E2E2E2E2E2E2E2E2E2E2E2E2E2E2E2E2E2E2E2E2E2E2E2E2E2E2E2E2E2E2E2E2E2E2E2E2E2E2E2E2E2E2E2E2E2E2E2E2E2E2E2E2E2E2E2E2E2E2E2E2E2E2E2E2E2E2E2E2E2E2E2E2E2E2F5E2E200
310
F5E2E2F5E2E2E2E2E2E2E2E2E2E2E2E2E2E2E2E2E2E2E2E2E2E2E2E2E2E2E2E2E2E2E2E2E2E2E2E2E2E2E2E2E2E2E2E2E2E2E2E2E2E2E2E2E2E2E2E2E2E2E2E2E2E2E2E2E2E2E2E2E2E2E2E2E2E2E2E2E2E2E2E2E2E2E2E2E2E2E2E2E2E2E2E2F5E2E200F5E2E2F5E2E2E2E2E2E2E2E2E2E2E2E2E2E2E2E2E2E2E2E2E2E2E2
310
E2E2E2E2E2E2E2E2E2E2E2E2E2E2E2E2E2E2E2E2E2E2E2E2E2E2E2E2E2E2E2E2E2E2E2E2E2E2E2E2E2E2E2E2E2E2E2E2E2E2E2E2E2E2E2E2E2E2E2E2E2E2E2E2E2E2E2E2E2F5E2E200F5E2E2F5E2E2E2E2E2E2E2E2E2E2E2E2E2E2E2E2E2E2E2E2E2E2E2E2E2E2E2E2E2E2E2E2E2E2E2E2E2E2E2E2E2E2E2E2E2E2E2E2E2E2
310
E2E2E2E2E2E2E2E2E2E2E2E2E2E2E2E2E2E2E2E2E2E2E2E2E2E2E2E2E2E2E2E2E2E2E2E2E2E2E2E2E2E2F5E2E200F5E2E2F5E2E2E2E2E2E2E2E2E2E2E2E2E2E2E2E2E2E2E2E2E2E2E2E2E2E2E2E2E2E2E2E2E2E2E2E2E2E2E2E2E2E2E2E2E2E2E2E2E2E2E2E2E2E2E2E2E2E2E2E2E2E2E2E2E2E2E2E2E2E2E2E2E2E2E2E2E2
310
E2E2E2E2E2E2E2E2E2E2E2E2E2E2E2F5E2E200F5E2E2F5E2E2E2E2E2E2E2E2E2E2E2E2E2E2E2E2E2E2E2E2E2E2E2E2E2E2E2E2E2E2E2E2E2E2E2E2E2E2E2E2E2E2E2E2E2E2E2E2E2E2E2E2E2E2E2E2E2E2E2E2E2E2E2E2E2E2E2E2E2E2E2E2E2E2E2E2E2E2E2E2E2E2E2E2E2E2E2E2E2E2E2E2F5E2E200F5E2E2F5E2E2E2E2
310
E2E2E2E2E2E2E2E2E2E2E2E2E2E2E2E2E2E2E2E2E2E2E2E2E2E2E2E2E2E2E2E2E2E2E2E2E2E2E2E2E2E2E2E2E2E2E2E2E2E2E2E2E2E2E2E2E2E2E2E2E2E2E2E2E2E2E2E2E2E2E2E2E2E2E2E2E2E2E2E2E2E2E2E2E2E2E2E2F5E2E200F5E2E2F5E2E2E2E2E2E2E2E2E2E2E2E2E2E2E2E2E2E2E2E2E2E2E2E2E2E2E2E2E2E2E2
310
E2E2E2E2E2E2E2E2E2E2E2E2E2E2E2E2E2E2E2E2E2E2E2E2E2E2E2E2E2E2E2E2E2E2E2E2E2E2E2E2E2E2E2E2E2E2E2E2E2E2E2E2E2E2E2E2E2E2E2E2E2F5E2E200F5E2E2F5E2E2E2E2E2E2E2E2E2E2E2E2E2E2E2E2E2E2E2E2E2E2E2E2E2E2E2E2E2E2E2E2E2E2E2E2E2E2E2E2E2E2E2E2E2E2E2E2E2E2E2E2E2E2E2E2E2E2
310
E2E2E2E2E2E2E2E2E2E2E2E2E2E2E2E2E2E2E2E2E2E2E2E2E2E2E2E2E2E2E2E2E2E2F5E2E200F5E2E2F5E2E2E2E2E2E2E2E2E2E2E2E2E2E2E2E2E2E2E2E2E2E2E2E2E2E2E2E2E2E2E2E2E2E2E2E2E2E2E2E2E2E2E2E2E2E2E2E2E2E2E2E2E2E2E2E2E2E2E2E2E2E2E2E2E2E2E2E2E2E2E2E2E2E2E2E2E2E2E2E2E2E2E2E2E2
310
E2E2E2E2E2E2E2F5E2E200F5E2E2E2E2E2E2E2E2E2E2E2E2E2E2E2E2E2E2E2E2E2E2E2E2E2E2E2E2E2E2E2E2E2E2E2E2E2E2E2E2E2E2E2E2E2E2E2E2E2E2E2E2E2E2E2E2E2E2E2E2E2E2E2E2E2E2E2E2E2E2E2E2E2E2E2E2E2E2E2E2E2E2E2E2E2E2E2E2E2E2E2E2E2E2E2E2E2E200F5E2E2E2E2E2E2E2E2E2E2E2E2E2E2E2
310
E2E2E2E2E2E2E2E2E2E2E2E2E2E2E2E2E2E2E2E2E2E2E2E2E2E2E2E2E2E2E2E2E2E2E2E2E2E2E2E2E2E2E2E2E2E2E2E2E2E2E2E2E2E2E2E2E2E2E2E2E2E2E2E2E2E2E2E2E2E2E2E2E2E2E2E2E2E2E2E2E2E2E200F5E2E2E2E2E2E2E2E2E2E2E2E2E2E2E2E2E2E2E2E2E2E2E2E2E2E2E2E2E2E2E2E2E2E2E2E2E2E2E2E2E2E2
310
E2E2E2E2E2E2E2E2E2E2E2E2E2E2E2E2E2E2E2E2E2E2E2E2E2E2E2E2E2E2E2E2E2E2E2E2E2E2E2E2E2E2E2E2E2E2E2E2E2E2E2E2E2E2E2E200F5E2E2E2E2E2E2E2E2E2E2E2E2E2E2E2E2E2E2E2E2E2E2E2E2E2E2E2E2E2E2E2E2E2E2E2E2E2E2E2E2E2E2E2E2E2E2E2E2E2E2E2E2E2E2E2E2E2E2E2E2E2E2E2E2E2E2E2E2E2
310
E2E2E2E2E2E2E2E2E2E2E2E2E2E2E2E2E2E2E2E2E2E2E2E2E2E2E2E2E200F5E2E2E2E2E2E2E2E2E2E2E2E2E2E2E2E2E2E2E2E2E2E2E2E2E2E2E2E2E2E2E2E2E2E2E2E2E2E2E2E2E2E2E2E2E2E2E2E2E2E2E2E2E2E2E2E2E2E2E2E2E2E2E2E2E2E2E2E2E2E2E2E2E2E2E2E2E2E2E2E2E2E2E2E2E2E2E2E2E2E2E2E2E2E2E2E2
310
E2E200F5E2E2E2E2E2E2E2E2E2E2E2E2E2E2E2E2E2E2E2E2E2E2E2E2E2E2E2E2E2E2E2E2E2E2E2E2E2E2E2E2E2E2E2E2E2E2E2E2E2E2E2E2E2E2E2E2E2E2E2E2E2E2E2E2E2E2E2E2E2E2E2E2E2E2E2E2E2E2E2E2E2E2E2E2E2E2E2E2E2E2E2E2E2E2E2E2E2E200F5E2E2E2E2E2E2E2E2E2E2E2E2E2E2E2E2E2E2E2E2E2E2E2
310
E2E2E2E2E2E2E2E2E2E2E2E2E2E2E2E2E2E2E2E2E2E2E2E2E2E2E2E2E2E2E2E2E2E2E2E2E2E2E2E2E2E2E2E2E2E2E2E2E2E2E2E2E2E2E2E2E2E2E2E2E2E2E2E2E2E2E2E2E2E2E2E2E2E2E200F5E2E2E2E2E2E2E2E2E2E2E2E2E2E2E2E2E2E2E2E2E2E2E2E2E2E2E2E2E2E2E2E2E2E2E2E2E2E2E2E2E2E2E2E2E2E2E2E2E2E2
310
E2E2E2E2E2E2E2E2E2E2E2E2E2E2E2E2E2E2E2E2E2E2E2E2E2E2E2E2E2E2E2E2E2E2E2E2E2E2E2E2E2E2E2E2E2E2E2E200F5E2E2E2E2E2E2E2E2E2E2E2E2E2E2E2E2E2E2E2E2E2E2E2E2E2E2E2E2E2E2E2E2E2E2E2E2E2E2E2E2E2E2E2E2E2E2E2E2E2E2E2E2E2E2E2E2E2E2E2E2E2E2E2E2E2E2E2E2E2E2E2E2E2E2E2E2E2
310
E2E2E2E2E2E2E2E2E2E2E2E2E2E2E2E2E2E2E2E2E200F5E2E2E2E2E2E2E2E2E2E2E2E2E2E2E2E2E2E2E2E2E2E2E2E2E2E2E2E2E2E2E2E2E2E2E2E2E2E2E2E2E2E2E2E2E2E2E2E2E2E2E2E2E2E2E2E2E2E2E2E2E2E2E2E2E2E2E2E2E2E2E2E2E2E2E2E2E2E2E2E2E2E2E2E2E2E2E2E2E2E2E2E2E2E2E2E2E2E200F5E2E2F5E2
310
E2E2E2E2E2E2E2E2E2E2E2E2E2E2E2E2E2E2E2E2E2E2E2E2E2E2E2E2E2E2E2E2E2E2E2E2E2E2E2E2E2E2E2E2E2E2E2E2E2E2E2E2E2E2E2E2E2E2E2E2E2E2E2E2E2E2E2E2E2E2E2E2E2E2E2E2E2E2E2E2E2E2E2E2E2E2E2E2E2E2E2F5E2E200F5E2E2F5E2E2E2E2E2E2E2E2E2E2E2E2E2E2E2E2E2E2E2E2E2E2E2E2E2E2E2E2
310
E2E2E2E2E2E2E2E2E2E2E2E2E2E2E2E2E2E2E2E2E2E2E2E2E2E2E2E2E2E2E2E2E2E2E2E2E2E2E2E2E2E2E2E2E2E2E2E2E2E2E2E2E2E2E2E2E2E2E2E2E2E2E2E2F5E2E200F5E2E2F5E2E2E2E2E2E2E2E2E2E2E2E2E2E2E2E2E2E2E2E2E2E2E2E2E2E2E2E2E2E2E2E2E2E2E2E2E2E2E2E2E2E2E2E2E2E2E2E2E2E2E2E2E2E2E2
310
E2E2E2E2E2E2E2E2E2E2E2E2E2E2E2E2E2E2E2E2E2E2E2E2E2E2E2E2E2E2E2E2E2E2E2E2E2F5E2E200F5E2E2F5E2E2E2E2E2E2E2E2E2E2E2E2E2E2E2E2E2E2E2E2E2E2E2E2E2E2E2E2E2E2E2E2E2E2E2E2E2E2E2E2E2E2E2E2E2E2E2E2E2E2E2E2E2E2E2E2E2E2E2E2E2E2E2E2E2E2E2E2E2E2E2E2E2E2E2E2E2E2E2E2E2E2
310
E2E2E2E2E2E2E2E2E2E2F5E2E200F5E2E2F5E2E2E2E2E2E2E2E2E2E2E2E2E2E2E2E2E2E2E2E2E2E2E2E2E2E2E2E2E2E2E2E2E2E2E2E2E2E2E2E2E2E2E2E2E2E2E2E2E2E2E2E2E2E2E2E2E2E2E2E2E2E2E2E2E2E2E2E2E2E2E2E2E2E2E2E2E2E2E2E2E2E2E2E2E2E2E2E2E2E2E2E2F5E2E200F5E2E2F5E2E2E2E2E2E2E2E2E2
310
E2E2E2E2E2E2E2E2E2E2E2E2E2E2E2E2E2E2E2E2E2E2E2E2E2E2E2E2E2E2E2E2E2E2E2E2E2E2E2E2E2E2E2E2E2E2E2E2E2E2E2E2E2E2E2E2E2E2E2E2E2E2E2E2E2E2E2E2E2E2E2E2E2E2E2E2E2E2E2E2E2E2E2F5E2E200F5E2E2F5E2E2E2E2E2E2E2E2E2E2E2E2E2E2E2E2E2E2E2E2E2E2E2E2E2E2E2E2E2E2E2E2E2E2E2E2
310
E2E2E2E2E2E2E2E2E2E2E2E2E2E2E2E2E2E2E2E2E2E2E2E2E2E2E2E2E2E2E2E2E2E2E2E2E2E2E2E2E2E2E2E2E2E2E2E2E2E2E2E2E2E2E2E2F5E2E200F5E2E2F5E2E2E2E2E2E2E2E2E2E2E2E2E2E2E2E2E2E2E2E2E2E2E2E2E2E2E2E2E2E2E2E2E2E2E2E2E2E2E2E2E2E2E2E2E2E2E2E2E2E2E2E2E2E2E2E2E2E2E2E2E2E2E2
310
E2E2E2E2E2E2E2E2E2E2E2E2E2E2E2E2E2E2E2E2E2E2E2E2E2E2E2E2E2F5E2E200F5E2E2F5E2E2E2E2E2E2E2E2E2E2E2E2E2E2E2E2E2E2E2E2E2E2E2E2E2E2E2E2E2E2E2E2E2E2E2E2E2E2E2E2E2E2E2E2E2E2E2E2E2E2E2E2E2E2E2E2E2E2E2E2E2E2E2E2E2E2E2E2E2E2E2E2E2E2E2E2E2E2E2E2E2E2E2E2E2E2E2E2E2E2
310
E2E2F5E2E200F5E2E2F5E2E2E2E2E2E2E2E2E2E2E2E2E2E2E2E2E2E2E2E2E2E2E2E2E2E2E2E2E2E2E2E2E2E2E2E2E2E2E2E2E2E2E2E2E2E2E2E2E2E2E2E2E2E2E2E2E2E2E2E2E2E2E2E2E2E2E2E2E2E2E2E2E2E2E2E2E2E2E2E2E2E2E2E2E2E2E2E2E2E2E2E2F5E2E200F5E2E2F5E2E2E2E2E2E2E2E2E2E2E2E2E2E2E2E2E2
310
E2E2E2E2E2E2E2E2E2E2E2E2E2E2E2E2E2E2E2E2E2E2E2E2E2E2E2E2E2E2E2E2E2E2E2E2E2E2E2E2E2E2E2E2E2E2E2E2E2E2E2E2E2E2E2E2E2E2E2E2E2E2E2E2E2E2E2E2E2E2E2E2E2E2E2F5E2E200F5E2E2F5E2E2E2E2E2E2E2E2E2E2E2E2E2E2E2E2E2E2E2E2E2E2E2E2E2E2E2E2E2E2E2E2E2E2E2E2E2E2E2E2E2E2E2E2
310
E2E2E2E2E2E2E2E2E2E2E2E2E2E2E2E2E2E2E2E2E2E2E2E2E2E2E2E2E2E2E2E2E2E2E2E2E2E2E2E2E2E2E2E2E2E2E2E2F5E2E200F5E2E2F5E2E2E2E2E2E2E2E2E2E2E2E2E2E2E2E2E2E2E2E2E2E2E2E2E2E2E2E2E2E2E2E2E2E2E2E2E2E2E2E2E2E2E2E2E2E2E2E2E2E2E2E2E2E2E2E2E2E2E2E2E2E2E2E2E2E2E2E2E2E2E2
310
E2E2E2E2E2E2E2E2E2E2E2E2E2E2E2E2E2E2E2E2E2F5E2E200F5E2E2F5E2E2E2E2E2E2E2E2E2E2E2E2E2E2E2E2E2E2E2E2E2E2E2E2E2E2E2E2E2E2E2E2E2E2E2E2E2E2E2E2E2E2E2E2E2E2E2E2E2E2E2E2E2E2E2E2E2E2E2E2E2E2E2E2E2E2E2E2E2E2E2E2E2E2E2E2E2E2E2E2E2E2E2E2E2E2E2E2E2E2E2E2F5E2E200F5E2
310
E2F5E2E2E2E2E2E2E2E2E2E2E2E2E2E2E2E2E2E2E2E2E2E2E2E2E2E2E2E2E2E2E2E2E2E2E2E2E2E2E2E2E2E2E2E2E2E2E2E2E2E2E2E2E2E2E2E2E2E2E2E2E2E2E2E2E2E2E2E2E2E2E2E2E2E2E2E2E2E2E2E2E2E2E2E2E2E2E2E2E2E2E2E2F5E2E200F5E2E2F5E2E2E2E2E2E2E2E2E2E2E2E2E2E2E2E2E2E2E2E2E2E2E2E2E2
310
E2E2E2E2E2E2E2E2E2E2E2E2E2E2E2E2E2E2E2E2E2E2E2E2E2E2E2E2E2E2E2E2E2E2E2E2E2E2E2E2E2E2E2E2E2E2E2E2E2E2E2E2E2E2E2E2E2E2E2E2E2E2E2E2E2E2E2F5E2E200F5E2E2F5E2E2E2E2E2E2E2E2E2E2E2E2E2E2E2E2E2E2E2E2E2E2E2E2E2E2E2E2E2E2E2E2E2E2E2E2E2E2E2E2E2E2E2E2E2E2E2E2E2E2E2E2
310
E2E2E2E2E2E2E2E2E2E2E2E2E2E2E2E2E2E2E2E2E2E2E2E2E2E2E2E2E2E2E2E2E2E2E2E2E2E2E2E2F5E2E200F5E2E2E2E2E2E2E2E2E2E2E2E2E2E2E2E2E2E2E2E2E2E2E2E2E2E2E2E2E2E2E2E2E2E2E2E2E2E2E2E2E2E2E2E2E2E2E2E2E2E2E2E2E2E2E2E2E2E2E2E2E2E2E2E2E2E2E2E2E2E2E2E2E2E2E2E2E2E2E2E2E2E2
310
E2E2E2E2E2E2E2E2E2E2E2E2E2E2E2E200F5E2E2E2E2E2E2E2E2E2E2E2E2E2E2E2E2E2E2E2E2E2E2E2E2E2E2E2E2E2E2E2E2E2E2E2E2E2E2E2E2E2E2E2E2E2E2E2E2E2E2E2E2E2E2E2E2E2E2E2E2E2E2E2E2E2E2E2E2E2E2E2E2E2E2E2E2E2E2E2E2E2E2E2E2E2E2E2E2E2E2E2E2E2E2E2E2E2E200F5E2E2E2E2E2E2E2E2E2
310
E2E2E2E2E2E2E2E2E2E2E2E2E2E2E2E2E2E2E2E2E2E2E2E2E2E2E2E2E2E2E2E2E2E2E2E2E2E2E2E2E2E2E2E2E2E2E2E2E2E2E2E2E2E2E2E2E2E2E2E2E2E2E2E2E2E2E2E2E2E2E2E2E2E2E2E2E2E2E2E2E2E2E2E2E2E2E2E2E200F5E2E2E2E2E2E2E2E2E2E2E2E2E2E2E2E2E2E2E2E2E2E2E2E2E2E2E2E2E2E2E2E2E2E2E2E2
310
E2E2E2E2E2E2E2E2E2E2E2E2E2E2E2E2E2E2E2E2E2E2E2E2E2E2E2E2E2E2E2E2E2E2E2E2E2E2E2E2E2E2E2E2E2E2E2E2E2E2E2E2E2E2E2E2E2E2E2E2E2E200F5E2E2E2E2E2E2E2E2E2E2E2E2E2E2E2E2E2E2E2E2E2E2E2E2E2E2E2E2E2E2E2E2E2E2E2E2E2E2E2E2E2E2E2E2E2E2E2E2E2E2E2E2E2E2E2E2E2E2E2E2E2E2E2
310
E2E2E2E2E2E2E2E2E2E2E2E2E2E2E2E2E2E2E2E2E2E2E2E2E2E2E2E2E2E2E2E2E2E2E200F5E2E2E2E2E2E2E2E2E2E2E2E2E2E2E2E2E2E2E2E2E2E2E2E2E2E2E2E2E2E2E2E2E2E2E2E2E2E2E2E2E2E2E2E2E2E2E2E2E2E2E2E2E2E2E2E2E2E2E2E2E2E2E2E2E2E2E2E2E2E2E2E2E2E2E2E2E2E2E2E2E2E2E2E2E2E2E2E2E2E2
310
E2E2E2E2E2E2E2E200F5E2E2E2E2E2E2E2E2E2E2E2E2E2E2E2E2E2E2E2E2E2E2E2E2E2E2E2E2E2E2E2E2E2E2E2E2E2E2E2E2E2E2E2E2E2E2E2E2E2E2E2E2E2E2E2E2E2E2E2E2E2E2E2E2E2E2E2E2E2E2E2E2E2E2E2E2E2E2E2E2E2E2E2E2E2E2E2E2E2E2E2E2E2E2E2E2E2E200F5E2E2E2E2E2E2E2E2E2E2E2E2E2E2E2E2E2
310
E2E2E2E2E2E2E2E2E2E2E2E2E2E2E2E2E2E2E2E2E2E2E2E2E2E2E2E2E2E2E2E2E2E2E2E2E2E2E2E2E2E2E2E2E2E2E2E2E2E2E2E2E2E2E2E2E2E2E2E2E2E2E2E2E2E2E2E2E2E2E2E2E2E2E2E2E2E2E2E2E200F5E2E2E2E2E2E2E2E2E2E2E2E2E2E2E2E2E2E2E2E2E2E2E2E2E2E2E2E2E2E2E2E2E2E2E2E2E2E2E2E2E2E2E2E2
310
E2E2E2E2E2E2E2E2E2E2E2E2E2E2E2E2E2E2E2E2E2E2E2E2E2E2E2E2E2E2E2E2E2E2E2E2E2E2E2E2E2E2E2E2E2E2E2E2E2E2E2E2E2E200F5E2E2F5E2E2E2E2E2E2E2E2E2E2E2E2E2E2E2E2E2E2E2E2E2E2E2E2E2E2E2E2E2E2E2E2E2E2E2E2E2E2E2E2E2E2E2E2E2E2E2E2E2E2E2E2E2E2E2E2E2E2E2E2E2E2E2E2E2E2E2E2
310
E2E2E2E2E2E2E2E2E2E2E2E2E2E2E2E2E2E2E2E2E2E2E2E2F5E2E200F5E2E2F5E2E2E2E2E2E2E2E2E2E2E2E2E2E2E2E2E2E2E2E2E2E2E2E2E2E2E2E2E2E2E2E2E2E2E2E2E2E2E2E2E2E2E2E2E2E2E2E2E2E2E2E2E2E2E2E2E2E2E2E2E2E2E2E2E2E2E2E2E2E2E2E2E2E2E2E2E2E2E2E2E2E2E2E2E2E2E2E2E2E2E2E2F5E2E2
310
00F5E2E2F5E2E2E2E2E2E2E2E2E2E2E2E2E2E2E2E2E2E2E2E2E2E2E2E2E2E2E2E2E2E2E2E2E2E2E2E2E2E2E2E2E2E2E2E2E2E2E2E2E2E2E2E2E2E2E2E2E2E2E2E2E2E2E2E2E2E2E2E2E2E2E2E2E2E2E2E2E2E2E2E2E2E2E2E2E2E2E2E2E2E2E2E2F5E2E200F5E2E2F5E2E2E2E2E2E2E2E2E2E2E2E2E2E2E2E2E2E2E2E2E2E2
310
E2E2E2E2E2E2E2E2E2E2E2E2E2E2E2E2E2E2E2E2E2E2E2E2E2E2E2E2E2E2E2E2E2E2E2E2E2E2E2E2E2E2E2E2E2E2E2E2E2E2E2E2E2E2E2E2E2E2E2E2E2E2E2E2E2E2E2E2E2E2F5E2E200F5E2E2F5E2E2E2E2E2E2E2E2E2E2E2E2E2E2E2E2E2E2E2E2E2E2E2E2E2E2E2E2E2E2E2E2E2E2E2E2E2E2E2E2E2E2E2E2E2E2E2E2E2
310
E2E2E2E2E2E2E2E2E2E2E2E2E2E2E2E2E2E2E2E2E2E2E2E2E2E2E2E2E2E2E2E2E2E2E2E2E2E2E2E2E2E2E2F5E2E200F5E2E2F5E2E2E2E2E2E2E2E2E2E2E2E2E2E2E2E2E2E2E2E2E2E2E2E2E2E2E2E2E2E2E2E2E2E2E2E2E2E2E2E2E2E2E2E2E2E2E2E2E2E2E2E2E2E2E2E2E2E2E2E2E2E2E2E2E2E2E2E2E2E2E2E2E2E2E2E2
310
E2E2E2E2E2E2E2E2E2E2E2E2E2E2E2E2F5E2E200F5E2E2F5E2E2E2E2E2E2E2E2E2E2E2E2E2E2E2E2E2E2E2E2E2E2E2E2E2E2E2E2E2E2E2E2E2E2E2E2E2E2E2E2E2E2E2E2E2E2E2E2E2E2E2E2E2E2E2E2E2E2E2E2E2E2E2E2E2E2E2E2E2E2E2E2E2E2E2E2E2E2E2E2E2E2E2E2E2E2E2E2E2E2E2E2F5E2E200F5E2E2F5E2E2E2
310
E2E2E2E2E2E2E2E2E2E2E2E2E2E2E2E2E2E2E2E2E2E2E2E2E2E2E2E2E2E2E2E2E2E2E2E2E2E2E2E2E2E2E2E2E2E2E2E2E2E2E2E2E2E2E2E2E2E2E2E2E2E2E2E2E2E2E2E2E2E2E2E2E2E2E2E2E2E2E2E2E2E2E2E2E2E2E2E2E2F5E2E200F5E2E2F5E2E2E2E2E2E2E2E2E2E2E2E2E2E2E2E2E2E2E2E2E2E2E2E2E2E2E2E2E2E2
310
E2E2E2E2E2E2E2E2E2E2E2E2E2E2E2E2E2E2E2E2E2E2E2E2E2E2E2E2E2E2E2E2E2E2E2E2E2E2E2E2E2E2E2E2E2E2E2E2E2E2E2E2E2E2E2E2E2E2E2E2E2E2F5E2E200F5E2E2F5E2E2E2E2E2E2E2E2E2E2E2E2E2E2E2E2E2E2E2E2E2E2E2E2E2E2E2E2E2E2E2E2E2E2E2E2E2E2E2E2E2E2E2E2E2E2E2E2E2E2E2E2E2E2E2E2E2
310
E2E2E2E2E2E2E2E2E2E2E2E2E2E2E2E2E2E2E2E2E2E2E2E2E2E2E2E2E2E2E2E2E2E2E2F5E2E200F5E2E2F5E2E2E2E2E2E2E2E2E2E2E2E2E2E2E2E2E2E2E2E2E2E2E2E2E2E2E2E2E2E2E2E2E2E2E2E2E2E2E2E2E2E2E2E2E2E2E2E2E2E2E2E2E2E2E2E2E2E2E2E2E2E2E2E2E2E2E2E2E2E2E2E2E2E2E2E2E2E2E2E2E2E2E2E2
310
E2E2E2E2E2E2E2E2F5E2E200F5E2E2F5E2E2E2E2E2E2E2E2E2E2E2E2E2E2E2E2E2E2E2E2E2E2E2E2E2E2E2E2E2E2E2E2E2E2E2E2E2E2E2E2E2E2E2E2E2E2E2E2E2E2E2E2E2E2E2E2E2E2E2E2E2E2E2E2E2E2E2E2E2E2E2E2E2E2E2E2E2E2E2E2E2E2E2E2E2E2E2E2E2E2E2E2F5E2E200F5E2E2F5E2E2E2E2E2E2E2E2E2E2E2
310
E2E2E2E2E2E2E2E2E2E2E2E2E2E2E2E2E2E2E2E2E2E2E2E2E2E2E2E2E2E2E2E2E2E2E2E2E2E2E2E2E2E2E2E2E2E2E2E2E2E2E2E2E2E2E2E2E2E2E2E2E2E2E2E2E2E2E2E2E2E2E2E2E2E2E2E2E2E2E2E2E2F5E2E200F5E2E2F5E2E2E2E2E2E2E2E2E2E2E2E2E2E2E2E2E2E2E2E2E2E2E2E2E2E2E2E2E2E2E2E2E2E2E2E2E2E2
310
E2E2E2E2E2E2E2E2E2E2E2E2E2E2E2E2E2E2E2E2E2E2E2E2E2E2E2E2E2E2E2E2E2E2E2E2E2E2E2E2E2E2E2E2E2E2E2E2E2E2E2E2E2E2F5E2E200F5E2E2F5E2E2E2E2E2E2E2E2E2E2E2E2E2E2E2E2E2E2E2E2E2E2E2E2E2E2E2E2E2E2E2E2E2E2E2E2E2E2E2E2E2E2E2E2E2E2E2E2E2E2E2E2E2E2E2E2E2E2E2E2E2E2E2E2E2
310
E2E2E2E2E2E2E2E2E2E2E2E2E2E2E2E2E2E2E2E2E2E2E2E2E2E2E2F5E2E200F5E2E2F5E2E2E2E2E2E2E2E2E2E2E2E2E2E2E2E2E2E2E2E2E2E2E2E2E2E2E2E2E2E2E2E2E2E2E2E2E2E2E2E2E2E2E2E2E2E2E2E2E2E2E2E2E2E2E2E2E2E2E2E2E2E2E2E2E2E2E2E2E2E2E2E2E2E2E2E2E2E2E2E2E2E2E2E2E2E2E2E2E2E2E2E2
310
F5E2E200F5E2E2F5E2E2E2E2E2E2E2E2E2E2E2E2E2E2E2E2E2E2E2E2E2E2E2E2E2E2E2E2E2E2E2E2E2E2E2E2E2E2E2E2E2E2E2E2E2E2E2E2E2E2E2E2E2E2E2E2E2E2E2E2E2E2E2E2E2E2E2E2E2E2E2E2E2E2E2E2E2E2E2E2E2E2E2E2E2E2E2E2E2E2E2E2F5E2E200F5E2E2E2E2E2E2E2E2E2E2E2E2E2E2E2E2E2E2E2E2E2E2
310
E2E2E2E2E2E2E2E2E2E2E2E2E2E2E2E2E2E2E2E2E2E2E2E2E2E2E2E2E2E2E2E2E2E2E2E2E2E2E2E2E2E2E2E2E2E2E2E2E2E2E2E2E2E2E2E2E2E2E2E2E2E2E2E2E2E2E2E2E2E2E2E2E2E2E2E200F5E2E2E2E2E2E2E2E2E2E2E2E2E2E2E2E2E2E2E2E2E2E2E2E2E2E2E2E2E2E2E2E2E2E2E2E2E2E2E2E2E2E2E2E2E2E2E2E2E2
310
E2E2E2E2E2E2E2E2E2E2E2E2E2E2E2E2E2E2E2E2E2E2E2E2E2E2E2E2E2E2E2E2E2E2E2E2E2E2E2E2E2E2E2E2E2E2E2E2E200F5E2E2E2E2E2E2E2E2E2E2E2E2E2E2E2E2E2E2E2E2E2E2E2E2E2E2E2E2E2E2E2E2E2E2E2E2E2E2E2E2E2E2E2E2E2E2E2E2E2E2E2E2E2E2E2E2E2E2E2E2E2E2E2E2E2E2E2E2E2E2E2E2E2E2E2E2
310
E2E2E2E2E2E2E2E2E2E2E2E2E2E2E2E2E2E2E2E2E2E200F5E2E2E2E2E2E2E2E2E2E2E2E2E2E2E2E2E2E2E2E2E2E2E2E2E2E2E2E2E2E2E2E2E2E2E2E2E2E2E2E2E2E2E2E2E2E2E2E2E2E2E2E2E2E2E2E2E2E2E2E2E2E2E2E2E2E2E2E2E2E2E2E2E2E2E2E2E2E2E2E2E2E2E2E2E2E2E2E2E2E2E2E2E2E2E2E2E2E200F5E2E2E2
310
E2E2E2E2E2E2E2E2E2E2E2E2E2E2E2E2E2E2E2E2E2E2E2E2E2E2E2E2E2E2E2E2E2E2E2E2E2E2E2E2E2E2E2E2E2E2E2E2E2E2E2E2E2E2E2E2E2E2E2E2E2E2E2E2E2E2E2E2E2E2E2E2E2E2E2E2E2E2E2E2E2E2E2E2E2E2E2E2E2E2E2E2E2E2E200F5E2E2E2E2E2E2E2E2E2E2E2E2E2E2E2E2E2E2E2E2E2E2E2E2E2E2E2E2E2E2
310
E2E2E2E2E2E2E2E2E2E2E2E2E2E2E2E2E2E2E2E2E2E2E2E2E2E2E2E2E2E2E2E2E2E2E2E2E2E2E2E2E2E2E2E2E2E2E2E2E2E2E2E2E2E2E2E2E2E2E2E2E2E2E2E2E2E2E2E200F5E2E2E2E2E2E2E2E2E2E2E2E2E2E2E2E2E2E2E2E2E2E2E2E2E2E2E2E2E2E2E2E2E2E2E2E2E2E2E2E2E2E2E2E2E2E2E2E2E2E2E2E2E2E2E2E2E2
310
E2E2E2E2E2E2E2E2E2E2E2E2E2E2E2E2E2E2E2E2E2E2E2E2E2E2E2E2E2E2E2E2E2E2E2E2E2E2E2E2E200F5E2E2E2E2E2E2E2E2E2E2E2E2E2E2E2E2E2E2E2E2E2E2E2E2E2E2E2E2E2E2E2E2E2E2E2E2E2E2E2E2E2E2E2E2E2E2E2E2E2E2E2E2E2E2E2E2E2E2E2E2E2E2E2E2E2E2E2E2E2E2E2E2E2E2E2E2E2E2E2E2E2E2E2E2
310
E2E2E2E2E2E2E2E2E2E2E2E2E2E200F5E2E2E2E2E2E2E2E2E2E2E2E2E2E2E2E2E2E2E2E2E2E2E2E2E2E2E2E2E2E2E2E2E2E2E2E2E2E2E2E2E2E2E2E2E2E2E2E2E2E2E2E2E2E2E2E2E2E2E2E2E2E2E2E2E2E2E2E2E2E2E2E2E2E2E2E2E2E2E2E2E2E2E2E2E2E2E2E2E2E2E2E2E2E2E2E2E2E200F5E2E2E2E2E2E2E2E2E2E2E2
310
E2E2E2E2E2E2E2E2E2E2E2E2E2E2E2E2E2E2E2E2E2E2E2E2E2E2E2E2E2E2E2E2E2E2E2E2E2E2E2E2E2E2E2E2E2E2E2E2E2E2E2E2E2E2E2E2E2E2E2E2E2E2E2E2E2E2E2E2E2E2E2E2E2E2E2E2E2E2E2E2E2E2E2E2E2E2E200F5E2E2F5E2E2E2E2E2E2E2E2E2E2E2E2E2E2E2E2E2E2E2E2E2E2E2E2E2E2E2E2E2E2E2E2E2E2E2
310
E2E2E2E2E2E2E2E2E2E2E2E2E2E2E2E2E2E2E2E2E2E2E2E2E2E2E2E2E2E2E2E2E2E2E2E2E2E2E2E2E2E2E2E2E2E2E2E2E2E2E2E2E2E2E2E2E2F5E2E200F5E2E2F5E2E2E2E2E2E2E2E2E2E2E2E2E2E2E2E2E2E2E2E2E2E2E2E2E2E2E2E2E2E2E2E2E2E2E2E2E2E2E2E2E2E2E2E2E2E2E2E2E2E2E2E2E2E2E2E2E2E2E2E2E2E2
310
E2E2E2E2E2E2E2E2E2E2E2E2E2E2E2E2E2E2E2E2E2E2E2E2E2E2E2E2E2E2F5E2E200F5E2E2F5E2E2E2E2E2E2E2E2E2E2E2E2E2E2E2E2E2E2E2E2E2E2E2E2E2E2E2E2E2E2E2E2E2E2E2E2E2E2E2E2E2E2E2E2E2E2E2E2E2E2E2E2E2E2E2E2E2E2E2E2E2E2E2E2E2E2E2E2E2E2E2E2E2E2E2E2E2E2E2E2E2E2E2E2E2E2E2E2E2
310
E2E2E2F5E2E200F5E2E2F5E2E2E2E2E2E2E2E2E2E2E2E2E2E2E2E2E2E2E2E2E2E2E2E2E2E2E2E2E2E2E2E2E2E2E2E2E2E2E2E2E2E2E2E2E2E2E2E2E2E2E2E2E2E2E2E2E2E2E2E2E2E2E2E2E2E2E2E2E2E2E2E2E2E2E2E2E2E2E2E2E2E2E2E2E2E2E2E2E2E2E2E2F5E2E200F5E2E2F5E2E2E2E2E2E2E2E2E2E2E2E2E2E2E2E2
310
E2E2E2E2E2E2E2E2E2E2E2E2E2E2E2E2E2E2E2E2E2E2E2E2E2E2E2E2E2E2E2E2E2E2E2E2E2E2E2E2E2E2E2E2E2E2E2E2E2E2E2E2E2E2E2E2E2E2E2E2E2E2E2E2E2E2E2E2E2E2E2E2E2E2E2E2F5E2E200F5E2E2F5E2E2E2E2E2E2E2E2E2E2E2E2E2E2E2E2E2E2E2E2E2E2E2E2E2E2E2E2E2E2E2E2E2E2E2E2E2E2E2E2E2E2E2
310
E2E2E2E2E2E2E2E2E2E2E2E2E2E2E2E2E2E2E2E2E2E2E2E2E2E2E2E2E2E2E2E2E2E2E2E2E2E2E2E2E2E2E2E2E2E2E2E2E2F5E2E200F5E2E2F5E2E2E2E2E2E2E2E2E2E2E2E2E2E2E2E2E2E2E2E2E2E2E2E2E2E2E2E2E2E2E2E2E2E2E2E2E2E2E2E2E2E2E2E2E2E2E2E2E2E2E2E2E2E2E2E2E2E2E2E2E2E2E2E2E2E2E2E2E2E2
310
E2E2E2E2E2E2E2E2E2E2E2E2E2E2E2E2E2E2E2E2E2E2F5E2E200F5E2E2F5E2E2E2E2E2E2E2E2E2E2E2E2E2E2E2E2E2E2E2E2E2E2E2E2E2E2E2E2E2E2E2E2E2E2E2E2E2E2E2E2E2E2E2E2E2E2E2E2E2E2E2E2E2E2E2E2E2E2E2E2E2E2E2E2E2E2E2E2E2E2E2E2E2E2E2E2E2E2E2E2E2E2E2E2E2E2E2E2E2E2E2E2F5E2E200F5
310
E2E2F5E2E2E2E2E2E2E2E2E2E2E2E2E2E2E2E2E2E2E2E2E2E2E2E2E2E2E2E2E2E2E2E2E2E2E2E2E2E2E2E2E2E2E2E2E2E2E2E2E2E2E2E2E2E2E2E2E2E2E2E2E2E2E2E2E2E2E2E2E2E2E2E2E2E2E2E2E2E2E2E2E2E2E2E2E2E2E2E2E2E2E2E2F5E2E248F5E2E2F5E2E2E2E2E2E2E2E2E2E2E2E2E2E2E2E2E2E2E2E2E2E2E2E2
310
E2E2E2E2E2E2E2E2E2E2E2E2E2E2E2E2E2E2E2E2E2E2E2E2E2E2E2E2E2E2E2E2E2E2E2E2E2E2E2E2E2E2E2E2E2E2E2E2E2E2E2E2E2E2E2E2E2E2E2E2E2E2E2E2E2E2E2E2F5E2E239F5E2E2F5E2E2E2E2E2E2E2E2E2E2E2E2E2E2E2E2E2E2E2E2E2E2E2E2E2E2E2E2E2E2E2E2E2E2E2E2E2E2E2E2E2E2E2E2E2E2E2E2E2E2E2
310
E2E2E2E2E2E2E2E2E2E2E2E2E2E2E2E2E2E2E2E2E2E2E2E2E2E2E2E2E2E2E2E2E2E2E2E2E2E2E2E2E2F5E2E249F5E2E2F5E2E2E2E2E2E2E2E2E2E2E2E2E2E2E2E2E2E2E2E2E2E2E2E2E2E2E2E2E2E2E2E2E2E2E2E2E2E2E2E2E2E2E2E2E2E2E2E2E2E2E2E2E2E2E2E2E2E2E2E2E2E2E2E2E2E2E2E2E2E2E2E2E2E2E2E2E2E2
310
E2E2E2E2E2E2E2E2E2E2E2E2E2E2F5E2E239F5E2E2F5E2E2E2E2E2E2E2E2E2E2E2E2E2E2E2E2E2E2E2E2E2E2E2E2E2E2E2E2E2E2E2E2E2E2E2E2E2E2E2E2E2E2E2E2E2E2E2E2E2E2E2E2E2E2E2E2E2E2E2E2E2E2E2E2E2E2E2E2E2E2E2E2E2E2E2E2E2E2E2E2E2E2E2E2E2E2E2E2E2E2E2E2F5E2E24AF5E2E2F5E2E2E2E2E2
310
E2E2E2E2E2E2E2E2E2E2E2E2E2E2E2E2E2E2E2E2E2E2E2E2E2E2E2E2E2E2E2E2E2E2E2E2E2E2E2E2E2E2E2E2E2E2E2E2E2E2E2E2E2E2E2E2E2E2E2E2E2E2E2E2E2E2E2E2E2E2E2E2E2E2E2E2E2E2E2E2E2E2E2E2E2E2E2F5E2E239F5E2E2F5E2E2E2E2E2E2E2E2E2E2E2E2E2E2E2E2E2E2E2E2E2E2E2E2E2E2E2E2E2E2E2E2
310
E2E2E2E2E2E2E2E2E2E2E2E2E2E2E2E2E2E2E2E2E2E2E2E2E2E2E2E2E2E2E2E2E2E2E2E2E2E2E2E2E2E2E2E2E2E2E2E2E2E2E2E2E2E2E2E2E2E2E2E2F5E2E24BF5E2E2F5E2E2E2E2E2E2E2E2E2E2E2E2E2E2E2E2E2E2E2E2E2E2E2E2E2E2E2E2E2E2E2E2E2E2E2E2E2E2E2E2E2E2E2E2E2E2E2E2E2E2E2E2E2E2E2E2E2E2E2
310
E2E2E2E2E2E2E2E2E2E2E2E2E2E2E2E2E2E2E2E2E2E2E2E2E2E2E2E2E2E2E2E2E2F5E2E239F5E2E2F5E2E2E2E2E2E2E2E2E2E2E2E2E2E2E2E2E2E2E2E2E2E2E2E2E2E2E2E2E2E2E2E2E2E2E2E2E2E2E2E2E2E2E2E2E2E2E2E2E2E2E2E2E2E2E2E2E2E2E2E2E2E2E2E2E2E2E2E2E2E2E2E2E2E2E2E2E2E2E2E2E2E2E2E2E2E2
310
E2E2E2E2E2E2F5E2E24CF5E2E2E2E2E2E2E2E2E2E2E2E2E2E2E2E2E2E2E2E2E2E2E2E2E2E2E2E2E2E2E2E2E2E2E2E2E2E2E2E2E2E2E2E2E2E2E2E2E2E2E2E2E2E2E2E2E2E2E2E2E2E2E2E2E2E2E2E2E2E2E2E2E2E2E2E2E2E2E2E2E2E2E2E2E2E2E2E2E2E2E2E2E2E2E2E2E2E200F5E2E2E2E2E2E2E2E2E2E2E2E2E2E2E2E2
310
E2E2E2E2E2E2E2E2E2E2E2E2E2E2E2E2E2E2E2E2E2E2E2E2E2E2E2E2E2E2E2E2E2E2E2E2E2E2E2E2E2E2E2E2E2E2E2E2E2E2E2E2E2E2E2E2E2E2E2E2E2E2E2E2E2E2E2E2E2E2E2E2E2E2E2E2E2E2E2E2E2E200F5E2E2E2E2E2E2E2E2E2E2E2E2E2E2E2E2E2E2E2E2E2E2E2E2E2E2E2E2E2E2E2E2E2E2E2E2E2E2E2E2E2E2E2
310
E2E2E2E2E2E2E2E2E2E2E2E2E2E2E2E2E2E2E2E2E2E2E2E2E2E2E2E2E2E2E2E2E2E2E2E2E2E2E2E2E2E2E2E2E2E2E2E2E2E2E2E2E2E2E200F5E2E2E2E2E2E2E2E2E2E2E2E2E2E2E2E2E2E2E2E2E2E2E2E2E2E2E2E2E2E2E2E2E2E2E2E2E2E2E2E2E2E2E2E2E2E2E2E2E2E2E2E2E2E2E2E2E2E2E2E2E2E2E2E2E2E2E2E2E2E2
310
E2E2E2E2E2E2E2E2E2E2E2E2E2E2E2E2E2E2E2E2E2E2E2E2E2E2E2E200F5E2E2E2E2E2E2E2E2E2E2E2E2E2E2E2E2E2E2E2E2E2E2E2E2E2E2E2E2E2E2E2E2E2E2E2E2E2E2E2E2E2E2E2E2E2E2E2E2E2E2E2E2E2E2E2E2E2E2E2E2E2E2E2E2E2E2E2E2E2E2E2E2E2E2E2E2E2E2E2E2E2E2E2E2E2E2E2E2E2E2E2E2E2E2E2E2E2
310
E200F5E2E2E2E2E2E2E2E2E2E2E2E2E2E2E2E2E2E2E2E2E2E2E2E2E2E2E2E2E2E2E2E2E2E2E2E2E2E2E2E2E2E2E2E2E2E2E2E2E2E2E2E2E2E2E2E2E2E2E2E2E2E2E2E2E2E2E2E2E2E2E2E2E2E2E2E2E2E2E2E2E2E2E2E2E2E2E2E2E2E2E2E2E2E2E2E2E2E200F5E2E2E2E2E2E2E2E2E2E2E2E2E2E2E2E2E2E2E2E2E2E2E2E2
310
E2E2E2E2E2E2E2E2E2E2E2E2E2E2E2E2E2E2E2E2E2E2E2E2E2E2E2E2E2E2E2E2E2E2E2E2E2E2E2E2E2E2E2E2E2E2E2E2E2E2E2E2E2E2E2E2E2E2E2E2E2E2E2E2E2E2E2E2E2E2E2E2E2E200F5E2E2E2E2E2E2E2E2E2E2E2E2E2E2E2E2E2E2E2E2E2E2E2E2E2E2E2E2E2E2E2E2E2E2E2E2E2E2E2E2E2E2E2E2E2E2E2E2E2E2E2
310
E2E2E2E2E2E2E2E2E2E2E2E2E2E2E2E2E2E2E2E2E2E2E2E2E2E2E2E2E2E2E2E2E2E2E2E2E2E2E2E2E2E2E2E2E2E2E200F5E2E2E2E2E2E2E2E2E2E2E2E2E2E2E2E2E2E2E2E2E2E2E2E2E2E2E2E2E2E2E2E2E2E2E2E2E2E2E2E2E2E2E2E2E2E2E2E2E2E2E2E2E2E2E2E2E2E2E2E2E2E2E2E2E2E2E2E2E2E2E2E2E2E2E2E2E2E2
310
E2E2E2E2E2E2E2E2E2E2E2E2E2E2E2E2E2E2E2E200F5E2E2E2E2E2E2E2E2E2E2E2E2E2E2E2E2E2E2E2E2E2E2E2E2E2E2E2E2E2E2E2E2E2E2E2E2E2E2E2E2E2E2E2E2E2E2E2E2E2E2E2E2E2E2E2E2E2E2E2E2E2E2E2E2E2E2E2E2E2E2E2E2E2E2E2E2E2E2E2E2E2E2E2E2E2E2E2E2E2E2E2E2E2E2E2E2E2E200F5E2E2F5E2E2
310
E2E2E2E2E2E2E2E2E2E2E2E2E2E2E2E2E2E2E2E2E2E2E2E2E2E2E2E2E2E2E2E2E2E2E2E2E2E2E2E2E2E2E2E2E2E2E2E2E2E2E2E2E2E2E2E2E2E2E2E2E2E2E2E2E2E2E2E2E2E2E2E2E2E2E2E2E2E2E2E2E2E2E2E2E2E2E2E2E2E2F5E2E200F5E2E2F5E2E2E2E2E2E2E2E2E2E2E2E2E2E2E2E2E2E2E2E2E2E2E2E2E2E2E2E2E2
310
E2E2E2E2E2E2E2E2E2E2E2E2E2E2E2E2E2E2E2E2E2E2E2E2E2E2E2E2E2E2E2E2E2E2E2E2E2E2E2E2E2E2E2E2E2E2E2E2E2E2E2E2E2E2E2E2E2E2E2E2E2E2E2F5E2E200F5E2E2F5E2E2E2E2E2E2E2E2E2E2E2E2E2E2E2E2E2E2E2E2E2E2E2E2E2E2E2E2E2E2E2E2E2E2E2E2E2E2E2E2E2E2E2E2E2E2E2E2E2E2E2E2E2E2E2E2
310
E2E2E2E2E2E2E2E2E2E2E2E2E2E2E2E2E2E2E2E2E2E2E2E2E2E2E2E2E2E2E2E2E2E2E2E2F5E2E200F5E2E2F5E2E2E2E2E2E2E2E2E2E2E2E2E2E2E2E2E2E2E2E2E2E2E2E2E2E2E2E2E2E2E2E2E2E2E2E2E2E2E2E2E2E2E2E2E2E2E2E2E2E2E2E2E2E2E2E2E2E2E2E2E2E2E2E2E2E2E2E2E2E2E2E2E2E2E2E2E2E2E2E2E2E2E2
310
E2E2E2E2E2E2E2E2E2F5E2E200F5E2E2F5E2E2E2E2E2E2E2E2E2E2E2E2E2E2E2E2E2E2E2E2E2E2E2E2E2E2E2E2E2E2E2E2E2E2E2E2E2E2E2E2E2E2E2E2E2E2E2E2E2E2E2E2E2E2E2E2E2E2E2E2E2E2E2E2E2E2E2E2E2E2E2E2E2E2E2E2E2E2E2E2E2E2E2E2E2E2E2E2E2E2E2E2F5E2E200F5E2E2F5E2E2E2E2E2E2E2E2E2E2
310
E2E2E2E2E2E2E2E2E2E2E2E2E2E2E2E2E2E2E2E2E2E2E2E2E2E2E2E2E2E2E2E2E2E2E2E2E2E2E2E2E2E2E2E2E2E2E2E2E2E2E2E2E2E2E2E2E2E2E2E2E2E2E2E2E2E2E2E2E2E2E2E2E2E2E2E2E2E2E2E2E2E2F5E2E200F5E2E2F5E2E2E2E2E2E2E2E2E2E2E2E2E2E2E2E2E2E2E2E2E2E2E2E2E2E2E2E2E2E2E2E2E2E2E2E2E2
310
E2E2E2E2E2E2E2E2E2E2E2E2E2E2E2E2E2E2E2E2E2E2E2E2E2E2E2E2E2E2E2E2E2E2E2E2E2E2E2E2E2E2E2E2E2E2E2E2E2E2E2E2E2E2E2F5E2E200F5E2E2F5E2E2E2E2E2E2E2E2E2E2E2E2E2E2E2E2E2E2E2E2E2E2E2E2E2E2E2E2E2E2E2E2E2E2E2E2E2E2E2E2E2E2E2E2E2E2E2E2E2E2E2E2E2E2E2E2E2E2E2E2E2E2E2E2
310
E2E2E2E2E2E2E2E2E2E2E2E2E2E2E2E2E2E2E2E2E2E2E2E2E2E2E2E2F5E2E200F5E2E2F5F5F5F5F5F5F5F5E2E2E2E2E2E2E2E2F5F5F5F5F5F5F5F5F5F5F5F5F5F5F5E2E2E2E2E2E2E2E2E2F5F5F5F5F5F5F5F5F5F5F5F5F5F5E2E2E2E2E2E2E2E2E2F5F5F5F5F5F5F5F5F5F5F5F5F5F5F5E2E2E2E2E2E2E2E2F5F5F5F5F5F5
310
F5F5E2E201F5E2E2E2E2E2E2E2E2E2E2E2E2E2E2E2E2E2E2E2E2E2E2E2E2E2E2E2E2E2E2E2E2E2E2E2E2E2E2E2E2E2E2E2E2E2E2E2E2E2E2E2E2E2E2E2E2E2E2E2E2E2E2E2E2E2E2E2E2E2E2E2E2E2E2E2E2E2E2E2E2E2E2E2E2E2E2E2E2E2E2E2E2E2E2E2E2E2E200F5E2E2E2E2E2E2E2E2E2E2E2E2E2E2E2E2E2E2E2E2E2
310
E2E2E2E2E2E2E2E2E2E2E2E2E2E2E2E2E2E2E2E2E2E2E2E2E2E2E2E2E2E2E2E2E2E2E2E2E2E2E2E2E2E2E2E2E2E2E2E2E2E2E2E2E2E2E2E2E2E2E2E2E2E2E2E2E2E2E2E2E2E2E2E2E2E2E2E2E200
  0
XRECORD
  5
C5C1
102
{ACAD_REACTORS
330
C540
102
}
330
C540
100
AcDbXrecord
280
     1
102
MATERIAL
148
0.0
149
0.0
149
0.0
 93
        0
 94
      127
282
     0
 72
     0
 77
     0
171
     0
175
     0
179
     0
273
     0
  0
XRECORD
  5
C542
102
{ACAD_REACTORS
330
C540
102
}
330
C540
100
AcDbXrecord
280
     1
270
     1
271
     1
  0
XRECORD
  5
C541
102
{ACAD_REACTORS
330
C540
102
}
330
C540
100
AcDbXrecord
280
     1
270
     1
271
     1
  0
XRECORD
  5
C545
102
{ACAD_REACTORS
330
C540
102
}
330
C540
100
AcDbXrecord
280
     1
270
     1
271
     1
  0
XRECORD
  5
C544
102
{ACAD_REACTORS
330
C540
102
}
330
C540
100
AcDbXrecord
280
     1
270
     1
271
     1
  0
XRECORD
  5
C546
102
{ACAD_REACTORS
330
C540
102
}
330
C540
100
AcDbXrecord
280
     1
270
     1
271
     1
  0
XRECORD
  5
C543
102
{ACAD_REACTORS
330
C540
102
}
330
C540
100
AcDbXrecord
280
     1
270
     1
271
     1
  0
XRECORD
  5
C5C0
102
{ACAD_REACTORS
330
C538
102
}
330
C538
100
AcDbXrecord
280
     1
102
MATERIAL
148
0.0
149
0.0
149
0.0
 93
        0
 94
      127
282
     0
 72
     0
 77
     0
171
     0
175
     0
179
     0
273
     0
  0
XRECORD
  5
C53A
102
{ACAD_REACTORS
330
C538
102
}
330
C538
100
AcDbXrecord
280
     1
270
     1
271
     1
  0
XRECORD
  5
C539
102
{ACAD_REACTORS
330
C538
102
}
330
C538
100
AcDbXrecord
280
     1
270
     1
271
     1
  0
XRECORD
  5
C53D
102
{ACAD_REACTORS
330
C538
102
}
330
C538
100
AcDbXrecord
280
     1
270
     1
271
     1
  0
XRECORD
  5
C53C
102
{ACAD_REACTORS
330
C538
102
}
330
C538
100
AcDbXrecord
280
     1
270
     1
271
     1
  0
XRECORD
  5
C53E
102
{ACAD_REACTORS
330
C538
102
}
330
C538
100
AcDbXrecord
280
     1
270
     1
271
     1
  0
XRECORD
  5
C53B
102
{ACAD_REACTORS
330
C538
102
}
330
C538
100
AcDbXrecord
280
     1
270
     1
271
     1
  0
XRECORD
  5
C5C2
102
{ACAD_REACTORS
330
C548
102
}
330
C548
100
AcDbXrecord
280
     1
102
MATERIAL
148
0.0
149
0.0
149
0.0
 93
        0
 94
      127
282
     0
 72
     0
 77
     0
171
     0
175
     0
179
     0
273
     0
  0
XRECORD
  5
C54A
102
{ACAD_REACTORS
330
C548
102
}
330
C548
100
AcDbXrecord
280
     1
270
     1
271
     1
  0
XRECORD
  5
C549
102
{ACAD_REACTORS
330
C548
102
}
330
C548
100
AcDbXrecord
280
     1
270
     1
271
     1
  0
XRECORD
  5
C54D
102
{ACAD_REACTORS
330
C548
102
}
330
C548
100
AcDbXrecord
280
     1
270
     1
271
     1
  0
XRECORD
  5
C54C
102
{ACAD_REACTORS
330
C548
102
}
330
C548
100
AcDbXrecord
280
     1
270
     1
271
     1
  0
XRECORD
  5
C54E
102
{ACAD_REACTORS
330
C548
102
}
330
C548
100
AcDbXrecord
280
     1
270
     1
271
     1
  0
XRECORD
  5
C54B
102
{ACAD_REACTORS
330
C548
102
}
330
C548
100
AcDbXrecord
280
     1
270
     1
271
     1
  0
CELLSTYLEMAP
  5
C5B9
102
{ACAD_REACTORS
330
C5B8
102
}
330
C5B8
100
AcDbCellStyleMap
 90
        3
300
CELLSTYLE
  1
TABLEFORMAT_BEGIN
 90
        5
170
     1
 91
        0
 92
    32768
 62
   257
 93
        1
300
CONTENTFORMAT
  1
CONTENTFORMAT_BEGIN
 90
        0
 91
        0
 92
      512
 93
        0
300

 40
0.0
140
1.0
 94
        5
 62
     0
340
11
144
0.25
309
CONTENTFORMAT_END
171
     0
 94
        0
309
TABLEFORMAT_END
  1
CELLSTYLE_BEGIN
 90
        1
 91
        1
300
_TITLE
309
CELLSTYLE_END
300
CELLSTYLE
  1
TABLEFORMAT_BEGIN
 90
        5
170
     1
 91
        0
 92
        0
 62
   257
 93
        1
300
CONTENTFORMAT
  1
CONTENTFORMAT_BEGIN
 90
        0
 91
        0
 92
      512
 93
        0
300

 40
0.0
140
1.0
 94
        5
 62
     0
340
11
144
0.18
309
CONTENTFORMAT_END
171
     0
 94
        0
309
TABLEFORMAT_END
  1
CELLSTYLE_BEGIN
 90
        2
 91
        1
300
_HEADER
309
CELLSTYLE_END
300
CELLSTYLE
  1
TABLEFORMAT_BEGIN
 90
        5
170
     1
 91
        0
 92
        0
 62
   257
 93
        1
300
CONTENTFORMAT
  1
CONTENTFORMAT_BEGIN
 90
        0
 91
        0
 92
      512
 93
        0
300

 40
0.0
140
1.0
 94
        2
 62
     0
340
11
144
0.18
309
CONTENTFORMAT_END
171
     0
 94
        0
309
TABLEFORMAT_END
  1
CELLSTYLE_BEGIN
 90
        3
 91
        2
300
_DATA
309
CELLSTYLE_END
  0
XRECORD
  5
C5E9
102
{ACAD_REACTORS
330
C5B8
102
}
330
C5B8
100
AcDbXrecord
280
     1
102
ACAD_ROUNDTRIP_PRE2007_TABLESTYLE
 90
      512
 91
        0
  1

 92
      512
 93
        0
  2

 94
      512
 95
        0
  3

  0
XRECORD
  5
C5CE
102
{ACAD_REACTORS
330
C5CD
102
}
330
C5CD
100
AcDbXrecord
280
     1
102
RTVSPropertyOp0
 70
     1
102
RTVSPropertyOp1
 70
     1
102
RTVSPropertyOp2
 70
     1
102
RTVSPropertyOp3
 70
     1
102
RTVSPropertyOp4
 70
     1
102
RTVSPropertyOp5
 70
     1
102
RTVSPropertyOp6
 70
     1
102
RTVSPropertyOp7
 70
     1
102
RTVSPropertyOp8
 70
     1
102
RTVSPropertyOp9
 70
     1
102
RTVSPropertyOp10
 70
     1
102
RTVSPropertyOp11
 70
     1
102
RTVSPropertyOp12
 70
     1
102
RTVSPropertyOp13
 70
     1
102
RTVSPropertyOp14
 70
     1
102
RTVSPropertyOp15
 70
     1
102
RTVSPropertyOp16
 70
     1
102
RTVSPropertyOp17
 70
     1
102
RTVSPropertyOp18
 70
     1
102
RTVSPropertyOp19
 70
     1
102
RTVSPropertyOp20
 70
     1
102
RTVSPropertyOp21
 70
     1
102
RTVSPropertyOp22
 70
     1
102
RTVSPropertyOp23
 70
     1
102
RTVSPropertyOp24
 70
     1
102
RTVSPropertyOp25
 70
     1
102
RTVSPropertyOp26
 70
     1
102
RTVSPropertyOp27
 70
     1
  0
XRECORD
  5
C5D2
102
{ACAD_REACTORS
330
C5D1
102
}
330
C5D1
100
AcDbXrecord
280
     1
102
RTVSPropertyOp0
 70
     1
102
RTVSPropertyOp1
 70
     1
102
RTVSPropertyOp2
 70
     1
102
RTVSPropertyOp3
 70
     1
102
RTVSPropertyOp4
 70
     1
102
RTVSPropertyOp5
 70
     1
102
RTVSPropertyOp6
 70
     1
102
RTVSPropertyOp7
 70
     1
102
RTVSPropertyOp8
 70
     1
102
RTVSPropertyOp9
 70
     1
102
RTVSPropertyOp10
 70
     1
102
RTVSPropertyOp11
 70
     1
102
RTVSPropertyOp12
 70
     1
102
RTVSPropertyOp13
 70
     1
102
RTVSPropertyOp14
 70
     1
102
RTVSPropertyOp15
 70
     1
102
RTVSPropertyOp16
 70
     1
102
RTVSPropertyOp17
 70
     1
102
RTVSPropertyOp18
 70
     1
102
RTVSPropertyOp19
 70
     1
102
RTVSPropertyOp20
 70
     1
102
RTVSPropertyOp21
 70
     1
102
RTVSPropertyOp22
 70
     1
102
RTVSPropertyOp23
 70
     1
102
RTVSPropertyOp24
 70
     1
102
RTVSPropertyOp25
 70
     1
102
RTVSPropertyOp26
 70
     1
102
RTVSPropertyOp27
 70
     1
  0
XRECORD
  5
C5D0
102
{ACAD_REACTORS
330
C5CF
102
}
330
C5CF
100
AcDbXrecord
280
     1
102
RTVSPropertyOp0
 70
     1
102
RTVSPropertyOp1
 70
     1
102
RTVSPropertyOp2
 70
     1
102
RTVSPropertyOp3
 70
     1
102
RTVSPropertyOp4
 70
     1
102
RTVSPropertyOp5
 70
     1
102
RTVSPropertyOp6
 70
     1
102
RTVSPropertyOp7
 70
     1
102
RTVSPropertyOp8
 70
     1
102
RTVSPropertyOp9
 70
     1
102
RTVSPropertyOp10
 70
     1
102
RTVSPropertyOp11
 70
     1
102
RTVSPropertyOp12
 70
     1
102
RTVSPropertyOp13
 70
     1
102
RTVSPropertyOp14
 70
     1
102
RTVSPropertyOp15
 70
     1
102
RTVSPropertyOp16
 70
     1
102
RTVSPropertyOp17
 70
     1
102
RTVSPropertyOp18
 70
     1
102
RTVSPropertyOp19
 70
     1
102
RTVSPropertyOp20
 70
     1
102
RTVSPropertyOp21
 70
     1
102
RTVSPropertyOp22
 70
     1
102
RTVSPropertyOp23
 70
     1
102
RTVSPropertyOp24
 70
     1
102
RTVSPropertyOp25
 70
     1
102
RTVSPropertyOp26
 70
     1
102
RTVSPropertyOp27
 70
     1
  0
XRECORD
  5
C5CC
102
{ACAD_REACTORS
330
C5CB
102
}
330
C5CB
100
AcDbXrecord
280
     1
102
RTVSPropertyOp0
 70
     1
102
RTVSPropertyOp1
 70
     1
102
RTVSPropertyOp2
 70
     1
102
RTVSPropertyOp3
 70
     1
102
RTVSPropertyOp4
 70
     1
102
RTVSPropertyOp5
 70
     1
102
RTVSPropertyOp6
 70
     1
102
RTVSPropertyOp7
 70
     1
102
RTVSPropertyOp8
 70
     1
102
RTVSPropertyOp9
 70
     1
102
RTVSPropertyOp10
 70
     1
102
RTVSPropertyOp11
 70
     1
102
RTVSPropertyOp12
 70
     1
102
RTVSPropertyOp13
 70
     1
102
RTVSPropertyOp14
 70
     1
102
RTVSPropertyOp15
 70
     1
102
RTVSPropertyOp16
 70
     1
102
RTVSPropertyOp17
 70
     1
102
RTVSPropertyOp18
 70
     1
102
RTVSPropertyOp19
 70
     1
102
RTVSPropertyOp20
 70
     1
102
RTVSPropertyOp21
 70
     1
102
RTVSPropertyOp22
 70
     1
102
RTVSPropertyOp23
 70
     1
102
RTVSPropertyOp24
 70
     1
102
RTVSPropertyOp25
 70
     1
102
RTVSPropertyOp26
 70
     1
102
RTVSPropertyOp27
 70
     1
  0
XRECORD
  5
C5DA
102
{ACAD_REACTORS
330
C5D9
102
}
330
C5D9
100
AcDbXrecord
280
     1
102
RTVSPropertyOp0
 70
     1
102
RTVSPropertyOp1
 70
     1
102
RTVSPropertyOp2
 70
     1
102
RTVSPropertyOp3
 70
     1
102
RTVSPropertyOp4
 70
     1
102
RTVSPropertyOp5
 70
     1
102
RTVSPropertyOp6
 70
     1
102
RTVSPropertyOp7
 70
     1
102
RTVSPropertyOp8
 70
     1
102
RTVSPropertyOp9
 70
     1
102
RTVSPropertyOp10
 70
     1
102
RTVSPropertyOp11
 70
     1
102
RTVSPropertyOp12
 70
     1
102
RTVSPropertyOp13
 70
     1
102
RTVSPropertyOp14
 70
     1
102
RTVSPropertyOp15
 70
     1
102
RTVSPropertyOp16
 70
     1
102
RTVSPropertyOp17
 70
     1
102
RTVSPropertyOp18
 70
     1
102
RTVSPropertyOp19
 70
     1
102
RTVSPropertyOp20
 70
     1
102
RTVSPropertyOp21
 70
     1
102
RTVSPropertyOp22
 70
     1
102
RTVSPropertyOp23
 70
     1
102
RTVSPropertyOp24
 70
     1
102
RTVSPropertyOp25
 70
     1
102
RTVSPropertyOp26
 70
     1
102
RTVSPropertyOp27
 70
     1
  0
XRECORD
  5
C5E2
102
{ACAD_REACTORS
330
C5E1
102
}
330
C5E1
100
AcDbXrecord
280
     1
102
RTVSPropertyOp0
 70
     1
102
RTVSPropertyOp1
 70
     1
102
RTVSPropertyOp2
 70
     1
102
RTVSPropertyOp3
 70
     1
102
RTVSPropertyOp4
 70
     1
102
RTVSPropertyOp5
 70
     1
102
RTVSPropertyOp6
 70
     1
102
RTVSPropertyOp7
 70
     1
102
RTVSPropertyOp8
 70
     1
102
RTVSPropertyOp9
 70
     1
102
RTVSPropertyOp10
 70
     1
102
RTVSPropertyOp11
 70
     1
102
RTVSPropertyOp12
 70
     1
102
RTVSPropertyOp13
 70
     1
102
RTVSPropertyOp14
 70
     1
102
RTVSPropertyOp15
 70
     1
102
RTVSPropertyOp16
 70
     1
102
RTVSPropertyOp17
 70
     1
102
RTVSPropertyOp18
 70
     1
102
RTVSPropertyOp19
 70
     1
102
RTVSPropertyOp20
 70
     1
102
RTVSPropertyOp21
 70
     1
102
RTVSPropertyOp22
 70
     1
102
RTVSPropertyOp23
 70
     1
102
RTVSPropertyOp24
 70
     1
102
RTVSPropertyOp25
 70
     1
102
RTVSPropertyOp26
 70
     1
102
RTVSPropertyOp27
 70
     1
  0
XRECORD
  5
C5D4
102
{ACAD_REACTORS
330
C5D3
102
}
330
C5D3
100
AcDbXrecord
280
     1
102
RTVSPropertyOp0
 70
     1
102
RTVSPropertyOp1
 70
     1
102
RTVSPropertyOp2
 70
     1
102
RTVSPropertyOp3
 70
     1
102
RTVSPropertyOp4
 70
     1
102
RTVSPropertyOp5
 70
     1
102
RTVSPropertyOp6
 70
     1
102
RTVSPropertyOp7
 70
     1
102
RTVSPropertyOp8
 70
     1
102
RTVSPropertyOp9
 70
     1
102
RTVSPropertyOp10
 70
     1
102
RTVSPropertyOp11
 70
     1
102
RTVSPropertyOp12
 70
     1
102
RTVSPropertyOp13
 70
     1
102
RTVSPropertyOp14
 70
     1
102
RTVSPropertyOp15
 70
     1
102
RTVSPropertyOp16
 70
     1
102
RTVSPropertyOp17
 70
     1
102
RTVSPropertyOp18
 70
     1
102
RTVSPropertyOp19
 70
     1
102
RTVSPropertyOp20
 70
     1
102
RTVSPropertyOp21
 70
     1
102
RTVSPropertyOp22
 70
     1
102
RTVSPropertyOp23
 70
     1
102
RTVSPropertyOp24
 70
     1
102
RTVSPropertyOp25
 70
     1
102
RTVSPropertyOp26
 70
     1
102
RTVSPropertyOp27
 70
     1
  0
XRECORD
  5
C5D8
102
{ACAD_REACTORS
330
C5D7
102
}
330
C5D7
100
AcDbXrecord
280
     1
102
RTVSPropertyOp0
 70
     1
102
RTVSPropertyOp1
 70
     1
102
RTVSPropertyOp2
 70
     1
102
RTVSPropertyOp3
 70
     1
102
RTVSPropertyOp4
 70
     1
102
RTVSPropertyOp5
 70
     1
102
RTVSPropertyOp6
 70
     1
102
RTVSPropertyOp7
 70
     1
102
RTVSPropertyOp8
 70
     1
102
RTVSPropertyOp9
 70
     1
102
RTVSPropertyOp10
 70
     1
102
RTVSPropertyOp11
 70
     1
102
RTVSPropertyOp12
 70
     1
102
RTVSPropertyOp13
 70
     1
102
RTVSPropertyOp14
 70
     1
102
RTVSPropertyOp15
 70
     1
102
RTVSPropertyOp16
 70
     1
102
RTVSPropertyOp17
 70
     1
102
RTVSPropertyOp18
 70
     1
102
RTVSPropertyOp19
 70
     1
102
RTVSPropertyOp20
 70
     1
102
RTVSPropertyOp21
 70
     1
102
RTVSPropertyOp22
 70
     1
102
RTVSPropertyOp23
 70
     1
102
RTVSPropertyOp24
 70
     1
102
RTVSPropertyOp25
 70
     1
102
RTVSPropertyOp26
 70
     1
102
RTVSPropertyOp27
 70
     1
  0
XRECORD
  5
C5E8
102
{ACAD_REACTORS
330
C5E7
102
}
330
C5E7
100
AcDbXrecord
280
     1
102
RTVSPropertyOp0
 70
     0
102
RTVSPropertyOp1
 70
     0
102
RTVSPropertyOp2
 70
     0
102
RTVSPropertyOp3
 70
     0
102
RTVSPropertyOp4
 70
     0
102
RTVSPropertyOp5
 70
     0
102
RTVSPropertyOp6
 70
     0
102
RTVSPropertyOp7
 70
     0
102
RTVSPropertyOp8
 70
     0
102
RTVSPropertyOp9
 70
     0
102
RTVSPropertyOp10
 70
     0
102
RTVSPropertyOp11
 70
     0
102
RTVSPropertyOp12
 70
     0
102
RTVSPropertyOp13
 70
     0
102
RTVSPropertyOp14
 70
     2
102
RTVSPropertyOp15
 70
     0
102
RTVSPropertyOp16
 70
     0
102
RTVSPropertyOp17
 70
     0
102
RTVSPropertyOp18
 70
     0
102
RTVSPropertyOp19
 70
     0
102
RTVSPropertyOp20
 70
     0
102
RTVSPropertyOp21
 70
     0
102
RTVSPropertyOp22
 70
     0
102
RTVSPropertyOp23
 70
     0
102
RTVSPropertyOp24
 70
     0
102
RTVSPropertyOp25
 70
     0
102
RTVSPropertyOp26
 70
     0
102
RTVSPropertyOp27
 70
     0
  0
XRECORD
  5
C5E0
102
{ACAD_REACTORS
330
C5DF
102
}
330
C5DF
100
AcDbXrecord
280
     1
102
RTVSPropertyOp0
 70
     1
102
RTVSPropertyOp1
 70
     1
102
RTVSPropertyOp2
 70
     1
102
RTVSPropertyOp3
 70
     1
102
RTVSPropertyOp4
 70
     1
102
RTVSPropertyOp5
 70
     1
102
RTVSPropertyOp6
 70
     1
102
RTVSPropertyOp7
 70
     1
102
RTVSPropertyOp8
 70
     1
102
RTVSPropertyOp9
 70
     1
102
RTVSPropertyOp10
 70
     1
102
RTVSPropertyOp11
 70
     1
102
RTVSPropertyOp12
 70
     1
102
RTVSPropertyOp13
 70
     1
102
RTVSPropertyOp14
 70
     1
102
RTVSPropertyOp15
 70
     1
102
RTVSPropertyOp16
 70
     1
102
RTVSPropertyOp17
 70
     1
102
RTVSPropertyOp18
 70
     1
102
RTVSPropertyOp19
 70
     1
102
RTVSPropertyOp20
 70
     1
102
RTVSPropertyOp21
 70
     1
102
RTVSPropertyOp22
 70
     1
102
RTVSPropertyOp23
 70
     1
102
RTVSPropertyOp24
 70
     1
102
RTVSPropertyOp25
 70
     1
102
RTVSPropertyOp26
 70
     1
102
RTVSPropertyOp27
 70
     1
  0
XRECORD
  5
C5C4
102
{ACAD_REACTORS
330
C5C3
102
}
330
C5C3
100
AcDbXrecord
280
     1
102
RTVSPropertyOp0
 70
     1
102
RTVSPropertyOp1
 70
     1
102
RTVSPropertyOp2
 70
     1
102
RTVSPropertyOp3
 70
     1
102
RTVSPropertyOp4
 70
     1
102
RTVSPropertyOp5
 70
     1
102
RTVSPropertyOp6
 70
     1
102
RTVSPropertyOp7
 70
     1
102
RTVSPropertyOp8
 70
     1
102
RTVSPropertyOp9
 70
     1
102
RTVSPropertyOp10
 70
     1
102
RTVSPropertyOp11
 70
     1
102
RTVSPropertyOp12
 70
     1
102
RTVSPropertyOp13
 70
     1
102
RTVSPropertyOp14
 70
     1
102
RTVSPropertyOp15
 70
     1
102
RTVSPropertyOp16
 70
     1
102
RTVSPropertyOp17
 70
     1
102
RTVSPropertyOp18
 70
     1
102
RTVSPropertyOp19
 70
     1
102
RTVSPropertyOp20
 70
     1
102
RTVSPropertyOp21
 70
     1
102
RTVSPropertyOp22
 70
     1
102
RTVSPropertyOp23
 70
     1
102
RTVSPropertyOp24
 70
     1
102
RTVSPropertyOp25
 70
     1
102
RTVSPropertyOp26
 70
     1
102
RTVSPropertyOp27
 70
     1
  0
XRECORD
  5
C5C6
102
{ACAD_REACTORS
330
C5C5
102
}
330
C5C5
100
AcDbXrecord
280
     1
102
RTVSPropertyOp0
 70
     1
102
RTVSPropertyOp1
 70
     1
102
RTVSPropertyOp2
 70
     1
102
RTVSPropertyOp3
 70
     1
102
RTVSPropertyOp4
 70
     1
102
RTVSPropertyOp5
 70
     1
102
RTVSPropertyOp6
 70
     1
102
RTVSPropertyOp7
 70
     1
102
RTVSPropertyOp8
 70
     1
102
RTVSPropertyOp9
 70
     1
102
RTVSPropertyOp10
 70
     1
102
RTVSPropertyOp11
 70
     1
102
RTVSPropertyOp12
 70
     1
102
RTVSPropertyOp13
 70
     1
102
RTVSPropertyOp14
 70
     1
102
RTVSPropertyOp15
 70
     1
102
RTVSPropertyOp16
 70
     1
102
RTVSPropertyOp17
 70
     1
102
RTVSPropertyOp18
 70
     1
102
RTVSPropertyOp19
 70
     1
102
RTVSPropertyOp20
 70
     1
102
RTVSPropertyOp21
 70
     1
102
RTVSPropertyOp22
 70
     1
102
RTVSPropertyOp23
 70
     1
102
RTVSPropertyOp24
 70
     1
102
RTVSPropertyOp25
 70
     1
102
RTVSPropertyOp26
 70
     1
102
RTVSPropertyOp27
 70
     1
  0
XRECORD
  5
C5C8
102
{ACAD_REACTORS
330
C5C7
102
}
330
C5C7
100
AcDbXrecord
280
     1
102
RTVSPropertyOp0
 70
     1
102
RTVSPropertyOp1
 70
     1
102
RTVSPropertyOp2
 70
     1
102
RTVSPropertyOp3
 70
     1
102
RTVSPropertyOp4
 70
     1
102
RTVSPropertyOp5
 70
     1
102
RTVSPropertyOp6
 70
     1
102
RTVSPropertyOp7
 70
     1
102
RTVSPropertyOp8
 70
     1
102
RTVSPropertyOp9
 70
     1
102
RTVSPropertyOp10
 70
     1
102
RTVSPropertyOp11
 70
     1
102
RTVSPropertyOp12
 70
     1
102
RTVSPropertyOp13
 70
     1
102
RTVSPropertyOp14
 70
     1
102
RTVSPropertyOp15
 70
     1
102
RTVSPropertyOp16
 70
     1
102
RTVSPropertyOp17
 70
     1
102
RTVSPropertyOp18
 70
     1
102
RTVSPropertyOp19
 70
     1
102
RTVSPropertyOp20
 70
     1
102
RTVSPropertyOp21
 70
     1
102
RTVSPropertyOp22
 70
     1
102
RTVSPropertyOp23
 70
     1
102
RTVSPropertyOp24
 70
     1
102
RTVSPropertyOp25
 70
     1
102
RTVSPropertyOp26
 70
     1
102
RTVSPropertyOp27
 70
     1
  0
XRECORD
  5
C5CA
102
{ACAD_REACTORS
330
C5C9
102
}
330
C5C9
100
AcDbXrecord
280
     1
102
RTVSPropertyOp0
 70
     1
102
RTVSPropertyOp1
 70
     1
102
RTVSPropertyOp2
 70
     1
102
RTVSPropertyOp3
 70
     1
102
RTVSPropertyOp4
 70
     1
102
RTVSPropertyOp5
 70
     1
102
RTVSPropertyOp6
 70
     1
102
RTVSPropertyOp7
 70
     1
102
RTVSPropertyOp8
 70
     1
102
RTVSPropertyOp9
 70
     1
102
RTVSPropertyOp10
 70
     1
102
RTVSPropertyOp11
 70
     1
102
RTVSPropertyOp12
 70
     1
102
RTVSPropertyOp13
 70
     1
102
RTVSPropertyOp14
 70
     1
102
RTVSPropertyOp15
 70
     1
102
RTVSPropertyOp16
 70
     1
102
RTVSPropertyOp17
 70
     1
102
RTVSPropertyOp18
 70
     1
102
RTVSPropertyOp19
 70
     1
102
RTVSPropertyOp20
 70
     1
102
RTVSPropertyOp21
 70
     1
102
RTVSPropertyOp22
 70
     1
102
RTVSPropertyOp23
 70
     1
102
RTVSPropertyOp24
 70
     1
102
RTVSPropertyOp25
 70
     1
102
RTVSPropertyOp26
 70
     1
102
RTVSPropertyOp27
 70
     1
  0
XRECORD
  5
C5E4
102
{ACAD_REACTORS
330
C5E3
102
}
330
C5E3
100
AcDbXrecord
280
     1
102
RTVSPropertyOp0
 70
     0
102
RTVSPropertyOp1
 70
     0
102
RTVSPropertyOp2
 70
     0
102
RTVSPropertyOp3
 70
     0
102
RTVSPropertyOp4
 70
     0
102
RTVSPropertyOp5
 70
     0
102
RTVSPropertyOp6
 70
     0
102
RTVSPropertyOp7
 70
     0
102
RTVSPropertyOp8
 70
     0
102
RTVSPropertyOp9
 70
     0
102
RTVSPropertyOp10
 70
     0
102
RTVSPropertyOp11
 70
     0
102
RTVSPropertyOp12
 70
     0
102
RTVSPropertyOp13
 70
     0
102
RTVSPropertyOp14
 70
     2
102
RTVSPropertyOp15
 70
     0
102
RTVSPropertyOp16
 70
     0
102
RTVSPropertyOp17
 70
     0
102
RTVSPropertyOp18
 70
     0
102
RTVSPropertyOp19
 70
     0
102
RTVSPropertyOp20
 70
     0
102
RTVSPropertyOp21
 70
     0
102
RTVSPropertyOp22
 70
     0
102
RTVSPropertyOp23
 70
     0
102
RTVSPropertyOp24
 70
     0
102
RTVSPropertyOp25
 70
     0
102
RTVSPropertyOp26
 70
     0
102
RTVSPropertyOp27
 70
     0
  0
XRECORD
  5
C5DE
102
{ACAD_REACTORS
330
C5DD
102
}
330
C5DD
100
AcDbXrecord
280
     1
102
RTVSPropertyOp0
 70
     1
102
RTVSPropertyOp1
 70
     1
102
RTVSPropertyOp2
 70
     1
102
RTVSPropertyOp3
 70
     1
102
RTVSPropertyOp4
 70
     1
102
RTVSPropertyOp5
 70
     1
102
RTVSPropertyOp6
 70
     1
102
RTVSPropertyOp7
 70
     1
102
RTVSPropertyOp8
 70
     1
102
RTVSPropertyOp9
 70
     1
102
RTVSPropertyOp10
 70
     1
102
RTVSPropertyOp11
 70
     1
102
RTVSPropertyOp12
 70
     1
102
RTVSPropertyOp13
 70
     1
102
RTVSPropertyOp14
 70
     1
102
RTVSPropertyOp15
 70
     1
102
RTVSPropertyOp16
 70
     1
102
RTVSPropertyOp17
 70
     1
102
RTVSPropertyOp18
 70
     1
102
RTVSPropertyOp19
 70
     1
102
RTVSPropertyOp20
 70
     1
102
RTVSPropertyOp21
 70
     1
102
RTVSPropertyOp22
 70
     1
102
RTVSPropertyOp23
 70
     1
102
RTVSPropertyOp24
 70
     1
102
RTVSPropertyOp25
 70
     1
102
RTVSPropertyOp26
 70
     1
102
RTVSPropertyOp27
 70
     1
  0
XRECORD
  5
C5E6
102
{ACAD_REACTORS
330
C5E5
102
}
330
C5E5
100
AcDbXrecord
280
     1
102
RTVSPropertyOp0
 70
     0
102
RTVSPropertyOp1
 70
     0
102
RTVSPropertyOp2
 70
     0
102
RTVSPropertyOp3
 70
     0
102
RTVSPropertyOp4
 70
     0
102
RTVSPropertyOp5
 70
     0
102
RTVSPropertyOp6
 70
     0
102
RTVSPropertyOp7
 70
     0
102
RTVSPropertyOp8
 70
     0
102
RTVSPropertyOp9
 70
     0
102
RTVSPropertyOp10
 70
     0
102
RTVSPropertyOp11
 70
     0
102
RTVSPropertyOp12
 70
     0
102
RTVSPropertyOp13
 70
     0
102
RTVSPropertyOp14
 70
     2
102
RTVSPropertyOp15
 70
     0
102
RTVSPropertyOp16
 70
     0
102
RTVSPropertyOp17
 70
     0
102
RTVSPropertyOp18
 70
     0
102
RTVSPropertyOp19
 70
     0
102
RTVSPropertyOp20
 70
     0
102
RTVSPropertyOp21
 70
     0
102
RTVSPropertyOp22
 70
     0
102
RTVSPropertyOp23
 70
     0
102
RTVSPropertyOp24
 70
     0
102
RTVSPropertyOp25
 70
     0
102
RTVSPropertyOp26
 70
     0
102
RTVSPropertyOp27
 70
     0
  0
XRECORD
  5
C5D6
102
{ACAD_REACTORS
330
C5D5
102
}
330
C5D5
100
AcDbXrecord
280
     1
102
RTVSPropertyOp0
 70
     1
102
RTVSPropertyOp1
 70
     1
102
RTVSPropertyOp2
 70
     1
102
RTVSPropertyOp3
 70
     1
102
RTVSPropertyOp4
 70
     1
102
RTVSPropertyOp5
 70
     1
102
RTVSPropertyOp6
 70
     1
102
RTVSPropertyOp7
 70
     1
102
RTVSPropertyOp8
 70
     1
102
RTVSPropertyOp9
 70
     1
102
RTVSPropertyOp10
 70
     1
102
RTVSPropertyOp11
 70
     1
102
RTVSPropertyOp12
 70
     1
102
RTVSPropertyOp13
 70
     1
102
RTVSPropertyOp14
 70
     1
102
RTVSPropertyOp15
 70
     1
102
RTVSPropertyOp16
 70
     1
102
RTVSPropertyOp17
 70
     1
102
RTVSPropertyOp18
 70
     1
102
RTVSPropertyOp19
 70
     1
102
RTVSPropertyOp20
 70
     1
102
RTVSPropertyOp21
 70
     1
102
RTVSPropertyOp22
 70
     1
102
RTVSPropertyOp23
 70
     1
102
RTVSPropertyOp24
 70
     1
102
RTVSPropertyOp25
 70
     1
102
RTVSPropertyOp26
 70
     1
102
RTVSPropertyOp27
 70
     1
  0
XRECORD
  5
C5DC
102
{ACAD_REACTORS
330
C5DB
102
}
330
C5DB
100
AcDbXrecord
280
     1
102
RTVSPropertyOp0
 70
     1
102
RTVSPropertyOp1
 70
     1
102
RTVSPropertyOp2
 70
     1
102
RTVSPropertyOp3
 70
     1
102
RTVSPropertyOp4
 70
     1
102
RTVSPropertyOp5
 70
     1
102
RTVSPropertyOp6
 70
     1
102
RTVSPropertyOp7
 70
     1
102
RTVSPropertyOp8
 70
     1
102
RTVSPropertyOp9
 70
     1
102
RTVSPropertyOp10
 70
     1
102
RTVSPropertyOp11
 70
     1
102
RTVSPropertyOp12
 70
     1
102
RTVSPropertyOp13
 70
     1
102
RTVSPropertyOp14
 70
     1
102
RTVSPropertyOp15
 70
     1
102
RTVSPropertyOp16
 70
     1
102
RTVSPropertyOp17
 70
     1
102
RTVSPropertyOp18
 70
     1
102
RTVSPropertyOp19
 70
     1
102
RTVSPropertyOp20
 70
     1
102
RTVSPropertyOp21
 70
     1
102
RTVSPropertyOp22
 70
     1
102
RTVSPropertyOp23
 70
     1
102
RTVSPropertyOp24
 70
     1
102
RTVSPropertyOp25
 70
     1
102
RTVSPropertyOp26
 70
     1
102
RTVSPropertyOp27
 70
     1
  0
ENDSEC
  0
EOF
