  0
SECTION
  2
HEADER
  9
$ACADVER
  1
AC1015
  9
$ACADMAINTVER
 70
    20
  9
$DWGCODEPAGE
  3
ANSI_932
  9
$INSBASE
 10
0.0
 20
0.0
 30
0.0
  9
$EXTMIN
 10
-1498.49864938606
 20
-358.7584635241902
 30
-0.0000000000000136
  9
$EXTMAX
 10
2621.04102329482
 20
1475.901372868
 30
0.0
  9
$LIMMIN
 10
-1981.0
 20
-1245.0
  9
$LIMMAX
 10
2725.0
 20
1972.0
  9
$ORTHOMODE
 70
     1
  9
$REGENMODE
 70
     1
  9
$FILLMODE
 70
     1
  9
$QTEXTMODE
 70
     0
  9
$MIRRTEXT
 70
     1
  9
$LTSCALE
 40
30.0
  9
$ATTMODE
 70
     1
  9
$TEXTSIZE
 40
2.0
  9
$TRACEWID
 40
0.05
  9
$TEXTSTYLE
  7
Standard
  9
$CLAYER
  8
30
  9
$CELTYPE
  6
ByLayer
  9
$CECOLOR
 62
   256
  9
$CELTSCALE
 40
1.0
  9
$DISPSILH
 70
     0
  9
$DIMSCALE
 40
1.0
  9
$DIMASZ
 40
5.0
  9
$DIMEXO
 40
10.0
  9
$DIMDLI
 40
0.5
  9
$DIMRND
 40
0.0
  9
$DIMDLE
 40
0.0
  9
$DIMEXE
 40
1.0
  9
$DIMTP
 40
0.0
  9
$DIMTM
 40
0.0
  9
$DIMTXT
 40
10.0
  9
$DIMCEN
 40
0.09
  9
$DIMTSZ
 40
0.0
  9
$DIMTOL
 70
     0
  9
$DIMLIM
 70
     0
  9
$DIMTIH
 70
     0
  9
$DIMTOH
 70
     0
  9
$DIMSE1
 70
     0
  9
$DIMSE2
 70
     0
  9
$DIMTAD
 70
     3
  9
$DIMZIN
 70
    12
  9
$DIMBLK
  1
Open
  9
$DIMASO
 70
     1
  9
$DIMSHO
 70
     1
  9
$DIMPOST
  1

  9
$DIMAPOST
  1

  9
$DIMALT
 70
     0
  9
$DIMALTD
 70
     2
  9
$DIMALTF
 40
25.4
  9
$DIMLFAC
 40
1.0
  9
$DIMTOFL
 70
     1
  9
$DIMTVP
 40
0.0
  9
$DIMTIX
 70
     1
  9
$DIMSOXD
 70
     1
  9
$DIMSAH
 70
     0
  9
$DIMBLK1
  1

  9
$DIMBLK2
  1

  9
$DIMSTYLE
  2
Standard
  9
$DIMCLRD
 70
     0
  9
$DIMCLRE
 70
     0
  9
$DIMCLRT
 70
     0
  9
$DIMTFAC
 40
1.0
  9
$DIMGAP
 40
3.0
  9
$DIMJUST
 70
     0
  9
$DIMSD1
 70
     0
  9
$DIMSD2
 70
     0
  9
$DIMTOLJ
 70
     1
  9
$DIMTZIN
 70
     0
  9
$DIMALTZ
 70
     0
  9
$DIMALTTZ
 70
     0
  9
$DIMUPT
 70
     0
  9
$DIMDEC
 70
     1
  9
$DIMTDEC
 70
     1
  9
$DIMALTU
 70
     2
  9
$DIMALTTD
 70
     2
  9
$DIMTXSTY
  7
Standard
  9
$DIMAUNIT
 70
     0
  9
$DIMADEC
 70
     0
  9
$DIMALTRND
 40
0.0
  9
$DIMAZIN
 70
     3
  9
$DIMDSEP
 70
    46
  9
$DIMATFIT
 70
     3
  9
$DIMFRAC
 70
     0
  9
$DIMLDRBLK
  1
Open
  9
$DIMLUNIT
 70
     2
  9
$DIMLWD
 70
    -2
  9
$DIMLWE
 70
    -2
  9
$DIMTMOVE
 70
     1
  9
$LUNITS
 70
     2
  9
$LUPREC
 70
     4
  9
$SKETCHINC
 40
0.1
  9
$FILLETRAD
 40
0.0
  9
$AUNITS
 70
     0
  9
$AUPREC
 70
     0
  9
$MENU
  1
.
  9
$ELEVATION
 40
0.0
  9
$PELEVATION
 40
0.0
  9
$THICKNESS
 40
0.0
  9
$LIMCHECK
 70
     0
  9
$CHAMFERA
 40
0.0
  9
$CHAMFERB
 40
0.0
  9
$CHAMFERC
 40
0.0
  9
$CHAMFERD
 40
0.0
  9
$SKPOLY
 70
     0
  9
$TDCREATE
 40
2452286.555658658
  9
$TDUCREATE
 40
2452286.180658658
  9
$TDUPDATE
 40
2456974.368399607
  9
$TDUUPDATE
 40
2456973.993399607
  9
$TDINDWG
 40
1.9277155671
  9
$TDUSRTIMER
 40
1.9277152083
  9
$USRTIMER
 70
     1
  9
$ANGBASE
 50
0.0
  9
$ANGDIR
 70
     0
  9
$PDMODE
 70
     0
  9
$PDSIZE
 40
0.0
  9
$PLINEWID
 40
0.0
  9
$SPLFRAME
 70
     0
  9
$SPLINETYPE
 70
     6
  9
$SPLINESEGS
 70
     8
  9
$HANDSEED
  5
C01B
  9
$SURFTAB1
 70
     6
  9
$SURFTAB2
 70
     6
  9
$SURFTYPE
 70
     6
  9
$SURFU
 70
     6
  9
$SURFV
 70
     6
  9
$UCSBASE
  2

  9
$UCSNAME
  2

  9
$UCSORG
 10
0.0
 20
0.0
 30
0.0
  9
$UCSXDIR
 10
1.0
 20
0.0
 30
0.0
  9
$UCSYDIR
 10
0.0
 20
1.0
 30
0.0
  9
$UCSORTHOREF
  2

  9
$UCSORTHOVIEW
 70
     0
  9
$UCSORGTOP
 10
0.0
 20
0.0
 30
0.0
  9
$UCSORGBOTTOM
 10
0.0
 20
0.0
 30
0.0
  9
$UCSORGLEFT
 10
0.0
 20
0.0
 30
0.0
  9
$UCSORGRIGHT
 10
0.0
 20
0.0
 30
0.0
  9
$UCSORGFRONT
 10
0.0
 20
0.0
 30
0.0
  9
$UCSORGBACK
 10
0.0
 20
0.0
 30
0.0
  9
$PUCSBASE
  2

  9
$PUCSNAME
  2

  9
$PUCSORG
 10
0.0
 20
0.0
 30
0.0
  9
$PUCSXDIR
 10
1.0
 20
0.0
 30
0.0
  9
$PUCSYDIR
 10
0.0
 20
1.0
 30
0.0
  9
$PUCSORTHOREF
  2

  9
$PUCSORTHOVIEW
 70
     0
  9
$PUCSORGTOP
 10
0.0
 20
0.0
 30
0.0
  9
$PUCSORGBOTTOM
 10
0.0
 20
0.0
 30
0.0
  9
$PUCSORGLEFT
 10
0.0
 20
0.0
 30
0.0
  9
$PUCSORGRIGHT
 10
0.0
 20
0.0
 30
0.0
  9
$PUCSORGFRONT
 10
0.0
 20
0.0
 30
0.0
  9
$PUCSORGBACK
 10
0.0
 20
0.0
 30
0.0
  9
$USERI1
 70
     0
  9
$USERI2
 70
     0
  9
$USERI3
 70
     0
  9
$USERI4
 70
     0
  9
$USERI5
 70
     0
  9
$USERR1
 40
0.0
  9
$USERR2
 40
0.0
  9
$USERR3
 40
0.0
  9
$USERR4
 40
0.0
  9
$USERR5
 40
0.0
  9
$WORLDVIEW
 70
     1
  9
$SHADEDGE
 70
     3
  9
$SHADEDIF
 70
    70
  9
$TILEMODE
 70
     1
  9
$MAXACTVP
 70
    48
  9
$PINSBASE
 10
0.0
 20
0.0
 30
0.0
  9
$PLIMCHECK
 70
     0
  9
$PEXTMIN
 10
1.000000000000000E+20
 20
1.000000000000000E+20
 30
1.000000000000000E+20
  9
$PEXTMAX
 10
-1.000000000000000E+20
 20
-1.000000000000000E+20
 30
-1.000000000000000E+20
  9
$PLIMMIN
 10
-5.873748779296875
 20
-5.873749732971191
  9
$PLIMMAX
 10
204.0995788574218
 20
291.1369009017943
  9
$UNITMODE
 70
     0
  9
$VISRETAIN
 70
     1
  9
$PLINEGEN
 70
     0
  9
$PSLTSCALE
 70
     0
  9
$TREEDEPTH
 70
  3020
  9
$CMLSTYLE
  2
Standard
  9
$CMLJUST
 70
     0
  9
$CMLSCALE
 40
1.0
  9
$PROXYGRAPHICS
 70
     1
  9
$MEASUREMENT
 70
     0
  9
$CELWEIGHT
370
    -1
  9
$ENDCAPS
280
     0
  9
$JOINSTYLE
280
     0
  9
$LWDISPLAY
290
     0
  9
$INSUNITS
 70
     0
  9
$HYPERLINKBASE
  1

  9
$STYLESHEET
  1
monochrome.ctb
  9
$XEDIT
290
     1
  9
$CEPSNTYPE
380
     0
  9
$PSTYLEMODE
290
     1
  9
$FINGERPRINTGUID
  2

  9
$VERSIONGUID
  2
{4CE84931-243B-4D6C-9890-4C6EDFD6B538}
  9
$EXTNAMES
290
     1
  9
$PSVPSCALE
 40
0.0
  9
$OLESTARTUP
290
     0
  0
ENDSEC
  0
SECTION
  2
CLASSES
  0
CLASS
  1
ACDBDICTIONARYWDFLT
  2
AcDbDictionaryWithDefault
  3
ObjectDBX Classes
 90
        0
280
     0
281
     0
  0
CLASS
  1
ACDBPLACEHOLDER
  2
AcDbPlaceHolder
  3
ObjectDBX Classes
 90
        0
280
     0
281
     0
  0
CLASS
  1
LAYOUT
  2
AcDbLayout
  3
ObjectDBX Classes
 90
        0
280
     0
281
     0
  0
CLASS
  1
DICTIONARYVAR
  2
AcDbDictionaryVar
  3
ObjectDBX Classes
 90
        0
280
     0
281
     0
  0
CLASS
  1
MATERIAL
  2
AcDbMaterial
  3
ObjectDBX Classes
 90
     1153
280
     0
281
     0
  0
CLASS
  1
VISUALSTYLE
  2
AcDbVisualStyle
  3
ObjectDBX Classes
 90
     4095
280
     0
281
     0
  0
CLASS
  1
TABLESTYLE
  2
AcDbTableStyle
  3
ObjectDBX Classes
 90
     4095
280
     0
281
     0
  0
CLASS
  1
SCALE
  2
AcDbScale
  3
ObjectDBX Classes
 90
     1153
280
     0
281
     0
  0
CLASS
  1
MLEADERSTYLE
  2
AcDbMLeaderStyle
  3
ACDB_MLEADERSTYLE_CLASS
 90
     4095
280
     0
281
     0
  0
CLASS
  1
CELLSTYLEMAP
  2
AcDbCellStyleMap
  3
ObjectDBX Classes
 90
     1152
280
     0
281
     0
  0
ENDSEC
  0
SECTION
  2
TABLES
  0
TABLE
  2
VPORT
  5
8
330
0
100
AcDbSymbolTable
 70
     1
  0
VPORT
  5
BF39
330
8
100
AcDbSymbolTableRecord
100
AcDbViewportTableRecord
  2
*Active
 70
     0
 10
0.0
 20
0.0
 11
1.0
 21
1.0
 12
561.3932454304231
 22
558.6229172632129
 13
0.0
 23
0.0
 14
1.0
 24
1.0
 15
50.0
 25
50.0
 16
0.0
 26
0.0
 36
1.0
 17
0.0
 27
0.0
 37
0.0
 40
2233.969786579713
 41
1.851449275362318
 42
50.0
 43
0.0
 44
0.0
 50
0.0
 51
0.0
 71
     0
 72
   100
 73
     1
 74
     1
 75
     0
 76
     1
 77
     0
 78
     0
281
     0
 65
     1
110
0.0
120
0.0
130
0.0
111
1.0
121
0.0
131
0.0
112
0.0
122
1.0
132
0.0
 79
     0
146
0.0
  0
ENDTAB
  0
TABLE
  2
LTYPE
  5
5
330
0
100
AcDbSymbolTable
 70
     5
  0
LTYPE
  5
13
330
5
100
AcDbSymbolTableRecord
100
AcDbLinetypeTableRecord
  2
ByBlock
 70
     0
  3

 72
    65
 73
     0
 40
0.0
  0
LTYPE
  5
14
330
5
100
AcDbSymbolTableRecord
100
AcDbLinetypeTableRecord
  2
ByLayer
 70
     0
  3

 72
    65
 73
     0
 40
0.0
  0
LTYPE
  5
15
330
5
100
AcDbSymbolTableRecord
100
AcDbLinetypeTableRecord
  2
Continuous
 70
     0
  3
Solid line
 72
    65
 73
     0
 40
0.0
  0
LTYPE
  5
22
330
5
100
AcDbSymbolTableRecord
100
AcDbLinetypeTableRecord
  2
CONTINOUS
 70
     0
  3
Solid line
 72
    65
 73
     0
 40
0.0
  0
LTYPE
  5
24
330
5
100
AcDbSymbolTableRecord
100
AcDbLinetypeTableRecord
  2
DASHDOT
 70
     0
  3
__ . __ . __ . __ . __ . __ . __ . __ . __ . __
 72
    65
 73
     4
 40
1.0
 49
0.5
 74
     0
 49
-0.25
 74
     0
 49
0.0
 74
     0
 49
-0.25
 74
     0
  0
LTYPE
  5
33CB
330
5
100
AcDbSymbolTableRecord
100
AcDbLinetypeTableRecord
  2
DIVIDE
 70
     0
  3
Divide ____ . . ____ . . ____ . . ____ . . ____
 72
    65
 73
     6
 40
1.25
 49
0.5
 74
     0
 49
-0.25
 74
     0
 49
0.0
 74
     0
 49
-0.25
 74
     0
 49
0.0
 74
     0
 49
-0.25
 74
     0
  0
LTYPE
  5
941B
330
5
100
AcDbSymbolTableRecord
100
AcDbLinetypeTableRecord
  2
HIDDEN
 70
     0
  3
Hidden __ __ __ __ __ __ __ __ __ __ __ __ __ __
 72
    65
 73
     2
 40
1.905
 49
1.27
 74
     0
 49
-0.635
 74
     0
  0
ENDTAB
  0
TABLE
  2
LAYER
  5
2
102
{ACAD_XDICTIONARY
360
BFBC
102
}
330
0
100
AcDbSymbolTable
 70
    12
  0
LAYER
  5
10
102
{ACAD_XDICTIONARY
360
BFCD
102
}
330
2
100
AcDbSymbolTableRecord
100
AcDbLayerTableRecord
  2
0
 70
     0
 62
     6
  6
DASHDOT
370
    -3
390
F
  0
LAYER
  5
2F
102
{ACAD_XDICTIONARY
360
BFCF
102
}
330
2
100
AcDbSymbolTableRecord
100
AcDbLayerTableRecord
  2
10
 70
     0
 62
     4
  6
CONTINOUS
370
    -3
390
F
  0
LAYER
  5
31
102
{ACAD_XDICTIONARY
360
BFD1
102
}
330
2
100
AcDbSymbolTableRecord
100
AcDbLayerTableRecord
  2
12
 70
     0
 62
     3
  6
CONTINOUS
370
    -3
390
F
  0
LAYER
  5
35
102
{ACAD_XDICTIONARY
360
BFD3
102
}
330
2
100
AcDbSymbolTableRecord
100
AcDbLayerTableRecord
  2
16
 70
     0
 62
     6
  6
DASHDOT
370
    -3
390
F
  0
LAYER
  5
38
102
{ACAD_XDICTIONARY
360
BFD5
102
}
330
2
100
AcDbSymbolTableRecord
100
AcDbLayerTableRecord
  2
19
 70
     0
 62
     7
  6
CONTINOUS
370
    -3
390
F
  0
LAYER
  5
3C
102
{ACAD_XDICTIONARY
360
BFD7
102
}
330
2
100
AcDbSymbolTableRecord
100
AcDbLayerTableRecord
  2
11
 70
     0
 62
     1
  6
CONTINOUS
370
    -3
390
F
  0
LAYER
  5
3A2
102
{ACAD_XDICTIONARY
360
BFD9
102
}
330
2
100
AcDbSymbolTableRecord
100
AcDbLayerTableRecord
  2
30
 70
     0
 62
     9
  6
Continuous
370
    -3
390
F
  0
LAYER
  5
3A4
330
2
100
AcDbSymbolTableRecord
100
AcDbLayerTableRecord
  2
Defpoints
 70
     0
 62
     2
  6
DASHDOT
290
     0
370
    -3
390
F
  0
LAYER
  5
33C8
102
{ACAD_XDICTIONARY
360
BFDB
102
}
330
2
100
AcDbSymbolTableRecord
100
AcDbLayerTableRecord
  2
18
 70
     0
 62
     5
  6
DIVIDE
370
    -3
390
F
  0
LAYER
  5
39DB
102
{ACAD_XDICTIONARY
360
BFDD
102
}
330
2
100
AcDbSymbolTableRecord
100
AcDbLayerTableRecord
  2
27
 70
     0
 62
     2
  6
Continuous
370
    -3
390
F
  0
LAYER
  5
A5CF
102
{ACAD_XDICTIONARY
360
BFDF
102
}
330
2
100
AcDbSymbolTableRecord
100
AcDbLayerTableRecord
  2
17
 70
     0
 62
     2
  6
DASHDOT
370
    -3
390
F
  0
LAYER
  5
B64A
102
{ACAD_XDICTIONARY
360
BFE1
102
}
330
2
100
AcDbSymbolTableRecord
100
AcDbLayerTableRecord
  2
34
 70
     0
 62
     2
  6
DIVIDE
370
    -3
390
F
  0
ENDTAB
  0
TABLE
  2
STYLE
  5
3
330
0
100
AcDbSymbolTable
 70
     2
  0
STYLE
  5
11
330
3
100
AcDbSymbolTableRecord
100
AcDbTextStyleTableRecord
  2
Standard
 70
     0
 40
0.0
 41
1.0
 50
0.0
 71
     0
 42
2.0
  3
simplex.shx
  4
bigfont.shx
  0
STYLE
  5
941E
330
3
100
AcDbSymbolTableRecord
100
AcDbTextStyleTableRecord
  2
SLDTEXTSTYLE1
 70
     0
 40
0.0
 41
0.75
 50
0.0
 71
     0
 42
0.0
  3
txt
  4

  0
ENDTAB
  0
TABLE
  2
VIEW
  5
6
330
0
100
AcDbSymbolTable
 70
     4
  0
VIEW
  5
3817
330
6
100
AcDbSymbolTableRecord
100
AcDbViewTableRecord
  2
OLE1
 70
     0
 40
440.4976618414746
 10
298.4341836359813
 20
-51.57564428994924
 41
312.0191771377112
 11
0.0
 21
0.0
 31
1.0
 12
0.0
 22
0.0
 32
0.0
 42
50.0
 43
0.0
 44
0.0
 50
0.0
 71
     0
281
     0
 72
     0
  0
VIEW
  5
3819
330
6
100
AcDbSymbolTableRecord
100
AcDbViewTableRecord
  2
OLE2
 70
     0
 40
1141.80233015935
 10
166.182610057254
 20
-77.11925276944589
 41
611.5415870006012
 11
0.0
 21
0.0
 31
1.0
 12
0.0
 22
0.0
 32
0.0
 42
50.0
 43
0.0
 44
0.0
 50
0.0
 71
     0
281
     0
 72
     0
  0
ENDTAB
  0
TABLE
  2
UCS
  5
7
330
0
100
AcDbSymbolTable
 70
     0
  0
ENDTAB
  0
TABLE
  2
APPID
  5
9
330
0
100
AcDbSymbolTable
 70
     3
  0
APPID
  5
12
330
9
100
AcDbSymbolTableRecord
100
AcDbRegAppTableRecord
  2
ACAD
 70
     0
  0
APPID
  5
ECD
330
9
100
AcDbSymbolTableRecord
100
AcDbRegAppTableRecord
  2
CONTENTBLOCKICON
 70
     0
  0
APPID
  5
C01A
330
9
100
AcDbSymbolTableRecord
100
AcDbRegAppTableRecord
  2
ACAD_MLEADERVER
 70
     0
  0
ENDTAB
  0
TABLE
  2
DIMSTYLE
  5
A
330
0
100
AcDbSymbolTable
 70
     1
100
AcDbDimStyleTable
 71
     1
340
175
  0
DIMSTYLE
105
175
102
{ACAD_REACTORS
330
6DE2
330
6DD5
330
9991
330
9944
330
993F
330
997D
330
9997
330
9949
330
994C
330
990F
330
9912
330
990D
330
9784
330
9782
330
9786
330
9763
330
9762
330
9771
330
9785
330
9950
330
AC6E
330
ABF4
330
B28F
330
B290
330
B291
330
B3E2
330
B3E4
330
B3E5
330
B3E6
330
B467
330
B5E8
330
B6D7
330
B6D8
330
B6D9
330
B72D
330
B72E
330
B8AB
330
BB95
330
BB96
330
BB97
330
BB9B
330
975C
330
9760
330
9917
330
992F
330
9934
330
994E
330
A208
330
B441
330
B722
330
BBA5
102
}
330
A
100
AcDbSymbolTableRecord
100
AcDbDimStyleTableRecord
  2
Standard
 70
     0
 41
5.0
 42
10.0
 43
0.5
 44
1.0
 73
     0
 74
     0
 77
     3
 78
    12
 79
     3
140
10.0
147
3.0
172
     1
174
     1
175
     1
271
     1
272
     1
279
     1
340
11
341
3B2
342
3B2
  0
ENDTAB
  0
TABLE
  2
BLOCK_RECORD
  5
1
330
0
100
AcDbSymbolTable
 70
    56
  0
BLOCK_RECORD
  5
1E
102
{ACAD_XDICTIONARY
360
178
102
}
330
1
100
AcDbSymbolTableRecord
100
AcDbBlockTableRecord
  2
*Model_Space
340
21
  0
BLOCK_RECORD
  5
1A
102
{ACAD_XDICTIONARY
360
17A
102
}
330
1
100
AcDbSymbolTableRecord
100
AcDbBlockTableRecord
  2
*Paper_Space
340
1D
  0
BLOCK_RECORD
  5
3B2
330
1
100
AcDbSymbolTableRecord
100
AcDbBlockTableRecord
  2
_Open
340
0
102
{BLKREFS
331
B89C
331
B89D
331
B8A5
331
B8A6
331
B8BD
331
B8BE
331
B939
331
B93A
331
B942
331
B943
331
B94B
331
B94C
331
B954
331
B955
331
BB5F
331
BB60
331
BB6B
331
BB6C
331
BB53
331
BB54
331
BB77
331
BB78
331
BD00
331
BD01
331
BD30
331
BD31
331
BDCD
331
BDCE
331
BDD6
331
BDD7
331
BDE0
331
BDE1
331
BDE9
331
BDEA
331
BDF2
331
BDF3
331
BDFB
331
BDFC
331
BE04
331
BE05
331
BE0D
331
BE0E
331
BE16
331
BE17
331
BE1F
331
BE20
331
BE29
331
BE2A
331
BE32
331
BE33
331
BE3B
331
BE3C
331
BE44
331
BE45
331
BE4E
331
BE4F
331
BE57
331
BE58
331
BE60
331
BE61
331
BE69
331
BE6A
331
BE72
331
BE73
331
BE7B
331
BE7C
331
BE84
331
BE85
331
BE8D
331
BE8E
331
BE96
331
BE97
331
BE9F
331
BEA0
331
BEB1
331
BEB2
331
BEBA
331
BEBB
331
BECA
331
BECB
331
BED2
331
BED3
331
BEE2
331
BEE3
331
BEEB
331
BEEC
331
BEF5
331
BEF6
331
BEFE
331
BEFF
331
BF07
331
BF08
331
BF0F
331
BF10
331
BF18
331
BF19
331
BF21
331
BF22
331
BF2A
331
BF2B
331
BF33
331
BF34
102
}
  0
BLOCK_RECORD
  5
4C0E
330
1
100
AcDbSymbolTableRecord
100
AcDbBlockTableRecord
  2
*D1
340
0
  0
BLOCK_RECORD
  5
4C1A
330
1
100
AcDbSymbolTableRecord
100
AcDbBlockTableRecord
  2
*D2
340
0
  0
BLOCK_RECORD
  5
5C98
330
1
100
AcDbSymbolTableRecord
100
AcDbBlockTableRecord
  2
*D3
340
0
  0
BLOCK_RECORD
  5
5CC9
330
1
100
AcDbSymbolTableRecord
100
AcDbBlockTableRecord
  2
*D4
340
0
  0
BLOCK_RECORD
  5
6DD6
330
1
100
AcDbSymbolTableRecord
100
AcDbBlockTableRecord
  2
*D5
340
0
  0
BLOCK_RECORD
  5
6DE3
330
1
100
AcDbSymbolTableRecord
100
AcDbBlockTableRecord
  2
*D6
340
0
  0
BLOCK_RECORD
  5
9B06
330
1
100
AcDbSymbolTableRecord
100
AcDbBlockTableRecord
  2
*D7
340
0
  0
BLOCK_RECORD
  5
9B12
330
1
100
AcDbSymbolTableRecord
100
AcDbBlockTableRecord
  2
*D8
340
0
  0
BLOCK_RECORD
  5
9B5A
330
1
100
AcDbSymbolTableRecord
100
AcDbBlockTableRecord
  2
*D9
340
0
  0
BLOCK_RECORD
  5
9B72
330
1
100
AcDbSymbolTableRecord
100
AcDbBlockTableRecord
  2
*D10
340
0
  0
BLOCK_RECORD
  5
9B7E
330
1
100
AcDbSymbolTableRecord
100
AcDbBlockTableRecord
  2
*D11
340
0
  0
BLOCK_RECORD
  5
9B8A
330
1
100
AcDbSymbolTableRecord
100
AcDbBlockTableRecord
  2
*D12
340
0
  0
BLOCK_RECORD
  5
9B96
330
1
100
AcDbSymbolTableRecord
100
AcDbBlockTableRecord
  2
*D13
340
0
  0
BLOCK_RECORD
  5
9BD3
330
1
100
AcDbSymbolTableRecord
100
AcDbBlockTableRecord
  2
*D14
340
0
  0
BLOCK_RECORD
  5
9BEB
330
1
100
AcDbSymbolTableRecord
100
AcDbBlockTableRecord
  2
*D15
340
0
  0
BLOCK_RECORD
  5
9C0F
330
1
100
AcDbSymbolTableRecord
100
AcDbBlockTableRecord
  2
*D16
340
0
  0
BLOCK_RECORD
  5
9C7B
330
1
100
AcDbSymbolTableRecord
100
AcDbBlockTableRecord
  2
*D17
340
0
  0
BLOCK_RECORD
  5
9C88
330
1
100
AcDbSymbolTableRecord
100
AcDbBlockTableRecord
  2
*D18
340
0
  0
BLOCK_RECORD
  5
9C94
330
1
100
AcDbSymbolTableRecord
100
AcDbBlockTableRecord
  2
*D19
340
0
  0
BLOCK_RECORD
  5
9CAD
330
1
100
AcDbSymbolTableRecord
100
AcDbBlockTableRecord
  2
*D20
340
0
  0
BLOCK_RECORD
  5
9CB8
330
1
100
AcDbSymbolTableRecord
100
AcDbBlockTableRecord
  2
*D21
340
0
  0
BLOCK_RECORD
  5
9CDE
330
1
100
AcDbSymbolTableRecord
100
AcDbBlockTableRecord
  2
*D22
340
0
  0
BLOCK_RECORD
  5
9D04
330
1
100
AcDbSymbolTableRecord
100
AcDbBlockTableRecord
  2
*D23
340
0
  0
BLOCK_RECORD
  5
9D2A
330
1
100
AcDbSymbolTableRecord
100
AcDbBlockTableRecord
  2
*D24
340
0
  0
BLOCK_RECORD
  5
AD63
330
1
100
AcDbSymbolTableRecord
100
AcDbBlockTableRecord
  2
*D25
340
0
  0
BLOCK_RECORD
  5
AE8A
330
1
100
AcDbSymbolTableRecord
100
AcDbBlockTableRecord
  2
*D26
340
0
  0
BLOCK_RECORD
  5
B292
330
1
100
AcDbSymbolTableRecord
100
AcDbBlockTableRecord
  2
*D27
340
0
  0
BLOCK_RECORD
  5
B29E
330
1
100
AcDbSymbolTableRecord
100
AcDbBlockTableRecord
  2
*D28
340
0
  0
BLOCK_RECORD
  5
B2AA
330
1
100
AcDbSymbolTableRecord
100
AcDbBlockTableRecord
  2
*D29
340
0
  0
BLOCK_RECORD
  5
B33A
330
1
100
AcDbSymbolTableRecord
100
AcDbBlockTableRecord
  2
_DotSmall
340
0
102
{BLKREFS
331
BEA8
331
BEA9
102
}
  0
BLOCK_RECORD
  5
B3F1
330
1
100
AcDbSymbolTableRecord
100
AcDbBlockTableRecord
  2
*D31
340
0
  0
BLOCK_RECORD
  5
B3FD
330
1
100
AcDbSymbolTableRecord
100
AcDbBlockTableRecord
  2
*D32
340
0
  0
BLOCK_RECORD
  5
B409
330
1
100
AcDbSymbolTableRecord
100
AcDbBlockTableRecord
  2
*D33
340
0
  0
BLOCK_RECORD
  5
B413
330
1
100
AcDbSymbolTableRecord
100
AcDbBlockTableRecord
  2
*D34
340
0
  0
BLOCK_RECORD
  5
B468
330
1
100
AcDbSymbolTableRecord
100
AcDbBlockTableRecord
  2
*D35
340
0
  0
BLOCK_RECORD
  5
B5E9
330
1
100
AcDbSymbolTableRecord
100
AcDbBlockTableRecord
  2
*D36
340
0
  0
BLOCK_RECORD
  5
B74F
330
1
100
AcDbSymbolTableRecord
100
AcDbBlockTableRecord
  2
*D37
340
0
  0
BLOCK_RECORD
  5
B75B
330
1
100
AcDbSymbolTableRecord
100
AcDbBlockTableRecord
  2
*D38
340
0
  0
BLOCK_RECORD
  5
B767
330
1
100
AcDbSymbolTableRecord
100
AcDbBlockTableRecord
  2
*D39
340
0
  0
BLOCK_RECORD
  5
B773
330
1
100
AcDbSymbolTableRecord
100
AcDbBlockTableRecord
  2
*D40
340
0
  0
BLOCK_RECORD
  5
B77F
330
1
100
AcDbSymbolTableRecord
100
AcDbBlockTableRecord
  2
*D41
340
0
  0
BLOCK_RECORD
  5
B880
330
1
100
AcDbSymbolTableRecord
100
AcDbBlockTableRecord
  2
*D42
340
0
  0
BLOCK_RECORD
  5
B88D
330
1
100
AcDbSymbolTableRecord
100
AcDbBlockTableRecord
  2
*D43
340
0
  0
BLOCK_RECORD
  5
B8AC
330
1
100
AcDbSymbolTableRecord
100
AcDbBlockTableRecord
  2
*D44
340
0
  0
BLOCK_RECORD
  5
B8B9
330
1
100
AcDbSymbolTableRecord
100
AcDbBlockTableRecord
  2
*D45
340
0
  0
BLOCK_RECORD
  5
BB4F
330
1
100
AcDbSymbolTableRecord
100
AcDbBlockTableRecord
  2
*D46
340
0
  0
BLOCK_RECORD
  5
BB5B
330
1
100
AcDbSymbolTableRecord
100
AcDbBlockTableRecord
  2
*D47
340
0
  0
BLOCK_RECORD
  5
BB67
330
1
100
AcDbSymbolTableRecord
100
AcDbBlockTableRecord
  2
*D48
340
0
  0
BLOCK_RECORD
  5
BB73
330
1
100
AcDbSymbolTableRecord
100
AcDbBlockTableRecord
  2
*D49
340
0
  0
BLOCK_RECORD
  5
BBA7
330
1
100
AcDbSymbolTableRecord
100
AcDbBlockTableRecord
  2
*D50
340
0
  0
BLOCK_RECORD
  5
BBB3
330
1
100
AcDbSymbolTableRecord
100
AcDbBlockTableRecord
  2
*D51
340
0
  0
BLOCK_RECORD
  5
BBBF
330
1
100
AcDbSymbolTableRecord
100
AcDbBlockTableRecord
  2
*D52
340
0
  0
BLOCK_RECORD
  5
BBCB
330
1
100
AcDbSymbolTableRecord
100
AcDbBlockTableRecord
  2
*D53
340
0
  0
BLOCK_RECORD
  5
BCA2
330
1
100
AcDbSymbolTableRecord
100
AcDbBlockTableRecord
  2
*D54
340
0
  0
BLOCK_RECORD
  5
BCFC
330
1
100
AcDbSymbolTableRecord
100
AcDbBlockTableRecord
  2
*D55
340
0
  0
ENDTAB
  0
ENDSEC
  0
SECTION
  2
BLOCKS
  0
BLOCK
  5
1F
330
1E
100
AcDbEntity
  8
0
100
AcDbBlockBegin
  2
*Model_Space
 70
     0
 10
0.0
 20
0.0
 30
0.0
  3
*Model_Space
  1

  0
ENDBLK
  5
20
330
1E
100
AcDbEntity
  8
0
100
AcDbBlockEnd
  0
BLOCK
  5
1B
330
1A
100
AcDbEntity
 67
     1
  8
0
100
AcDbBlockBegin
  2
*Paper_Space
 70
     0
 10
0.0
 20
0.0
 30
0.0
  3
*Paper_Space
  1

  0
ENDBLK
  5
1C
330
1A
100
AcDbEntity
 67
     1
  8
0
100
AcDbBlockEnd
  0
BLOCK
  5
3B6
330
3B2
100
AcDbEntity
  8
0
100
AcDbBlockBegin
  2
_Open
 70
     0
 10
0.0
 20
0.0
 30
0.0
  3
_Open
  1

  0
LINE
  5
3B3
330
3B2
100
AcDbEntity
  8
30
  6
Continuous
 62
     0
370
    -2
100
AcDbLine
 10
-1.0
 20
0.1666666666666666
 30
0.0
 11
0.0
 21
0.0
 31
0.0
  0
LINE
  5
3B4
330
3B2
100
AcDbEntity
  8
30
  6
Continuous
 62
     0
370
    -2
100
AcDbLine
 10
-1.0
 20
-0.1666666666666666
 30
0.0
 11
0.0
 21
0.0
 31
0.0
  0
LINE
  5
3B5
330
3B2
100
AcDbEntity
  8
30
  6
Continuous
 62
     0
370
    -2
100
AcDbLine
 10
0.0
 20
0.0
 30
0.0
 11
-1.0
 21
0.0
 31
0.0
  0
ENDBLK
  5
3B7
330
3B2
100
AcDbEntity
  8
0
100
AcDbBlockEnd
  0
BLOCK
  5
4C18
330
4C0E
100
AcDbEntity
  8
0
100
AcDbBlockBegin
  2
*D1
 70
     1
 10
0.0
 20
0.0
 30
0.0
  3
*D1
  1

  0
LINE
  5
B93F
330
4C0E
100
AcDbEntity
  8
30
 62
     0
370
    -2
100
AcDbLine
 10
-1165.0
 20
1062.0
 30
0.0
 11
-1165.0
 21
947.3842652287068
 31
0.0
  0
LINE
  5
B940
330
4C0E
100
AcDbEntity
  8
30
 62
     0
370
    -2
100
AcDbLine
 10
-999.9999999999996
 20
990.0
 30
0.0
 11
-999.9999999999996
 21
947.3842652287068
 31
0.0
  0
LINE
  5
B941
330
4C0E
100
AcDbEntity
  8
30
 62
     0
370
    -2
100
AcDbLine
 10
-1160.0
 20
948.3842652287068
 30
0.0
 11
-1004.999999999999
 21
948.3842652287068
 31
0.0
  0
INSERT
  5
B942
330
4C0E
100
AcDbEntity
  8
30
 62
     0
370
    -2
100
AcDbBlockReference
  2
_Open
 10
-1165.0
 20
948.3842652287068
 30
0.0
 41
5.0
 42
5.0
 43
5.0
 50
180.0
  0
INSERT
  5
B943
330
4C0E
100
AcDbEntity
  8
30
 62
     0
370
    -2
100
AcDbBlockReference
  2
_Open
 10
-999.9999999999996
 20
948.3842652287068
 30
0.0
 41
5.0
 42
5.0
 43
5.0
  0
MTEXT
  5
B944
330
4C0E
100
AcDbEntity
  8
30
 62
     0
100
AcDbMText
 10
-1082.499999999998
 20
956.3842652287068
 30
0.0
 40
10.0
 41
0.0
 71
     5
 72
     1
  1
\A1;165
 73
     1
 44
1.0
1001
ACAD
1000
MTEXTBEGIN
1070
    73
1070
     1
1070
    44
1040
1.0
1070
    74
1070
     0
1000
MTEXTEND
  0
POINT
  5
B945
330
4C0E
100
AcDbEntity
  8
Defpoints
 62
     0
100
AcDbPoint
 10
-1165.0
 20
1072.0
 30
0.0
  0
POINT
  5
B946
330
4C0E
100
AcDbEntity
  8
Defpoints
 62
     0
100
AcDbPoint
 10
-999.9999999999996
 20
1000.0
 30
0.0
  0
POINT
  5
B947
330
4C0E
100
AcDbEntity
  8
Defpoints
 62
     0
100
AcDbPoint
 10
-999.9999999999996
 20
948.3842652287068
 30
0.0
  0
ENDBLK
  5
4C19
330
4C0E
100
AcDbEntity
  8
0
100
AcDbBlockEnd
  0
BLOCK
  5
4C24
330
4C1A
100
AcDbEntity
  8
0
100
AcDbBlockBegin
  2
*D2
 70
     1
 10
0.0
 20
0.0
 30
0.0
  3
*D2
  1

  0
LINE
  5
B936
330
4C1A
100
AcDbEntity
  8
30
 62
     0
370
    -2
100
AcDbLine
 10
-814.9999389999997
 20
1247.000122
 30
0.0
 11
-745.1453061497756
 21
1247.000122
 31
0.0
  0
LINE
  5
B937
330
4C1A
100
AcDbEntity
  8
30
 62
     0
370
    -2
100
AcDbLine
 10
-814.9999390000001
 20
1081.999999999996
 30
0.0
 11
-745.1453061497756
 21
1081.999999999996
 31
0.0
  0
LINE
  5
B938
330
4C1A
100
AcDbEntity
  8
30
 62
     0
370
    -2
100
AcDbLine
 10
-746.1453061497756
 20
1242.000122
 30
0.0
 11
-746.1453061497756
 21
1086.999999999997
 31
0.0
  0
INSERT
  5
B939
330
4C1A
100
AcDbEntity
  8
30
 62
     0
370
    -2
100
AcDbBlockReference
  2
_Open
 10
-746.1453061497756
 20
1247.000122
 30
0.0
 41
5.0
 42
5.0
 43
5.0
 50
90.0
  0
INSERT
  5
B93A
330
4C1A
100
AcDbEntity
  8
30
 62
     0
370
    -2
100
AcDbBlockReference
  2
_Open
 10
-746.1453061497756
 20
1081.999999999996
 30
0.0
 41
5.0
 42
5.0
 43
5.0
 50
270.0
  0
MTEXT
  5
B93B
330
4C1A
100
AcDbEntity
  8
30
 62
     0
100
AcDbMText
 10
-754.1453061497756
 20
1164.500060999998
 30
0.0
 40
10.0
 41
0.0
 71
     5
 72
     1
  1
\A1;165.000122
 11
0.0000000000000001
 21
1.0
 31
0.0
 73
     1
 44
1.0
1001
ACAD
1000
MTEXTBEGIN
1070
    73
1070
     1
1070
    44
1040
1.0
1070
    74
1070
     0
1000
MTEXTEND
  0
POINT
  5
B93C
330
4C1A
100
AcDbEntity
  8
Defpoints
 62
     0
100
AcDbPoint
 10
-824.9999389999997
 20
1247.000122
 30
0.0
  0
POINT
  5
B93D
330
4C1A
100
AcDbEntity
  8
Defpoints
 62
     0
100
AcDbPoint
 10
-824.9999390000001
 20
1081.999999999996
 30
0.0
  0
POINT
  5
B93E
330
4C1A
100
AcDbEntity
  8
Defpoints
 62
     0
100
AcDbPoint
 10
-746.1453061497756
 20
1081.999999999996
 30
0.0
  0
ENDBLK
  5
4C25
330
4C1A
100
AcDbEntity
  8
0
100
AcDbBlockEnd
  0
BLOCK
  5
5CA2
330
5C98
100
AcDbEntity
  8
0
100
AcDbBlockBegin
  2
*D3
 70
     1
 10
0.0
 20
0.0
 30
0.0
  3
*D3
  1

  0
LINE
  5
B948
330
5C98
100
AcDbEntity
  8
30
 62
     0
370
    -2
100
AcDbLine
 10
-817.9999389999997
 20
1081.999999999996
 30
0.0
 11
-744.6453061497757
 21
1081.999999999996
 31
0.0
  0
LINE
  5
B949
330
5C98
100
AcDbEntity
  8
30
 62
     0
370
    -2
100
AcDbLine
 10
-817.9999389999997
 20
1000.0
 30
0.0
 11
-744.6453061497757
 21
999.9999999999996
 31
0.0
  0
LINE
  5
B94A
330
5C98
100
AcDbEntity
  8
30
 62
     0
370
    -2
100
AcDbLine
 10
-745.6453061497756
 20
1076.999999999997
 30
0.0
 11
-745.6453061497756
 21
1004.999999999999
 31
0.0
  0
INSERT
  5
B94B
330
5C98
100
AcDbEntity
  8
30
 62
     0
370
    -2
100
AcDbBlockReference
  2
_Open
 10
-745.6453061497756
 20
1081.999999999996
 30
0.0
 41
5.0
 42
5.0
 43
5.0
 50
90.0
  0
INSERT
  5
B94C
330
5C98
100
AcDbEntity
  8
30
 62
     0
370
    -2
100
AcDbBlockReference
  2
_Open
 10
-745.6453061497756
 20
999.9999999999996
 30
0.0
 41
5.0
 42
5.0
 43
5.0
 50
270.0
  0
MTEXT
  5
B94D
330
5C98
100
AcDbEntity
  8
30
 62
     0
100
AcDbMText
 10
-753.6453061497756
 20
1040.999999999998
 30
0.0
 40
10.0
 41
0.0
 71
     5
 72
     1
  1
\A1;82
 11
0.0000000000000001
 21
1.0
 31
0.0
 73
     1
 44
1.0
1001
ACAD
1000
MTEXTBEGIN
1070
    73
1070
     1
1070
    44
1040
1.0
1070
    74
1070
     0
1000
MTEXTEND
  0
POINT
  5
B94E
330
5C98
100
AcDbEntity
  8
Defpoints
 62
     0
100
AcDbPoint
 10
-827.9999389999996
 20
1081.999999999996
 30
0.0
  0
POINT
  5
B94F
330
5C98
100
AcDbEntity
  8
Defpoints
 62
     0
100
AcDbPoint
 10
-827.9999389999996
 20
1000.0
 30
0.0
  0
POINT
  5
B950
330
5C98
100
AcDbEntity
  8
Defpoints
 62
     0
100
AcDbPoint
 10
-745.6453061497756
 20
999.9999999999996
 30
0.0
  0
ENDBLK
  5
5CA3
330
5C98
100
AcDbEntity
  8
0
100
AcDbBlockEnd
  0
BLOCK
  5
5CD3
330
5CC9
100
AcDbEntity
  8
0
100
AcDbBlockBegin
  2
*D4
 70
     1
 10
0.0
 20
0.0
 30
0.0
  3
*D4
  1

  0
LINE
  5
B951
330
5CC9
100
AcDbEntity
  8
30
 62
     0
370
    -2
100
AcDbLine
 10
-999.9999999999996
 20
988.0
 30
0.0
 11
-999.9999999999996
 21
947.3842652287068
 31
0.0
  0
LINE
  5
B952
330
5CC9
100
AcDbEntity
  8
30
 62
     0
370
    -2
100
AcDbLine
 10
-834.9999389999997
 20
1061.999999999998
 30
0.0
 11
-834.9999389999997
 21
947.3842652287068
 31
0.0
  0
LINE
  5
B953
330
5CC9
100
AcDbEntity
  8
30
 62
     0
370
    -2
100
AcDbLine
 10
-994.9999999999997
 20
948.3842652287068
 30
0.0
 11
-839.9999389999997
 21
948.3842652287068
 31
0.0
  0
INSERT
  5
B954
330
5CC9
100
AcDbEntity
  8
30
 62
     0
370
    -2
100
AcDbBlockReference
  2
_Open
 10
-999.9999999999996
 20
948.3842652287068
 30
0.0
 41
5.0
 42
5.0
 43
5.0
 50
180.0
  0
INSERT
  5
B955
330
5CC9
100
AcDbEntity
  8
30
 62
     0
370
    -2
100
AcDbBlockReference
  2
_Open
 10
-834.9999389999997
 20
948.3842652287068
 30
0.0
 41
5.0
 42
5.0
 43
5.0
  0
MTEXT
  5
B956
330
5CC9
100
AcDbEntity
  8
30
 62
     0
100
AcDbMText
 10
-917.4999694999996
 20
956.3842652287068
 30
0.0
 40
10.0
 41
0.0
 71
     5
 72
     1
  1
\A1;165.000061
 73
     1
 44
1.0
1001
ACAD
1000
MTEXTBEGIN
1070
    73
1070
     1
1070
    44
1040
1.0
1070
    74
1070
     0
1000
MTEXTEND
  0
POINT
  5
B957
330
5CC9
100
AcDbEntity
  8
Defpoints
 62
     0
100
AcDbPoint
 10
-999.9999999999996
 20
998.0
 30
0.0
  0
POINT
  5
B958
330
5CC9
100
AcDbEntity
  8
Defpoints
 62
     0
100
AcDbPoint
 10
-834.9999389999997
 20
1071.999999999998
 30
0.0
  0
POINT
  5
B959
330
5CC9
100
AcDbEntity
  8
Defpoints
 62
     0
100
AcDbPoint
 10
-834.9999389999997
 20
948.3842652287068
 30
0.0
  0
ENDBLK
  5
5CD4
330
5CC9
100
AcDbEntity
  8
0
100
AcDbBlockEnd
  0
BLOCK
  5
6DE0
330
6DD6
100
AcDbEntity
  8
0
100
AcDbBlockBegin
  2
*D5
 70
     1
 10
0.0
 20
0.0
 30
0.0
  3
*D5
  1

  0
LINE
  5
BDD3
330
6DD6
100
AcDbEntity
  8
30
 62
     0
370
    -2
100
AcDbLine
 10
-0.0001008250008147
 20
978.0
 30
0.0
 11
-0.000100825000816
 21
957.009101775302
 31
0.0
  0
LINE
  5
BDD4
330
6DD6
100
AcDbEntity
  8
30
 62
     0
370
    -2
100
AcDbLine
 10
118.999899174999
 20
978.0
 30
0.0
 11
118.999899174999
 21
957.009101775302
 31
0.0
  0
LINE
  5
BDD5
330
6DD6
100
AcDbEntity
  8
30
 62
     0
370
    -2
100
AcDbLine
 10
4.999899174999183
 20
958.0091017753019
 30
0.0
 11
113.9998991749989
 21
958.0091017753019
 31
0.0
  0
INSERT
  5
BDD6
330
6DD6
100
AcDbEntity
  8
30
 62
     0
370
    -2
100
AcDbBlockReference
  2
_Open
 10
-0.0001008250008159
 20
958.0091017753019
 30
0.0
 41
5.0
 42
5.0
 43
5.0
 50
180.0
  0
INSERT
  5
BDD7
330
6DD6
100
AcDbEntity
  8
30
 62
     0
370
    -2
100
AcDbBlockReference
  2
_Open
 10
118.999899174999
 20
958.0091017753019
 30
0.0
 41
5.0
 42
5.0
 43
5.0
  0
MTEXT
  5
BDD8
330
6DD6
100
AcDbEntity
  8
30
 62
     0
100
AcDbMText
 10
59.49989917499909
 20
966.0091017753019
 30
0.0
 40
10.0
 41
0.0
 71
     5
 72
     1
  1
\A1;119
 73
     1
 44
1.0
1001
ACAD
1000
MTEXTBEGIN
1070
    73
1070
     1
1070
    44
1040
1.0
1070
    74
1070
     0
1000
MTEXTEND
  0
POINT
  5
BDD9
330
6DD6
100
AcDbEntity
  8
Defpoints
 62
     0
100
AcDbPoint
 10
-0.0001008250008141
 20
988.0
 30
0.0
  0
POINT
  5
BDDA
330
6DD6
100
AcDbEntity
  8
Defpoints
 62
     0
100
AcDbPoint
 10
118.999899174999
 20
988.0
 30
0.0
  0
POINT
  5
BDDB
330
6DD6
100
AcDbEntity
  8
Defpoints
 62
     0
100
AcDbPoint
 10
118.999899174999
 20
958.0091017753019
 30
0.0
  0
ENDBLK
  5
6DE1
330
6DD6
100
AcDbEntity
  8
0
100
AcDbBlockEnd
  0
BLOCK
  5
6DED
330
6DE3
100
AcDbEntity
  8
0
100
AcDbBlockBegin
  2
*D6
 70
     1
 10
0.0
 20
0.0
 30
0.0
  3
*D6
  1

  0
LINE
  5
BDCA
330
6DE3
100
AcDbEntity
  8
30
 62
     0
370
    -2
100
AcDbLine
 10
-0.0001008250008147
 20
978.0
 30
0.0
 11
-0.000100825000816
 21
956.1757684419687
 31
0.0
  0
LINE
  5
BDCB
330
6DE3
100
AcDbEntity
  8
30
 62
     0
370
    -2
100
AcDbLine
 10
-119.0001008250008
 20
978.0
 30
0.0
 11
-119.0001008250008
 21
956.1757684419687
 31
0.0
  0
LINE
  5
BDCC
330
6DE3
100
AcDbEntity
  8
30
 62
     0
370
    -2
100
AcDbLine
 10
-5.000100825000814
 20
957.1757684419686
 30
0.0
 11
-114.0001008250008
 21
957.1757684419686
 31
0.0
  0
INSERT
  5
BDCD
330
6DE3
100
AcDbEntity
  8
30
 62
     0
370
    -2
100
AcDbBlockReference
  2
_Open
 10
-0.000100825000816
 20
957.1757684419686
 30
0.0
 41
5.0
 42
5.0
 43
5.0
  0
INSERT
  5
BDCE
330
6DE3
100
AcDbEntity
  8
30
 62
     0
370
    -2
100
AcDbBlockReference
  2
_Open
 10
-119.0001008250008
 20
957.1757684419686
 30
0.0
 41
5.0
 42
5.0
 43
5.0
 50
180.0
  0
MTEXT
  5
BDCF
330
6DE3
100
AcDbEntity
  8
30
 62
     0
100
AcDbMText
 10
-59.50010082500082
 20
965.1757684419687
 30
0.0
 40
10.0
 41
0.0
 71
     5
 72
     1
  1
\A1;119
 73
     1
 44
1.0
1001
ACAD
1000
MTEXTBEGIN
1070
    73
1070
     1
1070
    44
1040
1.0
1070
    74
1070
     0
1000
MTEXTEND
  0
POINT
  5
BDD0
330
6DE3
100
AcDbEntity
  8
Defpoints
 62
     0
100
AcDbPoint
 10
-0.0001008250008141
 20
988.0
 30
0.0
  0
POINT
  5
BDD1
330
6DE3
100
AcDbEntity
  8
Defpoints
 62
     0
100
AcDbPoint
 10
-119.0001008250008
 20
988.0
 30
0.0
  0
POINT
  5
BDD2
330
6DE3
100
AcDbEntity
  8
Defpoints
 62
     0
100
AcDbPoint
 10
-119.0001008250008
 20
957.1757684419686
 30
0.0
  0
ENDBLK
  5
6DEE
330
6DE3
100
AcDbEntity
  8
0
100
AcDbBlockEnd
  0
BLOCK
  5
9B10
330
9B06
100
AcDbEntity
  8
0
100
AcDbBlockBegin
  2
*D7
 70
     1
 10
0.0
 20
0.0
 30
0.0
  3
*D7
  1

  0
LINE
  5
BE5C
330
9B06
100
AcDbEntity
  8
30
 62
     0
370
    -2
100
AcDbLine
 10
-1000.0
 20
-110.0
 30
0.0
 11
-1000.0
 21
-183.3309887360001
 31
0.0
  0
LINE
  5
BE5D
330
9B06
100
AcDbEntity
  8
30
 62
     0
370
    -2
100
AcDbLine
 10
-1240.0
 20
-110.0
 30
0.0
 11
-1240.0
 21
-183.3309887360001
 31
0.0
  0
LINE
  5
BE5E
330
9B06
100
AcDbEntity
  8
30
 62
     0
370
    -2
100
AcDbLine
 10
-1005.0
 20
-182.3309887360001
 30
0.0
 11
-1235.0
 21
-182.3309887360001
 31
0.0
  0
MTEXT
  5
BE5F
330
9B06
100
AcDbEntity
  8
30
 62
     0
100
AcDbMText
 10
-1120.40545096
 20
-174.3309887360001
 30
0.0
 40
10.0
 41
0.0
 71
     5
 72
     1
  1
\A1;240
 73
     1
 44
1.0
1001
ACAD
1000
MTEXTBEGIN
1070
    73
1070
     1
1070
    44
1040
1.0
1070
    74
1070
     0
1000
MTEXTEND
  0
INSERT
  5
BE60
330
9B06
100
AcDbEntity
  8
30
 62
     0
370
    -2
100
AcDbBlockReference
  2
_Open
 10
-1000.0
 20
-182.3309887360001
 30
0.0
 41
5.0
 42
5.0
 43
5.0
  0
INSERT
  5
BE61
330
9B06
100
AcDbEntity
  8
30
 62
     0
370
    -2
100
AcDbBlockReference
  2
_Open
 10
-1240.0
 20
-182.3309887360001
 30
0.0
 41
5.0
 42
5.0
 43
5.0
 50
180.0
  0
POINT
  5
BE62
330
9B06
100
AcDbEntity
  8
Defpoints
 62
     0
100
AcDbPoint
 10
-1000.0
 20
-100.0
 30
0.0
  0
POINT
  5
BE63
330
9B06
100
AcDbEntity
  8
Defpoints
 62
     0
100
AcDbPoint
 10
-1240.0
 20
-100.0
 30
0.0
  0
POINT
  5
BE64
330
9B06
100
AcDbEntity
  8
Defpoints
 62
     0
100
AcDbPoint
 10
-1240.0
 20
-182.3309887360001
 30
0.0
  0
ENDBLK
  5
9B11
330
9B06
100
AcDbEntity
  8
0
100
AcDbBlockEnd
  0
BLOCK
  5
9B1C
330
9B12
100
AcDbEntity
  8
0
100
AcDbBlockBegin
  2
*D8
 70
     1
 10
0.0
 20
0.0
 30
0.0
  3
*D8
  1

  0
LINE
  5
BE53
330
9B12
100
AcDbEntity
  8
30
 62
     0
370
    -2
100
AcDbLine
 10
-1000.0
 20
-110.0
 30
0.0
 11
-1000.0
 21
-183.3309887360001
 31
0.0
  0
LINE
  5
BE54
330
9B12
100
AcDbEntity
  8
30
 62
     0
370
    -2
100
AcDbLine
 10
-760.0
 20
-110.0
 30
0.0
 11
-760.0
 21
-183.3309887360001
 31
0.0
  0
LINE
  5
BE55
330
9B12
100
AcDbEntity
  8
30
 62
     0
370
    -2
100
AcDbLine
 10
-995.0
 20
-182.3309887360001
 30
0.0
 11
-765.0
 21
-182.3309887360001
 31
0.0
  0
MTEXT
  5
BE56
330
9B12
100
AcDbEntity
  8
30
 62
     0
100
AcDbMText
 10
-883.9096663479999
 20
-174.3309887360001
 30
0.0
 40
10.0
 41
0.0
 71
     5
 72
     1
  1
\A1;240
 73
     1
 44
1.0
1001
ACAD
1000
MTEXTBEGIN
1070
    73
1070
     1
1070
    44
1040
1.0
1070
    74
1070
     0
1000
MTEXTEND
  0
INSERT
  5
BE57
330
9B12
100
AcDbEntity
  8
30
 62
     0
370
    -2
100
AcDbBlockReference
  2
_Open
 10
-1000.0
 20
-182.3309887360001
 30
0.0
 41
5.0
 42
5.0
 43
5.0
 50
180.0
  0
INSERT
  5
BE58
330
9B12
100
AcDbEntity
  8
30
 62
     0
370
    -2
100
AcDbBlockReference
  2
_Open
 10
-760.0
 20
-182.3309887360001
 30
0.0
 41
5.0
 42
5.0
 43
5.0
  0
POINT
  5
BE59
330
9B12
100
AcDbEntity
  8
Defpoints
 62
     0
100
AcDbPoint
 10
-1000.0
 20
-100.0
 30
0.0
  0
POINT
  5
BE5A
330
9B12
100
AcDbEntity
  8
Defpoints
 62
     0
100
AcDbPoint
 10
-760.0
 20
-100.0
 30
0.0
  0
POINT
  5
BE5B
330
9B12
100
AcDbEntity
  8
Defpoints
 62
     0
100
AcDbPoint
 10
-760.0
 20
-182.3309887360001
 30
0.0
  0
ENDBLK
  5
9B1D
330
9B12
100
AcDbEntity
  8
0
100
AcDbBlockEnd
  0
BLOCK
  5
9B64
330
9B5A
100
AcDbEntity
  8
0
100
AcDbBlockBegin
  2
*D9
 70
     1
 10
0.0
 20
0.0
 30
0.0
  3
*D9
  1

  0
LINE
  5
BE65
330
9B5A
100
AcDbEntity
  8
30
 62
     0
370
    -2
100
AcDbLine
 10
-1125.0
 20
20.0
 30
0.0
 11
-1125.0
 21
-69.34452665899994
 31
0.0
  0
LINE
  5
BE66
330
9B5A
100
AcDbEntity
  8
30
 62
     0
370
    -2
100
AcDbLine
 10
-875.0
 20
20.0
 30
0.0
 11
-875.0
 21
-69.34452665899994
 31
0.0
  0
LINE
  5
BE67
330
9B5A
100
AcDbEntity
  8
30
 62
     0
370
    -2
100
AcDbLine
 10
-1120.0
 20
-68.34452665899994
 30
0.0
 11
-880.0
 21
-68.34452665899994
 31
0.0
  0
MTEXT
  5
BE68
330
9B5A
100
AcDbEntity
  8
30
 62
     0
100
AcDbMText
 10
-996.0432078769999
 20
-60.34452665899994
 30
0.0
 40
10.0
 41
0.0
 71
     5
 72
     1
  1
\A1;250
 73
     1
 44
1.0
1001
ACAD
1000
MTEXTBEGIN
1070
    73
1070
     1
1070
    44
1040
1.0
1070
    74
1070
     0
1000
MTEXTEND
  0
INSERT
  5
BE69
330
9B5A
100
AcDbEntity
  8
30
 62
     0
370
    -2
100
AcDbBlockReference
  2
_Open
 10
-1125.0
 20
-68.34452665899994
 30
0.0
 41
5.0
 42
5.0
 43
5.0
 50
180.0
  0
INSERT
  5
BE6A
330
9B5A
100
AcDbEntity
  8
30
 62
     0
370
    -2
100
AcDbBlockReference
  2
_Open
 10
-875.0
 20
-68.34452665899994
 30
0.0
 41
5.0
 42
5.0
 43
5.0
  0
POINT
  5
BE6B
330
9B5A
100
AcDbEntity
  8
Defpoints
 62
     0
100
AcDbPoint
 10
-1125.0
 20
30.0
 30
0.0
  0
POINT
  5
BE6C
330
9B5A
100
AcDbEntity
  8
Defpoints
 62
     0
100
AcDbPoint
 10
-875.0
 20
30.0
 30
0.0
  0
POINT
  5
BE6D
330
9B5A
100
AcDbEntity
  8
Defpoints
 62
     0
100
AcDbPoint
 10
-875.0
 20
-68.34452665899994
 30
0.0
  0
ENDBLK
  5
9B65
330
9B5A
100
AcDbEntity
  8
0
100
AcDbBlockEnd
  0
BLOCK
  5
9B7C
330
9B72
100
AcDbEntity
  8
0
100
AcDbBlockBegin
  2
*D10
 70
     1
 10
0.0
 20
0.0
 30
0.0
  3
*D10
  1

  0
LINE
  5
BE40
330
9B72
100
AcDbEntity
  8
30
 62
     0
370
    -2
100
AcDbLine
 10
-865.0
 20
365.0
 30
0.0
 11
-807.2913262432066
 21
365.0
 31
0.0
  0
LINE
  5
BE41
330
9B72
100
AcDbEntity
  8
30
 62
     0
370
    -2
100
AcDbLine
 10
-865.0
 20
30.0
 30
0.0
 11
-807.291326243207
 21
29.99999999999998
 31
0.0
  0
LINE
  5
BE42
330
9B72
100
AcDbEntity
  8
30
 62
     0
370
    -2
100
AcDbLine
 10
-808.2913262432068
 20
360.0
 30
0.0
 11
-808.291326243207
 21
34.99999999999998
 31
0.0
  0
MTEXT
  5
BE43
330
9B72
100
AcDbEntity
  8
30
 62
     0
100
AcDbMText
 10
-816.2913262432066
 20
211.8006790989998
 30
0.0
 40
10.0
 41
0.0
 71
     5
 72
     1
  1
\A1;335
 11
0.0000000000000001
 21
1.0
 31
0.0
 73
     1
 44
1.0
1001
ACAD
1000
MTEXTBEGIN
1070
    73
1070
     1
1070
    44
1040
1.0
1070
    74
1070
     0
1000
MTEXTEND
  0
INSERT
  5
BE44
330
9B72
100
AcDbEntity
  8
30
 62
     0
370
    -2
100
AcDbBlockReference
  2
_Open
 10
-808.2913262432068
 20
365.0
 30
0.0
 41
5.0
 42
5.0
 43
5.0
 50
90.0
  0
INSERT
  5
BE45
330
9B72
100
AcDbEntity
  8
30
 62
     0
370
    -2
100
AcDbBlockReference
  2
_Open
 10
-808.291326243207
 20
29.99999999999998
 30
0.0
 41
5.0
 42
5.0
 43
5.0
 50
270.0
  0
POINT
  5
BE46
330
9B72
100
AcDbEntity
  8
Defpoints
 62
     0
100
AcDbPoint
 10
-875.0
 20
365.0
 30
0.0
  0
POINT
  5
BE47
330
9B72
100
AcDbEntity
  8
Defpoints
 62
     0
100
AcDbPoint
 10
-875.0
 20
30.0
 30
0.0
  0
POINT
  5
BE48
330
9B72
100
AcDbEntity
  8
Defpoints
 62
     0
100
AcDbPoint
 10
-808.291326243207
 20
29.99999999999998
 30
0.0
  0
ENDBLK
  5
9B7D
330
9B72
100
AcDbEntity
  8
0
100
AcDbBlockEnd
  0
BLOCK
  5
9B88
330
9B7E
100
AcDbEntity
  8
0
100
AcDbBlockBegin
  2
*D11
 70
     1
 10
0.0
 20
0.0
 30
0.0
  3
*D11
  1

  0
LINE
  5
BE37
330
9B7E
100
AcDbEntity
  8
30
 62
     0
370
    -2
100
AcDbLine
 10
-722.1500515649998
 20
-0.0000000000000028
 30
0.0
 11
-670.5211279634137
 21
-0.0000000000000175
 31
0.0
  0
LINE
  5
BE38
330
9B7E
100
AcDbEntity
  8
30
 62
     0
370
    -2
100
AcDbLine
 10
-750.0
 20
550.0
 30
0.0
 11
-670.5211279634137
 21
550.0
 31
0.0
  0
LINE
  5
BE39
330
9B7E
100
AcDbEntity
  8
30
 62
     0
370
    -2
100
AcDbLine
 10
-671.5211279634137
 20
4.999999999999983
 30
0.0
 11
-671.5211279634137
 21
545.0
 31
0.0
  0
MTEXT
  5
BE3A
330
9B7E
100
AcDbEntity
  8
30
 62
     0
100
AcDbMText
 10
-679.5211279634137
 20
265.959836774
 30
0.0
 40
10.0
 41
0.0
 71
     5
 72
     1
  1
\A1;550
 11
0.0000000000000001
 21
1.0
 31
0.0
 73
     1
 44
1.0
1001
ACAD
1000
MTEXTBEGIN
1070
    73
1070
     1
1070
    44
1040
1.0
1070
    74
1070
     0
1000
MTEXTEND
  0
INSERT
  5
BE3B
330
9B7E
100
AcDbEntity
  8
30
 62
     0
370
    -2
100
AcDbBlockReference
  2
_Open
 10
-671.5211279634137
 20
-0.0000000000000172
 30
0.0
 41
5.0
 42
5.0
 43
5.0
 50
270.0
  0
INSERT
  5
BE3C
330
9B7E
100
AcDbEntity
  8
30
 62
     0
370
    -2
100
AcDbBlockReference
  2
_Open
 10
-671.5211279634137
 20
550.0
 30
0.0
 41
5.0
 42
5.0
 43
5.0
 50
90.0
  0
POINT
  5
BE3D
330
9B7E
100
AcDbEntity
  8
Defpoints
 62
     0
100
AcDbPoint
 10
-732.150051565
 20
0.0
 30
0.0
  0
POINT
  5
BE3E
330
9B7E
100
AcDbEntity
  8
Defpoints
 62
     0
100
AcDbPoint
 10
-760.0
 20
550.0
 30
0.0
  0
POINT
  5
BE3F
330
9B7E
100
AcDbEntity
  8
Defpoints
 62
     0
100
AcDbPoint
 10
-671.5211279634137
 20
550.0
 30
0.0
  0
ENDBLK
  5
9B89
330
9B7E
100
AcDbEntity
  8
0
100
AcDbBlockEnd
  0
BLOCK
  5
9B94
330
9B8A
100
AcDbEntity
  8
0
100
AcDbBlockBegin
  2
*D12
 70
     1
 10
0.0
 20
0.0
 30
0.0
  3
*D12
  1

  0
LINE
  5
BE6E
330
9B8A
100
AcDbEntity
  8
30
 62
     0
370
    -2
100
AcDbLine
 10
-722.1500515649998
 20
-0.0000000000000028
 30
0.0
 11
-670.5211279634141
 21
-0.0000000000000175
 31
0.0
  0
LINE
  5
BE6F
330
9B8A
100
AcDbEntity
  8
30
 62
     0
370
    -2
100
AcDbLine
 10
-750.0
 20
-100.0
 30
0.0
 11
-670.5211279634141
 21
-100.0
 31
0.0
  0
LINE
  5
BE70
330
9B8A
100
AcDbEntity
  8
30
 62
     0
370
    -2
100
AcDbLine
 10
-671.5211279634141
 20
-5.000000000000016
 30
0.0
 11
-671.5211279634141
 21
-95.00000000000005
 31
0.0
  0
MTEXT
  5
BE71
330
9B8A
100
AcDbEntity
  8
30
 62
     0
100
AcDbMText
 10
-679.5211279634137
 20
-47.95708235300003
 30
0.0
 40
10.0
 41
0.0
 71
     5
 72
     1
  1
\A1;100
 11
0.0000000000000001
 21
1.0
 31
0.0
 73
     1
 44
1.0
1001
ACAD
1000
MTEXTBEGIN
1070
    73
1070
     1
1070
    44
1040
1.0
1070
    74
1070
     0
1000
MTEXTEND
  0
INSERT
  5
BE72
330
9B8A
100
AcDbEntity
  8
30
 62
     0
370
    -2
100
AcDbBlockReference
  2
_Open
 10
-671.5211279634141
 20
-0.0000000000000172
 30
0.0
 41
5.0
 42
5.0
 43
5.0
 50
90.0
  0
INSERT
  5
BE73
330
9B8A
100
AcDbEntity
  8
30
 62
     0
370
    -2
100
AcDbBlockReference
  2
_Open
 10
-671.5211279634141
 20
-100.0
 30
0.0
 41
5.0
 42
5.0
 43
5.0
 50
270.0
  0
POINT
  5
BE74
330
9B8A
100
AcDbEntity
  8
Defpoints
 62
     0
100
AcDbPoint
 10
-732.150051565
 20
0.0
 30
0.0
  0
POINT
  5
BE75
330
9B8A
100
AcDbEntity
  8
Defpoints
 62
     0
100
AcDbPoint
 10
-760.0
 20
-100.0
 30
0.0
  0
POINT
  5
BE76
330
9B8A
100
AcDbEntity
  8
Defpoints
 62
     0
100
AcDbPoint
 10
-671.5211279634141
 20
-100.0
 30
0.0
  0
ENDBLK
  5
9B95
330
9B8A
100
AcDbEntity
  8
0
100
AcDbBlockEnd
  0
BLOCK
  5
9BA1
330
9B96
100
AcDbEntity
  8
0
100
AcDbBlockBegin
  2
*D13
 70
     1
 10
0.0
 20
0.0
 30
0.0
  3
*D13
  1

  0
LINE
  5
BE49
330
9B96
100
AcDbEntity
  8
30
 62
     0
370
    -2
100
AcDbLine
 10
-865.0
 20
30.0
 30
0.0
 11
-807.291326243207
 21
29.99999999999998
 31
0.0
  0
LINE
  5
BE4A
330
9B96
100
AcDbEntity
  8
30
 62
     0
370
    -2
100
AcDbLine
 10
-742.150051565
 20
0.0000000000000028
 30
0.0
 11
-809.291326243207
 21
0.0000000000000219
 31
0.0
  0
LINE
  5
BE4B
330
9B96
100
AcDbEntity
  8
30
 62
     0
370
    -2
100
AcDbLine
 10
-808.291326243207
 20
24.99999999999998
 30
0.0
 11
-808.291326243207
 21
5.000000000000021
 31
0.0
  0
LINE
  5
BE4C
330
9B96
100
AcDbEntity
  8
30
 62
     0
370
    -2
100
AcDbLine
 10
-808.291326243207
 20
-35.89086825123819
 30
0.0
 11
-808.291326243207
 21
0.0000000000000216
 31
0.0
  0
MTEXT
  5
BE4D
330
9B96
100
AcDbEntity
  8
30
 62
     0
100
AcDbMText
 10
-816.291326243207
 20
-24.79563015600023
 30
0.0
 40
10.0
 41
0.0
 71
     5
 72
     1
  1
\A1;30
 11
0.0000000000000001
 21
1.0
 31
0.0
 73
     1
 44
1.0
1001
ACAD
1000
MTEXTBEGIN
1070
    73
1070
     1
1070
    44
1040
1.0
1070
    74
1070
     0
1000
MTEXTEND
  0
INSERT
  5
BE4E
330
9B96
100
AcDbEntity
  8
30
 62
     0
370
    -2
100
AcDbBlockReference
  2
_Open
 10
-808.291326243207
 20
29.99999999999998
 30
0.0
 41
5.0
 42
5.0
 43
5.0
 50
90.0
  0
INSERT
  5
BE4F
330
9B96
100
AcDbEntity
  8
30
 62
     0
370
    -2
100
AcDbBlockReference
  2
_Open
 10
-808.291326243207
 20
0.0000000000000216
 30
0.0
 41
5.0
 42
5.0
 43
5.0
 50
270.0
  0
POINT
  5
BE50
330
9B96
100
AcDbEntity
  8
Defpoints
 62
     0
100
AcDbPoint
 10
-875.0
 20
30.0
 30
0.0
  0
POINT
  5
BE51
330
9B96
100
AcDbEntity
  8
Defpoints
 62
     0
100
AcDbPoint
 10
-732.150051565
 20
0.0
 30
0.0
  0
POINT
  5
BE52
330
9B96
100
AcDbEntity
  8
Defpoints
 62
     0
100
AcDbPoint
 10
-808.291326243207
 20
0.0000000000000216
 30
0.0
  0
ENDBLK
  5
9BA2
330
9B96
100
AcDbEntity
  8
0
100
AcDbBlockEnd
  0
BLOCK
  5
9BDD
330
9BD3
100
AcDbEntity
  8
0
100
AcDbBlockBegin
  2
*D14
 70
     1
 10
0.0
 20
0.0
 30
0.0
  3
*D14
  1

  0
LINE
  5
BE2E
330
9BD3
100
AcDbEntity
  8
30
 62
     0
370
    -2
100
AcDbLine
 10
1106.0
 20
-48.39230421199999
 30
0.0
 11
1106.0
 21
-175.5762283559999
 31
0.0
  0
LINE
  5
BE2F
330
9BD3
100
AcDbEntity
  8
30
 62
     0
370
    -2
100
AcDbLine
 10
1078.0
 20
-122.2872557789999
 30
0.0
 11
1078.0
 21
-175.5762283559999
 31
0.0
  0
LINE
  5
BE30
330
9BD3
100
AcDbEntity
  8
30
 62
     0
370
    -2
100
AcDbLine
 10
1101.0
 20
-174.5762283559999
 30
0.0
 11
1083.0
 21
-174.5762283559999
 31
0.0
  0
MTEXT
  5
BE31
330
9BD3
100
AcDbEntity
  8
30
 62
     0
100
AcDbMText
 10
1093.139112677999
 20
-166.5762283559999
 30
0.0
 40
10.0
 41
0.0
 71
     5
 72
     1
  1
\A1;28
 73
     1
 44
1.0
1001
ACAD
1000
MTEXTBEGIN
1070
    73
1070
     1
1070
    44
1040
1.0
1070
    74
1070
     0
1000
MTEXTEND
  0
INSERT
  5
BE32
330
9BD3
100
AcDbEntity
  8
30
 62
     0
370
    -2
100
AcDbBlockReference
  2
_Open
 10
1106.0
 20
-174.5762283559999
 30
0.0
 41
5.0
 42
5.0
 43
5.0
  0
INSERT
  5
BE33
330
9BD3
100
AcDbEntity
  8
30
 62
     0
370
    -2
100
AcDbBlockReference
  2
_Open
 10
1078.0
 20
-174.5762283559999
 30
0.0
 41
5.0
 42
5.0
 43
5.0
 50
180.0
  0
POINT
  5
BE34
330
9BD3
100
AcDbEntity
  8
Defpoints
 62
     0
100
AcDbPoint
 10
1106.0
 20
-38.39230421199999
 30
0.0
  0
POINT
  5
BE35
330
9BD3
100
AcDbEntity
  8
Defpoints
 62
     0
100
AcDbPoint
 10
1078.0
 20
-112.2872557789999
 30
0.0
  0
POINT
  5
BE36
330
9BD3
100
AcDbEntity
  8
Defpoints
 62
     0
100
AcDbPoint
 10
1078.0
 20
-174.5762283559999
 30
0.0
  0
ENDBLK
  5
9BDE
330
9BD3
100
AcDbEntity
  8
0
100
AcDbBlockEnd
  0
BLOCK
  5
9BF5
330
9BEB
100
AcDbEntity
  8
0
100
AcDbBlockBegin
  2
*D15
 70
     1
 10
0.0
 20
0.0
 30
0.0
  3
*D15
  1

  0
LINE
  5
BE1B
330
9BEB
100
AcDbEntity
  8
30
 62
     0
370
    -2
100
AcDbLine
 10
978.0
 20
-122.2872557789999
 30
0.0
 11
978.0
 21
-175.3558023999999
 31
0.0
  0
LINE
  5
BE1C
330
9BEB
100
AcDbEntity
  8
30
 62
     0
370
    -2
100
AcDbLine
 10
1078.0
 20
-122.2872557789999
 30
0.0
 11
1078.0
 21
-175.3558023999999
 31
0.0
  0
LINE
  5
BE1D
330
9BEB
100
AcDbEntity
  8
30
 62
     0
370
    -2
100
AcDbLine
 10
983.0
 20
-174.3558023999999
 30
0.0
 11
1073.0
 21
-174.3558023999999
 31
0.0
  0
MTEXT
  5
BE1E
330
9BEB
100
AcDbEntity
  8
30
 62
     0
100
AcDbMText
 10
1030.592592592
 20
-166.3558023999999
 30
0.0
 40
10.0
 41
0.0
 71
     5
 72
     1
  1
\A1;100
 73
     1
 44
1.0
1001
ACAD
1000
MTEXTBEGIN
1070
    73
1070
     1
1070
    44
1040
1.0
1070
    74
1070
     0
1000
MTEXTEND
  0
INSERT
  5
BE1F
330
9BEB
100
AcDbEntity
  8
30
 62
     0
370
    -2
100
AcDbBlockReference
  2
_Open
 10
978.0
 20
-174.3558023999999
 30
0.0
 41
5.0
 42
5.0
 43
5.0
 50
180.0
  0
INSERT
  5
BE20
330
9BEB
100
AcDbEntity
  8
30
 62
     0
370
    -2
100
AcDbBlockReference
  2
_Open
 10
1078.0
 20
-174.3558023999999
 30
0.0
 41
5.0
 42
5.0
 43
5.0
  0
POINT
  5
BE21
330
9BEB
100
AcDbEntity
  8
Defpoints
 62
     0
100
AcDbPoint
 10
978.0
 20
-112.2872557789999
 30
0.0
  0
POINT
  5
BE22
330
9BEB
100
AcDbEntity
  8
Defpoints
 62
     0
100
AcDbPoint
 10
1078.0
 20
-112.2872557789999
 30
0.0
  0
POINT
  5
BE23
330
9BEB
100
AcDbEntity
  8
Defpoints
 62
     0
100
AcDbPoint
 10
1078.0
 20
-174.3558023999999
 30
0.0
  0
ENDBLK
  5
9BF6
330
9BEB
100
AcDbEntity
  8
0
100
AcDbBlockEnd
  0
BLOCK
  5
9C1A
330
9C0F
100
AcDbEntity
  8
0
100
AcDbBlockBegin
  2
*D16
 70
     1
 10
0.0
 20
0.0
 30
0.0
  3
*D16
  1

  0
LINE
  5
BE24
330
9C0F
100
AcDbEntity
  8
30
 62
     0
370
    -2
100
AcDbLine
 10
978.0
 20
-122.2872557789999
 30
0.0
 11
978.0
 21
-175.3558023999999
 31
0.0
  0
LINE
  5
BE25
330
9C0F
100
AcDbEntity
  8
30
 62
     0
370
    -2
100
AcDbLine
 10
941.0
 20
-29.12765978699985
 30
0.0
 11
941.0
 21
-175.3558023999999
 31
0.0
  0
LINE
  5
BE26
330
9C0F
100
AcDbEntity
  8
30
 62
     0
370
    -2
100
AcDbLine
 10
973.0
 20
-174.3558023999999
 30
0.0
 11
946.0
 21
-174.3558023999999
 31
0.0
  0
LINE
  5
BE27
330
9C0F
100
AcDbEntity
  8
30
 62
     0
370
    -2
100
AcDbLine
 10
903.2187789707617
 20
-174.3558023999999
 30
0.0
 11
941.0
 21
-174.3558023999999
 31
0.0
  0
MTEXT
  5
BE28
330
9C0F
100
AcDbEntity
  8
30
 62
     0
100
AcDbMText
 10
914.3140170659998
 20
-166.3558023999999
 30
0.0
 40
10.0
 41
0.0
 71
     5
 72
     1
  1
\A1;37
 73
     1
 44
1.0
1001
ACAD
1000
MTEXTBEGIN
1070
    73
1070
     1
1070
    44
1040
1.0
1070
    74
1070
     0
1000
MTEXTEND
  0
INSERT
  5
BE29
330
9C0F
100
AcDbEntity
  8
30
 62
     0
370
    -2
100
AcDbBlockReference
  2
_Open
 10
978.0
 20
-174.3558023999999
 30
0.0
 41
5.0
 42
5.0
 43
5.0
  0
INSERT
  5
BE2A
330
9C0F
100
AcDbEntity
  8
30
 62
     0
370
    -2
100
AcDbBlockReference
  2
_Open
 10
941.0
 20
-174.3558023999999
 30
0.0
 41
5.0
 42
5.0
 43
5.0
 50
180.0
  0
POINT
  5
BE2B
330
9C0F
100
AcDbEntity
  8
Defpoints
 62
     0
100
AcDbPoint
 10
978.0
 20
-112.2872557789999
 30
0.0
  0
POINT
  5
BE2C
330
9C0F
100
AcDbEntity
  8
Defpoints
 62
     0
100
AcDbPoint
 10
941.0
 20
-19.12765978699985
 30
0.0
  0
POINT
  5
BE2D
330
9C0F
100
AcDbEntity
  8
Defpoints
 62
     0
100
AcDbPoint
 10
941.0
 20
-174.3558023999999
 30
0.0
  0
ENDBLK
  5
9C1B
330
9C0F
100
AcDbEntity
  8
0
100
AcDbBlockEnd
  0
BLOCK
  5
9C86
330
9C7B
100
AcDbEntity
  8
0
100
AcDbBlockBegin
  2
*D17
 70
     1
 10
0.0
 20
0.0
 30
0.0
  3
*D17
  1

  0
LINE
  5
BDEE
330
9C7B
100
AcDbEntity
  8
30
 62
     0
370
    -2
100
AcDbLine
 10
1068.0
 20
441.9999999999998
 30
0.0
 11
1240.725593749999
 21
441.9999999999998
 31
0.0
  0
LINE
  5
BDEF
330
9C7B
100
AcDbEntity
  8
30
 62
     0
370
    -2
100
AcDbLine
 10
1076.0
 20
460.0
 30
0.0
 11
1240.725593749999
 21
459.9999999999998
 31
0.0
  0
LINE
  5
BDF0
330
9C7B
100
AcDbEntity
  8
30
 62
     0
370
    -2
100
AcDbLine
 10
1239.725593749999
 20
446.9999999999997
 30
0.0
 11
1239.725593749999
 21
454.9999999999998
 31
0.0
  0
MTEXT
  5
BDF1
330
9C7B
100
AcDbEntity
  8
30
 62
     0
100
AcDbMText
 10
1232.554533340105
 20
451.1011607721363
 30
0.0
 40
10.0
 41
0.0
 71
     5
 72
     1
  1
\A1;18
 11
0.0000000000000001
 21
1.0
 31
0.0
 73
     1
 44
1.0
1001
ACAD
1000
MTEXTBEGIN
1070
    73
1070
     1
1070
    44
1040
1.0
1070
    74
1070
     0
1000
MTEXTEND
  0
INSERT
  5
BDF2
330
9C7B
100
AcDbEntity
  8
30
 62
     0
370
    -2
100
AcDbBlockReference
  2
_Open
 10
1239.725593749999
 20
441.9999999999998
 30
0.0
 41
5.0
 42
5.0
 43
5.0
 50
270.0
  0
INSERT
  5
BDF3
330
9C7B
100
AcDbEntity
  8
30
 62
     0
370
    -2
100
AcDbBlockReference
  2
_Open
 10
1239.725593749999
 20
459.9999999999998
 30
0.0
 41
5.0
 42
5.0
 43
5.0
 50
90.0
  0
POINT
  5
BDF4
330
9C7B
100
AcDbEntity
  8
Defpoints
 62
     0
100
AcDbPoint
 10
1058.0
 20
441.9999999999998
 30
0.0
  0
POINT
  5
BDF5
330
9C7B
100
AcDbEntity
  8
Defpoints
 62
     0
100
AcDbPoint
 10
1066.0
 20
460.0
 30
0.0
  0
POINT
  5
BDF6
330
9C7B
100
AcDbEntity
  8
Defpoints
 62
     0
100
AcDbPoint
 10
1239.725593749999
 20
459.9999999999998
 30
0.0
  0
ENDBLK
  5
9C87
330
9C7B
100
AcDbEntity
  8
0
100
AcDbBlockEnd
  0
BLOCK
  5
9C92
330
9C88
100
AcDbEntity
  8
0
100
AcDbBlockBegin
  2
*D18
 70
     1
 10
0.0
 20
0.0
 30
0.0
  3
*D18
  1

  0
LINE
  5
BDE5
330
9C88
100
AcDbEntity
  8
30
 62
     0
370
    -2
100
AcDbLine
 10
991.0
 20
490.0000000000003
 30
0.0
 11
1351.0
 21
490.0000000000002
 31
0.0
  0
LINE
  5
BDE6
330
9C88
100
AcDbEntity
  8
30
 62
     0
370
    -2
100
AcDbLine
 10
1151.0
 20
-0.0000000000000028
 30
0.0
 11
1351.0
 21
-0.0000000000000595
 31
0.0
  0
LINE
  5
BDE7
330
9C88
100
AcDbEntity
  8
30
 62
     0
370
    -2
100
AcDbLine
 10
1350.0
 20
485.0000000000001
 30
0.0
 11
1350.0
 21
4.999999999999941
 31
0.0
  0
MTEXT
  5
BDE8
330
9C88
100
AcDbEntity
  8
30
 62
     0
100
AcDbMText
 10
1342.0
 20
244.9999999999997
 30
0.0
 40
10.0
 41
0.0
 71
     5
 72
     1
  1
\A1;490
 11
0.0000000000000001
 21
1.0
 31
0.0
 73
     1
 44
1.0
1001
ACAD
1000
MTEXTBEGIN
1070
    73
1070
     1
1070
    44
1040
1.0
1070
    74
1070
     0
1000
MTEXTEND
  0
INSERT
  5
BDE9
330
9C88
100
AcDbEntity
  8
30
 62
     0
370
    -2
100
AcDbBlockReference
  2
_Open
 10
1350.0
 20
490.0000000000002
 30
0.0
 41
5.0
 42
5.0
 43
5.0
 50
90.0
  0
INSERT
  5
BDEA
330
9C88
100
AcDbEntity
  8
30
 62
     0
370
    -2
100
AcDbBlockReference
  2
_Open
 10
1350.0
 20
-0.0000000000000592
 30
0.0
 41
5.0
 42
5.0
 43
5.0
 50
270.0
  0
POINT
  5
BDEB
330
9C88
100
AcDbEntity
  8
Defpoints
 62
     0
100
AcDbPoint
 10
981.0
 20
490.0000000000003
 30
0.0
  0
POINT
  5
BDEC
330
9C88
100
AcDbEntity
  8
Defpoints
 62
     0
100
AcDbPoint
 10
1141.0
 20
0.0
 30
0.0
  0
POINT
  5
BDED
330
9C88
100
AcDbEntity
  8
Defpoints
 62
     0
100
AcDbPoint
 10
1350.0
 20
-0.0000000000000592
 30
0.0
  0
ENDBLK
  5
9C93
330
9C88
100
AcDbEntity
  8
0
100
AcDbBlockEnd
  0
BLOCK
  5
9C9E
330
9C94
100
AcDbEntity
  8
0
100
AcDbBlockBegin
  2
*D19
 70
     1
 10
0.0
 20
0.0
 30
0.0
  3
*D19
  1

  0
LINE
  5
BE09
330
9C94
100
AcDbEntity
  8
30
 62
     0
370
    -2
100
AcDbLine
 10
837.0
 20
361.9999999999998
 30
0.0
 11
767.4562246197718
 21
361.9999999999998
 31
0.0
  0
LINE
  5
BE0A
330
9C94
100
AcDbEntity
  8
30
 62
     0
370
    -2
100
AcDbLine
 10
854.0
 20
32.99999999999975
 30
0.0
 11
767.4562246197718
 21
32.99999999999978
 31
0.0
  0
LINE
  5
BE0B
330
9C94
100
AcDbEntity
  8
30
 62
     0
370
    -2
100
AcDbLine
 10
768.4562246197717
 20
356.9999999999998
 30
0.0
 11
768.4562246197717
 21
37.99999999999978
 31
0.0
  0
MTEXT
  5
BE0C
330
9C94
100
AcDbEntity
  8
30
 62
     0
100
AcDbMText
 10
760.456224619772
 20
185.608429837
 30
0.0
 40
10.0
 41
0.0
 71
     5
 72
     1
  1
\A1;329
 11
0.0000000000000001
 21
1.0
 31
0.0
 73
     1
 44
1.0
1001
ACAD
1000
MTEXTBEGIN
1070
    73
1070
     1
1070
    44
1040
1.0
1070
    74
1070
     0
1000
MTEXTEND
  0
INSERT
  5
BE0D
330
9C94
100
AcDbEntity
  8
30
 62
     0
370
    -2
100
AcDbBlockReference
  2
_Open
 10
768.4562246197717
 20
361.9999999999998
 30
0.0
 41
5.0
 42
5.0
 43
5.0
 50
90.0
  0
INSERT
  5
BE0E
330
9C94
100
AcDbEntity
  8
30
 62
     0
370
    -2
100
AcDbBlockReference
  2
_Open
 10
768.4562246197717
 20
32.99999999999978
 30
0.0
 41
5.0
 42
5.0
 43
5.0
 50
270.0
  0
POINT
  5
BE0F
330
9C94
100
AcDbEntity
  8
Defpoints
 62
     0
100
AcDbPoint
 10
847.0
 20
361.9999999999998
 30
0.0
  0
POINT
  5
BE10
330
9C94
100
AcDbEntity
  8
Defpoints
 62
     0
100
AcDbPoint
 10
864.0
 20
32.99999999999975
 30
0.0
  0
POINT
  5
BE11
330
9C94
100
AcDbEntity
  8
Defpoints
 62
     0
100
AcDbPoint
 10
768.4562246197717
 20
32.99999999999978
 30
0.0
  0
ENDBLK
  5
9C9F
330
9C94
100
AcDbEntity
  8
0
100
AcDbBlockEnd
  0
BLOCK
  5
9CB6
330
9CAD
100
AcDbEntity
  8
0
100
AcDbBlockBegin
  2
*D20
 70
     1
 10
0.0
 20
0.0
 30
0.0
  3
*D20
  1

  0
LINE
  5
BE12
330
9CAD
100
AcDbEntity
  8
30
 62
     0
370
    -2
100
AcDbLine
 10
951.0
 20
550.0
 30
0.0
 11
725.0960629859137
 21
550.0
 31
0.0
  0
LINE
  5
BE13
330
9CAD
100
AcDbEntity
  8
30
 62
     0
370
    -2
100
AcDbLine
 10
911.0
 20
0.0000000000000028
 30
0.0
 11
725.0960629859137
 21
0.0000000000000555
 31
0.0
  0
LINE
  5
BE14
330
9CAD
100
AcDbEntity
  8
30
 62
     0
370
    -2
100
AcDbLine
 10
726.0960629859137
 20
545.0000000000001
 30
0.0
 11
726.0960629859137
 21
5.000000000000055
 31
0.0
  0
MTEXT
  5
BE15
330
9CAD
100
AcDbEntity
  8
30
 62
     0
100
AcDbMText
 10
718.0960629859137
 20
275.0
 30
0.0
 40
10.0
 41
0.0
 71
     5
 72
     1
  1
\A1;550 
 11
0.0000000000000001
 21
1.0
 31
0.0
 73
     1
 44
1.0
1001
ACAD
1000
MTEXTBEGIN
1070
    73
1070
     1
1070
    44
1040
1.0
1070
    74
1070
     0
1000
MTEXTEND
  0
INSERT
  5
BE16
330
9CAD
100
AcDbEntity
  8
30
 62
     0
370
    -2
100
AcDbBlockReference
  2
_Open
 10
726.0960629859137
 20
550.0
 30
0.0
 41
5.0
 42
5.0
 43
5.0
 50
90.0
  0
INSERT
  5
BE17
330
9CAD
100
AcDbEntity
  8
30
 62
     0
370
    -2
100
AcDbBlockReference
  2
_Open
 10
726.0960629859137
 20
0.0000000000000552
 30
0.0
 41
5.0
 42
5.0
 43
5.0
 50
270.0
  0
POINT
  5
BE18
330
9CAD
100
AcDbEntity
  8
Defpoints
 62
     0
100
AcDbPoint
 10
961.0
 20
550.0
 30
0.0
  0
POINT
  5
BE19
330
9CAD
100
AcDbEntity
  8
Defpoints
 62
     0
100
AcDbPoint
 10
921.0
 20
0.0
 30
0.0
  0
POINT
  5
BE1A
330
9CAD
100
AcDbEntity
  8
Defpoints
 62
     0
100
AcDbPoint
 10
726.0960629859137
 20
0.0000000000000552
 30
0.0
  0
ENDBLK
  5
9CB7
330
9CAD
100
AcDbEntity
  8
0
100
AcDbBlockEnd
  0
BLOCK
  5
9CC3
330
9CB8
100
AcDbEntity
  8
0
100
AcDbBlockBegin
  2
*D21
 70
     1
 10
0.0
 20
0.0
 30
0.0
  3
*D21
  1

  0
LINE
  5
BE77
330
9CB8
100
AcDbEntity
  8
30
 62
     0
370
    -2
100
AcDbLine
 10
854.0
 20
32.99999999999975
 30
0.0
 11
767.4562246197718
 21
32.99999999999978
 31
0.0
  0
LINE
  5
BE78
330
9CB8
100
AcDbEntity
  8
30
 62
     0
370
    -2
100
AcDbLine
 10
911.0
 20
0.0000000000000028
 30
0.0
 11
767.4562246197718
 21
0.0000000000000435
 31
0.0
  0
LINE
  5
BE79
330
9CB8
100
AcDbEntity
  8
30
 62
     0
370
    -2
100
AcDbLine
 10
768.4562246197717
 20
27.99999999999978
 30
0.0
 11
768.4562246197717
 21
5.000000000000042
 31
0.0
  0
MTEXT
  5
BE7A
330
9CB8
100
AcDbEntity
  8
30
 62
     0
100
AcDbMText
 10
760.456224619772
 20
17.24416644114601
 30
0.0
 40
10.0
 41
0.0
 71
     5
 72
     1
  1
\A1;33
 11
0.0000000000000001
 21
1.0
 31
0.0
 73
     1
 44
1.0
1001
ACAD
1000
MTEXTBEGIN
1070
    73
1070
     1
1070
    44
1040
1.0
1070
    74
1070
     0
1000
MTEXTEND
  0
INSERT
  5
BE7B
330
9CB8
100
AcDbEntity
  8
30
 62
     0
370
    -2
100
AcDbBlockReference
  2
_Open
 10
768.4562246197717
 20
32.99999999999978
 30
0.0
 41
5.0
 42
5.0
 43
5.0
 50
90.0
  0
INSERT
  5
BE7C
330
9CB8
100
AcDbEntity
  8
30
 62
     0
370
    -2
100
AcDbBlockReference
  2
_Open
 10
768.4562246197717
 20
0.0000000000000432
 30
0.0
 41
5.0
 42
5.0
 43
5.0
 50
270.0
  0
POINT
  5
BE7D
330
9CB8
100
AcDbEntity
  8
Defpoints
 62
     0
100
AcDbPoint
 10
864.0
 20
32.99999999999975
 30
0.0
  0
POINT
  5
BE7E
330
9CB8
100
AcDbEntity
  8
Defpoints
 62
     0
100
AcDbPoint
 10
921.0
 20
0.0
 30
0.0
  0
POINT
  5
BE7F
330
9CB8
100
AcDbEntity
  8
Defpoints
 62
     0
100
AcDbPoint
 10
768.4562246197717
 20
0.0000000000000432
 30
0.0
  0
ENDBLK
  5
9CC4
330
9CB8
100
AcDbEntity
  8
0
100
AcDbBlockEnd
  0
BLOCK
  5
9CE8
330
9CDE
100
AcDbEntity
  8
0
100
AcDbBlockBegin
  2
*D22
 70
     1
 10
0.0
 20
0.0
 30
0.0
  3
*D22
  1

  0
LINE
  5
BDF7
330
9CDE
100
AcDbEntity
  8
30
 62
     0
370
    -2
100
AcDbLine
 10
1058.0
 20
451.9999999999998
 30
0.0
 11
1058.0
 21
596.4335693581047
 31
0.0
  0
LINE
  5
BDF8
330
9CDE
100
AcDbEntity
  8
30
 62
     0
370
    -2
100
AcDbLine
 10
859.0
 20
481.9999999999997
 30
0.0
 11
859.0
 21
596.4335693581047
 31
0.0
  0
LINE
  5
BDF9
330
9CDE
100
AcDbEntity
  8
30
 62
     0
370
    -2
100
AcDbLine
 10
1053.0
 20
595.4335693581048
 30
0.0
 11
864.0
 21
595.4335693581048
 31
0.0
  0
MTEXT
  5
BDFA
330
9CDE
100
AcDbEntity
  8
30
 62
     0
100
AcDbMText
 10
955.02872842019
 20
602.4335693581048
 30
0.0
 40
10.0
 41
0.0
 71
     5
 72
     1
  1
\A1;199
 73
     1
 44
1.0
1001
ACAD
1000
MTEXTBEGIN
1070
    73
1070
     1
1070
    44
1040
1.0
1070
    74
1070
     0
1000
MTEXTEND
  0
INSERT
  5
BDFB
330
9CDE
100
AcDbEntity
  8
30
 62
     0
370
    -2
100
AcDbBlockReference
  2
_Open
 10
1058.0
 20
595.4335693581048
 30
0.0
 41
5.0
 42
5.0
 43
5.0
  0
INSERT
  5
BDFC
330
9CDE
100
AcDbEntity
  8
30
 62
     0
370
    -2
100
AcDbBlockReference
  2
_Open
 10
859.0
 20
595.4335693581048
 30
0.0
 41
5.0
 42
5.0
 43
5.0
 50
180.0
  0
POINT
  5
BDFD
330
9CDE
100
AcDbEntity
  8
Defpoints
 62
     0
100
AcDbPoint
 10
1058.0
 20
441.9999999999998
 30
0.0
  0
POINT
  5
BDFE
330
9CDE
100
AcDbEntity
  8
Defpoints
 62
     0
100
AcDbPoint
 10
859.0
 20
471.9999999999997
 30
0.0
  0
POINT
  5
BDFF
330
9CDE
100
AcDbEntity
  8
Defpoints
 62
     0
100
AcDbPoint
 10
859.0
 20
595.4335693581048
 30
0.0
  0
ENDBLK
  5
9CE9
330
9CDE
100
AcDbEntity
  8
0
100
AcDbBlockEnd
  0
BLOCK
  5
9D0E
330
9D04
100
AcDbEntity
  8
0
100
AcDbBlockBegin
  2
*D23
 70
     1
 10
0.0
 20
0.0
 30
0.0
  3
*D23
  1

  0
LINE
  5
BDDC
330
9D04
100
AcDbEntity
  8
30
 62
     0
370
    -2
100
AcDbLine
 10
1076.0
 20
460.0
 30
0.0
 11
1322.0
 21
459.9999999999998
 31
0.0
  0
LINE
  5
BDDD
330
9D04
100
AcDbEntity
  8
30
 62
     0
370
    -2
100
AcDbLine
 10
1151.0
 20
-0.0000000000000028
 30
0.0
 11
1322.0
 21
-0.0000000000000513
 31
0.0
  0
LINE
  5
BDDE
330
9D04
100
AcDbEntity
  8
30
 62
     0
370
    -2
100
AcDbLine
 10
1321.0
 20
454.9999999999998
 30
0.0
 11
1321.0
 21
4.999999999999949
 31
0.0
  0
MTEXT
  5
BDDF
330
9D04
100
AcDbEntity
  8
30
 62
     0
100
AcDbMText
 10
1313.0
 20
229.9999999999999
 30
0.0
 40
10.0
 41
0.0
 71
     5
 72
     1
  1
\A1;460
 11
0.0000000000000001
 21
1.0
 31
0.0
 73
     1
 44
1.0
1001
ACAD
1000
MTEXTBEGIN
1070
    73
1070
     1
1070
    44
1040
1.0
1070
    74
1070
     0
1000
MTEXTEND
  0
INSERT
  5
BDE0
330
9D04
100
AcDbEntity
  8
30
 62
     0
370
    -2
100
AcDbBlockReference
  2
_Open
 10
1321.0
 20
459.9999999999998
 30
0.0
 41
5.0
 42
5.0
 43
5.0
 50
90.0
  0
INSERT
  5
BDE1
330
9D04
100
AcDbEntity
  8
30
 62
     0
370
    -2
100
AcDbBlockReference
  2
_Open
 10
1321.0
 20
-0.000000000000051
 30
0.0
 41
5.0
 42
5.0
 43
5.0
 50
270.0
  0
POINT
  5
BDE2
330
9D04
100
AcDbEntity
  8
Defpoints
 62
     0
100
AcDbPoint
 10
1066.0
 20
460.0
 30
0.0
  0
POINT
  5
BDE3
330
9D04
100
AcDbEntity
  8
Defpoints
 62
     0
100
AcDbPoint
 10
1141.0
 20
0.0
 30
0.0
  0
POINT
  5
BDE4
330
9D04
100
AcDbEntity
  8
Defpoints
 62
     0
100
AcDbPoint
 10
1321.0
 20
-0.000000000000051
 30
0.0
  0
ENDBLK
  5
9D0F
330
9D04
100
AcDbEntity
  8
0
100
AcDbBlockEnd
  0
BLOCK
  5
9D35
330
9D2A
100
AcDbEntity
  8
0
100
AcDbBlockBegin
  2
*D24
 70
     1
 10
0.0
 20
0.0
 30
0.0
  3
*D24
  1

  0
LINE
  5
BE00
330
9D2A
100
AcDbEntity
  8
30
 62
     0
370
    -2
100
AcDbLine
 10
1136.0
 20
34.99999999999998
 30
0.0
 11
1249.104021733264
 21
34.99999999999996
 31
0.0
  0
LINE
  5
BE01
330
9D2A
100
AcDbEntity
  8
30
 62
     0
370
    -2
100
AcDbLine
 10
1174.0
 20
-0.0000000000000028
 30
0.0
 11
1249.104021733264
 21
-0.0000000000000241
 31
0.0
  0
LINE
  5
BE02
330
9D2A
100
AcDbEntity
  8
30
 62
     0
370
    -2
100
AcDbLine
 10
1248.104021733264
 20
29.99999999999996
 30
0.0
 11
1248.104021733264
 21
4.999999999999976
 31
0.0
  0
MTEXT
  5
BE03
330
9D2A
100
AcDbEntity
  8
30
 62
     0
100
AcDbMText
 10
1239.104021733264
 20
17.82298464493464
 30
0.0
 40
10.0
 41
0.0
 71
     5
 72
     1
  1
\A1;35
 11
0.0000000000000001
 21
1.0
 31
0.0
 73
     1
 44
1.0
1001
ACAD
1000
MTEXTBEGIN
1070
    73
1070
     1
1070
    44
1040
1.0
1070
    74
1070
     0
1000
MTEXTEND
  0
INSERT
  5
BE04
330
9D2A
100
AcDbEntity
  8
30
 62
     0
370
    -2
100
AcDbBlockReference
  2
_Open
 10
1248.104021733264
 20
34.99999999999996
 30
0.0
 41
5.0
 42
5.0
 43
5.0
 50
90.0
  0
INSERT
  5
BE05
330
9D2A
100
AcDbEntity
  8
30
 62
     0
370
    -2
100
AcDbBlockReference
  2
_Open
 10
1248.104021733264
 20
-0.0000000000000238
 30
0.0
 41
5.0
 42
5.0
 43
5.0
 50
270.0
  0
POINT
  5
BE06
330
9D2A
100
AcDbEntity
  8
Defpoints
 62
     0
100
AcDbPoint
 10
1126.0
 20
35.0
 30
0.0
  0
POINT
  5
BE07
330
9D2A
100
AcDbEntity
  8
Defpoints
 62
     0
100
AcDbPoint
 10
1164.0
 20
0.0
 30
0.0
  0
POINT
  5
BE08
330
9D2A
100
AcDbEntity
  8
Defpoints
 62
     0
100
AcDbPoint
 10
1248.104021733264
 20
-0.0000000000000238
 30
0.0
  0
ENDBLK
  5
9D36
330
9D2A
100
AcDbEntity
  8
0
100
AcDbBlockEnd
  0
BLOCK
  5
AD6D
330
AD63
100
AcDbEntity
  8
0
100
AcDbBlockBegin
  2
*D25
 70
     1
 10
0.0
 20
0.0
 30
0.0
  3
*D25
  1

  0
LINE
  5
BE89
330
AD63
100
AcDbEntity
  8
30
 62
     0
370
    -2
100
AcDbLine
 10
1915.0
 20
538.997400984
 30
0.0
 11
1915.0
 21
572.2650820209999
 31
0.0
  0
LINE
  5
BE8A
330
AD63
100
AcDbEntity
  8
30
 62
     0
370
    -2
100
AcDbLine
 10
2000.0
 20
538.6787719999999
 30
0.0
 11
2000.0
 21
572.2650820209999
 31
0.0
  0
LINE
  5
BE8B
330
AD63
100
AcDbEntity
  8
30
 62
     0
370
    -2
100
AcDbLine
 10
1920.0
 20
571.2650820209999
 30
0.0
 11
1995.0
 21
571.2650820209999
 31
0.0
  0
MTEXT
  5
BE8C
330
AD63
100
AcDbEntity
  8
30
 62
     0
100
AcDbMText
 10
1957.220238844
 20
579.2650820209997
 30
0.0
 40
10.0
 41
0.0
 71
     5
 72
     1
  1
\A1;85
 73
     1
 44
1.0
1001
ACAD
1000
MTEXTBEGIN
1070
    73
1070
     1
1070
    44
1040
1.0
1070
    74
1070
     0
1000
MTEXTEND
  0
INSERT
  5
BE8D
330
AD63
100
AcDbEntity
  8
30
 62
     0
370
    -2
100
AcDbBlockReference
  2
_Open
 10
1915.0
 20
571.2650820209999
 30
0.0
 41
5.0
 42
5.0
 43
5.0
 50
180.0
  0
INSERT
  5
BE8E
330
AD63
100
AcDbEntity
  8
30
 62
     0
370
    -2
100
AcDbBlockReference
  2
_Open
 10
2000.0
 20
571.2650820209999
 30
0.0
 41
5.0
 42
5.0
 43
5.0
  0
POINT
  5
BE8F
330
AD63
100
AcDbEntity
  8
Defpoints
 62
     0
100
AcDbPoint
 10
1915.0
 20
528.997400984
 30
0.0
  0
POINT
  5
BE90
330
AD63
100
AcDbEntity
  8
Defpoints
 62
     0
100
AcDbPoint
 10
2000.0
 20
528.6787719999998
 30
0.0
  0
POINT
  5
BE91
330
AD63
100
AcDbEntity
  8
Defpoints
 62
     0
100
AcDbPoint
 10
2000.0
 20
571.2650820209999
 30
0.0
  0
ENDBLK
  5
AD6E
330
AD63
100
AcDbEntity
  8
0
100
AcDbBlockEnd
  0
BLOCK
  5
AE94
330
AE8A
100
AcDbEntity
  8
0
100
AcDbBlockBegin
  2
*D26
 70
     1
 10
0.0
 20
0.0
 30
0.0
  3
*D26
  1

  0
LINE
  5
BE80
330
AE8A
100
AcDbEntity
  8
30
 62
     0
370
    -2
100
AcDbLine
 10
2000.0
 20
538.6787719999999
 30
0.0
 11
2000.0
 21
572.2650820209999
 31
0.0
  0
LINE
  5
BE81
330
AE8A
100
AcDbEntity
  8
30
 62
     0
370
    -2
100
AcDbLine
 10
2085.0
 20
538.997400984
 30
0.0
 11
2085.0
 21
572.2650820209999
 31
0.0
  0
LINE
  5
BE82
330
AE8A
100
AcDbEntity
  8
30
 62
     0
370
    -2
100
AcDbLine
 10
2005.0
 20
571.2650820209999
 30
0.0
 11
2080.0
 21
571.2650820209999
 31
0.0
  0
MTEXT
  5
BE83
330
AE8A
100
AcDbEntity
  8
30
 62
     0
100
AcDbMText
 10
2039.697849705
 20
579.2650820209997
 30
0.0
 40
10.0
 41
0.0
 71
     5
 72
     1
  1
\A1;85
 73
     1
 44
1.0
1001
ACAD
1000
MTEXTBEGIN
1070
    73
1070
     1
1070
    44
1040
1.0
1070
    74
1070
     0
1000
MTEXTEND
  0
INSERT
  5
BE84
330
AE8A
100
AcDbEntity
  8
30
 62
     0
370
    -2
100
AcDbBlockReference
  2
_Open
 10
2000.0
 20
571.2650820209999
 30
0.0
 41
5.0
 42
5.0
 43
5.0
 50
180.0
  0
INSERT
  5
BE85
330
AE8A
100
AcDbEntity
  8
30
 62
     0
370
    -2
100
AcDbBlockReference
  2
_Open
 10
2085.0
 20
571.2650820209999
 30
0.0
 41
5.0
 42
5.0
 43
5.0
  0
POINT
  5
BE86
330
AE8A
100
AcDbEntity
  8
Defpoints
 62
     0
100
AcDbPoint
 10
2000.0
 20
528.6787719999998
 30
0.0
  0
POINT
  5
BE87
330
AE8A
100
AcDbEntity
  8
Defpoints
 62
     0
100
AcDbPoint
 10
2085.0
 20
528.997400984
 30
0.0
  0
POINT
  5
BE88
330
AE8A
100
AcDbEntity
  8
Defpoints
 62
     0
100
AcDbPoint
 10
2085.0
 20
571.2650820209999
 30
0.0
  0
ENDBLK
  5
AE95
330
AE8A
100
AcDbEntity
  8
0
100
AcDbBlockEnd
  0
BLOCK
  5
B29C
330
B292
100
AcDbEntity
  8
0
100
AcDbBlockBegin
  2
*D27
 70
     1
 10
0.0
 20
0.0
 30
0.0
  3
*D27
  1

  0
LINE
  5
BE92
330
B292
100
AcDbEntity
  8
30
 62
     0
370
    -2
100
AcDbLine
 10
1234.0
 20
137.9999999999997
 30
0.0
 11
1291.252270915998
 21
137.9999999999997
 31
0.0
  0
LINE
  5
BE93
330
B292
100
AcDbEntity
  8
30
 62
     0
370
    -2
100
AcDbLine
 10
1151.0
 20
-0.0000000000000028
 30
0.0
 11
1291.252270915998
 21
-0.0000000000000426
 31
0.0
  0
LINE
  5
BE94
330
B292
100
AcDbEntity
  8
30
 62
     0
370
    -2
100
AcDbLine
 10
1290.252270915998
 20
132.9999999999996
 30
0.0
 11
1290.252270915998
 21
4.999999999999957
 31
0.0
  0
MTEXT
  5
BE95
330
B292
100
AcDbEntity
  8
30
 62
     0
100
AcDbMText
 10
1282.252270916
 20
75.92028629100015
 30
0.0
 40
10.0
 41
0.0
 71
     5
 72
     1
  1
\A1;138
 11
0.0000000000000001
 21
1.0
 31
0.0
 73
     1
 44
1.0
1001
ACAD
1000
MTEXTBEGIN
1070
    73
1070
     1
1070
    44
1040
1.0
1070
    74
1070
     0
1000
MTEXTEND
  0
INSERT
  5
BE96
330
B292
100
AcDbEntity
  8
30
 62
     0
370
    -2
100
AcDbBlockReference
  2
_Open
 10
1290.252270915998
 20
137.9999999999997
 30
0.0
 41
5.0
 42
5.0
 43
5.0
 50
90.0
  0
INSERT
  5
BE97
330
B292
100
AcDbEntity
  8
30
 62
     0
370
    -2
100
AcDbBlockReference
  2
_Open
 10
1290.252270915998
 20
-0.0000000000000423
 30
0.0
 41
5.0
 42
5.0
 43
5.0
 50
270.0
  0
POINT
  5
BE98
330
B292
100
AcDbEntity
  8
Defpoints
 62
     0
100
AcDbPoint
 10
1224.0
 20
137.9999999999997
 30
0.0
  0
POINT
  5
BE99
330
B292
100
AcDbEntity
  8
Defpoints
 62
     0
100
AcDbPoint
 10
1141.0
 20
0.0
 30
0.0
  0
POINT
  5
BE9A
330
B292
100
AcDbEntity
  8
Defpoints
 62
     0
100
AcDbPoint
 10
1290.252270915998
 20
-0.0000000000000423
 30
0.0
  0
ENDBLK
  5
B29D
330
B292
100
AcDbEntity
  8
0
100
AcDbBlockEnd
  0
BLOCK
  5
B2A8
330
B29E
100
AcDbEntity
  8
0
100
AcDbBlockBegin
  2
*D28
 70
     1
 10
0.0
 20
0.0
 30
0.0
  3
*D28
  1

  0
LINE
  5
BE9B
330
B29E
100
AcDbEntity
  8
30
 62
     0
370
    -2
100
AcDbLine
 10
1244.0
 20
311.9999999999998
 30
0.0
 11
1291.252270915998
 21
311.9999999999998
 31
0.0
  0
LINE
  5
BE9C
330
B29E
100
AcDbEntity
  8
30
 62
     0
370
    -2
100
AcDbLine
 10
1234.0
 20
137.9999999999997
 30
0.0
 11
1291.252270915998
 21
137.9999999999997
 31
0.0
  0
LINE
  5
BE9D
330
B29E
100
AcDbEntity
  8
30
 62
     0
370
    -2
100
AcDbLine
 10
1290.252270915998
 20
306.9999999999998
 30
0.0
 11
1290.252270915998
 21
142.9999999999996
 31
0.0
  0
MTEXT
  5
BE9E
330
B29E
100
AcDbEntity
  8
30
 62
     0
100
AcDbMText
 10
1282.252270916
 20
220.5808001459995
 30
0.0
 40
10.0
 41
0.0
 71
     5
 72
     1
  1
\A1;174
 11
0.0000000000000001
 21
1.0
 31
0.0
 73
     1
 44
1.0
1001
ACAD
1000
MTEXTBEGIN
1070
    73
1070
     1
1070
    44
1040
1.0
1070
    74
1070
     0
1000
MTEXTEND
  0
INSERT
  5
BE9F
330
B29E
100
AcDbEntity
  8
30
 62
     0
370
    -2
100
AcDbBlockReference
  2
_Open
 10
1290.252270915998
 20
311.9999999999998
 30
0.0
 41
5.0
 42
5.0
 43
5.0
 50
90.0
  0
INSERT
  5
BEA0
330
B29E
100
AcDbEntity
  8
30
 62
     0
370
    -2
100
AcDbBlockReference
  2
_Open
 10
1290.252270915998
 20
137.9999999999997
 30
0.0
 41
5.0
 42
5.0
 43
5.0
 50
270.0
  0
POINT
  5
BEA1
330
B29E
100
AcDbEntity
  8
Defpoints
 62
     0
100
AcDbPoint
 10
1234.0
 20
311.9999999999998
 30
0.0
  0
POINT
  5
BEA2
330
B29E
100
AcDbEntity
  8
Defpoints
 62
     0
100
AcDbPoint
 10
1224.0
 20
137.9999999999997
 30
0.0
  0
POINT
  5
BEA3
330
B29E
100
AcDbEntity
  8
Defpoints
 62
     0
100
AcDbPoint
 10
1290.252270915998
 20
137.9999999999997
 30
0.0
  0
ENDBLK
  5
B2A9
330
B29E
100
AcDbEntity
  8
0
100
AcDbBlockEnd
  0
BLOCK
  5
B2B4
330
B2AA
100
AcDbEntity
  8
0
100
AcDbBlockBegin
  2
*D29
 70
     1
 10
0.0
 20
0.0
 30
0.0
  3
*D29
  1

  0
LINE
  5
BEA4
330
B2AA
100
AcDbEntity
  8
30
 62
     0
370
    -2
100
AcDbLine
 10
1234.0
 20
306.9999999999998
 30
0.0
 11
1264.780344893
 21
306.9999999999998
 31
0.0
  0
LINE
  5
BEA5
330
B2AA
100
AcDbEntity
  8
30
 62
     0
370
    -2
100
AcDbLine
 10
1234.0
 20
316.9999999999999
 30
0.0
 11
1264.780344893
 21
316.9999999999999
 31
0.0
  0
LINE
  5
BEA6
330
B2AA
100
AcDbEntity
  8
30
 62
     0
370
    -2
100
AcDbLine
 10
1263.780344893
 20
306.9999999999998
 30
0.0
 11
1263.780344893
 21
316.9999999999999
 31
0.0
  0
MTEXT
  5
BEA7
330
B2AA
100
AcDbEntity
  8
30
 62
     0
100
AcDbMText
 10
1255.780344893
 20
331.8015095079997
 30
0.0
 40
10.0
 41
0.0
 71
     5
 72
     1
  1
\A1;10
 11
0.0000000000000001
 21
1.0
 31
0.0
 73
     1
 44
1.0
1001
ACAD
1000
MTEXTBEGIN
1070
    73
1070
     1
1070
    44
1040
1.0
1070
    74
1070
     0
1000
MTEXTEND
  0
INSERT
  5
BEA8
330
B2AA
100
AcDbEntity
  8
30
 62
     0
370
    -2
100
AcDbBlockReference
  2
_DotSmall
 10
1263.780344893
 20
306.9999999999998
 30
0.0
 41
5.0
 42
5.0
 43
5.0
 50
270.0
  0
INSERT
  5
BEA9
330
B2AA
100
AcDbEntity
  8
30
 62
     0
370
    -2
100
AcDbBlockReference
  2
_DotSmall
 10
1263.780344893
 20
316.9999999999999
 30
0.0
 41
5.0
 42
5.0
 43
5.0
 50
90.0
  0
POINT
  5
BEAA
330
B2AA
100
AcDbEntity
  8
Defpoints
 62
     0
100
AcDbPoint
 10
1224.0
 20
306.9999999999998
 30
0.0
  0
POINT
  5
BEAB
330
B2AA
100
AcDbEntity
  8
Defpoints
 62
     0
100
AcDbPoint
 10
1224.0
 20
316.9999999999999
 30
0.0
  0
POINT
  5
BEAC
330
B2AA
100
AcDbEntity
  8
Defpoints
 62
     0
100
AcDbPoint
 10
1263.780344893
 20
316.9999999999999
 30
0.0
  0
ENDBLK
  5
B2B5
330
B2AA
100
AcDbEntity
  8
0
100
AcDbBlockEnd
  0
BLOCK
  5
B33C
330
B33A
100
AcDbEntity
  8
0
100
AcDbBlockBegin
  2
_DotSmall
 70
     0
 10
0.0
 20
0.0
 30
0.0
  3
_DotSmall
  1

  0
LWPOLYLINE
  5
B33B
330
B33A
100
AcDbEntity
  8
0
  6
ByBlock
 62
     0
100
AcDbPolyline
 90
        2
 70
     1
 43
0.5
 10
-0.0625
 20
0.0
 42
1.0
 10
0.0625
 20
0.0
 42
1.0
  0
ENDBLK
  5
B33D
330
B33A
100
AcDbEntity
  8
0
100
AcDbBlockEnd
  0
BLOCK
  5
B3FB
330
B3F1
100
AcDbEntity
  8
0
100
AcDbBlockBegin
  2
*D31
 70
     1
 10
0.0
 20
0.0
 30
0.0
  3
*D31
  1

  0
LINE
  5
BEAD
330
B3F1
100
AcDbEntity
  8
30
 62
     0
370
    -2
100
AcDbLine
 10
-97.49999999999978
 20
1360.0
 30
0.0
 11
-97.49999999999978
 21
1423.824129261998
 31
0.0
  0
LINE
  5
BEAE
330
B3F1
100
AcDbEntity
  8
30
 62
     0
370
    -2
100
AcDbLine
 10
-72.4999999999998
 20
1360.0
 30
0.0
 11
-72.4999999999998
 21
1423.824129261998
 31
0.0
  0
LINE
  5
BEAF
330
B3F1
100
AcDbEntity
  8
30
 62
     0
370
    -2
100
AcDbLine
 10
-92.49999999999978
 20
1422.824129261998
 30
0.0
 11
-77.4999999999998
 21
1422.824129261998
 31
0.0
  0
MTEXT
  5
BEB0
330
B3F1
100
AcDbEntity
  8
30
 62
     0
100
AcDbMText
 10
-84.24881497999971
 20
1430.824129261998
 30
0.0
 40
10.0
 41
0.0
 71
     5
 72
     1
  1
\A1;25
 73
     1
 44
1.0
1001
ACAD
1000
MTEXTBEGIN
1070
    73
1070
     1
1070
    44
1040
1.0
1070
    74
1070
     0
1000
MTEXTEND
  0
INSERT
  5
BEB1
330
B3F1
100
AcDbEntity
  8
30
 62
     0
370
    -2
100
AcDbBlockReference
  2
_Open
 10
-97.49999999999978
 20
1422.824129261998
 30
0.0
 41
5.0
 42
5.0
 43
5.0
 50
180.0
  0
INSERT
  5
BEB2
330
B3F1
100
AcDbEntity
  8
30
 62
     0
370
    -2
100
AcDbBlockReference
  2
_Open
 10
-72.4999999999998
 20
1422.824129261998
 30
0.0
 41
5.0
 42
5.0
 43
5.0
  0
POINT
  5
BEB3
330
B3F1
100
AcDbEntity
  8
Defpoints
 62
     0
100
AcDbPoint
 10
-97.49999999999978
 20
1350.0
 30
0.0
  0
POINT
  5
BEB4
330
B3F1
100
AcDbEntity
  8
Defpoints
 62
     0
100
AcDbPoint
 10
-72.4999999999998
 20
1350.0
 30
0.0
  0
POINT
  5
BEB5
330
B3F1
100
AcDbEntity
  8
Defpoints
 62
     0
100
AcDbPoint
 10
-72.4999999999998
 20
1422.824129261998
 30
0.0
  0
ENDBLK
  5
B3FC
330
B3F1
100
AcDbEntity
  8
0
100
AcDbBlockEnd
  0
BLOCK
  5
B407
330
B3FD
100
AcDbEntity
  8
0
100
AcDbBlockBegin
  2
*D32
 70
     1
 10
0.0
 20
0.0
 30
0.0
  3
*D32
  1

  0
LINE
  5
BEB6
330
B3FD
100
AcDbEntity
  8
30
 62
     0
370
    -2
100
AcDbLine
 10
-109.2864998980001
 20
1375.0
 30
0.0
 11
-109.2864998980001
 21
1463.901372868
 31
0.0
  0
LINE
  5
BEB7
330
B3FD
100
AcDbEntity
  8
30
 62
     0
370
    -2
100
AcDbLine
 10
-57.28649989800015
 20
1375.0
 30
0.0
 11
-57.28649989800015
 21
1463.901372868
 31
0.0
  0
LINE
  5
BEB8
330
B3FD
100
AcDbEntity
  8
30
 62
     0
370
    -2
100
AcDbLine
 10
-104.286499898
 20
1462.901372868
 30
0.0
 11
-62.28649989800015
 21
1462.901372868
 31
0.0
  0
MTEXT
  5
BEB9
330
B3FD
100
AcDbEntity
  8
30
 62
     0
100
AcDbMText
 10
-82.27009280899961
 20
1470.901372868
 30
0.0
 40
10.0
 41
0.0
 71
     5
 72
     1
  1
\A1;52
 73
     1
 44
1.0
1001
ACAD
1000
MTEXTBEGIN
1070
    73
1070
     1
1070
    44
1040
1.0
1070
    74
1070
     0
1000
MTEXTEND
  0
INSERT
  5
BEBA
330
B3FD
100
AcDbEntity
  8
30
 62
     0
370
    -2
100
AcDbBlockReference
  2
_Open
 10
-109.2864998980001
 20
1462.901372868
 30
0.0
 41
5.0
 42
5.0
 43
5.0
 50
180.0
  0
INSERT
  5
BEBB
330
B3FD
100
AcDbEntity
  8
30
 62
     0
370
    -2
100
AcDbBlockReference
  2
_Open
 10
-57.28649989800015
 20
1462.901372868
 30
0.0
 41
5.0
 42
5.0
 43
5.0
  0
POINT
  5
BEBC
330
B3FD
100
AcDbEntity
  8
Defpoints
 62
     0
100
AcDbPoint
 10
-109.2864998980001
 20
1365.0
 30
0.0
  0
POINT
  5
BEBD
330
B3FD
100
AcDbEntity
  8
Defpoints
 62
     0
100
AcDbPoint
 10
-57.28649989800015
 20
1365.0
 30
0.0
  0
POINT
  5
BEBE
330
B3FD
100
AcDbEntity
  8
Defpoints
 62
     0
100
AcDbPoint
 10
-57.28649989800015
 20
1462.901372868
 30
0.0
  0
ENDBLK
  5
B408
330
B3FD
100
AcDbEntity
  8
0
100
AcDbBlockEnd
  0
BLOCK
  5
B411
330
B409
100
AcDbEntity
  8
0
100
AcDbBlockBegin
  2
*D33
 70
     1
 10
0.0
 20
0.0
 30
0.0
  3
*D33
  1

  0
LINE
  5
BEBF
330
B409
100
AcDbEntity
  8
30
 62
     0
370
    -2
100
AcDbLine
 10
-107.4999999999997
 20
1350.0
 30
0.0
 11
-157.3339158460001
 21
1350.0
 31
0.0
  0
LINE
  5
BEC0
330
B409
100
AcDbEntity
  8
30
 62
     0
370
    -2
100
AcDbLine
 10
-119.286499898
 20
1365.0
 30
0.0
 11
-157.3339158460001
 21
1365.0
 31
0.0
  0
MTEXT
  5
BEC1
330
B409
100
AcDbEntity
  8
30
 62
     0
100
AcDbMText
 10
-164.3339158460001
 20
1357.318341476
 30
0.0
 40
10.0
 41
0.0
 71
     5
 72
     1
  1
\A1;15
 11
0.0000000000000001
 21
1.0
 31
0.0
 73
     1
 44
1.0
1001
ACAD
1000
MTEXTBEGIN
1070
    73
1070
     1
1070
    44
1040
1.0
1070
    74
1070
     0
1000
MTEXTEND
  0
LINE
  5
BEC2
330
B409
100
AcDbEntity
  8
30
 62
     0
370
    -2
100
AcDbLine
 10
-156.3339158460001
 20
1350.0
 30
0.0
 11
-156.3339158460001
 21
1365.0
 31
0.0
  0
POINT
  5
BEC3
330
B409
100
AcDbEntity
  8
Defpoints
 62
     0
100
AcDbPoint
 10
-97.49999999999978
 20
1350.0
 30
0.0
  0
POINT
  5
BEC4
330
B409
100
AcDbEntity
  8
Defpoints
 62
     0
100
AcDbPoint
 10
-109.2864998980001
 20
1365.0
 30
0.0
  0
POINT
  5
BEC5
330
B409
100
AcDbEntity
  8
Defpoints
 62
     0
100
AcDbPoint
 10
-156.3339158460001
 20
1365.0
 30
0.0
  0
ENDBLK
  5
B412
330
B409
100
AcDbEntity
  8
0
100
AcDbBlockEnd
  0
BLOCK
  5
B41D
330
B413
100
AcDbEntity
  8
0
100
AcDbBlockBegin
  2
*D34
 70
     1
 10
0.0
 20
0.0
 30
0.0
  3
*D34
  1

  0
LINE
  5
BEC6
330
B413
100
AcDbEntity
  8
30
 62
     0
370
    -2
100
AcDbLine
 10
-109.4342708139995
 20
1330.0
 30
0.0
 11
-208.5679535139994
 21
1330.0
 31
0.0
  0
LINE
  5
BEC7
330
B413
100
AcDbEntity
  8
30
 62
     0
370
    -2
100
AcDbLine
 10
-119.286499898
 20
1365.0
 30
0.0
 11
-208.5679535139994
 21
1365.0
 31
0.0
  0
LINE
  5
BEC8
330
B413
100
AcDbEntity
  8
30
 62
     0
370
    -2
100
AcDbLine
 10
-207.5679535139994
 20
1335.0
 30
0.0
 11
-207.5679535139994
 21
1360.0
 31
0.0
  0
MTEXT
  5
BEC9
330
B413
100
AcDbEntity
  8
30
 62
     0
100
AcDbMText
 10
-215.5679535139994
 20
1347.5
 30
0.0
 40
10.0
 41
0.0
 71
     5
 72
     1
  1
\A1;35*
 11
0.0000000000000001
 21
1.0
 31
0.0
 73
     1
 44
1.0
1001
ACAD
1000
MTEXTBEGIN
1070
    73
1070
     1
1070
    44
1040
1.0
1070
    74
1070
     0
1000
MTEXTEND
  0
INSERT
  5
BECA
330
B413
100
AcDbEntity
  8
30
 62
     0
370
    -2
100
AcDbBlockReference
  2
_Open
 10
-207.5679535139994
 20
1330.0
 30
0.0
 41
5.0
 42
5.0
 43
5.0
 50
270.0
  0
INSERT
  5
BECB
330
B413
100
AcDbEntity
  8
30
 62
     0
370
    -2
100
AcDbBlockReference
  2
_Open
 10
-207.5679535139994
 20
1365.0
 30
0.0
 41
5.0
 42
5.0
 43
5.0
 50
90.0
  0
POINT
  5
BECC
330
B413
100
AcDbEntity
  8
Defpoints
 62
     0
100
AcDbPoint
 10
-99.43427081399958
 20
1330.0
 30
0.0
  0
POINT
  5
BECD
330
B413
100
AcDbEntity
  8
Defpoints
 62
     0
100
AcDbPoint
 10
-109.2864998980001
 20
1365.0
 30
0.0
  0
POINT
  5
BECE
330
B413
100
AcDbEntity
  8
Defpoints
 62
     0
100
AcDbPoint
 10
-207.5679535139994
 20
1365.0
 30
0.0
  0
ENDBLK
  5
B41E
330
B413
100
AcDbEntity
  8
0
100
AcDbBlockEnd
  0
BLOCK
  5
B472
330
B468
100
AcDbEntity
  8
0
100
AcDbBlockBegin
  2
*D35
 70
     1
 10
0.0
 20
0.0
 30
0.0
  3
*D35
  1

  0
LINE
  5
BECF
330
B468
100
AcDbEntity
  8
30
 62
     0
370
    -2
100
AcDbLine
 10
1126.0
 20
44.99999999999999
 30
0.0
 11
1126.0
 21
47.80150950799975
 31
0.0
  0
LINE
  5
BED0
330
B468
100
AcDbEntity
  8
30
 62
     0
370
    -2
100
AcDbLine
 10
1224.0
 20
123.000001948
 30
0.0
 11
1224.0
 21
45.80150950799975
 31
0.0
  0
LINE
  5
BED1
330
B468
100
AcDbEntity
  8
30
 62
     0
370
    -2
100
AcDbLine
 10
1131.0
 20
46.80150950799975
 30
0.0
 11
1219.0
 21
46.80150950799975
 31
0.0
  0
INSERT
  5
BED2
330
B468
100
AcDbEntity
  8
30
 62
     0
370
    -2
100
AcDbBlockReference
  2
_Open
 10
1126.0
 20
46.80150950799975
 30
0.0
 41
5.0
 42
5.0
 43
5.0
 50
180.0
  0
INSERT
  5
BED3
330
B468
100
AcDbEntity
  8
30
 62
     0
370
    -2
100
AcDbBlockReference
  2
_Open
 10
1224.0
 20
46.80150950799975
 30
0.0
 41
5.0
 42
5.0
 43
5.0
  0
MTEXT
  5
BED4
330
B468
100
AcDbEntity
  8
30
 62
     0
100
AcDbMText
 10
1175.0
 20
54.80150950799975
 30
0.0
 40
10.0
 41
0.0
 71
     5
 72
     1
  1
\A1;98
 73
     1
 44
1.0
1001
ACAD
1000
MTEXTBEGIN
1070
    73
1070
     1
1070
    44
1040
1.0
1070
    74
1070
     0
1000
MTEXTEND
  0
POINT
  5
BED5
330
B468
100
AcDbEntity
  8
Defpoints
 62
     0
100
AcDbPoint
 10
1126.0
 20
35.0
 30
0.0
  0
POINT
  5
BED6
330
B468
100
AcDbEntity
  8
Defpoints
 62
     0
100
AcDbPoint
 10
1224.0
 20
133.0000019480001
 30
0.0
  0
POINT
  5
BED7
330
B468
100
AcDbEntity
  8
Defpoints
 62
     0
100
AcDbPoint
 10
1224.0
 20
46.80150950799975
 30
0.0
  0
ENDBLK
  5
B473
330
B468
100
AcDbEntity
  8
0
100
AcDbBlockEnd
  0
BLOCK
  5
B5F1
330
B5E9
100
AcDbEntity
  8
0
100
AcDbBlockBegin
  2
*D36
 70
     1
 10
0.0
 20
0.0
 30
0.0
  3
*D36
  1

  0
LINE
  5
BED8
330
B5E9
100
AcDbEntity
  8
30
 62
     0
370
    -2
100
AcDbLine
 10
1879.0
 20
317.0
 30
0.0
 11
1873.282909967552
 21
317.0
 31
0.0
  0
LINE
  5
BED9
330
B5E9
100
AcDbEntity
  8
30
 62
     0
370
    -2
100
AcDbLine
 10
1879.0
 20
307.0
 30
0.0
 11
1873.282909967552
 21
307.0
 31
0.0
  0
LINE
  5
BEDA
330
B5E9
100
AcDbEntity
  8
30
 62
     0
370
    -2
100
AcDbLine
 10
1874.282909967551
 20
317.0
 30
0.0
 11
1874.282909967551
 21
307.0
 31
0.0
  0
MTEXT
  5
BEDB
330
B5E9
100
AcDbEntity
  8
30
 62
     0
100
AcDbMText
 10
1866.282909967551
 20
312.0000000000002
 30
0.0
 40
10.0
 41
0.0
 71
     5
 72
     1
  1
\A1;10
 11
0.0000000000000001
 21
1.0
 31
0.0
 73
     1
 44
1.0
1001
ACAD
1000
MTEXTBEGIN
1070
    73
1070
     1
1070
    44
1040
1.0
1070
    74
1070
     0
1000
MTEXTEND
  0
POINT
  5
BEDC
330
B5E9
100
AcDbEntity
  8
Defpoints
 62
     0
100
AcDbPoint
 10
1889.0
 20
317.0
 30
0.0
  0
POINT
  5
BEDD
330
B5E9
100
AcDbEntity
  8
Defpoints
 62
     0
100
AcDbPoint
 10
1889.0
 20
307.0
 30
0.0
  0
POINT
  5
BEDE
330
B5E9
100
AcDbEntity
  8
Defpoints
 62
     0
100
AcDbPoint
 10
1874.282909967551
 20
307.0
 30
0.0
  0
ENDBLK
  5
B5F2
330
B5E9
100
AcDbEntity
  8
0
100
AcDbBlockEnd
  0
BLOCK
  5
B759
330
B74F
100
AcDbEntity
  8
0
100
AcDbBlockBegin
  2
*D37
 70
     1
 10
0.0
 20
0.0
 30
0.0
  3
*D37
  1

  0
LINE
  5
BEDF
330
B74F
100
AcDbEntity
  8
30
 62
     0
370
    -2
100
AcDbLine
 10
-0.0000000000000012
 20
-159.1984754919999
 30
0.0
 11
-0.0000000000000023
 21
-176.198490492
 31
0.0
  0
LINE
  5
BEE0
330
B74F
100
AcDbEntity
  8
30
 62
     0
370
    -2
100
AcDbLine
 10
180.0000000000002
 20
-9.999999999999886
 30
0.0
 11
180.0000000000002
 21
-176.198490492
 31
0.0
  0
LINE
  5
BEE1
330
B74F
100
AcDbEntity
  8
30
 62
     0
370
    -2
100
AcDbLine
 10
4.999999999999998
 20
-175.198490492
 30
0.0
 11
175.0000000000001
 21
-175.198490492
 31
0.0
  0
INSERT
  5
BEE2
330
B74F
100
AcDbEntity
  8
30
 62
     0
370
    -2
100
AcDbBlockReference
  2
_Open
 10
-0.0000000000000022
 20
-175.198490492
 30
0.0
 41
5.0
 42
5.0
 43
5.0
 50
180.0
  0
INSERT
  5
BEE3
330
B74F
100
AcDbEntity
  8
30
 62
     0
370
    -2
100
AcDbBlockReference
  2
_Open
 10
180.0000000000002
 20
-175.198490492
 30
0.0
 41
5.0
 42
5.0
 43
5.0
  0
MTEXT
  5
BEE4
330
B74F
100
AcDbEntity
  8
30
 62
     0
100
AcDbMText
 10
90.0000000000001
 20
-167.198490492
 30
0.0
 40
10.0
 41
0.0
 71
     5
 72
     1
  1
\A1;180
 73
     1
 44
1.0
1001
ACAD
1000
MTEXTBEGIN
1070
    73
1070
     1
1070
    44
1040
1.0
1070
    74
1070
     0
1000
MTEXTEND
  0
POINT
  5
BEE5
330
B74F
100
AcDbEntity
  8
Defpoints
 62
     0
100
AcDbPoint
 10
-0.0000000000000006
 20
-149.1984754919999
 30
0.0
  0
POINT
  5
BEE6
330
B74F
100
AcDbEntity
  8
Defpoints
 62
     0
100
AcDbPoint
 10
180.0000000000002
 20
0.0000000000001137
 30
0.0
  0
POINT
  5
BEE7
330
B74F
100
AcDbEntity
  8
Defpoints
 62
     0
100
AcDbPoint
 10
180.0000000000002
 20
-175.198490492
 30
0.0
  0
ENDBLK
  5
B75A
330
B74F
100
AcDbEntity
  8
0
100
AcDbBlockEnd
  0
BLOCK
  5
B765
330
B75B
100
AcDbEntity
  8
0
100
AcDbBlockBegin
  2
*D38
 70
     1
 10
0.0
 20
0.0
 30
0.0
  3
*D38
  1

  0
LINE
  5
BEE8
330
B75B
100
AcDbEntity
  8
30
 62
     0
370
    -2
100
AcDbLine
 10
-0.0000000000000006
 20
-60.19847549200012
 30
0.0
 11
-0.0000000000000077
 21
-176.198490492
 31
0.0
  0
LINE
  5
BEE9
330
B75B
100
AcDbEntity
  8
30
 62
     0
370
    -2
100
AcDbLine
 10
-179.9999999999995
 20
-9.999999999999886
 30
0.0
 11
-179.9999999999995
 21
-176.198490492
 31
0.0
  0
LINE
  5
BEEA
330
B75B
100
AcDbEntity
  8
30
 62
     0
370
    -2
100
AcDbLine
 10
-5.000000000000006
 20
-175.198490492
 30
0.0
 11
-174.9999999999995
 21
-175.198490492
 31
0.0
  0
INSERT
  5
BEEB
330
B75B
100
AcDbEntity
  8
30
 62
     0
370
    -2
100
AcDbBlockReference
  2
_Open
 10
-0.0000000000000077
 20
-175.198490492
 30
0.0
 41
5.0
 42
5.0
 43
5.0
  0
INSERT
  5
BEEC
330
B75B
100
AcDbEntity
  8
30
 62
     0
370
    -2
100
AcDbBlockReference
  2
_Open
 10
-179.9999999999995
 20
-175.198490492
 30
0.0
 41
5.0
 42
5.0
 43
5.0
 50
180.0
  0
MTEXT
  5
BEED
330
B75B
100
AcDbEntity
  8
30
 62
     0
100
AcDbMText
 10
-89.99999999999976
 20
-167.198490492
 30
0.0
 40
10.0
 41
0.0
 71
     5
 72
     1
  1
\A1;180
 73
     1
 44
1.0
1001
ACAD
1000
MTEXTBEGIN
1070
    73
1070
     1
1070
    44
1040
1.0
1070
    74
1070
     0
1000
MTEXTEND
  0
POINT
  5
BEEE
330
B75B
100
AcDbEntity
  8
Defpoints
 62
     0
100
AcDbPoint
 10
0.0
 20
-50.19847549200012
 30
0.0
  0
POINT
  5
BEEF
330
B75B
100
AcDbEntity
  8
Defpoints
 62
     0
100
AcDbPoint
 10
-179.9999999999995
 20
0.0000000000001137
 30
0.0
  0
POINT
  5
BEF0
330
B75B
100
AcDbEntity
  8
Defpoints
 62
     0
100
AcDbPoint
 10
-179.9999999999995
 20
-175.198490492
 30
0.0
  0
ENDBLK
  5
B766
330
B75B
100
AcDbEntity
  8
0
100
AcDbBlockEnd
  0
BLOCK
  5
B771
330
B767
100
AcDbEntity
  8
0
100
AcDbBlockBegin
  2
*D39
 70
     1
 10
0.0
 20
0.0
 30
0.0
  3
*D39
  1

  0
LINE
  5
BEF1
330
B767
100
AcDbEntity
  8
30
 62
     0
370
    -2
100
AcDbLine
 10
-119.0
 20
22.99999999999987
 30
0.0
 11
-119.0
 21
-141.1349932769998
 31
0.0
  0
LINE
  5
BEF2
330
B767
100
AcDbEntity
  8
30
 62
     0
370
    -2
100
AcDbLine
 10
119.0000000000002
 20
22.99999999999987
 30
0.0
 11
119.0000000000001
 21
-141.1349932769998
 31
0.0
  0
LINE
  5
BEF3
330
B767
100
AcDbEntity
  8
30
 62
     0
370
    -2
100
AcDbLine
 10
-114.0
 20
-140.1349932769998
 30
0.0
 11
114.0000000000002
 21
-140.1349932769998
 31
0.0
  0
MTEXT
  5
BEF4
330
B767
100
AcDbEntity
  8
30
 62
     0
100
AcDbMText
 10
-0.3281205969999514
 20
-132.1349932769998
 30
0.0
 40
10.0
 41
0.0
 71
     5
 72
     1
  1
\A1;238
 73
     1
 44
1.0
1001
ACAD
1000
MTEXTBEGIN
1070
    73
1070
     1
1070
    44
1040
1.0
1070
    74
1070
     0
1000
MTEXTEND
  0
INSERT
  5
BEF5
330
B767
100
AcDbEntity
  8
30
 62
     0
370
    -2
100
AcDbBlockReference
  2
_Open
 10
-119.0
 20
-140.1349932769998
 30
0.0
 41
5.0
 42
5.0
 43
5.0
 50
180.0
  0
INSERT
  5
BEF6
330
B767
100
AcDbEntity
  8
30
 62
     0
370
    -2
100
AcDbBlockReference
  2
_Open
 10
119.0000000000001
 20
-140.1349932769998
 30
0.0
 41
5.0
 42
5.0
 43
5.0
  0
POINT
  5
BEF7
330
B767
100
AcDbEntity
  8
Defpoints
 62
     0
100
AcDbPoint
 10
-119.0
 20
32.99999999999988
 30
0.0
  0
POINT
  5
BEF8
330
B767
100
AcDbEntity
  8
Defpoints
 62
     0
100
AcDbPoint
 10
119.0000000000002
 20
32.99999999999988
 30
0.0
  0
POINT
  5
BEF9
330
B767
100
AcDbEntity
  8
Defpoints
 62
     0
100
AcDbPoint
 10
119.0000000000001
 20
-140.1349932769998
 30
0.0
  0
ENDBLK
  5
B772
330
B767
100
AcDbEntity
  8
0
100
AcDbBlockEnd
  0
BLOCK
  5
B77D
330
B773
100
AcDbEntity
  8
0
100
AcDbBlockBegin
  2
*D40
 70
     1
 10
0.0
 20
0.0
 30
0.0
  3
*D40
  1

  0
LINE
  5
BEFA
330
B773
100
AcDbEntity
  8
30
 62
     0
370
    -2
100
AcDbLine
 10
0.000000000000228
 20
600.0385861509998
 30
0.0
 11
0.0000000000002304
 21
639.763250778
 31
0.0
  0
LINE
  5
BEFB
330
B773
100
AcDbEntity
  8
30
 62
     0
370
    -2
100
AcDbLine
 10
175.0
 20
573.2000000000001
 30
0.0
 11
175.0
 21
639.763250778
 31
0.0
  0
LINE
  5
BEFC
330
B773
100
AcDbEntity
  8
30
 62
     0
370
    -2
100
AcDbLine
 10
5.00000000000023
 20
638.763250778
 30
0.0
 11
170.0
 21
638.763250778
 31
0.0
  0
MTEXT
  5
BEFD
330
B773
100
AcDbEntity
  8
30
 62
     0
100
AcDbMText
 10
80.98967571400022
 20
646.763250778
 30
0.0
 40
10.0
 41
0.0
 71
     5
 72
     1
  1
\A1;175
 73
     1
 44
1.0
1001
ACAD
1000
MTEXTBEGIN
1070
    73
1070
     1
1070
    44
1040
1.0
1070
    74
1070
     0
1000
MTEXTEND
  0
INSERT
  5
BEFE
330
B773
100
AcDbEntity
  8
30
 62
     0
370
    -2
100
AcDbBlockReference
  2
_Open
 10
0.0000000000002304
 20
638.763250778
 30
0.0
 41
5.0
 42
5.0
 43
5.0
 50
180.0
  0
INSERT
  5
BEFF
330
B773
100
AcDbEntity
  8
30
 62
     0
370
    -2
100
AcDbBlockReference
  2
_Open
 10
175.0
 20
638.763250778
 30
0.0
 41
5.0
 42
5.0
 43
5.0
  0
POINT
  5
BF00
330
B773
100
AcDbEntity
  8
Defpoints
 62
     0
100
AcDbPoint
 10
0.0000000000002274
 20
590.038586151
 30
0.0
  0
POINT
  5
BF01
330
B773
100
AcDbEntity
  8
Defpoints
 62
     0
100
AcDbPoint
 10
175.0
 20
563.2000000000001
 30
0.0
  0
POINT
  5
BF02
330
B773
100
AcDbEntity
  8
Defpoints
 62
     0
100
AcDbPoint
 10
175.0
 20
638.763250778
 30
0.0
  0
ENDBLK
  5
B77E
330
B773
100
AcDbEntity
  8
0
100
AcDbBlockEnd
  0
BLOCK
  5
B789
330
B77F
100
AcDbEntity
  8
0
100
AcDbBlockBegin
  2
*D41
 70
     1
 10
0.0
 20
0.0
 30
0.0
  3
*D41
  1

  0
LINE
  5
BF03
330
B77F
100
AcDbEntity
  8
30
 62
     0
370
    -2
100
AcDbLine
 10
0.000000000000228
 20
600.0385861509998
 30
0.0
 11
0.0000000000002304
 21
639.4743204849998
 31
0.0
  0
LINE
  5
BF04
330
B77F
100
AcDbEntity
  8
30
 62
     0
370
    -2
100
AcDbLine
 10
-174.9999999999995
 20
573.2000000000001
 30
0.0
 11
-174.9999999999995
 21
639.4743204849998
 31
0.0
  0
LINE
  5
BF05
330
B77F
100
AcDbEntity
  8
30
 62
     0
370
    -2
100
AcDbLine
 10
-4.999999999999769
 20
638.4743204849997
 30
0.0
 11
-169.9999999999995
 21
638.4743204849997
 31
0.0
  0
MTEXT
  5
BF06
330
B77F
100
AcDbEntity
  8
30
 62
     0
100
AcDbMText
 10
-91.32958501299979
 20
646.4743204849997
 30
0.0
 40
10.0
 41
0.0
 71
     5
 72
     1
  1
\A1;175
 73
     1
 44
1.0
1001
ACAD
1000
MTEXTBEGIN
1070
    73
1070
     1
1070
    44
1040
1.0
1070
    74
1070
     0
1000
MTEXTEND
  0
INSERT
  5
BF07
330
B77F
100
AcDbEntity
  8
30
 62
     0
370
    -2
100
AcDbBlockReference
  2
_Open
 10
0.0000000000002304
 20
638.4743204849997
 30
0.0
 41
5.0
 42
5.0
 43
5.0
  0
INSERT
  5
BF08
330
B77F
100
AcDbEntity
  8
30
 62
     0
370
    -2
100
AcDbBlockReference
  2
_Open
 10
-174.9999999999995
 20
638.4743204849997
 30
0.0
 41
5.0
 42
5.0
 43
5.0
 50
180.0
  0
POINT
  5
BF09
330
B77F
100
AcDbEntity
  8
Defpoints
 62
     0
100
AcDbPoint
 10
0.0000000000002274
 20
590.038586151
 30
0.0
  0
POINT
  5
BF0A
330
B77F
100
AcDbEntity
  8
Defpoints
 62
     0
100
AcDbPoint
 10
-174.9999999999995
 20
563.2000000000001
 30
0.0
  0
POINT
  5
BF0B
330
B77F
100
AcDbEntity
  8
Defpoints
 62
     0
100
AcDbPoint
 10
-174.9999999999995
 20
638.4743204849997
 30
0.0
  0
ENDBLK
  5
B78A
330
B77F
100
AcDbEntity
  8
0
100
AcDbBlockEnd
  0
BLOCK
  5
B88A
330
B880
100
AcDbEntity
  8
0
100
AcDbBlockBegin
  2
*D42
 70
     1
 10
0.0
 20
0.0
 30
0.0
  3
*D42
  1

  0
LINE
  5
B899
330
B880
100
AcDbEntity
  8
30
 62
     0
370
    -2
100
AcDbLine
 10
168.5000000000002
 20
1277.0
 30
0.0
 11
1001.0
 21
1276.999999999999
 31
0.0
  0
LINE
  5
B89A
330
B880
100
AcDbEntity
  8
30
 62
     0
370
    -2
100
AcDbLine
 10
168.5000000000002
 20
1000.0
 30
0.0
 11
1001.0
 21
999.9999999999996
 31
0.0
  0
LINE
  5
B89B
330
B880
100
AcDbEntity
  8
30
 62
     0
370
    -2
100
AcDbLine
 10
1000.0
 20
1272.0
 30
0.0
 11
1000.0
 21
1004.999999999999
 31
0.0
  0
INSERT
  5
B89C
330
B880
100
AcDbEntity
  8
30
 62
     0
370
    -2
100
AcDbBlockReference
  2
_Open
 10
1000.0
 20
1276.999999999999
 30
0.0
 41
5.0
 42
5.0
 43
5.0
 50
90.0
  0
INSERT
  5
B89D
330
B880
100
AcDbEntity
  8
30
 62
     0
370
    -2
100
AcDbBlockReference
  2
_Open
 10
1000.0
 20
999.9999999999996
 30
0.0
 41
5.0
 42
5.0
 43
5.0
 50
270.0
  0
MTEXT
  5
B89E
330
B880
100
AcDbEntity
  8
30
 62
     0
100
AcDbMText
 10
992.0
 20
1138.5
 30
0.0
 40
10.0
 41
0.0
 71
     5
 72
     1
  1
\A1;277
 11
0.0000000000000001
 21
1.0
 31
0.0
 73
     1
 44
1.0
1001
ACAD
1000
MTEXTBEGIN
1070
    73
1070
     1
1070
    44
1040
1.0
1070
    74
1070
     0
1000
MTEXTEND
  0
POINT
  5
B89F
330
B880
100
AcDbEntity
  8
Defpoints
 62
     0
100
AcDbPoint
 10
158.4999999999999
 20
1277.0
 30
0.0
  0
POINT
  5
B8A0
330
B880
100
AcDbEntity
  8
Defpoints
 62
     0
100
AcDbPoint
 10
158.4999999999999
 20
1000.0
 30
0.0
  0
POINT
  5
B8A1
330
B880
100
AcDbEntity
  8
Defpoints
 62
     0
100
AcDbPoint
 10
1000.0
 20
999.9999999999996
 30
0.0
  0
ENDBLK
  5
B88B
330
B880
100
AcDbEntity
  8
0
100
AcDbBlockEnd
  0
BLOCK
  5
B897
330
B88D
100
AcDbEntity
  8
0
100
AcDbBlockBegin
  2
*D43
 70
     1
 10
0.0
 20
0.0
 30
0.0
  3
*D43
  1

  0
LINE
  5
B8A2
330
B88D
100
AcDbEntity
  8
30
 62
     0
370
    -2
100
AcDbLine
 10
121.0000000000002
 20
1365.0
 30
0.0
 11
296.6915846147077
 21
1365.0
 31
0.0
  0
LINE
  5
B8A3
330
B88D
100
AcDbEntity
  8
30
 62
     0
370
    -2
100
AcDbLine
 10
168.5000000000002
 20
1277.0
 30
0.0
 11
296.6915846147077
 21
1277.0
 31
0.0
  0
LINE
  5
B8A4
330
B88D
100
AcDbEntity
  8
30
 62
     0
370
    -2
100
AcDbLine
 10
295.6915846147077
 20
1360.0
 30
0.0
 11
295.6915846147077
 21
1282.0
 31
0.0
  0
INSERT
  5
B8A5
330
B88D
100
AcDbEntity
  8
30
 62
     0
370
    -2
100
AcDbBlockReference
  2
_Open
 10
295.6915846147077
 20
1365.0
 30
0.0
 41
5.0
 42
5.0
 43
5.0
 50
90.0
  0
INSERT
  5
B8A6
330
B88D
100
AcDbEntity
  8
30
 62
     0
370
    -2
100
AcDbBlockReference
  2
_Open
 10
295.6915846147077
 20
1277.0
 30
0.0
 41
5.0
 42
5.0
 43
5.0
 50
270.0
  0
MTEXT
  5
B8A7
330
B88D
100
AcDbEntity
  8
30
 62
     0
100
AcDbMText
 10
287.6915846147074
 20
1321.0
 30
0.0
 40
10.0
 41
0.0
 71
     5
 72
     1
  1
\A1;88
 11
0.0000000000000001
 21
1.0
 31
0.0
 73
     1
 44
1.0
1001
ACAD
1000
MTEXTBEGIN
1070
    73
1070
     1
1070
    44
1040
1.0
1070
    74
1070
     0
1000
MTEXTEND
  0
POINT
  5
B8A8
330
B88D
100
AcDbEntity
  8
Defpoints
 62
     0
100
AcDbPoint
 10
111.0000000000002
 20
1365.0
 30
0.0
  0
POINT
  5
B8A9
330
B88D
100
AcDbEntity
  8
Defpoints
 62
     0
100
AcDbPoint
 10
158.4999999999999
 20
1277.0
 30
0.0
  0
POINT
  5
B8AA
330
B88D
100
AcDbEntity
  8
Defpoints
 62
     0
100
AcDbPoint
 10
295.6915846147077
 20
1277.0
 30
0.0
  0
ENDBLK
  5
B898
330
B88D
100
AcDbEntity
  8
0
100
AcDbBlockEnd
  0
BLOCK
  5
B8B6
330
B8AC
100
AcDbEntity
  8
0
100
AcDbBlockBegin
  2
*D44
 70
     1
 10
0.0
 20
0.0
 30
0.0
  3
*D44
  1

  0
LINE
  5
BF0C
330
B8AC
100
AcDbEntity
  8
30
 62
     0
370
    -2
100
AcDbLine
 10
859.0
 20
-87.00000000000022
 30
0.0
 11
859.0
 21
-211.9495586533822
 31
0.0
  0
LINE
  5
BF0D
330
B8AC
100
AcDbEntity
  8
30
 62
     0
370
    -2
100
AcDbLine
 10
1224.0
 20
123.000001948
 30
0.0
 11
1224.0
 21
-211.9495586533822
 31
0.0
  0
LINE
  5
BF0E
330
B8AC
100
AcDbEntity
  8
30
 62
     0
370
    -2
100
AcDbLine
 10
864.0
 20
-210.9495586533823
 30
0.0
 11
1219.0
 21
-210.9495586533823
 31
0.0
  0
INSERT
  5
BF0F
330
B8AC
100
AcDbEntity
  8
30
 62
     0
370
    -2
100
AcDbBlockReference
  2
_Open
 10
859.0
 20
-210.9495586533823
 30
0.0
 41
5.0
 42
5.0
 43
5.0
 50
180.0
  0
INSERT
  5
BF10
330
B8AC
100
AcDbEntity
  8
30
 62
     0
370
    -2
100
AcDbBlockReference
  2
_Open
 10
1224.0
 20
-210.9495586533823
 30
0.0
 41
5.0
 42
5.0
 43
5.0
  0
MTEXT
  5
BF11
330
B8AC
100
AcDbEntity
  8
30
 62
     0
100
AcDbMText
 10
1041.5
 20
-202.9495586533823
 30
0.0
 40
10.0
 41
0.0
 71
     5
 72
     1
  1
\A1;365
 73
     1
 44
1.0
1001
ACAD
1000
MTEXTBEGIN
1070
    73
1070
     1
1070
    44
1040
1.0
1070
    74
1070
     0
1000
MTEXTEND
  0
POINT
  5
BF12
330
B8AC
100
AcDbEntity
  8
Defpoints
 62
     0
100
AcDbPoint
 10
859.0
 20
-77.00000000000024
 30
0.0
  0
POINT
  5
BF13
330
B8AC
100
AcDbEntity
  8
Defpoints
 62
     0
100
AcDbPoint
 10
1224.0
 20
133.0000019480001
 30
0.0
  0
POINT
  5
BF14
330
B8AC
100
AcDbEntity
  8
Defpoints
 62
     0
100
AcDbPoint
 10
1224.0
 20
-210.9495586533823
 30
0.0
  0
ENDBLK
  5
B8B7
330
B8AC
100
AcDbEntity
  8
0
100
AcDbBlockEnd
  0
BLOCK
  5
B8C3
330
B8B9
100
AcDbEntity
  8
0
100
AcDbBlockBegin
  2
*D45
 70
     1
 10
0.0
 20
0.0
 30
0.0
  3
*D45
  1

  0
LINE
  5
B8BA
330
B8B9
100
AcDbEntity
  8
30
 62
     0
370
    -2
100
AcDbLine
 10
121.0000000000002
 20
1365.0
 30
0.0
 11
296.3686957354311
 21
1365.0
 31
0.0
  0
LINE
  5
B8BB
330
B8B9
100
AcDbEntity
  8
30
 62
     0
370
    -2
100
AcDbLine
 10
168.5000000000002
 20
1000.0
 30
0.0
 11
296.3686957354311
 21
999.9999999999996
 31
0.0
  0
LINE
  5
B8BC
330
B8B9
100
AcDbEntity
  8
30
 62
     0
370
    -2
100
AcDbLine
 10
295.3686957354311
 20
1360.0
 30
0.0
 11
295.3686957354311
 21
1004.999999999999
 31
0.0
  0
INSERT
  5
B8BD
330
B8B9
100
AcDbEntity
  8
30
 62
     0
370
    -2
100
AcDbBlockReference
  2
_Open
 10
295.3686957354311
 20
1365.0
 30
0.0
 41
5.0
 42
5.0
 43
5.0
 50
90.0
  0
INSERT
  5
B8BE
330
B8B9
100
AcDbEntity
  8
30
 62
     0
370
    -2
100
AcDbBlockReference
  2
_Open
 10
295.3686957354311
 20
999.9999999999996
 30
0.0
 41
5.0
 42
5.0
 43
5.0
 50
270.0
  0
MTEXT
  5
B8BF
330
B8B9
100
AcDbEntity
  8
30
 62
     0
100
AcDbMText
 10
287.368695735431
 20
1182.5
 30
0.0
 40
10.0
 41
0.0
 71
     5
 72
     1
  1
\A1;365
 11
0.0000000000000001
 21
1.0
 31
0.0
 73
     1
 44
1.0
1001
ACAD
1000
MTEXTBEGIN
1070
    73
1070
     1
1070
    44
1040
1.0
1070
    74
1070
     0
1000
MTEXTEND
  0
POINT
  5
B8C0
330
B8B9
100
AcDbEntity
  8
Defpoints
 62
     0
100
AcDbPoint
 10
111.0000000000002
 20
1365.0
 30
0.0
  0
POINT
  5
B8C1
330
B8B9
100
AcDbEntity
  8
Defpoints
 62
     0
100
AcDbPoint
 10
158.4999999999999
 20
1000.0
 30
0.0
  0
POINT
  5
B8C2
330
B8B9
100
AcDbEntity
  8
Defpoints
 62
     0
100
AcDbPoint
 10
295.3686957354311
 20
999.9999999999996
 30
0.0
  0
ENDBLK
  5
B8C4
330
B8B9
100
AcDbEntity
  8
0
100
AcDbBlockEnd
  0
BLOCK
  5
BB59
330
BB4F
100
AcDbEntity
  8
0
100
AcDbBlockBegin
  2
*D46
 70
     1
 10
0.0
 20
0.0
 30
0.0
  3
*D46
  1

  0
LINE
  5
BB50
330
BB4F
100
AcDbEntity
  8
30
 62
     0
370
    -2
100
AcDbLine
 10
-1165.0
 20
1062.0
 30
0.0
 11
-1165.0
 21
947.3842652287068
 31
0.0
  0
LINE
  5
BB51
330
BB4F
100
AcDbEntity
  8
30
 62
     0
370
    -2
100
AcDbLine
 10
-999.9999999999996
 20
990.0
 30
0.0
 11
-999.9999999999996
 21
947.3842652287068
 31
0.0
  0
LINE
  5
BB52
330
BB4F
100
AcDbEntity
  8
30
 62
     0
370
    -2
100
AcDbLine
 10
-1160.0
 20
948.3842652287068
 30
0.0
 11
-1004.999999999999
 21
948.3842652287068
 31
0.0
  0
INSERT
  5
BB53
330
BB4F
100
AcDbEntity
  8
30
 62
     0
370
    -2
100
AcDbBlockReference
  2
_Open
 10
-1165.0
 20
948.3842652287068
 30
0.0
 41
5.0
 42
5.0
 43
5.0
 50
180.0
  0
INSERT
  5
BB54
330
BB4F
100
AcDbEntity
  8
30
 62
     0
370
    -2
100
AcDbBlockReference
  2
_Open
 10
-999.9999999999996
 20
948.3842652287068
 30
0.0
 41
5.0
 42
5.0
 43
5.0
  0
MTEXT
  5
BB55
330
BB4F
100
AcDbEntity
  8
30
 62
     0
100
AcDbMText
 10
-1082.499999999998
 20
956.3842652287068
 30
0.0
 40
10.0
 41
0.0
 71
     5
 72
     1
  1
\A1;165
 73
     1
 44
1.0
1001
ACAD
1000
MTEXTBEGIN
1070
    73
1070
     1
1070
    44
1040
1.0
1070
    74
1070
     0
1000
MTEXTEND
  0
POINT
  5
BB56
330
BB4F
100
AcDbEntity
  8
Defpoints
 62
     0
100
AcDbPoint
 10
-1165.0
 20
1072.0
 30
0.0
  0
POINT
  5
BB57
330
BB4F
100
AcDbEntity
  8
Defpoints
 62
     0
100
AcDbPoint
 10
-999.9999999999996
 20
1000.0
 30
0.0
  0
POINT
  5
BB58
330
BB4F
100
AcDbEntity
  8
Defpoints
 62
     0
100
AcDbPoint
 10
-999.9999999999996
 20
948.3842652287068
 30
0.0
  0
ENDBLK
  5
BB5A
330
BB4F
100
AcDbEntity
  8
0
100
AcDbBlockEnd
  0
BLOCK
  5
BB65
330
BB5B
100
AcDbEntity
  8
0
100
AcDbBlockBegin
  2
*D47
 70
     1
 10
0.0
 20
0.0
 30
0.0
  3
*D47
  1

  0
LINE
  5
BB5C
330
BB5B
100
AcDbEntity
  8
30
 62
     0
370
    -2
100
AcDbLine
 10
-814.9999999999996
 20
1246.999999999997
 30
0.0
 11
-744.6453671497756
 21
1246.999999999997
 31
0.0
  0
LINE
  5
BB5D
330
BB5B
100
AcDbEntity
  8
30
 62
     0
370
    -2
100
AcDbLine
 10
-815.0000000000003
 20
1081.999999999996
 30
0.0
 11
-744.6453671497756
 21
1081.999999999996
 31
0.0
  0
LINE
  5
BB5E
330
BB5B
100
AcDbEntity
  8
30
 62
     0
370
    -2
100
AcDbLine
 10
-745.6453671497756
 20
1241.999999999997
 30
0.0
 11
-745.6453671497756
 21
1086.999999999996
 31
0.0
  0
INSERT
  5
BB5F
330
BB5B
100
AcDbEntity
  8
30
 62
     0
370
    -2
100
AcDbBlockReference
  2
_Open
 10
-745.6453671497756
 20
1246.999999999997
 30
0.0
 41
5.0
 42
5.0
 43
5.0
 50
90.0
  0
INSERT
  5
BB60
330
BB5B
100
AcDbEntity
  8
30
 62
     0
370
    -2
100
AcDbBlockReference
  2
_Open
 10
-745.6453671497756
 20
1081.999999999996
 30
0.0
 41
5.0
 42
5.0
 43
5.0
 50
270.0
  0
MTEXT
  5
BB61
330
BB5B
100
AcDbEntity
  8
30
 62
     0
100
AcDbMText
 10
-753.6453671497756
 20
1164.499999999996
 30
0.0
 40
10.0
 41
0.0
 71
     5
 72
     1
  1
\A1;165
 11
0.0000000000000001
 21
1.0
 31
0.0
 73
     1
 44
1.0
1001
ACAD
1000
MTEXTBEGIN
1070
    73
1070
     1
1070
    44
1040
1.0
1070
    74
1070
     0
1000
MTEXTEND
  0
POINT
  5
BB62
330
BB5B
100
AcDbEntity
  8
Defpoints
 62
     0
100
AcDbPoint
 10
-824.9999999999996
 20
1246.999999999997
 30
0.0
  0
POINT
  5
BB63
330
BB5B
100
AcDbEntity
  8
Defpoints
 62
     0
100
AcDbPoint
 10
-825.0000000000001
 20
1081.999999999996
 30
0.0
  0
POINT
  5
BB64
330
BB5B
100
AcDbEntity
  8
Defpoints
 62
     0
100
AcDbPoint
 10
-745.6453671497756
 20
1081.999999999996
 30
0.0
  0
ENDBLK
  5
BB66
330
BB5B
100
AcDbEntity
  8
0
100
AcDbBlockEnd
  0
BLOCK
  5
BB71
330
BB67
100
AcDbEntity
  8
0
100
AcDbBlockBegin
  2
*D48
 70
     1
 10
0.0
 20
0.0
 30
0.0
  3
*D48
  1

  0
LINE
  5
BB68
330
BB67
100
AcDbEntity
  8
30
 62
     0
370
    -2
100
AcDbLine
 10
-817.9999999999996
 20
1081.999999999996
 30
0.0
 11
-744.6453671497756
 21
1081.999999999996
 31
0.0
  0
LINE
  5
BB69
330
BB67
100
AcDbEntity
  8
30
 62
     0
370
    -2
100
AcDbLine
 10
-817.9999999999996
 20
1000.0
 30
0.0
 11
-744.6453671497756
 21
999.9999999999996
 31
0.0
  0
LINE
  5
BB6A
330
BB67
100
AcDbEntity
  8
30
 62
     0
370
    -2
100
AcDbLine
 10
-745.6453671497756
 20
1076.999999999997
 30
0.0
 11
-745.6453671497756
 21
1004.999999999999
 31
0.0
  0
INSERT
  5
BB6B
330
BB67
100
AcDbEntity
  8
30
 62
     0
370
    -2
100
AcDbBlockReference
  2
_Open
 10
-745.6453671497756
 20
1081.999999999996
 30
0.0
 41
5.0
 42
5.0
 43
5.0
 50
90.0
  0
INSERT
  5
BB6C
330
BB67
100
AcDbEntity
  8
30
 62
     0
370
    -2
100
AcDbBlockReference
  2
_Open
 10
-745.6453671497756
 20
999.9999999999996
 30
0.0
 41
5.0
 42
5.0
 43
5.0
 50
270.0
  0
MTEXT
  5
BB6D
330
BB67
100
AcDbEntity
  8
30
 62
     0
100
AcDbMText
 10
-753.6453671497756
 20
1040.999999999998
 30
0.0
 40
10.0
 41
0.0
 71
     5
 72
     1
  1
\A1;82
 11
0.0000000000000001
 21
1.0
 31
0.0
 73
     1
 44
1.0
1001
ACAD
1000
MTEXTBEGIN
1070
    73
1070
     1
1070
    44
1040
1.0
1070
    74
1070
     0
1000
MTEXTEND
  0
POINT
  5
BB6E
330
BB67
100
AcDbEntity
  8
Defpoints
 62
     0
100
AcDbPoint
 10
-827.9999999999997
 20
1081.999999999996
 30
0.0
  0
POINT
  5
BB6F
330
BB67
100
AcDbEntity
  8
Defpoints
 62
     0
100
AcDbPoint
 10
-827.9999999999997
 20
1000.0
 30
0.0
  0
POINT
  5
BB70
330
BB67
100
AcDbEntity
  8
Defpoints
 62
     0
100
AcDbPoint
 10
-745.6453671497756
 20
999.9999999999996
 30
0.0
  0
ENDBLK
  5
BB72
330
BB67
100
AcDbEntity
  8
0
100
AcDbBlockEnd
  0
BLOCK
  5
BB7D
330
BB73
100
AcDbEntity
  8
0
100
AcDbBlockBegin
  2
*D49
 70
     1
 10
0.0
 20
0.0
 30
0.0
  3
*D49
  1

  0
LINE
  5
BB74
330
BB73
100
AcDbEntity
  8
30
 62
     0
370
    -2
100
AcDbLine
 10
-999.9999999999996
 20
988.0
 30
0.0
 11
-999.9999999999996
 21
947.3842652287068
 31
0.0
  0
LINE
  5
BB75
330
BB73
100
AcDbEntity
  8
30
 62
     0
370
    -2
100
AcDbLine
 10
-834.9999999999996
 20
1061.999999999998
 30
0.0
 11
-834.9999999999996
 21
947.3842652287068
 31
0.0
  0
LINE
  5
BB76
330
BB73
100
AcDbEntity
  8
30
 62
     0
370
    -2
100
AcDbLine
 10
-994.9999999999997
 20
948.3842652287068
 30
0.0
 11
-839.9999999999996
 21
948.3842652287068
 31
0.0
  0
INSERT
  5
BB77
330
BB73
100
AcDbEntity
  8
30
 62
     0
370
    -2
100
AcDbBlockReference
  2
_Open
 10
-999.9999999999996
 20
948.3842652287068
 30
0.0
 41
5.0
 42
5.0
 43
5.0
 50
180.0
  0
INSERT
  5
BB78
330
BB73
100
AcDbEntity
  8
30
 62
     0
370
    -2
100
AcDbBlockReference
  2
_Open
 10
-834.9999999999996
 20
948.3842652287068
 30
0.0
 41
5.0
 42
5.0
 43
5.0
  0
MTEXT
  5
BB79
330
BB73
100
AcDbEntity
  8
30
 62
     0
100
AcDbMText
 10
-917.4999999999997
 20
956.3842652287068
 30
0.0
 40
10.0
 41
0.0
 71
     5
 72
     1
  1
\A1;165
 73
     1
 44
1.0
1001
ACAD
1000
MTEXTBEGIN
1070
    73
1070
     1
1070
    44
1040
1.0
1070
    74
1070
     0
1000
MTEXTEND
  0
POINT
  5
BB7A
330
BB73
100
AcDbEntity
  8
Defpoints
 62
     0
100
AcDbPoint
 10
-999.9999999999996
 20
998.0
 30
0.0
  0
POINT
  5
BB7B
330
BB73
100
AcDbEntity
  8
Defpoints
 62
     0
100
AcDbPoint
 10
-834.9999999999996
 20
1071.999999999998
 30
0.0
  0
POINT
  5
BB7C
330
BB73
100
AcDbEntity
  8
Defpoints
 62
     0
100
AcDbPoint
 10
-834.9999999999996
 20
948.3842652287068
 30
0.0
  0
ENDBLK
  5
BB7E
330
BB73
100
AcDbEntity
  8
0
100
AcDbBlockEnd
  0
BLOCK
  5
BBB1
330
BBA7
100
AcDbEntity
  8
0
100
AcDbBlockBegin
  2
*D50
 70
     1
 10
0.0
 20
0.0
 30
0.0
  3
*D50
  1

  0
LINE
  5
BF15
330
BBA7
100
AcDbEntity
  8
30
 62
     0
370
    -2
100
AcDbLine
 10
-814.9999999999996
 20
1246.999999999997
 30
0.0
 11
-744.6453671497756
 21
1246.999999999997
 31
0.0
  0
LINE
  5
BF16
330
BBA7
100
AcDbEntity
  8
30
 62
     0
370
    -2
100
AcDbLine
 10
-815.0000000000003
 20
1081.999999999996
 30
0.0
 11
-744.6453671497756
 21
1081.999999999996
 31
0.0
  0
LINE
  5
BF17
330
BBA7
100
AcDbEntity
  8
30
 62
     0
370
    -2
100
AcDbLine
 10
-745.6453671497756
 20
1241.999999999997
 30
0.0
 11
-745.6453671497756
 21
1086.999999999996
 31
0.0
  0
INSERT
  5
BF18
330
BBA7
100
AcDbEntity
  8
30
 62
     0
370
    -2
100
AcDbBlockReference
  2
_Open
 10
-745.6453671497756
 20
1246.999999999997
 30
0.0
 41
5.0
 42
5.0
 43
5.0
 50
90.0
  0
INSERT
  5
BF19
330
BBA7
100
AcDbEntity
  8
30
 62
     0
370
    -2
100
AcDbBlockReference
  2
_Open
 10
-745.6453671497756
 20
1081.999999999996
 30
0.0
 41
5.0
 42
5.0
 43
5.0
 50
270.0
  0
MTEXT
  5
BF1A
330
BBA7
100
AcDbEntity
  8
30
 62
     0
100
AcDbMText
 10
-753.6453671497756
 20
1164.499999999996
 30
0.0
 40
10.0
 41
0.0
 71
     5
 72
     1
  1
\A1;165
 11
0.0000000000000001
 21
1.0
 31
0.0
 73
     1
 44
1.0
1001
ACAD
1000
MTEXTBEGIN
1070
    73
1070
     1
1070
    44
1040
1.0
1070
    74
1070
     0
1000
MTEXTEND
  0
POINT
  5
BF1B
330
BBA7
100
AcDbEntity
  8
Defpoints
 62
     0
100
AcDbPoint
 10
-824.9999999999996
 20
1246.999999999997
 30
0.0
  0
POINT
  5
BF1C
330
BBA7
100
AcDbEntity
  8
Defpoints
 62
     0
100
AcDbPoint
 10
-825.0000000000001
 20
1081.999999999996
 30
0.0
  0
POINT
  5
BF1D
330
BBA7
100
AcDbEntity
  8
Defpoints
 62
     0
100
AcDbPoint
 10
-745.6453671497756
 20
1081.999999999996
 30
0.0
  0
ENDBLK
  5
BBB2
330
BBA7
100
AcDbEntity
  8
0
100
AcDbBlockEnd
  0
BLOCK
  5
BBBD
330
BBB3
100
AcDbEntity
  8
0
100
AcDbBlockBegin
  2
*D51
 70
     1
 10
0.0
 20
0.0
 30
0.0
  3
*D51
  1

  0
LINE
  5
BF1E
330
BBB3
100
AcDbEntity
  8
30
 62
     0
370
    -2
100
AcDbLine
 10
-817.9999999999996
 20
1081.999999999996
 30
0.0
 11
-744.6453671497756
 21
1081.999999999996
 31
0.0
  0
LINE
  5
BF1F
330
BBB3
100
AcDbEntity
  8
30
 62
     0
370
    -2
100
AcDbLine
 10
-817.9999999999996
 20
1000.0
 30
0.0
 11
-744.6453671497756
 21
999.9999999999996
 31
0.0
  0
LINE
  5
BF20
330
BBB3
100
AcDbEntity
  8
30
 62
     0
370
    -2
100
AcDbLine
 10
-745.6453671497756
 20
1076.999999999996
 30
0.0
 11
-745.6453671497756
 21
1004.999999999999
 31
0.0
  0
INSERT
  5
BF21
330
BBB3
100
AcDbEntity
  8
30
 62
     0
370
    -2
100
AcDbBlockReference
  2
_Open
 10
-745.6453671497756
 20
1081.999999999996
 30
0.0
 41
5.0
 42
5.0
 43
5.0
 50
90.0
  0
INSERT
  5
BF22
330
BBB3
100
AcDbEntity
  8
30
 62
     0
370
    -2
100
AcDbBlockReference
  2
_Open
 10
-745.6453671497756
 20
999.9999999999996
 30
0.0
 41
5.0
 42
5.0
 43
5.0
 50
270.0
  0
MTEXT
  5
BF23
330
BBB3
100
AcDbEntity
  8
30
 62
     0
100
AcDbMText
 10
-753.6453671497756
 20
1040.999999999997
 30
0.0
 40
10.0
 41
0.0
 71
     5
 72
     1
  1
\A1;82
 11
0.0000000000000001
 21
1.0
 31
0.0
 73
     1
 44
1.0
1001
ACAD
1000
MTEXTBEGIN
1070
    73
1070
     1
1070
    44
1040
1.0
1070
    74
1070
     0
1000
MTEXTEND
  0
POINT
  5
BF24
330
BBB3
100
AcDbEntity
  8
Defpoints
 62
     0
100
AcDbPoint
 10
-827.9999999999997
 20
1081.999999999996
 30
0.0
  0
POINT
  5
BF25
330
BBB3
100
AcDbEntity
  8
Defpoints
 62
     0
100
AcDbPoint
 10
-827.9999999999997
 20
1000.0
 30
0.0
  0
POINT
  5
BF26
330
BBB3
100
AcDbEntity
  8
Defpoints
 62
     0
100
AcDbPoint
 10
-745.6453671497756
 20
999.9999999999996
 30
0.0
  0
ENDBLK
  5
BBBE
330
BBB3
100
AcDbEntity
  8
0
100
AcDbBlockEnd
  0
BLOCK
  5
BBC9
330
BBBF
100
AcDbEntity
  8
0
100
AcDbBlockBegin
  2
*D52
 70
     1
 10
0.0
 20
0.0
 30
0.0
  3
*D52
  1

  0
LINE
  5
BF27
330
BBBF
100
AcDbEntity
  8
30
 62
     0
370
    -2
100
AcDbLine
 10
-1165.0
 20
1062.0
 30
0.0
 11
-1165.0
 21
947.3842652287068
 31
0.0
  0
LINE
  5
BF28
330
BBBF
100
AcDbEntity
  8
30
 62
     0
370
    -2
100
AcDbLine
 10
-999.9999999999996
 20
990.0
 30
0.0
 11
-999.9999999999996
 21
947.3842652287068
 31
0.0
  0
LINE
  5
BF29
330
BBBF
100
AcDbEntity
  8
30
 62
     0
370
    -2
100
AcDbLine
 10
-1160.0
 20
948.3842652287068
 30
0.0
 11
-1004.999999999999
 21
948.3842652287068
 31
0.0
  0
INSERT
  5
BF2A
330
BBBF
100
AcDbEntity
  8
30
 62
     0
370
    -2
100
AcDbBlockReference
  2
_Open
 10
-1165.0
 20
948.3842652287068
 30
0.0
 41
5.0
 42
5.0
 43
5.0
 50
180.0
  0
INSERT
  5
BF2B
330
BBBF
100
AcDbEntity
  8
30
 62
     0
370
    -2
100
AcDbBlockReference
  2
_Open
 10
-999.9999999999996
 20
948.3842652287068
 30
0.0
 41
5.0
 42
5.0
 43
5.0
  0
MTEXT
  5
BF2C
330
BBBF
100
AcDbEntity
  8
30
 62
     0
100
AcDbMText
 10
-1082.499999999999
 20
956.3842652287068
 30
0.0
 40
10.0
 41
0.0
 71
     5
 72
     1
  1
\A1;165
 73
     1
 44
1.0
1001
ACAD
1000
MTEXTBEGIN
1070
    73
1070
     1
1070
    44
1040
1.0
1070
    74
1070
     0
1000
MTEXTEND
  0
POINT
  5
BF2D
330
BBBF
100
AcDbEntity
  8
Defpoints
 62
     0
100
AcDbPoint
 10
-1165.0
 20
1072.0
 30
0.0
  0
POINT
  5
BF2E
330
BBBF
100
AcDbEntity
  8
Defpoints
 62
     0
100
AcDbPoint
 10
-999.9999999999996
 20
1000.0
 30
0.0
  0
POINT
  5
BF2F
330
BBBF
100
AcDbEntity
  8
Defpoints
 62
     0
100
AcDbPoint
 10
-999.9999999999996
 20
948.3842652287068
 30
0.0
  0
ENDBLK
  5
BBCA
330
BBBF
100
AcDbEntity
  8
0
100
AcDbBlockEnd
  0
BLOCK
  5
BBD5
330
BBCB
100
AcDbEntity
  8
0
100
AcDbBlockBegin
  2
*D53
 70
     1
 10
0.0
 20
0.0
 30
0.0
  3
*D53
  1

  0
LINE
  5
BF30
330
BBCB
100
AcDbEntity
  8
30
 62
     0
370
    -2
100
AcDbLine
 10
-999.9999999999996
 20
988.0
 30
0.0
 11
-999.9999999999996
 21
947.3842652287068
 31
0.0
  0
LINE
  5
BF31
330
BBCB
100
AcDbEntity
  8
30
 62
     0
370
    -2
100
AcDbLine
 10
-834.9999999999996
 20
1061.999999999998
 30
0.0
 11
-834.9999999999996
 21
947.3842652287068
 31
0.0
  0
LINE
  5
BF32
330
BBCB
100
AcDbEntity
  8
30
 62
     0
370
    -2
100
AcDbLine
 10
-994.9999999999997
 20
948.3842652287068
 30
0.0
 11
-839.9999999999996
 21
948.3842652287068
 31
0.0
  0
INSERT
  5
BF33
330
BBCB
100
AcDbEntity
  8
30
 62
     0
370
    -2
100
AcDbBlockReference
  2
_Open
 10
-999.9999999999996
 20
948.3842652287068
 30
0.0
 41
5.0
 42
5.0
 43
5.0
 50
180.0
  0
INSERT
  5
BF34
330
BBCB
100
AcDbEntity
  8
30
 62
     0
370
    -2
100
AcDbBlockReference
  2
_Open
 10
-834.9999999999996
 20
948.3842652287068
 30
0.0
 41
5.0
 42
5.0
 43
5.0
  0
MTEXT
  5
BF35
330
BBCB
100
AcDbEntity
  8
30
 62
     0
100
AcDbMText
 10
-917.4999999999997
 20
956.3842652287068
 30
0.0
 40
10.0
 41
0.0
 71
     5
 72
     1
  1
\A1;165
 73
     1
 44
1.0
1001
ACAD
1000
MTEXTBEGIN
1070
    73
1070
     1
1070
    44
1040
1.0
1070
    74
1070
     0
1000
MTEXTEND
  0
POINT
  5
BF36
330
BBCB
100
AcDbEntity
  8
Defpoints
 62
     0
100
AcDbPoint
 10
-999.9999999999996
 20
998.0
 30
0.0
  0
POINT
  5
BF37
330
BBCB
100
AcDbEntity
  8
Defpoints
 62
     0
100
AcDbPoint
 10
-834.9999999999996
 20
1071.999999999998
 30
0.0
  0
POINT
  5
BF38
330
BBCB
100
AcDbEntity
  8
Defpoints
 62
     0
100
AcDbPoint
 10
-834.9999999999996
 20
948.3842652287068
 30
0.0
  0
ENDBLK
  5
BBD6
330
BBCB
100
AcDbEntity
  8
0
100
AcDbBlockEnd
  0
BLOCK
  5
BCAA
330
BCA2
100
AcDbEntity
  8
0
100
AcDbBlockBegin
  2
*D54
 70
     1
 10
0.0
 20
0.0
 30
0.0
  3
*D54
  1

  0
LINE
  5
BD2D
330
BCA2
100
AcDbEntity
  8
30
 62
     0
370
    -2
100
AcDbLine
 10
1126.0
 20
24.99999999999999
 30
0.0
 11
1126.0
 21
-58.11228811336604
 31
0.0
  0
LINE
  5
BD2E
330
BCA2
100
AcDbEntity
  8
30
 62
     0
370
    -2
100
AcDbLine
 10
1224.0
 20
123.000001948
 30
0.0
 11
1224.0
 21
-58.11228811336604
 31
0.0
  0
LINE
  5
BD2F
330
BCA2
100
AcDbEntity
  8
30
 62
     0
370
    -2
100
AcDbLine
 10
1131.0
 20
-57.11228811336605
 30
0.0
 11
1219.0
 21
-57.11228811336605
 31
0.0
  0
INSERT
  5
BD30
330
BCA2
100
AcDbEntity
  8
30
 62
     0
370
    -2
100
AcDbBlockReference
  2
_Open
 10
1126.0
 20
-57.11228811336605
 30
0.0
 41
5.0
 42
5.0
 43
5.0
 50
180.0
  0
INSERT
  5
BD31
330
BCA2
100
AcDbEntity
  8
30
 62
     0
370
    -2
100
AcDbBlockReference
  2
_Open
 10
1224.0
 20
-57.11228811336605
 30
0.0
 41
5.0
 42
5.0
 43
5.0
  0
MTEXT
  5
BD32
330
BCA2
100
AcDbEntity
  8
30
 62
     0
100
AcDbMText
 10
1175.0
 20
-49.11228811336605
 30
0.0
 40
10.0
 41
0.0
 71
     5
 72
     1
  1
\A1;98
 73
     1
 44
1.0
1001
ACAD
1000
MTEXTBEGIN
1070
    73
1070
     1
1070
    44
1040
1.0
1070
    74
1070
     0
1000
MTEXTEND
  0
POINT
  5
BD33
330
BCA2
100
AcDbEntity
  8
Defpoints
 62
     0
100
AcDbPoint
 10
1126.0
 20
35.0
 30
0.0
  0
POINT
  5
BD34
330
BCA2
100
AcDbEntity
  8
Defpoints
 62
     0
100
AcDbPoint
 10
1224.0
 20
133.0000019480001
 30
0.0
  0
POINT
  5
BD35
330
BCA2
100
AcDbEntity
  8
Defpoints
 62
     0
100
AcDbPoint
 10
1224.0
 20
-57.11228811336605
 30
0.0
  0
ENDBLK
  5
BCAB
330
BCA2
100
AcDbEntity
  8
0
100
AcDbBlockEnd
  0
BLOCK
  5
BD06
330
BCFC
100
AcDbEntity
  8
0
100
AcDbBlockBegin
  2
*D55
 70
     1
 10
0.0
 20
0.0
 30
0.0
  3
*D55
  1

  0
LINE
  5
BCFD
330
BCFC
100
AcDbEntity
  8
30
 62
     0
370
    -2
100
AcDbLine
 10
859.0
 20
-333.7871262184599
 30
0.0
 11
859.0
 21
-447.4516790883988
 31
0.0
  0
LINE
  5
BCFE
330
BCFC
100
AcDbEntity
  8
30
 62
     0
370
    -2
100
AcDbLine
 10
1224.0
 20
-333.7871262184599
 30
0.0
 11
1224.0
 21
-447.4516790883988
 31
0.0
  0
LINE
  5
BCFF
330
BCFC
100
AcDbEntity
  8
30
 62
     0
370
    -2
100
AcDbLine
 10
864.0
 20
-446.451679088399
 30
0.0
 11
1219.0
 21
-446.451679088399
 31
0.0
  0
INSERT
  5
BD00
330
BCFC
100
AcDbEntity
  8
30
 62
     0
370
    -2
100
AcDbBlockReference
  2
_Open
 10
859.0
 20
-446.451679088399
 30
0.0
 41
5.0
 42
5.0
 43
5.0
 50
180.0
  0
INSERT
  5
BD01
330
BCFC
100
AcDbEntity
  8
30
 62
     0
370
    -2
100
AcDbBlockReference
  2
_Open
 10
1224.0
 20
-446.451679088399
 30
0.0
 41
5.0
 42
5.0
 43
5.0
  0
MTEXT
  5
BD02
330
BCFC
100
AcDbEntity
  8
30
 62
     0
100
AcDbMText
 10
1041.5
 20
-438.4516790883989
 30
0.0
 40
10.0
 41
0.0
 71
     5
 72
     1
  1
\A1;365
 73
     1
 44
1.0
1001
ACAD
1000
MTEXTBEGIN
1070
    73
1070
     1
1070
    44
1040
1.0
1070
    74
1070
     0
1000
MTEXTEND
  0
POINT
  5
BD03
330
BCFC
100
AcDbEntity
  8
Defpoints
 62
     0
100
AcDbPoint
 10
859.0
 20
-323.7871262184599
 30
0.0
  0
POINT
  5
BD04
330
BCFC
100
AcDbEntity
  8
Defpoints
 62
     0
100
AcDbPoint
 10
1224.0
 20
-323.7871262184599
 30
0.0
  0
POINT
  5
BD05
330
BCFC
100
AcDbEntity
  8
Defpoints
 62
     0
100
AcDbPoint
 10
1224.0
 20
-446.451679088399
 30
0.0
  0
ENDBLK
  5
BD07
330
BCFC
100
AcDbEntity
  8
0
100
AcDbBlockEnd
  0
ENDSEC
  0
SECTION
  2
ENTITIES
  0
LINE
  5
47EF
330
1E
100
AcDbEntity
  8
16
100
AcDbLine
 10
-999.9999999999996
 20
1000.0
 30
0.0
 11
-999.9999999999996
 21
1343.000122
 31
0.0
  0
LINE
  5
4815
330
1E
100
AcDbEntity
  8
16
100
AcDbLine
 10
-1000.0
 20
649.9999849999998
 30
0.0
 11
-1000.0
 21
-100.0
 31
0.0
  0
MTEXT
  5
4816
330
1E
100
AcDbEntity
  8
19
100
AcDbMText
 10
193.0507158932632
 20
-238.0159935205936
 30
0.0
 40
10.0
 41
0.0
 71
     1
 72
     1
  1
 \A1;
 73
     1
 44
1.0
1001
ACAD
1000
MTEXTBEGIN
1070
    73
1070
     1
1070
    44
1040
1.0
1070
    74
1070
     0
1000
MTEXTEND
  0
MTEXT
  5
4821
330
1E
100
AcDbEntity
  8
19
100
AcDbMText
 10
-806.9492841067367
 20
749.9840064794061
 30
0.0
 40
10.0
 41
0.0
 71
     1
 72
     1
  1
 \A1;
 73
     1
 44
1.0
1001
ACAD
1000
MTEXTBEGIN
1070
    73
1070
     1
1070
    44
1040
1.0
1070
    74
1070
     0
1000
MTEXTEND
  0
LINE
  5
483D
330
1E
100
AcDbEntity
  8
16
100
AcDbLine
 10
0.0
 20
609.0903448879142
 30
0.0
 11
0.0
 21
-50.19847549200012
 31
0.0
  0
TEXT
  5
49B8
330
1E
100
AcDbEntity
  8
19
100
AcDbText
 10
2045.888184
 20
1309.478026999999
 30
0.0
 40
30.0
  1
FIXED TYPE
 41
0.833333
100
AcDbText
  0
TEXT
  5
49BA
330
1E
100
AcDbEntity
  8
19
100
AcDbText
 10
1766.606201
 20
1314.029445270118
 30
0.0
 40
25.0
  1
AR212S  3P
100
AcDbText
  0
LINE
  5
4A70
330
1E
100
AcDbEntity
  8
10
100
AcDbLine
 10
119.0
 20
988.0
 30
0.0
 11
119.0
 21
1000.0
 31
0.0
  0
LINE
  5
4A71
330
1E
100
AcDbEntity
  8
10
100
AcDbLine
 10
-119.0
 20
1000.0
 30
0.0
 11
-119.0
 21
988.0
 31
0.0
  0
TEXT
  5
4ACC
330
1E
100
AcDbEntity
  8
19
100
AcDbText
 10
1738.013184
 20
1117.178101
 30
0.0
 40
20.0
  1
* : CONDUCTOR OVERLAP.MAX
100
AcDbText
  0
TEXT
  5
4B12
330
1E
100
AcDbEntity
  8
19
100
AcDbText
 10
2028.202148
 20
1114.541626
 30
0.0
 40
20.0
  1

100
AcDbText
  0
LINE
  5
58B0
330
1E
100
AcDbEntity
  8
Defpoints
100
AcDbLine
 10
-1498.49864938606
 20
0.0
 30
0.0
 11
2621.04102329482
 21
0.0
 31
0.0
  0
LINE
  5
6A68
330
1E
100
AcDbEntity
  8
16
100
AcDbLine
 10
2000.0
 20
-31.00920100000007
 30
0.0
 11
2000.0
 21
528.6787719999998
 31
0.0
  0
DIMENSION
  5
6DD5
330
1E
100
AcDbEntity
  8
30
100
AcDbDimension
  2
*D5
 10
118.999899174999
 20
958.0091017753019
 30
0.0
 11
59.49989917499909
 21
966.0091017753019
 31
0.0
 70
    32
 71
     5
 42
118.9999999999998
  3
Standard
100
AcDbAlignedDimension
 13
-0.0001008250008141
 23
988.0
 33
0.0
 14
118.999899174999
 24
988.0
 34
0.0
100
AcDbRotatedDimension
  0
DIMENSION
  5
6DE2
330
1E
100
AcDbEntity
  8
30
100
AcDbDimension
  2
*D6
 10
-119.0001008250008
 20
957.1757684419686
 30
0.0
 11
-59.50010082500082
 21
965.1757684419687
 31
0.0
 70
    32
 71
     5
 42
118.9999999999999
  3
Standard
100
AcDbAlignedDimension
 13
-0.0001008250008141
 23
988.0
 33
0.0
 14
-119.0001008250008
 24
988.0
 34
0.0
100
AcDbRotatedDimension
  0
TEXT
  5
6F91
330
1E
100
AcDbEntity
  8
19
100
AcDbText
 10
1784.331070345976
 20
1251.378903112565
 30
0.0
 40
30.0
  1
HORIZONTAL CONNECTION
 41
0.833333
100
AcDbText
  0
TEXT
  5
7CAB
330
1E
100
AcDbEntity
  8
19
100
AcDbText
 10
1766.606201
 20
1353.567873130905
 30
0.0
 40
25.0
  1
AR208S  3P
100
AcDbText
  0
MTEXT
  5
7E44
330
1E
100
AcDbEntity
  8
30
100
AcDbMText
 10
1593.944797869426
 20
-94.55833755944604
 30
0.0
 40
10.0
 41
0.0
 71
     1
 72
     1
  1
\A1;
 73
     1
 44
1.0
1001
ACAD
1000
MTEXTBEGIN
1070
    73
1070
     1
1070
    44
1040
1.0
1070
    74
1070
     0
1000
MTEXTEND
  0
LEADER
  5
975C
330
1E
100
AcDbEntity
  8
19
100
AcDbLeader
  3
Standard
 76
     3
 10
1016.465290281999
 20
-79.40515634200027
 30
0.0
 10
895.7482048910001
 20
-322.5899205199999
 30
0.0
 10
553.4108369979999
 20
-322.5899205199999
 30
0.0
  0
MTEXT
  5
975D
330
1E
100
AcDbEntity
  8
19
100
AcDbMText
 10
553.4316304389998
 20
-295.2168115056267
 30
0.0
 40
20.0
 41
0.0
 71
     1
 72
     5
  1
MAINTENANCE SPACE
 73
     1
 44
1.0
1001
ACAD
1000
MTEXTBEGIN
1070
    73
1070
     1
1070
    44
1040
1.0
1070
    74
1070
     0
1000
MTEXTEND
  0
LEADER
  5
9760
330
1E
100
AcDbEntity
  8
19
100
AcDbLeader
  3
Standard
 74
     0
 76
     3
 10
-1128.880913773
 20
547.9391534589997
 30
0.0
 10
-1176.682251760998
 20
657.9143388150002
 30
0.0
 10
-762.8809137730002
 20
658.9391534589998
 30
0.0
  0
MTEXT
  5
9761
330
1E
100
AcDbEntity
  8
19
100
AcDbMText
 10
-1171.634200468
 20
687.9000191939999
 30
0.0
 40
20.0
 41
0.0
 71
     1
 72
     5
  1
MAINTENANCE SPACE(min)
 73
     1
 44
1.0
1001
ACAD
1000
MTEXTBEGIN
1070
    73
1070
     1
1070
    44
1040
1.0
1070
    74
1070
     0
1000
MTEXTEND
  0
DIMENSION
  5
9762
330
1E
100
AcDbEntity
  8
30
100
AcDbDimension
  2
*D7
 10
-1240.0
 20
-182.3309887360001
 30
0.0
 11
-1120.40545096
 21
-182.3309887360001
 31
0.0
 70
   160
 71
     5
 42
240.0
  3
Standard
100
AcDbAlignedDimension
 13
-1000.0
 23
-100.0
 33
0.0
 14
-1240.0
 24
-100.0
 34
0.0
100
AcDbRotatedDimension
  0
DIMENSION
  5
9763
330
1E
100
AcDbEntity
  8
30
100
AcDbDimension
  2
*D8
 10
-760.0
 20
-182.3309887360001
 30
0.0
 11
-883.9096663479999
 21
-182.3309887360001
 31
0.0
 70
   160
 71
     5
 42
240.0
  3
Standard
100
AcDbAlignedDimension
 13
-1000.0
 23
-100.0
 33
0.0
 14
-760.0
 24
-100.0
 34
0.0
100
AcDbRotatedDimension
  0
MTEXT
  5
9769
330
1E
100
AcDbEntity
  8
19
100
AcDbMText
 10
-1114.32873818
 20
-231.4711700350001
 30
0.0
 40
20.0
 41
0.0
 71
     1
 72
     5
  1
PANEL CUTOUT
 73
     1
 44
1.0
1001
ACAD
1000
MTEXTBEGIN
1070
    73
1070
     1
1070
    44
1040
1.0
1070
    74
1070
     0
1000
MTEXTEND
  0
DIMENSION
  5
9771
330
1E
100
AcDbEntity
  8
30
100
AcDbDimension
  2
*D9
 10
-875.0
 20
-68.34452665899994
 30
0.0
 11
-996.0432078769999
 21
-68.34452665899994
 31
0.0
 70
   160
 71
     5
 42
250.0
  3
Standard
100
AcDbAlignedDimension
 13
-1125.0
 23
30.0
 33
0.0
 14
-875.0
 24
30.0
 34
0.0
100
AcDbRotatedDimension
  0
LINE
  5
9776
330
1E
100
AcDbEntity
  8
0
  6
Continuous
 62
     7
100
AcDbLine
 10
-1000.0
 20
451.4166701679998
 30
0.0
 11
-1000.0
 21
444.0385316249994
 31
0.0
  0
DIMENSION
  5
9782
330
1E
100
AcDbEntity
  8
30
100
AcDbDimension
  2
*D10
 10
-808.291326243207
 20
29.99999999999998
 30
0.0
 11
-808.2913262432068
 21
211.8006790989998
 31
0.0
 70
   160
 71
     5
 42
335.0
  3
Standard
100
AcDbAlignedDimension
 13
-875.0
 23
365.0
 33
0.0
 14
-875.0
 24
30.0
 34
0.0
 50
270.0
100
AcDbRotatedDimension
  0
DIMENSION
  5
9784
330
1E
100
AcDbEntity
  8
30
100
AcDbDimension
  2
*D11
 10
-671.5211279634137
 20
550.0
 30
0.0
 11
-671.5211279634137
 21
265.959836774
 31
0.0
 70
   160
 71
     5
 42
550.0
  3
Standard
100
AcDbAlignedDimension
 13
-732.150051565
 23
0.0
 33
0.0
 14
-760.0
 24
550.0
 34
0.0
 50
90.0
100
AcDbRotatedDimension
  0
DIMENSION
  5
9785
330
1E
100
AcDbEntity
  8
30
100
AcDbDimension
  2
*D12
 10
-671.5211279634141
 20
-100.0
 30
0.0
 11
-671.5211279634137
 21
-47.95708235300003
 31
0.0
 70
   160
 71
     5
 42
100.0
  3
Standard
100
AcDbAlignedDimension
 13
-732.150051565
 23
0.0
 33
0.0
 14
-760.0
 24
-100.0
 34
0.0
 50
90.0
100
AcDbRotatedDimension
  0
DIMENSION
  5
9786
330
1E
100
AcDbEntity
  8
30
100
AcDbDimension
  2
*D13
 10
-808.291326243207
 20
0.0000000000000216
 30
0.0
 11
-808.2913262432068
 21
-24.79563015600023
 31
0.0
 70
   160
 71
     5
 42
29.99999999999996
  3
Standard
100
AcDbAlignedDimension
 13
-875.0
 23
30.0
 33
0.0
 14
-732.150051565
 24
0.0
 34
0.0
 50
90.0
100
AcDbRotatedDimension
  0
DIMENSION
  5
990D
330
1E
100
AcDbEntity
  8
30
100
AcDbDimension
  2
*D14
 10
1078.0
 20
-174.5762283559999
 30
0.0
 11
1093.139112677999
 21
-174.5762283559999
 31
0.0
 70
   160
 71
     5
 42
28.0
  3
Standard
100
AcDbAlignedDimension
 13
1106.0
 23
-38.39230421199999
 33
0.0
 14
1078.0
 24
-112.2872557789999
 34
0.0
100
AcDbRotatedDimension
  0
DIMENSION
  5
990F
330
1E
100
AcDbEntity
  8
30
100
AcDbDimension
  2
*D15
 10
1078.0
 20
-174.3558023999999
 30
0.0
 11
1030.592592592
 21
-174.3558023999999
 31
0.0
 70
   160
 71
     5
 42
100.0
  3
Standard
100
AcDbAlignedDimension
 13
978.0
 23
-112.2872557789999
 33
0.0
 14
1078.0
 24
-112.2872557789999
 34
0.0
100
AcDbRotatedDimension
  0
DIMENSION
  5
9912
330
1E
100
AcDbEntity
  8
30
100
AcDbDimension
  2
*D16
 10
941.0
 20
-174.3558023999999
 30
0.0
 11
914.3140170659998
 21
-174.3558023999999
 31
0.0
 70
   160
 71
     5
 42
37.0
  3
Standard
100
AcDbAlignedDimension
 13
978.0
 23
-112.2872557789999
 33
0.0
 14
941.0
 24
-19.12765978699985
 34
0.0
100
AcDbRotatedDimension
  0
LEADER
  5
9917
330
1E
100
AcDbEntity
  8
19
100
AcDbLeader
  3
Standard
 74
     0
 76
     3
 10
1126.0
 20
35.0
 30
0.0
 10
1357.639629639999
 20
-150.7436496170001
 30
0.0
 10
1640.452833654
 20
-150.7436496170001
 30
0.0
  0
MTEXT
  5
9918
330
1E
100
AcDbEntity
  8
19
100
AcDbMText
 10
1362.650914169998
 20
-123.5458790449924
 30
0.0
 40
20.0
 41
0.0
 71
     1
 72
     5
  1
EARTH TERMINAL
 73
     1
 44
1.0
1001
ACAD
1000
MTEXTBEGIN
1070
    73
1070
     1
1070
    44
1040
1.0
1070
    74
1070
     0
1000
MTEXTEND
  0
MTEXT
  5
9919
330
1E
100
AcDbEntity
  8
19
100
AcDbMText
 10
1355.805243818455
 20
-155.4390665703473
 30
0.0
 40
20.0
 41
0.0
 71
     1
 72
     5
  1
(RIGHT SIDE ONLY)
 73
     1
 44
1.0
1001
ACAD
1000
MTEXTBEGIN
1070
    73
1070
     1
1070
    44
1040
1.0
1070
    74
1070
     0
1000
MTEXTEND
  0
MTEXT
  5
9928
330
1E
100
AcDbEntity
  8
19
100
AcDbMText
 10
649.731664978
 20
-328.2822730479998
 30
0.0
 40
20.0
 41
0.0
 71
     1
 72
     5
  1
(min)
 73
     1
 44
1.0
1001
ACAD
1000
MTEXTBEGIN
1070
    73
1070
     1
1070
    44
1040
1.0
1070
    74
1070
     0
1000
MTEXTEND
  0
LEADER
  5
992F
330
1E
100
AcDbEntity
  8
19
100
AcDbLeader
  3
Standard
 74
     0
 76
     3
 10
1266.445079172149
 20
489.5767041169998
 30
0.0
 10
1299.118423725148
 20
580.4663771389996
 30
0.0
 10
1627.577566282724
 20
580.4886151641152
 30
0.0
  0
MTEXT
  5
9930
330
1E
100
AcDbEntity
  8
19
100
AcDbMText
 10
1304.166888633149
 20
606.2426006036144
 30
0.0
 40
20.0
 41
0.0
 71
     1
 72
     5
  1
WITH TERMINAL COVER
 73
     1
 44
1.0
1001
ACAD
1000
MTEXTBEGIN
1070
    73
1070
     1
1070
    44
1040
1.0
1070
    74
1070
     0
1000
MTEXTEND
  0
MTEXT
  5
9932
330
1E
100
AcDbEntity
  8
19
100
AcDbMText
 10
1131.909022972606
 20
676.7910921119882
 30
0.0
 40
20.0
 41
0.0
 71
     1
 72
     5
  1
LIFTING HOLES
 73
     1
 44
1.0
1001
ACAD
1000
MTEXTBEGIN
1070
    73
1070
     1
1070
    44
1040
1.0
1070
    74
1070
     0
1000
MTEXTEND
  0
MTEXT
  5
9933
330
1E
100
AcDbEntity
  8
19
100
AcDbMText
 10
475.7259882326175
 20
695.1701932293324
 30
0.0
 40
20.0
 41
0.0
 71
     1
 72
     5
  1
PADLOCK COVER
 73
     1
 44
1.0
1001
ACAD
1000
MTEXTBEGIN
1070
    73
1070
     1
1070
    44
1040
1.0
1070
    74
1070
     0
1000
MTEXTEND
  0
LEADER
  5
9934
330
1E
100
AcDbEntity
  8
19
100
AcDbLeader
  3
Standard
 76
     3
 10
842.0
 20
256.9999999999999
 30
0.0
 10
754.9713420149997
 20
700.2745878409997
 30
0.0
 10
452.2998637539997
 20
700.2745878409997
 30
0.0
  0
MTEXT
  5
9935
330
1E
100
AcDbEntity
  8
19
100
AcDbMText
 10
474.1429799925744
 20
725.6237090751158
 30
0.0
 40
20.0
 41
0.0
 71
     1
 72
     5
  1
WITH PUSHBUTTON
 73
     1
 44
1.0
1001
ACAD
1000
MTEXTBEGIN
1070
    73
1070
     1
1070
    44
1040
1.0
1070
    74
1070
     0
1000
MTEXTEND
  0
CIRCLE
  5
993A
330
1E
100
AcDbEntity
  8
10
100
AcDbCircle
 10
1058.0
 20
441.9999999999998
 30
0.0
 40
10.0
  0
LINE
  5
993C
330
1E
100
AcDbEntity
  8
10
100
AcDbLine
 10
921.0
 20
129.1756275409996
 30
0.0
 11
1125.724947483
 21
129.1756275409996
 31
0.0
  0
LINE
  5
993D
330
1E
100
AcDbEntity
  8
10
100
AcDbLine
 10
921.0
 20
136.8243724599996
 30
0.0
 11
1126.0
 21
136.8243724599996
 31
0.0
  0
DIMENSION
  5
993F
330
1E
100
AcDbEntity
  8
30
100
AcDbDimension
  2
*D17
 10
1239.725593749999
 20
459.9999999999998
 30
0.0
 11
1240.554533340105
 21
451.1011607721363
 31
0.0
 70
   160
 71
     5
 42
18.00000000000017
  3
Standard
100
AcDbAlignedDimension
 13
1058.0
 23
441.9999999999998
 33
0.0
 14
1066.0
 24
460.0
 34
0.0
 50
90.0
100
AcDbRotatedDimension
  0
LINE
  5
9940
330
1E
100
AcDbEntity
  8
0
  6
HIDDEN
 62
     7
100
AcDbLine
 10
978.0
 20
-0.1984904920002464
 30
0.0
 11
1078.0
 21
-0.1984904920002464
 31
0.0
  0
LINE
  5
9943
330
1E
100
AcDbEntity
  8
0
  6
Continuous
 62
     7
100
AcDbLine
 10
1131.0
 20
0.0
 30
0.0
 11
931.0
 21
0.0
 31
0.0
  0
DIMENSION
  5
9944
330
1E
100
AcDbEntity
  8
30
100
AcDbDimension
  2
*D18
 10
1350.0
 20
-0.0000000000000592
 30
0.0
 11
1350.0
 21
244.9999999999997
 31
0.0
 70
   160
 71
     5
 42
490.0000000000003
  3
Standard
100
AcDbAlignedDimension
 13
981.0
 23
490.0000000000003
 33
0.0
 14
1141.0
 24
0.0
 34
0.0
 50
90.0
100
AcDbRotatedDimension
  0
DIMENSION
  5
9949
330
1E
100
AcDbEntity
  8
30
100
AcDbDimension
  2
*D19
 10
768.4562246197717
 20
32.99999999999978
 30
0.0
 11
768.456224619772
 21
185.608429837
 31
0.0
 70
   160
 71
     5
 42
329.0
  3
Standard
100
AcDbAlignedDimension
 13
847.0
 23
361.9999999999998
 33
0.0
 14
864.0
 24
32.99999999999975
 34
0.0
 50
90.0
100
AcDbRotatedDimension
  0
MTEXT
  5
994B
330
1E
100
AcDbEntity
  8
19
100
AcDbMText
 10
679.4985689320979
 20
88.8010534563134
 30
0.0
 40
20.0
 41
0.0
 71
     1
 72
     5
  1
AIR GAP DISTANCE (min)
 11
0.0000000000000001
 21
1.0
 31
0.0
 73
     1
 44
1.0
1001
ACAD
1000
MTEXTBEGIN
1070
    73
1070
     1
1070
    44
1040
1.0
1070
    74
1070
     0
1000
MTEXTEND
  0
DIMENSION
  5
994C
330
1E
100
AcDbEntity
  8
30
100
AcDbDimension
  2
*D20
 10
726.0960629859137
 20
0.0000000000000552
 30
0.0
 11
726.0960629859137
 21
275.0
 31
0.0
 70
   160
  1
<> 
 71
     5
 42
550.0
  3
Standard
100
AcDbAlignedDimension
 13
961.0
 23
550.0
 33
0.0
 14
921.0
 24
0.0
 34
0.0
 50
270.0
100
AcDbRotatedDimension
  0
MTEXT
  5
994D
330
1E
100
AcDbEntity
  8
19
100
AcDbMText
 10
603.9608824052933
 20
94.77104985784492
 30
0.0
 40
20.0
 41
0.0
 71
     1
 72
     5
  1
500(INSULATION)\P550(METAL)
 11
0.0000000000000001
 21
1.0
 31
0.0
 73
     1
 44
1.0
1001
ACAD
1000
MTEXTBEGIN
1070
    73
1070
     1
1070
    44
1040
1.0
1070
    74
1070
     0
1000
MTEXTEND
  0
LEADER
  5
994E
330
1E
100
AcDbEntity
  8
19
100
AcDbLeader
  3
Standard
 76
     3
 10
859.0
 20
-31.05850214499993
 30
0.0
 10
754.4140945230001
 20
-128.2004556369999
 30
0.0
 10
650.1733821489997
 20
-128.2004556369999
 30
0.0
  0
MTEXT
  5
994F
330
1E
100
AcDbEntity
  8
19
100
AcDbMText
 10
650.2184051379997
 20
-95.82817192033598
 30
0.0
 40
20.0
 41
0.0
 71
     1
 72
     5
  1
PANEL
 73
     1
 44
1.0
1001
ACAD
1000
MTEXTBEGIN
1070
    73
1070
     1
1070
    44
1040
1.0
1070
    74
1070
     0
1000
MTEXTEND
  0
DIMENSION
  5
9950
330
1E
100
AcDbEntity
  8
30
100
AcDbDimension
  2
*D21
 10
768.4562246197717
 20
0.0000000000000432
 30
0.0
 11
768.456224619772
 21
17.24416644114601
 31
0.0
 70
   160
 71
     5
 42
32.99999999999974
  3
Standard
100
AcDbAlignedDimension
 13
864.0
 23
32.99999999999975
 33
0.0
 14
921.0
 24
0.0
 34
0.0
 50
90.0
100
AcDbRotatedDimension
  0
LINE
  5
995F
330
1E
100
AcDbEntity
  8
12
100
AcDbLine
 10
941.0
 20
-19.12765978699985
 30
0.0
 11
941.0
 21
23.19999999999981
 31
0.0
  0
DIMENSION
  5
997D
330
1E
100
AcDbEntity
  8
30
100
AcDbDimension
  2
*D22
 10
859.0
 20
595.4335693581048
 30
0.0
 11
955.02872842019
 21
594.4335693581048
 31
0.0
 70
   160
 71
     5
 42
199.0
  3
Standard
100
AcDbAlignedDimension
 13
1058.0
 23
441.9999999999998
 33
0.0
 14
859.0
 24
471.9999999999997
 34
0.0
100
AcDbRotatedDimension
  0
DIMENSION
  5
9991
330
1E
100
AcDbEntity
  8
30
100
AcDbDimension
  2
*D23
 10
1321.0
 20
-0.000000000000051
 30
0.0
 11
1321.0
 21
229.9999999999999
 31
0.0
 70
   160
 71
     5
 42
460.0
  3
Standard
100
AcDbAlignedDimension
 13
1066.0
 23
460.0
 33
0.0
 14
1141.0
 24
0.0
 34
0.0
 50
90.0
100
AcDbRotatedDimension
  0
DIMENSION
  5
9997
330
1E
100
AcDbEntity
  8
30
100
AcDbDimension
  2
*D24
 10
1248.104021733264
 20
-0.0000000000000238
 30
0.0
 11
1247.104021733264
 21
17.82298464493464
 31
0.0
 70
   160
 71
     5
 42
34.99999999999998
  3
Standard
100
AcDbAlignedDimension
 13
1126.0
 23
35.0
 33
0.0
 14
1164.0
 24
0.0
 34
0.0
 50
90.0
100
AcDbRotatedDimension
  0
LINE
  5
999D
330
1E
100
AcDbEntity
  8
0
  6
Continuous
 62
     7
100
AcDbLine
 10
1106.0
 20
-38.39230421199999
 30
0.0
 11
1106.0
 21
-56.4828335509999
 31
0.0
  0
LINE
  5
99A0
330
1E
100
AcDbEntity
  8
0
  6
Continuous
 62
     7
100
AcDbLine
 10
1141.0
 20
0.0
 30
0.0
 11
1131.0
 21
0.0
 31
0.0
  0
LINE
  5
99A2
330
1E
100
AcDbEntity
  8
12
100
AcDbLine
 10
1106.0
 20
-19.99999999999999
 30
0.0
 11
1106.0
 21
23.19999999999981
 31
0.0
  0
CIRCLE
  5
99AB
330
1E
100
AcDbEntity
  8
12
  6
DASHDOT
100
AcDbCircle
 10
1126.0
 20
35.0
 30
0.0
 40
4.0
  0
LINE
  5
99D1
330
1E
100
AcDbEntity
  8
27
100
AcDbLine
 10
1164.0
 20
132.9999999999996
 30
0.0
 11
1136.0
 21
132.9999999999996
 31
0.0
  0
TEXT
  5
A1B6
330
1E
100
AcDbEntity
  8
19
100
AcDbText
 10
1991.356813493693
 20
586.6894823177402
 30
0.0
 40
20.0
  1
C
 41
0.75
100
AcDbText
  0
TEXT
  5
A1B7
330
1E
100
AcDbEntity
  8
19
100
AcDbText
 10
1996.786263184852
 20
600.4457115220692
 30
0.0
 40
20.0
  1
P
 41
0.75
100
AcDbText
  0
LWPOLYLINE
  5
A1EE
330
1E
100
AcDbEntity
  8
18
100
AcDbPolyline
 90
        4
 70
     1
 43
0.0
 10
1126.0
 20
550.0
 10
1126.0
 20
560.0
 10
961.0
 20
560.0
 10
961.0
 20
550.0
  0
LWPOLYLINE
  5
A1F2
330
1E
100
AcDbEntity
  8
11
  6
DASHDOT
100
AcDbPolyline
 90
        4
 70
     0
 43
0.0
 10
859.0
 20
471.9999999999997
 10
859.0
 20
371.9999999999998
 10
869.0
 20
371.9999999999998
 10
869.0
 20
471.9999999999997
  0
LWPOLYLINE
  5
A1F5
330
1E
100
AcDbEntity
  8
11
  6
DASHDOT
100
AcDbPolyline
 90
        4
 70
     0
 43
0.0
 10
859.0
 20
-77.00000000000024
 10
859.0
 20
22.99999999999976
 10
869.0
 20
22.99999999999976
 10
869.0
 20
-77.00000000000024
  0
LEADER
  5
A208
330
1E
100
AcDbEntity
  8
30
100
AcDbLeader
  3
Standard
 76
     3
 10
1064.917608011749
 20
449.330930543855
 30
0.0
 10
1164.189270386118
 20
626.9990766993568
 30
0.0
 10
1330.743981529215
 20
626.9990766993568
 30
0.0
1001
ACAD
1000
DSTYLE
1002
{
1070
   147
1040
3.0
1070
    77
1070
     0
1002
}
  0
MTEXT
  5
A209
330
1E
100
AcDbEntity
  8
30
100
AcDbMText
 10
1205.165410556401
 20
650.3713834008246
 30
0.0
 40
20.0
 41
0.0
 71
     1
 72
     5
  1
2-%%C20
  7
SLDTEXTSTYLE1
 73
     1
 44
1.0
1001
ACAD
1000
MTEXTBEGIN
1070
    73
1070
     1
1070
    44
1040
1.0
1070
    74
1070
     0
1000
MTEXTEND
  0
LWPOLYLINE
  5
A2C5
330
1E
100
AcDbEntity
  8
10
100
AcDbPolyline
 90
        6
 70
     0
 43
0.0
 10
859.0
 20
229.9999999999999
 10
842.0
 20
229.9999999999999
 10
842.0
 20
256.9999999999999
 10
849.0
 20
258.9999999999999
 10
849.0
 20
278.9999999999998
 10
859.0
 20
278.9999999999998
  0
LWPOLYLINE
  5
A2C6
330
1E
100
AcDbEntity
  8
10
100
AcDbPolyline
 90
        9
 70
     0
 43
0.0
 10
921.0
 20
29.99999999999998
 10
902.0
 20
29.99999999999998
 10
902.0
 20
32.99999999999975
 10
864.0
 20
32.99999999999975
 10
859.0
 20
32.99999999999975
 10
859.0
 20
320.9999999999999
 10
847.0
 20
355.9999999999998
 10
847.0
 20
361.9999999999998
 10
902.0
 20
361.9999999999998
  0
LWPOLYLINE
  5
A2C8
330
1E
100
AcDbEntity
  8
10
100
AcDbPolyline
 90
        5
 70
     0
 43
0.0
 10
864.0
 20
32.99999999999975
 10
864.0
 20
39.0
 10
902.0
 20
39.0
 10
902.0
 20
418.4999999999998
 10
916.0
 20
418.4999999999998
  0
LWPOLYLINE
  5
A2CC
330
1E
100
AcDbEntity
  8
10
100
AcDbPolyline
 90
        4
 70
     0
 43
0.0
 10
859.0
 20
133.7431201279997
 10
850.0
 20
133.7431201279997
 10
850.0
 20
130.7431201279997
 10
859.0
 20
130.7431201279997
  0
LWPOLYLINE
  5
A2D8
330
1E
100
AcDbEntity
  8
10
100
AcDbPolyline
 90
        2
 70
     0
 43
0.0
 10
902.0
 20
39.0
 10
921.0
 20
39.0
  0
LWPOLYLINE
  5
A2D9
330
1E
100
AcDbEntity
  8
10
100
AcDbPolyline
 90
       20
 70
     0
 43
0.0
 10
1126.0
 20
136.8243724599996
 10
1126.0
 20
332.8578643769998
 42
0.1989123673821482
 10
1123.071067811797
 20
339.9289321889331
 10
1071.0
 20
391.9999999999999
 10
1071.0
 20
450.0
 42
0.5239433179324801
 10
1066.0
 20
460.0
 10
926.0
 20
460.0
 42
0.4142135623730951
 10
916.0
 20
450.0
 10
915.9999999999996
 20
161.414213563
 42
0.1989123673520185
 10
916.2928932187382
 20
160.7071067818885
 10
921.0
 20
155.9999999999996
 10
921.0
 20
136.8243724599996
 10
921.0
 20
132.7015038679998
 10
921.0
 20
130.1572629199999
 10
921.0
 20
129.1756275409996
 10
921.0
 20
6.199999999999816
 10
921.0
 20
3.199999999999817
 10
931.0
 20
3.199999999999817
 10
1131.0
 20
3.199999999999817
 10
1141.0
 20
3.199999999999817
  0
LWPOLYLINE
  5
A2E9
330
1E
100
AcDbEntity
  8
10
100
AcDbPolyline
 90
        8
 70
     0
 43
0.0
 10
1141.0
 20
3.199999999999817
 10
1141.0
 20
105.8578643769993
 42
0.198912367390427
 10
1138.071067811572
 20
112.9289321891579
 10
1126.0
 20
124.9999999999999
 10
1126.0
 20
129.1756275409996
 10
1126.0
 20
130.1572629199999
 10
1126.0
 20
132.7015038679998
 10
1126.0
 20
136.8243724599996
  0
LWPOLYLINE
  5
A2F5
330
1E
100
AcDbEntity
  8
10
100
AcDbPolyline
 90
        6
 70
     0
 43
0.0
 10
1136.0
 20
114.9999999999999
 10
1136.0
 20
117.5499999999995
 10
1136.0
 20
312.4499999999997
 10
1136.0
 20
320.5499999999998
 10
1136.0
 20
381.9999999999998
 10
1081.0
 20
381.9999999999998
  0
LWPOLYLINE
  5
A2FA
330
1E
100
AcDbEntity
  8
10
100
AcDbPolyline
 90
        2
 70
     0
 43
0.0
 10
1136.0
 20
117.5499999999995
 10
1133.45
 20
117.5499999999995
  0
LWPOLYLINE
  5
A302
330
1E
100
AcDbEntity
  8
12
  6
DASHDOT
100
AcDbPolyline
 90
        8
 70
     1
 43
0.0
 10
965.0
 20
-39.46471037899982
 10
965.0
 20
-50.19849049200025
 10
971.0
 20
-50.19849049200025
 10
971.0
 20
-39.46471037899982
 10
971.0
 20
-0.1984904920002464
 10
921.0
 20
0.0
 10
921.0
 20
-6.198490492000246
 10
965.0
 20
-6.198490492000246
  0
LWPOLYLINE
  5
A308
330
1E
100
AcDbEntity
  8
12
  6
DASHDOT
100
AcDbPolyline
 90
        8
 70
     1
 43
0.0
 10
1086.0
 20
-39.46471037899982
 10
1086.0
 20
-50.19849049200025
 10
1080.0
 20
-50.19849049200025
 10
1080.0
 20
-39.46471037899982
 10
1080.0
 20
-0.1984904920002464
 10
1130.0
 20
0.0
 10
1130.0
 20
-6.198490492000246
 10
1086.0
 20
-6.198490492000246
  0
LWPOLYLINE
  5
A4BD
330
1E
100
AcDbEntity
  8
11
100
AcDbPolyline
 90
        4
 70
     1
 43
0.0
 10
-875.0
 20
365.0
 10
-875.0
 20
30.0
 10
-1125.0
 20
30.0
 10
-1125.0
 20
365.0
  0
LWPOLYLINE
  5
A4C1
330
1E
100
AcDbEntity
  8
18
100
AcDbPolyline
 90
        4
 70
     1
 43
0.0
 10
-760.0
 20
-100.0
 10
-1240.0
 20
-100.0
 10
-1240.0
 20
550.0
 10
-760.0
 20
550.0
  0
LWPOLYLINE
  5
A51C
330
1E
100
AcDbEntity
  8
10
100
AcDbPolyline
 90
        6
 70
   128
 43
0.0
 10
920.9999999999991
 20
3.199999999999588
 10
920.9999999999991
 20
0.0000000000006821
 10
930.9999999999991
 20
0.0000000000006821
 10
1130.999999999998
 20
0.0000000000006821
 10
1140.999999999998
 20
0.0000000000006821
 10
1140.999999999998
 20
3.199999999999588
  0
LWPOLYLINE
  5
A532
330
1E
100
AcDbEntity
  8
34
100
AcDbPolyline
 90
        4
 70
     0
 43
0.0
 10
981.0
 20
490.0000000000003
 10
874.0
 20
490.0000000000003
 10
874.0
 20
428.9999999999998
 10
888.4999999999999
 20
428.9999999999998
  0
LWPOLYLINE
  5
A559
330
1E
100
AcDbEntity
  8
18
100
AcDbPolyline
 90
        4
 70
     0
 43
0.0
 10
1078.0
 20
-0.1984904920002464
 10
1078.0
 20
-112.2872557789999
 10
978.0
 20
-112.2872557789999
 10
978.0
 20
-0.1984904920002464
  0
LWPOLYLINE
  5
A5B7
330
1E
100
AcDbEntity
  8
16
100
AcDbPolyline
 90
        2
 70
     0
 43
0.0
 10
0.000000000000199
 20
915.4944792356037
 10
0.000000000000199
 20
1400.0
  0
DIMENSION
  5
ABF4
330
1E
100
AcDbEntity
  8
30
100
AcDbDimension
  2
*D25
 10
2000.0
 20
571.2650820209999
 30
0.0
 11
1957.220238844
 21
571.2650820209999
 31
0.0
 70
   160
 71
     5
 42
85.0
  3
Standard
100
AcDbAlignedDimension
 13
1915.0
 23
528.997400984
 33
0.0
 14
2000.0
 24
528.6787719999998
 34
0.0
100
AcDbRotatedDimension
  0
LWPOLYLINE
  5
AC66
330
1E
100
AcDbEntity
  8
27
100
AcDbPolyline
 90
        4
 70
   129
 43
0.0
 10
2111.0
 20
307.0
 10
2111.0
 20
317.0
 10
2059.0
 20
317.0
 10
2059.0
 20
307.0
  0
LWPOLYLINE
  5
AC67
330
1E
100
AcDbEntity
  8
27
100
AcDbPolyline
 90
        4
 70
   129
 43
0.0
 10
2111.0
 20
133.0
 10
2111.0
 20
143.0
 10
2059.0
 20
143.0
 10
2059.0
 20
133.0
  0
LWPOLYLINE
  5
AC68
330
1E
100
AcDbEntity
  8
27
100
AcDbPolyline
 90
        4
 70
   129
 43
0.0
 10
1941.0
 20
133.0
 10
1941.0
 20
143.0
 10
1889.0
 20
143.0
 10
1889.0
 20
133.0
  0
LWPOLYLINE
  5
AC69
330
1E
100
AcDbEntity
  8
27
100
AcDbPolyline
 90
        4
 70
   129
 43
0.0
 10
2026.0
 20
133.0
 10
2026.0
 20
143.0
 10
1974.0
 20
143.0
 10
1974.0
 20
133.0
  0
LWPOLYLINE
  5
AC6A
330
1E
100
AcDbEntity
  8
27
100
AcDbPolyline
 90
        4
 70
   129
 43
0.0
 10
1941.0
 20
307.0
 10
1941.0
 20
317.0
 10
1889.0
 20
317.0
 10
1889.0
 20
307.0
  0
LWPOLYLINE
  5
AC6B
330
1E
100
AcDbEntity
  8
27
100
AcDbPolyline
 90
        4
 70
   129
 43
0.0
 10
2026.0
 20
307.0
 10
2026.0
 20
317.0
 10
1974.0
 20
317.0
 10
1974.0
 20
307.0
  0
DIMENSION
  5
AC6E
330
1E
100
AcDbEntity
  8
30
100
AcDbDimension
  2
*D26
 10
2085.0
 20
571.2650820209999
 30
0.0
 11
2039.697849705
 21
571.2650820209999
 31
0.0
 70
   160
 71
     5
 42
85.0
  3
Standard
100
AcDbAlignedDimension
 13
2000.0
 23
528.6787719999998
 33
0.0
 14
2085.0
 24
528.997400984
 34
0.0
100
AcDbRotatedDimension
  0
LWPOLYLINE
  5
B281
330
1E
100
AcDbEntity
  8
27
100
AcDbPolyline
 90
        5
 70
   128
 43
0.0
 10
1136.0
 20
142.9999999999995
 42
-73183493944770.0
 10
1136.0
 20
142.9999999999996
 10
1224.000004869999
 20
142.9999998619995
 10
1224.000004869999
 20
133.000001948
 10
1135.999997897
 20
133.000001948
  0
LWPOLYLINE
  5
B28D
330
1E
100
AcDbEntity
  8
10
100
AcDbPolyline
 90
        2
 70
   128
 43
0.0
 10
1141.000000578999
 20
71.50000397500001
 10
1149.999996466
 20
71.50000397500001
  0
LWPOLYLINE
  5
B28E
330
1E
100
AcDbEntity
  8
10
100
AcDbPolyline
 90
        2
 70
   128
 43
0.0
 10
1149.999996466
 20
83.49999849100006
 10
1141.000000578999
 20
83.49999849100006
  0
DIMENSION
  5
B28F
330
1E
100
AcDbEntity
  8
30
100
AcDbDimension
  2
*D27
 10
1290.252270915998
 20
-0.0000000000000423
 30
0.0
 11
1290.252270916
 21
75.92028629100015
 31
0.0
 70
   160
 71
     5
 42
137.9999999999997
  3
Standard
100
AcDbAlignedDimension
 13
1224.0
 23
137.9999999999997
 33
0.0
 14
1141.0
 24
0.0
 34
0.0
 50
90.0
100
AcDbRotatedDimension
  0
DIMENSION
  5
B290
330
1E
100
AcDbEntity
  8
30
100
AcDbDimension
  2
*D28
 10
1290.252270915998
 20
137.9999999999997
 30
0.0
 11
1290.252270916
 21
220.5808001459995
 31
0.0
 70
   160
 71
     5
 42
174.0000000000001
  3
Standard
100
AcDbAlignedDimension
 13
1234.0
 23
311.9999999999998
 33
0.0
 14
1224.0
 24
137.9999999999997
 34
0.0
 50
90.0
100
AcDbRotatedDimension
  0
DIMENSION
  5
B291
330
1E
100
AcDbEntity
  8
30
100
AcDbDimension
  2
*D29
 10
1263.780344893
 20
316.9999999999999
 30
0.0
 11
1263.780344893
 21
331.8015095079997
 31
0.0
 70
   160
 71
     5
 42
10.00000000000005
  3
Standard
100
AcDbAlignedDimension
 13
1224.0
 23
306.9999999999998
 33
0.0
 14
1224.0
 24
316.9999999999999
 34
0.0
 50
90.0
100
AcDbRotatedDimension
1001
ACAD
1000
DSTYLE
1002
{
1070
   343
1005
B33A
1070
   342
1005
0
1070
   173
1070
     1
1070
   344
1005
B33A
1002
}
  0
LWPOLYLINE
  5
B2F5
330
1E
100
AcDbEntity
  8
10
100
AcDbPolyline
 90
        2
 70
   128
 43
0.0
 10
1149.999996466
 20
378.5000002789995
 10
1135.999997897
 20
378.5000002789995
  0
LWPOLYLINE
  5
B2F6
330
1E
100
AcDbEntity
  8
10
100
AcDbPolyline
 90
        2
 70
   128
 43
0.0
 10
1135.999997897
 20
366.5000057629995
 10
1149.999996466
 20
366.5000057629995
  0
LWPOLYLINE
  5
B2F8
330
1E
100
AcDbEntity
  8
10
100
AcDbPolyline
 90
        8
 70
   129
 43
0.0
 10
1150.0
 20
322.2000000000002
 42
0.4142135896074396
 10
1155.200000483515
 20
317.0000000000003
 10
1179.999997657999
 20
317.0000023059996
 10
1179.999997657999
 20
320.19999687
 10
1155.19999974758
 20
320.2000000000002
 42
-0.4142135177097272
 10
1153.2
 20
322.1999999474395
 10
1153.199998480999
 20
379.9999958689998
 10
1149.999996466
 20
379.9999958689998
  0
LWPOLYLINE
  5
B2F9
330
1E
100
AcDbEntity
  8
10
100
AcDbPolyline
 90
        7
 70
   129
 43
0.0
 10
1150.000000317937
 20
132.9999995915482
 10
1149.999996466
 20
69.9999934839998
 10
1153.199998480999
 20
69.9999934839998
 10
1153.2
 20
127.8000000525602
 42
-0.4142135554552061
 10
1155.200000005321
 20
129.7999999999996
 10
1179.999997657999
 20
129.7999999339997
 10
1179.999997657999
 20
133.000001948
  0
LWPOLYLINE
  5
B2FA
330
1E
100
AcDbEntity
  8
10
100
AcDbPolyline
 90
        2
 70
   128
 43
0.0
 10
1141.000000578999
 20
71.50000397500001
 10
1149.999996466
 20
71.50000397500001
  0
LWPOLYLINE
  5
B2FB
330
1E
100
AcDbEntity
  8
10
100
AcDbPolyline
 90
        2
 70
   128
 43
0.0
 10
1149.999996466
 20
83.49999849100006
 10
1141.000000578999
 20
83.49999849100006
  0
LWPOLYLINE
  5
B2FC
330
1E
100
AcDbEntity
  8
10
100
AcDbPolyline
 90
        4
 70
   128
 43
0.0
 10
1176.999999028999
 20
303.800002377
 10
1143.699999857237
 20
303.7999999999996
 42
0.4142135163157848
 10
1141.699999999999
 20
301.8000001717358
 10
1141.699997527
 20
272.9999988189994
  0
LWPOLYLINE
  5
B2FD
330
1E
100
AcDbEntity
  8
10
100
AcDbPolyline
 90
       19
 70
   128
 43
0.0
 10
1179.999997657999
 20
306.9999969419997
 10
1179.999997657999
 20
303.800002377
 10
1176.999999028999
 20
303.800002377
 10
1176.999999028999
 20
306.9999969419997
 10
1143.700000477525
 20
306.9999999999997
 42
0.4142136194034338
 10
1138.5
 20
301.7999994650137
 10
1138.500002962999
 20
272.9999988189994
 10
1141.699997527
 20
272.9999988189994
 10
1141.699997527
 20
267.0000015610002
 10
1138.500002962999
 20
267.0000015610002
 10
1138.500002962999
 20
265.0000012329996
 10
1153.999997121999
 20
265.0000012329996
 10
1153.999997121999
 20
184.9999992959994
 10
1138.500002962999
 20
184.9999992959994
 10
1138.500002962999
 20
183.0000008309998
 10
1141.699997527
 20
183.0000008309998
 10
1141.699997527
 20
177.0000017099998
 10
1138.500002962999
 20
177.0000017099998
 10
1138.500002962999
 20
183.0000008309998
  0
LWPOLYLINE
  5
B2FE
330
1E
100
AcDbEntity
  8
10
100
AcDbPolyline
 90
        2
 70
   128
 43
0.0
 10
1138.500002962999
 20
177.0000017099998
 10
1138.5
 20
142.9999999999995
  0
LWPOLYLINE
  5
B2FF
330
1E
100
AcDbEntity
  8
10
100
AcDbPolyline
 90
        2
 70
   128
 43
0.0
 10
1138.500002962999
 20
272.9999988189994
 10
1138.500002962999
 20
267.0000015610002
  0
LWPOLYLINE
  5
B300
330
1E
100
AcDbEntity
  8
10
100
AcDbPolyline
 90
        6
 70
   128
 43
0.0
 10
1141.699997527
 20
177.0000017099998
 10
1141.699999999999
 20
148.1999998282633
 42
0.4142135537322803
 10
1143.700000112733
 20
146.1999999999997
 10
1176.999999028999
 20
146.2000018769994
 10
1176.999999028999
 20
142.9999998619995
 10
1143.699999999997
 20
142.9999999999995
  0
LWPOLYLINE
  5
B301
330
1E
100
AcDbEntity
  8
10
100
AcDbPolyline
 90
        3
 70
   128
 43
0.0
 10
1179.999997657999
 20
142.9999998619995
 10
1179.999997657999
 20
146.2000018769994
 10
1176.999999028999
 20
146.2000018769994
  0
LWPOLYLINE
  5
B302
330
1E
100
AcDbEntity
  8
10
100
AcDbPolyline
 90
        2
 70
   128
 43
0.0
 10
1141.699997527
 20
184.9999992959994
 10
1141.699997527
 20
183.0000008309998
  0
LWPOLYLINE
  5
B303
330
1E
100
AcDbEntity
  8
10
100
AcDbPolyline
 90
        2
 70
   128
 43
0.0
 10
1141.699997527
 20
267.0000015610002
 10
1141.699997527
 20
265.0000012329996
  0
LWPOLYLINE
  5
B357
330
1E
100
AcDbEntity
  8
27
100
AcDbPolyline
 90
        4
 70
     0
 43
0.0
 10
1135.999997769272
 20
317.0000023059996
 10
1224.000004869999
 20
317.0000023059996
 10
1224.000004869999
 20
306.9999969419997
 10
1135.999997897
 20
306.9999969419997
  0
DIMENSION
  5
B3E2
330
1E
100
AcDbEntity
  8
30
100
AcDbDimension
  2
*D31
 10
-72.4999999999998
 20
1422.824129261998
 30
0.0
 11
-84.24881497999971
 21
1422.824129261998
 31
0.0
 70
   160
 71
     5
 42
24.99999999999998
  3
Standard
100
AcDbAlignedDimension
 13
-97.49999999999978
 23
1350.0
 33
0.0
 14
-72.4999999999998
 24
1350.0
 34
0.0
 50
180.0
100
AcDbRotatedDimension
  0
DIMENSION
  5
B3E4
330
1E
100
AcDbEntity
  8
30
100
AcDbDimension
  2
*D32
 10
-57.28649989800015
 20
1462.901372868
 30
0.0
 11
-82.27009280899961
 21
1462.901372868
 31
0.0
 70
   160
 71
     5
 42
51.99999999999993
  3
Standard
100
AcDbAlignedDimension
 13
-109.2864998980001
 23
1365.0
 33
0.0
 14
-57.28649989800015
 24
1365.0
 34
0.0
 50
180.0
100
AcDbRotatedDimension
  0
DIMENSION
  5
B3E5
330
1E
100
AcDbEntity
  8
30
100
AcDbDimension
  2
*D33
 10
-156.3339158460001
 20
1365.0
 30
0.0
 11
-156.3339158460001
 21
1357.318341476
 31
0.0
 70
   160
 71
     5
 42
15.0
  3
Standard
100
AcDbAlignedDimension
 13
-97.49999999999978
 23
1350.0
 33
0.0
 14
-109.2864998980001
 24
1365.0
 34
0.0
 50
90.0
100
AcDbRotatedDimension
  0
DIMENSION
  5
B3E6
330
1E
100
AcDbEntity
  8
30
100
AcDbDimension
  2
*D34
 10
-207.5679535139994
 20
1365.0
 30
0.0
 11
-207.5679535139994
 21
1347.5
 31
0.0
 70
   160
  1
<>*
 71
     5
 42
35.0
  3
Standard
100
AcDbAlignedDimension
 13
-99.43427081399958
 23
1330.0
 33
0.0
 14
-109.2864998980001
 24
1365.0
 34
0.0
 50
90.0
100
AcDbRotatedDimension
  0
LWPOLYLINE
  5
B3E7
330
1E
100
AcDbEntity
  8
27
100
AcDbPolyline
 90
        4
 70
   128
 43
0.0
 10
-26.00000000000022
 20
1277.0
 10
-26.00000000000022
 20
1365.0
 10
26.00000000000022
 20
1365.0
 10
26.00000000000022
 20
1277.0
  0
LWPOLYLINE
  5
B3E8
330
1E
100
AcDbEntity
  8
27
100
AcDbPolyline
 90
        4
 70
   128
 43
0.0
 10
-111.0000000000002
 20
1277.0
 10
-111.0000000000002
 20
1365.0
 10
-59.00000000000023
 20
1365.0
 10
-59.00000000000023
 20
1277.0
  0
LWPOLYLINE
  5
B3EC
330
1E
100
AcDbEntity
  8
27
100
AcDbPolyline
 90
        4
 70
   128
 43
0.0
 10
59.00000000000023
 20
1277.0
 10
59.00000000000023
 20
1365.0
 10
111.0000000000002
 20
1365.0
 10
111.0000000000002
 20
1277.0
  0
CIRCLE
  5
B3EE
330
1E
100
AcDbEntity
  8
27
100
AcDbCircle
 10
72.50000000000024
 20
1350.0
 30
0.0
 40
5.5
  0
CIRCLE
  5
B3EF
330
1E
100
AcDbEntity
  8
27
100
AcDbCircle
 10
97.50000000000023
 20
1350.0
 30
0.0
 40
5.5
  0
MTEXT
  5
B3F0
330
1E
100
AcDbEntity
  8
30
100
AcDbMText
 10
172.4181207419999
 20
1423.571013654
 30
0.0
 40
20.0
 41
0.0
 71
     1
 72
     5
  1
2-%%C11
  7
SLDTEXTSTYLE1
 73
     1
 44
1.0
1001
ACAD
1000
MTEXTBEGIN
1070
    73
1070
     1
1070
    44
1040
1.0
1070
    74
1070
     0
1000
MTEXTEND
  0
LEADER
  5
B441
330
1E
100
AcDbEntity
  8
30
100
AcDbLeader
  3
Standard
 76
     3
 10
102.6827667340369
 20
1351.84090439202
 30
0.0
 10
156.0
 20
1400.0
 30
0.0
 10
242.0
 20
1400.0
 30
0.0
1001
ACAD
1000
DSTYLE
1002
{
1070
   147
1040
3.0
1070
    77
1070
     0
1002
}
  0
LWPOLYLINE
  5
B442
330
1E
100
AcDbEntity
  8
17
100
AcDbPolyline
 90
        2
 70
     0
 43
0.0
 10
85.00000000000024
 20
1258.924838953
 10
85.00000000000024
 20
1408.250045951997
  0
LWPOLYLINE
  5
B443
330
1E
100
AcDbEntity
  8
17
100
AcDbPolyline
 90
        2
 70
     0
 43
0.0
 10
-85.00000000000024
 20
1258.924838953
 10
-85.00000000000024
 20
1408.250045951997
  0
DIMENSION
  5
B467
330
1E
100
AcDbEntity
  8
30
100
AcDbDimension
  2
*D35
 10
1224.0
 20
46.80150950799975
 30
0.0
 11
1175.0
 21
54.80150950799975
 31
0.0
 70
    32
 71
     5
 42
98.0
  3
Standard
100
AcDbAlignedDimension
 13
1126.0
 23
35.0
 33
0.0
 14
1224.0
 24
133.0000019480001
 34
0.0
100
AcDbRotatedDimension
  0
TEXT
  5
B4CC
330
1E
100
AcDbEntity
  8
19
100
AcDbText
 10
1780.375992527211
 20
1160.411716685816
 30
0.0
 40
20.0
  1
:FRONT PANEL CENTER LINE
100
AcDbText
  0
TEXT
  5
B4CD
330
1E
100
AcDbEntity
  8
19
100
AcDbText
 10
1750.127761621655
 20
1165.134931797841
 30
-0.0000000000000136
 40
20.0
  1
P
 50
0.000002504494757
100
AcDbText
  0
TEXT
  5
B4CE
330
1E
100
AcDbEntity
  8
19
100
AcDbText
 10
1742.80964638728
 20
1151.257978672841
 30
-0.0000000000000136
 40
20.0
  1
C
 50
0.000002504494757
100
AcDbText
  0
LWPOLYLINE
  5
B5B2
330
1E
100
AcDbEntity
  8
10
100
AcDbPolyline
 90
        4
 70
   129
 43
0.0
 10
2161.0
 20
463.5323194199997
 10
1844.0
 20
463.5323194199997
 10
1844.0
 20
0.0
 10
2161.0
 20
0.0
  0
DIMENSION
  5
B5E8
330
1E
100
AcDbEntity
  8
30
100
AcDbDimension
  2
*D36
 10
1874.282909967551
 20
307.0
 30
0.0
 11
1866.282909967551
 21
312.0000000000002
 31
0.0
 70
    32
 71
     5
 42
10.0
  3
Standard
100
AcDbAlignedDimension
 13
1889.0
 23
317.0
 33
0.0
 14
1889.0
 24
307.0
 34
0.0
 50
90.0
100
AcDbRotatedDimension
  0
LWPOLYLINE
  5
B6CF
330
1E
100
AcDbEntity
  8
10
100
AcDbPolyline
 90
        5
 70
     0
 43
0.0
 10
158.5000000000003
 20
155.9999999999998
 10
158.5000000000003
 20
160.707106782
 10
158.5000000000003
 20
161.4142135629998
 10
158.5000000000003
 20
450.0000000000001
 10
158.5000000000003
 20
460.0
  0
LINE
  5
B6D0
330
1E
100
AcDbEntity
  8
10
100
AcDbLine
 10
-158.4999999999998
 20
161.4142135629998
 30
0.0
 11
-158.4999999999998
 21
460.0
 31
0.0
  0
LINE
  5
B6D1
330
1E
100
AcDbEntity
  8
10
100
AcDbLine
 10
155.3000000000001
 20
450.0000000000001
 30
0.0
 11
155.3000000000001
 21
161.4142135629998
 31
0.0
  0
LWPOLYLINE
  5
B6D2
330
1E
100
AcDbEntity
  8
10
100
AcDbPolyline
 90
        6
 70
     0
 43
0.0
 10
130.0000000000002
 20
378.0
 10
133.0000000000002
 20
378.0
 10
133.0000000000002
 20
382.0
 10
135.0000000000002
 20
382.0
 42
-0.4142135623730951
 10
138.0000000000002
 20
379.0
 10
138.0000000000002
 20
324.7000000000003
  0
LWPOLYLINE
  5
B6D3
330
1E
100
AcDbEntity
  8
10
100
AcDbPolyline
 90
        6
 70
     0
 43
0.0
 10
-138.0
 20
324.7000000000003
 10
-137.9999999999997
 20
379.0
 42
-0.4142135623730951
 10
-134.9999999999996
 20
382.0
 10
-133.0
 20
382.0
 10
-133.0
 20
378.0
 10
-129.9999999999996
 20
378.0
  0
LWPOLYLINE
  5
B6D4
330
1E
100
AcDbEntity
  8
10
100
AcDbPolyline
 90
       10
 70
     0
 43
0.0
 10
-158.4999999999999
 20
460.0
 10
-155.2999999999997
 20
460.0
 10
-155.2999999999997
 20
450.0000000000001
 10
-155.2999999999997
 20
161.4142135629998
 10
-155.2999999999997
 20
160.707106782
 10
-155.2999999999997
 20
155.9999999999998
 10
-155.2999999999999
 20
136.8243724599998
 42
0.3590488100909882
 10
-154.4907668279661
 20
135.8427370809777
 10
-141.3987793225458
 20
133.298496132893
 42
-0.3590488100913002
 10
-137.9999999999998
 20
129.1756275409997
  0
LWPOLYLINE
  5
B6D5
330
1E
100
AcDbEntity
  8
10
100
AcDbPolyline
 90
        6
 70
     0
 43
0.0
 10
119.0000000000002
 20
39.00000000000011
 10
130.0000000000002
 20
39.00000000000011
 10
130.0000000000002
 20
418.4999999999998
 10
-129.9999999999996
 20
418.4999999999998
 10
-129.9999999999996
 20
39.00000000000011
 10
-119.0
 20
39.00000000000011
  0
DIMENSION
  5
B6D7
330
1E
100
AcDbEntity
  8
30
100
AcDbDimension
  2
*D37
 10
180.0000000000002
 20
-175.198490492
 30
0.0
 11
90.0000000000001
 21
-167.198490492
 31
0.0
 70
    32
 71
     5
 42
180.0000000000002
  3
Standard
100
AcDbAlignedDimension
 13
-0.0000000000000006
 23
-149.1984754919999
 33
0.0
 14
180.0000000000002
 24
0.0000000000001137
 34
0.0
100
AcDbRotatedDimension
  0
DIMENSION
  5
B6D8
330
1E
100
AcDbEntity
  8
30
100
AcDbDimension
  2
*D38
 10
-179.9999999999995
 20
-175.198490492
 30
0.0
 11
-89.99999999999976
 21
-167.198490492
 31
0.0
 70
    32
 71
     5
 42
179.9999999999995
  3
Standard
100
AcDbAlignedDimension
 13
0.0
 23
-50.19847549200012
 33
0.0
 14
-179.9999999999995
 24
0.0000000000001137
 34
0.0
100
AcDbRotatedDimension
  0
DIMENSION
  5
B6D9
330
1E
100
AcDbEntity
  8
30
100
AcDbDimension
  2
*D39
 10
119.0000000000001
 20
-140.1349932769998
 30
0.0
 11
-0.3281205969999519
 21
-140.1349932769998
 31
0.0
 70
   160
 71
     5
 42
238.0000000000002
  3
Standard
100
AcDbAlignedDimension
 13
-119.0
 23
32.99999999999988
 33
0.0
 14
119.0000000000002
 24
32.99999999999988
 34
0.0
100
AcDbRotatedDimension
  0
LWPOLYLINE
  5
B6DA
330
1E
100
AcDbEntity
  8
10
100
AcDbPolyline
 90
        4
 70
     1
 43
0.0
 10
26.0
 20
265.9999999999998
 10
0.0000000000002274
 20
265.9999999999998
 10
0.0000000000002274
 20
240.9999999999997
 10
26.0
 20
240.9999999999997
  0
LWPOLYLINE
  5
B6DB
330
1E
100
AcDbEntity
  8
10
100
AcDbPolyline
 90
        4
 70
     1
 43
0.0
 10
0.0000000000002274
 20
301.0
 10
0.0000000000002274
 20
286.0
 10
26.0
 20
286.0
 10
26.0
 20
301.0
  0
LWPOLYLINE
  5
B6DC
330
1E
100
AcDbEntity
  8
10
100
AcDbPolyline
 90
        4
 70
     1
 43
0.0
 10
65.00000000000023
 20
65.0000000000001
 10
-64.99999999999977
 20
65.0000000000001
 10
-64.99999999999977
 20
35.0000000000001
 10
65.00000000000023
 20
35.0000000000001
  0
LWPOLYLINE
  5
B6DD
330
1E
100
AcDbEntity
  8
10
100
AcDbPolyline
 90
        4
 70
     0
 43
0.0
 10
131.0000000000004
 20
12.60000000000001
 10
131.0000000000004
 20
10.60000000000001
 10
-131.0
 20
10.60000000000001
 10
-131.0
 20
12.60000000000001
  0
LWPOLYLINE
  5
B6DE
330
1E
100
AcDbEntity
  8
10
100
AcDbPolyline
 90
        6
 70
     0
 43
0.0
 10
134.0000000000002
 20
10.60000000000001
 10
134.0000000000002
 20
12.60000000000001
 10
131.0000000000004
 20
12.60000000000001
 10
-131.0
 20
12.60000000000001
 10
-134.0
 20
12.60000000000001
 10
-134.0
 20
10.60000000000001
  0
LWPOLYLINE
  5
B6DF
330
1E
100
AcDbEntity
  8
10
100
AcDbPolyline
 90
        8
 70
     0
 43
0.0
 10
-116.0
 20
356.0
 10
-116.0
 20
321.0
 10
-119.0
 20
321.0
 10
-119.0
 20
32.99999999999988
 10
119.0000000000002
 20
32.99999999999988
 10
119.0000000000002
 20
321.0
 10
116.0000000000003
 20
321.0
 10
116.0000000000003
 20
356.0
  0
LWPOLYLINE
  5
B6E0
330
1E
100
AcDbEntity
  8
10
100
AcDbPolyline
 90
        4
 70
     0
 43
0.0
 10
-93.33333333299991
 20
32.99999999999988
 10
-89.99999999999976
 20
30.0000000000001
 10
90.00000000000023
 20
30.0000000000001
 10
93.33333333400036
 20
32.99999999999988
  0
LWPOLYLINE
  5
B6E1
330
1E
100
AcDbEntity
  8
10
100
AcDbPolyline
 90
        8
 70
     1
 43
0.0
 10
119.0000000000002
 20
362.0
 10
-119.0
 20
362.0
 10
-119.0
 20
356.0
 10
-116.0
 20
356.0
 10
-116.0
 20
359.0
 10
116.0000000000003
 20
359.0
 10
116.0000000000003
 20
356.0
 10
119.0000000000002
 20
356.0
  0
LINE
  5
B6E2
330
1E
100
AcDbEntity
  8
10
100
AcDbLine
 10
-141.1999999999999
 20
6.19999999999993
 30
0.0
 11
-141.1999999999998
 21
129.1756275409997
 31
0.0
  0
LWPOLYLINE
  5
B6E3
330
1E
100
AcDbEntity
  8
10
100
AcDbPolyline
 90
        6
 70
     0
 43
0.0
 10
-138.0
 20
100.9999999999997
 10
-137.6999999999998
 20
100.9999999999997
 10
-137.6999999999998
 20
101.9999999999997
 10
-137.6999999999998
 20
125.0
 10
-137.6999999999998
 20
125.9999999999997
 10
-138.0
 20
125.9999999999997
  0
LWPOLYLINE
  5
B6E4
330
1E
100
AcDbEntity
  8
10
100
AcDbPolyline
 90
        4
 70
     0
 43
0.0
 10
-144.1999999999999
 20
-0.0000000000001137
 42
0.4142135623730951
 10
-138.0
 20
6.19999999999993
 10
-138.0
 20
129.1756275409997
 10
-138.0
 20
286.3000000000001
  0
CIRCLE
  5
B6E5
330
1E
100
AcDbEntity
  8
10
100
AcDbCircle
 10
-64.99999999999977
 20
103.4999999999997
 30
0.0
 40
21.0
  0
LINE
  5
B6E6
330
1E
100
AcDbEntity
  8
10
100
AcDbLine
 10
-169.9999999999995
 20
3.19999999999993
 30
0.0
 11
-179.9999999999995
 21
3.19999999999993
 31
0.0
  0
LINE
  5
B6E7
330
1E
100
AcDbEntity
  8
10
100
AcDbLine
 10
-179.9999999999995
 20
0.0000000000001137
 30
0.0
 11
-169.9999999999995
 21
0.0000000000001137
 31
0.0
  0
LINE
  5
B6E8
330
1E
100
AcDbEntity
  8
10
100
AcDbLine
 10
-179.9999999999995
 20
3.19999999999993
 30
0.0
 11
-179.9999999999995
 21
0.0000000000001137
 31
0.0
  0
LWPOLYLINE
  5
B6E9
330
1E
100
AcDbEntity
  8
10
100
AcDbPolyline
 90
        3
 70
     0
 43
0.0
 10
-137.4999999989998
 20
20.99999999999988
 10
-137.4999999989998
 20
67.50000000099987
 10
-129.9999999999996
 20
67.50000000099987
  0
LWPOLYLINE
  5
B6EA
330
1E
100
AcDbEntity
  8
10
100
AcDbPolyline
 90
        8
 70
     0
 43
0.0
 10
-122.4999999999996
 20
9.000000000000113
 10
-122.4999999999996
 20
10.60000000000001
 10
-136.4
 20
10.60000000000001
 10
-136.4
 20
17.99999999999988
 10
-136.4
 20
20.99999999999988
 10
-128.0
 20
20.99999999999988
 10
-128.0
 20
13.10000000000001
 10
-136.4
 20
13.10000000000001
  0
ARC
  5
B6EB
330
1E
100
AcDbEntity
  8
10
100
AcDbCircle
 10
-144.1999999999999
 20
6.19999999999993
 30
0.0
 40
3.0
100
AcDbArc
 50
270.0
 51
0.0
  0
LWPOLYLINE
  5
B6EC
330
1E
100
AcDbEntity
  8
10
100
AcDbPolyline
 90
        3
 70
     0
 43
0.0
 10
-136.4
 20
17.99999999999988
 10
-138.0
 20
17.99999999999988
 10
-138.0
 20
9.000000000000113
  0
LWPOLYLINE
  5
B6ED
330
1E
100
AcDbEntity
  8
10
100
AcDbPolyline
 90
        2
 70
     0
 43
0.0
 10
-136.4
 20
20.99999999999988
 10
-138.0
 20
20.99999999999988
  0
LINE
  5
B6EE
330
1E
100
AcDbEntity
  8
10
100
AcDbLine
 10
-144.1999999999999
 20
3.19999999999993
 30
0.0
 11
-169.9999999999995
 21
3.19999999999993
 31
0.0
  0
LINE
  5
B6EF
330
1E
100
AcDbEntity
  8
10
100
AcDbLine
 10
-144.1999999999999
 20
0.0000000000001137
 30
0.0
 11
-169.9999999999995
 21
0.0000000000001137
 31
0.0
  0
LWPOLYLINE
  5
B6F0
330
1E
100
AcDbEntity
  8
10
100
AcDbPolyline
 90
        4
 70
     0
 43
0.0
 10
-129.0999999999999
 20
9.000000000000113
 10
-129.0999999999999
 20
7.500000000000111
 10
-123.9
 20
7.500000000000111
 10
-123.9
 20
9.000000000000113
  0
LWPOLYLINE
  5
B6F1
330
1E
100
AcDbEntity
  8
10
100
AcDbPolyline
 90
        3
 70
     0
 43
0.0
 10
-138.0
 20
72.9999999999999
 42
0.4142135623730951
 10
-133.0
 20
67.99999999999987
 10
-129.9999999999996
 20
67.99999999999987
  0
LWPOLYLINE
  5
B6F2
330
1E
100
AcDbEntity
  8
10
100
AcDbPolyline
 90
        4
 70
     1
 43
0.0
 10
-44.0
 20
329.0
 10
-114.0
 20
329.0
 10
-114.0
 20
138.9999999999999
 10
-44.0
 20
138.9999999999999
  0
LINE
  5
B6F3
330
1E
100
AcDbEntity
  8
10
100
AcDbLine
 10
-158.4999999999998
 20
160.707106782
 30
0.0
 11
-158.4999999999998
 21
161.4142135629998
 31
0.0
  0
LINE
  5
B6F4
330
1E
100
AcDbEntity
  8
10
100
AcDbLine
 10
-158.4999999999998
 20
155.9999999999998
 30
0.0
 11
-158.4999999999998
 21
160.707106782
 31
0.0
  0
LINE
  5
B6F5
330
1E
100
AcDbEntity
  8
10
100
AcDbLine
 10
-158.4999999999998
 20
136.8243724599998
 30
0.0
 11
-158.4999999999998
 21
155.9999999999998
 31
0.0
  0
ARC
  5
B6F6
330
1E
100
AcDbEntity
  8
10
100
AcDbCircle
 10
-154.2999999999999
 20
136.8243724599998
 30
0.0
 40
4.200000000000001
100
AcDbArc
 50
180.0
 51
259.0024612275685
  0
LINE
  5
B6F7
330
1E
100
AcDbEntity
  8
10
100
AcDbLine
 10
-142.0092331720903
 20
130.1572629200328
 30
0.0
 11
-155.1012206772139
 21
132.7015038680601
 31
0.0
  0
ARC
  5
B6F8
330
1E
100
AcDbEntity
  8
10
100
AcDbCircle
 10
-142.1999999999997
 20
129.1756275409997
 30
0.0
 40
0.9999999999999715
100
AcDbArc
 50
0.0
 51
79.00246122749121
  0
LWPOLYLINE
  5
B6F9
330
1E
100
AcDbEntity
  8
10
100
AcDbPolyline
 90
        2
 70
     0
 43
0.0
 10
-155.2999999999997
 20
155.9999999999998
 10
-158.4999999999999
 20
155.9999999999998
  0
LWPOLYLINE
  5
B6FA
330
1E
100
AcDbEntity
  8
10
100
AcDbPolyline
 90
        4
 70
     1
 43
0.0
 10
-64.5
 20
351.0
 10
-94.50000000000001
 20
351.0
 10
-94.50000000000001
 20
341.0
 10
-64.5
 20
341.0
  0
LWPOLYLINE
  5
B6FB
330
1E
100
AcDbEntity
  8
10
100
AcDbPolyline
 90
        6
 70
     0
 43
0.0
 10
-136.6999999999999
 20
289.4999999999999
 10
-133.4999999999999
 20
289.4999999999999
 10
-133.4999999999999
 20
292.5000000000001
 10
-133.4999999999999
 20
318.5
 10
-133.4999999999999
 20
321.4999999999999
 10
-136.6999999999999
 20
321.4999999999999
  0
LWPOLYLINE
  5
B6FC
330
1E
100
AcDbEntity
  8
10
100
AcDbPolyline
 90
        9
 70
     0
 43
0.0
 10
-155.2999999999999
 20
286.3000000000001
 42
-0.4142135623730978
 10
-152.0999999999995
 20
289.5000000000004
 10
-136.6999999999999
 20
289.4999999999999
 10
-136.6999999999999
 20
292.5000000000001
 10
-136.6999999999999
 20
318.5
 10
-136.6999999999999
 20
321.4999999999999
 10
-152.0999999999995
 20
321.5000000000001
 42
-0.397821198070099
 10
-155.2949317136186
 20
324.5199684879996
 10
-155.2949317129998
 20
324.5199684879996
  0
LWPOLYLINE
  5
B6FD
330
1E
100
AcDbEntity
  8
10
100
AcDbPolyline
 90
        2
 70
     0
 43
0.0
 10
-138.0
 20
289.4999999999999
 10
-138.0
 20
321.4999999999999
  0
LWPOLYLINE
  5
B6FE
330
1E
100
AcDbEntity
  8
10
100
AcDbPolyline
 90
        6
 70
     0
 43
0.0
 10
-155.2999999999997
 20
269.4999999999999
 10
-152.0999999999999
 20
269.4999999999999
 10
-152.0999999999999
 20
272.5000000000004
 10
-152.0999999999999
 20
286.3000000000001
 10
-136.6999999999999
 20
286.2999999999999
 42
0.4142135623730978
 10
-133.4999999999999
 20
289.4999999999999
  0
LWPOLYLINE
  5
B6FF
330
1E
100
AcDbEntity
  8
10
100
AcDbPolyline
 90
        6
 70
     0
 43
0.0
 10
-133.4999999999999
 20
321.4999999999999
 42
0.4142135623730978
 10
-136.6999999999999
 20
324.7000000000001
 10
-152.0999999999999
 20
324.7000000000003
 10
-152.0999999999999
 20
338.5
 10
-152.0999999999999
 20
341.5
 10
-155.2999999999997
 20
341.5
  0
LWPOLYLINE
  5
B700
330
1E
100
AcDbEntity
  8
10
100
AcDbPolyline
 90
        2
 70
     0
 43
0.0
 10
-155.2999999999997
 20
308.5199684879996
 10
-138.0
 20
308.5199684879996
  0
LWPOLYLINE
  5
B701
330
1E
100
AcDbEntity
  8
10
100
AcDbPolyline
 90
        2
 70
     0
 43
0.0
 10
-119.0
 20
321.0
 10
-119.0
 20
356.0
  0
LINE
  5
B702
330
1E
100
AcDbEntity
  8
10
100
AcDbLine
 10
141.1999999999999
 20
129.1756275409997
 30
0.0
 11
141.1999999999999
 21
6.19999999999993
 31
0.0
  0
LWPOLYLINE
  5
B703
330
1E
100
AcDbEntity
  8
10
100
AcDbPolyline
 90
        6
 70
     0
 43
0.0
 10
138.0000000000002
 20
100.9999999999997
 10
137.7000000000002
 20
100.9999999999997
 10
137.7000000000002
 20
101.9999999999997
 10
137.7000000000002
 20
125.0
 10
137.7000000000002
 20
125.9999999999997
 10
138.0000000000002
 20
125.9999999999997
  0
LWPOLYLINE
  5
B704
330
1E
100
AcDbEntity
  8
10
100
AcDbPolyline
 90
        5
 70
     0
 43
0.0
 10
138.0000000000002
 20
286.3000000000001
 10
138.0000000000002
 20
129.1756275409997
 10
138.0000000000002
 20
6.19999999999993
 42
0.4142135623730966
 10
144.2000000000003
 20
-0.0000000000001137
 10
170.0
 20
0.0000000000001137
  0
LWPOLYLINE
  5
B705
330
1E
100
AcDbEntity
  8
10
100
AcDbPolyline
 90
        4
 70
     1
 43
0.0
 10
89.00000000000023
 20
345.0
 10
89.00000000000023
 20
70.0000000000001
 10
114.0000000000002
 20
70.0000000000001
 10
114.0000000000002
 20
345.0
  0
LWPOLYLINE
  5
B706
330
1E
100
AcDbEntity
  8
10
100
AcDbPolyline
 90
       12
 70
     0
 43
0.0
 10
130.0000000000002
 20
67.50000000099987
 10
137.500000001
 20
67.50000000099987
 10
137.500000001
 20
40.99999999999986
 10
136.0000000000004
 20
40.99999999999986
 10
136.0000000000004
 20
35.0000000000001
 10
136.0000000000004
 20
29.0000000000001
 10
137.500000001
 20
29.0000000000001
 10
137.500000001
 20
20.99999999999988
 10
136.4000000000003
 20
20.99999999999988
 10
128.0000000000002
 20
20.99999999999988
 10
128.0000000000002
 20
13.10000000000001
 10
136.4000000000003
 20
13.10000000000001
  0
ARC
  5
B707
330
1E
100
AcDbEntity
  8
10
100
AcDbCircle
 10
144.2000000000001
 20
6.19999999999993
 30
0.0
 40
3.0
100
AcDbArc
 50
180.0
 51
270.0
  0
LWPOLYLINE
  5
B708
330
1E
100
AcDbEntity
  8
10
100
AcDbPolyline
 90
        4
 70
     0
 43
0.0
 10
122.5000000000002
 20
9.000000000000113
 10
122.5000000000002
 20
10.60000000000001
 10
136.4000000000003
 20
10.60000000000001
 10
136.4000000000003
 20
17.99999999999988
  0
LWPOLYLINE
  5
B709
330
1E
100
AcDbEntity
  8
10
100
AcDbPolyline
 90
        4
 70
     0
 43
0.0
 10
123.9000000000002
 20
9.000000000000113
 10
123.9000000000002
 20
7.500000000000111
 10
129.1000000000001
 20
7.500000000000111
 10
129.1000000000001
 20
9.000000000000113
  0
LWPOLYLINE
  5
B70A
330
1E
100
AcDbEntity
  8
10
100
AcDbPolyline
 90
        4
 70
     0
 43
0.0
 10
136.4000000000003
 20
20.99999999999988
 10
136.4000000000003
 20
17.99999999999988
 10
138.0000000000002
 20
17.99999999999988
 10
138.0000000000002
 20
9.000000000000113
  0
LINE
  5
B70B
330
1E
100
AcDbEntity
  8
10
100
AcDbLine
 10
144.2000000000001
 20
3.19999999999993
 30
0.0
 11
170.0
 21
3.19999999999993
 31
0.0
  0
LINE
  5
B70C
330
1E
100
AcDbEntity
  8
10
100
AcDbLine
 10
180.0000000000002
 20
0.0000000000001137
 30
0.0
 11
170.0
 21
0.0000000000001137
 31
0.0
  0
LINE
  5
B70D
330
1E
100
AcDbEntity
  8
10
100
AcDbLine
 10
170.0
 20
3.19999999999993
 30
0.0
 11
180.0000000000002
 21
3.19999999999993
 31
0.0
  0
LINE
  5
B70E
330
1E
100
AcDbEntity
  8
10
100
AcDbLine
 10
180.0000000000002
 20
3.19999999999993
 30
0.0
 11
180.0000000000002
 21
0.0000000000001137
 31
0.0
  0
LWPOLYLINE
  5
B70F
330
1E
100
AcDbEntity
  8
10
100
AcDbPolyline
 90
        3
 70
     0
 43
0.0
 10
130.0000000000002
 20
67.99999999999987
 10
133.0000000000002
 20
67.99999999999987
 42
0.4142135623730951
 10
138.0000000000002
 20
72.9999999999999
  0
LINE
  5
B710
330
1E
100
AcDbEntity
  8
10
100
AcDbLine
 10
155.1012206771553
 20
132.7015038680485
 30
0.0
 11
142.0092331720903
 21
130.1572629200328
 31
0.0
  0
LWPOLYLINE
  5
B711
330
1E
100
AcDbEntity
  8
10
100
AcDbPolyline
 90
        5
 70
     0
 43
0.0
 10
155.3000000000001
 20
155.9999999999998
 10
155.3000000000001
 20
136.8243724599998
 42
-0.3590488100869451
 10
154.4907668279805
 20
135.8427370809805
 10
141.3987793224873
 20
133.2984961328816
 42
0.35904881008726
 10
138.0000000000002
 20
129.1756275409997
  0
ARC
  5
B712
330
1E
100
AcDbEntity
  8
10
100
AcDbCircle
 10
142.2000000000001
 20
129.1756275409997
 30
0.0
 40
0.9999999999999875
100
AcDbArc
 50
100.9975387725086
 51
180.0
  0
ARC
  5
B713
330
1E
100
AcDbEntity
  8
10
100
AcDbCircle
 10
154.3000000000001
 20
136.8243724599998
 30
0.0
 40
4.200000000000017
100
AcDbArc
 50
280.9975387716118
 51
0.0
  0
LINE
  5
B714
330
1E
100
AcDbEntity
  8
10
100
AcDbLine
 10
158.5000000000003
 20
155.9999999999998
 30
0.0
 11
158.4999999999999
 21
136.8243724599998
 31
0.0
  0
LINE
  5
B715
330
1E
100
AcDbEntity
  8
10
100
AcDbLine
 10
155.3000000000001
 20
155.9999999999998
 30
0.0
 11
158.5000000000003
 21
155.9999999999998
 31
0.0
  0
LINE
  5
B716
330
1E
100
AcDbEntity
  8
10
100
AcDbLine
 10
155.3000000000001
 20
160.707106782
 30
0.0
 11
155.3000000000001
 21
155.9999999999998
 31
0.0
  0
LINE
  5
B717
330
1E
100
AcDbEntity
  8
10
100
AcDbLine
 10
155.3000000000001
 20
161.4142135629998
 30
0.0
 11
155.3000000000001
 21
160.707106782
 31
0.0
  0
LWPOLYLINE
  5
B718
330
1E
100
AcDbEntity
  8
10
100
AcDbPolyline
 90
        4
 70
     1
 43
0.0
 10
46.0
 20
301.0
 10
46.0
 20
286.0
 10
72.0
 20
286.0
 10
72.0
 20
301.0
  0
LWPOLYLINE
  5
B719
330
1E
100
AcDbEntity
  8
10
100
AcDbPolyline
 90
        4
 70
     1
 43
0.0
 10
46.0
 20
265.9999999999998
 10
46.0
 20
240.9999999999997
 10
72.0
 20
240.9999999999997
 10
72.0
 20
265.9999999999998
  0
LWPOLYLINE
  5
B71A
330
1E
100
AcDbEntity
  8
10
100
AcDbPolyline
 90
        2
 70
     0
 43
0.0
 10
138.0000000000002
 20
321.4999999999999
 10
138.0000000000002
 20
289.4999999999999
  0
LWPOLYLINE
  5
B71B
330
1E
100
AcDbEntity
  8
10
100
AcDbPolyline
 90
        8
 70
     1
 43
0.0
 10
136.7000000000002
 20
318.5
 10
136.7000000000002
 20
321.4999999999999
 10
133.5000000000003
 20
321.4999999999999
 10
133.5000000000003
 20
318.5
 10
133.5000000000003
 20
292.5000000000001
 10
133.5000000000003
 20
289.4999999999999
 10
136.7000000000002
 20
289.4999999999999
 10
136.7000000000002
 20
292.5000000000001
  0
LWPOLYLINE
  5
B71C
330
1E
100
AcDbEntity
  8
10
100
AcDbPolyline
 90
        6
 70
     0
 43
0.0
 10
133.4999999999999
 20
289.4999999999999
 42
0.4142135623730978
 10
136.7000000000003
 20
286.2999999999999
 10
152.1000000000003
 20
286.3000000000001
 10
152.1000000000003
 20
272.5000000000004
 10
152.1000000000003
 20
269.4999999999999
 10
155.3000000000001
 20
269.4999999999999
  0
LWPOLYLINE
  5
B71D
330
1E
100
AcDbEntity
  8
10
100
AcDbPolyline
 90
        3
 70
     0
 43
0.0
 10
155.3000000000003
 20
286.3000000000001
 42
0.4142135623730978
 10
152.1000000000003
 20
289.5000000000004
 10
136.7000000000002
 20
289.4999999999999
  0
LWPOLYLINE
  5
B71E
330
1E
100
AcDbEntity
  8
10
100
AcDbPolyline
 90
        2
 70
     0
 43
0.0
 10
138.0000000000002
 20
308.5199684879996
 10
155.3000000000001
 20
308.5199684879996
  0
LWPOLYLINE
  5
B71F
330
1E
100
AcDbEntity
  8
10
100
AcDbPolyline
 90
        4
 70
     0
 43
0.0
 10
136.7000000000002
 20
321.4999999999999
 10
152.1000000000003
 20
321.5000000000001
 42
0.397821198070099
 10
155.294931713619
 20
324.5199684879996
 10
155.2949317139996
 20
324.5199684879996
  0
LWPOLYLINE
  5
B720
330
1E
100
AcDbEntity
  8
10
100
AcDbPolyline
 90
        6
 70
     0
 43
0.0
 10
133.4999999999999
 20
321.4999999999999
 42
-0.4142135623730978
 10
136.7000000000003
 20
324.7000000000001
 10
152.1000000000003
 20
324.7000000000003
 10
152.1000000000003
 20
338.5
 10
152.1000000000003
 20
341.5
 10
155.3000000000001
 20
341.5
  0
LWPOLYLINE
  5
B721
330
1E
100
AcDbEntity
  8
10
100
AcDbPolyline
 90
        2
 70
     0
 43
0.0
 10
119.0000000000002
 20
321.0
 10
119.0000000000002
 20
356.0
  0
LEADER
  5
B722
330
1E
100
AcDbEntity
  8
19
100
AcDbLeader
  3
Standard
 76
     3
 10
-145.2837289439998
 20
563.2000000000001
 30
0.0
 10
-300.1401105639997
 20
704.0740025570004
 30
0.0
 10
-523.4291506969998
 20
704.0740025570004
 30
0.0
  0
MTEXT
  5
B723
330
1E
100
AcDbEntity
  8
19
100
AcDbMText
 10
-523.3936190539998
 20
737.8759808249646
 30
0.0
 40
20.0
 41
0.0
 71
     1
 72
     5
  1
ARC BARRIER
 73
     1
 44
1.0
1001
ACAD
1000
MTEXTBEGIN
1070
    73
1070
     1
1070
    44
1040
1.0
1070
    74
1070
     0
1000
MTEXTEND
  0
MTEXT
  5
B724
330
1E
100
AcDbEntity
  8
19
100
AcDbMText
 10
-524.6604435992685
 20
695.4266929660002
 30
0.0
 40
20.0
 41
0.0
 71
     1
 72
     5
  1
(NOT SUPPLIED)
 73
     1
 44
1.0
1001
ACAD
1000
MTEXTBEGIN
1070
    73
1070
     1
1070
    44
1040
1.0
1070
    74
1070
     0
1000
MTEXTEND
  0
LWPOLYLINE
  5
B725
330
1E
100
AcDbEntity
  8
34
100
AcDbPolyline
 90
        4
 70
     0
 43
0.0
 10
-158.4999999999999
 20
460.0
 10
-158.4999999999999
 20
490.0000000000003
 10
158.5000000000003
 20
490.0000000000003
 10
158.5000000000003
 20
460.0
  0
TEXT
  5
B726
330
1E
100
AcDbEntity
  8
19
100
AcDbText
 10
3.772380920899648
 20
689.2472210300694
 30
0.0
 40
20.0
  1
P
 41
0.75
100
AcDbText
  0
LWPOLYLINE
  5
B727
330
1E
100
AcDbEntity
  8
18
100
AcDbPolyline
 90
        4
 70
     1
 43
0.0
 10
175.0
 20
553.2000000000001
 10
175.0
 20
563.2000000000001
 10
-174.9999999999995
 20
563.2000000000001
 10
-174.9999999999995
 20
553.2000000000001
  0
LWPOLYLINE
  5
B728
330
1E
100
AcDbEntity
  8
10
100
AcDbPolyline
 90
        4
 70
     0
 43
0.0
 10
-149.7999999999999
 20
422.2000000000003
 10
-149.7999999999999
 20
424.5
 10
149.8000000000004
 20
424.5
 10
149.8000000000004
 20
422.2000000000003
  0
LWPOLYLINE
  5
B729
330
1E
100
AcDbEntity
  8
10
100
AcDbPolyline
 90
       10
 70
     0
 43
0.0
 10
-153.0
 20
421.0
 10
-151.0
 20
421.0
 10
-149.7999999999999
 20
421.0
 10
-149.7999999999999
 20
421.1999999999998
 10
-149.7999999999999
 20
422.2000000000003
 10
149.8000000000004
 20
422.2000000000003
 10
149.8000000000004
 20
421.1999999999998
 10
149.8000000000004
 20
421.0
 10
151.0000000000004
 20
421.0
 10
153.0000000000002
 20
421.0
  0
LWPOLYLINE
  5
B72A
330
1E
100
AcDbEntity
  8
10
100
AcDbPolyline
 90
        5
 70
     0
 43
0.0
 10
-88.25000000000001
 20
425.0000000000001
 10
-88.25000000000001
 20
455.0
 10
21.75
 20
455.0
 10
90.3000000000002
 20
455.0
 10
90.3000000000002
 20
425.0000000000001
  0
LWPOLYLINE
  5
B72B
330
1E
100
AcDbEntity
  8
10
100
AcDbPolyline
 90
        2
 70
     0
 43
0.0
 10
-88.25000000000001
 20
445.0000000000001
 10
21.75
 20
445.0000000000001
  0
LWPOLYLINE
  5
B72C
330
1E
100
AcDbEntity
  8
10
100
AcDbPolyline
 90
        2
 70
     0
 43
0.0
 10
-88.25000000000001
 20
435.0
 10
21.75
 20
435.0
  0
DIMENSION
  5
B72D
330
1E
100
AcDbEntity
  8
30
100
AcDbDimension
  2
*D40
 10
175.0
 20
638.763250778
 30
0.0
 11
80.98967571400022
 21
638.763250778
 31
0.0
 70
   160
 71
     5
 42
174.9999999999997
  3
Standard
100
AcDbAlignedDimension
 13
0.0000000000002274
 23
590.038586151
 33
0.0
 14
175.0
 24
563.2000000000001
 34
0.0
100
AcDbRotatedDimension
  0
DIMENSION
  5
B72E
330
1E
100
AcDbEntity
  8
30
100
AcDbDimension
  2
*D41
 10
-174.9999999999995
 20
638.4743204849997
 30
0.0
 11
-91.32958501299979
 21
638.4743204849997
 31
0.0
 70
   160
 71
     5
 42
174.9999999999997
  3
Standard
100
AcDbAlignedDimension
 13
0.0000000000002274
 23
590.038586151
 33
0.0
 14
-174.9999999999995
 24
563.2000000000001
 34
0.0
100
AcDbRotatedDimension
  0
LWPOLYLINE
  5
B72F
330
1E
100
AcDbEntity
  8
10
100
AcDbPolyline
 90
        2
 70
     0
 43
0.0
 10
-153.0
 20
393.0
 10
-153.0
 20
434.0
  0
LWPOLYLINE
  5
B730
330
1E
100
AcDbEntity
  8
10
100
AcDbPolyline
 90
        2
 70
     0
 43
0.0
 10
-137.4999999999996
 20
382.5
 10
-129.9999999999996
 20
382.5
  0
LWPOLYLINE
  5
B731
330
1E
100
AcDbEntity
  8
10
100
AcDbPolyline
 90
        8
 70
     0
 43
0.0
 10
-129.9999999999996
 20
386.5
 10
-138.7999999999997
 20
386.5
 10
-138.7999999999997
 20
389.8
 10
-138.7999999999997
 20
390.0
 10
-151.0
 20
390.0
 10
-153.0
 20
390.0
 10
-153.0
 20
393.0
 10
-155.2999999999997
 20
393.0
  0
LWPOLYLINE
  5
B732
330
1E
100
AcDbEntity
  8
10
100
AcDbPolyline
 90
        2
 70
     0
 43
0.0
 10
-135.8499999999999
 20
422.168245837
 10
-135.8499999999999
 20
421.1999999999998
  0
LWPOLYLINE
  5
B733
330
1E
100
AcDbEntity
  8
10
100
AcDbPolyline
 90
        2
 70
     0
 43
0.0
 10
-153.0
 20
390.0
 10
-155.2999999999997
 20
390.0
  0
LWPOLYLINE
  5
B734
330
1E
100
AcDbEntity
  8
10
100
AcDbPolyline
 90
        6
 70
   128
 43
0.0
 10
-114.2372115209997
 20
422.2000000000003
 10
-114.3118026509998
 20
422.1506428999998
 10
-114.3453390579998
 20
422.0030641079997
 10
-114.3499999999999
 20
421.8614378279998
 10
-114.3499999999999
 20
421.1999999999998
 10
-114.3499999999999
 20
418.4999999999998
  0
LWPOLYLINE
  5
B735
330
1E
100
AcDbEntity
  8
10
100
AcDbPolyline
 90
        6
 70
   128
 43
0.0
 10
-109.25
 20
418.4999999999998
 10
-109.25
 20
421.1999999999998
 10
-109.25
 20
421.8614378279998
 10
-109.2622678679999
 20
422.0659279219995
 10
-109.3097568939999
 20
422.1795516489994
 10
-109.362788478
 20
422.2000000000003
  0
LWPOLYLINE
  5
B736
330
1E
100
AcDbEntity
  8
10
100
AcDbPolyline
 90
        2
 70
     0
 43
0.0
 10
-88.25000000000001
 20
455.0
 10
-155.2999999999997
 20
455.0
  0
LWPOLYLINE
  5
B737
330
1E
100
AcDbEntity
  8
10
100
AcDbPolyline
 90
        4
 70
     0
 43
0.0
 10
-155.2999999999997
 20
434.0
 10
-153.0
 20
434.0
 10
-153.0
 20
437.0
 10
-155.2999999999997
 20
437.0
  0
LWPOLYLINE
  5
B738
330
1E
100
AcDbEntity
  8
10
100
AcDbPolyline
 90
        3
 70
     0
 43
0.0
 10
-77.0
 20
422.2000000000003
 10
-77.0
 20
421.1999999999998
 10
-77.0
 20
418.4999999999998
  0
LWPOLYLINE
  5
B739
330
1E
100
AcDbEntity
  8
10
100
AcDbPolyline
 90
        2
 70
     0
 43
0.0
 10
-78.00142886309379
 20
418.5000000000015
 42
0.5144957554272797
 10
-84.99857113690621
 20
418.5000000000015
  0
TEXT
  5
B73A
330
1E
100
AcDbEntity
  8
19
100
AcDbText
 10
-7.643186506305482
 20
675.4909918257399
 30
0.0
 40
20.0
  1
C
 41
0.75
100
AcDbText
  0
LWPOLYLINE
  5
B73B
330
1E
100
AcDbEntity
  8
10
100
AcDbPolyline
 90
        2
 70
     0
 43
0.0
 10
90.3000000000002
 20
445.0000000000001
 10
140.3
 20
445.0000000000001
  0
LWPOLYLINE
  5
B73C
330
1E
100
AcDbEntity
  8
10
100
AcDbPolyline
 90
        2
 70
     0
 43
0.0
 10
90.3000000000002
 20
435.0
 10
140.3
 20
435.0
  0
LWPOLYLINE
  5
B73D
330
1E
100
AcDbEntity
  8
10
100
AcDbPolyline
 90
        3
 70
     0
 43
0.0
 10
140.3
 20
425.0000000000001
 10
140.3
 20
455.0
 10
90.3000000000002
 20
455.0
  0
LWPOLYLINE
  5
B73E
330
1E
100
AcDbEntity
  8
10
100
AcDbPolyline
 90
        2
 70
     0
 43
0.0
 10
21.75
 20
425.0000000000001
 10
21.75
 20
455.0
  0
LWPOLYLINE
  5
B73F
330
1E
100
AcDbEntity
  8
10
100
AcDbPolyline
 90
        2
 70
     0
 43
0.0
 10
18.9985711369062
 20
418.5000000000015
 42
0.5144957554272797
 10
12.00142886309379
 20
418.5000000000015
  0
LWPOLYLINE
  5
B740
330
1E
100
AcDbEntity
  8
10
100
AcDbPolyline
 90
        3
 70
     0
 43
0.0
 10
10.5
 20
418.4999999999998
 10
10.5
 20
421.1999999999998
 10
10.5
 20
422.2000000000003
  0
LWPOLYLINE
  5
B741
330
1E
100
AcDbEntity
  8
10
100
AcDbPolyline
 90
        6
 70
   128
 43
0.0
 10
84.85000000000036
 20
418.4999999999998
 10
84.85000000000036
 20
421.1999999999998
 10
84.85000000000036
 20
421.8614378279998
 10
84.83773213200038
 20
422.0659279219995
 10
84.79024310599994
 20
422.1795516489994
 10
84.73721152199983
 20
422.2000000000003
  0
LWPOLYLINE
  5
B742
330
1E
100
AcDbEntity
  8
10
100
AcDbPolyline
 90
        6
 70
   128
 43
0.0
 10
79.86278847900006
 20
422.2000000000003
 10
79.78819734900003
 20
422.1506428999998
 10
79.7546609420001
 20
422.0030641079997
 10
79.75
 20
421.8614378279998
 10
79.75
 20
421.1999999999998
 10
79.75
 20
418.4999999999998
  0
LWPOLYLINE
  5
B743
330
1E
100
AcDbEntity
  8
10
100
AcDbPolyline
 90
        6
 70
   128
 43
0.0
 10
64.84999999999991
 20
418.4999999999998
 10
64.84999999999991
 20
421.1999999999998
 10
64.84999999999991
 20
421.8614378279998
 10
64.83773213199993
 20
422.0659279219995
 10
64.79024310599993
 20
422.1795516489994
 10
64.73721152199981
 20
422.2000000000003
  0
LWPOLYLINE
  5
B744
330
1E
100
AcDbEntity
  8
10
100
AcDbPolyline
 90
        6
 70
   128
 43
0.0
 10
59.86278847900007
 20
422.2000000000003
 10
59.78819734900003
 20
422.1506428999998
 10
59.7546609420001
 20
422.0030641079997
 10
59.75
 20
421.8614378279998
 10
59.75
 20
421.1999999999998
 10
59.75
 20
418.4999999999998
  0
LWPOLYLINE
  5
B745
330
1E
100
AcDbEntity
  8
10
100
AcDbPolyline
 90
        2
 70
     0
 43
0.0
 10
153.0000000000002
 20
434.0
 10
153.0000000000002
 20
393.0
  0
LWPOLYLINE
  5
B746
330
1E
100
AcDbEntity
  8
10
100
AcDbPolyline
 90
        8
 70
     0
 43
0.0
 10
155.3000000000001
 20
393.0
 10
153.0000000000002
 20
393.0
 10
153.0000000000002
 20
390.0
 10
151.0000000000004
 20
390.0
 10
138.8000000000004
 20
390.0
 10
138.8000000000004
 20
389.8
 10
138.8000000000004
 20
386.5
 10
130.0000000000002
 20
386.5
  0
LWPOLYLINE
  5
B747
330
1E
100
AcDbEntity
  8
10
100
AcDbPolyline
 90
        2
 70
     0
 43
0.0
 10
130.0000000000002
 20
382.5
 10
137.5
 20
382.5
  0
LWPOLYLINE
  5
B748
330
1E
100
AcDbEntity
  8
10
100
AcDbPolyline
 90
        6
 70
   128
 43
0.0
 10
104.8500000000003
 20
418.4999999999998
 10
104.8500000000003
 20
421.1999999999998
 10
104.8500000000003
 20
421.8614378279998
 10
104.8377321320002
 20
422.0659279219995
 10
104.7902431059999
 20
422.1795516489994
 10
104.7372115219997
 20
422.2000000000003
  0
LWPOLYLINE
  5
B749
330
1E
100
AcDbEntity
  8
10
100
AcDbPolyline
 90
        6
 70
   128
 43
0.0
 10
99.86278847899985
 20
422.2000000000003
 10
99.78819734900007
 20
422.1506428999998
 10
99.7546609420001
 20
422.0030641079997
 10
99.75000000000044
 20
421.8614378279998
 10
99.75000000000044
 20
421.1999999999998
 10
99.75000000000044
 20
418.4999999999998
  0
LWPOLYLINE
  5
B74A
330
1E
100
AcDbEntity
  8
10
100
AcDbPolyline
 90
        2
 70
     0
 43
0.0
 10
155.3000000000001
 20
390.0
 10
153.0000000000002
 20
390.0
  0
LWPOLYLINE
  5
B74B
330
1E
100
AcDbEntity
  8
10
100
AcDbPolyline
 90
        2
 70
     0
 43
0.0
 10
140.3
 20
455.0
 10
155.3000000000001
 20
455.0
  0
LINE
  5
B74C
330
1E
100
AcDbEntity
  8
10
100
AcDbLine
 10
155.3000000000001
 20
460.0
 30
0.0
 11
155.3000000000001
 21
450.0000000000001
 31
0.0
  0
LINE
  5
B74D
330
1E
100
AcDbEntity
  8
10
100
AcDbLine
 10
158.5000000000003
 20
460.0
 30
0.0
 11
155.3000000000001
 21
460.0
 31
0.0
  0
LWPOLYLINE
  5
B74E
330
1E
100
AcDbEntity
  8
10
100
AcDbPolyline
 90
        4
 70
     0
 43
0.0
 10
155.3000000000001
 20
434.0
 10
153.0000000000002
 20
434.0
 10
153.0000000000002
 20
437.0
 10
155.3000000000001
 20
437.0
  0
LINE
  5
B7DA
330
1E
100
AcDbEntity
  8
10
100
AcDbLine
 10
118.9999999999997
 20
983.0
 30
0.0
 11
-119.0000000000002
 21
983.0
 31
0.0
  0
LINE
  5
B7DB
330
1E
100
AcDbEntity
  8
10
100
AcDbLine
 10
118.9999999999997
 20
983.0
 30
0.0
 11
118.9999999999997
 21
1000.0
 31
0.0
  0
LWPOLYLINE
  5
B7DD
330
1E
100
AcDbEntity
  8
10
100
AcDbPolyline
 90
        4
 70
     1
 43
0.0
 10
-158.4999999999999
 20
1277.0
 10
158.4999999999999
 20
1277.0
 10
158.4999999999999
 20
1000.0
 10
-158.4999999999999
 20
1000.0
  0
DIMENSION
  5
B8AB
330
1E
100
AcDbEntity
  8
30
100
AcDbDimension
  2
*D44
 10
1224.0
 20
-210.9495586533823
 30
0.0
 11
1041.5
 21
-202.9495586533823
 31
0.0
 70
    32
 71
     5
 42
365.0
  3
Standard
100
AcDbAlignedDimension
 13
859.0
 23
-77.00000000000024
 33
0.0
 14
1224.0
 24
133.0000019480001
 34
0.0
100
AcDbRotatedDimension
  0
LINE
  5
B8C5
330
1E
100
AcDbEntity
  8
Defpoints
100
AcDbLine
 10
-1339.998649386059
 20
1000.0
 30
0.0
 11
665.6422906689995
 21
1000.0
 31
0.0
  0
DIMENSION
  5
BB95
330
1E
100
AcDbEntity
  8
30
100
AcDbDimension
  2
*D50
 10
-745.6453671497756
 20
1081.999999999996
 30
0.0
 11
-753.6453671497756
 21
1164.499999999996
 31
0.0
 70
    32
 71
     5
 42
165.0000000000009
  3
Standard
100
AcDbAlignedDimension
 13
-824.9999999999996
 23
1246.999999999997
 33
0.0
 14
-825.0000000000001
 24
1081.999999999996
 34
0.0
 50
90.0
100
AcDbRotatedDimension
  0
DIMENSION
  5
BB96
330
1E
100
AcDbEntity
  8
30
100
AcDbDimension
  2
*D51
 10
-745.6453671497756
 20
999.9999999999996
 30
0.0
 11
-753.6453671497756
 21
1040.999999999997
 31
0.0
 70
    32
 71
     5
 42
81.99999999999613
  3
Standard
100
AcDbAlignedDimension
 13
-827.9999999999997
 23
1081.999999999996
 33
0.0
 14
-827.9999999999997
 24
1000.0
 34
0.0
 50
90.0
100
AcDbRotatedDimension
  0
DIMENSION
  5
BB97
330
1E
100
AcDbEntity
  8
30
100
AcDbDimension
  2
*D52
 10
-999.9999999999996
 20
948.3842652287068
 30
0.0
 11
-1082.499999999999
 21
956.3842652287068
 31
0.0
 70
    32
 71
     5
 42
165.0000000000003
  3
Standard
100
AcDbAlignedDimension
 13
-1165.0
 23
1072.0
 33
0.0
 14
-999.9999999999996
 24
1000.0
 34
0.0
100
AcDbRotatedDimension
  0
LINE
  5
BB98
330
1E
100
AcDbEntity
  8
12
100
AcDbLine
 10
-1155.0
 20
1082.0
 30
0.0
 11
-1175.0
 21
1082.0
 31
0.0
  0
CIRCLE
  5
BB99
330
1E
100
AcDbEntity
  8
12
100
AcDbCircle
 10
-1164.999999999998
 20
1081.999999999996
 30
0.0
 40
7.0
  0
LINE
  5
BB9A
330
1E
100
AcDbEntity
  8
12
100
AcDbLine
 10
-1165.0
 20
1092.0
 30
0.0
 11
-1165.0
 21
1072.0
 31
0.0
  0
DIMENSION
  5
BB9B
330
1E
100
AcDbEntity
  8
30
100
AcDbDimension
  2
*D53
 10
-834.9999999999996
 20
948.3842652287068
 30
0.0
 11
-917.4999999999997
 21
956.3842652287068
 31
0.0
 70
    32
 71
     5
 42
165.0
  3
Standard
100
AcDbAlignedDimension
 13
-999.9999999999996
 23
998.0
 33
0.0
 14
-834.9999999999996
 24
1071.999999999998
 34
0.0
100
AcDbRotatedDimension
  0
LINE
  5
BB9C
330
1E
100
AcDbEntity
  8
12
100
AcDbLine
 10
-825.0000000000001
 20
1081.999999999996
 30
0.0
 11
-845.0000000000001
 21
1081.999999999996
 31
0.0
  0
CIRCLE
  5
BB9D
330
1E
100
AcDbEntity
  8
12
100
AcDbCircle
 10
-834.9999999999996
 20
1081.999999999996
 30
0.0
 40
7.0
  0
LINE
  5
BB9E
330
1E
100
AcDbEntity
  8
12
100
AcDbLine
 10
-834.9999999999996
 20
1091.999999999998
 30
0.0
 11
-834.9999999999996
 21
1071.999999999998
 31
0.0
  0
CIRCLE
  5
BB9F
330
1E
100
AcDbEntity
  8
12
100
AcDbCircle
 10
-1164.999999999998
 20
1247.000122
 30
0.0
 40
7.0
  0
LINE
  5
BBA0
330
1E
100
AcDbEntity
  8
12
100
AcDbLine
 10
-1154.999999999998
 20
1247.000122
 30
0.0
 11
-1174.999999999998
 21
1247.000122
 31
0.0
  0
LINE
  5
BBA1
330
1E
100
AcDbEntity
  8
12
100
AcDbLine
 10
-1164.999999999998
 20
1257.000121999999
 30
0.0
 11
-1164.999999999998
 21
1237.000121999999
 31
0.0
  0
CIRCLE
  5
BBA2
330
1E
100
AcDbEntity
  8
12
100
AcDbCircle
 10
-834.9999999999996
 20
1246.999999999997
 30
0.0
 40
7.0
  0
LINE
  5
BBA3
330
1E
100
AcDbEntity
  8
12
100
AcDbLine
 10
-824.9999999999996
 20
1246.999999999997
 30
0.0
 11
-844.9999999999997
 21
1246.999999999997
 31
0.0
  0
LINE
  5
BBA4
330
1E
100
AcDbEntity
  8
12
100
AcDbLine
 10
-834.9999999999996
 20
1256.999999999996
 30
0.0
 11
-834.9999999999996
 21
1236.999999999996
 31
0.0
  0
LEADER
  5
BBA5
330
1E
100
AcDbEntity
  8
30
100
AcDbLeader
  3
Standard
 76
     3
 10
-834.9999999999996
 20
1253.999999999995
 30
0.0
 10
-807.3635968900136
 20
1279.717112470873
 30
0.0
 10
-762.0646758933267
 20
1279.717112470873
 30
0.0
1001
ACAD
1000
DSTYLE
1002
{
1070
     5
1000
OPEN
1070
   342
1005
3B2
1002
}
  0
TEXT
  5
BBA6
330
1E
100
AcDbEntity
  8
30
100
AcDbText
 10
-799.4610932706903
 20
1284.523724235808
 30
0.0
 40
10.0
  1
%%C14
100
AcDbText
  0
CIRCLE
  5
BDC6
330
1E
100
AcDbEntity
  8
27
100
AcDbCircle
 10
12.50000000000019
 20
1350.0
 30
0.0
 40
5.5
  0
CIRCLE
  5
BDC7
330
1E
100
AcDbEntity
  8
27
100
AcDbCircle
 10
-12.49999999999978
 20
1350.0
 30
0.0
 40
5.5
  0
CIRCLE
  5
BDC8
330
1E
100
AcDbEntity
  8
27
100
AcDbCircle
 10
-72.50000000000024
 20
1350.0
 30
0.0
 40
5.5
  0
CIRCLE
  5
BDC9
330
1E
100
AcDbEntity
  8
27
100
AcDbCircle
 10
-97.50000000000021
 20
1350.0
 30
0.0
 40
5.5
  0
VIEWPORT
  5
9AC
102
{ACAD_XDICTIONARY
360
BFEE
102
}
330
1A
100
AcDbEntity
 67
     1
  8
0
  6
Continuous
100
AcDbViewport
 10
99.11291503906245
 20
142.6315755844115
 30
0.0
 40
553.8801308809937
 41
299.1603055247638
 68
     1
 69
     1
 12
99.11291503906245
 22
142.6315755844115
 13
0.0
 23
0.0
 14
10.0
 24
10.0
 15
10.0
 25
10.0
 16
0.0
 26
0.0
 36
1.0
 17
0.0
 27
0.0
 37
0.0
 42
50.0
 43
0.0
 44
0.0
 45
299.1603055247638
 50
0.0
 51
0.0
 72
   100
 90
    32800
  1

281
     0
 71
     1
 74
     0
110
0.0
120
0.0
130
0.0
111
1.0
121
0.0
131
0.0
112
0.0
122
1.0
132
0.0
 79
     0
146
0.0
  0
ENDSEC
  0
SECTION
  2
OBJECTS
  0
DICTIONARY
  5
C
330
0
100
AcDbDictionary
281
     1
  3
ACAD_COLOR
350
BF91
  3
ACAD_GROUP
350
D
  3
ACAD_LAYOUT
350
19
  3
ACAD_MATERIAL
350
BF64
  3
ACAD_MLEADERSTYLE
350
BFB6
  3
ACAD_MLINESTYLE
350
16
  3
ACAD_PLOTSETTINGS
350
18
  3
ACAD_PLOTSTYLENAME
350
E
  3
ACAD_SCALELIST
350
BF94
  3
ACAD_TABLESTYLE
350
BF92
  3
ACAD_VISUALSTYLE
350
BF7D
  3
ACDB_RECOMPOSE_DATA
350
BFEA
  3
AcDbVariableDictionary
350
6CB8
  3
DWGPROPS
350
BFEB
  0
DICTIONARY
  5
BFBC
330
2
100
AcDbDictionary
280
     1
281
     1
  3
ACAD_LAYERSTATES
360
BFBD
  0
DICTIONARY
  5
BFCD
330
10
100
AcDbDictionary
280
     1
281
     1
  3
ADSK_XREC_LAYER_RECONCILED
360
BFCE
  0
DICTIONARY
  5
BFCF
330
2F
100
AcDbDictionary
280
     1
281
     1
  3
ADSK_XREC_LAYER_RECONCILED
360
BFD0
  0
DICTIONARY
  5
BFD1
330
31
100
AcDbDictionary
280
     1
281
     1
  3
ADSK_XREC_LAYER_RECONCILED
360
BFD2
  0
DICTIONARY
  5
BFD3
330
35
100
AcDbDictionary
280
     1
281
     1
  3
ADSK_XREC_LAYER_RECONCILED
360
BFD4
  0
DICTIONARY
  5
BFD5
330
38
100
AcDbDictionary
280
     1
281
     1
  3
ADSK_XREC_LAYER_RECONCILED
360
BFD6
  0
DICTIONARY
  5
BFD7
330
3C
100
AcDbDictionary
280
     1
281
     1
  3
ADSK_XREC_LAYER_RECONCILED
360
BFD8
  0
DICTIONARY
  5
BFD9
330
3A2
100
AcDbDictionary
280
     1
281
     1
  3
ADSK_XREC_LAYER_RECONCILED
360
BFDA
  0
DICTIONARY
  5
BFDB
330
33C8
100
AcDbDictionary
280
     1
281
     1
  3
ADSK_XREC_LAYER_RECONCILED
360
BFDC
  0
DICTIONARY
  5
BFDD
330
39DB
100
AcDbDictionary
280
     1
281
     1
  3
ADSK_XREC_LAYER_RECONCILED
360
BFDE
  0
DICTIONARY
  5
BFDF
330
A5CF
100
AcDbDictionary
280
     1
281
     1
  3
ADSK_XREC_LAYER_RECONCILED
360
BFE0
  0
DICTIONARY
  5
BFE1
330
B64A
100
AcDbDictionary
280
     1
281
     1
  3
ADSK_XREC_LAYER_RECONCILED
360
BFE2
  0
DICTIONARY
  5
178
330
1E
100
AcDbDictionary
280
     1
281
     1
  3
ACAD_LAYOUTSELFREF
360
818C
  0
DICTIONARY
  5
17A
330
1A
100
AcDbDictionary
280
     1
281
     1
  3
ACAD_LAYOUTSELFREF
360
818B
  0
DICTIONARY
  5
BFEE
330
9AC
100
AcDbDictionary
280
     1
281
     1
  3
ACAD_XREC_ROUNDTRIP
360
BFEF
  0
DICTIONARY
  5
BF91
102
{ACAD_REACTORS
330
C
102
}
330
C
100
AcDbDictionary
281
     1
  0
DICTIONARY
  5
D
102
{ACAD_REACTORS
330
C
102
}
330
C
100
AcDbDictionary
281
     1
  3
*A1
350
133D
  3
*A2
350
1341
  0
DICTIONARY
  5
19
102
{ACAD_REACTORS
330
C
102
}
330
C
100
AcDbDictionary
281
     1
  3
Model
350
21
  3
ﾚｲｱｳﾄ1
350
1D
  0
DICTIONARY
  5
BF64
102
{ACAD_REACTORS
330
C
102
}
330
C
100
AcDbDictionary
281
     1
  3
ByBlock
350
BF6D
  3
ByLayer
350
BF65
  3
Global
350
BF75
  0
DICTIONARY
  5
BFB6
102
{ACAD_REACTORS
330
C
102
}
330
C
100
AcDbDictionary
281
     1
  3
Standard
350
BFB7
  0
DICTIONARY
  5
16
102
{ACAD_REACTORS
330
C
102
}
330
C
100
AcDbDictionary
281
     1
  3
Standard
350
17
  0
DICTIONARY
  5
18
102
{ACAD_REACTORS
330
C
102
}
330
C
100
AcDbDictionary
281
     1
  0
ACDBDICTIONARYWDFLT
  5
E
102
{ACAD_REACTORS
330
C
102
}
330
C
100
AcDbDictionary
281
     1
  3
Normal
350
F
100
AcDbDictionaryWithDefault
340
F
  0
DICTIONARY
  5
BF94
102
{ACAD_REACTORS
330
C
102
}
330
C
100
AcDbDictionary
281
     1
  3
A0
350
BF95
  3
A1
350
BF96
  3
A2
350
BF97
  3
A3
350
BF98
  3
A4
350
BF99
  3
A5
350
BF9A
  3
A6
350
BF9B
  3
A7
350
BF9C
  3
A8
350
BF9D
  3
A9
350
BF9E
  3
B0
350
BF9F
  3
B1
350
BFA0
  3
B2
350
BFA1
  3
B3
350
BFA2
  3
B4
350
BFA3
  3
B5
350
BFA4
  3
B6
350
BFA5
  3
B7
350
BFA6
  3
B8
350
BFA7
  3
B9
350
BFA8
  3
C0
350
BFA9
  3
C1
350
BFAA
  3
C2
350
BFAB
  3
C3
350
BFAC
  3
C4
350
BFAD
  3
C5
350
BFAE
  3
C6
350
BFAF
  3
C7
350
BFB0
  3
C8
350
BFB1
  3
C9
350
BFB2
  3
D0
350
BFB3
  3
D1
350
BFB4
  3
D2
350
BFB5
  0
DICTIONARY
  5
BF92
102
{ACAD_REACTORS
330
C
102
}
330
C
100
AcDbDictionary
281
     1
  3
Standard
350
BF93
  0
DICTIONARY
  5
BF7D
102
{ACAD_REACTORS
330
C
102
}
330
C
100
AcDbDictionary
281
     1
  3
2dWireframe
350
BF83
  3
3D Hidden
350
BF85
  3
3dWireframe
350
BF84
  3
Basic
350
BF82
  3
Brighten
350
BF89
  3
ColorChange
350
BF8D
  3
Conceptual
350
BF86
  3
Dim
350
BF88
  3
EdgeColorOff
350
BF90
  3
Facepattern
350
BF8C
  3
Flat
350
BF7E
  3
FlatWithEdges
350
BF7F
  3
Gouraud
350
BF80
  3
GouraudWithEdges
350
BF81
  3
JitterOff
350
BF8E
  3
Linepattern
350
BF8B
  3
OverhangOff
350
BF8F
  3
Realistic
350
BF87
  3
Thicken
350
BF8A
  0
XRECORD
  5
BFEA
102
{ACAD_REACTORS
330
C
102
}
330
C
100
AcDbXrecord
280
     1
 90
        1
330
BF93
  0
DICTIONARY
  5
6CB8
102
{ACAD_REACTORS
330
C
102
}
330
C
100
AcDbDictionary
281
     1
  3
CANNOSCALE
350
BFE5
  3
CMLEADERSTYLE
350
BFE4
  3
CTABLESTYLE
350
BFE3
  3
DIMASSOC
350
81A4
  3
INDEXCTL
350
BFE6
  3
SORTENTS
350
6CB9
  3
XCLIPFRAME
350
BFE7
  0
XRECORD
  5
BFEB
102
{ACAD_REACTORS
330
C
102
}
330
C
100
AcDbXrecord
280
     1
  1
DWGPROPS COOKIE
  2

  3

  4

  6

  7

  8
CAD-PC
  9

300
=
301
=
302
=
303
=
304
=
305
=
306
=
307
=
308
=
309
=
 40
1.927715381944444
 41
2452286.555658658
 42
2456974.368399607
  1

 90
        0
  0
DICTIONARY
  5
BFBD
102
{ACAD_REACTORS
330
BFBC
102
}
330
BFBC
100
AcDbDictionary
281
     1
  0
XRECORD
  5
BFCE
102
{ACAD_REACTORS
330
BFCD
102
}
330
BFCD
100
AcDbXrecord
280
     1
290
     1
  0
XRECORD
  5
BFD0
102
{ACAD_REACTORS
330
BFCF
102
}
330
BFCF
100
AcDbXrecord
280
     1
290
     1
  0
XRECORD
  5
BFD2
102
{ACAD_REACTORS
330
BFD1
102
}
330
BFD1
100
AcDbXrecord
280
     1
290
     1
  0
XRECORD
  5
BFD4
102
{ACAD_REACTORS
330
BFD3
102
}
330
BFD3
100
AcDbXrecord
280
     1
290
     1
  0
XRECORD
  5
BFD6
102
{ACAD_REACTORS
330
BFD5
102
}
330
BFD5
100
AcDbXrecord
280
     1
290
     1
  0
XRECORD
  5
BFD8
102
{ACAD_REACTORS
330
BFD7
102
}
330
BFD7
100
AcDbXrecord
280
     1
290
     1
  0
XRECORD
  5
BFDA
102
{ACAD_REACTORS
330
BFD9
102
}
330
BFD9
100
AcDbXrecord
280
     1
290
     1
  0
XRECORD
  5
BFDC
102
{ACAD_REACTORS
330
BFDB
102
}
330
BFDB
100
AcDbXrecord
280
     1
290
     1
  0
XRECORD
  5
BFDE
102
{ACAD_REACTORS
330
BFDD
102
}
330
BFDD
100
AcDbXrecord
280
     1
290
     1
  0
XRECORD
  5
BFE0
102
{ACAD_REACTORS
330
BFDF
102
}
330
BFDF
100
AcDbXrecord
280
     1
290
     1
  0
XRECORD
  5
BFE2
102
{ACAD_REACTORS
330
BFE1
102
}
330
BFE1
100
AcDbXrecord
280
     1
290
     1
  0
XRECORD
  5
818C
102
{ACAD_REACTORS
330
178
102
}
330
178
100
AcDbXrecord
280
     1
340
1E
  0
XRECORD
  5
818B
102
{ACAD_REACTORS
330
17A
102
}
330
17A
100
AcDbXrecord
280
     1
340
1A
  0
XRECORD
  5
BFEF
102
{ACAD_REACTORS
330
BFEE
102
}
330
BFEE
100
AcDbXrecord
280
     1
102
SHADEPLOT
 70
     0
  0
GROUP
  5
133D
102
{ACAD_REACTORS
330
D
102
}
330
D
100
AcDbGroup
300

 70
     0
 71
     1
  0
GROUP
  5
1341
102
{ACAD_REACTORS
330
D
102
}
330
D
100
AcDbGroup
300

 70
     1
 71
     1
  0
LAYOUT
  5
21
102
{ACAD_XDICTIONARY
360
BFC2
102
}
102
{ACAD_REACTORS
330
19
102
}
330
19
100
AcDbPlotSettings
  1

  2
DocuWorks Printer
  4
A3
  6
OLE1
 40
5.408083438873291
 41
5.408078670501708
 42
5.4080810546875
 43
5.4080810546875
 44
297.0106506347656
 45
419.9889831542968
 46
49.96999999999999
 47
-1.479999999999999
 48
0.0
 49
0.0
140
0.0
141
0.0
142
1.0
143
10.0
 70
 11940
 72
     1
 73
     1
 74
     1
  7
monochrome.ctb
 75
     0
147
0.1
148
1500.030933307287
149
358.5774756087666
100
AcDbLayout
  1
Model
 70
     1
 71
     0
 10
0.0
 20
0.0
 11
12.0
 21
9.0
 12
0.0
 22
0.0
 32
0.0
 14
0.0
 24
0.0
 34
0.0
 15
0.0
 25
0.0
 35
0.0
146
0.0
 13
0.0
 23
0.0
 33
0.0
 16
1.0
 26
0.0
 36
0.0
 17
0.0
 27
1.0
 37
0.0
 76
     0
330
1E
331
BF39
  0
LAYOUT
  5
1D
102
{ACAD_XDICTIONARY
360
BFCB
102
}
102
{ACAD_REACTORS
330
19
102
}
330
19
100
AcDbPlotSettings
  1

  2
EPSON LP-8300
  4
A4
  6

 40
5.873749732971191
 41
5.873747825622557
 42
5.873748779296875
 43
5.873748779296875
 44
297.0106506347656
 45
209.9733276367186
 46
0.0
 47
0.0
 48
0.0
 49
0.0
140
0.0
141
0.0
142
1.0
143
1.0
 70
   672
 72
     1
 73
     1
 74
     5
  7
MCCB.ctb
 75
     0
147
1.0
148
0.0
149
0.0
100
AcDbLayout
  1
ﾚｲｱｳﾄ1
 70
     0
 71
     1
 10
-5.873748779296875
 20
-5.873749732971191
 11
204.0995788574218
 21
291.1369009017943
 12
0.0
 22
0.0
 32
0.0
 14
1.000000000000000E+20
 24
1.000000000000000E+20
 34
1.000000000000000E+20
 15
-1.000000000000000E+20
 25
-1.000000000000000E+20
 35
-1.000000000000000E+20
146
0.0
 13
0.0
 23
0.0
 33
0.0
 16
1.0
 26
0.0
 36
0.0
 17
0.0
 27
1.0
 37
0.0
 76
     0
330
1A
331
9AC
  0
MATERIAL
  5
BF6D
102
{ACAD_XDICTIONARY
360
BF6E
102
}
102
{ACAD_REACTORS
330
BF64
102
}
330
BF64
100
AcDbMaterial
  1
ByBlock
 72
     0
 43
0.0208333333333333
 43
0.0
 43
0.0
 43
0.0
 43
0.0
 43
0.0208333333333333
 43
0.0
 43
0.0
 43
0.0
 43
0.0
 43
1.0
 43
0.0
 43
0.0
 43
0.0
 43
0.0
 43
1.0
 77
     0
 47
0.0208333333333333
 47
0.0
 47
0.0
 47
0.0
 47
0.0
 47
0.0208333333333333
 47
0.0
 47
0.0
 47
0.0
 47
0.0
 47
1.0
 47
0.0
 47
0.0
 47
0.0
 47
0.0
 47
1.0
171
     0
 49
0.0208333333333333
 49
0.0
 49
0.0
 49
0.0
 49
0.0
 49
0.0208333333333333
 49
0.0
 49
0.0
 49
0.0
 49
0.0
 49
1.0
 49
0.0
 49
0.0
 49
0.0
 49
0.0
 49
1.0
175
     0
142
0.0208333333333333
142
0.0
142
0.0
142
0.0
142
0.0
142
0.0208333333333333
142
0.0
142
0.0
142
0.0
142
0.0
142
1.0
142
0.0
142
0.0
142
0.0
142
0.0
142
1.0
179
     0
144
0.0208333333333333
144
0.0
144
0.0
144
0.0
144
0.0
144
0.0208333333333333
144
0.0
144
0.0
144
0.0
144
0.0
144
1.0
144
0.0
144
0.0
144
0.0
144
0.0
144
1.0
147
0.0208333333333333
147
0.0
147
0.0
147
0.0
147
0.0
147
0.0208333333333333
147
0.0
147
0.0
147
0.0
147
0.0
147
1.0
147
0.0
147
0.0
147
0.0
147
0.0
147
1.0
  0
MATERIAL
  5
BF65
102
{ACAD_XDICTIONARY
360
BF66
102
}
102
{ACAD_REACTORS
330
BF64
102
}
330
BF64
100
AcDbMaterial
  1
ByLayer
 72
     0
 43
0.0208333333333333
 43
0.0
 43
0.0
 43
0.0
 43
0.0
 43
0.0208333333333333
 43
0.0
 43
0.0
 43
0.0
 43
0.0
 43
1.0
 43
0.0
 43
0.0
 43
0.0
 43
0.0
 43
1.0
 77
     0
 47
0.0208333333333333
 47
0.0
 47
0.0
 47
0.0
 47
0.0
 47
0.0208333333333333
 47
0.0
 47
0.0
 47
0.0
 47
0.0
 47
1.0
 47
0.0
 47
0.0
 47
0.0
 47
0.0
 47
1.0
171
     0
 49
0.0208333333333333
 49
0.0
 49
0.0
 49
0.0
 49
0.0
 49
0.0208333333333333
 49
0.0
 49
0.0
 49
0.0
 49
0.0
 49
1.0
 49
0.0
 49
0.0
 49
0.0
 49
0.0
 49
1.0
175
     0
142
0.0208333333333333
142
0.0
142
0.0
142
0.0
142
0.0
142
0.0208333333333333
142
0.0
142
0.0
142
0.0
142
0.0
142
1.0
142
0.0
142
0.0
142
0.0
142
0.0
142
1.0
179
     0
144
0.0208333333333333
144
0.0
144
0.0
144
0.0
144
0.0
144
0.0208333333333333
144
0.0
144
0.0
144
0.0
144
0.0
144
1.0
144
0.0
144
0.0
144
0.0
144
0.0
144
1.0
147
0.0208333333333333
147
0.0
147
0.0
147
0.0
147
0.0
147
0.0208333333333333
147
0.0
147
0.0
147
0.0
147
0.0
147
1.0
147
0.0
147
0.0
147
0.0
147
0.0
147
1.0
  0
MATERIAL
  5
BF75
102
{ACAD_XDICTIONARY
360
BF76
102
}
102
{ACAD_REACTORS
330
BF64
102
}
330
BF64
100
AcDbMaterial
  1
Global
 72
     0
 43
0.0208333333333333
 43
0.0
 43
0.0
 43
0.0
 43
0.0
 43
0.0208333333333333
 43
0.0
 43
0.0
 43
0.0
 43
0.0
 43
1.0
 43
0.0
 43
0.0
 43
0.0
 43
0.0
 43
1.0
 77
     0
 47
0.0208333333333333
 47
0.0
 47
0.0
 47
0.0
 47
0.0
 47
0.0208333333333333
 47
0.0
 47
0.0
 47
0.0
 47
0.0
 47
1.0
 47
0.0
 47
0.0
 47
0.0
 47
0.0
 47
1.0
171
     0
 49
0.0208333333333333
 49
0.0
 49
0.0
 49
0.0
 49
0.0
 49
0.0208333333333333
 49
0.0
 49
0.0
 49
0.0
 49
0.0
 49
1.0
 49
0.0
 49
0.0
 49
0.0
 49
0.0
 49
1.0
175
     0
142
0.0208333333333333
142
0.0
142
0.0
142
0.0
142
0.0
142
0.0208333333333333
142
0.0
142
0.0
142
0.0
142
0.0
142
1.0
142
0.0
142
0.0
142
0.0
142
0.0
142
1.0
179
     0
144
0.0208333333333333
144
0.0
144
0.0
144
0.0
144
0.0
144
0.0208333333333333
144
0.0
144
0.0
144
0.0
144
0.0
144
1.0
144
0.0
144
0.0
144
0.0
144
0.0
144
1.0
147
0.0208333333333333
147
0.0
147
0.0
147
0.0
147
0.0
147
0.0208333333333333
147
0.0
147
0.0
147
0.0
147
0.0
147
1.0
147
0.0
147
0.0
147
0.0
147
0.0
147
1.0
  0
MLEADERSTYLE
  5
BFB7
102
{ACAD_REACTORS
330
BFB6
102
}
330
BFB6
100
AcDbMLeaderStyle
170
     2
171
     1
172
     0
 90
        2
 40
0.0
 41
0.0
173
     1
 91
-1056964608
340
13
 92
       -2
290
     1
 42
0.09
291
     1
 43
0.36
  3
Standard
 44
0.18
300

342
11
174
     1
178
     6
175
     1
176
     0
 93
-1056964608
 45
0.18
292
     0
297
     0
 46
0.18
 94
-1056964608
 47
1.0
 49
1.0
140
1.0
293
     1
141
0.0
294
     1
177
     0
142
1.0
295
     0
296
     0
143
0.125
1001
ACAD_MLEADERVER
1070
     2
  0
MLINESTYLE
  5
17
102
{ACAD_REACTORS
330
16
102
}
330
16
100
AcDbMlineStyle
  2
STANDARD
 70
     0
  3

 62
   256
 51
90.0
 52
90.0
 71
     2
 49
0.5
 62
   256
  6
BYLAYER
 49
-0.5
 62
   256
  6
BYLAYER
  0
ACDBPLACEHOLDER
  5
F
102
{ACAD_REACTORS
330
E
102
}
330
E
  0
SCALE
  5
BF95
102
{ACAD_REACTORS
330
BF94
102
}
330
BF94
100
AcDbScale
 70
     0
300
1:1
140
1.0
141
1.0
290
     1
  0
SCALE
  5
BF96
102
{ACAD_REACTORS
330
BF94
102
}
330
BF94
100
AcDbScale
 70
     0
300
1:2
140
1.0
141
2.0
290
     0
  0
SCALE
  5
BF97
102
{ACAD_REACTORS
330
BF94
102
}
330
BF94
100
AcDbScale
 70
     0
300
1:4
140
1.0
141
4.0
290
     0
  0
SCALE
  5
BF98
102
{ACAD_REACTORS
330
BF94
102
}
330
BF94
100
AcDbScale
 70
     0
300
1:5
140
1.0
141
5.0
290
     0
  0
SCALE
  5
BF99
102
{ACAD_REACTORS
330
BF94
102
}
330
BF94
100
AcDbScale
 70
     0
300
1:8
140
1.0
141
8.0
290
     0
  0
SCALE
  5
BF9A
102
{ACAD_REACTORS
330
BF94
102
}
330
BF94
100
AcDbScale
 70
     0
300
1:10
140
1.0
141
10.0
290
     0
  0
SCALE
  5
BF9B
102
{ACAD_REACTORS
330
BF94
102
}
330
BF94
100
AcDbScale
 70
     0
300
1:16
140
1.0
141
16.0
290
     0
  0
SCALE
  5
BF9C
102
{ACAD_REACTORS
330
BF94
102
}
330
BF94
100
AcDbScale
 70
     0
300
1:20
140
1.0
141
20.0
290
     0
  0
SCALE
  5
BF9D
102
{ACAD_REACTORS
330
BF94
102
}
330
BF94
100
AcDbScale
 70
     0
300
1:30
140
1.0
141
30.0
290
     0
  0
SCALE
  5
BF9E
102
{ACAD_REACTORS
330
BF94
102
}
330
BF94
100
AcDbScale
 70
     0
300
1:40
140
1.0
141
40.0
290
     0
  0
SCALE
  5
BF9F
102
{ACAD_REACTORS
330
BF94
102
}
330
BF94
100
AcDbScale
 70
     0
300
1:50
140
1.0
141
50.0
290
     0
  0
SCALE
  5
BFA0
102
{ACAD_REACTORS
330
BF94
102
}
330
BF94
100
AcDbScale
 70
     0
300
1:100
140
1.0
141
100.0
290
     0
  0
SCALE
  5
BFA1
102
{ACAD_REACTORS
330
BF94
102
}
330
BF94
100
AcDbScale
 70
     0
300
2:1
140
2.0
141
1.0
290
     0
  0
SCALE
  5
BFA2
102
{ACAD_REACTORS
330
BF94
102
}
330
BF94
100
AcDbScale
 70
     0
300
4:1
140
4.0
141
1.0
290
     0
  0
SCALE
  5
BFA3
102
{ACAD_REACTORS
330
BF94
102
}
330
BF94
100
AcDbScale
 70
     0
300
8:1
140
8.0
141
1.0
290
     0
  0
SCALE
  5
BFA4
102
{ACAD_REACTORS
330
BF94
102
}
330
BF94
100
AcDbScale
 70
     0
300
10:1
140
10.0
141
1.0
290
     0
  0
SCALE
  5
BFA5
102
{ACAD_REACTORS
330
BF94
102
}
330
BF94
100
AcDbScale
 70
     0
300
100:1
140
100.0
141
1.0
290
     0
  0
SCALE
  5
BFA6
102
{ACAD_REACTORS
330
BF94
102
}
330
BF94
100
AcDbScale
 70
     0
300
1/128" = 1'-0"
140
0.0078125
141
12.0
290
     0
  0
SCALE
  5
BFA7
102
{ACAD_REACTORS
330
BF94
102
}
330
BF94
100
AcDbScale
 70
     0
300
1/64" = 1'-0"
140
0.015625
141
12.0
290
     0
  0
SCALE
  5
BFA8
102
{ACAD_REACTORS
330
BF94
102
}
330
BF94
100
AcDbScale
 70
     0
300
1/32" = 1'-0"
140
0.03125
141
12.0
290
     0
  0
SCALE
  5
BFA9
102
{ACAD_REACTORS
330
BF94
102
}
330
BF94
100
AcDbScale
 70
     0
300
1/16" = 1'-0"
140
0.0625
141
12.0
290
     0
  0
SCALE
  5
BFAA
102
{ACAD_REACTORS
330
BF94
102
}
330
BF94
100
AcDbScale
 70
     0
300
3/32" = 1'-0"
140
0.09375
141
12.0
290
     0
  0
SCALE
  5
BFAB
102
{ACAD_REACTORS
330
BF94
102
}
330
BF94
100
AcDbScale
 70
     0
300
1/8" = 1'-0"
140
0.125
141
12.0
290
     0
  0
SCALE
  5
BFAC
102
{ACAD_REACTORS
330
BF94
102
}
330
BF94
100
AcDbScale
 70
     0
300
3/16" = 1'-0"
140
0.1875
141
12.0
290
     0
  0
SCALE
  5
BFAD
102
{ACAD_REACTORS
330
BF94
102
}
330
BF94
100
AcDbScale
 70
     0
300
1/4" = 1'-0"
140
0.25
141
12.0
290
     0
  0
SCALE
  5
BFAE
102
{ACAD_REACTORS
330
BF94
102
}
330
BF94
100
AcDbScale
 70
     0
300
3/8" = 1'-0"
140
0.375
141
12.0
290
     0
  0
SCALE
  5
BFAF
102
{ACAD_REACTORS
330
BF94
102
}
330
BF94
100
AcDbScale
 70
     0
300
1/2" = 1'-0"
140
0.5
141
12.0
290
     0
  0
SCALE
  5
BFB0
102
{ACAD_REACTORS
330
BF94
102
}
330
BF94
100
AcDbScale
 70
     0
300
3/4" = 1'-0"
140
0.75
141
12.0
290
     0
  0
SCALE
  5
BFB1
102
{ACAD_REACTORS
330
BF94
102
}
330
BF94
100
AcDbScale
 70
     0
300
1" = 1'-0"
140
1.0
141
12.0
290
     0
  0
SCALE
  5
BFB2
102
{ACAD_REACTORS
330
BF94
102
}
330
BF94
100
AcDbScale
 70
     0
300
1-1/2" = 1'-0"
140
1.5
141
12.0
290
     0
  0
SCALE
  5
BFB3
102
{ACAD_REACTORS
330
BF94
102
}
330
BF94
100
AcDbScale
 70
     0
300
3" = 1'-0"
140
3.0
141
12.0
290
     0
  0
SCALE
  5
BFB4
102
{ACAD_REACTORS
330
BF94
102
}
330
BF94
100
AcDbScale
 70
     0
300
6" = 1'-0"
140
6.0
141
12.0
290
     0
  0
SCALE
  5
BFB5
102
{ACAD_REACTORS
330
BF94
102
}
330
BF94
100
AcDbScale
 70
     0
300
1'-0" = 1'-0"
140
12.0
141
12.0
290
     0
  0
TABLESTYLE
  5
BF93
102
{ACAD_XDICTIONARY
360
BFE8
102
}
102
{ACAD_REACTORS
330
BF92
102
}
330
BF92
100
AcDbTableStyle
  3
Standard
 70
     0
 71
     0
 40
0.06
 41
0.06
280
     0
281
     0
  7
Standard
140
0.18
170
     2
 62
     0
 63
     7
283
     0
274
    -2
284
     1
 64
     0
275
    -2
285
     1
 65
     0
276
    -2
286
     1
 66
     0
277
    -2
287
     1
 67
     0
278
    -2
288
     1
 68
     0
279
    -2
289
     1
 69
     0
  7
Standard
140
0.25
170
     5
 62
     0
 63
     7
283
     0
274
    -2
284
     1
 64
     0
275
    -2
285
     1
 65
     0
276
    -2
286
     1
 66
     0
277
    -2
287
     1
 67
     0
278
    -2
288
     1
 68
     0
279
    -2
289
     1
 69
     0
  7
Standard
140
0.18
170
     5
 62
     0
 63
     7
283
     0
274
    -2
284
     1
 64
     0
275
    -2
285
     1
 65
     0
276
    -2
286
     1
 66
     0
277
    -2
287
     1
 67
     0
278
    -2
288
     1
 68
     0
279
    -2
289
     1
 69
     0
  0
VISUALSTYLE
  5
BF83
102
{ACAD_XDICTIONARY
360
BFFD
102
}
102
{ACAD_REACTORS
330
BF7D
102
}
330
BF7D
100
AcDbVisualStyle
  2
2dWireframe
 70
     4
 71
     0
 72
     2
 73
     0
 90
        0
 40
-0.6
 41
-30.0
 62
     5
 63
     7
 74
     1
 91
        4
 64
     7
 65
   257
 75
     1
175
     1
 42
1.0
 92
        0
 66
   257
 43
1.0
 76
     1
 77
     6
 78
     2
 67
     7
 79
     5
170
     0
171
     0
290
     0
174
     0
 93
        1
 44
0.0
173
     0
291
     0
 45
0.0
1001
ACAD
1000
AcDbSavedByObjectVersion
1070
     0
  0
VISUALSTYLE
  5
BF85
102
{ACAD_XDICTIONARY
360
C001
102
}
102
{ACAD_REACTORS
330
BF7D
102
}
330
BF7D
100
AcDbVisualStyle
  2
3D Hidden
 70
     6
 71
     1
 72
     2
 73
     2
 90
        0
 40
-0.6
 41
-30.0
 62
     5
 63
     7
 74
     2
 91
        2
 64
     7
 65
   257
 75
     2
175
     1
 42
179.0
 92
        0
 66
   257
 43
1.0
 76
     1
 77
     6
 78
     2
 67
     7
 79
     3
170
     0
171
     0
290
     0
174
     0
 93
        1
 44
0.0
173
     0
291
     0
 45
0.0
1001
ACAD
1000
AcDbSavedByObjectVersion
1070
     0
  0
VISUALSTYLE
  5
BF84
102
{ACAD_XDICTIONARY
360
BFFF
102
}
102
{ACAD_REACTORS
330
BF7D
102
}
330
BF7D
100
AcDbVisualStyle
  2
3dWireframe
 70
     5
 71
     0
 72
     2
 73
     0
 90
        0
 40
-0.6
 41
-30.0
 62
     5
 63
     7
 74
     1
 91
        4
 64
     7
 65
   257
 75
     1
175
     1
 42
1.0
 92
        0
 66
   257
 43
1.0
 76
     1
 77
     6
 78
     2
 67
     7
 79
     5
170
     0
171
     0
290
     0
174
     0
 93
        1
 44
0.0
173
     0
291
     0
 45
0.0
1001
ACAD
1000
AcDbSavedByObjectVersion
1070
     0
  0
VISUALSTYLE
  5
BF82
102
{ACAD_XDICTIONARY
360
BFFB
102
}
102
{ACAD_REACTORS
330
BF7D
102
}
330
BF7D
100
AcDbVisualStyle
  2
Basic
 70
     7
 71
     1
 72
     0
 73
     1
 90
        0
 40
-0.6
 41
-30.0
 62
     5
 63
     7
 74
     0
 91
        4
 64
     7
 65
   257
 75
     1
175
     1
 42
1.0
 92
        8
 66
     7
 43
1.0
 76
     1
 77
     6
 78
     2
 67
     7
 79
     5
170
     0
171
     0
290
     0
174
     0
 93
        1
 44
0.0
173
     0
291
     1
 45
0.0
1001
ACAD
1000
AcDbSavedByObjectVersion
1070
     0
  0
VISUALSTYLE
  5
BF89
102
{ACAD_XDICTIONARY
360
C009
102
}
102
{ACAD_REACTORS
330
BF7D
102
}
330
BF7D
100
AcDbVisualStyle
  2
Brighten
 70
    12
 71
     2
 72
     2
 73
     0
 90
        0
 40
-0.6
 41
-30.0
 62
     5
 63
     7
 74
     1
 91
        4
 64
     7
 65
   257
 75
     1
175
     1
 42
1.0
 92
        8
 66
     7
 43
1.0
 76
     1
 77
     6
 78
     2
 67
     7
 79
     5
170
     0
171
     0
290
     0
174
     0
 93
        1
 44
50.0
173
     0
291
     1
 45
0.0
1001
ACAD
1000
AcDbSavedByObjectVersion
1070
     0
  0
VISUALSTYLE
  5
BF8D
102
{ACAD_XDICTIONARY
360
C011
102
}
102
{ACAD_REACTORS
330
BF7D
102
}
330
BF7D
100
AcDbVisualStyle
  2
ColorChange
 70
    16
 71
     2
 72
     2
 73
     3
 90
        0
 40
-0.6
 41
-30.0
 62
     5
 63
     8
 74
     1
 91
        4
 64
     7
 65
   257
 75
     1
175
     1
 42
1.0
 92
        8
 66
     8
 43
1.0
 76
     1
 77
     6
 78
     2
 67
     7
 79
     5
170
     0
171
     0
290
     0
174
     0
 93
        1
 44
0.0
173
     0
291
     1
 45
0.0
1001
ACAD
1000
AcDbSavedByObjectVersion
1070
     0
  0
VISUALSTYLE
  5
BF86
102
{ACAD_XDICTIONARY
360
C003
102
}
102
{ACAD_REACTORS
330
BF7D
102
}
330
BF7D
100
AcDbVisualStyle
  2
Conceptual
 70
     9
 71
     3
 72
     2
 73
     0
 90
        0
 40
-0.6
 41
-30.0
 62
     5
 63
     7
 74
     2
 91
        2
 64
     7
 65
   257
 75
     1
175
     1
 42
179.0
 92
        8
 66
     7
 43
1.0
 76
     1
 77
     6
 78
     2
 67
     7
 79
     3
170
     0
171
     0
290
     0
174
     0
 93
        1
 44
0.0
173
     0
291
     0
 45
0.0
1001
ACAD
1000
AcDbSavedByObjectVersion
1070
     0
  0
VISUALSTYLE
  5
BF88
102
{ACAD_XDICTIONARY
360
C007
102
}
102
{ACAD_REACTORS
330
BF7D
102
}
330
BF7D
100
AcDbVisualStyle
  2
Dim
 70
    11
 71
     2
 72
     2
 73
     0
 90
        0
 40
-0.6
 41
-30.0
 62
     5
 63
     7
 74
     1
 91
        4
 64
     7
 65
   257
 75
     1
175
     1
 42
1.0
 92
        8
 66
     7
 43
1.0
 76
     1
 77
     6
 78
     2
 67
     7
 79
     5
170
     0
171
     0
290
     0
174
     0
 93
        1
 44
-50.0
173
     0
291
     1
 45
0.0
1001
ACAD
1000
AcDbSavedByObjectVersion
1070
     0
  0
VISUALSTYLE
  5
BF90
102
{ACAD_XDICTIONARY
360
C017
102
}
102
{ACAD_REACTORS
330
BF7D
102
}
330
BF7D
100
AcDbVisualStyle
  2
EdgeColorOff
 70
    22
 71
     2
 72
     2
 73
     0
 90
        0
 40
-0.6
 41
-30.0
 62
     5
 63
     7
 74
     1
 91
        4
 64
     7
 65
   257
 75
     1
175
     1
 42
1.0
 92
        8
 66
     7
 43
1.0
 76
     1
 77
     6
 78
     2
 67
     7
 79
     5
170
     0
171
     0
290
     0
174
     0
 93
        1
 44
0.0
173
     0
291
     1
 45
0.0
1001
ACAD
1000
AcDbSavedByObjectVersion
1070
     0
  0
VISUALSTYLE
  5
BF8C
102
{ACAD_XDICTIONARY
360
C00F
102
}
102
{ACAD_REACTORS
330
BF7D
102
}
330
BF7D
100
AcDbVisualStyle
  2
Facepattern
 70
    15
 71
     2
 72
     2
 73
     0
 90
        0
 40
-0.6
 41
-30.0
 62
     5
 63
     7
 74
     1
 91
        4
 64
     7
 65
   257
 75
     1
175
     1
 42
1.0
 92
        8
 66
     7
 43
1.0
 76
     1
 77
     6
 78
     2
 67
     7
 79
     5
170
     0
171
     0
290
     0
174
     0
 93
        1
 44
0.0
173
     0
291
     1
 45
0.0
1001
ACAD
1000
AcDbSavedByObjectVersion
1070
     0
  0
VISUALSTYLE
  5
BF7E
102
{ACAD_XDICTIONARY
360
BFF3
102
}
102
{ACAD_REACTORS
330
BF7D
102
}
330
BF7D
100
AcDbVisualStyle
  2
Flat
 70
     0
 71
     2
 72
     1
 73
     1
 90
        2
 40
-0.6
 41
30.0
 62
     5
 63
     7
 74
     0
 91
        4
 64
     7
 65
   257
 75
     1
175
     1
 42
1.0
 92
        8
 66
     7
 43
1.0
 76
     1
 77
     6
 78
     2
 67
     7
 79
     5
170
     0
171
     0
290
     0
174
     0
 93
       13
 44
0.0
173
     0
291
     1
 45
0.0
1001
ACAD
1000
AcDbSavedByObjectVersion
1070
     0
  0
VISUALSTYLE
  5
BF7F
102
{ACAD_XDICTIONARY
360
BFF5
102
}
102
{ACAD_REACTORS
330
BF7D
102
}
330
BF7D
100
AcDbVisualStyle
  2
FlatWithEdges
 70
     1
 71
     2
 72
     1
 73
     1
 90
        2
 40
-0.6
 41
30.0
 62
     5
 63
     7
 74
     1
 91
        4
 64
     7
 65
   257
 75
     1
175
     1
 42
1.0
 92
        0
 66
   257
 43
1.0
 76
     1
 77
     6
 78
     2
 67
     7
 79
     5
170
     0
171
     0
290
     0
174
     0
 93
       13
 44
0.0
173
     0
291
     1
 45
0.0
1001
ACAD
1000
AcDbSavedByObjectVersion
1070
     0
  0
VISUALSTYLE
  5
BF80
102
{ACAD_XDICTIONARY
360
BFF7
102
}
102
{ACAD_REACTORS
330
BF7D
102
}
330
BF7D
100
AcDbVisualStyle
  2
Gouraud
 70
     2
 71
     2
 72
     2
 73
     1
 90
        2
 40
-0.6
 41
30.0
 62
     5
 63
     7
 74
     0
 91
        4
 64
     7
 65
   257
 75
     1
175
     1
 42
1.0
 92
        0
 66
     7
 43
1.0
 76
     1
 77
     6
 78
     2
 67
     7
 79
     5
170
     0
171
     0
290
     0
174
     0
 93
       13
 44
0.0
173
     0
291
     1
 45
0.0
1001
ACAD
1000
AcDbSavedByObjectVersion
1070
     0
  0
VISUALSTYLE
  5
BF81
102
{ACAD_XDICTIONARY
360
BFF9
102
}
102
{ACAD_REACTORS
330
BF7D
102
}
330
BF7D
100
AcDbVisualStyle
  2
GouraudWithEdges
 70
     3
 71
     2
 72
     2
 73
     1
 90
        2
 40
-0.6
 41
30.0
 62
     5
 63
     7
 74
     1
 91
        4
 64
     7
 65
   257
 75
     1
175
     1
 42
1.0
 92
        0
 66
   257
 43
1.0
 76
     1
 77
     6
 78
     2
 67
     7
 79
     5
170
     0
171
     0
290
     0
174
     0
 93
       13
 44
0.0
173
     0
291
     1
 45
0.0
1001
ACAD
1000
AcDbSavedByObjectVersion
1070
     0
  0
VISUALSTYLE
  5
BF8E
102
{ACAD_XDICTIONARY
360
C013
102
}
102
{ACAD_REACTORS
330
BF7D
102
}
330
BF7D
100
AcDbVisualStyle
  2
JitterOff
 70
    20
 71
     2
 72
     2
 73
     0
 90
        0
 40
-0.6
 41
-30.0
 62
     5
 63
     7
 74
     1
 91
        4
 64
     7
 65
   257
 75
     1
175
     1
 42
1.0
 92
       10
 66
     7
 43
1.0
 76
     1
 77
     6
 78
     2
 67
     7
 79
     5
170
     0
171
     0
290
     0
174
     0
 93
        1
 44
0.0
173
     0
291
     1
 45
0.0
1001
ACAD
1000
AcDbSavedByObjectVersion
1070
     0
  0
VISUALSTYLE
  5
BF8B
102
{ACAD_XDICTIONARY
360
C00D
102
}
102
{ACAD_REACTORS
330
BF7D
102
}
330
BF7D
100
AcDbVisualStyle
  2
Linepattern
 70
    14
 71
     2
 72
     2
 73
     0
 90
        0
 40
-0.6
 41
-30.0
 62
     5
 63
     7
 74
     1
 91
        4
 64
     7
 65
   257
 75
     7
175
     7
 42
1.0
 92
        8
 66
     7
 43
1.0
 76
     1
 77
     6
 78
     2
 67
     7
 79
     5
170
     0
171
     0
290
     0
174
     0
 93
        1
 44
0.0
173
     0
291
     1
 45
0.0
1001
ACAD
1000
AcDbSavedByObjectVersion
1070
     0
  0
VISUALSTYLE
  5
BF8F
102
{ACAD_XDICTIONARY
360
C015
102
}
102
{ACAD_REACTORS
330
BF7D
102
}
330
BF7D
100
AcDbVisualStyle
  2
OverhangOff
 70
    21
 71
     2
 72
     2
 73
     0
 90
        0
 40
-0.6
 41
-30.0
 62
     5
 63
     7
 74
     1
 91
        4
 64
     7
 65
   257
 75
     1
175
     1
 42
1.0
 92
        9
 66
     7
 43
1.0
 76
     1
 77
     6
 78
     2
 67
     7
 79
     5
170
     0
171
     0
290
     0
174
     0
 93
        1
 44
0.0
173
     0
291
     1
 45
0.0
1001
ACAD
1000
AcDbSavedByObjectVersion
1070
     0
  0
VISUALSTYLE
  5
BF87
102
{ACAD_XDICTIONARY
360
C005
102
}
102
{ACAD_REACTORS
330
BF7D
102
}
330
BF7D
100
AcDbVisualStyle
  2
Realistic
 70
     8
 71
     2
 72
     2
 73
     0
 90
        0
 40
-0.6
 41
-30.0
 62
     5
 63
     7
 74
     1
 91
        0
 64
     7
 65
   257
 75
     1
175
     1
 42
1.0
 92
        8
 66
     8
 43
1.0
 76
     1
 77
     6
 78
     2
 67
     7
 79
     5
170
     0
171
     0
290
     0
174
     0
 93
       13
 44
0.0
173
     0
291
     0
 45
0.0
1001
ACAD
1000
AcDbSavedByObjectVersion
1070
     0
  0
VISUALSTYLE
  5
BF8A
102
{ACAD_XDICTIONARY
360
C00B
102
}
102
{ACAD_REACTORS
330
BF7D
102
}
330
BF7D
100
AcDbVisualStyle
  2
Thicken
 70
    13
 71
     2
 72
     2
 73
     0
 90
        0
 40
-0.6
 41
-30.0
 62
     5
 63
     7
 74
     1
 91
        4
 64
     7
 65
   257
 75
     1
175
     1
 42
1.0
 92
       12
 66
     7
 43
1.0
 76
     1
 77
     6
 78
     2
 67
     7
 79
     5
170
     0
171
     0
290
     0
174
     0
 93
        1
 44
0.0
173
     0
291
     1
 45
0.0
1001
ACAD
1000
AcDbSavedByObjectVersion
1070
     0
  0
DICTIONARYVAR
  5
BFE5
102
{ACAD_REACTORS
330
6CB8
102
}
330
6CB8
100
DictionaryVariables
280
     0
  1
1:1
  0
DICTIONARYVAR
  5
BFE4
102
{ACAD_REACTORS
330
6CB8
102
}
330
6CB8
100
DictionaryVariables
280
     0
  1
STANDARD
  0
DICTIONARYVAR
  5
BFE3
102
{ACAD_REACTORS
330
6CB8
102
}
330
6CB8
100
DictionaryVariables
280
     0
  1
STANDARD
  0
DICTIONARYVAR
  5
81A4
102
{ACAD_REACTORS
330
6CB8
102
}
330
6CB8
100
DictionaryVariables
280
     0
  1
1
  0
DICTIONARYVAR
  5
BFE6
102
{ACAD_REACTORS
330
6CB8
102
}
330
6CB8
100
DictionaryVariables
280
     0
  1
0
  0
DICTIONARYVAR
  5
6CB9
102
{ACAD_REACTORS
330
6CB8
102
}
330
6CB8
100
DictionaryVariables
280
     0
  1
96
  0
DICTIONARYVAR
  5
BFE7
102
{ACAD_REACTORS
330
6CB8
102
}
330
6CB8
100
DictionaryVariables
280
     0
  1
2
  0
DICTIONARY
  5
BFC2
330
21
100
AcDbDictionary
280
     1
281
     1
  3
ACAD_XREC_ROUNDTRIP
360
BFED
  3
ADSK_XREC_LAYOUTTHUMBNAIL
360
BFC3
  0
DICTIONARY
  5
BFCB
330
1D
100
AcDbDictionary
280
     1
281
     1
  3
ACAD_XREC_ROUNDTRIP
360
BFEC
  3
ADSK_XREC_LAYOUTTHUMBNAIL
360
BFCC
  0
DICTIONARY
  5
BF6E
330
BF6D
100
AcDbDictionary
280
     1
281
     1
  3
ACAD_XREC_ROUNDTRIP
360
BFF1
  3
BUMPTILE
360
BF70
  3
DIFFUSETILE
360
BF6F
  3
OPACITYTILE
360
BF73
  3
REFLECTIONTILE
360
BF72
  3
REFRACTIONTILE
360
BF74
  3
SPECULARTILE
360
BF71
  0
DICTIONARY
  5
BF66
330
BF65
100
AcDbDictionary
280
     1
281
     1
  3
ACAD_XREC_ROUNDTRIP
360
BFF0
  3
BUMPTILE
360
BF68
  3
DIFFUSETILE
360
BF67
  3
OPACITYTILE
360
BF6B
  3
REFLECTIONTILE
360
BF6A
  3
REFRACTIONTILE
360
BF6C
  3
SPECULARTILE
360
BF69
  0
DICTIONARY
  5
BF76
330
BF75
100
AcDbDictionary
280
     1
281
     1
  3
ACAD_XREC_ROUNDTRIP
360
BFF2
  3
BUMPTILE
360
BF78
  3
DIFFUSETILE
360
BF77
  3
OPACITYTILE
360
BF7B
  3
REFLECTIONTILE
360
BF7A
  3
REFRACTIONTILE
360
BF7C
  3
SPECULARTILE
360
BF79
  0
DICTIONARY
  5
BFE8
330
BF93
100
AcDbDictionary
280
     1
281
     1
  3
ACAD_ROUNDTRIP_2008_TABLESTYLE_CELLSTYLEMAP
360
BFE9
  3
ACAD_XREC_ROUNDTRIP
360
C019
  0
DICTIONARY
  5
BFFD
330
BF83
100
AcDbDictionary
280
     1
281
     1
  3
ACAD_XREC_ROUNDTRIP
360
BFFE
  0
DICTIONARY
  5
C001
330
BF85
100
AcDbDictionary
280
     1
281
     1
  3
ACAD_XREC_ROUNDTRIP
360
C002
  0
DICTIONARY
  5
BFFF
330
BF84
100
AcDbDictionary
280
     1
281
     1
  3
ACAD_XREC_ROUNDTRIP
360
C000
  0
DICTIONARY
  5
BFFB
330
BF82
100
AcDbDictionary
280
     1
281
     1
  3
ACAD_XREC_ROUNDTRIP
360
BFFC
  0
DICTIONARY
  5
C009
330
BF89
100
AcDbDictionary
280
     1
281
     1
  3
ACAD_XREC_ROUNDTRIP
360
C00A
  0
DICTIONARY
  5
C011
330
BF8D
100
AcDbDictionary
280
     1
281
     1
  3
ACAD_XREC_ROUNDTRIP
360
C012
  0
DICTIONARY
  5
C003
330
BF86
100
AcDbDictionary
280
     1
281
     1
  3
ACAD_XREC_ROUNDTRIP
360
C004
  0
DICTIONARY
  5
C007
330
BF88
100
AcDbDictionary
280
     1
281
     1
  3
ACAD_XREC_ROUNDTRIP
360
C008
  0
DICTIONARY
  5
C017
330
BF90
100
AcDbDictionary
280
     1
281
     1
  3
ACAD_XREC_ROUNDTRIP
360
C018
  0
DICTIONARY
  5
C00F
330
BF8C
100
AcDbDictionary
280
     1
281
     1
  3
ACAD_XREC_ROUNDTRIP
360
C010
  0
DICTIONARY
  5
BFF3
330
BF7E
100
AcDbDictionary
280
     1
281
     1
  3
ACAD_XREC_ROUNDTRIP
360
BFF4
  0
DICTIONARY
  5
BFF5
330
BF7F
100
AcDbDictionary
280
     1
281
     1
  3
ACAD_XREC_ROUNDTRIP
360
BFF6
  0
DICTIONARY
  5
BFF7
330
BF80
100
AcDbDictionary
280
     1
281
     1
  3
ACAD_XREC_ROUNDTRIP
360
BFF8
  0
DICTIONARY
  5
BFF9
330
BF81
100
AcDbDictionary
280
     1
281
     1
  3
ACAD_XREC_ROUNDTRIP
360
BFFA
  0
DICTIONARY
  5
C013
330
BF8E
100
AcDbDictionary
280
     1
281
     1
  3
ACAD_XREC_ROUNDTRIP
360
C014
  0
DICTIONARY
  5
C00D
330
BF8B
100
AcDbDictionary
280
     1
281
     1
  3
ACAD_XREC_ROUNDTRIP
360
C00E
  0
DICTIONARY
  5
C015
330
BF8F
100
AcDbDictionary
280
     1
281
     1
  3
ACAD_XREC_ROUNDTRIP
360
C016
  0
DICTIONARY
  5
C005
330
BF87
100
AcDbDictionary
280
     1
281
     1
  3
ACAD_XREC_ROUNDTRIP
360
C006
  0
DICTIONARY
  5
C00B
330
BF8A
100
AcDbDictionary
280
     1
281
     1
  3
ACAD_XREC_ROUNDTRIP
360
C00C
  0
XRECORD
  5
BFED
102
{ACAD_REACTORS
330
BFC2
102
}
330
BFC2
100
AcDbXrecord
280
     1
102
SHADEPLOT
 70
     0
102
SHADEPLOTRESLEVEL
 70
     2
102
SHADEPLOTCUSTOMDPI
 70
   300
  0
XRECORD
  5
BFC3
102
{ACAD_REACTORS
330
BFC2
102
}
330
BFC2
100
AcDbXrecord
280
     1
310
28000000000100008A0000000100080000000000008A0000000000000000000000010000000000000000000000000000FFFFFF000000000000000000000000000000000000000000000000000000000000000000330000006600000099000000CC000000FF00000000330000333300006633000099330000CC330000FF3300
310
0000660000336600006666000099660000CC660000FF66000000990000339900006699000099990000CC990000FF99000000CC000033CC000066CC000099CC0000CCCC0000FFCC000000FF000033FF000066FF000099FF0000CCFF0000FFFF000000003300330033006600330099003300CC003300FF003300003333003333
310
33006633330099333300CC333300FF33330000663300336633006666330099663300CC663300FF66330000993300339933006699330099993300CC993300FF99330000CC330033CC330066CC330099CC3300CCCC3300FFCC330000FF330033FF330066FF330099FF3300CCFF3300FFFF330000006600330066006600660099
310
006600CC006600FF00660000336600333366006633660099336600CC336600FF33660000666600336666006666660099666600CC666600FF66660000996600339966006699660099996600CC996600FF99660000CC660033CC660066CC660099CC6600CCCC6600FFCC660000FF660033FF660066FF660099FF6600CCFF6600
310
FFFF660000009900330099006600990099009900CC009900FF00990000339900333399006633990099339900CC339900FF33990000669900336699006666990099669900CC669900FF66990000999900339999006699990099999900CC999900FF99990000CC990033CC990066CC990099CC9900CCCC9900FFCC990000FF99
310
0033FF990066FF990099FF9900CCFF9900FFFF99000000CC003300CC006600CC009900CC00CC00CC00FF00CC000033CC003333CC006633CC009933CC00CC33CC00FF33CC000066CC003366CC006666CC009966CC00CC66CC00FF66CC000099CC003399CC006699CC009999CC00CC99CC00FF99CC0000CCCC0033CCCC0066CC
310
CC0099CCCC00CCCCCC00FFCCCC0000FFCC0033FFCC0066FFCC0099FFCC00CCFFCC00FFFFCC000000FF003300FF006600FF009900FF00CC00FF00FF00FF000033FF003333FF006633FF009933FF00CC33FF00FF33FF000066FF003366FF006666FF009966FF00CC66FF00FF66FF000099FF003399FF006699FF009999FF00CC
310
99FF00FF99FF0000CCFF0033CCFF0066CCFF0099CCFF00CCCCFF00FFCCFF0000FFFF0033FFFF0066FFFF0099FFFF00CCFFFF00FFFFFF00000000000D0D0D001A1A1A00282828003535350043434300505050005D5D5D006B6B6B00787878008686860093939300A1A1A100AEAEAE00BBBBBB00C9C9C900D6D6D600E4E4E400
310
F1F1F100FFFFFF0000000000000000000000000000000000000000000000000000000000000000000000000000000000E2E2E2E2E2E2E2E2E2E2E2E2E2E2E2E2E2E2E2E2E2E2E2E2E2E2E2E2E2E2E2E2E2E2E2E2E2E2E2E2E2E2E2E2E2E2E2E2E2E2E2E2E2E2E2E2E2E2E2E2E2E2E2E2E2E2E2E2E2E2E2E2E2E2E2E2E2E2E2
310
E2E2E2E2E2E2E2E2E2E2E2E2E2E2E2E2E2E2E2E2E2E2E2E2E2E2E2E2E2E2E2E2E2E2E2E2E2E2E2E2E2E2E2E2E2E2E2E2E2E2E2E2E2E2E2E2E2E2E2E2E2E2E2E2E2E2E2E2E2E2E2E2E2E2E2E2E2E2E2E2E2E2E2E2E2E2E2E2E2E2E2E2E2E2E2E2E2E2E2E2E2E2E2E2E2E2E2E2E2E2E2E2E2E2E2E2E2E2E2E2E2E2E2E2E2E2E2
310
E2E2E2E2E2E2E2E2E2E2E2E2E2E2E2E2E2E2E2E2E2E2E2E2E2E2E2E2E2E2E2E2E2E2E2E2E2E2E2E2E2E2E2E2E2E2E2E2E2E2E2E2E2E2E2E2E2E2E2E2E2E2E2E2E2E2E2E2E2E2E2E2E2E2E2E2E2E2E2E2E2E2E2E2E2E2E2E2E2E2E2E2E2E2E2E2E2E2E2E2E2E2E2E2E2E2E2E2E2E2E2E2E2E2E2E2E2E2E2E2E2E2E2E2E2E2E2
310
E2E2E2E2E2E2E2E2E2E2E2E2E2E2E2E2E2E2E2E2E2E2E2E2E2E2E2E2E2E2E2E2E2E2E2E2E2E2E2E2E2E2E2E2E2E2E2E2E2E2E2E2E2E2E2E2E2E2E2E2E2E2E2E2E2E2E2E2E2E2E2E2E2E2E2E2E2E2E2E2E2E2E2E2E2E2E2E2E2E2E2E2E2E2E2E2E2E2E2E2E2E2E2E2E2E2E2E2E2E2E2E2E2E2E2E2E2E2E2E2E2E2E2E2E2E2E2
310
E2E2E2E2E2E2E2E2E2E2E2E2E2E2E2E2E2E2E2E2E2E2E2E2E2E2E2E2E2E2E2E2E2E2E2E2E2E2E2E2E2E2E2E2E2E2E2E2E2E2E2E2E2E2E2E2E2E2E2E2E2E2E2E2E2E2E2E2E2E2E2E2E2E2E2E2E2E2E2E2E2E2E2E2E2E2E2E2E2E2E2E2E2E2E2E2E2E2E2E2E2E2E2E2E2E2E2E2E2E2E2E2E2E2E2E2E2E2E2E2E2E2E2E2E2E2E2
310
E2E2E2E2E2E2E2E2E2E2E2E2E2E2E2E2E2E2E2E2E2E2E2E2E2E2E2E2E2E2E2E2E2E2E2E2E2E2E2E2E2E2E2E2E2E2E2E2E2E2E2E2E2E2E2E2E2E2E2E2E2E2E2E2E2E2E2E2E2E2E2E2E2E2E2E2E2E2E2E2E2E2E2E2E2E2E2E2E2E2E2E2E2E2E2E2E2E2E2E2E2E2E2E2E2E2E2E2E2E2E2E2E2E2E2E2E2E2E2E2E2E2E2E2E2E2E2
310
E2E2E2E2E2E2E2E2E2E2E2E2E2E2E2E2E2E2E2E2E2E2E2E2E2E2E2E2E2E2E2E2E2E2E2E2E2E2E2E2E2E2E2E2E2E2E2E2E2E2E2E2E2E2E2E2E2E2E2E2E2E2E2E2E2E2E2E2E2E2E2E2E2E2E2E2E2E2E2E2E2E2E2E2E2E2E2E2E2E2E2E2E2E2E2E2E2E2E2E2E2E2E2E2E2E2E2E2E2E2E2E2E2E2E2E2E2E2E2E2E2E2E2E2E2E2E2
310
E2E2E2E2E2E2E2E2E2E2E2E2E2E2E2E2E2E2E2E2E2E2E2E2E2E2E2E2E2E2E2E2E2E2E2E2E2E2E2E2E2E2E2E2E2E2E2E2E2E2E2E2E2E2E2E2E2E2E2E2E2E2E2E2E2E2E2E2E2E2E2E2E2E2E2E2E2E2E2E2E2E2E2E2E2E2E2E2E2E2E2E2E2E2E2E2E2E2E2E2E2E2E2E2E2E2E2E2E2E2E2E2E2E2E2E2E2E2E2E2E2E2E2E2E2E2E2
310
E2E2E2E2E2E2E2E2E2E2E2E2E2E2E2E2E2E2E2E2E2E2E2E2E2E2E2E2E2E2E2E2E2E2E2E2E2E2E2E2E2E2E2E2E2E2E2E2E2E2E2E2E2E2E2E2E2E2E2E2E2E2E2E2E2E2E2E2E2E2E2E2E2E2E2E2E2E2E2E2E2E2E2E2E2E2E2E2E2E2E2E2E2E2E2E2E2E2E2E2E2E2E2E2E2E2E2E2E2E2E2E2E2E2E2E2E2E2E2E2E2E2E2E2E2E2E2
310
E2E2E2E2E2E2E2E2E2E2E2E2E2E2E2E2E2E2E2E2E2E2E2E2E2E2E2E2E2E2E2E2E2E2E2E2E2E2E2E2E2E2E2E2E2E2E2E2E2E2E2E2E2E2E2E2E2E2E2E2E2E2E2E2E2E2E2E2E2E2E2E2E2E2E2E2E2E2E2E2E2E2E2E2E2E2E2E2E2E2E2E2E2E2E2E2E2E2E2E2E2E2E2E2E2E2E2E2E2E2E2E2E2E2E2E2E2E2E2E2E2E2E2E2E2E2E2
310
E2E2E2E2E2E2E2E2E2E2E2E2E2E2E2E2E2E2E2E2E2E2E2E2E2E2E2E2E2E2E2E2E2E2E2E2E2E2E2E2E2E2E2E2E2E2E2E2E2E2E2E2E2E2E2E2E2E2E2E2E2E2E2E2E2E2E2E2E2E2E2E2E2E2E2E2E2E2E2E2E2E2E2E2E2E2E2E2E2E2E2E2E2E2E2E2E2E2E2E2E2E2E2E2E2E2E2E2E2E2E2E2E2E2E2E2E2E2E2E2E2E2E2E2E2E2E2
310
E2E2E2E2E2E2E2E2E2E2E2E2E2E2E2E2E2E2E2E2E2E2E2E2E2E2E2E2E2E2E2E2E2E2E2E2E2E2E2E2E2E2E2E2E2E2E2E2E2E2E2E2E2E2E2E2E2E2E2E2E2E2E2E2E2E2E2E2E2E2E2E2E2E2E2E2E2E2E2E2E2E2E2E2E2E2E2E2E2E2E2E2E2E2E2E2E2E2E2E2E2E2E2E2E2E2E2E2E2E2E2E2E2E2E2E2E2E2E2E2E2E2E2E2E2E2E2
310
E2E2E2E2E2E2E2E2E2E2E2E2E2E2E2E2E2E2E2E2E2E2E2E2E2E2E2E2E2E2E2E2E2E2E2E2E2E2E2E2E2E2E2E2E2E2E2E2E2E2E2E2E2E2E2E2E2E2E2E2E2E2E2E2E2E2E2E2E2E2E2E2E2E2E2E2E2E2E2E2E2E2E2E2E2E2E2E2E2E2E2E2E2E2E2E2E2E2E2E2E2E2E2E2E2E2E2E2E2E2E2E2E2E2E2E2E2E2E2E2E2E2E2E2E2E2E2
310
E2E2E2E2E2E2E2E2E2E2E2E2E2E2E2E2E2E2E2E2E2E2E2E2E2E2E2E2E2E2E2E2E2E2E2E2E2E2E2E2E2E2E2E2E2E2E2E2E2E2E2E2E2E2E2E2E2E2E2E2E2E2E2E2E2E2E2E2E2E2E2E2E2E2E2E2E2E2E2E2E2E2E2E2E2E2E2E2E2E2E2E2E2E2E2E2E2E2E2E2E2E2E2E2E2E2E2E2E2E2E2E2E2E2E2E2E2E2E2E2E2E2E2E2E2E2E2
310
E2E2E2E2E2E2E2E2E2E2E2E2E2E2E2E2E2E2E2E2E2E2E2E2E2E2E2E2E2E2E2E2E2E2E2E2E2E2E2E2E2E2E2E2E2E2E2E2E2E2E2E2E2E2E2E2E2E2E2E2E2E2E2E2E2E2E2E2E2E2E2E2E2E2E2E2E2E2E2E2E2E2E2E2E2E2E2E2E2E2E2E2E2E2E2E2E2E2E2E2E2E2E2E2E2E2E2E2E2E2E2E2E2E2E2E2E2E2E2E2E2E2E2E2E2E2E2
310
E2E2E2E2E2E2E2E2E2E2E2E2E2E2E2E2E2E2E2E2E2E2E2E2E2E2E2E2E2E2E2E2E2E2E2E2E2E2E2E2E2E2E2E2E2E2E2E2E2E2E2E2E2E2E2E2E2E2E2E2E2E2E2E2E2E2E2E2E2E2E2E2E2E2E2E2E2E2E2E2E2E2E2E2E2E2E2E2E2E2E2E2E2E2E2E2E2E2E2E2E2E2E2E2E2E2E2E2E2E2E2E2E2E2E2E2E2E2E2E2E2E2E2E2E2E2E2
310
E2E2E2E2E2E2E2E2E2E2E2E2E2E2E2E2E2E2E2E2E2E2E2E2E2E2E2E2E2E2E2E2E2E2E2E2E2E2E2E2E2E2E2E2E2E2E2E2E2E2E2E2E2E2E2E2E2E2E2E2E2E2E2E2E2E2E2E2E2E2E2E2E2E2E2E2E2E2E2E2E2E2E2E2E2E2E2E2E2E2E2E2E2E2E2E2E2E2E2E2E2E2E2E2E2E2E2E2E2E2E2E2E2E2E2E2E2E2E2E2E2E2E2E2E2E2E2
310
E2E2E2E2E2E2E2E2E2E2E2E2E2E2E2E2E2E2E2E2E2E2E2E2E2E2E2E2E2E2E2E2E2E2E2E2E2E2E2E2E2E2E2E2E2E2E2E2E2E2E2E2E2E2E2E2E2E2E2E2E2E2E2E2E2E2E2E2E2E2E2E2E2E2E2E2E2E2E2E2E2E2E2E2E2E2E2E2E2E2E2E2E2E2E2E2E2E2E2E2E2E2E2E2E2E2E2E2E2E2E2E2E2E2E2E2E2E2E2E2E2E2E2E2E2E2E2
310
E2E2E2E2E2E2E2E2E2E2E2E2E2E2E2E2E2E2E2E2E2E2E2E2E2E2E2E2E2E2E2E2E2E2E2E2E2E2E2E2E2E2E2E2E2E2E2E2E2E2E2E2E2E2E2E2E2E2E2E2E2E2E2E2E2E2E2E2E2E2E2E2E2E2E2E2E2E2E2E2E2E2E2E2E2E2E2E2E2E2E2E2E2E2E2E2E2E2E2E2E2E2E2E2E2E2E2E2E2E2E2E2E2E2E2E2E2E2E2E2E2E2E2E2E2E2E2
310
E2E2E2E2E2E2E2E2E2E2E2E2E2E2E2E2E2E2E2E2E2E2E2E2E2E2E2E2E2E2E2E2E2E2E2E2E2E2E2E2E2E2E2E2E2E2E2E2E2E2E2E2E2E2E2E2E2E2E2E2E2E2E2E2E2E2E2E2E2E2E2E2E2E2E2E2E2E2E2E2E2E2E2E2E2E2E2E2E2E2E2E2E2E2E2E2E2E2E2E2E2E2E2E2E2E2E2E2E2E2E2E2E2E2E2E2E2E2E2E2E2E2E2E2E2E2E2
310
E2E2E2E2E2E2E2E2E2E2E2E2E2E2E2E2E2E2E2E2E2E2E2E2E2E2E2E2E2E2E2E2E2E2E2E2E2E2E2E2E2E2E2E2E2E2E2E2E2E2E2E2E2E2E2E2E2E2E2E2E2E2E2E2E2E2E2E2E2E2E2E2E2E2E2E2E2E2E2E2E2E2E2E2E2E2E2E2E2E2E2E2E2E2E2E2E2E2E2E2E2E2E2E2E2E2E2E2E2E2E2E2E2E2E2E2E2E2E2E2E2E2E2E2E2E2E2
310
E2E2E2E2E2E2E2E2E2E2E2E2E2E2E2E2E2E2E2E2E2E2E2E2E2E2E2E2E2E2E2E2E2E2E2E2E2E2E2E2E2E2E2E2E2E2E2E2E2E2E2E2E2E2E2E2E2E2E2E2E2E2E2E2E2E2E2E2E2E2E2E2E2E2E2E2E2E2E2E2E2E2E2E2E2E2E2E2E2E2E2E2E2E2E2E2E2E2E2E2E2E2E2E2E2E2E2E2E2E2E2E2E2E2E2E2E2E2E2E2E2E2E2E2E2E2E2
310
E2E2E2E2E2E2E2E2E2E2E2E2E2E2E2E2E2E2E2E2E2E2E2E2E2E2E2E2E2E2E2E2E2E2E2E2E2E2E2E2E2E2E2E2E2E2E2E2E2E2E2E2E2E2E2E2E2E2E2E2E2E2E2E2E2E2E2E2E2E2E2E2E2E2E2E2E2E2E2E2E2E2E2E2E2E2E2E2E2E2E2E2E2E2E2E2E2E2E2E2E2E2E2E2E2E2E2E2E2E2E2E2E2E2E2E2E2E2E2E2E2E2E2E2E2E2E2
310
E2E2E2E2E2E2E2E2E2E2E2E2E2E2E2E2E2E2E2E2E2E2E2E2E2E2E2E2E2E2E2E2E2E2E2E2E2E2E2E2E2E2E2E2E2E2E2E2E2E2E2E2E2E2E2E2E2E2E2E2E2E2E2E2E2E2E2E2E2E2E2E2E2E2E2E2E2E2E2E2E2E2E2E2E2E2E2E2E2E2E2E2E2E2E2E2E2E2E2E2E2E2E2E2E2E2E2E2E2E2E2E2E2E2E2E2E2E2E2E2E2E2E2E2E2E2E2
310
E2E2E2E2E2E2E2E2E2E2E2E2E2E2E2E2E2E2E2E2E2E2E2E2E2E2E2E2E2E2E2E2E2E2E2E2E2E2E2E2E2E2E2E2E2E2E2E2E2E2E2E2E2E2E2E2E2E2E2E2E2E2E2E2E2E2E2E2E2E2E2E2E2E2E2E2E2E2E2E2E2E2E2E2E2E2E2E2E2E2E2E2E2E2E2E2E2E2E2E2E2E2E2E2E2E2E2E2E2E2E2E2E2E2E2E2E2E2E2E2E2E2E2E2E2E2E2
310
E2E2E2E2E2E2E2E2E2E2E2E2E2E2E2E2E2E2E2E2E2E2E2E2E2E2E2E2E2E2E2E2E2E2E2E2E2E2E2E2E2E2E2E2E2E2E2E2E2E2E2E2E2E2E2E2E2E2E2E2E2E2E2E2E2E2E2E2E2E2E2E2E2E2E2E2E2E2F5E2E2E2F5E2E2E2E2E2E2E2E2E2E2E2E2E2E2E2E2E2E2E2E2E2E2E2E2E2E2E2E2E2E2E2E2E2E2E2E2E2E2E2E2E2E2E2E2
310
E2E2E2E2E2E2E2E2E2E2E2E2E2E2E2E2E2E2E2E2E2E2E2E2E2E2E2E2E2E2E2E2E2E2E2E2E2E2E2E2E2E2E2E2E2E2E2E2E2E2E2E2E2E2E2E2E2E2E2E2E2E2E2E2E2E2E2E2E2E2E2E2E2E2E2E2E2E2E2E2E2E2E2E2E2E2E2E2E2E2E2E2E2E2E2E2E2E2E2E2E2E2E2E2E2E2E2E2E2E2E2E2E2E2E2E2E2E2E2E2E2E2E2E2E2E2E2
310
E2E2E2E2E2E2E2E2E2E2E2E2E2E2E2E2E2E2E2E2E2E2E2E2E2E2E2E2E2E2E2E2E2E2E2E2E2E2E2E2E2E2E2E2E2E2E2E2E2E2E2E2E2E2E2E2E2E2E2E2E2E2E2E2E2E2E2E2E2E2E2E2E2E2E2E2E2E2E2E2F5F5F5F5F5F5E2E2E2E2E2E2E2E2E2E2E2E2E2E2E2E2E2E2E2E2E2E2E2E2E2E2E2E2E2E2E2E2E2E2E2E2E2E2E2E2E2
310
E2E2E2E2E2E2E2E2E2E2E2E2E2E2E2E2E2E2E2E2E2E2E2E2E2E2E2E2E2E2E2E2E2E2E2E2E2E2E2E2E2E2E2E2E2E2E2E2E2E2E2E2E2E2E2E2E2E2E2E2E2E2E2E2E2E2E2E2E2E2E2E2E2E2E2E2E2E2E2E2E2E2E2E2E2E2E2E2E2E2E2E2E2E2E2E2E2E2E2E2E2E2E2E2E2E2E2E2E2E2E2E2E2E2E2E2E2E2E2E2E2E2E2E2E2E2E2
310
E2E2E2E2E2E2E2E2E2E2E2E2E2E2E2E2E2E2E2E2E2E2E2E2E2E2E2E2E2E2E2E2E2E2E2E2E2E2E2E2E2E2E2E2E2E2E2E2E2E2E2E2E2E2E2E2E2E2E2E2E2E2E2E2E2E2E2E2E2E2E2E2E2E2E2E2F5F5F5F5F5F5F5F5F5F5F5F5F5F5F5F5F5F5F5F5F5F5E2E2E2E2E2E2E2E2E2E2E2E2E2E2E2E2E2E2E2E2E2E2E2E2E2E2E2E2E2
310
E2E2E2E2E2E2E2E2E2E2E2E2E2E2E2E2E2E2E2E2E2E2E2E2E2E2E2E2E2E2E2E2E2E2E2E2E2E2E2E2E2E2E2E2E2E2E2E2E2E2E2E2E2E2E2E2E2E2E2E2E2E2E2E2E2E2E2E2E2E2E2E2E2E2E2E2E2E2E2E2E2E2E2E2E2E2E2E2E2E2E2E2E2E2E2E2E2E2E2E2E2E2E2E2E2E2E2E2E2E2E2E2E2E2E2E2E2E2E2E2E2E2E2E2E2E2E2
310
E2E2E2E2E2E2E2E2E2E2E2E2E2E2E2E2E2E2E2E2E2E2E2E2E2E2E2E2E2E2E2E2E2E2E2E2E2E2E2E2E2E2E2E2E2E2E2E2E2E2E2E2E2E2E2E2E2E2E2E2E2E2E2E2E2E2E2E2E2E2E2E2E2E2E2E2E2E2F5F5F5F5F5F5F5F5F5F5F5F5F5F5F5F5F5F5F5F5E2F5E2E2E2E2E2E2E2E2E2E2E2E2E2E2E2E2E2E2E2E2E2E2E2E2E2E2E2
310
E2E2E2E2E2E2E2E2E2E2E2E2E2E2E2E2E2E2E2E2E2E2E2E2E2E2E2E2E2E2E2E2E2E2E2E2E2E2E2E2E2E2E2E2E2E2E2E2E2E2E2E2E2E2E2E2E2E2E2E2E2E2E2E2E2E2E2E2E2E2E2E2E2E2E2E2E2E2E2E2E2E2E2E2E2E2E2E2E2E2E2E2E2E2E2E2E2E2E2E2E2E2E2E2E2E2E2E2E2E2E2E2E2E2E2E2E2E2E2E2E2E2E2E2E2E2E2
310
E2E2E2E2E2E2E2E2E2E2E2E2E2E2E2E2E2E2E2E2E2E2E2E2E2E2E2E2E2E2E2E2E2E2E2E2E2E2E2E2E2E2E2E2E2E2E2E2E2E2E2E2E2E2E2E2E2E2E2E2E2E2E2E2E2E2E2E2E2E2E2E2E2E2E2E2E2E2E2E2F5F5F5F5F5F5F5F5F5F5F5F5F5F5F5F5F5F5F5F5E2E2F5E2E2E2E2E2E2E2E2E2E2E2E2E2E2E2E2E2E2E2E2E2E2E2E2
310
E2E2E2E2E2E2E2E2E2E2E2E2E2E2E2E2E2E2E2E2E2E2E2E2E2E2E2E2E2E2E2E2E2E2E2E2E2E2E2E2E2E2E2E2E2E2E2E2E2E2E2E2E2E2E2E2E2E2E2E2E2E2E2E2E2E2E2E2E2E2E2E2E2E2E2E2E2E2E2E2E2E2E2E2E2E2E2E2E2E2E2E2E2E2E2E2E2E2E2E2E2E2E2E2E2E2E2E2E2E2E2E2E2E2E2E2E2E2E2E2E2E2E2E2E2E2E2
310
E2E2E2E2E2E2E2E2E2E2E2E2E2E2E2E2E2E2E2E2E2E2E2E2E2E2E2E2E2E2E2E2E2E2E2E2E2E2E2E2E2E2E2E2E2E2E2E2E2E2E2E2E2E2E2E2E2E2E2E2E2E2E2E2E2E2E2E2E2E2E2E2E2E2E2E2E2E2E2E2E2E2E2E2E2E2E2E2E2E2E2E2E2E2E2E2E2E2E2E2E2E2E2E2F5E2E2E2E2E2E2E2E2E2E2E2E2E2E2E2E2E2E2E2E2E2E2
310
E2E2E2E2E2E2E2E2E2E2E2E2E2E2E2E2E2E2E2E2E2E2E2E2E2E2E2E2E2E2E2E2E2E2E2E2E2E2E2E2E2E2E2E2E2E2E2E2E2E2E2E2E2E2E2E2E2E2E2E2E2E2E2E2E2E2E2E2E2E2E2E2E2E2E2E2E2E2E2E2E2E2E2E2E2E2E2E2E2E2E2E2E2E2E2E2E2E2E2E2E2E2E2E2E2E2E2E2E2E2E2E2E2E2E2E2E2E2E2E2E2E2E2E2E2E2E2
310
E2E2E2E2E2E2E2E2E2E2E2E2E2E2E2E2E2E2E2E2E2E2E2E2E2E2E2E2E2E2E2E2E2E2E2E2E2E2E2E2E2E2E2E2E2E2E2E2E2E2E2E2E2E2E2E2E2E2E2E2E2E2E2E2E2E2E2E2E2E2E2E2E2E2E2E2E2E2E2E2E2E2E2E2E2E2E2E2E2E2E2E2E2E2E2E2E2E2E2E2E2E2E2E2E2E2E2F5E2E2E2E2E2E2E2E2E2E2E2E2E2E2E2E2E2E2E2
310
E2E2E2E2E2E2E2E2E2E2E2E2E2E2E2E2E2E2E2E2E2E2E2E2E2E2E2E2E2E2E2E2E2E2E2E2E2E2E2E2E2E2E2E2E2E2E2E2E2E2E2E2E2E2E2E2E2E2E2E2E2E2E2E2E2E2E2E2E2E2E2E2E2E2E2E2E2E2E2E2E2E2E2E2E2E2E2E2E2E2E2E2E2E2E2E2E2E2E2E2E2E2E2E2E2E2E2E2E2E2F5F5F5F5F5F5F5F5F5F5F5F5F5F5E2E2E2
310
E2E2E2E2E2E2E2E2E2E2E2E2E2E2E2E2E2E2E2E2E2E2E2E2E2E2E2E2E2E2E2E2E2E2E2E2E2E2E2E2E2E2E2E2E2E2E2E2E2E2E2E2E2E2E2E2E2E2E2E2E2E2E2E2E2E2E2E2E2E2E2E2E2E2E2E2E2E2E2E2E2E2E2E2E2E2E2E2E2E2E2E2E2E2E2E2E2E2E2E2E2E2E2E2E2E2E2E2E2F5E2E2E2E2E2E2E2E2E2E2E2E2E2E2E2E2E2
310
E2E2E2E2E2E2E2E2E2E2E2E2E2E2E2E2E2E2E2E2E2E2E2E2E2E2E2E2E2E2E2E2E2E2E2E2E2E2E2E2E2E2E2E2E2E2E2E2E2E2E2E2E2E2E2E2E2E2E2E2E2E2E2E2E2E2E2E2E2E2E2E2E2E2E2E2E2E2E2E2E2E2E2E2E2E2E2E2E2E2E2E2E2E2E2E2E2E2E2E2E2E2E2E2E2E2E2E2E2E2E2E2F5F5F5F5F5F5E2F5F5F5F5F5F5F5F5
310
E2E2E2E2E2E2E2E2E2E2E2E2E2E2E2E2E2E2E2E2E2E2E2E2E2E2E2E2E2E2E2E2E2E2E2E2E2E2E2E2E2E2E2E2E2E2E2E2E2E2E2E2E2E2E2E2E2E2E2E2E2E2E2E2E2E2E2E2E2E2E2E2E2E2E2E2E2E2E2E2E2E2E2E2E2E2E2E2E2E2E2E2E2E2E2E2E2E2E2E2E2E2E2E2E2E2E2E2E2E2E2E2F5E2E2E2E2E2E2E2E2E2E2E2E2E2E2
310
E2E2E2E2E2E2E2E2E2E2E2E2E2E2E2E2E2E2E2E2E2E2E2E2E2E2E2E2E2E2E2E2E2E2E2E2E2E2E2E2E2E2E2E2E2E2E2E2E2E2E2E2E2E2E2E2E2E2E2E2E2E2E2E2E2E2E2E2E2E2E2E2E2E2E2E2E2E2E2E2E2E2E2E2E2E2E2E2E2E2E2E2E2E2E2E2E2E2E2E2E2E2E2E2E2E2E2E2E2E2E2E2E2E2E2E2E2E2E2E2E2E2E2E2E2E2E2
310
E2E2E2E2E2E2E2E2E2E2E2E2E2E2E2E2E2E2E2E2E2E2E2E2E2E2E2E2E2E2E2E2E2E2E2E2E2E2E2E2E2E2E2E2E2E2E2E2E2E2E2E2E2E2E2E2E2E2E2E2E2E2E2E2E2E2E2E2E2E2E2E2E2E2E2E2E2E2E2E2E2E2E2E2E2E2E2E2E2E2E2E2E2E2E2E2E2E2E2E2E2E2E2E2E2E2E2E2E2F0F0F0F0F0F5F0F0F0F0F0F0F0F0F0F0F0F0
310
F0F0F0F0F0E2E2E2E2E2E2E2E2E2E2E2E2E2E2E2E2E2E2E2E2E2E2E2E2E2E2E2E2E2E2E2E2E2E2E2E2E2E2E2E2E2E2E2E2E2E2E2E2E2E2E2E2E2E2E2E2E2E2E2E2E2E2E2E2E2E2E2E2E2E2E2E2E2E2E2E2E2E2E2E2E2E2E2E2E2E2E2E2E2E2E2E2E2E2E2E2E2E2E2E2E2E2E2E2E2E2E2E2E2E2E2E2E2E2E2E2E2E2E2E2E2E2
310
E2E2E2E2E2E2E2E2E2E2E2E2E2E2E2E2E2E2E2E2E2E2E2E2E2E2E2E2E2E2E2E2E2E2E2E2E2E2E2E2E2E2E2E2E2E2E2E2E2E2E2E2E2E2E2E2E2E2E2E2E2E2E2E2E2E2E2E2E2E2E2E2E2E2E2E2E2E2E2E2E2E2E2E2E2E2E2E2E2E2E2E2E2E2E2E2E2E2E2E2E2E2E2E2E2E2E2E2E2E2E2F0E2E2E2E2E2F5E2E2E2F0F0F0E2E2E2
310
E2E2E2E2E2E2F0E2E2E2E2E2E2E2E2E2E2E2E2E2E2E2E2E2E2E2E2E2E2E2E2E2E2E2E2E2E2E2E2E2E2E2E2E2E2E2E2E2E2E2E2E2E2E2E2E2E2E2E2E2E2E2E2E2E2E2E2E2E2E2E2E2E2E2E2E2E2E2E2E2E2E2E2E2E2E2E2E2E2E2E2E2E2E2E2E2E2E2E2E2E2E2E2E2E2E2E2E2E2E2F0F0F0F0F0F0F0F0F0F0F0F0F0F0F0F0F0
310
F0F0F0F0F0F0F0F0F0F0F0F0F0F0E2E2E2E2E2E2E2E2E2E2E2E2E2E2E2E2E2E2E2E2E2E2E2E2E2E2E2E2E2E2E2E2E2E2E2F0F0F0F0F0F0F0F0F0F0F0F0F0F0F0F0F0F0F0F0F0F0F0E2E2E2E2E2E2E2E2E2E2E2E2E2E2E2E2E2E2E2E2E2E2E2E2E2E2E2E2E2E2E2E2E2E2E2E2E2E2E2E2E2F0E2E2E2E2F0F5F0E2E2E2E2E2F0
310
F0F0E2E2E2E2E2E2F0E2E2E2E2E2E2E2E2F5F5F5F5F5F5F5F5F5F5F5F5F5F5F5F5F5E2E2E2E2E2E2E2E2E2E2E2E2E2E2E2E2E2E2E2E2E2E2E2E2E2E2E2E2E2E2E2E2E2E2E2E2E2E2E2E2E2E2E2E2E2E2E2E2E2E2E2E2E2E2E2E2E2E2E2E2E2E2E2E2E2E2E2E2E2E2E2E2E2E2E2E2E2E2F0E2E2E2E2E2E2F0F0F0E2E2E2E2E2
310
F0E2E2E2E2E2E2F0F0E2E2E2E2E2E2F0E2E2E2E2E2E2E2E2E2E2E2E2E2E2E2E2E2E2E2E2E2E2E2E2E2E2E2E2E2E2E2E2E2E2E2F0E2E2E2E2F0F0E2E2E2E2F0E2E2E2E2F0F0E2E2E2E2F0E2E2E2E2E2E2E2E2E2E2E2E2E2E2E2E2E2E2E2E2E2E2E2E2E2E2E2E2E2E2E2E2E2E2E2E2E2E2E2E2E2F0E2E2F0F0F0F0F5F0F0F0F0
310
F0F0F0F0E2E2E2E2E2E2F0E2E2E2E2E2E2E2F5F5F5F5F5F5F5F5F5F5F5F5F5F5F5F5F5F5E2E2E2E2E2E2E2E2E2E2E2E2E2E2E2E2E2E2E2E2E2E2E2E2E2E2E2E2E2E2E2E2E2E2E2E2E2E2E2E2E2E2E2E2E2E2E2E2E2E2E2E2E2E2E2E2E2E2E2E2E2E2E2E2E2E2E2E2E2E2E2E2E2E2E2E2E2E2F0E2E2E2E2E2E2E2E2E2E2E2E2
310
E2E2F0E2E2E2E2E2E2E2E2E2E2E2E2E2E2F0E2E2E2E2E2E2E2E2E2E2E2E2E2E2E2E2E2E2E2E2E2E2E2E2E2E2E2E2E2E2E2E2E2E2E2F0E2E2E2E2E2E2E2E2E2E2F0E2E2E2E2E2E2E2E2E2E2F0E2E2E2E2E2E2E2E2E2E2E2E2E2E2E2E2E2E2E2E2E2E2E2E2E2E2E2E2E2E2E2E2E2E2E2E2E2E2E2E2E2F0E2E2E2E2F0E2F5E2E2
310
E2E2E2F0E2F0E2E2E2E2E2E2F0E2E2E2E2E2E2E2E2F5F5F5F5F5F5F5F5F5F5F5F5F5F5F5F5F5F5E2E2E2E2E2E2E2E2E2E2E2E2E2E2E2E2E2E2E2E2E2E2E2E2E2E2E2E2E2E2E2E2E2E2E2E2E2E2E2E2E2E2E2E2E2E2E2E2E2E2E2E2E2E2E2E2E2E2E2E2E2E2E2E2E2E2E2E2E2E2E2E2E2E2E2E2E2F0E2E2E2E2E2E2E2E2E2E2
310
E2E2E2E2F0E2E2E2E2E2E2E2E2E2E2E2E2E2E2F0E2E2E2E2E2E2E2E2E2E2E2E2E2E2E2E2E2E2E2E2E2E2E2E2E2E2E2E2E2E2E2E2E2E2E2F0E2E2E2F0F0F0F0F0F0F0F0F0F0F0F0F0F0F0E2E2E2F0E2E2E2E2E2E2E2E2E2E2E2E2E2E2E2E2E2E2E2E2E2E2E2E2E2E2E2E2F5F5F5F5F5F5F5E2E2E2E2E2E2F0E2E2E2E2F0E2F0
310
F5E2E2E2E2F0E2F0E2E2E2E2E2E2F0E2E2E2E2E2E2E2F5F5F5F5F5F5F5E2F5F5F5F5F5F5F5F5E2E2E2E2E2E2E2E2E2E2E2E2E2E2E2E2E2E2E2E2E2E2E2E2E2E2E2E2E2E2E2E2E2E2E2E2E2E2E2E2E2E2E2E2E2E2E2E2E2E2E2E2E2E2E2E2E2E2E2E2E2E2E2E2E2E2E2E2E2E2E2E2E2E2E2E2E2E2E2E2F0E2E2E2E2E2E2E2E2
310
E2E2E2E2E2E2F0E2E2E2E2E2E2E2E2E2E2E2E2E2E2F0E2E2E2E2E2E2E2E2E2E2E2E2E2E2E2E2E2E2E2E2E2E2E2E2E2E2E2E2E2E2E2E2E2E2E2F0E2E2E2F0E2E2E2E2E2E2F0E2E2E2E2E2E2F0E2E2E2F0E2E2E2E2E2E2E2E2E2E2E2E2E2E2E2E2E2E2E2E2E2E2E2E2E2E2E2E2F5F5F5F5F5F5F5F5E2E2E2E2E2F0E2E2E2E2F0
310
E20FF50F0F0F0F0FE2F0E2E2E2E2E2E2F0E2E2E2E2E2F5F5E2F5F5F5F5F5F5E2F5F5F5F5F5F5F5F5E2E2E2E2E2E2E2E2E2E2E2E2E2E2E2E2E2E2E2E2E2E2E2E2E2E2E2E2E2E2E2E2E2E2E2E2E2E2E2E2E2E2E2E2E2E2E2E2E2E2E2E2E2E2E2E2E2E2E2E2E2E2E2E2E2E2E2E2E2E2E2E2E2E2E2E2E2E2E2E20F0F0F0F0F0F0F
310
0F0F0F0F0F0F0F0F0F0F0F0F0F0F0F0F0F0F0F0F0F0F0F0FF0F0F0F0F0F0E2E2E2E2E2E2E2E2E2E2E2E2E2E2E2E2E2E2E2E2E2E2E2E2E2E2E2E2E2F0E2E2E2F0E2E2E2E2E2E2F0E2E2E2E2E2E2F0E2E2E2F0E2E2E2E2E2E2E2E2E2E2E2E2E2E2E2E2E2E2E2E2E2E2E2E2E2E2E2E2F5F5F5F5F5F5E2E2F5E2E2E2E2F0E2E2E2
310
E2F0E20FE2F5E2E2E20FE2F0E2E2E2E2E2E2F0E2E2E2E2F5E2E2E2E2E2E2E2E2E2E2E2E2E2E2E2E2E2E2E2E2E2E2E2E2E2E2E2E2E2E2E2E2E2E2E2E2E2E2E2E2E2E2E2E2E2E2E2E2E2E2E2E2E2E2E2E2E2E2E2E2E2E2E2E2E2E2E2E2E2E2E2E2E2E2E2E2E2E2E2E2E2E2E2E2E2E2E2E2E2E2E2E2E2E2E2E2E2E20FE2E2E2E2
310
E2E2E2E2E2E2E2E2E2E2C3E2E2E2E2E2E2E2E2E2E2E2E2E2E20FE2E2E2E2F0E2E2E2E2E2E2E2E2E2E2E2E2E2E2E2E2E2E2E2E2E2E2E2E2E2E2E2E2E2E2F0E2E2E2F0E2E2E2E2E2E2F0E2E2E2E2E2E2F0E2E2E2F0E2E2E2E2E2E2E2E2E2E2E2E2E2E2E2E2E2E2E2E2E2E2E2E2E2E2E2E2E2E2E2E2E2E2E2E2E2F5F5E2E2F0E2
310
E2E2E2F0E20FE2F5F5E2E20FE2F0E2E2E2E2E2E2F0E2E2E2F5E2E2E2E2E2E2E2E2E2E2E2E2E2E2E2E2E2E2E2E2E2E2E2E2E2E2E2E2E2E2E2E2E2E2E2E2E2E2E2E2E2E2E2E2E2E2E2E2E2E2E2E2E2E2E2E2E2E2E2E2E2E2E2E2E2E2E2E2E2E2E2E2E2E2E2E2E2E2E2E2E2E2E2E2E2E2E2E2E2E2E2E2E2E2E2E2E2E2E20FE2E2
310
E2E2E2E2E2F0F0F0F0F0F0F0F0F0F0F0F0F0F0F0F0E2E2E2E2E2E20FE2E2E2E2F0E2E2E2E2E2E2E2E2E2E2E2E2E2E2E2E2E2E2E2E2E2E2E2E2E2E2E2E2E2E2F0E2E2E2F0E2E2E2E2E2E2F0E2E2E2E2E2E2F0E2E2E2F0E2E2E2E2E2E2E2E2E2E2E2E2E2E2E2E2E2E2E2E2E2E2E2E2E2E2E2E2E2E2E2E2E2E2E2E2E2E2E2F5E2
310
F0E2E2E2E2F0E20FE2E2E2E2E20FE2F0E2E2E2E2E2E2F0E2F5F5E2E2E2E2E2E2E2E2E2E2E2E2E2E2E2E2E2E2E2E2E2E2E2E2E2E2E2E2E2E2E2E2E2E2E2E2E2E2E2E2E2E2E2E2E2E2E2E2E2E2E2E2E2E2E2E2E2E2E2E2E2E2E2E2E2E2E2E2E2E2E2E2E2E2E2E2E2E2E2E2E2E2E2E2E2E2E2E2E2E2E2E2E2E2E2E2E2E2E2E20F
310
E2E2E2E2E2E2E2F0E2E2E2E2E2E2F0F0E2E2E2E2E2E2F0E2E2E2E2E2E20FE2E2E2E2F0E2E2E2E2E2E2E2E2E2E2E2E2E2E2E2E2E2E2E2E2E2E2E2E2E2E2E2E2E2E2F0E2E2E2F0E2E2E2E2E2E2F0E2E2E2E2E2E2F0E2E2E2F0E2E2E2E2E2E2E2E2E2E2E2E2E2E2E2E2E2E2E2E2E2E2E2E2E2E2E2E2E2E2E2E2E2E2E2E2E2E2E2
310
E2F5BEE2E2E2E2F0280FE2E2E2E2E20F28F5E2E2E2E2E2E2F0F5E2E2E2E2E2E2E2E2E2E2E2E2E2E2E2E2E2E2E2E2E2E2E2E2E2E2E2E2E2E2E2E2E2E2E2E2E2E2E2E2E2E2E2E2E2E2E2E2E2E2E2E2E2E2E2E2E2E2E2E2E2E2E2E2E2E2E2E2E2E2E2E2E2E2E2E2E2E2E2E2E2E2E2E2E2E2E2E2E2E2E2E2E2E2E2E2E2E2E2E2E2
310
E20FE2E2E2E2E2E2E2F0E2E2E2E2E2E2C3E2E2E2E2E2E2E2F0E2E2F0F0E2E20FE2E2E2E2F0E2E2E2E2E2E2E2E2E2E2E2E2E2E2E2E2E2E2E2E2E2E2E2E2E2E2E2E2E2E2F0E2E2E2F0E2E2E2E2E2E2C3E2E2E2E2E2E2F0E2E2E2F0E2E2E2E2E2E2E2E2E2E2E2E2E2E2E2E2E2E2E2E2E2E2E2E2E2E2E2E2E2E2E2E2E2E2E2E2E2
310
E2E2E2E2F5E2E2E2E2F0280FE2E2E2E2E20F28F5E2E2E2E2E2E2F5E2E2E2E2E2E2E2E2E2E2E2E2E2E2E2E2E2E2E2E2E2E2E2E2E2E2E2E2E2E2E2E2E2E2E2E2E2E2E2E2E2E2E2E2E2E2E2C3E2E2E2E2E2E2E2E2E2E2E2E2E2E2E2E2E2E2E2E2E2E2E2E2E2E2E2E2E2E2E2E2E2E2E2E2E2E2E2E2E2E2E2E2E2E2E2E2E2E2E2E2
310
E2E2E20FE2E2E2E2E2E2E2F0E2E2E2E2E2E2C3E2E2E2E2E2E2E2F0E2E2F0F0E2E20FE2E2E2E2F0E2E2E2E2E2E2E2E2E2E2E2E2E2E2E2E2E2E2E2E2E2E2E2E2E2E2E2E2E2E2F0E2E2E2F0E2E2E2E2E2E2C3E2E2E2E2E2E2F0E2E2E2F0E2E2E2E2E2E2E2E2E2E2E2E2E2E2E2E2E2E2E2E2E2E2E2E2E2E2E2E2E2E2E2E2E2E2E2
310
E2E2E2E2E2E2BEE2E2E2E228280FE2E2E2E2E20F2828E2E2E2E2E2F5F0E2E2E2E2E2E2E2E2E2E2E2E2E2E2E2E2E2E2E2E2E2E2E2E2E2E2E2E2E2E2E2E2E2E2E2E2E2E2E2E2E2E2E2E2E2E2E2C3E2E2E2E2E2E2E2E2E2E2E2E2E2E2E2E2E2E2E2E2E2E2E2E2E2E2E2E2E2E2E2E2E2E2E2E2E2E2E2E2DCDCDCDCDCDCDCDCDCDC
310
DCDCDCDCDC0FDCDCDCDCDCDCDCF0DCDCDCDCDCDCDCDCDCDCDCDCDCDCF0DCDCDCF0F0F00FF0F0F0F0F0F0DCDCDCDCDCDCDCDCDCDCDCDCDCDCDCDCDCDCDCDCDCDCDCDCDCDCDCDCDC2D2D2DDCF0DCDCDCDCDCDCDCDCDCDCDCDCDCF0DC2D2D2DDCDCDCDCDCDCDCDCDCDCDCDCDCDCDCDCDCDCDCDCDCDCDCDCDCDCDCDCDCDCDCDCDC
310
F0F0F0F0F0F0F0F0BEF0F0F02D2D2D0F2D2D2D2D2D0F2D2D2DF0F0F5F5F0F0F0F0F0F0F0F0F0F0DCDCDCDCDCDCDCDCDCDCDCDCDCDCDCDCDCDCDCDCDCDCDCDCDCDCDCDCDCDC2D2D2D2D2D2D2D2D2D2D2D2D2D2D2D2D2D2D2D2DDCDCDCDCDCDCDCDCDCDCDCDCDCDCDCDCDCDCDCDCDCDCDCDCDCDCDCDCE2E2E2E2E2E2E2E2E2E2
310
E2E2E2E2E2E2E20FE2E2E2E2E2E2E2F0E2E2E2E2E2E2C3E2E2E2E2E2E2E2F0E2E2E2F0E2E20FE2E2E2E2F0F0E2E2E2E2E2E2E2E2E2E2E2E2E2E2E2E2E2E2E2E2E2E2E2E2E2E2E2E2E2E2E22D2D2D2D2D2D2D2D2D2D2D2D2D2D2D2D2D2D2DE2E2E2E2E2E2E2E2E2E2E2E2E2E2E2E2E2E2E2E2E2E2E2E2E2E2E2E2E2E2E2E2E2
310
E2E2F0F0F0E2E2E2E2E2BEE2E2E22D28E2E2E2E2E2E2E2E2E228E22DF5E2E2E2F0F0F0E2F0E2F0E2F0E2E2E2E2E2E2E2E2E2E2E2E2E2E2E2E2E2E2E2E2E2E2E2E2E2E2E2E2E2E22DE2E2E2E2E2E2E2E2C3E2E2E2E2E2E2E2E2E22DE2E2E2E2E2E2E2E2E2E2E2E2E2E2E2E2E2E2E2E2E2E2E2E2E2E2E2E2E2E2E2E2E2E2E2E2
310
E2E2E2E2E2E2E2E2E20FE2E2E2E2E2E2E2BEBEBEBEBEBEBEBEBEBEBEBEBEBEBEBEF0F0F0F0E2E20FE2E2E2E2F0E2E2E2E2E2E2E2E2E2E2E2E2E2E2E2E2E2E2E2E2E2E2E2E2E2E2E2E2E2E2E2E22D2D2D2D2D2D2D2D2D2D2D2D2D2D2D2D2D2D2DE2E2E2E2E2E2E2E2E2E2E2E2E2E2E2E2E2E2E2E2E2E2E2E2E2E2E2E2E2E2E2
310
E2E2E2E2F0F0F0F0F0F0F0F02D2D2D2D2D28E2E2E2E2E2E2E2E2E228F5F5F0F0F0F0F0F0F0E2F0E2F0E2F0E2E2E2E2E2E2E2E2E2E2E2E2E2E2E2E2E2E2E2E2E2E2E2E2E2E2E2E2E2E22DE2E2E2E2E2E2E2E2C3E2E2E2E2E2E2E2E2E22DE2E2E2E2E2E2E2E2E2E2E2E2E2E2E2E2E2E2E2E2E2E2E2E2E2E2E2E2E2E2E2E2E2E2
310
E2E2E2E2E2E2E2E2E2E2E20FE2E2E2E2E2E2E2BEE2E2E2E2E2E2C3E2E2E2E2E2E2E2BEE2E2E2F0E2E20FE2E2E2E2F0E2E2E2E2E2E2E2E2E2E2E2E2E2E2E2E2E2E2E2E2E2E2E2E2E2E2E2E2E2E2E2E22D2D2DE2E22DE2E2E2C3E2E2E22DE2E22D2D2DE2E2E2E2E2E2E2E2E2E2E2E2E2E2E2E2E2E2E2E2E2E2E2E2E2E2E2E2E2
310
E2E2E2E2E2E2F0E2F0E2E2E2E2E22D2D2D2D2DE2E2E2E2E2E2E2E2E2E2E2F0F0F0F0F0F0F0E2E2E2F0E2F0E2F0E2E2E2E2E2E2E2E2E2E2E2E2E2E2E2E2E2E2E2E2E2E2E2E2E2E2E2E2E2E22DE2E2E2E2E2E2E2E2C3E2E2E2E2E2E2E2E2E22DE2E2E2E2E2E2E2E2E2E2E2E2E2E2E2E2E2E2E2E2E2E2E2E2E2E2E2E2E2E2E2E2
310
E2E2E2E2E2E2E2E2E2E2E2E2E20FE2E2E2E2E2E2E2BEE2E2E2E2E2E2C3E2E2E2E2E2E2E2BEE2E2E2F0E2E20FE2E2E2E2F0E2E2E2E2E2E2E2E2E2E2E2E2E2E2E2E2E2E2E2E2E2E2E2E2E2E2E2E2E2E2E2E22D2D2DE2E22D2D2D2D2D2D2D2D2DE2E22D2D2DE2E2E2E2E2E2E2E2E2E2E2E2E2E2E2E2E2E2E2E2E2E2E2E2E2E2E2
310
E2E2E2E2E2E2E2E2F0E2F0E2E2E2E2E22DE22DE22DE2E2E2E2E2E2E2E2E2E2E2E22DE2F0F0E2F0E2E2E2F0E2F0E2F0E2E2E2E2E2E2E2E2E2E2E2E2E2E2E2E2E2E2E2E2E2E2E2E2E2E2E2E2E2E22DE2E2E2E2E2E2E2E2C3E2E2E2E2E2E2E2E2E22DE2E2E2E2E2E2E2E2E2E2E2E2E2E2E2E2E2E2E2E2E2E2E2E2E2E2E2E2E2E2
310
E2E2E2E2E2E2E2E2E2E2E2E2E2E2E20FE2E2E2E2E2E2E2BEE2E2E2E2E2E2C3E2E2E2E2E2E2E2BEE2E2E2F0E2E20FE2E2E2E2F0E2E2E2E2E2E2E2E2E2E2E2E2E2E2E2E2E2E2E2E2E2E2E2E2E2E2E2E2E2E2E2E22D2D2DE2E22DE2E2E2C3E2E2E2E22D2D2D2D2DE2E2E2E2E2E2E2E2E2E2E2E2E2E2E2E2E2E2E2E2E2E2E2E2E2
310
E2E2E2E2E2E2E2E2E2E2F0E2F0E2E2E2E2E22DE22DE22DE2E2E2E2E2E2E2E2E2E2E2E22D2DE2E2E2F0E2E2E2F0E2F0E2F0E2E2E2E2E2E2E2E2E2E2E2E2E2E2E2E2E2E2E2E2E2E2E2E2E2E2E2E2E2E22DE2E2E2E2E2E2E2E2C3E2E2E2E2E2E2E2E2E22DE2E2E2E2E2E2E2E2E2E2E2E2E2E2E2E2E2E2E2E2E2E2E2E2E2E2E2E2
310
E2E2E2E2E2E2E2E2E2E2E2E2E2E2E2E2E20FE2E2E2E2E2E2E2BEE2E2E2E2E2E2C3E2E2E2E2E2E2E2BEE2E2E2F0E2E20FE2E2E2E2F0E2E2E2E2E2E2E2E2E2E2E2E2E2E2E2E2E2E2E2E2E2E2E2E2E2E2E2E2E2E2E2E22D2D2DE22DE22DE2E2C3E2E2E2E22DE22D2D2DE2E2E2E2E2E2E2E2E2E2E2E2E2E2E2E2E2E2E2E2E2E2E2
310
E2E2E2E2F5F5F5F5F5F5F5E2F0E2F0E2E2E2E2E22DE22DE22DE2E2E2E2E2E2E2E2E2E2E2E22D2DE2E2E2F0E2E2E2F0E2F0E2F0E2E2E2E2E2E2E2E2E2E2E2E2E2E2E2E2E2E2E2E2E2E2E2E2E2E2E2E2E2E22DE2E2E2E2E2E2E2E2C3E2E2E2E2E2E2E2E2E22DE2E2E2E2E2E2E2E2E2E2E2E2E2E2E2E2E2E2E2E2E2E2E2E2E2E2
310
E2E2E2E2E2E2E2E2E2E2E2E2E2E2E2E2E2E2E20FE2E2E2E2E2E2E2BEE2E2E2E2E2E2C3E2E2E2E2E2E2E2BEE2E2E2F0E2E20FE2E2E2E2F0E2E2E2E2E2E2E2E2E2E2E2E2E2E2E2E2E2E2E2E2E2E2E2E2E2E2E2E2E2E2E2E22D2D2DE22DE22DE2E2C3E2E2E2E22DE22D2D2DE2E2E2E2E2E2E2E2E2E2E2E2E2E2E2E2E2E2E2E2E2
310
E2E2E2E2E2E2F5F5F5F5F5F5F5E2F0E2F0E2E2E2E2E22DE22DE22DE2E2E2E2E2E2E2E2E2E2E2E22D2DE2E2E2F0E2E2E2F0E2F0E2F0E2E2E2E2E2E2E2E2E2E2E2E2E2E2E2E2E2E2E2E2E2E2E2E2E2E2E2E2E2E22DE2E2E2E2E2E2E2E2C3E2E2E2E2E2E2E2E2E22DE2E2E2E2E2E2E2E2E2E2E2E2E2E2E2E2E2E2E2E2E2E2E2E2
310
E2E2E2E2E2E2E2E2E2E2E2E2E2E2E2E2E2E2E2E2E20FE2E2E2E2E2E2E2BEE2E2E2E2E2E2C3E2E2E2E2E2E2E2BEE2E2E2F0E2E20FE2E2E2E2F0E2E2E2E2E2E2E2E2E2E2E2E2E2E2E2E2E2E2E2E2E2E2E2E2E2E2E2E2E2E2E22D2D2D2DE2E22DE2E2E2C3E2E2E2E22DE22D2D2D2DE2E2E2E2E2E2E2E2E2E2E2E2E2E2E2E2E2E2
310
E2E2E2E2E2E2E2E2F5F5F5F5F5F5F5E2F0E2F0E2E2E2E22D2DE22DE22D2D2D2D2D2D2D2D2D2D2D2D2DDC2D2D2DDCF0E2E2E2F0E2F0E2F0E2E2E2E2E2E2E2E2E2E2E2E2E2E2E2E2E2E2E2E2E2E2E2E2E2E2E2E2E2E22DE2DCDCDCDCDCE2DCDCDCDCE2DCDCDCDCE2E22DE2E2E2E2E2E2E2E2E2E2E2E2E2E2E2E2E2E2E2E2E2E2
310
E2E2E2E2E2E2E2E2E2E2E2E2E2E2E2E2E2E2E2E2E2E2E20FE2E2E2E2E2E2E2BEE2E2E2E2E2E2C3E2E2E2E2E2E2E2BEE2E2E2F0E2E20FE2E2E2E2F0E2E2E2E2E2E2E2E2E2E2E2E2E2E2E2E2E2E2E2E2E2E2E2E2E2E2E2E2E2E2E22D2D2D2D2D2D2D2DE2E2C3E2E2E2E22DE22D2D2D2DE2E2E2E2E2E2E2E2E2E2E2E2E2E2E2E2
310
E2E2E2E2E2E2E2E2E2E2F5F5F5F5F5F5F5E2F0E2F0E2E2E2E2E22DE22DE22D2D2D2D2D2D2D2D2D2D2D2D2D2D2D2D2DDCF0F0F0F0F0E2F0E2F0E2E2E2E2E2E2E2E2E2E2E2E2E2E2E2E2E2E2E2E2E2E2E2E2E2E2E2E2E2E22DE2DCDCDCDCDCE2DCDCDCDCE2DCDCDCDCE2E22DE2E2E2E2E2E2E2E2E2E2E2E2E2E2E2E2E2E2E2E2
310
E2E2E2E2E2E2E2E2E2E2E2E2E2E2E2E2E2E2E2E2E2E2E2E2E20FE2E2E2E2E2E2E2BEE2E2E2E2E2E2C3E2E2E2E2E2E2E2BEE2E2E2F0E2E20FE2E2E2E2F0E2E2E2E2E2E2E2E2E2E2E2E2E2E2E2E2E2E2E2E2E2E2E2E2E2E2E2E2E2E2E22D2D2D2DE2E2E22DE2E2C3E2E2E2E22DE22D2D2D2DE2E2E2E2E2E2E2E2E2E2E2E2E2E2
310
E2E2E2E2E2E2E2E2E2E2E2E2F5F5F5F5F5F5F5E2F0E2F0E2E2E2E2E22DE22D2D2DE2E2E2E2E2E2E2E2E2E2E22D2DE2E2E2E2E2E2E2E2F0E2F0E2F0E2E2E2E2E2E2E2E2E2E2E2E2E2E2E2E2E2E2E2E2E2E2E2E2E2E2E2E2E2E22DE2E2E2E2E2E2E2E2C3E2E2E2E2E2E2E2E2E22DE2E2E2E2E2E2E2E2E2E2E2E2E2E2E2E2E2E2
310
E2E2E2E2E2E2E2E2E2E2E2E2E2E2E2E2E2E2E2E2E2E2E2E2E2E2E20FE2E2E2E2E2E2E2BEE2E2E2E2E2E2C3E2E2E2E2E2E2E2BEE2E2E2F0E2E20FE2E2E2E2F0E2E2E2E2E2E2E2E2E2E2E2E2E2E2E2E2E2E2E2E2E2E2E2E2E2E2E2E2E2E2E22D2D2D2DE2E2E22DE2E2C3E2E2E2E22DE22D2D2D2DE2E2E2E2E2E2E2E2E2E2E2E2
310
E2E2E2E2E2E2E2E2E2E2E2E2E2E2F5F5F5F5F5F5F5E2F0F0F0E2E2E2E2E22DE22D2DE2E2E2E2E2E2E2E2E2E2E2E22D2DE2E2E2E2E2E2E2E2F0E2F0E2F0E2E2E2E2E2E2E2E2E2E2E2E2E2E2E2E2E2E2E2E2E2E2E2E2E2E2E2E2E2E22DE2E2E2E2E2E2E2E2C3E2E2E2E2E2E2E2E2E22DE2E2E2E2E2E2E2E2E2E2E2E2E2E2E2E2
310
E2E2E2E2E2E2E2E2E2E2E2E2E2E2E2E2E2E2E2E2E2E2E2E2E2E2E2E2E20FE2E2E2E2E2E2E2BEE2E2E2E2E2E2C3E2E2E2E2E2E2E2BEE2E2E2F0E2E20FE2E2E2E2F0E2E2E2E2E2E2E2E2E2E2E2E2E2E2E2E2E2E2E2E2E2E2E2E2E2E2E2E2E2E2E22D2D2D2DE2E2E22DE2E2C3E2E2E2E22DE22D2D2D2DE2E2E2E2E2E2E2E2E2E2
310
E2E2E2E2E2E2E2E2E2E2E2E2E2E2E2E2F5F5F5F5F5F5F5E2F0F0F0E2E2E2E2E22DE22D2DE2E2E2E2E2E2E2E2E2E2E2E22D2D2DE2E2E2E2E2E2E2F0E2F0E2F0E2E2E2E2E2E2E2E2E2E2E2E2E2E2E2E2E2E2E2E2E2E2E2E2E2E2E2E2E2E22DE2E2E2E2E2E2E2E2C3E2E2E2E2E2E2E2E2E22DE2E2E2E2E2E2E2E2E2E2E2E2E2E2
310
E2E2E2E2E2E2E2E2E2E2E2E2E2E2E2E2E2E2E2E2E2E2E2E2E2E2E2E2E2E2E20FE2E2E2E2E2E2E2BEE2E2E2E2E2E2C3E2E2E2E2E2E2E2BEE2E2F0F0E2E20FE2E2E2E2F0E2E2E2E2E2E2E2E2E2E2E2E2E2E2E2E2E2E2E2E2E2E2E2E2E2E2E2E2E2E2E22D2D2D2DE2E2E22DE2E2C3E2E2E2E22DE22D2D2D2DE2E2E2E2E2E2E2E2
310
E2E2E2E2E2E2E2E2E2E2E2E2E2E2E2E2E2E2F5F5F5F5F5F5F5E2F0E2F0E2E2E2E2E22DE22D2DE2E2E2E2E2E2E2E2E2E2E2E22D2D2DE2E2E2E2E2E2E2F0E2F0E2F0E2E2E2E2E2E2E2E2E2E2E2E2E2E2E2E2E2E2E2E2E2E2E2E2E2E2E2E2E2E22DE2E2E2E2E2E2E2E2C3E2E2E2E2E2E2E2E2E22DE2E2E2E2E2E2E2E2E2E2E2E2
310
E2E2E2E2E2E2E2E2E2E2E2E2E2E2E2E2E2E2E2E2E2E2E2E2E2E2E2E2E2E2E2E2E20FE2E2E2E2E2E2E2BEE2E2E2E2E2E2C3E2E2E2E2E2E2E2BEE2E2F0F0E2E20FE2E2E2E2F0E2E2E2E2E2E2E2E2E2E2E2E2E2E2E2E2E2E2E2E2E2E2E2E2E2E2E2E2E2E2E22D2D2D2DE2E2E22DE2E2C3E2E2E2E22DE22D2D2D2DE2E2E2E2E2E2
310
E2E2E2E2E2E2E2E2E2E2E2E2E2E2E2E2E2E2E2E2F5F5F5F5F5F5F5E2F0E2F0E2E2E2E22D2DE22D2DE2E2E2E2E2E2E2E2E2E2E2E22D2D2DE2E2E2E2E2E2E2F0E2F0E2F0E2E2E2E2E2E2E2E2E2E2E2E2E2E2E2E2E2E2E2E2E2E2E2E2E2E2E2E2E2E22DE2E2E2E2E2E2E2E2C3E2E2E2E2E2E2E2E2E22DE2E2E2E2E2E2E2E2E2E2
310
E2E2E2E2E2E2E2E2E2E2E2E2E2E2E2E2E2E2E2E2E2E2E2E2E2E2E2E2E2E2E2E2E2E2E20FE2E2E2E2E2E2E2BEE2E2E2E2E2E2C3E2E2E2E2E2E2E2BEE2E2E2F0E2E20FE2E2E2E2F0E2E2E2E2E2E2E2E2E2E2E2E2E2E2E2E2E2E2E2E2E2E2E2E2E2E2E2E2E2E2E22D2D2D2DE2E2E22DE2E22D2DE22D2D2DE22D2D2D2DE2E2E2E2
310
E2E2E2E2E2E2E2E2E2E2E2E2E2E2E2E2E2E2E2E2E2E2F5F5F5F5F5F5F5E2F0E2F0E2E2E2E22D2DE22D2DE2E2E2E2E2E2E2E2E2E2E2E22D2D2DE2E2E2E2E2E2E2F0E2F0F0F0E2E2E2E2E2E2E2E2E2E2E2E2E2E2E2E2E2E2E2E2E2E2E2E2E2E2E2E2E2E22DE2E2E2E2E2E2E2E2C3E2E2E2E2E2E2E2E2E22DE2E2E2E2E2E2E2E2
310
E2E2E2E2E2E2E2E2E2E2E2E2E2E2E2E2E2E2E2E2E2E2E2E2E2E2E2E2E2E2E2E2E2E2E2E2E20FE2E2E2E2E2E2E2BEE2E2E2E2E2E2C3E2E2E2E2E2E2E2BEE2E2E2F0E2E20FE2E2E2E2F0E2E2E2E2E2E2E2E2E2E2E2E2E2E2E2E2E2E2E2E2E2E2E2E2E2E2E2E2E2E2E22D2D2D2DE2E2E22DE2E22D2DE22D2D2DE22D2D2D2DE2E2
310
E2E2E2E2E2E2E2E2E2E2E2E2E2E2E2E2E2E2E2E2E2E2E2E2F5F5F5F5F5F5F5F0F0E2F0E2E2E2E2F52DE22D2DE2E2E2E2E2E2E2E2E2E2E2E22D2D2DE2E2E2E2E2E2E2F0E2F0F0F0E2E2E2E2E2E2E2E2E2E2E2E2E2E2E2E2E2E2E2E2E2E2E2E2E2E2E2E2E2E22DE2E2E2E2E2E2E2E2C3E2E2E2E2E2E2E2E2E22DE2E2E2E2E2E2
310
E2E2E2E2E2E2E2E2E2E2E2E2E2E2E2E2E2E2E2E2E2E2E2E2E2E2E2E2E2E2E2E2E2E2E2E2E2E2E20FE2E2E2E2E2E2E2BEE2E2E2E2E2E2C3E2E2E2E2E2E2E2BEE2E2E2F0E2E20FE2E2E2E2F0E2E2E2E2E2E2E2E2E2E2E2E2E2E2E2E2E2E2E2E2E2E2E2E2E2E2E2E2E2E2E22D2D2D2DE2E2E22DE2E22D2DE22D2D2DE22D2D2D2D
310
E2E2E2E2E2E2E2E2E2E2E2E2E2E2E2E2E2E2E2E2E2E2E2E2E2E2F5F5F5F5F5F5F5F0F0E2F0E2E2E2E2F52DE22D2DE2E2E2E2E2E2E2E2E2E2E2E22D2DE2E2E2E2E2E2E2E2F0E2F0E2F0E2E2E2E2E2E2E2E2E2E2E2E2E2E2E2E2E2E2E2E2E2E2E2E2E2E2E2E2E2E22DE2E2E2E2E2E2E2E2C3E2E2E2E2E2E2E2E2E22DE2E2E2E2
310
E2E2E2E2E2E2E2E2E2E2E2E2E2E2E2E2E2E2E2E2E2E2E2E2E2E2E2E2E2E2E2E2E2E2E2E2E2E2E2E2E20FE2E2E2E2E2E2E2BEE2E2E2E2E2E2C3E2E2E2E2E2E2E2BEE2E2E2F0E2E20FE2E2E2E2F0E2E2E2E2E2E2E2E2E2E2E2E2E2E2E2E2E2E2E2E2E2E2E2E2E2E2E2E2E2E2E22D2D2D2DE2E2E22DE2E22D2DE22D2D2DE22D2D
310
2D2DE2E2E2E2E2E2E2E2E2E2E2E2E2E2E2E2E2E2E2E2E2E2E2E2E2E2F5F5F5E2E2F5F5F0F0E2F0E2E2E2E2F52DE22D2DE2E2E2E2E2E2E2E2E2E2E2E22D2DE2E2E2E2E2E2E2E2F0E2F0E2F0E2E2E2E2E2E2E2E2E2E2E2E2E2E2E2E2E2E2E2E2E2E2E2E2E2E2E2E2E2E22DE2E2E2E2E2E2E2E2C3E2E2E2E2E2E2E2E2E22DE2E2
310
E2E2E2E2E2E2E2E2E2E2E2E2E2E2E2E2E2E2E2E2E2E2E2E2E2E2E2E2E2E2E2E2E2E2E2E2E2E2E2E2E2E2E20FE2E2E2E2E2E2E2BEE2E2E2E2E2E2C3E2E2E2E2E2E2E2BEE2E2E2F0E2E20FE2E2E2E2F0E2E2E2E2E2E2E2E2E2E2E2E2E2E2E2E2E2E2E2E2E2E2E2E2E2E2E2E2E2E2E22D2D2D2DE2E2E22DE2E22D2DE22D2D2DE2
310
2D2D2D2DE2E2E2E2E2E2E2E2E2E2E2E2E2E2E2E2E2E2E2E2E2E2E2E2E2E2F5F5F5E2E2F5F5E2F0E2F0E2E2E2F5E22DE22D2DE2E2E2E2E2E2E2E2E2E2E2E22DDCDCDCDCDCDCF0F0F0F0E2F0E2F0E2E2E2E2E2E2E2E2E2E2E2E2E2E2E2E2E2E2E2E2E2E2E2E2E2E2E2E2E2E22DF0F0DCDCDCDCE2DCDCDCDCE2DCDCDCDCE2E22D
310
E2E2E2E2E2E2E2E2E2E2E2E2E2E2E2E2E2E2E2E2E2E2E2E2E2E2E2E2E2E2E2E2E2E2E2E2E2E2E2E2E2E2E2E2E20FE2E2E2E2E2E2E2BEE2E2E2E2E2E2C3E2E2E2E2E2E2E2BEE2E2E2F0E2E20FE2E2E2E2F0E2E2E2E2E2E2E2E2E2E2E2E2E2E2E2E2E2E2E2E2E2E2E2E2E2E2E2E2E2E2E22D2D2D2D2D2D2D2DE2E2C3E2E2E2E2
310
2DE22D2D2D2DE2E2E2E2E2E2E2E2E2E2E2E2E2E2E2E2E2E2E2E2E2E2E2E2E2E2F5F5F5E2E2F5F5E2F0E2F0E2E2E2F5E22DE22D2DE2E2E2E2E2E2E2E2E2E2E2E22DDCDCDCDCDCDCF0F0F0E2E2F0E2F0E2E2E2E2E2E2E2E2E2E2E2E2E2E2E2E2E2E2E2E2E2E2E2E2E2E2E2E2E2E22DF0F0DCDCDCDCE2DCDCDCDCE2DCDCDCDCE2
310
E22DE2E2E2E2E2E2E2E2E2E2E2E2E2E2E2E2E2E2E2E2E2E2E2E2E2E2E2E2E2E2E2E2E2E2E2E2E2E2E2E2E2E2E2E2E20FE2E2E2E2E2E2E2BEE2E2E2E2E2E2C3E2E2E2E2E2E2E2BEE2E2E2F0E2E20FE2E2E2E2F0E2E2E2E2E2E2E2E2E2E2E2E2E2E2E2E2E2E2E2E2E2E2E2E2E2E2E2E2E2E2E22D2D2D2D2D2D2DE2E2E2C3E2E2
310
E2E22D2D2D2D2D2DE2E2E2E2E2E2E2E2E2E2E2E2E2E2E2E2E2E2E2E2E2E2E2E2E2E2F5F5F5E2E2F5F5E2F0E2F0E2E2E2F5E22DE22D2DE2E2E2E2E2E2E2E2E2E2E2E22D2D2DE2E2E2E2E2F0F0E2E2F0E2F0E2E2E2E2E2E2E2E2E2E2E2E2E2E2E2E2E2E2E2E2E2E2E2E2E2E2E2E2E2E22DE2E2E2E2E2E2E2E2C3E2E2E2E2E2E2
310
E2E2E22DE2E2E2E2E2E2E2E2E2E2E2E2E2E2E2E2E2E2E2E2E2E2E2E2E2E2E2E2E2E2E2E2E2E2E2E2E2E2E2E2E2E2E2E2E20FE2E2E2E2E2E2E2BEE2E2E2E2E2E2C3E2E2E2E2E2E2E2BEE2E2E2F0E2E20FE2E2E2E2F0E2E2E2E2E2E2E2E2E2E2E2E2E2E2E2E2E2E2E2E2E2E2E2E2E2E2E2E2E2E2E22D2D2D2D2D2D2D2D2D2D2D
310
2D2D2D2D2D2D2D2D2D2DE2E2E2E2E2E2E2E2E2E2E2E2E2E2E2E2E2E2E2E2E2E2E2E2E2E2E2E2E2E2E2F5F5E2F0E2F0F0F0F0F52D2D2D2D2DE2E2E2E2E2E2E2E2E2E2E22DE22D2DE2E2E2E2E2E2E2E2E2F0E2F0E2E2E2E2E2E2E2E2E2E2E2E2E2E2E2E2E2E2E2E2E2E2E2E2E2E2E2E2E2E22DE2E2E2E2E2E2E2E2C3E2E2E2E2
310
E2E2E2E2E22DE2E2E2E2E2E2E2E2E2E2E2E2E2E2E2E2E2E2E2E2E2E2E2E2E2E2E2E2E2E2E2E2E2E2E2E2E2E2E2E2E2E2E2E2E20FE2E2E2E2E2E2E2BEBEBEBEBEBEBEBEBEBEBEBEBEBEBEBEF0F0F0F0E2E20FE2E2E2E2F0E2E2E2E2E2E2E2E2E2E2E2E2E2E2E2E2E2E2E2E2E2E2E2E2E2E2E2E2E2E2E22D2D2DE2E2E2E2E2E2
310
E2C3E2E2E2E2E2E2E22D2D2DE2E2E2E2E2E2E2E2E2E2E2E2E2E2E2E2E2E2E2E2E2E2E2E2E2E2E2E2E2E2E2F5F5E2F0E2E2E2E2F5E2E2BEE22D2DE2E2E2E2E2E2E2E2E2E22DE2E22D2DE2E2E2E2E2E2E2E2E2F0E2F0E2E2E2E2E2E2E2E2E2E2E2E2E2E2E2E2E2E2E2E2E2E2E2E2E2E2E2E2E2E22DE2E2E2E2E2E2E2E2C3E2E2
310
E2E2E2E2E2E2E22DE2E2E2E2E2E2E2E2E2E2E2E2E2E2E2E2E2E2E2E2E2E2E2E2E2E2E2E2E2E2E2E2E2E2E2E2E2E2E2E2E2E2E2E2E20FE2E2E2E2E2E2E2E2E2E2E2E2E2E2C3E2E2E2E2E2E2E2E2E2E2E2E2E2E20FE2E2E2E2F0E2E2E2E2E2E2E2E2E2E2E2E2E2E2E2E2E2E2E2E2E2E2E2E2E2E2E2E2E2E2E22D2D2DE2E2E2E2
310
E2E2E2C3E2E2E2E2E2E2E22D2D2DE2E2E2E2E2E2E2E2E2E2E2E2E2E2E2E2E2E2E2E2E2E2E2E2E2E2E2E2E2E2E2F5F5F5F0E2E2E2E2F5E2E2BEE22D2DE2E2E2E2E2E2E2E2E22D2D2D2D2D2DE2E2E2E2E2E2E2E2E2F0E2F0E2E2E2E2E2E2E2E2E2E2E2E2E2E2E2E2E2E2E2E2E2E2E2E2E2E2E2E2E2E22DE2E2E2E2E2E2E2E2C3
310
E2E2E2E2E2E2E2E2E22DE2E2E2E2E2E2E2E2E2E2E2E2E2E2E2E2E2E2E2E2E2E2E2E2E2E2E2E2E2E2E2E2E2E2E2E2E2E2E2E2E2E2E2E2E20FE2E2E2E2E2E2E2E2E2E2E2E2E2E2C3E2E2E2E2E2E2E2E2E2E2E2E2E2E20FE2E2E2E2F0E2E2E2E2E2E2E2E2E2E2E2E2E2E2E2E2E2E2E2E2E2E2E2E2E2E2E2E2E2E2E22DE22DE2E2
310
E2E2E2E2E2C3E2E2E2E2E2E2E22D2D2DE2E2E2E2E2E2E2E2E2E2E2E2E2E2E2E2E2E2E2E2E2E2E2E2E2E2E2E2E2E2E2F5F5E2F0E2E2E2E2F5E2E2BEE22D2DE2E2E2E2E2E2E2E2E22DE2E2E2E2E2E2E2E2E2E2E2E2E2E2F0E2F0E2E2E2E2E2E2E2E2E2E2E2E2E2E2E2E2E2E2E2E2E2E2E2E2E2E2E2E2E2E22DE2E2E2E2E2E2E2
310
E2C3E2E2E2E2E2E2E2E2E22DE2E2E2E2E2E2E2E2E2E2E2E2E2E2E2E2E2E2E2E2E2E2E2E2E2E2E2E2E2E2E2E2E2E2E2E2E2E2E2E2E2E2E2E2E20FE2E2E2E2E2E2E2E2E2E2E2E2E2E2C3E2E2E2E2E2E2E2E2E2E2E2E2E2E20FE2E2E2E2F0E2E2E2E2E2E2E2E2E2E2E2E2E2E2E2E2E2E2E2E2E2E2E2E2E2E2E2E2E2E2E22D2D2D
310
2D2D2D2D2D2D2D2D2D2D2D2D2D2D2D2D2D2DE2E2E2E2E2E2E2E2E2E2E2E2E2E2E2E2E2E2E2E2E2E2E2E2E2E2E2E2E2E2E2F5F5E2F0E2E2E2E2F5E2E2BEE22D2DE2E2E2E2E2E2E2E2E22DE2E2E2E2E2E2E2E2E2E2E2E2E2E2F0E2F0E2E2E2E2E2E2E2E2E2E2E2E2E2E2E2E2E2E2E2E2E2E2E2E2E2E2E2E2E2E22DE2E2E2E2E2
310
E2E2E2C3E2E2E2E2E2E2E2E2E22DE2E2E2E2E2E2E2E2E2E2E2E2E2E2E2E2E2E2E2E2E2E2E2E2E2E2E2E2E2E2E2E2E2E2E2E2E2E2E2E2E2E2E2E2E20FE2E2E2E2E2E2E2E2E2E2E2E2E2E2F5E2E2E2E2E2E2E2E2E2E2E2E2E2E20FE2E2E2E2F0E2E2E2E2E2E2E2E2E2E2E2E2E2E2E2E2E2E2E2E2E2E2E2E2E2E2E2E2E2E2E22D
310
E2E2E22D2D2D2D2D2D2D2DE2E2E22D2D2D2D2D2DE2E2E2E2E2E2E2E2E2E2E2E2E2E2E2E2E2E2E2E2E2E2E2E2E2E2E2E2E2E2E2F5F5E2F0E2E2E2E2F5E2E2BEDCDC2DE2E2E2E2E2E2E2E2F02DF0F0F0F0F0F0F0F0F0F0E2E2E2E2F0E2F0E2E2E2E2E2E2E2E2E2E2E2E2E2E2E2E2E2E2E2E2E2E2E2E2E2E2E2E2E2E22DE2E2E2
310
E2E2E2E2E2C3E2E2E2E2E2E2E2E2E22DE2E2E2E2E2E2E2E2E2E2E2E2E2E2E2E2E2E2E2E2E2E2E2E2E2E2E2E2E2E2E2E2E2E2E2E2E2E2E2E2E2E2E2E2E20FE2E2E2E2E2E2E2E2E2E2E2E2E2E2F5E2E2E2E2E2E2E2E2E2E2E2E2E2E20FE2E2E2E2F0E2E2E2E2E2E2E2E2E2E2E2E2E2E2E2E2E2E2E2E2E2E2E2E2E2E2E2E2E2E2
310
E22D2D2D2D2D2D2D2D2D2D2D2D2D2D2D2D2D2D2D2D2DE2E2E2E2E2E2E2E2E2E2E2E2E2E2E2E2E2E2E2E2E2E2E2E2E2E2E2E2E2E2E2F5F5F5F0E2E2E2F5E2E2E2BEDCE22D2D2D2D2D2D2D2D2D2DF0F0F0F0F0F0F0F0F0F0F0F0F0F0F0F0E2F0E2E2E2E2E2E2E2E2E2E2E2E2E2E2E2E2E2E2E2E2E2E2E2E2E2E2E2E2E2E22DE2
310
E2E2E2E2E2E2E2C3E2E2E2E2E2E2E2E2E22DE2E2E2E2E2E2E2E2E2E2E2E2E2E2E2E2E2E2E2E2E2E2E2E2E2E2E2E2E2E2E2E2E2E2E2E2E2E2E2E2E2E2E2E2E20FE2E2E2E2E2E2E2E2E2E2E2E2E2E2C3E2E2E2E2E2E2E2E2E2E2E2E2E2E20FE2E2E2E2F0E2E2E2E2E2E2E2E2E2E2E2E2E2E2E2E2E2E2E2E2E2E2E2E2E2E2E2E2
310
E2E2E2DCE2E2E2E2E2E2E2E2E2C3E2E2E2E2E2E2E2E2E2DCE2E2E2E2E2E2E2E2E2E2E2E2E2E2E2E2E2E2E2E2E2E2E2E2E2E2E2E2E2E2E2E2E2E2F0E2E2E2F5E2E2E2BEDCE2E2E2E2E2E2E2E2E2E2F0E2F0E2E2E2E2E2E2E2E2E2E2E2E2E2E2E2F0E2E2E2E2E2E2E2E2E2E2E2E2E2E2E2E2E2E2E2E2E2E2E2E2E2E2E2E2E2E2
310
2D2D2D2D2D2D2D2D2D2D2D2D2D2D2D2D2D2D2D2DE2E2E2E2E2E2E2E2E2E2E2E2E2E2E2E2E2E2E2E2E2E2E2E2E2E2E2E2E2E2E2E2E2E2E2E2E2E2E2E2E2E2E2E2E20FE2E2E2E2E2E2E2E2E2E2E2E2E2E2C3E2E2E2E2E2E2E2E2E2E2E2E2E2E20FE2E2E2E2F0E2E2E2E2E2E2E2E2E2E2E2E2E2E2E2E2E2E2E2E2E2E2E2E2E2E2
310
E2E2E2E2E2DCDCDCDCDCDCDCDCDCDCDCDCDCDCDCDCDCDCDCDCDCE2E2E2E2E2E2E2E2E2E2E2E2E2E2E2E2E2E2E2E2E2E2E2E2E2E2E2E2E2E2E2E2E2E2F0E2E2E2F5E2E2E2F0DCDCDCDCDCDCDCF0F0F0F0F0F0F0F0F0F0F0F0F0F0F0F0F0F5F0F0F0F0F0E2E2E2E2E2E2E2E2E2E2E2E2E2E2E2E2E2E2E2E2E2E2E2E2E2E2E2E2
310
E2E2E2E2E2E2E2E2E2E2E2C3E2E2E2E2E2E2E2E2E2E2E2E2E2E2E2E2E2E2E2E2E2E2E2E2E2E2E2E2E2E2E2E2E2E2E2E2E2E2E2E2E2E2E2E2E2E2E2E2E2E2E2E2E2E2E20FE2E2E2E2E2E2E2E2E2E2E2E2E2E2C3E2E2E2E2E2E2E2E2E2E2E2E2E2E20FE2E2E2E2F0E2E2E2E2E2E2E2E2E2E2E2E2E2E2E2E2E2E2E2E2E2E2E2E2
310
E2E2E2E2E2E2E2E2E2E2E2E2E2E2E2E2E2C3E2E2E2E2E2E2E2E2E2E2E2E2E2E2E2E2E2E2E2E2E2E2E2E2E2E2E2E2E2E2E2E2E2E2E2E2E2E2E2E2E2E2E2E2F0E2E2E2F5E2E2E2F0E2E2E2E2E2E2E2E2E2E2E2F0E2E2F0E2E2E2E2E2E2E2E2E2F5E2E2E2E2E2E2E2E2E2E2E2E2E2E2E2E2E2E2E2E2E2E2E2E2E2E2E2E2E2E2E2
310
E2E2E2E2E2E2E2E2E2E2E2E2E2C3E2E2E2E2E2E2E2E2E2E2E2E2E2E2E2E2E2E2E2E2E2E2E2E2E2E2E2E2E2E2E2E2E2E2E2E2E2E2E2E2E2E2E2E2E2E2E2E2E2E2E2E2E2E2E20FE2E2E2E2E2E2E2E2E2E2E2E2E2E2C3E2E2E2E2E2E2E2E2E2E2E2E2E2E20FE2E2E2E2F0E2E2E2E2E2E2E2E2E2E2E2E2E2E2E2E2E2E2E2E2E2E2
310
E2E2E2E2E2E2E2E2E2E2E2E2E2E2E2E2E2E2E2C3E2E2E2E2E2E2E2E2E2E2E2E2E2E2E2E2E2E2E2E2E2E2E2E2E2E2E2E2E2E2E2E2E2E2E2E2E2E2E2E2E2E2E2E2F0E2E2F5E2E2E2E2F0E2E2E2E2E2E2E2E2E2E2E2F0E2E2F0E2E2E2E2E2E2E2E2E2F5E2E2E2E2E2E2E2E2E2E2E2E2E2E2E2E2E2E2E2E2E2E2E2E2E2E2E2E2E2
310
E2E2E2E2E2E2E2E2E2E2E2E2E2E2E2C3E2E2E2E2E2E2E2E2E2E2E2E2E2E2E2E2E2E2E2E2E2E2E2E2E2E2E2E2E2E2E2E2E2E2E2E2E2E2E2E2E2E2E2E2E2E2E2E2E2E2E2E2E2E2E20FE2E2E2E2E2E2E2E2E2E2E2E2E2E2C3E2E2E2E2E2E2E2E2E2E2E2E2E2E20FE2E2E2E2F0E2E2E2E2E2E2E2E2E2E2E2E2E2E2E2E2E2E2E2E2
310
E2E2E2E2E2E2E2E2E2E2E2E2E2E2E2E2E2E2E2E2E2C3E2E2E2E2E2E2E2E2E2E2E2E2E2E2E2E2E2E2E2E2E2E2E2E2E2E2E2E2E2E2E2E2E2E2E2E2E2E2E2E2E2E2E2E2F0E2E2F5E2E2E2E2F0E2E2E2E2E2E2E2E2E2E2E2F0E2E2E2F0E2E2E2E2E2E2E2E2E2F5E2E2E2E2E2E2E2E2E2E2E2E2E2E2E2E2E2E2E2E2E2E2E2E2E2E2
310
E2E2E2E2E2E2E2E2E2E2E2E2F0E2E2E2E2F0E2E2E2E2F0E2E2E2E2E2E2E2E2E2E2E2E2E2E2E2E2E2E2E2E2E2E2E2E2E2E2E2E2E2E2E2E2E2E2E2E2E2E2E2E2E2E2E2E2E2E2E2E2E2E20F0F0F0F0F0F0FF50F0F0F0F0F0F0F0F0F0F0F0F0F0F0F0F0F0F0F0F0F0F0FF0F0F0F0F0F0E2E2E2E2E2E2E2E2E2E2E2E2E2E2E2E2E2
310
E2E2E2E2E2E2E2E2E2E2E2E20F0F0F0F0F0F0F0F0F0F0F0F0F0F0F0F0F0F0F0F0F0F0FE2E2E2E2E2E2E2E2E2E2E2E2E2E2E2E2E2E2E2E2E2E2E2E2E2E2E2E2E2E2E2E2E2F0F0F0F5F0F0F0F0F0F0F0F0F0F00F0F0F0F0F0F0F0F0F0FF0E2E2E2E2E2E2E2E2E2F5E2E2E2E2E2E2E2E2E2E2E2E2E2E2E2E2E2E2E2E2E2E2E2E2
310
E2E2E2E2E2E2E2E2E2E2E2E2E2E2F0E2E2E2E2F0E2E2E2E2F0E2E2E2E2E2E2E2E2E2E2E2E2E2E2E2E2E2E2E2E2E2E2E2E2E2E2E2E2E2E2E2E2E2E2E2E2E2E2E2E2E2E2E2E2E2E2E2E2E2E2E2E2E2E2E2E2E2F5E2E2E2E2E2E2E2C3E2E2E2E2E2E2E2E2E2E2E2E2E2E2E2E2E2E2E2E2E2E2E2E2E2E2E2E2E2E2E2E2E2E2E2E2
310
E2E2E2E2E2E2E2E2E2E2E2E2E2E2F00FF50F0F0F0F0F0F0F0F0F0F0F0F0F0F0F0F0F0F0FF0E2E2E2E2E2E2E2E2E2E2E2E2E2E2E2E2E2E2E2E2E2E2E2E2E2E2E2E2E2E2E2E2E2E2E2E2F5E2E2E2E2F0E2E2E2E2E20F0F0F0F0F0F0F0F0F0F0FF0E2E2E2E2E2E2E2E2E2F5E2E2E2E2E2E2E2E2E2E2E2E2E2E2E2E2E2E2E2E2E2
310
E2E2E2E2E2E2E2E2E2E2E2E2E2E2E2E2F0F0F0F0F0F0F0F0F0F0F0E2E2E2E2E2E2E2E2E2E2E2E2E2E2E2E2E2E2E2E2E2E2E2E2E2E2E2E2E2E2E2E2E2E2E2E2E2E2E2E2E2E2E2E2E2E2E2E2E2E2E2E2E2E2E2E2F5E2E2E2E2E2E2E2E2C3E2E2E2E2E2E2E2E2E2E2E2E2E2E2E2E2E2E2E2E2E2E2E2E2E2E2E2E2E2E2E2E2E2E2
310
E2E2E2E2E2E2E2E2E2E2E2E2E2E2E2E2F0F5E2E2E2E2E2E2E2E2E2F0E2E2E2E2E2E2E2E2E2E2F0E2E2E2E2E2E2E2E2E2E2E2E2E2E2E2E2E2E2E2E2E2E2E2E2E2E2E2E2E2E2E2E2E2E2E2E2F5E2E2E2E2F0E2E2E2E2E2E2E2E2E2E2E2F0E2E2E2E2F0E2E2E2E2E2E2E2E2E2F5F5F5F5F5F5F5F5F5F5F5F5F5F5F5F5F5F5F5F5
310
F5F5E2E2E2E2E2E2E2E2E2E2E2E2E2E2E2E2E2E2F0F0E2F5E2F0F0E2E2E2E2E2E2E2E2E2E2E2E2E2E2E2E2E2E2E2E2E2E2E2E2E2E2E2E2E2E2E2E2E2E2E2E2E2E2E2E2E2E2E2E2E2E2E2E2E2E2E2E2E2E2E2E2E2E2F5E2E2E2E2E2E2E2E2C3E2E2E2E2E2E2E2E2E2E2E2E2E2E2E2E2E2E2E2E2E2E2E2E2E2E2E2E2E2E2E2E2
310
E2E2E2E2E2E2E2E2E2E2E2E2E2E2E2E2E2F5F5E2E2E2E2E2E2E2E2E2E2F0E2E2E2E2E2E2E2E2E2E2F0E2E2E2E2E2E2E2E2E2E2E2E2E2E2E2E2E2E2E2E2E2E2E2E2E2E2E2E2E2E2E2E2E2E2E2F5E2E2E2E2E2F0F0F0F0F0F0F0F0F0F0F0F0F0E2E2E2E2E2F0E2E2E2E2E2E2E2E2F5F5F5F5F5F5F5F5F5F5F5F5F5F5E2F5F5F5
310
F5F5F5F5E2E2E2E2E2E2E2E2E2E2E2E2E2E2E2E2E2E2E2E2E2F5E2E2E2E2E2E2E2E2E2E2E2E2E2E2E2E2E2E2E2E2E2E2E2E2E2E2E2E2E2E2E2E2E2E2E2E2E2E2E2E2E2E2E2E2E2E2E2E2E2E2E2E2E2E2E2E2E2E2E2E2F5E2E2E2E2E2E2E2E2E2C3E2E2E2E2E2E2E2E2E2E2E2E2E2E2E2E2E2E2E2E2E2E2E2E2E2E2E2E2E2E2
310
E2E2E2E2E2E2E2E2E2E2E2E2E2E2E2E2E2E2F5E2F0E2E2E2E2E2E2E2E2E2E2F0E2E2E2E2E2E2E2E2E2E2F0E2E2E2E2E2E2E2E2E2E2E2E2E2E2E2E2E2E2E2E2E2E2E2E2E2E2E2E2E2E2E2E2E2E2E2F5E2E2E2E2E2E2E2E2E2E2E2E2E2E2E2E2E2E2E2E2E2E2E2F0E2E2E2E2E2E2E2E2E2E2E2E2E2E2E2E2E2E2E2E2E2E2E2E2
310
E2E2E2E2E2E2E2E2E2E2E2E2E2E2E2E2E2E2E2E2E2E2E2E2E2E2E2F5F5E2E2E2E2E2E2E2E2E2E2E2E2E2E2E2E2E2E2E2E2E2E2E2E2E2E2E2E2E2E2E2E2E2E2E2E2E2E2E2E2E2E2E2E2E2E2E2E2E2E2E2E2E2E2E2E2E2E2E2F5E2E2E2E2E2E2E2E2E2C3E2E2E2E2E2E2E2E2E2E2E2E2E2E2E2E2E2E2E2E2E2E2E2E2E2E2E2E2
310
E2E2E2E2E2E2E2E2E2E2E2E2E2E2E2E2E2E2E2F5E2E2F0F0F0F0F0F0F0F0F0F0F0F0F0F0F0F0F0F0F0F0F0F0F0E2E2E2E2E2E2E2E2E2E2E2E2E2E2E2E2E2E2E2E2E2E2E2E2E2E2E2E2E2E2E2E2E2E2E2F5E2E2E2E2E2E2E2E2E2E2E2E2E2E2E2E2E2E2E2E2E2E2E2E2F0F0F0F0F0F0F0F0F0F0F0E2E2E2E2E2E2E2E2E2E2E2
310
E2E2E2E2E2E2E2E2E2E2E2E2E2E2E2E2E2E2E2E2E2E2E2E2E2E2E2E2E2E2E2E2E2E2E2E2E2E2E2E2E2E2E2E2E2E2E2E2E2E2E2E2E2E2E2E2E2E2E2E2E2E2E2E2E2E2E2E2E2E2E2E2E2E2E2E2E2E2E2E2E2E2E2E2E2E2E2E2E2F5E2E2E2E2E2E2E2E2E2E2C3E2E2E2E2E2E2E2E2E2E2E2E2E2E2E2E2E2E2E2E2E2E2E2E2E2E2
310
E2E2E2E2E2E2E2E2E2E2E2E2E2E2E2E2E2E2E2E2F5E2E2E2E2E2E2E2E2F0F0E2E2E2E2E2E2E2E2F0F0F0E2E2E2E2E2E2E2E2E2E2E2E2E2E2E2E2E2E2E2E2E2E2E2E2E2E2E2E2E2E2E2E2E2E2E2E2E2E2E2E2F5E2E2E2E2E2E2E2E2E2E2E2E2E2E2E2E2E2E2E2E2E2E2E2E2E2E2F0F0F0F0F0E2E2E2E2E2E2E2E2E2E2E2E2E2
310
E2E2E2E2E2E2E2E2E2E2E2E2E2E2E2E2E2E2E2E2E2E2E2E2E2E2E2E2E2E2E2E2E2E2E2E2E2E2E2E2E2E2E2E2E2E2E2E2E2E2E2E2E2E2E2E2E2E2E2E2E2E2E2E2E2E2E2E2E2E2E2E2E2E2E2E2E2E2E2E2E2E2E2E2E2E2E2E2E2E2E2F5F5F5F5F5F5F5F5F5F5F5F5F5F5F5F5F5F5F5F5F5F5F5F5F5F5F5E2E2E2E2E2E2E2E2E2
310
E2E2E2E2E2F5F5F5F5E2F5F5F5F5E2F5F5F5F5F5F5F5E2E2E2E2E2E2E2E2E2E2E2E2E2E2E2E2E2E2E2E2E2E2E2E2E2E2E2E2E2E2E2E2E2E2E2E2E2E2E2E2E2E2E2E2E2E2E2E2E2E2E2E2E2E2E2E2E2E2E2E2E2F5E2E2E2E2E2E2E2E2E2E2E2E2E2E2E2E2E2E2E2E2E2E2E2F5F5F5F5F5F5F5F5F5F5F5F5F5F5E2E2E2E2E2E2
310
E2E2E2E2E2E2E2E2E2E2E2E2E2E2E2E2E2E2E2E2E2E2E2E2E2E2E2E2E2E2E2E2E2E2E2E2E2E2E2E2E2E2E2E2E2E2E2E2E2E2E2E2E2E2E2E2E2E2E2E2E2E2E2E2E2E2E2E2E2E2E2E2E2E2E2E2E2E2E2E2E2E2E2E2E2E2E2E2E2E2E2E2E2E2F5F5F5F5F5F5F5F5F5F5F5F5F5F5F5F5F5F5F5F5F5F5F5F5F5E2E2E2E2E2E2E2E2
310
E2E2E2E2E2E2E2F5F5F5F5E2F5F5F5F5F5F5F5F5F5F5E2E2E2E2E2E2E2E2E2E2E2E2E2E2E2E2F5F5E2E2E2E2E2E2E2E2E2E2E2E2E2E2E2E2E2E2E2E2E2E2E2E2E2E2E2E2F5F5F5F5F5F5F5F5F5F5F5F5F5F5F5F5E2F5E2E2E2E2E2E2E2E2E2E2E2E2E2E2E2E2E2E2E2E2E2E2E2F5F5F5F5F5F5F5F5F5F5F5F5F5F5E2E2E2E2
310
E2E2E2E2E2E2E2E2E2E2E2E2E2E2E2E2E2E2E2E2E2E2E2E2E2E2E2E2E2E2E2E2E2E2E2E2E2E2E2E2E2E2E2E2E2E2E2E2E2E2E2E2E2E2E2E2E2E2E2E2E2E2E2E2E2E2E2E2E2E2E2E2E2E2E2E2E2E2E2E2E2E2E2E2E2E2E2E2E2E2E2E2E2E2E2E2E2E2E2E2E2E2E2E2E2E2E2E2E2E2E2E2E2E2E2E2E2E2E2E2E2E2E2E2E2E2E2
310
E2E2E2E2E2E2E2E2E2F5F5F5F5F5F5F5F5F5F5F5F5F5F5F5E2E2E2E2E2E2E2E2E2E2E2E2E2E2E2E2F5F5F5E2E2E2E2E2E2E2E2E2E2E2E2E2E2E2E2E2E2E2E2E2E2E2E2E2E2F5F5F5F5F5F5F5F5F5F5F5F5F5F5F5F5F5F5F5E2E2E2E2E2E2E2E2E2E2E2E2E2E2E2E2E2E2E2E2E2E2E2E2E2E2E2E2E2E2E2E2E2E2E2E2E2E2E2
310
E2E2E2E2E2E2E2E2E2E2E2E2E2E2E2E2E2E2E2E2E2E2E2E2E2E2E2E2E2E2E2E2E2E2E2E2E2E2E2E2E2E2E2E2E2E2E2E2E2E2E2E2E2E2E2E2E2E2E2E2E2E2E2E2E2E2E2E2E2E2E2E2E2E2E2E2E2E2E2E2E2E2E2E2E2E2E2E2E2E2E2E2E2E2E2E2E2E2E2E2E2E2E2E2E2E2E2E2E2E2E2E2E2E2E2E2E2E2E2E2E2E2E2E2E2E2E2
310
E2E2E2E2E2E2E2E2E2E2E2F5F5F5F5F5F5F5F5F5F5F5F5F5E2E2E2E2E2E2E2E2E2E2E2E2E2E2E2E2E2E2E2F5F5E2E2E2E2E2E2E2E2E2E2E2E2E2E2E2E2E2E2E2E2E2E2E2E2E2E2E2F5F5F5F5F5F5F5F5F5F5F5F5F5F5F5F5F5F5E2E2E2E2E2E2E2E2E2E2E2E2E2E2E2E2E2E2E2E2E2E2E2E2E2E2E2E2E2E2E2E2E2E2E2E2E2
310
E2E2E2E2E2E2E2E2E2E2E2E2E2E2E2E2E2E2E2E2E2E2E2E2E2E2E2E2E2E2E2E2E2E2E2E2E2E2E2E2E2E2E2E2E2E2E2E2E2E2E2E2E2E2E2E2E2E2E2E2E2E2E2E2E2E2E2E2E2E2E2E2E2E2E2E2E2E2E2E2E2E2E2E2E2E2E2E2E2E2E2E2E2E2E2E2E2E2E2E2E2E2E2E2E2E2E2E2E2E2E2E2E2E2E2E2E2E2E2E2E2E2E2E2E2E2E2
310
E2E2E2E2E2E2E2E2E2E2E2E2E2F5F5F5F5F5F5F5F5F5F5F5F5F5E2E2E2E2E2E2E2E2E2E2E2E2E2E2E2E2E2E2E2E2E2E2E2E2E2E2E2E2E2E2E2E2E2E2E2E2E2E2E2E2E2E2E2E2E2E2E2E2F5F5F5F5F5F5F5F5F5F5F5F5F5F5F5F5F5F5E2E2E2E2E2E2E2E2E2E2E2E2E2E2E2E2E2E2E2E2E2E2E2E2E2E2E2E2E2E2E2E2E2E2E2
310
E2E2E2E2E2E2E2E2E2E2E2E2E2E2E2E2E2E2E2E2E2E2E2E2E2E2E2E2E2E2E2E2E2E2E2E2E2E2E2E2E2E2E2E2E2E2E2E2E2E2E2E2E2E2E2E2E2E2E2E2E2E2E2E2E2E2E2E2E2E2E2E2E2E2E2E2E2E2E2E2E2E2E2E2E2E2E2E2E2E2E2E2E2E2E2E2E2E2E2E2E2E2E2E2E2E2E2E2E2E2E2E2E2E2E2E2E2E2E2E2E2E2E2E2E2E2E2
310
E2E2E2E2E2E2E2E2E2E2E2E2E2E2E2E2E2E2E2E2E2E2E2E2E2E2E2E2E2E2E2E2E2E2E2E2E2E2E2E2E2E2E2E2E2E2E2E2E2E2E2E2E2E2E2E2E2E2E2E2E2E2E2E2E2E2E2E2E2E2E2E2E2E2E2E2E2E2E2E2E2E2E2E2E2E2E2E2E2E2E2E2E2E2E2E2E2E2E2E2E2E2E2E2E2E2E2E2E2E2E2E2E2E2E2E2E2E2E2E2E2E2E2E2E2E2E2
310
E2E2E2E2E2E2E2E2E2E2E2E2E2E2E2E2E2E2E2E2E2E2E2E2E2E2E2E2E2E2E2E2E2E2E2E2E2E2E2E2E2E2E2E2E2E2E2E2E2E2E2E2E2E2E2E2E2E2E2E2E2E2E2E2E2E2E2E2E2E2E2E2E2E2E2E2E2E2E2E2E2E2E2E2E2E2E2E2E2E2E2E2E2E2E2E2E2E2E2E2E2E2E2E2E2E2E2E2E2E2E2E2E2E2E2E2E2E2E2E2E2E2E2E2E2E2E2
310
E2E2E2E2E2E2E2E2E2E2E2E2E2E2E2E2E2E2E2E2E2E2E2E2E2E2E2E2E2E2E2E2E2E2E2E2E2E2E2E2E2E2E2E2E2E2E2E2E2E2E2E2E2E2E2E2E2E2E2E2E2E2E2E2E2E2E2E2E2E2E2E2E2E2E2E2E2E2E2E2E2E2E2E2E2E2E2E2E2E2E2E2E2E2E2E2E2E2E2E2E2E2E2E2E2E2E2E2E2E2E2E2E2E2E2E2E2E2E2E2E2E2E2E2E2E2E2
310
E2E2E2E2E2E2E2E2E2E2E2E2E2E2E2E2E2E2E2E2E2E2E2E2E2E2E2E2E2E2E2E2E2E2E2E2E2E2E2E2E2E2E2E2E2E2E2E2E2E2E2E2E2E2E2E2E2E2E2E2E2E2E2E2E2E2E2E2E2E2E2E2E2E2E2E2E2E2E2E2E2E2E2E2E2E2E2E2E2E2E2E2E2E2E2E2E2E2E2E2E2E2E2E2E2E2E2E2E2E2E2E2E2E2E2E2E2E2E2E2E2E2E2E2E2E2E2
310
E2E2E2E2E2E2E2E2E2E2E2E2E2E2E2E2E2E2E2E2E2E2E2E2E2E2E2E2E2E2E2E2E2E2E2E2E2E2E2E2E2E2E2E2E2E2E2E2E2E2E2E2E2E2E2E2E2E2E2E2E2E2E2E2E2E2E2E2E2E2E2E2E2E2E2E2E2E2E2E2E2E2E2E2E2E2E2E2E2E2E2E2E2E2E2E2E2E2E2E2E2E2E2E2E2E2E2E2E2E2E2E2E2E2E2E2E2E2E2E2E2E2E2E2E2E2E2
310
E2E2E2E2E2E2E2E2E2E2E2E2E2E2E2E2E2E2E2E2E2E2E2E2E2E2E2E2E2E2E2E2E2E2E2E2E2E2E2E2E2E2E2E2E2E2E2E2E2E2E2E2E2E2E2E2E2E2E2E2E2E2E2E2E2E2E2E2E2E2E2E2E2E2E2E2E2E2E2E2E2E2E2E2E2E2E2E2E2E2E2E2E2E2E2E2E2E2E2E2E2E2E2E2E2E2E2E2E2E2E2E2E2E2E2E2E2E2E2E2E2E2E2E2E2E2E2
310
E2E2E2E2E2E2E2E2E2E2E2E2E2E2E2E2E2E2E2E2E2E2E2E2E2E2E2E2E2E2E2E2E2E2E2E2E2E2E2E2E2E2E2E2E2E2E2E2E2E2E2E2E2E2E2E2E2E2E2E2E2E2E2E2E2E2E2E2E2E2E2E2E2E2E2E2E2E2E2E2E2E2E2E2E2E2E2E2E2E2E2E2E2E2E2E2E2E2E2E2E2E2E2E2E2E2E2E2E2E2E2E2E2E2E2E2E2E2E2E2E2E2E2E2E2E2E2
310
E2E2E2E2E2E2E2E2E2E2E2E2E2E2E2E2E2E2E2E2E2E2E2E2E2E2E2E2E2E2E2E2E2E2E2E2E2E2E2E2E2E2E2E2E2E2E2E2E2E2E2E2E2E2E2E2E2E2E2E2E2E2E2E2E2E2E2E2E2E2E2E2E2E2E2E2E2E2E2E2E2E2E2E2E2E2E2E2E2E2E2E2E2E2E2E2E2E2E2E2E2E2E2E2E2E2E2E2E2E2E2E2E2E2E2E2E2E2E2E2E2E2E2E2E2E2E2
310
E2E2E2E2E2E2E2E2E2E2E2E2E2E2E2E2E2E2E2E2E2E2E2E2E2E2E2E2E2E2E2E2E2E2E2E2E2E2E2E2E2E2E2E2E2E2E2E2E2E2E2E2E2E2E2E2E2E2E2E2E2E2E2E2E2E2E2E2E2E2E2E2E2E2E2E2E2E2E2E2E2E2E2E2E2E2E2E2E2E2E2E2E2E2E2E2E2E2E2E2E2E2E2E2E2E2E2E2E2E2E2E2E2E2E2E2E2E2E2E2E2E2E2E2E2E2E2
310
E2E2E2E2E2E2E2E2E2E2E2E2E2E2E2E2E2E2E2E2E2E2E2E2E2E2E2E2E2E2E2E2E2E2E2E2E2E2E2E2E2E2E2E2E2E2E2E2E2E2E2E2E2E2E2E2E2E2E2E2E2E2E2E2E2E2E2E2E2E2E2E2E2E2E2E2E2E2E2E2E2E2E2E2E2E2E2E2E2E2E2E2E2E2E2E2E2E2E2E2E2E2E2E2E2E2E2E2E2E2E2E2E2E2E2E2E2E2E2E2E2E2E2E2E2E2E2
310
E2E2E2E2E2E2E2E2E2E2E2E2E2E2E2E2E2E2E2E2E2E2E2E2E2E2E2E2E2E2E2E2E2E2E2E2E2E2E2E2E2E2E2E2E2E2E2E2E2E2E2E2E2E2E2E2E2E2E2E2E2E2E2E2E2E2E2E2E2E2E2E2E2E2E2E2E2E2E2E2E2E2E2E2E2E2E2E2E2E2E2E2E2E2E2E2E2E2E2E2E2E2E2E2E2E2E2E2E2E2E2E2E2E2E2E2E2E2E2E2E2E2E2E2E2E2E2
310
E2E2E2E2E2E2E2E2E2E2E2E2E2E2E2E2E2E2E2E2E2E2E2E2E2E2E2E2E2E2E2E2E2E2E2E2E2E2E2E2E2E2E2E2E2E2E2E2E2E2E2E2E2E2E2E2E2E2E2E2E2E2E2E2E2E2E2E2E2E2E2E2E2E2E2E2E2E2E2E2E2E2E2E2E2E2E2E2E2E2E2E2E2E2E2E2E2E2E2E2E2E2E2E2E2E2E2E2E2E2E2E2E2E2E2E2E2E2E2E2E2E2E2E2E2E2E2
310
E2E2E2E2E2E2E2E2E2E2E2E2E2E2E2E2E2E2E2E2E2E2E2E2E2E2E2E2E2E2E2E2E2E2E2E2E2E2E2E2E2E2E2E2E2E2E2E2E2E2E2E2E2E2E2E2E2E2E2E2E2E2E2E2E2E2E2E2E2E2E2E2E2E2E2E2E2E2E2E2E2E2E2E2E2E2E2E2E2E2E2E2E2E2E2E2E2E2E2E2E2E2E2E2E2E2E2E2E2E2E2E2E2E2E2E2E2E2E2E2E2E2E2E2E2E2E2
310
E2E2E2E2E2E2E2E2E2E2E2E2E2E2E2E2E2E2E2E2E2E2E2E2E2E2E2E2E2E2E2E2E2E2E2E2E2E2E2E2E2E2E2E2E2E2E2E2E2E2E2E2E2E2E2E2E2E2E2E2E2E2E2E2E2E2E2E2E2E2E2E2E2E2E2E2E2E2E2E2E2E2E2E2E2E2E2E2E2E2E2E2E2E2E2E2E2E2E2E2E2E2E2E2E2E2E2E2E2E2E2E2E2E2E2E2E2E2E2E2E2E2E2E2E2E2E2
310
E2E2E2E2E2E2E2E2E2E2E2E2E2E2E2E2E2E2E2E2E2E2E2E2E2E2E2E2E2E2E2E2E2E2E2E2E2E2E2E2E2E2E2E2E2E2E2E2E2E2E2E2E2E2E2E2E2E2E2E2E2E2E2E2E2E2E2E2E2E2E2E2E2E2E2E2E2E2E2E2E2E2E2E2E2E2E2E2E2E2E2E2E2E2E2E2E2E2E2E2E2E2E2E2E2E2E2E2E2E2E2E2E2E2E2E2E2E2E2E2E2E2E2E2E2E2E2
310
E2E2E2E2E2E2E2E2E2E2E2E2E2E2E2E2E2E2E2E2E2E2E2E2E2E2E2E2E2E2E2E2E2E2E2E2E2E2E2E2E2E2E2E2E2E2E2E2E2E2E2E2E2E2E2E2E2E2E2E2E2E2E2E2E2E2E2E2E2E2E2E2E2E2E2E2E2E2E2E2E2E2E2E2E2E2E2E2E2E2E2E2E2E2E2E2E2E2E2E2E2E2E2E2E2E2E2E2E2E2E2E2E2E2E2E2E2E2E2E2E2E2E2E2E2E2E2
310
E2E2E2E2E2E2E2E2E2E2E2E2E2E2E2E2E2E2E2E2E2E2E2E2E2E2E2E2E2E2E2E2E2E2E2E2E2E2E2E2E2E2E2E2E2E2E2E2E2E2E2E2E2E2E2E2E2E2E2E2E2E2E2E2E2E2E2E2E2E2E2E2E2E2E2E2E2E2E2E2E2E2E2E2E2E2E2E2E2E2E2E2E2E2E2E2E2E2E2E2E2E2E2E2E2E2E2E2E2E2E2E2E2E2E2E2E2E2E2E2E2E2E2E2E2E2E2
310
E2E2E2E2E2E2E2E2E2E2E2E2E2E2E2E2E2E2E2E2E2E2E2E2E2E2E2E2E2E2E2E2E2E2E2E2E2E2E2E2E2E2E2E2E2E2E2E2E2E2E2E2E2E2E2E2E2E2E2E2E2E2E2E2E2E2E2E2E2E2E2E2E2E2E2E2E2E2E2E2E2E2E2E2E2E2E2E2E2E2E2E2E2E2E2E2E2E2E2E2E2E2E2E2E2E2E2E2E2E2E2E2E2E2E2E2E2E2E2E2E2E2E2E2E2E2E2
310
E2E2E2E2E2E2E2E2E2E2E2E2E2E2E2E2E2E2E2E2E2E2E2E2E2E2E2E2E2E2E2E2E2E2E2E2E2E2E2E2E2E2E2E2E2E2E2E2E2E2E2E2E2E2E2E2E2E2E2E2E2E2E2E2E2E2E2E2E2E2E2E2E2E2E2E2E2E2E2E2E2E2E2E2E2E2E2E2E2E2E2E2E2E2E2E2E2E2E2E2E2E2E2E2E2E2E2E2E2E2E2E2E2E2E2E2E2E2E2E2E2E2E2E2E2E2E2
310
E2E2E2E2E2E2E2E2E2E2E2E2E2E2E2E2E2E2E2E2E2E2E2E2E2E2E2E2E2E2E2E2E2E2E2E2E2E2E2E2E2E2E2E2E2E2E2E2E2E2E2E2E2E2E2E2E2E2E2E2E2E2E2E2E2E2E2E2E2E2E2E2E2E2E2E2E2E2E2E2E2E2E2E2E2E2E2E2E2E2E2E2E2E2E2E2E2E2E2E2E2E2E2E2E2E2E2E2E2E2E2E2E2E2E2E2E2E2E2E2E2E2E2E2E2E2E2
310
E2E2E2E2E2E2E2E2E2E2E2E2E2E2E2E2E2E2E2E2E2E2E2E2E2E2E2E2E2E2E2E2E2E2E2E2E2E2E2E2E2E2E2E2E2E2E2E2E2E2E2E2E2E2E2E2E2E2E2E2E2E2E2E2E2E2E2C3E2E2E2E2E2E2E2E2E2E2E2E2E2E2E2E2E2E2E2E2E2E2E2E2E2E2E2E2E2E2E2E2E2E2E2E2E2E2E2E2E2E2E2E2E2E2E2E2E2E2E2E2E2E2E2E2E2E2E2
310
E2E2E2E2E2E2E2E2E2E2E2E2E2E2E2E2E2E2E2E2E2E2E2E2E2E2E2E2E2E2E2E2E2E2E2E2E2E2E2E2E2E2E2E2E2E2E2E2E2E2E2E2E2E2E2E2E2E2E2E2E2E2E2E2E2E2E2E2E2E2E2E2E2E2E2E2E2E2E2E2E2E2E2E2E2E2E2E2E2E2E2E2E2E2E2E2E2E2E2E2E2E2E2E2E2E2E2E2E2E2E2E2E2E2E2E2E2E2E2E2E2E2E2E2E2E2E2
310
E2E2E2E2E2E2E2E2E2E2E2E2E2E2E2E2E2E2E2E2E2E2E2E2E2E2E2E2E2E2E2E2E2E2E2E2E2E2E2E2E2E2E2E2E2E2E2E2E2E2E2E2E2E2E2E2E2E2E2E2E2E2E2E2E2E2E2E2E2C3E2E2E2E2E2E2E2E2E2E2E2E2E2E2E2E2E2E2E2E2E2E2E2E2E2E2E2E2E2E2E2E2E2E2E2E2E2E2E2E2E2E2E2E2E2E2E2E2E2E2E2E2E2E2E2E2E2
310
E2E2E2E2E2E2E2E2E2E2E2E2E2E2E2E2E2E2E2E2E2E2E2E2E2E2E2E2E2E2E2E2E2E2E2E2E2E2E2E2E2E2E2E2E2E2E2E2E2E2E2E2E2E2E2E2E2E2E2E2E2E2E2E2E2E2E2E2E2E2E2E2E2E2E2E2E2E2E2E2E2E2E2E2E2E2E2E2E2E2E2E2E2E2E2E2E2E2E2E2E2E2E2E2E2E2E2E2E2E2E2E2E2E2E2E2E2E2E2E2E2E2E2E2E2E2F0
310
F0F0F0F0F0F0F0F0F0F0F0F0F0F0F0F0F0F0F0F0E2E2E2E2E2E2E2E2E2E2E2E2E2E2E2E2E2E2E2E2E2E2E2E2E2E2E2E2E2E2E2E2E2E2E2E2E2E2E2E2E2E2E2E2E2E2E2E2E2E2E2C3E2E2E2E2E2E2E2E2E2E2E2E2E2E2E2E2E2E2E2E2E2E2E2E2E2E2E2E2E2E2E2E2E2E2E2E2E2E2E2E2E2E2E2E2E2E2E2E2E2E2E2E2E2E2E2
310
E2E2E2E2E2E2E2E2E2E2E2E2E2E2E2E2E2E2E2E2E2E2E2E2E2E2E2E2E2E2E2E2E2E2E2E2E2E2E2E2E2E2E2E2E2E2E2E2E2E2E2E2E2E2E2E2E2E2E2E2E2E2E2E2E2E2E2E2E2E2E2E2E2E2E2E2E2E2E2E2E2E2E2E2E2E2E2E2E2E2E2E2E2E2E2E2E2E2E2E2E2E2E2E2E2E2E2E2E2E2E2E2E2E2E2E2E2E2E2E2E2E2E2E2E2E2E2
310
E2F0E2E2E2F0F0F0E2E2E2F0E2E2E2E2F0F0E2E2E2F0E2E2E2E2E2E2E2E2E2E2E2E2E2E2E2E2E2E2E2E2E2E2E2E2E2E2E2E2E2E2E2E2E2E2E2E2E2E2E2E2E2E2E2E2F0F0F0F0F0F0F0C3F0F0F0F0F0F0F0E2E2E2E2E2E2E2E2E2E2E2E2E2E2E2E2E2E2E2E2E2E2E2E2E2E2E2E2E2E2E2E2E2E2E2E2E2E2E2E2E2E2E2E2E2E2
310
E2E2E2E2E2E2E2E2E2E2E2E2E2E2E2E2E2E2E2E2E2E2E2E2E2E2E2E2E2E2E2E2E2E2E2E2E2E2E2E2E2E2E2E2E2E2E2E2E2E2E2E2E2E2E2E2E2E2E2E2E2E2E2E2E2E2E2E2E2E2E2E2E2E2E2E2E2E2E2E2E2E2E2E2E2E2E2E2E2E2E2E2E2E2E2E2E2E2E2E2E2E2E2E2E2E2E2E2E2E2E2E2E2E2E2E2E2E2E2E2E2E2E2E2E2E2E2
310
E2E2E2F0E2E2E2E2E2E2E2E2E2F0E2E2E2E2E2E2E2E2E2F0E2E2E2E2E2E2E2E2E2E2E2E2E2E2E2E2E2E2E2E2E2E2E2E2E2E2E2E2E2E2E2E2E2E2E2E2E2E2E2E2E2E2E2E2F0E2E2F0F0E2E2C3E2E2F0F0E2E2F0E2E2E2E2E2E2E2E2E2E2E2E2E2E2E2E2E2E2E2E2E2E2E2E2E2E2E2E2E2E2E2E2E2E2E2E2E2E2E2E2E2E2E2E2
310
E2E2E2E2E2E2E2E2E2E2E2E2E2E2E2E2E2E2E2E2E2E2E2E2E2E2E2E2E2E2E2E2E2E2E2E2E2E2E2E2E2E2E2E2E2E2E2E2E2E2E2E2E2E2E2E2E2E2E2E2E2E2E2E2E2E2E2E2E2E2E2E2E2E2E2E2E2E2E2E2E2E2E2E2E2E2E2E2E2E2E2E2E2E2E2E2E2E2E2E2E2E2E2E2E2E2E2E2E2E2E2E2E2E2E2E2E2E2E2E2E2E2E2E2E2E2E2
310
E2E2E2E2E2F0E2E2E2E2E2E2E2E2E2F0E2E2E2E2E2E2E2E2E2F0E2E2E2E2E2E2E2E2E2E2E2E2E2E2E2E2E2E2E2E2E2E2E2E2E2E2E2E2E2E2E2E2E2E2E2E2E2E2E2E2E2E2E2E22D2D2D2D2D2D2D2D2D2D2D2D2D2D2DE2E2E2E2E2E2E2E2E2E2E2E2E2E2E2E2E2E2E2E2E2E2E2E2E2E2E2E2E2E2E2E2E2E2E2E2E2E2E2E2E2E2
310
E2E2E2E2E2E2E2E2E2E2E2E2E2E2E2E2E2E2E2E2E2E2E2E2E2E2E2E2E2E2E2E2E2E2E2E2E2E2E2E2E2E2E2E2E2E2E2E2E2E2E2E2E2E2E2E2E2E2E2E2E2E2E2E2E2E2E2E2E2E2E2E2E2E2E2E2E2E2E2E2E2E2E2E2E2E2E2E2E2E2E2E2E2E2E2E2E2E2E2E2E2E2E2E2E2E2E2E2E2E2E2E2E2E2E2E2E2E2E2E2E2E2E2DCDCDCDC
310
DCDCDCDCDCDCDCF0DCDCDCDCDCDCDCDCDCF0DCDCDCDCDCDCDCDCDCF0F0F0F0F0F0F0DCDCDCDCDCDCDCDCDCDCDCDCDCDCDCDCDCDCDCDCDCDCDCDCDCDCDCDCDCDCDCDCDCDCDCDCDCDCDCDCDCDCDCDCDCDCDCDCDCDCDCDCDCDCDCDCDCDCDCDCDCDCDCDCDCDCDCDCDCDCDCDCDCDCDCDCDCDCDCDCDCDCDCDCDCDCDCE2E2E2E2E2E2
310
E2E2E2E2E2E2E2E2E2E2E2E2E2E2E2E2E2E2E2E2E2E2E2E2E2E2E2E2E2E2E2E2E2E2E2E2E2E2E2E2E2E2E2E2E2E2E2E2E2E2E2E2E2E2E2E2E2E2E2E2E2E2E2E2E2E2E2E2E2E2E2E2E2E2E2E2E2E2E2E2E2E2E2E2E2E2E2E2E2E2E2E2E2E2E2E2E2E2E2E2E2E2E2E2E2E2E2E2E2E2E2E2E2E2E2E2E2E2E2E2E2E2E2E2E2E2E2
310
E2E2E2E2E2E2E2E2E2F0E2E2E2E2E2E2E2E2E2C3E2E2E2E2E2E2E2E2E2F0E2E2E2E2E2F0E2E2E2E2E2E2E2E2E2E2E2E2E2E2E2E2E2E2E2E2E2E2E2E2E2E2E2E2E2E2E2E2E2E2E22DE2E2E2E2E2E2E2E2E2C3E2E2E2E2E2E2E2E2E22DE2E2E2E2E2E2E2E2E2E2E2E2E2E2E2E2E2E2E2E2E2E2E2E2E2E2E2E2E2E2E2E2E2E2E2
310
E2E2E2E2E2E2E2E2E2E2E2E2E2E2E2E2E2E2E2E2E2E2E2E2E2E2E2E2E2E2E2E2E2E2E2E2E2E2E2E2E2E2E2E2E2E2E2E2E2E2E2E2E2E2E2E2E2E2E2E2E2E2E2E2E2E2E2E2E2E2E2E2E2E2E2E2E2E2E2E2E2E2E2E2E2E2E2E2E2E2E2E2E2E2E2E2E2E2E2E2E2E2E2E2E2E2E2E2E2E2E2E2E2E2E2E2E2E2E2E2E2E2E2E2E2E2E2
310
E2E2E2E2E2E2E2E2E2E2E2F0E2E2E2E2E2E2E2E2E2C3E2E2E2E2E2E2E2E2E2F0E2E2E2E2F0F0E2E2E2E2E2E2E2E2E2E2E2E2E2E2E2E2E2E2E2E2E2E2E2E2E2E2E2E2E2E2E2E2E2E2E22DE2E2E2E2E2E2E2E2E2C3E2E2E2E2E2E2E2E2E22DE2E2E2E2E2E2E2E2E2E2E2E2E2E2E2E2E2E2E2E2E2E2E2E2E2E2E2E2E2E2E2E2E2
310
E2E2E2E2E2E2E2E2E2E2E2E2E2E2E2E2E2E2E2E2E2E2E2E2E2E2E2E2E2E2E2E2E2E2E2E2E2E2E2E2E2E2E2E2E2E2E2E2E2E2E2E2E2E2E2E2E2E2E2E2E2E2E2E2E2E2E2E2E2E2E2E2E2E2E2E2E2E2E2E2E2E2E2E2E2E2E2E2E2E2E2E2E2E2E2E2E2E2E2E2E2E2E2E2E2E2E2E2E2E2E2E2E2E2E2E2E2E2E2E2E2E2E2E2E2E2E2
310
E2E2E2E2E2E2E2E2E2E2E2E2E2F0E2E2E2E2E2E2E2E2E2C3E2E2E2E2E2E2E2E2E2F0E2E2E2E2F0F0E2E2E2E2E2E2E2E2E2E2E2E2E2E2E2E2E2E2E2E2E2E2E2E2E2E2E2E2E2E2E2E2E2E2E22DE2E2E2E2E2E2E2E2E2C3E2E2E2E2E2E2E2E2E22DE2E2E2E2E2E2E2E2E2E2E2E2E2E2E2E2E2E2E2E2E2E2E2E2E2E2E2E2E2E2E2
310
E2E2E2E2E2E2E2E2E2E2E2E2E2E2E2E2E2E2E2E2E2E2E2E2E2E2E2E2E2E2E2E2E2E2E2E2E2E2E2E2E2E2E2E2E2E2E2E2E2E2E2E2E2E2E2E2E2E2E2E2E2E2E2E2E2E2E2E2E2E2E2E2E2E2E2E2E2E2E2E2E2E2E2E2E2E2E2E2E2E2E2E2E2E2E2E2E2E2E2E2E2E2E2E2E2E2E2E2E2E2E2E2E2E2E2E2E2E2E2E2E2E2E2E2E2E2E2
310
E2E2E2E2E2E2E2E2E2E2E2E2E2E2E228E2E2E2E2E2E2E2E2E2C3E2E2E2E2E2E2E2E2E22828E2E2E2E2F0E2E2E2E2E2E2E2E2E2E2E2E2E2E2E2E2E2E2E2E2E2E2E2E2E2E2E2E2E2E2E2E2E2E2E22DE2E2E2E2E2E2E2E2E2C3E2E2E2E2E2E2E2E2E22DE2E2E2E2E2E2E2E2E2E2E2E2E2E2E2E2E2E2E2E2E2E2E2E2E2E2E2E2E2
310
E2E2E2E2E2E2E2E2E2E2E2E2E2E2E2E2E2E2E2E2E2E2E2E2E2E2E2E2E2E2E2E2E2E2E2E2E2E2E2E2E2E2E2E2E2E2E2E2E2E2E2E2E2E2E2E2E2E2E2E2E2E2E2E2E2E2E2E2E2E2E2E2E2E2E2E2E2E2E2E2E2E2E2E2E2E2E2E2E2E2E2E2E2E2E2E2E2E2E2E2E2E2E2E2E2E2E2E2E2E2E2E2E2E2E2E2E2E2E2E2E2E2E2E2E2E2E2
310
E2E2E2E2E2E2E2E2E2E2E2E2E2E2E2E2282828E2E2E2E2E2E2E2E2C3E2E2E2E2E2E2E2E2E22828F0F0F0F0F0E2E2E2E2E2E2E2E2E2E2E2E2E2E2E2E2E2E2E2E2E2E2E2E2E2E2E2E2E2E2E2E2E2E2E22DE2E2E2E2E2E2E2E2E2C3E2E2E2E2E2E2E2E2E22DE2E2E2E2E2E2E2E2E2E2E2E2E2E2E2E2E2E2E2E2E2E2E2E2E2E2E2
310
E2E2E2E2E2E2E2E2E2E2E2E2E2E2E2E2E2E2E2E2E2E2E2E2E2E2E2E2E2E2E2E2E2E2E2E2E2E2E2E2E2E2E2E2E2E2E2E2E2E2E2E2E2E2E2E2E2E2E2E2E2E2E2E2E2E2E2E2E2E2E2E2E2E2E2E2E2E2E2E2E2E2E2E2E2E2E2E2E2E2E2E2E2E2E2E2E2E2E2E2E2E2E2E2E2E2E2E2E2E2E2E2E2E2E2E2E2E2E2E2E2E2E2E2E2E2E2
310
E2E2E2E2E2E2E2E2E2E2E2E2E2E2E2E2E2E2E2E2E2E2E2E2E2E2E2E2E2C3E2E2E2E2E2E2E2E2E2E2E2E2E2E2E2F0E2E2E2E2E2E2E2E2E2E2E2E2E2E2E2E2E2E2E2E2E2E2E2E2E2E2E2E2E2E2E2E2E2E2E22DE2E2E2E2E2E2E2E2E2C3E2E2E2E2E2E2E2E2E22DE2E2E2E2E2E2E2E2E2E2E2E2E2E2E2E2E2E2E2E2E2E2E2E2E2
310
E2E2E2E2E2E2E2E2E2E2E2E2E2E2E2E2E2E2E2E2E2E2E2E2E2E2E2E2E2E2E2E2E2E2E2E2E2E2E2E2E2E2E2E2E2E2E2E2E2E2E2E2E2E2E2E2E2E2E2E2E2E2E2E2E2E2E2E2E2E2E2E2E2E2E2E2E2E2E2E2E2E2E2E2E2E2E2E2E2E2E2E2E2E2E2E2E2E2E2E2E2E2E2E2E2E2E2E2E2E2E2E2E2E2E2E2E2E2E2E2E2E2E2E2E2E2E2
310
E2E2E2E2E2E2E2E2E2E2E2E2E2E2E2E2E2E2E2E2E2E2E2E2E2E2E2E2E2E2E2C3E2E2E2E2E2E2E2E2E2E2E2E2E2E2E2F0E2E2E2E2E2E2E2E2E2E2E2E2E2E2E2E2E2E2E2E2E2E2E2E2E2E2E2E2E2E2E2E2E2E2E22DE2E2E2E2E2E2E2E2E2C3E2E2E2E2E2E2E2E2E22DE2E2E2E2E2E2E2E2E2E2E2E2E2E2E2E2E2E2E2E2E2E2E2
310
E2E2E2E2E2E2E2E2E2E2E2E2E2E2E2E2E2E2E2E2E2E2E2E2E2E2E2E2E2E2E2E2E2E2E2E2E2E2E2E2E2E2E2E2E2E2E2E2E2E2E2E2E2E2E2E2E2E2E2E2E2E2E2E2E2E2E2E2E2E2E2E2E2F5F5F5F5F5F5F5F5F5F5F5F5F5F5F5F5F5F5F5F5F5F5F5F5F5F5F5F5F5E2E2E2E2E2E2E2E2E2E2E2E2E2E2E2E2E2E2E2E2E2E2E2E2E2
310
E2E2E2E2E2E2E2E2E2E2E2E2E2E2E2E2E2E2E2E2E2E2E2E2E2E2E2E2E2E2E2E2E2C3E2E2E2E2E2E2E2E2E2E2E2E2E2E2E2F0E2E2E2E2E2E2E2E2E2E2E2E2E2E2E2E2E2E2E2E2E2E2E2E2E2E2E2E2E2E2E2E2E2E2E22DE2E2E2E2E2E2E2E2E2C3E2E2E2E2E2E2E2E2E22DE2E2E2E2E2E2E2E2E2E2E2E2E2E2E2E2E2E2E2E2E2
310
E2E2E2E2E2E2E2E2E2E2E2E2E2E2E2E2E2E2E2E2E2E2E2E2E2E2E2E2E2E2E2E2E2E2E2E2E2E2E2E2E2E2E2E2E2E2E2E2E2E2E2E2E2E2E2E2E2E2E2E2E2E2E2E2E2E2E2E2E2E2E2E2E2E2E2F5F5F5F5F5F5F5F5F5F5F5F5F5F5F5F5F5F5F5F5F5E2F5F5F5F5F5F5F5E2E2E2E2E2E2E2E2E2E2E2E2E2E2E2E2E2E2E2E2E2E2E2
310
E2E2E2E2E2E2E2E2E2E2E2E2E2E2E2E2E2E2E2E2E2E2E2E2E2E2E2E2E2E2E2E2E2E2E2C3E2E2E2E2E2E2E2E2E2E2E2E2E2E2F0F0E2E2E2E2E2E2E2E2E2E2E2E2E2E2E2E2E2E2E2E2E2E2E2E2E2E2E2E2E2E2E2E2E2E2E22DE2E2E2E2E2E2E2E2E2C3E2E2E2E2E2E2E2E2E22DE2E2E2E2E2E2E2E2E2E2E2E2E2E2E2E2E2E2E2
310
E2E2E2E2E2E2E2E2E2E2E2E2E2E2E2E2E2E2E2E2E2E2E2E2E2E2E2E2E2E2E2E2E2E2E2E2E2E2E2E2E2E2E2E2E2E2E2E2E2E2E2E2E2E2E2E2E2E2E2E2E2E2E2E2E2E2E2E2E2E2E2E2E2E2E2E2E2F5F5E2F5F5F5F5F5F5F5F5F5F5F5F5F5F5F5F5F5F5F5F5F5F5F5F5F5F5E2E2E2E2E2E2E2E2E2E2E2E2E2E2E2E2E2E2E2E2E2
310
E2E2E2E2E2E2E2E2E2E2E2E2E2E2E2E2E2E2E2E2E2E2E2E2E2E2E2E2E2E2E2E2E2E2E2E2E2C3E2E2E2E2E2E2E2E2E2E2E2E2E2E2F0F0E2E2E2E2E2E2E2E2E2E2E2E2E2E2E2E2E2E2E2E2E2E2E2E2E2E2E2E2E2E2E2E2E2E2E22DE2E2E2E2E2E2E2E2E2C3E2E2E2E2E2E2E2E2E22DE2E2E2E2E2E2E2E2E2E2E2E2E2E2E2E2E2
310
E2E2E2E2E2E2E2E2E2E2E2E2E2E2E2E2E2E2E2E2E2E2E2E2E2E2E2E2E2E2E2E2E2E2E2E2E2E2E2E2E2E2E2E2E2E2E2E2E2E2E2E2E2E2E2E2E2E2E2E2E2E2E2E2E2E2E2E2E2E2E2E2E2E2E2E2E2E2E2F5F5F5F5F5F5F5F5F5F5F5F5F5F5F5F5E2F5F5F5F5F5F5F5F5F5F5F5F5E2E2E2E2E2E2E2E2E2E2E2E2E2E2E2E2E2E2E2
310
E2E2E2E2E2E2E2E2E2E2E2E2E2E2E2E2E2E2E2E2E2E2E2E2E2E2E2E2E2E2E2E2E2E2E2E2E2E2E2C3E2E2E2E2E2E2E2E2E2E2E2E2E2E2E2F0E2E2E2E2E2E2E2E2E2E2E2E2E2E2E2E2E2E2E2E2E2E2E2E2E2E2E2E2E2E2E2E2E2E2E22DE2E2E2E2E2E2E2E2E2C3E2E2E2E2E2E2E2E2E22DE2E2E2E2E2E2E2E2E2E2E2E2E2E2E2
310
E2E2E2E2E2E2E2E2E2E2E2E2E2E2E2E2E2E2E2E2E2E2E2E2E2E2E2E2E2E2E2E2E2E2E2E2E2E2E2E2E2E2E2E2E2E2E2E2E2E2E2E2E2E2E2E2E2E2E2E2E2E2E2E2E2E2E2E2E2E2E2E2E2E2E2E2E2E2E2E2E2E2F5F5E2F5F5F5F5F5F5F5F5F5F5F5F5E2F5F5F5F5F5F5F5E2F5F5F5F5E2E2E2E2E2E2E2E2E2E2E2E2E2E2E2E2E2
310
E2E2E2E2E2E2E2E2E2E2E2E2E2E2E2E2E2E2E2E2E2E2E2E2E2E2E2E2E2E2E2E2E2E2E2E2E2E2E2E2E2C3E2E2E2E2E2E2E2E2E2E2E2E2E2E2E2F0E2E2E2E2E2E2E2E2E2E2E2E2E2E2E2E2E2E2E2E2E2E2E2E2E2E2E2E2E2E2E2E2E2E2E22DE2E2E2E2E2E2E2E2E2C3E2E2E2E2E2E2E2E2E22DE2E2E2E2E2E2E2E2E2E2E2E2E2
310
E2E2E2E2E2E2E2E2E2E2E2E2E2E2E2E2E2E2E2E2E2E2E2E2E2E2E2E2E2E2E2E2E2E2E2E2E2E2E2E2E2E2E2E2E2E2E2E2E2E2E2E2E2E2E2E2E2E2E2E2E2E2E2E2E2E2E2E2E2E2E2E2E2E2E2E2E2E2E2E2E2E2E2E2E2E2E2E2E2E2E2E2E2E2E2E2E2E2E2E2E2E2E2E2E2E2E2E2E2E2E2E2E2E2E2E2E2E2E2E2E2E2E2E2E2E2E2
310
E2E2E2E2E2E2E2E2E2E2E2E2E2E2E2E2E2E2E2E2E2E2E2E2E2E2E2E2E2E2E2E2E2E2E2E2E2E2E2E2E2E2E2C3E2E2E2E2E2E2E2E2E2E2E2E2E2E2E2F0E2E2E2E2E2E2E2E2E2E2E2E2E2E2E2E2E2E2E2E2E2E2E2E2E2E2E2E2E2E2E2E2E2E2E22DE2E2E2E2E2E2E2E2E2C3E2E2E2E2E2E2E2E2E22DE2E2E2E2E2E2E2E2E2E2E2
310
E2E2E2E2E2E2E2E2E2E2E2E2E2E2E2E2E2E2E2E2E2E2E2E2E2E2E2E2E2E2E2E2E2E2E2E2E2E2E2E2E2E2E2E2E2E2E2E2E2E2E2E2E2E2E2E2E2E2E2E2E2E2E2E2E2E2E2E2E2E2E2E2E2E2E2E2E2E2E2E2E2E2E2E2E2E2E2E2E2E2E2E2E2E2E2E2E2E2E2E2E2E2E2E2E2E2E2E2E2E2E2E2E2E2E2E2E2E2E2E2E2E2E2E2E2E2E2
310
E2E2E2E2E2E2E2E2E2E2E2E2E2E2E2E2E2E2E2E2E2E2E2E2E2E2E2E2E2E2E2E2E2E2E228E2E2E2E2E2E2E2E2E2C3E2E2E2E2E2E2E2E2E22828E2E2E2E2F0E2E2E2E2E2E2E2E2E2E2E2E2E2E2E2E2E2E2E2E2E2E2E2E2E2E2E2E2E2E2E2E2E2E2E22DE2E2E2E2E2E2E2E2E2C3E2E2E2E2E2E2E2E2E22DE2E2E2E2E2E2E2E2E2
310
E2E2E2E2E2E2E2E2E2E2E2E2E2E2E2E2E2E2E2E2E2E2E2E2E2E2E2E2E2E2E2E2E2E2E2E2E2E2E2E2E2E2E2E2E2E2E2E2E2E2E2E2E2E2E2E2E2E2E2E2E2E2E2E2E2E2E2E2E2E2E2E2E2E2E2E2E2E2E2E2E2E2E2E2E2E2E2E2E2E2E2E2E2E2E2E2E2E2E2E2E2E2E2E2E2E2E2E2E2E2E2E2E2E2E2E2E2E2E2E2E2E2E2E2E2E2E2
310
E2E2E2E2E2E2E2E2E2E2E2E2E2E2E2E2E2E2E2E2E2E2E2E2E2E2E2E2E2E2E2E2E2E2E2E2282828E2E2E2E2E2E2E2E2C3E2E2E2E2E2E2E2E2E2F0F0F0F0F0F0F0E2E2E2E2E2E2E2E2E2E2E2E2E2E2E2E2E2E2E2E2E2E2E2E2E2E2E2E2E2E2E2E2E2E2E22DE2E2E2E2DCE2E2E2E2C3E2E2E2E2DCE2E2E2E22DE2E2E2E2E2E2E2
310
E2E2E2E2E2E2E2E2E2E2E2E2E2E2E2E2E2E2E2E2E2E2E2E2E2E2E2E2E2E2E2E2E2E2E2E2E2E2E2E2E2E2E2E2E2E2E2E2E2E2E2E2E2E2E2E2E2E2E2E2E2E2E2E2E2E2E2E2E2E2E2E2E2E2E2E2E2E2E2E2E2E2E2E2E2E2E2E2E2E2E2E2F5F5F5F5F5F5F5F5F5F5F5F5F5F5F5F5F5F5F5F5F5F5F5F5F5F5F5F5F5F5E2E2E2E2E2
310
E2E2E2E2E2E2E2E2E2E2E2E2E2E2E2E2E2E2E2E2E2E2E2E2E2E2E2E2E2E2E2E2E2E2E2E2E2E2E2E2E2E2E2E2E2E2E2E2E2C3E2E2E2E2E2E2E2E2E2E2E2F0E2E2E2E2E2E2E2E2E2E2E2E2E2E2E2E2E2E2E2E2E2E2E2E2E2E2E2E2E2E2E2E2E2E2E2E2E2E2E22DE2E2E2E2DCE2E2E2E2C3E2E2E2E2DCE2E2E2E22DE2E2E2E2E2
310
E2E2E2E2E2E2E2E2E2E2E2E2E2E2E2E2E2E2E2E2E2E2E2E2E2E2E2E2E2E2E2E2E2E2E2E2E2E2E2E2E2E2E2E2E2E2E2E2E2E2E2E2E2E2E2E2E2E2E2E2E2E2E2E2E2E2E2E2E2E2E2E2E2E2E2E2E2E2E2E2E2E2E2E2E2E2E2E2E2E2E2E2E2E2F5F5F5F5F5F5F5F5F5F5F5F5F5F5E2F5F5F5F5F5F5F5F5F5F5F5F5F5F5F5E2E2E2
310
E2E2E2E2E2E2E2E2E2E2E2E2E2E2E2E2E2E2E2E2E2E2E2E2E2E2E2E2E2E2E2E2E2E2E2E2E2E2E2E2E2E2E2E2E2E2E2E2E2E2E2C3E2E2E2E2E2E2E2E2E2E2E2F0F0F0F0E2E2E2E2E2E2E2E2E2E2E2E2E2E2E2E2E2E2E2E2E2E2E2E2E2E2E2E2E2E2E2E2E2E2E2E22D2D2D2D2D2D2D2D2D2D2D2D2D2D2D2D2D2D2D2D2DE2E2E2
310
E2E2E2E2E2E2E2E2E2E2E2E2E2E2E2E2E2E2E2E2E2E2E2E2E2E2E2E2E2E2E2E2E2E2E2E2E2E2E2E2E2E2E2E2E2E2E2E2E2E2E2E2E2E2E2E2E2E2E2E2E2E2E2E2E2E2E2E2E2E2E2E2E2E2E2E2E2E2E2E2E2E2E2E2E2E2E2E2E2E2E2E2E2E2E2E2F5F5F5F5F5F5F5F5F5F5F5F5F5F5E2F5F5F5F5F5F5F5F5F5F5F5F5F5F5F5E2
310
E2E2E2E2E2E2E2E2E2E2E2E2E2E2E2E2E2E2E2E2E2E2E2E2E2E2E2E2E2E2E2E2E2E2E2E2E2E2E2E2E2E2E2E2E2E2E2E2E2E2E2E2E2C3E2E2E2E2E2E2E2E2E2E2E2E2F0F0E2E2E2E2E2E2E2E2E2E2E2E2E2E2E2E2E2E2E2E2E2E2E2E2E2E2E2E2E2E2E2E2E2E2E2E2E2E2E2E2DCE2DCDCE2DCE2C3DCE2E2DCDCE2DCE2E2E2E2
310
E2E2E2E2E2E2E2E2E2E2E2E2E2E2E2E2E2E2E2E2E2E2E2E2E2E2E2E2E2E2E2E2E2E2E2E2E2E2E2E2E2E2E2E2E2E2E2E2E2E2E2E2E2E2E2E2E2E2E2E2E2E2E2E2E2E2E2E2E2E2E2E2E2E2E2E2E2E2E2E2E2E2E2E2E2E2E2E2E2E2E2E2E2E2E2E2E2E2E2E2E2E2E2E2E2E2E2E2E2E2E2E2E2E2E2E2E2E2E2E2E2E2E2E2E2E2E2
310
E2E2E2E2E2E2E2E2E2E2E2E2E2E2E2E2E2E2E2E2E2E2E2E2E2E2E2E2E2E2E2E2E2E2E2E2E2E2E2E2E2E2E2E2E2E2E2E2E2E2E2E2E2E2E2C3E2E2E2E2E2E2E2E2E2E2E2E2E2E2E2E2E2E2E2E2E2E2E2E2E2E2E2E2E2E2E2E2E2E2E2E2E2E2E2E2E2E2E2E2E2E2E2E2E2E2E2E2E2E2DCE2DCDCE2DCE2C3DCE2E2DCDCE2DCE2E2
310
E2E2E2E2E2E2E2E2E2E2E2E2E2E2E2E2E2E2E2E2E2E2E2E2E2E2E2E2E2E2E2E2E2E2E2E2E2E2E2E2E2E2E2E2E2E2E2E2E2E2E2E2E2E2E2E2E2E2E2E2E2E2E2E2E2E2E2E2E2E2E2E2E2E2E2E2E2E2E2E2E2E2E2E2E2E2E2E2E2E2E2E2E2E2E2E2E2E2E2F5F5F5F5F5F5F5F5F5E2F5F5F5E2E2E2E2F5F5F5F5F5F5F5E2F5F5F5
310
F5F5F5E2E2E2E2E2E2E2E2E2E2E2E2E2E2E2E2E2E2E2E2E2E2E2E2E2E2E2E2E2E2E2E2E2E2E2E2E2E2E2E2E2E2E2E2E2E2E2E2E2E2E2E2E2E2C3E2E2E2E2E2E2E2E2E2E2E2E2E2E2E2E2E2E2E2E2E2E2E2E2E2E2E2E2E2E2E2E2E2E2E2E2E2E2E2E2E2E2E2E2E2E2E2F0F0F0F0F0F0F0DCF0DCDCE2DCE2C3DCE2E2DCDCE2DC
310
E2E2E2E2E2E2E2E2E2E2E2E2E2E2E2E2E2E2E2E2E2E2E2E2E2E2E2E2E2E2E2E2E2E2E2E2E2E2E2E2E2E2E2E2E2E2E2E2E2E2E2E2E2E2E2E2E2E2E2E2E2E2E2E2E2E2E2E2E2E2E2E2E2E2E2E2E2E2E2E2E2E2E2E2E2E2E2E2E2E2E2E2E2E2E2E2E2E2E2E2E2F5F5F5F5F5F5F5F5F5E2E2F5F5F5E2E2E2F5F5F5F5F5F5F5F5F5
310
F5F5F5F5F5E2E2E2E2E2E2E2E2E2E2E2E2E2E2E2E2E2E2E2E2E2E2E2E2E2E2E2E2E2E2E2E2E2E2E2E2E2E2E2E2E2E2E2E2E2E2E2E2E2E2E2E2E2E2C3E2E2E2E2E2E2E2E2E2E2E2E2E2E2E2E2E2E2E2E2E2E2E2E2E2E2E2E2E2E2E2E2E2E2E2E2E2E2E2E2E2E2E2E2E2E2E2F0F0E2F0F0F0F0DCDCDCDCE2DCDCDCDCE2E2DCDC
310
F0DCE2E2E2E2E2E2E2E2E2E2E2E2E2E2E2E2E2E2E2E2E2E2E2E2E2E2E2E2E2E2E2E2E2E2E2E2E2E2E2E2E2E2E2E2E2E2E2E2E2E2E2E2E2E2E2E2E2E2E2E2E2E2E2E2E2E2E2E2E2E2E2E2E2E2E2E2E2E2E2E2E2E2E2E2E2E2E2E2E2E2E2E2E2E2E2E2E2E2E2E2E2F5F5F5F5F5F5F5F5F5E2E2F5F5E2E2E2E2E2E2E2E2E2E2E2
310
E2E2E2E2E2E2E2E2E2E2E2E2E2E2E2E2E2E2E2E2E2E2E2E2E2E2E2E2E2E2E2E2E2E2E2E2E2E2E2E2E2E2E2E2E2E2E2E2E2E2E2E2E2E2E2E2E2E2E2E2E2E2E2E2E2E2E2E2E2E2E2E2E2E2E2E2E2E2E2E2E2E2E2E2E2E2E2E2E2E2E2E2E2E2E2E2E2E2E2E2E2E2E2E2E2E2E2E2E2F0F0F0F0F0F0F0DCDCDCDCE2DCDCDCDCE2E2
310
DCDCDCF0E2E2E2E2E2E2E2E2E2E2E2E2E2E2E2E2E2E2E2E2E2E2E2E2E2E2E2E2E2E2E2E2E2E2E2E2E2E2E2E2E2E2E2E2E2E2E2E2E2E2E2E2E2E2E2E2E2E2E2E2E2E2E2E2E2E2E2E2E2E2E2E2E2E2E2E2E2E2E2E2E2E2E2E2E2E2E2E2E2E2E2E2E2E2E2E2E2E2E2E2E2F5F5F5F5F5F5F5F5F5E2E2F5F5F5E2E2E2E2E2E2E2E2
310
E2E2E2E2E2E2E2E2E2E2E2E2E2E2E2E2E2E2E2E2E2E2E2E2E2E2E2E2E2E2E2E2E2E2E2E2E2E2E2E2E2E2E2E2E2E2E2E2E2E2E2E2E2E2E2E2E2E2E2E2E2E2E2E2E2E2E2E2E2E2E2E2E2E2E2E2E2E2E2E2E2E2E2E2E2E2E2E2E2E2E2E2E2E2E2E2E2E2E2E2E2E2E2E2E2E2E2E2E2E2E2E2E2E2E2E2E2E2F0F0DCF0E2E2E2C3E2
310
E2E2E2DCE2E2F0F0E2E2E2E2E2E2E2E2E2E2E2E2E2E2E2E2E2E2E2E2E2E2E2E2E2E2E2E2E2E2E2E2E2E2E2E2E2E2E2E2E2E2E2E2E2E2E2E2E2E2E2E2E2E2E2E2E2E2E2E2E2E2E2E2E2E2E2E2E2E2E2E2E2E2E2E2E2E2E2E2E2E2E2E2E2E2E2E2E2E2E2E2E2E2E2E2E2E2E2F5F5F5F5F5F5F5F5F5E2E2F5F5F5E2E2E2E2E2E2
310
E2E2E2E2E2E2E2E2E2E2E2E2E2E2E2E2E2E2E2E2E2E2E2E2E2E2E2E2E2E2E2E2E2E2E2E2E2E2E2E2E2E2E2E2E2E2E2E2E2E2E2E2E2E2E2E2E2E2E2E2E2E2E2E2E2E2E2E2E2E2E2E2E2E2E2E2E2E2E2E2E2E2E2E2E2E2E2E2E2E2E2E2E2E2E2E2E2E2E2E2E2E2E2E2E2E2E2E2E2E2E2E2E2E2E2E2E2E2E2E2F0F0DCF0E2E2E2
310
C3E2E2E2E2DCE2E2E2E2F0F0F0F0F0F0E2E2E2E2E2E2E2E2E2E2E2E2E2E2E2E2E2E2E2E2E2E2E2E2E2E2E2E2E2E2E2E2E2E2E2E2E2E2E2E2E2E2E2E2E2E2E2E2E2E2E2E2E2E2E2E2E2E2E2E2E2E2E2E2E2E2E2E2E2E2E2E2E2E2E2E2E2E2E2E2E2E2E2E2E2E2E2E2E2E2E2E2E2E2E2E2E2E2E2E2E2E2E2E2E2E2E2E2E2E2E2
310
E2E2E2E2E2E2E2E2E2E2E2E2E2E2E2E2E2E2E2E2E2E2E2E2E2E2E2E2E2E2E2E2E2E2E2E2E2E2E2E2E2E2E2E2E2E2E2E2E2E2E2E2E2E2E2E2E2E2E2E2E2E2E2E2E2E2E2E2E2E2E2E2E2E2E2E2E2E2E2E2E2E2E2E2E2E2E2E2E2E2E2E2E2E2E2E2E2E2E2E2E2E2E2E2E2E2E2E2E2E2E2E2E2E2E2E2E2E2E2E2E2E2F0F0DCF0E2
310
E2E2E2E2E2E2E2DCE2E2E2E2E2F0F0F0F0E2E2E2E2E2E2E2E2E2E2E2E2E2E2E2E2E2E2E2E2E2E2E2E2E2E2E2E2E2E2E2E2E2E2E2E2E2E2E2E2E2E2E2E2E2E2E2E2E2E2E2E2E2E2E2E2E2E2E2E2E2E2E2E2E2E2E2E2E2E2E2E2E2E2E2E2E2E2E2E2E2E2E2E2E2E2E2E2E2E2E2E2E2E2E2E2E2E2E2E2E2E2E2E2E2E2E2E2E2E2
310
E2E2E2E2E2E2E2E2E2E2E2E2E2E2E2E2E2E2E2E2E2E2E2E2E2E2E2E2E2E2E2E2E2E2E2E2E2E2E2E2E2E2E2E2E2E2E2E2E2E2E2E2E2E2E2E2E2E2E2E2E2E2E2E2E2E2E2E2E2E2E2E2E2E2E2E2E2E2E2E2E2E2E2E2E2E2E2E2E2E2E2E2E2E2E2E2E2E2E2E2E2E2E2E2E2E2E2E2E2E2E2E2E2E2E2E2E2E2E2E2E2E2E2E2F0F0F0
310
F0E2E2E2E2E2E2E2E2E2E2E2E2E2E2F0E2F0F0E2E2E2E2E2E2E2E2E2E2E2E2E2E2E2E2E2E2E2E2E2E2E2E2E2E2E2E2E2E2E2E2E2E2E2E2E2E2E2E2E2E2E2E2E2E2E2E2E2E2E2E2E2E2E2E2E2E2E2E2E2E2E2E2E2E2E2E2E2E2E2E2E2E2E2E2E2E2E2E2E2E2E2E2E2E2E2E2E2E2E2E2E2E2E2E2E2E2E2E2E2E2E2E2E2E2E2E2
310
E2E2E2E2E2E2E2E2E2E2E2E2E2E2E2E2E2E2E2E2E2E2E2E2E2E2E2E2E2E2E2E2E2E2E2E2E2E2E2E2E2E2E2E2E2E2E2E2E2E2E2E2E2E2E2E2E2E2E2E2E2E2E2E2E2E2E2E2E2E2E2E2E2E2E2E2E2E2E2E2E2E2E2E2E2E2E2E2E2E2E2E2E2E2E2E2E2E2E2E2E2E2E2E2E2E2E2E2E2E2E2E2E2E2E2E2E2E2E2E2E2E2E2E2E2E2F0
310
E2E2F0E2E2E2E2E2E2E2E2E2E2E2E2E2E2E2E2E2E2E2E2E2E2E2E2E2E2E2E2E2E2E2E2E2E2E2E2E2E2E2E2E2E2E2E2E2E2E2E2E2E2E2E2E2E2E2E2E2E2E2E2E2E2E2E2E2E2E2E2E2E2E2E2E2E2E2E2E2E2E2E2E2E2E2E2E2E2E2E2E2E2E2E2E2E2E2E2E2E2E2E2E2E2E2E2E2E2E2E2E2E2E2E2E2E2E2E2E2E2E2E2E2E2E2E2
310
E2E2E2E2E2E2E2E2E2E2E2E2E2E2E2E2E2E2E2E2E2E2E2E2E2E2E2E2E2E2E2E2E2E2E2E2E2E2E2E2E2E2E2E2E2E2E2E2E2E2E2E2E2E2E2E2E2E2E2E2E2E2E2E2E2E2E2E2E2E2E2E2E2E2E2E2E2E2E2E2E2E2E2E2E2E2E2E2E2E2E2E2E2E2E2E2E2E2E2E2E2E2E2E2E2E2E2E2E2E2E2E2E2E2E2E2E2E2E2E2E2E2E2E2E2E2E2
310
E2F0F0F0F0E2E2E2E2E2E2E2E2E2E2E2E2E2E2E2E2E2E2E2E2E2E2E2E2E2E2E2E2E2E2E2E2E2E2E2E2E2E2E2E2E2E2E2E2E2E2E2E2E2E2E2E2E2E2E2E2E2E2E2E2E2E2E2E2E2E2E2E2E2E2E2E2E2E2E2E2E2E2E2E2E2E2E2E2E2E2E2E2E2E2E2E2E2E2E2E2E2E2E2E2E2E2E2E2E2E2E2E2E2E2E2E2E2E2E2E2E2E2E2E2E2E2
310
E2E2E2E2E2E2E2E2E2E2E2E2E2E2E2E2E2E2E2E2E2E2E2E2E2E2E2E2E2E2E2E2E2E2E2E2E2E2E2E2E2E2E2E2E2E2E2E2E2E2E2E2E2E2E2E2E2E2E2E2E2E2E2E2E2E2E2E2E2E2E2E2E2E2E2E2E2E2E2E2E2E2E2E2E2E2E2E2E2E2E2E2E2E2E2E2E2E2E2E2E2E2E2E2E2E2E2E2E2E2E2E2E2E2E2E2E2E2E2E2E2E2E2E2E2E2E2
310
E2E2E2E2F0F0E2E2E2E2E2E2E2E2E2E2E2E2E2E2E2E2E2E2E2E2E2E2E2E2E2E2E2E2E2E2E2E2E2E2E2E2E2E2E2E2E2E2E2E2E2E2E2E2E2E2E2E2E2E2E2E2E2E2E2E2E2E2E2E2E2E2E2E2E2E2E2E2E2E2E2E2E2E2E2E2E2E2E2E2E2E2E2E2E2E2E2E2E2E2E2E2E2E2E2E2E2E2E2E2E2E2E2E2E2E2E2E2E2E2E2E2E2E2E2E2E2
310
E2E2E2E2E2E2E2E2E2E2E2E2E2E2E2E2E2E2E2E2E2E2E2E2E2E2E2E2E2E2E2E2E2E2E2E2E2E2E2E2E2E2E2E2E2E2E2E2E2E2E2E2E2E2E2E2E2E2E2E2E2E2E2E2E2E2E2E2E2E2E2E2E2E2E2E2E2E2E2E2E2E2E2E2E2E2E2E2E2E2E2E2E2E2E2E2E2E2E2E2E2E2E2E2E2E2E2E2E2E2E2E2E2E2E2E2E2E2E2E2E2E2E2E2E2E2E2
310
E2E2E2E2E2E2E2E2E2E2E2E2E2E2E2E2E2E2E2E2E2E2E2E2E2E2E2E2E2E2E2E2E2E2E2E2E2E2E2E2E2E2E2E2E2E2E2E2E2E2E2E2E2E2E2E2E2E2E2E2E2E2E2E2E2E2E2E2E2E2E2E2E2E2E2E2E2E2E2E2E2E2E2E2E2E2E2E2E2E2E2E2E2E2E2E2E2E2E2E2E2E2E2E2E2E2E2E2E2E2E2E2E2E2E2E2E2E2E2E2E2E2E2E2E2E2E2
310
E2E2E2E2E2E2E2E2E2E2E2E2E2E2E2E2E2E2E2E2E2E2E2E2E2E2E2E2E2E2E2E2E2E2E2E2E2E2E2E2E2E2E2E2E2E2E2E2E2E2E2E2E2E2E2E2E2E2E2E2E2E2E2E2E2E2E2E2E2E2E2E2E2E2E2E2E2E2E2E2E2E2E2E2E2E2E2E2E2E2E2E2E2E2E2E2E2E2E2E2E2E2E2E2E2E2E2E2E2E2E2E2E2E2E2E2E2E2E2E2E2E2E2E2E2E2E2
310
E2E2E2E2E2E2E2E2E2E2E2E2E2E2E2E2E2E2E2E2E2E2E2E2E2E2E2E2E2E2E2E2E2E2E2E2E2E2E2E2E2E2E2E2E2E2E2E2E2E2E2E2E2E2E2E2E2E2E2E2E2E2E2E2E2E2E2E2E2E2E2E2E2E2E2E2E2E2E2E2E2E2E2E2E2E2E2E2E2E2E2E2E2E2E2E2E2E2E2E2E2E2E2E2E2E2E2E2E2E2E2E2E2E2E2E2E2E2E2E2E2E2E2E2E2E2E2
310
E2E2E2E2E2E2E2E2E2E2E2E2E2E2E2E2E2E2E2E2E2E2E2E2E2E2E2E2E2E2E2E2E2E2E2E2E2E2E2E2E2E2E2E2E2E2E2E2E2E2E2E2E2E2E2E2E2E2E2E2E2E2E2E2E2E2E2E2E2E2E2E2E2E2E2E2E2E2E2E2E2E2E2E2E2E2E2E2E2E2E2E2E2E2E2E2E2E2E2E2E2E2E2E2E2E2E2E2E2E2E2E2E2E2E2E2E2E2E2E2E2E2E2E2E2E2E2
310
E2E2E2E2E2E2E2E2E2E2E2E2E2E2E2E2E2E2E2E2E2E2E2E2E2E2E2E2E2E2E2E2E2E2E2E2E2E2E2E2E2E2E2E2E2E2E2E2E2E2E2E2E2E2E2E2E2E2E2E2E2E2E2E2E2E2E2E2E2E2E2E2E2E2E2E2E2E2E2E2E2E2E2E2E2E2E2E2E2E2E2E2E2E2E2E2E2E2E2E2E2E2E2E2E2E2E2E2E2E2E2E2E2E2E2E2E2E2E2E2E2E2E2E2E2E2E2
310
E2E2E2E2E2E2E2E2E2E2E2E2E2E2E2E2E2E2E2E2E2E2E2E2E2E2E2E2E2E2E2E2E2E2E2E2E2E2E2E2E2E2E2E2E2E2E2E2E2E2E2E2E2E2E2E2E2E2E2E2E2E2E2E2E2E2E2E2E2E2E2E2E2E2E2E2E2E2E2E2E2E2E2E2E2E2E2E2E2E2E2E2E2E2E2E2E2E2E2E2E2E2E2E2E2E2E2E2E2E2E2E2E2E2E2E2E2E2E2E2E2E2E2E2E2E2E2
310
E2E2E2E2E2E2E2E2E2E2E2E2E2E2E2E2E2E2E2E2E2E2E2E2E2E2E2E2E2E2E2E2E2E2E2E2E2E2E2E2E2E2E2E2E2E2E2E2E2E2E2E2E2E2E2E2E2E2E2E2E2E2E2E2E2E2E2E2E2E2E2E2E2E2E2E2E2E2E2E2E2E2E2E2E2E2E2E2E2E2E2E2E2E2E2E2E2E2E2E2E2E2E2E2E2E2E2E2E2E2E2E2E2E2E2E2E2E2E2E2E2E2E2E2E2E2E2
310
E2E2E2E2E2E2E2E2E2E2E2E2E2E2E2E2E2E2E2E2E2E2E2E2E2E2E2E2E2E2E2E2E2E2E2E2E2E2E2E2E2E2E2E2E2E2E2E2E2E2E2E2E2E2E2E2E2E2E2E2E2E2E2E2E2E2E2E2E2E2E2E2E2E2E2E2E2E2E2E2E2E2E2E2E2E2E2E2E2E2E2E2E2E2E2E2E2E2E2E2E2E2E2E2E2E2E2E2E2E2E2E2E2E2E2E2E2E2E2E2E2E2E2E2E2E2E2
310
E2E2E2E2E2E2E2E2E2E2E2E2E2E2E2E2E2E2E2E2E2E2E2E2E2E2E2E2E2E2E2E2E2E2E2E2E2E2E2E2E2E2E2E2E2E2E2E2E2E2E2E2E2E2E2E2E2E2E2E2E2E2E2E2E2E2E2E2E2E2E2E2E2E2E2E2E2E2E2E2E2E2E2E2E2E2E2E2E2E2E2E2E2E2E2E2E2E2E2E2E2E2E2E2E2E2E2E2E2E2E2E2E2E2E2E2E2E2E2E2E2E2E2E2E2E2E2
310
E2E2E2E2E2E2E2E2E2E2E2E2E2E2E2E2E2E2E2E2E2E2E2E2E2E2E2E2E2E2E2E2E2E2E2E2E2E2E2E2E2E2E2E2E2E2E2E2E2E2E2E2E2E2E2E2E2E2E2E2E2E2E2E2E2E2E2E2E2E2E2E2E2E2E2E2E2E2E2E2E2E2E2E2E2E2E2E2E2E2E2E2E2E2E2E2E2E2E2E2E2E2E2E2E2E2E2E2E2E2E2E2E2E2E2E2E2E2E2E2E2E2E2E2E2E2E2
310
E2E2E2E2E2E2E2E2E2E2E2E2E2E2E2E2E2E2E2E2E2E2E2E2E2E2E2E2E2E2E2E2E2E2E2E2E2E2E2E2E2E2E2E2E2E2E2E2E2E2E2E2E2E2E2E2E2E2E2E2E2E2E2E2E2E2E2E2E2E2E2E2E2E2E2E2E2E2E2E2E2E2E2E2E2E2E2E2E2E2E2E2E2E2E2E2E2E2E2E2E2E2E2E2E2E2E2E2E2E2E2E2E2E2E2E2E2E2E2E2E2E2E2E2E2E2E2
310
E2E2E2E2E2E2E2E2E2E2E2E2E2E2E2E2E2E2E2E2E2E2E2E2E2E2E2E2E2E2E2E2E2E2E2E2E2E2E2E2E2E2E2E2E2E2E2E2E2E2E2E2E2E2E2E2E2E2E2E2E2E2E2E2E2E2E2E2E2E2E2E2E2E2E2E2E2E2E2E2E2E2E2E2E2E2E2E2E2E2E2E2E2E2E2E2E2E2E2E2E2E2E2E2E2E2E2E2E2E2E2E2E2E2E2E2E2E2E2E2E2E2E2E2E2E2E2
310
E2E2E2E2E2E2E2E2E2E2E2E2E2E2E2E2E2E2E2E2E2E2E2E2E2E2E2E2E2E2E2E2E2E2E2E2E2E2E2E2E2E2E2E2E2E2E2E2E2E2E2E2E2E2E2E2E2E2E2E2E2E2E2E2E2E2E2E2E2E2E2E2E2E2E2E2E2E2E2E2E2E2E2E2E2E2E2E2E2E2E2E2E2E2E2E2E2E2E2E2E2E2E2E2E2E2E2E2E2E2E2E2E2E2E2E2E2E2E2E2E2E2E2E2E2E2E2
310
E2E2E2E2E2E2E2E2E2E2E2E2E2E2E2E2E2E2E2E2E2E2E2E2E2E2E2E2E2E2E2E2E2E2E2E2E2E2E2E2E2E2E2E2E2E2E2E2E2E2E2E2E2E2E2E2E2E2E2E2E2E2E2E2E2E2E2E2E2E2E2E2E2E2E2E2E2E2E2E2E2E2E2E2E2E2E2E2E2E2E2E2E2E2E2E2E2E2E2E2E2E2E2E2E2E2E2E2E2E2E2E2E2E2E2E2E2E2E2E2E2E2E2E2E2E2E2
310
E2E2E2E2E2E2E2E2E2E2E2E2E2E2E2E2E2E2E2E2E2E2E2E2E2E2E2E2E2E2E2E2E2E2E2E2E2E2E2E2E2E2E2E2E2E2E2E2E2E2E2E2E2E2E2E2E2E2E2E2E2E2E2E2E2E2E2E2E2E2E2E2E2E2E2E2E2E2E2E2E2E2E2E2E2E2E2E2E2E2E2E2E2E2E2E2E2E2E2E2E2E2E2E2E2E2E2E2E2E2E2E2E2E2E2E2E2E2E2E2E2E2E2E2E2E2E2
310
E2E2E2E2E2E2E2E2E2E2E2E2E2E2E2E2E2E2E2E2E2E2E2E2E2E2E2E2E2E2E2E2E2E2E2E2E2E2E2E2E2E2E2E2E2E2E2E2E2E2E2E2E2E2E2E2E2E2E2E2E2E2E2E2E2E2E2E2E2E2E2E2E2E2E2E2E2E2E2E2E2E2E2E2E2E2E2E2E2E2E2E2E2E2E2E2E2E2E2E2E2E2E2E2E2E2E2E2E2E2E2E2E2E2E2E2E2E2E2E2E2E2E2E2E2E2E2
310
E2E2E2E2E2E2E2E2E2E2E2E2E2E2E2E2E2E2E2E2E2E2E2E2E2E2E2E2E2E2E2E2E2E2E2E2E2E2E2E2E2E2E2E2E2E2E2E2E2E2E2E2E2E2E2E2E2E2E2E2E2E2E2E2E2E2E2E2E2E2E2E2E2E2E2E2E2E2E2E2E2E2E2E2E2E2E2E2E2E2E2E2E2E2E2E2E2E2E2E2E2E2E2E2E2E2E2E2E2E2E2E2E2E2E2E2E2E2E2E2E2E2E2E2E2E2E2
310
E2E2E2E2E2E2E2E2E2E2E2E2E2E2E2E2E2E2E2E2E2E2E2E2E2E2E2E2E2E2E2E2E2E2E2E2E2E2E2E2E2E2E2E2E2E2E2E2E2E2E2E2E2E2E2E2E2E2E2E2E2E2E2E2E2E2E2E2E2E2E2E2E2E2E2E2E2E2E2E2E2E2E2E2E2E2E2E2E2E2E2E2E2E2E2E2E2E2E2E2E2E2E2E2E2E2E2E2E2E2E2E2E2E2E2E2E2E2E2E2E2E2E2E2E2E2E2
310
E2E2E2E2E2E2E2E2E2E2E2E2E2E2E2E2E2E2E2E2E2E2E2E2E2E2E2E2E2E2E2E2E2E2E2E2E2E2E2E2E2E2E2E2E2E2E2E2E2E2E2E2E2E2E2E2E2E2E2E2E2E2E2E2E2E2E2E2E2E2E2E2E2E2E2E2E2E2E2E2E2E2E2E2E2E2E2E2E2E2E2E2E2E2E2E2E2E2E2E2E2E2E2E2E2E2E2E2E2E2E2E2E2E2E2E2E2E2E2E2E2E2E2E2E2E2E2
310
E2E2E2E2E2E2E2E2E2E2E2E2E2E2E2E2E2E2E2E2E2E2E2E2E2E2E2E2E2E2E2E2E2E2E2E2E2E2E2E2E2E2E2E2E2E2E2E2E2E2E2E2E2E2E2E2E2E2E2E2E2E2E2E2E2E2E2E2E2E2E2E2E2E2E2E2E2E2E2E2E2E2E2E2E2E2E2E2E2E2E2E2E2E2E2E2E2E2E2E2E2E2E2E2E2E2E2E2E2E2E2E2E2E2E2E2E2E2E2E2E2E2E2E2E2E2E2
310
E2E2E2E2E2E2E2E2E2E2E2E2E2E2E2E2E2E2E2E2E2E2E2E2E2E2E2E2E2E2E2E2E2E2E2E2E2E2E2E2E2E2E2E2E2E2E2E2E2E2E2E2E2E2E2E2E2E2E2E2E2E2E2E2E2E2E2E2E2E2E2E2E2E2E2E2E2E2E2E2E2E2E2E2E2E2E2E2E2E2E2E2E2E2E2E2E2E2E2E2E2E2E2E2E2E2E2E2E2E2E2E2E2E2E2E2E2E2E2E2E2E2E2E2E2E2E2
310
E2E2E2E2E2E2E2E2E2E2E2E2E2E2E2E2E2E2E2E2E2E2E2E2E2E2E2E2E2E2E2E2E2E2E2E2E2E2E2E2E2E2E2E2E2E2E2E2E2E2E2E2E2E2E2E2E2E2E2E2E2E2E2E2E2E2E2E2E2E2E2E2E2E2E2E2E2E2E2E2E2E2E2E2E2E2E2E2E2E2E2E2E2E2E2E2E2E2E2E2E2E2E2E2E2E2E2E2E2E2E2E2E2E2E2E2E2E2E2E2E2E2E2E2E2E2E2
310
E2E2E2E2E2E2E2E2E2E2E2E2E2E2E2E2E2E2E2E2E2E2E2E2E2E2E2E2E2E2E2E2E2E2E2E2E2E2E2E2E2E2E2E2E2E2E2E2E2E2E2E2E2E2E2E2E2E2E2E2E2E2E2E2E2E2E2E2E2E2E2E2E2E2E2E2E2E2E2E2E2E2E2E2E2E2E2E2E2E2E2E2E2E2E2E2E2E2E2E2E2E2E2E2E2E2E2E2E2E2E2E2E2E2E2E2E2E2E2E2E2E2E2E2E2E2E2
310
E2E2E2E2E2E2E2E2E2E2E2E2E2E2E2E2E2E2E2E2E2E2E2E2E2E2E2E2E2E2E2E2E2E2E2E2E2E2E2E2E2E2E2E2E2E2E2E2E2E2E2E2E2E2E2E2E2E2E2E2E2E2E2E2E2E2E2E2E2E2
  0
XRECORD
  5
BFEC
102
{ACAD_REACTORS
330
BFCB
102
}
330
BFCB
100
AcDbXrecord
280
     1
102
SHADEPLOT
 70
     0
102
SHADEPLOTRESLEVEL
 70
     2
102
SHADEPLOTCUSTOMDPI
 70
   300
  0
XRECORD
  5
BFCC
102
{ACAD_REACTORS
330
BFCB
102
}
330
BFCB
100
AcDbXrecord
280
     1
310
28000000630000008C0000000100080000000000B0360000000000000000000000010000000000000000000000000000FFFFFF000000000000000000000000000000000000000000000000000000000000000000330000006600000099000000CC000000FF00000000330000333300006633000099330000CC330000FF3300
310
0000660000336600006666000099660000CC660000FF66000000990000339900006699000099990000CC990000FF99000000CC000033CC000066CC000099CC0000CCCC0000FFCC000000FF000033FF000066FF000099FF0000CCFF0000FFFF000000003300330033006600330099003300CC003300FF003300003333003333
310
33006633330099333300CC333300FF33330000663300336633006666330099663300CC663300FF66330000993300339933006699330099993300CC993300FF99330000CC330033CC330066CC330099CC3300CCCC3300FFCC330000FF330033FF330066FF330099FF3300CCFF3300FFFF330000006600330066006600660099
310
006600CC006600FF00660000336600333366006633660099336600CC336600FF33660000666600336666006666660099666600CC666600FF66660000996600339966006699660099996600CC996600FF99660000CC660033CC660066CC660099CC6600CCCC6600FFCC660000FF660033FF660066FF660099FF6600CCFF6600
310
FFFF660000009900330099006600990099009900CC009900FF00990000339900333399006633990099339900CC339900FF33990000669900336699006666990099669900CC669900FF66990000999900339999006699990099999900CC999900FF99990000CC990033CC990066CC990099CC9900CCCC9900FFCC990000FF99
310
0033FF990066FF990099FF9900CCFF9900FFFF99000000CC003300CC006600CC009900CC00CC00CC00FF00CC000033CC003333CC006633CC009933CC00CC33CC00FF33CC000066CC003366CC006666CC009966CC00CC66CC00FF66CC000099CC003399CC006699CC009999CC00CC99CC00FF99CC0000CCCC0033CCCC0066CC
310
CC0099CCCC00CCCCCC00FFCCCC0000FFCC0033FFCC0066FFCC0099FFCC00CCFFCC00FFFFCC000000FF003300FF006600FF009900FF00CC00FF00FF00FF000033FF003333FF006633FF009933FF00CC33FF00FF33FF000066FF003366FF006666FF009966FF00CC66FF00FF66FF000099FF003399FF006699FF009999FF00CC
310
99FF00FF99FF0000CCFF0033CCFF0066CCFF0099CCFF00CCCCFF00FFCCFF0000FFFF0033FFFF0066FFFF0099FFFF00CCFFFF00FFFFFF00000000000D0D0D001A1A1A00282828003535350043434300505050005D5D5D006B6B6B00787878008686860093939300A1A1A100AEAEAE00BBBBBB00C9C9C900D6D6D600E4E4E400
310
F1F1F100FFFFFF0000000000000000000000000000000000000000000000000000000000000000000000000000000000F5F5F5F5F5F5F5F5F5F5F5F5F5F5F5F5F5F5F5F5F5F5F5F5F5F5F5F5F5F5F5F5F5F5F5F5F5F5F5F5F5F5F5F5F5F5F5F5F5F5F5F5F5F5F5F5F5F5F5F5F5F5F5F5F5F5F5F5F5F5F5F5F5F5F5F5F5F5F5
310
F5F5F5F5F5F5F5F5F5F5F5F5F5F5F5F5F5F5F5F539F5E2E2E2E2E2E2E2E2E2E2E2E2E2E2E2E2E2E2E2E2E2E2E2E2E2E2E2E2E2E2E2E2E2E2E2E2E2E2E2E2E2E2E2E2E2E2E2E2E2E2E2E2E2E2E2E2E2E2E2E2E2E2E2E2E2E2E2E2E2E2E2E2E2E2E2E2E2E2E2E2E2E2E2E2E2E2E2E2E2E2E2E2E2E2E2E2E2E245F5E2E2E2E2E2
310
E2E2E2E2E2E2E2E2E2E2E2E2E2E2E2E2E2E2E2E2E2E2E2E2E2E2E2E2E2E2E2E2E2E2E2E2E2E2E2E2E2E2E2E2E2E2E2E2E2E2E2E2E2E2E2E2E2E2E2E2E2E2E2E2E2E2E2E2E2E2E2E2E2E2E2E2E2E2E2E2E2E2E2E2E2E2E2E2E2E2E2E2E23AF5E2E2F5F5F5F5F5F5F5F5E2E2E2E2E2E2E2E2F5F5F5F5F5F5F5F5F5F5F5F5F5F5
310
F5E2E2E2E2E2E2E2E2E2F5F5F5F5F5F5F5F5F5F5F5F5F5F5E2E2E2E2E2E2E2E2E2F5F5F5F5F5F5F5F5F5F5F5F5F5F5F5E2E2E2E2E2E2E2E2F5F5F5F5F5F5F5F5E2E245F5E2E2F5E2E2E2E2E2E2E2E2E2E2E2E2E2E2E2E2E2E2E2E2E2E2E2E2E2E2E2E2E2E2E2E2E2E2E2E2E2E2E2E2E2E2E2E2E2E2E2E2E2E2E2E2E2E2E2E2
310
E2E2E2E2E2E2E2E2E2E2E2E2E2E2E2E2E2E2E2E2E2E2E2E2E2E2E2E2E2E2E2E2E2E2E2E2F5E2E23BF5E2E2F5E2E2E2E2E2E2E2E2E2E2E2E2E2E2E2E2E2E2E2E2E2E2E2E2E2E2E2E2E2E2E2E2E2E2E2E2E2E2E2E2E2E2E2E2E2E2E2E2E2E2E2E2E2E2E2E2E2E2E2E2E2E2E2E2E2E2E2E2E2E2E2E2E2E2E2E2E2E2E2E2E2E2E2
310
E2E2E2E2E2E2E2E2E2F5E2E245F5E2E2F5E2E2E2E2E2E2E2E2E2E2E2E2E2E2E2E2E2E2E2E2E2E2E2E2E2E2E2E2E2E2E2E2E2E2E2E2E2E2E2E2E2E2E2E2E2E2E2E2E2E2E2E2E2E2E2E2E2E2E2E2E2E2E2E2E2E2E2E2E2E2E2E2E2E2E2E2E2E2E2E2E2E2E2E2E2E2E2E2E2E2E2E2F5E2E23CF5E2E2F5E2E2E2E2E2E2E2E2E2E2
310
E2E2E2E2E2E2E2E2E2E2E2E2E2E2E2E2E2E2E2E2E2E2E2E2E2E2E2E2E2E2E2E2E2E2E2E2E2E2E2E2E2E2E2E2E2E2E2E2E2E2E2E2E2E2E2E2E2E2E2E2E2E2E2E2E2E2E2E2E2E2E2E2E2E2E2E2E2E2E2E2E2E2F5E2E245F5E2E2F5E2E2E2E2E2E2E2E2E2E2E2E2E2E2E2E2E2E2E2E2E2E2E2E2E2E2E2E2E2E2E2E2E2E2E2E2E2
310
E2E2E2E2E2E2E2E2E2E2E2E2E2E2E2E2E2E2E2E2E2E2E2E2E2E2E2E2E2E2E2E2E2E2E2E2E2E2E2E2E2E2E2E2E2E2E2E2E2E2E2E2E2E2E2F5E2E23DF5E2E2F5E2E2E2E2E2E2E2E2E2E2E2E2E2E2E2E2E2E2E2E2E2E2E2E2E2E2E2E2E2E2E2E2E2E2E2E2E2E2E2E2E2E2E2E2E2E2E2E2E2E2E2E2E2E2E2E2E2E2E2E2E2E2E2E2
310
E2E2E2E2E2E2E2E2E2E2E2E2E2E2E2E2E2E2E2E2E2E2E2E2E2E2E2E2F5E2E245F5E2E2F5E2E2E2E2E2E2E2E2E2E2E2E2E2E2E2E2E2E2E2E2E2E2E2E2E2E2E2E2E2E2E2E2E2E2E2E2E2E2E2E2E2E2E2E2E2E2E2E2E2E2E2E2E2E2E2E2E2E2E2E2E2E2E2E2E2E2E2E2E2E2E2E2E2E2E2E2E2E2E2E2E2E2E2E2E2E2E2E2E2E2E2
310
E2F5E2E23EF5E2E2F5E2E2E2E2E2E2E2E2E2E2E2E2E2E2E2E2E2E2E2E2E2E2E2E2E2E2E2E2E2E2E2E2E2E2E2E2E2E2E2E2E2E2E2E2E2E2E2E2E2E2E2E2E2E2E2E2E2E2E2E2E2E2E2E2E2E2E2E2E2E2E2E2E2E2E2E2E2E2E2E2E2E2E2E2E2E2E2E2E2E2E2E2F5E2E245F5E2E2E2E2E2E2E2E2E2E2E2E2E2E2E2E2E2E2E2E2E2
310
E2E2E2E2E2E2E2E2E2E2E2E2E2E2E2E2E2E2E2E2E2E2E2E2E2E2E2E2E2E2E2E2E2E2E2E2E2E2E2E2E2E2E2E2E2E2E2E2E2E2E2E2E2E2E2E2E2E2E2E2E2E2E2E2E2E2E2E2E2E2E2E2E2E2E2E2E23FF5E2E2E2E2E2E2E2E2E2E2E2E2E2E2E2E2E2E2E2E2E2E2E2E2E2E2E2E2E2E2E2E2E2E2E2E2E2E2E2E2E2E2E2E2E2E2E2E2
310
E2E2E2E2E2E2E2E2E2E2E2E2E2E2E2E2E2E2E2E2E2E2E2E2E2E2E2E2E2E2E2E2E2E2E2E2E2E2E2E2E2E2E2E2E2E2E2E2E2E245F5E2E2E2E2E2E2E2E2E2E2E2E2E2E2E2E2E2E2E2E2E2E2E2E2E2E2E2E2E2E2E2E2E2E2E2E2E2E2E2E2E2E2E2E2E2E2E2E2E2E2E2E2E2E2E2E2E2E2E2E2E2E2E2E2E2E2E2E2E2E2E2E2E2E2E2
310
E2E2E2E2E2E2E2E2E2E2E2E2E2E2E2E2E2E2E2E2E2E2E240F5E2E2E2E2E2E2E2E2E2E2E2E2E2E2E2E2E2E2E2E2E2E2E2E2E2E2E2E2E2E2E2E2E2E2E2E2E2E2E2E2E2E2E2E2E2E2E2E2E2E2E2E2E2E2E2E2E2E2E2E2E2E2E2E2E2E2E2E2E2E2E2E2E2E2E2E2E2E2E2E2E2E2E2E2E2E2E2E2E2E2E2E2E2E2E2E2E2E245F5E2E2
310
E2E2E2E2E2E2E2E2E2E2E2E2E2E2E2E2E2E2E2E2E2E2E2E2E2E2E2E2E2E2E2E2E2E2E2E2E2E2E2E2E2E2E2E2E2E2E2E2E2E2E2E2E2E2E2E2E2E2E2E2E2E2E2E2E2E2E2E2E2E2E2E2E2E2E2E2E2E2E2E2E2E2E2E2E2E2E2E2E2E2E2E2E2E2E2E241F5E2E2E2E2E2E2E2E2E2E2E2E2E2E2E2E2E2E2E2E2E2E2E2E2E2E2E2E2E2
310
E2E2E2E2E2E2E2E2E2E2E2E2E2E2E2E2E2E2E2E2E2E2E2E2E2E2E2E2E2E2E2E2E2E2E2E2E2E2E2E2E2E2E2E2E2E2E2E2E2E2E2E2E2E2E2E2E2E2E2E2E2E2E2E2E2E2E2E2E200F5E2E2E2E2E2E2E2E2E2E2E2E2E2E2E2E2E2E2E2E2E2E2E2E2E2E2E2E2E2E2E2E2E2E2E2E2E2E2E2E2E2E2E2E2E2E2E2E2E2E2E2E2E2E2E2E2
310
E2E2E2E2E2E2E2E2E2E2E2E2E2E2E2E2E2E2E2E2E2E2E2E2E2E2E2E2E2E2E2E2E2E2E2E2E2E2E2E2E2E200F5E2E2E2E2E2E2E2E2E2E2E2E2E2E2E2E2E2E2E2E2E2E2E2E2E2E2E2E2E2E2E2E2E2E2E2E2E2E2E2E2E2E2E2E2E2E2E2E2E2E2E2E2E2E2E2E2E2E2E2E2E2E2E2E2E2E2E2E2E2E2E2E2E2E2E2E2E2E2E2E2E2E2E2
310
E2E2E2E2E2E2E2E2E2E2E2E2E2E2E200F5E2E2E2E2E2E2E2E2E2E2E2E2E2E2E2E2E2E2E2E2E2E2E2E2E2E2E2E2E2E2E2E2E2E2E2E2E2E2E2E2E2E2E2E2E2E2E2E2E2E2E2E2E2E2E2E2E2E2E2E2E2E2E2E2E2E2E2E2E2E2E2E2E2E2E2E2E2E2E2E2E2E2E2E2E2E2E2E2E2E2E2E2E2E2E2E2E2E200F5E2E2E2E2E2E2E2E2E2E2
310
E2E2E2E2E2E2E2E2E2E2E2E2E2E2E2E2E2E2E2E2E2E2E2E2E2E2E2E2E2E2E2E2E2E2E2E2E2E2E2E2E2E2E2E2E2E2E2E2E2E2E2E2E2E2E2E2E2E2E2E2E2E2E2E2E2E2E2E2E2E2E2E2E2E2E2E2E2E2E2E2E2E2E2E2E2E2E2E200F5E2E2F5E2E2E2E2E2E2E2E2E2E2E2E2E2E2E2E2E2E2E2E2E2E2E2E2E2E2E2E2E2E2E2E2E2E2
310
E2E2E2E2E2E2E2E2E2E2E2E2E2E2E2E2E2E2E2E2E2E2E2E2E2E2E2E2E2E2E2E2E2E2E2E2E2E2E2E2E2E2E2E2E2E2E2E2E2E2E2E2E2E2E2E2E2E2F5E2E200F5E2E2F5E2E2E2E2E2E2E2E2E2E2E2E2E2E2E2E2E2E2E2E2E2E2E2E2E2E2E2E2E2E2E2E2E2E2E2E2E2E2E2E2E2E2E2E2E2E2E2E2E2E2E2E2E2E2E2E2E2E2E2E2E2
310
E2E2E2E2E2E2E2E2E2E2E2E2E2E2E2E2E2E2E2E2E2E2E2E2E2E2E2E2E2E2E2F5E2E200F5E2E2F5E2E2E2E2E2E2E2E2E2E2E2E2E2E2E2E2E2E2E2E2E2E2E2E2E2E2E2E2E2E2E2E2E2E2E2E2E2E2E2E2E2E2E2E2E2E2E2E2E2E2E2E2E2E2E2E2E2E2E2E2E2E2E2E2E2E2E2E2E2E2E2E2E2E2E2E2E2E2E2E2E2E2E2E2E2E2E2E2
310
E2E2E2E2F5E2E200F5E2E2F5E2E2E2E2E2E2E2E2E2E2E2E2E2E2E2E2E2E2E2E2E2E2E2E2E2E2E2E2E2E2E2E2E2E2E2E2E2E2E2E2E2E2E2E2E2E2E2E2E2E2E2E2E2E2E2E2E2E2E2E2E2E2E2E2E2E2E2E2E2E2E2E2E2E2E2E2E2E2E2E2E2E2E2E2E2E2E2E2E2E2E2E2F5E2E200F5E2E2F5E2E2E2E2E2E2E2E2E2E2E2E2E2E2E2
310
E2E2E2E2E2E2E2E2E2E2E2E2E2E2E2E2E2E2E2E2E2E2E2E2E2E2E2E2E2E2E2E2E2E2E2E2E2E2E2E2E2E2E2E2E2E2E2E2E2E2E2E2E2E2E2E2E2E2E2E2E2E2E2E2E2E2E2E2E2E2E2E2E2E2E2E2E2F5E2E200F5E2E2F5E2E2E2E2E2E2E2E2E2E2E2E2E2E2E2E2E2E2E2E2E2E2E2E2E2E2E2E2E2E2E2E2E2E2E2E2E2E2E2E2E2E2
310
E2E2E2E2E2E2E2E2E2E2E2E2E2E2E2E2E2E2E2E2E2E2E2E2E2E2E2E2E2E2E2E2E2E2E2E2E2E2E2E2E2E2E2E2E2E2E2E2E2E2F5E2E2FFF5E2E2F5E2E2E2E2E2E2E2E2E2E2E2E2E2E2E2E2E2E2E2E2E2E2E2E2E2E2E2E2E2E2E2E2E2E2E2E2E2E2E2E2E2E2E2E2E2E2E2E2E2E2E2E2E2E2E2E2E2E2E2E2E2E2E2E2E2E2E2E2E2
310
E2E2E2E2E2E2E2E2E2E2E2E2E2E2E2E2E2E2E2E2E2E2E2F5E2E200F5E2E2F5E2E2E2E2E2E2E2E2E2E2E2E2E2E2E2E2E2E2E2E2E2E2E2E2E2E2E2E2E2E2E2E2E2E2E2E2E2E2E2E2E2E2E2E2E2E2E2E2E2E2E2E2E2E2E2E2E2E2E2E2E2E2E2E2E2E2E2E2E2E2E2E2E2E2E2E2E2E2E2E2E2E2E2E2E2E2E2E2E2E2E2E2F5E2E200
310
F5E2E2F5E2E2E2E2E2E2E2E2E2E2E2E2E2E2E2E2E2E2E2E2E2E2E2E2E2E2E2E2E2E2E2E2E2E2E2E2E2E2E2E2E2E2E2E2E2E2E2E2E2E2E2E2E2E2E2E2E2E2E2E2E2E2E2E2E2E2E2E2E2E2E2E2E2E2E2E2E2E2E2E2E2E2E2E2E2E2E2E2E2E2E2E2F5E2E200F5E2E2F5E2E2E2E2E2E2E2E2E2E2E2E2E2E2E2E2E2E2E2E2E2E2E2
310
E2E2E2E2E2E2E2E2E2E2E2E2E2E2E2E2E2E2E2E2E2E2E2E2E2E2E2E2E2E2E2E2E2E2E2E2E2E2E2E2E2E2E2E2E2E2E2E2E2E2E2E2E2E2E2E2E2E2E2E2E2E2E2E2E2E2E2E2E2F5E2E200F5E2E2F5E2E2E2E2E2E2E2E2E2E2E2E2E2E2E2E2E2E2E2E2E2E2E2E2E2E2E2E2E2E2E2E2E2E2E2E2E2E2E2E2E2E2E2E2E2E2E2E2E2E2
310
E2E2E2E2E2E2E2E2E2E2E2E2E2E2E2E2E2E2E2E2E2E2E2E2E2E2E2E2E2E2E2E2E2E2E2E2E2E2E2E2E2E2F5E2E200F5E2E2F5E2E2E2E2E2E2E2E2E2E2E2E2E2E2E2E2E2E2E2E2E2E2E2E2E2E2E2E2E2E2E2E2E2E2E2E2E2E2E2E2E2E2E2E2E2E2E2E2E2E2E2E2E2E2E2E2E2E2E2E2E2E2E2E2E2E2E2E2E2E2E2E2E2E2E2E2E2
310
E2E2E2E2E2E2E2E2E2E2E2E2E2E2E2F5E2E200F5E2E2F5E2E2E2E2E2E2E2E2E2E2E2E2E2E2E2E2E2E2E2E2E2E2E2E2E2E2E2E2E2E2E2E2E2E2E2E2E2E2E2E2E2E2E2E2E2E2E2E2E2E2E2E2E2E2E2E2E2E2E2E2E2E2E2E2E2E2E2E2E2E2E2E2E2E2E2E2E2E2E2E2E2E2E2E2E2E2E2E2E2E2E2E2F5E2E200F5E2E2F5E2E2E2E2
310
E2E2E2E2E2E2E2E2E2E2E2E2E2E2E2E2E2E2E2E2E2E2E2E2E2E2E2E2E2E2E2E2E2E2E2E2E2E2E2E2E2E2E2E2E2E2E2E2E2E2E2E2E2E2E2E2E2E2E2E2E2E2E2E2E2E2E2E2E2E2E2E2E2E2E2E2E2E2E2E2E2E2E2E2E2E2E2E2F5E2E200F5E2E2F5E2E2E2E2E2E2E2E2E2E2E2E2E2E2E2E2E2E2E2E2E2E2E2E2E2E2E2E2E2E2E2
310
E2E2E2E2E2E2E2E2E2E2E2E2E2E2E2E2E2E2E2E2E2E2E2E2E2E2E2E2E2E2E2E2E2E2E2E2E2E2E2E2E2E2E2E2E2E2E2E2E2E2E2E2E2E2E2E2E2E2E2E2E2F5E2E200F5E2E2F5E2E2E2E2E2E2E2E2E2E2E2E2E2E2E2E2E2E2E2E2E2E2E2E2E2E2E2E2E2E2E2E2E2E2E2E2E2E2E2E2E2E2E2E2E2E2E2E2E2E2E2E2E2E2E2E2E2E2
310
E2E2E2E2E2E2E2E2E2E2E2E2E2E2E2E2E2E2E2E2E2E2E2E2E2E2E2E2E2E2E2E2E2E2F5E2E200F5E2E2F5E2E2E2E2E2E2E2E2E2E2E2E2E2E2E2E2E2E2E2E2E2E2E2E2E2E2E2E2E2E2E2E2E2E2E2E2E2E2E2E2E2E2E2E2E2E2E2E2E2E2E2E2E2E2E2E2E2E2E2E2E2E2E2E2E2E2E2E2E2E2E2E2E2E2E2E2E2E2E2E2E2E2E2E2E2
310
E2E2E2E2E2E2E2F5E2E200F5E2E2E2E2E2E2E2E2E2E2E2E2E2E2E2E2E2E2E2E2E2E2E2E2E2E2E2E2E2E2E2E2E2E2E2E2E2E2E2E2E2E2E2E2E2E2E2E2E2E2E2E2E2E2E2E2E2E2E2E2E2E2E2E2E2E2E2E2E2E2E2E2E2E2E2E2E2E2E2E2E2E2E2E2E2E2E2E2E2E2E2E2E2E2E2E2E2E200F5E2E2E2E2E2E2E2E2E2E2E2E2E2E2E2
310
E2E2E2E2E2E2E2E2E2E2E2E2E2E2E2E2E2E2E2E2E2E2E2E2E2E2E2E2E2E2E2E2E2E2E2E2E2E2E2E2E2E2E2E2E2E2E2E2E2E2E2E2E2E2E2E2E2E2E2E2E2E2E2E2E2E2E2E2E2E2E2E2E2E2E2E2E2E2E2E2E2E2E200F5E2E2E2E2E2E2E2E2E2E2E2E2E2E2E2E2E2E2E2E2E2E2E2E2E2E2E2E2E2E2E2E2E2E2E2E2E2E2E2E2E2E2
310
E2E2E2E2E2E2E2E2E2E2E2E2E2E2E2E2E2E2E2E2E2E2E2E2E2E2E2E2E2E2E2E2E2E2E2E2E2E2E2E2E2E2E2E2E2E2E2E2E2E2E2E2E2E2E2E200F5E2E2E2E2E2E2E2E2E2E2E2E2E2E2E2E2E2E2E2E2E2E2E2E2E2E2E2E2E2E2E2E2E2E2E2E2E2E2E2E2E2E2E2E2E2E2E2E2E2E2E2E2E2E2E2E2E2E2E2E2E2E2E2E2E2E2E2E2E2
310
E2E2E2E2E2E2E2E2E2E2E2E2E2E2E2E2E2E2E2E2E2E2E2E2E2E2E2E2E200F5E2E2E2E2E2E2E2E2E2E2E2E2E2E2E2E2E2E2E2E2E2E2E2E2E2E2E2E2E2E2E2E2E2E2E2E2E2E2E2E2E2E2E2E2E2E2E2E2E2E2E2E2E2E2E2E2E2E2E2E2E2E2E2E2E2E2E2E2E2E2E2E2E2E2E2E2E2E2E2E2E2E2E2E2E2E2E2E2E2E2E2E2E2E2E2E2
310
E2E200F5E2E2E2E2E2E2E2E2E2E2E2E2E2E2E2E2E2E2E2E2E2E2E2E2E2E2E2E2E2E2E2E2E2E2E2E2E2E2E2E2E2E2E2E2E2E2E2E2E2E2E2E2E2E2E2E2E2E2E2E2E2E2E2E2E2E2E2E2E2E2E2E2E2E2E2E2E2E2E2E2E2E2E2E2E2E2E2E2E2E2E2E2E2E2E2E2E2E200F5E2E2E2E2E2E2E2E2E2E2E2E2E2E2E2E2E2E2E2E2E2E2E2
310
E2E2E2E2E2E2E2E2E2E2E2E2E2E2E2E2E2E2E2E2E2E2E2E2E2E2E2E2E2E2E2E2E2E2E2E2E2E2E2E2E2E2E2E2E2E2E2E2E2E2E2E2E2E2E2E2E2E2E2E2E2E2E2E2E2E2E2E2E2E2E2E2E2E2E200F5E2E2E2E2E2E2E2E2E2E2E2E2E2E2E2E2E2E2E2E2E2E2E2E2E2E2E2E2E2E2E2E2E2E2E2E2E2E2E2E2E2E2E2E2E2E2E2E2E2E2
310
E2E2E2E2E2E2E2E2E2E2E2E2E2E2E2E2E2E2E2E2E2E2E2E2E2E2E2E2E2E2E2E2E2E2E2E2E2E2E2E2E2E2E2E2E2E2E2E200F5E2E2E2E2E2E2E2E2E2E2E2E2E2E2E2E2E2E2E2E2E2E2E2E2E2E2E2E2E2E2E2E2E2E2E2E2E2E2E2E2E2E2E2E2E2E2E2E2E2E2E2E2E2E2E2E2E2E2E2E2E2E2E2E2E2E2E2E2E2E2E2E2E2E2E2E2E2
310
E2E2E2E2E2E2E2E2E2E2E2E2E2E2E2E2E2E2E2E2E200F5E2E2E2E2E2E2E2E2E2E2E2E2E2E2E2E2E2E2E2E2E2E2E2E2E2E2E2E2E2E2E2E2E2E2E2E2E2E2E2E2E2E2E2E2E2E2E2E2E2E2E2E2E2E2E2E2E2E2E2E2E2E2E2E2E2E2E2E2E2E2E2E2E2E2E2E2E2E2E2E2E2E2E2E2E2E2E2E2E2E2E2E2E2E2E2E2E2E200F5E2E2F5E2
310
E2E2E2E2E2E2E2E2E2E2E2E2E2E2E2E2E2E2E2E2E2E2E2E2E2E2E2E2E2E2E2E2E2E2E2E2E2E2E2E2E2E2E2E2E2E2E2E2E2E2E2E2E2E2E2E2E2E2E2E2E2E2E2E2E2E2E2E2E2E2E2E2E2E2E2E2E2E2E2E2E2E2E2E2E2E2E2E2E2E2E2F5E2E200F5E2E2F5E2E2E2E2E2E2E2E2E2E2E2E2E2E2E2E2E2E2E2E2E2E2E2E2E2E2E2E2
310
E2E2E2E2E2E2E2E2E2E2E2E2E2E2E2E2E2E2E2E2E2E2E2E2E2E2E2E2E2E2E2E2E2E2E2E2E2E2E2E2E2E2E2E2E2E2E2E2E2E2E2E2E2E2E2E2E2E2E2E2E2E2E2E2F5E2E200F5E2E2F5E2E2E2E2E2E2E2E2E2E2E2E2E2E2E2E2E2E2E2E2E2E2E2E2E2E2E2E2E2E2E2E2E2E2E2E2E2E2E2E2E2E2E2E2E2E2E2E2E2E2E2E2E2E2E2
310
E2E2E2E2E2E2E2E2E2E2E2E2E2E2E2E2E2E2E2E2E2E2E2E2E2E2E2E2E2E2E2E2E2E2E2E2E2F5E2E200F5E2E2F5E2E2E2E2E2E2E2E2E2E2E2E2E2E2E2E2E2E2E2E2E2E2E2E2E2E2E2E2E2E2E2E2E2E2E2E2E2E2E2E2E2E2E2E2E2E2E2E2E2E2E2E2E2E2E2E2E2E2E2E2E2E2E2E2E2E2E2E2E2E2E2E2E2E2E2E2E2E2E2E2E2E2
310
E2E2E2E2E2E2E2E2E2E2F5E2E200F5E2E2F5E2E2E2E2E2E2E2E2E2E2E2E2E2E2E2E2E2E2E2E2E2E2E2E2E2E2E2E2E2E2E2E2E2E2E2E2E2E2E2E2E2E2E2E2E2E2E2E2E2E2E2E2E2E2E2E2E2E2E2E2E2E2E2E2E2E2E2E2E2E2E2E2E2E2E2E2E2E2E2E2E2E2E2E2E2E2E2E2E2E2E2E2F5E2E200F5E2E2F5E2E2E2E2E2E2E2E2E2
310
E2E2E2E2E2E2E2E2E2E2E2E2E2E2E2E2E2E2E2E2E2E2E2E2E2E2E2E2E2E2E2E2E2E2E2E2E2E2E2E2E2E2E2E2E2E2E2E2E2E2E2E2E2E2E2E2E2E2E2E2E2E2E2E2E2E2E2E2E2E2E2E2E2E2E2E2E2E2E2E2E2E2E2F5E2E200F5E2E2F5E2E2E2E2E2E2E2E2E2E2E2E2E2E2E2E2E2E2E2E2E2E2E2E2E2E2E2E2E2E2E2E2E2E2E2E2
310
E2E2E2E2E2E2E2E2E2E2E2E2E2E2E2E2E2E2E2E2E2E2E2E2E2E2E2E2E2E2E2E2E2E2E2E2E2E2E2E2E2E2E2E2E2E2E2E2E2E2E2E2E2E2E2E2F5E2E200F5E2E2F5E2E2E2E2E2E2E2E2E2E2E2E2E2E2E2E2E2E2E2E2E2E2E2E2E2E2E2E2E2E2E2E2E2E2E2E2E2E2E2E2E2E2E2E2E2E2E2E2E2E2E2E2E2E2E2E2E2E2E2E2E2E2E2
310
E2E2E2E2E2E2E2E2E2E2E2E2E2E2E2E2E2E2E2E2E2E2E2E2E2E2E2E2E2F5E2E200F5E2E2F5E2E2E2E2E2E2E2E2E2E2E2E2E2E2E2E2E2E2E2E2E2E2E2E2E2E2E2E2E2E2E2E2E2E2E2E2E2E2E2E2E2E2E2E2E2E2E2E2E2E2E2E2E2E2E2E2E2E2E2E2E2E2E2E2E2E2E2E2E2E2E2E2E2E2E2E2E2E2E2E2E2E2E2E2E2E2E2E2E2E2
310
E2E2F5E2E200F5E2E2F5E2E2E2E2E2E2E2E2E2E2E2E2E2E2E2E2E2E2E2E2E2E2E2E2E2E2E2E2E2E2E2E2E2E2E2E2E2E2E2E2E2E2E2E2E2E2E2E2E2E2E2E2E2E2E2E2E2E2E2E2E2E2E2E2E2E2E2E2E2E2E2E2E2E2E2E2E2E2E2E2E2E2E2E2E2E2E2E2E2E2E2E2F5E2E200F5E2E2F5E2E2E2E2E2E2E2E2E2E2E2E2E2E2E2E2E2
310
E2E2E2E2E2E2E2E2E2E2E2E2E2E2E2E2E2E2E2E2E2E2E2E2E2E2E2E2E2E2E2E2E2E2E2E2E2E2E2E2E2E2E2E2E2E2E2E2E2E2E2E2E2E2E2E2E2E2E2E2E2E2E2E2E2E2E2E2E2E2E2E2E2E2E2F5E2E200F5E2E2F5E2E2E2E2E2E2E2E2E2E2E2E2E2E2E2E2E2E2E2E2E2E2E2E2E2E2E2E2E2E2E2E2E2E2E2E2E2E2E2E2E2E2E2E2
310
E2E2E2E2E2E2E2E2E2E2E2E2E2E2E2E2E2E2E2E2E2E2E2E2E2E2E2E2E2E2E2E2E2E2E2E2E2E2E2E2E2E2E2E2E2E2E2E2F5E2E200F5E2E2F5E2E2E2E2E2E2E2E2E2E2E2E2E2E2E2E2E2E2E2E2E2E2E2E2E2E2E2E2E2E2E2E2E2E2E2E2E2E2E2E2E2E2E2E2E2E2E2E2E2E2E2E2E2E2E2E2E2E2E2E2E2E2E2E2E2E2E2E2E2E2E2
310
E2E2E2E2E2E2E2E2E2E2E2E2E2E2E2E2E2E2E2E2E2F5E2E200F5E2E2F5E2E2E2E2E2E2E2E2E2E2E2E2E2E2E2E2E2E2E2E2E2E2E2E2E2E2E2E2E2E2E2E2E2E2E2E2E2E2E2E2E2E2E2E2E2E2E2E2E2E2E2E2E2E2E2E2E2E2E2E2E2E2E2E2E2E2E2E2E2E2E2E2E2E2E2E2E2E2E2E2E2E2E2E2E2E2E2E2E2E2E2E2F5E2E200F5E2
310
E2F5E2E2E2E2E2E2E2E2E2E2E2E2E2E2E2E2E2E2E2E2E2E2E2E2E2E2E2E2E2E2E2E2E2E2E2E2E2E2E2E2E2E2E2E2E2E2E2E2E2E2E2E2E2E2E2E2E2E2E2E2E2E2E2E2E2E2E2E2E2E2E2E2E2E2E2E2E2E2E2E2E2E2E2E2E2E2E2E2E2E2E2E2F5E2E200F5E2E2F5E2E2E2E2E2E2E2E2E2E2E2E2E2E2E2E2E2E2E2E2E2E2E2E2E2
310
E2E2E2E2E2E2E2E2E2E2E2E2E2E2E2E2E2E2E2E2E2E2E2E2E2E2E2E2E2E2E2E2E2E2E2E2E2E2E2E2E2E2E2E2E2E2E2E2E2E2E2E2E2E2E2E2E2E2E2E2E2E2E2E2E2E2E2F5E2E200F5E2E2F5E2E2E2E2E2E2E2E2E2E2E2E2E2E2E2E2E2E2E2E2E2E2E2E2E2E2E2E2E2E2E2E2E2E2E2E2E2E2E2E2E2E2E2E2E2E2E2E2E2E2E2E2
310
E2E2E2E2E2E2E2E2E2E2E2E2E2E2E2E2E2E2E2E2E2E2E2E2E2E2E2E2E2E2E2E2E2E2E2E2E2E2E2E2F5E2E200F5E2E2E2E2E2E2E2E2E2E2E2E2E2E2E2E2E2E2E2E2E2E2E2E2E2E2E2E2E2E2E2E2E2E2E2E2E2E2E2E2E2E2E2E2E2E2E2E2E2E2E2E2E2E2E2E2E2E2E2E2E2E2E2E2E2E2E2E2E2E2E2E2E2E2E2E2E2E2E2E2E2E2
310
E2E2E2E2E2E2E2E2E2E2E2E2E2E2E2E200F5E2E2E2E2E2E2E2E2E2E2E2E2E2E2E2E2E2E2E2E2E2E2E2E2E2E2E2E2E2E2E2E2E2E2E2E2E2E2E2E2E2E2E2E2E2E2E2E2E2E2E2E2E2E2E2E2E2E2E2E2E2E2E2E2E2E2E2E2E2E2E2E2E2E2E2E2E2E2E2E2E2E2E2E2E2E2E2E2E2E2E2E2E2E2E2E2E2E200F5E2E2E2E2E2E2E2E2E2
310
E2E2E2E2E2E2E2E2E2E2E2E2E2E2E2E2E2E2E2E2E2E2E2E2E2E2E2E2E2E2E2E2E2E2E2E2E2E2E2E2E2E2E2E2E2E2E2E2E2E2E2E2E2E2E2E2E2E2E2E2E2E2E2E2E2E2E2E2E2E2E2E2E2E2E2E2E2E2E2E2E2E2E2E2E2E2E2E2E200F5E2E2E2E2E2E2E2E2E2E2E2E2E2E2E2E2E2E2E2E2E2E2E2E2E2E2E2E2E2E2E2E2E2E2E2E2
310
E2E2E2E2E2E2E2E2E2E2E2E2E2E2E2E2E2E2E2E2E2E2E2E2E2E2E2E2E2E2E2E2E2E2E2E2E2E2E2E2E2E2E2E2E2E2E2E2E2E2E2E2E2E2E2E2E2E2E2E2E2E200F5E2E2E2E2E2E2E2E2E2E2E2E2E2E2E2E2E2E2E2E2E2E2E2E2E2E2E2E2E2E2E2E2E2E2E2E2E2E2E2E2E2E2E2E2E2E2E2E2E2E2E2E2E2E2E2E2E2E2E2E2E2E2E2
310
E2E2E2E2E2E2E2E2E2E2E2E2E2E2E2E2E2E2E2E2E2E2E2E2E2E2E2E2E2E2E2E2E2E2E200F5E2E2E2E2E2E2E2E2E2E2E2E2E2E2E2E2E2E2E2E2E2E2E2E2E2E2E2E2E2E2E2E2E2E2E2E2E2E2E2E2E2E2E2E2E2E2E2E2E2E2E2E2E2E2E2E2E2E2E2E2E2E2E2E2E2E2E2E2E2E2E2E2E2E2E2E2E2E2E2E2E2E2E2E2E2E2E2E2E2E2
310
E2E2E2E2E2E2E2E200F5E2E2E2E2E2E2E2E2E2E2E2E2E2E2E2E2E2E2E2E2E2E2E2E2E2E2E2E2E2E2E2E2E2E2E2E2E2E2E2E2E2E2E2E2E2E2E2E2E2E2E2E2E2E2E2E2E2E2E2E2E2E2E2E2E2E2E2E2E2E2E2E2E2E2E2E2E2E2E2E2E2E2E2E2E2E2E2E2E2E2E2E2E2E2E2E2E2E200F5E2E2E2E2E2E2E2E2E2E2E2E2E2E2E2E2E2
310
E2E2E2E2E2E2E2E2E2E2E2E2E2E2E2E2E2E2E2E2E2E2E2E2E2E2E2E2E2E2E2E2E2E2E2E2E2E2E2E2E2E2E2E2E2E2E2E2E2E2E2E2E2E2E2E2E2E2E2E2E2E2E2E2E2E2E2E2E2E2E2E2E2E2E2E2E2E2E2E2E200F5E2E2E2E2E2E2E2E2E2E2E2E2E2E2E2E2E2E2E2E2E2E2E2E2E2E2E2E2E2E2E2E2E2E2E2E2E2E2E2E2E2E2E2E2
310
E2E2E2E2E2E2E2E2E2E2E2E2E2E2E2E2E2E2E2E2E2E2E2E2E2E2E2E2E2E2E2E2E2E2E2E2E2E2E2E2E2E2E2E2E2E2E2E2E2E2E2E2E2E200F5E2E2F5E2E2E2E2E2E2E2E2E2E2E2E2E2E2E2E2E2E2E2E2E2E2E2E2E2E2E2E2E2E2E2E2E2E2E2E2E2E2E2E2E2E2E2E2E2E2E2E2E2E2E2E2E2E2E2E2E2E2E2E2E2E2E2E2E2E2E2E2
310
E2E2E2E2E2E2E2E2E2E2E2E2E2E2E2E2E2E2E2E2E2E2E2E2F5E2E200F5E2E2F5E2E2E2E2E2E2E2E2E2E2E2E2E2E2E2E2E2E2E2E2E2E2E2E2E2E2E2E2E2E2E2E2E2E2E2E2E2E2E2E2E2E2E2E2E2E2E2E2E2E2E2E2E2E2E2E2E2E2E2E2E2E2E2E2E2E2E2E2E2E2E2E2E2E2E2E2E2E2E2E2E2E2E2E2E2E2E2E2E2E2E2E2F5E2E2
310
00F5E2E2F5E2E2E2E2E2E2E2E2E2E2E2E2E2E2E2E2E2E2E2E2E2E2E2E2E2E2E2E2E2E2E2E2E2E2E2E2E2E2E2E2E2E2E2E2E2E2E2E2E2E2E2E2E2E2E2E2E2E2E2E2E2E2E2E2E2E2E2E2E2E2E2E2E2E2E2E2E2E2E2E2E2E2E2E2E2E2E2E2E2E2E2E2F5E2E200F5E2E2F5E2E2E2E2E2E2E2E2E2E2E2E2E2E2E2E2E2E2E2E2E2E2
310
E2E2E2E2E2E2E2E2E2E2E2E2E2E2E2E2E2E2E2E2E2E2E2E2E2E2E2E2E2E2E2E2E2E2E2E2E2E2E2E2E2E2E2E2E2E2E2E2E2E2E2E2E2E2E2E2E2E2E2E2E2E2E2E2E2E2E2E2E2E2F5E2E200F5E2E2F5E2E2E2E2E2E2E2E2E2E2E2E2E2E2E2E2E2E2E2E2E2E2E2E2E2E2E2E2E2E2E2E2E2E2E2E2E2E2E2E2E2E2E2E2E2E2E2E2E2
310
E2E2E2E2E2E2E2E2E2E2E2E2E2E2E2E2E2E2E2E2E2E2E2E2E2E2E2E2E2E2E2E2E2E2E2E2E2E2E2E2E2E2E2F5E2E200F5E2E2F5E2E2E2E2E2E2E2E2E2E2E2E2E2E2E2E2E2E2E2E2E2E2E2E2E2E2E2E2E2E2E2E2E2E2E2E2E2E2E2E2E2E2E2E2E2E2E2E2E2E2E2E2E2E2E2E2E2E2E2E2E2E2E2E2E2E2E2E2E2E2E2E2E2E2E2E2
310
E2E2E2E2E2E2E2E2E2E2E2E2E2E2E2E2F5E2E200F5E2E2F5E2E2E2E2E2E2E2E2E2E2E2E2E2E2E2E2E2E2E2E2E2E2E2E2E2E2E2E2E2E2E2E2E2E2E2E2E2E2E2E2E2E2E2E2E2E2E2E2E2E2E2E2E2E2E2E2E2E2E2E2E2E2E2E2E2E2E2E2E2E2E2E2E2E2E2E2E2E2E2E2E2E2E2E2E2E2E2E2E2E2E2E2F5E2E200F5E2E2F5E2E2E2
310
E2E2E2E2E2E2E2E2E2E2E2E2E2E2E2E2E2E2E2E2E2E2E2E2E2E2E2E2E2E2E2E2E2E2E2E2E2E2E2E2E2E2E2E2E2E2E2E2E2E2E2E2E2E2E2E2E2E2E2E2E2E2E2E2E2E2E2E2E2E2E2E2E2E2E2E2E2E2E2E2E2E2E2E2E2E2E2E2E2F5E2E200F5E2E2F5E2E2E2E2E2E2E2E2E2E2E2E2E2E2E2E2E2E2E2E2E2E2E2E2E2E2E2E2E2E2
310
E2E2E2E2E2E2E2E2E2E2E2E2E2E2E2E2E2E2E2E2E2E2E2E2E2E2E2E2E2E2E2E2E2E2E2E2E2E2E2E2E2E2E2E2E2E2E2E2E2E2E2E2E2E2E2E2E2E2E2E2E2E2F5E2E200F5E2E2F5E2E2E2E2E2E2E2E2E2E2E2E2E2E2E2E2E2E2E2E2E2E2E2E2E2E2E2E2E2E2E2E2E2E2E2E2E2E2E2E2E2E2E2E2E2E2E2E2E2E2E2E2E2E2E2E2E2
310
E2E2E2E2E2E2E2E2E2E2E2E2E2E2E2E2E2E2E2E2E2E2E2E2E2E2E2E2E2E2E2E2E2E2E2F5E2E200F5E2E2F5E2E2E2E2E2E2E2E2E2E2E2E2E2E2E2E2E2E2E2E2E2E2E2E2E2E2E2E2E2E2E2E2E2E2E2E2E2E2E2E2E2E2E2E2E2E2E2E2E2E2E2E2E2E2E2E2E2E2E2E2E2E2E2E2E2E2E2E2E2E2E2E2E2E2E2E2E2E2E2E2E2E2E2E2
310
E2E2E2E2E2E2E2E2F5E2E200F5E2E2F5E2E2E2E2E2E2E2E2E2E2E2E2E2E2E2E2E2E2E2E2E2E2E2E2E2E2E2E2E2E2E2E2E2E2E2E2E2E2E2E2E2E2E2E2E2E2E2E2E2E2E2E2E2E2E2E2E2E2E2E2E2E2E2E2E2E2E2E2E2E2E2E2E2E2E2E2E2E2E2E2E2E2E2E2E2E2E2E2E2E2E2E2F5E2E200F5E2E2F5E2E2E2E2E2E2E2E2E2E2E2
310
E2E2E2E2E2E2E2E2E2E2E2E2E2E2E2E2E2E2E2E2E2E2E2E2E2E2E2E2E2E2E2E2E2E2E2E2E2E2E2E2E2E2E2E2E2E2E2E2E2E2E2E2E2E2E2E2E2E2E2E2E2E2E2E2E2E2E2E2E2E2E2E2E2E2E2E2E2E2E2E2E2F5E2E200F5E2E2F5E2E2E2E2E2E2E2E2E2E2E2E2E2E2E2E2E2E2E2E2E2E2E2E2E2E2E2E2E2E2E2E2E2E2E2E2E2E2
310
E2E2E2E2E2E2E2E2E2E2E2E2E2E2E2E2E2E2E2E2E2E2E2E2E2E2E2E2E2E2E2E2E2E2E2E2E2E2E2E2E2E2E2E2E2E2E2E2E2E2E2E2E2E2F5E2E200F5E2E2F5E2E2E2E2E2E2E2E2E2E2E2E2E2E2E2E2E2E2E2E2E2E2E2E2E2E2E2E2E2E2E2E2E2E2E2E2E2E2E2E2E2E2E2E2E2E2E2E2E2E2E2E2E2E2E2E2E2E2E2E2E2E2E2E2E2
310
E2E2E2E2E2E2E2E2E2E2E2E2E2E2E2E2E2E2E2E2E2E2E2E2E2E2E2F5E2E200F5E2E2F5E2E2E2E2E2E2E2E2E2E2E2E2E2E2E2E2E2E2E2E2E2E2E2E2E2E2E2E2E2E2E2E2E2E2E2E2E2E2E2E2E2E2E2E2E2E2E2E2E2E2E2E2E2E2E2E2E2E2E2E2E2E2E2E2E2E2E2E2E2E2E2E2E2E2E2E2E2E2E2E2E2E2E2E2E2E2E2E2E2E2E2E2
310
F5E2E200F5E2E2F5E2E2E2E2E2E2E2E2E2E2E2E2E2E2E2E2E2E2E2E2E2E2E2E2E2E2E2E2E2E2E2E2E2E2E2E2E2E2E2E2E2E2E2E2E2E2E2E2E2E2E2E2E2E2E2E2E2E2E2E2E2E2E2E2E2E2E2E2E2E2E2E2E2E2E2E2E2E2E2E2E2E2E2E2E2E2E2E2E2E2E2E2F5E2E200F5E2E2E2E2E2E2E2E2E2E2E2E2E2E2E2E2E2E2E2E2E2E2
310
E2E2E2E2E2E2E2E2E2E2E2E2E2E2E2E2E2E2E2E2E2E2E2E2E2E2E2E2E2E2E2E2E2E2E2E2E2E2E2E2E2E2E2E2E2E2E2E2E2E2E2E2E2E2E2E2E2E2E2E2E2E2E2E2E2E2E2E2E2E2E2E2E2E2E2E200F5E2E2E2E2E2E2E2E2E2E2E2E2E2E2E2E2E2E2E2E2E2E2E2E2E2E2E2E2E2E2E2E2E2E2E2E2E2E2E2E2E2E2E2E2E2E2E2E2E2
310
E2E2E2E2E2E2E2E2E2E2E2E2E2E2E2E2E2E2E2E2E2E2E2E2E2E2E2E2E2E2E2E2E2E2E2E2E2E2E2E2E2E2E2E2E2E2E2E2E200F5E2E2E2E2E2E2E2E2E2E2E2E2E2E2E2E2E2E2E2E2E2E2E2E2E2E2E2E2E2E2E2E2E2E2E2E2E2E2E2E2E2E2E2E2E2E2E2E2E2E2E2E2E2E2E2E2E2E2E2E2E2E2E2E2E2E2E2E2E2E2E2E2E2E2E2E2
310
E2E2E2E2E2E2E2E2E2E2E2E2E2E2E2E2E2E2E2E2E2E200F5E2E2E2E2E2E2E2E2E2E2E2E2E2E2E2E2E2E2E2E2E2E2E2E2E2E2E2E2E2E2E2E2E2E2E2E2E2E2E2E2E2E2E2E2E2E2E2E2E2E2E2E2E2E2E2E2E2E2E2E2E2E2E2E2E2E2E2E2E2E2E2E2E2E2E2E2E2E2E2E2E2E2E2E2E2E2E2E2E2E2E2E2E2E2E2E2E2E200F5E2E2E2
310
E2E2E2E2E2E2E2E2E2E2E2E2E2E2E2E2E2E2E2E2E2E2E2E2E2E2E2E2E2E2E2E2E2E2E2E2E2E2E2E2E2E2E2E2E2E2E2E2E2E2E2E2E2E2E2E2E2E2E2E2E2E2E2E2E2E2E2E2E2E2E2E2E2E2E2E2E2E2E2E2E2E2E2E2E2E2E2E2E2E2E2E2E2E2E200F5E2E2E2E2E2E2E2E2E2E2E2E2E2E2E2E2E2E2E2E2E2E2E2E2E2E2E2E2E2E2
310
E2E2E2E2E2E2E2E2E2E2E2E2E2E2E2E2E2E2E2E2E2E2E2E2E2E2E2E2E2E2E2E2E2E2E2E2E2E2E2E2E2E2E2E2E2E2E2E2E2E2E2E2E2E2E2E2E2E2E2E2E2E2E2E2E2E2E2E200F5E2E2E2E2E2E2E2E2E2E2E2E2E2E2E2E2E2E2E2E2E2E2E2E2E2E2E2E2E2E2E2E2E2E2E2E2E2E2E2E2E2E2E2E2E2E2E2E2E2E2E2E2E2E2E2E2E2
310
E2E2E2E2E2E2E2E2E2E2E2E2E2E2E2E2E2E2E2E2E2E2E2E2E2E2E2E2E2E2E2E2E2E2E2E2E2E2E2E2E200F5E2E2E2E2E2E2E2E2E2E2E2E2E2E2E2E2E2E2E2E2E2E2E2E2E2E2E2E2E2E2E2E2E2E2E2E2E2E2E2E2E2E2E2E2E2E2E2E2E2E2E2E2E2E2E2E2E2E2E2E2E2E2E2E2E2E2E2E2E2E2E2E2E2E2E2E2E2E2E2E2E2E2E2E2
310
E2E2E2E2E2E2E2E2E2E2E2E2E2E200F5E2E2E2E2E2E2E2E2E2E2E2E2E2E2E2E2E2E2E2E2E2E2E2E2E2E2E2E2E2E2E2E2E2E2E2E2E2E2E2E2E2E2E2E2E2E2E2E2E2E2E2E2E2E2E2E2E2E2E2E2E2E2E2E2E2E2E2E2E2E2E2E2E2E2E2E2E2E2E2E2E2E2E2E2E2E2E2E2E2E2E2E2E2E2E2E2E2E200F5E2E2E2E2E2E2E2E2E2E2E2
310
E2E2E2E2E2E2E2E2E2E2E2E2E2E2E2E2E2E2E2E2E2E2E2E2E2E2E2E2E2E2E2E2E2E2E2E2E2E2E2E2E2E2E2E2E2E2E2E2E2E2E2E2E2E2E2E2E2E2E2E2E2E2E2E2E2E2E2E2E2E2E2E2E2E2E2E2E2E2E2E2E2E2E2E2E2E2E200F5E2E2F5E2E2E2E2E2E2E2E2E2E2E2E2E2E2E2E2E2E2E2E2E2E2E2E2E2E2E2E2E2E2E2E2E2E2E2
310
E2E2E2E2E2E2E2E2E2E2E2E2E2E2E2E2E2E2E2E2E2E2E2E2E2E2E2E2E2E2E2E2E2E2E2E2E2E2E2E2E2E2E2E2E2E2E2E2E2E2E2E2E2E2E2E2E2F5E2E200F5E2E2F5E2E2E2E2E2E2E2E2E2E2E2E2E2E2E2E2E2E2E2E2E2E2E2E2E2E2E2E2E2E2E2E2E2E2E2E2E2E2E2E2E2E2E2E2E2E2E2E2E2E2E2E2E2E2E2E2E2E2E2E2E2E2
310
E2E2E2E2E2E2E2E2E2E2E2E2E2E2E2E2E2E2E2E2E2E2E2E2E2E2E2E2E2E2F5E2E200F5E2E2F5E2E2E2E2E2E2E2E2E2E2E2E2E2E2E2E2E2E2E2E2E2E2E2E2E2E2E2E2E2E2E2E2E2E2E2E2E2E2E2E2E2E2E2E2E2E2E2E2E2E2E2E2E2E2E2E2E2E2E2E2E2E2E2E2E2E2E2E2E2E2E2E2E2E2E2E2E2E2E2E2E2E2E2E2E2E2E2E2E2
310
E2E2E2F5E2E200F5E2E2F5E2E2E2E2E2E2E2E2E2E2E2E2E2E2E2E2E2E2E2E2E2E2E2E2E2E2E2E2E2E2E2E2E2E2E2E2E2E2E2E2E2E2E2E2E2E2E2E2E2E2E2E2E2E2E2E2E2E2E2E2E2E2E2E2E2E2E2E2E2E2E2E2E2E2E2E2E2E2E2E2E2E2E2E2E2E2E2E2E2E2E2E2F5E2E200F5E2E2F5E2E2E2E2E2E2E2E2E2E2E2E2E2E2E2E2
310
E2E2E2E2E2E2E2E2E2E2E2E2E2E2E2E2E2E2E2E2E2E2E2E2E2E2E2E2E2E2E2E2E2E2E2E2E2E2E2E2E2E2E2E2E2E2E2E2E2E2E2E2E2E2E2E2E2E2E2E2E2E2E2E2E2E2E2E2E2E2E2E2E2E2E2E2F5E2E200F5E2E2F5E2E2E2E2E2E2E2E2E2E2E2E2E2E2E2E2E2E2E2E2E2E2E2E2E2E2E2E2E2E2E2E2E2E2E2E2E2E2E2E2E2E2E2
310
E2E2E2E2E2E2E2E2E2E2E2E2E2E2E2E2E2E2E2E2E2E2E2E2E2E2E2E2E2E2E2E2E2E2E2E2E2E2E2E2E2E2E2E2E2E2E2E2E2F5E2E200F5E2E2F5E2E2E2E2E2E2E2E2E2E2E2E2E2E2E2E2E2E2E2E2E2E2E2E2E2E2E2E2E2E2E2E2E2E2E2E2E2E2E2E2E2E2E2E2E2E2E2E2E2E2E2E2E2E2E2E2E2E2E2E2E2E2E2E2E2E2E2E2E2E2
310
E2E2E2E2E2E2E2E2E2E2E2E2E2E2E2E2E2E2E2E2E2E2F5E2E200F5E2E2F5E2E2E2E2E2E2E2E2E2E2E2E2E2E2E2E2E2E2E2E2E2E2E2E2E2E2E2E2E2E2E2E2E2E2E2E2E2E2E2E2E2E2E2E2E2E2E2E2E2E2E2E2E2E2E2E2E2E2E2E2E2E2E2E2E2E2E2E2E2E2E2E2E2E2E2E2E2E2E2E2E2E2E2E2E2E2E2E2E2E2E2E2F5E2E200F5
310
E2E2F5E2E2E2E2E2E2E2E2E2E2E2E2E2E2E2E2E2E2E2E2E2E2E2E2E2E2E2E2E2E2E2E2E2E2E2E2E2E2E2E2E2E2E2E2E2E2E2E2E2E2E2E2E2E2E2E2E2E2E2E2E2E2E2E2E2E2E2E2E2E2E2E2E2E2E2E2E2E2E2E2E2E2E2E2E2E2E2E2E2E2E2E2F5E2E248F5E2E2F5E2E2E2E2E2E2E2E2E2E2E2E2E2E2E2E2E2E2E2E2E2E2E2E2
310
E2E2E2E2E2E2E2E2E2E2E2E2E2E2E2E2E2E2E2E2E2E2E2E2E2E2E2E2E2E2E2E2E2E2E2E2E2E2E2E2E2E2E2E2E2E2E2E2E2E2E2E2E2E2E2E2E2E2E2E2E2E2E2E2E2E2E2E2F5E2E239F5E2E2F5E2E2E2E2E2E2E2E2E2E2E2E2E2E2E2E2E2E2E2E2E2E2E2E2E2E2E2E2E2E2E2E2E2E2E2E2E2E2E2E2E2E2E2E2E2E2E2E2E2E2E2
310
E2E2E2E2E2E2E2E2E2E2E2E2E2E2E2E2E2E2E2E2E2E2E2E2E2E2E2E2E2E2E2E2E2E2E2E2E2E2E2E2E2F5E2E249F5E2E2F5E2E2E2E2E2E2E2E2E2E2E2E2E2E2E2E2E2E2E2E2E2E2E2E2E2E2E2E2E2E2E2E2E2E2E2E2E2E2E2E2E2E2E2E2E2E2E2E2E2E2E2E2E2E2E2E2E2E2E2E2E2E2E2E2E2E2E2E2E2E2E2E2E2E2E2E2E2E2
310
E2E2E2E2E2E2E2E2E2E2E2E2E2E2F5E2E239F5E2E2F5E2E2E2E2E2E2E2E2E2E2E2E2E2E2E2E2E2E2E2E2E2E2E2E2E2E2E2E2E2E2E2E2E2E2E2E2E2E2E2E2E2E2E2E2E2E2E2E2E2E2E2E2E2E2E2E2E2E2E2E2E2E2E2E2E2E2E2E2E2E2E2E2E2E2E2E2E2E2E2E2E2E2E2E2E2E2E2E2E2E2E2E2F5E2E24AF5E2E2F5E2E2E2E2E2
310
E2E2E2E2E2E2E2E2E2E2E2E2E2E2E2E2E2E2E2E2E2E2E2E2E2E2E2E2E2E2E2E2E2E2E2E2E2E2E2E2E2E2E2E2E2E2E2E2E2E2E2E2E2E2E2E2E2E2E2E2E2E2E2E2E2E2E2E2E2E2E2E2E2E2E2E2E2E2E2E2E2E2E2E2E2E2E2F5E2E239F5E2E2F5E2E2E2E2E2E2E2E2E2E2E2E2E2E2E2E2E2E2E2E2E2E2E2E2E2E2E2E2E2E2E2E2
310
E2E2E2E2E2E2E2E2E2E2E2E2E2E2E2E2E2E2E2E2E2E2E2E2E2E2E2E2E2E2E2E2E2E2E2E2E2E2E2E2E2E2E2E2E2E2E2E2E2E2E2E2E2E2E2E2E2E2E2E2F5E2E24BF5E2E2F5E2E2E2E2E2E2E2E2E2E2E2E2E2E2E2E2E2E2E2E2E2E2E2E2E2E2E2E2E2E2E2E2E2E2E2E2E2E2E2E2E2E2E2E2E2E2E2E2E2E2E2E2E2E2E2E2E2E2E2
310
E2E2E2E2E2E2E2E2E2E2E2E2E2E2E2E2E2E2E2E2E2E2E2E2E2E2E2E2E2E2E2E2E2F5E2E239F5E2E2F5E2E2E2E2E2E2E2E2E2E2E2E2E2E2E2E2E2E2E2E2E2E2E2E2E2E2E2E2E2E2E2E2E2E2E2E2E2E2E2E2E2E2E2E2E2E2E2E2E2E2E2E2E2E2E2E2E2E2E2E2E2E2E2E2E2E2E2E2E2E2E2E2E2E2E2E2E2E2E2E2E2E2E2E2E2E2
310
E2E2E2E2E2E2F5E2E24CF5E2E2E2E2E2E2E2E2E2E2E2E2E2E2E2E2E2E2E2E2E2E2E2E2E2E2E2E2E2E2E2E2E2E2E2E2E2E2E2E2E2E2E2E2E2E2E2E2E2E2E2E2E2E2E2E2E2E2E2E2E2E2E2E2E2E2E2E2E2E2E2E2E2E2E2E2E2E2E2E2E2E2E2E2E2E2E2E2E2E2E2E2E2E2E2E2E2E200F5E2E2E2E2E2E2E2E2E2E2E2E2E2E2E2E2
310
E2E2E2E2E2E2E2E2E2E2E2E2E2E2E2E2E2E2E2E2E2E2E2E2E2E2E2E2E2E2E2E2E2E2E2E2E2E2E2E2E2E2E2E2E2E2E2E2E2E2E2E2E2E2E2E2E2E2E2E2E2E2E2E2E2E2E2E2E2E2E2E2E2E2E2E2E2E2E2E2E2E200F5E2E2E2E2E2E2E2E2E2E2E2E2E2E2E2E2E2E2E2E2E2E2E2E2E2E2E2E2E2E2E2E2E2E2E2E2E2E2E2E2E2E2E2
310
E2E2E2E2E2E2E2E2E2E2E2E2E2E2E2E2E2E2E2E2E2E2E2E2E2E2E2E2E2E2E2E2E2E2E2E2E2E2E2E2E2E2E2E2E2E2E2E2E2E2E2E2E2E2E200F5E2E2E2E2E2E2E2E2E2E2E2E2E2E2E2E2E2E2E2E2E2E2E2E2E2E2E2E2E2E2E2E2E2E2E2E2E2E2E2E2E2E2E2E2E2E2E2E2E2E2E2E2E2E2E2E2E2E2E2E2E2E2E2E2E2E2E2E2E2E2
310
E2E2E2E2E2E2E2E2E2E2E2E2E2E2E2E2E2E2E2E2E2E2E2E2E2E2E2E200F5E2E2E2E2E2E2E2E2E2E2E2E2E2E2E2E2E2E2E2E2E2E2E2E2E2E2E2E2E2E2E2E2E2E2E2E2E2E2E2E2E2E2E2E2E2E2E2E2E2E2E2E2E2E2E2E2E2E2E2E2E2E2E2E2E2E2E2E2E2E2E2E2E2E2E2E2E2E2E2E2E2E2E2E2E2E2E2E2E2E2E2E2E2E2E2E2E2
310
E200F5E2E2E2E2E2E2E2E2E2E2E2E2E2E2E2E2E2E2E2E2E2E2E2E2E2E2E2E2E2E2E2E2E2E2E2E2E2E2E2E2E2E2E2E2E2E2E2E2E2E2E2E2E2E2E2E2E2E2E2E2E2E2E2E2E2E2E2E2E2E2E2E2E2E2E2E2E2E2E2E2E2E2E2E2E2E2E2E2E2E2E2E2E2E2E2E2E2E200F5E2E2E2E2E2E2E2E2E2E2E2E2E2E2E2E2E2E2E2E2E2E2E2E2
310
E2E2E2E2E2E2E2E2E2E2E2E2E2E2E2E2E2E2E2E2E2E2E2E2E2E2E2E2E2E2E2E2E2E2E2E2E2E2E2E2E2E2E2E2E2E2E2E2E2E2E2E2E2E2E2E2E2E2E2E2E2E2E2E2E2E2E2E2E2E2E2E2E2E200F5E2E2E2E2E2E2E2E2E2E2E2E2E2E2E2E2E2E2E2E2E2E2E2E2E2E2E2E2E2E2E2E2E2E2E2E2E2E2E2E2E2E2E2E2E2E2E2E2E2E2E2
310
E2E2E2E2E2E2E2E2E2E2E2E2E2E2E2E2E2E2E2E2E2E2E2E2E2E2E2E2E2E2E2E2E2E2E2E2E2E2E2E2E2E2E2E2E2E2E200F5E2E2E2E2E2E2E2E2E2E2E2E2E2E2E2E2E2E2E2E2E2E2E2E2E2E2E2E2E2E2E2E2E2E2E2E2E2E2E2E2E2E2E2E2E2E2E2E2E2E2E2E2E2E2E2E2E2E2E2E2E2E2E2E2E2E2E2E2E2E2E2E2E2E2E2E2E2E2
310
E2E2E2E2E2E2E2E2E2E2E2E2E2E2E2E2E2E2E2E200F5E2E2E2E2E2E2E2E2E2E2E2E2E2E2E2E2E2E2E2E2E2E2E2E2E2E2E2E2E2E2E2E2E2E2E2E2E2E2E2E2E2E2E2E2E2E2E2E2E2E2E2E2E2E2E2E2E2E2E2E2E2E2E2E2E2E2E2E2E2E2E2E2E2E2E2E2E2E2E2E2E2E2E2E2E2E2E2E2E2E2E2E2E2E2E2E2E2E200F5E2E2F5E2E2
310
E2E2E2E2E2E2E2E2E2E2E2E2E2E2E2E2E2E2E2E2E2E2E2E2E2E2E2E2E2E2E2E2E2E2E2E2E2E2E2E2E2E2E2E2E2E2E2E2E2E2E2E2E2E2E2E2E2E2E2E2E2E2E2E2E2E2E2E2E2E2E2E2E2E2E2E2E2E2E2E2E2E2E2E2E2E2E2E2E2E2F5E2E200F5E2E2F5E2E2E2E2E2E2E2E2E2E2E2E2E2E2E2E2E2E2E2E2E2E2E2E2E2E2E2E2E2
310
E2E2E2E2E2E2E2E2E2E2E2E2E2E2E2E2E2E2E2E2E2E2E2E2E2E2E2E2E2E2E2E2E2E2E2E2E2E2E2E2E2E2E2E2E2E2E2E2E2E2E2E2E2E2E2E2E2E2E2E2E2E2E2F5E2E200F5E2E2F5E2E2E2E2E2E2E2E2E2E2E2E2E2E2E2E2E2E2E2E2E2E2E2E2E2E2E2E2E2E2E2E2E2E2E2E2E2E2E2E2E2E2E2E2E2E2E2E2E2E2E2E2E2E2E2E2
310
E2E2E2E2E2E2E2E2E2E2E2E2E2E2E2E2E2E2E2E2E2E2E2E2E2E2E2E2E2E2E2E2E2E2E2E2F5E2E200F5E2E2F5E2E2E2E2E2E2E2E2E2E2E2E2E2E2E2E2E2E2E2E2E2E2E2E2E2E2E2E2E2E2E2E2E2E2E2E2E2E2E2E2E2E2E2E2E2E2E2E2E2E2E2E2E2E2E2E2E2E2E2E2E2E2E2E2E2E2E2E2E2E2E2E2E2E2E2E2E2E2E2E2E2E2E2
310
E2E2E2E2E2E2E2E2E2F5E2E200F5E2E2F5E2E2E2E2E2E2E2E2E2E2E2E2E2E2E2E2E2E2E2E2E2E2E2E2E2E2E2E2E2E2E2E2E2E2E2E2E2E2E2E2E2E2E2E2E2E2E2E2E2E2E2E2E2E2E2E2E2E2E2E2E2E2E2E2E2E2E2E2E2E2E2E2E2E2E2E2E2E2E2E2E2E2E2E2E2E2E2E2E2E2E2E2F5E2E200F5E2E2F5E2E2E2E2E2E2E2E2E2E2
310
E2E2E2E2E2E2E2E2E2E2E2E2E2E2E2E2E2E2E2E2E2E2E2E2E2E2E2E2E2E2E2E2E2E2E2E2E2E2E2E2E2E2E2E2E2E2E2E2E2E2E2E2E2E2E2E2E2E2E2E2E2E2E2E2E2E2E2E2E2E2E2E2E2E2E2E2E2E2E2E2E2E2F5E2E200F5E2E2F5E2E2E2E2E2E2E2E2E2E2E2E2E2E2E2E2E2E2E2E2E2E2E2E2E2E2E2E2E2E2E2E2E2E2E2E2E2
310
E2E2E2E2E2E2E2E2E2E2E2E2E2E2E2E2E2E2E2E2E2E2E2E2E2E2E2E2E2E2E2E2E2E2E2E2E2E2E2E2E2E2E2E2E2E2E2E2E2E2E2E2E2E2E2F5E2E200F5E2E2F5E2E2E2E2E2E2E2E2E2E2E2E2E2E2E2E2E2E2E2E2E2E2E2E2E2E2E2E2E2E2E2E2E2E2E2E2E2E2E2E2E2E2E2E2E2E2E2E2E2E2E2E2E2E2E2E2E2E2E2E2E2E2E2E2
310
E2E2E2E2E2E2E2E2E2E2E2E2E2E2E2E2E2E2E2E2E2E2E2E2E2E2E2E2F5E2E200F5E2E2F5F5F5F5F5F5F5F5E2E2E2E2E2E2E2E2F5F5F5F5F5F5F5F5F5F5F5F5F5F5F5E2E2E2E2E2E2E2E2E2F5F5F5F5F5F5F5F5F5F5F5F5F5F5E2E2E2E2E2E2E2E2E2F5F5F5F5F5F5F5F5F5F5F5F5F5F5F5E2E2E2E2E2E2E2E2F5F5F5F5F5F5
310
F5F5E2E201F5E2E2E2E2E2E2E2E2E2E2E2E2E2E2E2E2E2E2E2E2E2E2E2E2E2E2E2E2E2E2E2E2E2E2E2E2E2E2E2E2E2E2E2E2E2E2E2E2E2E2E2E2E2E2E2E2E2E2E2E2E2E2E2E2E2E2E2E2E2E2E2E2E2E2E2E2E2E2E2E2E2E2E2E2E2E2E2E2E2E2E2E2E2E2E2E2E2E200F5E2E2E2E2E2E2E2E2E2E2E2E2E2E2E2E2E2E2E2E2E2
310
E2E2E2E2E2E2E2E2E2E2E2E2E2E2E2E2E2E2E2E2E2E2E2E2E2E2E2E2E2E2E2E2E2E2E2E2E2E2E2E2E2E2E2E2E2E2E2E2E2E2E2E2E2E2E2E2E2E2E2E2E2E2E2E2E2E2E2E2E2E2E2E2E2E2E2E2E200
  0
XRECORD
  5
BFF1
102
{ACAD_REACTORS
330
BF6E
102
}
330
BF6E
100
AcDbXrecord
280
     1
102
MATERIAL
148
0.0
149
0.0
149
0.0
 93
        0
 94
      127
282
     0
 72
     0
 77
     0
171
     0
175
     0
179
     0
273
     0
  0
XRECORD
  5
BF70
102
{ACAD_REACTORS
330
BF6E
102
}
330
BF6E
100
AcDbXrecord
280
     1
270
     1
271
     1
  0
XRECORD
  5
BF6F
102
{ACAD_REACTORS
330
BF6E
102
}
330
BF6E
100
AcDbXrecord
280
     1
270
     1
271
     1
  0
XRECORD
  5
BF73
102
{ACAD_REACTORS
330
BF6E
102
}
330
BF6E
100
AcDbXrecord
280
     1
270
     1
271
     1
  0
XRECORD
  5
BF72
102
{ACAD_REACTORS
330
BF6E
102
}
330
BF6E
100
AcDbXrecord
280
     1
270
     1
271
     1
  0
XRECORD
  5
BF74
102
{ACAD_REACTORS
330
BF6E
102
}
330
BF6E
100
AcDbXrecord
280
     1
270
     1
271
     1
  0
XRECORD
  5
BF71
102
{ACAD_REACTORS
330
BF6E
102
}
330
BF6E
100
AcDbXrecord
280
     1
270
     1
271
     1
  0
XRECORD
  5
BFF0
102
{ACAD_REACTORS
330
BF66
102
}
330
BF66
100
AcDbXrecord
280
     1
102
MATERIAL
148
0.0
149
0.0
149
0.0
 93
        0
 94
      127
282
     0
 72
     0
 77
     0
171
     0
175
     0
179
     0
273
     0
  0
XRECORD
  5
BF68
102
{ACAD_REACTORS
330
BF66
102
}
330
BF66
100
AcDbXrecord
280
     1
270
     1
271
     1
  0
XRECORD
  5
BF67
102
{ACAD_REACTORS
330
BF66
102
}
330
BF66
100
AcDbXrecord
280
     1
270
     1
271
     1
  0
XRECORD
  5
BF6B
102
{ACAD_REACTORS
330
BF66
102
}
330
BF66
100
AcDbXrecord
280
     1
270
     1
271
     1
  0
XRECORD
  5
BF6A
102
{ACAD_REACTORS
330
BF66
102
}
330
BF66
100
AcDbXrecord
280
     1
270
     1
271
     1
  0
XRECORD
  5
BF6C
102
{ACAD_REACTORS
330
BF66
102
}
330
BF66
100
AcDbXrecord
280
     1
270
     1
271
     1
  0
XRECORD
  5
BF69
102
{ACAD_REACTORS
330
BF66
102
}
330
BF66
100
AcDbXrecord
280
     1
270
     1
271
     1
  0
XRECORD
  5
BFF2
102
{ACAD_REACTORS
330
BF76
102
}
330
BF76
100
AcDbXrecord
280
     1
102
MATERIAL
148
0.0
149
0.0
149
0.0
 93
        0
 94
      127
282
     0
 72
     0
 77
     0
171
     0
175
     0
179
     0
273
     0
  0
XRECORD
  5
BF78
102
{ACAD_REACTORS
330
BF76
102
}
330
BF76
100
AcDbXrecord
280
     1
270
     1
271
     1
  0
XRECORD
  5
BF77
102
{ACAD_REACTORS
330
BF76
102
}
330
BF76
100
AcDbXrecord
280
     1
270
     1
271
     1
  0
XRECORD
  5
BF7B
102
{ACAD_REACTORS
330
BF76
102
}
330
BF76
100
AcDbXrecord
280
     1
270
     1
271
     1
  0
XRECORD
  5
BF7A
102
{ACAD_REACTORS
330
BF76
102
}
330
BF76
100
AcDbXrecord
280
     1
270
     1
271
     1
  0
XRECORD
  5
BF7C
102
{ACAD_REACTORS
330
BF76
102
}
330
BF76
100
AcDbXrecord
280
     1
270
     1
271
     1
  0
XRECORD
  5
BF79
102
{ACAD_REACTORS
330
BF76
102
}
330
BF76
100
AcDbXrecord
280
     1
270
     1
271
     1
  0
CELLSTYLEMAP
  5
BFE9
102
{ACAD_REACTORS
330
BFE8
102
}
330
BFE8
100
AcDbCellStyleMap
 90
        3
300
CELLSTYLE
  1
TABLEFORMAT_BEGIN
 90
        5
170
     1
 91
        0
 92
    32768
 62
   257
 93
        1
300
CONTENTFORMAT
  1
CONTENTFORMAT_BEGIN
 90
        0
 91
        0
 92
      512
 93
        0
300

 40
0.0
140
1.0
 94
        5
 62
     0
340
11
144
0.25
309
CONTENTFORMAT_END
171
     0
 94
        0
309
TABLEFORMAT_END
  1
CELLSTYLE_BEGIN
 90
        1
 91
        1
300
_TITLE
309
CELLSTYLE_END
300
CELLSTYLE
  1
TABLEFORMAT_BEGIN
 90
        5
170
     1
 91
        0
 92
        0
 62
   257
 93
        1
300
CONTENTFORMAT
  1
CONTENTFORMAT_BEGIN
 90
        0
 91
        0
 92
      512
 93
        0
300

 40
0.0
140
1.0
 94
        5
 62
     0
340
11
144
0.18
309
CONTENTFORMAT_END
171
     0
 94
        0
309
TABLEFORMAT_END
  1
CELLSTYLE_BEGIN
 90
        2
 91
        1
300
_HEADER
309
CELLSTYLE_END
300
CELLSTYLE
  1
TABLEFORMAT_BEGIN
 90
        5
170
     1
 91
        0
 92
        0
 62
   257
 93
        1
300
CONTENTFORMAT
  1
CONTENTFORMAT_BEGIN
 90
        0
 91
        0
 92
      512
 93
        0
300

 40
0.0
140
1.0
 94
        2
 62
     0
340
11
144
0.18
309
CONTENTFORMAT_END
171
     0
 94
        0
309
TABLEFORMAT_END
  1
CELLSTYLE_BEGIN
 90
        3
 91
        2
300
_DATA
309
CELLSTYLE_END
  0
XRECORD
  5
C019
102
{ACAD_REACTORS
330
BFE8
102
}
330
BFE8
100
AcDbXrecord
280
     1
102
ACAD_ROUNDTRIP_PRE2007_TABLESTYLE
 90
      512
 91
        0
  1

 92
      512
 93
        0
  2

 94
      512
 95
        0
  3

  0
XRECORD
  5
BFFE
102
{ACAD_REACTORS
330
BFFD
102
}
330
BFFD
100
AcDbXrecord
280
     1
102
RTVSPropertyOp0
 70
     1
102
RTVSPropertyOp1
 70
     1
102
RTVSPropertyOp2
 70
     1
102
RTVSPropertyOp3
 70
     1
102
RTVSPropertyOp4
 70
     1
102
RTVSPropertyOp5
 70
     1
102
RTVSPropertyOp6
 70
     1
102
RTVSPropertyOp7
 70
     1
102
RTVSPropertyOp8
 70
     1
102
RTVSPropertyOp9
 70
     1
102
RTVSPropertyOp10
 70
     1
102
RTVSPropertyOp11
 70
     1
102
RTVSPropertyOp12
 70
     1
102
RTVSPropertyOp13
 70
     1
102
RTVSPropertyOp14
 70
     1
102
RTVSPropertyOp15
 70
     1
102
RTVSPropertyOp16
 70
     1
102
RTVSPropertyOp17
 70
     1
102
RTVSPropertyOp18
 70
     1
102
RTVSPropertyOp19
 70
     1
102
RTVSPropertyOp20
 70
     1
102
RTVSPropertyOp21
 70
     1
102
RTVSPropertyOp22
 70
     1
102
RTVSPropertyOp23
 70
     1
102
RTVSPropertyOp24
 70
     1
102
RTVSPropertyOp25
 70
     1
102
RTVSPropertyOp26
 70
     1
102
RTVSPropertyOp27
 70
     1
  0
XRECORD
  5
C002
102
{ACAD_REACTORS
330
C001
102
}
330
C001
100
AcDbXrecord
280
     1
102
RTVSPropertyOp0
 70
     1
102
RTVSPropertyOp1
 70
     1
102
RTVSPropertyOp2
 70
     1
102
RTVSPropertyOp3
 70
     1
102
RTVSPropertyOp4
 70
     1
102
RTVSPropertyOp5
 70
     1
102
RTVSPropertyOp6
 70
     1
102
RTVSPropertyOp7
 70
     1
102
RTVSPropertyOp8
 70
     1
102
RTVSPropertyOp9
 70
     1
102
RTVSPropertyOp10
 70
     1
102
RTVSPropertyOp11
 70
     1
102
RTVSPropertyOp12
 70
     1
102
RTVSPropertyOp13
 70
     1
102
RTVSPropertyOp14
 70
     1
102
RTVSPropertyOp15
 70
     1
102
RTVSPropertyOp16
 70
     1
102
RTVSPropertyOp17
 70
     1
102
RTVSPropertyOp18
 70
     1
102
RTVSPropertyOp19
 70
     1
102
RTVSPropertyOp20
 70
     1
102
RTVSPropertyOp21
 70
     1
102
RTVSPropertyOp22
 70
     1
102
RTVSPropertyOp23
 70
     1
102
RTVSPropertyOp24
 70
     1
102
RTVSPropertyOp25
 70
     1
102
RTVSPropertyOp26
 70
     1
102
RTVSPropertyOp27
 70
     1
  0
XRECORD
  5
C000
102
{ACAD_REACTORS
330
BFFF
102
}
330
BFFF
100
AcDbXrecord
280
     1
102
RTVSPropertyOp0
 70
     1
102
RTVSPropertyOp1
 70
     1
102
RTVSPropertyOp2
 70
     1
102
RTVSPropertyOp3
 70
     1
102
RTVSPropertyOp4
 70
     1
102
RTVSPropertyOp5
 70
     1
102
RTVSPropertyOp6
 70
     1
102
RTVSPropertyOp7
 70
     1
102
RTVSPropertyOp8
 70
     1
102
RTVSPropertyOp9
 70
     1
102
RTVSPropertyOp10
 70
     1
102
RTVSPropertyOp11
 70
     1
102
RTVSPropertyOp12
 70
     1
102
RTVSPropertyOp13
 70
     1
102
RTVSPropertyOp14
 70
     1
102
RTVSPropertyOp15
 70
     1
102
RTVSPropertyOp16
 70
     1
102
RTVSPropertyOp17
 70
     1
102
RTVSPropertyOp18
 70
     1
102
RTVSPropertyOp19
 70
     1
102
RTVSPropertyOp20
 70
     1
102
RTVSPropertyOp21
 70
     1
102
RTVSPropertyOp22
 70
     1
102
RTVSPropertyOp23
 70
     1
102
RTVSPropertyOp24
 70
     1
102
RTVSPropertyOp25
 70
     1
102
RTVSPropertyOp26
 70
     1
102
RTVSPropertyOp27
 70
     1
  0
XRECORD
  5
BFFC
102
{ACAD_REACTORS
330
BFFB
102
}
330
BFFB
100
AcDbXrecord
280
     1
102
RTVSPropertyOp0
 70
     1
102
RTVSPropertyOp1
 70
     1
102
RTVSPropertyOp2
 70
     1
102
RTVSPropertyOp3
 70
     1
102
RTVSPropertyOp4
 70
     1
102
RTVSPropertyOp5
 70
     1
102
RTVSPropertyOp6
 70
     1
102
RTVSPropertyOp7
 70
     1
102
RTVSPropertyOp8
 70
     1
102
RTVSPropertyOp9
 70
     1
102
RTVSPropertyOp10
 70
     1
102
RTVSPropertyOp11
 70
     1
102
RTVSPropertyOp12
 70
     1
102
RTVSPropertyOp13
 70
     1
102
RTVSPropertyOp14
 70
     1
102
RTVSPropertyOp15
 70
     1
102
RTVSPropertyOp16
 70
     1
102
RTVSPropertyOp17
 70
     1
102
RTVSPropertyOp18
 70
     1
102
RTVSPropertyOp19
 70
     1
102
RTVSPropertyOp20
 70
     1
102
RTVSPropertyOp21
 70
     1
102
RTVSPropertyOp22
 70
     1
102
RTVSPropertyOp23
 70
     1
102
RTVSPropertyOp24
 70
     1
102
RTVSPropertyOp25
 70
     1
102
RTVSPropertyOp26
 70
     1
102
RTVSPropertyOp27
 70
     1
  0
XRECORD
  5
C00A
102
{ACAD_REACTORS
330
C009
102
}
330
C009
100
AcDbXrecord
280
     1
102
RTVSPropertyOp0
 70
     1
102
RTVSPropertyOp1
 70
     1
102
RTVSPropertyOp2
 70
     1
102
RTVSPropertyOp3
 70
     1
102
RTVSPropertyOp4
 70
     1
102
RTVSPropertyOp5
 70
     1
102
RTVSPropertyOp6
 70
     1
102
RTVSPropertyOp7
 70
     1
102
RTVSPropertyOp8
 70
     1
102
RTVSPropertyOp9
 70
     1
102
RTVSPropertyOp10
 70
     1
102
RTVSPropertyOp11
 70
     1
102
RTVSPropertyOp12
 70
     1
102
RTVSPropertyOp13
 70
     1
102
RTVSPropertyOp14
 70
     1
102
RTVSPropertyOp15
 70
     1
102
RTVSPropertyOp16
 70
     1
102
RTVSPropertyOp17
 70
     1
102
RTVSPropertyOp18
 70
     1
102
RTVSPropertyOp19
 70
     1
102
RTVSPropertyOp20
 70
     1
102
RTVSPropertyOp21
 70
     1
102
RTVSPropertyOp22
 70
     1
102
RTVSPropertyOp23
 70
     1
102
RTVSPropertyOp24
 70
     1
102
RTVSPropertyOp25
 70
     1
102
RTVSPropertyOp26
 70
     1
102
RTVSPropertyOp27
 70
     1
  0
XRECORD
  5
C012
102
{ACAD_REACTORS
330
C011
102
}
330
C011
100
AcDbXrecord
280
     1
102
RTVSPropertyOp0
 70
     1
102
RTVSPropertyOp1
 70
     1
102
RTVSPropertyOp2
 70
     1
102
RTVSPropertyOp3
 70
     1
102
RTVSPropertyOp4
 70
     1
102
RTVSPropertyOp5
 70
     1
102
RTVSPropertyOp6
 70
     1
102
RTVSPropertyOp7
 70
     1
102
RTVSPropertyOp8
 70
     1
102
RTVSPropertyOp9
 70
     1
102
RTVSPropertyOp10
 70
     1
102
RTVSPropertyOp11
 70
     1
102
RTVSPropertyOp12
 70
     1
102
RTVSPropertyOp13
 70
     1
102
RTVSPropertyOp14
 70
     1
102
RTVSPropertyOp15
 70
     1
102
RTVSPropertyOp16
 70
     1
102
RTVSPropertyOp17
 70
     1
102
RTVSPropertyOp18
 70
     1
102
RTVSPropertyOp19
 70
     1
102
RTVSPropertyOp20
 70
     1
102
RTVSPropertyOp21
 70
     1
102
RTVSPropertyOp22
 70
     1
102
RTVSPropertyOp23
 70
     1
102
RTVSPropertyOp24
 70
     1
102
RTVSPropertyOp25
 70
     1
102
RTVSPropertyOp26
 70
     1
102
RTVSPropertyOp27
 70
     1
  0
XRECORD
  5
C004
102
{ACAD_REACTORS
330
C003
102
}
330
C003
100
AcDbXrecord
280
     1
102
RTVSPropertyOp0
 70
     1
102
RTVSPropertyOp1
 70
     1
102
RTVSPropertyOp2
 70
     1
102
RTVSPropertyOp3
 70
     1
102
RTVSPropertyOp4
 70
     1
102
RTVSPropertyOp5
 70
     1
102
RTVSPropertyOp6
 70
     1
102
RTVSPropertyOp7
 70
     1
102
RTVSPropertyOp8
 70
     1
102
RTVSPropertyOp9
 70
     1
102
RTVSPropertyOp10
 70
     1
102
RTVSPropertyOp11
 70
     1
102
RTVSPropertyOp12
 70
     1
102
RTVSPropertyOp13
 70
     1
102
RTVSPropertyOp14
 70
     1
102
RTVSPropertyOp15
 70
     1
102
RTVSPropertyOp16
 70
     1
102
RTVSPropertyOp17
 70
     1
102
RTVSPropertyOp18
 70
     1
102
RTVSPropertyOp19
 70
     1
102
RTVSPropertyOp20
 70
     1
102
RTVSPropertyOp21
 70
     1
102
RTVSPropertyOp22
 70
     1
102
RTVSPropertyOp23
 70
     1
102
RTVSPropertyOp24
 70
     1
102
RTVSPropertyOp25
 70
     1
102
RTVSPropertyOp26
 70
     1
102
RTVSPropertyOp27
 70
     1
  0
XRECORD
  5
C008
102
{ACAD_REACTORS
330
C007
102
}
330
C007
100
AcDbXrecord
280
     1
102
RTVSPropertyOp0
 70
     1
102
RTVSPropertyOp1
 70
     1
102
RTVSPropertyOp2
 70
     1
102
RTVSPropertyOp3
 70
     1
102
RTVSPropertyOp4
 70
     1
102
RTVSPropertyOp5
 70
     1
102
RTVSPropertyOp6
 70
     1
102
RTVSPropertyOp7
 70
     1
102
RTVSPropertyOp8
 70
     1
102
RTVSPropertyOp9
 70
     1
102
RTVSPropertyOp10
 70
     1
102
RTVSPropertyOp11
 70
     1
102
RTVSPropertyOp12
 70
     1
102
RTVSPropertyOp13
 70
     1
102
RTVSPropertyOp14
 70
     1
102
RTVSPropertyOp15
 70
     1
102
RTVSPropertyOp16
 70
     1
102
RTVSPropertyOp17
 70
     1
102
RTVSPropertyOp18
 70
     1
102
RTVSPropertyOp19
 70
     1
102
RTVSPropertyOp20
 70
     1
102
RTVSPropertyOp21
 70
     1
102
RTVSPropertyOp22
 70
     1
102
RTVSPropertyOp23
 70
     1
102
RTVSPropertyOp24
 70
     1
102
RTVSPropertyOp25
 70
     1
102
RTVSPropertyOp26
 70
     1
102
RTVSPropertyOp27
 70
     1
  0
XRECORD
  5
C018
102
{ACAD_REACTORS
330
C017
102
}
330
C017
100
AcDbXrecord
280
     1
102
RTVSPropertyOp0
 70
     0
102
RTVSPropertyOp1
 70
     0
102
RTVSPropertyOp2
 70
     0
102
RTVSPropertyOp3
 70
     0
102
RTVSPropertyOp4
 70
     0
102
RTVSPropertyOp5
 70
     0
102
RTVSPropertyOp6
 70
     0
102
RTVSPropertyOp7
 70
     0
102
RTVSPropertyOp8
 70
     0
102
RTVSPropertyOp9
 70
     0
102
RTVSPropertyOp10
 70
     0
102
RTVSPropertyOp11
 70
     0
102
RTVSPropertyOp12
 70
     0
102
RTVSPropertyOp13
 70
     0
102
RTVSPropertyOp14
 70
     2
102
RTVSPropertyOp15
 70
     0
102
RTVSPropertyOp16
 70
     0
102
RTVSPropertyOp17
 70
     0
102
RTVSPropertyOp18
 70
     0
102
RTVSPropertyOp19
 70
     0
102
RTVSPropertyOp20
 70
     0
102
RTVSPropertyOp21
 70
     0
102
RTVSPropertyOp22
 70
     0
102
RTVSPropertyOp23
 70
     0
102
RTVSPropertyOp24
 70
     0
102
RTVSPropertyOp25
 70
     0
102
RTVSPropertyOp26
 70
     0
102
RTVSPropertyOp27
 70
     0
  0
XRECORD
  5
C010
102
{ACAD_REACTORS
330
C00F
102
}
330
C00F
100
AcDbXrecord
280
     1
102
RTVSPropertyOp0
 70
     1
102
RTVSPropertyOp1
 70
     1
102
RTVSPropertyOp2
 70
     1
102
RTVSPropertyOp3
 70
     1
102
RTVSPropertyOp4
 70
     1
102
RTVSPropertyOp5
 70
     1
102
RTVSPropertyOp6
 70
     1
102
RTVSPropertyOp7
 70
     1
102
RTVSPropertyOp8
 70
     1
102
RTVSPropertyOp9
 70
     1
102
RTVSPropertyOp10
 70
     1
102
RTVSPropertyOp11
 70
     1
102
RTVSPropertyOp12
 70
     1
102
RTVSPropertyOp13
 70
     1
102
RTVSPropertyOp14
 70
     1
102
RTVSPropertyOp15
 70
     1
102
RTVSPropertyOp16
 70
     1
102
RTVSPropertyOp17
 70
     1
102
RTVSPropertyOp18
 70
     1
102
RTVSPropertyOp19
 70
     1
102
RTVSPropertyOp20
 70
     1
102
RTVSPropertyOp21
 70
     1
102
RTVSPropertyOp22
 70
     1
102
RTVSPropertyOp23
 70
     1
102
RTVSPropertyOp24
 70
     1
102
RTVSPropertyOp25
 70
     1
102
RTVSPropertyOp26
 70
     1
102
RTVSPropertyOp27
 70
     1
  0
XRECORD
  5
BFF4
102
{ACAD_REACTORS
330
BFF3
102
}
330
BFF3
100
AcDbXrecord
280
     1
102
RTVSPropertyOp0
 70
     1
102
RTVSPropertyOp1
 70
     1
102
RTVSPropertyOp2
 70
     1
102
RTVSPropertyOp3
 70
     1
102
RTVSPropertyOp4
 70
     1
102
RTVSPropertyOp5
 70
     1
102
RTVSPropertyOp6
 70
     1
102
RTVSPropertyOp7
 70
     1
102
RTVSPropertyOp8
 70
     1
102
RTVSPropertyOp9
 70
     1
102
RTVSPropertyOp10
 70
     1
102
RTVSPropertyOp11
 70
     1
102
RTVSPropertyOp12
 70
     1
102
RTVSPropertyOp13
 70
     1
102
RTVSPropertyOp14
 70
     1
102
RTVSPropertyOp15
 70
     1
102
RTVSPropertyOp16
 70
     1
102
RTVSPropertyOp17
 70
     1
102
RTVSPropertyOp18
 70
     1
102
RTVSPropertyOp19
 70
     1
102
RTVSPropertyOp20
 70
     1
102
RTVSPropertyOp21
 70
     1
102
RTVSPropertyOp22
 70
     1
102
RTVSPropertyOp23
 70
     1
102
RTVSPropertyOp24
 70
     1
102
RTVSPropertyOp25
 70
     1
102
RTVSPropertyOp26
 70
     1
102
RTVSPropertyOp27
 70
     1
  0
XRECORD
  5
BFF6
102
{ACAD_REACTORS
330
BFF5
102
}
330
BFF5
100
AcDbXrecord
280
     1
102
RTVSPropertyOp0
 70
     1
102
RTVSPropertyOp1
 70
     1
102
RTVSPropertyOp2
 70
     1
102
RTVSPropertyOp3
 70
     1
102
RTVSPropertyOp4
 70
     1
102
RTVSPropertyOp5
 70
     1
102
RTVSPropertyOp6
 70
     1
102
RTVSPropertyOp7
 70
     1
102
RTVSPropertyOp8
 70
     1
102
RTVSPropertyOp9
 70
     1
102
RTVSPropertyOp10
 70
     1
102
RTVSPropertyOp11
 70
     1
102
RTVSPropertyOp12
 70
     1
102
RTVSPropertyOp13
 70
     1
102
RTVSPropertyOp14
 70
     1
102
RTVSPropertyOp15
 70
     1
102
RTVSPropertyOp16
 70
     1
102
RTVSPropertyOp17
 70
     1
102
RTVSPropertyOp18
 70
     1
102
RTVSPropertyOp19
 70
     1
102
RTVSPropertyOp20
 70
     1
102
RTVSPropertyOp21
 70
     1
102
RTVSPropertyOp22
 70
     1
102
RTVSPropertyOp23
 70
     1
102
RTVSPropertyOp24
 70
     1
102
RTVSPropertyOp25
 70
     1
102
RTVSPropertyOp26
 70
     1
102
RTVSPropertyOp27
 70
     1
  0
XRECORD
  5
BFF8
102
{ACAD_REACTORS
330
BFF7
102
}
330
BFF7
100
AcDbXrecord
280
     1
102
RTVSPropertyOp0
 70
     1
102
RTVSPropertyOp1
 70
     1
102
RTVSPropertyOp2
 70
     1
102
RTVSPropertyOp3
 70
     1
102
RTVSPropertyOp4
 70
     1
102
RTVSPropertyOp5
 70
     1
102
RTVSPropertyOp6
 70
     1
102
RTVSPropertyOp7
 70
     1
102
RTVSPropertyOp8
 70
     1
102
RTVSPropertyOp9
 70
     1
102
RTVSPropertyOp10
 70
     1
102
RTVSPropertyOp11
 70
     1
102
RTVSPropertyOp12
 70
     1
102
RTVSPropertyOp13
 70
     1
102
RTVSPropertyOp14
 70
     1
102
RTVSPropertyOp15
 70
     1
102
RTVSPropertyOp16
 70
     1
102
RTVSPropertyOp17
 70
     1
102
RTVSPropertyOp18
 70
     1
102
RTVSPropertyOp19
 70
     1
102
RTVSPropertyOp20
 70
     1
102
RTVSPropertyOp21
 70
     1
102
RTVSPropertyOp22
 70
     1
102
RTVSPropertyOp23
 70
     1
102
RTVSPropertyOp24
 70
     1
102
RTVSPropertyOp25
 70
     1
102
RTVSPropertyOp26
 70
     1
102
RTVSPropertyOp27
 70
     1
  0
XRECORD
  5
BFFA
102
{ACAD_REACTORS
330
BFF9
102
}
330
BFF9
100
AcDbXrecord
280
     1
102
RTVSPropertyOp0
 70
     1
102
RTVSPropertyOp1
 70
     1
102
RTVSPropertyOp2
 70
     1
102
RTVSPropertyOp3
 70
     1
102
RTVSPropertyOp4
 70
     1
102
RTVSPropertyOp5
 70
     1
102
RTVSPropertyOp6
 70
     1
102
RTVSPropertyOp7
 70
     1
102
RTVSPropertyOp8
 70
     1
102
RTVSPropertyOp9
 70
     1
102
RTVSPropertyOp10
 70
     1
102
RTVSPropertyOp11
 70
     1
102
RTVSPropertyOp12
 70
     1
102
RTVSPropertyOp13
 70
     1
102
RTVSPropertyOp14
 70
     1
102
RTVSPropertyOp15
 70
     1
102
RTVSPropertyOp16
 70
     1
102
RTVSPropertyOp17
 70
     1
102
RTVSPropertyOp18
 70
     1
102
RTVSPropertyOp19
 70
     1
102
RTVSPropertyOp20
 70
     1
102
RTVSPropertyOp21
 70
     1
102
RTVSPropertyOp22
 70
     1
102
RTVSPropertyOp23
 70
     1
102
RTVSPropertyOp24
 70
     1
102
RTVSPropertyOp25
 70
     1
102
RTVSPropertyOp26
 70
     1
102
RTVSPropertyOp27
 70
     1
  0
XRECORD
  5
C014
102
{ACAD_REACTORS
330
C013
102
}
330
C013
100
AcDbXrecord
280
     1
102
RTVSPropertyOp0
 70
     0
102
RTVSPropertyOp1
 70
     0
102
RTVSPropertyOp2
 70
     0
102
RTVSPropertyOp3
 70
     0
102
RTVSPropertyOp4
 70
     0
102
RTVSPropertyOp5
 70
     0
102
RTVSPropertyOp6
 70
     0
102
RTVSPropertyOp7
 70
     0
102
RTVSPropertyOp8
 70
     0
102
RTVSPropertyOp9
 70
     0
102
RTVSPropertyOp10
 70
     0
102
RTVSPropertyOp11
 70
     0
102
RTVSPropertyOp12
 70
     0
102
RTVSPropertyOp13
 70
     0
102
RTVSPropertyOp14
 70
     2
102
RTVSPropertyOp15
 70
     0
102
RTVSPropertyOp16
 70
     0
102
RTVSPropertyOp17
 70
     0
102
RTVSPropertyOp18
 70
     0
102
RTVSPropertyOp19
 70
     0
102
RTVSPropertyOp20
 70
     0
102
RTVSPropertyOp21
 70
     0
102
RTVSPropertyOp22
 70
     0
102
RTVSPropertyOp23
 70
     0
102
RTVSPropertyOp24
 70
     0
102
RTVSPropertyOp25
 70
     0
102
RTVSPropertyOp26
 70
     0
102
RTVSPropertyOp27
 70
     0
  0
XRECORD
  5
C00E
102
{ACAD_REACTORS
330
C00D
102
}
330
C00D
100
AcDbXrecord
280
     1
102
RTVSPropertyOp0
 70
     1
102
RTVSPropertyOp1
 70
     1
102
RTVSPropertyOp2
 70
     1
102
RTVSPropertyOp3
 70
     1
102
RTVSPropertyOp4
 70
     1
102
RTVSPropertyOp5
 70
     1
102
RTVSPropertyOp6
 70
     1
102
RTVSPropertyOp7
 70
     1
102
RTVSPropertyOp8
 70
     1
102
RTVSPropertyOp9
 70
     1
102
RTVSPropertyOp10
 70
     1
102
RTVSPropertyOp11
 70
     1
102
RTVSPropertyOp12
 70
     1
102
RTVSPropertyOp13
 70
     1
102
RTVSPropertyOp14
 70
     1
102
RTVSPropertyOp15
 70
     1
102
RTVSPropertyOp16
 70
     1
102
RTVSPropertyOp17
 70
     1
102
RTVSPropertyOp18
 70
     1
102
RTVSPropertyOp19
 70
     1
102
RTVSPropertyOp20
 70
     1
102
RTVSPropertyOp21
 70
     1
102
RTVSPropertyOp22
 70
     1
102
RTVSPropertyOp23
 70
     1
102
RTVSPropertyOp24
 70
     1
102
RTVSPropertyOp25
 70
     1
102
RTVSPropertyOp26
 70
     1
102
RTVSPropertyOp27
 70
     1
  0
XRECORD
  5
C016
102
{ACAD_REACTORS
330
C015
102
}
330
C015
100
AcDbXrecord
280
     1
102
RTVSPropertyOp0
 70
     0
102
RTVSPropertyOp1
 70
     0
102
RTVSPropertyOp2
 70
     0
102
RTVSPropertyOp3
 70
     0
102
RTVSPropertyOp4
 70
     0
102
RTVSPropertyOp5
 70
     0
102
RTVSPropertyOp6
 70
     0
102
RTVSPropertyOp7
 70
     0
102
RTVSPropertyOp8
 70
     0
102
RTVSPropertyOp9
 70
     0
102
RTVSPropertyOp10
 70
     0
102
RTVSPropertyOp11
 70
     0
102
RTVSPropertyOp12
 70
     0
102
RTVSPropertyOp13
 70
     0
102
RTVSPropertyOp14
 70
     2
102
RTVSPropertyOp15
 70
     0
102
RTVSPropertyOp16
 70
     0
102
RTVSPropertyOp17
 70
     0
102
RTVSPropertyOp18
 70
     0
102
RTVSPropertyOp19
 70
     0
102
RTVSPropertyOp20
 70
     0
102
RTVSPropertyOp21
 70
     0
102
RTVSPropertyOp22
 70
     0
102
RTVSPropertyOp23
 70
     0
102
RTVSPropertyOp24
 70
     0
102
RTVSPropertyOp25
 70
     0
102
RTVSPropertyOp26
 70
     0
102
RTVSPropertyOp27
 70
     0
  0
XRECORD
  5
C006
102
{ACAD_REACTORS
330
C005
102
}
330
C005
100
AcDbXrecord
280
     1
102
RTVSPropertyOp0
 70
     1
102
RTVSPropertyOp1
 70
     1
102
RTVSPropertyOp2
 70
     1
102
RTVSPropertyOp3
 70
     1
102
RTVSPropertyOp4
 70
     1
102
RTVSPropertyOp5
 70
     1
102
RTVSPropertyOp6
 70
     1
102
RTVSPropertyOp7
 70
     1
102
RTVSPropertyOp8
 70
     1
102
RTVSPropertyOp9
 70
     1
102
RTVSPropertyOp10
 70
     1
102
RTVSPropertyOp11
 70
     1
102
RTVSPropertyOp12
 70
     1
102
RTVSPropertyOp13
 70
     1
102
RTVSPropertyOp14
 70
     1
102
RTVSPropertyOp15
 70
     1
102
RTVSPropertyOp16
 70
     1
102
RTVSPropertyOp17
 70
     1
102
RTVSPropertyOp18
 70
     1
102
RTVSPropertyOp19
 70
     1
102
RTVSPropertyOp20
 70
     1
102
RTVSPropertyOp21
 70
     1
102
RTVSPropertyOp22
 70
     1
102
RTVSPropertyOp23
 70
     1
102
RTVSPropertyOp24
 70
     1
102
RTVSPropertyOp25
 70
     1
102
RTVSPropertyOp26
 70
     1
102
RTVSPropertyOp27
 70
     1
  0
XRECORD
  5
C00C
102
{ACAD_REACTORS
330
C00B
102
}
330
C00B
100
AcDbXrecord
280
     1
102
RTVSPropertyOp0
 70
     1
102
RTVSPropertyOp1
 70
     1
102
RTVSPropertyOp2
 70
     1
102
RTVSPropertyOp3
 70
     1
102
RTVSPropertyOp4
 70
     1
102
RTVSPropertyOp5
 70
     1
102
RTVSPropertyOp6
 70
     1
102
RTVSPropertyOp7
 70
     1
102
RTVSPropertyOp8
 70
     1
102
RTVSPropertyOp9
 70
     1
102
RTVSPropertyOp10
 70
     1
102
RTVSPropertyOp11
 70
     1
102
RTVSPropertyOp12
 70
     1
102
RTVSPropertyOp13
 70
     1
102
RTVSPropertyOp14
 70
     1
102
RTVSPropertyOp15
 70
     1
102
RTVSPropertyOp16
 70
     1
102
RTVSPropertyOp17
 70
     1
102
RTVSPropertyOp18
 70
     1
102
RTVSPropertyOp19
 70
     1
102
RTVSPropertyOp20
 70
     1
102
RTVSPropertyOp21
 70
     1
102
RTVSPropertyOp22
 70
     1
102
RTVSPropertyOp23
 70
     1
102
RTVSPropertyOp24
 70
     1
102
RTVSPropertyOp25
 70
     1
102
RTVSPropertyOp26
 70
     1
102
RTVSPropertyOp27
 70
     1
  0
ENDSEC
  0
EOF
