  0
SECTION
  2
HEADER
  9
$ACADVER
  1
AC1015
  9
$ACADMAINTVER
 70
    20
  9
$DWGCODEPAGE
  3
ANSI_932
  9
$INSBASE
 10
0.0
 20
0.0
 30
0.0
  9
$EXTMIN
 10
-201.4283432969983
 20
-653.5669555612301
 30
-0.0000000000000207
  9
$EXTMAX
 10
873.2244475827711
 20
136.9770103921737
 30
0.0000000000000099
  9
$LIMMIN
 10
0.0
 20
0.0
  9
$LIMMAX
 10
0.0
 20
0.0
  9
$ORTHOMODE
 70
     1
  9
$REGENMODE
 70
     1
  9
$FILLMODE
 70
     1
  9
$QTEXTMODE
 70
     0
  9
$MIRRTEXT
 70
     1
  9
$LTSCALE
 40
1.0
  9
$ATTMODE
 70
     1
  9
$TEXTSIZE
 40
0.0
  9
$TRACEWID
 40
0.05
  9
$TEXTSTYLE
  7
STANDARD
  9
$CLAYER
  8
0
  9
$CELTYPE
  6
CONTINUOUS
  9
$CECOLOR
 62
   256
  9
$CELTSCALE
 40
1.0
  9
$DISPSILH
 70
     0
  9
$DIMSCALE
 40
1.0
  9
$DIMASZ
 40
10.0
  9
$DIMEXO
 40
10.0
  9
$DIMDLI
 40
2.0
  9
$DIMRND
 40
0.0
  9
$DIMDLE
 40
0.0
  9
$DIMEXE
 40
10.0
  9
$DIMTP
 40
0.0
  9
$DIMTM
 40
0.0
  9
$DIMTXT
 40
15.0
  9
$DIMCEN
 40
2.5
  9
$DIMTSZ
 40
0.0
  9
$DIMTOL
 70
     0
  9
$DIMLIM
 70
     0
  9
$DIMTIH
 70
     0
  9
$DIMTOH
 70
     0
  9
$DIMSE1
 70
     0
  9
$DIMSE2
 70
     0
  9
$DIMTAD
 70
     1
  9
$DIMZIN
 70
     8
  9
$DIMBLK
  1
OPEN
  9
$DIMASO
 70
     1
  9
$DIMSHO
 70
     1
  9
$DIMPOST
  1

  9
$DIMAPOST
  1

  9
$DIMALT
 70
     0
  9
$DIMALTD
 70
     3
  9
$DIMALTF
 40
0.03937007874016
  9
$DIMLFAC
 40
1.0
  9
$DIMTOFL
 70
     1
  9
$DIMTVP
 40
0.0
  9
$DIMTIX
 70
     0
  9
$DIMSOXD
 70
     0
  9
$DIMSAH
 70
     0
  9
$DIMBLK1
  1

  9
$DIMBLK2
  1

  9
$DIMSTYLE
  2
ISO-25-2
  9
$DIMCLRD
 70
     0
  9
$DIMCLRE
 70
     0
  9
$DIMCLRT
 70
     0
  9
$DIMTFAC
 40
1.0
  9
$DIMGAP
 40
5.0
  9
$DIMJUST
 70
     0
  9
$DIMSD1
 70
     0
  9
$DIMSD2
 70
     0
  9
$DIMTOLJ
 70
     0
  9
$DIMTZIN
 70
     8
  9
$DIMALTZ
 70
     0
  9
$DIMALTTZ
 70
     0
  9
$DIMUPT
 70
     0
  9
$DIMDEC
 70
     8
  9
$DIMTDEC
 70
     8
  9
$DIMALTU
 70
     2
  9
$DIMALTTD
 70
     3
  9
$DIMTXSTY
  7
DIM
  9
$DIMAUNIT
 70
     0
  9
$DIMADEC
 70
     0
  9
$DIMALTRND
 40
0.0
  9
$DIMAZIN
 70
     0
  9
$DIMDSEP
 70
    46
  9
$DIMATFIT
 70
     2
  9
$DIMFRAC
 70
     0
  9
$DIMLDRBLK
  1
OPEN
  9
$DIMLUNIT
 70
     2
  9
$DIMLWD
 70
    -2
  9
$DIMLWE
 70
    -2
  9
$DIMTMOVE
 70
     2
  9
$LUNITS
 70
     2
  9
$LUPREC
 70
     8
  9
$SKETCHINC
 40
0.1
  9
$FILLETRAD
 40
0.0
  9
$AUNITS
 70
     0
  9
$AUPREC
 70
     2
  9
$MENU
  1
acad
  9
$ELEVATION
 40
0.0
  9
$PELEVATION
 40
0.0
  9
$THICKNESS
 40
0.0
  9
$LIMCHECK
 70
     0
  9
$CHAMFERA
 40
0.0
  9
$CHAMFERB
 40
0.0
  9
$CHAMFERC
 40
0.0
  9
$CHAMFERD
 40
0.0
  9
$SKPOLY
 70
     0
  9
$TDCREATE
 40
2311949.301211632
  9
$TDUCREATE
 40
2311948.926211632
  9
$TDUPDATE
 40
2457225.617417731
  9
$TDUUPDATE
 40
2457225.242417731
  9
$TDINDWG
 40
0.3448293056
  9
$TDUSRTIMER
 40
0.3448240509
  9
$USRTIMER
 70
     1
  9
$ANGBASE
 50
0.0
  9
$ANGDIR
 70
     0
  9
$PDMODE
 70
     0
  9
$PDSIZE
 40
-1.0
  9
$PLINEWID
 40
0.0
  9
$SPLFRAME
 70
     0
  9
$SPLINETYPE
 70
     6
  9
$SPLINESEGS
 70
     8
  9
$HANDSEED
  5
24DFA
  9
$SURFTAB1
 70
     6
  9
$SURFTAB2
 70
     6
  9
$SURFTYPE
 70
     6
  9
$SURFU
 70
     6
  9
$SURFV
 70
     6
  9
$UCSBASE
  2

  9
$UCSNAME
  2

  9
$UCSORG
 10
0.0
 20
0.0
 30
0.0
  9
$UCSXDIR
 10
1.0
 20
0.0
 30
0.0
  9
$UCSYDIR
 10
0.0
 20
1.0
 30
0.0
  9
$UCSORTHOREF
  2

  9
$UCSORTHOVIEW
 70
     0
  9
$UCSORGTOP
 10
0.0
 20
0.0
 30
0.0
  9
$UCSORGBOTTOM
 10
0.0
 20
0.0
 30
0.0
  9
$UCSORGLEFT
 10
0.0
 20
0.0
 30
0.0
  9
$UCSORGRIGHT
 10
0.0
 20
0.0
 30
0.0
  9
$UCSORGFRONT
 10
0.0
 20
0.0
 30
0.0
  9
$UCSORGBACK
 10
0.0
 20
0.0
 30
0.0
  9
$PUCSBASE
  2

  9
$PUCSNAME
  2

  9
$PUCSORG
 10
0.0
 20
0.0
 30
0.0
  9
$PUCSXDIR
 10
1.0
 20
0.0
 30
0.0
  9
$PUCSYDIR
 10
0.0
 20
1.0
 30
0.0
  9
$PUCSORTHOREF
  2

  9
$PUCSORTHOVIEW
 70
     0
  9
$PUCSORGTOP
 10
0.0
 20
0.0
 30
0.0
  9
$PUCSORGBOTTOM
 10
0.0
 20
0.0
 30
0.0
  9
$PUCSORGLEFT
 10
0.0
 20
0.0
 30
0.0
  9
$PUCSORGRIGHT
 10
0.0
 20
0.0
 30
0.0
  9
$PUCSORGFRONT
 10
0.0
 20
0.0
 30
0.0
  9
$PUCSORGBACK
 10
0.0
 20
0.0
 30
0.0
  9
$USERI1
 70
     0
  9
$USERI2
 70
     0
  9
$USERI3
 70
     0
  9
$USERI4
 70
     0
  9
$USERI5
 70
     0
  9
$USERR1
 40
0.0
  9
$USERR2
 40
0.0
  9
$USERR3
 40
0.0
  9
$USERR4
 40
0.0
  9
$USERR5
 40
0.0
  9
$WORLDVIEW
 70
     1
  9
$SHADEDGE
 70
     3
  9
$SHADEDIF
 70
    70
  9
$TILEMODE
 70
     1
  9
$MAXACTVP
 70
    16
  9
$PINSBASE
 10
0.0
 20
0.0
 30
0.0
  9
$PLIMCHECK
 70
     0
  9
$PEXTMIN
 10
1.122749993181602
 20
0.7804166500962629
 30
0.0
  9
$PEXTMAX
 10
10.10474993863443
 20
7.023749850866361
 30
0.0
  9
$PLIMMIN
 10
-0.2312499519408218
 20
-0.2312499894870548
  9
$PLIMMAX
 10
11.4587498462106
 20
8.035416452903447
  9
$UNITMODE
 70
     0
  9
$VISRETAIN
 70
     0
  9
$PLINEGEN
 70
     1
  9
$PSLTSCALE
 70
     1
  9
$TREEDEPTH
 70
  3020
  9
$CMLSTYLE
  2
STANDARD
  9
$CMLJUST
 70
     0
  9
$CMLSCALE
 40
1.0
  9
$PROXYGRAPHICS
 70
     1
  9
$MEASUREMENT
 70
     0
  9
$CELWEIGHT
370
    -1
  9
$ENDCAPS
280
     0
  9
$JOINSTYLE
280
     0
  9
$LWDISPLAY
290
     0
  9
$INSUNITS
 70
     0
  9
$HYPERLINKBASE
  1

  9
$STYLESHEET
  1
monochrome.ctb
  9
$XEDIT
290
     1
  9
$CEPSNTYPE
380
     0
  9
$PSTYLEMODE
290
     1
  9
$FINGERPRINTGUID
  2
{9DB8DEE2-0AC8-479C-9474-EFBFD89FE0C5}
  9
$VERSIONGUID
  2
{04BCCACE-E9DB-489A-A473-814161A8DCCF}
  9
$EXTNAMES
290
     1
  9
$PSVPSCALE
 40
0.0
  9
$OLESTARTUP
290
     0
  0
ENDSEC
  0
SECTION
  2
CLASSES
  0
CLASS
  1
IMAGE
  2
AcDbRasterImage
  3
ISM
 90
    34943
280
     0
281
     1
  0
CLASS
  1
DICTIONARYVAR
  2
AcDbDictionaryVar
  3
ObjectDBX Classes
 90
        0
280
     0
281
     0
  0
CLASS
  1
RASTERVARIABLES
  2
AcDbRasterVariables
  3
ISM
 90
    32768
280
     0
281
     0
  0
CLASS
  1
IMAGEDEF
  2
AcDbRasterImageDef
  3
ISM
 90
    32768
280
     0
281
     0
  0
CLASS
  1
IMAGEDEF_REACTOR
  2
AcDbRasterImageDefReactor
  3
ISM
 90
    32769
280
     0
281
     0
  0
CLASS
  1
IDBUFFER
  2
AcDbIdBuffer
  3
ObjectDBX Classes
 90
    32768
280
     0
281
     0
  0
CLASS
  1
SPATIAL_FILTER
  2
AcDbSpatialFilter
  3
ObjectDBX Classes
 90
    32768
280
     0
281
     0
  0
CLASS
  1
SORTENTSTABLE
  2
AcDbSortentsTable
  3
ObjectDBX Classes
 90
        0
280
     0
281
     0
  0
CLASS
  1
LAYER_INDEX
  2
AcDbLayerIndex
  3
ObjectDBX Classes
 90
    32768
280
     0
281
     0
  0
CLASS
  1
SPATIAL_INDEX
  2
AcDbSpatialIndex
  3
ObjectDBX Classes
 90
    32768
280
     0
281
     0
  0
CLASS
  1
OBJECT_PTR
  2
CAseDLPNTableRecord
  3
ASE-LPNTableRecord
 90
    32769
280
     0
281
     0
  0
CLASS
  1
LAYOUT
  2
AcDbLayout
  3
ObjectDBX Classes
 90
        0
280
     0
281
     0
  0
CLASS
  1
PLOTSETTINGS
  2
AcDbPlotSettings
  3
ObjectDBX Classes
 90
    32768
280
     0
281
     0
  0
CLASS
  1
ACDBDICTIONARYWDFLT
  2
AcDbDictionaryWithDefault
  3
ObjectDBX Classes
 90
        0
280
     0
281
     0
  0
CLASS
  1
ACDBPLACEHOLDER
  2
AcDbPlaceHolder
  3
ObjectDBX Classes
 90
        0
280
     0
281
     0
  0
CLASS
  1
VBA_PROJECT
  2
AcDbVbaProject
  3
acad
 90
    32768
280
     0
281
     0
  0
CLASS
  1
WIPEOUT
  2
AcDbWipeout
  3
"WipeOut|Product Desc: Object Enabler for WipeOut entity                        |Company: Autodesk, Inc.                        |WEB Address: www.autodesk.com"
 90
    34943
280
     0
281
     1
  0
CLASS
  1
WIPEOUTVARIABLES
  2
AcDbWipeoutVariables
  3
"WipeOut|Product Desc:     WipeOut Dbx Application|Company:          Autodesk, Inc.|WEB Address:      www.autodesk.com"
 90
    32768
280
     0
281
     0
  0
CLASS
  1
RTEXT
  2
RText
  3
RText|AutoCAD Express Tool|expresstools@autodesk.com
 90
    35839
280
     0
281
     1
  0
CLASS
  1
ARCALIGNEDTEXT
  2
AcDbArcAlignedText
  3
ATEXT|AutoCAD Express Tool|expresstools@autodesk.com
 90
    32768
280
     0
281
     1
  0
CLASS
  1
MATERIAL
  2
AcDbMaterial
  3
ObjectDBX Classes
 90
     1153
280
     0
281
     0
  0
CLASS
  1
VISUALSTYLE
  2
AcDbVisualStyle
  3
ObjectDBX Classes
 90
     4095
280
     0
281
     0
  0
CLASS
  1
TABLESTYLE
  2
AcDbTableStyle
  3
ObjectDBX Classes
 90
     4095
280
     0
281
     0
  0
CLASS
  1
SCALE
  2
AcDbScale
  3
ObjectDBX Classes
 90
     1153
280
     0
281
     0
  0
CLASS
  1
MLEADERSTYLE
  2
AcDbMLeaderStyle
  3
ACDB_MLEADERSTYLE_CLASS
 90
     4095
280
     0
281
     0
  0
CLASS
  1
CELLSTYLEMAP
  2
AcDbCellStyleMap
  3
ObjectDBX Classes
 90
     1152
280
     0
281
     0
  0
CLASS
  1
AEC_REFEDIT_STATUS_TRACKER
  2
AecDbRefEditStatusTracker
  3
AecArchBase60|Product Desc: Autodesk Architectural Desktop 2007 |Company: Autodesk,Inc. |WEB Address: www.autodesk.com
 90
      129
280
     0
281
     0
  0
CLASS
  1
NPOCOLLECTION
  2
AcDbImpNonPersistentObjectsCollection
  3
ObjectDBX Classes
 90
     1153
280
     0
281
     0
  0
ENDSEC
  0
SECTION
  2
TABLES
  0
TABLE
  2
VPORT
  5
7
102
{ACAD_XDICTIONARY
360
150E5
102
}
330
0
100
AcDbSymbolTable
 70
     1
  0
VPORT
  5
2636
330
7
100
AcDbSymbolTableRecord
100
AcDbViewportTableRecord
  2
*Active
 70
     0
 10
0.0
 20
0.0
 11
1.0
 21
1.0
 12
335.8980521428864
 22
-258.2949725845282
 13
0.0
 23
0.0
 14
1.0
 24
1.0
 15
5.0
 25
5.0
 16
0.0
 26
0.0
 36
1.0
 17
0.0
 27
0.0
 37
0.0
 40
795.9710412345485
 41
1.750286368843069
 42
50.0
 43
0.0
 44
0.0
 50
0.0
 51
0.0
 71
     0
 72
  2000
 73
     1
 74
     1
 75
     0
 76
     1
 77
     0
 78
     0
281
     0
 65
     1
110
0.0
120
0.0
130
0.0
111
1.0
121
0.0
131
0.0
112
0.0
122
1.0
132
0.0
 79
     0
146
0.0
  0
ENDTAB
  0
TABLE
  2
LTYPE
  5
4
330
0
100
AcDbSymbolTable
 70
     6
  0
LTYPE
  5
11
330
4
100
AcDbSymbolTableRecord
100
AcDbLinetypeTableRecord
  2
BYBLOCK
 70
     0
  3

 72
    65
 73
     0
 40
0.0
  0
LTYPE
  5
12
330
4
100
AcDbSymbolTableRecord
100
AcDbLinetypeTableRecord
  2
BYLAYER
 70
     0
  3

 72
    65
 73
     0
 40
0.0
  0
LTYPE
  5
13
330
4
100
AcDbSymbolTableRecord
100
AcDbLinetypeTableRecord
  2
CONTINUOUS
 70
     0
  3
Solid line
 72
    65
 73
     0
 40
0.0
  0
LTYPE
  5
1D
330
4
100
AcDbSymbolTableRecord
100
AcDbLinetypeTableRecord
  2
HIDDEN
 70
     0
  3
Hidden __ __ __ __ __ __ __ __ __ __ __ __ __ __
 72
    65
 73
     2
 40
1.905
 49
1.27
 74
     0
 49
-0.635
 74
     0
  0
LTYPE
  5
1E
330
4
100
AcDbSymbolTableRecord
100
AcDbLinetypeTableRecord
  2
PHANTOM
 70
     0
  3
Phantom ______  __  __  ______  __  __  ______
 72
    65
 73
     6
 40
12.7
 49
6.349999999999997
 74
     0
 49
-1.27
 74
     0
 49
1.27
 74
     0
 49
-1.27
 74
     0
 49
1.27
 74
     0
 49
-1.27
 74
     0
  0
LTYPE
  5
1F
330
4
100
AcDbSymbolTableRecord
100
AcDbLinetypeTableRecord
  2
CENTER
 70
     0
  3
Center ____ _ ____ _ ____ _ ____ _ ____ _ ____
 72
    65
 73
     4
 40
10.16
 49
6.349999999999997
 74
     0
 49
-1.27
 74
     0
 49
1.27
 74
     0
 49
-1.27
 74
     0
  0
LTYPE
  5
E23
330
4
100
AcDbSymbolTableRecord
100
AcDbLinetypeTableRecord
  2
DASHDOT
 70
     0
  3
_._._._._._._._._._._._._._._._.
 72
    65
 73
     4
 40
1.0
 49
0.5
 74
     0
 49
-0.25
 74
     0
 49
0.0
 74
     0
 49
-0.25
 74
     0
  0
LTYPE
  5
E24
330
4
100
AcDbSymbolTableRecord
100
AcDbLinetypeTableRecord
  2
CONTINOUS
 70
     0
  3
Solid line
 72
    65
 73
     0
 40
0.0
  0
ENDTAB
  0
TABLE
  2
LAYER
  5
2
330
0
100
AcDbSymbolTable
 70
     9
  0
LAYER
  5
14
102
{ACAD_XDICTIONARY
360
281C
102
}
330
2
100
AcDbSymbolTableRecord
100
AcDbLayerTableRecord
  2
0
 70
     0
 62
     7
  6
CONTINUOUS
370
    -3
390
D1F
  0
LAYER
  5
23
330
2
100
AcDbSymbolTableRecord
100
AcDbLayerTableRecord
  2
DEFPOINTS
 70
     0
 62
     7
  6
CONTINUOUS
290
     0
370
    -3
390
D1F
  0
LAYER
  5
E26
102
{ACAD_XDICTIONARY
360
2824
102
}
330
2
100
AcDbSymbolTableRecord
100
AcDbLayerTableRecord
  2
10
 70
     0
 62
     4
  6
CONTINOUS
370
    -3
390
D1F
  0
LAYER
  5
E27
102
{ACAD_XDICTIONARY
360
2826
102
}
330
2
100
AcDbSymbolTableRecord
100
AcDbLayerTableRecord
  2
16
 70
     0
 62
     6
  6
DASHDOT
370
    -3
390
D1F
  0
LAYER
  5
E28
102
{ACAD_XDICTIONARY
360
2828
102
}
330
2
100
AcDbSymbolTableRecord
100
AcDbLayerTableRecord
  2
30
 70
     0
 62
     9
  6
CONTINUOUS
370
    -3
390
D1F
  0
LAYER
  5
E2A
102
{ACAD_XDICTIONARY
360
282C
102
}
330
2
100
AcDbSymbolTableRecord
100
AcDbLayerTableRecord
  2
19
 70
     0
 62
     7
  6
CONTINUOUS
370
    -3
390
D1F
  0
LAYER
  5
E2B
102
{ACAD_XDICTIONARY
360
282E
102
}
330
2
100
AcDbSymbolTableRecord
100
AcDbLayerTableRecord
  2
11
 70
     0
 62
     1
  6
CONTINUOUS
370
    -3
390
D1F
  0
LAYER
  5
1E3E
102
{ACAD_XDICTIONARY
360
2830
102
}
330
2
100
AcDbSymbolTableRecord
100
AcDbLayerTableRecord
  2
12
 70
     0
 62
     3
  6
CONTINUOUS
370
    -3
390
D1F
  0
LAYER
  5
1E44
102
{ACAD_XDICTIONARY
360
2832
102
}
330
2
100
AcDbSymbolTableRecord
100
AcDbLayerTableRecord
  2
18
 70
     0
 62
     5
  6
CONTINUOUS
370
    -3
390
D1F
  0
ENDTAB
  0
TABLE
  2
STYLE
  5
3
330
0
100
AcDbSymbolTable
 70
     4
  0
STYLE
  5
17
330
3
100
AcDbSymbolTableRecord
100
AcDbTextStyleTableRecord
  2
STANDARD
 70
     0
 40
0.0
 41
1.0
 50
0.0
 71
     0
 42
0.0
  3
txt
  4
bigfont
  0
STYLE
  5
96
330
3
100
AcDbSymbolTableRecord
100
AcDbTextStyleTableRecord
  2
SLDTEXTSTYLE0
 70
     0
 40
0.0
 41
0.75
 50
0.0
 71
     0
 42
0.0
  3
TXT
  4
bigfont
  0
STYLE
  5
E2E
330
3
100
AcDbSymbolTableRecord
100
AcDbTextStyleTableRecord
  2
DIM
 70
     0
 40
0.0
 41
0.8
 50
0.0
 71
     0
 42
2.5
  3
simplex.shx
  4
bigfont.shx
  0
ENDTAB
  0
TABLE
  2
VIEW
  5
5
330
0
100
AcDbSymbolTable
 70
     0
  0
ENDTAB
  0
TABLE
  2
UCS
  5
6
330
0
100
AcDbSymbolTable
 70
     0
  0
ENDTAB
  0
TABLE
  2
APPID
  5
8
330
0
100
AcDbSymbolTable
 70
     6
  0
APPID
  5
16
330
8
100
AcDbSymbolTableRecord
100
AcDbRegAppTableRecord
  2
ACAD
 70
     0
  0
APPID
  5
287C
330
8
100
AcDbSymbolTableRecord
100
AcDbRegAppTableRecord
  2
ACAD_MLEADERVER
 70
     0
  0
APPID
  5
2956
330
8
100
AcDbSymbolTableRecord
100
AcDbRegAppTableRecord
  2
ACAD_DSTYLE_DIMJAG
 70
     0
  0
APPID
  5
2957
330
8
100
AcDbSymbolTableRecord
100
AcDbRegAppTableRecord
  2
ACAD_DSTYLE_DIMTALN
 70
     0
  0
APPID
  5
A249
330
8
100
AcDbSymbolTableRecord
100
AcDbRegAppTableRecord
  2
ACAD_EXEMPT_FROM_CAD_STANDARDS
 70
     0
  0
APPID
  5
21768
330
8
100
AcDbSymbolTableRecord
100
AcDbRegAppTableRecord
  2
DCO15
 70
     0
  0
ENDTAB
  0
TABLE
  2
DIMSTYLE
  5
9
330
0
100
AcDbSymbolTable
 70
     3
100
AcDbDimStyleTable
 71
     2
340
E30
340
18
  0
DIMSTYLE
105
18
330
9
100
AcDbSymbolTableRecord
100
AcDbDimStyleTableRecord
  2
STANDARD
 70
     0
340
17
  0
DIMSTYLE
105
E30
102
{ACAD_REACTORS
330
207B
330
21BF
330
2088
330
2047
330
2061
330
203A
330
8A
330
80E
330
CEB
330
CF2
330
CFA
330
D01
330
24A0
330
21E4
330
219A
330
2180
330
20B7D
330
20C2A
330
20C29
330
20CF0
330
216CC
330
227A5
330
227A2
330
227A3
330
227A4
330
2164
330
231B8
330
23CB7
102
}
330
9
100
AcDbSymbolTableRecord
100
AcDbDimStyleTableRecord
  2
ISO-25-2
 70
     0
 41
10.0
 42
10.0
 43
2.0
 44
10.0
 73
     0
 74
     0
 77
     1
 78
     8
140
15.0
141
2.5
143
0.03937007874016
147
5.0
171
     3
172
     1
271
     8
272
     8
274
     3
279
     2
283
     0
284
     8
289
     2
340
E2E
341
E11
342
E11
1001
ACAD_DSTYLE_DIMJAG
1070
   388
1040
1.5
1001
ACAD_DSTYLE_DIMTALN
1070
   392
1070
     0
  0
ENDTAB
  0
TABLE
  2
BLOCK_RECORD
  5
1
330
0
100
AcDbSymbolTable
 70
    26
  0
BLOCK_RECORD
  5
A
102
{ACAD_XDICTIONARY
360
2763
102
}
330
1
100
AcDbSymbolTableRecord
100
AcDbBlockTableRecord
  2
*MODEL_SPACE
340
D22
  0
BLOCK_RECORD
  5
B
330
1
100
AcDbSymbolTableRecord
100
AcDbBlockTableRecord
  2
*PAPER_SPACE
340
D23
  0
BLOCK_RECORD
  5
E11
330
1
100
AcDbSymbolTableRecord
100
AcDbBlockTableRecord
  2
_OPEN
340
0
310
2800000020000000200000000100080000000000000400000000000000000000000000000000000000000000000080000080000000808000800000008000800080800000C0C0C000C0DCC000F0CAA6000020400000206000002080000020A0000020C0000020E00000400000004020000040400000406000004080000040A0
310
000040C0000040E00000600000006020000060400000606000006080000060A0000060C0000060E00000800000008020000080400000806000008080000080A0000080C0000080E00000A0000000A0200000A0400000A0600000A0800000A0A00000A0C00000A0E00000C0000000C0200000C0400000C0600000C0800000C0
310
A00000C0C00000C0E00000E0000000E0200000E0400000E0600000E0800000E0A00000E0C00000E0E00040000000400020004000400040006000400080004000A0004000C0004000E00040200000402020004020400040206000402080004020A0004020C0004020E000404000004040200040404000404060004040800040
310
40A0004040C0004040E00040600000406020004060400040606000406080004060A0004060C0004060E00040800000408020004080400040806000408080004080A0004080C0004080E00040A0000040A0200040A0400040A0600040A0800040A0A00040A0C00040A0E00040C0000040C0200040C0400040C0600040C08000
310
40C0A00040C0C00040C0E00040E0000040E0200040E0400040E0600040E0800040E0A00040E0C00040E0E00080000000800020008000400080006000800080008000A0008000C0008000E00080200000802020008020400080206000802080008020A0008020C0008020E00080400000804020008040400080406000804080
310
008040A0008040C0008040E00080600000806020008060400080606000806080008060A0008060C0008060E00080800000808020008080400080806000808080008080A0008080C0008080E00080A0000080A0200080A0400080A0600080A0800080A0A00080A0C00080A0E00080C0000080C0200080C0400080C0600080C0
310
800080C0A00080C0C00080C0E00080E0000080E0200080E0400080E0600080E0800080E0A00080E0C00080E0E000C0000000C0002000C0004000C0006000C0008000C000A000C000C000C000E000C0200000C0202000C0204000C0206000C0208000C020A000C020C000C020E000C0400000C0402000C0404000C0406000C0
310
408000C040A000C040C000C040E000C0600000C0602000C0604000C0606000C0608000C060A000C060C000C060E000C0800000C0802000C0804000C0806000C0808000C080A000C080C000C080E000C0A00000C0A02000C0A04000C0A06000C0A08000C0A0A000C0A0C000C0A0E000C0C00000C0C02000C0C04000C0C06000
310
C0C08000C0C0A000F0FBFF00A4A0A000808080000000FF0000FF000000FFFF00FF000000FF00FF00FFFF0000FFFFFF0000000000000000000000000000000000000000000000000000000000000000000000000000000000000000000000000000000000000000000000000000000000000000000000000000000000000000
310
00000000000000000000000000000000000000000000000000000000000000000000000000000000000000000000000000000000000000000000000000000000000000000000000000000000000000000000000000000000000000000000000000000000000000000000000000000000000000000000000000000000000000
310
00000000000000000000000000000000000000000000000000000000000000000000000000000000000000000000000000000000000000000000000000000000000000000000000000000000000000000000000000000000000000000000000000000000000000000000000000000000000000000000000000000000000000
310
0000000000000000000000000000000000000000FFFFFF0000000000000000000000000000000000000000000000000000000000000000FFFFFFFFFFFF0000000000000000000000000000000000000000000000000000000000000000FFFFFFFFFFFF00000000000000000000000000000000000000000000000000000000
310
00000000FFFFFFFFFFFF0000000000000000000000000000000000000000000000000000000000000000FFFFFFFFFFFF0000000000FFFFFFFFFFFFFFFFFFFFFFFFFFFFFFFFFFFFFFFFFFFFFFFFFFFFFFFFFFFF000000000000000000000000000000000000000000FFFFFFFFFFFFFF00000000000000000000000000000000
310
00FFFFFFFFFFFFFFFF0000000000000000000000000000000000FFFFFFFFFFFFFF000000000000000000000000000000000000000000FFFFFFFF000000000000000000000000000000000000000000000000000000000000000000000000000000000000000000000000000000000000000000000000000000000000000000
310
00000000000000000000000000000000000000000000000000000000000000000000000000000000000000000000000000000000000000000000000000000000000000000000000000000000000000000000000000000000000000000000000000000000000000000000000000000000000000000000000000000000000000
310
00000000000000000000000000000000000000000000000000000000000000000000000000000000000000000000000000000000000000000000000000000000000000000000000000000000000000000000000000000000000000000000000000000000000000000000000000000000000000000000000000000000000000
310
0000000000000000000000000000000000000000000000000000000000000000000000000000000000000000000000000000000000000000
102
{BLKREFS
331
23137
331
23138
331
23D20
331
23D21
331
23D35
331
23D36
331
23D3D
331
23D3E
331
23D51
331
23D52
331
23FAB
331
23FAC
331
23FB3
331
23FB4
331
23FBF
331
23FC0
331
23FCA
331
23FCB
331
23FD2
331
23FD3
331
23FE4
331
23FE5
331
23FED
331
23FEE
331
23FF6
331
23FF7
331
24071
331
24072
331
24089
331
2408A
331
248D8
331
248D9
331
24903
331
24904
331
2490D
331
2490E
331
24A7D
331
24A7E
331
24A88
331
24A89
331
24A90
331
24A91
102
}
  0
BLOCK_RECORD
  5
203B
330
1
100
AcDbSymbolTableRecord
100
AcDbBlockTableRecord
  2
*D1
340
0
  0
BLOCK_RECORD
  5
2048
330
1
100
AcDbSymbolTableRecord
100
AcDbBlockTableRecord
  2
*D2
340
0
  0
BLOCK_RECORD
  5
2062
330
1
100
AcDbSymbolTableRecord
100
AcDbBlockTableRecord
  2
*D3
340
0
  0
BLOCK_RECORD
  5
207C
330
1
100
AcDbSymbolTableRecord
100
AcDbBlockTableRecord
  2
*D4
340
0
  0
BLOCK_RECORD
  5
2089
330
1
100
AcDbSymbolTableRecord
100
AcDbBlockTableRecord
  2
*D5
340
0
  0
BLOCK_RECORD
  5
2165
330
1
100
AcDbSymbolTableRecord
100
AcDbBlockTableRecord
  2
*D6
340
0
  0
BLOCK_RECORD
  5
2181
330
1
100
AcDbSymbolTableRecord
100
AcDbBlockTableRecord
  2
*D7
340
0
  0
BLOCK_RECORD
  5
219B
330
1
100
AcDbSymbolTableRecord
100
AcDbBlockTableRecord
  2
*D8
340
0
  0
BLOCK_RECORD
  5
21C0
330
1
100
AcDbSymbolTableRecord
100
AcDbBlockTableRecord
  2
*D9
340
0
  0
BLOCK_RECORD
  5
21E5
330
1
100
AcDbSymbolTableRecord
100
AcDbBlockTableRecord
  2
*D10
340
0
  0
BLOCK_RECORD
  5
20B7E
330
1
100
AcDbSymbolTableRecord
100
AcDbBlockTableRecord
  2
*D11
340
0
  0
BLOCK_RECORD
  5
20C2B
330
1
100
AcDbSymbolTableRecord
100
AcDbBlockTableRecord
  2
*D12
340
0
  0
BLOCK_RECORD
  5
20C37
330
1
100
AcDbSymbolTableRecord
100
AcDbBlockTableRecord
  2
*D13
340
0
  0
BLOCK_RECORD
  5
20CF1
330
1
100
AcDbSymbolTableRecord
100
AcDbBlockTableRecord
  2
*D14
340
0
  0
BLOCK_RECORD
  5
216CD
330
1
100
AcDbSymbolTableRecord
100
AcDbBlockTableRecord
  2
*D15
340
0
  0
BLOCK_RECORD
  5
227A7
330
1
100
AcDbSymbolTableRecord
100
AcDbBlockTableRecord
  2
*D16
340
0
  0
BLOCK_RECORD
  5
227C1
330
1
100
AcDbSymbolTableRecord
100
AcDbBlockTableRecord
  2
*D17
340
0
  0
BLOCK_RECORD
  5
227CF
330
1
100
AcDbSymbolTableRecord
100
AcDbBlockTableRecord
  2
*D18
340
0
  0
BLOCK_RECORD
  5
227DB
330
1
100
AcDbSymbolTableRecord
100
AcDbBlockTableRecord
  2
*D19
340
0
  0
BLOCK_RECORD
  5
231CA
330
1
100
AcDbSymbolTableRecord
100
AcDbBlockTableRecord
  2
*D20
340
0
  0
BLOCK_RECORD
  5
23CB8
330
1
100
AcDbSymbolTableRecord
100
AcDbBlockTableRecord
  2
*D21
340
0
  0
BLOCK_RECORD
  5
24D6E
102
{ACAD_XDICTIONARY
360
24D87
102
}
330
1
100
AcDbSymbolTableRecord
100
AcDbBlockTableRecord
  2
A$C604616B2
340
0
  0
ENDTAB
  0
ENDSEC
  0
SECTION
  2
BLOCKS
  0
BLOCK
  5
D
330
A
100
AcDbEntity
  8
0
100
AcDbBlockBegin
  2
*MODEL_SPACE
 70
     0
 10
0.0
 20
0.0
 30
0.0
  3
*MODEL_SPACE
  1

  0
ENDBLK
  5
E
330
A
100
AcDbEntity
  8
0
100
AcDbBlockEnd
  0
BLOCK
  5
F
330
B
100
AcDbEntity
 67
     1
  8
0
100
AcDbBlockBegin
  2
*PAPER_SPACE
 70
     0
 10
0.0
 20
0.0
 30
0.0
  3
*PAPER_SPACE
  1

  0
ENDBLK
  5
10
330
B
100
AcDbEntity
 67
     1
  8
0
100
AcDbBlockEnd
  0
BLOCK
  5
E15
330
E11
100
AcDbEntity
  8
0
100
AcDbBlockBegin
  2
_OPEN
 70
     0
 10
0.0
 20
0.0
 30
0.0
  3
_OPEN
  1

  0
LINE
  5
E12
330
E11
100
AcDbEntity
  8
0
  6
ByBlock
 62
     0
100
AcDbLine
 10
-1.0
 20
0.1666666666666666
 30
0.0
 11
0.0
 21
0.0
 31
0.0
  0
LINE
  5
E13
330
E11
100
AcDbEntity
  8
0
  6
ByBlock
 62
     0
100
AcDbLine
 10
0.0
 20
0.0
 30
0.0
 11
-1.0
 21
-0.1666666666666666
 31
0.0
  0
LINE
  5
E14
330
E11
100
AcDbEntity
  8
0
  6
ByBlock
 62
     0
100
AcDbLine
 10
0.0
 20
0.0
 30
0.0
 11
-1.0
 21
0.0
 31
0.0
  0
ENDBLK
  5
E16
330
E11
100
AcDbEntity
  8
0
100
AcDbBlockEnd
  0
BLOCK
  5
2045
330
203B
100
AcDbEntity
  8
0
100
AcDbBlockBegin
  2
*D1
 70
     1
 10
0.0
 20
0.0
 30
0.0
  3
*D1
  1

  0
LINE
  5
248D4
330
203B
100
AcDbEntity
  8
30
  6
Continuous
 62
     0
370
    -2
100
AcDbLine
 10
602.0000000000005
 20
35.00010000000022
 30
0.0
 11
602.0000000000005
 21
120.0
 31
0.0
  0
LINE
  5
248D5
330
203B
100
AcDbEntity
  8
30
  6
Continuous
 62
     0
370
    -2
100
AcDbLine
 10
798.0000000000005
 20
-2.499900000000025
 30
0.0
 11
798.0000000000005
 21
120.0
 31
0.0
  0
LINE
  5
248D6
330
203B
100
AcDbEntity
  8
30
  6
Continuous
 62
     0
370
    -2
100
AcDbLine
 10
612.0000000000008
 20
110.0
 30
0.0
 11
788.0000000000006
 21
110.0
 31
0.0
  0
MTEXT
  5
248D7
330
203B
100
AcDbEntity
  8
30
  6
Continuous
 62
     0
100
AcDbMText
 10
700.0
 20
122.5
 30
0.0
 40
15.0
 41
0.0
 71
     5
 72
     1
  1
196
  7
DIM
 73
     1
 44
1.0
1001
ACAD
1000
MTEXTBEGIN
1070
    73
1070
     1
1070
    44
1040
1.0
1070
    74
1070
     0
1000
MTEXTEND
  0
INSERT
  5
248D8
330
203B
100
AcDbEntity
  8
30
  6
Continuous
 62
     0
370
    -2
100
AcDbBlockReference
  2
_OPEN
 10
602.0000000000005
 20
110.0
 30
0.0
 41
10.0
 42
10.0
 43
10.0
 50
180.0
  0
INSERT
  5
248D9
330
203B
100
AcDbEntity
  8
30
  6
Continuous
 62
     0
370
    -2
100
AcDbBlockReference
  2
_OPEN
 10
798.0000000000005
 20
110.0
 30
0.0
 41
10.0
 42
10.0
 43
10.0
  0
POINT
  5
248DA
330
203B
100
AcDbEntity
  8
DEFPOINTS
  6
Continuous
 62
     0
100
AcDbPoint
 10
602.0000000000005
 20
25.00010000000021
 30
0.0
  0
POINT
  5
248DB
330
203B
100
AcDbEntity
  8
DEFPOINTS
  6
Continuous
 62
     0
100
AcDbPoint
 10
798.0000000000005
 20
-12.49990000000002
 30
0.0
  0
POINT
  5
248DC
330
203B
100
AcDbEntity
  8
DEFPOINTS
  6
Continuous
 62
     0
100
AcDbPoint
 10
798.0000000000005
 20
110.0
 30
0.0
  0
ENDBLK
  5
2046
330
203B
100
AcDbEntity
  8
0
100
AcDbBlockEnd
  0
BLOCK
  5
2052
330
2048
100
AcDbEntity
  8
0
100
AcDbBlockBegin
  2
*D2
 70
     1
 10
0.0
 20
0.0
 30
0.0
  3
*D2
  1

  0
LINE
  5
23134
330
2048
100
AcDbEntity
  8
30
  6
Continuous
 62
     0
370
    -2
100
AcDbLine
 10
616.0
 20
-129.9999999999998
 30
0.0
 11
616.0
 21
-170.0
 31
0.0
  0
LINE
  5
23135
330
2048
100
AcDbEntity
  8
30
  6
Continuous
 62
     0
370
    -2
100
AcDbLine
 10
784.0
 20
-129.9999999999998
 30
0.0
 11
784.0
 21
-170.0
 31
0.0
  0
LINE
  5
23136
330
2048
100
AcDbEntity
  8
30
  6
Continuous
 62
     0
370
    -2
100
AcDbLine
 10
626.0
 20
-160.0
 30
0.0
 11
774.0
 21
-160.0
 31
0.0
  0
INSERT
  5
23137
330
2048
100
AcDbEntity
  8
30
  6
Continuous
 62
     0
370
    -2
100
AcDbBlockReference
  2
_OPEN
 10
616.0
 20
-160.0
 30
0.0
 41
10.0
 42
10.0
 43
10.0
 50
180.0
  0
INSERT
  5
23138
330
2048
100
AcDbEntity
  8
30
  6
Continuous
 62
     0
370
    -2
100
AcDbBlockReference
  2
_OPEN
 10
784.0
 20
-160.0
 30
0.0
 41
10.0
 42
10.0
 43
10.0
  0
MTEXT
  5
23139
330
2048
100
AcDbEntity
  8
30
  6
Continuous
 62
     0
100
AcDbMText
 10
700.0
 20
-147.5
 30
0.0
 40
15.0
 41
0.0
 71
     5
 72
     1
  1
168
  7
DIM
 73
     1
 44
1.0
1001
ACAD
1000
MTEXTBEGIN
1070
    73
1070
     1
1070
    44
1040
1.0
1070
    74
1070
     0
1000
MTEXTEND
  0
POINT
  5
2313A
330
2048
100
AcDbEntity
  8
DEFPOINTS
  6
Continuous
 62
     0
100
AcDbPoint
 10
616.0
 20
-119.9999999999998
 30
0.0
  0
POINT
  5
2313B
330
2048
100
AcDbEntity
  8
DEFPOINTS
  6
Continuous
 62
     0
100
AcDbPoint
 10
784.0
 20
-119.9999999999998
 30
0.0
  0
POINT
  5
2313C
330
2048
100
AcDbEntity
  8
DEFPOINTS
  6
Continuous
 62
     0
100
AcDbPoint
 10
784.0
 20
-160.0
 30
0.0
  0
ENDBLK
  5
2053
330
2048
100
AcDbEntity
  8
0
100
AcDbBlockEnd
  0
BLOCK
  5
206C
330
2062
100
AcDbEntity
  8
0
100
AcDbBlockBegin
  2
*D3
 70
     1
 10
0.0
 20
0.0
 30
0.0
  3
*D3
  1

  0
LINE
  5
24086
330
2062
100
AcDbEntity
  8
30
  6
Continuous
 62
     0
370
    -2
100
AcDbLine
 10
673.9999999999999
 20
-310.0000000000004
 30
0.0
 11
673.9999999999999
 21
-250.0
 31
0.0
  0
LINE
  5
24087
330
2062
100
AcDbEntity
  8
30
  6
Continuous
 62
     0
370
    -2
100
AcDbLine
 10
726.0
 20
-310.0000000000004
 30
0.0
 11
726.0
 21
-250.0
 31
0.0
  0
LINE
  5
24088
330
2062
100
AcDbEntity
  8
30
  6
Continuous
 62
     0
370
    -2
100
AcDbLine
 10
683.9999999999998
 20
-260.0
 30
0.0
 11
716.0
 21
-260.0
 31
0.0
  0
INSERT
  5
24089
330
2062
100
AcDbEntity
  8
30
  6
Continuous
 62
     0
370
    -2
100
AcDbBlockReference
  2
_OPEN
 10
673.9999999999999
 20
-260.0
 30
0.0
 41
10.0
 42
10.0
 43
10.0
 50
180.0
  0
INSERT
  5
2408A
330
2062
100
AcDbEntity
  8
30
  6
Continuous
 62
     0
370
    -2
100
AcDbBlockReference
  2
_OPEN
 10
726.0
 20
-260.0
 30
0.0
 41
10.0
 42
10.0
 43
10.0
  0
MTEXT
  5
2408B
330
2062
100
AcDbEntity
  8
30
  6
Continuous
 62
     0
100
AcDbMText
 10
700.0
 20
-247.5
 30
0.0
 40
15.0
 41
0.0
 71
     5
 72
     1
  1
52
  7
DIM
 73
     1
 44
1.0
1001
ACAD
1000
MTEXTBEGIN
1070
    73
1070
     1
1070
    44
1040
1.0
1070
    74
1070
     0
1000
MTEXTEND
  0
POINT
  5
2408C
330
2062
100
AcDbEntity
  8
DEFPOINTS
  6
Continuous
 62
     0
100
AcDbPoint
 10
673.9999999999999
 20
-320.0000000000004
 30
0.0
  0
POINT
  5
2408D
330
2062
100
AcDbEntity
  8
DEFPOINTS
  6
Continuous
 62
     0
100
AcDbPoint
 10
726.0
 20
-320.0000000000004
 30
0.0
  0
POINT
  5
2408E
330
2062
100
AcDbEntity
  8
DEFPOINTS
  6
Continuous
 62
     0
100
AcDbPoint
 10
726.0
 20
-260.0
 30
0.0
  0
ENDBLK
  5
206D
330
2062
100
AcDbEntity
  8
0
100
AcDbBlockEnd
  0
BLOCK
  5
2086
330
207C
100
AcDbEntity
  8
0
100
AcDbBlockBegin
  2
*D4
 70
     1
 10
0.0
 20
0.0
 30
0.0
  3
*D4
  1

  0
LINE
  5
23D1D
330
207C
100
AcDbEntity
  8
30
  6
Continuous
 62
     0
370
    -2
100
AcDbLine
 10
-110.0
 20
-36.00000000000068
 30
0.0
 11
-110.0
 21
-169.9999999999999
 31
0.0
  0
LINE
  5
23D1E
330
207C
100
AcDbEntity
  8
30
  6
Continuous
 62
     0
370
    -2
100
AcDbLine
 10
110.0
 20
-36.00000000000068
 30
0.0
 11
110.0
 21
-169.9999999999999
 31
0.0
  0
LINE
  5
23D1F
330
207C
100
AcDbEntity
  8
30
  6
Continuous
 62
     0
370
    -2
100
AcDbLine
 10
-100.0
 20
-159.9999999999999
 30
0.0
 11
100.0
 21
-159.9999999999999
 31
0.0
  0
INSERT
  5
23D20
330
207C
100
AcDbEntity
  8
30
  6
Continuous
 62
     0
370
    -2
100
AcDbBlockReference
  2
_OPEN
 10
-110.0
 20
-159.9999999999999
 30
0.0
 41
10.0
 42
10.0
 43
10.0
 50
180.0
  0
INSERT
  5
23D21
330
207C
100
AcDbEntity
  8
30
  6
Continuous
 62
     0
370
    -2
100
AcDbBlockReference
  2
_OPEN
 10
110.0
 20
-159.9999999999999
 30
0.0
 41
10.0
 42
10.0
 43
10.0
  0
MTEXT
  5
23D22
330
207C
100
AcDbEntity
  8
30
  6
Continuous
 62
     0
100
AcDbMText
 10
-0.0000000000000134
 20
-147.4999999999999
 30
0.0
 40
15.0
 41
0.0
 71
     5
 72
     1
  1
220
  7
DIM
 73
     1
 44
1.0
1001
ACAD
1000
MTEXTBEGIN
1070
    73
1070
     1
1070
    44
1040
1.0
1070
    74
1070
     0
1000
MTEXTEND
  0
POINT
  5
23D23
330
207C
100
AcDbEntity
  8
DEFPOINTS
  6
Continuous
 62
     0
100
AcDbPoint
 10
-110.0
 20
-26.00000000000068
 30
0.0
  0
POINT
  5
23D24
330
207C
100
AcDbEntity
  8
DEFPOINTS
  6
Continuous
 62
     0
100
AcDbPoint
 10
110.0
 20
-26.00000000000068
 30
0.0
  0
POINT
  5
23D25
330
207C
100
AcDbEntity
  8
DEFPOINTS
  6
Continuous
 62
     0
100
AcDbPoint
 10
110.0
 20
-159.9999999999999
 30
0.0
  0
ENDBLK
  5
2087
330
207C
100
AcDbEntity
  8
0
100
AcDbBlockEnd
  0
BLOCK
  5
2093
330
2089
100
AcDbEntity
  8
0
100
AcDbBlockBegin
  2
*D5
 70
     1
 10
0.0
 20
0.0
 30
0.0
  3
*D5
  1

  0
LINE
  5
24A8D
330
2089
100
AcDbEntity
  8
30
  6
Continuous
 62
     0
370
    -2
100
AcDbLine
 10
-0.0000000000000006
 20
-79.7499999999999
 30
0.0
 11
-0.0000000000000031
 21
-119.9999999999999
 31
0.0
  0
LINE
  5
24A8E
330
2089
100
AcDbEntity
  8
30
  6
Continuous
 62
     0
370
    -2
100
AcDbLine
 10
42.0
 20
-42.70000000000067
 30
0.0
 11
41.99999999999999
 21
-119.9999999999999
 31
0.0
  0
LINE
  5
24A8F
330
2089
100
AcDbEntity
  8
30
  6
Continuous
 62
     0
370
    -2
100
AcDbLine
 10
9.999999999999998
 20
-109.9999999999999
 30
0.0
 11
31.99999999999999
 21
-109.9999999999999
 31
0.0
  0
INSERT
  5
24A90
330
2089
100
AcDbEntity
  8
30
  6
Continuous
 62
     0
370
    -2
100
AcDbBlockReference
  2
_OPEN
 10
-0.0000000000000025
 20
-109.9999999999999
 30
0.0
 41
10.0
 42
10.0
 43
10.0
 50
180.0
  0
INSERT
  5
24A91
330
2089
100
AcDbEntity
  8
30
  6
Continuous
 62
     0
370
    -2
100
AcDbBlockReference
  2
_OPEN
 10
41.99999999999999
 20
-109.9999999999999
 30
0.0
 41
10.0
 42
10.0
 43
10.0
  0
MTEXT
  5
24A92
330
2089
100
AcDbEntity
  8
30
  6
Continuous
 62
     0
100
AcDbMText
 10
21.0
 20
-97.49999999999991
 30
0.0
 40
15.0
 41
0.0
 71
     5
 72
     1
  1
42
  7
DIM
 73
     1
 44
1.0
1001
ACAD
1000
MTEXTBEGIN
1070
    73
1070
     1
1070
    44
1040
1.0
1070
    74
1070
     0
1000
MTEXTEND
  0
POINT
  5
24A93
330
2089
100
AcDbEntity
  8
DEFPOINTS
  6
Continuous
 62
     0
100
AcDbPoint
 10
0.0
 20
-69.7499999999999
 30
0.0
  0
POINT
  5
24A94
330
2089
100
AcDbEntity
  8
DEFPOINTS
  6
Continuous
 62
     0
100
AcDbPoint
 10
42.0
 20
-32.70000000000067
 30
0.0
  0
POINT
  5
24A95
330
2089
100
AcDbEntity
  8
DEFPOINTS
  6
Continuous
 62
     0
100
AcDbPoint
 10
41.99999999999999
 20
-109.9999999999999
 30
0.0
  0
ENDBLK
  5
2094
330
2089
100
AcDbEntity
  8
0
100
AcDbBlockEnd
  0
BLOCK
  5
2171
330
2165
100
AcDbEntity
  8
0
100
AcDbBlockBegin
  2
*D6
 70
     1
 10
0.0
 20
0.0
 30
0.0
  3
*D6
  1

  0
LINE
  5
23FA5
330
2165
100
AcDbEntity
  8
30
  6
Continuous
 62
     0
370
    -2
100
AcDbLine
 10
-119.0
 20
-418.9999999999998
 30
0.0
 11
-175.0
 21
-418.9999999999998
 31
0.0
  0
LINE
  5
23FA6
330
2165
100
AcDbEntity
  8
30
  6
Continuous
 62
     0
370
    -2
100
AcDbLine
 10
-100.5999999999999
 20
-439.9999999999998
 30
0.0
 11
-175.0
 21
-439.9999999999998
 31
0.0
  0
LINE
  5
23FA7
330
2165
100
AcDbEntity
  8
30
  6
Continuous
 62
     0
370
    -2
100
AcDbLine
 10
-164.9999999999999
 20
-408.9999999999998
 30
0.0
 11
-164.9999999999999
 21
-398.9999999999998
 31
0.0
  0
LINE
  5
23FA8
330
2165
100
AcDbEntity
  8
30
  6
Continuous
 62
     0
370
    -2
100
AcDbLine
 10
-165.0
 20
-449.9999999999998
 30
0.0
 11
-165.0
 21
-459.9999999999998
 31
0.0
  0
MTEXT
  5
23FA9
330
2165
100
AcDbEntity
  8
30
  6
Continuous
 62
     0
100
AcDbMText
 10
-189.9999999999999
 20
-429.4999999999998
 30
0.0
 40
15.0
 41
0.0
 71
     5
 72
     1
  1
21
  7
DIM
 11
0.0000000000000001
 21
1.0
 31
0.0
 73
     1
 44
1.0
1001
ACAD
1000
MTEXTBEGIN
1070
    73
1070
     1
1070
    44
1040
1.0
1070
    74
1070
     0
1000
MTEXTEND
  0
LINE
  5
23FAA
330
2165
100
AcDbEntity
  8
30
  6
Continuous
 62
     0
370
    -2
100
AcDbLine
 10
-164.9999999999999
 20
-418.9999999999998
 30
0.0
 11
-164.9999999999999
 21
-439.9999999999998
 31
0.0
  0
INSERT
  5
23FAB
330
2165
100
AcDbEntity
  8
30
  6
Continuous
 62
     0
370
    -2
100
AcDbBlockReference
  2
_OPEN
 10
-164.9999999999999
 20
-418.9999999999998
 30
0.0
 41
10.0
 42
10.0
 43
10.0
 50
270.0
  0
INSERT
  5
23FAC
330
2165
100
AcDbEntity
  8
30
  6
Continuous
 62
     0
370
    -2
100
AcDbBlockReference
  2
_OPEN
 10
-164.9999999999999
 20
-439.9999999999998
 30
0.0
 41
10.0
 42
10.0
 43
10.0
 50
90.0
  0
POINT
  5
23FAD
330
2165
100
AcDbEntity
  8
DEFPOINTS
  6
Continuous
 62
     0
100
AcDbPoint
 10
-109.0
 20
-418.9999999999998
 30
0.0
  0
POINT
  5
23FAE
330
2165
100
AcDbEntity
  8
DEFPOINTS
  6
Continuous
 62
     0
100
AcDbPoint
 10
-90.59999999999993
 20
-439.9999999999998
 30
0.0
  0
POINT
  5
23FAF
330
2165
100
AcDbEntity
  8
DEFPOINTS
  6
Continuous
 62
     0
100
AcDbPoint
 10
-164.9999999999999
 20
-439.9999999999998
 30
0.0
  0
ENDBLK
  5
2172
330
2165
100
AcDbEntity
  8
0
100
AcDbBlockEnd
  0
BLOCK
  5
218B
330
2181
100
AcDbEntity
  8
0
100
AcDbBlockBegin
  2
*D7
 70
     1
 10
0.0
 20
0.0
 30
0.0
  3
*D7
  1

  0
LINE
  5
23FB0
330
2181
100
AcDbEntity
  8
30
  6
Continuous
 62
     0
370
    -2
100
AcDbLine
 10
137.0
 20
-439.9999999999998
 30
0.0
 11
274.9988484217001
 21
-439.9999999999998
 31
0.0
  0
LINE
  5
23FB1
330
2181
100
AcDbEntity
  8
30
  6
Continuous
 62
     0
370
    -2
100
AcDbLine
 10
68.50000000000001
 20
-479.9999999999998
 30
0.0
 11
274.9988484217001
 21
-479.9999999999998
 31
0.0
  0
LINE
  5
23FB2
330
2181
100
AcDbEntity
  8
30
  6
Continuous
 62
     0
370
    -2
100
AcDbLine
 10
264.9988484217001
 20
-449.9999999999998
 30
0.0
 11
264.9988484217001
 21
-469.9999999999998
 31
0.0
  0
INSERT
  5
23FB3
330
2181
100
AcDbEntity
  8
30
  6
Continuous
 62
     0
370
    -2
100
AcDbBlockReference
  2
_OPEN
 10
264.9988484217001
 20
-439.9999999999998
 30
0.0
 41
10.0
 42
10.0
 43
10.0
 50
90.0
  0
INSERT
  5
23FB4
330
2181
100
AcDbEntity
  8
30
  6
Continuous
 62
     0
370
    -2
100
AcDbBlockReference
  2
_OPEN
 10
264.9988484217001
 20
-479.9999999999998
 30
0.0
 41
10.0
 42
10.0
 43
10.0
 50
270.0
  0
MTEXT
  5
23FB5
330
2181
100
AcDbEntity
  8
30
  6
Continuous
 62
     0
100
AcDbMText
 10
252.4988484217002
 20
-459.9999999999998
 30
0.0
 40
15.0
 41
0.0
 71
     5
 72
     1
  1
40
  7
DIM
 11
0.0000000000000001
 21
1.0
 31
0.0
 73
     1
 44
1.0
1001
ACAD
1000
MTEXTBEGIN
1070
    73
1070
     1
1070
    44
1040
1.0
1070
    74
1070
     0
1000
MTEXTEND
  0
POINT
  5
23FB6
330
2181
100
AcDbEntity
  8
DEFPOINTS
  6
Continuous
 62
     0
100
AcDbPoint
 10
127.0
 20
-439.9999999999998
 30
0.0
  0
POINT
  5
23FB7
330
2181
100
AcDbEntity
  8
DEFPOINTS
  6
Continuous
 62
     0
100
AcDbPoint
 10
58.5
 20
-479.9999999999998
 30
0.0
  0
POINT
  5
23FB8
330
2181
100
AcDbEntity
  8
DEFPOINTS
  6
Continuous
 62
     0
100
AcDbPoint
 10
264.9988484217001
 20
-479.9999999999998
 30
0.0
  0
ENDBLK
  5
218C
330
2181
100
AcDbEntity
  8
0
100
AcDbBlockEnd
  0
BLOCK
  5
21A7
330
219B
100
AcDbEntity
  8
0
100
AcDbBlockBegin
  2
*D8
 70
     1
 10
0.0
 20
0.0
 30
0.0
  3
*D8
  1

  0
LINE
  5
23FB9
330
219B
100
AcDbEntity
  8
30
  6
Continuous
 62
     0
370
    -2
100
AcDbLine
 10
119.5048666197002
 20
-461.9999999999998
 30
0.0
 11
174.9988484217003
 21
-461.9999999999998
 31
0.0
  0
LINE
  5
23FBA
330
219B
100
AcDbEntity
  8
30
  6
Continuous
 62
     0
370
    -2
100
AcDbLine
 10
141.9988473787002
 20
-439.9999999999997
 30
0.0
 11
174.9988484217003
 21
-439.9999999999997
 31
0.0
  0
LINE
  5
23FBB
330
219B
100
AcDbEntity
  8
30
  6
Continuous
 62
     0
370
    -2
100
AcDbLine
 10
164.9988484217003
 20
-471.9999999999997
 30
0.0
 11
164.9988484217003
 21
-481.9999999999998
 31
0.0
  0
LINE
  5
23FBC
330
219B
100
AcDbEntity
  8
30
  6
Continuous
 62
     0
370
    -2
100
AcDbLine
 10
164.9988484217003
 20
-429.9999999999998
 30
0.0
 11
164.9988484217003
 21
-419.9999999999997
 31
0.0
  0
MTEXT
  5
23FBD
330
219B
100
AcDbEntity
  8
30
  6
Continuous
 62
     0
100
AcDbMText
 10
150.9188210542454
 20
-418.3194255577068
 30
0.0
 40
15.0
 41
0.0
 71
     5
 72
     1
  1
22
  7
DIM
 11
0.0000000000000001
 21
1.0
 31
0.0
 73
     1
 44
1.0
1001
ACAD
1000
MTEXTBEGIN
1070
    73
1070
     1
1070
    44
1040
1.0
1070
    74
1070
     0
1000
MTEXTEND
  0
LINE
  5
23FBE
330
219B
100
AcDbEntity
  8
30
  6
Continuous
 62
     0
370
    -2
100
AcDbLine
 10
164.9988484217003
 20
-461.9999999999998
 30
0.0
 11
164.9988484217003
 21
-439.9999999999997
 31
0.0
  0
INSERT
  5
23FBF
330
219B
100
AcDbEntity
  8
30
  6
Continuous
 62
     0
370
    -2
100
AcDbBlockReference
  2
_OPEN
 10
164.9988484217003
 20
-461.9999999999998
 30
0.0
 41
10.0
 42
10.0
 43
10.0
 50
90.0
  0
INSERT
  5
23FC0
330
219B
100
AcDbEntity
  8
30
  6
Continuous
 62
     0
370
    -2
100
AcDbBlockReference
  2
_OPEN
 10
164.9988484217003
 20
-439.9999999999997
 30
0.0
 41
10.0
 42
10.0
 43
10.0
 50
270.0
  0
POINT
  5
23FC1
330
219B
100
AcDbEntity
  8
DEFPOINTS
  6
Continuous
 62
     0
100
AcDbPoint
 10
109.5048666197002
 20
-461.9999999999998
 30
0.0
  0
POINT
  5
23FC2
330
219B
100
AcDbEntity
  8
DEFPOINTS
  6
Continuous
 62
     0
100
AcDbPoint
 10
131.9988473787002
 20
-439.9999999999997
 30
0.0
  0
POINT
  5
23FC3
330
219B
100
AcDbEntity
  8
DEFPOINTS
  6
Continuous
 62
     0
100
AcDbPoint
 10
164.9988484217003
 20
-439.9999999999997
 30
0.0
  0
ENDBLK
  5
21A8
330
219B
100
AcDbEntity
  8
0
100
AcDbBlockEnd
  0
BLOCK
  5
21CC
330
21C0
100
AcDbEntity
  8
0
100
AcDbBlockBegin
  2
*D9
 70
     1
 10
0.0
 20
0.0
 30
0.0
  3
*D9
  1

  0
LINE
  5
23FC4
330
21C0
100
AcDbEntity
  8
30
  6
Continuous
 62
     0
370
    -2
100
AcDbLine
 10
-1.999999999999958
 20
-508.6055512754637
 30
0.0
 11
-1.999999999999958
 21
-519.9999999999999
 31
0.0
  0
LINE
  5
23FC5
330
21C0
100
AcDbEntity
  8
30
  6
Continuous
 62
     0
370
    -2
100
AcDbLine
 10
2.000000000000042
 20
-508.6055512754637
 30
0.0
 11
2.000000000000041
 21
-519.9999999999999
 31
0.0
  0
LINE
  5
23FC6
330
21C0
100
AcDbEntity
  8
30
  6
Continuous
 62
     0
370
    -2
100
AcDbLine
 10
-11.99999999999995
 20
-509.9999999999998
 30
0.0
 11
-21.99999999999996
 21
-509.9999999999998
 31
0.0
  0
LINE
  5
23FC7
330
21C0
100
AcDbEntity
  8
30
  6
Continuous
 62
     0
370
    -2
100
AcDbLine
 10
12.00000000000003
 20
-509.9999999999998
 30
0.0
 11
22.00000000000004
 21
-509.9999999999998
 31
0.0
  0
MTEXT
  5
23FC8
330
21C0
100
AcDbEntity
  8
30
  6
Continuous
 62
     0
100
AcDbMText
 10
24.0
 20
-497.1911056714656
 30
0.0
 40
15.0
 41
0.0
 71
     5
 72
     1
  1
4
  7
DIM
 73
     1
 44
1.0
1001
ACAD
1000
MTEXTBEGIN
1070
    73
1070
     1
1070
    44
1040
1.0
1070
    74
1070
     0
1000
MTEXTEND
  0
LINE
  5
23FC9
330
21C0
100
AcDbEntity
  8
30
  6
Continuous
 62
     0
370
    -2
100
AcDbLine
 10
-1.999999999999958
 20
-509.9999999999998
 30
0.0
 11
2.000000000000041
 21
-509.9999999999998
 31
0.0
  0
INSERT
  5
23FCA
330
21C0
100
AcDbEntity
  8
30
  6
Continuous
 62
     0
370
    -2
100
AcDbBlockReference
  2
_OPEN
 10
-1.999999999999958
 20
-509.9999999999998
 30
0.0
 41
10.0
 42
10.0
 43
10.0
  0
INSERT
  5
23FCB
330
21C0
100
AcDbEntity
  8
30
  6
Continuous
 62
     0
370
    -2
100
AcDbBlockReference
  2
_OPEN
 10
2.000000000000041
 20
-509.9999999999998
 30
0.0
 41
10.0
 42
10.0
 43
10.0
 50
180.0
  0
POINT
  5
23FCC
330
21C0
100
AcDbEntity
  8
DEFPOINTS
  6
Continuous
 62
     0
100
AcDbPoint
 10
-1.999999999999956
 20
-498.6055512754639
 30
0.0
  0
POINT
  5
23FCD
330
21C0
100
AcDbEntity
  8
DEFPOINTS
  6
Continuous
 62
     0
100
AcDbPoint
 10
2.000000000000042
 20
-498.6055512754639
 30
0.0
  0
POINT
  5
23FCE
330
21C0
100
AcDbEntity
  8
DEFPOINTS
  6
Continuous
 62
     0
100
AcDbPoint
 10
2.000000000000041
 20
-509.9999999999998
 30
0.0
  0
ENDBLK
  5
21CD
330
21C0
100
AcDbEntity
  8
0
100
AcDbBlockEnd
  0
BLOCK
  5
21EF
330
21E5
100
AcDbEntity
  8
0
100
AcDbBlockBegin
  2
*D10
 70
     1
 10
0.0
 20
0.0
 30
0.0
  3
*D10
  1

  0
LINE
  5
23FCF
330
21E5
100
AcDbEntity
  8
30
  6
Continuous
 62
     0
370
    -2
100
AcDbLine
 10
-59.00000000000001
 20
-447.2999999999999
 30
0.0
 11
-59.00000000000002
 21
-619.9999999999999
 31
0.0
  0
LINE
  5
23FD0
330
21E5
100
AcDbEntity
  8
30
  6
Continuous
 62
     0
370
    -2
100
AcDbLine
 10
58.99999999999999
 20
-447.2999999999999
 30
0.0
 11
58.99999999999998
 21
-619.9999999999999
 31
0.0
  0
LINE
  5
23FD1
330
21E5
100
AcDbEntity
  8
30
  6
Continuous
 62
     0
370
    -2
100
AcDbLine
 10
-49.00000000000002
 20
-609.9999999999997
 30
0.0
 11
48.99999999999998
 21
-609.9999999999997
 31
0.0
  0
INSERT
  5
23FD2
330
21E5
100
AcDbEntity
  8
30
  6
Continuous
 62
     0
370
    -2
100
AcDbBlockReference
  2
_OPEN
 10
-59.00000000000002
 20
-609.9999999999997
 30
0.0
 41
10.0
 42
10.0
 43
10.0
 50
180.0
  0
INSERT
  5
23FD3
330
21E5
100
AcDbEntity
  8
30
  6
Continuous
 62
     0
370
    -2
100
AcDbBlockReference
  2
_OPEN
 10
58.99999999999998
 20
-609.9999999999997
 30
0.0
 41
10.0
 42
10.0
 43
10.0
  0
MTEXT
  5
23FD4
330
21E5
100
AcDbEntity
  8
30
  6
Continuous
 62
     0
100
AcDbMText
 10
0.0166662500000613
 20
-597.4999999999997
 30
0.0
 40
15.0
 41
0.0
 71
     5
 72
     1
  1
118
  7
DIM
 73
     1
 44
1.0
1001
ACAD
1000
MTEXTBEGIN
1070
    73
1070
     1
1070
    44
1040
1.0
1070
    74
1070
     0
1000
MTEXTEND
  0
POINT
  5
23FD5
330
21E5
100
AcDbEntity
  8
DEFPOINTS
  6
Continuous
 62
     0
100
AcDbPoint
 10
-59.00000000000001
 20
-437.3000000000001
 30
0.0
  0
POINT
  5
23FD6
330
21E5
100
AcDbEntity
  8
DEFPOINTS
  6
Continuous
 62
     0
100
AcDbPoint
 10
58.99999999999999
 20
-437.3000000000001
 30
0.0
  0
POINT
  5
23FD7
330
21E5
100
AcDbEntity
  8
DEFPOINTS
  6
Continuous
 62
     0
100
AcDbPoint
 10
58.99999999999998
 20
-609.9999999999997
 30
0.0
  0
ENDBLK
  5
21F0
330
21E5
100
AcDbEntity
  8
0
100
AcDbBlockEnd
  0
BLOCK
  5
20B7F
330
20B7E
100
AcDbEntity
  8
0
100
AcDbBlockBegin
  2
*D11
 70
     1
 10
0.0
 20
0.0
 30
0.0
  3
*D11
  1

  0
LINE
  5
2406E
330
20B7E
100
AcDbEntity
  8
30
  6
Continuous
 62
     0
370
    -2
100
AcDbLine
 10
141.9988473787002
 20
-439.9999999999997
 30
0.0
 11
224.9988484217003
 21
-439.9999999999997
 31
0.0
  0
LINE
  5
2406F
330
20B7E
100
AcDbEntity
  8
30
  6
Continuous
 62
     0
370
    -2
100
AcDbLine
 10
89.99999999999998
 20
-390.9999999999998
 30
0.0
 11
224.9988484217002
 21
-391.0
 31
0.0
  0
LINE
  5
24070
330
20B7E
100
AcDbEntity
  8
30
  6
Continuous
 62
     0
370
    -2
100
AcDbLine
 10
214.9988484217002
 20
-429.9999999999998
 30
0.0
 11
214.9988484217002
 21
-400.9999999999998
 31
0.0
  0
INSERT
  5
24071
330
20B7E
100
AcDbEntity
  8
30
  6
Continuous
 62
     0
370
    -2
100
AcDbBlockReference
  2
_OPEN
 10
214.9988484217002
 20
-439.9999999999997
 30
0.0
 41
10.0
 42
10.0
 43
10.0
 50
270.0
  0
INSERT
  5
24072
330
20B7E
100
AcDbEntity
  8
30
  6
Continuous
 62
     0
370
    -2
100
AcDbBlockReference
  2
_OPEN
 10
214.9988484217002
 20
-391.0
 30
0.0
 41
10.0
 42
10.0
 43
10.0
 50
90.0
  0
MTEXT
  5
24073
330
20B7E
100
AcDbEntity
  8
30
  6
Continuous
 62
     0
100
AcDbMText
 10
202.4988484217003
 20
-415.4999999999997
 30
0.0
 40
15.0
 41
0.0
 71
     5
 72
     1
  1
49
  7
DIM
 11
0.0000000000000001
 21
1.0
 31
0.0
 73
     1
 44
1.0
1001
ACAD
1000
MTEXTBEGIN
1070
    73
1070
     1
1070
    44
1040
1.0
1070
    74
1070
     0
1000
MTEXTEND
  0
POINT
  5
24074
330
20B7E
100
AcDbEntity
  8
DEFPOINTS
  6
Continuous
 62
     0
100
AcDbPoint
 10
131.9988473787002
 20
-439.9999999999997
 30
0.0
  0
POINT
  5
24075
330
20B7E
100
AcDbEntity
  8
DEFPOINTS
  6
Continuous
 62
     0
100
AcDbPoint
 10
79.99999999999999
 20
-390.9999999999998
 30
0.0
  0
POINT
  5
24076
330
20B7E
100
AcDbEntity
  8
DEFPOINTS
  6
Continuous
 62
     0
100
AcDbPoint
 10
214.9988484217002
 20
-391.0
 30
0.0
  0
ENDBLK
  5
20B80
330
20B7E
100
AcDbEntity
  8
0
100
AcDbBlockEnd
  0
BLOCK
  5
20C2C
330
20C2B
100
AcDbEntity
  8
0
100
AcDbBlockBegin
  2
*D12
 70
     1
 10
0.0
 20
0.0
 30
0.0
  3
*D12
  1

  0
LINE
  5
23FE1
330
20C2B
100
AcDbEntity
  8
30
  6
Continuous
 62
     0
370
    -2
100
AcDbLine
 10
-0.0000000000000006
 20
-514.1088943285343
 30
0.0
 11
-0.000000000000004
 21
-569.9999999999999
 31
0.0
  0
LINE
  5
23FE2
330
20C2B
100
AcDbEntity
  8
30
  6
Continuous
 62
     0
370
    -2
100
AcDbLine
 10
-45.0
 20
-514.9999999999998
 30
0.0
 11
-45.0
 21
-569.9999999999999
 31
0.0
  0
LINE
  5
23FE3
330
20C2B
100
AcDbEntity
  8
30
  6
Continuous
 62
     0
370
    -2
100
AcDbLine
 10
-10.0
 20
-559.9999999999998
 30
0.0
 11
-35.0
 21
-559.9999999999998
 31
0.0
  0
INSERT
  5
23FE4
330
20C2B
100
AcDbEntity
  8
30
  6
Continuous
 62
     0
370
    -2
100
AcDbBlockReference
  2
_OPEN
 10
-0.0000000000000034
 20
-559.9999999999998
 30
0.0
 41
10.0
 42
10.0
 43
10.0
  0
INSERT
  5
23FE5
330
20C2B
100
AcDbEntity
  8
30
  6
Continuous
 62
     0
370
    -2
100
AcDbBlockReference
  2
_OPEN
 10
-45.0
 20
-559.9999999999998
 30
0.0
 41
10.0
 42
10.0
 43
10.0
 50
180.0
  0
MTEXT
  5
23FE6
330
20C2B
100
AcDbEntity
  8
30
  6
Continuous
 62
     0
100
AcDbMText
 10
-22.5
 20
-547.4999999999998
 30
0.0
 40
15.0
 41
0.0
 71
     5
 72
     1
  1
45
  7
DIM
 73
     1
 44
1.0
1001
ACAD
1000
MTEXTBEGIN
1070
    73
1070
     1
1070
    44
1040
1.0
1070
    74
1070
     0
1000
MTEXTEND
  0
POINT
  5
23FE7
330
20C2B
100
AcDbEntity
  8
DEFPOINTS
  6
Continuous
 62
     0
100
AcDbPoint
 10
0.0
 20
-504.1088943285343
 30
0.0
  0
POINT
  5
23FE8
330
20C2B
100
AcDbEntity
  8
DEFPOINTS
  6
Continuous
 62
     0
100
AcDbPoint
 10
-45.0
 20
-504.9999999999998
 30
0.0
  0
POINT
  5
23FE9
330
20C2B
100
AcDbEntity
  8
DEFPOINTS
  6
Continuous
 62
     0
100
AcDbPoint
 10
-45.0
 20
-559.9999999999998
 30
0.0
  0
ENDBLK
  5
20C2D
330
20C2B
100
AcDbEntity
  8
0
100
AcDbBlockEnd
  0
BLOCK
  5
20C38
330
20C37
100
AcDbEntity
  8
0
100
AcDbBlockBegin
  2
*D13
 70
     1
 10
0.0
 20
0.0
 30
0.0
  3
*D13
  1

  0
LINE
  5
23FEA
330
20C37
100
AcDbEntity
  8
30
  6
Continuous
 62
     0
370
    -2
100
AcDbLine
 10
-0.0000000000000006
 20
-514.1088943285343
 30
0.0
 11
-0.000000000000004
 21
-569.9999999999999
 31
0.0
  0
LINE
  5
23FEB
330
20C37
100
AcDbEntity
  8
30
  6
Continuous
 62
     0
370
    -2
100
AcDbLine
 10
45.0
 20
-507.1911056714656
 30
0.0
 11
44.99999999999999
 21
-569.9999999999999
 31
0.0
  0
LINE
  5
23FEC
330
20C37
100
AcDbEntity
  8
30
  6
Continuous
 62
     0
370
    -2
100
AcDbLine
 10
9.999999999999996
 20
-559.9999999999998
 30
0.0
 11
35.0
 21
-559.9999999999998
 31
0.0
  0
INSERT
  5
23FED
330
20C37
100
AcDbEntity
  8
30
  6
Continuous
 62
     0
370
    -2
100
AcDbBlockReference
  2
_OPEN
 10
-0.0000000000000034
 20
-559.9999999999998
 30
0.0
 41
10.0
 42
10.0
 43
10.0
 50
180.0
  0
INSERT
  5
23FEE
330
20C37
100
AcDbEntity
  8
30
  6
Continuous
 62
     0
370
    -2
100
AcDbBlockReference
  2
_OPEN
 10
44.99999999999999
 20
-559.9999999999998
 30
0.0
 41
10.0
 42
10.0
 43
10.0
  0
MTEXT
  5
23FEF
330
20C37
100
AcDbEntity
  8
30
  6
Continuous
 62
     0
100
AcDbMText
 10
22.5
 20
-547.4999999999998
 30
0.0
 40
15.0
 41
0.0
 71
     5
 72
     1
  1
45
  7
DIM
 73
     1
 44
1.0
1001
ACAD
1000
MTEXTBEGIN
1070
    73
1070
     1
1070
    44
1040
1.0
1070
    74
1070
     0
1000
MTEXTEND
  0
POINT
  5
23FF0
330
20C37
100
AcDbEntity
  8
DEFPOINTS
  6
Continuous
 62
     0
100
AcDbPoint
 10
0.0
 20
-504.1088943285343
 30
0.0
  0
POINT
  5
23FF1
330
20C37
100
AcDbEntity
  8
DEFPOINTS
  6
Continuous
 62
     0
100
AcDbPoint
 10
45.0
 20
-497.1911056714656
 30
0.0
  0
POINT
  5
23FF2
330
20C37
100
AcDbEntity
  8
DEFPOINTS
  6
Continuous
 62
     0
100
AcDbPoint
 10
44.99999999999999
 20
-559.9999999999998
 30
0.0
  0
ENDBLK
  5
20C39
330
20C37
100
AcDbEntity
  8
0
100
AcDbBlockEnd
  0
BLOCK
  5
20CF2
330
20CF1
100
AcDbEntity
  8
0
100
AcDbBlockBegin
  2
*D14
 70
     1
 10
0.0
 20
0.0
 30
0.0
  3
*D14
  1

  0
LINE
  5
23FF3
330
20CF1
100
AcDbEntity
  8
30
  6
Continuous
 62
     0
370
    -2
100
AcDbLine
 10
138.7369823707004
 20
-348.9999999999998
 30
0.0
 11
274.9988484217002
 21
-348.9999999999998
 31
0.0
  0
LINE
  5
23FF4
330
20CF1
100
AcDbEntity
  8
30
  6
Continuous
 62
     0
370
    -2
100
AcDbLine
 10
141.9988473787002
 20
-439.9999999999997
 30
0.0
 11
274.9988484217001
 21
-439.9999999999997
 31
0.0
  0
LINE
  5
23FF5
330
20CF1
100
AcDbEntity
  8
30
  6
Continuous
 62
     0
370
    -2
100
AcDbLine
 10
264.9988484217002
 20
-358.9999999999998
 30
0.0
 11
264.9988484217001
 21
-429.9999999999998
 31
0.0
  0
INSERT
  5
23FF6
330
20CF1
100
AcDbEntity
  8
30
  6
Continuous
 62
     0
370
    -2
100
AcDbBlockReference
  2
_OPEN
 10
264.9988484217002
 20
-348.9999999999998
 30
0.0
 41
10.0
 42
10.0
 43
10.0
 50
90.0
  0
INSERT
  5
23FF7
330
20CF1
100
AcDbEntity
  8
30
  6
Continuous
 62
     0
370
    -2
100
AcDbBlockReference
  2
_OPEN
 10
264.9988484217001
 20
-439.9999999999997
 30
0.0
 41
10.0
 42
10.0
 43
10.0
 50
270.0
  0
MTEXT
  5
23FF8
330
20CF1
100
AcDbEntity
  8
30
  6
Continuous
 62
     0
100
AcDbMText
 10
252.4988484217002
 20
-394.4999999999998
 30
0.0
 40
15.0
 41
0.0
 71
     5
 72
     1
  1
91
  7
DIM
 11
0.0000000000000001
 21
1.0
 31
0.0
 73
     1
 44
1.0
1001
ACAD
1000
MTEXTBEGIN
1070
    73
1070
     1
1070
    44
1040
1.0
1070
    74
1070
     0
1000
MTEXTEND
  0
POINT
  5
23FF9
330
20CF1
100
AcDbEntity
  8
DEFPOINTS
  6
Continuous
 62
     0
100
AcDbPoint
 10
128.7369823707004
 20
-348.9999999999998
 30
0.0
  0
POINT
  5
23FFA
330
20CF1
100
AcDbEntity
  8
DEFPOINTS
  6
Continuous
 62
     0
100
AcDbPoint
 10
131.9988473787002
 20
-439.9999999999997
 30
0.0
  0
POINT
  5
23FFB
330
20CF1
100
AcDbEntity
  8
DEFPOINTS
  6
Continuous
 62
     0
100
AcDbPoint
 10
264.9988484217001
 20
-439.9999999999997
 30
0.0
  0
ENDBLK
  5
20CF3
330
20CF1
100
AcDbEntity
  8
0
100
AcDbBlockEnd
  0
BLOCK
  5
216CE
330
216CD
100
AcDbEntity
  8
0
100
AcDbBlockBegin
  2
*D15
 70
     1
 10
0.0
 20
0.0
 30
0.0
  3
*D15
  1

  0
LINE
  5
24907
330
216CD
100
AcDbEntity
  8
30
  6
Continuous
 62
     0
370
    -2
100
AcDbLine
 10
777.9999000000002
 20
-14.9999999999997
 30
0.0
 11
475.0
 21
-14.99999999999961
 31
0.0
  0
LINE
  5
24908
330
216CD
100
AcDbEntity
  8
30
  6
Continuous
 62
     0
370
    -2
100
AcDbLine
 10
581.9999000000003
 20
15.00000000000024
 30
0.0
 11
475.0
 21
15.00000000000027
 31
0.0
  0
LINE
  5
24909
330
216CD
100
AcDbEntity
  8
30
  6
Continuous
 62
     0
370
    -2
100
AcDbLine
 10
485.0
 20
-24.99999999999963
 30
0.0
 11
485.0
 21
-34.99999999999963
 31
0.0
  0
LINE
  5
2490A
330
216CD
100
AcDbEntity
  8
30
  6
Continuous
 62
     0
370
    -2
100
AcDbLine
 10
485.0
 20
25.00000000000027
 30
0.0
 11
485.0
 21
35.00000000000027
 31
0.0
  0
MTEXT
  5
2490B
330
216CD
100
AcDbEntity
  8
30
  6
Continuous
 62
     0
100
AcDbMText
 10
460.0
 20
0.0000000000004035
 30
0.0
 40
15.0
 41
0.0
 71
     5
 72
     1
  1
30
  7
DIM
 11
0.0000000000000001
 21
1.0
 31
0.0
 73
     1
 44
1.0
1001
ACAD
1000
MTEXTBEGIN
1070
    73
1070
     1
1070
    44
1040
1.0
1070
    74
1070
     0
1000
MTEXTEND
  0
LINE
  5
2490C
330
216CD
100
AcDbEntity
  8
30
  6
Continuous
 62
     0
370
    -2
100
AcDbLine
 10
485.0
 20
-14.99999999999961
 30
0.0
 11
485.0
 21
15.00000000000027
 31
0.0
  0
INSERT
  5
2490D
330
216CD
100
AcDbEntity
  8
30
  6
Continuous
 62
     0
370
    -2
100
AcDbBlockReference
  2
_OPEN
 10
485.0
 20
-14.99999999999961
 30
0.0
 41
10.0
 42
10.0
 43
10.0
 50
90.0
  0
INSERT
  5
2490E
330
216CD
100
AcDbEntity
  8
30
  6
Continuous
 62
     0
370
    -2
100
AcDbBlockReference
  2
_OPEN
 10
485.0
 20
15.00000000000027
 30
0.0
 41
10.0
 42
10.0
 43
10.0
 50
270.0
  0
POINT
  5
2490F
330
216CD
100
AcDbEntity
  8
DEFPOINTS
  6
Continuous
 62
     0
100
AcDbPoint
 10
787.9999000000005
 20
-14.9999999999997
 30
0.0
  0
POINT
  5
24910
330
216CD
100
AcDbEntity
  8
DEFPOINTS
  6
Continuous
 62
     0
100
AcDbPoint
 10
591.9999000000005
 20
15.00000000000024
 30
0.0
  0
POINT
  5
24911
330
216CD
100
AcDbEntity
  8
DEFPOINTS
  6
Continuous
 62
     0
100
AcDbPoint
 10
485.0
 20
15.00000000000027
 30
0.0
  0
ENDBLK
  5
216CF
330
216CD
100
AcDbEntity
  8
0
100
AcDbBlockEnd
  0
BLOCK
  5
227A8
330
227A7
100
AcDbEntity
  8
0
100
AcDbBlockBegin
  2
*D16
 70
     1
 10
0.0
 20
0.0
 30
0.0
  3
*D16
  1

  0
LINE
  5
23D4E
330
227A7
100
AcDbEntity
  8
30
  6
Continuous
 62
     0
370
    -2
100
AcDbLine
 10
-98.0
 20
38.20000000000005
 30
0.0
 11
-98.0
 21
120.0
 31
0.0
  0
LINE
  5
23D4F
330
227A7
100
AcDbEntity
  8
30
  6
Continuous
 62
     0
370
    -2
100
AcDbLine
 10
98.0
 20
8.200000000000045
 30
0.0
 11
98.00000000000002
 21
120.0
 31
0.0
  0
LINE
  5
23D50
330
227A7
100
AcDbEntity
  8
30
  6
Continuous
 62
     0
370
    -2
100
AcDbLine
 10
-88.0
 20
110.0
 30
0.0
 11
88.0
 21
110.0
 31
0.0
  0
INSERT
  5
23D51
330
227A7
100
AcDbEntity
  8
30
  6
Continuous
 62
     0
370
    -2
100
AcDbBlockReference
  2
_OPEN
 10
-98.0
 20
110.0
 30
0.0
 41
10.0
 42
10.0
 43
10.0
 50
180.0
  0
INSERT
  5
23D52
330
227A7
100
AcDbEntity
  8
30
  6
Continuous
 62
     0
370
    -2
100
AcDbBlockReference
  2
_OPEN
 10
98.0
 20
110.0
 30
0.0
 41
10.0
 42
10.0
 43
10.0
  0
MTEXT
  5
23D53
330
227A7
100
AcDbEntity
  8
30
  6
Continuous
 62
     0
100
AcDbMText
 10
0.0000000000000008
 20
122.5
 30
0.0
 40
15.0
 41
0.0
 71
     5
 72
     1
  1
196
  7
DIM
 73
     1
 44
1.0
1001
ACAD
1000
MTEXTBEGIN
1070
    73
1070
     1
1070
    44
1040
1.0
1070
    74
1070
     0
1000
MTEXTEND
  0
POINT
  5
23D54
330
227A7
100
AcDbEntity
  8
DEFPOINTS
  6
Continuous
 62
     0
100
AcDbPoint
 10
-98.0
 20
28.20000000000005
 30
0.0
  0
POINT
  5
23D55
330
227A7
100
AcDbEntity
  8
DEFPOINTS
  6
Continuous
 62
     0
100
AcDbPoint
 10
98.0
 20
-1.799999999999954
 30
0.0
  0
POINT
  5
23D56
330
227A7
100
AcDbEntity
  8
DEFPOINTS
  6
Continuous
 62
     0
100
AcDbPoint
 10
98.0
 20
110.0
 30
0.0
  0
ENDBLK
  5
227A9
330
227A7
100
AcDbEntity
  8
0
100
AcDbBlockEnd
  0
BLOCK
  5
227C2
330
227C1
100
AcDbEntity
  8
0
100
AcDbBlockBegin
  2
*D17
 70
     1
 10
0.0
 20
0.0
 30
0.0
  3
*D17
  1

  0
LINE
  5
23D2F
330
227C1
100
AcDbEntity
  8
30
  6
Continuous
 62
     0
370
    -2
100
AcDbLine
 10
83.49999999999999
 20
-14.99999999999977
 30
0.0
 11
-175.0
 21
-14.99999999999969
 31
0.0
  0
LINE
  5
23D30
330
227C1
100
AcDbEntity
  8
30
  6
Continuous
 62
     0
370
    -2
100
AcDbLine
 10
-112.5
 20
15.00000000000023
 30
0.0
 11
-175.0
 21
15.00000000000025
 31
0.0
  0
LINE
  5
23D31
330
227C1
100
AcDbEntity
  8
30
  6
Continuous
 62
     0
370
    -2
100
AcDbLine
 10
-165.0
 20
-24.9999999999997
 30
0.0
 11
-165.0
 21
-34.9999999999997
 31
0.0
  0
LINE
  5
23D32
330
227C1
100
AcDbEntity
  8
30
  6
Continuous
 62
     0
370
    -2
100
AcDbLine
 10
-165.0
 20
25.00000000000024
 30
0.0
 11
-165.0
 21
35.00000000000024
 31
0.0
  0
MTEXT
  5
23D33
330
227C1
100
AcDbEntity
  8
30
  6
Continuous
 62
     0
100
AcDbMText
 10
-190.0
 20
0.0000000000002479
 30
0.0
 40
15.0
 41
0.0
 71
     5
 72
     1
  1
30
  7
DIM
 11
0.0000000000000001
 21
1.0
 31
0.0
 73
     1
 44
1.0
1001
ACAD
1000
MTEXTBEGIN
1070
    73
1070
     1
1070
    44
1040
1.0
1070
    74
1070
     0
1000
MTEXTEND
  0
LINE
  5
23D34
330
227C1
100
AcDbEntity
  8
30
  6
Continuous
 62
     0
370
    -2
100
AcDbLine
 10
-165.0
 20
-14.99999999999969
 30
0.0
 11
-165.0
 21
15.00000000000024
 31
0.0
  0
INSERT
  5
23D35
330
227C1
100
AcDbEntity
  8
30
  6
Continuous
 62
     0
370
    -2
100
AcDbBlockReference
  2
_OPEN
 10
-165.0
 20
-14.99999999999969
 30
0.0
 41
10.0
 42
10.0
 43
10.0
 50
90.0
  0
INSERT
  5
23D36
330
227C1
100
AcDbEntity
  8
30
  6
Continuous
 62
     0
370
    -2
100
AcDbBlockReference
  2
_OPEN
 10
-165.0
 20
15.00000000000024
 30
0.0
 41
10.0
 42
10.0
 43
10.0
 50
270.0
  0
POINT
  5
23D37
330
227C1
100
AcDbEntity
  8
DEFPOINTS
  6
Continuous
 62
     0
100
AcDbPoint
 10
93.49999999999999
 20
-14.99999999999977
 30
0.0
  0
POINT
  5
23D38
330
227C1
100
AcDbEntity
  8
DEFPOINTS
  6
Continuous
 62
     0
100
AcDbPoint
 10
-102.5
 20
15.00000000000023
 30
0.0
  0
POINT
  5
23D39
330
227C1
100
AcDbEntity
  8
DEFPOINTS
  6
Continuous
 62
     0
100
AcDbPoint
 10
-165.0
 20
15.00000000000024
 30
0.0
  0
ENDBLK
  5
227C3
330
227C1
100
AcDbEntity
  8
0
100
AcDbBlockEnd
  0
BLOCK
  5
227D0
330
227CF
100
AcDbEntity
  8
0
100
AcDbBlockBegin
  2
*D18
 70
     1
 10
0.0
 20
0.0
 30
0.0
  3
*D18
  1

  0
LINE
  5
23D3A
330
227CF
100
AcDbEntity
  8
30
  6
Continuous
 62
     0
370
    -2
100
AcDbLine
 10
116.0
 20
37.50000000000034
 30
0.0
 11
225.000001043
 21
37.50000000000031
 31
0.0
  0
LINE
  5
23D3B
330
227CF
100
AcDbEntity
  8
30
  6
Continuous
 62
     0
370
    -2
100
AcDbLine
 10
116.0
 20
-37.49999999999978
 30
0.0
 11
225.000001043
 21
-37.49999999999982
 31
0.0
  0
LINE
  5
23D3C
330
227CF
100
AcDbEntity
  8
30
  6
Continuous
 62
     0
370
    -2
100
AcDbLine
 10
215.000001043
 20
27.50000000000031
 30
0.0
 11
215.000001043
 21
-27.4999999999998
 31
0.0
  0
INSERT
  5
23D3D
330
227CF
100
AcDbEntity
  8
30
  6
Continuous
 62
     0
370
    -2
100
AcDbBlockReference
  2
_OPEN
 10
215.000001043
 20
37.50000000000031
 30
0.0
 41
10.0
 42
10.0
 43
10.0
 50
90.0
  0
INSERT
  5
23D3E
330
227CF
100
AcDbEntity
  8
30
  6
Continuous
 62
     0
370
    -2
100
AcDbBlockReference
  2
_OPEN
 10
215.000001043
 20
-37.49999999999982
 30
0.0
 41
10.0
 42
10.0
 43
10.0
 50
270.0
  0
MTEXT
  5
23D3F
330
227CF
100
AcDbEntity
  8
30
  6
Continuous
 62
     0
100
AcDbMText
 10
202.500001043
 20
0.0000000000002868
 30
0.0
 40
15.0
 41
0.0
 71
     5
 72
     1
  1
75
  7
DIM
 11
0.0000000000000001
 21
1.0
 31
0.0
 73
     1
 44
1.0
1001
ACAD
1000
MTEXTBEGIN
1070
    73
1070
     1
1070
    44
1040
1.0
1070
    74
1070
     0
1000
MTEXTEND
  0
POINT
  5
23D40
330
227CF
100
AcDbEntity
  8
DEFPOINTS
  6
Continuous
 62
     0
100
AcDbPoint
 10
106.0
 20
37.50000000000034
 30
0.0
  0
POINT
  5
23D41
330
227CF
100
AcDbEntity
  8
DEFPOINTS
  6
Continuous
 62
     0
100
AcDbPoint
 10
106.0
 20
-37.49999999999977
 30
0.0
  0
POINT
  5
23D42
330
227CF
100
AcDbEntity
  8
DEFPOINTS
  6
Continuous
 62
     0
100
AcDbPoint
 10
215.000001043
 20
-37.49999999999982
 30
0.0
  0
ENDBLK
  5
227D1
330
227CF
100
AcDbEntity
  8
0
100
AcDbBlockEnd
  0
BLOCK
  5
227DC
330
227DB
100
AcDbEntity
  8
0
100
AcDbBlockBegin
  2
*D19
 70
     1
 10
0.0
 20
0.0
 30
0.0
  3
*D19
  1

  0
LINE
  5
24A77
330
227DB
100
AcDbEntity
  8
30
  6
Continuous
 62
     0
370
    -2
100
AcDbLine
 10
60.5
 20
25.00000000000023
 30
0.0
 11
175.0000010430001
 21
25.00000000000019
 31
0.0
  0
LINE
  5
24A78
330
227DB
100
AcDbEntity
  8
30
  6
Continuous
 62
     0
370
    -2
100
AcDbLine
 10
142.014739758
 20
0.000000000000054
 30
0.0
 11
175.0000010430001
 21
0.0000000000000446
 31
0.0
  0
LINE
  5
24A79
330
227DB
100
AcDbEntity
  8
30
  6
Continuous
 62
     0
370
    -2
100
AcDbLine
 10
165.0000010430001
 20
35.00000000000019
 30
0.0
 11
165.0000010430001
 21
45.00000000000019
 31
0.0
  0
LINE
  5
24A7A
330
227DB
100
AcDbEntity
  8
30
  6
Continuous
 62
     0
370
    -2
100
AcDbLine
 10
165.0000010430001
 20
-9.999999999999953
 30
0.0
 11
165.0000010430001
 21
-19.99999999999995
 31
0.0
  0
MTEXT
  5
24A7B
330
227DB
100
AcDbEntity
  8
30
  6
Continuous
 62
     0
100
AcDbMText
 10
150.0
 20
12.50000000000017
 30
0.0
 40
15.0
 41
0.0
 71
     5
 72
     1
  1
25
  7
DIM
 11
0.0000000000000001
 21
1.0
 31
0.0
 73
     1
 44
1.0
1001
ACAD
1000
MTEXTBEGIN
1070
    73
1070
     1
1070
    44
1040
1.0
1070
    74
1070
     0
1000
MTEXTEND
  0
LINE
  5
24A7C
330
227DB
100
AcDbEntity
  8
30
  6
Continuous
 62
     0
370
    -2
100
AcDbLine
 10
165.0000010430001
 20
25.00000000000019
 30
0.0
 11
165.0000010430001
 21
0.0000000000000475
 31
0.0
  0
INSERT
  5
24A7D
330
227DB
100
AcDbEntity
  8
30
  6
Continuous
 62
     0
370
    -2
100
AcDbBlockReference
  2
_OPEN
 10
165.0000010430001
 20
25.00000000000019
 30
0.0
 41
10.0
 42
10.0
 43
10.0
 50
270.0
  0
INSERT
  5
24A7E
330
227DB
100
AcDbEntity
  8
30
  6
Continuous
 62
     0
370
    -2
100
AcDbBlockReference
  2
_OPEN
 10
165.0000010430001
 20
0.0000000000000475
 30
0.0
 41
10.0
 42
10.0
 43
10.0
 50
90.0
  0
POINT
  5
24A7F
330
227DB
100
AcDbEntity
  8
DEFPOINTS
  6
Continuous
 62
     0
100
AcDbPoint
 10
50.5
 20
25.00000000000023
 30
0.0
  0
POINT
  5
24A80
330
227DB
100
AcDbEntity
  8
DEFPOINTS
  6
Continuous
 62
     0
100
AcDbPoint
 10
132.0147397580001
 20
0.0000000000000568
 30
0.0
  0
POINT
  5
24A81
330
227DB
100
AcDbEntity
  8
DEFPOINTS
  6
Continuous
 62
     0
100
AcDbPoint
 10
165.0000010430001
 20
0.0000000000000475
 30
0.0
  0
ENDBLK
  5
227DD
330
227DB
100
AcDbEntity
  8
0
100
AcDbBlockEnd
  0
BLOCK
  5
231CB
330
231CA
100
AcDbEntity
  8
0
100
AcDbBlockBegin
  2
*D20
 70
     1
 10
0.0
 20
0.0
 30
0.0
  3
*D20
  1

  0
LINE
  5
248FF
330
231CA
100
AcDbEntity
  8
30
 62
     0
370
    -2
100
AcDbLine
 10
788.1477344696612
 20
-7.306960033920232
 30
0.0
 11
780.2659220453898
 21
-1.152528061057067
 31
0.0
  0
LINE
  5
24900
330
231CA
100
AcDbEntity
  8
30
 62
     0
370
    -2
100
AcDbLine
 10
807.8522655303409
 20
-22.69303996607874
 30
0.0
 11
815.7340779546123
 21
-28.84747193894191
 31
0.0
  0
MTEXT
  5
24901
330
231CA
100
AcDbEntity
  8
30
 62
     0
100
AcDbMText
 10
850.5602560467112
 20
-56.04113405688451
 30
0.0
 40
15.0
 41
0.0
 71
     5
 72
     1
  1
2-M5
  7
DIM
 11
0.788181242427145
 21
-0.6154431972863151
 31
0.0
 73
     1
 44
1.0
1001
ACAD
1000
MTEXTBEGIN
1070
    73
1070
     1
1070
    44
1040
1.0
1070
    74
1070
     0
1000
MTEXTEND
  0
LINE
  5
24902
330
231CA
100
AcDbEntity
  8
30
 62
     0
370
    -2
100
AcDbLine
 10
796.0295468939327
 20
-13.4613920067834
 30
0.0
 11
799.9704531060691
 21
-16.53860799321563
 31
0.0
  0
INSERT
  5
24903
330
231CA
100
AcDbEntity
  8
30
 62
     0
370
    -2
100
AcDbBlockReference
  2
_OPEN
 10
796.0295468939327
 20
-13.4613920067834
 30
0.0
 41
10.0
 42
10.0
 43
10.0
 50
322.0158691458481
  0
INSERT
  5
24904
330
231CA
100
AcDbEntity
  8
30
 62
     0
370
    -2
100
AcDbBlockReference
  2
_OPEN
 10
799.9704531060691
 20
-16.53860799321563
 30
0.0
 41
10.0
 42
10.0
 43
10.0
 50
142.0158691458481
  0
POINT
  5
24905
330
231CA
100
AcDbEntity
  8
DEFPOINTS
 62
     0
100
AcDbPoint
 10
799.9704531060691
 20
-16.53860799321563
 30
0.0
  0
POINT
  5
24906
330
231CA
100
AcDbEntity
  8
DEFPOINTS
 62
     0
100
AcDbPoint
 10
796.0295468939327
 20
-13.4613920067834
 30
0.0
  0
ENDBLK
  5
231CC
330
231CA
100
AcDbEntity
  8
0
100
AcDbBlockEnd
  0
BLOCK
  5
23CB9
330
23CB8
100
AcDbEntity
  8
0
100
AcDbBlockBegin
  2
*D21
 70
     1
 10
0.0
 20
0.0
 30
0.0
  3
*D21
  1

  0
LINE
  5
24A82
330
23CB8
100
AcDbEntity
  8
30
  6
Continuous
 62
     0
370
    -2
100
AcDbLine
 10
152.014739758
 20
0.000000000000054
 30
0.0
 11
175.0000010430001
 21
0.0000000000000475
 31
0.0
  0
LINE
  5
24A83
330
23CB8
100
AcDbEntity
  8
30
  6
Continuous
 62
     0
370
    -2
100
AcDbLine
 10
60.5
 20
-25.0
 30
0.0
 11
175.0000010430001
 21
-25.00000000000003
 31
0.0
  0
LINE
  5
24A84
330
23CB8
100
AcDbEntity
  8
30
  6
Continuous
 62
     0
370
    -2
100
AcDbLine
 10
165.0000010430001
 20
10.00000000000005
 30
0.0
 11
165.0000010430001
 21
20.00000000000005
 31
0.0
  0
LINE
  5
24A85
330
23CB8
100
AcDbEntity
  8
30
  6
Continuous
 62
     0
370
    -2
100
AcDbLine
 10
165.0000010430001
 20
-35.00000000000003
 30
0.0
 11
165.0000010430001
 21
-45.00000000000003
 31
0.0
  0
MTEXT
  5
24A86
330
23CB8
100
AcDbEntity
  8
30
  6
Continuous
 62
     0
100
AcDbMText
 10
150.0
 20
-12.49999999999983
 30
0.0
 40
15.0
 41
0.0
 71
     5
 72
     1
  1
25
  7
DIM
 11
0.0000000000000001
 21
1.0
 31
0.0
 73
     1
 44
1.0
1001
ACAD
1000
MTEXTBEGIN
1070
    73
1070
     1
1070
    44
1040
1.0
1070
    74
1070
     0
1000
MTEXTEND
  0
LINE
  5
24A87
330
23CB8
100
AcDbEntity
  8
30
  6
Continuous
 62
     0
370
    -2
100
AcDbLine
 10
165.0000010430001
 20
0.0000000000000503
 30
0.0
 11
165.0000010430001
 21
-25.00000000000003
 31
0.0
  0
INSERT
  5
24A88
330
23CB8
100
AcDbEntity
  8
30
  6
Continuous
 62
     0
370
    -2
100
AcDbBlockReference
  2
_OPEN
 10
165.0000010430001
 20
0.0000000000000503
 30
0.0
 41
10.0
 42
10.0
 43
10.0
 50
270.0
  0
INSERT
  5
24A89
330
23CB8
100
AcDbEntity
  8
30
  6
Continuous
 62
     0
370
    -2
100
AcDbBlockReference
  2
_OPEN
 10
165.0000010430001
 20
-25.00000000000003
 30
0.0
 41
10.0
 42
10.0
 43
10.0
 50
90.0
  0
POINT
  5
24A8A
330
23CB8
100
AcDbEntity
  8
DEFPOINTS
  6
Continuous
 62
     0
100
AcDbPoint
 10
142.014739758
 20
0.0000000000000568
 30
0.0
  0
POINT
  5
24A8B
330
23CB8
100
AcDbEntity
  8
DEFPOINTS
  6
Continuous
 62
     0
100
AcDbPoint
 10
50.5
 20
-25.0
 30
0.0
  0
POINT
  5
24A8C
330
23CB8
100
AcDbEntity
  8
DEFPOINTS
  6
Continuous
 62
     0
100
AcDbPoint
 10
165.0000010430001
 20
-25.00000000000003
 30
0.0
  0
ENDBLK
  5
23CBA
330
23CB8
100
AcDbEntity
  8
0
100
AcDbBlockEnd
  0
BLOCK
  5
24D89
330
24D6E
100
AcDbEntity
  8
0
100
AcDbBlockBegin
  2
A$C604616B2
 70
     0
 10
0.0
 20
0.0
 30
0.0
  3
A$C604616B2
  1

  0
LINE
  5
24D6F
330
24D6E
100
AcDbEntity
  8
10
  6
Continuous
100
AcDbLine
 10
32.20102676629995
 20
1.300000785993745
 30
0.0
 11
32.70102676629995
 21
0.8000007859946549
 31
0.0
  0
LINE
  5
24D70
330
24D6E
100
AcDbEntity
  8
10
  6
Continuous
100
AcDbLine
 10
32.70102676629995
 20
43.20000078599429
 30
0.0
 11
32.70102676629995
 21
0.8000007859946549
 31
0.0
  0
LINE
  5
24D71
330
24D6E
100
AcDbEntity
  8
10
  6
Continuous
100
AcDbLine
 10
32.70102676629995
 20
43.20000078599429
 30
0.0
 11
32.20102676629995
 21
42.70000078599429
 31
0.0
  0
LINE
  5
24D72
330
24D6E
100
AcDbEntity
  8
10
  6
Continuous
100
AcDbLine
 10
-0.0000007337002899
 20
43.20000078599429
 30
0.0
 11
32.70102676629995
 21
43.20000078599429
 31
0.0
  0
LINE
  5
24D73
330
24D6E
100
AcDbEntity
  8
10
  6
Continuous
100
AcDbLine
 10
32.70102676629995
 20
0.8000007859946549
 30
0.0
 11
-0.0000007337002899
 21
0.8000007859946549
 31
0.0
  0
LINE
  5
24D74
330
24D6E
100
AcDbEntity
  8
10
  6
Continuous
100
AcDbLine
 10
33.00102676629967
 20
23.50000078599447
 30
0.0
 11
32.70100176629967
 21
23.80002578599402
 31
0.0
  0
LINE
  5
24D75
330
24D6E
100
AcDbEntity
  8
10
  6
Continuous
100
AcDbLine
 10
33.00102676629967
 20
43.50000078599447
 30
0.0
 11
32.70100176629967
 21
43.19997578599401
 31
0.0
  0
LINE
  5
24D76
330
24D6E
100
AcDbEntity
  8
10
  6
Continuous
100
AcDbLine
 10
32.50102676629968
 20
0.5000007859944731
 30
0.0
 11
0.0005667662999258
 21
0.5000007859944731
 31
0.0
  0
LINE
  5
24D77
330
24D6E
100
AcDbEntity
  8
10
  6
Continuous
100
AcDbLine
 10
0.0005667662999258
 20
43.50000078599447
 30
0.0
 11
32.50102676629968
 21
43.50000078599447
 31
0.0
  0
LINE
  5
24D78
330
24D6E
100
AcDbEntity
  8
10
  6
Continuous
100
AcDbLine
 10
33.00102676629967
 20
29.50000078599448
 30
0.0
 11
32.70080676630005
 21
29.50000078599448
 31
0.0
  0
LINE
  5
24D79
330
24D6E
100
AcDbEntity
  8
10
  6
Continuous
100
AcDbLine
 10
32.70080676630005
 20
39.50000078599448
 30
0.0
 11
33.00102676629967
 21
39.50000078599448
 31
0.0
  0
LINE
  5
24D7A
330
24D6E
100
AcDbEntity
  8
10
  6
Continuous
100
AcDbLine
 10
32.70096426629971
 20
15.50000078599447
 30
0.0
 11
33.00102676629967
 21
15.50000078599447
 31
0.0
  0
LINE
  5
24D7B
330
24D6E
100
AcDbEntity
  8
10
  6
Continuous
100
AcDbLine
 10
33.00102676629967
 20
5.500000785994473
 30
0.0
 11
32.70096426629971
 21
5.500000785994473
 31
0.0
  0
LINE
  5
24D7C
330
24D6E
100
AcDbEntity
  8
10
  6
Continuous
100
AcDbLine
 10
32.70098676630005
 20
23.50000078599447
 30
0.0
 11
33.00102676629967
 21
23.50000078599447
 31
0.0
  0
LINE
  5
24D7D
330
24D6E
100
AcDbEntity
  8
10
  6
Continuous
100
AcDbLine
 10
32.70100176629967
 20
20.19997578599401
 30
0.0
 11
33.00102676629967
 21
20.50000078599447
 31
0.0
  0
LINE
  5
24D7E
330
24D6E
100
AcDbEntity
  8
10
  6
Continuous
100
AcDbLine
 10
32.70100176629967
 20
0.8000257859940234
 30
0.0
 11
33.00102676629967
 21
0.5000007859944731
 31
0.0
  0
LINE
  5
24D7F
330
24D6E
100
AcDbEntity
  8
10
  6
Continuous
100
AcDbLine
 10
33.00102676629967
 20
20.50000078599447
 30
0.0
 11
32.70098676630005
 21
20.50000078599447
 31
0.0
  0
LINE
  5
24D80
330
24D6E
100
AcDbEntity
  8
10
  6
Continuous
100
AcDbLine
 10
9.001026766299673
 20
0.5000007859944731
 30
0.0
 11
9.001026766299673
 21
0.8000332859938339
 31
0.0
  0
LINE
  5
24D81
330
24D6E
100
AcDbEntity
  8
10
  6
Continuous
100
AcDbLine
 10
33.00102676629967
 20
0.5000007859944731
 30
0.0
 11
33.00102676629967
 21
43.50000078599447
 31
0.0
  0
LINE
  5
24D82
330
24D6E
100
AcDbEntity
  8
10
  6
Continuous
100
AcDbLine
 10
33.00102676629967
 20
43.50000078599447
 30
0.0
 11
32.50102676629968
 21
43.50000078599447
 31
0.0
  0
LINE
  5
24D83
330
24D6E
100
AcDbEntity
  8
10
  6
Continuous
100
AcDbLine
 10
32.50102676629968
 20
0.5000007859944731
 30
0.0
 11
33.00102676629967
 21
0.5000007859944731
 31
0.0
  0
ARC
  5
24D84
330
24D6E
100
AcDbEntity
  8
10
  6
Continuous
100
AcDbCircle
 10
-27.00102676629967
 20
2.500000785993563
 30
0.0
 40
2.0
210
0.0
220
0.0
230
-1.0
100
AcDbArc
 50
238.210296000001
 51
270.0
  0
ARC
  5
24D85
330
24D6E
100
AcDbEntity
  8
10
  6
Continuous
100
AcDbCircle
 10
32.50102676629968
 20
44.00000078599447
 30
0.0
 40
0.5
100
AcDbArc
 50
270.0
 51
0.0
  0
ARC
  5
24D86
330
24D6E
100
AcDbEntity
  8
10
  6
Continuous
100
AcDbCircle
 10
32.50102676629968
 20
0.0000007859935636
 30
0.0
 40
0.5
100
AcDbArc
 50
0.0
 51
90.0
  0
ENDBLK
  5
24D8A
330
24D6E
100
AcDbEntity
  8
0
100
AcDbBlockEnd
  0
ENDSEC
  0
SECTION
  2
ENTITIES
  0
LEADER
  5
8A
330
A
100
AcDbEntity
  8
19
100
AcDbLeader
  3
ISO-25-2
 76
     3
 10
565.8230887997011
 20
-369.6226516523635
 30
0.0
 10
515.0000000059995
 20
-320.0
 30
0.0
 10
462.2088960059995
 20
-320.0
 30
0.0
  0
LINE
  5
B3
330
A
100
AcDbEntity
  8
16
  6
CENTER
100
AcDbLine
 10
700.0
 20
69.75
 30
0.0
 11
700.0
 21
-69.75
 31
0.0
  0
LINE
  5
BB
330
A
100
AcDbEntity
  8
11
  6
HIDDEN
100
AcDbLine
 10
581.0000000000001
 20
103.4127803047999
 30
0.0
 11
581.0000000000001
 21
-116.5624999999998
 31
0.0
  0
LINE
  5
BC
330
A
100
AcDbEntity
  8
11
  6
Continuous
100
AcDbLine
 10
823.9999999999996
 20
99.99999999999987
 30
0.0
 11
823.9999999999996
 21
-119.9999999999998
 31
0.0
  0
LINE
  5
BD
330
A
100
AcDbEntity
  8
11
  6
Continuous
100
AcDbLine
 10
616.0
 20
99.99999999999987
 30
0.0
 11
616.0
 21
-119.9999999999998
 31
0.0
  0
LINE
  5
BF
330
A
100
AcDbEntity
  8
11
  6
HIDDEN
100
AcDbLine
 10
819.0
 20
103.4127803047999
 30
0.0
 11
819.0
 21
-116.5624999999998
 31
0.0
  0
LINE
  5
C0
330
A
100
AcDbEntity
  8
11
  6
Continuous
100
AcDbLine
 10
575.9999999999998
 20
99.99999999999987
 30
0.0
 11
575.9999999999998
 21
-119.9999999999998
 31
0.0
  0
LINE
  5
C2
330
A
100
AcDbEntity
  8
11
  6
Continuous
100
AcDbLine
 10
784.0
 20
99.99999999999987
 30
0.0
 11
784.0
 21
-119.9999999999998
 31
0.0
  0
SPLINE
  5
76E
330
A
100
AcDbEntity
  8
11
  6
Continuous
100
AcDbSpline
210
0.0
220
0.0
230
1.0
 70
     8
 71
     3
 72
    11
 73
     7
 74
     0
 42
0.0000000001
 43
0.0000000001
 40
0.0
 40
0.0
 40
0.0
 40
0.0
 40
0.2664503935422212
 40
0.5163829310998656
 40
0.7663154686575103
 40
1.0
 40
1.0
 40
1.0
 40
1.0
 10
576.0000000000314
 20
99.99999999981287
 30
0.0
 10
579.6224439136781
 20
102.5464603440406
 30
0.0
 10
586.6427683388239
 20
107.4815202589501
 30
0.0
 10
596.7960993877055
 20
100.0939550123535
 30
0.0
 10
606.6544784798974
 20
92.47075070029429
 30
0.0
 10
612.9553897331017
 20
97.54710000164848
 30
0.0
 10
616.0000000000312
 20
99.99999999981287
 30
0.0
  0
SPLINE
  5
76F
330
A
100
AcDbEntity
  8
11
  6
Continuous
100
AcDbSpline
210
0.0
220
0.0
230
1.0
 70
     8
 71
     3
 72
    11
 73
     7
 74
     0
 42
0.0000000001
 43
0.0000000001
 40
0.0
 40
0.0
 40
0.0
 40
0.0
 40
0.2500000000000027
 40
0.5000000000000011
 40
0.7500000000000006
 40
1.0
 40
1.0
 40
1.0
 40
1.0
 10
576.8198099929105
 20
-120.0000000001872
 30
0.0
 10
580.1531433262441
 20
-117.5000000001868
 30
0.0
 10
586.8198099929103
 20
-112.5000000001866
 30
0.0
 10
596.819809992911
 20
-120.0000000001872
 30
0.0
 10
606.819809992911
 20
-127.5000000001872
 30
0.0
 10
613.4864766595772
 20
-122.5000000001872
 30
0.0
 10
616.819809992911
 20
-120.0000000001872
 30
0.0
  0
SPLINE
  5
770
330
A
100
AcDbEntity
  8
11
  6
Continuous
100
AcDbSpline
210
0.0
220
0.0
230
1.0
 70
     8
 71
     3
 72
    11
 73
     7
 74
     0
 42
0.0000000001
 43
0.0000000001
 40
0.0
 40
0.0
 40
0.0
 40
0.0
 40
0.2500000000000027
 40
0.5000000000000011
 40
0.7500000000000006
 40
1.0
 40
1.0
 40
1.0
 40
1.0
 10
823.1801900071511
 20
-120.0000000001872
 30
0.0
 10
819.8468566738185
 20
-117.5000000001868
 30
0.0
 10
813.1801900071511
 20
-112.5000000001866
 30
0.0
 10
803.1801900071522
 20
-120.0000000001872
 30
0.0
 10
793.1801900071513
 20
-127.5000000001872
 30
0.0
 10
786.5135233404853
 20
-122.5000000001872
 30
0.0
 10
783.1801900071512
 20
-120.0000000001872
 30
0.0
  0
SPLINE
  5
771
330
A
100
AcDbEntity
  8
11
  6
Continuous
100
AcDbSpline
210
0.0
220
0.0
230
1.0
 70
     8
 71
     3
 72
    11
 73
     7
 74
     0
 42
0.0000000001
 43
0.0000000001
 40
0.0
 40
0.0
 40
0.0
 40
0.0
 40
0.2664503935422212
 40
0.5163829310998656
 40
0.7663154686575103
 40
1.0
 40
1.0
 40
1.0
 40
1.0
 10
824.0000000000314
 20
99.99999999981287
 30
0.0
 10
820.3775560863842
 20
102.5464603440406
 30
0.0
 10
813.3572316612372
 20
107.4815202589501
 30
0.0
 10
803.2039006123572
 20
100.0939550123535
 30
0.0
 10
793.3455215201652
 20
92.47075070029429
 30
0.0
 10
787.0446102669607
 20
97.54710000164848
 30
0.0
 10
784.0000000000314
 20
99.99999999981287
 30
0.0
  0
MTEXT
  5
80D
330
A
100
AcDbEntity
  8
19
100
AcDbMText
 10
700.0
 20
74.75
 30
0.0
 40
7.0
 41
0.0
 71
     8
 72
     5
  1
ASL
  7
SLDTEXTSTYLE0
 73
     1
 44
1.0
1001
ACAD
1000
MTEXTBEGIN
1070
    73
1070
     1
1070
    44
1040
1.0
1070
    74
1070
     0
1000
MTEXTEND
  0
LEADER
  5
80E
330
A
100
AcDbEntity
  8
19
100
AcDbLeader
  3
ISO-25-2
 76
     3
 10
591.2830786191999
 20
90.14439986520006
 30
0.0
 10
515.0
 20
120.0
 30
0.0
 10
462.2088960000001
 20
120.0
 30
0.0
  0
LINE
  5
8B3
330
A
100
AcDbEntity
  8
16
  6
CENTER
100
AcDbLine
 10
700.0
 20
-337.6724388227998
 30
0.0
 11
700.0
 21
-542.3275611771997
 31
0.0
  0
LINE
  5
8BF
330
A
100
AcDbEntity
  8
18
  6
Continuous
 62
     5
100
AcDbLine
 10
726.0
 20
-320.0000000000004
 30
0.0
 11
726.0
 21
-560.0
 31
0.0
  0
LINE
  5
8C0
330
A
100
AcDbEntity
  8
18
  6
Continuous
 62
     5
100
AcDbLine
 10
674.0
 20
-320.0000000000004
 30
0.0
 11
674.0
 21
-560.0
 31
0.0
  0
LEADER
  5
CEB
330
A
100
AcDbEntity
  8
19
100
AcDbLeader
  3
ISO-25-2
 76
     3
 10
-102.1890887012
 20
-346.7016307187995
 30
0.0
 10
-115.0
 20
-329.9999999999999
 30
0.0
 10
-141.395552
 20
-329.9999999999999
 30
0.0
  0
LEADER
  5
CF2
330
A
100
AcDbEntity
  8
19
100
AcDbLeader
  3
ISO-25-2
 76
     3
 10
-80.59999999999991
 20
-389.5009569332
 30
0.0
 10
-115.0
 20
-369.9999999999998
 30
0.0
 10
-158.337344
 20
-369.9999999999998
 30
0.0
  0
LEADER
  5
CFA
330
A
100
AcDbEntity
  8
19
100
AcDbLeader
  3
ISO-25-2
 76
     3
 10
-98.0
 20
-427.8835672835818
 30
0.0
 10
-125.0
 20
-394.9999999999998
 30
0.0
 10
-170.2677119999998
 20
-394.9999999999998
 30
0.0
  0
LEADER
  5
D01
330
A
100
AcDbEntity
  8
19
100
AcDbLeader
  3
ISO-25-2
 76
     3
 10
-124.0
 20
-454.2014438943993
 30
0.0
 10
-175.0
 20
-473.3911056714649
 30
0.0
 10
-201.395552
 20
-473.3911056714649
 30
0.0
  0
MTEXT
  5
D08
330
A
100
AcDbEntity
  8
19
100
AcDbMText
 10
-22.5
 20
-528.7131711133751
 30
0.0
 40
7.0
 41
0.0
 71
     5
 72
     5
  1
[ ﾌﾞｽﾊﾞｰﾋﾟｯﾁ ]
  7
SLDTEXTSTYLE0
 73
     1
 44
1.0
1001
ACAD
1000
MTEXTBEGIN
1070
    73
1070
     1
1070
    44
1040
1.0
1070
    74
1070
     0
1000
MTEXTEND
  0
MTEXT
  5
D09
330
A
100
AcDbEntity
  8
19
100
AcDbMText
 10
22.5
 20
-528.3667966155571
 30
0.0
 40
7.0
 41
0.0
 71
     5
 72
     5
  1
[ ﾌﾞｽﾊﾞｰﾋﾟｯﾁ ]
  7
SLDTEXTSTYLE0
 73
     1
 44
1.0
1001
ACAD
1000
MTEXTBEGIN
1070
    73
1070
     1
1070
    44
1040
1.0
1070
    74
1070
     0
1000
MTEXTEND
  0
MTEXT
  5
D0D
330
A
100
AcDbEntity
  8
19
100
AcDbMText
 10
649.055352882581
 20
-213.8797963213735
 30
0.0
 40
15.0
 41
0.0
 71
     1
 72
     5
  1
[ パネル切抜幅 ]
  7
SLDTEXTSTYLE0
 73
     1
 44
1.0
1001
ACAD
1000
MTEXTBEGIN
1070
    73
1070
     1
1070
    44
1040
1.0
1070
    74
1070
     0
1000
MTEXTEND
  0
MTEXT
  5
D13
330
A
100
AcDbEntity
  8
19
100
AcDbMText
 10
-6.170577485400031
 20
-315.7191997075998
 30
0.0
 40
7.0
 41
0.0
 71
     1
 72
     5
  1
ASL
  7
SLDTEXTSTYLE0
 73
     1
 44
1.0
1001
ACAD
1000
MTEXTBEGIN
1070
    73
1070
     1
1070
    44
1040
1.0
1070
    74
1070
     0
1000
MTEXTEND
  0
DIMENSION
  5
203A
330
A
100
AcDbEntity
  8
30
  6
Continuous
100
AcDbDimension
  2
*D1
 10
798.0000000000005
 20
110.0
 30
0.0
 11
700.0
 21
122.5
 31
0.0
 70
   160
 71
     5
 42
196.0
  3
ISO-25-2
100
AcDbAlignedDimension
 13
602.0000000000005
 23
25.00010000000021
 33
0.0
 14
798.0000000000005
 24
-12.49990000000002
 34
0.0
100
AcDbRotatedDimension
  0
DIMENSION
  5
2047
330
A
100
AcDbEntity
  8
30
  6
Continuous
100
AcDbDimension
  2
*D2
 10
784.0
 20
-160.0
 30
0.0
 11
700.0
 21
-147.5
 31
0.0
 70
    32
 71
     5
 42
168.0
  3
ISO-25-2
100
AcDbAlignedDimension
 13
616.0
 23
-119.9999999999998
 33
0.0
 14
784.0
 24
-119.9999999999998
 34
0.0
100
AcDbRotatedDimension
  0
DIMENSION
  5
2061
330
A
100
AcDbEntity
  8
30
  6
Continuous
100
AcDbDimension
  2
*D3
 10
726.0
 20
-260.0
 30
0.0
 11
700.0
 21
-247.5
 31
0.0
 70
    32
 71
     5
 42
52.0000000000001
  3
ISO-25-2
100
AcDbAlignedDimension
 13
673.9999999999999
 23
-320.0000000000004
 33
0.0
 14
726.0
 24
-320.0000000000004
 34
0.0
100
AcDbRotatedDimension
  0
DIMENSION
  5
207B
330
A
100
AcDbEntity
  8
30
  6
Continuous
100
AcDbDimension
  2
*D4
 10
110.0
 20
-159.9999999999999
 30
0.0
 11
-0.0000000000000134
 21
-147.4999999999999
 31
0.0
 70
    32
 71
     5
 42
220.0
  3
ISO-25-2
100
AcDbAlignedDimension
 13
-110.0
 23
-26.00000000000068
 33
0.0
 14
110.0
 24
-26.00000000000068
 34
0.0
100
AcDbRotatedDimension
  0
DIMENSION
  5
2088
330
A
100
AcDbEntity
  8
30
  6
Continuous
100
AcDbDimension
  2
*D5
 10
41.99999999999999
 20
-109.9999999999999
 30
0.0
 11
21.0
 21
-97.49999999999991
 31
0.0
 70
    32
 71
     5
 42
42.0
  3
ISO-25-2
100
AcDbAlignedDimension
 13
0.0
 23
-69.7499999999999
 33
0.0
 14
42.0
 24
-32.70000000000067
 34
0.0
100
AcDbRotatedDimension
  0
DIMENSION
  5
2164
330
A
100
AcDbEntity
  8
30
  6
Continuous
100
AcDbDimension
  2
*D6
 10
-164.9999999999999
 20
-439.9999999999998
 30
0.0
 11
-189.9999999999999
 21
-429.4999999999998
 31
0.0
 70
    32
 71
     5
 42
21.0
  3
ISO-25-2
100
AcDbAlignedDimension
 13
-109.0
 23
-418.9999999999998
 33
0.0
 14
-90.59999999999993
 24
-439.9999999999998
 34
0.0
 50
90.0
100
AcDbRotatedDimension
  0
DIMENSION
  5
2180
330
A
100
AcDbEntity
  8
30
  6
Continuous
100
AcDbDimension
  2
*D7
 10
264.9988484217001
 20
-479.9999999999998
 30
0.0
 11
252.4988484217002
 21
-459.9999999999998
 31
0.0
 70
    32
 71
     5
 42
40.0
  3
ISO-25-2
100
AcDbAlignedDimension
 13
127.0
 23
-439.9999999999998
 33
0.0
 14
58.5
 24
-479.9999999999998
 34
0.0
 50
90.0
100
AcDbRotatedDimension
  0
DIMENSION
  5
219A
330
A
100
AcDbEntity
  8
30
  6
Continuous
100
AcDbDimension
  2
*D8
 10
164.9988484217003
 20
-439.9999999999997
 30
0.0
 11
150.9188210542454
 21
-418.3194255577068
 31
0.0
 70
   160
 71
     5
 42
22.00000000000017
  3
ISO-25-2
100
AcDbAlignedDimension
 13
109.5048666197002
 23
-461.9999999999998
 33
0.0
 14
131.9988473787002
 24
-439.9999999999997
 34
0.0
 50
90.0
100
AcDbRotatedDimension
  0
DIMENSION
  5
21BF
330
A
100
AcDbEntity
  8
30
  6
Continuous
100
AcDbDimension
  2
*D9
 10
2.000000000000041
 20
-509.9999999999998
 30
0.0
 11
24.0
 21
-497.1911056714656
 31
0.0
 70
   160
 71
     5
 42
4.0
  3
ISO-25-2
100
AcDbAlignedDimension
 13
-1.999999999999956
 23
-498.6055512754639
 33
0.0
 14
2.000000000000042
 24
-498.6055512754639
 34
0.0
100
AcDbRotatedDimension
  0
DIMENSION
  5
21E4
330
A
100
AcDbEntity
  8
30
  6
Continuous
100
AcDbDimension
  2
*D10
 10
58.99999999999998
 20
-609.9999999999997
 30
0.0
 11
0.0166662500000605
 21
-609.9999999999997
 31
0.0
 70
   160
 71
     5
 42
118.0
  3
ISO-25-2
100
AcDbAlignedDimension
 13
-59.00000000000001
 23
-437.3000000000001
 33
0.0
 14
58.99999999999999
 24
-437.3000000000001
 34
0.0
100
AcDbRotatedDimension
1001
ACAD
1000
DSTYLE
1002
{
1070
   279
1070
     0
1002
}
  0
LEADER
  5
24A0
330
A
100
AcDbEntity
  8
19
  6
Continuous
100
AcDbLeader
  3
ISO-25-2
 76
     3
 10
72.07888920265222
 20
-381.3999999999321
 30
0.0
 10
105.0
 20
-369.9999999999998
 30
0.0
 10
150.0
 20
-369.9999999999998
 30
0.0
1001
ACAD
1000
DSTYLE
1002
{
1070
   147
1040
5.0
1070
    77
1070
     0
1002
}
  0
MTEXT
  5
254A
330
A
100
AcDbEntity
  8
19
100
AcDbMText
 10
-170.2672350713999
 20
-378.0606566301998
 30
0.0
 40
6.349999999999996
 41
0.0
 71
     1
 72
     5
  1
差込台取付ねじ
  7
SLDTEXTSTYLE0
 73
     1
 44
1.0
1001
ACAD
1000
MTEXTBEGIN
1070
    73
1070
     1
1070
    44
1040
1.0
1070
    74
1070
     0
1000
MTEXTEND
  0
MTEXT
  5
254B
330
A
100
AcDbEntity
  8
19
100
AcDbMText
 10
-170.2672350713999
 20
-386.4106566301998
 30
0.0
 40
6.349999999999996
 41
0.0
 71
     1
 72
     5
  1
ナベＭ５
  7
SLDTEXTSTYLE0
 73
     1
 44
1.0
1001
ACAD
1000
MTEXTBEGIN
1070
    73
1070
     1
1070
    44
1040
1.0
1070
    74
1070
     0
1000
MTEXTEND
  0
MTEXT
  5
254C
330
A
100
AcDbEntity
  8
19
100
AcDbMText
 10
-201.3875197569999
 20
-464.924155804065
 30
0.0
 40
6.349999999999996
 41
0.0
 71
     1
 72
     5
  1
取付板
  7
SLDTEXTSTYLE0
 73
     1
 44
1.0
1001
ACAD
1000
MTEXTBEGIN
1070
    73
1070
     1
1070
    44
1040
1.0
1070
    74
1070
     0
1000
MTEXTEND
  0
MTEXT
  5
254D
330
A
100
AcDbEntity
  8
19
100
AcDbMText
 10
-141.3854844428
 20
-321.5265731153999
 30
0.0
 40
6.349999999999996
 41
0.0
 71
     1
 72
     5
  1
パネル
  7
SLDTEXTSTYLE0
 73
     1
 44
1.0
1001
ACAD
1000
MTEXTBEGIN
1070
    73
1070
     1
1070
    44
1040
1.0
1070
    74
1070
     0
1000
MTEXTEND
  0
MTEXT
  5
254E
330
A
100
AcDbEntity
  8
19
100
AcDbMText
 10
-158.3267388958001
 20
-344.6000775527999
 30
0.0
 40
6.349999999999996
 41
0.0
 71
     1
 72
     5
  1
電源側
  7
SLDTEXTSTYLE0
 73
     1
 44
1.0
1001
ACAD
1000
MTEXTBEGIN
1070
    73
1070
     1
1070
    44
1040
1.0
1070
    74
1070
     0
1000
MTEXTEND
  0
MTEXT
  5
254F
330
A
100
AcDbEntity
  8
19
100
AcDbMText
 10
-158.3267388958001
 20
-352.9500775528
 30
0.0
 40
6.349999999999996
 41
0.0
 71
     1
 72
     5
  1
端子カバー
  7
SLDTEXTSTYLE0
 73
     1
 44
1.0
1001
ACAD
1000
MTEXTBEGIN
1070
    73
1070
     1
1070
    44
1040
1.0
1070
    74
1070
     0
1000
MTEXTEND
  0
MTEXT
  5
2550
330
A
100
AcDbEntity
  8
19
100
AcDbMText
 10
-158.3267388958001
 20
-361.3000775528
 30
0.0
 40
6.349999999999996
 41
0.0
 71
     1
 72
     5
  1
標準装備
  7
SLDTEXTSTYLE0
 73
     1
 44
1.0
1001
ACAD
1000
MTEXTBEGIN
1070
    73
1070
     1
1070
    44
1040
1.0
1070
    74
1070
     0
1000
MTEXTEND
  0
MTEXT
  5
25AA
330
A
100
AcDbEntity
  8
19
100
AcDbMText
 10
464.4270386006923
 20
-304.56228382161
 30
0.0
 40
12.69999999999999
 41
0.0
 71
     1
 72
     5
  1
パネル
  7
SLDTEXTSTYLE0
 73
     1
 44
1.0
1001
ACAD
1000
MTEXTBEGIN
1070
    73
1070
     1
1070
    44
1040
1.0
1070
    74
1070
     0
1000
MTEXTEND
  0
MTEXT
  5
25AB
330
A
100
AcDbEntity
  8
19
100
AcDbMText
 10
462.2107665696001
 20
136.9528845367999
 30
0.0
 40
12.69999999999999
 41
0.0
 71
     1
 72
     5
  1
取付板
  7
SLDTEXTSTYLE0
 73
     1
 44
1.0
1001
ACAD
1000
MTEXTBEGIN
1070
    73
1070
     1
1070
    44
1040
1.0
1070
    74
1070
     0
1000
MTEXTEND
  0
HATCH
  5
25BC
330
A
100
AcDbEntity
  8
11
  6
Continuous
100
AcDbHatch
 10
0.0
 20
0.0
 30
0.0
210
0.0
220
0.0
230
1.0
  2
ANSI31
 70
     0
 71
     0
 91
        1
 92
        1
 93
        4
 72
     1
 10
673.9999999999999
 20
-560.0
 11
533.8853464984445
 21
-560.0
 72
     1
 10
533.8853464984445
 20
-560.0
 11
533.8853464984445
 21
-319.9610731540563
 72
     1
 10
533.8853464984445
 20
-319.9610731540563
 11
673.9999999999999
 21
-320.0000000000004
 72
     1
 10
673.9999999999999
 20
-320.0000000000004
 11
673.9999999999999
 21
-560.0
 97
        0
 75
     0
 76
     1
 52
0.0
 41
50.0
 77
     0
 78
     1
 53
45.0
 43
283.6091522102577
 44
-707.6638206802548
 45
-4.419417382415921
 46
4.419417382415921
 79
     0
 98
        1
 10
283.6091522102577
 20
-707.6638206802548
  0
HATCH
  5
25D1
330
A
100
AcDbEntity
  8
11
  6
Continuous
100
AcDbHatch
 10
0.0
 20
0.0
 30
0.0
210
0.0
220
0.0
230
1.0
  2
ANSI31
 70
     0
 71
     0
 91
        1
 92
        1
 93
        4
 72
     1
 10
726.0
 20
-560.0
 11
726.0
 21
-320.0000000000004
 72
     1
 10
726.0
 20
-320.0000000000004
 11
866.0000000000001
 21
-320.0000000000004
 72
     1
 10
866.0000000000001
 20
-320.0000000000004
 11
866.0000000000001
 21
-560.0
 72
     1
 10
866.0000000000001
 20
-560.0
 11
726.0
 21
-560.0
 97
        0
 75
     0
 76
     1
 52
0.0
 41
50.0
 77
     0
 78
     1
 53
45.0
 43
283.6091522102577
 44
-707.6638206802548
 45
-4.419417382415921
 46
4.419417382415921
 79
     0
 98
        1
 10
283.6091522102577
 20
-707.6638206802548
  0
LINE
  5
1305C
330
A
100
AcDbEntity
  8
16
  6
CENTER
100
AcDbLine
 10
0.0
 20
-325.1194866515997
 30
0.0
 11
0.0
 21
-504.1088943285343
 31
0.0
  0
LINE
  5
14782
330
A
100
AcDbEntity
  8
16
  6
CENTER
100
AcDbLine
 10
510.0
 20
0.0
 30
0.0
 11
862.3999999999997
 21
0.0
 31
0.0
  0
MTEXT
  5
14ED5
330
A
100
AcDbEntity
  8
19
100
AcDbMText
 10
700.0
 20
-332.6724388227998
 30
0.0
 40
7.0
 41
0.0
 71
     8
 72
     5
  1
ASL
  7
SLDTEXTSTYLE0
 73
     1
 44
1.0
1001
ACAD
1000
MTEXTBEGIN
1070
    73
1070
     1
1070
    44
1040
1.0
1070
    74
1070
     0
1000
MTEXTEND
  0
LINE
  5
14F03
330
A
100
AcDbEntity
  8
16
  6
CENTER
100
AcDbLine
 10
510.0000000059996
 20
-440.0
 30
0.0
 11
870.4000000059993
 21
-440.0
 31
0.0
  0
MTEXT
  5
14FA2
330
A
100
AcDbEntity
  8
19
100
AcDbMText
 10
502.3028278538538
 20
3.612510898199956
 30
0.0
 40
7.0
 41
0.0
 71
     1
 72
     5
  1
H
  7
SLDTEXTSTYLE0
 73
     1
 44
1.0
1001
ACAD
1000
MTEXTBEGIN
1070
    73
1070
     1
1070
    44
1040
1.0
1070
    74
1070
     0
1000
MTEXTEND
  0
MTEXT
  5
14FA3
330
A
100
AcDbEntity
  8
19
100
AcDbMText
 10
503.9386634184283
 20
1.6432679851315
 30
0.0
 40
7.0
 41
0.0
 71
     1
 72
     5
  1
L
  7
SLDTEXTSTYLE0
 73
     1
 44
1.0
1001
ACAD
1000
MTEXTBEGIN
1070
    73
1070
     1
1070
    44
1040
1.0
1070
    74
1070
     0
1000
MTEXTEND
  0
MTEXT
  5
14FC6
330
A
100
AcDbEntity
  8
19
100
AcDbMText
 10
502.3028278598537
 20
-436.3874891017999
 30
0.0
 40
7.0
 41
0.0
 71
     1
 72
     5
  1
H
  7
SLDTEXTSTYLE0
 73
     1
 44
1.0
1001
ACAD
1000
MTEXTBEGIN
1070
    73
1070
     1
1070
    44
1040
1.0
1070
    74
1070
     0
1000
MTEXTEND
  0
MTEXT
  5
14FC7
330
A
100
AcDbEntity
  8
19
100
AcDbMText
 10
503.9386634244281
 20
-438.3567320148683
 30
0.0
 40
7.0
 41
0.0
 71
     1
 72
     5
  1
L
  7
SLDTEXTSTYLE0
 73
     1
 44
1.0
1001
ACAD
1000
MTEXTBEGIN
1070
    73
1070
     1
1070
    44
1040
1.0
1070
    74
1070
     0
1000
MTEXTEND
  0
TEXT
  5
14FF5
330
A
100
AcDbEntity
  8
19
  6
Continuous
100
AcDbText
 10
106.0146023020596
 20
-369.2141870936738
 30
0.0
 40
7.0
  1
負荷側接続ねじ
 41
0.75
  7
SLDTEXTSTYLE0
100
AcDbText
  0
LINE
  5
20A41
330
A
100
AcDbEntity
  8
11
  6
PHANTOM
100
AcDbLine
 10
-26.00000000000001
 20
-348.9999999999998
 30
0.0
 11
-26.00000000000001
 21
-346.9999999999998
 31
0.0
  0
LINE
  5
20B0E
330
A
100
AcDbEntity
  8
11
  6
PHANTOM
100
AcDbLine
 10
26.0
 20
-346.9999999999998
 30
0.0
 11
128.7381349920001
 21
-346.9999999999998
 31
0.0
  0
LINE
  5
20B0F
330
A
100
AcDbEntity
  8
11
  6
PHANTOM
100
AcDbLine
 10
26.0
 20
-348.9999999999998
 30
0.0
 11
128.7381349920001
 21
-348.9999999999998
 31
0.0
  0
LINE
  5
20B10
330
A
100
AcDbEntity
  8
11
  6
PHANTOM
100
AcDbLine
 10
-25.99884737870026
 20
-348.9999999999998
 30
0.0
 11
-128.7381349922001
 21
-348.9999999999998
 31
0.0
  0
LINE
  5
20B11
330
A
100
AcDbEntity
  8
11
  6
PHANTOM
100
AcDbLine
 10
-25.99884737870026
 20
-346.9999999999998
 30
0.0
 11
-128.7381349922001
 21
-346.9999999999998
 31
0.0
  0
DIMENSION
  5
20B7D
330
A
100
AcDbEntity
  8
30
  6
Continuous
100
AcDbDimension
  2
*D11
 10
214.9988484217002
 20
-391.0
 30
0.0
 11
202.4988484217003
 21
-415.4999999999997
 31
0.0
 70
    32
 71
     5
 42
48.99999999999983
  3
ISO-25-2
100
AcDbAlignedDimension
 13
131.9988473787002
 23
-439.9999999999997
 33
0.0
 14
79.99999999999999
 24
-390.9999999999998
 34
0.0
 50
90.0
100
AcDbRotatedDimension
  0
DIMENSION
  5
20C29
330
A
100
AcDbEntity
  8
30
  6
Continuous
100
AcDbDimension
  2
*D12
 10
-45.0
 20
-559.9999999999998
 30
0.0
 11
-22.5
 21
-547.4999999999998
 31
0.0
 70
    32
 71
     5
 42
45.0
  3
ISO-25-2
100
AcDbAlignedDimension
 13
0.0
 23
-504.1088943285343
 33
0.0
 14
-45.0
 24
-504.9999999999998
 34
0.0
100
AcDbRotatedDimension
  0
DIMENSION
  5
20C2A
330
A
100
AcDbEntity
  8
30
  6
Continuous
100
AcDbDimension
  2
*D13
 10
44.99999999999999
 20
-559.9999999999998
 30
0.0
 11
22.5
 21
-547.4999999999998
 31
0.0
 70
    32
 71
     5
 42
45.0
  3
ISO-25-2
100
AcDbAlignedDimension
 13
0.0
 23
-504.1088943285343
 33
0.0
 14
45.0
 24
-497.1911056714656
 34
0.0
100
AcDbRotatedDimension
  0
MTEXT
  5
20CDB
330
A
100
AcDbEntity
  8
19
100
AcDbMText
 10
170.0
 20
-438.3911056714651
 30
0.0
 40
7.0
 41
0.0
 71
     1
 72
     5
  1
[ ﾌﾞｽﾊﾞｰ取付高さ ]
  7
SLDTEXTSTYLE0
 11
0.0000000000000001
 21
1.0
 31
0.0
 73
     1
 44
1.0
1001
ACAD
1000
MTEXTBEGIN
1070
    73
1070
     1
1070
    44
1040
1.0
1070
    74
1070
     0
1000
MTEXTEND
  0
MTEXT
  5
20CDC
330
A
100
AcDbEntity
  8
19
100
AcDbMText
 10
219.9999999999999
 20
-438.3911056714651
 30
0.0
 40
7.0
 41
0.0
 71
     1
 72
     5
  1
[ 負荷側端子高さ ]
  7
SLDTEXTSTYLE0
 11
0.0000000000000001
 21
1.0
 31
0.0
 73
     1
 44
1.0
1001
ACAD
1000
MTEXTBEGIN
1070
    73
1070
     1
1070
    44
1040
1.0
1070
    74
1070
     0
1000
MTEXTEND
  0
DIMENSION
  5
20CF0
330
A
100
AcDbEntity
  8
30
  6
Continuous
100
AcDbDimension
  2
*D14
 10
264.9988484217001
 20
-439.9999999999997
 30
0.0
 11
252.4988484217002
 21
-394.4999999999998
 31
0.0
 70
    32
 71
     5
 42
90.99999999999987
  3
ISO-25-2
100
AcDbAlignedDimension
 13
128.7369823707004
 23
-348.9999999999998
 33
0.0
 14
131.9988473787002
 24
-439.9999999999997
 34
0.0
 50
90.0
100
AcDbRotatedDimension
  0
DIMENSION
  5
216CC
330
A
100
AcDbEntity
  8
30
  6
Continuous
100
AcDbDimension
  2
*D15
 10
485.0
 20
15.00000000000027
 30
0.0
 11
460.0
 21
0.0000000000004035
 31
0.0
 70
    32
 71
     5
 42
29.9999999999999
  3
ISO-25-2
100
AcDbAlignedDimension
 13
787.9999000000005
 23
-14.9999999999997
 33
0.0
 14
591.9999000000005
 24
15.00000000000024
 34
0.0
 50
90.0
100
AcDbRotatedDimension
  0
LINE
  5
2279D
330
A
100
AcDbEntity
  8
16
  6
CENTER
100
AcDbLine
 10
0.0
 20
-69.74999999999997
 30
0.0
 11
0.0
 21
69.75
 31
0.0
  0
MTEXT
  5
2279E
330
A
100
AcDbEntity
  8
19
100
AcDbMText
 10
0.0
 20
74.75
 30
0.0
 40
7.0
 41
0.0
 71
     8
 72
     5
  1
ASL
  7
SLDTEXTSTYLE0
 73
     1
 44
1.0
1001
ACAD
1000
MTEXTBEGIN
1070
    73
1070
     1
1070
    44
1040
1.0
1070
    74
1070
     0
1000
MTEXTEND
  0
LINE
  5
2279F
330
A
100
AcDbEntity
  8
16
  6
CENTER
100
AcDbLine
 10
132.0147397580001
 20
0.0000000000000568
 30
0.0
 11
-132.0147397579999
 21
0.0000000000000568
 31
0.0
  0
MTEXT
  5
227A0
330
A
100
AcDbEntity
  8
19
100
AcDbMText
 10
-139.7119119041459
 20
3.612510898200013
 30
0.0
 40
7.0
 41
0.0
 71
     1
 72
     5
  1
H
  7
SLDTEXTSTYLE0
 73
     1
 44
1.0
1001
ACAD
1000
MTEXTBEGIN
1070
    73
1070
     1
1070
    44
1040
1.0
1070
    74
1070
     0
1000
MTEXTEND
  0
MTEXT
  5
227A1
330
A
100
AcDbEntity
  8
19
100
AcDbMText
 10
-138.0760763395715
 20
1.643267985131558
 30
0.0
 40
7.0
 41
0.0
 71
     1
 72
     5
  1
L
  7
SLDTEXTSTYLE0
 73
     1
 44
1.0
1001
ACAD
1000
MTEXTBEGIN
1070
    73
1070
     1
1070
    44
1040
1.0
1070
    74
1070
     0
1000
MTEXTEND
  0
DIMENSION
  5
227A2
330
A
100
AcDbEntity
  8
30
  6
Continuous
100
AcDbDimension
  2
*D17
 10
-165.0
 20
15.00000000000024
 30
0.0
 11
-190.0
 21
0.0000000000002479
 31
0.0
 70
    32
 71
     5
 42
29.99999999999996
  3
ISO-25-2
100
AcDbAlignedDimension
 13
93.49999999999999
 23
-14.99999999999977
 33
0.0
 14
-102.5
 24
15.00000000000023
 34
0.0
 50
90.0
100
AcDbRotatedDimension
  0
DIMENSION
  5
227A3
330
A
100
AcDbEntity
  8
30
  6
Continuous
100
AcDbDimension
  2
*D18
 10
215.000001043
 20
-37.49999999999982
 30
0.0
 11
202.500001043
 21
0.0000000000002868
 31
0.0
 70
    32
 71
     5
 42
75.0000000000001
  3
ISO-25-2
100
AcDbAlignedDimension
 13
106.0
 23
37.50000000000034
 33
0.0
 14
106.0
 24
-37.49999999999977
 34
0.0
 50
90.0
100
AcDbRotatedDimension
  0
DIMENSION
  5
227A4
330
A
100
AcDbEntity
  8
30
  6
Continuous
100
AcDbDimension
  2
*D19
 10
165.0000010430001
 20
0.0000000000000475
 30
0.0
 11
150.0
 21
12.50000000000017
 31
0.0
 70
   160
 71
     5
 42
25.00000000000015
  3
ISO-25-2
100
AcDbAlignedDimension
 13
50.5
 23
25.00000000000023
 33
0.0
 14
132.0147397580001
 24
0.0000000000000568
 34
0.0
 50
90.0
100
AcDbRotatedDimension
  0
DIMENSION
  5
227A5
330
A
100
AcDbEntity
  8
30
  6
Continuous
100
AcDbDimension
  2
*D16
 10
98.0
 20
110.0
 30
0.0
 11
0.0000000000000008
 21
122.5
 31
0.0
 70
    32
 71
     5
 42
196.0
  3
ISO-25-2
100
AcDbAlignedDimension
 13
-98.0
 23
28.20000000000005
 33
0.0
 14
98.0
 24
-1.799999999999954
 34
0.0
100
AcDbRotatedDimension
  0
LINE
  5
22B63
330
A
100
AcDbEntity
  8
12
  6
PHANTOM
100
AcDbLine
 10
124.0
 20
-439.9999999999998
 30
0.0
 11
84.0
 21
-439.9999999999998
 31
0.0
  0
LINE
  5
22B6A
330
A
100
AcDbEntity
  8
12
  6
PHANTOM
100
AcDbLine
 10
86.0
 20
-442.9999999999998
 30
0.0
 11
116.5
 21
-442.9999999999998
 31
0.0
  0
LINE
  5
22B6F
330
A
100
AcDbEntity
  8
12
  6
PHANTOM
100
AcDbLine
 10
84.0
 20
-439.9999999999998
 30
0.0
 11
84.0
 21
-440.9999999999998
 31
0.0
  0
ARC
  5
22B70
330
A
100
AcDbEntity
  8
12
  6
PHANTOM
100
AcDbCircle
 10
85.99999999990814
 20
-441.0000000000916
 30
0.0
 40
1.99999999990814
100
AcDbArc
 50
179.9999999973684
 51
270.0000000026316
  0
LINE
  5
22B82
330
A
100
AcDbEntity
  8
12
  6
PHANTOM
100
AcDbLine
 10
121.0
 20
-447.4999999999998
 30
0.0
 11
121.0
 21
-477.9999999999998
 31
0.0
  0
LINE
  5
22B83
330
A
100
AcDbEntity
  8
12
  6
PHANTOM
100
AcDbLine
 10
124.0
 20
-479.9999999999998
 30
0.0
 11
124.0
 21
-439.9999999999998
 31
0.0
  0
ARC
  5
22B84
330
A
100
AcDbEntity
  8
12
  6
PHANTOM
100
AcDbCircle
 10
116.5000000002067
 20
-447.4999999997931
 30
0.0
 40
4.499999999793316
100
AcDbArc
 50
359.9999999973684
 51
90.00000000263156
  0
LINE
  5
22B8D
330
A
100
AcDbEntity
  8
12
  6
PHANTOM
100
AcDbLine
 10
123.0
 20
-479.9999999999998
 30
0.0
 11
124.0
 21
-479.9999999999998
 31
0.0
  0
ARC
  5
22B8E
330
A
100
AcDbEntity
  8
12
  6
PHANTOM
100
AcDbCircle
 10
122.9999999999081
 20
-478.0000000000916
 30
0.0
 40
1.99999999990814
100
AcDbArc
 50
179.9999999973684
 51
270.0000000026316
  0
LINE
  5
22B9A
330
A
100
AcDbEntity
  8
11
  6
PHANTOM
100
AcDbLine
 10
43.00000000000003
 20
-463.6055512754637
 30
0.0
 11
43.00000000000003
 21
-498.6055512754639
 31
0.0
  0
LINE
  5
22B9B
330
A
100
AcDbEntity
  8
11
  6
PHANTOM
100
AcDbLine
 10
47.00000000000003
 20
-498.6055512754639
 30
0.0
 11
47.00000000000003
 21
-463.6055512754637
 31
0.0
  0
ARC
  5
22B9C
330
A
100
AcDbEntity
  8
11
  6
PHANTOM
100
AcDbCircle
 10
45.0
 20
-464.0484536989459
 30
0.0
 40
2.048453698946254
100
AcDbArc
 50
12.48670404977224
 51
167.5132959502311
  0
LINE
  5
22C8E
330
A
100
AcDbEntity
  8
11
  6
PHANTOM
100
AcDbLine
 10
-1.999999999999956
 20
-463.6055512754637
 30
0.0
 11
-1.999999999999956
 21
-498.6055512754639
 31
0.0
  0
LINE
  5
22C8F
330
A
100
AcDbEntity
  8
11
  6
PHANTOM
100
AcDbLine
 10
2.000000000000042
 20
-498.6055512754639
 30
0.0
 11
2.000000000000042
 21
-463.6055512754637
 31
0.0
  0
ARC
  5
22C90
330
A
100
AcDbEntity
  8
11
  6
PHANTOM
100
AcDbCircle
 10
0.0
 20
-464.0484536989459
 30
0.0
 40
2.048453698946254
100
AcDbArc
 50
12.48670404977224
 51
167.5132959502311
  0
LINE
  5
22C91
330
A
100
AcDbEntity
  8
11
  6
PHANTOM
100
AcDbLine
 10
-46.99999999999993
 20
-463.6055512754637
 30
0.0
 11
-46.99999999999993
 21
-498.6055512754639
 31
0.0
  0
LINE
  5
22C92
330
A
100
AcDbEntity
  8
11
  6
PHANTOM
100
AcDbLine
 10
-42.99999999999993
 20
-498.6055512754639
 30
0.0
 11
-42.99999999999993
 21
-463.6055512754637
 31
0.0
  0
ARC
  5
22C93
330
A
100
AcDbEntity
  8
11
  6
PHANTOM
100
AcDbCircle
 10
-44.99999999999999
 20
-464.0484536989459
 30
0.0
 40
2.048453698946254
100
AcDbArc
 50
12.48670404977224
 51
167.5132959502311
  0
MTEXT
  5
22CBC
330
A
100
AcDbEntity
  8
19
100
AcDbMText
 10
2.861648604733928
 20
-481.3195406651024
 30
0.0
 40
7.0
 41
0.0
 71
     1
 72
     5
  1
適用ﾌﾞｽﾊﾞｰ厚み
  7
SLDTEXTSTYLE0
 73
     1
 44
1.0
1001
ACAD
1000
MTEXTBEGIN
1070
    73
1070
     1
1070
    44
1040
1.0
1070
    74
1070
     0
1000
MTEXTEND
  0
LINE
  5
22D40
330
A
100
AcDbEntity
  8
16
  6
CENTER
100
AcDbLine
 10
72.0800418238517
 20
-376.3915234343998
 30
0.0
 11
72.0800418238517
 21
-399.4945749753997
 31
0.0
  0
LINE
  5
22D5A
330
A
100
AcDbEntity
  8
11
  6
PHANTOM
100
AcDbLine
 10
26.0
 20
-348.9999999999998
 30
0.0
 11
26.0
 21
-346.9999999999998
 31
0.0
  0
LINE
  5
22DAE
330
A
100
AcDbEntity
  8
12
  6
PHANTOM
100
AcDbLine
 10
-124.0
 20
-439.9999999999998
 30
0.0
 11
-84.00000000000003
 21
-439.9999999999998
 31
0.0
  0
LINE
  5
22DAF
330
A
100
AcDbEntity
  8
12
  6
PHANTOM
100
AcDbLine
 10
-86.00000000000004
 20
-442.9999999999998
 30
0.0
 11
-116.5
 21
-442.9999999999998
 31
0.0
  0
LINE
  5
22DB0
330
A
100
AcDbEntity
  8
12
  6
PHANTOM
100
AcDbLine
 10
-84.00000000000003
 20
-439.9999999999998
 30
0.0
 11
-84.00000000000003
 21
-440.9999999999998
 31
0.0
  0
ARC
  5
22DB1
330
A
100
AcDbEntity
  8
12
  6
PHANTOM
100
AcDbCircle
 10
-85.99999999990819
 20
-441.0000000000916
 30
0.0
 40
1.99999999990814
100
AcDbArc
 50
269.9999999973684
 51
0.0000000026315655
  0
LINE
  5
22DB2
330
A
100
AcDbEntity
  8
12
  6
PHANTOM
100
AcDbLine
 10
-121.0
 20
-447.4999999999998
 30
0.0
 11
-121.0
 21
-477.9999999999998
 31
0.0
  0
LINE
  5
22DB3
330
A
100
AcDbEntity
  8
12
  6
PHANTOM
100
AcDbLine
 10
-124.0
 20
-479.9999999999998
 30
0.0
 11
-124.0
 21
-439.9999999999998
 31
0.0
  0
ARC
  5
22DB4
330
A
100
AcDbEntity
  8
12
  6
PHANTOM
100
AcDbCircle
 10
-116.5000000002067
 20
-447.4999999997931
 30
0.0
 40
4.499999999793316
100
AcDbArc
 50
89.99999999736843
 51
180.0000000026314
  0
LINE
  5
22DB5
330
A
100
AcDbEntity
  8
12
  6
PHANTOM
100
AcDbLine
 10
-123.0
 20
-479.9999999999998
 30
0.0
 11
-124.0
 21
-479.9999999999998
 31
0.0
  0
ARC
  5
22DB6
330
A
100
AcDbEntity
  8
12
  6
PHANTOM
100
AcDbCircle
 10
-122.9999999999082
 20
-478.0000000000916
 30
0.0
 40
1.99999999990814
100
AcDbArc
 50
269.9999999973684
 51
0.0000000026315655
  0
DIMENSION
  5
231B8
330
A
100
AcDbEntity
  8
30
100
AcDbDimension
  2
*D20
 10
796.0295468939327
 20
-13.4613920067834
 30
0.0
 11
850.5602560467112
 21
-56.04113405688451
 31
0.0
 70
   163
  1
2-M5
 71
     5
 42
5.000000000001023
  3
ISO-25-2
100
AcDbDiametricDimension
 15
799.9704531060691
 25
-16.53860799321563
 35
0.0
 40
0.0
  0
LINE
  5
231C3
330
A
100
AcDbEntity
  8
16
  6
CENTER
100
AcDbLine
 10
802.5000000000003
 20
-14.99999999999953
 30
0.0
 11
793.5000000000003
 21
-14.99999999999953
 31
0.0
  0
CIRCLE
  5
231C4
330
A
100
AcDbEntity
  8
10
  6
Continuous
100
AcDbCircle
 10
602.0000000000002
 20
15.00000000000024
 30
0.0
 40
2.5
  0
LINE
  5
231C5
330
A
100
AcDbEntity
  8
16
  6
Continuous
100
AcDbLine
 10
602.0000000000005
 20
25.00010000000021
 30
0.0
 11
602.0000000000005
 21
4.999900000000263
 31
0.0
  0
LINE
  5
231C6
330
A
100
AcDbEntity
  8
16
  6
Continuous
100
AcDbLine
 10
591.9999000000005
 20
15.00000000000024
 30
0.0
 11
612.0001
 21
15.00000000000024
 31
0.0
  0
CIRCLE
  5
231C7
330
A
100
AcDbEntity
  8
10
  6
Continuous
100
AcDbCircle
 10
798.0000000000003
 20
-14.9999999999997
 30
0.0
 40
2.5
  0
LINE
  5
231C8
330
A
100
AcDbEntity
  8
16
  6
Continuous
100
AcDbLine
 10
798.0000000000005
 20
-4.99989999999973
 30
0.0
 11
798.0000000000005
 21
-25.00009999999968
 31
0.0
  0
LINE
  5
231C9
330
A
100
AcDbEntity
  8
16
  6
Continuous
100
AcDbLine
 10
787.9999000000005
 20
-14.9999999999997
 30
0.0
 11
808.0000999999999
 21
-14.9999999999997
 31
0.0
  0
TEXT
  5
2324E
330
A
100
AcDbEntity
  8
19
  6
Continuous
100
AcDbText
 10
237.6974092885059
 20
-593.4002750333958
 30
0.0
 40
8.0
  1
E30-NF, E50-NF, E60-NF, E100-NF
 41
0.8
100
AcDbText
  0
LWPOLYLINE
  5
2324F
330
A
100
AcDbEntity
  8
19
100
AcDbPolyline
 90
        4
 70
     1
 43
0.0
 10
235.0
 20
-577.2813179999997
 10
354.4830049999998
 20
-577.2813179999997
 10
354.4830049999998
 20
-560.0
 10
235.0
 20
-560.0
  0
TEXT
  5
23250
330
A
100
AcDbEntity
  8
19
100
AcDbText
 10
250.3081877900001
 20
-573.8181273799997
 30
0.0
 40
10.0
  1
T2PG05E 3P
 11
250.3081877900001
 21
-568.8181273799997
 31
0.0
100
AcDbText
 73
     2
  0
TEXT
  5
23251
330
A
100
AcDbEntity
  8
19
  6
Continuous
100
AcDbText
 10
237.4614470315939
 20
-608.1025812884359
 30
0.0
 40
8.0
  1
S30-NF, S50-CF, S50-NF, S60-NF
 41
0.8
100
AcDbText
  0
TEXT
  5
23252
330
A
100
AcDbEntity
  8
19
  6
Continuous
100
AcDbText
 10
237.225484774682
 20
-622.8048875434757
 30
0.0
 40
8.0
  1
E30-NN, E50-NN, E100-NN
 41
0.8
100
AcDbText
  0
TEXT
  5
23253
330
A
100
AcDbEntity
  8
19
  6
Continuous
100
AcDbText
 10
236.98952251777
 20
-637.5071937985158
 30
0.0
 40
8.0
  1
ZE30-NF, ZE50-NF, ZE60-NF
 41
0.8
100
AcDbText
  0
TEXT
  5
23254
330
A
100
AcDbEntity
  8
19
  6
Continuous
100
AcDbText
 10
236.753560260858
 20
-652.2095000535557
 30
0.0
 40
8.0
  1
ZS30-NF, ZS50-NF, ZS60-NF, ZE100-NF
 41
0.8
100
AcDbText
  0
LINE
  5
2356A
330
A
100
AcDbEntity
  8
10
  6
Continuous
100
AcDbLine
 10
25.0
 20
11.00000000000005
 30
0.0
 11
25.0
 21
36.00000000000007
 31
0.0
  0
LINE
  5
2356B
330
A
100
AcDbEntity
  8
10
  6
Continuous
100
AcDbLine
 10
34.0
 20
17.50000000000006
 30
0.0
 11
34.0
 21
32.50000000000051
 31
0.0
  0
LINE
  5
2356C
330
A
100
AcDbEntity
  8
10
  6
Continuous
100
AcDbLine
 10
-38.10000000000014
 20
37.50000000000034
 30
0.0
 11
-38.10000000000014
 21
32.50000000000051
 31
0.0
  0
LINE
  5
2356D
330
A
100
AcDbEntity
  8
10
  6
Continuous
100
AcDbLine
 10
38.09999999999991
 20
32.50000000000051
 30
0.0
 11
38.09999999999991
 21
37.50000000000034
 31
0.0
  0
LINE
  5
2356E
330
A
100
AcDbEntity
  8
10
  6
Continuous
100
AcDbLine
 10
-45.0
 20
35.80000000000007
 30
0.0
 11
-43.29999999999995
 21
37.50000000000034
 31
0.0
  0
LINE
  5
2356F
330
A
100
AcDbEntity
  8
10
  6
Continuous
100
AcDbLine
 10
-46.5
 20
37.50000000000034
 30
0.0
 11
-46.5
 21
35.50000000000006
 31
0.0
  0
LINE
  5
23570
330
A
100
AcDbEntity
  8
10
  6
Continuous
100
AcDbLine
 10
46.5
 20
37.50000000000034
 30
0.0
 11
38.09999999999991
 21
37.50000000000034
 31
0.0
  0
LINE
  5
23571
330
A
100
AcDbEntity
  8
10
  6
Continuous
100
AcDbLine
 10
-38.10000000000014
 20
37.50000000000034
 30
0.0
 11
-38.70000000000004
 21
37.50000000000034
 31
0.0
  0
LINE
  5
23572
330
A
100
AcDbEntity
  8
10
  6
Continuous
100
AcDbLine
 10
-43.29999999999995
 20
37.50000000000034
 30
0.0
 11
-46.5
 21
37.50000000000034
 31
0.0
  0
LINE
  5
23573
330
A
100
AcDbEntity
  8
10
  6
Continuous
100
AcDbLine
 10
-43.29999999999995
 20
37.50000000000034
 30
0.0
 11
-38.70000000000004
 21
37.50000000000034
 31
0.0
  0
LINE
  5
23574
330
A
100
AcDbEntity
  8
10
  6
Continuous
100
AcDbLine
 10
-38.70000000000004
 20
37.50000000000034
 30
0.0
 11
-38.10000000000014
 21
36.90000000000043
 31
0.0
  0
LINE
  5
23575
330
A
100
AcDbEntity
  8
10
  6
Continuous
100
AcDbLine
 10
46.5
 20
35.50000000000006
 30
0.0
 11
46.50000000000001
 21
37.50000000000034
 31
0.0
  0
LINE
  5
23576
330
A
100
AcDbEntity
  8
10
  6
Continuous
100
AcDbLine
 10
50.0
 20
35.50000000000006
 30
0.0
 11
50.0
 21
36.5000000000005
 31
0.0
  0
LINE
  5
23577
330
A
100
AcDbEntity
  8
10
  6
Continuous
100
AcDbLine
 10
50.0
 20
32.50000000000051
 30
0.0
 11
50.0
 21
35.50000000000006
 31
0.0
  0
LINE
  5
23578
330
A
100
AcDbEntity
  8
10
  6
Continuous
100
AcDbLine
 10
-50.0
 20
35.50000000000006
 30
0.0
 11
-50.0
 21
32.50000000000051
 31
0.0
  0
LINE
  5
23579
330
A
100
AcDbEntity
  8
10
  6
Continuous
100
AcDbLine
 10
-48.5
 20
35.50000000000006
 30
0.0
 11
-48.5
 21
36.20000000000033
 31
0.0
  0
LINE
  5
2357A
330
A
100
AcDbEntity
  8
10
  6
Continuous
100
AcDbLine
 10
50.0
 20
36.5000000000005
 30
0.0
 11
48.5
 21
36.5000000000005
 31
0.0
  0
LINE
  5
2357B
330
A
100
AcDbEntity
  8
10
  6
Continuous
100
AcDbLine
 10
48.5
 20
36.5000000000005
 30
0.0
 11
48.5
 21
35.50000000000006
 31
0.0
  0
LINE
  5
2357C
330
A
100
AcDbEntity
  8
10
  6
Continuous
100
AcDbLine
 10
-25.0
 20
36.00000000000007
 30
0.0
 11
-25.0
 21
11.00000000000005
 31
0.0
  0
LINE
  5
2357D
330
A
100
AcDbEntity
  8
10
  6
Continuous
100
AcDbLine
 10
25.0
 20
36.00000000000007
 30
0.0
 11
-25.0
 21
36.00000000000007
 31
0.0
  0
LINE
  5
2357E
330
A
100
AcDbEntity
  8
10
  6
Continuous
100
AcDbLine
 10
50.0
 20
35.50000000000006
 30
0.0
 11
46.5
 21
35.50000000000006
 31
0.0
  0
LINE
  5
2357F
330
A
100
AcDbEntity
  8
10
  6
Continuous
100
AcDbLine
 10
-46.5
 20
35.50000000000006
 30
0.0
 11
-50.0
 21
35.50000000000006
 31
0.0
  0
LINE
  5
23580
330
A
100
AcDbEntity
  8
10
  6
Continuous
100
AcDbLine
 10
-38.10000000000014
 20
35.80000000000007
 30
0.0
 11
-45.0
 21
35.80000000000007
 31
0.0
  0
LINE
  5
23581
330
A
100
AcDbEntity
  8
10
  6
Continuous
100
AcDbLine
 10
50.0
 20
32.4999225000002
 30
0.0
 11
50.0
 21
17.50007749999992
 31
0.0
  0
LINE
  5
23582
330
A
100
AcDbEntity
  8
10
  6
Continuous
100
AcDbLine
 10
-34.0
 20
32.50000000000051
 30
0.0
 11
-34.0
 21
17.50000000000006
 31
0.0
  0
LINE
  5
23583
330
A
100
AcDbEntity
  8
10
  6
Continuous
100
AcDbLine
 10
-50.0
 20
32.00000000000006
 30
0.0
 11
-50.0
 21
32.50001500000013
 31
0.0
  0
LINE
  5
23584
330
A
100
AcDbEntity
  8
10
  6
Continuous
100
AcDbLine
 10
38.09999999999991
 20
32.50000000000051
 30
0.0
 11
50.0
 21
32.50000000000051
 31
0.0
  0
LINE
  5
23585
330
A
100
AcDbEntity
  8
10
  6
Continuous
100
AcDbLine
 10
34.0
 20
32.50000000000051
 30
0.0
 11
38.09999999999991
 21
32.50000000000051
 31
0.0
  0
LINE
  5
23586
330
A
100
AcDbEntity
  8
10
  6
Continuous
100
AcDbLine
 10
-50.0
 20
32.50000000000051
 30
0.0
 11
-38.10000000000014
 21
32.50000000000051
 31
0.0
  0
LINE
  5
23587
330
A
100
AcDbEntity
  8
10
  6
Continuous
100
AcDbLine
 10
-38.10000000000014
 20
32.50000000000051
 30
0.0
 11
-34.0
 21
32.50000000000051
 31
0.0
  0
LINE
  5
23588
330
A
100
AcDbEntity
  8
10
  6
Continuous
100
AcDbLine
 10
-50.0
 20
32.00000000000006
 30
0.0
 11
-48.0
 21
32.00000000000006
 31
0.0
  0
LINE
  5
23589
330
A
100
AcDbEntity
  8
10
  6
Continuous
100
AcDbLine
 10
-48.0
 20
32.00000000000006
 30
0.0
 11
-48.0
 21
31.49993750000027
 31
0.0
  0
LINE
  5
2358A
330
A
100
AcDbEntity
  8
10
  6
Continuous
100
AcDbLine
 10
-38.10000000000014
 20
17.50000000000006
 30
0.0
 11
-38.10000000000014
 21
7.500000000000056
 31
0.0
  0
LINE
  5
2358B
330
A
100
AcDbEntity
  8
10
  6
Continuous
100
AcDbLine
 10
38.09999999999991
 20
17.50000000000006
 30
0.0
 11
50.0
 21
17.50000000000006
 31
0.0
  0
LINE
  5
2358C
330
A
100
AcDbEntity
  8
10
  6
Continuous
100
AcDbLine
 10
38.09999999999991
 20
17.50000000000006
 30
0.0
 11
34.0
 21
17.50000000000006
 31
0.0
  0
LINE
  5
2358D
330
A
100
AcDbEntity
  8
10
  6
Continuous
100
AcDbLine
 10
-38.10000000000014
 20
17.50000000000006
 30
0.0
 11
-50.0
 21
17.50000000000006
 31
0.0
  0
LINE
  5
2358E
330
A
100
AcDbEntity
  8
10
  6
Continuous
100
AcDbLine
 10
-34.0
 20
17.50000000000006
 30
0.0
 11
-38.10000000000014
 21
17.50000000000006
 31
0.0
  0
LINE
  5
2358F
330
A
100
AcDbEntity
  8
10
  6
Continuous
100
AcDbLine
 10
50.0
 20
13.50000000000006
 30
0.0
 11
50.0
 21
17.50000000000006
 31
0.0
  0
LINE
  5
23590
330
A
100
AcDbEntity
  8
10
  6
Continuous
100
AcDbLine
 10
38.09999999999991
 20
7.500000000000056
 30
0.0
 11
38.09999999999991
 21
17.50000000000006
 31
0.0
  0
LINE
  5
23591
330
A
100
AcDbEntity
  8
10
  6
Continuous
100
AcDbLine
 10
-50.0
 20
15.50000000000006
 30
0.0
 11
-50.0
 21
17.50000000000006
 31
0.0
  0
LINE
  5
23592
330
A
100
AcDbEntity
  8
10
  6
Continuous
100
AcDbLine
 10
-50.0
 20
15.50000000000006
 30
0.0
 11
-50.0
 21
15.00000000000006
 31
0.0
  0
LINE
  5
23593
330
A
100
AcDbEntity
  8
10
  6
Continuous
100
AcDbLine
 10
-48.5
 20
15.00000000000006
 30
0.0
 11
-48.5
 21
15.50000000000006
 31
0.0
  0
LINE
  5
23594
330
A
100
AcDbEntity
  8
10
  6
Continuous
100
AcDbLine
 10
-46.5
 20
11.50000000000051
 30
0.0
 11
-46.5
 21
11.80000000000024
 31
0.0
  0
LINE
  5
23595
330
A
100
AcDbEntity
  8
10
  6
Continuous
100
AcDbLine
 10
-46.5
 20
15.19993750000009
 30
0.0
 11
-46.5
 21
15.50000000000006
 31
0.0
  0
LINE
  5
23596
330
A
100
AcDbEntity
  8
10
  6
Continuous
100
AcDbLine
 10
-44.49198750000005
 20
15.50000000000006
 30
0.0
 11
-50.0
 21
15.50000000000006
 31
0.0
  0
LINE
  5
23597
330
A
100
AcDbEntity
  8
10
  6
Continuous
100
AcDbLine
 10
-48.5
 20
15.00000000000006
 30
0.0
 11
-50.0
 21
15.00000000000006
 31
0.0
  0
LINE
  5
23598
330
A
100
AcDbEntity
  8
10
  6
Continuous
100
AcDbLine
 10
46.5
 20
9.500000000000056
 30
0.0
 11
46.5
 21
13.50000000000006
 31
0.0
  0
LINE
  5
23599
330
A
100
AcDbEntity
  8
10
  6
Continuous
100
AcDbLine
 10
50.0
 20
13.50000000000006
 30
0.0
 11
45.76961499999993
 21
13.50000000000006
 31
0.0
  0
LINE
  5
2359A
330
A
100
AcDbEntity
  8
10
  6
Continuous
100
AcDbLine
 10
48.5
 20
13.50000000000006
 30
0.0
 11
48.5
 21
13.00000000000006
 31
0.0
  0
LINE
  5
2359B
330
A
100
AcDbEntity
  8
10
  6
Continuous
100
AcDbLine
 10
50.0
 20
13.00000000000006
 30
0.0
 11
50.0
 21
13.50000000000006
 31
0.0
  0
LINE
  5
2359C
330
A
100
AcDbEntity
  8
10
  6
Continuous
100
AcDbLine
 10
50.0
 20
13.00000000000006
 30
0.0
 11
48.5
 21
13.00000000000006
 31
0.0
  0
LINE
  5
2359D
330
A
100
AcDbEntity
  8
10
  6
Continuous
100
AcDbLine
 10
-50.0
 20
7.500000000000056
 30
0.0
 11
-50.0
 21
11.50000000000051
 31
0.0
  0
LINE
  5
2359E
330
A
100
AcDbEntity
  8
10
  6
Continuous
100
AcDbLine
 10
-50.0
 20
12.00000000000005
 30
0.0
 11
-50.0
 21
11.50000000000051
 31
0.0
  0
LINE
  5
2359F
330
A
100
AcDbEntity
  8
10
  6
Continuous
100
AcDbLine
 10
-48.5
 20
12.00000000000005
 30
0.0
 11
-50.0
 21
12.00000000000005
 31
0.0
  0
LINE
  5
235A0
330
A
100
AcDbEntity
  8
10
  6
Continuous
100
AcDbLine
 10
-48.5
 20
11.50000000000051
 30
0.0
 11
-48.5
 21
12.00000000000005
 31
0.0
  0
LINE
  5
235A1
330
A
100
AcDbEntity
  8
10
  6
Continuous
100
AcDbLine
 10
-50.0
 20
11.50000000000051
 30
0.0
 11
-45.76961499999993
 21
11.50000000000051
 31
0.0
  0
LINE
  5
235A2
330
A
100
AcDbEntity
  8
10
  6
Continuous
100
AcDbLine
 10
-25.0
 20
11.00000000000005
 30
0.0
 11
-25.0
 21
-10.99999999999949
 31
0.0
  0
LINE
  5
235A3
330
A
100
AcDbEntity
  8
10
  6
Continuous
100
AcDbLine
 10
25.0
 20
-10.99999999999949
 30
0.0
 11
25.0
 21
11.00000000000005
 31
0.0
  0
LINE
  5
235A4
330
A
100
AcDbEntity
  8
10
  6
Continuous
100
AcDbLine
 10
50.0
 20
10.00000000000005
 30
0.0
 11
48.5
 21
10.00000000000005
 31
0.0
  0
LINE
  5
235A5
330
A
100
AcDbEntity
  8
10
  6
Continuous
100
AcDbLine
 10
48.5
 20
10.00000000000005
 30
0.0
 11
48.5
 21
9.500000000000056
 31
0.0
  0
LINE
  5
235A6
330
A
100
AcDbEntity
  8
10
  6
Continuous
100
AcDbLine
 10
50.0
 20
9.500000000000056
 30
0.0
 11
50.0
 21
10.00000000000005
 31
0.0
  0
LINE
  5
235A7
330
A
100
AcDbEntity
  8
10
  6
Continuous
100
AcDbLine
 10
50.0
 20
7.500000000000056
 30
0.0
 11
50.0
 21
9.500000000000056
 31
0.0
  0
LINE
  5
235A8
330
A
100
AcDbEntity
  8
10
  6
Continuous
100
AcDbLine
 10
44.49198750000005
 20
9.500000000000056
 30
0.0
 11
50.0
 21
9.500000000000056
 31
0.0
  0
LINE
  5
235A9
330
A
100
AcDbEntity
  8
10
  6
Continuous
100
AcDbLine
 10
50.0
 20
7.499922500000195
 30
0.0
 11
50.0
 21
-7.499922500000081
 31
0.0
  0
LINE
  5
235AA
330
A
100
AcDbEntity
  8
10
  6
Continuous
100
AcDbLine
 10
-50.0
 20
7.000000000000056
 30
0.0
 11
-50.0
 21
7.500015000000132
 31
0.0
  0
LINE
  5
235AB
330
A
100
AcDbEntity
  8
10
  6
Continuous
100
AcDbLine
 10
-34.0
 20
7.500000000000056
 30
0.0
 11
-34.0
 21
-7.499999999999943
 31
0.0
  0
LINE
  5
235AC
330
A
100
AcDbEntity
  8
10
  6
Continuous
100
AcDbLine
 10
34.0
 20
-7.499999999999943
 30
0.0
 11
34.0
 21
7.500000000000056
 31
0.0
  0
LINE
  5
235AD
330
A
100
AcDbEntity
  8
10
  6
Continuous
100
AcDbLine
 10
50.0
 20
7.500000000000056
 30
0.0
 11
38.09999999999991
 21
7.500000000000056
 31
0.0
  0
LINE
  5
235AE
330
A
100
AcDbEntity
  8
10
  6
Continuous
100
AcDbLine
 10
34.0
 20
7.500000000000056
 30
0.0
 11
38.09999999999991
 21
7.500000000000056
 31
0.0
  0
LINE
  5
235AF
330
A
100
AcDbEntity
  8
10
  6
Continuous
100
AcDbLine
 10
-50.0
 20
7.500000000000056
 30
0.0
 11
-38.10000000000014
 21
7.500000000000056
 31
0.0
  0
LINE
  5
235B0
330
A
100
AcDbEntity
  8
10
  6
Continuous
100
AcDbLine
 10
-38.10000000000014
 20
7.500000000000056
 30
0.0
 11
-34.0
 21
7.500000000000056
 31
0.0
  0
LINE
  5
235B1
330
A
100
AcDbEntity
  8
10
  6
Continuous
100
AcDbLine
 10
-48.0
 20
7.000000000000056
 30
0.0
 11
-48.0
 21
6.499937500000271
 31
0.0
  0
LINE
  5
235B2
330
A
100
AcDbEntity
  8
10
  6
Continuous
100
AcDbLine
 10
-48.0
 20
-6.499937499999702
 30
0.0
 11
-48.0
 21
-6.999999999999943
 31
0.0
  0
LINE
  5
235B3
330
A
100
AcDbEntity
  8
10
  6
Continuous
100
AcDbLine
 10
-50.0
 20
7.000000000000056
 30
0.0
 11
-48.0
 21
7.000000000000056
 31
0.0
  0
LINE
  5
235B4
330
A
100
AcDbEntity
  8
10
  6
Continuous
100
AcDbLine
 10
-14.38356249999992
 20
6.000000000000056
 30
0.0
 11
-18.00979000000006
 21
6.000000000000056
 31
0.0
  0
LINE
  5
235B5
330
A
100
AcDbEntity
  8
10
  6
Continuous
100
AcDbLine
 10
-7.5
 20
-5.999999999999487
 30
0.0
 11
-7.5
 21
6.000000000000056
 31
0.0
  0
LINE
  5
235B6
330
A
100
AcDbEntity
  8
10
  6
Continuous
100
AcDbLine
 10
-18.00979000000006
 20
-5.999999999999487
 30
0.0
 11
-18.00979000000006
 21
6.000000000000056
 31
0.0
  0
LINE
  5
235B7
330
A
100
AcDbEntity
  8
10
  6
Continuous
100
AcDbLine
 10
-14.38356249999992
 20
-5.999999999999487
 30
0.0
 11
-14.38356249999992
 21
6.000000000000056
 31
0.0
  0
LINE
  5
235B8
330
A
100
AcDbEntity
  8
10
  6
Continuous
100
AcDbLine
 10
-14.38356249999992
 20
-5.999999999999487
 30
0.0
 11
-18.00979000000006
 21
-5.999999999999487
 31
0.0
  0
LINE
  5
235B9
330
A
100
AcDbEntity
  8
10
  6
Continuous
100
AcDbLine
 10
-7.5
 20
-5.999999999999487
 30
0.0
 11
-14.38356249999992
 21
-5.999999999999487
 31
0.0
  0
LINE
  5
235BA
330
A
100
AcDbEntity
  8
10
  6
Continuous
100
AcDbLine
 10
-50.0
 20
-7.500014999999563
 30
0.0
 11
-50.0
 21
-6.999999999999943
 31
0.0
  0
LINE
  5
235BB
330
A
100
AcDbEntity
  8
10
  6
Continuous
100
AcDbLine
 10
-48.0
 20
-6.999999999999943
 30
0.0
 11
-50.0
 21
-6.999999999999943
 31
0.0
  0
LINE
  5
235BC
330
A
100
AcDbEntity
  8
10
  6
Continuous
100
AcDbLine
 10
38.09999999999991
 20
-17.49999999999994
 30
0.0
 11
38.09999999999991
 21
-7.499999999999943
 31
0.0
  0
LINE
  5
235BD
330
A
100
AcDbEntity
  8
10
  6
Continuous
100
AcDbLine
 10
-38.10000000000014
 20
-7.499999999999943
 30
0.0
 11
-50.0
 21
-7.499999999999943
 31
0.0
  0
LINE
  5
235BE
330
A
100
AcDbEntity
  8
10
  6
Continuous
100
AcDbLine
 10
-34.0
 20
-7.499999999999943
 30
0.0
 11
-38.10000000000014
 21
-7.499999999999943
 31
0.0
  0
LINE
  5
235BF
330
A
100
AcDbEntity
  8
10
  6
Continuous
100
AcDbLine
 10
-50.0
 20
-9.499999999999943
 30
0.0
 11
-50.0
 21
-7.499999999999943
 31
0.0
  0
LINE
  5
235C0
330
A
100
AcDbEntity
  8
10
  6
Continuous
100
AcDbLine
 10
50.0
 20
-11.49999999999994
 30
0.0
 11
50.0
 21
-7.499999999999943
 31
0.0
  0
LINE
  5
235C1
330
A
100
AcDbEntity
  8
10
  6
Continuous
100
AcDbLine
 10
-38.10000000000014
 20
-7.499999999999943
 30
0.0
 11
-38.10000000000014
 21
-17.49999999999994
 31
0.0
  0
LINE
  5
235C2
330
A
100
AcDbEntity
  8
10
  6
Continuous
100
AcDbLine
 10
38.09999999999991
 20
-7.499999999999943
 30
0.0
 11
50.0
 21
-7.499999999999943
 31
0.0
  0
LINE
  5
235C3
330
A
100
AcDbEntity
  8
10
  6
Continuous
100
AcDbLine
 10
38.09999999999991
 20
-7.499999999999943
 30
0.0
 11
34.0
 21
-7.499999999999943
 31
0.0
  0
LINE
  5
235C4
330
A
100
AcDbEntity
  8
10
  6
Continuous
100
AcDbLine
 10
-44.49198750000005
 20
-9.499999999999943
 30
0.0
 11
-50.0
 21
-9.499999999999943
 31
0.0
  0
LINE
  5
235C5
330
A
100
AcDbEntity
  8
10
  6
Continuous
100
AcDbLine
 10
-46.5
 20
-13.49999999999949
 30
0.0
 11
-46.5
 21
-13.19993749999997
 31
0.0
  0
LINE
  5
235C6
330
A
100
AcDbEntity
  8
10
  6
Continuous
100
AcDbLine
 10
-46.5
 20
-9.79999999999967
 30
0.0
 11
-46.5
 21
-9.499999999999943
 31
0.0
  0
LINE
  5
235C7
330
A
100
AcDbEntity
  8
10
  6
Continuous
100
AcDbLine
 10
-48.5
 20
-9.999999999999943
 30
0.0
 11
-48.5
 21
-9.499999999999943
 31
0.0
  0
LINE
  5
235C8
330
A
100
AcDbEntity
  8
10
  6
Continuous
100
AcDbLine
 10
-50.0
 20
-9.499999999999943
 30
0.0
 11
-50.0
 21
-9.999999999999943
 31
0.0
  0
LINE
  5
235C9
330
A
100
AcDbEntity
  8
10
  6
Continuous
100
AcDbLine
 10
-48.5
 20
-9.999999999999943
 30
0.0
 11
-50.0
 21
-9.999999999999943
 31
0.0
  0
LINE
  5
235CA
330
A
100
AcDbEntity
  8
10
  6
Continuous
100
AcDbLine
 10
-25.0
 20
-10.99999999999949
 30
0.0
 11
-25.0
 21
-35.9999999999995
 31
0.0
  0
LINE
  5
235CB
330
A
100
AcDbEntity
  8
10
  6
Continuous
100
AcDbLine
 10
25.0
 20
-35.9999999999995
 30
0.0
 11
25.0
 21
-10.99999999999949
 31
0.0
  0
LINE
  5
235CC
330
A
100
AcDbEntity
  8
10
  6
Continuous
100
AcDbLine
 10
25.0
 20
-10.99999999999949
 30
0.0
 11
-25.0
 21
-10.99999999999949
 31
0.0
  0
LINE
  5
235CD
330
A
100
AcDbEntity
  8
10
  6
Continuous
100
AcDbLine
 10
46.5
 20
-15.49999999999994
 30
0.0
 11
46.5
 21
-11.49999999999994
 31
0.0
  0
LINE
  5
235CE
330
A
100
AcDbEntity
  8
10
  6
Continuous
100
AcDbLine
 10
50.0
 20
-11.49999999999994
 30
0.0
 11
45.76961499999993
 21
-11.49999999999994
 31
0.0
  0
LINE
  5
235CF
330
A
100
AcDbEntity
  8
10
  6
Continuous
100
AcDbLine
 10
48.5
 20
-11.49999999999994
 30
0.0
 11
48.5
 21
-11.99999999999994
 31
0.0
  0
LINE
  5
235D0
330
A
100
AcDbEntity
  8
10
  6
Continuous
100
AcDbLine
 10
50.0
 20
-11.99999999999994
 30
0.0
 11
50.0
 21
-11.49999999999994
 31
0.0
  0
LINE
  5
235D1
330
A
100
AcDbEntity
  8
10
  6
Continuous
100
AcDbLine
 10
50.0
 20
-11.99999999999994
 30
0.0
 11
48.5
 21
-11.99999999999994
 31
0.0
  0
LINE
  5
235D2
330
A
100
AcDbEntity
  8
10
  6
Continuous
100
AcDbLine
 10
-50.0
 20
-17.49999999999994
 30
0.0
 11
-50.0
 21
-13.49999999999949
 31
0.0
  0
LINE
  5
235D3
330
A
100
AcDbEntity
  8
10
  6
Continuous
100
AcDbLine
 10
-48.5
 20
-12.99999999999994
 30
0.0
 11
-50.0
 21
-12.99999999999994
 31
0.0
  0
LINE
  5
235D4
330
A
100
AcDbEntity
  8
10
  6
Continuous
100
AcDbLine
 10
-50.0
 20
-12.99999999999994
 30
0.0
 11
-50.0
 21
-13.49999999999949
 31
0.0
  0
LINE
  5
235D5
330
A
100
AcDbEntity
  8
10
  6
Continuous
100
AcDbLine
 10
-48.5
 20
-13.49999999999949
 30
0.0
 11
-48.5
 21
-12.99999999999994
 31
0.0
  0
LINE
  5
235D6
330
A
100
AcDbEntity
  8
10
  6
Continuous
100
AcDbLine
 10
-50.0
 20
-13.49999999999949
 30
0.0
 11
-45.76961499999993
 21
-13.49999999999949
 31
0.0
  0
LINE
  5
235D7
330
A
100
AcDbEntity
  8
10
  6
Continuous
100
AcDbLine
 10
50.0
 20
-17.49999999999994
 30
0.0
 11
50.0
 21
-15.49999999999994
 31
0.0
  0
LINE
  5
235D8
330
A
100
AcDbEntity
  8
10
  6
Continuous
100
AcDbLine
 10
50.0
 20
-15.49999999999994
 30
0.0
 11
50.0
 21
-14.99999999999994
 31
0.0
  0
LINE
  5
235D9
330
A
100
AcDbEntity
  8
10
  6
Continuous
100
AcDbLine
 10
48.5
 20
-14.99999999999994
 30
0.0
 11
48.5
 21
-15.49999999999994
 31
0.0
  0
LINE
  5
235DA
330
A
100
AcDbEntity
  8
10
  6
Continuous
100
AcDbLine
 10
50.0
 20
-14.99999999999994
 30
0.0
 11
48.5
 21
-14.99999999999994
 31
0.0
  0
LINE
  5
235DB
330
A
100
AcDbEntity
  8
10
  6
Continuous
100
AcDbLine
 10
44.49198750000005
 20
-15.49999999999994
 30
0.0
 11
50.0
 21
-15.49999999999994
 31
0.0
  0
LINE
  5
235DC
330
A
100
AcDbEntity
  8
10
  6
Continuous
100
AcDbLine
 10
34.0
 20
-32.49999999999995
 30
0.0
 11
34.0
 21
-17.49999999999994
 31
0.0
  0
LINE
  5
235DD
330
A
100
AcDbEntity
  8
10
  6
Continuous
100
AcDbLine
 10
-34.0
 20
-32.49999999999995
 30
0.0
 11
-34.0
 21
-17.49999999999994
 31
0.0
  0
LINE
  5
235DE
330
A
100
AcDbEntity
  8
10
  6
Continuous
100
AcDbLine
 10
-50.0
 20
-17.99999999999994
 30
0.0
 11
-50.0
 21
-17.49998499999987
 31
0.0
  0
LINE
  5
235DF
330
A
100
AcDbEntity
  8
10
  6
Continuous
100
AcDbLine
 10
50.0
 20
-17.5000774999998
 30
0.0
 11
50.0
 21
-32.49992250000008
 31
0.0
  0
LINE
  5
235E0
330
A
100
AcDbEntity
  8
10
  6
Continuous
100
AcDbLine
 10
50.0
 20
-17.49999999999994
 30
0.0
 11
38.09999999999991
 21
-17.49999999999994
 31
0.0
  0
LINE
  5
235E1
330
A
100
AcDbEntity
  8
10
  6
Continuous
100
AcDbLine
 10
34.0
 20
-17.49999999999994
 30
0.0
 11
38.09999999999991
 21
-17.49999999999994
 31
0.0
  0
LINE
  5
235E2
330
A
100
AcDbEntity
  8
10
  6
Continuous
100
AcDbLine
 10
-38.10000000000014
 20
-17.49999999999994
 30
0.0
 11
-50.0
 21
-17.49999999999994
 31
0.0
  0
LINE
  5
235E3
330
A
100
AcDbEntity
  8
10
  6
Continuous
100
AcDbLine
 10
-34.0
 20
-17.49999999999994
 30
0.0
 11
-38.10000000000014
 21
-17.49999999999994
 31
0.0
  0
LINE
  5
235E4
330
A
100
AcDbEntity
  8
10
  6
Continuous
100
AcDbLine
 10
-50.0
 20
-17.99999999999994
 30
0.0
 11
-48.0
 21
-17.99999999999994
 31
0.0
  0
LINE
  5
235E5
330
A
100
AcDbEntity
  8
10
  6
Continuous
100
AcDbLine
 10
-48.0
 20
-17.99999999999994
 30
0.0
 11
-48.0
 21
-18.50006249999973
 31
0.0
  0
LINE
  5
235E6
330
A
100
AcDbEntity
  8
10
  6
Continuous
100
AcDbLine
 10
-48.0
 20
-31.4999374999997
 30
0.0
 11
-48.0
 21
-31.99999999999994
 31
0.0
  0
LINE
  5
235E7
330
A
100
AcDbEntity
  8
10
  6
Continuous
100
AcDbLine
 10
-50.0
 20
-32.50001499999957
 30
0.0
 11
-50.0
 21
-31.99999999999994
 31
0.0
  0
LINE
  5
235E8
330
A
100
AcDbEntity
  8
10
  6
Continuous
100
AcDbLine
 10
-48.0
 20
-31.99999999999994
 30
0.0
 11
-50.0
 21
-31.99999999999994
 31
0.0
  0
LINE
  5
235E9
330
A
100
AcDbEntity
  8
10
  6
Continuous
100
AcDbLine
 10
-50.0
 20
-32.49999999999995
 30
0.0
 11
-50.0
 21
-35.49999999999994
 31
0.0
  0
LINE
  5
235EA
330
A
100
AcDbEntity
  8
10
  6
Continuous
100
AcDbLine
 10
50.0
 20
-35.49999999999994
 30
0.0
 11
50.0
 21
-32.49999999999995
 31
0.0
  0
LINE
  5
235EB
330
A
100
AcDbEntity
  8
10
  6
Continuous
100
AcDbLine
 10
50.0
 20
-32.49999999999995
 30
0.0
 11
38.09999999999991
 21
-32.49999999999995
 31
0.0
  0
LINE
  5
235EC
330
A
100
AcDbEntity
  8
10
  6
Continuous
100
AcDbLine
 10
38.09999999999991
 20
-32.49999999999995
 30
0.0
 11
34.0
 21
-32.49999999999995
 31
0.0
  0
LINE
  5
235ED
330
A
100
AcDbEntity
  8
10
  6
Continuous
100
AcDbLine
 10
-38.10000000000014
 20
-32.49999999999995
 30
0.0
 11
-38.10000000000014
 21
-37.49999999999977
 31
0.0
  0
LINE
  5
235EE
330
A
100
AcDbEntity
  8
10
  6
Continuous
100
AcDbLine
 10
38.09999999999991
 20
-37.49999999999977
 30
0.0
 11
38.09999999999991
 21
-32.49999999999995
 31
0.0
  0
LINE
  5
235EF
330
A
100
AcDbEntity
  8
10
  6
Continuous
100
AcDbLine
 10
-50.0
 20
-32.49999999999995
 30
0.0
 11
-38.10000000000014
 21
-32.49999999999995
 31
0.0
  0
LINE
  5
235F0
330
A
100
AcDbEntity
  8
10
  6
Continuous
100
AcDbLine
 10
-38.10000000000014
 20
-32.49999999999995
 30
0.0
 11
-34.0
 21
-32.49999999999995
 31
0.0
  0
LINE
  5
235F1
330
A
100
AcDbEntity
  8
10
  6
Continuous
100
AcDbLine
 10
-46.5
 20
-35.49999999999994
 30
0.0
 11
-46.5
 21
-37.49999999999977
 31
0.0
  0
LINE
  5
235F2
330
A
100
AcDbEntity
  8
10
  6
Continuous
100
AcDbLine
 10
-38.10000000000014
 20
-35.79999999999996
 30
0.0
 11
-45.0
 21
-35.79999999999996
 31
0.0
  0
LINE
  5
235F3
330
A
100
AcDbEntity
  8
10
  6
Continuous
100
AcDbLine
 10
46.50000000000001
 20
-37.49999999999977
 30
0.0
 11
46.5
 21
-35.49999999999994
 31
0.0
  0
LINE
  5
235F4
330
A
100
AcDbEntity
  8
10
  6
Continuous
100
AcDbLine
 10
50.0
 20
-35.49999999999994
 30
0.0
 11
46.5
 21
-35.49999999999994
 31
0.0
  0
LINE
  5
235F5
330
A
100
AcDbEntity
  8
10
  6
Continuous
100
AcDbLine
 10
50.0
 20
-36.49999999999995
 30
0.0
 11
50.0
 21
-35.49999999999994
 31
0.0
  0
LINE
  5
235F6
330
A
100
AcDbEntity
  8
10
  6
Continuous
100
AcDbLine
 10
-45.0
 20
-35.79999999999996
 30
0.0
 11
-43.29999999999995
 21
-37.49999999999977
 31
0.0
  0
LINE
  5
235F7
330
A
100
AcDbEntity
  8
10
  6
Continuous
100
AcDbLine
 10
-46.5
 20
-35.49999999999994
 30
0.0
 11
-50.0
 21
-35.49999999999994
 31
0.0
  0
LINE
  5
235F8
330
A
100
AcDbEntity
  8
10
  6
Continuous
100
AcDbLine
 10
48.5
 20
-35.49999999999994
 30
0.0
 11
48.5
 21
-36.49999999999995
 31
0.0
  0
LINE
  5
235F9
330
A
100
AcDbEntity
  8
10
  6
Continuous
100
AcDbLine
 10
-38.70000000000004
 20
-37.49999999999977
 30
0.0
 11
-38.10000000000014
 21
-36.89999999999987
 31
0.0
  0
LINE
  5
235FA
330
A
100
AcDbEntity
  8
10
  6
Continuous
100
AcDbLine
 10
-48.5
 20
-36.19999999999976
 30
0.0
 11
-48.5
 21
-35.49999999999994
 31
0.0
  0
LINE
  5
235FB
330
A
100
AcDbEntity
  8
10
  6
Continuous
100
AcDbLine
 10
25.0
 20
-35.9999999999995
 30
0.0
 11
-25.0
 21
-35.9999999999995
 31
0.0
  0
LINE
  5
235FC
330
A
100
AcDbEntity
  8
10
  6
Continuous
100
AcDbLine
 10
50.0
 20
-36.49999999999995
 30
0.0
 11
48.5
 21
-36.49999999999995
 31
0.0
  0
LINE
  5
235FD
330
A
100
AcDbEntity
  8
10
  6
Continuous
100
AcDbLine
 10
-38.10000000000014
 20
-37.49999999999977
 30
0.0
 11
-38.70000000000004
 21
-37.49999999999977
 31
0.0
  0
LINE
  5
235FE
330
A
100
AcDbEntity
  8
10
  6
Continuous
100
AcDbLine
 10
-43.29999999999995
 20
-37.49999999999977
 30
0.0
 11
-38.70000000000004
 21
-37.49999999999977
 31
0.0
  0
LINE
  5
235FF
330
A
100
AcDbEntity
  8
10
  6
Continuous
100
AcDbLine
 10
46.5
 20
-37.49999999999977
 30
0.0
 11
38.09999999999991
 21
-37.49999999999977
 31
0.0
  0
LINE
  5
23600
330
A
100
AcDbEntity
  8
10
  6
Continuous
100
AcDbLine
 10
-43.29999999999995
 20
-37.49999999999977
 30
0.0
 11
-46.5
 21
-37.49999999999977
 31
0.0
  0
LINE
  5
23601
330
A
100
AcDbEntity
  8
10
  6
Continuous
100
AcDbLine
 10
38.09999999999991
 20
-37.49999999999977
 30
0.0
 11
-38.10000000000014
 21
-37.49999999999977
 31
0.0
  0
LINE
  5
23602
330
A
100
AcDbEntity
  8
10
  6
Continuous
100
AcDbLine
 10
-76.5
 20
19.00007750000037
 30
0.0
 11
-76.5
 21
20.50015750000017
 31
0.0
  0
LINE
  5
23603
330
A
100
AcDbEntity
  8
10
  6
Continuous
100
AcDbLine
 10
-76.5
 20
22.50012500000007
 30
0.0
 11
-76.5
 21
24.00000000000051
 31
0.0
  0
LINE
  5
23604
330
A
100
AcDbEntity
  8
10
  6
Continuous
100
AcDbLine
 10
-76.5
 20
25.99997000000036
 30
0.0
 11
-76.5
 21
27.49984500000034
 31
0.0
  0
LINE
  5
23605
330
A
100
AcDbEntity
  8
10
  6
Continuous
100
AcDbLine
 10
-76.5
 20
29.49981250000025
 30
0.0
 11
-76.5
 21
30.50000000000006
 31
0.0
  0
LINE
  5
23606
330
A
100
AcDbEntity
  8
10
  6
Continuous
100
AcDbLine
 10
-72.5
 20
30.50000000000006
 30
0.0
 11
-67.49954750000006
 21
30.50000000000006
 31
0.0
  0
LINE
  5
23607
330
A
100
AcDbEntity
  8
10
  6
Continuous
100
AcDbLine
 10
-65.49985999999989
 20
30.50000000000006
 30
0.0
 11
-52.50004000000011
 21
30.50000000000006
 31
0.0
  0
LINE
  5
23608
330
A
100
AcDbEntity
  8
10
  6
Continuous
100
AcDbLine
 10
-34.50038249999989
 20
30.50000000000006
 30
0.0
 11
-34.00045999999998
 21
30.50000000000006
 31
0.0
  0
LINE
  5
23609
330
A
100
AcDbEntity
  8
10
  6
Continuous
100
AcDbLine
 10
-76.5
 20
30.50000000000006
 30
0.0
 11
-72.5
 21
30.50000000000006
 31
0.0
  0
LINE
  5
2360A
330
A
100
AcDbEntity
  8
10
  6
Continuous
100
AcDbLine
 10
-50.50035250000019
 20
17.50000000000006
 30
0.0
 11
-50.00043000000005
 21
17.50000000000006
 31
0.0
  0
LINE
  5
2360B
330
A
100
AcDbEntity
  8
10
  6
Continuous
100
AcDbLine
 10
-35.50022749999994
 20
6.500000000000511
 30
0.0
 11
-34.00045999999998
 21
6.500000000000511
 31
0.0
  0
LINE
  5
2360C
330
A
100
AcDbEntity
  8
10
  6
Continuous
100
AcDbLine
 10
-76.5
 20
-5.999905000000067
 30
0.0
 11
-76.5
 21
-4.499827499999752
 31
0.0
  0
LINE
  5
2360D
330
A
100
AcDbEntity
  8
10
  6
Continuous
100
AcDbLine
 10
-76.5
 20
-2.49985999999984
 30
0.0
 11
-76.5
 21
-0.9999849999998671
 31
0.0
  0
LINE
  5
2360E
330
A
100
AcDbEntity
  8
10
  6
Continuous
100
AcDbLine
 10
-76.5
 20
0.9999850000004355
 30
0.0
 11
-76.5
 21
2.499860000000409
 31
0.0
  0
LINE
  5
2360F
330
A
100
AcDbEntity
  8
10
  6
Continuous
100
AcDbLine
 10
-76.5
 20
4.499827499999867
 30
0.0
 11
-76.5
 21
5.999907500000118
 31
0.0
  0
LINE
  5
23610
330
A
100
AcDbEntity
  8
10
  6
Continuous
100
AcDbLine
 10
-35.50022749999994
 20
-6.499999999999943
 30
0.0
 11
-34.00045999999998
 21
-6.499999999999943
 31
0.0
  0
LINE
  5
23611
330
A
100
AcDbEntity
  8
10
  6
Continuous
100
AcDbLine
 10
-80.5
 20
37.50000000000034
 30
0.0
 11
-69.0
 21
37.50000000000034
 31
0.0
  0
LINE
  5
23612
330
A
100
AcDbEntity
  8
10
  6
Continuous
100
AcDbLine
 10
-48.0
 20
36.20000000000033
 30
0.0
 11
-50.0
 21
36.20000000000033
 31
0.0
  0
LINE
  5
23613
330
A
100
AcDbEntity
  8
10
  6
Continuous
100
AcDbLine
 10
-69.0
 20
37.50000000000034
 30
0.0
 11
-46.5
 21
37.50000000000034
 31
0.0
  0
LINE
  5
23614
330
A
100
AcDbEntity
  8
10
  6
Continuous
100
AcDbLine
 10
-46.5
 20
36.20000000000033
 30
0.0
 11
-46.5
 21
35.40000000000015
 31
0.0
  0
LINE
  5
23615
330
A
100
AcDbEntity
  8
10
  6
Continuous
100
AcDbLine
 10
-81.5
 20
31.00000000000006
 30
0.0
 11
-81.5
 21
36.50000000000034
 31
0.0
  0
LINE
  5
23616
330
A
100
AcDbEntity
  8
10
  6
Continuous
100
AcDbLine
 10
-50.0
 20
35.20000000000033
 30
0.0
 11
-50.0
 21
36.20000000000033
 31
0.0
  0
LINE
  5
23617
330
A
100
AcDbEntity
  8
10
  6
Continuous
100
AcDbLine
 10
-48.0
 20
36.20000000000033
 30
0.0
 11
-48.0
 21
35.40000000000015
 31
0.0
  0
LINE
  5
23618
330
A
100
AcDbEntity
  8
10
  6
Continuous
100
AcDbLine
 10
-46.5
 20
35.40000000000015
 30
0.0
 11
-48.0
 21
35.40000000000015
 31
0.0
  0
LINE
  5
23619
330
A
100
AcDbEntity
  8
10
  6
Continuous
100
AcDbLine
 10
-50.0
 20
35.20000000000033
 30
0.0
 11
-50.5
 21
35.20000000000033
 31
0.0
  0
LINE
  5
2361A
330
A
100
AcDbEntity
  8
10
  6
Continuous
100
AcDbLine
 10
-50.5
 20
31.50000000000051
 30
0.0
 11
-50.5
 21
35.20000000000033
 31
0.0
  0
LINE
  5
2361B
330
A
100
AcDbEntity
  8
10
  6
Continuous
100
AcDbLine
 10
-35.5
 20
31.50000000000051
 30
0.0
 11
-50.5
 21
31.50000000000051
 31
0.0
  0
LINE
  5
2361C
330
A
100
AcDbEntity
  8
10
  6
Continuous
100
AcDbLine
 10
-79.0
 20
29.50000000000006
 30
0.0
 11
-79.0
 21
31.00000000000006
 31
0.0
  0
LINE
  5
2361D
330
A
100
AcDbEntity
  8
10
  6
Continuous
100
AcDbLine
 10
-81.5
 20
31.00000000000006
 30
0.0
 11
-81.5
 21
29.50000000000006
 31
0.0
  0
LINE
  5
2361E
330
A
100
AcDbEntity
  8
10
  6
Continuous
100
AcDbLine
 10
-67.5
 20
31.00000000000006
 30
0.0
 11
-67.5
 21
29.50000000000006
 31
0.0
  0
LINE
  5
2361F
330
A
100
AcDbEntity
  8
10
  6
Continuous
100
AcDbLine
 10
-65.5
 20
31.00000000000006
 30
0.0
 11
-52.5
 21
31.00000000000006
 31
0.0
  0
LINE
  5
23620
330
A
100
AcDbEntity
  8
10
  6
Continuous
100
AcDbLine
 10
-65.5
 20
31.00000000000006
 30
0.0
 11
-65.5
 21
29.50000000000006
 31
0.0
  0
LINE
  5
23621
330
A
100
AcDbEntity
  8
10
  6
Continuous
100
AcDbLine
 10
-52.5
 20
29.50000000000006
 30
0.0
 11
-52.5
 21
31.00000000000006
 31
0.0
  0
LINE
  5
23622
330
A
100
AcDbEntity
  8
10
  6
Continuous
100
AcDbLine
 10
-67.5
 20
31.00000000000006
 30
0.0
 11
-69.0
 21
31.00000000000006
 31
0.0
  0
LINE
  5
23623
330
A
100
AcDbEntity
  8
10
  6
Continuous
100
AcDbLine
 10
-69.0
 20
31.00000000000006
 30
0.0
 11
-81.5
 21
31.00000000000006
 31
0.0
  0
LINE
  5
23624
330
A
100
AcDbEntity
  8
10
  6
Continuous
100
AcDbLine
 10
-34.5
 20
19.50000000000006
 30
0.0
 11
-34.5
 21
30.50000000000006
 31
0.0
  0
LINE
  5
23625
330
A
100
AcDbEntity
  8
10
  6
Continuous
100
AcDbLine
 10
-81.5
 20
27.50000000000006
 30
0.0
 11
-81.5
 21
29.50000000000006
 31
0.0
  0
LINE
  5
23626
330
A
100
AcDbEntity
  8
10
  6
Continuous
100
AcDbLine
 10
-69.0
 20
29.50000000000006
 30
0.0
 11
-81.5
 21
29.50000000000006
 31
0.0
  0
LINE
  5
23627
330
A
100
AcDbEntity
  8
10
  6
Continuous
100
AcDbLine
 10
-67.5
 20
29.50000000000006
 30
0.0
 11
-69.0
 21
29.50000000000006
 31
0.0
  0
LINE
  5
23628
330
A
100
AcDbEntity
  8
10
  6
Continuous
100
AcDbLine
 10
-65.5
 20
29.50000000000006
 30
0.0
 11
-52.5
 21
29.50000000000006
 31
0.0
  0
LINE
  5
23629
330
A
100
AcDbEntity
  8
10
  6
Continuous
100
AcDbLine
 10
-65.5
 20
27.50000000000006
 30
0.0
 11
-52.5
 21
27.50000000000006
 31
0.0
  0
LINE
  5
2362A
330
A
100
AcDbEntity
  8
10
  6
Continuous
100
AcDbLine
 10
-69.0
 20
27.50000000000006
 30
0.0
 11
-81.5
 21
27.50000000000006
 31
0.0
  0
LINE
  5
2362B
330
A
100
AcDbEntity
  8
10
  6
Continuous
100
AcDbLine
 10
-67.5
 20
27.50000000000006
 30
0.0
 11
-69.0
 21
27.50000000000006
 31
0.0
  0
LINE
  5
2362C
330
A
100
AcDbEntity
  8
10
  6
Continuous
100
AcDbLine
 10
-65.5
 20
27.50000000000006
 30
0.0
 11
-65.5
 21
26.00000000000006
 31
0.0
  0
LINE
  5
2362D
330
A
100
AcDbEntity
  8
10
  6
Continuous
100
AcDbLine
 10
-52.5
 20
26.00000000000006
 30
0.0
 11
-52.5
 21
27.50000000000006
 31
0.0
  0
LINE
  5
2362E
330
A
100
AcDbEntity
  8
10
  6
Continuous
100
AcDbLine
 10
-79.0
 20
26.00000000000006
 30
0.0
 11
-79.0
 21
27.50000000000006
 31
0.0
  0
LINE
  5
2362F
330
A
100
AcDbEntity
  8
10
  6
Continuous
100
AcDbLine
 10
-81.5
 20
27.50000000000006
 30
0.0
 11
-81.5
 21
26.00000000000006
 31
0.0
  0
LINE
  5
23630
330
A
100
AcDbEntity
  8
10
  6
Continuous
100
AcDbLine
 10
-67.5
 20
27.50000000000006
 30
0.0
 11
-67.5
 21
26.00000000000006
 31
0.0
  0
LINE
  5
23631
330
A
100
AcDbEntity
  8
10
  6
Continuous
100
AcDbLine
 10
-65.5
 20
26.00000000000006
 30
0.0
 11
-52.5
 21
26.00000000000006
 31
0.0
  0
LINE
  5
23632
330
A
100
AcDbEntity
  8
10
  6
Continuous
100
AcDbLine
 10
-81.5
 20
24.00000000000051
 30
0.0
 11
-81.5
 21
26.00000000000006
 31
0.0
  0
LINE
  5
23633
330
A
100
AcDbEntity
  8
10
  6
Continuous
100
AcDbLine
 10
-69.0
 20
26.00000000000006
 30
0.0
 11
-81.5
 21
26.00000000000006
 31
0.0
  0
LINE
  5
23634
330
A
100
AcDbEntity
  8
10
  6
Continuous
100
AcDbLine
 10
-67.5
 20
26.00000000000006
 30
0.0
 11
-69.0
 21
26.00000000000006
 31
0.0
  0
LINE
  5
23635
330
A
100
AcDbEntity
  8
10
  6
Continuous
100
AcDbLine
 10
-69.0
 20
24.00000000000051
 30
0.0
 11
-81.5
 21
24.00000000000051
 31
0.0
  0
LINE
  5
23636
330
A
100
AcDbEntity
  8
10
  6
Continuous
100
AcDbLine
 10
-67.5
 20
24.00000000000051
 30
0.0
 11
-69.0
 21
24.00000000000051
 31
0.0
  0
LINE
  5
23637
330
A
100
AcDbEntity
  8
10
  6
Continuous
100
AcDbLine
 10
-67.5
 20
24.00000000000051
 30
0.0
 11
-67.5
 21
22.50000000000006
 31
0.0
  0
LINE
  5
23638
330
A
100
AcDbEntity
  8
10
  6
Continuous
100
AcDbLine
 10
-52.5
 20
22.50000000000006
 30
0.0
 11
-52.5
 21
24.00000000000051
 31
0.0
  0
LINE
  5
23639
330
A
100
AcDbEntity
  8
10
  6
Continuous
100
AcDbLine
 10
-65.5
 20
24.00000000000051
 30
0.0
 11
-52.5
 21
24.00000000000051
 31
0.0
  0
LINE
  5
2363A
330
A
100
AcDbEntity
  8
10
  6
Continuous
100
AcDbLine
 10
-79.0
 20
22.50000000000006
 30
0.0
 11
-79.0
 21
24.00000000000051
 31
0.0
  0
LINE
  5
2363B
330
A
100
AcDbEntity
  8
10
  6
Continuous
100
AcDbLine
 10
-81.5
 20
24.00000000000051
 30
0.0
 11
-81.5
 21
22.50000000000006
 31
0.0
  0
LINE
  5
2363C
330
A
100
AcDbEntity
  8
10
  6
Continuous
100
AcDbLine
 10
-65.5
 20
24.00000000000051
 30
0.0
 11
-65.5
 21
22.50000000000006
 31
0.0
  0
LINE
  5
2363D
330
A
100
AcDbEntity
  8
10
  6
Continuous
100
AcDbLine
 10
-65.5
 20
22.50000000000006
 30
0.0
 11
-52.5
 21
22.50000000000006
 31
0.0
  0
LINE
  5
2363E
330
A
100
AcDbEntity
  8
10
  6
Continuous
100
AcDbLine
 10
-69.0
 20
22.50000000000006
 30
0.0
 11
-81.5
 21
22.50000000000006
 31
0.0
  0
LINE
  5
2363F
330
A
100
AcDbEntity
  8
10
  6
Continuous
100
AcDbLine
 10
-67.5
 20
22.50000000000006
 30
0.0
 11
-69.0
 21
22.50000000000006
 31
0.0
  0
LINE
  5
23640
330
A
100
AcDbEntity
  8
10
  6
Continuous
100
AcDbLine
 10
-81.5
 20
20.50000000000006
 30
0.0
 11
-81.5
 21
22.50000000000006
 31
0.0
  0
LINE
  5
23641
330
A
100
AcDbEntity
  8
10
  6
Continuous
100
AcDbLine
 10
-79.0
 20
19.00000000000051
 30
0.0
 11
-79.0
 21
20.50000000000006
 31
0.0
  0
LINE
  5
23642
330
A
100
AcDbEntity
  8
10
  6
Continuous
100
AcDbLine
 10
-81.5
 20
20.50000000000006
 30
0.0
 11
-81.5
 21
19.00000000000051
 31
0.0
  0
LINE
  5
23643
330
A
100
AcDbEntity
  8
10
  6
Continuous
100
AcDbLine
 10
-67.5
 20
20.50000000000006
 30
0.0
 11
-67.5
 21
19.00000000000051
 31
0.0
  0
LINE
  5
23644
330
A
100
AcDbEntity
  8
10
  6
Continuous
100
AcDbLine
 10
-69.0
 20
20.50000000000006
 30
0.0
 11
-81.5
 21
20.50000000000006
 31
0.0
  0
LINE
  5
23645
330
A
100
AcDbEntity
  8
10
  6
Continuous
100
AcDbLine
 10
-67.5
 20
20.50000000000006
 30
0.0
 11
-69.0
 21
20.50000000000006
 31
0.0
  0
LINE
  5
23646
330
A
100
AcDbEntity
  8
10
  6
Continuous
100
AcDbLine
 10
-65.5
 20
20.50000000000006
 30
0.0
 11
-52.5
 21
20.50000000000006
 31
0.0
  0
LINE
  5
23647
330
A
100
AcDbEntity
  8
10
  6
Continuous
100
AcDbLine
 10
-52.5
 20
19.00000000000051
 30
0.0
 11
-52.5
 21
20.50000000000006
 31
0.0
  0
LINE
  5
23648
330
A
100
AcDbEntity
  8
10
  6
Continuous
100
AcDbLine
 10
-65.5
 20
20.50000000000006
 30
0.0
 11
-65.5
 21
19.00000000000051
 31
0.0
  0
LINE
  5
23649
330
A
100
AcDbEntity
  8
10
  6
Continuous
100
AcDbLine
 10
-81.5
 20
6.000000000000056
 30
0.0
 11
-81.5
 21
19.00000000000051
 31
0.0
  0
LINE
  5
2364A
330
A
100
AcDbEntity
  8
10
  6
Continuous
100
AcDbLine
 10
-69.0
 20
19.00000000000051
 30
0.0
 11
-81.5
 21
19.00000000000051
 31
0.0
  0
LINE
  5
2364B
330
A
100
AcDbEntity
  8
10
  6
Continuous
100
AcDbLine
 10
-67.5
 20
19.00000000000051
 30
0.0
 11
-69.0
 21
19.00000000000051
 31
0.0
  0
LINE
  5
2364C
330
A
100
AcDbEntity
  8
10
  6
Continuous
100
AcDbLine
 10
-65.5
 20
19.00000000000051
 30
0.0
 11
-52.5
 21
19.00000000000051
 31
0.0
  0
LINE
  5
2364D
330
A
100
AcDbEntity
  8
10
  6
Continuous
100
AcDbLine
 10
-50.5
 20
18.50000000000006
 30
0.0
 11
-35.5
 21
18.50000000000006
 31
0.0
  0
LINE
  5
2364E
330
A
100
AcDbEntity
  8
10
  6
Continuous
100
AcDbLine
 10
-50.5
 20
14.50000000000005
 30
0.0
 11
-50.5
 21
18.50000000000006
 31
0.0
  0
LINE
  5
2364F
330
A
100
AcDbEntity
  8
10
  6
Continuous
100
AcDbLine
 10
-48.0
 20
15.20000000000033
 30
0.0
 11
-48.0
 21
14.50000000000005
 31
0.0
  0
LINE
  5
23650
330
A
100
AcDbEntity
  8
10
  6
Continuous
100
AcDbLine
 10
-46.5
 20
11.80000000000024
 30
0.0
 11
-46.5
 21
15.20000000000033
 31
0.0
  0
LINE
  5
23651
330
A
100
AcDbEntity
  8
10
  6
Continuous
100
AcDbLine
 10
-46.5
 20
15.20000000000033
 30
0.0
 11
-48.0
 21
15.20000000000033
 31
0.0
  0
LINE
  5
23652
330
A
100
AcDbEntity
  8
10
  6
Continuous
100
AcDbLine
 10
-48.0
 20
14.50000000000005
 30
0.0
 11
-50.5
 21
14.50000000000005
 31
0.0
  0
LINE
  5
23653
330
A
100
AcDbEntity
  8
10
  6
Continuous
100
AcDbLine
 10
-50.5
 20
6.500000000000511
 30
0.0
 11
-50.5
 21
12.50000000000005
 31
0.0
  0
LINE
  5
23654
330
A
100
AcDbEntity
  8
10
  6
Continuous
100
AcDbLine
 10
-48.0
 20
12.50000000000005
 30
0.0
 11
-48.0
 21
11.80000000000024
 31
0.0
  0
LINE
  5
23655
330
A
100
AcDbEntity
  8
10
  6
Continuous
100
AcDbLine
 10
-50.5
 20
12.50000000000005
 30
0.0
 11
-48.0
 21
12.50000000000005
 31
0.0
  0
LINE
  5
23656
330
A
100
AcDbEntity
  8
10
  6
Continuous
100
AcDbLine
 10
-46.5
 20
11.80000000000024
 30
0.0
 11
-48.0
 21
11.80000000000024
 31
0.0
  0
LINE
  5
23657
330
A
100
AcDbEntity
  8
10
  6
Continuous
100
AcDbLine
 10
-35.5
 20
6.500000000000511
 30
0.0
 11
-50.5
 21
6.500000000000511
 31
0.0
  0
LINE
  5
23658
330
A
100
AcDbEntity
  8
10
  6
Continuous
100
AcDbLine
 10
-65.5
 20
6.000000000000056
 30
0.0
 11
-52.5
 21
6.000000000000056
 31
0.0
  0
LINE
  5
23659
330
A
100
AcDbEntity
  8
10
  6
Continuous
100
AcDbLine
 10
-52.5
 20
4.500000000000056
 30
0.0
 11
-52.5
 21
6.000000000000056
 31
0.0
  0
LINE
  5
2365A
330
A
100
AcDbEntity
  8
10
  6
Continuous
100
AcDbLine
 10
-79.0
 20
4.500000000000056
 30
0.0
 11
-79.0
 21
6.000000000000056
 31
0.0
  0
LINE
  5
2365B
330
A
100
AcDbEntity
  8
10
  6
Continuous
100
AcDbLine
 10
-81.5
 20
6.000000000000056
 30
0.0
 11
-81.5
 21
4.500000000000056
 31
0.0
  0
LINE
  5
2365C
330
A
100
AcDbEntity
  8
10
  6
Continuous
100
AcDbLine
 10
-69.0
 20
6.000000000000056
 30
0.0
 11
-81.5
 21
6.000000000000056
 31
0.0
  0
LINE
  5
2365D
330
A
100
AcDbEntity
  8
10
  6
Continuous
100
AcDbLine
 10
-67.5
 20
6.000000000000056
 30
0.0
 11
-69.0
 21
6.000000000000056
 31
0.0
  0
LINE
  5
2365E
330
A
100
AcDbEntity
  8
10
  6
Continuous
100
AcDbLine
 10
-67.5
 20
6.000000000000056
 30
0.0
 11
-67.5
 21
4.500000000000056
 31
0.0
  0
LINE
  5
2365F
330
A
100
AcDbEntity
  8
10
  6
Continuous
100
AcDbLine
 10
-65.5
 20
6.000000000000056
 30
0.0
 11
-65.5
 21
4.500000000000056
 31
0.0
  0
LINE
  5
23660
330
A
100
AcDbEntity
  8
10
  6
Continuous
100
AcDbLine
 10
-34.5
 20
-5.499999999999943
 30
0.0
 11
-34.5
 21
5.500000000000056
 31
0.0
  0
LINE
  5
23661
330
A
100
AcDbEntity
  8
10
  6
Continuous
100
AcDbLine
 10
-81.5
 20
2.500000000000055
 30
0.0
 11
-81.5
 21
4.500000000000056
 31
0.0
  0
LINE
  5
23662
330
A
100
AcDbEntity
  8
10
  6
Continuous
100
AcDbLine
 10
-69.0
 20
4.500000000000056
 30
0.0
 11
-81.5
 21
4.500000000000056
 31
0.0
  0
LINE
  5
23663
330
A
100
AcDbEntity
  8
10
  6
Continuous
100
AcDbLine
 10
-67.5
 20
4.500000000000056
 30
0.0
 11
-69.0
 21
4.500000000000056
 31
0.0
  0
LINE
  5
23664
330
A
100
AcDbEntity
  8
10
  6
Continuous
100
AcDbLine
 10
-65.5
 20
4.500000000000056
 30
0.0
 11
-52.5
 21
4.500000000000056
 31
0.0
  0
LINE
  5
23665
330
A
100
AcDbEntity
  8
10
  6
Continuous
100
AcDbLine
 10
-67.5
 20
2.500000000000055
 30
0.0
 11
-67.5
 21
1.000000000000055
 31
0.0
  0
LINE
  5
23666
330
A
100
AcDbEntity
  8
10
  6
Continuous
100
AcDbLine
 10
-69.0
 20
2.500000000000055
 30
0.0
 11
-81.5
 21
2.500000000000055
 31
0.0
  0
LINE
  5
23667
330
A
100
AcDbEntity
  8
10
  6
Continuous
100
AcDbLine
 10
-67.5
 20
2.500000000000055
 30
0.0
 11
-69.0
 21
2.500000000000055
 31
0.0
  0
LINE
  5
23668
330
A
100
AcDbEntity
  8
10
  6
Continuous
100
AcDbLine
 10
-52.5
 20
1.000000000000055
 30
0.0
 11
-52.5
 21
2.500000000000055
 31
0.0
  0
LINE
  5
23669
330
A
100
AcDbEntity
  8
10
  6
Continuous
100
AcDbLine
 10
-79.0
 20
1.000000000000055
 30
0.0
 11
-79.0
 21
2.500000000000055
 31
0.0
  0
LINE
  5
2366A
330
A
100
AcDbEntity
  8
10
  6
Continuous
100
AcDbLine
 10
-81.5
 20
2.500000000000055
 30
0.0
 11
-81.5
 21
1.000000000000055
 31
0.0
  0
LINE
  5
2366B
330
A
100
AcDbEntity
  8
10
  6
Continuous
100
AcDbLine
 10
-65.5
 20
2.500000000000055
 30
0.0
 11
-52.5
 21
2.500000000000055
 31
0.0
  0
LINE
  5
2366C
330
A
100
AcDbEntity
  8
10
  6
Continuous
100
AcDbLine
 10
-65.5
 20
2.500000000000055
 30
0.0
 11
-65.5
 21
1.000000000000055
 31
0.0
  0
LINE
  5
2366D
330
A
100
AcDbEntity
  8
10
  6
Continuous
100
AcDbLine
 10
-69.0
 20
1.000000000000055
 30
0.0
 11
-81.5
 21
1.000000000000055
 31
0.0
  0
LINE
  5
2366E
330
A
100
AcDbEntity
  8
10
  6
Continuous
100
AcDbLine
 10
-67.5
 20
1.000000000000055
 30
0.0
 11
-69.0
 21
1.000000000000055
 31
0.0
  0
LINE
  5
2366F
330
A
100
AcDbEntity
  8
10
  6
Continuous
100
AcDbLine
 10
-65.5
 20
1.000000000000055
 30
0.0
 11
-52.5
 21
1.000000000000055
 31
0.0
  0
LINE
  5
23670
330
A
100
AcDbEntity
  8
10
  6
Continuous
100
AcDbLine
 10
-81.5
 20
-0.9999999999994884
 30
0.0
 11
-81.5
 21
1.000000000000055
 31
0.0
  0
LINE
  5
23671
330
A
100
AcDbEntity
  8
10
  6
Continuous
100
AcDbLine
 10
-65.5
 20
-0.9999999999994884
 30
0.0
 11
-65.5
 21
-2.499999999999943
 31
0.0
  0
LINE
  5
23672
330
A
100
AcDbEntity
  8
10
  6
Continuous
100
AcDbLine
 10
-69.0
 20
-0.9999999999994884
 30
0.0
 11
-81.5
 21
-0.9999999999994884
 31
0.0
  0
LINE
  5
23673
330
A
100
AcDbEntity
  8
10
  6
Continuous
100
AcDbLine
 10
-67.5
 20
-0.9999999999994884
 30
0.0
 11
-69.0
 21
-0.9999999999994884
 31
0.0
  0
LINE
  5
23674
330
A
100
AcDbEntity
  8
10
  6
Continuous
100
AcDbLine
 10
-79.0
 20
-2.499999999999943
 30
0.0
 11
-79.0
 21
-0.9999999999994884
 31
0.0
  0
LINE
  5
23675
330
A
100
AcDbEntity
  8
10
  6
Continuous
100
AcDbLine
 10
-81.5
 20
-0.9999999999994884
 30
0.0
 11
-81.5
 21
-2.499999999999943
 31
0.0
  0
LINE
  5
23676
330
A
100
AcDbEntity
  8
10
  6
Continuous
100
AcDbLine
 10
-52.5
 20
-2.499999999999943
 30
0.0
 11
-52.5
 21
-0.9999999999994884
 31
0.0
  0
LINE
  5
23677
330
A
100
AcDbEntity
  8
10
  6
Continuous
100
AcDbLine
 10
-67.5
 20
-0.9999999999994884
 30
0.0
 11
-67.5
 21
-2.499999999999943
 31
0.0
  0
LINE
  5
23678
330
A
100
AcDbEntity
  8
10
  6
Continuous
100
AcDbLine
 10
-65.5
 20
-0.9999999999994884
 30
0.0
 11
-52.5
 21
-0.9999999999994884
 31
0.0
  0
LINE
  5
23679
330
A
100
AcDbEntity
  8
10
  6
Continuous
100
AcDbLine
 10
-69.0
 20
-2.499999999999943
 30
0.0
 11
-81.5
 21
-2.499999999999943
 31
0.0
  0
LINE
  5
2367A
330
A
100
AcDbEntity
  8
10
  6
Continuous
100
AcDbLine
 10
-67.5
 20
-2.499999999999943
 30
0.0
 11
-69.0
 21
-2.499999999999943
 31
0.0
  0
LINE
  5
2367B
330
A
100
AcDbEntity
  8
10
  6
Continuous
100
AcDbLine
 10
-81.5
 20
-4.499999999999943
 30
0.0
 11
-81.5
 21
-2.499999999999943
 31
0.0
  0
LINE
  5
2367C
330
A
100
AcDbEntity
  8
10
  6
Continuous
100
AcDbLine
 10
-65.5
 20
-2.499999999999943
 30
0.0
 11
-52.5
 21
-2.499999999999943
 31
0.0
  0
LINE
  5
2367D
330
A
100
AcDbEntity
  8
10
  6
Continuous
100
AcDbLine
 10
-52.5
 20
-5.999999999999487
 30
0.0
 11
-52.5
 21
-4.499999999999943
 31
0.0
  0
LINE
  5
2367E
330
A
100
AcDbEntity
  8
10
  6
Continuous
100
AcDbLine
 10
-65.5
 20
-4.499999999999943
 30
0.0
 11
-52.5
 21
-4.499999999999943
 31
0.0
  0
LINE
  5
2367F
330
A
100
AcDbEntity
  8
10
  6
Continuous
100
AcDbLine
 10
-69.0
 20
-4.499999999999943
 30
0.0
 11
-81.5
 21
-4.499999999999943
 31
0.0
  0
LINE
  5
23680
330
A
100
AcDbEntity
  8
10
  6
Continuous
100
AcDbLine
 10
-67.5
 20
-4.499999999999943
 30
0.0
 11
-69.0
 21
-4.499999999999943
 31
0.0
  0
LINE
  5
23681
330
A
100
AcDbEntity
  8
10
  6
Continuous
100
AcDbLine
 10
-79.0
 20
-5.999999999999487
 30
0.0
 11
-79.0
 21
-4.499999999999943
 31
0.0
  0
LINE
  5
23682
330
A
100
AcDbEntity
  8
10
  6
Continuous
100
AcDbLine
 10
-81.5
 20
-4.499999999999943
 30
0.0
 11
-81.5
 21
-5.999999999999487
 31
0.0
  0
LINE
  5
23683
330
A
100
AcDbEntity
  8
10
  6
Continuous
100
AcDbLine
 10
-65.5
 20
-4.499999999999943
 30
0.0
 11
-65.5
 21
-5.999999999999487
 31
0.0
  0
LINE
  5
23684
330
A
100
AcDbEntity
  8
10
  6
Continuous
100
AcDbLine
 10
-67.5
 20
-4.499999999999943
 30
0.0
 11
-67.5
 21
-5.999999999999487
 31
0.0
  0
LINE
  5
23685
330
A
100
AcDbEntity
  8
10
  6
Continuous
100
AcDbLine
 10
-65.5
 20
-5.999999999999487
 30
0.0
 11
-52.5
 21
-5.999999999999487
 31
0.0
  0
LINE
  5
23686
330
A
100
AcDbEntity
  8
10
  6
Continuous
100
AcDbLine
 10
-81.5
 20
-18.99999999999994
 30
0.0
 11
-81.5
 21
-5.999999999999487
 31
0.0
  0
LINE
  5
23687
330
A
100
AcDbEntity
  8
10
  6
Continuous
100
AcDbLine
 10
-69.0
 20
-5.999999999999487
 30
0.0
 11
-81.5
 21
-5.999999999999487
 31
0.0
  0
LINE
  5
23688
330
A
100
AcDbEntity
  8
10
  6
Continuous
100
AcDbLine
 10
-67.5
 20
-5.999999999999487
 30
0.0
 11
-69.0
 21
-5.999999999999487
 31
0.0
  0
LINE
  5
23689
330
A
100
AcDbEntity
  8
10
  6
Continuous
100
AcDbLine
 10
-50.5
 20
-6.499999999999943
 30
0.0
 11
-35.5
 21
-6.499999999999943
 31
0.0
  0
LINE
  5
2368A
330
A
100
AcDbEntity
  8
10
  6
Continuous
100
AcDbLine
 10
-50.5
 20
-10.49999999999994
 30
0.0
 11
-50.5
 21
-6.499999999999943
 31
0.0
  0
LINE
  5
2368B
330
A
100
AcDbEntity
  8
10
  6
Continuous
100
AcDbLine
 10
-46.5
 20
-13.19999999999976
 30
0.0
 11
-46.5
 21
-9.79999999999967
 31
0.0
  0
LINE
  5
2368C
330
A
100
AcDbEntity
  8
10
  6
Continuous
100
AcDbLine
 10
-48.0
 20
-9.79999999999967
 30
0.0
 11
-48.0
 21
-10.49999999999994
 31
0.0
  0
LINE
  5
2368D
330
A
100
AcDbEntity
  8
10
  6
Continuous
100
AcDbLine
 10
-46.5
 20
-9.79999999999967
 30
0.0
 11
-48.0
 21
-9.79999999999967
 31
0.0
  0
LINE
  5
2368E
330
A
100
AcDbEntity
  8
10
  6
Continuous
100
AcDbLine
 10
-48.0
 20
-10.49999999999994
 30
0.0
 11
-50.5
 21
-10.49999999999994
 31
0.0
  0
LINE
  5
2368F
330
A
100
AcDbEntity
  8
10
  6
Continuous
100
AcDbLine
 10
-48.0
 20
-12.49999999999994
 30
0.0
 11
-48.0
 21
-13.19999999999976
 31
0.0
  0
LINE
  5
23690
330
A
100
AcDbEntity
  8
10
  6
Continuous
100
AcDbLine
 10
-50.5
 20
-18.49999999999949
 30
0.0
 11
-50.5
 21
-12.49999999999994
 31
0.0
  0
LINE
  5
23691
330
A
100
AcDbEntity
  8
10
  6
Continuous
100
AcDbLine
 10
-50.5
 20
-12.49999999999994
 30
0.0
 11
-48.0
 21
-12.49999999999994
 31
0.0
  0
LINE
  5
23692
330
A
100
AcDbEntity
  8
10
  6
Continuous
100
AcDbLine
 10
-46.5
 20
-13.19999999999976
 30
0.0
 11
-48.0
 21
-13.19999999999976
 31
0.0
  0
LINE
  5
23693
330
A
100
AcDbEntity
  8
10
  6
Continuous
100
AcDbLine
 10
-35.5
 20
-18.49999999999949
 30
0.0
 11
-50.5
 21
-18.49999999999949
 31
0.0
  0
LINE
  5
23694
330
A
100
AcDbEntity
  8
10
  6
Continuous
100
AcDbLine
 10
-69.0
 20
-18.99999999999994
 30
0.0
 11
-81.5
 21
-18.99999999999994
 31
0.0
  0
LINE
  5
23695
330
A
100
AcDbEntity
  8
10
  6
Continuous
100
AcDbLine
 10
-67.5
 20
-18.99999999999994
 30
0.0
 11
-69.0
 21
-18.99999999999994
 31
0.0
  0
LINE
  5
23696
330
A
100
AcDbEntity
  8
10
  6
Continuous
100
AcDbLine
 10
-67.5
 20
-18.99999999999994
 30
0.0
 11
-67.5
 21
-20.49999999999994
 31
0.0
  0
LINE
  5
23697
330
A
100
AcDbEntity
  8
10
  6
Continuous
100
AcDbLine
 10
-79.0
 20
-20.49999999999994
 30
0.0
 11
-79.0
 21
-18.99999999999994
 31
0.0
  0
LINE
  5
23698
330
A
100
AcDbEntity
  8
10
  6
Continuous
100
AcDbLine
 10
-81.5
 20
-18.99999999999994
 30
0.0
 11
-81.5
 21
-20.49999999999994
 31
0.0
  0
LINE
  5
23699
330
A
100
AcDbEntity
  8
10
  6
Continuous
100
AcDbLine
 10
-65.5
 20
-18.99999999999994
 30
0.0
 11
-52.5
 21
-18.99999999999994
 31
0.0
  0
LINE
  5
2369A
330
A
100
AcDbEntity
  8
10
  6
Continuous
100
AcDbLine
 10
-52.5
 20
-20.49999999999994
 30
0.0
 11
-52.5
 21
-18.99999999999994
 31
0.0
  0
LINE
  5
2369B
330
A
100
AcDbEntity
  8
10
  6
Continuous
100
AcDbLine
 10
-65.5
 20
-18.99999999999994
 30
0.0
 11
-65.5
 21
-20.49999999999994
 31
0.0
  0
LINE
  5
2369C
330
A
100
AcDbEntity
  8
10
  6
Continuous
100
AcDbLine
 10
-34.5
 20
-30.49999999999994
 30
0.0
 11
-34.5
 21
-19.49999999999994
 31
0.0
  0
LINE
  5
2369D
330
A
100
AcDbEntity
  8
10
  6
Continuous
100
AcDbLine
 10
-81.5
 20
-22.49999999999994
 30
0.0
 11
-81.5
 21
-20.49999999999994
 31
0.0
  0
LINE
  5
2369E
330
A
100
AcDbEntity
  8
10
  6
Continuous
100
AcDbLine
 10
-69.0
 20
-20.49999999999994
 30
0.0
 11
-81.5
 21
-20.49999999999994
 31
0.0
  0
LINE
  5
2369F
330
A
100
AcDbEntity
  8
10
  6
Continuous
100
AcDbLine
 10
-67.5
 20
-20.49999999999994
 30
0.0
 11
-69.0
 21
-20.49999999999994
 31
0.0
  0
LINE
  5
236A0
330
A
100
AcDbEntity
  8
10
  6
Continuous
100
AcDbLine
 10
-65.5
 20
-20.49999999999994
 30
0.0
 11
-52.5
 21
-20.49999999999994
 31
0.0
  0
LINE
  5
236A1
330
A
100
AcDbEntity
  8
10
  6
Continuous
100
AcDbLine
 10
-79.0
 20
-23.99999999999995
 30
0.0
 11
-79.0
 21
-22.49999999999994
 31
0.0
  0
LINE
  5
236A2
330
A
100
AcDbEntity
  8
10
  6
Continuous
100
AcDbLine
 10
-81.5
 20
-22.49999999999994
 30
0.0
 11
-81.5
 21
-23.99999999999995
 31
0.0
  0
LINE
  5
236A3
330
A
100
AcDbEntity
  8
10
  6
Continuous
100
AcDbLine
 10
-65.5
 20
-22.49999999999994
 30
0.0
 11
-65.5
 21
-23.99999999999995
 31
0.0
  0
LINE
  5
236A4
330
A
100
AcDbEntity
  8
10
  6
Continuous
100
AcDbLine
 10
-69.0
 20
-22.49999999999994
 30
0.0
 11
-81.5
 21
-22.49999999999994
 31
0.0
  0
LINE
  5
236A5
330
A
100
AcDbEntity
  8
10
  6
Continuous
100
AcDbLine
 10
-67.5
 20
-22.49999999999994
 30
0.0
 11
-69.0
 21
-22.49999999999994
 31
0.0
  0
LINE
  5
236A6
330
A
100
AcDbEntity
  8
10
  6
Continuous
100
AcDbLine
 10
-65.5
 20
-22.49999999999994
 30
0.0
 11
-52.5
 21
-22.49999999999994
 31
0.0
  0
LINE
  5
236A7
330
A
100
AcDbEntity
  8
10
  6
Continuous
100
AcDbLine
 10
-52.5
 20
-23.99999999999995
 30
0.0
 11
-52.5
 21
-22.49999999999994
 31
0.0
  0
LINE
  5
236A8
330
A
100
AcDbEntity
  8
10
  6
Continuous
100
AcDbLine
 10
-67.5
 20
-22.49999999999994
 30
0.0
 11
-67.5
 21
-23.99999999999995
 31
0.0
  0
LINE
  5
236A9
330
A
100
AcDbEntity
  8
10
  6
Continuous
100
AcDbLine
 10
-69.0
 20
-23.99999999999995
 30
0.0
 11
-81.5
 21
-23.99999999999995
 31
0.0
  0
LINE
  5
236AA
330
A
100
AcDbEntity
  8
10
  6
Continuous
100
AcDbLine
 10
-67.5
 20
-23.99999999999995
 30
0.0
 11
-69.0
 21
-23.99999999999995
 31
0.0
  0
LINE
  5
236AB
330
A
100
AcDbEntity
  8
10
  6
Continuous
100
AcDbLine
 10
-65.5
 20
-23.99999999999995
 30
0.0
 11
-52.5
 21
-23.99999999999995
 31
0.0
  0
LINE
  5
236AC
330
A
100
AcDbEntity
  8
10
  6
Continuous
100
AcDbLine
 10
-81.5
 20
-25.99999999999949
 30
0.0
 11
-81.5
 21
-23.99999999999995
 31
0.0
  0
LINE
  5
236AD
330
A
100
AcDbEntity
  8
10
  6
Continuous
100
AcDbLine
 10
-52.5
 20
-27.49999999999995
 30
0.0
 11
-52.5
 21
-25.99999999999949
 31
0.0
  0
LINE
  5
236AE
330
A
100
AcDbEntity
  8
10
  6
Continuous
100
AcDbLine
 10
-69.0
 20
-25.99999999999949
 30
0.0
 11
-81.5
 21
-25.99999999999949
 31
0.0
  0
LINE
  5
236AF
330
A
100
AcDbEntity
  8
10
  6
Continuous
100
AcDbLine
 10
-67.5
 20
-25.99999999999949
 30
0.0
 11
-69.0
 21
-25.99999999999949
 31
0.0
  0
LINE
  5
236B0
330
A
100
AcDbEntity
  8
10
  6
Continuous
100
AcDbLine
 10
-65.5
 20
-25.99999999999949
 30
0.0
 11
-65.5
 21
-27.49999999999995
 31
0.0
  0
LINE
  5
236B1
330
A
100
AcDbEntity
  8
10
  6
Continuous
100
AcDbLine
 10
-67.5
 20
-25.99999999999949
 30
0.0
 11
-67.5
 21
-27.49999999999995
 31
0.0
  0
LINE
  5
236B2
330
A
100
AcDbEntity
  8
10
  6
Continuous
100
AcDbLine
 10
-65.5
 20
-25.99999999999949
 30
0.0
 11
-52.5
 21
-25.99999999999949
 31
0.0
  0
LINE
  5
236B3
330
A
100
AcDbEntity
  8
10
  6
Continuous
100
AcDbLine
 10
-79.0
 20
-27.49999999999995
 30
0.0
 11
-79.0
 21
-25.99999999999949
 31
0.0
  0
LINE
  5
236B4
330
A
100
AcDbEntity
  8
10
  6
Continuous
100
AcDbLine
 10
-81.5
 20
-25.99999999999949
 30
0.0
 11
-81.5
 21
-27.49999999999995
 31
0.0
  0
LINE
  5
236B5
330
A
100
AcDbEntity
  8
10
  6
Continuous
100
AcDbLine
 10
-69.0
 20
-27.49999999999995
 30
0.0
 11
-81.5
 21
-27.49999999999995
 31
0.0
  0
LINE
  5
236B6
330
A
100
AcDbEntity
  8
10
  6
Continuous
100
AcDbLine
 10
-67.5
 20
-27.49999999999995
 30
0.0
 11
-69.0
 21
-27.49999999999995
 31
0.0
  0
LINE
  5
236B7
330
A
100
AcDbEntity
  8
10
  6
Continuous
100
AcDbLine
 10
-65.5
 20
-27.49999999999995
 30
0.0
 11
-52.5
 21
-27.49999999999995
 31
0.0
  0
LINE
  5
236B8
330
A
100
AcDbEntity
  8
10
  6
Continuous
100
AcDbLine
 10
-81.5
 20
-29.49999999999994
 30
0.0
 11
-81.5
 21
-27.49999999999995
 31
0.0
  0
LINE
  5
236B9
330
A
100
AcDbEntity
  8
10
  6
Continuous
100
AcDbLine
 10
-67.5
 20
-29.49999999999994
 30
0.0
 11
-67.5
 21
-30.99999999999949
 31
0.0
  0
LINE
  5
236BA
330
A
100
AcDbEntity
  8
10
  6
Continuous
100
AcDbLine
 10
-69.0
 20
-29.49999999999994
 30
0.0
 11
-81.5
 21
-29.49999999999994
 31
0.0
  0
LINE
  5
236BB
330
A
100
AcDbEntity
  8
10
  6
Continuous
100
AcDbLine
 10
-67.5
 20
-29.49999999999994
 30
0.0
 11
-69.0
 21
-29.49999999999994
 31
0.0
  0
LINE
  5
236BC
330
A
100
AcDbEntity
  8
10
  6
Continuous
100
AcDbLine
 10
-79.0
 20
-30.99999999999949
 30
0.0
 11
-79.0
 21
-29.49999999999994
 31
0.0
  0
LINE
  5
236BD
330
A
100
AcDbEntity
  8
10
  6
Continuous
100
AcDbLine
 10
-81.5
 20
-29.49999999999994
 30
0.0
 11
-81.5
 21
-30.99999999999949
 31
0.0
  0
LINE
  5
236BE
330
A
100
AcDbEntity
  8
10
  6
Continuous
100
AcDbLine
 10
-65.5
 20
-29.49999999999994
 30
0.0
 11
-65.5
 21
-30.99999999999949
 31
0.0
  0
LINE
  5
236BF
330
A
100
AcDbEntity
  8
10
  6
Continuous
100
AcDbLine
 10
-65.5
 20
-29.49999999999994
 30
0.0
 11
-52.5
 21
-29.49999999999994
 31
0.0
  0
LINE
  5
236C0
330
A
100
AcDbEntity
  8
10
  6
Continuous
100
AcDbLine
 10
-52.5
 20
-30.99999999999949
 30
0.0
 11
-52.5
 21
-29.49999999999994
 31
0.0
  0
LINE
  5
236C1
330
A
100
AcDbEntity
  8
10
  6
Continuous
100
AcDbLine
 10
-81.5
 20
-36.49999999999977
 30
0.0
 11
-81.5
 21
-30.99999999999949
 31
0.0
  0
LINE
  5
236C2
330
A
100
AcDbEntity
  8
10
  6
Continuous
100
AcDbLine
 10
-69.0
 20
-30.99999999999949
 30
0.0
 11
-81.5
 21
-30.99999999999949
 31
0.0
  0
LINE
  5
236C3
330
A
100
AcDbEntity
  8
10
  6
Continuous
100
AcDbLine
 10
-67.5
 20
-30.99999999999949
 30
0.0
 11
-69.0
 21
-30.99999999999949
 31
0.0
  0
LINE
  5
236C4
330
A
100
AcDbEntity
  8
10
  6
Continuous
100
AcDbLine
 10
-65.5
 20
-30.99999999999949
 30
0.0
 11
-52.5
 21
-30.99999999999949
 31
0.0
  0
LINE
  5
236C5
330
A
100
AcDbEntity
  8
10
  6
Continuous
100
AcDbLine
 10
-50.5
 20
-35.19999999999976
 30
0.0
 11
-50.5
 21
-31.49999999999995
 31
0.0
  0
LINE
  5
236C6
330
A
100
AcDbEntity
  8
10
  6
Continuous
100
AcDbLine
 10
-50.5
 20
-31.49999999999995
 30
0.0
 11
-35.5
 21
-31.49999999999995
 31
0.0
  0
LINE
  5
236C7
330
A
100
AcDbEntity
  8
10
  6
Continuous
100
AcDbLine
 10
-50.0
 20
-35.19999999999976
 30
0.0
 11
-50.0
 21
-36.19999999999976
 31
0.0
  0
LINE
  5
236C8
330
A
100
AcDbEntity
  8
10
  6
Continuous
100
AcDbLine
 10
-50.0
 20
-35.19999999999976
 30
0.0
 11
-50.5
 21
-35.19999999999976
 31
0.0
  0
LINE
  5
236C9
330
A
100
AcDbEntity
  8
10
  6
Continuous
100
AcDbLine
 10
-46.5
 20
-35.40000000000004
 30
0.0
 11
-48.0
 21
-35.40000000000004
 31
0.0
  0
LINE
  5
236CA
330
A
100
AcDbEntity
  8
10
  6
Continuous
100
AcDbLine
 10
-46.5
 20
-36.19999999999976
 30
0.0
 11
-46.5
 21
-35.40000000000004
 31
0.0
  0
LINE
  5
236CB
330
A
100
AcDbEntity
  8
10
  6
Continuous
100
AcDbLine
 10
-48.0
 20
-36.19999999999976
 30
0.0
 11
-48.0
 21
-35.40000000000004
 31
0.0
  0
LINE
  5
236CC
330
A
100
AcDbEntity
  8
10
  6
Continuous
100
AcDbLine
 10
-48.0
 20
-36.19999999999976
 30
0.0
 11
-50.0
 21
-36.19999999999976
 31
0.0
  0
LINE
  5
236CD
330
A
100
AcDbEntity
  8
10
  6
Continuous
100
AcDbLine
 10
-46.5
 20
-37.49999999999977
 30
0.0
 11
-69.0
 21
-37.49999999999977
 31
0.0
  0
LINE
  5
236CE
330
A
100
AcDbEntity
  8
10
  6
Continuous
100
AcDbLine
 10
-69.0
 20
-37.49999999999977
 30
0.0
 11
-80.5
 21
-37.49999999999977
 31
0.0
  0
LINE
  5
236CF
330
A
100
AcDbEntity
  8
10
  6
Continuous
100
AcDbLine
 10
106.0
 20
-35.19999999999976
 30
0.0
 11
52.20000000000005
 21
-35.19999999999976
 31
0.0
  0
LINE
  5
236D0
330
A
100
AcDbEntity
  8
10
  6
Continuous
100
AcDbLine
 10
-106.0
 20
-37.49999999999977
 30
0.0
 11
-80.49706250000006
 21
-37.49999999999977
 31
0.0
  0
LINE
  5
236D1
330
A
100
AcDbEntity
  8
10
  6
Continuous
100
AcDbLine
 10
46.498875
 20
-37.49999999999977
 30
0.0
 11
106.0
 21
-37.49999999999977
 31
0.0
  0
LINE
  5
236D2
330
A
100
AcDbEntity
  8
10
  6
Continuous
100
AcDbLine
 10
52.20000000000005
 20
-35.19999999999976
 30
0.0
 11
49.99856499999987
 21
-35.19999999999976
 31
0.0
  0
LINE
  5
236D3
330
A
100
AcDbEntity
  8
10
  6
Continuous
100
AcDbLine
 10
-81.4993750000001
 20
-35.19999999999976
 30
0.0
 11
-106.0
 21
-35.19999999999976
 31
0.0
  0
LINE
  5
236D4
330
A
100
AcDbEntity
  8
10
  6
Continuous
100
AcDbLine
 10
52.6999999999998
 20
-34.69999999999976
 30
0.0
 11
52.6999999999998
 21
-33.48660749999948
 31
0.0
  0
LINE
  5
236D5
330
A
100
AcDbEntity
  8
10
  6
Continuous
100
AcDbLine
 10
52.0
 20
-32.99999999999994
 30
0.0
 11
50.0
 21
-32.99999999999994
 31
0.0
  0
LINE
  5
236D6
330
A
100
AcDbEntity
  8
10
  6
Continuous
100
AcDbLine
 10
-50.00040749999993
 20
-32.99999999999994
 30
0.0
 11
-50.50018
 21
-32.99999999999994
 31
0.0
  0
LINE
  5
236D7
330
A
100
AcDbEntity
  8
10
  6
Continuous
100
AcDbLine
 10
110.0
 20
-31.19999999999976
 30
0.0
 11
110.0
 21
-33.49999999999977
 31
0.0
  0
LINE
  5
236D8
330
A
100
AcDbEntity
  8
10
  6
Continuous
100
AcDbLine
 10
-110.0
 20
-33.49999999999977
 30
0.0
 11
-110.0
 21
-31.19999999999976
 31
0.0
  0
LINE
  5
236D9
330
A
100
AcDbEntity
  8
10
  6
Continuous
100
AcDbLine
 10
110.0
 20
-20.99999999999949
 30
0.0
 11
96.5
 21
-20.99999999999949
 31
0.0
  0
LINE
  5
236DA
330
A
100
AcDbEntity
  8
10
  6
Continuous
100
AcDbLine
 10
109.9998475
 20
-21.1748549999997
 30
0.0
 11
109.0
 21
-22.17470249999946
 31
0.0
  0
LINE
  5
236DB
330
A
100
AcDbEntity
  8
10
  6
Continuous
100
AcDbLine
 10
110.0
 20
-21.17454999999967
 30
0.0
 11
110.0
 21
-31.19999999999976
 31
0.0
  0
LINE
  5
236DC
330
A
100
AcDbEntity
  8
10
  6
Continuous
100
AcDbLine
 10
110.0
 20
-20.99999999999949
 30
0.0
 11
110.0
 21
-21.17454999999967
 31
0.0
  0
LINE
  5
236DD
330
A
100
AcDbEntity
  8
10
  6
Continuous
100
AcDbLine
 10
100.58114
 20
-17.24999999999949
 30
0.0
 11
95.41885999999999
 21
-17.24999999999949
 31
0.0
  0
LINE
  5
236DE
330
A
100
AcDbEntity
  8
10
  6
Continuous
100
AcDbLine
 10
100.58114
 20
-12.74999999999994
 30
0.0
 11
95.41885999999999
 21
-12.74999999999994
 31
0.0
  0
LINE
  5
236DF
330
A
100
AcDbEntity
  8
10
  6
Continuous
100
AcDbLine
 10
-76.5
 20
-30.99990500000008
 30
0.0
 11
-76.5
 21
-29.49982749999975
 31
0.0
  0
LINE
  5
236E0
330
A
100
AcDbEntity
  8
10
  6
Continuous
100
AcDbLine
 10
-76.5
 20
-27.49985999999984
 30
0.0
 11
-76.5
 21
-25.99998499999987
 31
0.0
  0
LINE
  5
236E1
330
A
100
AcDbEntity
  8
10
  6
Continuous
100
AcDbLine
 10
-76.5
 20
-24.00001499999957
 30
0.0
 11
-76.5
 21
-22.50013999999959
 31
0.0
  0
LINE
  5
236E2
330
A
100
AcDbEntity
  8
10
  6
Continuous
100
AcDbLine
 10
-76.5
 20
-20.50017250000014
 30
0.0
 11
-76.5
 21
-19.00009249999988
 31
0.0
  0
LINE
  5
236E3
330
A
100
AcDbEntity
  8
10
  6
Continuous
100
AcDbLine
 10
-35.50022749999994
 20
-18.49999999999949
 30
0.0
 11
-34.00045999999998
 21
-18.49999999999949
 31
0.0
  0
LINE
  5
236E4
330
A
100
AcDbEntity
  8
10
  6
Continuous
100
AcDbLine
 10
-35.50022749999994
 20
-31.49999999999995
 30
0.0
 11
-34.00045999999998
 21
-31.49999999999995
 31
0.0
  0
LINE
  5
236E5
330
A
100
AcDbEntity
  8
10
  6
Continuous
100
AcDbLine
 10
-50.49877249999986
 20
32.70000000000033
 30
0.0
 11
-49.99811250000015
 21
32.70000000000033
 31
0.0
  0
LINE
  5
236E6
330
A
100
AcDbEntity
  8
10
  6
Continuous
100
AcDbLine
 10
49.99833250000006
 20
32.70000000000033
 30
0.0
 11
52.6999999999998
 21
32.70000000000033
 31
0.0
  0
LINE
  5
236E7
330
A
100
AcDbEntity
  8
10
  6
Continuous
100
AcDbLine
 10
52.20000000000005
 20
32.20000000000033
 30
0.0
 11
52.6999999999998
 21
32.70000000000033
 31
0.0
  0
LINE
  5
236E8
330
A
100
AcDbEntity
  8
10
  6
Continuous
100
AcDbLine
 10
52.6999999999998
 20
32.70000000000033
 30
0.0
 11
52.6999999999998
 21
-32.69999999999976
 31
0.0
  0
LINE
  5
236E9
330
A
100
AcDbEntity
  8
10
  6
Continuous
100
AcDbLine
 10
-69.5
 20
31.00000000000006
 30
0.0
 11
-69.5
 21
30.5000125000002
 31
0.0
  0
LINE
  5
236EA
330
A
100
AcDbEntity
  8
10
  6
Continuous
100
AcDbLine
 10
-71.5
 20
31.00000000000006
 30
0.0
 11
-71.5
 21
30.49993750000027
 31
0.0
  0
LINE
  5
236EB
330
A
100
AcDbEntity
  8
10
  6
Continuous
100
AcDbLine
 10
-50.49870499999997
 20
16.19999999999986
 30
0.0
 11
-49.99890750000009
 21
16.19999999999986
 31
0.0
  0
LINE
  5
236EC
330
A
100
AcDbEntity
  8
10
  6
Continuous
100
AcDbLine
 10
-49.99890750000009
 20
8.800000000000238
 30
0.0
 11
-50.49870499999997
 21
8.800000000000238
 31
0.0
  0
LINE
  5
236ED
330
A
100
AcDbEntity
  8
10
  6
Continuous
100
AcDbLine
 10
-50.50026750000006
 20
-8.800000000000125
 30
0.0
 11
-50.0001850000001
 21
-8.800000000000125
 31
0.0
  0
LINE
  5
236EE
330
A
100
AcDbEntity
  8
10
  6
Continuous
100
AcDbLine
 10
-50.50026750000006
 20
-16.19999999999976
 30
0.0
 11
-50.0001850000001
 21
-16.19999999999976
 31
0.0
  0
LINE
  5
236EF
330
A
100
AcDbEntity
  8
10
  6
Continuous
100
AcDbLine
 10
52.6999999999998
 20
-32.69999999999976
 30
0.0
 11
49.99833250000006
 21
-32.69999999999976
 31
0.0
  0
LINE
  5
236F0
330
A
100
AcDbEntity
  8
10
  6
Continuous
100
AcDbLine
 10
-49.99811250000015
 20
-32.69999999999976
 30
0.0
 11
-50.49877249999986
 21
-32.69999999999976
 31
0.0
  0
LINE
  5
236F1
330
A
100
AcDbEntity
  8
10
  6
Continuous
100
AcDbLine
 10
52.20000000000005
 20
-32.19999999999976
 30
0.0
 11
52.6999999999998
 21
-32.69999999999976
 31
0.0
  0
LINE
  5
236F2
330
A
100
AcDbEntity
  8
10
  6
Continuous
100
AcDbLine
 10
-106.0
 20
37.50000000000034
 30
0.0
 11
-80.49706250000006
 21
37.50000000000034
 31
0.0
  0
LINE
  5
236F3
330
A
100
AcDbEntity
  8
10
  6
Continuous
100
AcDbLine
 10
46.498875
 20
37.50000000000034
 30
0.0
 11
106.0
 21
37.50000000000034
 31
0.0
  0
LINE
  5
236F4
330
A
100
AcDbEntity
  8
10
  6
Continuous
100
AcDbLine
 10
52.20000000000005
 20
35.20000000000033
 30
0.0
 11
106.0
 21
35.20000000000033
 31
0.0
  0
LINE
  5
236F5
330
A
100
AcDbEntity
  8
10
  6
Continuous
100
AcDbLine
 10
-106.0
 20
35.20000000000033
 30
0.0
 11
-81.4993750000001
 21
35.20000000000033
 31
0.0
  0
LINE
  5
236F6
330
A
100
AcDbEntity
  8
10
  6
Continuous
100
AcDbLine
 10
52.20000000000005
 20
35.20000000000033
 30
0.0
 11
49.99856499999987
 21
35.20000000000033
 31
0.0
  0
LINE
  5
236F7
330
A
100
AcDbEntity
  8
10
  6
Continuous
100
AcDbLine
 10
52.6999999999998
 20
33.48660750000006
 30
0.0
 11
52.6999999999998
 21
34.70000000000033
 31
0.0
  0
LINE
  5
236F8
330
A
100
AcDbEntity
  8
10
  6
Continuous
100
AcDbLine
 10
-110.0
 20
31.20000000000033
 30
0.0
 11
-110.0
 21
33.50000000000034
 31
0.0
  0
LINE
  5
236F9
330
A
100
AcDbEntity
  8
10
  6
Continuous
100
AcDbLine
 10
110.0
 20
33.50000000000034
 30
0.0
 11
110.0
 21
31.20000000000033
 31
0.0
  0
LINE
  5
236FA
330
A
100
AcDbEntity
  8
10
  6
Continuous
100
AcDbLine
 10
-50.00040749999993
 20
33.00000000000006
 30
0.0
 11
-50.50018
 21
33.00000000000006
 31
0.0
  0
LINE
  5
236FB
330
A
100
AcDbEntity
  8
10
  6
Continuous
100
AcDbLine
 10
52.0
 20
33.00000000000006
 30
0.0
 11
50.0
 21
33.00000000000006
 31
0.0
  0
LINE
  5
236FC
330
A
100
AcDbEntity
  8
10
  6
Continuous
100
AcDbLine
 10
53.0
 20
-31.99999999999994
 30
0.0
 11
53.0
 21
32.00000000000006
 31
0.0
  0
LINE
  5
236FD
330
A
100
AcDbEntity
  8
10
  6
Continuous
100
AcDbLine
 10
-110.0
 20
21.17455000000024
 30
0.0
 11
-110.0
 21
31.20000000000033
 31
0.0
  0
LINE
  5
236FE
330
A
100
AcDbEntity
  8
10
  6
Continuous
100
AcDbLine
 10
110.0
 20
31.20000000000033
 30
0.0
 11
110.0
 21
-8.825449999999761
 31
0.0
  0
LINE
  5
236FF
330
A
100
AcDbEntity
  8
10
  6
Continuous
100
AcDbLine
 10
52.69935999999984
 20
30.00000000000006
 30
0.0
 11
53.0
 21
30.00000000000006
 31
0.0
  0
LINE
  5
23700
330
A
100
AcDbEntity
  8
10
  6
Continuous
100
AcDbLine
 10
84.0
 20
20.50000000000006
 30
0.0
 11
84.0
 21
29.50000000000006
 31
0.0
  0
LINE
  5
23701
330
A
100
AcDbEntity
  8
10
  6
Continuous
100
AcDbLine
 10
84.0
 20
29.50000000000006
 30
0.0
 11
87.0
 21
26.50000000000051
 31
0.0
  0
LINE
  5
23702
330
A
100
AcDbEntity
  8
10
  6
Continuous
100
AcDbLine
 10
84.0
 20
29.50000000000006
 30
0.0
 11
94.0
 21
29.50000000000006
 31
0.0
  0
LINE
  5
23703
330
A
100
AcDbEntity
  8
10
  6
Continuous
100
AcDbLine
 10
94.0
 20
29.50000000000006
 30
0.0
 11
91.0
 21
26.50000000000051
 31
0.0
  0
LINE
  5
23704
330
A
100
AcDbEntity
  8
10
  6
Continuous
100
AcDbLine
 10
94.0
 20
29.50000000000006
 30
0.0
 11
94.0
 21
20.50000000000006
 31
0.0
  0
LINE
  5
23705
330
A
100
AcDbEntity
  8
10
  6
Continuous
100
AcDbLine
 10
95.55051000000004
 20
27.50000000000006
 30
0.0
 11
100.4494899999999
 21
27.50000000000006
 31
0.0
  0
LINE
  5
23706
330
A
100
AcDbEntity
  8
10
  6
Continuous
100
AcDbLine
 10
91.0
 20
26.50000000000051
 30
0.0
 11
87.0
 21
26.50000000000051
 31
0.0
  0
LINE
  5
23707
330
A
100
AcDbEntity
  8
10
  6
Continuous
100
AcDbLine
 10
91.0
 20
23.50000000000006
 30
0.0
 11
91.0
 21
26.50000000000051
 31
0.0
  0
LINE
  5
23708
330
A
100
AcDbEntity
  8
10
  6
Continuous
100
AcDbLine
 10
87.0
 20
26.50000000000051
 30
0.0
 11
87.0
 21
23.50000000000006
 31
0.0
  0
LINE
  5
23709
330
A
100
AcDbEntity
  8
10
  6
Continuous
100
AcDbLine
 10
87.0
 20
23.50000000000006
 30
0.0
 11
91.0
 21
23.50000000000006
 31
0.0
  0
LINE
  5
2370A
330
A
100
AcDbEntity
  8
10
  6
Continuous
100
AcDbLine
 10
91.0
 20
23.50000000000006
 30
0.0
 11
94.0
 21
20.50000000000006
 31
0.0
  0
LINE
  5
2370B
330
A
100
AcDbEntity
  8
10
  6
Continuous
100
AcDbLine
 10
87.0
 20
23.50000000000006
 30
0.0
 11
84.0
 21
20.50000000000006
 31
0.0
  0
LINE
  5
2370C
330
A
100
AcDbEntity
  8
10
  6
Continuous
100
AcDbLine
 10
94.0
 20
20.50000000000006
 30
0.0
 11
84.0
 21
20.50000000000006
 31
0.0
  0
LINE
  5
2370D
330
A
100
AcDbEntity
  8
10
  6
Continuous
100
AcDbLine
 10
-109.9998475
 20
21.17485500000026
 30
0.0
 11
-109.0
 21
22.17470250000002
 31
0.0
  0
LINE
  5
2370E
330
A
100
AcDbEntity
  8
10
  6
Continuous
100
AcDbLine
 10
-110.0
 20
21.00000000000006
 30
0.0
 11
-110.0
 21
21.17455000000024
 31
0.0
  0
LINE
  5
2370F
330
A
100
AcDbEntity
  8
10
  6
Continuous
100
AcDbLine
 10
-110.0
 20
21.00000000000006
 30
0.0
 11
-96.5
 21
21.00000000000006
 31
0.0
  0
LINE
  5
23710
330
A
100
AcDbEntity
  8
10
  6
Continuous
100
AcDbLine
 10
-110.0
 20
9.000000000000511
 30
0.0
 11
-110.0
 21
21.00000000000006
 31
0.0
  0
LINE
  5
23711
330
A
100
AcDbEntity
  8
10
  6
Continuous
100
AcDbLine
 10
53.0
 20
20.00000000000006
 30
0.0
 11
52.69935999999984
 21
20.00000000000006
 31
0.0
  0
LINE
  5
23712
330
A
100
AcDbEntity
  8
10
  6
Continuous
100
AcDbLine
 10
-95.41885999999999
 20
17.25000000000006
 30
0.0
 11
-100.58114
 21
17.25000000000006
 31
0.0
  0
LINE
  5
23713
330
A
100
AcDbEntity
  8
10
  6
Continuous
100
AcDbLine
 10
43.5
 20
13.49498750000026
 30
0.0
 11
43.5
 21
14.43712499999998
 31
0.0
  0
LINE
  5
23714
330
A
100
AcDbEntity
  8
10
  6
Continuous
100
AcDbLine
 10
40.49999999999999
 20
13.49498750000026
 30
0.0
 11
40.49999999999999
 21
14.43712499999998
 31
0.0
  0
LINE
  5
23715
330
A
100
AcDbEntity
  8
10
  6
Continuous
100
AcDbLine
 10
-95.41885999999999
 20
12.75000000000051
 30
0.0
 11
-100.58114
 21
12.75000000000051
 31
0.0
  0
LINE
  5
23716
330
A
100
AcDbEntity
  8
10
  6
Continuous
100
AcDbLine
 10
40.49999999999999
 20
10.56287750000007
 30
0.0
 11
40.49999999999999
 21
11.5050125000003
 31
0.0
  0
LINE
  5
23717
330
A
100
AcDbEntity
  8
10
  6
Continuous
100
AcDbLine
 10
43.5
 20
10.56287750000007
 30
0.0
 11
43.5
 21
11.5050125000003
 31
0.0
  0
LINE
  5
23718
330
A
100
AcDbEntity
  8
10
  6
Continuous
100
AcDbLine
 10
46.50699499999994
 20
11.00000000000005
 30
0.0
 11
46.50001250000014
 21
11.00000000000005
 31
0.0
  0
LINE
  5
23719
330
A
100
AcDbEntity
  8
10
  6
Continuous
100
AcDbLine
 10
-96.5
 20
9.000000000000511
 30
0.0
 11
-110.0
 21
9.000000000000511
 31
0.0
  0
LINE
  5
2371A
330
A
100
AcDbEntity
  8
10
  6
Continuous
100
AcDbLine
 10
-110.0
 20
9.000000000000511
 30
0.0
 11
-110.0
 21
8.82545000000033
 31
0.0
  0
LINE
  5
2371B
330
A
100
AcDbEntity
  8
10
  6
Continuous
100
AcDbLine
 10
-110.0
 20
-31.19999999999976
 30
0.0
 11
-110.0
 21
8.82545000000033
 31
0.0
  0
LINE
  5
2371C
330
A
100
AcDbEntity
  8
10
  6
Continuous
100
AcDbLine
 10
-109.9998475
 20
8.825145000000304
 30
0.0
 11
-109.0
 21
7.825297500000544
 31
0.0
  0
LINE
  5
2371D
330
A
100
AcDbEntity
  8
10
  6
Continuous
100
AcDbLine
 10
109.9998475
 20
-8.825144999999736
 30
0.0
 11
109.0
 21
-7.825297499999976
 31
0.0
  0
LINE
  5
2371E
330
A
100
AcDbEntity
  8
10
  6
Continuous
100
AcDbLine
 10
110.0
 20
-8.999999999999943
 30
0.0
 11
110.0
 21
-8.825449999999761
 31
0.0
  0
LINE
  5
2371F
330
A
100
AcDbEntity
  8
10
  6
Continuous
100
AcDbLine
 10
96.5
 20
-8.999999999999943
 30
0.0
 11
110.0
 21
-8.999999999999943
 31
0.0
  0
LINE
  5
23720
330
A
100
AcDbEntity
  8
10
  6
Continuous
100
AcDbLine
 10
110.0
 20
-8.999999999999943
 30
0.0
 11
110.0
 21
-20.99999999999949
 31
0.0
  0
LINE
  5
23721
330
A
100
AcDbEntity
  8
10
  6
Continuous
100
AcDbLine
 10
38.09999999999991
 20
37.50000000000034
 30
0.0
 11
-38.10000000000014
 21
37.50000000000034
 31
0.0
  0
LINE
  5
23722
330
A
100
AcDbEntity
  8
10
  6
Continuous
100
AcDbLine
 10
25.0
 20
11.00000000000005
 30
0.0
 11
-25.0
 21
11.00000000000005
 31
0.0
  0
LINE
  5
23723
330
A
100
AcDbEntity
  8
10
  6
Continuous
100
AcDbLine
 10
-7.5
 20
6.000000000000056
 30
0.0
 11
-14.38356249999992
 21
6.000000000000056
 31
0.0
  0
CIRCLE
  5
237AB
330
A
100
AcDbEntity
  8
10
  6
Continuous
100
AcDbCircle
 10
-14.0
 20
33.00000000000006
 30
0.0
 40
2.0
210
0.0
220
0.0
230
-1.0
  0
CIRCLE
  5
237AC
330
A
100
AcDbEntity
  8
10
  6
Continuous
100
AcDbCircle
 10
-14.0
 20
33.00000000000006
 30
0.0
 40
1.5
210
0.0
220
0.0
230
-1.0
  0
CIRCLE
  5
237AD
330
A
100
AcDbEntity
  8
10
  6
Continuous
100
AcDbCircle
 10
-42.0
 20
25.00000000000006
 30
0.0
 40
3.0
210
0.0
220
0.0
230
-1.0
  0
ARC
  5
237AE
330
A
100
AcDbEntity
  8
10
  6
Continuous
100
AcDbCircle
 10
-42.0
 20
12.50000000000005
 30
0.0
 40
3.9
100
AcDbArc
 50
194.8571659999912
 51
0.0
  0
ARC
  5
237AF
330
A
100
AcDbEntity
  8
10
  6
Continuous
100
AcDbCircle
 10
-42.0
 20
12.50000000000005
 30
0.0
 40
3.9
100
AcDbArc
 50
0.0
 51
129.7151369999994
  0
ARC
  5
237B0
330
A
100
AcDbEntity
  8
10
  6
Continuous
100
AcDbCircle
 10
-42.0
 20
12.50000000000005
 30
0.0
 40
3.9
210
0.0
220
0.0
230
-1.0
100
AcDbArc
 50
230.2848630000005
 51
0.0
  0
ARC
  5
237B1
330
A
100
AcDbEntity
  8
10
  6
Continuous
100
AcDbCircle
 10
-42.0
 20
12.50000000000005
 30
0.0
 40
3.9
210
0.0
220
0.0
230
-1.0
100
AcDbArc
 50
0.0
 51
165.1428340000087
  0
CIRCLE
  5
237B2
330
A
100
AcDbEntity
  8
10
  6
Continuous
100
AcDbCircle
 10
-42.0
 20
12.50000000000005
 30
0.0
 40
2.45
210
0.0
220
0.0
230
-1.0
  0
CIRCLE
  5
237B3
330
A
100
AcDbEntity
  8
10
  6
Continuous
100
AcDbCircle
 10
-42.0
 20
0.0000000000000568
 30
0.0
 40
3.0
210
0.0
220
0.0
230
-1.0
  0
ARC
  5
237B4
330
A
100
AcDbEntity
  8
10
  6
Continuous
100
AcDbCircle
 10
-42.0
 20
-12.49999999999994
 30
0.0
 40
3.9
100
AcDbArc
 50
194.8571659999912
 51
0.0
  0
ARC
  5
237B5
330
A
100
AcDbEntity
  8
10
  6
Continuous
100
AcDbCircle
 10
-42.0
 20
-12.49999999999994
 30
0.0
 40
3.9
100
AcDbArc
 50
0.0
 51
129.7151369999994
  0
ARC
  5
237B6
330
A
100
AcDbEntity
  8
10
  6
Continuous
100
AcDbCircle
 10
-42.0
 20
-12.49999999999994
 30
0.0
 40
3.9
210
0.0
220
0.0
230
-1.0
100
AcDbArc
 50
230.2848630000005
 51
0.0
  0
ARC
  5
237B7
330
A
100
AcDbEntity
  8
10
  6
Continuous
100
AcDbCircle
 10
-42.0
 20
-12.49999999999994
 30
0.0
 40
3.9
210
0.0
220
0.0
230
-1.0
100
AcDbArc
 50
0.0
 51
165.1428340000087
  0
CIRCLE
  5
237B8
330
A
100
AcDbEntity
  8
10
  6
Continuous
100
AcDbCircle
 10
42.0
 20
-12.49999999999994
 30
0.0
 40
2.45
210
0.0
220
0.0
230
-1.0
  0
CIRCLE
  5
237B9
330
A
100
AcDbEntity
  8
10
  6
Continuous
100
AcDbCircle
 10
-42.0
 20
-24.99999999999995
 30
0.0
 40
3.0
210
0.0
220
0.0
230
-1.0
  0
ARC
  5
237BA
330
A
100
AcDbEntity
  8
10
  6
Continuous
100
AcDbCircle
 10
80.5
 20
36.50000000000034
 30
0.0
 40
1.0
210
0.0
220
0.0
230
-1.0
100
AcDbArc
 50
0.0
 51
90.0
  0
ARC
  5
237BB
330
A
100
AcDbEntity
  8
10
  6
Continuous
100
AcDbCircle
 10
-35.5
 20
30.50000000000006
 30
0.0
 40
1.0
100
AcDbArc
 50
0.0
 51
90.0
  0
CIRCLE
  5
237BC
330
A
100
AcDbEntity
  8
10
  6
Continuous
100
AcDbCircle
 10
-39.5
 20
25.00000000000006
 30
0.0
 40
1.5
  0
ARC
  5
237BD
330
A
100
AcDbEntity
  8
10
  6
Continuous
100
AcDbCircle
 10
-35.5
 20
19.50000000000006
 30
0.0
 40
1.0
100
AcDbArc
 50
270.0
 51
0.0
  0
ARC
  5
237BE
330
A
100
AcDbEntity
  8
10
  6
Continuous
100
AcDbCircle
 10
-35.5
 20
5.500000000000056
 30
0.0
 40
1.0
100
AcDbArc
 50
0.0
 51
90.0
  0
CIRCLE
  5
237BF
330
A
100
AcDbEntity
  8
10
  6
Continuous
100
AcDbCircle
 10
-39.5
 20
0.0000000000000568
 30
0.0
 40
1.5
  0
ARC
  5
237C0
330
A
100
AcDbEntity
  8
10
  6
Continuous
100
AcDbCircle
 10
-35.5
 20
-5.499999999999943
 30
0.0
 40
1.0
100
AcDbArc
 50
270.0
 51
0.0
  0
ARC
  5
237C1
330
A
100
AcDbEntity
  8
10
  6
Continuous
100
AcDbCircle
 10
-35.5
 20
-19.49999999999994
 30
0.0
 40
1.0
100
AcDbArc
 50
0.0
 51
90.0
  0
CIRCLE
  5
237C2
330
A
100
AcDbEntity
  8
10
  6
Continuous
100
AcDbCircle
 10
-39.5
 20
-24.99999999999995
 30
0.0
 40
1.5
  0
ARC
  5
237C3
330
A
100
AcDbEntity
  8
10
  6
Continuous
100
AcDbCircle
 10
-35.5
 20
-30.49999999999994
 30
0.0
 40
1.0
100
AcDbArc
 50
270.0
 51
0.0
  0
ARC
  5
237C4
330
A
100
AcDbEntity
  8
10
  6
Continuous
100
AcDbCircle
 10
-80.5
 20
-36.49999999999977
 30
0.0
 40
1.0
100
AcDbArc
 50
180.0
 51
270.0
  0
ARC
  5
237C5
330
A
100
AcDbEntity
  8
10
  6
Continuous
100
AcDbCircle
 10
-106.0
 20
-33.49999999999977
 30
0.0
 40
4.0
210
0.0
220
0.0
230
-1.0
100
AcDbArc
 50
180.0
 51
270.0
  0
ARC
  5
237C6
330
A
100
AcDbEntity
  8
10
  6
Continuous
100
AcDbCircle
 10
52.20000000000005
 20
-34.69999999999976
 30
0.0
 40
0.5
100
AcDbArc
 50
270.0
 51
0.0
  0
ARC
  5
237C7
330
A
100
AcDbEntity
  8
10
  6
Continuous
100
AcDbCircle
 10
52.20000000000005
 20
-33.48660749999948
 30
0.0
 40
0.5
100
AcDbArc
 50
0.0
 51
97.66225600000312
  0
ARC
  5
237C8
330
A
100
AcDbEntity
  8
10
  6
Continuous
100
AcDbCircle
 10
106.0
 20
-33.49999999999977
 30
0.0
 40
4.0
210
0.0
220
0.0
230
-1.0
100
AcDbArc
 50
270.0
 51
0.0
  0
ARC
  5
237C9
330
A
100
AcDbEntity
  8
10
  6
Continuous
100
AcDbCircle
 10
-52.0
 20
-31.99999999999994
 30
0.0
 40
1.0
210
0.0
220
0.0
230
-1.0
100
AcDbArc
 50
262.3377439999968
 51
270.0
  0
ARC
  5
237CA
330
A
100
AcDbEntity
  8
10
  6
Continuous
100
AcDbCircle
 10
-52.0
 20
-31.99999999999994
 30
0.0
 40
1.0
210
0.0
220
0.0
230
-1.0
100
AcDbArc
 50
180.0
 51
262.3377439999968
  0
ARC
  5
237CB
330
A
100
AcDbEntity
  8
10
  6
Continuous
100
AcDbCircle
 10
106.0
 20
-31.19999999999976
 30
0.0
 40
4.0
210
0.0
220
0.0
230
-1.0
100
AcDbArc
 50
270.0
 51
0.0
  0
ARC
  5
237CC
330
A
100
AcDbEntity
  8
10
  6
Continuous
100
AcDbCircle
 10
-106.0
 20
-31.19999999999976
 30
0.0
 40
4.0
210
0.0
220
0.0
230
-1.0
100
AcDbArc
 50
180.0
 51
270.0
  0
CIRCLE
  5
237CD
330
A
100
AcDbEntity
  8
10
  6
Continuous
100
AcDbCircle
 10
-98.0
 20
-29.99999999999995
 30
0.0
 40
3.5
  0
ARC
  5
237CE
330
A
100
AcDbEntity
  8
10
  6
Continuous
100
AcDbCircle
 10
-52.0
 20
-14.99999999999994
 30
0.0
 40
1.0
210
0.0
220
0.0
230
-1.0
100
AcDbArc
 50
134.4276529999949
 51
180.0
  0
ARC
  5
237CF
330
A
100
AcDbEntity
  8
10
  6
Continuous
100
AcDbCircle
 10
97.0
 20
-14.99999999999994
 30
0.0
 40
2.75
100
AcDbArc
 50
125.0968010000002
 51
234.9031989999998
  0
ARC
  5
237D0
330
A
100
AcDbEntity
  8
10
  6
Continuous
100
AcDbCircle
 10
99.0
 20
-14.99999999999994
 30
0.0
 40
2.75
100
AcDbArc
 50
305.0968010000002
 51
54.90319899999976
  0
ARC
  5
237D1
330
A
100
AcDbEntity
  8
10
  6
Continuous
100
AcDbCircle
 10
68.5
 20
30.00000000000006
 30
0.0
 40
1.0
210
0.0
220
0.0
230
-1.0
100
AcDbArc
 50
30.00100599999732
 51
90.0
  0
ARC
  5
237D2
330
A
100
AcDbEntity
  8
10
  6
Continuous
100
AcDbCircle
 10
42.0
 20
12.50000000000005
 30
0.0
 40
4.75
100
AcDbArc
 50
341.3250140000053
 51
12.15002300000138
  0
ARC
  5
237D3
330
A
100
AcDbEntity
  8
10
  6
Continuous
100
AcDbCircle
 10
-42.0
 20
-12.49999999999994
 30
0.0
 40
4.75
100
AcDbArc
 50
188.4768820000016
 51
192.1556330000053
  0
ARC
  5
237D4
330
A
100
AcDbEntity
  8
10
  6
Continuous
100
AcDbCircle
 10
106.0
 20
33.50000000000034
 30
0.0
 40
4.0
210
0.0
220
0.0
230
-1.0
100
AcDbArc
 50
0.0
 51
90.0
  0
ARC
  5
237D5
330
A
100
AcDbEntity
  8
10
  6
Continuous
100
AcDbCircle
 10
-106.0
 20
33.50000000000034
 30
0.0
 40
4.0
210
0.0
220
0.0
230
-1.0
100
AcDbArc
 50
90.0
 51
180.0
  0
ARC
  5
237D6
330
A
100
AcDbEntity
  8
10
  6
Continuous
100
AcDbCircle
 10
-106.0
 20
31.20000000000033
 30
0.0
 40
4.0
210
0.0
220
0.0
230
-1.0
100
AcDbArc
 50
90.0
 51
180.0
  0
ARC
  5
237D7
330
A
100
AcDbEntity
  8
10
  6
Continuous
100
AcDbCircle
 10
106.0
 20
31.20000000000033
 30
0.0
 40
4.0
210
0.0
220
0.0
230
-1.0
100
AcDbArc
 50
0.0
 51
90.0
  0
ARC
  5
237D8
330
A
100
AcDbEntity
  8
10
  6
Continuous
100
AcDbCircle
 10
98.0
 20
30.00000000000006
 30
0.0
 40
3.5
100
AcDbArc
 50
314.4153090000081
 51
225.5846909999918
  0
ARC
  5
237D9
330
A
100
AcDbEntity
  8
10
  6
Continuous
100
AcDbCircle
 10
52.20000000000005
 20
33.48660750000006
 30
0.0
 40
0.5
100
AcDbArc
 50
262.3377439999968
 51
0.0
  0
ARC
  5
237DA
330
A
100
AcDbEntity
  8
10
  6
Continuous
100
AcDbCircle
 10
-52.0
 20
32.00000000000006
 30
0.0
 40
1.0
210
0.0
220
0.0
230
-1.0
100
AcDbArc
 50
97.66225600000312
 51
180.0
  0
ARC
  5
237DB
330
A
100
AcDbEntity
  8
10
  6
Continuous
100
AcDbCircle
 10
-52.0
 20
32.00000000000006
 30
0.0
 40
1.0
210
0.0
220
0.0
230
-1.0
100
AcDbArc
 50
90.0
 51
97.66225600000312
  0
ARC
  5
237DC
330
A
100
AcDbEntity
  8
10
  6
Continuous
100
AcDbCircle
 10
-96.5
 20
15.00000000000006
 30
0.0
 40
6.0
100
AcDbArc
 50
270.0
 51
90.0
  0
ARC
  5
237DD
330
A
100
AcDbEntity
  8
10
  6
Continuous
100
AcDbCircle
 10
-97.0
 20
15.00000000000006
 30
0.0
 40
2.75
100
AcDbArc
 50
305.0968010000002
 51
54.90319899999976
  0
ARC
  5
237DE
330
A
100
AcDbEntity
  8
10
  6
Continuous
100
AcDbCircle
 10
-99.0
 20
15.00000000000006
 30
0.0
 40
2.75
100
AcDbArc
 50
125.0968010000002
 51
234.9031989999998
  0
ARC
  5
237DF
330
A
100
AcDbEntity
  8
10
  6
Continuous
100
AcDbCircle
 10
-52.0
 20
15.00000000000006
 30
0.0
 40
1.0
210
0.0
220
0.0
230
-1.0
100
AcDbArc
 50
180.0
 51
225.572347000005
  0
CIRCLE
  5
237E0
330
A
100
AcDbEntity
  8
10
  6
Continuous
100
AcDbCircle
 10
42.0
 20
12.50000000000005
 30
0.0
 40
1.799999999999999
  0
ARC
  5
237E1
330
A
100
AcDbEntity
  8
10
  6
Continuous
100
AcDbCircle
 10
-52.0
 20
10.00000000000005
 30
0.0
 40
1.0
210
0.0
220
0.0
230
-1.0
100
AcDbArc
 50
134.4276529999949
 51
180.0
  0
ARC
  5
237E2
330
A
100
AcDbEntity
  8
10
  6
Continuous
100
AcDbCircle
 10
96.5
 20
-14.99999999999994
 30
0.0
 40
6.0
100
AcDbArc
 50
90.0
 51
270.0
  0
ARC
  5
237E3
330
A
100
AcDbEntity
  8
10
  6
Continuous
100
AcDbCircle
 10
-52.0
 20
-9.999999999999943
 30
0.0
 40
1.0
210
0.0
220
0.0
230
-1.0
100
AcDbArc
 50
180.0
 51
225.572347000005
  0
ARC
  5
237E4
330
A
100
AcDbEntity
  8
10
  6
Continuous
100
AcDbCircle
 10
52.20000000000005
 20
34.70000000000033
 30
0.0
 40
0.5
100
AcDbArc
 50
0.0
 51
90.0
  0
ELLIPSE
  5
237F0
330
A
100
AcDbEntity
  8
10
  6
Continuous
100
AcDbEllipse
 10
108.9999175
 20
-21.17454999999967
 30
0.0
 11
1.000082646608899
 21
-0.0000000118772811
 31
0.0
210
0.0
220
0.0
230
-0.9999999999999996
 40
0.017454
 41
6.283185306984312
 42
6.300637878290159
  0
ELLIPSE
  5
237F1
330
A
100
AcDbEntity
  8
10
  6
Continuous
100
AcDbEllipse
 10
-67.63333250000005
 20
30.00000000000006
 30
0.0
 11
0.0000000000000012
 21
-1.000000000001129
 31
0.0
210
0.0
220
0.0
230
-1.0
 40
0.133333
 41
3.141592653589792
 42
4.188773698867156
  0
ELLIPSE
  5
237F2
330
A
100
AcDbEntity
  8
10
  6
Continuous
100
AcDbEllipse
 10
-109.0000099999999
 20
21.17455000000024
 30
0.0
 11
-0.99999116863756
 21
-0.0000000003192854
 31
0.0
210
0.0
220
0.0
230
-1.0
 40
0.017455
 41
0.0
 42
0.0174533695962213
  0
ELLIPSE
  5
237F3
330
A
100
AcDbEntity
  8
10
  6
Continuous
100
AcDbEllipse
 10
-109.0000099999999
 20
8.82545000000033
 30
0.0
 11
0.999991168668364
 21
-0.0000000018124878
 31
0.0
210
0.0
220
0.0
230
-1.0
 40
0.017455
 41
3.124139283967776
 42
3.141592653589792
  0
ELLIPSE
  5
237F4
330
A
100
AcDbEntity
  8
10
  6
Continuous
100
AcDbEllipse
 10
108.9999175
 20
-8.825449999999761
 30
0.0
 11
-1.000082646609357
 21
-0.0000000133706242
 31
0.0
210
0.0
220
0.0
230
-1.0
 40
0.017454
 41
3.124140082505286
 42
3.141592653807873
  0
SPLINE
  5
237F5
330
A
100
AcDbEntity
  8
10
  6
Continuous
100
AcDbSpline
210
0.0000000000003485
220
0.0000000000001892
230
-1.0
 70
     8
 71
     3
 72
     8
 73
     4
 74
     0
 42
0.0000000001
 43
0.0000000001
 40
0.0
 40
0.0
 40
0.0
 40
0.0
 40
1.0
 40
1.0
 40
1.0
 40
1.0
 10
52.70466755150867
 20
-32.03300790624138
 30
0.0000000000000085
 10
52.78533194100099
 20
-32.16619922608601
 30
0.0000000000000082
 10
52.85553043016377
 20
-32.29412853517074
 30
0.0000000000000082
 10
52.91017972112422
 20
-32.41421315075236
 30
0.0000000000000082
  0
SPLINE
  5
237F6
330
A
100
AcDbEntity
  8
10
  6
Continuous
100
AcDbSpline
210
0.0000000000003369
220
-0.0000000000001829
230
-1.0
 70
     8
 71
     3
 72
     8
 73
     4
 74
     0
 42
0.0000000001
 43
0.0000000001
 40
0.0
 40
0.0
 40
0.0
 40
0.0
 40
1.0
 40
1.0
 40
1.0
 40
1.0
 10
52.91017972112422
 20
-14.58578602600613
 30
-0.0000000000000193
 10
52.85554534625226
 20
-14.7058378654487
 30
-0.000000000000019
 10
52.78537026007914
 20
-14.83373011668567
 30
-0.000000000000019
 10
52.70473359927653
 20
-14.96688221116523
 30
-0.000000000000019
  0
SPLINE
  5
237F7
330
A
100
AcDbEntity
  8
10
  6
Continuous
100
AcDbSpline
210
0.0000000000003485
220
-0.0000000000001892
230
-1.0
 70
     8
 71
     3
 72
     8
 73
     4
 74
     0
 42
0.0000000001
 43
0.0000000001
 40
0.0
 40
0.0
 40
0.0
 40
0.0
 40
1.0
 40
1.0
 40
1.0
 40
1.0
 10
52.91017972112422
 20
32.41421397399387
 30
-0.0000000000000163
 10
52.85553043016377
 20
32.29412935841225
 30
-0.0000000000000163
 10
52.78533194100099
 20
32.16620004932753
 30
-0.0000000000000163
 10
52.70466755150867
 20
32.03300872948246
 30
-0.000000000000016
  0
SPLINE
  5
237F8
330
A
100
AcDbEntity
  8
10
  6
Continuous
100
AcDbSpline
210
0.0000000000003485
220
0.0000000000001892
230
-1.0
 70
     8
 71
     3
 72
     8
 73
     4
 74
     0
 42
0.0000000001
 43
0.0000000001
 40
0.0
 40
0.0
 40
0.0
 40
0.0
 40
1.0
 40
1.0
 40
1.0
 40
1.0
 10
52.70466755150867
 20
14.96699209375862
 30
-0.000000000000017
 10
52.78533194100099
 20
14.83380077391399
 30
-0.0000000000000173
 10
52.85553043016377
 20
14.70587146482882
 30
-0.0000000000000173
 10
52.91017972112422
 20
14.58578684924765
 30
-0.0000000000000173
  0
SPLINE
  5
237F9
330
A
100
AcDbEntity
  8
10
  6
Continuous
100
AcDbSpline
210
0.0
220
0.0
230
1.0
 70
     8
 71
     3
 72
     8
 73
     4
 74
     0
 42
0.0000000001
 43
0.0000000001
 40
0.0
 40
0.0
 40
0.0
 40
0.0
 40
1.0
 40
1.0
 40
1.0
 40
1.0
 10
52.91017972112422
 20
10.41421397399386
 30
-0.0000000000000175
 10
52.85554534625226
 20
10.2941621345513
 30
-0.0000000000000175
 10
52.78537026007914
 20
10.16626988331433
 30
-0.0000000000000175
 10
52.70473359927653
 20
10.03311778883523
 30
-0.0000000000000175
  0
SPLINE
  5
237FA
330
A
100
AcDbEntity
  8
10
  6
Continuous
100
AcDbSpline
210
-0.0000000000002244
220
-0.0000000000001218
230
1.0
 70
     8
 71
     3
 72
     8
 73
     4
 74
     0
 42
0.0000000001
 43
0.0000000001
 40
0.0
 40
0.0
 40
0.0
 40
0.0
 40
1.0
 40
1.0
 40
1.0
 40
1.0
 10
52.70462869876837
 20
-10.03294375435456
 30
-0.0000000000000188
 10
52.78530939990719
 20
-10.16615814785922
 30
-0.0000000000000188
 10
52.85552165623632
 20
-10.294109255622
 30
-0.0000000000000188
 10
52.91017972112422
 20
-10.41421315075234
 30
-0.000000000000019
  0
LINE
  5
23C47
330
A
100
AcDbEntity
  8
16
  6
CENTER
100
AcDbLine
 10
-98.0
 20
28.20000000000005
 30
0.0
 11
-98.0
 21
1.800000000000068
 31
0.0
  0
LINE
  5
23C48
330
A
100
AcDbEntity
  8
16
  6
CENTER
100
AcDbLine
 10
-93.49999999999999
 20
15.00000000000023
 30
0.0
 11
-102.5
 21
15.00000000000023
 31
0.0
  0
LINE
  5
23C51
330
A
100
AcDbEntity
  8
16
  6
CENTER
100
AcDbLine
 10
98.0
 20
-1.799999999999954
 30
0.0
 11
98.0
 21
-28.19999999999993
 31
0.0
  0
LINE
  5
23C52
330
A
100
AcDbEntity
  8
16
  6
CENTER
100
AcDbLine
 10
102.5
 20
-14.99999999999977
 30
0.0
 11
93.49999999999999
 21
-14.99999999999977
 31
0.0
  0
LINE
  5
23C5B
330
A
100
AcDbEntity
  8
16
  6
CENTER
100
AcDbLine
 10
42.0
 20
33.69999999999931
 30
0.0
 11
42.0
 21
-32.70000000000067
 31
0.0
  0
LINE
  5
23C5C
330
A
100
AcDbEntity
  8
16
  6
CENTER
100
AcDbLine
 10
51.5
 20
25.00000000000006
 30
0.0
 11
32.5
 21
25.00000000000006
 31
0.0
  0
LINE
  5
23C78
330
A
100
AcDbEntity
  8
16
  6
CENTER
100
AcDbLine
 10
51.5
 20
-25.0
 30
0.0
 11
32.5
 21
-25.0
 31
0.0
  0
DIMENSION
  5
23CB7
330
A
100
AcDbEntity
  8
30
  6
Continuous
100
AcDbDimension
  2
*D21
 10
165.0000010430001
 20
-25.00000000000003
 30
0.0
 11
150.0
 21
-12.49999999999983
 31
0.0
 70
   160
 71
     5
 42
25.00000000000008
  3
ISO-25-2
100
AcDbAlignedDimension
 13
142.014739758
 23
0.0000000000000568
 33
0.0
 14
50.5
 24
-25.0
 34
0.0
 50
90.0
100
AcDbRotatedDimension
  0
LINE
  5
23DFC
330
A
100
AcDbEntity
  8
10
  6
Continuous
100
AcDbLine
 10
-62.5
 20
-447.2999999999999
 30
0.0
 11
-62.5
 21
-437.3001949999997
 31
0.0
  0
LINE
  5
23DFD
330
A
100
AcDbEntity
  8
10
  6
Continuous
100
AcDbLine
 10
-65.50000000000001
 20
-437.3001949999997
 30
0.0
 11
-65.50000000000001
 21
-447.2999999999999
 31
0.0
  0
LINE
  5
23DFE
330
A
100
AcDbEntity
  8
10
  6
Continuous
100
AcDbLine
 10
65.49999999999998
 20
-447.2999999999999
 30
0.0
 11
65.49999999999998
 21
-437.3001949999997
 31
0.0
  0
LINE
  5
23DFF
330
A
100
AcDbEntity
  8
10
  6
Continuous
100
AcDbLine
 10
62.5
 20
-437.3001949999997
 30
0.0
 11
62.5
 21
-447.2999999999999
 31
0.0
  0
LINE
  5
23E00
330
A
100
AcDbEntity
  8
10
  6
Continuous
100
AcDbLine
 10
-14.38356249999994
 20
-334.9438349999999
 30
0.0
 11
-18.00979000000008
 21
-336.3036699999997
 31
0.0
  0
LINE
  5
23E01
330
A
100
AcDbEntity
  8
10
  6
Continuous
100
AcDbLine
 10
-12.50000000000001
 20
-343.2999999999996
 30
0.0
 11
-18.00979000000008
 21
-336.3036699999997
 31
0.0
  0
LINE
  5
23E02
330
A
100
AcDbEntity
  8
10
  6
Continuous
100
AcDbLine
 10
-7.500000000000013
 20
-343.2999999999996
 30
0.0
 11
-14.38356249999994
 21
-334.9438349999999
 31
0.0
  0
LINE
  5
23E03
330
A
100
AcDbEntity
  8
10
  6
Continuous
100
AcDbLine
 10
24.99999999999999
 20
-343.2999999999996
 30
0.0
 11
-25.00000000000002
 21
-343.2999999999996
 31
0.0
  0
LINE
  5
23E04
330
A
100
AcDbEntity
  8
10
  6
Continuous
100
AcDbLine
 10
-25.00000000000002
 20
-343.2999999999996
 30
0.0
 11
-25.00000000000002
 21
-347.3000000000001
 31
0.0
  0
LINE
  5
23E05
330
A
100
AcDbEntity
  8
10
  6
Continuous
100
AcDbLine
 10
24.99999999999999
 20
-347.3000000000001
 30
0.0
 11
24.99999999999999
 21
-343.2999999999996
 31
0.0
  0
LINE
  5
23E06
330
A
100
AcDbEntity
  8
10
  6
Continuous
100
AcDbLine
 10
-38.70008499999996
 20
-364.2999999999996
 30
0.0
 11
-43.29990500000009
 21
-364.2999999999996
 31
0.0
  0
LINE
  5
23E07
330
A
100
AcDbEntity
  8
10
  6
Continuous
100
AcDbLine
 10
79.99999999999999
 20
-364.2999999999996
 30
0.0
 11
76.49999999999998
 21
-364.2999999999996
 31
0.0
  0
LINE
  5
23E08
330
A
100
AcDbEntity
  8
10
  6
Continuous
100
AcDbLine
 10
79.99999999999999
 20
-414.9999999999998
 30
0.0
 11
79.99999999999999
 21
-398.2999999999996
 31
0.0
  0
LINE
  5
23E09
330
A
100
AcDbEntity
  8
10
  6
Continuous
100
AcDbLine
 10
79.99999999999999
 20
-376.2999999999996
 30
0.0
 11
79.99999999999999
 21
-364.2999999999996
 31
0.0
  0
LINE
  5
23E0A
330
A
100
AcDbEntity
  8
10
  6
Continuous
100
AcDbLine
 10
79.99999999999999
 20
-414.9999999999998
 30
0.0
 11
76.49999999999998
 21
-414.9999999999998
 31
0.0
  0
LINE
  5
23E0B
330
A
100
AcDbEntity
  8
10
  6
Continuous
100
AcDbLine
 10
-43.29999999999997
 20
-372.3000000000001
 30
0.0
 11
-43.29999999999997
 21
-364.2999999999996
 31
0.0
  0
LINE
  5
23E0C
330
A
100
AcDbEntity
  8
10
  6
Continuous
100
AcDbLine
 10
-38.70000000000006
 20
-364.2999999999996
 30
0.0
 11
-38.70000000000006
 21
-372.3000000000001
 31
0.0
  0
LINE
  5
23E0D
330
A
100
AcDbEntity
  8
10
  6
Continuous
100
AcDbLine
 10
24.99999999999999
 20
-347.3000000000001
 30
0.0
 11
-25.00000000000002
 21
-347.3000000000001
 31
0.0
  0
LINE
  5
23E0E
330
A
100
AcDbEntity
  8
10
  6
Continuous
100
AcDbLine
 10
-25.00000000000002
 20
-347.3000000000001
 30
0.0
 11
-25.00000000000002
 21
-355.2999999999996
 31
0.0
  0
LINE
  5
23E0F
330
A
100
AcDbEntity
  8
10
  6
Continuous
100
AcDbLine
 10
24.99999999999999
 20
-355.2999999999996
 30
0.0
 11
24.99999999999999
 21
-347.3000000000001
 31
0.0
  0
LINE
  5
23E10
330
A
100
AcDbEntity
  8
10
  6
Continuous
100
AcDbLine
 10
79.99999999999999
 20
-398.2999999999996
 30
0.0
 11
78.49999999999998
 21
-398.2999999999996
 31
0.0
  0
LINE
  5
23E11
330
A
100
AcDbEntity
  8
10
  6
Continuous
100
AcDbLine
 10
78.49999999999998
 20
-376.2999999999996
 30
0.0
 11
78.49999999999998
 21
-398.2999999999996
 31
0.0
  0
LINE
  5
23E12
330
A
100
AcDbEntity
  8
10
  6
Continuous
100
AcDbLine
 10
79.99999999999999
 20
-376.2999999999996
 30
0.0
 11
78.49999999999998
 21
-376.2999999999996
 31
0.0
  0
LINE
  5
23E13
330
A
100
AcDbEntity
  8
10
  6
Continuous
100
AcDbLine
 10
79.99999999999999
 20
-398.2999999999996
 30
0.0
 11
79.99999999999999
 21
-376.2999999999996
 31
0.0
  0
LINE
  5
23E14
330
A
100
AcDbEntity
  8
10
  6
Continuous
100
AcDbLine
 10
-38.10000000000015
 20
-364.2999999999996
 30
0.0
 11
-38.70000000000006
 21
-364.2999999999996
 31
0.0
  0
LINE
  5
23E15
330
A
100
AcDbEntity
  8
10
  6
Continuous
100
AcDbLine
 10
76.49999999999998
 20
-414.9999999999998
 30
0.0
 11
76.49999999999998
 21
-364.2999999999996
 31
0.0
  0
LINE
  5
23E16
330
A
100
AcDbEntity
  8
10
  6
Continuous
100
AcDbLine
 10
-46.50000000000001
 20
-364.2999999999996
 30
0.0
 11
-46.50000000000001
 21
-414.9999999999998
 31
0.0
  0
LINE
  5
23E17
330
A
100
AcDbEntity
  8
10
  6
Continuous
100
AcDbLine
 10
-43.29999999999997
 20
-372.3000000000001
 30
0.0
 11
-38.70000000000006
 21
-372.3000000000001
 31
0.0
  0
LINE
  5
23E18
330
A
100
AcDbEntity
  8
10
  6
Continuous
100
AcDbLine
 10
68.09999999999989
 20
-364.2999999999996
 30
0.0
 11
68.09999999999989
 21
-355.2999999999996
 31
0.0
  0
LINE
  5
23E19
330
A
100
AcDbEntity
  8
10
  6
Continuous
100
AcDbLine
 10
-38.10000000000015
 20
-355.2999999999996
 30
0.0
 11
-38.10000000000015
 21
-364.2999999999996
 31
0.0
  0
LINE
  5
23E1A
330
A
100
AcDbEntity
  8
10
  6
Continuous
100
AcDbLine
 10
76.49999999999998
 20
-364.2999999999996
 30
0.0
 11
68.09999999999989
 21
-364.2999999999996
 31
0.0
  0
LINE
  5
23E1B
330
A
100
AcDbEntity
  8
10
  6
Continuous
100
AcDbLine
 10
-43.29999999999997
 20
-364.2999999999996
 30
0.0
 11
-46.50000000000001
 21
-364.2999999999996
 31
0.0
  0
LINE
  5
23E1C
330
A
100
AcDbEntity
  8
10
  6
Continuous
100
AcDbLine
 10
76.49999999999998
 20
-414.9999999999998
 30
0.0
 11
-46.50000000000001
 21
-414.9999999999998
 31
0.0
  0
LINE
  5
23E1D
330
A
100
AcDbEntity
  8
10
  6
Continuous
100
AcDbLine
 10
68.09999999999989
 20
-355.2999999999996
 30
0.0
 11
-38.10000000000015
 21
-355.2999999999996
 31
0.0
  0
LINE
  5
23E1E
330
A
100
AcDbEntity
  8
10
  6
Continuous
100
AcDbLine
 10
-67.50000000000001
 20
-364.2999999999996
 30
0.0
 11
-69.00000000000002
 21
-364.2999999999996
 31
0.0
  0
LINE
  5
23E1F
330
A
100
AcDbEntity
  8
10
  6
Continuous
100
AcDbLine
 10
-81.50000000000002
 20
-381.2999999999996
 30
0.0
 11
-81.50000000000002
 21
-376.7999999999996
 31
0.0
  0
LINE
  5
23E20
330
A
100
AcDbEntity
  8
10
  6
Continuous
100
AcDbLine
 10
-50.5
 20
-364.2999999999996
 30
0.0
 11
-49.99984500000007
 21
-364.2999999999996
 31
0.0
  0
LINE
  5
23E21
330
A
100
AcDbEntity
  8
10
  6
Continuous
100
AcDbLine
 10
-48.0
 20
-364.2999999999996
 30
0.0
 11
-50.0
 21
-364.2999999999996
 31
0.0
  0
LINE
  5
23E22
330
A
100
AcDbEntity
  8
10
  6
Continuous
100
AcDbLine
 10
-48.0
 20
-364.2999999999996
 30
0.0
 11
-46.50000000000001
 21
-364.2999999999996
 31
0.0
  0
LINE
  5
23E23
330
A
100
AcDbEntity
  8
10
  6
Continuous
100
AcDbLine
 10
-69.00000000000002
 20
-364.2999999999996
 30
0.0
 11
-50.0
 21
-364.2999999999996
 31
0.0
  0
LINE
  5
23E24
330
A
100
AcDbEntity
  8
10
  6
Continuous
100
AcDbLine
 10
-81.50000000000002
 20
-418.9999999999998
 30
0.0
 11
-81.50000000000002
 21
-376.7999999999996
 31
0.0
  0
LINE
  5
23E25
330
A
100
AcDbEntity
  8
10
  6
Continuous
100
AcDbLine
 10
-80.50000000000002
 20
-418.9999999999998
 30
0.0
 11
-81.50000000000002
 21
-418.9999999999998
 31
0.0
  0
LINE
  5
23E26
330
A
100
AcDbEntity
  8
10
  6
Continuous
100
AcDbLine
 10
-46.50000000000001
 20
-365.2999999999996
 30
0.0
 11
-46.50000000000001
 21
-418.9999999999998
 31
0.0
  0
LINE
  5
23E27
330
A
100
AcDbEntity
  8
10
  6
Continuous
100
AcDbLine
 10
-80.50000000000002
 20
-418.9999999999998
 30
0.0
 11
-46.50000000000001
 21
-418.9999999999998
 31
0.0
  0
LINE
  5
23E28
330
A
100
AcDbEntity
  8
10
  6
Continuous
100
AcDbLine
 10
-4.700000000000058
 20
-479.9999999999998
 30
0.0
 11
-12.50006250000003
 21
-479.9999999999998
 31
0.0
  0
LINE
  5
23E29
330
A
100
AcDbEntity
  8
10
  6
Continuous
100
AcDbLine
 10
110.0
 20
-439.9999999999998
 30
0.0
 11
107.0
 21
-439.9999999999998
 31
0.0
  0
LINE
  5
23E2A
330
A
100
AcDbEntity
  8
10
  6
Continuous
100
AcDbLine
 10
-110.0
 20
-439.9999999999998
 30
0.0
 11
-110.0
 21
-427.0000000000003
 31
0.0
  0
LINE
  5
23E2B
330
A
100
AcDbEntity
  8
10
  6
Continuous
100
AcDbLine
 10
107.0
 20
-439.9999999999998
 30
0.0
 11
107.0
 21
-431.9999999999998
 31
0.0
  0
LINE
  5
23E2C
330
A
100
AcDbEntity
  8
10
  6
Continuous
100
AcDbLine
 10
-106.0
 20
-418.9999999999998
 30
0.0
 11
-81.49994500000003
 21
-418.9999999999998
 31
0.0
  0
LINE
  5
23E2D
330
A
100
AcDbEntity
  8
10
  6
Continuous
100
AcDbLine
 10
82.6999999999998
 20
-418.9999999999998
 30
0.0
 11
106.0
 21
-418.9999999999998
 31
0.0
  0
LINE
  5
23E2E
330
A
100
AcDbEntity
  8
10
  6
Continuous
100
AcDbLine
 10
-93.10000000000014
 20
-439.9999999999998
 30
0.0
 11
-105.0
 21
-439.9999999999998
 31
0.0
  0
LINE
  5
23E2F
330
A
100
AcDbEntity
  8
10
  6
Continuous
100
AcDbLine
 10
91.0999999999999
 20
-434.2999999999996
 30
0.0
 11
91.0999999999999
 21
-439.9999999999998
 31
0.0
  0
LINE
  5
23E30
330
A
100
AcDbEntity
  8
10
  6
Continuous
100
AcDbLine
 10
12.5000625
 20
-479.9999999999998
 30
0.0
 11
4.700000000000031
 21
-479.9999999999998
 31
0.0
  0
LINE
  5
23E31
330
A
100
AcDbEntity
  8
10
  6
Continuous
100
AcDbLine
 10
48.45455749999995
 20
-478.000515
 30
0.0
 11
49.70000000000003
 21
-479.9999999999998
 31
0.0
  0
LINE
  5
23E32
330
A
100
AcDbEntity
  8
10
  6
Continuous
100
AcDbLine
 10
57.50006999999981
 20
-479.9999999999998
 30
0.0
 11
49.70000000000003
 21
-479.9999999999998
 31
0.0
  0
LINE
  5
23E33
330
A
100
AcDbEntity
  8
10
  6
Continuous
100
AcDbLine
 10
31.49999999999999
 20
-479.9999999999998
 30
0.0
 11
31.0333324999999
 21
-437.3000000000001
 31
0.0
  0
LINE
  5
23E34
330
A
100
AcDbEntity
  8
10
  6
Continuous
100
AcDbLine
 10
84.99999999999998
 20
-431.9999999999998
 30
0.0
 11
84.99999999999998
 21
-437.3000000000001
 31
0.0
  0
LINE
  5
23E35
330
A
100
AcDbEntity
  8
10
  6
Continuous
100
AcDbLine
 10
40.29999999999994
 20
-479.9999999999998
 30
0.0
 11
41.54544250000002
 21
-478.000515
 31
0.0
  0
LINE
  5
23E36
330
A
100
AcDbEntity
  8
10
  6
Continuous
100
AcDbLine
 10
47.51123499999994
 20
-457.3
 30
0.0
 11
42.48876500000004
 21
-457.3
 31
0.0
  0
LINE
  5
23E37
330
A
100
AcDbEntity
  8
10
  6
Continuous
100
AcDbLine
 10
-88.59999999999992
 20
-432.3999999999998
 30
0.0
 11
-106.0
 21
-432.3999999999998
 31
0.0
  0
LINE
  5
23E38
330
A
100
AcDbEntity
  8
10
  6
Continuous
100
AcDbLine
 10
32.03326249999985
 20
-437.3000000000001
 30
0.0
 11
-88.59999999999992
 21
-437.3000000000001
 31
0.0
  0
LINE
  5
23E39
330
A
100
AcDbEntity
  8
10
  6
Continuous
100
AcDbLine
 10
-106.0
 20
-422.9999999999998
 30
0.0
 11
106.0
 21
-422.9999999999998
 31
0.0
  0
LINE
  5
23E3A
330
A
100
AcDbEntity
  8
10
  6
Continuous
100
AcDbLine
 10
82.19999999999981
 20
-414.9999999999998
 30
0.0
 11
79.99856499999984
 21
-414.9999999999998
 31
0.0
  0
LINE
  5
23E3B
330
A
100
AcDbEntity
  8
10
  6
Continuous
100
AcDbLine
 10
58.49999999999997
 20
-479.9999999999998
 30
0.0
 11
57.50006999999981
 21
-479.9999999999998
 31
0.0
  0
LINE
  5
23E3C
330
A
100
AcDbEntity
  8
10
  6
Continuous
100
AcDbLine
 10
58.96666749999985
 20
-437.3000000000001
 30
0.0
 11
58.49999999999997
 21
-479.9999999999998
 31
0.0
  0
LINE
  5
23E3D
330
A
100
AcDbEntity
  8
10
  6
Continuous
100
AcDbLine
 10
32.49992999999995
 20
-479.9999999999998
 30
0.0
 11
31.49999999999999
 21
-479.9999999999998
 31
0.0
  0
LINE
  5
23E3E
330
A
100
AcDbEntity
  8
10
  6
Continuous
100
AcDbLine
 10
84.99999999999998
 20
-431.9999999999998
 30
0.0
 11
106.0
 21
-431.9999999999998
 31
0.0
  0
LINE
  5
23E3F
330
A
100
AcDbEntity
  8
10
  6
Continuous
100
AcDbLine
 10
-88.59999999999992
 20
-432.3999999999998
 30
0.0
 11
-88.59999999999992
 21
-437.3000000000001
 31
0.0
  0
LINE
  5
23E40
330
A
100
AcDbEntity
  8
10
  6
Continuous
100
AcDbLine
 10
32.03326249999985
 20
-437.3000000000001
 30
0.0
 11
57.96673749999989
 21
-437.3000000000001
 31
0.0
  0
LINE
  5
23E41
330
A
100
AcDbEntity
  8
10
  6
Continuous
100
AcDbLine
 10
40.29999999999994
 20
-479.9999999999998
 30
0.0
 11
32.49992999999995
 21
-479.9999999999998
 31
0.0
  0
LINE
  5
23E42
330
A
100
AcDbEntity
  8
10
  6
Continuous
100
AcDbLine
 10
41.54544250000002
 20
-478.000515
 30
0.0
 11
41.98889499999993
 21
-457.7886374999997
 31
0.0
  0
LINE
  5
23E43
330
A
100
AcDbEntity
  8
10
  6
Continuous
100
AcDbLine
 10
48.01110500000003
 20
-457.7886374999997
 30
0.0
 11
48.45455749999995
 21
-478.000515
 31
0.0
  0
LINE
  5
23E44
330
A
100
AcDbEntity
  8
10
  6
Continuous
100
AcDbLine
 10
84.99999999999998
 20
-437.3000000000001
 30
0.0
 11
57.96673749999989
 21
-437.3000000000001
 31
0.0
  0
LINE
  5
23E45
330
A
100
AcDbEntity
  8
10
  6
Continuous
100
AcDbLine
 10
82.6999999999998
 20
-414.9999999999998
 30
0.0
 11
82.6999999999998
 21
-419.1339725000001
 31
0.0
  0
LINE
  5
23E46
330
A
100
AcDbEntity
  8
10
  6
Continuous
100
AcDbLine
 10
82.6999999999998
 20
-414.9999999999998
 30
0.0
 11
82.19999999999981
 21
-414.9999999999998
 31
0.0
  0
LINE
  5
23E47
330
A
100
AcDbEntity
  8
10
  6
Continuous
100
AcDbLine
 10
-46.50000000000001
 20
-419.1339725000001
 30
0.0
 11
-46.50000000000001
 21
-418.9999424999999
 31
0.0
  0
LINE
  5
23E48
330
A
100
AcDbEntity
  8
10
  6
Continuous
100
AcDbLine
 10
-107.0
 20
-432.3999999999998
 30
0.0
 11
-107.0
 21
-439.9999999999998
 31
0.0
  0
LINE
  5
23E49
330
A
100
AcDbEntity
  8
10
  6
Continuous
100
AcDbLine
 10
-107.0
 20
-432.3999999999998
 30
0.0
 11
-106.0
 21
-432.3999999999998
 31
0.0
  0
LINE
  5
23E4A
330
A
100
AcDbEntity
  8
10
  6
Continuous
100
AcDbLine
 10
110.0
 20
-419.9999999999998
 30
0.0
 11
110.0
 21
-427.0000000000003
 31
0.0
  0
LINE
  5
23E4B
330
A
100
AcDbEntity
  8
10
  6
Continuous
100
AcDbLine
 10
-110.0
 20
-439.9999999999998
 30
0.0
 11
-107.0
 21
-439.9999999999998
 31
0.0
  0
LINE
  5
23E4C
330
A
100
AcDbEntity
  8
10
  6
Continuous
100
AcDbLine
 10
106.0
 20
-431.9999999999998
 30
0.0
 11
107.0
 21
-431.9999999999998
 31
0.0
  0
LINE
  5
23E4D
330
A
100
AcDbEntity
  8
10
  6
Continuous
100
AcDbLine
 10
110.0
 20
-427.0000000000003
 30
0.0
 11
110.0
 21
-439.9999999999998
 31
0.0
  0
LINE
  5
23E4E
330
A
100
AcDbEntity
  8
10
  6
Continuous
100
AcDbLine
 10
-3.454557499999977
 20
-478.000515
 30
0.0
 11
-3.011105000000056
 21
-457.7886374999997
 31
0.0
  0
LINE
  5
23E4F
330
A
100
AcDbEntity
  8
10
  6
Continuous
100
AcDbLine
 10
-4.700000000000058
 20
-479.9999999999998
 30
0.0
 11
-3.454557499999977
 21
-478.000515
 31
0.0
  0
LINE
  5
23E50
330
A
100
AcDbEntity
  8
10
  6
Continuous
100
AcDbLine
 10
3.454557499999949
 20
-478.000515
 30
0.0
 11
4.700000000000031
 21
-479.9999999999998
 31
0.0
  0
LINE
  5
23E51
330
A
100
AcDbEntity
  8
10
  6
Continuous
100
AcDbLine
 10
-110.0
 20
-427.0000000000003
 30
0.0
 11
-110.0
 21
-419.9999999999998
 31
0.0
  0
LINE
  5
23E52
330
A
100
AcDbEntity
  8
10
  6
Continuous
100
AcDbLine
 10
107.0
 20
-439.9999999999998
 30
0.0
 11
96.49999999999998
 21
-439.9999999999998
 31
0.0
  0
LINE
  5
23E53
330
A
100
AcDbEntity
  8
10
  6
Continuous
100
AcDbLine
 10
105.0
 20
-434.2999999999996
 30
0.0
 11
96.49999999999998
 21
-434.2999999999996
 31
0.0
  0
LINE
  5
23E54
330
A
100
AcDbEntity
  8
10
  6
Continuous
100
AcDbLine
 10
106.0
 20
-418.9999999999998
 30
0.0
 11
109.0
 21
-418.9999999999998
 31
0.0
  0
LINE
  5
23E55
330
A
100
AcDbEntity
  8
10
  6
Continuous
100
AcDbLine
 10
-109.0
 20
-418.9999999999998
 30
0.0
 11
-106.0
 21
-418.9999999999998
 31
0.0
  0
LINE
  5
23E56
330
A
100
AcDbEntity
  8
10
  6
Continuous
100
AcDbLine
 10
106.5999999999999
 20
-434.2999999999996
 30
0.0
 11
105.0
 21
-434.2999999999996
 31
0.0
  0
LINE
  5
23E57
330
A
100
AcDbEntity
  8
10
  6
Continuous
100
AcDbLine
 10
-40.0
 20
-437.3000000000001
 30
0.0
 11
31.0333324999999
 21
-437.3000000000001
 31
0.0
  0
LINE
  5
23E58
330
A
100
AcDbEntity
  8
10
  6
Continuous
100
AcDbLine
 10
-91.09999999999992
 20
-434.2999999999996
 30
0.0
 11
-91.09999999999992
 21
-439.9999999999998
 31
0.0
  0
LINE
  5
23E59
330
A
100
AcDbEntity
  8
10
  6
Continuous
100
AcDbLine
 10
-91.09999999999992
 20
-439.9999999999998
 30
0.0
 11
-93.10000000000014
 21
-439.9999999999998
 31
0.0
  0
LINE
  5
23E5A
330
A
100
AcDbEntity
  8
10
  6
Continuous
100
AcDbLine
 10
96.49999999999998
 20
-434.2999999999996
 30
0.0
 11
88.64188249999982
 21
-434.2999999999996
 31
0.0
  0
LINE
  5
23E5B
330
A
100
AcDbEntity
  8
10
  6
Continuous
100
AcDbLine
 10
88.64188249999982
 20
-434.2999999999996
 30
0.0
 11
86.99999999999999
 21
-434.2999999999996
 31
0.0
  0
LINE
  5
23E5C
330
A
100
AcDbEntity
  8
10
  6
Continuous
100
AcDbLine
 10
107.0
 20
-434.2999999999996
 30
0.0
 11
106.5999999999999
 21
-434.2999999999996
 31
0.0
  0
LINE
  5
23E5D
330
A
100
AcDbEntity
  8
10
  6
Continuous
100
AcDbLine
 10
106.5999999999999
 20
-431.9999999999998
 30
0.0
 11
106.5999999999999
 21
-434.2999999999996
 31
0.0
  0
LINE
  5
23E5E
330
A
100
AcDbEntity
  8
10
  6
Continuous
100
AcDbLine
 10
84.99999999999998
 20
-434.2999999999996
 30
0.0
 11
86.99999999999999
 21
-434.2999999999996
 31
0.0
  0
LINE
  5
23E5F
330
A
100
AcDbEntity
  8
10
  6
Continuous
100
AcDbLine
 10
-93.10000000000014
 20
-434.2999999999996
 30
0.0
 11
-88.60001000000014
 21
-434.2999999999996
 31
0.0
  0
LINE
  5
23E60
330
A
100
AcDbEntity
  8
10
  6
Continuous
100
AcDbLine
 10
88.64188249999982
 20
-434.2999999999996
 30
0.0
 11
88.64188249999982
 21
-431.9998424999996
 31
0.0
  0
LINE
  5
23E61
330
A
100
AcDbEntity
  8
10
  6
Continuous
100
AcDbLine
 10
-107.0
 20
-439.9999999999998
 30
0.0
 11
-105.0
 21
-439.9999999999998
 31
0.0
  0
LINE
  5
23E62
330
A
100
AcDbEntity
  8
10
  6
Continuous
100
AcDbLine
 10
-12.50006250000003
 20
-479.9999999999998
 30
0.0
 11
-13.50000000000001
 21
-479.9999999999998
 31
0.0
  0
LINE
  5
23E63
330
A
100
AcDbEntity
  8
10
  6
Continuous
100
AcDbLine
 10
13.9666649999999
 20
-437.3002324999996
 30
0.0
 11
13.49999999999998
 21
-479.9999999999998
 31
0.0
  0
LINE
  5
23E64
330
A
100
AcDbEntity
  8
10
  6
Continuous
100
AcDbLine
 10
13.49999999999998
 20
-479.9999999999998
 30
0.0
 11
12.5000625
 21
-479.9999999999998
 31
0.0
  0
LINE
  5
23E65
330
A
100
AcDbEntity
  8
10
  6
Continuous
100
AcDbLine
 10
96.49999999999998
 20
-439.9999999999998
 30
0.0
 11
91.0999999999999
 21
-439.9999999999998
 31
0.0
  0
LINE
  5
23E66
330
A
100
AcDbEntity
  8
10
  6
Continuous
100
AcDbLine
 10
3.011105000000028
 20
-457.7886374999997
 30
0.0
 11
3.454557499999949
 21
-478.000515
 31
0.0
  0
LINE
  5
23E67
330
A
100
AcDbEntity
  8
10
  6
Continuous
100
AcDbLine
 10
2.511234999999928
 20
-457.3
 30
0.0
 11
-2.511234999999956
 21
-457.3
 31
0.0
  0
LINE
  5
23E68
330
A
100
AcDbEntity
  8
10
  6
Continuous
100
AcDbLine
 10
-13.50000000000001
 20
-479.9999999999998
 30
0.0
 11
-13.96666499999993
 21
-437.3002324999996
 31
0.0
  0
LINE
  5
23E69
330
A
100
AcDbEntity
  8
10
  6
Continuous
100
AcDbLine
 10
82.70000499999991
 20
-418.9999999999998
 30
0.0
 11
82.99999999999998
 21
-418.9999999999998
 31
0.0
  0
LINE
  5
23E6A
330
A
100
AcDbEntity
  8
10
  6
Continuous
100
AcDbLine
 10
2.950014999999878
 20
-476.0006249999998
 30
0.0
 11
3.426427499999803
 21
-476.7626549999998
 31
0.0
  0
LINE
  5
23E6B
330
A
100
AcDbEntity
  8
10
  6
Continuous
100
AcDbLine
 10
2.499999999999984
 20
-457.3
 30
0.0
 11
2.950014999999878
 21
-476.0006249999998
 31
0.0
  0
LINE
  5
23E6C
330
A
100
AcDbEntity
  8
10
  6
Continuous
100
AcDbLine
 10
-2.950015000000134
 20
-476.0006249999998
 30
0.0
 11
-2.500000000000014
 21
-457.3
 31
0.0
  0
LINE
  5
23E6D
330
A
100
AcDbEntity
  8
10
  6
Continuous
100
AcDbLine
 10
-3.426427500000058
 20
-476.7626549999998
 30
0.0
 11
-2.950015000000134
 21
-476.0006249999998
 31
0.0
  0
LINE
  5
23E6E
330
A
100
AcDbEntity
  8
10
  6
Continuous
100
AcDbLine
 10
-96.50000000000002
 20
-418.9999999999998
 30
0.0
 11
-89.32529750000004
 21
-418.9999999999998
 31
0.0
  0
LINE
  5
23E6F
330
A
100
AcDbEntity
  8
10
  6
Continuous
100
AcDbLine
 10
-109.0
 20
-418.9999999999998
 30
0.0
 11
-96.50000000000002
 21
-418.9999999999998
 31
0.0
  0
LINE
  5
23E70
330
A
100
AcDbEntity
  8
10
  6
Continuous
100
AcDbLine
 10
-110.0
 20
-430.2999999999996
 30
0.0
 11
-110.0
 21
-419.9999999999998
 31
0.0
  0
LINE
  5
23E71
330
A
100
AcDbEntity
  8
10
  6
Continuous
100
AcDbLine
 10
-58.50000000000001
 20
-479.9999999999998
 30
0.0
 11
-58.96666750000011
 21
-437.3000000000001
 31
0.0
  0
LINE
  5
23E72
330
A
100
AcDbEntity
  8
10
  6
Continuous
100
AcDbLine
 10
-57.50006250000001
 20
-479.9999999999998
 30
0.0
 11
-58.50000000000001
 21
-479.9999999999998
 31
0.0
  0
LINE
  5
23E73
330
A
100
AcDbEntity
  8
10
  6
Continuous
100
AcDbLine
 10
-31.03333500000009
 20
-437.3002324999996
 30
0.0
 11
-31.50000000000002
 21
-479.9999999999998
 31
0.0
  0
LINE
  5
23E74
330
A
100
AcDbEntity
  8
10
  6
Continuous
100
AcDbLine
 10
-31.50000000000002
 20
-479.9999999999998
 30
0.0
 11
-32.4999375
 21
-479.9999999999998
 31
0.0
  0
LINE
  5
23E75
330
A
100
AcDbEntity
  8
10
  6
Continuous
100
AcDbLine
 10
-49.70000000000005
 20
-479.9999999999998
 30
0.0
 11
-48.45455749999998
 21
-478.000515
 31
0.0
  0
LINE
  5
23E76
330
A
100
AcDbEntity
  8
10
  6
Continuous
100
AcDbLine
 10
-41.54544250000005
 20
-478.000515
 30
0.0
 11
-40.29999999999996
 21
-479.9999999999998
 31
0.0
  0
LINE
  5
23E77
330
A
100
AcDbEntity
  8
10
  6
Continuous
100
AcDbLine
 10
-41.98889499999996
 20
-457.7886374999997
 30
0.0
 11
-41.54544250000005
 21
-478.000515
 31
0.0
  0
LINE
  5
23E78
330
A
100
AcDbEntity
  8
10
  6
Continuous
100
AcDbLine
 10
-48.45455749999998
 20
-478.000515
 30
0.0
 11
-48.01110500000007
 21
-457.7886374999997
 31
0.0
  0
LINE
  5
23E79
330
A
100
AcDbEntity
  8
10
  6
Continuous
100
AcDbLine
 10
-42.48876500000007
 20
-457.3
 30
0.0
 11
-47.51123499999994
 21
-457.3
 31
0.0
  0
LINE
  5
23E7A
330
A
100
AcDbEntity
  8
10
  6
Continuous
100
AcDbLine
 10
-49.70000000000005
 20
-479.9999999999998
 30
0.0
 11
-57.50006250000001
 21
-479.9999999999998
 31
0.0
  0
LINE
  5
23E7B
330
A
100
AcDbEntity
  8
10
  6
Continuous
100
AcDbLine
 10
-32.4999375
 20
-479.9999999999998
 30
0.0
 11
-40.29999999999996
 21
-479.9999999999998
 31
0.0
  0
LINE
  5
23E7C
330
A
100
AcDbEntity
  8
10
  6
Continuous
100
AcDbLine
 10
65.49999999999998
 20
-447.2999999999999
 30
0.0
 11
62.5
 21
-447.2999999999999
 31
0.0
  0
LINE
  5
23E7D
330
A
100
AcDbEntity
  8
10
  6
Continuous
100
AcDbLine
 10
-110.0
 20
-437.4999999999998
 30
0.0
 11
-110.0
 21
-439.9999999999998
 31
0.0
  0
LINE
  5
23E7E
330
A
100
AcDbEntity
  8
10
  6
Continuous
100
AcDbLine
 10
110.0
 20
-437.4999999999998
 30
0.0
 11
110.0
 21
-439.9999999999998
 31
0.0
  0
LINE
  5
23E7F
330
A
100
AcDbEntity
  8
10
  6
Continuous
100
AcDbLine
 10
-65.50000000000001
 20
-447.2999999999999
 30
0.0
 11
-62.5
 21
-447.2999999999999
 31
0.0
  0
LINE
  5
23E80
330
A
100
AcDbEntity
  8
10
  6
Continuous
100
AcDbLine
 10
96.49999999999998
 20
-418.9999999999998
 30
0.0
 11
109.0
 21
-418.9999999999998
 31
0.0
  0
LINE
  5
23E81
330
A
100
AcDbEntity
  8
10
  6
Continuous
100
AcDbLine
 10
89.32529750000002
 20
-418.9999999999998
 30
0.0
 11
96.49999999999998
 21
-418.9999999999998
 31
0.0
  0
LINE
  5
23E82
330
A
100
AcDbEntity
  8
10
  6
Continuous
100
AcDbLine
 10
110.0
 20
-430.2999999999996
 30
0.0
 11
110.0
 21
-419.9999999999998
 31
0.0
  0
ARC
  5
23E83
330
A
100
AcDbEntity
  8
10
  6
Continuous
100
AcDbCircle
 10
69.00000000000002
 20
-376.7999999999996
 30
0.0
 40
12.5
210
0.0
220
0.0
230
-1.0
100
AcDbArc
 50
0.0
 51
90.0
  0
ARC
  5
23E84
330
A
100
AcDbEntity
  8
10
  6
Continuous
100
AcDbCircle
 10
106.0
 20
-427.0000000000003
 30
0.0
 40
4.0
100
AcDbArc
 50
0.0
 51
90.0
  0
ARC
  5
23E85
330
A
100
AcDbEntity
  8
10
  6
Continuous
100
AcDbCircle
 10
42.48876500000004
 20
-457.7999999999994
 30
0.0
 40
0.5
100
AcDbArc
 50
90.0
 51
178.698046999999
  0
ARC
  5
23E86
330
A
100
AcDbEntity
  8
10
  6
Continuous
100
AcDbCircle
 10
47.51123499999994
 20
-457.7999999999994
 30
0.0
 40
0.5
100
AcDbArc
 50
1.301953000001034
 51
90.0
  0
ARC
  5
23E87
330
A
100
AcDbEntity
  8
10
  6
Continuous
100
AcDbCircle
 10
-106.0
 20
-427.0000000000003
 30
0.0
 40
4.0
100
AcDbArc
 50
90.0
 51
180.0
  0
ARC
  5
23E88
330
A
100
AcDbEntity
  8
10
  6
Continuous
100
AcDbCircle
 10
109.0
 20
-419.9999999999998
 30
0.0
 40
1.0
100
AcDbArc
 50
0.0
 51
90.0
  0
ARC
  5
23E89
330
A
100
AcDbEntity
  8
10
  6
Continuous
100
AcDbCircle
 10
109.0
 20
-419.9999999999998
 30
0.0
 40
1.0
210
0.0
220
0.0
230
-1.0
100
AcDbArc
 50
0.0
 51
90.0
  0
ARC
  5
23E8A
330
A
100
AcDbEntity
  8
10
  6
Continuous
100
AcDbCircle
 10
-2.511234999999956
 20
-457.7999999999994
 30
0.0
 40
0.5
100
AcDbArc
 50
90.0
 51
178.698046999999
  0
ARC
  5
23E8B
330
A
100
AcDbEntity
  8
10
  6
Continuous
100
AcDbCircle
 10
2.511234999999928
 20
-457.7999999999994
 30
0.0
 40
0.5
100
AcDbArc
 50
1.301953000001034
 51
90.0
  0
ARC
  5
23E8C
330
A
100
AcDbEntity
  8
10
  6
Continuous
100
AcDbCircle
 10
-47.51123499999994
 20
-457.7999999999994
 30
0.0
 40
0.5
100
AcDbArc
 50
90.0
 51
178.698046999999
  0
ARC
  5
23E8D
330
A
100
AcDbEntity
  8
10
  6
Continuous
100
AcDbCircle
 10
-42.48876500000007
 20
-457.7999999999994
 30
0.0
 40
0.5
100
AcDbArc
 50
1.301953000001034
 51
90.0
  0
SPLINE
  5
23E8E
330
A
100
AcDbEntity
  8
10
  6
Continuous
100
AcDbSpline
210
0.0000000000000192
220
-0.0000000000000119
230
1.0
 70
     8
 71
     3
 72
    20
 73
    16
 74
     0
 42
0.0000000001
 43
0.0000000001
 40
0.0
 40
0.0
 40
0.0
 40
0.0
 40
0.2182382765185125
 40
0.2182382765185125
 40
0.2182382765185125
 40
0.4768218186310654
 40
0.4768218186310654
 40
0.4768218186310654
 40
0.8422057896714514
 40
0.8422057896714514
 40
0.8422057896714514
 40
0.9945975292707503
 40
0.9945975292707503
 40
0.9945975292707503
 40
1.0
 40
1.0
 40
1.0
 40
1.0
 10
82.6999999999998
 20
-419.1339736438151
 30
-0.0000000000000113
 10
82.6999999999998
 20
-419.1765548746797
 30
-0.0000000000000113
 10
82.68338984513
 20
-419.2295235248856
 30
-0.0000000000000113
 10
82.65798241923809
 20
-419.2864735560372
 30
-0.0000000000000113
 10
82.62780183403945
 20
-419.3541224896428
 30
-0.0000000000000113
 10
82.58453766828642
 20
-419.4295883008207
 30
-0.0000000000000113
 10
82.5363019157114
 20
-419.5069497619055
 30
-0.0000000000000113
 10
82.46836053835385
 20
-419.6159154966538
 30
-0.0000000000000113
 10
82.38837169257747
 20
-419.7321289558847
 30
-0.0000000000000113
 10
82.30723604945795
 20
-419.8478987106957
 30
-0.0000000000000113
 10
82.27304192104154
 20
-419.8966891770131
 30
-0.0000000000000113
 10
82.238321404855
 20
-419.9458038894793
 30
-0.0000000000000113
 10
82.21178596757724
 20
-419.983331040134
 30
-0.0000000000000113
 10
82.20514581980884
 20
-419.9927217210963
 30
-0.0000000000000113
 10
82.19850564915235
 20
-420.0021123858745
 30
-0.0000000000000115
 10
82.19186547184925
 20
-420.0115030459526
 30
-0.0000000000000115
  0
SPLINE
  5
23E8F
330
A
100
AcDbEntity
  8
10
  6
Continuous
100
AcDbSpline
210
0.0000000000000192
220
0.0000000000000119
230
-1.0
 70
     8
 71
     3
 72
    20
 73
    16
 74
     0
 42
0.0000000001
 43
0.0000000001
 40
0.0
 40
0.0
 40
0.0
 40
0.0
 40
0.0054024707292507
 40
0.0054024707292507
 40
0.0054024707292507
 40
0.1577942103285439
 40
0.1577942103285439
 40
0.1577942103285439
 40
0.5231781813689304
 40
0.5231781813689304
 40
0.5231781813689304
 40
0.7817617234814863
 40
0.7817617234814863
 40
0.7817617234814863
 40
1.0
 40
1.0
 40
1.0
 40
1.0
 10
-45.99186547184945
 20
-420.0115030459526
 30
-0.0000000000000115
 10
-45.99850564915256
 20
-420.0021123858739
 30
-0.0000000000000115
 10
-46.00514581980907
 20
-419.992721721096
 30
-0.0000000000000113
 10
-46.01178596757724
 20
-419.983331040134
 30
-0.0000000000000113
 10
-46.03832140485497
 20
-419.9458038894793
 30
-0.0000000000000113
 10
-46.07304192104176
 20
-419.8966891770127
 30
-0.0000000000000113
 10
-46.10723604945817
 20
-419.8478987106957
 30
-0.0000000000000113
 10
-46.1883716925779
 20
-419.7321289558844
 30
-0.0000000000000113
 10
-46.26836053835406
 20
-419.6159154966538
 30
-0.0000000000000113
 10
-46.33630191571161
 20
-419.5069497619055
 30
-0.0000000000000113
 10
-46.38453766828638
 20
-419.4295883008207
 30
-0.0000000000000113
 10
-46.42780183403989
 20
-419.3541224896423
 30
-0.0000000000000113
 10
-46.45798241923855
 20
-419.2864735560368
 30
-0.0000000000000113
 10
-46.48338984513021
 20
-419.2295235248852
 30
-0.0000000000000113
 10
-46.50000000000001
 20
-419.1765548746792
 30
-0.0000000000000113
 10
-46.50000000000001
 20
-419.1339736438151
 30
-0.0000000000000113
  0
ARC
  5
23F0E
330
A
100
AcDbEntity
  8
10
  6
Continuous
100
AcDbCircle
 10
79.75149665235206
 20
-387.0999999999999
 30
0.0
 40
0.3
100
AcDbArc
 50
331.0438925872972
 51
4.999999999999793
  0
ARC
  5
23F0F
330
A
100
AcDbEntity
  8
10
  6
Continuous
100
AcDbCircle
 10
77.86520174427673
 20
-385.044863059719
 30
0.0
 40
1.99999999997507
100
AcDbArc
 50
4.999761913188804
 51
58.26274604823479
  0
ARC
  5
23F10
330
A
100
AcDbEntity
  8
10
  6
Continuous
100
AcDbCircle
 10
66.29257666102748
 20
-385.0448630597194
 30
0.0
 40
1.999999999975335
100
AcDbArc
 50
121.7372539517485
 51
175.0002380867981
  0
LINE
  5
23F11
330
A
100
AcDbEntity
  8
10
  6
Continuous
100
AcDbLine
 10
63.57888920255195
 20
-393.4999999999998
 30
0.0
 11
79.57888920255197
 21
-393.4999999999998
 31
0.0
  0
LINE
  5
23F12
330
A
100
AcDbEntity
  8
10
  6
Continuous
100
AcDbLine
 10
64.32888920255193
 20
-390.9999999999998
 30
0.0
 11
79.82888920255196
 21
-390.9999999999998
 31
0.0
  0
LINE
  5
23F13
330
A
100
AcDbEntity
  8
10
  6
Continuous
100
AcDbLine
 10
64.62888920255213
 20
-389.4
 30
0.0
 11
79.52888920255222
 21
-389.4
 31
0.0
  0
LINE
  5
23F14
330
A
100
AcDbEntity
  8
10
  6
Continuous
100
AcDbLine
 10
64.40628175295191
 20
-387.4
 30
0.0
 11
79.75149665235206
 21
-387.4
 31
0.0
  0
LINE
  5
23F15
330
A
100
AcDbEntity
  8
10
  6
Continuous
100
AcDbLine
 10
64.32888920255193
 20
-390.9999999999998
 30
0.0
 11
64.32888920255193
 21
-389.6999999328
 31
0.0
  0
LINE
  5
23F16
330
A
100
AcDbEntity
  8
10
  6
Continuous
100
AcDbLine
 10
64.37888920255213
 20
-388.8319166038
 30
0.0
 11
64.37888920255213
 21
-387.968083396
 31
0.0
  0
LINE
  5
23F17
330
A
100
AcDbEntity
  8
10
  6
Continuous
100
AcDbLine
 10
64.10742334335222
 20
-387.0738532793999
 30
0.0
 11
64.30018733455232
 21
-384.870550777
 31
0.0
  0
ARC
  5
23F18
330
A
100
AcDbEntity
  8
10
  6
Continuous
100
AcDbCircle
 10
64.87888920272538
 20
-388.8319166037394
 30
0.0
 40
0.5000000001732589
100
AcDbArc
 50
180.0000000069502
 51
268.4999999982901
  0
ARC
  5
23F19
330
A
100
AcDbEntity
  8
10
  6
Continuous
100
AcDbCircle
 10
64.87888920262284
 20
-387.9680833961606
 30
0.0
 40
0.5000000000706386
100
AcDbArc
 50
91.4999999902678
 51
179.999999981592
  0
ARC
  5
23F1A
330
A
100
AcDbEntity
  8
10
  6
Continuous
100
AcDbCircle
 10
64.40628175300807
 20
-387.0999999999987
 30
0.0
 40
0.3000000000013378
100
AcDbArc
 50
174.9999996214969
 51
270.0000038472576
  0
LINE
  5
23F1B
330
A
100
AcDbEntity
  8
10
  6
Continuous
100
AcDbLine
 10
71.38717473875189
 20
-387.4
 30
0.0
 11
71.94054630995228
 21
-389.4
 31
0.0
  0
LINE
  5
23F1C
330
A
100
AcDbEntity
  8
10
  6
Continuous
100
AcDbLine
 10
72.21723209535216
 20
-387.4
 30
0.0
 11
72.77060366655209
 21
-389.4
 31
0.0
  0
LINE
  5
23F1D
330
A
100
AcDbEntity
  8
10
  6
Continuous
100
AcDbLine
 10
80.05035506195222
 20
-387.0738532793999
 30
0.0
 11
79.85759107075215
 21
-384.870550777
 31
0.0
  0
LINE
  5
23F1E
330
A
100
AcDbEntity
  8
10
  6
Continuous
100
AcDbLine
 10
79.57888920255197
 20
-390.9999999999998
 30
0.0
 11
79.57888920255197
 21
-393.4999999999998
 31
0.0
  0
LINE
  5
23F1F
330
A
100
AcDbEntity
  8
10
  6
Continuous
100
AcDbLine
 10
79.77888920255222
 20
-388.8319166038
 30
0.0
 11
79.77888920255222
 21
-387.968083396
 31
0.0
  0
LINE
  5
23F20
330
A
100
AcDbEntity
  8
10
  6
Continuous
100
AcDbLine
 10
79.82888920255196
 20
-390.9999999999998
 30
0.0
 11
79.82888920255196
 21
-389.6999999328
 31
0.0
  0
ARC
  5
23F21
330
A
100
AcDbEntity
  8
10
  6
Continuous
100
AcDbCircle
 10
79.27888920247878
 20
-388.8319166038418
 30
0.0
 40
0.5000000000734639
100
AcDbArc
 50
271.5000000134517
 51
0.0000000047876254
  0
ARC
  5
23F22
330
A
100
AcDbEntity
  8
10
  6
Continuous
100
AcDbCircle
 10
79.27888920258133
 20
-387.9680833960582
 30
0.0
 40
0.4999999999708963
100
AcDbArc
 50
0.0000000066701066
 51
88.49999999799042
  0
ARC
  5
23F23
330
A
100
AcDbEntity
  8
10
  6
Continuous
100
AcDbCircle
 10
79.7514966521961
 20
-387.0999999999071
 30
0.0
 40
0.3000000000928231
100
AcDbArc
 50
269.9999961336831
 51
5.000000359442876
  0
ARC
  5
23F24
330
A
100
AcDbEntity
  8
10
  6
Continuous
100
AcDbCircle
 10
72.07888920265222
 20
-394.3999999995183
 30
0.0
 40
12.99999999958619
100
AcDbArc
 50
58.26249499899872
 51
121.7375050010012
  0
LINE
  5
23F4E
330
A
100
AcDbEntity
  8
10
  6
Continuous
100
AcDbLine
 10
101.0
 20
-446.9
 30
0.0
 11
100.9954178203254
 21
-431.9999999999998
 31
0.0
  0
LINE
  5
23F4F
330
A
100
AcDbEntity
  8
10
  6
Continuous
100
AcDbLine
 10
95.0
 20
-446.9
 30
0.0
 11
95.0
 21
-431.9999999999998
 31
0.0
  0
LINE
  5
23F50
330
A
100
AcDbEntity
  8
10
  6
Continuous
100
AcDbLine
 10
96.0
 20
-447.9
 30
0.0
 11
100.0
 21
-447.9
 31
0.0
  0
LINE
  5
23F51
330
A
100
AcDbEntity
  8
10
  6
Continuous
100
AcDbLine
 10
95.0
 20
-446.9
 30
0.0
 11
101.0
 21
-446.9
 31
0.0
  0
LINE
  5
23F52
330
A
100
AcDbEntity
  8
10
  6
Continuous
100
AcDbLine
 10
96.00000037840029
 20
-447.899999956
 30
0.0
 11
95.00000006560005
 21
-446.8999994321999
 31
0.0
  0
LINE
  5
23F53
330
A
100
AcDbEntity
  8
10
  6
Continuous
100
AcDbLine
 10
99.99999962180028
 20
-447.899999956
 30
0.0
 11
100.9999999346
 21
-446.8999994321999
 31
0.0
  0
LINE
  5
23F54
330
A
100
AcDbEntity
  8
10
  6
Continuous
100
AcDbLine
 10
92.5
 20
-431.9999999999998
 30
0.0
 11
103.5
 21
-431.9999999999998
 31
0.0
  0
ARC
  5
23F55
330
A
100
AcDbEntity
  8
10
  6
Continuous
100
AcDbCircle
 10
98.00000000017826
 20
-437.4000000001531
 30
0.0
 40
10.00000000023221
100
AcDbArc
 50
64.62306647606808
 51
82.4776265180886
  0
LINE
  5
23F56
330
A
100
AcDbEntity
  8
10
  6
Continuous
100
AcDbLine
 10
92.0
 20
-431.4999999999998
 30
0.0
 11
92.0
 21
-431.0754446795998
 31
0.0
  0
ARC
  5
23F57
330
A
100
AcDbEntity
  8
10
  6
Continuous
100
AcDbCircle
 10
98.00000000002206
 20
-437.4000000001545
 30
0.0
 40
10.00000000023358
100
AcDbArc
 50
97.52237348191137
 51
115.3769335239319
  0
ARC
  5
23F58
330
A
100
AcDbEntity
  8
10
  6
Continuous
100
AcDbCircle
 10
95.000000000148
 20
-431.0754446796634
 30
0.0
 40
3.00000000014803
100
AcDbArc
 50
115.3769335245242
 51
179.9999999987884
  0
ARC
  5
23F59
330
A
100
AcDbEntity
  8
10
  6
Continuous
100
AcDbCircle
 10
92.50000000007526
 20
-431.4999999999247
 30
0.0
 40
0.5000000000752607
100
AcDbArc
 50
180.0000000086177
 51
270.0000053542979
  0
LINE
  5
23F5A
330
A
100
AcDbEntity
  8
10
  6
Continuous
100
AcDbLine
 10
104.0
 20
-431.4999999999998
 30
0.0
 11
104.0
 21
-431.0754446795998
 31
0.0
  0
ARC
  5
23F5B
330
A
100
AcDbEntity
  8
10
  6
Continuous
100
AcDbCircle
 10
100.999999999952
 20
-431.0754446795051
 30
0.0
 40
3.000000000047975
100
AcDbArc
 50
359.9999999981957
 51
64.62306647244836
  0
ARC
  5
23F5C
330
A
100
AcDbEntity
  8
10
  6
Continuous
100
AcDbCircle
 10
103.500000000025
 20
-431.5000000000249
 30
0.0
 40
0.49999999997492
100
AcDbArc
 50
269.9999946571925
 51
0.0000000028725752
  0
LINE
  5
23F5D
330
A
100
AcDbEntity
  8
16
  6
CENTER
100
AcDbLine
 10
98.0
 20
-410.3211282479998
 30
0.0
 11
98.0
 21
-455.0482026797998
 31
0.0
  0
LINE
  5
23F89
330
A
100
AcDbEntity
  8
10
  6
Continuous
100
AcDbLine
 10
-95.0
 20
-446.9
 30
0.0
 11
-95.00458217967452
 21
-431.9999999999998
 31
0.0
  0
LINE
  5
23F8A
330
A
100
AcDbEntity
  8
10
  6
Continuous
100
AcDbLine
 10
-101.0
 20
-446.9
 30
0.0
 11
-101.0
 21
-431.9999999999998
 31
0.0
  0
LINE
  5
23F8B
330
A
100
AcDbEntity
  8
10
  6
Continuous
100
AcDbLine
 10
-100.0
 20
-447.9
 30
0.0
 11
-96.0
 21
-447.9
 31
0.0
  0
LINE
  5
23F8C
330
A
100
AcDbEntity
  8
10
  6
Continuous
100
AcDbLine
 10
-101.0
 20
-446.9
 30
0.0
 11
-95.0
 21
-446.9
 31
0.0
  0
LINE
  5
23F8D
330
A
100
AcDbEntity
  8
10
  6
Continuous
100
AcDbLine
 10
-99.99999962159972
 20
-447.899999956
 30
0.0
 11
-100.9999999343999
 21
-446.8999994321999
 31
0.0
  0
LINE
  5
23F8E
330
A
100
AcDbEntity
  8
10
  6
Continuous
100
AcDbLine
 10
-96.00000037819974
 20
-447.899999956
 30
0.0
 11
-95.00000006539995
 21
-446.8999994321999
 31
0.0
  0
LINE
  5
23F8F
330
A
100
AcDbEntity
  8
10
  6
Continuous
100
AcDbLine
 10
-103.5
 20
-431.9999999999998
 30
0.0
 11
-92.5
 21
-431.9999999999998
 31
0.0
  0
ARC
  5
23F90
330
A
100
AcDbEntity
  8
10
  6
Continuous
100
AcDbCircle
 10
-97.99999999982174
 20
-437.4000000001531
 30
0.0
 40
10.00000000023221
100
AcDbArc
 50
64.62306647606808
 51
82.4776265180886
  0
LINE
  5
23F91
330
A
100
AcDbEntity
  8
10
  6
Continuous
100
AcDbLine
 10
-104.0
 20
-431.4999999999998
 30
0.0
 11
-104.0
 21
-431.0754446795998
 31
0.0
  0
ARC
  5
23F92
330
A
100
AcDbEntity
  8
10
  6
Continuous
100
AcDbCircle
 10
-97.99999999997794
 20
-437.4000000001545
 30
0.0
 40
10.00000000023358
100
AcDbArc
 50
97.52237348191137
 51
115.3769335239319
  0
ARC
  5
23F93
330
A
100
AcDbEntity
  8
10
  6
Continuous
100
AcDbCircle
 10
-100.999999999852
 20
-431.0754446796634
 30
0.0
 40
3.00000000014803
100
AcDbArc
 50
115.3769335245242
 51
179.9999999987884
  0
ARC
  5
23F94
330
A
100
AcDbEntity
  8
10
  6
Continuous
100
AcDbCircle
 10
-103.4999999999247
 20
-431.4999999999247
 30
0.0
 40
0.5000000000752607
100
AcDbArc
 50
180.0000000086177
 51
270.0000053542979
  0
LINE
  5
23F95
330
A
100
AcDbEntity
  8
10
  6
Continuous
100
AcDbLine
 10
-92.0
 20
-431.4999999999998
 30
0.0
 11
-92.0
 21
-431.0754446795998
 31
0.0
  0
ARC
  5
23F96
330
A
100
AcDbEntity
  8
10
  6
Continuous
100
AcDbCircle
 10
-95.00000000004794
 20
-431.0754446795051
 30
0.0
 40
3.000000000047975
100
AcDbArc
 50
359.9999999981957
 51
64.62306647244836
  0
ARC
  5
23F97
330
A
100
AcDbEntity
  8
10
  6
Continuous
100
AcDbCircle
 10
-92.49999999997497
 20
-431.5000000000249
 30
0.0
 40
0.49999999997492
100
AcDbArc
 50
269.9999946571925
 51
0.0000000028725752
  0
LINE
  5
23F98
330
A
100
AcDbEntity
  8
16
  6
CENTER
100
AcDbLine
 10
-98.0
 20
-410.3211282479998
 30
0.0
 11
-98.0
 21
-455.0482026797998
 31
0.0
  0
LINE
  5
24948
330
A
100
AcDbEntity
  8
11
  6
PHANTOM
100
AcDbLine
 10
594.0
 20
-37.49999999999983
 30
0.0
 11
806.0
 21
-37.49999999999983
 31
0.0
  0
LINE
  5
24949
330
A
100
AcDbEntity
  8
11
  6
PHANTOM
100
AcDbLine
 10
810.0
 20
-31.19999999999982
 30
0.0
 11
810.0
 21
-33.49999999999983
 31
0.0
  0
LINE
  5
2494A
330
A
100
AcDbEntity
  8
11
  6
PHANTOM
100
AcDbLine
 10
590.0
 20
-33.49999999999983
 30
0.0
 11
590.0
 21
-31.19999999999982
 31
0.0
  0
LINE
  5
2494B
330
A
100
AcDbEntity
  8
11
  6
PHANTOM
100
AcDbLine
 10
810.0
 20
31.20000000000028
 30
0.0
 11
810.0
 21
-31.19999999999982
 31
0.0
  0
LINE
  5
2494C
330
A
100
AcDbEntity
  8
11
  6
PHANTOM
100
AcDbLine
 10
590.0
 20
31.20000000000028
 30
0.0
 11
590.0
 21
33.50000000000028
 31
0.0
  0
LINE
  5
2494D
330
A
100
AcDbEntity
  8
11
  6
PHANTOM
100
AcDbLine
 10
810.0
 20
33.50000000000028
 30
0.0
 11
810.0
 21
31.20000000000028
 31
0.0
  0
LINE
  5
2494E
330
A
100
AcDbEntity
  8
11
  6
PHANTOM
100
AcDbLine
 10
590.0
 20
-31.19999999999982
 30
0.0
 11
590.0
 21
31.20000000000028
 31
0.0
  0
LINE
  5
2494F
330
A
100
AcDbEntity
  8
11
  6
PHANTOM
100
AcDbLine
 10
806.0
 20
37.50000000000028
 30
0.0
 11
594.0
 21
37.50000000000028
 31
0.0
  0
ARC
  5
24950
330
A
100
AcDbEntity
  8
11
  6
PHANTOM
100
AcDbCircle
 10
-806.0
 20
-33.49999999999983
 30
0.0
 40
4.0
210
0.0
220
0.0
230
-1.0
100
AcDbArc
 50
180.0
 51
270.0
  0
ARC
  5
24951
330
A
100
AcDbEntity
  8
11
  6
PHANTOM
100
AcDbCircle
 10
-594.0
 20
-33.49999999999983
 30
0.0
 40
4.0
210
0.0
220
0.0
230
-1.0
100
AcDbArc
 50
270.0
 51
0.0
  0
ARC
  5
24952
330
A
100
AcDbEntity
  8
11
  6
PHANTOM
100
AcDbCircle
 10
-594.0
 20
33.50000000000028
 30
0.0
 40
4.0
210
0.0
220
0.0
230
-1.0
100
AcDbArc
 50
0.0
 51
90.0
  0
ARC
  5
24953
330
A
100
AcDbEntity
  8
11
  6
PHANTOM
100
AcDbCircle
 10
-806.0
 20
33.50000000000028
 30
0.0
 40
4.0
210
0.0
220
0.0
230
-1.0
100
AcDbArc
 50
90.0
 51
180.0
  0
LINE
  5
249A2
330
A
100
AcDbEntity
  8
11
  6
PHANTOM
100
AcDbLine
 10
594.0
 20
-477.4999999999998
 30
0.0
 11
806.0
 21
-477.4999999999998
 31
0.0
  0
LINE
  5
249A3
330
A
100
AcDbEntity
  8
11
  6
PHANTOM
100
AcDbLine
 10
810.0
 20
-471.1999999999997
 30
0.0
 11
810.0
 21
-473.4999999999998
 31
0.0
  0
LINE
  5
249A4
330
A
100
AcDbEntity
  8
11
  6
PHANTOM
100
AcDbLine
 10
590.0
 20
-473.4999999999998
 30
0.0
 11
590.0
 21
-471.1999999999997
 31
0.0
  0
LINE
  5
249A5
330
A
100
AcDbEntity
  8
11
  6
PHANTOM
100
AcDbLine
 10
810.0
 20
-408.7999999999996
 30
0.0
 11
810.0
 21
-471.1999999999997
 31
0.0
  0
LINE
  5
249A6
330
A
100
AcDbEntity
  8
11
  6
PHANTOM
100
AcDbLine
 10
590.0
 20
-408.7999999999996
 30
0.0
 11
590.0
 21
-406.4999999999995
 31
0.0
  0
LINE
  5
249A7
330
A
100
AcDbEntity
  8
11
  6
PHANTOM
100
AcDbLine
 10
810.0
 20
-406.4999999999995
 30
0.0
 11
810.0
 21
-408.7999999999996
 31
0.0
  0
LINE
  5
249A8
330
A
100
AcDbEntity
  8
11
  6
PHANTOM
100
AcDbLine
 10
590.0
 20
-471.1999999999997
 30
0.0
 11
590.0
 21
-408.7999999999996
 31
0.0
  0
LINE
  5
249A9
330
A
100
AcDbEntity
  8
11
  6
PHANTOM
100
AcDbLine
 10
806.0
 20
-402.4999999999995
 30
0.0
 11
594.0
 21
-402.4999999999995
 31
0.0
  0
ARC
  5
249AA
330
A
100
AcDbEntity
  8
11
  6
PHANTOM
100
AcDbCircle
 10
-806.0
 20
-473.4999999999998
 30
0.0
 40
4.0
210
0.0
220
0.0
230
-1.0
100
AcDbArc
 50
180.0
 51
270.0
  0
ARC
  5
249AB
330
A
100
AcDbEntity
  8
11
  6
PHANTOM
100
AcDbCircle
 10
-594.0
 20
-473.4999999999998
 30
0.0
 40
4.0
210
0.0
220
0.0
230
-1.0
100
AcDbArc
 50
270.0
 51
0.0
  0
ARC
  5
249AC
330
A
100
AcDbEntity
  8
11
  6
PHANTOM
100
AcDbCircle
 10
-594.0
 20
-406.4999999999995
 30
0.0
 40
4.0
210
0.0
220
0.0
230
-1.0
100
AcDbArc
 50
0.0
 51
90.0
  0
ARC
  5
249AD
330
A
100
AcDbEntity
  8
11
  6
PHANTOM
100
AcDbCircle
 10
-806.0
 20
-406.4999999999995
 30
0.0
 40
4.0
210
0.0
220
0.0
230
-1.0
100
AcDbArc
 50
90.0
 51
180.0
  0
LEADER
  5
249F4
330
A
100
AcDbEntity
  8
19
  6
Continuous
100
AcDbLeader
  3
ISO-25-2
 76
     3
 10
89.0
 20
29.50000000000006
 30
0.0
 10
120.0
 20
60.0
 30
0.0
 10
183.0
 20
60.0
 30
0.0
1001
ACAD
1000
DSTYLE
1002
{
1070
   147
1040
5.0
1070
    77
1070
     0
1002
}
  0
TEXT
  5
249F5
330
A
100
AcDbEntity
  8
19
  6
Continuous
100
AcDbText
 10
121.0146023020596
 20
60.7858129063261
 30
0.0
 40
7.0
  1
差込確認インジケータ
 41
0.75
  7
SLDTEXTSTYLE0
100
AcDbText
  0
LINE
  5
24DA8
330
A
100
AcDbEntity
  8
10
  6
Continuous
100
AcDbLine
 10
82.20000000000027
 20
-33.2000000000005
 30
0.0
 11
82.70000000000027
 21
-33.69999999999959
 31
0.0
  0
LINE
  5
24DA9
330
A
100
AcDbEntity
  8
10
  6
Continuous
100
AcDbLine
 10
82.70000000000027
 20
33.70000000000004
 30
0.0
 11
82.70000000000027
 21
-33.69999999999959
 31
0.0
  0
LINE
  5
24DAA
330
A
100
AcDbEntity
  8
10
  6
Continuous
100
AcDbLine
 10
82.70000000000027
 20
33.70000000000004
 30
0.0
 11
82.20000000000027
 21
33.20000000000005
 31
0.0
  0
LINE
  5
24DAB
330
A
100
AcDbEntity
  8
10
  6
Continuous
100
AcDbLine
 10
49.99897250000003
 20
33.70000000000004
 30
0.0
 11
82.70000000000027
 21
33.70000000000004
 31
0.0
  0
LINE
  5
24DAC
330
A
100
AcDbEntity
  8
10
  6
Continuous
100
AcDbLine
 10
82.70000000000027
 20
-33.69999999999959
 30
0.0
 11
49.99897250000003
 21
-33.69999999999959
 31
0.0
  0
LINE
  5
24DAD
330
A
100
AcDbEntity
  8
10
  6
Continuous
100
AcDbLine
 10
83.0
 20
14.00000000000023
 30
0.0
 11
82.699975
 21
14.30002499999978
 31
0.0
  0
LINE
  5
24DAE
330
A
100
AcDbEntity
  8
10
  6
Continuous
100
AcDbLine
 10
83.0
 20
34.00000000000023
 30
0.0
 11
82.699975
 21
33.69997499999977
 31
0.0
  0
LINE
  5
24DAF
330
A
100
AcDbEntity
  8
10
  6
Continuous
100
AcDbLine
 10
82.5
 20
-33.99999999999977
 30
0.0
 11
49.99954000000025
 21
-33.99999999999977
 31
0.0
  0
LINE
  5
24DB0
330
A
100
AcDbEntity
  8
10
  6
Continuous
100
AcDbLine
 10
49.99954000000025
 20
34.00000000000023
 30
0.0
 11
82.5
 21
34.00000000000023
 31
0.0
  0
LINE
  5
24DB1
330
A
100
AcDbEntity
  8
10
  6
Continuous
100
AcDbLine
 10
83.0
 20
20.00000000000023
 30
0.0
 11
82.69978000000037
 21
20.00000000000023
 31
0.0
  0
LINE
  5
24DB2
330
A
100
AcDbEntity
  8
10
  6
Continuous
100
AcDbLine
 10
82.69978000000037
 20
30.00000000000023
 30
0.0
 11
83.0
 21
30.00000000000023
 31
0.0
  0
LINE
  5
24DB3
330
A
100
AcDbEntity
  8
10
  6
Continuous
100
AcDbLine
 10
82.69993750000002
 20
6.000000000000227
 30
0.0
 11
83.0
 21
6.000000000000227
 31
0.0
  0
LINE
  5
24DB4
330
A
100
AcDbEntity
  8
10
  6
Continuous
100
AcDbLine
 10
83.0
 20
-3.999999999999772
 30
0.0
 11
82.69993750000002
 21
-3.999999999999772
 31
0.0
  0
LINE
  5
24DB5
330
A
100
AcDbEntity
  8
10
  6
Continuous
100
AcDbLine
 10
82.69996000000038
 20
14.00000000000023
 30
0.0
 11
83.0
 21
14.00000000000023
 31
0.0
  0
LINE
  5
24DB6
330
A
100
AcDbEntity
  8
10
  6
Continuous
100
AcDbLine
 10
82.699975
 20
10.69997499999977
 30
0.0
 11
83.0
 21
11.00000000000022
 31
0.0
  0
LINE
  5
24DB7
330
A
100
AcDbEntity
  8
10
  6
Continuous
100
AcDbLine
 10
82.699975
 20
-33.69997500000022
 30
0.0
 11
83.0
 21
-33.99999999999977
 31
0.0
  0
LINE
  5
24DB8
330
A
100
AcDbEntity
  8
10
  6
Continuous
100
AcDbLine
 10
83.0
 20
11.00000000000022
 30
0.0
 11
82.69996000000038
 21
11.00000000000022
 31
0.0
  0
LINE
  5
24DB9
330
A
100
AcDbEntity
  8
10
  6
Continuous
100
AcDbLine
 10
83.0
 20
-33.99999999999977
 30
0.0
 11
83.0
 21
34.00000000000023
 31
0.0
  0
LINE
  5
24DBA
330
A
100
AcDbEntity
  8
10
  6
Continuous
100
AcDbLine
 10
83.0
 20
34.00000000000023
 30
0.0
 11
82.5
 21
34.00000000000023
 31
0.0
  0
LINE
  5
24DBB
330
A
100
AcDbEntity
  8
10
  6
Continuous
100
AcDbLine
 10
82.5
 20
-33.99999999999977
 30
0.0
 11
83.0
 21
-33.99999999999977
 31
0.0
  0
ARC
  5
24DBC
330
A
100
AcDbEntity
  8
10
  6
Continuous
100
AcDbCircle
 10
-77.0
 20
-32.00000000000069
 30
0.0
 40
2.0
210
0.0
220
0.0
230
-1.0
100
AcDbArc
 50
238.2102960000011
 51
270.0
  0
ARC
  5
24DBD
330
A
100
AcDbEntity
  8
10
  6
Continuous
100
AcDbCircle
 10
82.5
 20
34.50000000000023
 30
0.0
 40
0.5
100
AcDbArc
 50
270.0
 51
0.0
  0
ARC
  5
24DBE
330
A
100
AcDbEntity
  8
10
  6
Continuous
100
AcDbCircle
 10
82.5
 20
-34.50000000000069
 30
0.0
 40
0.5
100
AcDbArc
 50
0.0
 51
90.0
  0
VIEWPORT
  5
1A93
102
{ACAD_XDICTIONARY
360
24DCF
102
}
330
B
100
AcDbEntity
 67
     1
  8
0
  6
Continuous
100
AcDbViewport
 10
5.613749947134903
 20
3.902083231708196
 30
0.0
 40
14.87469589274309
 41
8.746133096049151
 68
     1
 69
     1
 12
5.613749947134903
 22
3.902083231708196
 13
0.0
 23
0.0
 14
10.0
 24
10.0
 15
10.0
 25
10.0
 16
0.0
 26
0.0
 36
1.0
 17
0.0
 27
0.0
 37
0.0
 42
50.0
 43
0.0
 44
0.0
 45
8.746133096049151
 50
0.0
 51
0.0
 72
  2000
 90
    32800
  1

281
     0
 71
     1
 74
     0
110
0.0
120
0.0
130
0.0
111
1.0
121
0.0
131
0.0
112
0.0
122
1.0
132
0.0
 79
     0
146
0.0
  0
VIEWPORT
  5
1A95
102
{ACAD_XDICTIONARY
360
24DD1
102
}
330
B
100
AcDbEntity
 67
     1
  8
0
  6
Continuous
100
AcDbViewport
 10
5.613749965908018
 20
3.902083250481312
 30
0.0
 40
8.981999945452834
 41
6.243333200770099
 68
     2
 69
     2
 12
200828.2280000582
 22
-200237.220278856
 13
0.0
 23
0.0
 14
1.0
 24
1.0
 15
0.0
 25
0.0
 16
0.0
 26
0.0
 36
1.0
 17
0.0
 27
0.0
 37
0.0
 42
50.0
 43
0.0
 44
0.0
 45
409243.1622416905
 50
0.0
 51
0.0
 72
  2000
 90
    32800
  1

281
     0
 71
     1
 74
     0
110
0.0
120
0.0
130
0.0
111
1.0
121
0.0
131
0.0
112
0.0
122
1.0
132
0.0
 79
     0
146
0.0
  0
ENDSEC
  0
SECTION
  2
OBJECTS
  0
DICTIONARY
  5
19
330
0
100
AcDbDictionary
281
     1
  3
ACAD_COLOR
350
266B
  3
ACAD_GROUP
350
1A
  3
ACAD_LAYOUT
350
D20
  3
ACAD_MATERIAL
350
263E
  3
ACAD_MLEADERSTYLE
350
2690
  3
ACAD_MLINESTYLE
350
1B
  3
ACAD_PLOTSETTINGS
350
D21
  3
ACAD_PLOTSTYLENAME
350
D1E
  3
ACAD_SCALELIST
350
266E
  3
ACAD_TABLESTYLE
350
266C
  3
ACAD_VISUALSTYLE
350
2657
  3
ACDB_RECOMPOSE_DATA
350
24DC9
  3
AcDbVariableDictionary
350
25BA
  3
AEC_PROPERTY_SET_DEFS
350
5A45
  3
ASE_INDEX_DICTIONARY
350
2177A
  3
DWGPROPS
350
24DCA
  0
DICTIONARY
  5
150E5
330
7
100
AcDbDictionary
280
     1
281
     1
  0
DICTIONARY
  5
281C
330
14
100
AcDbDictionary
280
     1
281
     1
  3
ADSK_XREC_LAYER_RECONCILED
360
281D
  0
DICTIONARY
  5
2824
330
E26
100
AcDbDictionary
280
     1
281
     1
  3
ADSK_XREC_LAYER_RECONCILED
360
2825
  0
DICTIONARY
  5
2826
330
E27
100
AcDbDictionary
280
     1
281
     1
  3
ADSK_XREC_LAYER_RECONCILED
360
2827
  0
DICTIONARY
  5
2828
330
E28
100
AcDbDictionary
280
     1
281
     1
  3
ADSK_XREC_LAYER_RECONCILED
360
2829
  0
DICTIONARY
  5
282C
330
E2A
100
AcDbDictionary
280
     1
281
     1
  3
ADSK_XREC_LAYER_RECONCILED
360
282D
  0
DICTIONARY
  5
282E
330
E2B
100
AcDbDictionary
280
     1
281
     1
  3
ADSK_XREC_LAYER_RECONCILED
360
282F
  0
DICTIONARY
  5
2830
330
1E3E
100
AcDbDictionary
280
     1
281
     1
  3
ADSK_XREC_LAYER_RECONCILED
360
2831
  0
DICTIONARY
  5
2832
330
1E44
100
AcDbDictionary
280
     1
281
     1
  3
ADSK_XREC_LAYER_RECONCILED
360
2833
  0
DICTIONARY
  5
2763
330
A
100
AcDbDictionary
280
     1
281
     1
  3
ACAD_SORTENTS
360
2764
  0
DICTIONARY
  5
24D87
330
24D6E
100
AcDbDictionary
280
     1
281
     1
  3
ACAD_SORTENTS
360
24D88
  0
DICTIONARY
  5
24DCF
330
1A93
100
AcDbDictionary
280
     1
281
     1
  3
ACAD_XREC_ROUNDTRIP
360
24DD0
  0
DICTIONARY
  5
24DD1
330
1A95
100
AcDbDictionary
280
     1
281
     1
  3
ACAD_XREC_ROUNDTRIP
360
24DD2
  0
DICTIONARY
  5
266B
102
{ACAD_REACTORS
330
19
102
}
330
19
100
AcDbDictionary
281
     1
  0
DICTIONARY
  5
1A
102
{ACAD_REACTORS
330
19
102
}
330
19
100
AcDbDictionary
281
     1
  0
DICTIONARY
  5
D20
102
{ACAD_REACTORS
330
19
102
}
330
19
100
AcDbDictionary
281
     1
  3
Model
350
D22
  3
ﾚｲｱｳﾄ1
350
D23
  0
DICTIONARY
  5
263E
102
{ACAD_REACTORS
330
19
102
}
330
19
100
AcDbDictionary
281
     1
  3
ByBlock
350
2647
  3
ByLayer
350
263F
  3
Global
350
264F
  0
DICTIONARY
  5
2690
102
{ACAD_REACTORS
330
19
102
}
330
19
100
AcDbDictionary
281
     1
  3
Standard
350
2691
  0
DICTIONARY
  5
1B
102
{ACAD_REACTORS
330
19
102
}
330
19
100
AcDbDictionary
281
     1
  3
STANDARD
350
1C
  0
DICTIONARY
  5
D21
102
{ACAD_REACTORS
330
19
102
}
330
19
100
AcDbDictionary
281
     1
  0
ACDBDICTIONARYWDFLT
  5
D1E
102
{ACAD_REACTORS
330
19
102
}
330
19
100
AcDbDictionary
281
     1
  3
Normal
350
D1F
100
AcDbDictionaryWithDefault
340
D1F
  0
DICTIONARY
  5
266E
102
{ACAD_REACTORS
330
19
102
}
330
19
100
AcDbDictionary
281
     1
  3
A0
350
266F
  3
A1
350
2670
  3
A2
350
2671
  3
A3
350
2672
  3
A4
350
2673
  3
A5
350
2674
  3
A6
350
2675
  3
A7
350
2676
  3
A8
350
2677
  3
A9
350
2678
  3
B0
350
2679
  3
B1
350
267A
  3
B2
350
267B
  3
B3
350
267C
  3
B4
350
267D
  3
B5
350
267E
  3
B6
350
267F
  3
B7
350
2680
  3
B8
350
2681
  3
B9
350
2682
  3
C0
350
2683
  3
C1
350
2684
  3
C2
350
2685
  3
C3
350
2686
  3
C4
350
2687
  3
C5
350
2688
  3
C6
350
2689
  3
C7
350
268A
  3
C8
350
268B
  3
C9
350
268C
  3
D0
350
268D
  3
D1
350
268E
  3
D2
350
268F
  0
DICTIONARY
  5
266C
102
{ACAD_REACTORS
330
19
102
}
330
19
100
AcDbDictionary
281
     1
  3
Standard
350
266D
  0
DICTIONARY
  5
2657
102
{ACAD_REACTORS
330
19
102
}
330
19
100
AcDbDictionary
281
     1
  3
2dWireframe
350
265D
  3
3D Hidden
350
265F
  3
3dWireframe
350
265E
  3
Basic
350
265C
  3
Brighten
350
2663
  3
ColorChange
350
2667
  3
Conceptual
350
2660
  3
Dim
350
2662
  3
EdgeColorOff
350
266A
  3
Facepattern
350
2666
  3
Flat
350
2658
  3
FlatWithEdges
350
2659
  3
Gouraud
350
265A
  3
GouraudWithEdges
350
265B
  3
JitterOff
350
2668
  3
Linepattern
350
2665
  3
OverhangOff
350
2669
  3
Realistic
350
2661
  3
Thicken
350
2664
  0
XRECORD
  5
24DC9
102
{ACAD_REACTORS
330
19
102
}
330
19
100
AcDbXrecord
280
     1
 90
        1
330
266D
  0
DICTIONARY
  5
25BA
102
{ACAD_REACTORS
330
19
102
}
330
19
100
AcDbDictionary
281
     1
  3
CANNOSCALE
350
2836
  3
CMLEADERSTYLE
350
2835
  3
CTABLESTYLE
350
2834
  3
DIMASSOC
350
2838
  3
INDEXCTL
350
2837
  3
LAYEREVAL
350
14FF9
  3
LAYERNOTIFY
350
14FFA
  3
LIGHTINGUNITS
350
14FF8
  3
MSLTSCALE
350
14FF7
  3
SORTENTS
350
25BB
  3
XCLIPFRAME
350
24DC7
  0
DICTIONARY
  5
5A45
102
{ACAD_REACTORS
330
19
102
}
330
19
100
AcDbDictionary
281
     1
  0
DICTIONARY
  5
2177A
102
{ACAD_REACTORS
330
19
102
}
330
19
100
AcDbDictionary
281
     1
  3
ASEBlockHierarchyIndexRecord
350
2177B
1001
DCO15
1040
1850644261.421
  0
XRECORD
  5
24DCA
102
{ACAD_REACTORS
330
19
102
}
330
19
100
AcDbXrecord
280
     1
  1
DWGPROPS COOKIE
  2

  3

  4

  6

  7

  8
CAD-PC
  9

300
=
301
=
302
=
303
=
304
=
305
=
306
=
307
=
308
=
309
=
 40
0.3448290740740741
 41
2311949.301211632
 42
2457225.617417731
  1

 90
        0
  0
XRECORD
  5
281D
102
{ACAD_REACTORS
330
281C
102
}
330
281C
100
AcDbXrecord
280
     1
290
     1
  0
XRECORD
  5
2825
102
{ACAD_REACTORS
330
2824
102
}
330
2824
100
AcDbXrecord
280
     1
290
     1
  0
XRECORD
  5
2827
102
{ACAD_REACTORS
330
2826
102
}
330
2826
100
AcDbXrecord
280
     1
290
     1
  0
XRECORD
  5
2829
102
{ACAD_REACTORS
330
2828
102
}
330
2828
100
AcDbXrecord
280
     1
290
     1
  0
XRECORD
  5
282D
102
{ACAD_REACTORS
330
282C
102
}
330
282C
100
AcDbXrecord
280
     1
290
     1
  0
XRECORD
  5
282F
102
{ACAD_REACTORS
330
282E
102
}
330
282E
100
AcDbXrecord
280
     1
290
     1
  0
XRECORD
  5
2831
102
{ACAD_REACTORS
330
2830
102
}
330
2830
100
AcDbXrecord
280
     1
290
     1
  0
XRECORD
  5
2833
102
{ACAD_REACTORS
330
2832
102
}
330
2832
100
AcDbXrecord
280
     1
290
     1
  0
SORTENTSTABLE
  5
2764
102
{ACAD_REACTORS
330
2763
102
}
330
2763
100
AcDbSortentsTable
330
A
331
14FA2
  5
14FA2
331
254B
  5
254B
331
BC
  5
BC
331
8A
  5
8A
331
254E
  5
254E
331
BF
  5
BF
331
C2
  5
C2
331
14FC6
  5
14FC6
331
80E
  5
80E
331
76E
  5
76E
331
770
  5
770
331
CF2
  5
CF2
331
CFA
  5
CFA
331
20B10
  5
20B10
331
20B7D
  5
20B7D
331
1305C
  5
13114
331
8C0
  5
8C0
331
14782
  5
14786
331
20CF0
  5
20CF0
331
20CDC
  5
20CDC
331
2088
  5
2088
331
D08
  5
D08
331
2047
  5
2047
331
219A
  5
219A
331
254A
  5
254A
331
BB
  5
BB
331
2180
  5
2180
331
254D
  5
254D
331
2550
  5
2550
331
25AB
  5
25AB
331
80D
  5
80D
331
2164
  5
2164
331
CEB
  5
CEB
331
20A41
  5
20A41
331
25BC
  5
25BC
331
8B3
  5
8B3
331
20B0F
  5
20B0F
331
20C2A
  5
20C2A
331
8BF
  5
8BF
331
20CDB
  5
20CDB
331
24A0
  5
24A0
331
D0D
  5
D0D
331
14ED5
  5
14ED5
331
D13
  5
D13
331
14F03
  5
14F03
331
21E4
  5
21E4
331
2061
  5
2061
331
14FA3
  5
14FA3
331
254C
  5
254C
331
BD
  5
BD
331
C0
  5
C0
331
203A
  5
203A
331
254F
  5
254F
331
14FC7
  5
14FC7
331
25AA
  5
25AA
331
14FF5
  5
14FF5
331
76F
  5
76F
331
771
  5
771
331
25D1
  5
25D1
331
20B0E
  5
20B0E
331
20B11
  5
20B11
331
207B
  5
207B
331
20C29
  5
20C29
331
D01
  5
D01
331
21BF
  5
21BF
331
D09
  5
D09
331
B3
  5
B3
  0
SORTENTSTABLE
  5
24D88
102
{ACAD_REACTORS
330
24D87
102
}
330
24D87
100
AcDbSortentsTable
330
24D6E
  0
XRECORD
  5
24DD0
102
{ACAD_REACTORS
330
24DCF
102
}
330
24DCF
100
AcDbXrecord
280
     1
102
SHADEPLOT
 70
     0
  0
XRECORD
  5
24DD2
102
{ACAD_REACTORS
330
24DD1
102
}
330
24DD1
100
AcDbXrecord
280
     1
102
SHADEPLOT
 70
     0
  0
LAYOUT
  5
D22
102
{ACAD_XDICTIONARY
360
24DCB
102
}
102
{ACAD_REACTORS
330
D20
102
}
330
D20
100
AcDbPlotSettings
  1

  2
Canon LBP3800 LIPSLX
  4
A3
  6

 40
5.873749732971191
 41
5.873747825622557
 42
5.873748779296875
 43
5.873748779296875
 44
296.9259948730469
 45
419.9466552734373
 46
0.0
 47
31.31
 48
0.0
 49
0.0
140
0.0
141
0.0
142
1.0
143
3.687316866556828
 70
 11956
 72
     1
 73
     1
 74
     1
  7
monochrome.ctb
 75
     0
147
0.2711999093622208
148
514.4764523398682
149
-63.24229735472863
100
AcDbLayout
  1
Model
 70
     1
 71
     0
 10
0.0
 20
0.0
 11
12.0
 21
9.0
 12
0.0
 22
0.0
 32
0.0
 14
0.0
 24
0.0
 34
0.0
 15
0.0
 25
0.0
 35
0.0
146
0.0
 13
0.0
 23
0.0
 33
0.0
 16
1.0
 26
0.0
 36
0.0
 17
0.0
 27
1.0
 37
0.0
 76
     0
330
A
331
2636
  0
LAYOUT
  5
D23
102
{ACAD_XDICTIONARY
360
24DCD
102
}
102
{ACAD_REACTORS
330
D20
102
}
330
D20
100
AcDbPlotSettings
  1

  2
Canon LBP3800 LIPSLX
  4
A4
  6

 40
5.873749732971191
 41
5.873747825622557
 42
5.873748779296875
 43
5.873748779296875
 44
209.9733276367186
 45
296.9259948730469
 46
0.0
 47
0.0
 48
0.0
 49
0.0
140
0.0
141
0.0
142
1.0
143
1.0
 70
   688
 72
     0
 73
     1
 74
     5
  7
monochrome.ctb
 75
    16
147
1.0
148
0.0
149
0.0
100
AcDbLayout
  1
ﾚｲｱｳﾄ1
 70
     1
 71
     1
 10
-0.2312499519408218
 20
-0.2312499894870548
 11
11.4587498462106
 21
8.035416452903447
 12
0.0
 22
0.0
 32
0.0
 14
1.122749993181602
 24
0.7804166500962629
 34
0.0
 15
10.10474993863443
 25
7.023749850866361
 35
0.0
146
0.0
 13
0.0
 23
0.0
 33
0.0
 16
1.0
 26
0.0
 36
0.0
 17
0.0
 27
1.0
 37
0.0
 76
     0
330
B
331
1A93
  0
MATERIAL
  5
2647
102
{ACAD_XDICTIONARY
360
2648
102
}
102
{ACAD_REACTORS
330
263E
102
}
330
263E
100
AcDbMaterial
  1
ByBlock
 72
     0
 43
0.0208333333333333
 43
0.0
 43
0.0
 43
0.0
 43
0.0
 43
0.0208333333333333
 43
0.0
 43
0.0
 43
0.0
 43
0.0
 43
1.0
 43
0.0
 43
0.0
 43
0.0
 43
0.0
 43
1.0
 77
     0
 47
0.0208333333333333
 47
0.0
 47
0.0
 47
0.0
 47
0.0
 47
0.0208333333333333
 47
0.0
 47
0.0
 47
0.0
 47
0.0
 47
1.0
 47
0.0
 47
0.0
 47
0.0
 47
0.0
 47
1.0
171
     0
 49
0.0208333333333333
 49
0.0
 49
0.0
 49
0.0
 49
0.0
 49
0.0208333333333333
 49
0.0
 49
0.0
 49
0.0
 49
0.0
 49
1.0
 49
0.0
 49
0.0
 49
0.0
 49
0.0
 49
1.0
175
     0
142
0.0208333333333333
142
0.0
142
0.0
142
0.0
142
0.0
142
0.0208333333333333
142
0.0
142
0.0
142
0.0
142
0.0
142
1.0
142
0.0
142
0.0
142
0.0
142
0.0
142
1.0
179
     0
144
0.0208333333333333
144
0.0
144
0.0
144
0.0
144
0.0
144
0.0208333333333333
144
0.0
144
0.0
144
0.0
144
0.0
144
1.0
144
0.0
144
0.0
144
0.0
144
0.0
144
1.0
147
0.0208333333333333
147
0.0
147
0.0
147
0.0
147
0.0
147
0.0208333333333333
147
0.0
147
0.0
147
0.0
147
0.0
147
1.0
147
0.0
147
0.0
147
0.0
147
0.0
147
1.0
  0
MATERIAL
  5
263F
102
{ACAD_XDICTIONARY
360
2640
102
}
102
{ACAD_REACTORS
330
263E
102
}
330
263E
100
AcDbMaterial
  1
ByLayer
 72
     0
 43
0.0208333333333333
 43
0.0
 43
0.0
 43
0.0
 43
0.0
 43
0.0208333333333333
 43
0.0
 43
0.0
 43
0.0
 43
0.0
 43
1.0
 43
0.0
 43
0.0
 43
0.0
 43
0.0
 43
1.0
 77
     0
 47
0.0208333333333333
 47
0.0
 47
0.0
 47
0.0
 47
0.0
 47
0.0208333333333333
 47
0.0
 47
0.0
 47
0.0
 47
0.0
 47
1.0
 47
0.0
 47
0.0
 47
0.0
 47
0.0
 47
1.0
171
     0
 49
0.0208333333333333
 49
0.0
 49
0.0
 49
0.0
 49
0.0
 49
0.0208333333333333
 49
0.0
 49
0.0
 49
0.0
 49
0.0
 49
1.0
 49
0.0
 49
0.0
 49
0.0
 49
0.0
 49
1.0
175
     0
142
0.0208333333333333
142
0.0
142
0.0
142
0.0
142
0.0
142
0.0208333333333333
142
0.0
142
0.0
142
0.0
142
0.0
142
1.0
142
0.0
142
0.0
142
0.0
142
0.0
142
1.0
179
     0
144
0.0208333333333333
144
0.0
144
0.0
144
0.0
144
0.0
144
0.0208333333333333
144
0.0
144
0.0
144
0.0
144
0.0
144
1.0
144
0.0
144
0.0
144
0.0
144
0.0
144
1.0
147
0.0208333333333333
147
0.0
147
0.0
147
0.0
147
0.0
147
0.0208333333333333
147
0.0
147
0.0
147
0.0
147
0.0
147
1.0
147
0.0
147
0.0
147
0.0
147
0.0
147
1.0
  0
MATERIAL
  5
264F
102
{ACAD_XDICTIONARY
360
2650
102
}
102
{ACAD_REACTORS
330
263E
102
}
330
263E
100
AcDbMaterial
  1
Global
 72
     0
 43
0.0208333333333333
 43
0.0
 43
0.0
 43
0.0
 43
0.0
 43
0.0208333333333333
 43
0.0
 43
0.0
 43
0.0
 43
0.0
 43
1.0
 43
0.0
 43
0.0
 43
0.0
 43
0.0
 43
1.0
 77
     0
 47
0.0208333333333333
 47
0.0
 47
0.0
 47
0.0
 47
0.0
 47
0.0208333333333333
 47
0.0
 47
0.0
 47
0.0
 47
0.0
 47
1.0
 47
0.0
 47
0.0
 47
0.0
 47
0.0
 47
1.0
171
     0
 49
0.0208333333333333
 49
0.0
 49
0.0
 49
0.0
 49
0.0
 49
0.0208333333333333
 49
0.0
 49
0.0
 49
0.0
 49
0.0
 49
1.0
 49
0.0
 49
0.0
 49
0.0
 49
0.0
 49
1.0
175
     0
142
0.0208333333333333
142
0.0
142
0.0
142
0.0
142
0.0
142
0.0208333333333333
142
0.0
142
0.0
142
0.0
142
0.0
142
1.0
142
0.0
142
0.0
142
0.0
142
0.0
142
1.0
179
     0
144
0.0208333333333333
144
0.0
144
0.0
144
0.0
144
0.0
144
0.0208333333333333
144
0.0
144
0.0
144
0.0
144
0.0
144
1.0
144
0.0
144
0.0
144
0.0
144
0.0
144
1.0
147
0.0208333333333333
147
0.0
147
0.0
147
0.0
147
0.0
147
0.0208333333333333
147
0.0
147
0.0
147
0.0
147
0.0
147
1.0
147
0.0
147
0.0
147
0.0
147
0.0
147
1.0
  0
MLEADERSTYLE
  5
2691
102
{ACAD_REACTORS
330
2690
102
}
330
2690
100
AcDbMLeaderStyle
170
     2
171
     1
172
     0
 90
        2
 40
0.0
 41
0.0
173
     1
 91
-1056964608
340
11
 92
       -2
290
     1
 42
0.09
291
     1
 43
0.36
  3
Standard
 44
0.18
300

342
17
174
     1
178
     6
175
     1
176
     0
 93
-1056964608
 45
0.18
292
     0
297
     0
 46
0.18
 94
-1056964608
 47
1.0
 49
1.0
140
1.0
293
     1
141
0.0
294
     1
177
     0
142
1.0
295
     0
296
     0
143
0.125
1001
ACAD_MLEADERVER
1070
     2
  0
MLINESTYLE
  5
1C
102
{ACAD_REACTORS
330
1B
102
}
330
1B
100
AcDbMlineStyle
  2
STANDARD
 70
     0
  3

 62
     0
 51
90.0
 52
90.0
 71
     2
 49
0.5
 62
   256
  6
BYLAYER
 49
-0.5
 62
   256
  6
BYLAYER
  0
ACDBPLACEHOLDER
  5
D1F
102
{ACAD_REACTORS
330
D1E
102
}
330
D1E
  0
SCALE
  5
266F
102
{ACAD_REACTORS
330
266E
102
}
330
266E
100
AcDbScale
 70
     0
300
1:1
140
1.0
141
1.0
290
     1
  0
SCALE
  5
2670
102
{ACAD_REACTORS
330
266E
102
}
330
266E
100
AcDbScale
 70
     0
300
1:2
140
1.0
141
2.0
290
     0
  0
SCALE
  5
2671
102
{ACAD_REACTORS
330
266E
102
}
330
266E
100
AcDbScale
 70
     0
300
1:4
140
1.0
141
4.0
290
     0
  0
SCALE
  5
2672
102
{ACAD_REACTORS
330
266E
102
}
330
266E
100
AcDbScale
 70
     0
300
1:5
140
1.0
141
5.0
290
     0
  0
SCALE
  5
2673
102
{ACAD_REACTORS
330
266E
102
}
330
266E
100
AcDbScale
 70
     0
300
1:8
140
1.0
141
8.0
290
     0
  0
SCALE
  5
2674
102
{ACAD_REACTORS
330
266E
102
}
330
266E
100
AcDbScale
 70
     0
300
1:10
140
1.0
141
10.0
290
     0
  0
SCALE
  5
2675
102
{ACAD_REACTORS
330
266E
102
}
330
266E
100
AcDbScale
 70
     0
300
1:16
140
1.0
141
16.0
290
     0
  0
SCALE
  5
2676
102
{ACAD_REACTORS
330
266E
102
}
330
266E
100
AcDbScale
 70
     0
300
1:20
140
1.0
141
20.0
290
     0
  0
SCALE
  5
2677
102
{ACAD_REACTORS
330
266E
102
}
330
266E
100
AcDbScale
 70
     0
300
1:30
140
1.0
141
30.0
290
     0
  0
SCALE
  5
2678
102
{ACAD_REACTORS
330
266E
102
}
330
266E
100
AcDbScale
 70
     0
300
1:40
140
1.0
141
40.0
290
     0
  0
SCALE
  5
2679
102
{ACAD_REACTORS
330
266E
102
}
330
266E
100
AcDbScale
 70
     0
300
1:50
140
1.0
141
50.0
290
     0
  0
SCALE
  5
267A
102
{ACAD_REACTORS
330
266E
102
}
330
266E
100
AcDbScale
 70
     0
300
1:100
140
1.0
141
100.0
290
     0
  0
SCALE
  5
267B
102
{ACAD_REACTORS
330
266E
102
}
330
266E
100
AcDbScale
 70
     0
300
2:1
140
2.0
141
1.0
290
     0
  0
SCALE
  5
267C
102
{ACAD_REACTORS
330
266E
102
}
330
266E
100
AcDbScale
 70
     0
300
4:1
140
4.0
141
1.0
290
     0
  0
SCALE
  5
267D
102
{ACAD_REACTORS
330
266E
102
}
330
266E
100
AcDbScale
 70
     0
300
8:1
140
8.0
141
1.0
290
     0
  0
SCALE
  5
267E
102
{ACAD_REACTORS
330
266E
102
}
330
266E
100
AcDbScale
 70
     0
300
10:1
140
10.0
141
1.0
290
     0
  0
SCALE
  5
267F
102
{ACAD_REACTORS
330
266E
102
}
330
266E
100
AcDbScale
 70
     0
300
100:1
140
100.0
141
1.0
290
     0
  0
SCALE
  5
2680
102
{ACAD_REACTORS
330
266E
102
}
330
266E
100
AcDbScale
 70
     0
300
1/128" = 1'-0"
140
0.0078125
141
12.0
290
     0
  0
SCALE
  5
2681
102
{ACAD_REACTORS
330
266E
102
}
330
266E
100
AcDbScale
 70
     0
300
1/64" = 1'-0"
140
0.015625
141
12.0
290
     0
  0
SCALE
  5
2682
102
{ACAD_REACTORS
330
266E
102
}
330
266E
100
AcDbScale
 70
     0
300
1/32" = 1'-0"
140
0.03125
141
12.0
290
     0
  0
SCALE
  5
2683
102
{ACAD_REACTORS
330
266E
102
}
330
266E
100
AcDbScale
 70
     0
300
1/16" = 1'-0"
140
0.0625
141
12.0
290
     0
  0
SCALE
  5
2684
102
{ACAD_REACTORS
330
266E
102
}
330
266E
100
AcDbScale
 70
     0
300
3/32" = 1'-0"
140
0.09375
141
12.0
290
     0
  0
SCALE
  5
2685
102
{ACAD_REACTORS
330
266E
102
}
330
266E
100
AcDbScale
 70
     0
300
1/8" = 1'-0"
140
0.125
141
12.0
290
     0
  0
SCALE
  5
2686
102
{ACAD_REACTORS
330
266E
102
}
330
266E
100
AcDbScale
 70
     0
300
3/16" = 1'-0"
140
0.1875
141
12.0
290
     0
  0
SCALE
  5
2687
102
{ACAD_REACTORS
330
266E
102
}
330
266E
100
AcDbScale
 70
     0
300
1/4" = 1'-0"
140
0.25
141
12.0
290
     0
  0
SCALE
  5
2688
102
{ACAD_REACTORS
330
266E
102
}
330
266E
100
AcDbScale
 70
     0
300
3/8" = 1'-0"
140
0.375
141
12.0
290
     0
  0
SCALE
  5
2689
102
{ACAD_REACTORS
330
266E
102
}
330
266E
100
AcDbScale
 70
     0
300
1/2" = 1'-0"
140
0.5
141
12.0
290
     0
  0
SCALE
  5
268A
102
{ACAD_REACTORS
330
266E
102
}
330
266E
100
AcDbScale
 70
     0
300
3/4" = 1'-0"
140
0.75
141
12.0
290
     0
  0
SCALE
  5
268B
102
{ACAD_REACTORS
330
266E
102
}
330
266E
100
AcDbScale
 70
     0
300
1" = 1'-0"
140
1.0
141
12.0
290
     0
  0
SCALE
  5
268C
102
{ACAD_REACTORS
330
266E
102
}
330
266E
100
AcDbScale
 70
     0
300
1-1/2" = 1'-0"
140
1.5
141
12.0
290
     0
  0
SCALE
  5
268D
102
{ACAD_REACTORS
330
266E
102
}
330
266E
100
AcDbScale
 70
     0
300
3" = 1'-0"
140
3.0
141
12.0
290
     0
  0
SCALE
  5
268E
102
{ACAD_REACTORS
330
266E
102
}
330
266E
100
AcDbScale
 70
     0
300
6" = 1'-0"
140
6.0
141
12.0
290
     0
  0
SCALE
  5
268F
102
{ACAD_REACTORS
330
266E
102
}
330
266E
100
AcDbScale
 70
     0
300
1'-0" = 1'-0"
140
12.0
141
12.0
290
     0
  0
TABLESTYLE
  5
266D
102
{ACAD_XDICTIONARY
360
283A
102
}
102
{ACAD_REACTORS
330
266C
102
}
330
266C
100
AcDbTableStyle
  3
Standard
 70
     0
 71
     0
 40
0.06
 41
0.06
280
     0
281
     0
  7
STANDARD
140
0.18
170
     2
 62
     0
 63
     7
283
     0
274
    -2
284
     1
 64
     0
275
    -2
285
     1
 65
     0
276
    -2
286
     1
 66
     0
277
    -2
287
     1
 67
     0
278
    -2
288
     1
 68
     0
279
    -2
289
     1
 69
     0
  7
STANDARD
140
0.25
170
     5
 62
     0
 63
     7
283
     0
274
    -2
284
     1
 64
     0
275
    -2
285
     1
 65
     0
276
    -2
286
     1
 66
     0
277
    -2
287
     1
 67
     0
278
    -2
288
     1
 68
     0
279
    -2
289
     1
 69
     0
  7
STANDARD
140
0.18
170
     5
 62
     0
 63
     7
283
     0
274
    -2
284
     1
 64
     0
275
    -2
285
     1
 65
     0
276
    -2
286
     1
 66
     0
277
    -2
287
     1
 67
     0
278
    -2
288
     1
 68
     0
279
    -2
289
     1
 69
     0
  0
VISUALSTYLE
  5
265D
102
{ACAD_XDICTIONARY
360
24DDD
102
}
102
{ACAD_REACTORS
330
2657
102
}
330
2657
100
AcDbVisualStyle
  2

 70
     4
 71
     0
 72
     2
 73
     0
 90
        0
 40
-0.6
 41
-30.0
 62
     5
 63
     7
 74
     1
 91
        4
 64
     7
 65
   257
 75
     1
175
     1
 42
1.0
 92
        0
 66
   257
 43
1.0
 76
     1
 77
     6
 78
     2
 67
     7
 79
     5
170
     0
171
     0
290
     0
174
     0
 93
        1
 44
0.0
173
     0
291
     0
 45
0.0
1001
ACAD
1000
AcDbSavedByObjectVersion
1070
     0
  0
VISUALSTYLE
  5
265F
102
{ACAD_XDICTIONARY
360
24DE1
102
}
102
{ACAD_REACTORS
330
2657
102
}
330
2657
100
AcDbVisualStyle
  2

 70
     6
 71
     1
 72
     2
 73
     2
 90
        0
 40
-0.6
 41
-30.0
 62
     5
 63
     7
 74
     2
 91
        2
 64
     7
 65
   257
 75
     2
175
     1
 42
179.0
 92
        0
 66
   257
 43
1.0
 76
     1
 77
     6
 78
     2
 67
     7
 79
     3
170
     0
171
     0
290
     0
174
     0
 93
        1
 44
0.0
173
     0
291
     0
 45
0.0
1001
ACAD
1000
AcDbSavedByObjectVersion
1070
     0
  0
VISUALSTYLE
  5
265E
102
{ACAD_XDICTIONARY
360
24DDF
102
}
102
{ACAD_REACTORS
330
2657
102
}
330
2657
100
AcDbVisualStyle
  2

 70
     5
 71
     0
 72
     2
 73
     0
 90
        0
 40
-0.6
 41
-30.0
 62
     5
 63
     7
 74
     1
 91
        4
 64
     7
 65
   257
 75
     1
175
     1
 42
1.0
 92
        0
 66
   257
 43
1.0
 76
     1
 77
     6
 78
     2
 67
     7
 79
     5
170
     0
171
     0
290
     0
174
     0
 93
        1
 44
0.0
173
     0
291
     0
 45
0.0
1001
ACAD
1000
AcDbSavedByObjectVersion
1070
     0
  0
VISUALSTYLE
  5
265C
102
{ACAD_XDICTIONARY
360
24DDB
102
}
102
{ACAD_REACTORS
330
2657
102
}
330
2657
100
AcDbVisualStyle
  2

 70
     7
 71
     1
 72
     0
 73
     1
 90
        0
 40
-0.6
 41
-30.0
 62
     5
 63
     7
 74
     0
 91
        4
 64
     7
 65
   257
 75
     1
175
     1
 42
1.0
 92
        8
 66
     7
 43
1.0
 76
     1
 77
     6
 78
     2
 67
     7
 79
     5
170
     0
171
     0
290
     0
174
     0
 93
        1
 44
0.0
173
     0
291
     1
 45
0.0
1001
ACAD
1000
AcDbSavedByObjectVersion
1070
     0
  0
VISUALSTYLE
  5
2663
102
{ACAD_XDICTIONARY
360
24DE9
102
}
102
{ACAD_REACTORS
330
2657
102
}
330
2657
100
AcDbVisualStyle
  2

 70
    12
 71
     2
 72
     2
 73
     0
 90
        0
 40
-0.6
 41
-30.0
 62
     5
 63
     7
 74
     1
 91
        4
 64
     7
 65
   257
 75
     1
175
     1
 42
1.0
 92
        8
 66
     7
 43
1.0
 76
     1
 77
     6
 78
     2
 67
     7
 79
     5
170
     0
171
     0
290
     0
174
     0
 93
        1
 44
50.0
173
     0
291
     1
 45
0.0
1001
ACAD
1000
AcDbSavedByObjectVersion
1070
     0
  0
VISUALSTYLE
  5
2667
102
{ACAD_XDICTIONARY
360
24DF1
102
}
102
{ACAD_REACTORS
330
2657
102
}
330
2657
100
AcDbVisualStyle
  2

 70
    16
 71
     2
 72
     2
 73
     3
 90
        0
 40
-0.6
 41
-30.0
 62
     5
 63
     8
 74
     1
 91
        4
 64
     7
 65
   257
 75
     1
175
     1
 42
1.0
 92
        8
 66
     8
 43
1.0
 76
     1
 77
     6
 78
     2
 67
     7
 79
     5
170
     0
171
     0
290
     0
174
     0
 93
        1
 44
0.0
173
     0
291
     1
 45
0.0
1001
ACAD
1000
AcDbSavedByObjectVersion
1070
     0
  0
VISUALSTYLE
  5
2660
102
{ACAD_XDICTIONARY
360
24DE3
102
}
102
{ACAD_REACTORS
330
2657
102
}
330
2657
100
AcDbVisualStyle
  2

 70
     9
 71
     3
 72
     2
 73
     0
 90
        0
 40
-0.6
 41
-30.0
 62
     5
 63
     7
 74
     2
 91
        2
 64
     7
 65
   257
 75
     1
175
     1
 42
179.0
 92
        8
 66
     7
 43
1.0
 76
     1
 77
     6
 78
     2
 67
     7
 79
     3
170
     0
171
     0
290
     0
174
     0
 93
        1
 44
0.0
173
     0
291
     0
 45
0.0
1001
ACAD
1000
AcDbSavedByObjectVersion
1070
     0
  0
VISUALSTYLE
  5
2662
102
{ACAD_XDICTIONARY
360
24DE7
102
}
102
{ACAD_REACTORS
330
2657
102
}
330
2657
100
AcDbVisualStyle
  2

 70
    11
 71
     2
 72
     2
 73
     0
 90
        0
 40
-0.6
 41
-30.0
 62
     5
 63
     7
 74
     1
 91
        4
 64
     7
 65
   257
 75
     1
175
     1
 42
1.0
 92
        8
 66
     7
 43
1.0
 76
     1
 77
     6
 78
     2
 67
     7
 79
     5
170
     0
171
     0
290
     0
174
     0
 93
        1
 44
-50.0
173
     0
291
     1
 45
0.0
1001
ACAD
1000
AcDbSavedByObjectVersion
1070
     0
  0
VISUALSTYLE
  5
266A
102
{ACAD_XDICTIONARY
360
24DF7
102
}
102
{ACAD_REACTORS
330
2657
102
}
330
2657
100
AcDbVisualStyle
  2

 70
    22
 71
     2
 72
     2
 73
     0
 90
        0
 40
-0.6
 41
-30.0
 62
     5
 63
     7
 74
     1
 91
        4
 64
     7
 65
   257
 75
     1
175
     1
 42
1.0
 92
        8
 66
     7
 43
1.0
 76
     1
 77
     6
 78
     2
 67
     7
 79
     5
170
     0
171
     0
290
     0
174
     0
 93
        1
 44
0.0
173
     0
291
     1
 45
0.0
1001
ACAD
1000
AcDbSavedByObjectVersion
1070
     0
  0
VISUALSTYLE
  5
2666
102
{ACAD_XDICTIONARY
360
24DEF
102
}
102
{ACAD_REACTORS
330
2657
102
}
330
2657
100
AcDbVisualStyle
  2

 70
    15
 71
     2
 72
     2
 73
     0
 90
        0
 40
-0.6
 41
-30.0
 62
     5
 63
     7
 74
     1
 91
        4
 64
     7
 65
   257
 75
     1
175
     1
 42
1.0
 92
        8
 66
     7
 43
1.0
 76
     1
 77
     6
 78
     2
 67
     7
 79
     5
170
     0
171
     0
290
     0
174
     0
 93
        1
 44
0.0
173
     0
291
     1
 45
0.0
1001
ACAD
1000
AcDbSavedByObjectVersion
1070
     0
  0
VISUALSTYLE
  5
2658
102
{ACAD_XDICTIONARY
360
24DD3
102
}
102
{ACAD_REACTORS
330
2657
102
}
330
2657
100
AcDbVisualStyle
  2

 70
     0
 71
     2
 72
     1
 73
     1
 90
        2
 40
-0.6
 41
30.0
 62
     5
 63
     7
 74
     0
 91
        4
 64
     7
 65
   257
 75
     1
175
     1
 42
1.0
 92
        8
 66
     7
 43
1.0
 76
     1
 77
     6
 78
     2
 67
     7
 79
     5
170
     0
171
     0
290
     0
174
     0
 93
       13
 44
0.0
173
     0
291
     1
 45
0.0
1001
ACAD
1000
AcDbSavedByObjectVersion
1070
     0
  0
VISUALSTYLE
  5
2659
102
{ACAD_XDICTIONARY
360
24DD5
102
}
102
{ACAD_REACTORS
330
2657
102
}
330
2657
100
AcDbVisualStyle
  2

 70
     1
 71
     2
 72
     1
 73
     1
 90
        2
 40
-0.6
 41
30.0
 62
     5
 63
     7
 74
     1
 91
        4
 64
     7
 65
   257
 75
     1
175
     1
 42
1.0
 92
        0
 66
   257
 43
1.0
 76
     1
 77
     6
 78
     2
 67
     7
 79
     5
170
     0
171
     0
290
     0
174
     0
 93
       13
 44
0.0
173
     0
291
     1
 45
0.0
1001
ACAD
1000
AcDbSavedByObjectVersion
1070
     0
  0
VISUALSTYLE
  5
265A
102
{ACAD_XDICTIONARY
360
24DD7
102
}
102
{ACAD_REACTORS
330
2657
102
}
330
2657
100
AcDbVisualStyle
  2

 70
     2
 71
     2
 72
     2
 73
     1
 90
        2
 40
-0.6
 41
30.0
 62
     5
 63
     7
 74
     0
 91
        4
 64
     7
 65
   257
 75
     1
175
     1
 42
1.0
 92
        0
 66
     7
 43
1.0
 76
     1
 77
     6
 78
     2
 67
     7
 79
     5
170
     0
171
     0
290
     0
174
     0
 93
       13
 44
0.0
173
     0
291
     1
 45
0.0
1001
ACAD
1000
AcDbSavedByObjectVersion
1070
     0
  0
VISUALSTYLE
  5
265B
102
{ACAD_XDICTIONARY
360
24DD9
102
}
102
{ACAD_REACTORS
330
2657
102
}
330
2657
100
AcDbVisualStyle
  2

 70
     3
 71
     2
 72
     2
 73
     1
 90
        2
 40
-0.6
 41
30.0
 62
     5
 63
     7
 74
     1
 91
        4
 64
     7
 65
   257
 75
     1
175
     1
 42
1.0
 92
        0
 66
   257
 43
1.0
 76
     1
 77
     6
 78
     2
 67
     7
 79
     5
170
     0
171
     0
290
     0
174
     0
 93
       13
 44
0.0
173
     0
291
     1
 45
0.0
1001
ACAD
1000
AcDbSavedByObjectVersion
1070
     0
  0
VISUALSTYLE
  5
2668
102
{ACAD_XDICTIONARY
360
24DF3
102
}
102
{ACAD_REACTORS
330
2657
102
}
330
2657
100
AcDbVisualStyle
  2

 70
    20
 71
     2
 72
     2
 73
     0
 90
        0
 40
-0.6
 41
-30.0
 62
     5
 63
     7
 74
     1
 91
        4
 64
     7
 65
   257
 75
     1
175
     1
 42
1.0
 92
       10
 66
     7
 43
1.0
 76
     1
 77
     6
 78
     2
 67
     7
 79
     5
170
     0
171
     0
290
     0
174
     0
 93
        1
 44
0.0
173
     0
291
     1
 45
0.0
1001
ACAD
1000
AcDbSavedByObjectVersion
1070
     0
  0
VISUALSTYLE
  5
2665
102
{ACAD_XDICTIONARY
360
24DED
102
}
102
{ACAD_REACTORS
330
2657
102
}
330
2657
100
AcDbVisualStyle
  2

 70
    14
 71
     2
 72
     2
 73
     0
 90
        0
 40
-0.6
 41
-30.0
 62
     5
 63
     7
 74
     1
 91
        4
 64
     7
 65
   257
 75
     7
175
     7
 42
1.0
 92
        8
 66
     7
 43
1.0
 76
     1
 77
     6
 78
     2
 67
     7
 79
     5
170
     0
171
     0
290
     0
174
     0
 93
        1
 44
0.0
173
     0
291
     1
 45
0.0
1001
ACAD
1000
AcDbSavedByObjectVersion
1070
     0
  0
VISUALSTYLE
  5
2669
102
{ACAD_XDICTIONARY
360
24DF5
102
}
102
{ACAD_REACTORS
330
2657
102
}
330
2657
100
AcDbVisualStyle
  2

 70
    21
 71
     2
 72
     2
 73
     0
 90
        0
 40
-0.6
 41
-30.0
 62
     5
 63
     7
 74
     1
 91
        4
 64
     7
 65
   257
 75
     1
175
     1
 42
1.0
 92
        9
 66
     7
 43
1.0
 76
     1
 77
     6
 78
     2
 67
     7
 79
     5
170
     0
171
     0
290
     0
174
     0
 93
        1
 44
0.0
173
     0
291
     1
 45
0.0
1001
ACAD
1000
AcDbSavedByObjectVersion
1070
     0
  0
VISUALSTYLE
  5
2661
102
{ACAD_XDICTIONARY
360
24DE5
102
}
102
{ACAD_REACTORS
330
2657
102
}
330
2657
100
AcDbVisualStyle
  2

 70
     8
 71
     2
 72
     2
 73
     0
 90
        0
 40
-0.6
 41
-30.0
 62
     5
 63
     7
 74
     1
 91
        0
 64
     7
 65
   257
 75
     1
175
     1
 42
1.0
 92
        8
 66
     8
 43
1.0
 76
     1
 77
     6
 78
     2
 67
     7
 79
     5
170
     0
171
     0
290
     0
174
     0
 93
       13
 44
0.0
173
     0
291
     0
 45
0.0
1001
ACAD
1000
AcDbSavedByObjectVersion
1070
     0
  0
VISUALSTYLE
  5
2664
102
{ACAD_XDICTIONARY
360
24DEB
102
}
102
{ACAD_REACTORS
330
2657
102
}
330
2657
100
AcDbVisualStyle
  2

 70
    13
 71
     2
 72
     2
 73
     0
 90
        0
 40
-0.6
 41
-30.0
 62
     5
 63
     7
 74
     1
 91
        4
 64
     7
 65
   257
 75
     1
175
     1
 42
1.0
 92
       12
 66
     7
 43
1.0
 76
     1
 77
     6
 78
     2
 67
     7
 79
     5
170
     0
171
     0
290
     0
174
     0
 93
        1
 44
0.0
173
     0
291
     1
 45
0.0
1001
ACAD
1000
AcDbSavedByObjectVersion
1070
     0
  0
DICTIONARYVAR
  5
2836
102
{ACAD_REACTORS
330
25BA
102
}
330
25BA
100
DictionaryVariables
280
     0
  1
1:1
  0
DICTIONARYVAR
  5
2835
102
{ACAD_REACTORS
330
25BA
102
}
330
25BA
100
DictionaryVariables
280
     0
  1
STANDARD
  0
DICTIONARYVAR
  5
2834
102
{ACAD_REACTORS
330
25BA
102
}
330
25BA
100
DictionaryVariables
280
     0
  1
STANDARD
  0
DICTIONARYVAR
  5
2838
102
{ACAD_REACTORS
330
25BA
102
}
330
25BA
100
DictionaryVariables
280
     0
  1
1
  0
DICTIONARYVAR
  5
2837
102
{ACAD_REACTORS
330
25BA
102
}
330
25BA
100
DictionaryVariables
280
     0
  1
0
  0
DICTIONARYVAR
  5
14FF9
102
{ACAD_REACTORS
330
25BA
102
}
330
25BA
100
DictionaryVariables
280
     0
  1
1
  0
DICTIONARYVAR
  5
14FFA
102
{ACAD_REACTORS
330
25BA
102
}
330
25BA
100
DictionaryVariables
280
     0
  1
15
  0
DICTIONARYVAR
  5
14FF8
102
{ACAD_REACTORS
330
25BA
102
}
330
25BA
100
DictionaryVariables
280
     0
  1
0
  0
DICTIONARYVAR
  5
14FF7
102
{ACAD_REACTORS
330
25BA
102
}
330
25BA
100
DictionaryVariables
280
     0
  1
0
  0
DICTIONARYVAR
  5
25BB
102
{ACAD_REACTORS
330
25BA
102
}
330
25BA
100
DictionaryVariables
280
     0
  1
96
  0
DICTIONARYVAR
  5
24DC7
102
{ACAD_REACTORS
330
25BA
102
}
330
25BA
100
DictionaryVariables
280
     0
  1
2
  0
XRECORD
  5
2177B
102
{ACAD_REACTORS
330
2177A
102
}
330
2177A
100
AcDbXrecord
280
     1
330
248D8
330
248D9
330
23137
330
23138
330
24089
330
2408A
330
23D20
330
23D21
330
23D29
330
23D2A
330
23FAB
330
23FAC
330
23FB3
330
23FB4
330
23FBF
330
23FC0
330
23FCA
330
23FCB
330
23FD2
330
23FD3
330
24071
330
24072
330
23FE4
330
23FE5
330
23FED
330
23FEE
330
23FF6
330
23FF7
330
2490D
330
2490E
330
23D51
330
23D52
330
23D35
330
23D36
330
23D3D
330
23D3E
330
23D49
330
23D4A
330
24903
330
24904
330
23D5D
330
23D5E
  0
DICTIONARY
  5
24DCB
330
D22
100
AcDbDictionary
280
     1
281
     1
  3
ACAD_XREC_ROUNDTRIP
360
24DCC
  0
DICTIONARY
  5
24DCD
330
D23
100
AcDbDictionary
280
     1
281
     1
  3
ACAD_XREC_ROUNDTRIP
360
24DCE
  0
DICTIONARY
  5
2648
330
2647
100
AcDbDictionary
280
     1
281
     1
  3
ACAD_XREC_ROUNDTRIP
360
24A46
  3
BUMPTILE
360
264A
  3
DIFFUSETILE
360
2649
  3
OPACITYTILE
360
264D
  3
REFLECTIONTILE
360
264C
  3
REFRACTIONTILE
360
264E
  3
SPECULARTILE
360
264B
  0
DICTIONARY
  5
2640
330
263F
100
AcDbDictionary
280
     1
281
     1
  3
ACAD_XREC_ROUNDTRIP
360
24A45
  3
BUMPTILE
360
2642
  3
DIFFUSETILE
360
2641
  3
OPACITYTILE
360
2645
  3
REFLECTIONTILE
360
2644
  3
REFRACTIONTILE
360
2646
  3
SPECULARTILE
360
2643
  0
DICTIONARY
  5
2650
330
264F
100
AcDbDictionary
280
     1
281
     1
  3
ACAD_XREC_ROUNDTRIP
360
24A47
  3
BUMPTILE
360
2652
  3
DIFFUSETILE
360
2651
  3
OPACITYTILE
360
2655
  3
REFLECTIONTILE
360
2654
  3
REFRACTIONTILE
360
2656
  3
SPECULARTILE
360
2653
  0
DICTIONARY
  5
283A
330
266D
100
AcDbDictionary
280
     1
281
     1
  3
ACAD_ROUNDTRIP_2008_TABLESTYLE_CELLSTYLEMAP
360
24DC8
  3
ACAD_XREC_ROUNDTRIP
360
24DF9
  0
DICTIONARY
  5
24DDD
330
265D
100
AcDbDictionary
280
     1
281
     1
  3
ACAD_XREC_ROUNDTRIP
360
24DDE
  0
DICTIONARY
  5
24DE1
330
265F
100
AcDbDictionary
280
     1
281
     1
  3
ACAD_XREC_ROUNDTRIP
360
24DE2
  0
DICTIONARY
  5
24DDF
330
265E
100
AcDbDictionary
280
     1
281
     1
  3
ACAD_XREC_ROUNDTRIP
360
24DE0
  0
DICTIONARY
  5
24DDB
330
265C
100
AcDbDictionary
280
     1
281
     1
  3
ACAD_XREC_ROUNDTRIP
360
24DDC
  0
DICTIONARY
  5
24DE9
330
2663
100
AcDbDictionary
280
     1
281
     1
  3
ACAD_XREC_ROUNDTRIP
360
24DEA
  0
DICTIONARY
  5
24DF1
330
2667
100
AcDbDictionary
280
     1
281
     1
  3
ACAD_XREC_ROUNDTRIP
360
24DF2
  0
DICTIONARY
  5
24DE3
330
2660
100
AcDbDictionary
280
     1
281
     1
  3
ACAD_XREC_ROUNDTRIP
360
24DE4
  0
DICTIONARY
  5
24DE7
330
2662
100
AcDbDictionary
280
     1
281
     1
  3
ACAD_XREC_ROUNDTRIP
360
24DE8
  0
DICTIONARY
  5
24DF7
330
266A
100
AcDbDictionary
280
     1
281
     1
  3
ACAD_XREC_ROUNDTRIP
360
24DF8
  0
DICTIONARY
  5
24DEF
330
2666
100
AcDbDictionary
280
     1
281
     1
  3
ACAD_XREC_ROUNDTRIP
360
24DF0
  0
DICTIONARY
  5
24DD3
330
2658
100
AcDbDictionary
280
     1
281
     1
  3
ACAD_XREC_ROUNDTRIP
360
24DD4
  0
DICTIONARY
  5
24DD5
330
2659
100
AcDbDictionary
280
     1
281
     1
  3
ACAD_XREC_ROUNDTRIP
360
24DD6
  0
DICTIONARY
  5
24DD7
330
265A
100
AcDbDictionary
280
     1
281
     1
  3
ACAD_XREC_ROUNDTRIP
360
24DD8
  0
DICTIONARY
  5
24DD9
330
265B
100
AcDbDictionary
280
     1
281
     1
  3
ACAD_XREC_ROUNDTRIP
360
24DDA
  0
DICTIONARY
  5
24DF3
330
2668
100
AcDbDictionary
280
     1
281
     1
  3
ACAD_XREC_ROUNDTRIP
360
24DF4
  0
DICTIONARY
  5
24DED
330
2665
100
AcDbDictionary
280
     1
281
     1
  3
ACAD_XREC_ROUNDTRIP
360
24DEE
  0
DICTIONARY
  5
24DF5
330
2669
100
AcDbDictionary
280
     1
281
     1
  3
ACAD_XREC_ROUNDTRIP
360
24DF6
  0
DICTIONARY
  5
24DE5
330
2661
100
AcDbDictionary
280
     1
281
     1
  3
ACAD_XREC_ROUNDTRIP
360
24DE6
  0
DICTIONARY
  5
24DEB
330
2664
100
AcDbDictionary
280
     1
281
     1
  3
ACAD_XREC_ROUNDTRIP
360
24DEC
  0
XRECORD
  5
24DCC
102
{ACAD_REACTORS
330
24DCB
102
}
330
24DCB
100
AcDbXrecord
280
     1
102
SHADEPLOT
 70
     0
102
SHADEPLOTRESLEVEL
 70
     2
102
SHADEPLOTCUSTOMDPI
 70
   300
  0
XRECORD
  5
24DCE
102
{ACAD_REACTORS
330
24DCD
102
}
330
24DCD
100
AcDbXrecord
280
     1
102
SHADEPLOT
 70
     0
102
SHADEPLOTRESLEVEL
 70
     2
102
SHADEPLOTCUSTOMDPI
 70
   300
  0
XRECORD
  5
24A46
102
{ACAD_REACTORS
330
2648
102
}
330
2648
100
AcDbXrecord
280
     1
102
MATERIAL
148
0.0
149
0.0
149
0.0
 93
        0
 94
      127
282
     0
 72
     0
 77
     0
171
     0
175
     0
179
     0
273
     0
  0
XRECORD
  5
264A
102
{ACAD_REACTORS
330
2648
102
}
330
2648
100
AcDbXrecord
280
     1
270
     1
271
     1
  0
XRECORD
  5
2649
102
{ACAD_REACTORS
330
2648
102
}
330
2648
100
AcDbXrecord
280
     1
270
     1
271
     1
  0
XRECORD
  5
264D
102
{ACAD_REACTORS
330
2648
102
}
330
2648
100
AcDbXrecord
280
     1
270
     1
271
     1
  0
XRECORD
  5
264C
102
{ACAD_REACTORS
330
2648
102
}
330
2648
100
AcDbXrecord
280
     1
270
     1
271
     1
  0
XRECORD
  5
264E
102
{ACAD_REACTORS
330
2648
102
}
330
2648
100
AcDbXrecord
280
     1
270
     1
271
     1
  0
XRECORD
  5
264B
102
{ACAD_REACTORS
330
2648
102
}
330
2648
100
AcDbXrecord
280
     1
270
     1
271
     1
  0
XRECORD
  5
24A45
102
{ACAD_REACTORS
330
2640
102
}
330
2640
100
AcDbXrecord
280
     1
102
MATERIAL
148
0.0
149
0.0
149
0.0
 93
        0
 94
      127
282
     0
 72
     0
 77
     0
171
     0
175
     0
179
     0
273
     0
  0
XRECORD
  5
2642
102
{ACAD_REACTORS
330
2640
102
}
330
2640
100
AcDbXrecord
280
     1
270
     1
271
     1
  0
XRECORD
  5
2641
102
{ACAD_REACTORS
330
2640
102
}
330
2640
100
AcDbXrecord
280
     1
270
     1
271
     1
  0
XRECORD
  5
2645
102
{ACAD_REACTORS
330
2640
102
}
330
2640
100
AcDbXrecord
280
     1
270
     1
271
     1
  0
XRECORD
  5
2644
102
{ACAD_REACTORS
330
2640
102
}
330
2640
100
AcDbXrecord
280
     1
270
     1
271
     1
  0
XRECORD
  5
2646
102
{ACAD_REACTORS
330
2640
102
}
330
2640
100
AcDbXrecord
280
     1
270
     1
271
     1
  0
XRECORD
  5
2643
102
{ACAD_REACTORS
330
2640
102
}
330
2640
100
AcDbXrecord
280
     1
270
     1
271
     1
  0
XRECORD
  5
24A47
102
{ACAD_REACTORS
330
2650
102
}
330
2650
100
AcDbXrecord
280
     1
102
MATERIAL
148
0.0
149
0.0
149
0.0
 93
        0
 94
      127
282
     0
 72
     0
 77
     0
171
     0
175
     0
179
     0
273
     0
  0
XRECORD
  5
2652
102
{ACAD_REACTORS
330
2650
102
}
330
2650
100
AcDbXrecord
280
     1
270
     1
271
     1
  0
XRECORD
  5
2651
102
{ACAD_REACTORS
330
2650
102
}
330
2650
100
AcDbXrecord
280
     1
270
     1
271
     1
  0
XRECORD
  5
2655
102
{ACAD_REACTORS
330
2650
102
}
330
2650
100
AcDbXrecord
280
     1
270
     1
271
     1
  0
XRECORD
  5
2654
102
{ACAD_REACTORS
330
2650
102
}
330
2650
100
AcDbXrecord
280
     1
270
     1
271
     1
  0
XRECORD
  5
2656
102
{ACAD_REACTORS
330
2650
102
}
330
2650
100
AcDbXrecord
280
     1
270
     1
271
     1
  0
XRECORD
  5
2653
102
{ACAD_REACTORS
330
2650
102
}
330
2650
100
AcDbXrecord
280
     1
270
     1
271
     1
  0
CELLSTYLEMAP
  5
24DC8
102
{ACAD_REACTORS
330
283A
102
}
330
283A
100
AcDbCellStyleMap
 90
        3
300
CELLSTYLE
  1
TABLEFORMAT_BEGIN
 90
        5
170
     1
 91
        0
 92
    32768
 62
   257
 93
        1
300
CONTENTFORMAT
  1
CONTENTFORMAT_BEGIN
 90
        0
 91
        0
 92
      512
 93
        0
300

 40
0.0
140
1.0
 94
        5
 62
     0
340
17
144
0.25
309
CONTENTFORMAT_END
171
     1
301
MARGIN
  1
CELLMARGIN_BEGIN
 40
0.06
 40
0.06
 40
0.06
 40
0.06
 40
0.18
 40
0.18
309
CELLMARGIN_END
 94
        6
 95
        1
302
GRIDFORMAT
  1
GRIDFORMAT_BEGIN
 90
        0
 91
        1
 62
     0
 92
       -2
340
0
 93
        0
 40
0.045
309
GRIDFORMAT_END
 95
        2
302
GRIDFORMAT
  1
GRIDFORMAT_BEGIN
 90
        0
 91
        1
 62
     0
 92
       -2
340
0
 93
        0
 40
0.045
309
GRIDFORMAT_END
 95
        4
302
GRIDFORMAT
  1
GRIDFORMAT_BEGIN
 90
        0
 91
        1
 62
     0
 92
       -2
340
0
 93
        0
 40
0.045
309
GRIDFORMAT_END
 95
        8
302
GRIDFORMAT
  1
GRIDFORMAT_BEGIN
 90
        0
 91
        1
 62
     0
 92
       -2
340
0
 93
        0
 40
0.045
309
GRIDFORMAT_END
 95
       16
302
GRIDFORMAT
  1
GRIDFORMAT_BEGIN
 90
        0
 91
        1
 62
     0
 92
       -2
340
0
 93
        0
 40
0.045
309
GRIDFORMAT_END
 95
       32
302
GRIDFORMAT
  1
GRIDFORMAT_BEGIN
 90
        0
 91
        1
 62
     0
 92
       -2
340
0
 93
        0
 40
0.045
309
GRIDFORMAT_END
309
TABLEFORMAT_END
  1
CELLSTYLE_BEGIN
 90
        1
 91
        1
300
_TITLE
309
CELLSTYLE_END
300
CELLSTYLE
  1
TABLEFORMAT_BEGIN
 90
        5
170
     1
 91
        0
 92
        0
 62
   257
 93
        1
300
CONTENTFORMAT
  1
CONTENTFORMAT_BEGIN
 90
        0
 91
        0
 92
      512
 93
        0
300

 40
0.0
140
1.0
 94
        5
 62
     0
340
17
144
0.18
309
CONTENTFORMAT_END
171
     1
301
MARGIN
  1
CELLMARGIN_BEGIN
 40
0.06
 40
0.06
 40
0.06
 40
0.06
 40
0.18
 40
0.18
309
CELLMARGIN_END
 94
        6
 95
        1
302
GRIDFORMAT
  1
GRIDFORMAT_BEGIN
 90
        0
 91
        1
 62
     0
 92
       -2
340
0
 93
        0
 40
0.045
309
GRIDFORMAT_END
 95
        2
302
GRIDFORMAT
  1
GRIDFORMAT_BEGIN
 90
        0
 91
        1
 62
     0
 92
       -2
340
0
 93
        0
 40
0.045
309
GRIDFORMAT_END
 95
        4
302
GRIDFORMAT
  1
GRIDFORMAT_BEGIN
 90
        0
 91
        1
 62
     0
 92
       -2
340
0
 93
        0
 40
0.045
309
GRIDFORMAT_END
 95
        8
302
GRIDFORMAT
  1
GRIDFORMAT_BEGIN
 90
        0
 91
        1
 62
     0
 92
       -2
340
0
 93
        0
 40
0.045
309
GRIDFORMAT_END
 95
       16
302
GRIDFORMAT
  1
GRIDFORMAT_BEGIN
 90
        0
 91
        1
 62
     0
 92
       -2
340
0
 93
        0
 40
0.045
309
GRIDFORMAT_END
 95
       32
302
GRIDFORMAT
  1
GRIDFORMAT_BEGIN
 90
        0
 91
        1
 62
     0
 92
       -2
340
0
 93
        0
 40
0.045
309
GRIDFORMAT_END
309
TABLEFORMAT_END
  1
CELLSTYLE_BEGIN
 90
        2
 91
        1
300
_HEADER
309
CELLSTYLE_END
300
CELLSTYLE
  1
TABLEFORMAT_BEGIN
 90
        5
170
     1
 91
        0
 92
        0
 62
   257
 93
        1
300
CONTENTFORMAT
  1
CONTENTFORMAT_BEGIN
 90
        0
 91
        0
 92
      512
 93
        0
300

 40
0.0
140
1.0
 94
        2
 62
     0
340
17
144
0.18
309
CONTENTFORMAT_END
171
     1
301
MARGIN
  1
CELLMARGIN_BEGIN
 40
0.06
 40
0.06
 40
0.06
 40
0.06
 40
0.18
 40
0.18
309
CELLMARGIN_END
 94
        6
 95
        1
302
GRIDFORMAT
  1
GRIDFORMAT_BEGIN
 90
        0
 91
        1
 62
     0
 92
       -2
340
0
 93
        0
 40
0.045
309
GRIDFORMAT_END
 95
        2
302
GRIDFORMAT
  1
GRIDFORMAT_BEGIN
 90
        0
 91
        1
 62
     0
 92
       -2
340
0
 93
        0
 40
0.045
309
GRIDFORMAT_END
 95
        4
302
GRIDFORMAT
  1
GRIDFORMAT_BEGIN
 90
        0
 91
        1
 62
     0
 92
       -2
340
0
 93
        0
 40
0.045
309
GRIDFORMAT_END
 95
        8
302
GRIDFORMAT
  1
GRIDFORMAT_BEGIN
 90
        0
 91
        1
 62
     0
 92
       -2
340
0
 93
        0
 40
0.045
309
GRIDFORMAT_END
 95
       16
302
GRIDFORMAT
  1
GRIDFORMAT_BEGIN
 90
        0
 91
        1
 62
     0
 92
       -2
340
0
 93
        0
 40
0.045
309
GRIDFORMAT_END
 95
       32
302
GRIDFORMAT
  1
GRIDFORMAT_BEGIN
 90
        0
 91
        1
 62
     0
 92
       -2
340
0
 93
        0
 40
0.045
309
GRIDFORMAT_END
309
TABLEFORMAT_END
  1
CELLSTYLE_BEGIN
 90
        3
 91
        2
300
_DATA
309
CELLSTYLE_END
  0
XRECORD
  5
24DF9
102
{ACAD_REACTORS
330
283A
102
}
330
283A
100
AcDbXrecord
280
     1
102
ACAD_ROUNDTRIP_PRE2007_TABLESTYLE
 90
      512
 91
        0
  1

 92
      512
 93
        0
  2

 94
      512
 95
        0
  3

  0
XRECORD
  5
24DDE
102
{ACAD_REACTORS
330
24DDD
102
}
330
24DDD
100
AcDbXrecord
280
     1
102
RTVSPropertyOp0
 70
     1
102
RTVSPropertyOp1
 70
     1
102
RTVSPropertyOp2
 70
     1
102
RTVSPropertyOp3
 70
     1
102
RTVSPropertyOp4
 70
     1
102
RTVSPropertyOp5
 70
     1
102
RTVSPropertyOp6
 70
     1
102
RTVSPropertyOp7
 70
     1
102
RTVSPropertyOp8
 70
     1
102
RTVSPropertyOp9
 70
     1
102
RTVSPropertyOp10
 70
     1
102
RTVSPropertyOp11
 70
     1
102
RTVSPropertyOp12
 70
     1
102
RTVSPropertyOp13
 70
     1
102
RTVSPropertyOp14
 70
     1
102
RTVSPropertyOp15
 70
     1
102
RTVSPropertyOp16
 70
     1
102
RTVSPropertyOp17
 70
     1
102
RTVSPropertyOp18
 70
     1
102
RTVSPropertyOp19
 70
     1
102
RTVSPropertyOp20
 70
     1
102
RTVSPropertyOp21
 70
     1
102
RTVSPropertyOp22
 70
     1
102
RTVSPropertyOp23
 70
     1
102
RTVSPropertyOp24
 70
     1
102
RTVSPropertyOp25
 70
     1
102
RTVSPropertyOp26
 70
     1
102
RTVSPropertyOp27
 70
     1
  0
XRECORD
  5
24DE2
102
{ACAD_REACTORS
330
24DE1
102
}
330
24DE1
100
AcDbXrecord
280
     1
102
RTVSPropertyOp0
 70
     1
102
RTVSPropertyOp1
 70
     1
102
RTVSPropertyOp2
 70
     1
102
RTVSPropertyOp3
 70
     1
102
RTVSPropertyOp4
 70
     1
102
RTVSPropertyOp5
 70
     1
102
RTVSPropertyOp6
 70
     1
102
RTVSPropertyOp7
 70
     1
102
RTVSPropertyOp8
 70
     1
102
RTVSPropertyOp9
 70
     1
102
RTVSPropertyOp10
 70
     1
102
RTVSPropertyOp11
 70
     1
102
RTVSPropertyOp12
 70
     1
102
RTVSPropertyOp13
 70
     1
102
RTVSPropertyOp14
 70
     1
102
RTVSPropertyOp15
 70
     1
102
RTVSPropertyOp16
 70
     1
102
RTVSPropertyOp17
 70
     1
102
RTVSPropertyOp18
 70
     1
102
RTVSPropertyOp19
 70
     1
102
RTVSPropertyOp20
 70
     1
102
RTVSPropertyOp21
 70
     1
102
RTVSPropertyOp22
 70
     1
102
RTVSPropertyOp23
 70
     1
102
RTVSPropertyOp24
 70
     1
102
RTVSPropertyOp25
 70
     1
102
RTVSPropertyOp26
 70
     1
102
RTVSPropertyOp27
 70
     1
  0
XRECORD
  5
24DE0
102
{ACAD_REACTORS
330
24DDF
102
}
330
24DDF
100
AcDbXrecord
280
     1
102
RTVSPropertyOp0
 70
     1
102
RTVSPropertyOp1
 70
     1
102
RTVSPropertyOp2
 70
     1
102
RTVSPropertyOp3
 70
     1
102
RTVSPropertyOp4
 70
     1
102
RTVSPropertyOp5
 70
     1
102
RTVSPropertyOp6
 70
     1
102
RTVSPropertyOp7
 70
     1
102
RTVSPropertyOp8
 70
     1
102
RTVSPropertyOp9
 70
     1
102
RTVSPropertyOp10
 70
     1
102
RTVSPropertyOp11
 70
     1
102
RTVSPropertyOp12
 70
     1
102
RTVSPropertyOp13
 70
     1
102
RTVSPropertyOp14
 70
     1
102
RTVSPropertyOp15
 70
     1
102
RTVSPropertyOp16
 70
     1
102
RTVSPropertyOp17
 70
     1
102
RTVSPropertyOp18
 70
     1
102
RTVSPropertyOp19
 70
     1
102
RTVSPropertyOp20
 70
     1
102
RTVSPropertyOp21
 70
     1
102
RTVSPropertyOp22
 70
     1
102
RTVSPropertyOp23
 70
     1
102
RTVSPropertyOp24
 70
     1
102
RTVSPropertyOp25
 70
     1
102
RTVSPropertyOp26
 70
     1
102
RTVSPropertyOp27
 70
     1
  0
XRECORD
  5
24DDC
102
{ACAD_REACTORS
330
24DDB
102
}
330
24DDB
100
AcDbXrecord
280
     1
102
RTVSPropertyOp0
 70
     1
102
RTVSPropertyOp1
 70
     1
102
RTVSPropertyOp2
 70
     1
102
RTVSPropertyOp3
 70
     1
102
RTVSPropertyOp4
 70
     1
102
RTVSPropertyOp5
 70
     1
102
RTVSPropertyOp6
 70
     1
102
RTVSPropertyOp7
 70
     1
102
RTVSPropertyOp8
 70
     1
102
RTVSPropertyOp9
 70
     1
102
RTVSPropertyOp10
 70
     1
102
RTVSPropertyOp11
 70
     1
102
RTVSPropertyOp12
 70
     1
102
RTVSPropertyOp13
 70
     1
102
RTVSPropertyOp14
 70
     1
102
RTVSPropertyOp15
 70
     1
102
RTVSPropertyOp16
 70
     1
102
RTVSPropertyOp17
 70
     1
102
RTVSPropertyOp18
 70
     1
102
RTVSPropertyOp19
 70
     1
102
RTVSPropertyOp20
 70
     1
102
RTVSPropertyOp21
 70
     1
102
RTVSPropertyOp22
 70
     1
102
RTVSPropertyOp23
 70
     1
102
RTVSPropertyOp24
 70
     1
102
RTVSPropertyOp25
 70
     1
102
RTVSPropertyOp26
 70
     1
102
RTVSPropertyOp27
 70
     1
  0
XRECORD
  5
24DEA
102
{ACAD_REACTORS
330
24DE9
102
}
330
24DE9
100
AcDbXrecord
280
     1
102
RTVSPropertyOp0
 70
     1
102
RTVSPropertyOp1
 70
     1
102
RTVSPropertyOp2
 70
     1
102
RTVSPropertyOp3
 70
     1
102
RTVSPropertyOp4
 70
     1
102
RTVSPropertyOp5
 70
     1
102
RTVSPropertyOp6
 70
     1
102
RTVSPropertyOp7
 70
     1
102
RTVSPropertyOp8
 70
     1
102
RTVSPropertyOp9
 70
     1
102
RTVSPropertyOp10
 70
     1
102
RTVSPropertyOp11
 70
     1
102
RTVSPropertyOp12
 70
     1
102
RTVSPropertyOp13
 70
     1
102
RTVSPropertyOp14
 70
     1
102
RTVSPropertyOp15
 70
     1
102
RTVSPropertyOp16
 70
     1
102
RTVSPropertyOp17
 70
     1
102
RTVSPropertyOp18
 70
     1
102
RTVSPropertyOp19
 70
     1
102
RTVSPropertyOp20
 70
     1
102
RTVSPropertyOp21
 70
     1
102
RTVSPropertyOp22
 70
     1
102
RTVSPropertyOp23
 70
     1
102
RTVSPropertyOp24
 70
     1
102
RTVSPropertyOp25
 70
     1
102
RTVSPropertyOp26
 70
     1
102
RTVSPropertyOp27
 70
     1
  0
XRECORD
  5
24DF2
102
{ACAD_REACTORS
330
24DF1
102
}
330
24DF1
100
AcDbXrecord
280
     1
102
RTVSPropertyOp0
 70
     1
102
RTVSPropertyOp1
 70
     1
102
RTVSPropertyOp2
 70
     1
102
RTVSPropertyOp3
 70
     1
102
RTVSPropertyOp4
 70
     1
102
RTVSPropertyOp5
 70
     1
102
RTVSPropertyOp6
 70
     1
102
RTVSPropertyOp7
 70
     1
102
RTVSPropertyOp8
 70
     1
102
RTVSPropertyOp9
 70
     1
102
RTVSPropertyOp10
 70
     1
102
RTVSPropertyOp11
 70
     1
102
RTVSPropertyOp12
 70
     1
102
RTVSPropertyOp13
 70
     1
102
RTVSPropertyOp14
 70
     1
102
RTVSPropertyOp15
 70
     1
102
RTVSPropertyOp16
 70
     1
102
RTVSPropertyOp17
 70
     1
102
RTVSPropertyOp18
 70
     1
102
RTVSPropertyOp19
 70
     1
102
RTVSPropertyOp20
 70
     1
102
RTVSPropertyOp21
 70
     1
102
RTVSPropertyOp22
 70
     1
102
RTVSPropertyOp23
 70
     1
102
RTVSPropertyOp24
 70
     1
102
RTVSPropertyOp25
 70
     1
102
RTVSPropertyOp26
 70
     1
102
RTVSPropertyOp27
 70
     1
  0
XRECORD
  5
24DE4
102
{ACAD_REACTORS
330
24DE3
102
}
330
24DE3
100
AcDbXrecord
280
     1
102
RTVSPropertyOp0
 70
     1
102
RTVSPropertyOp1
 70
     1
102
RTVSPropertyOp2
 70
     1
102
RTVSPropertyOp3
 70
     1
102
RTVSPropertyOp4
 70
     1
102
RTVSPropertyOp5
 70
     1
102
RTVSPropertyOp6
 70
     1
102
RTVSPropertyOp7
 70
     1
102
RTVSPropertyOp8
 70
     1
102
RTVSPropertyOp9
 70
     1
102
RTVSPropertyOp10
 70
     1
102
RTVSPropertyOp11
 70
     1
102
RTVSPropertyOp12
 70
     1
102
RTVSPropertyOp13
 70
     1
102
RTVSPropertyOp14
 70
     1
102
RTVSPropertyOp15
 70
     1
102
RTVSPropertyOp16
 70
     1
102
RTVSPropertyOp17
 70
     1
102
RTVSPropertyOp18
 70
     1
102
RTVSPropertyOp19
 70
     1
102
RTVSPropertyOp20
 70
     1
102
RTVSPropertyOp21
 70
     1
102
RTVSPropertyOp22
 70
     1
102
RTVSPropertyOp23
 70
     1
102
RTVSPropertyOp24
 70
     1
102
RTVSPropertyOp25
 70
     1
102
RTVSPropertyOp26
 70
     1
102
RTVSPropertyOp27
 70
     1
  0
XRECORD
  5
24DE8
102
{ACAD_REACTORS
330
24DE7
102
}
330
24DE7
100
AcDbXrecord
280
     1
102
RTVSPropertyOp0
 70
     1
102
RTVSPropertyOp1
 70
     1
102
RTVSPropertyOp2
 70
     1
102
RTVSPropertyOp3
 70
     1
102
RTVSPropertyOp4
 70
     1
102
RTVSPropertyOp5
 70
     1
102
RTVSPropertyOp6
 70
     1
102
RTVSPropertyOp7
 70
     1
102
RTVSPropertyOp8
 70
     1
102
RTVSPropertyOp9
 70
     1
102
RTVSPropertyOp10
 70
     1
102
RTVSPropertyOp11
 70
     1
102
RTVSPropertyOp12
 70
     1
102
RTVSPropertyOp13
 70
     1
102
RTVSPropertyOp14
 70
     1
102
RTVSPropertyOp15
 70
     1
102
RTVSPropertyOp16
 70
     1
102
RTVSPropertyOp17
 70
     1
102
RTVSPropertyOp18
 70
     1
102
RTVSPropertyOp19
 70
     1
102
RTVSPropertyOp20
 70
     1
102
RTVSPropertyOp21
 70
     1
102
RTVSPropertyOp22
 70
     1
102
RTVSPropertyOp23
 70
     1
102
RTVSPropertyOp24
 70
     1
102
RTVSPropertyOp25
 70
     1
102
RTVSPropertyOp26
 70
     1
102
RTVSPropertyOp27
 70
     1
  0
XRECORD
  5
24DF8
102
{ACAD_REACTORS
330
24DF7
102
}
330
24DF7
100
AcDbXrecord
280
     1
102
RTVSPropertyOp0
 70
     0
102
RTVSPropertyOp1
 70
     0
102
RTVSPropertyOp2
 70
     0
102
RTVSPropertyOp3
 70
     0
102
RTVSPropertyOp4
 70
     0
102
RTVSPropertyOp5
 70
     0
102
RTVSPropertyOp6
 70
     0
102
RTVSPropertyOp7
 70
     0
102
RTVSPropertyOp8
 70
     0
102
RTVSPropertyOp9
 70
     0
102
RTVSPropertyOp10
 70
     0
102
RTVSPropertyOp11
 70
     0
102
RTVSPropertyOp12
 70
     0
102
RTVSPropertyOp13
 70
     0
102
RTVSPropertyOp14
 70
     2
102
RTVSPropertyOp15
 70
     0
102
RTVSPropertyOp16
 70
     0
102
RTVSPropertyOp17
 70
     0
102
RTVSPropertyOp18
 70
     0
102
RTVSPropertyOp19
 70
     0
102
RTVSPropertyOp20
 70
     0
102
RTVSPropertyOp21
 70
     0
102
RTVSPropertyOp22
 70
     0
102
RTVSPropertyOp23
 70
     0
102
RTVSPropertyOp24
 70
     0
102
RTVSPropertyOp25
 70
     0
102
RTVSPropertyOp26
 70
     0
102
RTVSPropertyOp27
 70
     0
  0
XRECORD
  5
24DF0
102
{ACAD_REACTORS
330
24DEF
102
}
330
24DEF
100
AcDbXrecord
280
     1
102
RTVSPropertyOp0
 70
     1
102
RTVSPropertyOp1
 70
     1
102
RTVSPropertyOp2
 70
     1
102
RTVSPropertyOp3
 70
     1
102
RTVSPropertyOp4
 70
     1
102
RTVSPropertyOp5
 70
     1
102
RTVSPropertyOp6
 70
     1
102
RTVSPropertyOp7
 70
     1
102
RTVSPropertyOp8
 70
     1
102
RTVSPropertyOp9
 70
     1
102
RTVSPropertyOp10
 70
     1
102
RTVSPropertyOp11
 70
     1
102
RTVSPropertyOp12
 70
     1
102
RTVSPropertyOp13
 70
     1
102
RTVSPropertyOp14
 70
     1
102
RTVSPropertyOp15
 70
     1
102
RTVSPropertyOp16
 70
     1
102
RTVSPropertyOp17
 70
     1
102
RTVSPropertyOp18
 70
     1
102
RTVSPropertyOp19
 70
     1
102
RTVSPropertyOp20
 70
     1
102
RTVSPropertyOp21
 70
     1
102
RTVSPropertyOp22
 70
     1
102
RTVSPropertyOp23
 70
     1
102
RTVSPropertyOp24
 70
     1
102
RTVSPropertyOp25
 70
     1
102
RTVSPropertyOp26
 70
     1
102
RTVSPropertyOp27
 70
     1
  0
XRECORD
  5
24DD4
102
{ACAD_REACTORS
330
24DD3
102
}
330
24DD3
100
AcDbXrecord
280
     1
102
RTVSPropertyOp0
 70
     1
102
RTVSPropertyOp1
 70
     1
102
RTVSPropertyOp2
 70
     1
102
RTVSPropertyOp3
 70
     1
102
RTVSPropertyOp4
 70
     1
102
RTVSPropertyOp5
 70
     1
102
RTVSPropertyOp6
 70
     1
102
RTVSPropertyOp7
 70
     1
102
RTVSPropertyOp8
 70
     1
102
RTVSPropertyOp9
 70
     1
102
RTVSPropertyOp10
 70
     1
102
RTVSPropertyOp11
 70
     1
102
RTVSPropertyOp12
 70
     1
102
RTVSPropertyOp13
 70
     1
102
RTVSPropertyOp14
 70
     1
102
RTVSPropertyOp15
 70
     1
102
RTVSPropertyOp16
 70
     1
102
RTVSPropertyOp17
 70
     1
102
RTVSPropertyOp18
 70
     1
102
RTVSPropertyOp19
 70
     1
102
RTVSPropertyOp20
 70
     1
102
RTVSPropertyOp21
 70
     1
102
RTVSPropertyOp22
 70
     1
102
RTVSPropertyOp23
 70
     1
102
RTVSPropertyOp24
 70
     1
102
RTVSPropertyOp25
 70
     1
102
RTVSPropertyOp26
 70
     1
102
RTVSPropertyOp27
 70
     1
  0
XRECORD
  5
24DD6
102
{ACAD_REACTORS
330
24DD5
102
}
330
24DD5
100
AcDbXrecord
280
     1
102
RTVSPropertyOp0
 70
     1
102
RTVSPropertyOp1
 70
     1
102
RTVSPropertyOp2
 70
     1
102
RTVSPropertyOp3
 70
     1
102
RTVSPropertyOp4
 70
     1
102
RTVSPropertyOp5
 70
     1
102
RTVSPropertyOp6
 70
     1
102
RTVSPropertyOp7
 70
     1
102
RTVSPropertyOp8
 70
     1
102
RTVSPropertyOp9
 70
     1
102
RTVSPropertyOp10
 70
     1
102
RTVSPropertyOp11
 70
     1
102
RTVSPropertyOp12
 70
     1
102
RTVSPropertyOp13
 70
     1
102
RTVSPropertyOp14
 70
     1
102
RTVSPropertyOp15
 70
     1
102
RTVSPropertyOp16
 70
     1
102
RTVSPropertyOp17
 70
     1
102
RTVSPropertyOp18
 70
     1
102
RTVSPropertyOp19
 70
     1
102
RTVSPropertyOp20
 70
     1
102
RTVSPropertyOp21
 70
     1
102
RTVSPropertyOp22
 70
     1
102
RTVSPropertyOp23
 70
     1
102
RTVSPropertyOp24
 70
     1
102
RTVSPropertyOp25
 70
     1
102
RTVSPropertyOp26
 70
     1
102
RTVSPropertyOp27
 70
     1
  0
XRECORD
  5
24DD8
102
{ACAD_REACTORS
330
24DD7
102
}
330
24DD7
100
AcDbXrecord
280
     1
102
RTVSPropertyOp0
 70
     1
102
RTVSPropertyOp1
 70
     1
102
RTVSPropertyOp2
 70
     1
102
RTVSPropertyOp3
 70
     1
102
RTVSPropertyOp4
 70
     1
102
RTVSPropertyOp5
 70
     1
102
RTVSPropertyOp6
 70
     1
102
RTVSPropertyOp7
 70
     1
102
RTVSPropertyOp8
 70
     1
102
RTVSPropertyOp9
 70
     1
102
RTVSPropertyOp10
 70
     1
102
RTVSPropertyOp11
 70
     1
102
RTVSPropertyOp12
 70
     1
102
RTVSPropertyOp13
 70
     1
102
RTVSPropertyOp14
 70
     1
102
RTVSPropertyOp15
 70
     1
102
RTVSPropertyOp16
 70
     1
102
RTVSPropertyOp17
 70
     1
102
RTVSPropertyOp18
 70
     1
102
RTVSPropertyOp19
 70
     1
102
RTVSPropertyOp20
 70
     1
102
RTVSPropertyOp21
 70
     1
102
RTVSPropertyOp22
 70
     1
102
RTVSPropertyOp23
 70
     1
102
RTVSPropertyOp24
 70
     1
102
RTVSPropertyOp25
 70
     1
102
RTVSPropertyOp26
 70
     1
102
RTVSPropertyOp27
 70
     1
  0
XRECORD
  5
24DDA
102
{ACAD_REACTORS
330
24DD9
102
}
330
24DD9
100
AcDbXrecord
280
     1
102
RTVSPropertyOp0
 70
     1
102
RTVSPropertyOp1
 70
     1
102
RTVSPropertyOp2
 70
     1
102
RTVSPropertyOp3
 70
     1
102
RTVSPropertyOp4
 70
     1
102
RTVSPropertyOp5
 70
     1
102
RTVSPropertyOp6
 70
     1
102
RTVSPropertyOp7
 70
     1
102
RTVSPropertyOp8
 70
     1
102
RTVSPropertyOp9
 70
     1
102
RTVSPropertyOp10
 70
     1
102
RTVSPropertyOp11
 70
     1
102
RTVSPropertyOp12
 70
     1
102
RTVSPropertyOp13
 70
     1
102
RTVSPropertyOp14
 70
     1
102
RTVSPropertyOp15
 70
     1
102
RTVSPropertyOp16
 70
     1
102
RTVSPropertyOp17
 70
     1
102
RTVSPropertyOp18
 70
     1
102
RTVSPropertyOp19
 70
     1
102
RTVSPropertyOp20
 70
     1
102
RTVSPropertyOp21
 70
     1
102
RTVSPropertyOp22
 70
     1
102
RTVSPropertyOp23
 70
     1
102
RTVSPropertyOp24
 70
     1
102
RTVSPropertyOp25
 70
     1
102
RTVSPropertyOp26
 70
     1
102
RTVSPropertyOp27
 70
     1
  0
XRECORD
  5
24DF4
102
{ACAD_REACTORS
330
24DF3
102
}
330
24DF3
100
AcDbXrecord
280
     1
102
RTVSPropertyOp0
 70
     0
102
RTVSPropertyOp1
 70
     0
102
RTVSPropertyOp2
 70
     0
102
RTVSPropertyOp3
 70
     0
102
RTVSPropertyOp4
 70
     0
102
RTVSPropertyOp5
 70
     0
102
RTVSPropertyOp6
 70
     0
102
RTVSPropertyOp7
 70
     0
102
RTVSPropertyOp8
 70
     0
102
RTVSPropertyOp9
 70
     0
102
RTVSPropertyOp10
 70
     0
102
RTVSPropertyOp11
 70
     0
102
RTVSPropertyOp12
 70
     0
102
RTVSPropertyOp13
 70
     0
102
RTVSPropertyOp14
 70
     2
102
RTVSPropertyOp15
 70
     0
102
RTVSPropertyOp16
 70
     0
102
RTVSPropertyOp17
 70
     0
102
RTVSPropertyOp18
 70
     0
102
RTVSPropertyOp19
 70
     0
102
RTVSPropertyOp20
 70
     0
102
RTVSPropertyOp21
 70
     0
102
RTVSPropertyOp22
 70
     0
102
RTVSPropertyOp23
 70
     0
102
RTVSPropertyOp24
 70
     0
102
RTVSPropertyOp25
 70
     0
102
RTVSPropertyOp26
 70
     0
102
RTVSPropertyOp27
 70
     0
  0
XRECORD
  5
24DEE
102
{ACAD_REACTORS
330
24DED
102
}
330
24DED
100
AcDbXrecord
280
     1
102
RTVSPropertyOp0
 70
     1
102
RTVSPropertyOp1
 70
     1
102
RTVSPropertyOp2
 70
     1
102
RTVSPropertyOp3
 70
     1
102
RTVSPropertyOp4
 70
     1
102
RTVSPropertyOp5
 70
     1
102
RTVSPropertyOp6
 70
     1
102
RTVSPropertyOp7
 70
     1
102
RTVSPropertyOp8
 70
     1
102
RTVSPropertyOp9
 70
     1
102
RTVSPropertyOp10
 70
     1
102
RTVSPropertyOp11
 70
     1
102
RTVSPropertyOp12
 70
     1
102
RTVSPropertyOp13
 70
     1
102
RTVSPropertyOp14
 70
     1
102
RTVSPropertyOp15
 70
     1
102
RTVSPropertyOp16
 70
     1
102
RTVSPropertyOp17
 70
     1
102
RTVSPropertyOp18
 70
     1
102
RTVSPropertyOp19
 70
     1
102
RTVSPropertyOp20
 70
     1
102
RTVSPropertyOp21
 70
     1
102
RTVSPropertyOp22
 70
     1
102
RTVSPropertyOp23
 70
     1
102
RTVSPropertyOp24
 70
     1
102
RTVSPropertyOp25
 70
     1
102
RTVSPropertyOp26
 70
     1
102
RTVSPropertyOp27
 70
     1
  0
XRECORD
  5
24DF6
102
{ACAD_REACTORS
330
24DF5
102
}
330
24DF5
100
AcDbXrecord
280
     1
102
RTVSPropertyOp0
 70
     0
102
RTVSPropertyOp1
 70
     0
102
RTVSPropertyOp2
 70
     0
102
RTVSPropertyOp3
 70
     0
102
RTVSPropertyOp4
 70
     0
102
RTVSPropertyOp5
 70
     0
102
RTVSPropertyOp6
 70
     0
102
RTVSPropertyOp7
 70
     0
102
RTVSPropertyOp8
 70
     0
102
RTVSPropertyOp9
 70
     0
102
RTVSPropertyOp10
 70
     0
102
RTVSPropertyOp11
 70
     0
102
RTVSPropertyOp12
 70
     0
102
RTVSPropertyOp13
 70
     0
102
RTVSPropertyOp14
 70
     2
102
RTVSPropertyOp15
 70
     0
102
RTVSPropertyOp16
 70
     0
102
RTVSPropertyOp17
 70
     0
102
RTVSPropertyOp18
 70
     0
102
RTVSPropertyOp19
 70
     0
102
RTVSPropertyOp20
 70
     0
102
RTVSPropertyOp21
 70
     0
102
RTVSPropertyOp22
 70
     0
102
RTVSPropertyOp23
 70
     0
102
RTVSPropertyOp24
 70
     0
102
RTVSPropertyOp25
 70
     0
102
RTVSPropertyOp26
 70
     0
102
RTVSPropertyOp27
 70
     0
  0
XRECORD
  5
24DE6
102
{ACAD_REACTORS
330
24DE5
102
}
330
24DE5
100
AcDbXrecord
280
     1
102
RTVSPropertyOp0
 70
     1
102
RTVSPropertyOp1
 70
     1
102
RTVSPropertyOp2
 70
     1
102
RTVSPropertyOp3
 70
     1
102
RTVSPropertyOp4
 70
     1
102
RTVSPropertyOp5
 70
     1
102
RTVSPropertyOp6
 70
     1
102
RTVSPropertyOp7
 70
     1
102
RTVSPropertyOp8
 70
     1
102
RTVSPropertyOp9
 70
     1
102
RTVSPropertyOp10
 70
     1
102
RTVSPropertyOp11
 70
     1
102
RTVSPropertyOp12
 70
     1
102
RTVSPropertyOp13
 70
     1
102
RTVSPropertyOp14
 70
     1
102
RTVSPropertyOp15
 70
     1
102
RTVSPropertyOp16
 70
     1
102
RTVSPropertyOp17
 70
     1
102
RTVSPropertyOp18
 70
     1
102
RTVSPropertyOp19
 70
     1
102
RTVSPropertyOp20
 70
     1
102
RTVSPropertyOp21
 70
     1
102
RTVSPropertyOp22
 70
     1
102
RTVSPropertyOp23
 70
     1
102
RTVSPropertyOp24
 70
     1
102
RTVSPropertyOp25
 70
     1
102
RTVSPropertyOp26
 70
     1
102
RTVSPropertyOp27
 70
     1
  0
XRECORD
  5
24DEC
102
{ACAD_REACTORS
330
24DEB
102
}
330
24DEB
100
AcDbXrecord
280
     1
102
RTVSPropertyOp0
 70
     1
102
RTVSPropertyOp1
 70
     1
102
RTVSPropertyOp2
 70
     1
102
RTVSPropertyOp3
 70
     1
102
RTVSPropertyOp4
 70
     1
102
RTVSPropertyOp5
 70
     1
102
RTVSPropertyOp6
 70
     1
102
RTVSPropertyOp7
 70
     1
102
RTVSPropertyOp8
 70
     1
102
RTVSPropertyOp9
 70
     1
102
RTVSPropertyOp10
 70
     1
102
RTVSPropertyOp11
 70
     1
102
RTVSPropertyOp12
 70
     1
102
RTVSPropertyOp13
 70
     1
102
RTVSPropertyOp14
 70
     1
102
RTVSPropertyOp15
 70
     1
102
RTVSPropertyOp16
 70
     1
102
RTVSPropertyOp17
 70
     1
102
RTVSPropertyOp18
 70
     1
102
RTVSPropertyOp19
 70
     1
102
RTVSPropertyOp20
 70
     1
102
RTVSPropertyOp21
 70
     1
102
RTVSPropertyOp22
 70
     1
102
RTVSPropertyOp23
 70
     1
102
RTVSPropertyOp24
 70
     1
102
RTVSPropertyOp25
 70
     1
102
RTVSPropertyOp26
 70
     1
102
RTVSPropertyOp27
 70
     1
  0
ENDSEC
  0
EOF
