  0
SECTION
  2
HEADER
  9
$ACADVER
  1
AC1015
  9
$ACADMAINTVER
 70
    20
  9
$DWGCODEPAGE
  3
ANSI_932
  9
$INSBASE
 10
0.0
 20
0.0
 30
0.0
  9
$EXTMIN
 10
-201.418588731015
 20
-653.581695857079
 30
-0.0000000000000049
  9
$EXTMAX
 10
873.2636383676595
 20
137.0044099494239
 30
0.0000000000000256
  9
$LIMMIN
 10
0.0
 20
0.0
  9
$LIMMAX
 10
0.0
 20
0.0
  9
$ORTHOMODE
 70
     1
  9
$REGENMODE
 70
     1
  9
$FILLMODE
 70
     1
  9
$QTEXTMODE
 70
     0
  9
$MIRRTEXT
 70
     1
  9
$LTSCALE
 40
1.0
  9
$ATTMODE
 70
     1
  9
$TEXTSIZE
 40
0.0
  9
$TRACEWID
 40
0.05
  9
$TEXTSTYLE
  7
STANDARD
  9
$CLAYER
  8
0
  9
$CELTYPE
  6
CONTINUOUS
  9
$CECOLOR
 62
   256
  9
$CELTSCALE
 40
1.0
  9
$DISPSILH
 70
     0
  9
$DIMSCALE
 40
1.0
  9
$DIMASZ
 40
10.0
  9
$DIMEXO
 40
10.0
  9
$DIMDLI
 40
2.0
  9
$DIMRND
 40
0.0
  9
$DIMDLE
 40
0.0
  9
$DIMEXE
 40
10.0
  9
$DIMTP
 40
0.0
  9
$DIMTM
 40
0.0
  9
$DIMTXT
 40
15.0
  9
$DIMCEN
 40
2.5
  9
$DIMTSZ
 40
0.0
  9
$DIMTOL
 70
     0
  9
$DIMLIM
 70
     0
  9
$DIMTIH
 70
     0
  9
$DIMTOH
 70
     0
  9
$DIMSE1
 70
     0
  9
$DIMSE2
 70
     0
  9
$DIMTAD
 70
     1
  9
$DIMZIN
 70
     8
  9
$DIMBLK
  1
OPEN
  9
$DIMASO
 70
     1
  9
$DIMSHO
 70
     1
  9
$DIMPOST
  1

  9
$DIMAPOST
  1

  9
$DIMALT
 70
     0
  9
$DIMALTD
 70
     3
  9
$DIMALTF
 40
0.03937007874016
  9
$DIMLFAC
 40
1.0
  9
$DIMTOFL
 70
     1
  9
$DIMTVP
 40
0.0
  9
$DIMTIX
 70
     0
  9
$DIMSOXD
 70
     0
  9
$DIMSAH
 70
     0
  9
$DIMBLK1
  1

  9
$DIMBLK2
  1

  9
$DIMSTYLE
  2
ISO-25-2
  9
$DIMCLRD
 70
     0
  9
$DIMCLRE
 70
     0
  9
$DIMCLRT
 70
     0
  9
$DIMTFAC
 40
1.0
  9
$DIMGAP
 40
5.0
  9
$DIMJUST
 70
     0
  9
$DIMSD1
 70
     0
  9
$DIMSD2
 70
     0
  9
$DIMTOLJ
 70
     0
  9
$DIMTZIN
 70
     8
  9
$DIMALTZ
 70
     0
  9
$DIMALTTZ
 70
     0
  9
$DIMUPT
 70
     0
  9
$DIMDEC
 70
     8
  9
$DIMTDEC
 70
     8
  9
$DIMALTU
 70
     2
  9
$DIMALTTD
 70
     3
  9
$DIMTXSTY
  7
DIM
  9
$DIMAUNIT
 70
     0
  9
$DIMADEC
 70
     0
  9
$DIMALTRND
 40
0.0
  9
$DIMAZIN
 70
     0
  9
$DIMDSEP
 70
    46
  9
$DIMATFIT
 70
     2
  9
$DIMFRAC
 70
     0
  9
$DIMLDRBLK
  1
OPEN
  9
$DIMLUNIT
 70
     2
  9
$DIMLWD
 70
    -2
  9
$DIMLWE
 70
    -2
  9
$DIMTMOVE
 70
     2
  9
$LUNITS
 70
     2
  9
$LUPREC
 70
     8
  9
$SKETCHINC
 40
0.1
  9
$FILLETRAD
 40
0.0
  9
$AUNITS
 70
     0
  9
$AUPREC
 70
     2
  9
$MENU
  1
acad
  9
$ELEVATION
 40
0.0
  9
$PELEVATION
 40
0.0
  9
$THICKNESS
 40
0.0
  9
$LIMCHECK
 70
     0
  9
$CHAMFERA
 40
0.0
  9
$CHAMFERB
 40
0.0
  9
$CHAMFERC
 40
0.0
  9
$CHAMFERD
 40
0.0
  9
$SKPOLY
 70
     0
  9
$TDCREATE
 40
2311949.301211632
  9
$TDUCREATE
 40
2311948.926211632
  9
$TDUPDATE
 40
2457225.393719688
  9
$TDUUPDATE
 40
2457225.018719688
  9
$TDINDWG
 40
0.3258229977
  9
$TDUSRTIMER
 40
0.3258182870
  9
$USRTIMER
 70
     1
  9
$ANGBASE
 50
0.0
  9
$ANGDIR
 70
     0
  9
$PDMODE
 70
     0
  9
$PDSIZE
 40
-1.0
  9
$PLINEWID
 40
0.0
  9
$SPLFRAME
 70
     0
  9
$SPLINETYPE
 70
     6
  9
$SPLINESEGS
 70
     8
  9
$HANDSEED
  5
2343B
  9
$SURFTAB1
 70
     6
  9
$SURFTAB2
 70
     6
  9
$SURFTYPE
 70
     6
  9
$SURFU
 70
     6
  9
$SURFV
 70
     6
  9
$UCSBASE
  2

  9
$UCSNAME
  2

  9
$UCSORG
 10
0.0
 20
0.0
 30
0.0
  9
$UCSXDIR
 10
1.0
 20
0.0
 30
0.0
  9
$UCSYDIR
 10
0.0
 20
1.0
 30
0.0
  9
$UCSORTHOREF
  2

  9
$UCSORTHOVIEW
 70
     0
  9
$UCSORGTOP
 10
0.0
 20
0.0
 30
0.0
  9
$UCSORGBOTTOM
 10
0.0
 20
0.0
 30
0.0
  9
$UCSORGLEFT
 10
0.0
 20
0.0
 30
0.0
  9
$UCSORGRIGHT
 10
0.0
 20
0.0
 30
0.0
  9
$UCSORGFRONT
 10
0.0
 20
0.0
 30
0.0
  9
$UCSORGBACK
 10
0.0
 20
0.0
 30
0.0
  9
$PUCSBASE
  2

  9
$PUCSNAME
  2

  9
$PUCSORG
 10
0.0
 20
0.0
 30
0.0
  9
$PUCSXDIR
 10
1.0
 20
0.0
 30
0.0
  9
$PUCSYDIR
 10
0.0
 20
1.0
 30
0.0
  9
$PUCSORTHOREF
  2

  9
$PUCSORTHOVIEW
 70
     0
  9
$PUCSORGTOP
 10
0.0
 20
0.0
 30
0.0
  9
$PUCSORGBOTTOM
 10
0.0
 20
0.0
 30
0.0
  9
$PUCSORGLEFT
 10
0.0
 20
0.0
 30
0.0
  9
$PUCSORGRIGHT
 10
0.0
 20
0.0
 30
0.0
  9
$PUCSORGFRONT
 10
0.0
 20
0.0
 30
0.0
  9
$PUCSORGBACK
 10
0.0
 20
0.0
 30
0.0
  9
$USERI1
 70
     0
  9
$USERI2
 70
     0
  9
$USERI3
 70
     0
  9
$USERI4
 70
     0
  9
$USERI5
 70
     0
  9
$USERR1
 40
0.0
  9
$USERR2
 40
0.0
  9
$USERR3
 40
0.0
  9
$USERR4
 40
0.0
  9
$USERR5
 40
0.0
  9
$WORLDVIEW
 70
     1
  9
$SHADEDGE
 70
     3
  9
$SHADEDIF
 70
    70
  9
$TILEMODE
 70
     1
  9
$MAXACTVP
 70
    16
  9
$PINSBASE
 10
0.0
 20
0.0
 30
0.0
  9
$PLIMCHECK
 70
     0
  9
$PEXTMIN
 10
1.122749993181602
 20
0.7804166500962629
 30
0.0
  9
$PEXTMAX
 10
10.10474993863443
 20
7.023749850866361
 30
0.0
  9
$PLIMMIN
 10
-0.2312499519408218
 20
-0.2312499894870548
  9
$PLIMMAX
 10
11.4587498462106
 20
8.035416452903447
  9
$UNITMODE
 70
     0
  9
$VISRETAIN
 70
     0
  9
$PLINEGEN
 70
     1
  9
$PSLTSCALE
 70
     1
  9
$TREEDEPTH
 70
  3020
  9
$CMLSTYLE
  2
STANDARD
  9
$CMLJUST
 70
     0
  9
$CMLSCALE
 40
1.0
  9
$PROXYGRAPHICS
 70
     1
  9
$MEASUREMENT
 70
     0
  9
$CELWEIGHT
370
    -1
  9
$ENDCAPS
280
     0
  9
$JOINSTYLE
280
     0
  9
$LWDISPLAY
290
     0
  9
$INSUNITS
 70
     0
  9
$HYPERLINKBASE
  1

  9
$STYLESHEET
  1
monochrome.ctb
  9
$XEDIT
290
     1
  9
$CEPSNTYPE
380
     0
  9
$PSTYLEMODE
290
     1
  9
$FINGERPRINTGUID
  2
{9DB8DEE2-0AC8-479C-9474-EFBFD89FE0C5}
  9
$VERSIONGUID
  2
{FBDDF033-F612-4FB7-A03C-5F5C17E4618B}
  9
$EXTNAMES
290
     1
  9
$PSVPSCALE
 40
0.0
  9
$OLESTARTUP
290
     0
  0
ENDSEC
  0
SECTION
  2
CLASSES
  0
CLASS
  1
IMAGE
  2
AcDbRasterImage
  3
ISM
 90
    34943
280
     0
281
     1
  0
CLASS
  1
DICTIONARYVAR
  2
AcDbDictionaryVar
  3
ObjectDBX Classes
 90
        0
280
     0
281
     0
  0
CLASS
  1
RASTERVARIABLES
  2
AcDbRasterVariables
  3
ISM
 90
    32768
280
     0
281
     0
  0
CLASS
  1
IMAGEDEF
  2
AcDbRasterImageDef
  3
ISM
 90
    32768
280
     0
281
     0
  0
CLASS
  1
IMAGEDEF_REACTOR
  2
AcDbRasterImageDefReactor
  3
ISM
 90
    32769
280
     0
281
     0
  0
CLASS
  1
IDBUFFER
  2
AcDbIdBuffer
  3
ObjectDBX Classes
 90
    32768
280
     0
281
     0
  0
CLASS
  1
SPATIAL_FILTER
  2
AcDbSpatialFilter
  3
ObjectDBX Classes
 90
    32768
280
     0
281
     0
  0
CLASS
  1
SORTENTSTABLE
  2
AcDbSortentsTable
  3
ObjectDBX Classes
 90
        0
280
     0
281
     0
  0
CLASS
  1
LAYER_INDEX
  2
AcDbLayerIndex
  3
ObjectDBX Classes
 90
    32768
280
     0
281
     0
  0
CLASS
  1
SPATIAL_INDEX
  2
AcDbSpatialIndex
  3
ObjectDBX Classes
 90
    32768
280
     0
281
     0
  0
CLASS
  1
OBJECT_PTR
  2
CAseDLPNTableRecord
  3
ASE-LPNTableRecord
 90
    32769
280
     0
281
     0
  0
CLASS
  1
LAYOUT
  2
AcDbLayout
  3
ObjectDBX Classes
 90
        0
280
     0
281
     0
  0
CLASS
  1
PLOTSETTINGS
  2
AcDbPlotSettings
  3
ObjectDBX Classes
 90
    32768
280
     0
281
     0
  0
CLASS
  1
ACDBDICTIONARYWDFLT
  2
AcDbDictionaryWithDefault
  3
ObjectDBX Classes
 90
        0
280
     0
281
     0
  0
CLASS
  1
ACDBPLACEHOLDER
  2
AcDbPlaceHolder
  3
ObjectDBX Classes
 90
        0
280
     0
281
     0
  0
CLASS
  1
VBA_PROJECT
  2
AcDbVbaProject
  3
acad
 90
    32768
280
     0
281
     0
  0
CLASS
  1
WIPEOUT
  2
AcDbWipeout
  3
"WipeOut|Product Desc: Object Enabler for WipeOut entity                        |Company: Autodesk, Inc.                        |WEB Address: www.autodesk.com"
 90
    34943
280
     0
281
     1
  0
CLASS
  1
WIPEOUTVARIABLES
  2
AcDbWipeoutVariables
  3
"WipeOut|Product Desc:     WipeOut Dbx Application|Company:          Autodesk, Inc.|WEB Address:      www.autodesk.com"
 90
    32768
280
     0
281
     0
  0
CLASS
  1
RTEXT
  2
RText
  3
RText|AutoCAD Express Tool|expresstools@autodesk.com
 90
    35839
280
     0
281
     1
  0
CLASS
  1
ARCALIGNEDTEXT
  2
AcDbArcAlignedText
  3
ATEXT|AutoCAD Express Tool|expresstools@autodesk.com
 90
    32768
280
     0
281
     1
  0
CLASS
  1
MATERIAL
  2
AcDbMaterial
  3
ObjectDBX Classes
 90
     1153
280
     0
281
     0
  0
CLASS
  1
VISUALSTYLE
  2
AcDbVisualStyle
  3
ObjectDBX Classes
 90
     4095
280
     0
281
     0
  0
CLASS
  1
TABLESTYLE
  2
AcDbTableStyle
  3
ObjectDBX Classes
 90
     4095
280
     0
281
     0
  0
CLASS
  1
SCALE
  2
AcDbScale
  3
ObjectDBX Classes
 90
     1153
280
     0
281
     0
  0
CLASS
  1
MLEADERSTYLE
  2
AcDbMLeaderStyle
  3
ACDB_MLEADERSTYLE_CLASS
 90
     4095
280
     0
281
     0
  0
CLASS
  1
CELLSTYLEMAP
  2
AcDbCellStyleMap
  3
ObjectDBX Classes
 90
     1152
280
     0
281
     0
  0
CLASS
  1
AEC_REFEDIT_STATUS_TRACKER
  2
AecDbRefEditStatusTracker
  3
AecArchBase60|Product Desc: Autodesk Architectural Desktop 2007 |Company: Autodesk,Inc. |WEB Address: www.autodesk.com
 90
    32897
280
     0
281
     0
  0
CLASS
  1
NPOCOLLECTION
  2
AcDbImpNonPersistentObjectsCollection
  3
ObjectDBX Classes
 90
    33921
280
     0
281
     0
  0
ENDSEC
  0
SECTION
  2
TABLES
  0
TABLE
  2
VPORT
  5
7
102
{ACAD_XDICTIONARY
360
150E5
102
}
330
0
100
AcDbSymbolTable
 70
     1
  0
VPORT
  5
2636
330
7
100
AcDbSymbolTableRecord
100
AcDbViewportTableRecord
  2
*Active
 70
     0
 10
0.0
 20
0.0
 11
1.0
 21
1.0
 12
335.8815258169582
 22
-258.2886447944417
 13
0.0
 23
0.0
 14
1.0
 24
1.0
 15
5.0
 25
5.0
 16
0.0
 26
0.0
 36
1.0
 17
0.0
 27
0.0
 37
0.0
 40
796.0265249016558
 41
1.750286368843069
 42
50.0
 43
0.0
 44
0.0
 50
0.0
 51
0.0
 71
     0
 72
  2000
 73
     1
 74
     1
 75
     0
 76
     1
 77
     0
 78
     0
281
     0
 65
     1
110
0.0
120
0.0
130
0.0
111
1.0
121
0.0
131
0.0
112
0.0
122
1.0
132
0.0
 79
     0
146
0.0
  0
ENDTAB
  0
TABLE
  2
LTYPE
  5
4
330
0
100
AcDbSymbolTable
 70
     6
  0
LTYPE
  5
11
330
4
100
AcDbSymbolTableRecord
100
AcDbLinetypeTableRecord
  2
BYBLOCK
 70
     0
  3

 72
    65
 73
     0
 40
0.0
  0
LTYPE
  5
12
330
4
100
AcDbSymbolTableRecord
100
AcDbLinetypeTableRecord
  2
BYLAYER
 70
     0
  3

 72
    65
 73
     0
 40
0.0
  0
LTYPE
  5
13
330
4
100
AcDbSymbolTableRecord
100
AcDbLinetypeTableRecord
  2
CONTINUOUS
 70
     0
  3
Solid line
 72
    65
 73
     0
 40
0.0
  0
LTYPE
  5
1D
330
4
100
AcDbSymbolTableRecord
100
AcDbLinetypeTableRecord
  2
HIDDEN
 70
     0
  3
Hidden __ __ __ __ __ __ __ __ __ __ __ __ __ __
 72
    65
 73
     2
 40
1.905
 49
1.27
 74
     0
 49
-0.635
 74
     0
  0
LTYPE
  5
1E
330
4
100
AcDbSymbolTableRecord
100
AcDbLinetypeTableRecord
  2
PHANTOM
 70
     0
  3
Phantom ______  __  __  ______  __  __  ______
 72
    65
 73
     6
 40
12.7
 49
6.349999999999997
 74
     0
 49
-1.27
 74
     0
 49
1.27
 74
     0
 49
-1.27
 74
     0
 49
1.27
 74
     0
 49
-1.27
 74
     0
  0
LTYPE
  5
1F
330
4
100
AcDbSymbolTableRecord
100
AcDbLinetypeTableRecord
  2
CENTER
 70
     0
  3
Center ____ _ ____ _ ____ _ ____ _ ____ _ ____
 72
    65
 73
     4
 40
10.16
 49
6.349999999999997
 74
     0
 49
-1.27
 74
     0
 49
1.27
 74
     0
 49
-1.27
 74
     0
  0
LTYPE
  5
E23
330
4
100
AcDbSymbolTableRecord
100
AcDbLinetypeTableRecord
  2
DASHDOT
 70
     0
  3
_._._._._._._._._._._._._._._._.
 72
    65
 73
     4
 40
1.0
 49
0.5
 74
     0
 49
-0.25
 74
     0
 49
0.0
 74
     0
 49
-0.25
 74
     0
  0
LTYPE
  5
E24
330
4
100
AcDbSymbolTableRecord
100
AcDbLinetypeTableRecord
  2
CONTINOUS
 70
     0
  3
Solid line
 72
    65
 73
     0
 40
0.0
  0
ENDTAB
  0
TABLE
  2
LAYER
  5
2
330
0
100
AcDbSymbolTable
 70
     9
  0
LAYER
  5
14
102
{ACAD_XDICTIONARY
360
281C
102
}
330
2
100
AcDbSymbolTableRecord
100
AcDbLayerTableRecord
  2
0
 70
     0
 62
     7
  6
CONTINUOUS
370
    -3
390
D1F
  0
LAYER
  5
23
330
2
100
AcDbSymbolTableRecord
100
AcDbLayerTableRecord
  2
DEFPOINTS
 70
     0
 62
     7
  6
CONTINUOUS
290
     0
370
    -3
390
D1F
  0
LAYER
  5
E26
102
{ACAD_XDICTIONARY
360
2824
102
}
330
2
100
AcDbSymbolTableRecord
100
AcDbLayerTableRecord
  2
10
 70
     0
 62
     4
  6
CONTINOUS
370
    -3
390
D1F
  0
LAYER
  5
E27
102
{ACAD_XDICTIONARY
360
2826
102
}
330
2
100
AcDbSymbolTableRecord
100
AcDbLayerTableRecord
  2
16
 70
     0
 62
     6
  6
DASHDOT
370
    -3
390
D1F
  0
LAYER
  5
E28
102
{ACAD_XDICTIONARY
360
2828
102
}
330
2
100
AcDbSymbolTableRecord
100
AcDbLayerTableRecord
  2
30
 70
     0
 62
     9
  6
CONTINUOUS
370
    -3
390
D1F
  0
LAYER
  5
E2A
102
{ACAD_XDICTIONARY
360
282C
102
}
330
2
100
AcDbSymbolTableRecord
100
AcDbLayerTableRecord
  2
19
 70
     0
 62
     7
  6
CONTINUOUS
370
    -3
390
D1F
  0
LAYER
  5
E2B
102
{ACAD_XDICTIONARY
360
282E
102
}
330
2
100
AcDbSymbolTableRecord
100
AcDbLayerTableRecord
  2
11
 70
     0
 62
     1
  6
CONTINUOUS
370
    -3
390
D1F
  0
LAYER
  5
1E3E
102
{ACAD_XDICTIONARY
360
2830
102
}
330
2
100
AcDbSymbolTableRecord
100
AcDbLayerTableRecord
  2
12
 70
     0
 62
     3
  6
CONTINUOUS
370
    -3
390
D1F
  0
LAYER
  5
1E44
102
{ACAD_XDICTIONARY
360
2832
102
}
330
2
100
AcDbSymbolTableRecord
100
AcDbLayerTableRecord
  2
18
 70
     0
 62
     5
  6
CONTINUOUS
370
    -3
390
D1F
  0
ENDTAB
  0
TABLE
  2
STYLE
  5
3
330
0
100
AcDbSymbolTable
 70
     4
  0
STYLE
  5
17
330
3
100
AcDbSymbolTableRecord
100
AcDbTextStyleTableRecord
  2
STANDARD
 70
     0
 40
0.0
 41
1.0
 50
0.0
 71
     0
 42
0.0
  3
txt
  4
bigfont
  0
STYLE
  5
96
330
3
100
AcDbSymbolTableRecord
100
AcDbTextStyleTableRecord
  2
SLDTEXTSTYLE0
 70
     0
 40
0.0
 41
0.75
 50
0.0
 71
     0
 42
0.0
  3
TXT
  4
bigfont
  0
STYLE
  5
E2E
330
3
100
AcDbSymbolTableRecord
100
AcDbTextStyleTableRecord
  2
DIM
 70
     0
 40
0.0
 41
0.8
 50
0.0
 71
     0
 42
2.5
  3
simplex.shx
  4
bigfont.shx
  0
ENDTAB
  0
TABLE
  2
VIEW
  5
5
330
0
100
AcDbSymbolTable
 70
     0
  0
ENDTAB
  0
TABLE
  2
UCS
  5
6
330
0
100
AcDbSymbolTable
 70
     0
  0
ENDTAB
  0
TABLE
  2
APPID
  5
8
330
0
100
AcDbSymbolTable
 70
     6
  0
APPID
  5
16
330
8
100
AcDbSymbolTableRecord
100
AcDbRegAppTableRecord
  2
ACAD
 70
     0
  0
APPID
  5
287C
330
8
100
AcDbSymbolTableRecord
100
AcDbRegAppTableRecord
  2
ACAD_MLEADERVER
 70
     0
  0
APPID
  5
2956
330
8
100
AcDbSymbolTableRecord
100
AcDbRegAppTableRecord
  2
ACAD_DSTYLE_DIMJAG
 70
     0
  0
APPID
  5
2957
330
8
100
AcDbSymbolTableRecord
100
AcDbRegAppTableRecord
  2
ACAD_DSTYLE_DIMTALN
 70
     0
  0
APPID
  5
A249
330
8
100
AcDbSymbolTableRecord
100
AcDbRegAppTableRecord
  2
ACAD_EXEMPT_FROM_CAD_STANDARDS
 70
     0
  0
APPID
  5
21768
330
8
100
AcDbSymbolTableRecord
100
AcDbRegAppTableRecord
  2
DCO15
 70
     0
  0
ENDTAB
  0
TABLE
  2
DIMSTYLE
  5
9
330
0
100
AcDbSymbolTable
 70
     3
100
AcDbDimStyleTable
 71
     2
340
18
340
E30
  0
DIMSTYLE
105
18
330
9
100
AcDbSymbolTableRecord
100
AcDbDimStyleTableRecord
  2
STANDARD
 70
     0
340
17
  0
DIMSTYLE
105
E30
102
{ACAD_REACTORS
330
207B
330
21BF
330
2088
330
2047
330
2061
330
203A
330
8A
330
80E
330
CEB
330
CF2
330
CFA
330
D01
330
24A0
330
21E4
330
219A
330
2180
330
20B7D
330
20C2A
330
20C29
330
20CF0
330
216CC
330
227A5
330
227A2
330
227A3
330
227A4
330
2164
330
231B8
102
}
330
9
100
AcDbSymbolTableRecord
100
AcDbDimStyleTableRecord
  2
ISO-25-2
 70
     0
 41
10.0
 42
10.0
 43
2.0
 44
10.0
 73
     0
 74
     0
 77
     1
 78
     8
140
15.0
141
2.5
143
0.03937007874016
147
5.0
171
     3
172
     1
271
     8
272
     8
274
     3
279
     2
283
     0
284
     8
289
     2
340
E2E
341
E11
342
E11
1001
ACAD_DSTYLE_DIMJAG
1070
   388
1040
1.5
1001
ACAD_DSTYLE_DIMTALN
1070
   392
1070
     0
  0
ENDTAB
  0
TABLE
  2
BLOCK_RECORD
  5
1
330
0
100
AcDbSymbolTable
 70
    22
  0
BLOCK_RECORD
  5
A
102
{ACAD_XDICTIONARY
360
2763
102
}
330
1
100
AcDbSymbolTableRecord
100
AcDbBlockTableRecord
  2
*MODEL_SPACE
340
D22
  0
BLOCK_RECORD
  5
B
330
1
100
AcDbSymbolTableRecord
100
AcDbBlockTableRecord
  2
*PAPER_SPACE
340
D23
  0
BLOCK_RECORD
  5
E11
330
1
100
AcDbSymbolTableRecord
100
AcDbBlockTableRecord
  2
_OPEN
340
0
310
2800000020000000200000000100080000000000000400000000000000000000000000000000000000000000000080000080000000808000800000008000800080800000C0C0C000C0DCC000F0CAA6000020400000206000002080000020A0000020C0000020E00000400000004020000040400000406000004080000040A0
310
000040C0000040E00000600000006020000060400000606000006080000060A0000060C0000060E00000800000008020000080400000806000008080000080A0000080C0000080E00000A0000000A0200000A0400000A0600000A0800000A0A00000A0C00000A0E00000C0000000C0200000C0400000C0600000C0800000C0
310
A00000C0C00000C0E00000E0000000E0200000E0400000E0600000E0800000E0A00000E0C00000E0E00040000000400020004000400040006000400080004000A0004000C0004000E00040200000402020004020400040206000402080004020A0004020C0004020E000404000004040200040404000404060004040800040
310
40A0004040C0004040E00040600000406020004060400040606000406080004060A0004060C0004060E00040800000408020004080400040806000408080004080A0004080C0004080E00040A0000040A0200040A0400040A0600040A0800040A0A00040A0C00040A0E00040C0000040C0200040C0400040C0600040C08000
310
40C0A00040C0C00040C0E00040E0000040E0200040E0400040E0600040E0800040E0A00040E0C00040E0E00080000000800020008000400080006000800080008000A0008000C0008000E00080200000802020008020400080206000802080008020A0008020C0008020E00080400000804020008040400080406000804080
310
008040A0008040C0008040E00080600000806020008060400080606000806080008060A0008060C0008060E00080800000808020008080400080806000808080008080A0008080C0008080E00080A0000080A0200080A0400080A0600080A0800080A0A00080A0C00080A0E00080C0000080C0200080C0400080C0600080C0
310
800080C0A00080C0C00080C0E00080E0000080E0200080E0400080E0600080E0800080E0A00080E0C00080E0E000C0000000C0002000C0004000C0006000C0008000C000A000C000C000C000E000C0200000C0202000C0204000C0206000C0208000C020A000C020C000C020E000C0400000C0402000C0404000C0406000C0
310
408000C040A000C040C000C040E000C0600000C0602000C0604000C0606000C0608000C060A000C060C000C060E000C0800000C0802000C0804000C0806000C0808000C080A000C080C000C080E000C0A00000C0A02000C0A04000C0A06000C0A08000C0A0A000C0A0C000C0A0E000C0C00000C0C02000C0C04000C0C06000
310
C0C08000C0C0A000F0FBFF00A4A0A000808080000000FF0000FF000000FFFF00FF000000FF00FF00FFFF0000FFFFFF0000000000000000000000000000000000000000000000000000000000000000000000000000000000000000000000000000000000000000000000000000000000000000000000000000000000000000
310
00000000000000000000000000000000000000000000000000000000000000000000000000000000000000000000000000000000000000000000000000000000000000000000000000000000000000000000000000000000000000000000000000000000000000000000000000000000000000000000000000000000000000
310
00000000000000000000000000000000000000000000000000000000000000000000000000000000000000000000000000000000000000000000000000000000000000000000000000000000000000000000000000000000000000000000000000000000000000000000000000000000000000000000000000000000000000
310
0000000000000000000000000000000000000000FFFFFF0000000000000000000000000000000000000000000000000000000000000000FFFFFFFFFFFF0000000000000000000000000000000000000000000000000000000000000000FFFFFFFFFFFF00000000000000000000000000000000000000000000000000000000
310
00000000FFFFFFFFFFFF0000000000000000000000000000000000000000000000000000000000000000FFFFFFFFFFFF0000000000FFFFFFFFFFFFFFFFFFFFFFFFFFFFFFFFFFFFFFFFFFFFFFFFFFFFFFFFFFFF000000000000000000000000000000000000000000FFFFFFFFFFFFFF00000000000000000000000000000000
310
00FFFFFFFFFFFFFFFF0000000000000000000000000000000000FFFFFFFFFFFFFF000000000000000000000000000000000000000000FFFFFFFF000000000000000000000000000000000000000000000000000000000000000000000000000000000000000000000000000000000000000000000000000000000000000000
310
00000000000000000000000000000000000000000000000000000000000000000000000000000000000000000000000000000000000000000000000000000000000000000000000000000000000000000000000000000000000000000000000000000000000000000000000000000000000000000000000000000000000000
310
00000000000000000000000000000000000000000000000000000000000000000000000000000000000000000000000000000000000000000000000000000000000000000000000000000000000000000000000000000000000000000000000000000000000000000000000000000000000000000000000000000000000000
310
0000000000000000000000000000000000000000000000000000000000000000000000000000000000000000000000000000000000000000
102
{BLKREFS
331
2292C
331
2292D
331
22935
331
22936
331
2293E
331
2293F
331
22947
331
22948
331
2295B
331
2295C
331
22DD2
331
22DD3
331
22DF1
331
22DF2
331
22DF9
331
22DFA
331
22E0B
331
22E0C
331
22E14
331
22E15
331
23137
331
23138
331
231E9
331
231EA
331
231F3
331
231F4
331
232BC
331
232BD
331
232C8
331
232C9
331
232D9
331
232DA
331
23330
331
23331
331
23338
331
23339
331
2334A
331
2334B
331
23365
331
23366
102
}
  0
BLOCK_RECORD
  5
203B
330
1
100
AcDbSymbolTableRecord
100
AcDbBlockTableRecord
  2
*D1
340
0
  0
BLOCK_RECORD
  5
2048
330
1
100
AcDbSymbolTableRecord
100
AcDbBlockTableRecord
  2
*D2
340
0
  0
BLOCK_RECORD
  5
2062
330
1
100
AcDbSymbolTableRecord
100
AcDbBlockTableRecord
  2
*D3
340
0
  0
BLOCK_RECORD
  5
207C
330
1
100
AcDbSymbolTableRecord
100
AcDbBlockTableRecord
  2
*D4
340
0
  0
BLOCK_RECORD
  5
2089
330
1
100
AcDbSymbolTableRecord
100
AcDbBlockTableRecord
  2
*D5
340
0
  0
BLOCK_RECORD
  5
2165
330
1
100
AcDbSymbolTableRecord
100
AcDbBlockTableRecord
  2
*D6
340
0
  0
BLOCK_RECORD
  5
2181
330
1
100
AcDbSymbolTableRecord
100
AcDbBlockTableRecord
  2
*D7
340
0
  0
BLOCK_RECORD
  5
219B
330
1
100
AcDbSymbolTableRecord
100
AcDbBlockTableRecord
  2
*D8
340
0
  0
BLOCK_RECORD
  5
21C0
330
1
100
AcDbSymbolTableRecord
100
AcDbBlockTableRecord
  2
*D9
340
0
  0
BLOCK_RECORD
  5
21E5
330
1
100
AcDbSymbolTableRecord
100
AcDbBlockTableRecord
  2
*D10
340
0
  0
BLOCK_RECORD
  5
20B7E
330
1
100
AcDbSymbolTableRecord
100
AcDbBlockTableRecord
  2
*D11
340
0
  0
BLOCK_RECORD
  5
20C2B
330
1
100
AcDbSymbolTableRecord
100
AcDbBlockTableRecord
  2
*D12
340
0
  0
BLOCK_RECORD
  5
20C37
330
1
100
AcDbSymbolTableRecord
100
AcDbBlockTableRecord
  2
*D13
340
0
  0
BLOCK_RECORD
  5
20CF1
330
1
100
AcDbSymbolTableRecord
100
AcDbBlockTableRecord
  2
*D14
340
0
  0
BLOCK_RECORD
  5
216CD
330
1
100
AcDbSymbolTableRecord
100
AcDbBlockTableRecord
  2
*D15
340
0
  0
BLOCK_RECORD
  5
227A7
330
1
100
AcDbSymbolTableRecord
100
AcDbBlockTableRecord
  2
*D16
340
0
  0
BLOCK_RECORD
  5
227C1
330
1
100
AcDbSymbolTableRecord
100
AcDbBlockTableRecord
  2
*D17
340
0
  0
BLOCK_RECORD
  5
227CF
330
1
100
AcDbSymbolTableRecord
100
AcDbBlockTableRecord
  2
*D18
340
0
  0
BLOCK_RECORD
  5
227DB
330
1
100
AcDbSymbolTableRecord
100
AcDbBlockTableRecord
  2
*D19
340
0
  0
BLOCK_RECORD
  5
231CA
330
1
100
AcDbSymbolTableRecord
100
AcDbBlockTableRecord
  2
*D20
340
0
  0
ENDTAB
  0
ENDSEC
  0
SECTION
  2
BLOCKS
  0
BLOCK
  5
D
330
A
100
AcDbEntity
  8
0
100
AcDbBlockBegin
  2
*MODEL_SPACE
 70
     0
 10
0.0
 20
0.0
 30
0.0
  3
*MODEL_SPACE
  1

  0
ENDBLK
  5
E
330
A
100
AcDbEntity
  8
0
100
AcDbBlockEnd
  0
BLOCK
  5
F
330
B
100
AcDbEntity
 67
     1
  8
0
100
AcDbBlockBegin
  2
*PAPER_SPACE
 70
     0
 10
0.0
 20
0.0
 30
0.0
  3
*PAPER_SPACE
  1

  0
ENDBLK
  5
10
330
B
100
AcDbEntity
 67
     1
  8
0
100
AcDbBlockEnd
  0
BLOCK
  5
E15
330
E11
100
AcDbEntity
  8
0
100
AcDbBlockBegin
  2
_OPEN
 70
     0
 10
0.0
 20
0.0
 30
0.0
  3
_OPEN
  1

  0
LINE
  5
E12
330
E11
100
AcDbEntity
  8
0
  6
ByBlock
 62
     0
100
AcDbLine
 10
-1.0
 20
0.1666666666666666
 30
0.0
 11
0.0
 21
0.0
 31
0.0
  0
LINE
  5
E13
330
E11
100
AcDbEntity
  8
0
  6
ByBlock
 62
     0
100
AcDbLine
 10
0.0
 20
0.0
 30
0.0
 11
-1.0
 21
-0.1666666666666666
 31
0.0
  0
LINE
  5
E14
330
E11
100
AcDbEntity
  8
0
  6
ByBlock
 62
     0
100
AcDbLine
 10
0.0
 20
0.0
 30
0.0
 11
-1.0
 21
0.0
 31
0.0
  0
ENDBLK
  5
E16
330
E11
100
AcDbEntity
  8
0
100
AcDbBlockEnd
  0
BLOCK
  5
2045
330
203B
100
AcDbEntity
  8
0
100
AcDbBlockBegin
  2
*D1
 70
     1
 10
0.0
 20
0.0
 30
0.0
  3
*D1
  1

  0
LINE
  5
23361
330
203B
100
AcDbEntity
  8
30
  6
Continuous
 62
     0
370
    -2
100
AcDbLine
 10
602.0000000000006
 20
42.50010000000014
 30
0.0
 11
602.0000000000006
 21
120.0
 31
0.0
  0
LINE
  5
23362
330
203B
100
AcDbEntity
  8
30
  6
Continuous
 62
     0
370
    -2
100
AcDbLine
 10
798.0000000000006
 20
-2.499900000000025
 30
0.0
 11
798.0000000000006
 21
120.0
 31
0.0
  0
LINE
  5
23363
330
203B
100
AcDbEntity
  8
30
  6
Continuous
 62
     0
370
    -2
100
AcDbLine
 10
612.0000000000007
 20
110.0
 30
0.0
 11
788.0000000000006
 21
110.0
 31
0.0
  0
MTEXT
  5
23364
330
203B
100
AcDbEntity
  8
30
  6
Continuous
 62
     0
100
AcDbMText
 10
700.0
 20
122.5
 30
0.0
 40
15.0
 41
0.0
 71
     5
 72
     1
  1
196
  7
DIM
 73
     1
 44
1.0
1001
ACAD
1000
MTEXTBEGIN
1070
    73
1070
     1
1070
    44
1040
1.0
1070
    74
1070
     0
1000
MTEXTEND
  0
INSERT
  5
23365
330
203B
100
AcDbEntity
  8
30
  6
Continuous
 62
     0
370
    -2
100
AcDbBlockReference
  2
_OPEN
 10
602.0000000000006
 20
110.0
 30
0.0
 41
10.0
 42
10.0
 43
10.0
 50
180.0
  0
INSERT
  5
23366
330
203B
100
AcDbEntity
  8
30
  6
Continuous
 62
     0
370
    -2
100
AcDbBlockReference
  2
_OPEN
 10
798.0000000000006
 20
110.0
 30
0.0
 41
10.0
 42
10.0
 43
10.0
  0
POINT
  5
23367
330
203B
100
AcDbEntity
  8
DEFPOINTS
  6
Continuous
 62
     0
100
AcDbPoint
 10
602.0000000000006
 20
32.50010000000015
 30
0.0
  0
POINT
  5
23368
330
203B
100
AcDbEntity
  8
DEFPOINTS
  6
Continuous
 62
     0
100
AcDbPoint
 10
798.0000000000006
 20
-12.49990000000002
 30
0.0
  0
POINT
  5
23369
330
203B
100
AcDbEntity
  8
DEFPOINTS
  6
Continuous
 62
     0
100
AcDbPoint
 10
798.0000000000006
 20
110.0
 30
0.0
  0
ENDBLK
  5
2046
330
203B
100
AcDbEntity
  8
0
100
AcDbBlockEnd
  0
BLOCK
  5
2052
330
2048
100
AcDbEntity
  8
0
100
AcDbBlockBegin
  2
*D2
 70
     1
 10
0.0
 20
0.0
 30
0.0
  3
*D2
  1

  0
LINE
  5
23134
330
2048
100
AcDbEntity
  8
30
  6
Continuous
 62
     0
370
    -2
100
AcDbLine
 10
616.0
 20
-129.9999999999998
 30
0.0
 11
616.0
 21
-170.0
 31
0.0
  0
LINE
  5
23135
330
2048
100
AcDbEntity
  8
30
  6
Continuous
 62
     0
370
    -2
100
AcDbLine
 10
784.0
 20
-129.9999999999998
 30
0.0
 11
784.0
 21
-170.0
 31
0.0
  0
LINE
  5
23136
330
2048
100
AcDbEntity
  8
30
  6
Continuous
 62
     0
370
    -2
100
AcDbLine
 10
626.0
 20
-160.0
 30
0.0
 11
774.0
 21
-160.0
 31
0.0
  0
INSERT
  5
23137
330
2048
100
AcDbEntity
  8
30
  6
Continuous
 62
     0
370
    -2
100
AcDbBlockReference
  2
_OPEN
 10
616.0
 20
-160.0
 30
0.0
 41
10.0
 42
10.0
 43
10.0
 50
180.0
  0
INSERT
  5
23138
330
2048
100
AcDbEntity
  8
30
  6
Continuous
 62
     0
370
    -2
100
AcDbBlockReference
  2
_OPEN
 10
784.0
 20
-160.0
 30
0.0
 41
10.0
 42
10.0
 43
10.0
  0
MTEXT
  5
23139
330
2048
100
AcDbEntity
  8
30
  6
Continuous
 62
     0
100
AcDbMText
 10
700.0
 20
-147.5
 30
0.0
 40
15.0
 41
0.0
 71
     5
 72
     1
  1
168
  7
DIM
 73
     1
 44
1.0
1001
ACAD
1000
MTEXTBEGIN
1070
    73
1070
     1
1070
    44
1040
1.0
1070
    74
1070
     0
1000
MTEXTEND
  0
POINT
  5
2313A
330
2048
100
AcDbEntity
  8
DEFPOINTS
  6
Continuous
 62
     0
100
AcDbPoint
 10
616.0
 20
-119.9999999999998
 30
0.0
  0
POINT
  5
2313B
330
2048
100
AcDbEntity
  8
DEFPOINTS
  6
Continuous
 62
     0
100
AcDbPoint
 10
784.0
 20
-119.9999999999998
 30
0.0
  0
POINT
  5
2313C
330
2048
100
AcDbEntity
  8
DEFPOINTS
  6
Continuous
 62
     0
100
AcDbPoint
 10
784.0
 20
-160.0
 30
0.0
  0
ENDBLK
  5
2053
330
2048
100
AcDbEntity
  8
0
100
AcDbBlockEnd
  0
BLOCK
  5
206C
330
2062
100
AcDbEntity
  8
0
100
AcDbBlockBegin
  2
*D3
 70
     1
 10
0.0
 20
0.0
 30
0.0
  3
*D3
  1

  0
LINE
  5
23347
330
2062
100
AcDbEntity
  8
30
  6
Continuous
 62
     0
370
    -2
100
AcDbLine
 10
673.9999999999999
 20
-310.0000000000004
 30
0.0
 11
673.9999999999999
 21
-250.0
 31
0.0
  0
LINE
  5
23348
330
2062
100
AcDbEntity
  8
30
  6
Continuous
 62
     0
370
    -2
100
AcDbLine
 10
726.0
 20
-310.0000000000004
 30
0.0
 11
726.0
 21
-250.0
 31
0.0
  0
LINE
  5
23349
330
2062
100
AcDbEntity
  8
30
  6
Continuous
 62
     0
370
    -2
100
AcDbLine
 10
683.9999999999998
 20
-260.0
 30
0.0
 11
716.0
 21
-260.0
 31
0.0
  0
INSERT
  5
2334A
330
2062
100
AcDbEntity
  8
30
  6
Continuous
 62
     0
370
    -2
100
AcDbBlockReference
  2
_OPEN
 10
673.9999999999999
 20
-260.0
 30
0.0
 41
10.0
 42
10.0
 43
10.0
 50
180.0
  0
INSERT
  5
2334B
330
2062
100
AcDbEntity
  8
30
  6
Continuous
 62
     0
370
    -2
100
AcDbBlockReference
  2
_OPEN
 10
726.0
 20
-260.0
 30
0.0
 41
10.0
 42
10.0
 43
10.0
  0
MTEXT
  5
2334C
330
2062
100
AcDbEntity
  8
30
  6
Continuous
 62
     0
100
AcDbMText
 10
700.0
 20
-247.5
 30
0.0
 40
15.0
 41
0.0
 71
     5
 72
     1
  1
52
  7
DIM
 73
     1
 44
1.0
1001
ACAD
1000
MTEXTBEGIN
1070
    73
1070
     1
1070
    44
1040
1.0
1070
    74
1070
     0
1000
MTEXTEND
  0
POINT
  5
2334D
330
2062
100
AcDbEntity
  8
DEFPOINTS
  6
Continuous
 62
     0
100
AcDbPoint
 10
673.9999999999999
 20
-320.0000000000004
 30
0.0
  0
POINT
  5
2334E
330
2062
100
AcDbEntity
  8
DEFPOINTS
  6
Continuous
 62
     0
100
AcDbPoint
 10
726.0
 20
-320.0000000000004
 30
0.0
  0
POINT
  5
2334F
330
2062
100
AcDbEntity
  8
DEFPOINTS
  6
Continuous
 62
     0
100
AcDbPoint
 10
726.0
 20
-260.0
 30
0.0
  0
ENDBLK
  5
206D
330
2062
100
AcDbEntity
  8
0
100
AcDbBlockEnd
  0
BLOCK
  5
2086
330
207C
100
AcDbEntity
  8
0
100
AcDbBlockBegin
  2
*D4
 70
     1
 10
0.0
 20
0.0
 30
0.0
  3
*D4
  1

  0
LINE
  5
22929
330
207C
100
AcDbEntity
  8
30
  6
Continuous
 62
     0
370
    -2
100
AcDbLine
 10
-110.0
 20
-36.00000000000068
 30
0.0
 11
-110.0
 21
-169.9999999999999
 31
0.0
  0
LINE
  5
2292A
330
207C
100
AcDbEntity
  8
30
  6
Continuous
 62
     0
370
    -2
100
AcDbLine
 10
110.0
 20
-36.00000000000068
 30
0.0
 11
110.0
 21
-169.9999999999999
 31
0.0
  0
LINE
  5
2292B
330
207C
100
AcDbEntity
  8
30
  6
Continuous
 62
     0
370
    -2
100
AcDbLine
 10
-100.0
 20
-159.9999999999999
 30
0.0
 11
100.0
 21
-159.9999999999999
 31
0.0
  0
INSERT
  5
2292C
330
207C
100
AcDbEntity
  8
30
  6
Continuous
 62
     0
370
    -2
100
AcDbBlockReference
  2
_OPEN
 10
-110.0
 20
-159.9999999999999
 30
0.0
 41
10.0
 42
10.0
 43
10.0
 50
180.0
  0
INSERT
  5
2292D
330
207C
100
AcDbEntity
  8
30
  6
Continuous
 62
     0
370
    -2
100
AcDbBlockReference
  2
_OPEN
 10
110.0
 20
-159.9999999999999
 30
0.0
 41
10.0
 42
10.0
 43
10.0
  0
MTEXT
  5
2292E
330
207C
100
AcDbEntity
  8
30
  6
Continuous
 62
     0
100
AcDbMText
 10
-0.0000000000000134
 20
-147.4999999999999
 30
0.0
 40
15.0
 41
0.0
 71
     5
 72
     1
  1
220
  7
DIM
 73
     1
 44
1.0
1001
ACAD
1000
MTEXTBEGIN
1070
    73
1070
     1
1070
    44
1040
1.0
1070
    74
1070
     0
1000
MTEXTEND
  0
POINT
  5
2292F
330
207C
100
AcDbEntity
  8
DEFPOINTS
  6
Continuous
 62
     0
100
AcDbPoint
 10
-110.0
 20
-26.00000000000068
 30
0.0
  0
POINT
  5
22930
330
207C
100
AcDbEntity
  8
DEFPOINTS
  6
Continuous
 62
     0
100
AcDbPoint
 10
110.0
 20
-26.00000000000068
 30
0.0
  0
POINT
  5
22931
330
207C
100
AcDbEntity
  8
DEFPOINTS
  6
Continuous
 62
     0
100
AcDbPoint
 10
110.0
 20
-159.9999999999999
 30
0.0
  0
ENDBLK
  5
2087
330
207C
100
AcDbEntity
  8
0
100
AcDbBlockEnd
  0
BLOCK
  5
2093
330
2089
100
AcDbEntity
  8
0
100
AcDbBlockBegin
  2
*D5
 70
     1
 10
0.0
 20
0.0
 30
0.0
  3
*D5
  1

  0
LINE
  5
22932
330
2089
100
AcDbEntity
  8
30
  6
Continuous
 62
     0
370
    -2
100
AcDbLine
 10
-0.0000000000000006
 20
-79.74999999999991
 30
0.0
 11
-0.0000000000000031
 21
-119.9999999999999
 31
0.0
  0
LINE
  5
22933
330
2089
100
AcDbEntity
  8
30
  6
Continuous
 62
     0
370
    -2
100
AcDbLine
 10
42.0
 20
-35.20000000000084
 30
0.0
 11
41.99999999999999
 21
-119.9999999999999
 31
0.0
  0
LINE
  5
22934
330
2089
100
AcDbEntity
  8
30
  6
Continuous
 62
     0
370
    -2
100
AcDbLine
 10
9.999999999999998
 20
-109.9999999999999
 30
0.0
 11
31.99999999999999
 21
-109.9999999999999
 31
0.0
  0
INSERT
  5
22935
330
2089
100
AcDbEntity
  8
30
  6
Continuous
 62
     0
370
    -2
100
AcDbBlockReference
  2
_OPEN
 10
-0.0000000000000025
 20
-109.9999999999999
 30
0.0
 41
10.0
 42
10.0
 43
10.0
 50
180.0
  0
INSERT
  5
22936
330
2089
100
AcDbEntity
  8
30
  6
Continuous
 62
     0
370
    -2
100
AcDbBlockReference
  2
_OPEN
 10
41.99999999999999
 20
-109.9999999999999
 30
0.0
 41
10.0
 42
10.0
 43
10.0
  0
MTEXT
  5
22937
330
2089
100
AcDbEntity
  8
30
  6
Continuous
 62
     0
100
AcDbMText
 10
21.0
 20
-97.49999999999992
 30
0.0
 40
15.0
 41
0.0
 71
     5
 72
     1
  1
42
  7
DIM
 73
     1
 44
1.0
1001
ACAD
1000
MTEXTBEGIN
1070
    73
1070
     1
1070
    44
1040
1.0
1070
    74
1070
     0
1000
MTEXTEND
  0
POINT
  5
22938
330
2089
100
AcDbEntity
  8
DEFPOINTS
  6
Continuous
 62
     0
100
AcDbPoint
 10
0.0
 20
-69.74999999999991
 30
0.0
  0
POINT
  5
22939
330
2089
100
AcDbEntity
  8
DEFPOINTS
  6
Continuous
 62
     0
100
AcDbPoint
 10
42.0
 20
-25.20000000000084
 30
0.0
  0
POINT
  5
2293A
330
2089
100
AcDbEntity
  8
DEFPOINTS
  6
Continuous
 62
     0
100
AcDbPoint
 10
41.99999999999999
 20
-109.9999999999999
 30
0.0
  0
ENDBLK
  5
2094
330
2089
100
AcDbEntity
  8
0
100
AcDbBlockEnd
  0
BLOCK
  5
2171
330
2165
100
AcDbEntity
  8
0
100
AcDbBlockBegin
  2
*D6
 70
     1
 10
0.0
 20
0.0
 30
0.0
  3
*D6
  1

  0
LINE
  5
22DCC
330
2165
100
AcDbEntity
  8
30
  6
Continuous
 62
     0
370
    -2
100
AcDbLine
 10
-119.0
 20
-419.0
 30
0.0
 11
-175.0
 21
-418.9999999999999
 31
0.0
  0
LINE
  5
22DCD
330
2165
100
AcDbEntity
  8
30
  6
Continuous
 62
     0
370
    -2
100
AcDbLine
 10
-100.5999999999999
 20
-440.0
 30
0.0
 11
-175.0
 21
-439.9999999999999
 31
0.0
  0
LINE
  5
22DCE
330
2165
100
AcDbEntity
  8
30
  6
Continuous
 62
     0
370
    -2
100
AcDbLine
 10
-164.9999999999999
 20
-408.9999999999999
 30
0.0
 11
-164.9999999999999
 21
-398.9999999999999
 31
0.0
  0
LINE
  5
22DCF
330
2165
100
AcDbEntity
  8
30
  6
Continuous
 62
     0
370
    -2
100
AcDbLine
 10
-165.0
 20
-449.9999999999999
 30
0.0
 11
-165.0
 21
-459.9999999999999
 31
0.0
  0
MTEXT
  5
22DD0
330
2165
100
AcDbEntity
  8
30
  6
Continuous
 62
     0
100
AcDbMText
 10
-189.9999999999999
 20
-429.4999999999999
 30
0.0
 40
15.0
 41
0.0
 71
     5
 72
     1
  1
21
  7
DIM
 11
0.0000000000000001
 21
1.0
 31
0.0
 73
     1
 44
1.0
1001
ACAD
1000
MTEXTBEGIN
1070
    73
1070
     1
1070
    44
1040
1.0
1070
    74
1070
     0
1000
MTEXTEND
  0
LINE
  5
22DD1
330
2165
100
AcDbEntity
  8
30
  6
Continuous
 62
     0
370
    -2
100
AcDbLine
 10
-164.9999999999999
 20
-418.9999999999999
 30
0.0
 11
-164.9999999999999
 21
-439.9999999999999
 31
0.0
  0
INSERT
  5
22DD2
330
2165
100
AcDbEntity
  8
30
  6
Continuous
 62
     0
370
    -2
100
AcDbBlockReference
  2
_OPEN
 10
-164.9999999999999
 20
-418.9999999999999
 30
0.0
 41
10.0
 42
10.0
 43
10.0
 50
270.0
  0
INSERT
  5
22DD3
330
2165
100
AcDbEntity
  8
30
  6
Continuous
 62
     0
370
    -2
100
AcDbBlockReference
  2
_OPEN
 10
-164.9999999999999
 20
-439.9999999999999
 30
0.0
 41
10.0
 42
10.0
 43
10.0
 50
90.0
  0
POINT
  5
22DD4
330
2165
100
AcDbEntity
  8
DEFPOINTS
  6
Continuous
 62
     0
100
AcDbPoint
 10
-109.0
 20
-419.0
 30
0.0
  0
POINT
  5
22DD5
330
2165
100
AcDbEntity
  8
DEFPOINTS
  6
Continuous
 62
     0
100
AcDbPoint
 10
-90.59999999999991
 20
-440.0
 30
0.0
  0
POINT
  5
22DD6
330
2165
100
AcDbEntity
  8
DEFPOINTS
  6
Continuous
 62
     0
100
AcDbPoint
 10
-164.9999999999999
 20
-439.9999999999999
 30
0.0
  0
ENDBLK
  5
2172
330
2165
100
AcDbEntity
  8
0
100
AcDbBlockEnd
  0
BLOCK
  5
218B
330
2181
100
AcDbEntity
  8
0
100
AcDbBlockBegin
  2
*D7
 70
     1
 10
0.0
 20
0.0
 30
0.0
  3
*D7
  1

  0
LINE
  5
232B9
330
2181
100
AcDbEntity
  8
30
  6
Continuous
 62
     0
370
    -2
100
AcDbLine
 10
134.0
 20
-440.0
 30
0.0
 11
271.9988484217001
 21
-440.0
 31
0.0
  0
LINE
  5
232BA
330
2181
100
AcDbEntity
  8
30
  6
Continuous
 62
     0
370
    -2
100
AcDbLine
 10
65.5
 20
-480.0
 30
0.0
 11
271.9988484217001
 21
-480.0
 31
0.0
  0
LINE
  5
232BB
330
2181
100
AcDbEntity
  8
30
  6
Continuous
 62
     0
370
    -2
100
AcDbLine
 10
261.9988484217001
 20
-450.0
 30
0.0
 11
261.9988484217001
 21
-470.0000000000001
 31
0.0
  0
INSERT
  5
232BC
330
2181
100
AcDbEntity
  8
30
  6
Continuous
 62
     0
370
    -2
100
AcDbBlockReference
  2
_OPEN
 10
261.9988484217001
 20
-440.0
 30
0.0
 41
10.0
 42
10.0
 43
10.0
 50
90.0
  0
INSERT
  5
232BD
330
2181
100
AcDbEntity
  8
30
  6
Continuous
 62
     0
370
    -2
100
AcDbBlockReference
  2
_OPEN
 10
261.9988484217001
 20
-480.0
 30
0.0
 41
10.0
 42
10.0
 43
10.0
 50
270.0
  0
MTEXT
  5
232BE
330
2181
100
AcDbEntity
  8
30
  6
Continuous
 62
     0
100
AcDbMText
 10
249.4988484217002
 20
-460.0
 30
0.0
 40
15.0
 41
0.0
 71
     5
 72
     1
  1
40
  7
DIM
 11
0.0000000000000001
 21
1.0
 31
0.0
 73
     1
 44
1.0
1001
ACAD
1000
MTEXTBEGIN
1070
    73
1070
     1
1070
    44
1040
1.0
1070
    74
1070
     0
1000
MTEXTEND
  0
POINT
  5
232BF
330
2181
100
AcDbEntity
  8
DEFPOINTS
  6
Continuous
 62
     0
100
AcDbPoint
 10
124.0
 20
-440.0
 30
0.0
  0
POINT
  5
232C0
330
2181
100
AcDbEntity
  8
DEFPOINTS
  6
Continuous
 62
     0
100
AcDbPoint
 10
55.5
 20
-480.0
 30
0.0
  0
POINT
  5
232C1
330
2181
100
AcDbEntity
  8
DEFPOINTS
  6
Continuous
 62
     0
100
AcDbPoint
 10
261.9988484217001
 20
-480.0
 30
0.0
  0
ENDBLK
  5
218C
330
2181
100
AcDbEntity
  8
0
100
AcDbBlockEnd
  0
BLOCK
  5
21A7
330
219B
100
AcDbEntity
  8
0
100
AcDbBlockBegin
  2
*D8
 70
     1
 10
0.0
 20
0.0
 30
0.0
  3
*D8
  1

  0
LINE
  5
232C2
330
219B
100
AcDbEntity
  8
30
  6
Continuous
 62
     0
370
    -2
100
AcDbLine
 10
116.5048666197002
 20
-462.0
 30
0.0
 11
171.9988484217003
 21
-462.0
 31
0.0
  0
LINE
  5
232C3
330
219B
100
AcDbEntity
  8
30
  6
Continuous
 62
     0
370
    -2
100
AcDbLine
 10
138.9988473787002
 20
-439.9999999999998
 30
0.0
 11
171.9988484217003
 21
-439.9999999999998
 31
0.0
  0
LINE
  5
232C4
330
219B
100
AcDbEntity
  8
30
  6
Continuous
 62
     0
370
    -2
100
AcDbLine
 10
161.9988484217003
 20
-472.0
 30
0.0
 11
161.9988484217003
 21
-482.0
 31
0.0
  0
LINE
  5
232C5
330
219B
100
AcDbEntity
  8
30
  6
Continuous
 62
     0
370
    -2
100
AcDbLine
 10
161.9988484217003
 20
-429.9999999999998
 30
0.0
 11
161.9988484217003
 21
-419.9999999999999
 31
0.0
  0
MTEXT
  5
232C6
330
219B
100
AcDbEntity
  8
30
  6
Continuous
 62
     0
100
AcDbMText
 10
147.9188210542454
 20
-418.3194255577069
 30
0.0
 40
15.0
 41
0.0
 71
     5
 72
     1
  1
22
  7
DIM
 11
0.0000000000000001
 21
1.0
 31
0.0
 73
     1
 44
1.0
1001
ACAD
1000
MTEXTBEGIN
1070
    73
1070
     1
1070
    44
1040
1.0
1070
    74
1070
     0
1000
MTEXTEND
  0
LINE
  5
232C7
330
219B
100
AcDbEntity
  8
30
  6
Continuous
 62
     0
370
    -2
100
AcDbLine
 10
161.9988484217003
 20
-462.0
 30
0.0
 11
161.9988484217003
 21
-439.9999999999998
 31
0.0
  0
INSERT
  5
232C8
330
219B
100
AcDbEntity
  8
30
  6
Continuous
 62
     0
370
    -2
100
AcDbBlockReference
  2
_OPEN
 10
161.9988484217003
 20
-462.0
 30
0.0
 41
10.0
 42
10.0
 43
10.0
 50
90.0
  0
INSERT
  5
232C9
330
219B
100
AcDbEntity
  8
30
  6
Continuous
 62
     0
370
    -2
100
AcDbBlockReference
  2
_OPEN
 10
161.9988484217003
 20
-439.9999999999998
 30
0.0
 41
10.0
 42
10.0
 43
10.0
 50
270.0
  0
POINT
  5
232CA
330
219B
100
AcDbEntity
  8
DEFPOINTS
  6
Continuous
 62
     0
100
AcDbPoint
 10
106.5048666197002
 20
-462.0
 30
0.0
  0
POINT
  5
232CB
330
219B
100
AcDbEntity
  8
DEFPOINTS
  6
Continuous
 62
     0
100
AcDbPoint
 10
128.9988473787002
 20
-439.9999999999998
 30
0.0
  0
POINT
  5
232CC
330
219B
100
AcDbEntity
  8
DEFPOINTS
  6
Continuous
 62
     0
100
AcDbPoint
 10
161.9988484217003
 20
-439.9999999999998
 30
0.0
  0
ENDBLK
  5
21A8
330
219B
100
AcDbEntity
  8
0
100
AcDbBlockEnd
  0
BLOCK
  5
21CC
330
21C0
100
AcDbEntity
  8
0
100
AcDbBlockBegin
  2
*D9
 70
     1
 10
0.0
 20
0.0
 30
0.0
  3
*D9
  1

  0
LINE
  5
22DEB
330
21C0
100
AcDbEntity
  8
30
  6
Continuous
 62
     0
370
    -2
100
AcDbLine
 10
-1.999999999999958
 20
-508.6055512754639
 30
0.0
 11
-1.999999999999958
 21
-520.0
 31
0.0
  0
LINE
  5
22DEC
330
21C0
100
AcDbEntity
  8
30
  6
Continuous
 62
     0
370
    -2
100
AcDbLine
 10
2.000000000000042
 20
-508.6055512754639
 30
0.0
 11
2.000000000000041
 21
-520.0
 31
0.0
  0
LINE
  5
22DED
330
21C0
100
AcDbEntity
  8
30
  6
Continuous
 62
     0
370
    -2
100
AcDbLine
 10
-11.99999999999995
 20
-510.0
 30
0.0
 11
-21.99999999999996
 21
-510.0
 31
0.0
  0
LINE
  5
22DEE
330
21C0
100
AcDbEntity
  8
30
  6
Continuous
 62
     0
370
    -2
100
AcDbLine
 10
12.00000000000004
 20
-510.0
 30
0.0
 11
22.00000000000004
 21
-510.0
 31
0.0
  0
MTEXT
  5
22DEF
330
21C0
100
AcDbEntity
  8
30
  6
Continuous
 62
     0
100
AcDbMText
 10
24.0
 20
-497.1911056714657
 30
0.0
 40
15.0
 41
0.0
 71
     5
 72
     1
  1
4
  7
DIM
 73
     1
 44
1.0
1001
ACAD
1000
MTEXTBEGIN
1070
    73
1070
     1
1070
    44
1040
1.0
1070
    74
1070
     0
1000
MTEXTEND
  0
LINE
  5
22DF0
330
21C0
100
AcDbEntity
  8
30
  6
Continuous
 62
     0
370
    -2
100
AcDbLine
 10
-1.999999999999958
 20
-510.0
 30
0.0
 11
2.000000000000041
 21
-510.0
 31
0.0
  0
INSERT
  5
22DF1
330
21C0
100
AcDbEntity
  8
30
  6
Continuous
 62
     0
370
    -2
100
AcDbBlockReference
  2
_OPEN
 10
-1.999999999999958
 20
-510.0
 30
0.0
 41
10.0
 42
10.0
 43
10.0
  0
INSERT
  5
22DF2
330
21C0
100
AcDbEntity
  8
30
  6
Continuous
 62
     0
370
    -2
100
AcDbBlockReference
  2
_OPEN
 10
2.000000000000041
 20
-510.0
 30
0.0
 41
10.0
 42
10.0
 43
10.0
 50
180.0
  0
POINT
  5
22DF3
330
21C0
100
AcDbEntity
  8
DEFPOINTS
  6
Continuous
 62
     0
100
AcDbPoint
 10
-1.999999999999957
 20
-498.6055512754639
 30
0.0
  0
POINT
  5
22DF4
330
21C0
100
AcDbEntity
  8
DEFPOINTS
  6
Continuous
 62
     0
100
AcDbPoint
 10
2.000000000000042
 20
-498.6055512754639
 30
0.0
  0
POINT
  5
22DF5
330
21C0
100
AcDbEntity
  8
DEFPOINTS
  6
Continuous
 62
     0
100
AcDbPoint
 10
2.000000000000041
 20
-510.0
 30
0.0
  0
ENDBLK
  5
21CD
330
21C0
100
AcDbEntity
  8
0
100
AcDbBlockEnd
  0
BLOCK
  5
21EF
330
21E5
100
AcDbEntity
  8
0
100
AcDbBlockBegin
  2
*D10
 70
     1
 10
0.0
 20
0.0
 30
0.0
  3
*D10
  1

  0
LINE
  5
22DF6
330
21E5
100
AcDbEntity
  8
30
  6
Continuous
 62
     0
370
    -2
100
AcDbLine
 10
-59.00000000000001
 20
-447.3000000000001
 30
0.0
 11
-59.00000000000002
 21
-620.0
 31
0.0
  0
LINE
  5
22DF7
330
21E5
100
AcDbEntity
  8
30
  6
Continuous
 62
     0
370
    -2
100
AcDbLine
 10
58.99999999999999
 20
-447.3000000000001
 30
0.0
 11
58.99999999999998
 21
-620.0
 31
0.0
  0
LINE
  5
22DF8
330
21E5
100
AcDbEntity
  8
30
  6
Continuous
 62
     0
370
    -2
100
AcDbLine
 10
-49.00000000000002
 20
-610.0
 30
0.0
 11
48.99999999999998
 21
-610.0
 31
0.0
  0
INSERT
  5
22DF9
330
21E5
100
AcDbEntity
  8
30
  6
Continuous
 62
     0
370
    -2
100
AcDbBlockReference
  2
_OPEN
 10
-59.00000000000002
 20
-610.0
 30
0.0
 41
10.0
 42
10.0
 43
10.0
 50
180.0
  0
INSERT
  5
22DFA
330
21E5
100
AcDbEntity
  8
30
  6
Continuous
 62
     0
370
    -2
100
AcDbBlockReference
  2
_OPEN
 10
58.99999999999998
 20
-610.0
 30
0.0
 41
10.0
 42
10.0
 43
10.0
  0
MTEXT
  5
22DFB
330
21E5
100
AcDbEntity
  8
30
  6
Continuous
 62
     0
100
AcDbMText
 10
0.0166662500000613
 20
-597.5
 30
0.0
 40
15.0
 41
0.0
 71
     5
 72
     1
  1
118
  7
DIM
 73
     1
 44
1.0
1001
ACAD
1000
MTEXTBEGIN
1070
    73
1070
     1
1070
    44
1040
1.0
1070
    74
1070
     0
1000
MTEXTEND
  0
POINT
  5
22DFC
330
21E5
100
AcDbEntity
  8
DEFPOINTS
  6
Continuous
 62
     0
100
AcDbPoint
 10
-59.00000000000001
 20
-437.3000000000001
 30
0.0
  0
POINT
  5
22DFD
330
21E5
100
AcDbEntity
  8
DEFPOINTS
  6
Continuous
 62
     0
100
AcDbPoint
 10
58.99999999999999
 20
-437.3000000000001
 30
0.0
  0
POINT
  5
22DFE
330
21E5
100
AcDbEntity
  8
DEFPOINTS
  6
Continuous
 62
     0
100
AcDbPoint
 10
58.99999999999998
 20
-610.0
 30
0.0
  0
ENDBLK
  5
21F0
330
21E5
100
AcDbEntity
  8
0
100
AcDbBlockEnd
  0
BLOCK
  5
20B7F
330
20B7E
100
AcDbEntity
  8
0
100
AcDbBlockBegin
  2
*D11
 70
     1
 10
0.0
 20
0.0
 30
0.0
  3
*D11
  1

  0
LINE
  5
23335
330
20B7E
100
AcDbEntity
  8
30
  6
Continuous
 62
     0
370
    -2
100
AcDbLine
 10
138.9988473787002
 20
-439.9999999999998
 30
0.0
 11
221.9988484217002
 21
-439.9999999999998
 31
0.0
  0
LINE
  5
23336
330
20B7E
100
AcDbEntity
  8
30
  6
Continuous
 62
     0
370
    -2
100
AcDbLine
 10
60.0
 20
-391.0
 30
0.0
 11
221.9988484217002
 21
-391.0000000000001
 31
0.0
  0
LINE
  5
23337
330
20B7E
100
AcDbEntity
  8
30
  6
Continuous
 62
     0
370
    -2
100
AcDbLine
 10
211.9988484217003
 20
-429.9999999999998
 30
0.0
 11
211.9988484217003
 21
-401.0
 31
0.0
  0
INSERT
  5
23338
330
20B7E
100
AcDbEntity
  8
30
  6
Continuous
 62
     0
370
    -2
100
AcDbBlockReference
  2
_OPEN
 10
211.9988484217003
 20
-439.9999999999998
 30
0.0
 41
10.0
 42
10.0
 43
10.0
 50
270.0
  0
INSERT
  5
23339
330
20B7E
100
AcDbEntity
  8
30
  6
Continuous
 62
     0
370
    -2
100
AcDbBlockReference
  2
_OPEN
 10
211.9988484217003
 20
-391.0000000000001
 30
0.0
 41
10.0
 42
10.0
 43
10.0
 50
90.0
  0
MTEXT
  5
2333A
330
20B7E
100
AcDbEntity
  8
30
  6
Continuous
 62
     0
100
AcDbMText
 10
199.4988484217003
 20
-415.4999999999999
 30
0.0
 40
15.0
 41
0.0
 71
     5
 72
     1
  1
49
  7
DIM
 11
0.0000000000000001
 21
1.0
 31
0.0
 73
     1
 44
1.0
1001
ACAD
1000
MTEXTBEGIN
1070
    73
1070
     1
1070
    44
1040
1.0
1070
    74
1070
     0
1000
MTEXTEND
  0
POINT
  5
2333B
330
20B7E
100
AcDbEntity
  8
DEFPOINTS
  6
Continuous
 62
     0
100
AcDbPoint
 10
128.9988473787002
 20
-439.9999999999998
 30
0.0
  0
POINT
  5
2333C
330
20B7E
100
AcDbEntity
  8
DEFPOINTS
  6
Continuous
 62
     0
100
AcDbPoint
 10
50.0
 20
-391.0
 30
0.0
  0
POINT
  5
2333D
330
20B7E
100
AcDbEntity
  8
DEFPOINTS
  6
Continuous
 62
     0
100
AcDbPoint
 10
211.9988484217003
 20
-391.0000000000001
 30
0.0
  0
ENDBLK
  5
20B80
330
20B7E
100
AcDbEntity
  8
0
100
AcDbBlockEnd
  0
BLOCK
  5
20C2C
330
20C2B
100
AcDbEntity
  8
0
100
AcDbBlockBegin
  2
*D12
 70
     1
 10
0.0
 20
0.0
 30
0.0
  3
*D12
  1

  0
LINE
  5
22E08
330
20C2B
100
AcDbEntity
  8
30
  6
Continuous
 62
     0
370
    -2
100
AcDbLine
 10
-0.0000000000000006
 20
-514.1088943285344
 30
0.0
 11
-0.000000000000004
 21
-570.0
 31
0.0
  0
LINE
  5
22E09
330
20C2B
100
AcDbEntity
  8
30
  6
Continuous
 62
     0
370
    -2
100
AcDbLine
 10
-45.0
 20
-515.0
 30
0.0
 11
-45.0
 21
-570.0
 31
0.0
  0
LINE
  5
22E0A
330
20C2B
100
AcDbEntity
  8
30
  6
Continuous
 62
     0
370
    -2
100
AcDbLine
 10
-10.0
 20
-560.0
 30
0.0
 11
-35.0
 21
-560.0
 31
0.0
  0
INSERT
  5
22E0B
330
20C2B
100
AcDbEntity
  8
30
  6
Continuous
 62
     0
370
    -2
100
AcDbBlockReference
  2
_OPEN
 10
-0.0000000000000034
 20
-560.0
 30
0.0
 41
10.0
 42
10.0
 43
10.0
  0
INSERT
  5
22E0C
330
20C2B
100
AcDbEntity
  8
30
  6
Continuous
 62
     0
370
    -2
100
AcDbBlockReference
  2
_OPEN
 10
-45.0
 20
-560.0
 30
0.0
 41
10.0
 42
10.0
 43
10.0
 50
180.0
  0
MTEXT
  5
22E0D
330
20C2B
100
AcDbEntity
  8
30
  6
Continuous
 62
     0
100
AcDbMText
 10
-22.5
 20
-547.5
 30
0.0
 40
15.0
 41
0.0
 71
     5
 72
     1
  1
45
  7
DIM
 73
     1
 44
1.0
1001
ACAD
1000
MTEXTBEGIN
1070
    73
1070
     1
1070
    44
1040
1.0
1070
    74
1070
     0
1000
MTEXTEND
  0
POINT
  5
22E0E
330
20C2B
100
AcDbEntity
  8
DEFPOINTS
  6
Continuous
 62
     0
100
AcDbPoint
 10
0.0
 20
-504.1088943285344
 30
0.0
  0
POINT
  5
22E0F
330
20C2B
100
AcDbEntity
  8
DEFPOINTS
  6
Continuous
 62
     0
100
AcDbPoint
 10
-45.0
 20
-505.0
 30
0.0
  0
POINT
  5
22E10
330
20C2B
100
AcDbEntity
  8
DEFPOINTS
  6
Continuous
 62
     0
100
AcDbPoint
 10
-45.0
 20
-560.0
 30
0.0
  0
ENDBLK
  5
20C2D
330
20C2B
100
AcDbEntity
  8
0
100
AcDbBlockEnd
  0
BLOCK
  5
20C38
330
20C37
100
AcDbEntity
  8
0
100
AcDbBlockBegin
  2
*D13
 70
     1
 10
0.0
 20
0.0
 30
0.0
  3
*D13
  1

  0
LINE
  5
22E11
330
20C37
100
AcDbEntity
  8
30
  6
Continuous
 62
     0
370
    -2
100
AcDbLine
 10
-0.0000000000000006
 20
-514.1088943285344
 30
0.0
 11
-0.000000000000004
 21
-570.0
 31
0.0
  0
LINE
  5
22E12
330
20C37
100
AcDbEntity
  8
30
  6
Continuous
 62
     0
370
    -2
100
AcDbLine
 10
45.0
 20
-507.1911056714657
 30
0.0
 11
44.99999999999999
 21
-570.0
 31
0.0
  0
LINE
  5
22E13
330
20C37
100
AcDbEntity
  8
30
  6
Continuous
 62
     0
370
    -2
100
AcDbLine
 10
9.999999999999996
 20
-560.0
 30
0.0
 11
35.0
 21
-560.0
 31
0.0
  0
INSERT
  5
22E14
330
20C37
100
AcDbEntity
  8
30
  6
Continuous
 62
     0
370
    -2
100
AcDbBlockReference
  2
_OPEN
 10
-0.0000000000000034
 20
-560.0
 30
0.0
 41
10.0
 42
10.0
 43
10.0
 50
180.0
  0
INSERT
  5
22E15
330
20C37
100
AcDbEntity
  8
30
  6
Continuous
 62
     0
370
    -2
100
AcDbBlockReference
  2
_OPEN
 10
44.99999999999999
 20
-560.0
 30
0.0
 41
10.0
 42
10.0
 43
10.0
  0
MTEXT
  5
22E16
330
20C37
100
AcDbEntity
  8
30
  6
Continuous
 62
     0
100
AcDbMText
 10
22.5
 20
-547.5
 30
0.0
 40
15.0
 41
0.0
 71
     5
 72
     1
  1
45
  7
DIM
 73
     1
 44
1.0
1001
ACAD
1000
MTEXTBEGIN
1070
    73
1070
     1
1070
    44
1040
1.0
1070
    74
1070
     0
1000
MTEXTEND
  0
POINT
  5
22E17
330
20C37
100
AcDbEntity
  8
DEFPOINTS
  6
Continuous
 62
     0
100
AcDbPoint
 10
0.0
 20
-504.1088943285344
 30
0.0
  0
POINT
  5
22E18
330
20C37
100
AcDbEntity
  8
DEFPOINTS
  6
Continuous
 62
     0
100
AcDbPoint
 10
45.0
 20
-497.1911056714657
 30
0.0
  0
POINT
  5
22E19
330
20C37
100
AcDbEntity
  8
DEFPOINTS
  6
Continuous
 62
     0
100
AcDbPoint
 10
44.99999999999999
 20
-560.0
 30
0.0
  0
ENDBLK
  5
20C39
330
20C37
100
AcDbEntity
  8
0
100
AcDbBlockEnd
  0
BLOCK
  5
20CF2
330
20CF1
100
AcDbEntity
  8
0
100
AcDbBlockBegin
  2
*D14
 70
     1
 10
0.0
 20
0.0
 30
0.0
  3
*D14
  1

  0
LINE
  5
232D6
330
20CF1
100
AcDbEntity
  8
30
  6
Continuous
 62
     0
370
    -2
100
AcDbLine
 10
135.7369823707003
 20
-349.0000000000001
 30
0.0
 11
271.9988484217002
 21
-349.0000000000001
 31
0.0
  0
LINE
  5
232D7
330
20CF1
100
AcDbEntity
  8
30
  6
Continuous
 62
     0
370
    -2
100
AcDbLine
 10
138.9988473787002
 20
-439.9999999999998
 30
0.0
 11
271.9988484217001
 21
-439.9999999999998
 31
0.0
  0
LINE
  5
232D8
330
20CF1
100
AcDbEntity
  8
30
  6
Continuous
 62
     0
370
    -2
100
AcDbLine
 10
261.9988484217002
 20
-359.0000000000001
 30
0.0
 11
261.9988484217001
 21
-429.9999999999998
 31
0.0
  0
INSERT
  5
232D9
330
20CF1
100
AcDbEntity
  8
30
  6
Continuous
 62
     0
370
    -2
100
AcDbBlockReference
  2
_OPEN
 10
261.9988484217002
 20
-349.0000000000001
 30
0.0
 41
10.0
 42
10.0
 43
10.0
 50
90.0
  0
INSERT
  5
232DA
330
20CF1
100
AcDbEntity
  8
30
  6
Continuous
 62
     0
370
    -2
100
AcDbBlockReference
  2
_OPEN
 10
261.9988484217001
 20
-439.9999999999998
 30
0.0
 41
10.0
 42
10.0
 43
10.0
 50
270.0
  0
MTEXT
  5
232DB
330
20CF1
100
AcDbEntity
  8
30
  6
Continuous
 62
     0
100
AcDbMText
 10
249.4988484217002
 20
-394.4999999999999
 30
0.0
 40
15.0
 41
0.0
 71
     5
 72
     1
  1
91
  7
DIM
 11
0.0000000000000001
 21
1.0
 31
0.0
 73
     1
 44
1.0
1001
ACAD
1000
MTEXTBEGIN
1070
    73
1070
     1
1070
    44
1040
1.0
1070
    74
1070
     0
1000
MTEXTEND
  0
POINT
  5
232DC
330
20CF1
100
AcDbEntity
  8
DEFPOINTS
  6
Continuous
 62
     0
100
AcDbPoint
 10
125.7369823707004
 20
-349.0
 30
0.0
  0
POINT
  5
232DD
330
20CF1
100
AcDbEntity
  8
DEFPOINTS
  6
Continuous
 62
     0
100
AcDbPoint
 10
128.9988473787002
 20
-439.9999999999998
 30
0.0
  0
POINT
  5
232DE
330
20CF1
100
AcDbEntity
  8
DEFPOINTS
  6
Continuous
 62
     0
100
AcDbPoint
 10
261.9988484217001
 20
-439.9999999999998
 30
0.0
  0
ENDBLK
  5
20CF3
330
20CF1
100
AcDbEntity
  8
0
100
AcDbBlockEnd
  0
BLOCK
  5
216CE
330
216CD
100
AcDbEntity
  8
0
100
AcDbBlockBegin
  2
*D15
 70
     1
 10
0.0
 20
0.0
 30
0.0
  3
*D15
  1

  0
LINE
  5
231E6
330
216CD
100
AcDbEntity
  8
30
  6
Continuous
 62
     0
370
    -2
100
AcDbLine
 10
777.9999000000004
 20
-22.5
 30
0.0
 11
475.0
 21
-22.49999999999992
 31
0.0
  0
LINE
  5
231E7
330
216CD
100
AcDbEntity
  8
30
  6
Continuous
 62
     0
370
    -2
100
AcDbLine
 10
581.9999000000004
 20
22.50000000000017
 30
0.0
 11
475.0
 21
22.5000000000002
 31
0.0
  0
LINE
  5
231E8
330
216CD
100
AcDbEntity
  8
30
  6
Continuous
 62
     0
370
    -2
100
AcDbLine
 10
485.0
 20
-12.49999999999992
 30
0.0
 11
485.0
 21
12.5000000000002
 31
0.0
  0
INSERT
  5
231E9
330
216CD
100
AcDbEntity
  8
30
  6
Continuous
 62
     0
370
    -2
100
AcDbBlockReference
  2
_OPEN
 10
485.0
 20
-22.49999999999992
 30
0.0
 41
10.0
 42
10.0
 43
10.0
 50
270.0
  0
INSERT
  5
231EA
330
216CD
100
AcDbEntity
  8
30
  6
Continuous
 62
     0
370
    -2
100
AcDbBlockReference
  2
_OPEN
 10
485.0
 20
22.5000000000002
 30
0.0
 41
10.0
 42
10.0
 43
10.0
 50
90.0
  0
MTEXT
  5
231EB
330
216CD
100
AcDbEntity
  8
30
  6
Continuous
 62
     0
100
AcDbMText
 10
472.5
 20
0.0000000000002223
 30
0.0
 40
15.0
 41
0.0
 71
     5
 72
     1
  1
45
  7
DIM
 11
0.0000000000000001
 21
1.0
 31
0.0
 73
     1
 44
1.0
1001
ACAD
1000
MTEXTBEGIN
1070
    73
1070
     1
1070
    44
1040
1.0
1070
    74
1070
     0
1000
MTEXTEND
  0
POINT
  5
231EC
330
216CD
100
AcDbEntity
  8
DEFPOINTS
  6
Continuous
 62
     0
100
AcDbPoint
 10
787.9999000000005
 20
-22.5
 30
0.0
  0
POINT
  5
231ED
330
216CD
100
AcDbEntity
  8
DEFPOINTS
  6
Continuous
 62
     0
100
AcDbPoint
 10
591.9999000000005
 20
22.50000000000017
 30
0.0
  0
POINT
  5
231EE
330
216CD
100
AcDbEntity
  8
DEFPOINTS
  6
Continuous
 62
     0
100
AcDbPoint
 10
485.0
 20
22.5000000000002
 30
0.0
  0
ENDBLK
  5
216CF
330
216CD
100
AcDbEntity
  8
0
100
AcDbBlockEnd
  0
BLOCK
  5
227A8
330
227A7
100
AcDbEntity
  8
0
100
AcDbBlockBegin
  2
*D16
 70
     1
 10
0.0
 20
0.0
 30
0.0
  3
*D16
  1

  0
LINE
  5
22958
330
227A7
100
AcDbEntity
  8
30
  6
Continuous
 62
     0
370
    -2
100
AcDbLine
 10
-97.99999999999977
 20
44.75000000000005
 30
0.0
 11
-97.99999999999977
 21
120.0
 31
0.0
  0
LINE
  5
22959
330
227A7
100
AcDbEntity
  8
30
  6
Continuous
 62
     0
370
    -2
100
AcDbLine
 10
98.00000000000023
 20
0.7000000000000455
 30
0.0
 11
98.00000000000025
 21
120.0
 31
0.0
  0
LINE
  5
2295A
330
227A7
100
AcDbEntity
  8
30
  6
Continuous
 62
     0
370
    -2
100
AcDbLine
 10
-87.99999999999977
 20
110.0
 30
0.0
 11
88.00000000000023
 21
110.0
 31
0.0
  0
INSERT
  5
2295B
330
227A7
100
AcDbEntity
  8
30
  6
Continuous
 62
     0
370
    -2
100
AcDbBlockReference
  2
_OPEN
 10
-97.99999999999977
 20
110.0
 30
0.0
 41
10.0
 42
10.0
 43
10.0
 50
180.0
  0
INSERT
  5
2295C
330
227A7
100
AcDbEntity
  8
30
  6
Continuous
 62
     0
370
    -2
100
AcDbBlockReference
  2
_OPEN
 10
98.00000000000025
 20
110.0
 30
0.0
 41
10.0
 42
10.0
 43
10.0
  0
MTEXT
  5
2295D
330
227A7
100
AcDbEntity
  8
30
  6
Continuous
 62
     0
100
AcDbMText
 10
0.0000000000002352
 20
122.5
 30
0.0
 40
15.0
 41
0.0
 71
     5
 72
     1
  1
196
  7
DIM
 73
     1
 44
1.0
1001
ACAD
1000
MTEXTBEGIN
1070
    73
1070
     1
1070
    44
1040
1.0
1070
    74
1070
     0
1000
MTEXTEND
  0
POINT
  5
2295E
330
227A7
100
AcDbEntity
  8
DEFPOINTS
  6
Continuous
 62
     0
100
AcDbPoint
 10
-97.99999999999977
 20
34.75000000000006
 30
0.0
  0
POINT
  5
2295F
330
227A7
100
AcDbEntity
  8
DEFPOINTS
  6
Continuous
 62
     0
100
AcDbPoint
 10
98.00000000000023
 20
-9.299999999999954
 30
0.0
  0
POINT
  5
22960
330
227A7
100
AcDbEntity
  8
DEFPOINTS
  6
Continuous
 62
     0
100
AcDbPoint
 10
98.00000000000025
 20
110.0
 30
0.0
  0
ENDBLK
  5
227A9
330
227A7
100
AcDbEntity
  8
0
100
AcDbBlockEnd
  0
BLOCK
  5
227C2
330
227C1
100
AcDbEntity
  8
0
100
AcDbBlockBegin
  2
*D17
 70
     1
 10
0.0
 20
0.0
 30
0.0
  3
*D17
  1

  0
LINE
  5
2293B
330
227C1
100
AcDbEntity
  8
30
  6
Continuous
 62
     0
370
    -2
100
AcDbLine
 10
83.50000000000022
 20
-22.49999999999977
 30
0.0
 11
-175.0
 21
-22.49999999999969
 31
0.0
  0
LINE
  5
2293C
330
227C1
100
AcDbEntity
  8
30
  6
Continuous
 62
     0
370
    -2
100
AcDbLine
 10
-112.4999999999998
 20
22.50000000000023
 30
0.0
 11
-175.0
 21
22.50000000000025
 31
0.0
  0
LINE
  5
2293D
330
227C1
100
AcDbEntity
  8
30
  6
Continuous
 62
     0
370
    -2
100
AcDbLine
 10
-164.9999999999999
 20
-12.4999999999997
 30
0.0
 11
-164.9999999999999
 21
12.50000000000025
 31
0.0
  0
INSERT
  5
2293E
330
227C1
100
AcDbEntity
  8
30
  6
Continuous
 62
     0
370
    -2
100
AcDbBlockReference
  2
_OPEN
 10
-164.9999999999999
 20
-22.4999999999997
 30
0.0
 41
10.0
 42
10.0
 43
10.0
 50
270.0
  0
INSERT
  5
2293F
330
227C1
100
AcDbEntity
  8
30
  6
Continuous
 62
     0
370
    -2
100
AcDbBlockReference
  2
_OPEN
 10
-164.9999999999999
 20
22.50000000000024
 30
0.0
 41
10.0
 42
10.0
 43
10.0
 50
90.0
  0
MTEXT
  5
22940
330
227C1
100
AcDbEntity
  8
30
  6
Continuous
 62
     0
100
AcDbMText
 10
-177.4999999999999
 20
0.0000000000002479
 30
0.0
 40
15.0
 41
0.0
 71
     5
 72
     1
  1
45
  7
DIM
 11
0.0000000000000001
 21
1.0
 31
0.0
 73
     1
 44
1.0
1001
ACAD
1000
MTEXTBEGIN
1070
    73
1070
     1
1070
    44
1040
1.0
1070
    74
1070
     0
1000
MTEXTEND
  0
POINT
  5
22941
330
227C1
100
AcDbEntity
  8
DEFPOINTS
  6
Continuous
 62
     0
100
AcDbPoint
 10
93.50000000000022
 20
-22.49999999999977
 30
0.0
  0
POINT
  5
22942
330
227C1
100
AcDbEntity
  8
DEFPOINTS
  6
Continuous
 62
     0
100
AcDbPoint
 10
-102.4999999999997
 20
22.50000000000023
 30
0.0
  0
POINT
  5
22943
330
227C1
100
AcDbEntity
  8
DEFPOINTS
  6
Continuous
 62
     0
100
AcDbPoint
 10
-164.9999999999999
 20
22.50000000000024
 30
0.0
  0
ENDBLK
  5
227C3
330
227C1
100
AcDbEntity
  8
0
100
AcDbBlockEnd
  0
BLOCK
  5
227D0
330
227CF
100
AcDbEntity
  8
0
100
AcDbBlockBegin
  2
*D18
 70
     1
 10
0.0
 20
0.0
 30
0.0
  3
*D18
  1

  0
LINE
  5
22944
330
227CF
100
AcDbEntity
  8
30
  6
Continuous
 62
     0
370
    -2
100
AcDbLine
 10
116.0
 20
29.99999999999989
 30
0.0
 11
225.000001043
 21
29.99999999999986
 31
0.0
  0
LINE
  5
22945
330
227CF
100
AcDbEntity
  8
30
  6
Continuous
 62
     0
370
    -2
100
AcDbLine
 10
116.0
 20
-30.00000000000068
 30
0.0
 11
225.000001043
 21
-30.00000000000071
 31
0.0
  0
LINE
  5
22946
330
227CF
100
AcDbEntity
  8
30
  6
Continuous
 62
     0
370
    -2
100
AcDbLine
 10
215.000001043
 20
19.99999999999985
 30
0.0
 11
215.000001043
 21
-20.00000000000071
 31
0.0
  0
INSERT
  5
22947
330
227CF
100
AcDbEntity
  8
30
  6
Continuous
 62
     0
370
    -2
100
AcDbBlockReference
  2
_OPEN
 10
215.000001043
 20
29.99999999999986
 30
0.0
 41
10.0
 42
10.0
 43
10.0
 50
90.0
  0
INSERT
  5
22948
330
227CF
100
AcDbEntity
  8
30
  6
Continuous
 62
     0
370
    -2
100
AcDbBlockReference
  2
_OPEN
 10
215.000001043
 20
-30.00000000000071
 30
0.0
 41
10.0
 42
10.0
 43
10.0
 50
270.0
  0
MTEXT
  5
22949
330
227CF
100
AcDbEntity
  8
30
  6
Continuous
 62
     0
100
AcDbMText
 10
202.500001043
 20
-0.0000000000003918
 30
0.0
 40
15.0
 41
0.0
 71
     5
 72
     1
  1
60
  7
DIM
 11
0.0000000000000001
 21
1.0
 31
0.0
 73
     1
 44
1.0
1001
ACAD
1000
MTEXTBEGIN
1070
    73
1070
     1
1070
    44
1040
1.0
1070
    74
1070
     0
1000
MTEXTEND
  0
POINT
  5
2294A
330
227CF
100
AcDbEntity
  8
DEFPOINTS
  6
Continuous
 62
     0
100
AcDbPoint
 10
106.0
 20
29.99999999999989
 30
0.0
  0
POINT
  5
2294B
330
227CF
100
AcDbEntity
  8
DEFPOINTS
  6
Continuous
 62
     0
100
AcDbPoint
 10
106.0
 20
-30.00000000000068
 30
0.0
  0
POINT
  5
2294C
330
227CF
100
AcDbEntity
  8
DEFPOINTS
  6
Continuous
 62
     0
100
AcDbPoint
 10
215.000001043
 20
-30.00000000000071
 30
0.0
  0
ENDBLK
  5
227D1
330
227CF
100
AcDbEntity
  8
0
100
AcDbBlockEnd
  0
BLOCK
  5
227DC
330
227DB
100
AcDbEntity
  8
0
100
AcDbBlockBegin
  2
*D19
 70
     1
 10
0.0
 20
0.0
 30
0.0
  3
*D19
  1

  0
LINE
  5
2332A
330
227DB
100
AcDbEntity
  8
30
  6
Continuous
 62
     0
370
    -2
100
AcDbLine
 10
61.5
 20
12.49999999999988
 30
0.0
 11
175.0000010430001
 21
12.49999999999985
 31
0.0
  0
LINE
  5
2332B
330
227DB
100
AcDbEntity
  8
30
  6
Continuous
 62
     0
370
    -2
100
AcDbLine
 10
61.5
 20
-12.49999999999994
 30
0.0
 11
175.0000010430001
 21
-12.49999999999998
 31
0.0
  0
LINE
  5
2332C
330
227DB
100
AcDbEntity
  8
30
  6
Continuous
 62
     0
370
    -2
100
AcDbLine
 10
165.0000010430001
 20
22.49999999999985
 30
0.0
 11
165.0000010430001
 21
32.49999999999985
 31
0.0
  0
LINE
  5
2332D
330
227DB
100
AcDbEntity
  8
30
  6
Continuous
 62
     0
370
    -2
100
AcDbLine
 10
165.0000010430001
 20
-22.49999999999998
 30
0.0
 11
165.0000010430001
 21
-32.49999999999998
 31
0.0
  0
MTEXT
  5
2332E
330
227DB
100
AcDbEntity
  8
30
  6
Continuous
 62
     0
100
AcDbMText
 10
151.0
 20
0.0000000000000568
 30
0.0
 40
15.0
 41
0.0
 71
     5
 72
     1
  1
25
  7
DIM
 11
0.0000000000000001
 21
1.0
 31
0.0
 73
     1
 44
1.0
1001
ACAD
1000
MTEXTBEGIN
1070
    73
1070
     1
1070
    44
1040
1.0
1070
    74
1070
     0
1000
MTEXTEND
  0
LINE
  5
2332F
330
227DB
100
AcDbEntity
  8
30
  6
Continuous
 62
     0
370
    -2
100
AcDbLine
 10
165.0000010430001
 20
12.49999999999985
 30
0.0
 11
165.0000010430001
 21
-12.49999999999998
 31
0.0
  0
INSERT
  5
23330
330
227DB
100
AcDbEntity
  8
30
  6
Continuous
 62
     0
370
    -2
100
AcDbBlockReference
  2
_OPEN
 10
165.0000010430001
 20
12.49999999999985
 30
0.0
 41
10.0
 42
10.0
 43
10.0
 50
270.0
  0
INSERT
  5
23331
330
227DB
100
AcDbEntity
  8
30
  6
Continuous
 62
     0
370
    -2
100
AcDbBlockReference
  2
_OPEN
 10
165.0000010430001
 20
-12.49999999999998
 30
0.0
 41
10.0
 42
10.0
 43
10.0
 50
90.0
  0
POINT
  5
23332
330
227DB
100
AcDbEntity
  8
DEFPOINTS
  6
Continuous
 62
     0
100
AcDbPoint
 10
51.5
 20
12.49999999999988
 30
0.0
  0
POINT
  5
23333
330
227DB
100
AcDbEntity
  8
DEFPOINTS
  6
Continuous
 62
     0
100
AcDbPoint
 10
51.5
 20
-12.49999999999994
 30
0.0
  0
POINT
  5
23334
330
227DB
100
AcDbEntity
  8
DEFPOINTS
  6
Continuous
 62
     0
100
AcDbPoint
 10
165.0000010430001
 20
-12.49999999999998
 30
0.0
  0
ENDBLK
  5
227DD
330
227DB
100
AcDbEntity
  8
0
100
AcDbBlockEnd
  0
BLOCK
  5
231CB
330
231CA
100
AcDbEntity
  8
0
100
AcDbBlockBegin
  2
*D20
 70
     1
 10
0.0
 20
0.0
 30
0.0
  3
*D20
  1

  0
LINE
  5
231EF
330
231CA
100
AcDbEntity
  8
30
 62
     0
370
    -2
100
AcDbLine
 10
788.1477344696612
 20
-14.80696003392063
 30
0.0
 11
780.2659220453898
 21
-8.652528061057523
 31
0.0
  0
LINE
  5
231F0
330
231CA
100
AcDbEntity
  8
30
 62
     0
370
    -2
100
AcDbLine
 10
807.8522655303409
 20
-30.19303996607892
 30
0.0
 11
815.7340779546123
 21
-36.34747193894197
 31
0.0
  0
MTEXT
  5
231F1
330
231CA
100
AcDbEntity
  8
30
 62
     0
100
AcDbMText
 10
850.5602560467114
 20
-63.54113405688486
 30
0.0
 40
15.0
 41
0.0
 71
     5
 72
     1
  1
2-M5
  7
DIM
 11
0.7881812424271516
 21
-0.6154431972863066
 31
0.0
 73
     1
 44
1.0
1001
ACAD
1000
MTEXTBEGIN
1070
    73
1070
     1
1070
    44
1040
1.0
1070
    74
1070
     0
1000
MTEXTEND
  0
LINE
  5
231F2
330
231CA
100
AcDbEntity
  8
30
 62
     0
370
    -2
100
AcDbLine
 10
796.0295468939327
 20
-20.96139200678369
 30
0.0
 11
799.9704531060692
 21
-24.03860799321587
 31
0.0
  0
INSERT
  5
231F3
330
231CA
100
AcDbEntity
  8
30
 62
     0
370
    -2
100
AcDbBlockReference
  2
_OPEN
 10
796.0295468939327
 20
-20.96139200678369
 30
0.0
 41
10.0
 42
10.0
 43
10.0
 50
322.0158691458487
  0
INSERT
  5
231F4
330
231CA
100
AcDbEntity
  8
30
 62
     0
370
    -2
100
AcDbBlockReference
  2
_OPEN
 10
799.9704531060692
 20
-24.03860799321587
 30
0.0
 41
10.0
 42
10.0
 43
10.0
 50
142.0158691458487
  0
POINT
  5
231F5
330
231CA
100
AcDbEntity
  8
DEFPOINTS
 62
     0
100
AcDbPoint
 10
799.9704531060692
 20
-24.03860799321587
 30
0.0
  0
POINT
  5
231F6
330
231CA
100
AcDbEntity
  8
DEFPOINTS
 62
     0
100
AcDbPoint
 10
796.0295468939327
 20
-20.96139200678369
 30
0.0
  0
ENDBLK
  5
231CC
330
231CA
100
AcDbEntity
  8
0
100
AcDbBlockEnd
  0
ENDSEC
  0
SECTION
  2
ENTITIES
  0
LEADER
  5
8A
330
A
100
AcDbEntity
  8
19
100
AcDbLeader
  3
ISO-25-2
 76
     3
 10
565.8230887997011
 20
-369.6226516523635
 30
0.0
 10
515.0000000059996
 20
-320.0
 30
0.0
 10
462.2088960059996
 20
-320.0
 30
0.0
  0
LINE
  5
B3
330
A
100
AcDbEntity
  8
16
  6
CENTER
100
AcDbLine
 10
700.0
 20
69.75
 30
0.0
 11
700.0
 21
-69.75
 31
0.0
  0
LINE
  5
BB
330
A
100
AcDbEntity
  8
11
  6
HIDDEN
100
AcDbLine
 10
581.0000000000001
 20
103.4127803047999
 30
0.0
 11
581.0000000000001
 21
-116.5624999999998
 31
0.0
  0
LINE
  5
BC
330
A
100
AcDbEntity
  8
11
  6
Continuous
100
AcDbLine
 10
823.9999999999998
 20
99.99999999999989
 30
0.0
 11
823.9999999999998
 21
-119.9999999999998
 31
0.0
  0
LINE
  5
BD
330
A
100
AcDbEntity
  8
11
  6
Continuous
100
AcDbLine
 10
616.0
 20
99.99999999999989
 30
0.0
 11
616.0
 21
-119.9999999999998
 31
0.0
  0
LINE
  5
BF
330
A
100
AcDbEntity
  8
11
  6
HIDDEN
100
AcDbLine
 10
819.0
 20
103.4127803047999
 30
0.0
 11
819.0
 21
-116.5624999999998
 31
0.0
  0
LINE
  5
C0
330
A
100
AcDbEntity
  8
11
  6
Continuous
100
AcDbLine
 10
575.9999999999998
 20
99.99999999999989
 30
0.0
 11
575.9999999999998
 21
-119.9999999999998
 31
0.0
  0
LINE
  5
C2
330
A
100
AcDbEntity
  8
11
  6
Continuous
100
AcDbLine
 10
784.0
 20
99.99999999999989
 30
0.0
 11
784.0
 21
-119.9999999999998
 31
0.0
  0
SPLINE
  5
76E
330
A
100
AcDbEntity
  8
11
  6
Continuous
100
AcDbSpline
210
0.0
220
0.0
230
1.0
 70
     8
 71
     3
 72
    11
 73
     7
 74
     0
 42
0.0000000001
 43
0.0000000001
 40
0.0
 40
0.0
 40
0.0
 40
0.0
 40
0.2664503935422212
 40
0.5163829310998656
 40
0.7663154686575103
 40
1.0
 40
1.0
 40
1.0
 40
1.0
 10
576.0000000000314
 20
99.99999999981287
 30
0.0
 10
579.6224439136781
 20
102.5464603440406
 30
0.0
 10
586.6427683388239
 20
107.4815202589501
 30
0.0
 10
596.7960993877056
 20
100.0939550123535
 30
0.0
 10
606.6544784798974
 20
92.47075070029433
 30
0.0
 10
612.9553897331016
 20
97.54710000164847
 30
0.0
 10
616.0000000000312
 20
99.99999999981287
 30
0.0
  0
SPLINE
  5
76F
330
A
100
AcDbEntity
  8
11
  6
Continuous
100
AcDbSpline
210
0.0
220
0.0
230
1.0
 70
     8
 71
     3
 72
    11
 73
     7
 74
     0
 42
0.0000000001
 43
0.0000000001
 40
0.0
 40
0.0
 40
0.0
 40
0.0
 40
0.2500000000000027
 40
0.5000000000000011
 40
0.7500000000000006
 40
1.0
 40
1.0
 40
1.0
 40
1.0
 10
576.8198099929105
 20
-120.0000000001872
 30
0.0
 10
580.1531433262441
 20
-117.5000000001868
 30
0.0
 10
586.8198099929104
 20
-112.5000000001866
 30
0.0
 10
596.819809992911
 20
-120.0000000001872
 30
0.0
 10
606.819809992911
 20
-127.5000000001872
 30
0.0
 10
613.4864766595772
 20
-122.5000000001872
 30
0.0
 10
616.819809992911
 20
-120.0000000001872
 30
0.0
  0
SPLINE
  5
770
330
A
100
AcDbEntity
  8
11
  6
Continuous
100
AcDbSpline
210
0.0
220
0.0
230
1.0
 70
     8
 71
     3
 72
    11
 73
     7
 74
     0
 42
0.0000000001
 43
0.0000000001
 40
0.0
 40
0.0
 40
0.0
 40
0.0
 40
0.2500000000000027
 40
0.5000000000000011
 40
0.7500000000000006
 40
1.0
 40
1.0
 40
1.0
 40
1.0
 10
823.1801900071513
 20
-120.0000000001872
 30
0.0
 10
819.8468566738185
 20
-117.5000000001868
 30
0.0
 10
813.1801900071513
 20
-112.5000000001866
 30
0.0
 10
803.1801900071522
 20
-120.0000000001872
 30
0.0
 10
793.1801900071514
 20
-127.5000000001872
 30
0.0
 10
786.5135233404854
 20
-122.5000000001872
 30
0.0
 10
783.1801900071513
 20
-120.0000000001872
 30
0.0
  0
SPLINE
  5
771
330
A
100
AcDbEntity
  8
11
  6
Continuous
100
AcDbSpline
210
0.0
220
0.0
230
1.0
 70
     8
 71
     3
 72
    11
 73
     7
 74
     0
 42
0.0000000001
 43
0.0000000001
 40
0.0
 40
0.0
 40
0.0
 40
0.0
 40
0.2664503935422212
 40
0.5163829310998656
 40
0.7663154686575103
 40
1.0
 40
1.0
 40
1.0
 40
1.0
 10
824.0000000000314
 20
99.99999999981287
 30
0.0
 10
820.3775560863842
 20
102.5464603440406
 30
0.0
 10
813.3572316612374
 20
107.4815202589501
 30
0.0
 10
803.2039006123572
 20
100.0939550123535
 30
0.0
 10
793.3455215201652
 20
92.47075070029433
 30
0.0
 10
787.0446102669607
 20
97.54710000164847
 30
0.0
 10
784.0000000000314
 20
99.99999999981287
 30
0.0
  0
MTEXT
  5
80D
330
A
100
AcDbEntity
  8
19
100
AcDbMText
 10
700.0
 20
74.75
 30
0.0
 40
7.0
 41
0.0
 71
     8
 72
     5
  1
ASL
  7
SLDTEXTSTYLE0
 73
     1
 44
1.0
1001
ACAD
1000
MTEXTBEGIN
1070
    73
1070
     1
1070
    44
1040
1.0
1070
    74
1070
     0
1000
MTEXTEND
  0
LEADER
  5
80E
330
A
100
AcDbEntity
  8
19
100
AcDbLeader
  3
ISO-25-2
 76
     3
 10
591.2830786192
 20
90.14439986520006
 30
0.0
 10
515.0
 20
120.0
 30
0.0
 10
462.2088960000001
 20
120.0
 30
0.0
  0
LINE
  5
8B3
330
A
100
AcDbEntity
  8
16
  6
CENTER
100
AcDbLine
 10
700.0
 20
-337.6724388227998
 30
0.0
 11
700.0
 21
-542.3275611771998
 31
0.0
  0
LINE
  5
8BF
330
A
100
AcDbEntity
  8
18
  6
Continuous
 62
     5
100
AcDbLine
 10
726.0
 20
-320.0000000000004
 30
0.0
 11
726.0
 21
-560.0
 31
0.0
  0
LINE
  5
8C0
330
A
100
AcDbEntity
  8
18
  6
Continuous
 62
     5
100
AcDbLine
 10
673.9999999999999
 20
-320.0000000000004
 30
0.0
 11
673.9999999999999
 21
-560.0
 31
0.0
  0
LEADER
  5
CEB
330
A
100
AcDbEntity
  8
19
100
AcDbLeader
  3
ISO-25-2
 76
     3
 10
-102.1890887012
 20
-346.7016307187996
 30
0.0
 10
-115.0
 20
-330.0
 30
0.0
 10
-141.395552
 20
-330.0
 30
0.0
  0
LEADER
  5
CF2
330
A
100
AcDbEntity
  8
19
100
AcDbLeader
  3
ISO-25-2
 76
     3
 10
-80.59999999999991
 20
-389.5009569332001
 30
0.0
 10
-115.0
 20
-370.0
 30
0.0
 10
-158.337344
 20
-370.0
 30
0.0
  0
LEADER
  5
CFA
330
A
100
AcDbEntity
  8
19
100
AcDbLeader
  3
ISO-25-2
 76
     3
 10
-97.99999999999954
 20
-425.3711089653571
 30
0.0
 10
-125.0
 20
-395.0
 30
0.0
 10
-170.2677119999998
 20
-395.0
 30
0.0
  0
LEADER
  5
D01
330
A
100
AcDbEntity
  8
19
100
AcDbLeader
  3
ISO-25-2
 76
     3
 10
-124.0
 20
-454.2014438943994
 30
0.0
 10
-175.0
 20
-473.3911056714652
 30
0.0
 10
-201.395552
 20
-473.3911056714652
 30
0.0
  0
MTEXT
  5
D08
330
A
100
AcDbEntity
  8
19
100
AcDbMText
 10
-22.5
 20
-528.7131711133752
 30
0.0
 40
7.0
 41
0.0
 71
     5
 72
     5
  1
[ ﾌﾞｽﾊﾞｰﾋﾟｯﾁ ]
  7
SLDTEXTSTYLE0
 73
     1
 44
1.0
1001
ACAD
1000
MTEXTBEGIN
1070
    73
1070
     1
1070
    44
1040
1.0
1070
    74
1070
     0
1000
MTEXTEND
  0
MTEXT
  5
D09
330
A
100
AcDbEntity
  8
19
100
AcDbMText
 10
22.5
 20
-528.3667966155574
 30
0.0
 40
7.0
 41
0.0
 71
     5
 72
     5
  1
[ ﾌﾞｽﾊﾞｰﾋﾟｯﾁ ]
  7
SLDTEXTSTYLE0
 73
     1
 44
1.0
1001
ACAD
1000
MTEXTBEGIN
1070
    73
1070
     1
1070
    44
1040
1.0
1070
    74
1070
     0
1000
MTEXTEND
  0
MTEXT
  5
D0D
330
A
100
AcDbEntity
  8
19
100
AcDbMText
 10
649.055352882581
 20
-213.8797963213735
 30
0.0
 40
15.0
 41
0.0
 71
     1
 72
     5
  1
[ パネル切抜幅 ]
  7
SLDTEXTSTYLE0
 73
     1
 44
1.0
1001
ACAD
1000
MTEXTBEGIN
1070
    73
1070
     1
1070
    44
1040
1.0
1070
    74
1070
     0
1000
MTEXTEND
  0
MTEXT
  5
D13
330
A
100
AcDbEntity
  8
19
100
AcDbMText
 10
-6.170577485400031
 20
-315.7191997076
 30
0.0
 40
7.0
 41
0.0
 71
     1
 72
     5
  1
ASL
  7
SLDTEXTSTYLE0
 73
     1
 44
1.0
1001
ACAD
1000
MTEXTBEGIN
1070
    73
1070
     1
1070
    44
1040
1.0
1070
    74
1070
     0
1000
MTEXTEND
  0
DIMENSION
  5
203A
330
A
100
AcDbEntity
  8
30
  6
Continuous
100
AcDbDimension
  2
*D1
 10
798.0000000000006
 20
110.0
 30
0.0
 11
700.0
 21
122.5
 31
0.0
 70
   160
 71
     5
 42
196.0
  3
ISO-25-2
100
AcDbAlignedDimension
 13
602.0000000000006
 23
32.50010000000015
 33
0.0
 14
798.0000000000006
 24
-12.49990000000002
 34
0.0
100
AcDbRotatedDimension
  0
DIMENSION
  5
2047
330
A
100
AcDbEntity
  8
30
  6
Continuous
100
AcDbDimension
  2
*D2
 10
784.0
 20
-160.0
 30
0.0
 11
700.0
 21
-147.5
 31
0.0
 70
    32
 71
     5
 42
168.0
  3
ISO-25-2
100
AcDbAlignedDimension
 13
616.0
 23
-119.9999999999998
 33
0.0
 14
784.0
 24
-119.9999999999998
 34
0.0
100
AcDbRotatedDimension
  0
DIMENSION
  5
2061
330
A
100
AcDbEntity
  8
30
  6
Continuous
100
AcDbDimension
  2
*D3
 10
726.0
 20
-260.0
 30
0.0
 11
700.0
 21
-247.5
 31
0.0
 70
    32
 71
     5
 42
52.00000000000011
  3
ISO-25-2
100
AcDbAlignedDimension
 13
673.9999999999999
 23
-320.0000000000004
 33
0.0
 14
726.0
 24
-320.0000000000004
 34
0.0
100
AcDbRotatedDimension
  0
DIMENSION
  5
207B
330
A
100
AcDbEntity
  8
30
  6
Continuous
100
AcDbDimension
  2
*D4
 10
110.0
 20
-159.9999999999999
 30
0.0
 11
-0.0000000000000134
 21
-147.4999999999999
 31
0.0
 70
    32
 71
     5
 42
220.0
  3
ISO-25-2
100
AcDbAlignedDimension
 13
-110.0
 23
-26.00000000000068
 33
0.0
 14
110.0
 24
-26.00000000000068
 34
0.0
100
AcDbRotatedDimension
  0
DIMENSION
  5
2088
330
A
100
AcDbEntity
  8
30
  6
Continuous
100
AcDbDimension
  2
*D5
 10
41.99999999999999
 20
-109.9999999999999
 30
0.0
 11
21.0
 21
-97.49999999999992
 31
0.0
 70
    32
 71
     5
 42
42.0
  3
ISO-25-2
100
AcDbAlignedDimension
 13
0.0
 23
-69.74999999999991
 33
0.0
 14
42.0
 24
-25.20000000000084
 34
0.0
100
AcDbRotatedDimension
  0
DIMENSION
  5
2164
330
A
100
AcDbEntity
  8
30
  6
Continuous
100
AcDbDimension
  2
*D6
 10
-164.9999999999999
 20
-439.9999999999999
 30
0.0
 11
-189.9999999999999
 21
-429.4999999999999
 31
0.0
 70
    32
 71
     5
 42
21.0
  3
ISO-25-2
100
AcDbAlignedDimension
 13
-109.0
 23
-419.0
 33
0.0
 14
-90.59999999999991
 24
-440.0
 34
0.0
 50
90.0
100
AcDbRotatedDimension
  0
DIMENSION
  5
2180
330
A
100
AcDbEntity
  8
30
  6
Continuous
100
AcDbDimension
  2
*D7
 10
261.9988484217001
 20
-480.0
 30
0.0
 11
249.4988484217002
 21
-460.0
 31
0.0
 70
    32
 71
     5
 42
40.0
  3
ISO-25-2
100
AcDbAlignedDimension
 13
124.0
 23
-440.0
 33
0.0
 14
55.5
 24
-480.0
 34
0.0
 50
90.0
100
AcDbRotatedDimension
  0
DIMENSION
  5
219A
330
A
100
AcDbEntity
  8
30
  6
Continuous
100
AcDbDimension
  2
*D8
 10
161.9988484217003
 20
-439.9999999999998
 30
0.0
 11
147.9188210542454
 21
-418.3194255577069
 31
0.0
 70
   160
 71
     5
 42
22.00000000000017
  3
ISO-25-2
100
AcDbAlignedDimension
 13
106.5048666197002
 23
-462.0
 33
0.0
 14
128.9988473787002
 24
-439.9999999999998
 34
0.0
 50
90.0
100
AcDbRotatedDimension
  0
DIMENSION
  5
21BF
330
A
100
AcDbEntity
  8
30
  6
Continuous
100
AcDbDimension
  2
*D9
 10
2.000000000000041
 20
-510.0
 30
0.0
 11
24.0
 21
-497.1911056714657
 31
0.0
 70
   160
 71
     5
 42
4.0
  3
ISO-25-2
100
AcDbAlignedDimension
 13
-1.999999999999957
 23
-498.6055512754639
 33
0.0
 14
2.000000000000042
 24
-498.6055512754639
 34
0.0
100
AcDbRotatedDimension
  0
DIMENSION
  5
21E4
330
A
100
AcDbEntity
  8
30
  6
Continuous
100
AcDbDimension
  2
*D10
 10
58.99999999999998
 20
-610.0
 30
0.0
 11
0.0166662500000605
 21
-610.0
 31
0.0
 70
   160
 71
     5
 42
118.0
  3
ISO-25-2
100
AcDbAlignedDimension
 13
-59.00000000000001
 23
-437.3000000000001
 33
0.0
 14
58.99999999999999
 24
-437.3000000000001
 34
0.0
100
AcDbRotatedDimension
1001
ACAD
1000
DSTYLE
1002
{
1070
   279
1070
     0
1002
}
  0
LEADER
  5
24A0
330
A
100
AcDbEntity
  8
19
  6
Continuous
100
AcDbLeader
  3
ISO-25-2
 76
     3
 10
42.07888920265223
 20
-381.3999999999321
 30
0.0
 10
105.0
 20
-370.0
 30
0.0
 10
150.0
 20
-370.0
 30
0.0
1001
ACAD
1000
DSTYLE
1002
{
1070
   147
1040
5.0
1070
    77
1070
     0
1002
}
  0
MTEXT
  5
254A
330
A
100
AcDbEntity
  8
19
100
AcDbMText
 10
-170.2672350713999
 20
-378.0606566301999
 30
0.0
 40
6.349999999999996
 41
0.0
 71
     1
 72
     5
  1
差込台取付ねじ
  7
SLDTEXTSTYLE0
 73
     1
 44
1.0
1001
ACAD
1000
MTEXTBEGIN
1070
    73
1070
     1
1070
    44
1040
1.0
1070
    74
1070
     0
1000
MTEXTEND
  0
MTEXT
  5
254B
330
A
100
AcDbEntity
  8
19
100
AcDbMText
 10
-170.2672350713999
 20
-386.4106566301999
 30
0.0
 40
6.349999999999996
 41
0.0
 71
     1
 72
     5
  1
ナベＭ５
  7
SLDTEXTSTYLE0
 73
     1
 44
1.0
1001
ACAD
1000
MTEXTBEGIN
1070
    73
1070
     1
1070
    44
1040
1.0
1070
    74
1070
     0
1000
MTEXTEND
  0
MTEXT
  5
254C
330
A
100
AcDbEntity
  8
19
100
AcDbMText
 10
-201.3875197569999
 20
-464.9241558040653
 30
0.0
 40
6.349999999999996
 41
0.0
 71
     1
 72
     5
  1
取付板
  7
SLDTEXTSTYLE0
 73
     1
 44
1.0
1001
ACAD
1000
MTEXTBEGIN
1070
    73
1070
     1
1070
    44
1040
1.0
1070
    74
1070
     0
1000
MTEXTEND
  0
MTEXT
  5
254D
330
A
100
AcDbEntity
  8
19
100
AcDbMText
 10
-141.3854844428
 20
-321.5265731154
 30
0.0
 40
6.349999999999996
 41
0.0
 71
     1
 72
     5
  1
パネル
  7
SLDTEXTSTYLE0
 73
     1
 44
1.0
1001
ACAD
1000
MTEXTBEGIN
1070
    73
1070
     1
1070
    44
1040
1.0
1070
    74
1070
     0
1000
MTEXTEND
  0
MTEXT
  5
254E
330
A
100
AcDbEntity
  8
19
100
AcDbMText
 10
-158.3267388958001
 20
-344.6000775528
 30
0.0
 40
6.349999999999996
 41
0.0
 71
     1
 72
     5
  1
電源側
  7
SLDTEXTSTYLE0
 73
     1
 44
1.0
1001
ACAD
1000
MTEXTBEGIN
1070
    73
1070
     1
1070
    44
1040
1.0
1070
    74
1070
     0
1000
MTEXTEND
  0
MTEXT
  5
254F
330
A
100
AcDbEntity
  8
19
100
AcDbMText
 10
-158.3267388958001
 20
-352.9500775528001
 30
0.0
 40
6.349999999999996
 41
0.0
 71
     1
 72
     5
  1
端子カバー
  7
SLDTEXTSTYLE0
 73
     1
 44
1.0
1001
ACAD
1000
MTEXTBEGIN
1070
    73
1070
     1
1070
    44
1040
1.0
1070
    74
1070
     0
1000
MTEXTEND
  0
MTEXT
  5
2550
330
A
100
AcDbEntity
  8
19
100
AcDbMText
 10
-158.3267388958001
 20
-361.3000775528001
 30
0.0
 40
6.349999999999996
 41
0.0
 71
     1
 72
     5
  1
標準装備
  7
SLDTEXTSTYLE0
 73
     1
 44
1.0
1001
ACAD
1000
MTEXTBEGIN
1070
    73
1070
     1
1070
    44
1040
1.0
1070
    74
1070
     0
1000
MTEXTEND
  0
MTEXT
  5
25AA
330
A
100
AcDbEntity
  8
19
100
AcDbMText
 10
464.4270386006924
 20
-304.56228382161
 30
0.0
 40
12.69999999999999
 41
0.0
 71
     1
 72
     5
  1
パネル
  7
SLDTEXTSTYLE0
 73
     1
 44
1.0
1001
ACAD
1000
MTEXTBEGIN
1070
    73
1070
     1
1070
    44
1040
1.0
1070
    74
1070
     0
1000
MTEXTEND
  0
MTEXT
  5
25AB
330
A
100
AcDbEntity
  8
19
100
AcDbMText
 10
462.2107665696001
 20
136.9528845367999
 30
0.0
 40
12.69999999999999
 41
0.0
 71
     1
 72
     5
  1
取付板
  7
SLDTEXTSTYLE0
 73
     1
 44
1.0
1001
ACAD
1000
MTEXTBEGIN
1070
    73
1070
     1
1070
    44
1040
1.0
1070
    74
1070
     0
1000
MTEXTEND
  0
HATCH
  5
25BC
330
A
100
AcDbEntity
  8
11
  6
Continuous
100
AcDbHatch
 10
0.0
 20
0.0
 30
0.0
210
0.0
220
0.0
230
1.0
  2
ANSI31
 70
     0
 71
     0
 91
        1
 92
        1
 93
        4
 72
     1
 10
673.9999999999999
 20
-560.0
 11
533.8853464984445
 21
-560.0
 72
     1
 10
533.8853464984445
 20
-560.0
 11
533.8853464984445
 21
-319.9610731540563
 72
     1
 10
533.8853464984445
 20
-319.9610731540563
 11
673.9999999999999
 21
-320.0000000000004
 72
     1
 10
673.9999999999999
 20
-320.0000000000004
 11
673.9999999999999
 21
-560.0
 97
        0
 75
     0
 76
     1
 52
0.0
 41
50.0
 77
     0
 78
     1
 53
45.0
 43
283.6091522102577
 44
-707.6638206802547
 45
-4.419417382415921
 46
4.419417382415921
 79
     0
 98
        1
 10
283.6091522102577
 20
-707.6638206802547
  0
HATCH
  5
25D1
330
A
100
AcDbEntity
  8
11
  6
Continuous
100
AcDbHatch
 10
0.0
 20
0.0
 30
0.0
210
0.0
220
0.0
230
1.0
  2
ANSI31
 70
     0
 71
     0
 91
        1
 92
        1
 93
        4
 72
     1
 10
726.0
 20
-560.0
 11
726.0
 21
-320.0000000000004
 72
     1
 10
726.0
 20
-320.0000000000004
 11
866.0000000000001
 21
-320.0000000000004
 72
     1
 10
866.0000000000001
 20
-320.0000000000004
 11
866.0000000000001
 21
-560.0
 72
     1
 10
866.0000000000001
 20
-560.0
 11
726.0
 21
-560.0
 97
        0
 75
     0
 76
     1
 52
0.0
 41
50.0
 77
     0
 78
     1
 53
45.0
 43
283.6091522102577
 44
-707.6638206802547
 45
-4.419417382415921
 46
4.419417382415921
 79
     0
 98
        1
 10
283.6091522102577
 20
-707.6638206802547
  0
LINE
  5
1305C
330
A
100
AcDbEntity
  8
16
  6
CENTER
100
AcDbLine
 10
0.0
 20
-325.1194866515998
 30
0.0
 11
0.0
 21
-504.1088943285344
 31
0.0
  0
LINE
  5
14782
330
A
100
AcDbEntity
  8
16
  6
CENTER
100
AcDbLine
 10
510.0
 20
0.0
 30
0.0
 11
862.3999999999997
 21
0.0
 31
0.0
  0
MTEXT
  5
14ED5
330
A
100
AcDbEntity
  8
19
100
AcDbMText
 10
700.0
 20
-332.6724388227998
 30
0.0
 40
7.0
 41
0.0
 71
     8
 72
     5
  1
ASL
  7
SLDTEXTSTYLE0
 73
     1
 44
1.0
1001
ACAD
1000
MTEXTBEGIN
1070
    73
1070
     1
1070
    44
1040
1.0
1070
    74
1070
     0
1000
MTEXTEND
  0
LINE
  5
14F03
330
A
100
AcDbEntity
  8
16
  6
CENTER
100
AcDbLine
 10
510.0000000059996
 20
-440.0
 30
0.0
 11
870.4000000059993
 21
-440.0
 31
0.0
  0
MTEXT
  5
14FA2
330
A
100
AcDbEntity
  8
19
100
AcDbMText
 10
502.3028278538539
 20
3.612510898199957
 30
0.0
 40
7.0
 41
0.0
 71
     1
 72
     5
  1
H
  7
SLDTEXTSTYLE0
 73
     1
 44
1.0
1001
ACAD
1000
MTEXTBEGIN
1070
    73
1070
     1
1070
    44
1040
1.0
1070
    74
1070
     0
1000
MTEXTEND
  0
MTEXT
  5
14FA3
330
A
100
AcDbEntity
  8
19
100
AcDbMText
 10
503.9386634184284
 20
1.643267985131501
 30
0.0
 40
7.0
 41
0.0
 71
     1
 72
     5
  1
L
  7
SLDTEXTSTYLE0
 73
     1
 44
1.0
1001
ACAD
1000
MTEXTBEGIN
1070
    73
1070
     1
1070
    44
1040
1.0
1070
    74
1070
     0
1000
MTEXTEND
  0
MTEXT
  5
14FC6
330
A
100
AcDbEntity
  8
19
100
AcDbMText
 10
502.3028278598537
 20
-436.3874891018
 30
0.0
 40
7.0
 41
0.0
 71
     1
 72
     5
  1
H
  7
SLDTEXTSTYLE0
 73
     1
 44
1.0
1001
ACAD
1000
MTEXTBEGIN
1070
    73
1070
     1
1070
    44
1040
1.0
1070
    74
1070
     0
1000
MTEXTEND
  0
MTEXT
  5
14FC7
330
A
100
AcDbEntity
  8
19
100
AcDbMText
 10
503.9386634244281
 20
-438.3567320148684
 30
0.0
 40
7.0
 41
0.0
 71
     1
 72
     5
  1
L
  7
SLDTEXTSTYLE0
 73
     1
 44
1.0
1001
ACAD
1000
MTEXTBEGIN
1070
    73
1070
     1
1070
    44
1040
1.0
1070
    74
1070
     0
1000
MTEXTEND
  0
TEXT
  5
14FF5
330
A
100
AcDbEntity
  8
19
  6
Continuous
100
AcDbText
 10
106.0146023020596
 20
-369.2141870936739
 30
0.0
 40
7.0
  1
負荷側接続ねじ
 41
0.75
  7
SLDTEXTSTYLE0
100
AcDbText
  0
LINE
  5
20A41
330
A
100
AcDbEntity
  8
11
  6
PHANTOM
100
AcDbLine
 10
-26.0
 20
-349.0
 30
0.0
 11
-26.0
 21
-347.0
 31
0.0
  0
LINE
  5
20B0E
330
A
100
AcDbEntity
  8
11
  6
PHANTOM
100
AcDbLine
 10
26.0
 20
-347.0
 30
0.0
 11
128.7381349920001
 21
-347.0
 31
0.0
  0
LINE
  5
20B0F
330
A
100
AcDbEntity
  8
11
  6
PHANTOM
100
AcDbLine
 10
26.0
 20
-349.0
 30
0.0
 11
128.7381349920001
 21
-349.0
 31
0.0
  0
LINE
  5
20B10
330
A
100
AcDbEntity
  8
11
  6
PHANTOM
100
AcDbLine
 10
-26.0
 20
-349.0
 30
0.0
 11
-128.7381349922001
 21
-349.0
 31
0.0
  0
LINE
  5
20B11
330
A
100
AcDbEntity
  8
11
  6
PHANTOM
100
AcDbLine
 10
-26.0
 20
-347.0
 30
0.0
 11
-128.7381349922001
 21
-347.0
 31
0.0
  0
DIMENSION
  5
20B7D
330
A
100
AcDbEntity
  8
30
  6
Continuous
100
AcDbDimension
  2
*D11
 10
211.9988484217003
 20
-391.0000000000001
 30
0.0
 11
199.4988484217003
 21
-415.4999999999999
 31
0.0
 70
    32
 71
     5
 42
48.99999999999983
  3
ISO-25-2
100
AcDbAlignedDimension
 13
128.9988473787002
 23
-439.9999999999998
 33
0.0
 14
50.0
 24
-391.0
 34
0.0
 50
90.0
100
AcDbRotatedDimension
  0
DIMENSION
  5
20C29
330
A
100
AcDbEntity
  8
30
  6
Continuous
100
AcDbDimension
  2
*D12
 10
-45.0
 20
-560.0
 30
0.0
 11
-22.5
 21
-547.5
 31
0.0
 70
    32
 71
     5
 42
45.0
  3
ISO-25-2
100
AcDbAlignedDimension
 13
0.0
 23
-504.1088943285344
 33
0.0
 14
-45.0
 24
-505.0
 34
0.0
100
AcDbRotatedDimension
  0
DIMENSION
  5
20C2A
330
A
100
AcDbEntity
  8
30
  6
Continuous
100
AcDbDimension
  2
*D13
 10
44.99999999999999
 20
-560.0
 30
0.0
 11
22.5
 21
-547.5
 31
0.0
 70
    32
 71
     5
 42
45.0
  3
ISO-25-2
100
AcDbAlignedDimension
 13
0.0
 23
-504.1088943285344
 33
0.0
 14
45.0
 24
-497.1911056714657
 34
0.0
100
AcDbRotatedDimension
  0
MTEXT
  5
20CDB
330
A
100
AcDbEntity
  8
19
100
AcDbMText
 10
170.0
 20
-438.3911056714651
 30
0.0
 40
7.0
 41
0.0
 71
     1
 72
     5
  1
[ ﾌﾞｽﾊﾞｰ取付高さ ]
  7
SLDTEXTSTYLE0
 11
0.0000000000000001
 21
1.0
 31
0.0
 73
     1
 44
1.0
1001
ACAD
1000
MTEXTBEGIN
1070
    73
1070
     1
1070
    44
1040
1.0
1070
    74
1070
     0
1000
MTEXTEND
  0
MTEXT
  5
20CDC
330
A
100
AcDbEntity
  8
19
100
AcDbMText
 10
219.9999999999999
 20
-438.3911056714651
 30
0.0
 40
7.0
 41
0.0
 71
     1
 72
     5
  1
[ 負荷側端子高さ ]
  7
SLDTEXTSTYLE0
 11
0.0000000000000001
 21
1.0
 31
0.0
 73
     1
 44
1.0
1001
ACAD
1000
MTEXTBEGIN
1070
    73
1070
     1
1070
    44
1040
1.0
1070
    74
1070
     0
1000
MTEXTEND
  0
DIMENSION
  5
20CF0
330
A
100
AcDbEntity
  8
30
  6
Continuous
100
AcDbDimension
  2
*D14
 10
261.9988484217001
 20
-439.9999999999998
 30
0.0
 11
249.4988484217002
 21
-394.4999999999999
 31
0.0
 70
    32
 71
     5
 42
90.99999999999983
  3
ISO-25-2
100
AcDbAlignedDimension
 13
125.7369823707004
 23
-349.0
 33
0.0
 14
128.9988473787002
 24
-439.9999999999998
 34
0.0
 50
90.0
100
AcDbRotatedDimension
  0
DIMENSION
  5
216CC
330
A
100
AcDbEntity
  8
30
  6
Continuous
100
AcDbDimension
  2
*D15
 10
485.0
 20
22.5000000000002
 30
0.0
 11
472.5
 21
0.0000000000002223
 31
0.0
 70
    32
 71
     5
 42
45.00000000000013
  3
ISO-25-2
100
AcDbAlignedDimension
 13
787.9999000000005
 23
-22.5
 33
0.0
 14
591.9999000000005
 24
22.50000000000017
 34
0.0
 50
90.0
100
AcDbRotatedDimension
  0
LINE
  5
22638
330
A
100
AcDbEntity
  8
10
  6
Continuous
100
AcDbLine
 10
90.0
 20
14.00000000000005
 30
0.0
 11
90.0
 21
11.00000000000005
 31
0.0
  0
LINE
  5
22639
330
A
100
AcDbEntity
  8
10
  6
Continuous
100
AcDbLine
 10
25.5
 20
-2.000000000000852
 30
0.0
 11
25.5
 21
23.50000000000006
 31
0.0
  0
LINE
  5
2263A
330
A
100
AcDbEntity
  8
10
  6
Continuous
100
AcDbLine
 10
82.20000000000027
 20
-20.70000000000067
 30
0.0
 11
82.70000000000027
 21
-21.19999999999976
 31
0.0
  0
LINE
  5
2263B
330
A
100
AcDbEntity
  8
10
  6
Continuous
100
AcDbLine
 10
-38.5
 20
24.69999999999988
 30
0.0
 11
-47.0
 21
24.69999999999988
 31
0.0
  0
LINE
  5
2263C
330
A
100
AcDbEntity
  8
10
  6
Continuous
100
AcDbLine
 10
-38.5
 20
24.69999999999988
 30
0.0
 11
-38.5
 21
20.00000000000006
 31
0.0
  0
LINE
  5
2263D
330
A
100
AcDbEntity
  8
10
  6
Continuous
100
AcDbLine
 10
47.0
 20
24.69999999999988
 30
0.0
 11
38.5
 21
24.69999999999988
 31
0.0
  0
LINE
  5
2263E
330
A
100
AcDbEntity
  8
10
  6
Continuous
100
AcDbLine
 10
-48.5
 20
2.500000000000056
 30
0.0
 11
-49.59999250000009
 21
2.500000000000056
 31
0.0
  0
LINE
  5
2263F
330
A
100
AcDbEntity
  8
10
  6
Continuous
100
AcDbLine
 10
47.0
 20
22.99999999999915
 30
0.0
 11
47.0
 21
24.69999999999988
 31
0.0
  0
LINE
  5
22640
330
A
100
AcDbEntity
  8
10
  6
Continuous
100
AcDbLine
 10
50.0
 20
20.00000000000006
 30
0.0
 11
50.0
 21
22.99999999999915
 31
0.0
  0
LINE
  5
22641
330
A
100
AcDbEntity
  8
10
  6
Continuous
100
AcDbLine
 10
-38.5
 20
5.000000000000056
 30
0.0
 11
-38.5
 21
-4.999999999999943
 31
0.0
  0
LINE
  5
22642
330
A
100
AcDbEntity
  8
10
  6
Continuous
100
AcDbLine
 10
82.70000000000027
 20
21.19999999999988
 30
0.0
 11
82.70000000000027
 21
-21.19999999999976
 31
0.0
  0
LINE
  5
22643
330
A
100
AcDbEntity
  8
10
  6
Continuous
100
AcDbLine
 10
38.5
 20
5.000000000000056
 30
0.0
 11
34.0
 21
5.000000000000056
 31
0.0
  0
LINE
  5
22644
330
A
100
AcDbEntity
  8
10
  6
Continuous
100
AcDbLine
 10
-71.5
 20
18.49992249999928
 30
0.0
 11
-71.5
 21
16.99992249999928
 31
0.0
  0
LINE
  5
22645
330
A
100
AcDbEntity
  8
10
  6
Continuous
100
AcDbLine
 10
-71.5
 20
14.99976499999962
 30
0.0
 11
-71.5
 21
13.50000000000006
 31
0.0
  0
LINE
  5
22646
330
A
100
AcDbEntity
  8
10
  6
Continuous
100
AcDbLine
 10
-71.5
 20
11.50007749999992
 30
0.0
 11
-71.5
 21
10.00007749999901
 31
0.0
  0
LINE
  5
22647
330
A
100
AcDbEntity
  8
10
  6
Continuous
100
AcDbLine
 10
-71.5
 20
8.000157499999716
 30
0.0
 11
-71.5
 21
6.500157499999716
 31
0.0
  0
LINE
  5
22648
330
A
100
AcDbEntity
  8
10
  6
Continuous
100
AcDbLine
 10
50.0
 20
24.00000000000006
 30
0.0
 11
50.0
 21
22.99999999999915
 31
0.0
  0
LINE
  5
22649
330
A
100
AcDbEntity
  8
10
  6
Continuous
100
AcDbLine
 10
48.5
 20
-23.99999999999995
 30
0.0
 11
48.5
 21
-22.99999999999994
 31
0.0
  0
LINE
  5
2264A
330
A
100
AcDbEntity
  8
10
  6
Continuous
100
AcDbLine
 10
38.5
 20
24.69999999999988
 30
0.0
 11
-38.5
 21
24.69999999999988
 31
0.0
  0
LINE
  5
2264B
330
A
100
AcDbEntity
  8
10
  6
Continuous
100
AcDbLine
 10
38.5
 20
-19.99999999999994
 30
0.0
 11
50.0
 21
-19.99999999999994
 31
0.0
  0
LINE
  5
2264C
330
A
100
AcDbEntity
  8
10
  6
Continuous
100
AcDbLine
 10
-14.5
 20
-7.000000000000852
 30
0.0
 11
-14.5
 21
-17.99999999999994
 31
0.0
  0
LINE
  5
2264D
330
A
100
AcDbEntity
  8
10
  6
Continuous
100
AcDbLine
 10
38.5
 20
-24.70000000000067
 30
0.0
 11
38.5
 21
-19.99999999999994
 31
0.0
  0
LINE
  5
2264E
330
A
100
AcDbEntity
  8
10
  6
Continuous
100
AcDbLine
 10
50.0
 20
-22.99999999999994
 30
0.0
 11
50.0
 21
-23.99999999999995
 31
0.0
  0
LINE
  5
2264F
330
A
100
AcDbEntity
  8
10
  6
Continuous
100
AcDbLine
 10
-38.5
 20
-19.99999999999994
 30
0.0
 11
-49.59983499999998
 21
-19.99999999999994
 31
0.0
  0
LINE
  5
22650
330
A
100
AcDbEntity
  8
10
  6
Continuous
100
AcDbLine
 10
38.5
 20
20.00000000000006
 30
0.0
 11
38.5
 21
24.69999999999988
 31
0.0
  0
LINE
  5
22651
330
A
100
AcDbEntity
  8
10
  6
Continuous
100
AcDbLine
 10
-34.0
 20
-19.99999999999994
 30
0.0
 11
-38.5
 21
-19.99999999999994
 31
0.0
  0
LINE
  5
22652
330
A
100
AcDbEntity
  8
10
  6
Continuous
100
AcDbLine
 10
-49.59991499999978
 20
3.500000000000056
 30
0.0
 11
-44.12046499999997
 21
3.500000000000056
 31
0.0
  0
LINE
  5
22653
330
A
100
AcDbEntity
  8
10
  6
Continuous
100
AcDbLine
 10
46.70000000000027
 20
-3.499999999999943
 30
0.0
 11
46.70000000000027
 21
0.4999999999991474
 31
0.0
  0
LINE
  5
22654
330
A
100
AcDbEntity
  8
10
  6
Continuous
100
AcDbLine
 10
48.5
 20
-0.4999999999999432
 30
0.0
 11
48.5
 21
0.4999999999991474
 31
0.0
  0
LINE
  5
22655
330
A
100
AcDbEntity
  8
10
  6
Continuous
100
AcDbLine
 10
82.70000000000027
 20
21.19999999999988
 30
0.0
 11
82.20000000000027
 21
20.69999999999987
 31
0.0
  0
LINE
  5
22656
330
A
100
AcDbEntity
  8
10
  6
Continuous
100
AcDbLine
 10
-48.5
 20
3.500000000000056
 30
0.0
 11
-48.5
 21
2.500000000000056
 31
0.0
  0
LINE
  5
22657
330
A
100
AcDbEntity
  8
10
  6
Continuous
100
AcDbLine
 10
50.0
 20
0.4999999999991474
 30
0.0
 11
46.26781500000015
 21
0.4999999999991474
 31
0.0
  0
LINE
  5
22658
330
A
100
AcDbEntity
  8
10
  6
Continuous
100
AcDbLine
 10
49.99897250000003
 20
21.19999999999988
 30
0.0
 11
82.70000000000027
 21
21.19999999999988
 31
0.0
  0
LINE
  5
22659
330
A
100
AcDbEntity
  8
10
  6
Continuous
100
AcDbLine
 10
50.0
 20
-2.499999999999943
 30
0.0
 11
50.0
 21
-3.499999999999943
 31
0.0
  0
LINE
  5
2265A
330
A
100
AcDbEntity
  8
10
  6
Continuous
100
AcDbLine
 10
50.0
 20
0.4999999999991474
 30
0.0
 11
50.0
 21
-0.4999999999999432
 31
0.0
  0
LINE
  5
2265B
330
A
100
AcDbEntity
  8
10
  6
Continuous
100
AcDbLine
 10
-49.59999250000009
 20
0.4999999999991474
 30
0.0
 11
-48.5
 21
0.4999999999991474
 31
0.0
  0
LINE
  5
2265C
330
A
100
AcDbEntity
  8
10
  6
Continuous
100
AcDbLine
 10
-48.5
 20
0.4999999999991474
 30
0.0
 11
-48.5
 21
-0.4999999999999432
 31
0.0
  0
LINE
  5
2265D
330
A
100
AcDbEntity
  8
10
  6
Continuous
100
AcDbLine
 10
-38.5
 20
-4.999999999999943
 30
0.0
 11
-49.59983499999998
 21
-4.999999999999943
 31
0.0
  0
LINE
  5
2265E
330
A
100
AcDbEntity
  8
10
  6
Continuous
100
AcDbLine
 10
50.0
 20
-0.4999999999999432
 30
0.0
 11
48.5
 21
-0.4999999999999432
 31
0.0
  0
LINE
  5
2265F
330
A
100
AcDbEntity
  8
10
  6
Continuous
100
AcDbLine
 10
50.0
 20
-4.999999999999943
 30
0.0
 11
50.0
 21
-3.499999999999943
 31
0.0
  0
LINE
  5
22660
330
A
100
AcDbEntity
  8
10
  6
Continuous
100
AcDbLine
 10
-38.5
 20
-4.999999999999943
 30
0.0
 11
-34.0
 21
-4.999999999999943
 31
0.0
  0
LINE
  5
22661
330
A
100
AcDbEntity
  8
10
  6
Continuous
100
AcDbLine
 10
34.0
 20
20.00000000000006
 30
0.0
 11
38.5
 21
20.00000000000006
 31
0.0
  0
LINE
  5
22662
330
A
100
AcDbEntity
  8
10
  6
Continuous
100
AcDbLine
 10
-34.0
 20
5.000000000000056
 30
0.0
 11
-38.5
 21
5.000000000000056
 31
0.0
  0
LINE
  5
22663
330
A
100
AcDbEntity
  8
10
  6
Continuous
100
AcDbLine
 10
-49.59983499999998
 20
5.000000000000056
 30
0.0
 11
-38.5
 21
5.000000000000056
 31
0.0
  0
LINE
  5
22664
330
A
100
AcDbEntity
  8
10
  6
Continuous
100
AcDbLine
 10
38.5
 20
-4.999999999999943
 30
0.0
 11
38.5
 21
5.000000000000056
 31
0.0
  0
LINE
  5
22665
330
A
100
AcDbEntity
  8
10
  6
Continuous
100
AcDbLine
 10
-46.29999999999973
 20
3.500000000000056
 30
0.0
 11
-46.29999999999973
 21
3.149937499999452
 31
0.0
  0
LINE
  5
22666
330
A
100
AcDbEntity
  8
10
  6
Continuous
100
AcDbLine
 10
-46.29999999999973
 20
-0.2499999999999432
 30
0.0
 11
-46.29999999999973
 21
-0.4999999999999432
 31
0.0
  0
LINE
  5
22667
330
A
100
AcDbEntity
  8
10
  6
Continuous
100
AcDbLine
 10
-69.5
 20
18.50003250000014
 30
0.0
 11
-69.5
 21
18.19999999999987
 31
0.0
  0
LINE
  5
22668
330
A
100
AcDbEntity
  8
10
  6
Continuous
100
AcDbLine
 10
38.5
 20
-4.999999999999943
 30
0.0
 11
50.0
 21
-4.999999999999943
 31
0.0
  0
LINE
  5
22669
330
A
100
AcDbEntity
  8
10
  6
Continuous
100
AcDbLine
 10
34.0
 20
-4.999999999999943
 30
0.0
 11
38.5
 21
-4.999999999999943
 31
0.0
  0
LINE
  5
2266A
330
A
100
AcDbEntity
  8
10
  6
Continuous
100
AcDbLine
 10
50.0
 20
-22.99999999999994
 30
0.0
 11
47.0
 21
-22.99999999999994
 31
0.0
  0
LINE
  5
2266B
330
A
100
AcDbEntity
  8
10
  6
Continuous
100
AcDbLine
 10
44.12046499999997
 20
-3.499999999999943
 30
0.0
 11
50.0
 21
-3.499999999999943
 31
0.0
  0
LINE
  5
2266C
330
A
100
AcDbEntity
  8
10
  6
Continuous
100
AcDbLine
 10
-34.0
 20
-4.999999999999943
 30
0.0
 11
-34.0
 21
-19.99999999999994
 31
0.0
  0
LINE
  5
2266D
330
A
100
AcDbEntity
  8
10
  6
Continuous
100
AcDbLine
 10
-16.5
 20
-7.000000000000852
 30
0.0
 11
-16.5
 21
-17.99999999999994
 31
0.0
  0
LINE
  5
2266E
330
A
100
AcDbEntity
  8
10
  6
Continuous
100
AcDbLine
 10
-47.8000149999998
 20
-22.99999999999994
 30
0.0
 11
-49.59996999999976
 21
-22.99999999999994
 31
0.0
  0
LINE
  5
2266F
330
A
100
AcDbEntity
  8
10
  6
Continuous
100
AcDbLine
 10
47.0
 20
-24.70000000000067
 30
0.0
 11
47.0
 21
-22.99999999999994
 31
0.0
  0
LINE
  5
22670
330
A
100
AcDbEntity
  8
10
  6
Continuous
100
AcDbLine
 10
50.0
 20
5.000000000000056
 30
0.0
 11
38.5
 21
5.000000000000056
 31
0.0
  0
LINE
  5
22671
330
A
100
AcDbEntity
  8
10
  6
Continuous
100
AcDbLine
 10
-67.5
 20
18.19999999999987
 30
0.0
 11
-67.5
 21
18.50000000000006
 31
0.0
  0
LINE
  5
22672
330
A
100
AcDbEntity
  8
10
  6
Continuous
100
AcDbLine
 10
-34.0
 20
20.00000000000006
 30
0.0
 11
-34.0
 21
5.000000000000056
 31
0.0
  0
LINE
  5
22673
330
A
100
AcDbEntity
  8
10
  6
Continuous
100
AcDbLine
 10
50.0
 20
0.4999999999991474
 30
0.0
 11
50.0
 21
5.000000000000056
 31
0.0
  0
LINE
  5
22674
330
A
100
AcDbEntity
  8
10
  6
Continuous
100
AcDbLine
 10
50.0
 20
20.00000000000006
 30
0.0
 11
38.5
 21
20.00000000000006
 31
0.0
  0
LINE
  5
22675
330
A
100
AcDbEntity
  8
10
  6
Continuous
100
AcDbLine
 10
-49.59983499999998
 20
20.00000000000006
 30
0.0
 11
-38.5
 21
20.00000000000006
 31
0.0
  0
LINE
  5
22676
330
A
100
AcDbEntity
  8
10
  6
Continuous
100
AcDbLine
 10
-49.59995750000008
 20
-0.4999999999999432
 30
0.0
 11
-46.2678149999997
 21
-0.4999999999999432
 31
0.0
  0
LINE
  5
22677
330
A
100
AcDbEntity
  8
10
  6
Continuous
100
AcDbLine
 10
-38.5
 20
-24.70000000000067
 30
0.0
 11
-47.0
 21
-24.70000000000067
 31
0.0
  0
LINE
  5
22678
330
A
100
AcDbEntity
  8
10
  6
Continuous
100
AcDbLine
 10
-24.5
 20
-23.99999999999995
 30
0.0
 11
25.5
 21
-23.99999999999995
 31
0.0
  0
LINE
  5
22679
330
A
100
AcDbEntity
  8
10
  6
Continuous
100
AcDbLine
 10
50.0
 20
-23.99999999999995
 30
0.0
 11
48.5
 21
-23.99999999999995
 31
0.0
  0
LINE
  5
2267A
330
A
100
AcDbEntity
  8
10
  6
Continuous
100
AcDbLine
 10
48.5
 20
-3.499999999999943
 30
0.0
 11
48.5
 21
-2.499999999999943
 31
0.0
  0
LINE
  5
2267B
330
A
100
AcDbEntity
  8
10
  6
Continuous
100
AcDbLine
 10
-24.5
 20
-2.000000000000852
 30
0.0
 11
-24.5
 21
-23.99999999999995
 31
0.0
  0
LINE
  5
2267C
330
A
100
AcDbEntity
  8
10
  6
Continuous
100
AcDbLine
 10
25.5
 20
-23.99999999999995
 30
0.0
 11
25.5
 21
-2.000000000000852
 31
0.0
  0
LINE
  5
2267D
330
A
100
AcDbEntity
  8
10
  6
Continuous
100
AcDbLine
 10
48.5
 20
-2.499999999999943
 30
0.0
 11
50.0
 21
-2.499999999999943
 31
0.0
  0
LINE
  5
2267E
330
A
100
AcDbEntity
  8
10
  6
Continuous
100
AcDbLine
 10
50.0
 20
22.99999999999915
 30
0.0
 11
47.0
 21
22.99999999999915
 31
0.0
  0
LINE
  5
2267F
330
A
100
AcDbEntity
  8
10
  6
Continuous
100
AcDbLine
 10
-69.5
 20
18.19999999999987
 30
0.0
 11
-69.5
 21
16.9998499999993
 31
0.0
  0
LINE
  5
22680
330
A
100
AcDbEntity
  8
10
  6
Continuous
100
AcDbLine
 10
-69.5
 20
14.99999749999921
 30
0.0
 11
-69.5
 21
13.4998099999994
 31
0.0
  0
LINE
  5
22681
330
A
100
AcDbEntity
  8
10
  6
Continuous
100
AcDbLine
 10
-69.5
 20
11.50015499999978
 30
0.0
 11
-69.5
 21
10.00016499999953
 31
0.0
  0
LINE
  5
22682
330
A
100
AcDbEntity
  8
10
  6
Continuous
100
AcDbLine
 10
-69.5
 20
8.00011499999988
 30
0.0
 11
-69.5
 21
6.500124999999627
 31
0.0
  0
LINE
  5
22683
330
A
100
AcDbEntity
  8
10
  6
Continuous
100
AcDbLine
 10
-24.5
 20
23.50000000000006
 30
0.0
 11
-24.5
 21
-2.000000000000852
 31
0.0
  0
LINE
  5
22684
330
A
100
AcDbEntity
  8
10
  6
Continuous
100
AcDbLine
 10
-47.8000149999998
 20
22.99999999999915
 30
0.0
 11
-49.59996999999976
 21
22.99999999999915
 31
0.0
  0
LINE
  5
22685
330
A
100
AcDbEntity
  8
10
  6
Continuous
100
AcDbLine
 10
-48.5
 20
-22.99999999999994
 30
0.0
 11
-48.5
 21
-23.69998500000014
 31
0.0
  0
LINE
  5
22686
330
A
100
AcDbEntity
  8
10
  6
Continuous
100
AcDbLine
 10
50.0
 20
-22.99999999999994
 30
0.0
 11
50.0
 21
-19.99999999999994
 31
0.0
  0
LINE
  5
22687
330
A
100
AcDbEntity
  8
10
  6
Continuous
100
AcDbLine
 10
-38.5
 20
-19.99999999999994
 30
0.0
 11
-38.5
 21
-24.70000000000067
 31
0.0
  0
LINE
  5
22688
330
A
100
AcDbEntity
  8
10
  6
Continuous
100
AcDbLine
 10
-16.5
 20
-17.99999999999994
 30
0.0
 11
-19.86538500000006
 21
-17.99999999999994
 31
0.0
  0
LINE
  5
22689
330
A
100
AcDbEntity
  8
10
  6
Continuous
100
AcDbLine
 10
38.5
 20
-19.99999999999994
 30
0.0
 11
34.0
 21
-19.99999999999994
 31
0.0
  0
LINE
  5
2268A
330
A
100
AcDbEntity
  8
10
  6
Continuous
100
AcDbLine
 10
-14.5
 20
-17.99999999999994
 30
0.0
 11
-16.5
 21
-17.99999999999994
 31
0.0
  0
LINE
  5
2268B
330
A
100
AcDbEntity
  8
10
  6
Continuous
100
AcDbLine
 10
-19.86538500000006
 20
-7.000000000000852
 30
0.0
 11
-19.86538500000006
 21
-17.99999999999994
 31
0.0
  0
LINE
  5
2268C
330
A
100
AcDbEntity
  8
10
  6
Continuous
100
AcDbLine
 10
48.5
 20
22.99999999999915
 30
0.0
 11
48.5
 21
24.00000000000006
 31
0.0
  0
LINE
  5
2268D
330
A
100
AcDbEntity
  8
10
  6
Continuous
100
AcDbLine
 10
48.5
 20
24.00000000000006
 30
0.0
 11
50.0
 21
24.00000000000006
 31
0.0
  0
LINE
  5
2268E
330
A
100
AcDbEntity
  8
10
  6
Continuous
100
AcDbLine
 10
-48.5
 20
23.69998499999935
 30
0.0
 11
-48.5
 21
22.99999999999915
 31
0.0
  0
LINE
  5
2268F
330
A
100
AcDbEntity
  8
10
  6
Continuous
100
AcDbLine
 10
34.0
 20
5.000000000000056
 30
0.0
 11
34.0
 21
20.00000000000006
 31
0.0
  0
LINE
  5
22690
330
A
100
AcDbEntity
  8
10
  6
Continuous
100
AcDbLine
 10
-38.5
 20
20.00000000000006
 30
0.0
 11
-34.0
 21
20.00000000000006
 31
0.0
  0
LINE
  5
22691
330
A
100
AcDbEntity
  8
10
  6
Continuous
100
AcDbLine
 10
50.0
 20
20.00000000000006
 30
0.0
 11
50.0
 21
5.000000000000056
 31
0.0
  0
LINE
  5
22692
330
A
100
AcDbEntity
  8
10
  6
Continuous
100
AcDbLine
 10
50.0
 20
-4.999999999999943
 30
0.0
 11
50.0
 21
-19.99999999999994
 31
0.0
  0
LINE
  5
22693
330
A
100
AcDbEntity
  8
10
  6
Continuous
100
AcDbLine
 10
47.0
 20
-24.70000000000067
 30
0.0
 11
38.5
 21
-24.70000000000067
 31
0.0
  0
LINE
  5
22694
330
A
100
AcDbEntity
  8
10
  6
Continuous
100
AcDbLine
 10
38.5
 20
-24.70000000000067
 30
0.0
 11
-38.5
 21
-24.70000000000067
 31
0.0
  0
LINE
  5
22695
330
A
100
AcDbEntity
  8
10
  6
Continuous
100
AcDbLine
 10
34.0
 20
-19.99999999999994
 30
0.0
 11
34.0
 21
-4.999999999999943
 31
0.0
  0
LINE
  5
22696
330
A
100
AcDbEntity
  8
10
  6
Continuous
100
AcDbLine
 10
82.70000000000027
 20
-21.19999999999976
 30
0.0
 11
49.99897250000003
 21
-21.19999999999976
 31
0.0
  0
LINE
  5
22697
330
A
100
AcDbEntity
  8
10
  6
Continuous
100
AcDbLine
 10
-72.5
 20
-10.99999999999994
 30
0.0
 11
-66.59968750000007
 21
-10.99999999999994
 31
0.0
  0
LINE
  5
22698
330
A
100
AcDbEntity
  8
10
  6
Continuous
100
AcDbLine
 10
-64.59938249999959
 20
-10.99999999999994
 30
0.0
 11
-52.10010250000005
 21
-10.99999999999994
 31
0.0
  0
LINE
  5
22699
330
A
100
AcDbEntity
  8
10
  6
Continuous
100
AcDbLine
 10
-34.10044500000004
 20
-10.99999999999994
 30
0.0
 11
-34.00045999999975
 21
-10.99999999999994
 31
0.0
  0
LINE
  5
2269A
330
A
100
AcDbEntity
  8
10
  6
Continuous
100
AcDbLine
 10
-76.5
 20
-10.99999999999994
 30
0.0
 11
-72.5
 21
-10.99999999999994
 31
0.0
  0
LINE
  5
2269B
330
A
100
AcDbEntity
  8
10
  6
Continuous
100
AcDbLine
 10
-76.5
 20
-18.49998500000032
 30
0.0
 11
-76.5
 21
-17.00010999999989
 31
0.0
  0
LINE
  5
2269C
330
A
100
AcDbEntity
  8
10
  6
Continuous
100
AcDbLine
 10
-76.5
 20
-15.00014000000004
 30
0.0
 11
-76.5
 21
-13.50006250000018
 31
0.0
  0
LINE
  5
2269D
330
A
100
AcDbEntity
  8
10
  6
Continuous
100
AcDbLine
 10
-76.5
 20
-11.50009250000033
 30
0.0
 11
-76.5
 21
-10.99999999999994
 31
0.0
  0
LINE
  5
2269E
330
A
100
AcDbEntity
  8
10
  6
Continuous
100
AcDbLine
 10
-35.10028999999986
 20
-5.999999999999943
 30
0.0
 11
-34.00045999999975
 21
-5.999999999999943
 31
0.0
  0
LINE
  5
2269F
330
A
100
AcDbEntity
  8
10
  6
Continuous
100
AcDbLine
 10
-76.5
 20
-18.49990500000052
 30
0.0
 11
-76.5
 21
-16.99982749999975
 31
0.0
  0
LINE
  5
226A0
330
A
100
AcDbEntity
  8
10
  6
Continuous
100
AcDbLine
 10
-76.5
 20
-14.99986000000075
 30
0.0
 11
-76.5
 21
-13.49998500000032
 31
0.0
  0
LINE
  5
226A1
330
A
100
AcDbEntity
  8
10
  6
Continuous
100
AcDbLine
 10
-76.5
 20
-11.50001500000047
 30
0.0
 11
-76.5
 21
-10.00014000000004
 31
0.0
  0
LINE
  5
226A2
330
A
100
AcDbEntity
  8
10
  6
Continuous
100
AcDbLine
 10
-76.5
 20
-8.000172500000132
 30
0.0
 11
-76.5
 21
-6.500092500000334
 31
0.0
  0
LINE
  5
226A3
330
A
100
AcDbEntity
  8
10
  6
Continuous
100
AcDbLine
 10
-35.10028999999986
 20
-18.99999999999994
 30
0.0
 11
-34.00045999999975
 21
-18.99999999999994
 31
0.0
  0
LINE
  5
226A4
330
A
100
AcDbEntity
  8
10
  6
Continuous
100
AcDbLine
 10
-79.59999999999991
 20
24.69999999999988
 30
0.0
 11
-68.09999999999991
 21
24.69999999999988
 31
0.0
  0
LINE
  5
226A5
330
A
100
AcDbEntity
  8
10
  6
Continuous
100
AcDbLine
 10
-68.09999999999991
 20
24.69999999999988
 30
0.0
 11
-46.29999999999973
 21
24.69999999999988
 31
0.0
  0
LINE
  5
226A6
330
A
100
AcDbEntity
  8
10
  6
Continuous
100
AcDbLine
 10
-47.79999999999972
 20
23.69999999999988
 30
0.0
 11
-49.59999999999991
 21
23.69999999999988
 31
0.0
  0
LINE
  5
226A7
330
A
100
AcDbEntity
  8
10
  6
Continuous
100
AcDbLine
 10
-46.29999999999973
 20
24.69999999999988
 30
0.0
 11
-46.29999999999973
 21
23.69999999999988
 31
0.0
  0
LINE
  5
226A8
330
A
100
AcDbEntity
  8
10
  6
Continuous
100
AcDbLine
 10
-49.59999999999991
 20
23.69999999999988
 30
0.0
 11
-49.59999999999991
 21
19.00000000000005
 31
0.0
  0
LINE
  5
226A9
330
A
100
AcDbEntity
  8
10
  6
Continuous
100
AcDbLine
 10
-80.59999999999991
 20
18.50000000000006
 30
0.0
 11
-80.59999999999991
 21
23.69999999999988
 31
0.0
  0
LINE
  5
226AA
330
A
100
AcDbEntity
  8
10
  6
Continuous
100
AcDbLine
 10
-47.79999999999972
 20
22.89999999999969
 30
0.0
 11
-47.79999999999972
 21
23.69999999999988
 31
0.0
  0
LINE
  5
226AB
330
A
100
AcDbEntity
  8
10
  6
Continuous
100
AcDbLine
 10
-46.29999999999973
 20
23.69999999999988
 30
0.0
 11
-46.29999999999973
 21
22.89999999999969
 31
0.0
  0
LINE
  5
226AC
330
A
100
AcDbEntity
  8
10
  6
Continuous
100
AcDbLine
 10
-46.29999999999973
 20
22.89999999999969
 30
0.0
 11
-47.79999999999972
 21
22.89999999999969
 31
0.0
  0
LINE
  5
226AD
330
A
100
AcDbEntity
  8
10
  6
Continuous
100
AcDbLine
 10
-35.09999999999991
 20
19.00000000000005
 30
0.0
 11
-49.59999999999991
 21
19.00000000000005
 31
0.0
  0
LINE
  5
226AE
330
A
100
AcDbEntity
  8
10
  6
Continuous
100
AcDbLine
 10
-78.09999999999991
 20
18.50000000000006
 30
0.0
 11
-78.09999999999991
 21
17.00000000000005
 31
0.0
  0
LINE
  5
226AF
330
A
100
AcDbEntity
  8
10
  6
Continuous
100
AcDbLine
 10
-80.59999999999991
 20
17.00000000000005
 30
0.0
 11
-80.59999999999991
 21
18.50000000000006
 31
0.0
  0
LINE
  5
226B0
330
A
100
AcDbEntity
  8
10
  6
Continuous
100
AcDbLine
 10
-64.59999999999991
 20
18.50000000000006
 30
0.0
 11
-52.09999999999991
 21
18.50000000000006
 31
0.0
  0
LINE
  5
226B1
330
A
100
AcDbEntity
  8
10
  6
Continuous
100
AcDbLine
 10
-64.59999999999991
 20
17.00000000000005
 30
0.0
 11
-64.59999999999991
 21
18.50000000000006
 31
0.0
  0
LINE
  5
226B2
330
A
100
AcDbEntity
  8
10
  6
Continuous
100
AcDbLine
 10
-66.59999999999991
 20
18.50000000000006
 30
0.0
 11
-66.59999999999991
 21
17.00000000000005
 31
0.0
  0
LINE
  5
226B3
330
A
100
AcDbEntity
  8
10
  6
Continuous
100
AcDbLine
 10
-52.09999999999991
 20
18.50000000000006
 30
0.0
 11
-52.09999999999991
 21
17.00000000000005
 31
0.0
  0
LINE
  5
226B4
330
A
100
AcDbEntity
  8
10
  6
Continuous
100
AcDbLine
 10
-68.09999999999991
 20
18.50000000000006
 30
0.0
 11
-80.59999999999991
 21
18.50000000000006
 31
0.0
  0
LINE
  5
226B5
330
A
100
AcDbEntity
  8
10
  6
Continuous
100
AcDbLine
 10
-68.09999999999991
 20
18.50000000000006
 30
0.0
 11
-66.59999999999991
 21
18.50000000000006
 31
0.0
  0
LINE
  5
226B6
330
A
100
AcDbEntity
  8
10
  6
Continuous
100
AcDbLine
 10
-34.09999999999991
 20
7.000000000000056
 30
0.0
 11
-34.09999999999991
 21
17.99999999999915
 31
0.0
  0
LINE
  5
226B7
330
A
100
AcDbEntity
  8
10
  6
Continuous
100
AcDbLine
 10
-52.09999999999991
 20
17.00000000000005
 30
0.0
 11
-64.59999999999991
 21
17.00000000000005
 31
0.0
  0
LINE
  5
226B8
330
A
100
AcDbEntity
  8
10
  6
Continuous
100
AcDbLine
 10
-80.59999999999991
 20
17.00000000000005
 30
0.0
 11
-68.09999999999991
 21
17.00000000000005
 31
0.0
  0
LINE
  5
226B9
330
A
100
AcDbEntity
  8
10
  6
Continuous
100
AcDbLine
 10
-66.59999999999991
 20
17.00000000000005
 30
0.0
 11
-68.09999999999991
 21
17.00000000000005
 31
0.0
  0
LINE
  5
226BA
330
A
100
AcDbEntity
  8
10
  6
Continuous
100
AcDbLine
 10
-80.59999999999991
 20
15.00000000000006
 30
0.0
 11
-80.59999999999991
 21
17.00000000000005
 31
0.0
  0
LINE
  5
226BB
330
A
100
AcDbEntity
  8
10
  6
Continuous
100
AcDbLine
 10
-64.59999999999991
 20
15.00000000000006
 30
0.0
 11
-52.09999999999991
 21
15.00000000000006
 31
0.0
  0
LINE
  5
226BC
330
A
100
AcDbEntity
  8
10
  6
Continuous
100
AcDbLine
 10
-80.59999999999991
 20
15.00000000000006
 30
0.0
 11
-81.49997750000011
 21
15.00000000000006
 31
0.0
  0
LINE
  5
226BD
330
A
100
AcDbEntity
  8
10
  6
Continuous
100
AcDbLine
 10
-68.09999999999991
 20
15.00000000000006
 30
0.0
 11
-80.59999999999991
 21
15.00000000000006
 31
0.0
  0
LINE
  5
226BE
330
A
100
AcDbEntity
  8
10
  6
Continuous
100
AcDbLine
 10
-68.09999999999991
 20
15.00000000000006
 30
0.0
 11
-66.59999999999991
 21
15.00000000000006
 31
0.0
  0
LINE
  5
226BF
330
A
100
AcDbEntity
  8
10
  6
Continuous
100
AcDbLine
 10
-66.59999999999991
 20
15.00000000000006
 30
0.0
 11
-66.59999999999991
 21
13.50000000000006
 31
0.0
  0
LINE
  5
226C0
330
A
100
AcDbEntity
  8
10
  6
Continuous
100
AcDbLine
 10
-78.09999999999991
 20
15.00000000000006
 30
0.0
 11
-78.09999999999991
 21
13.50000000000006
 31
0.0
  0
LINE
  5
226C1
330
A
100
AcDbEntity
  8
10
  6
Continuous
100
AcDbLine
 10
-80.59999999999991
 20
13.50000000000006
 30
0.0
 11
-80.59999999999991
 21
15.00000000000006
 31
0.0
  0
LINE
  5
226C2
330
A
100
AcDbEntity
  8
10
  6
Continuous
100
AcDbLine
 10
-64.59999999999991
 20
13.50000000000006
 30
0.0
 11
-64.59999999999991
 21
15.00000000000006
 31
0.0
  0
LINE
  5
226C3
330
A
100
AcDbEntity
  8
10
  6
Continuous
100
AcDbLine
 10
-52.09999999999991
 20
15.00000000000006
 30
0.0
 11
-52.09999999999991
 21
13.50000000000006
 31
0.0
  0
LINE
  5
226C4
330
A
100
AcDbEntity
  8
10
  6
Continuous
100
AcDbLine
 10
-80.59999999999991
 20
11.50000000000005
 30
0.0
 11
-80.59999999999991
 21
13.50000000000006
 31
0.0
  0
LINE
  5
226C5
330
A
100
AcDbEntity
  8
10
  6
Continuous
100
AcDbLine
 10
-52.09999999999991
 20
13.50000000000006
 30
0.0
 11
-64.59999999999991
 21
13.50000000000006
 31
0.0
  0
LINE
  5
226C6
330
A
100
AcDbEntity
  8
10
  6
Continuous
100
AcDbLine
 10
-80.59999999999991
 20
13.50000000000006
 30
0.0
 11
-68.09999999999991
 21
13.50000000000006
 31
0.0
  0
LINE
  5
226C7
330
A
100
AcDbEntity
  8
10
  6
Continuous
100
AcDbLine
 10
-66.59999999999991
 20
13.50000000000006
 30
0.0
 11
-68.09999999999991
 21
13.50000000000006
 31
0.0
  0
LINE
  5
226C8
330
A
100
AcDbEntity
  8
10
  6
Continuous
100
AcDbLine
 10
-64.59999999999991
 20
10.00000000000005
 30
0.0
 11
-64.59999999999991
 21
11.50000000000005
 31
0.0
  0
LINE
  5
226C9
330
A
100
AcDbEntity
  8
10
  6
Continuous
100
AcDbLine
 10
-68.09999999999991
 20
11.50000000000005
 30
0.0
 11
-80.59999999999991
 21
11.50000000000005
 31
0.0
  0
LINE
  5
226CA
330
A
100
AcDbEntity
  8
10
  6
Continuous
100
AcDbLine
 10
-68.09999999999991
 20
11.50000000000005
 30
0.0
 11
-66.59999999999991
 21
11.50000000000005
 31
0.0
  0
LINE
  5
226CB
330
A
100
AcDbEntity
  8
10
  6
Continuous
100
AcDbLine
 10
-78.09999999999991
 20
11.50000000000005
 30
0.0
 11
-78.09999999999991
 21
10.00000000000005
 31
0.0
  0
LINE
  5
226CC
330
A
100
AcDbEntity
  8
10
  6
Continuous
100
AcDbLine
 10
-80.59999999999991
 20
10.00000000000005
 30
0.0
 11
-80.59999999999991
 21
11.50000000000005
 31
0.0
  0
LINE
  5
226CD
330
A
100
AcDbEntity
  8
10
  6
Continuous
100
AcDbLine
 10
-52.09999999999991
 20
11.50000000000005
 30
0.0
 11
-52.09999999999991
 21
10.00000000000005
 31
0.0
  0
LINE
  5
226CE
330
A
100
AcDbEntity
  8
10
  6
Continuous
100
AcDbLine
 10
-64.59999999999991
 20
11.50000000000005
 30
0.0
 11
-52.09999999999991
 21
11.50000000000005
 31
0.0
  0
LINE
  5
226CF
330
A
100
AcDbEntity
  8
10
  6
Continuous
100
AcDbLine
 10
-66.59999999999991
 20
11.50000000000005
 30
0.0
 11
-66.59999999999991
 21
10.00000000000005
 31
0.0
  0
LINE
  5
226D0
330
A
100
AcDbEntity
  8
10
  6
Continuous
100
AcDbLine
 10
-80.59999999999991
 20
10.00000000000005
 30
0.0
 11
-68.09999999999991
 21
10.00000000000005
 31
0.0
  0
LINE
  5
226D1
330
A
100
AcDbEntity
  8
10
  6
Continuous
100
AcDbLine
 10
-66.59999999999991
 20
10.00000000000005
 30
0.0
 11
-68.09999999999991
 21
10.00000000000005
 31
0.0
  0
LINE
  5
226D2
330
A
100
AcDbEntity
  8
10
  6
Continuous
100
AcDbLine
 10
-80.59999999999991
 20
7.999999999999147
 30
0.0
 11
-80.59999999999991
 21
10.00000000000005
 31
0.0
  0
LINE
  5
226D3
330
A
100
AcDbEntity
  8
10
  6
Continuous
100
AcDbLine
 10
-52.09999999999991
 20
10.00000000000005
 30
0.0
 11
-64.59999999999991
 21
10.00000000000005
 31
0.0
  0
LINE
  5
226D4
330
A
100
AcDbEntity
  8
10
  6
Continuous
100
AcDbLine
 10
-64.59999999999991
 20
6.500000000000056
 30
0.0
 11
-64.59999999999991
 21
7.999999999999147
 31
0.0
  0
LINE
  5
226D5
330
A
100
AcDbEntity
  8
10
  6
Continuous
100
AcDbLine
 10
-64.59999999999991
 20
7.999999999999147
 30
0.0
 11
-52.09999999999991
 21
7.999999999999147
 31
0.0
  0
LINE
  5
226D6
330
A
100
AcDbEntity
  8
10
  6
Continuous
100
AcDbLine
 10
-78.09999999999991
 20
7.999999999999147
 30
0.0
 11
-78.09999999999991
 21
6.500000000000056
 31
0.0
  0
LINE
  5
226D7
330
A
100
AcDbEntity
  8
10
  6
Continuous
100
AcDbLine
 10
-80.59999999999991
 20
6.500000000000056
 30
0.0
 11
-80.59999999999991
 21
7.999999999999147
 31
0.0
  0
LINE
  5
226D8
330
A
100
AcDbEntity
  8
10
  6
Continuous
100
AcDbLine
 10
-52.09999999999991
 20
7.999999999999147
 30
0.0
 11
-52.09999999999991
 21
6.500000000000056
 31
0.0
  0
LINE
  5
226D9
330
A
100
AcDbEntity
  8
10
  6
Continuous
100
AcDbLine
 10
-66.59999999999991
 20
7.999999999999147
 30
0.0
 11
-66.59999999999991
 21
6.500000000000056
 31
0.0
  0
LINE
  5
226DA
330
A
100
AcDbEntity
  8
10
  6
Continuous
100
AcDbLine
 10
-68.09999999999991
 20
7.999999999999147
 30
0.0
 11
-80.59999999999991
 21
7.999999999999147
 31
0.0
  0
LINE
  5
226DB
330
A
100
AcDbEntity
  8
10
  6
Continuous
100
AcDbLine
 10
-68.09999999999991
 20
7.999999999999147
 30
0.0
 11
-66.59999999999991
 21
7.999999999999147
 31
0.0
  0
LINE
  5
226DC
330
A
100
AcDbEntity
  8
10
  6
Continuous
100
AcDbLine
 10
-80.59999999999991
 20
7.000000000000056
 30
0.0
 11
-81.49997750000011
 21
7.000000000000056
 31
0.0
  0
LINE
  5
226DD
330
A
100
AcDbEntity
  8
10
  6
Continuous
100
AcDbLine
 10
-52.09999999999991
 20
6.500000000000056
 30
0.0
 11
-64.59999999999991
 21
6.500000000000056
 31
0.0
  0
LINE
  5
226DE
330
A
100
AcDbEntity
  8
10
  6
Continuous
100
AcDbLine
 10
-80.59999999999991
 20
6.500000000000056
 30
0.0
 11
-68.09999999999991
 21
6.500000000000056
 31
0.0
  0
LINE
  5
226DF
330
A
100
AcDbEntity
  8
10
  6
Continuous
100
AcDbLine
 10
-66.59999999999991
 20
6.500000000000056
 30
0.0
 11
-68.09999999999991
 21
6.500000000000056
 31
0.0
  0
LINE
  5
226E0
330
A
100
AcDbEntity
  8
10
  6
Continuous
100
AcDbLine
 10
-80.59999999999991
 20
-6.499999999999943
 30
0.0
 11
-80.59999999999991
 21
6.500000000000056
 31
0.0
  0
LINE
  5
226E1
330
A
100
AcDbEntity
  8
10
  6
Continuous
100
AcDbLine
 10
-49.59999999999991
 20
6.000000000000056
 30
0.0
 11
-35.09999999999991
 21
6.000000000000056
 31
0.0
  0
LINE
  5
226E2
330
A
100
AcDbEntity
  8
10
  6
Continuous
100
AcDbLine
 10
-49.59999999999991
 20
6.000000000000056
 30
0.0
 11
-49.59999999999991
 21
2.199999999999874
 31
0.0
  0
LINE
  5
226E3
330
A
100
AcDbEntity
  8
10
  6
Continuous
100
AcDbLine
 10
-47.79999999999972
 20
3.149999999999693
 30
0.0
 11
-46.29999999999973
 21
3.149999999999693
 31
0.0
  0
LINE
  5
226E4
330
A
100
AcDbEntity
  8
10
  6
Continuous
100
AcDbLine
 10
-47.79999999999972
 20
2.199999999999874
 30
0.0
 11
-47.79999999999972
 21
3.149999999999693
 31
0.0
  0
LINE
  5
226E5
330
A
100
AcDbEntity
  8
10
  6
Continuous
100
AcDbLine
 10
-46.29999999999973
 20
3.149999999999693
 30
0.0
 11
-46.29999999999973
 21
-0.2499999999999432
 31
0.0
  0
LINE
  5
226E6
330
A
100
AcDbEntity
  8
10
  6
Continuous
100
AcDbLine
 10
-49.59999999999991
 20
2.199999999999874
 30
0.0
 11
-47.79999999999972
 21
2.199999999999874
 31
0.0
  0
LINE
  5
226E7
330
A
100
AcDbEntity
  8
10
  6
Continuous
100
AcDbLine
 10
-49.59999999999991
 20
0.699999999999875
 30
0.0
 11
-49.59999999999991
 21
-5.999999999999943
 31
0.0
  0
LINE
  5
226E8
330
A
100
AcDbEntity
  8
10
  6
Continuous
100
AcDbLine
 10
-47.79999999999972
 20
0.699999999999875
 30
0.0
 11
-49.59999999999991
 21
0.699999999999875
 31
0.0
  0
LINE
  5
226E9
330
A
100
AcDbEntity
  8
10
  6
Continuous
100
AcDbLine
 10
-47.79999999999972
 20
-0.2499999999999432
 30
0.0
 11
-47.79999999999972
 21
0.699999999999875
 31
0.0
  0
LINE
  5
226EA
330
A
100
AcDbEntity
  8
10
  6
Continuous
100
AcDbLine
 10
-46.29999999999973
 20
-0.2499999999999432
 30
0.0
 11
-47.79999999999972
 21
-0.2499999999999432
 31
0.0
  0
LINE
  5
226EB
330
A
100
AcDbEntity
  8
10
  6
Continuous
100
AcDbLine
 10
-35.09999999999991
 20
-5.999999999999943
 30
0.0
 11
-49.59999999999991
 21
-5.999999999999943
 31
0.0
  0
LINE
  5
226EC
330
A
100
AcDbEntity
  8
10
  6
Continuous
100
AcDbLine
 10
-64.59999999999991
 20
-7.999999999999943
 30
0.0
 11
-64.59999999999991
 21
-6.499999999999943
 31
0.0
  0
LINE
  5
226ED
330
A
100
AcDbEntity
  8
10
  6
Continuous
100
AcDbLine
 10
-78.09999999999991
 20
-6.499999999999943
 30
0.0
 11
-78.09999999999991
 21
-7.999999999999943
 31
0.0
  0
LINE
  5
226EE
330
A
100
AcDbEntity
  8
10
  6
Continuous
100
AcDbLine
 10
-80.59999999999991
 20
-7.999999999999943
 30
0.0
 11
-80.59999999999991
 21
-6.499999999999943
 31
0.0
  0
LINE
  5
226EF
330
A
100
AcDbEntity
  8
10
  6
Continuous
100
AcDbLine
 10
-68.09999999999991
 20
-6.499999999999943
 30
0.0
 11
-80.59999999999991
 21
-6.499999999999943
 31
0.0
  0
LINE
  5
226F0
330
A
100
AcDbEntity
  8
10
  6
Continuous
100
AcDbLine
 10
-68.09999999999991
 20
-6.499999999999943
 30
0.0
 11
-66.59999999999991
 21
-6.499999999999943
 31
0.0
  0
LINE
  5
226F1
330
A
100
AcDbEntity
  8
10
  6
Continuous
100
AcDbLine
 10
-66.59999999999991
 20
-6.499999999999943
 30
0.0
 11
-66.59999999999991
 21
-7.999999999999943
 31
0.0
  0
LINE
  5
226F2
330
A
100
AcDbEntity
  8
10
  6
Continuous
100
AcDbLine
 10
-64.59999999999991
 20
-6.499999999999943
 30
0.0
 11
-52.09999999999991
 21
-6.499999999999943
 31
0.0
  0
LINE
  5
226F3
330
A
100
AcDbEntity
  8
10
  6
Continuous
100
AcDbLine
 10
-52.09999999999991
 20
-6.499999999999943
 30
0.0
 11
-52.09999999999991
 21
-7.999999999999943
 31
0.0
  0
LINE
  5
226F4
330
A
100
AcDbEntity
  8
10
  6
Continuous
100
AcDbLine
 10
-34.09999999999991
 20
-17.99999999999994
 30
0.0
 11
-34.09999999999991
 21
-7.000000000000852
 31
0.0
  0
LINE
  5
226F5
330
A
100
AcDbEntity
  8
10
  6
Continuous
100
AcDbLine
 10
-80.59999999999991
 20
-7.000000000000852
 30
0.0
 11
-81.49997750000011
 21
-7.000000000000852
 31
0.0
  0
LINE
  5
226F6
330
A
100
AcDbEntity
  8
10
  6
Continuous
100
AcDbLine
 10
-52.09999999999991
 20
-7.999999999999943
 30
0.0
 11
-64.59999999999991
 21
-7.999999999999943
 31
0.0
  0
LINE
  5
226F7
330
A
100
AcDbEntity
  8
10
  6
Continuous
100
AcDbLine
 10
-80.59999999999991
 20
-7.999999999999943
 30
0.0
 11
-68.09999999999991
 21
-7.999999999999943
 31
0.0
  0
LINE
  5
226F8
330
A
100
AcDbEntity
  8
10
  6
Continuous
100
AcDbLine
 10
-66.59999999999991
 20
-7.999999999999943
 30
0.0
 11
-68.09999999999991
 21
-7.999999999999943
 31
0.0
  0
LINE
  5
226F9
330
A
100
AcDbEntity
  8
10
  6
Continuous
100
AcDbLine
 10
-80.59999999999991
 20
-9.999999999999943
 30
0.0
 11
-80.59999999999991
 21
-7.999999999999943
 31
0.0
  0
LINE
  5
226FA
330
A
100
AcDbEntity
  8
10
  6
Continuous
100
AcDbLine
 10
-64.59999999999991
 20
-11.49999999999994
 30
0.0
 11
-64.59999999999991
 21
-9.999999999999943
 31
0.0
  0
LINE
  5
226FB
330
A
100
AcDbEntity
  8
10
  6
Continuous
100
AcDbLine
 10
-66.59999999999991
 20
-9.999999999999943
 30
0.0
 11
-66.59999999999991
 21
-11.49999999999994
 31
0.0
  0
LINE
  5
226FC
330
A
100
AcDbEntity
  8
10
  6
Continuous
100
AcDbLine
 10
-52.09999999999991
 20
-9.999999999999943
 30
0.0
 11
-52.09999999999991
 21
-11.49999999999994
 31
0.0
  0
LINE
  5
226FD
330
A
100
AcDbEntity
  8
10
  6
Continuous
100
AcDbLine
 10
-78.09999999999991
 20
-9.999999999999943
 30
0.0
 11
-78.09999999999991
 21
-11.49999999999994
 31
0.0
  0
LINE
  5
226FE
330
A
100
AcDbEntity
  8
10
  6
Continuous
100
AcDbLine
 10
-80.59999999999991
 20
-11.49999999999994
 30
0.0
 11
-80.59999999999991
 21
-9.999999999999943
 31
0.0
  0
LINE
  5
226FF
330
A
100
AcDbEntity
  8
10
  6
Continuous
100
AcDbLine
 10
-68.09999999999991
 20
-9.999999999999943
 30
0.0
 11
-80.59999999999991
 21
-9.999999999999943
 31
0.0
  0
LINE
  5
22700
330
A
100
AcDbEntity
  8
10
  6
Continuous
100
AcDbLine
 10
-68.09999999999991
 20
-9.999999999999943
 30
0.0
 11
-66.59999999999991
 21
-9.999999999999943
 31
0.0
  0
LINE
  5
22701
330
A
100
AcDbEntity
  8
10
  6
Continuous
100
AcDbLine
 10
-64.59999999999991
 20
-9.999999999999943
 30
0.0
 11
-52.09999999999991
 21
-9.999999999999943
 31
0.0
  0
LINE
  5
22702
330
A
100
AcDbEntity
  8
10
  6
Continuous
100
AcDbLine
 10
-52.09999999999991
 20
-11.49999999999994
 30
0.0
 11
-64.59999999999991
 21
-11.49999999999994
 31
0.0
  0
LINE
  5
22703
330
A
100
AcDbEntity
  8
10
  6
Continuous
100
AcDbLine
 10
-80.59999999999991
 20
-13.49999999999994
 30
0.0
 11
-80.59999999999991
 21
-11.49999999999994
 31
0.0
  0
LINE
  5
22704
330
A
100
AcDbEntity
  8
10
  6
Continuous
100
AcDbLine
 10
-80.59999999999991
 20
-11.49999999999994
 30
0.0
 11
-68.09999999999991
 21
-11.49999999999994
 31
0.0
  0
LINE
  5
22705
330
A
100
AcDbEntity
  8
10
  6
Continuous
100
AcDbLine
 10
-66.59999999999991
 20
-11.49999999999994
 30
0.0
 11
-68.09999999999991
 21
-11.49999999999994
 31
0.0
  0
LINE
  5
22706
330
A
100
AcDbEntity
  8
10
  6
Continuous
100
AcDbLine
 10
-78.09999999999991
 20
-13.49999999999994
 30
0.0
 11
-78.09999999999991
 21
-14.99999999999994
 31
0.0
  0
LINE
  5
22707
330
A
100
AcDbEntity
  8
10
  6
Continuous
100
AcDbLine
 10
-80.59999999999991
 20
-14.99999999999994
 30
0.0
 11
-80.59999999999991
 21
-13.49999999999994
 31
0.0
  0
LINE
  5
22708
330
A
100
AcDbEntity
  8
10
  6
Continuous
100
AcDbLine
 10
-68.09999999999991
 20
-13.49999999999994
 30
0.0
 11
-80.59999999999991
 21
-13.49999999999994
 31
0.0
  0
LINE
  5
22709
330
A
100
AcDbEntity
  8
10
  6
Continuous
100
AcDbLine
 10
-68.09999999999991
 20
-13.49999999999994
 30
0.0
 11
-66.59999999999991
 21
-13.49999999999994
 31
0.0
  0
LINE
  5
2270A
330
A
100
AcDbEntity
  8
10
  6
Continuous
100
AcDbLine
 10
-64.59999999999991
 20
-13.49999999999994
 30
0.0
 11
-52.09999999999991
 21
-13.49999999999994
 31
0.0
  0
LINE
  5
2270B
330
A
100
AcDbEntity
  8
10
  6
Continuous
100
AcDbLine
 10
-64.59999999999991
 20
-14.99999999999994
 30
0.0
 11
-64.59999999999991
 21
-13.49999999999994
 31
0.0
  0
LINE
  5
2270C
330
A
100
AcDbEntity
  8
10
  6
Continuous
100
AcDbLine
 10
-66.59999999999991
 20
-13.49999999999994
 30
0.0
 11
-66.59999999999991
 21
-14.99999999999994
 31
0.0
  0
LINE
  5
2270D
330
A
100
AcDbEntity
  8
10
  6
Continuous
100
AcDbLine
 10
-52.09999999999991
 20
-13.49999999999994
 30
0.0
 11
-52.09999999999991
 21
-14.99999999999994
 31
0.0
  0
LINE
  5
2270E
330
A
100
AcDbEntity
  8
10
  6
Continuous
100
AcDbLine
 10
-80.59999999999991
 20
-14.99999999999994
 30
0.0
 11
-68.09999999999991
 21
-14.99999999999994
 31
0.0
  0
LINE
  5
2270F
330
A
100
AcDbEntity
  8
10
  6
Continuous
100
AcDbLine
 10
-66.59999999999991
 20
-14.99999999999994
 30
0.0
 11
-68.09999999999991
 21
-14.99999999999994
 31
0.0
  0
LINE
  5
22710
330
A
100
AcDbEntity
  8
10
  6
Continuous
100
AcDbLine
 10
-80.59999999999991
 20
-17.00000000000085
 30
0.0
 11
-80.59999999999991
 21
-14.99999999999994
 31
0.0
  0
LINE
  5
22711
330
A
100
AcDbEntity
  8
10
  6
Continuous
100
AcDbLine
 10
-52.09999999999991
 20
-14.99999999999994
 30
0.0
 11
-64.59999999999991
 21
-14.99999999999994
 31
0.0
  0
LINE
  5
22712
330
A
100
AcDbEntity
  8
10
  6
Continuous
100
AcDbLine
 10
-80.59999999999991
 20
-14.99999999999994
 30
0.0
 11
-81.49997750000011
 21
-14.99999999999994
 31
0.0
  0
LINE
  5
22713
330
A
100
AcDbEntity
  8
10
  6
Continuous
100
AcDbLine
 10
-66.59999999999991
 20
-17.00000000000085
 30
0.0
 11
-66.59999999999991
 21
-18.49999999999994
 31
0.0
  0
LINE
  5
22714
330
A
100
AcDbEntity
  8
10
  6
Continuous
100
AcDbLine
 10
-52.09999999999991
 20
-17.00000000000085
 30
0.0
 11
-52.09999999999991
 21
-18.49999999999994
 31
0.0
  0
LINE
  5
22715
330
A
100
AcDbEntity
  8
10
  6
Continuous
100
AcDbLine
 10
-78.09999999999991
 20
-17.00000000000085
 30
0.0
 11
-78.09999999999991
 21
-18.49999999999994
 31
0.0
  0
LINE
  5
22716
330
A
100
AcDbEntity
  8
10
  6
Continuous
100
AcDbLine
 10
-80.59999999999991
 20
-18.49999999999994
 30
0.0
 11
-80.59999999999991
 21
-17.00000000000085
 31
0.0
  0
LINE
  5
22717
330
A
100
AcDbEntity
  8
10
  6
Continuous
100
AcDbLine
 10
-64.59999999999991
 20
-18.49999999999994
 30
0.0
 11
-64.59999999999991
 21
-17.00000000000085
 31
0.0
  0
LINE
  5
22718
330
A
100
AcDbEntity
  8
10
  6
Continuous
100
AcDbLine
 10
-64.59999999999991
 20
-17.00000000000085
 30
0.0
 11
-52.09999999999991
 21
-17.00000000000085
 31
0.0
  0
LINE
  5
22719
330
A
100
AcDbEntity
  8
10
  6
Continuous
100
AcDbLine
 10
-68.09999999999991
 20
-17.00000000000085
 30
0.0
 11
-80.59999999999991
 21
-17.00000000000085
 31
0.0
  0
LINE
  5
2271A
330
A
100
AcDbEntity
  8
10
  6
Continuous
100
AcDbLine
 10
-68.09999999999991
 20
-17.00000000000085
 30
0.0
 11
-66.59999999999991
 21
-17.00000000000085
 31
0.0
  0
LINE
  5
2271B
330
A
100
AcDbEntity
  8
10
  6
Continuous
100
AcDbLine
 10
-80.59999999999991
 20
-18.49999999999994
 30
0.0
 11
-68.09999999999991
 21
-18.49999999999994
 31
0.0
  0
LINE
  5
2271C
330
A
100
AcDbEntity
  8
10
  6
Continuous
100
AcDbLine
 10
-66.59999999999991
 20
-18.49999999999994
 30
0.0
 11
-68.09999999999991
 21
-18.49999999999994
 31
0.0
  0
LINE
  5
2271D
330
A
100
AcDbEntity
  8
10
  6
Continuous
100
AcDbLine
 10
-52.09999999999991
 20
-18.49999999999994
 30
0.0
 11
-64.59999999999991
 21
-18.49999999999994
 31
0.0
  0
LINE
  5
2271E
330
A
100
AcDbEntity
  8
10
  6
Continuous
100
AcDbLine
 10
-80.59999999999991
 20
-23.69999999999976
 30
0.0
 11
-80.59999999999991
 21
-18.49999999999994
 31
0.0
  0
LINE
  5
2271F
330
A
100
AcDbEntity
  8
10
  6
Continuous
100
AcDbLine
 10
-49.59999999999991
 20
-18.99999999999994
 30
0.0
 11
-35.09999999999991
 21
-18.99999999999994
 31
0.0
  0
LINE
  5
22720
330
A
100
AcDbEntity
  8
10
  6
Continuous
100
AcDbLine
 10
-49.59999999999991
 20
-18.99999999999994
 30
0.0
 11
-49.59999999999991
 21
-23.69999999999976
 31
0.0
  0
LINE
  5
22721
330
A
100
AcDbEntity
  8
10
  6
Continuous
100
AcDbLine
 10
-46.29999999999973
 20
-22.90000000000049
 30
0.0
 11
-46.29999999999973
 21
-23.69999999999976
 31
0.0
  0
LINE
  5
22722
330
A
100
AcDbEntity
  8
10
  6
Continuous
100
AcDbLine
 10
-47.79999999999972
 20
-22.90000000000049
 30
0.0
 11
-46.29999999999973
 21
-22.90000000000049
 31
0.0
  0
LINE
  5
22723
330
A
100
AcDbEntity
  8
10
  6
Continuous
100
AcDbLine
 10
-47.79999999999972
 20
-23.69999999999976
 30
0.0
 11
-47.79999999999972
 21
-22.90000000000049
 31
0.0
  0
LINE
  5
22724
330
A
100
AcDbEntity
  8
10
  6
Continuous
100
AcDbLine
 10
-68.09999999999991
 20
-24.70000000000067
 30
0.0
 11
-79.59999999999991
 21
-24.70000000000067
 31
0.0
  0
LINE
  5
22725
330
A
100
AcDbEntity
  8
10
  6
Continuous
100
AcDbLine
 10
-49.59999999999991
 20
-23.69999999999976
 30
0.0
 11
-47.79999999999972
 21
-23.69999999999976
 31
0.0
  0
LINE
  5
22726
330
A
100
AcDbEntity
  8
10
  6
Continuous
100
AcDbLine
 10
-46.29999999999973
 20
-24.70000000000067
 30
0.0
 11
-68.09999999999991
 21
-24.70000000000067
 31
0.0
  0
LINE
  5
22727
330
A
100
AcDbEntity
  8
10
  6
Continuous
100
AcDbLine
 10
-46.29999999999973
 20
-23.69999999999976
 30
0.0
 11
-46.29999999999973
 21
-24.70000000000067
 31
0.0
  0
LINE
  5
22728
330
A
100
AcDbEntity
  8
10
  6
Continuous
100
AcDbLine
 10
25.5
 20
-2.000000000000852
 30
0.0
 11
-24.5
 21
-2.000000000000852
 31
0.0
  0
LINE
  5
22729
330
A
100
AcDbEntity
  8
10
  6
Continuous
100
AcDbLine
 10
-16.5
 20
-7.000000000000852
 30
0.0
 11
-19.86538500000006
 21
-7.000000000000852
 31
0.0
  0
LINE
  5
2272A
330
A
100
AcDbEntity
  8
10
  6
Continuous
100
AcDbLine
 10
-14.5
 20
-7.000000000000852
 30
0.0
 11
-16.5
 21
-7.000000000000852
 31
0.0
  0
LINE
  5
2272B
330
A
100
AcDbEntity
  8
10
  6
Continuous
100
AcDbLine
 10
25.5
 20
23.50000000000006
 30
0.0
 11
-24.5
 21
23.50000000000006
 31
0.0
  0
LINE
  5
2272C
330
A
100
AcDbEntity
  8
10
  6
Continuous
100
AcDbLine
 10
-81.5
 20
-6.499999999999943
 30
0.0
 11
-80.60001499999998
 21
-6.499999999999943
 31
0.0
  0
LINE
  5
2272D
330
A
100
AcDbEntity
  8
10
  6
Continuous
100
AcDbLine
 10
-81.5
 20
6.500000000000056
 30
0.0
 11
-80.60001499999998
 21
6.500000000000056
 31
0.0
  0
LINE
  5
2272E
330
A
100
AcDbEntity
  8
10
  6
Continuous
100
AcDbLine
 10
-81.5
 20
15.49999999999915
 30
0.0
 11
-80.60001499999998
 21
15.49999999999915
 31
0.0
  0
LINE
  5
2272F
330
A
100
AcDbEntity
  8
10
  6
Continuous
100
AcDbLine
 10
83.0
 20
1.500000000000056
 30
0.0
 11
82.699975
 21
1.800024999999607
 31
0.0
  0
LINE
  5
22730
330
A
100
AcDbEntity
  8
10
  6
Continuous
100
AcDbLine
 10
83.0
 20
21.50000000000006
 30
0.0
 11
82.699975
 21
21.1999749999996
 31
0.0
  0
LINE
  5
22731
330
A
100
AcDbEntity
  8
10
  6
Continuous
100
AcDbLine
 10
-81.5
 20
-15.49999999999994
 30
0.0
 11
-80.60001499999998
 21
-15.49999999999994
 31
0.0
  0
LINE
  5
22732
330
A
100
AcDbEntity
  8
10
  6
Continuous
100
AcDbLine
 10
-81.5
 20
-1.499999999999943
 30
0.0
 11
-80.60001499999998
 21
-2.399984999999958
 31
0.0
  0
LINE
  5
22733
330
A
100
AcDbEntity
  8
10
  6
Continuous
100
AcDbLine
 10
-80.60001499999998
 20
20.60001500000004
 30
0.0
 11
-81.5
 21
21.50000000000006
 31
0.0
  0
LINE
  5
22734
330
A
100
AcDbEntity
  8
10
  6
Continuous
100
AcDbLine
 10
-81.5
 20
-21.49999999999995
 30
0.0
 11
-80.60001499999998
 21
-20.60001499999993
 31
0.0
  0
LINE
  5
22735
330
A
100
AcDbEntity
  8
10
  6
Continuous
100
AcDbLine
 10
82.5
 20
-21.49999999999995
 30
0.0
 11
49.99954000000025
 21
-21.49999999999995
 31
0.0
  0
LINE
  5
22736
330
A
100
AcDbEntity
  8
10
  6
Continuous
100
AcDbLine
 10
-80.59974250000005
 20
-21.49999999999995
 30
0.0
 11
-81.5
 21
-21.49999999999995
 31
0.0
  0
LINE
  5
22737
330
A
100
AcDbEntity
  8
10
  6
Continuous
100
AcDbLine
 10
49.99954000000025
 20
21.50000000000006
 30
0.0
 11
82.5
 21
21.50000000000006
 31
0.0
  0
LINE
  5
22738
330
A
100
AcDbEntity
  8
10
  6
Continuous
100
AcDbLine
 10
-80.59974250000005
 20
21.50000000000006
 30
0.0
 11
-81.5
 21
21.50000000000006
 31
0.0
  0
LINE
  5
22739
330
A
100
AcDbEntity
  8
10
  6
Continuous
100
AcDbLine
 10
-81.5
 20
-1.499999999999943
 30
0.0
 11
-80.5999324999998
 21
-1.499999999999943
 31
0.0
  0
LINE
  5
2273A
330
A
100
AcDbEntity
  8
10
  6
Continuous
100
AcDbLine
 10
83.0
 20
7.500000000000056
 30
0.0
 11
82.69978000000037
 21
7.500000000000056
 31
0.0
  0
LINE
  5
2273B
330
A
100
AcDbEntity
  8
10
  6
Continuous
100
AcDbLine
 10
-81.5
 20
1.500000000000056
 30
0.0
 11
-80.5999324999998
 21
1.500000000000056
 31
0.0
  0
LINE
  5
2273C
330
A
100
AcDbEntity
  8
10
  6
Continuous
100
AcDbLine
 10
82.69978000000037
 20
17.50000000000006
 30
0.0
 11
83.0
 21
17.50000000000006
 31
0.0
  0
LINE
  5
2273D
330
A
100
AcDbEntity
  8
10
  6
Continuous
100
AcDbLine
 10
82.69993750000002
 20
-6.499999999999943
 30
0.0
 11
83.0
 21
-6.499999999999943
 31
0.0
  0
LINE
  5
2273E
330
A
100
AcDbEntity
  8
10
  6
Continuous
100
AcDbLine
 10
83.0
 20
-16.49999999999994
 30
0.0
 11
82.69993750000002
 21
-16.49999999999994
 31
0.0
  0
LINE
  5
2273F
330
A
100
AcDbEntity
  8
10
  6
Continuous
100
AcDbLine
 10
82.69996000000038
 20
1.500000000000056
 30
0.0
 11
83.0
 21
1.500000000000056
 31
0.0
  0
LINE
  5
22740
330
A
100
AcDbEntity
  8
10
  6
Continuous
100
AcDbLine
 10
82.699975
 20
-1.800025000000402
 30
0.0
 11
83.0
 21
-1.499999999999943
 31
0.0
  0
LINE
  5
22741
330
A
100
AcDbEntity
  8
10
  6
Continuous
100
AcDbLine
 10
82.699975
 20
-21.19997500000039
 30
0.0
 11
83.0
 21
-21.49999999999995
 31
0.0
  0
LINE
  5
22742
330
A
100
AcDbEntity
  8
10
  6
Continuous
100
AcDbLine
 10
83.0
 20
-1.499999999999943
 30
0.0
 11
82.69996000000038
 21
-1.499999999999943
 31
0.0
  0
LINE
  5
22743
330
A
100
AcDbEntity
  8
10
  6
Continuous
100
AcDbLine
 10
59.0
 20
-21.49999999999995
 30
0.0
 11
59.0
 21
-21.19996750000058
 31
0.0
  0
LINE
  5
22744
330
A
100
AcDbEntity
  8
10
  6
Continuous
100
AcDbLine
 10
-81.5
 20
1.500000000000056
 30
0.0
 11
-80.60001499999998
 21
2.399984999999162
 31
0.0
  0
LINE
  5
22745
330
A
100
AcDbEntity
  8
10
  6
Continuous
100
AcDbLine
 10
86.5
 20
-30.0000000000008
 30
0.0
 11
-106.0
 21
-30.0000000000008
 31
0.0
  0
LINE
  5
22746
330
A
100
AcDbEntity
  8
10
  6
Continuous
100
AcDbLine
 10
-46.0
 20
-24.99999999999995
 30
0.0
 11
82.5
 21
-24.99999999999995
 31
0.0
  0
LINE
  5
22747
330
A
100
AcDbEntity
  8
10
  6
Continuous
100
AcDbLine
 10
106.0
 20
-30.0000000000008
 30
0.0
 11
86.5
 21
-30.0000000000008
 31
0.0
  0
LINE
  5
22748
330
A
100
AcDbEntity
  8
10
  6
Continuous
100
AcDbLine
 10
-86.5
 20
29.99999999999989
 30
0.0
 11
106.0
 21
29.99999999999989
 31
0.0
  0
LINE
  5
22749
330
A
100
AcDbEntity
  8
10
  6
Continuous
100
AcDbLine
 10
-106.0
 20
29.99999999999989
 30
0.0
 11
-86.5
 21
29.99999999999989
 31
0.0
  0
LINE
  5
2274A
330
A
100
AcDbEntity
  8
10
  6
Continuous
100
AcDbLine
 10
-90.5
 20
22.50000000000006
 30
0.0
 11
-90.5
 21
25.99999999999989
 31
0.0
  0
LINE
  5
2274B
330
A
100
AcDbEntity
  8
10
  6
Continuous
100
AcDbLine
 10
-110.0
 20
12.50000000000005
 30
0.0
 11
-110.0
 21
25.99999999999989
 31
0.0
  0
LINE
  5
2274C
330
A
100
AcDbEntity
  8
10
  6
Continuous
100
AcDbLine
 10
110.0
 20
25.99999999999989
 30
0.0
 11
110.0
 21
-12.49999999999994
 31
0.0
  0
LINE
  5
2274D
330
A
100
AcDbEntity
  8
10
  6
Continuous
100
AcDbLine
 10
-95.41885999999976
 20
24.75000000000006
 30
0.0
 11
-100.5811399999998
 21
24.75000000000006
 31
0.0
  0
LINE
  5
2274E
330
A
100
AcDbEntity
  8
10
  6
Continuous
100
AcDbLine
 10
83.0
 20
22.00000000000006
 30
0.0
 11
83.0
 21
24.50000000000006
 31
0.0
  0
LINE
  5
2274F
330
A
100
AcDbEntity
  8
10
  6
Continuous
100
AcDbLine
 10
83.0
 20
-21.49999999999995
 30
0.0
 11
83.0
 21
21.50000000000006
 31
0.0
  0
LINE
  5
22750
330
A
100
AcDbEntity
  8
10
  6
Continuous
100
AcDbLine
 10
83.0
 20
21.50000000000006
 30
0.0
 11
82.5
 21
21.50000000000006
 31
0.0
  0
LINE
  5
22751
330
A
100
AcDbEntity
  8
10
  6
Continuous
100
AcDbLine
 10
-81.5
 20
21.50000000000006
 30
0.0
 11
-81.5
 21
-21.49999999999995
 31
0.0
  0
LINE
  5
22752
330
A
100
AcDbEntity
  8
10
  6
Continuous
100
AcDbLine
 10
-95.41885999999976
 20
20.25000000000006
 30
0.0
 11
-100.5811399999998
 21
20.25000000000006
 31
0.0
  0
LINE
  5
22753
330
A
100
AcDbEntity
  8
10
  6
Continuous
100
AcDbLine
 10
84.0
 20
17.00000000000005
 30
0.0
 11
94.0
 21
17.00000000000005
 31
0.0
  0
LINE
  5
22754
330
A
100
AcDbEntity
  8
10
  6
Continuous
100
AcDbLine
 10
87.0
 20
14.00000000000005
 30
0.0
 11
84.0
 21
17.00000000000005
 31
0.0
  0
LINE
  5
22755
330
A
100
AcDbEntity
  8
10
  6
Continuous
100
AcDbLine
 10
84.0
 20
7.999999999999147
 30
0.0
 11
84.0
 21
17.00000000000005
 31
0.0
  0
LINE
  5
22756
330
A
100
AcDbEntity
  8
10
  6
Continuous
100
AcDbLine
 10
94.0
 20
17.00000000000005
 30
0.0
 11
91.0
 21
14.00000000000005
 31
0.0
  0
LINE
  5
22757
330
A
100
AcDbEntity
  8
10
  6
Continuous
100
AcDbLine
 10
94.0
 20
17.00000000000005
 30
0.0
 11
94.0
 21
7.999999999999147
 31
0.0
  0
LINE
  5
22758
330
A
100
AcDbEntity
  8
10
  6
Continuous
100
AcDbLine
 10
-106.0
 20
16.50000000000005
 30
0.0
 11
-96.5
 21
16.50000000000005
 31
0.0
  0
LINE
  5
22759
330
A
100
AcDbEntity
  8
10
  6
Continuous
100
AcDbLine
 10
91.0
 20
14.00000000000005
 30
0.0
 11
87.0
 21
14.00000000000005
 31
0.0
  0
LINE
  5
2275A
330
A
100
AcDbEntity
  8
10
  6
Continuous
100
AcDbLine
 10
91.0
 20
11.00000000000005
 30
0.0
 11
91.0
 21
14.00000000000005
 31
0.0
  0
LINE
  5
2275B
330
A
100
AcDbEntity
  8
10
  6
Continuous
100
AcDbLine
 10
87.0
 20
14.00000000000005
 30
0.0
 11
87.0
 21
11.00000000000005
 31
0.0
  0
LINE
  5
2275C
330
A
100
AcDbEntity
  8
10
  6
Continuous
100
AcDbLine
 10
-110.0
 20
-26.00000000000068
 30
0.0
 11
-110.0
 21
12.50000000000005
 31
0.0
  0
LINE
  5
2275D
330
A
100
AcDbEntity
  8
10
  6
Continuous
100
AcDbLine
 10
87.0
 20
11.00000000000005
 30
0.0
 11
91.0
 21
11.00000000000005
 31
0.0
  0
LINE
  5
2275E
330
A
100
AcDbEntity
  8
10
  6
Continuous
100
AcDbLine
 10
94.0
 20
7.999999999999147
 30
0.0
 11
91.0
 21
11.00000000000005
 31
0.0
  0
LINE
  5
2275F
330
A
100
AcDbEntity
  8
10
  6
Continuous
100
AcDbLine
 10
87.0
 20
11.00000000000005
 30
0.0
 11
84.0
 21
7.999999999999147
 31
0.0
  0
LINE
  5
22760
330
A
100
AcDbEntity
  8
10
  6
Continuous
100
AcDbLine
 10
94.0
 20
7.999999999999147
 30
0.0
 11
84.0
 21
7.999999999999147
 31
0.0
  0
LINE
  5
22761
330
A
100
AcDbEntity
  8
10
  6
Continuous
100
AcDbLine
 10
110.0
 20
-12.49999999999994
 30
0.0
 11
110.0
 21
-26.00000000000068
 31
0.0
  0
LINE
  5
22762
330
A
100
AcDbEntity
  8
10
  6
Continuous
100
AcDbLine
 10
106.0
 20
-16.49999999999994
 30
0.0
 11
96.5
 21
-16.49999999999994
 31
0.0
  0
LINE
  5
22763
330
A
100
AcDbEntity
  8
10
  6
Continuous
100
AcDbLine
 10
100.5811400000002
 20
-20.24999999999995
 30
0.0
 11
95.41886000000022
 21
-20.24999999999995
 31
0.0
  0
LINE
  5
22764
330
A
100
AcDbEntity
  8
10
  6
Continuous
100
AcDbLine
 10
82.5
 20
-21.49999999999995
 30
0.0
 11
83.0
 21
-21.49999999999995
 31
0.0
  0
LINE
  5
22765
330
A
100
AcDbEntity
  8
10
  6
Continuous
100
AcDbLine
 10
83.0
 20
-24.50000000000085
 30
0.0
 11
83.0
 21
-22.00000000000085
 31
0.0
  0
LINE
  5
22766
330
A
100
AcDbEntity
  8
10
  6
Continuous
100
AcDbLine
 10
90.5
 20
-22.49999999999994
 30
0.0
 11
90.5
 21
-26.00000000000068
 31
0.0
  0
LINE
  5
22767
330
A
100
AcDbEntity
  8
10
  6
Continuous
100
AcDbLine
 10
100.5811400000002
 20
-24.74999999999994
 30
0.0
 11
95.41886000000022
 21
-24.74999999999994
 31
0.0
  0
LINE
  5
22768
330
A
100
AcDbEntity
  8
10
  6
Continuous
100
AcDbLine
 10
82.5
 20
25.00000000000006
 30
0.0
 11
-46.0
 21
25.00000000000006
 31
0.0
  0
ARC
  5
22769
330
A
100
AcDbEntity
  8
10
  6
Continuous
100
AcDbCircle
 10
42.40000000000009
 20
0.0000000000000568
 30
0.0
 40
3.9
210
0.0
220
0.0
230
-1.0
100
AcDbArc
 50
63.82304799998738
 51
180.0
  0
ARC
  5
2276A
330
A
100
AcDbEntity
  8
10
  6
Continuous
100
AcDbCircle
 10
42.0
 20
0.0000000000000568
 30
0.0
 40
2.5
210
0.0
220
0.0
230
-1.0
100
AcDbArc
 50
281.7618680000032
 51
0.0
  0
ARC
  5
2276B
330
A
100
AcDbEntity
  8
10
  6
Continuous
100
AcDbCircle
 10
42.0
 20
0.0000000000000568
 30
0.0
 40
2.5
210
0.0
220
0.0
230
-1.0
100
AcDbArc
 50
0.0
 51
78.24374700000018
  0
ARC
  5
2276C
330
A
100
AcDbEntity
  8
10
  6
Continuous
100
AcDbCircle
 10
-42.0
 20
0.0000000000000568
 30
0.0
 40
2.5
210
0.0
220
0.0
230
-1.0
100
AcDbArc
 50
101.7562330000034
 51
258.23811199999
  0
ARC
  5
2276D
330
A
100
AcDbEntity
  8
10
  6
Continuous
100
AcDbCircle
 10
-42.40000000000009
 20
0.0000000000000568
 30
0.0
 40
3.9
210
0.0
220
0.0
230
-1.0
100
AcDbArc
 50
0.0
 51
172.6341139999947
  0
ARC
  5
2276E
330
A
100
AcDbEntity
  8
10
  6
Continuous
100
AcDbCircle
 10
-42.40000000000009
 20
0.0000000000000568
 30
0.0
 40
3.9
210
0.0
220
0.0
230
-1.0
100
AcDbArc
 50
243.8230479999874
 51
0.0
  0
ARC
  5
2276F
330
A
100
AcDbEntity
  8
10
  6
Continuous
100
AcDbCircle
 10
42.40000000000009
 20
0.0000000000000568
 30
0.0
 40
3.9
210
0.0
220
0.0
230
-1.0
100
AcDbArc
 50
180.0
 51
352.6341139999947
  0
CIRCLE
  5
22770
330
A
100
AcDbEntity
  8
10
  6
Continuous
100
AcDbCircle
 10
42.40000000000009
 20
0.0000000000000568
 30
0.0
 40
2.45
210
0.0
220
0.0
230
-1.0
  0
CIRCLE
  5
22771
330
A
100
AcDbEntity
  8
10
  6
Continuous
100
AcDbCircle
 10
-42.40000000000009
 20
0.0000000000000568
 30
0.0
 40
2.45
210
0.0
220
0.0
230
-1.0
  0
ARC
  5
22772
330
A
100
AcDbEntity
  8
10
  6
Continuous
100
AcDbCircle
 10
68.5
 20
18.19999999999987
 30
0.0
 40
1.0
210
0.0
220
0.0
230
-1.0
100
AcDbArc
 50
0.0
 51
17.45859700000007
  0
CIRCLE
  5
22773
330
A
100
AcDbEntity
  8
10
  6
Continuous
100
AcDbCircle
 10
-42.0
 20
12.49999999999988
 30
0.0
 40
5.0
210
0.0
220
0.0
230
-1.0
  0
CIRCLE
  5
22774
330
A
100
AcDbEntity
  8
10
  6
Continuous
100
AcDbCircle
 10
-42.0
 20
-12.50000000000011
 30
0.0
 40
5.0
210
0.0
220
0.0
230
-1.0
  0
ARC
  5
22775
330
A
100
AcDbEntity
  8
10
  6
Continuous
100
AcDbCircle
 10
-40.0
 20
-17.49999999999994
 30
0.0
 40
4.25
100
AcDbArc
 50
90.0
 51
95.24812500000143
  0
ARC
  5
22776
330
A
100
AcDbEntity
  8
10
  6
Continuous
100
AcDbCircle
 10
-40.0
 20
-17.49999999999994
 30
0.0
 40
4.25
100
AcDbArc
 50
200.6718880000001
 51
216.0337630000083
  0
ARC
  5
22777
330
A
100
AcDbEntity
  8
10
  6
Continuous
100
AcDbCircle
 10
-40.0
 20
-17.49999999999994
 30
0.0
 40
4.25
100
AcDbArc
 50
323.9662380000009
 51
339.3281130000023
  0
ARC
  5
22778
330
A
100
AcDbEntity
  8
10
  6
Continuous
100
AcDbCircle
 10
-40.0
 20
-17.49999999999994
 30
0.0
 40
4.25
100
AcDbArc
 50
64.34436500000511
 51
90.0
  0
ARC
  5
22779
330
A
100
AcDbEntity
  8
10
  6
Continuous
100
AcDbCircle
 10
79.59999999999991
 20
23.69999999999988
 30
0.0
 40
1.0
210
0.0
220
0.0
230
-1.0
100
AcDbArc
 50
0.0
 51
90.0
  0
ARC
  5
2277A
330
A
100
AcDbEntity
  8
10
  6
Continuous
100
AcDbCircle
 10
-35.09999999999991
 20
17.99999999999915
 30
0.0
 40
1.0
100
AcDbArc
 50
0.0
 51
90.0
  0
CIRCLE
  5
2277B
330
A
100
AcDbEntity
  8
10
  6
Continuous
100
AcDbCircle
 10
39.09999999999991
 20
12.50000000000005
 30
0.0
 40
1.5
210
0.0
220
0.0
230
-1.0
  0
ARC
  5
2277C
330
A
100
AcDbEntity
  8
10
  6
Continuous
100
AcDbCircle
 10
-35.09999999999991
 20
7.000000000000056
 30
0.0
 40
1.0
100
AcDbArc
 50
270.0
 51
0.0
  0
ARC
  5
2277D
330
A
100
AcDbEntity
  8
10
  6
Continuous
100
AcDbCircle
 10
-35.09999999999991
 20
-7.000000000000852
 30
0.0
 40
1.0
100
AcDbArc
 50
0.0
 51
90.0
  0
CIRCLE
  5
2277E
330
A
100
AcDbEntity
  8
10
  6
Continuous
100
AcDbCircle
 10
39.09999999999991
 20
-12.49999999999994
 30
0.0
 40
1.5
210
0.0
220
0.0
230
-1.0
  0
ARC
  5
2277F
330
A
100
AcDbEntity
  8
10
  6
Continuous
100
AcDbCircle
 10
-35.09999999999991
 20
-17.99999999999994
 30
0.0
 40
1.0
100
AcDbArc
 50
270.0
 51
0.0
  0
ARC
  5
22780
330
A
100
AcDbEntity
  8
10
  6
Continuous
100
AcDbCircle
 10
-79.59999999999991
 20
-23.69999999999976
 30
0.0
 40
1.0
100
AcDbArc
 50
180.0
 51
270.0
  0
ARC
  5
22781
330
A
100
AcDbEntity
  8
10
  6
Continuous
100
AcDbCircle
 10
-46.0
 20
24.50000000000006
 30
0.0
 40
0.5
100
AcDbArc
 50
90.0
 51
156.4212780000033
  0
ARC
  5
22782
330
A
100
AcDbEntity
  8
10
  6
Continuous
100
AcDbCircle
 10
-46.0
 20
-24.50000000000085
 30
0.0
 40
0.5
100
AcDbArc
 50
203.5787219999967
 51
270.0
  0
ARC
  5
22783
330
A
100
AcDbEntity
  8
10
  6
Continuous
100
AcDbCircle
 10
-77.0
 20
-19.50000000000085
 30
0.0
 40
2.0
210
0.0
220
0.0
230
-1.0
100
AcDbArc
 50
238.2102960000007
 51
270.0
  0
ARC
  5
22784
330
A
100
AcDbEntity
  8
10
  6
Continuous
100
AcDbCircle
 10
106.0
 20
-26.00000000000068
 30
0.0
 40
4.0
210
0.0
220
0.0
230
-1.0
100
AcDbArc
 50
270.0
 51
0.0
  0
ARC
  5
22785
330
A
100
AcDbEntity
  8
10
  6
Continuous
100
AcDbCircle
 10
-86.5
 20
-26.00000000000068
 30
0.0
 40
4.0
210
0.0
220
0.0
230
-1.0
100
AcDbArc
 50
180.0
 51
270.0
  0
ARC
  5
22786
330
A
100
AcDbEntity
  8
10
  6
Continuous
100
AcDbCircle
 10
-106.0
 20
-26.00000000000068
 30
0.0
 40
4.0
210
0.0
220
0.0
230
-1.0
100
AcDbArc
 50
180.0
 51
270.0
  0
ARC
  5
22787
330
A
100
AcDbEntity
  8
10
  6
Continuous
100
AcDbCircle
 10
106.0
 20
25.99999999999989
 30
0.0
 40
4.0
210
0.0
220
0.0
230
-1.0
100
AcDbArc
 50
0.0
 51
90.0
  0
ARC
  5
22788
330
A
100
AcDbEntity
  8
10
  6
Continuous
100
AcDbCircle
 10
-106.0
 20
25.99999999999989
 30
0.0
 40
4.0
210
0.0
220
0.0
230
-1.0
100
AcDbArc
 50
90.0
 51
180.0
  0
ARC
  5
22789
330
A
100
AcDbEntity
  8
10
  6
Continuous
100
AcDbCircle
 10
86.5
 20
25.99999999999989
 30
0.0
 40
4.0
210
0.0
220
0.0
230
-1.0
100
AcDbArc
 50
0.0
 51
90.0
  0
CIRCLE
  5
2278A
330
A
100
AcDbEntity
  8
10
  6
Continuous
100
AcDbCircle
 10
98.0
 20
22.50000000000006
 30
0.0
 40
3.5
  0
ARC
  5
2278B
330
A
100
AcDbEntity
  8
10
  6
Continuous
100
AcDbCircle
 10
-99.0
 20
22.50000000000006
 30
0.0
 40
2.75
100
AcDbArc
 50
125.0968009999875
 51
234.9031990000125
  0
ARC
  5
2278C
330
A
100
AcDbEntity
  8
10
  6
Continuous
100
AcDbCircle
 10
-97.0
 20
22.50000000000006
 30
0.0
 40
2.75
100
AcDbArc
 50
305.0968009999875
 51
54.9031990000125
  0
ARC
  5
2278D
330
A
100
AcDbEntity
  8
10
  6
Continuous
100
AcDbCircle
 10
-96.5
 20
22.50000000000006
 30
0.0
 40
6.0
100
AcDbArc
 50
270.0
 51
0.0
  0
ARC
  5
2278E
330
A
100
AcDbEntity
  8
10
  6
Continuous
100
AcDbCircle
 10
82.5
 20
22.00000000000006
 30
0.0
 40
0.5
100
AcDbArc
 50
270.0
 51
0.0
  0
ARC
  5
2278F
330
A
100
AcDbEntity
  8
10
  6
Continuous
100
AcDbCircle
 10
106.0
 20
12.50000000000005
 30
0.0
 40
4.0
210
0.0
220
0.0
230
-1.0
100
AcDbArc
 50
0.0
 51
90.0
  0
ARC
  5
22790
330
A
100
AcDbEntity
  8
10
  6
Continuous
100
AcDbCircle
 10
-106.0
 20
-12.49999999999994
 30
0.0
 40
4.0
210
0.0
220
0.0
230
-1.0
100
AcDbArc
 50
180.0
 51
270.0
  0
ARC
  5
22791
330
A
100
AcDbEntity
  8
10
  6
Continuous
100
AcDbCircle
 10
96.5
 20
-22.49999999999994
 30
0.0
 40
6.0
100
AcDbArc
 50
90.0
 51
180.0
  0
CIRCLE
  5
22792
330
A
100
AcDbEntity
  8
10
  6
Continuous
100
AcDbCircle
 10
-98.0
 20
-22.49999999999994
 30
0.0
 40
3.5
  0
ARC
  5
22793
330
A
100
AcDbEntity
  8
10
  6
Continuous
100
AcDbCircle
 10
99.0
 20
-22.49999999999994
 30
0.0
 40
2.75
100
AcDbArc
 50
305.0968009999875
 51
54.9031990000125
  0
ARC
  5
22794
330
A
100
AcDbEntity
  8
10
  6
Continuous
100
AcDbCircle
 10
97.0
 20
-22.49999999999994
 30
0.0
 40
2.75
100
AcDbArc
 50
125.0968009999875
 51
234.9031990000125
  0
ARC
  5
22795
330
A
100
AcDbEntity
  8
10
  6
Continuous
100
AcDbCircle
 10
82.5
 20
-22.00000000000085
 30
0.0
 40
0.5
100
AcDbArc
 50
0.0
 51
90.0
  0
ARC
  5
22796
330
A
100
AcDbEntity
  8
10
  6
Continuous
100
AcDbCircle
 10
82.5
 20
-24.50000000000085
 30
0.0
 40
0.5
100
AcDbArc
 50
270.0
 51
0.0
  0
ARC
  5
22797
330
A
100
AcDbEntity
  8
10
  6
Continuous
100
AcDbCircle
 10
82.5
 20
24.50000000000006
 30
0.0
 40
0.5
100
AcDbArc
 50
0.0
 51
90.0
  0
ELLIPSE
  5
22798
330
A
100
AcDbEntity
  8
10
  6
Continuous
100
AcDbEllipse
 10
-67.63333250000005
 20
18.19999999999987
 30
0.0
 11
0.0000000000000012
 21
-0.999999999999928
 31
0.0
210
0.0
220
0.0
230
-1.0
 40
0.133333
 41
4.407680193524542
 42
4.712388980384689
  0
LINE
  5
2279D
330
A
100
AcDbEntity
  8
16
  6
CENTER
100
AcDbLine
 10
0.0
 20
-69.74999999999997
 30
0.0
 11
0.0
 21
69.75
 31
0.0
  0
MTEXT
  5
2279E
330
A
100
AcDbEntity
  8
19
100
AcDbMText
 10
0.0
 20
74.75
 30
0.0
 40
7.0
 41
0.0
 71
     8
 72
     5
  1
ASL
  7
SLDTEXTSTYLE0
 73
     1
 44
1.0
1001
ACAD
1000
MTEXTBEGIN
1070
    73
1070
     1
1070
    44
1040
1.0
1070
    74
1070
     0
1000
MTEXTEND
  0
LINE
  5
2279F
330
A
100
AcDbEntity
  8
16
  6
CENTER
100
AcDbLine
 10
132.0147397580001
 20
0.0000000000000568
 30
0.0
 11
-132.0147397579999
 21
0.0000000000000568
 31
0.0
  0
MTEXT
  5
227A0
330
A
100
AcDbEntity
  8
19
100
AcDbMText
 10
-139.7119119041459
 20
3.612510898200014
 30
0.0
 40
7.0
 41
0.0
 71
     1
 72
     5
  1
H
  7
SLDTEXTSTYLE0
 73
     1
 44
1.0
1001
ACAD
1000
MTEXTBEGIN
1070
    73
1070
     1
1070
    44
1040
1.0
1070
    74
1070
     0
1000
MTEXTEND
  0
MTEXT
  5
227A1
330
A
100
AcDbEntity
  8
19
100
AcDbMText
 10
-138.0760763395715
 20
1.643267985131558
 30
0.0
 40
7.0
 41
0.0
 71
     1
 72
     5
  1
L
  7
SLDTEXTSTYLE0
 73
     1
 44
1.0
1001
ACAD
1000
MTEXTBEGIN
1070
    73
1070
     1
1070
    44
1040
1.0
1070
    74
1070
     0
1000
MTEXTEND
  0
DIMENSION
  5
227A2
330
A
100
AcDbEntity
  8
30
  6
Continuous
100
AcDbDimension
  2
*D17
 10
-164.9999999999999
 20
22.50000000000024
 30
0.0
 11
-177.4999999999999
 21
0.0000000000002479
 31
0.0
 70
    32
 71
     5
 42
44.99999999999995
  3
ISO-25-2
100
AcDbAlignedDimension
 13
93.50000000000022
 23
-22.49999999999977
 33
0.0
 14
-102.4999999999997
 24
22.50000000000023
 34
0.0
 50
90.0
100
AcDbRotatedDimension
  0
DIMENSION
  5
227A3
330
A
100
AcDbEntity
  8
30
  6
Continuous
100
AcDbDimension
  2
*D18
 10
215.000001043
 20
-30.00000000000071
 30
0.0
 11
202.500001043
 21
-0.0000000000003918
 31
0.0
 70
    32
 71
     5
 42
60.00000000000056
  3
ISO-25-2
100
AcDbAlignedDimension
 13
106.0
 23
29.99999999999989
 33
0.0
 14
106.0
 24
-30.00000000000068
 34
0.0
 50
90.0
100
AcDbRotatedDimension
  0
DIMENSION
  5
227A4
330
A
100
AcDbEntity
  8
30
  6
Continuous
100
AcDbDimension
  2
*D19
 10
165.0000010430001
 20
-12.49999999999998
 30
0.0
 11
151.0
 21
0.0000000000000568
 31
0.0
 70
   160
 71
     5
 42
24.99999999999983
  3
ISO-25-2
100
AcDbAlignedDimension
 13
51.5
 23
12.49999999999988
 33
0.0
 14
51.5
 24
-12.49999999999994
 34
0.0
 50
90.0
100
AcDbRotatedDimension
  0
DIMENSION
  5
227A5
330
A
100
AcDbEntity
  8
30
  6
Continuous
100
AcDbDimension
  2
*D16
 10
98.00000000000025
 20
110.0
 30
0.0
 11
0.0000000000002352
 21
122.5
 31
0.0
 70
    32
 71
     5
 42
196.0
  3
ISO-25-2
100
AcDbAlignedDimension
 13
-97.99999999999977
 23
34.75000000000006
 33
0.0
 14
98.00000000000023
 24
-9.299999999999954
 34
0.0
100
AcDbRotatedDimension
  0
LINE
  5
22831
330
A
100
AcDbEntity
  8
16
  6
CENTER
100
AcDbLine
 10
-97.99999999999977
 20
35.70000000000005
 30
0.0
 11
-97.99999999999977
 21
9.300000000000068
 31
0.0
  0
LINE
  5
22832
330
A
100
AcDbEntity
  8
16
  6
CENTER
100
AcDbLine
 10
-93.49999999999978
 20
22.50000000000023
 30
0.0
 11
-102.4999999999997
 21
22.50000000000023
 31
0.0
  0
LINE
  5
2283B
330
A
100
AcDbEntity
  8
16
  6
CENTER
100
AcDbLine
 10
98.00000000000023
 20
-9.299999999999954
 30
0.0
 11
98.00000000000023
 21
-35.69999999999993
 31
0.0
  0
LINE
  5
2283C
330
A
100
AcDbEntity
  8
16
  6
CENTER
100
AcDbLine
 10
102.5000000000002
 20
-22.49999999999977
 30
0.0
 11
93.50000000000022
 21
-22.49999999999977
 31
0.0
  0
LINE
  5
22857
330
A
100
AcDbEntity
  8
16
  6
CENTER
100
AcDbLine
 10
42.0
 20
21.19999999999913
 30
0.0
 11
42.0
 21
-25.20000000000084
 31
0.0
  0
LINE
  5
22858
330
A
100
AcDbEntity
  8
16
  6
CENTER
100
AcDbLine
 10
51.5
 20
-12.49999999999994
 30
0.0
 11
32.5
 21
-12.49999999999994
 31
0.0
  0
LINE
  5
22859
330
A
100
AcDbEntity
  8
16
  6
CENTER
100
AcDbLine
 10
51.5
 20
12.49999999999988
 30
0.0
 11
32.5
 21
12.49999999999988
 31
0.0
  0
LINE
  5
22961
330
A
100
AcDbEntity
  8
10
  6
Continuous
100
AcDbLine
 10
-73.5
 20
-418.9995449999996
 30
0.0
 11
-73.5
 21
-418.4996624999994
 31
0.0
  0
LINE
  5
22962
330
A
100
AcDbEntity
  8
10
  6
Continuous
100
AcDbLine
 10
-76.5
 20
-418.9995449999996
 30
0.0
 11
-76.5
 21
-418.4996624999994
 31
0.0
  0
LINE
  5
22963
330
A
100
AcDbEntity
  8
10
  6
Continuous
100
AcDbLine
 10
-73.5
 20
-418.9999524999993
 30
0.0
 11
-73.5
 21
-418.4995449999997
 31
0.0
  0
LINE
  5
22969
330
A
100
AcDbEntity
  8
10
  6
Continuous
100
AcDbLine
 10
-47.0
 20
-363.8000000000003
 30
0.0
 11
-47.0
 21
-403.2282126205654
 31
0.0
  0
LINE
  5
2296A
330
A
100
AcDbEntity
  8
10
  6
Continuous
100
AcDbLine
 10
-46.29999999999973
 20
-418.0
 30
0.0
 11
-79.59999999999991
 21
-418.0
 31
0.0
  0
LINE
  5
2296B
330
A
100
AcDbEntity
  8
10
  6
Continuous
100
AcDbLine
 10
-77.5
 20
-419.0
 30
0.0
 11
-77.5
 21
-418.4996874999996
 31
0.0
  0
LINE
  5
2296D
330
A
100
AcDbEntity
  8
10
  6
Continuous
100
AcDbLine
 10
50.0
 20
-403.2282126205654
 30
0.0
 11
50.0
 21
-398.3001699999995
 31
0.0
  0
LINE
  5
2296E
330
A
100
AcDbEntity
  8
10
  6
Continuous
100
AcDbLine
 10
47.0
 20
-403.2282126205654
 30
0.0
 11
47.0
 21
-363.8000000000003
 31
0.0
  0
LINE
  5
2296F
330
A
100
AcDbEntity
  8
10
  6
Continuous
100
AcDbLine
 10
50.0
 20
-363.8000000000003
 30
0.0
 11
47.0
 21
-363.8000000000003
 31
0.0
  0
LINE
  5
22970
330
A
100
AcDbEntity
  8
10
  6
Continuous
100
AcDbLine
 10
50.0
 20
-379.8000000000002
 30
0.0
 11
50.0
 21
-363.8000000000003
 31
0.0
  0
LINE
  5
22971
330
A
100
AcDbEntity
  8
10
  6
Continuous
100
AcDbLine
 10
50.0
 20
-397.8000000000002
 30
0.0
 11
48.5
 21
-397.8000000000002
 31
0.0
  0
LINE
  5
22972
330
A
100
AcDbEntity
  8
10
  6
Continuous
100
AcDbLine
 10
-38.5
 20
-354.8000000000003
 30
0.0
 11
-38.5
 21
-363.8000000000003
 31
0.0
  0
LINE
  5
22973
330
A
100
AcDbEntity
  8
10
  6
Continuous
100
AcDbLine
 10
50.0
 20
-379.8000000000002
 30
0.0
 11
50.0
 21
-397.8000000000002
 31
0.0
  0
LINE
  5
22974
330
A
100
AcDbEntity
  8
10
  6
Continuous
100
AcDbLine
 10
-38.5
 20
-363.8000000000003
 30
0.0
 11
-47.0
 21
-363.8000000000003
 31
0.0
  0
LINE
  5
22975
330
A
100
AcDbEntity
  8
10
  6
Continuous
100
AcDbLine
 10
-24.5
 20
-342.8000000000003
 30
0.0
 11
25.5
 21
-342.8000000000003
 31
0.0
  0
LINE
  5
22976
330
A
100
AcDbEntity
  8
10
  6
Continuous
100
AcDbLine
 10
-46.45803249999971
 20
-403.2282126205654
 30
0.0
 11
-47.0
 21
-403.2282126205654
 31
0.0
  0
LINE
  5
22977
330
A
100
AcDbEntity
  8
10
  6
Continuous
100
AcDbLine
 10
50.0
 20
-379.8000000000002
 30
0.0
 11
48.5
 21
-379.8000000000002
 31
0.0
  0
LINE
  5
22978
330
A
100
AcDbEntity
  8
10
  6
Continuous
100
AcDbLine
 10
-24.5
 20
-342.8000000000003
 30
0.0
 11
-24.5
 21
-354.8000000000003
 31
0.0
  0
LINE
  5
22979
330
A
100
AcDbEntity
  8
10
  6
Continuous
100
AcDbLine
 10
25.5
 20
-354.8000000000003
 30
0.0
 11
25.5
 21
-342.8000000000003
 31
0.0
  0
LINE
  5
2297A
330
A
100
AcDbEntity
  8
10
  6
Continuous
100
AcDbLine
 10
48.5
 20
-379.8000000000002
 30
0.0
 11
48.5
 21
-397.8000000000002
 31
0.0
  0
LINE
  5
2297B
330
A
100
AcDbEntity
  8
10
  6
Continuous
100
AcDbLine
 10
-16.5
 20
-332.8000000000003
 30
0.0
 11
-19.86538500000006
 21
-333.473075
 31
0.0
  0
LINE
  5
2297C
330
A
100
AcDbEntity
  8
10
  6
Continuous
100
AcDbLine
 10
-14.5
 20
-342.8000000000003
 30
0.0
 11
-16.5
 21
-332.8000000000003
 31
0.0
  0
LINE
  5
2297D
330
A
100
AcDbEntity
  8
10
  6
Continuous
100
AcDbLine
 10
-19.86538500000006
 20
-333.473075
 30
0.0
 11
-18.0
 21
-342.8000000000003
 31
0.0
  0
LINE
  5
2297E
330
A
100
AcDbEntity
  8
10
  6
Continuous
100
AcDbLine
 10
38.5
 20
-363.8000000000003
 30
0.0
 11
38.5
 21
-354.8000000000003
 31
0.0
  0
LINE
  5
2297F
330
A
100
AcDbEntity
  8
10
  6
Continuous
100
AcDbLine
 10
47.0
 20
-363.8000000000003
 30
0.0
 11
38.5
 21
-363.8000000000003
 31
0.0
  0
LINE
  5
22980
330
A
100
AcDbEntity
  8
10
  6
Continuous
100
AcDbLine
 10
38.5
 20
-354.8000000000003
 30
0.0
 11
-38.5
 21
-354.8000000000003
 31
0.0
  0
LINE
  5
22981
330
A
100
AcDbEntity
  8
10
  6
Continuous
100
AcDbLine
 10
-46.29988999999977
 20
-363.3000000000003
 30
0.0
 11
-38.50002249999988
 21
-363.3000000000003
 31
0.0
  0
LINE
  5
22982
330
A
100
AcDbEntity
  8
10
  6
Continuous
100
AcDbLine
 10
-79.09999999999991
 20
-418.5
 30
0.0
 11
-79.09999999999991
 21
-419.0001250000005
 31
0.0
  0
LINE
  5
22983
330
A
100
AcDbEntity
  8
10
  6
Continuous
100
AcDbLine
 10
-80.59999999999991
 20
-418.5
 30
0.0
 11
-80.59999999999991
 21
-419.0
 31
0.0
  0
LINE
  5
22984
330
A
100
AcDbEntity
  8
10
  6
Continuous
100
AcDbLine
 10
-80.59999999999991
 20
-418.5
 30
0.0
 11
-80.59999999999991
 21
-375.8000000000002
 31
0.0
  0
LINE
  5
22985
330
A
100
AcDbEntity
  8
10
  6
Continuous
100
AcDbLine
 10
-79.59999999999991
 20
-418.5
 30
0.0
 11
-80.59999999999991
 21
-418.5
 31
0.0
  0
LINE
  5
22986
330
A
100
AcDbEntity
  8
10
  6
Continuous
100
AcDbLine
 10
-46.29999999999973
 20
-403.2274926205653
 30
0.0
 11
-46.29999999999973
 21
-364.3000000000003
 31
0.0
  0
LINE
  5
22987
330
A
100
AcDbEntity
  8
10
  6
Continuous
100
AcDbLine
 10
-46.29999999999973
 20
-418.5
 30
0.0
 11
-79.59999999999991
 21
-418.5
 31
0.0
  0
LINE
  5
22988
330
A
100
AcDbEntity
  8
10
  6
Continuous
100
AcDbLine
 10
-77.5
 20
-418.9996874999996
 30
0.0
 11
-77.5
 21
-418.4996874999996
 31
0.0
  0
LINE
  5
22989
330
A
100
AcDbEntity
  8
10
  6
Continuous
100
AcDbLine
 10
-16.5
 20
-333.3000000000003
 30
0.0
 11
-19.86538500000006
 21
-333.973075
 31
0.0
  0
LINE
  5
2298A
330
A
100
AcDbEntity
  8
10
  6
Continuous
100
AcDbLine
 10
-14.60003000000006
 20
-342.7998424999997
 30
0.0
 11
-16.5
 21
-333.3000000000003
 31
0.0
  0
LINE
  5
2298B
330
A
100
AcDbEntity
  8
10
  6
Continuous
100
AcDbLine
 10
-19.86538500000006
 20
-333.973075
 30
0.0
 11
-18.10000249999984
 21
-342.7999874999997
 31
0.0
  0
LINE
  5
2298C
330
A
100
AcDbEntity
  8
10
  6
Continuous
100
AcDbLine
 10
50.0
 20
-364.3000000000003
 30
0.0
 11
47.0
 21
-364.3000000000003
 31
0.0
  0
LINE
  5
2298D
330
A
100
AcDbEntity
  8
10
  6
Continuous
100
AcDbLine
 10
50.0
 20
-403.2280401205651
 30
0.0
 11
50.0
 21
-398.3000000000002
 31
0.0
  0
LINE
  5
2298E
330
A
100
AcDbEntity
  8
10
  6
Continuous
100
AcDbLine
 10
50.0
 20
-379.7997500000001
 30
0.0
 11
50.0
 21
-364.3000000000003
 31
0.0
  0
LINE
  5
2298F
330
A
100
AcDbEntity
  8
10
  6
Continuous
100
AcDbLine
 10
50.0
 20
-398.3000000000002
 30
0.0
 11
48.5
 21
-398.3000000000002
 31
0.0
  0
LINE
  5
22990
330
A
100
AcDbEntity
  8
10
  6
Continuous
100
AcDbLine
 10
50.0
 20
-380.3000000000002
 30
0.0
 11
48.5
 21
-380.3000000000002
 31
0.0
  0
LINE
  5
22991
330
A
100
AcDbEntity
  8
10
  6
Continuous
100
AcDbLine
 10
48.5
 20
-380.3000000000002
 30
0.0
 11
48.5
 21
-398.3000000000002
 31
0.0
  0
LINE
  5
22992
330
A
100
AcDbEntity
  8
10
  6
Continuous
100
AcDbLine
 10
50.0
 20
-380.3000000000002
 30
0.0
 11
50.0
 21
-398.3000000000002
 31
0.0
  0
LINE
  5
22993
330
A
100
AcDbEntity
  8
10
  6
Continuous
100
AcDbLine
 10
-24.5
 20
-343.3000000000003
 30
0.0
 11
25.5
 21
-343.3000000000003
 31
0.0
  0
LINE
  5
22994
330
A
100
AcDbEntity
  8
10
  6
Continuous
100
AcDbLine
 10
25.5
 20
-354.7999375000001
 30
0.0
 11
25.5
 21
-343.3000000000003
 31
0.0
  0
LINE
  5
22995
330
A
100
AcDbEntity
  8
10
  6
Continuous
100
AcDbLine
 10
-24.5
 20
-343.3000000000003
 30
0.0
 11
-24.5
 21
-354.7999375000001
 31
0.0
  0
LINE
  5
22996
330
A
100
AcDbEntity
  8
10
  6
Continuous
100
AcDbLine
 10
47.0
 20
-403.2277751205645
 30
0.0
 11
47.0
 21
-364.3000000000003
 31
0.0
  0
LINE
  5
22997
330
A
100
AcDbEntity
  8
10
  6
Continuous
100
AcDbLine
 10
-47.0
 20
-364.3000000000003
 30
0.0
 11
-47.0
 21
-403.7282126205654
 31
0.0
  0
LINE
  5
22998
330
A
100
AcDbEntity
  8
10
  6
Continuous
100
AcDbLine
 10
38.5
 20
-364.3000000000003
 30
0.0
 11
38.5
 21
-355.3000000000003
 31
0.0
  0
LINE
  5
22999
330
A
100
AcDbEntity
  8
10
  6
Continuous
100
AcDbLine
 10
47.0
 20
-364.3000000000003
 30
0.0
 11
38.5
 21
-364.3000000000003
 31
0.0
  0
LINE
  5
2299A
330
A
100
AcDbEntity
  8
10
  6
Continuous
100
AcDbLine
 10
-38.5
 20
-355.3000000000003
 30
0.0
 11
-38.5
 21
-364.3000000000003
 31
0.0
  0
LINE
  5
2299B
330
A
100
AcDbEntity
  8
10
  6
Continuous
100
AcDbLine
 10
-38.5
 20
-364.3000000000003
 30
0.0
 11
-47.0
 21
-364.3000000000003
 31
0.0
  0
LINE
  5
2299C
330
A
100
AcDbEntity
  8
10
  6
Continuous
100
AcDbLine
 10
-46.45803249999971
 20
-403.7282126205654
 30
0.0
 11
-47.0
 21
-403.7282126205654
 31
0.0
  0
LINE
  5
2299D
330
A
100
AcDbEntity
  8
10
  6
Continuous
100
AcDbLine
 10
38.5
 20
-355.3000000000003
 30
0.0
 11
-38.5
 21
-355.3000000000003
 31
0.0
  0
LINE
  5
229A0
330
A
100
AcDbEntity
  8
10
  6
Continuous
100
AcDbLine
 10
-76.5
 20
-418.9999524999993
 30
0.0
 11
-76.5
 21
-418.4995449999997
 31
0.0
  0
LINE
  5
229A1
330
A
100
AcDbEntity
  8
10
  6
Continuous
100
AcDbLine
 10
-68.09999999999991
 20
-362.8000000000003
 30
0.0
 11
-66.59999999999991
 21
-362.8000000000003
 31
0.0
  0
LINE
  5
229A2
330
A
100
AcDbEntity
  8
10
  6
Continuous
100
AcDbLine
 10
-80.59999999999991
 20
-375.8000624999995
 30
0.0
 11
-80.59999999999991
 21
-375.3000000000002
 31
0.0
  0
LINE
  5
229A3
330
A
100
AcDbEntity
  8
10
  6
Continuous
100
AcDbLine
 10
-46.29988999999977
 20
-362.8000000000003
 30
0.0
 11
-38.50002249999988
 21
-362.8000000000003
 31
0.0
  0
LINE
  5
229A4
330
A
100
AcDbEntity
  8
10
  6
Continuous
100
AcDbLine
 10
-79.09999999999991
 20
-418.5001249999995
 30
0.0
 11
-79.09999999999991
 21
-419.0001250000005
 31
0.0
  0
LINE
  5
229A5
330
A
100
AcDbEntity
  8
10
  6
Continuous
100
AcDbLine
 10
-80.59999999999991
 20
-418.5001249999995
 30
0.0
 11
-80.59999999999991
 21
-419.0
 31
0.0
  0
LINE
  5
229A6
330
A
100
AcDbEntity
  8
10
  6
Continuous
100
AcDbLine
 10
-80.59999999999991
 20
-418.0
 30
0.0
 11
-80.59999999999991
 21
-375.3000000000002
 31
0.0
  0
LINE
  5
229A7
330
A
100
AcDbEntity
  8
10
  6
Continuous
100
AcDbLine
 10
-79.59999999999991
 20
-418.0
 30
0.0
 11
-80.59999999999991
 21
-418.0
 31
0.0
  0
LINE
  5
229A8
330
A
100
AcDbEntity
  8
10
  6
Continuous
100
AcDbLine
 10
-49.59999999999991
 20
-362.8000000000003
 30
0.0
 11
-47.79999999999972
 21
-362.8000000000003
 31
0.0
  0
LINE
  5
229A9
330
A
100
AcDbEntity
  8
10
  6
Continuous
100
AcDbLine
 10
-46.29999999999973
 20
-362.8000000000003
 30
0.0
 11
-46.29999999999973
 21
-363.8000000000003
 31
0.0
  0
LINE
  5
229AA
330
A
100
AcDbEntity
  8
10
  6
Continuous
100
AcDbLine
 10
-47.79999999999972
 20
-362.8000000000003
 30
0.0
 11
-46.29999999999973
 21
-362.8000000000003
 31
0.0
  0
LINE
  5
229AB
330
A
100
AcDbEntity
  8
10
  6
Continuous
100
AcDbLine
 10
-68.09999999999991
 20
-362.8000000000003
 30
0.0
 11
-49.59999999999991
 21
-362.8000000000003
 31
0.0
  0
LINE
  5
229AC
330
A
100
AcDbEntity
  8
10
  6
Continuous
100
AcDbLine
 10
-46.29999999999973
 20
-403.2278376205648
 30
0.0
 11
-46.29999999999973
 21
-363.8000000000003
 31
0.0
  0
LINE
  5
229AD
330
A
100
AcDbEntity
  8
10
  6
Continuous
100
AcDbLine
 10
-57.50006249999978
 20
-479.4999999999999
 30
0.0
 11
-58.5
 21
-479.4999999999999
 31
0.0
  0
LINE
  5
229AE
330
A
100
AcDbEntity
  8
10
  6
Continuous
100
AcDbLine
 10
-31.5
 20
-479.4999999999999
 30
0.0
 11
-32.49993749999976
 21
-479.4999999999999
 31
0.0
  0
LINE
  5
229AF
330
A
100
AcDbEntity
  8
10
  6
Continuous
100
AcDbLine
 10
32.49992999999995
 20
-479.4999999999999
 30
0.0
 11
31.5
 21
-479.4999999999999
 31
0.0
  0
LINE
  5
229B0
330
A
100
AcDbEntity
  8
10
  6
Continuous
100
AcDbLine
 10
83.0
 20
-403.2282126205654
 30
0.0
 11
83.0
 21
-419.0
 31
0.0
  0
LINE
  5
229B1
330
A
100
AcDbEntity
  8
10
  6
Continuous
100
AcDbLine
 10
-46.5
 20
-419.0
 30
0.0
 11
-46.5
 21
-418.4999374999997
 31
0.0
  0
LINE
  5
229B2
330
A
100
AcDbEntity
  8
10
  6
Continuous
100
AcDbLine
 10
89.50000000000001
 20
-419.0
 30
0.0
 11
96.5
 21
-419.0
 31
0.0
  0
LINE
  5
229B3
330
A
100
AcDbEntity
  8
10
  6
Continuous
100
AcDbLine
 10
92.50000000000023
 20
-419.0
 30
0.0
 11
102.0000000000002
 21
-419.0
 31
0.0
  0
LINE
  5
229B5
330
A
100
AcDbEntity
  8
10
  6
Continuous
100
AcDbLine
 10
86.5
 20
-419.0
 30
0.0
 11
89.50000000000001
 21
-419.0
 31
0.0
  0
LINE
  5
229B6
330
A
100
AcDbEntity
  8
10
  6
Continuous
100
AcDbLine
 10
-109.0
 20
-419.0
 30
0.0
 11
86.5
 21
-419.0
 31
0.0
  0
LINE
  5
229B7
330
A
100
AcDbEntity
  8
10
  6
Continuous
100
AcDbLine
 10
106.0
 20
-419.0
 30
0.0
 11
109.0
 21
-419.0
 31
0.0
  0
LINE
  5
229B8
330
A
100
AcDbEntity
  8
10
  6
Continuous
100
AcDbLine
 10
-110.0
 20
-436.8000000000002
 30
0.0
 11
-110.0
 21
-420.0
 31
0.0
  0
LINE
  5
229B9
330
A
100
AcDbEntity
  8
10
  6
Continuous
100
AcDbLine
 10
90.5
 20
-420.0
 30
0.0
 11
90.5
 21
-429.8000000000001
 31
0.0
  0
LINE
  5
229BA
330
A
100
AcDbEntity
  8
10
  6
Continuous
100
AcDbLine
 10
110.0
 20
-420.0
 30
0.0
 11
110.0
 21
-430.8000000000001
 31
0.0
  0
LINE
  5
229BB
330
A
100
AcDbEntity
  8
10
  6
Continuous
100
AcDbLine
 10
-107.0
 20
-429.8000000000001
 30
0.0
 11
-107.0
 21
-436.8000000000002
 31
0.0
  0
LINE
  5
229BC
330
A
100
AcDbEntity
  8
10
  6
Continuous
100
AcDbLine
 10
-89.0
 20
-429.8000000000001
 30
0.0
 11
-106.0
 21
-429.8000000000001
 31
0.0
  0
LINE
  5
229BD
330
A
100
AcDbEntity
  8
10
  6
Continuous
100
AcDbLine
 10
-106.0
 20
-429.8000000000001
 30
0.0
 11
-107.0
 21
-429.8000000000001
 31
0.0
  0
LINE
  5
229BE
330
A
100
AcDbEntity
  8
10
  6
Continuous
100
AcDbLine
 10
109.0
 20
-429.8000000000001
 30
0.0
 11
106.0
 21
-429.8000000000001
 31
0.0
  0
LINE
  5
229BF
330
A
100
AcDbEntity
  8
10
  6
Continuous
100
AcDbLine
 10
-89.0
 20
-429.8000000000001
 30
0.0
 11
-89.0
 21
-436.8000000000002
 31
0.0
  0
LINE
  5
229C0
330
A
100
AcDbEntity
  8
10
  6
Continuous
100
AcDbLine
 10
89.14575250000007
 20
-429.8000000000001
 30
0.0
 11
106.0
 21
-429.8000000000001
 31
0.0
  0
LINE
  5
229C1
330
A
100
AcDbEntity
  8
10
  6
Continuous
100
AcDbLine
 10
110.0
 20
-430.8000000000001
 30
0.0
 11
110.0
 21
-439.5
 31
0.0
  0
LINE
  5
229C2
330
A
100
AcDbEntity
  8
10
  6
Continuous
100
AcDbLine
 10
-92.5999999999999
 20
-433.8000000000001
 30
0.0
 11
-89.00007499999992
 21
-433.8000000000001
 31
0.0
  0
LINE
  5
229C3
330
A
100
AcDbEntity
  8
10
  6
Continuous
100
AcDbLine
 10
-90.59999999999991
 20
-434.3000849999998
 30
0.0
 11
-90.59999999999991
 21
-439.5
 31
0.0
  0
LINE
  5
229C4
330
A
100
AcDbEntity
  8
10
  6
Continuous
100
AcDbLine
 10
90.59999999999991
 20
-439.5
 30
0.0
 11
90.59999999999991
 21
-436.8000000000002
 31
0.0
  0
LINE
  5
229C5
330
A
100
AcDbEntity
  8
10
  6
Continuous
100
AcDbLine
 10
-110.0
 20
-436.8000000000002
 30
0.0
 11
-107.0
 21
-436.8000000000002
 31
0.0
  0
LINE
  5
229C6
330
A
100
AcDbEntity
  8
10
  6
Continuous
100
AcDbLine
 10
-90.59999999999991
 20
-436.8000000000002
 30
0.0
 11
-88.99955
 21
-436.8000000000002
 31
0.0
  0
LINE
  5
229C7
330
A
100
AcDbEntity
  8
10
  6
Continuous
100
AcDbLine
 10
-107.0
 20
-439.5
 30
0.0
 11
-107.0
 21
-437.300005
 31
0.0
  0
LINE
  5
229C8
330
A
100
AcDbEntity
  8
10
  6
Continuous
100
AcDbLine
 10
-110.0
 20
-439.5
 30
0.0
 11
-110.0
 21
-437.300005
 31
0.0
  0
LINE
  5
229C9
330
A
100
AcDbEntity
  8
10
  6
Continuous
100
AcDbLine
 10
90.59999999999991
 20
-436.8000000000002
 30
0.0
 11
-89.0
 21
-436.8000000000002
 31
0.0
  0
LINE
  5
229CA
330
A
100
AcDbEntity
  8
10
  6
Continuous
100
AcDbLine
 10
-110.0
 20
-439.5
 30
0.0
 11
-107.0
 21
-439.5
 31
0.0
  0
LINE
  5
229CB
330
A
100
AcDbEntity
  8
10
  6
Continuous
100
AcDbLine
 10
-90.59999999999991
 20
-439.5
 30
0.0
 11
-92.5999999999999
 21
-439.5
 31
0.0
  0
LINE
  5
229CC
330
A
100
AcDbEntity
  8
10
  6
Continuous
100
AcDbLine
 10
-105.0
 20
-439.5
 30
0.0
 11
-92.5999999999999
 21
-439.5
 31
0.0
  0
LINE
  5
229CD
330
A
100
AcDbEntity
  8
10
  6
Continuous
100
AcDbLine
 10
-107.0
 20
-439.5
 30
0.0
 11
-105.0
 21
-439.5
 31
0.0
  0
LINE
  5
229CE
330
A
100
AcDbEntity
  8
10
  6
Continuous
100
AcDbLine
 10
110.0
 20
-439.5
 30
0.0
 11
106.0
 21
-439.5
 31
0.0
  0
LINE
  5
229CF
330
A
100
AcDbEntity
  8
10
  6
Continuous
100
AcDbLine
 10
90.59999999999991
 20
-439.5
 30
0.0
 11
106.0
 21
-439.5
 31
0.0
  0
LINE
  5
229D6
330
A
100
AcDbEntity
  8
10
  6
Continuous
100
AcDbLine
 10
13.5
 20
-479.4999999999999
 30
0.0
 11
12.50007000000005
 21
-479.4999999999999
 31
0.0
  0
LINE
  5
229D7
330
A
100
AcDbEntity
  8
10
  6
Continuous
100
AcDbLine
 10
-12.50007000000005
 20
-479.4999999999999
 30
0.0
 11
-13.5
 21
-479.4999999999999
 31
0.0
  0
LINE
  5
229D8
330
A
100
AcDbEntity
  8
10
  6
Continuous
100
AcDbLine
 10
58.5
 20
-479.4999999999999
 30
0.0
 11
57.50007000000005
 21
-479.4999999999999
 31
0.0
  0
LINE
  5
229D9
330
A
100
AcDbEntity
  8
10
  6
Continuous
100
AcDbLine
 10
-46.5
 20
-418.9999374999997
 30
0.0
 11
-46.5
 21
-418.4999374999997
 31
0.0
  0
LINE
  5
229DA
330
A
100
AcDbEntity
  8
10
  6
Continuous
100
AcDbLine
 10
83.0
 20
-403.7282126205654
 30
0.0
 11
82.5
 21
-403.7282126205654
 31
0.0
  0
LINE
  5
229DB
330
A
100
AcDbEntity
  8
10
  6
Continuous
100
AcDbLine
 10
-46.0
 20
-403.7282126205654
 30
0.0
 11
82.5
 21
-403.7282126205654
 31
0.0
  0
LINE
  5
229DC
330
A
100
AcDbEntity
  8
10
  6
Continuous
100
AcDbLine
 10
-46.458255
 20
-403.7282126205654
 30
0.0
 11
-46.0
 21
-403.7282126205654
 31
0.0
  0
LINE
  5
229DD
330
A
100
AcDbEntity
  8
10
  6
Continuous
100
AcDbLine
 10
83.0
 20
-403.7282126205654
 30
0.0
 11
83.0
 21
-418.9999374999997
 31
0.0
  0
LINE
  5
229DE
330
A
100
AcDbEntity
  8
10
  6
Continuous
100
AcDbLine
 10
90.5
 20
-420.5
 30
0.0
 11
90.5
 21
-429.7998424999995
 31
0.0
  0
LINE
  5
229DF
330
A
100
AcDbEntity
  8
10
  6
Continuous
100
AcDbLine
 10
-110.0
 20
-437.3000000000001
 30
0.0
 11
-110.0
 21
-420.5
 31
0.0
  0
LINE
  5
229E0
330
A
100
AcDbEntity
  8
10
  6
Continuous
100
AcDbLine
 10
110.0
 20
-420.5
 30
0.0
 11
110.0
 21
-430.7998424999996
 31
0.0
  0
LINE
  5
229E1
330
A
100
AcDbEntity
  8
10
  6
Continuous
100
AcDbLine
 10
110.0
 20
-440.0
 30
0.0
 11
110.0
 21
-439.4999600000001
 31
0.0
  0
LINE
  5
229E2
330
A
100
AcDbEntity
  8
10
  6
Continuous
100
AcDbLine
 10
-107.0
 20
-430.3000000000001
 30
0.0
 11
-107.0
 21
-437.3000000000001
 31
0.0
  0
LINE
  5
229E3
330
A
100
AcDbEntity
  8
10
  6
Continuous
100
AcDbLine
 10
-89.0
 20
-430.3000000000001
 30
0.0
 11
-106.0
 21
-430.3000000000001
 31
0.0
  0
LINE
  5
229E4
330
A
100
AcDbEntity
  8
10
  6
Continuous
100
AcDbLine
 10
-106.0
 20
-430.3000000000001
 30
0.0
 11
-107.0
 21
-430.3000000000001
 31
0.0
  0
LINE
  5
229E5
330
A
100
AcDbEntity
  8
10
  6
Continuous
100
AcDbLine
 10
-89.0
 20
-430.3000000000001
 30
0.0
 11
-89.0
 21
-437.3000000000001
 31
0.0
  0
LINE
  5
229E6
330
A
100
AcDbEntity
  8
10
  6
Continuous
100
AcDbLine
 10
110.0
 20
-431.3000000000001
 30
0.0
 11
110.0
 21
-440.0
 31
0.0
  0
LINE
  5
229E7
330
A
100
AcDbEntity
  8
10
  6
Continuous
100
AcDbLine
 10
-90.59999999999991
 20
-434.3000000000001
 30
0.0
 11
-90.59999999999991
 21
-440.0
 31
0.0
  0
LINE
  5
229E8
330
A
100
AcDbEntity
  8
10
  6
Continuous
100
AcDbLine
 10
-92.5999999999999
 20
-434.3000000000001
 30
0.0
 11
-89.00007499999992
 21
-434.3000000000001
 31
0.0
  0
LINE
  5
229E9
330
A
100
AcDbEntity
  8
10
  6
Continuous
100
AcDbLine
 10
90.59999999999991
 20
-440.0
 30
0.0
 11
90.59999999999991
 21
-437.3000000000001
 31
0.0
  0
LINE
  5
229EA
330
A
100
AcDbEntity
  8
10
  6
Continuous
100
AcDbLine
 10
-58.5
 20
-480.0
 30
0.0
 11
-59.00000000000001
 21
-437.3000000000001
 31
0.0
  0
LINE
  5
229EB
330
A
100
AcDbEntity
  8
10
  6
Continuous
100
AcDbLine
 10
31.5
 20
-480.0
 30
0.0
 11
31.03333250000015
 21
-437.3000000000001
 31
0.0
  0
LINE
  5
229EC
330
A
100
AcDbEntity
  8
10
  6
Continuous
100
AcDbLine
 10
-110.0
 20
-437.3000000000001
 30
0.0
 11
-107.0
 21
-437.3000000000001
 31
0.0
  0
LINE
  5
229ED
330
A
100
AcDbEntity
  8
10
  6
Continuous
100
AcDbLine
 10
-90.59999999999991
 20
-437.3000000000001
 30
0.0
 11
-88.99955
 21
-437.3000000000001
 31
0.0
  0
LINE
  5
229EE
330
A
100
AcDbEntity
  8
10
  6
Continuous
100
AcDbLine
 10
-13.5
 20
-480.0
 30
0.0
 11
-13.96666749999986
 21
-437.3000000000001
 31
0.0
  0
LINE
  5
229EF
330
A
100
AcDbEntity
  8
10
  6
Continuous
100
AcDbLine
 10
-107.0
 20
-440.0
 30
0.0
 11
-107.0
 21
-437.3000000000001
 31
0.0
  0
LINE
  5
229F0
330
A
100
AcDbEntity
  8
10
  6
Continuous
100
AcDbLine
 10
-110.0
 20
-440.0
 30
0.0
 11
-110.0
 21
-437.3000000000001
 31
0.0
  0
LINE
  5
229F1
330
A
100
AcDbEntity
  8
10
  6
Continuous
100
AcDbLine
 10
-57.0
 20
-437.3000000000001
 30
0.0
 11
-58.96666749999986
 21
-437.3000000000001
 31
0.0
  0
LINE
  5
229F2
330
A
100
AcDbEntity
  8
10
  6
Continuous
100
AcDbLine
 10
90.59999999999991
 20
-437.3000000000001
 30
0.0
 11
-89.0
 21
-437.3000000000001
 31
0.0
  0
LINE
  5
229F3
330
A
100
AcDbEntity
  8
10
  6
Continuous
100
AcDbLine
 10
13.96666750000031
 20
-437.3000000000001
 30
0.0
 11
13.5
 21
-480.0
 31
0.0
  0
LINE
  5
229F4
330
A
100
AcDbEntity
  8
10
  6
Continuous
100
AcDbLine
 10
-31.03333249999969
 20
-437.3000000000001
 30
0.0
 11
-31.5
 21
-480.0
 31
0.0
  0
LINE
  5
229F5
330
A
100
AcDbEntity
  8
10
  6
Continuous
100
AcDbLine
 10
58.99999999999999
 20
-437.3000000000001
 30
0.0
 11
58.5
 21
-480.0
 31
0.0
  0
LINE
  5
229F6
330
A
100
AcDbEntity
  8
10
  6
Continuous
100
AcDbLine
 10
-110.0
 20
-440.0
 30
0.0
 11
-107.0
 21
-440.0
 31
0.0
  0
LINE
  5
229F7
330
A
100
AcDbEntity
  8
10
  6
Continuous
100
AcDbLine
 10
-90.59999999999991
 20
-440.0
 30
0.0
 11
-92.5999999999999
 21
-440.0
 31
0.0
  0
LINE
  5
229F8
330
A
100
AcDbEntity
  8
10
  6
Continuous
100
AcDbLine
 10
-105.0
 20
-440.0
 30
0.0
 11
-92.5999999999999
 21
-440.0
 31
0.0
  0
LINE
  5
229F9
330
A
100
AcDbEntity
  8
10
  6
Continuous
100
AcDbLine
 10
-107.0
 20
-440.0
 30
0.0
 11
-105.0
 21
-440.0
 31
0.0
  0
LINE
  5
229FA
330
A
100
AcDbEntity
  8
10
  6
Continuous
100
AcDbLine
 10
110.0
 20
-440.0
 30
0.0
 11
106.0
 21
-440.0
 31
0.0
  0
LINE
  5
229FB
330
A
100
AcDbEntity
  8
10
  6
Continuous
100
AcDbLine
 10
90.59999999999991
 20
-440.0
 30
0.0
 11
106.0
 21
-440.0
 31
0.0
  0
LINE
  5
229FC
330
A
100
AcDbEntity
  8
10
  6
Continuous
100
AcDbLine
 10
47.51123499999994
 20
-457.3000000000002
 30
0.0
 11
42.48876500000005
 21
-457.3000000000002
 31
0.0
  0
LINE
  5
229FD
330
A
100
AcDbEntity
  8
10
  6
Continuous
100
AcDbLine
 10
-42.0
 20
-457.3000000000002
 30
0.0
 11
-41.54544249999981
 21
-478.0005149999997
 31
0.0
  0
LINE
  5
22A01
330
A
100
AcDbEntity
  8
10
  6
Continuous
100
AcDbLine
 10
-42.0
 20
-457.3000000000002
 30
0.0
 11
-47.51123499999994
 21
-457.3000000000002
 31
0.0
  0
LINE
  5
22A02
330
A
100
AcDbEntity
  8
10
  6
Continuous
100
AcDbLine
 10
2.511234999999942
 20
-457.3000000000002
 30
0.0
 11
-2.511234999999942
 21
-457.3000000000002
 31
0.0
  0
LINE
  5
22A05
330
A
100
AcDbEntity
  8
10
  6
Continuous
100
AcDbLine
 10
-48.45455749999974
 20
-478.0005149999997
 30
0.0
 11
-48.01110500000004
 21
-457.7886374999998
 31
0.0
  0
LINE
  5
22A06
330
A
100
AcDbEntity
  8
10
  6
Continuous
100
AcDbLine
 10
41.54544250000026
 20
-478.0005149999997
 30
0.0
 11
41.98889499999995
 21
-457.7886374999998
 31
0.0
  0
LINE
  5
22A07
330
A
100
AcDbEntity
  8
10
  6
Continuous
100
AcDbLine
 10
3.011105000000043
 20
-457.7886374999998
 30
0.0
 11
3.454557500000191
 21
-478.0005149999997
 31
0.0
  0
LINE
  5
22A08
330
A
100
AcDbEntity
  8
10
  6
Continuous
100
AcDbLine
 10
-3.454557499999737
 20
-478.0005149999997
 30
0.0
 11
-3.011105000000043
 21
-457.7886374999998
 31
0.0
  0
LINE
  5
22A09
330
A
100
AcDbEntity
  8
10
  6
Continuous
100
AcDbLine
 10
48.01110500000004
 20
-457.7886374999998
 30
0.0
 11
48.45455750000019
 21
-478.0005149999997
 31
0.0
  0
LINE
  5
22A0B
330
A
100
AcDbEntity
  8
10
  6
Continuous
100
AcDbLine
 10
-41.54544249999981
 20
-478.0005149999997
 30
0.0
 11
-40.29999999999972
 21
-480.0
 31
0.0
  0
LINE
  5
22A0C
330
A
100
AcDbEntity
  8
10
  6
Continuous
100
AcDbLine
 10
48.45455750000019
 20
-478.0005149999997
 30
0.0
 11
49.70000000000027
 21
-480.0
 31
0.0
  0
LINE
  5
22A0D
330
A
100
AcDbEntity
  8
10
  6
Continuous
100
AcDbLine
 10
3.454557500000191
 20
-478.0005149999997
 30
0.0
 11
4.700000000000272
 21
-480.0
 31
0.0
  0
LINE
  5
22A0E
330
A
100
AcDbEntity
  8
10
  6
Continuous
100
AcDbLine
 10
-4.699999999999818
 20
-480.0
 30
0.0
 11
-3.454557499999737
 21
-478.0005149999997
 31
0.0
  0
LINE
  5
22A0F
330
A
100
AcDbEntity
  8
10
  6
Continuous
100
AcDbLine
 10
40.30000000000018
 20
-480.0
 30
0.0
 11
41.54544250000026
 21
-478.0005149999997
 31
0.0
  0
LINE
  5
22A10
330
A
100
AcDbEntity
  8
10
  6
Continuous
100
AcDbLine
 10
-49.69999999999981
 20
-480.0
 30
0.0
 11
-48.45455749999974
 21
-478.0005149999997
 31
0.0
  0
LINE
  5
22A11
330
A
100
AcDbEntity
  8
10
  6
Continuous
100
AcDbLine
 10
-57.50006249999978
 20
-480.0
 30
0.0
 11
-58.5
 21
-480.0
 31
0.0
  0
LINE
  5
22A12
330
A
100
AcDbEntity
  8
10
  6
Continuous
100
AcDbLine
 10
-49.69999999999981
 20
-480.0
 30
0.0
 11
-57.50006249999978
 21
-480.0
 31
0.0
  0
LINE
  5
22A13
330
A
100
AcDbEntity
  8
10
  6
Continuous
100
AcDbLine
 10
12.50007000000005
 20
-480.0
 30
0.0
 11
4.700000000000272
 21
-480.0
 31
0.0
  0
LINE
  5
22A14
330
A
100
AcDbEntity
  8
10
  6
Continuous
100
AcDbLine
 10
13.5
 20
-480.0
 30
0.0
 11
12.50007000000005
 21
-480.0
 31
0.0
  0
LINE
  5
22A15
330
A
100
AcDbEntity
  8
10
  6
Continuous
100
AcDbLine
 10
-4.699999999999818
 20
-480.0
 30
0.0
 11
-12.50007000000005
 21
-480.0
 31
0.0
  0
LINE
  5
22A16
330
A
100
AcDbEntity
  8
10
  6
Continuous
100
AcDbLine
 10
-12.50007000000005
 20
-480.0
 30
0.0
 11
-13.5
 21
-480.0
 31
0.0
  0
LINE
  5
22A17
330
A
100
AcDbEntity
  8
10
  6
Continuous
100
AcDbLine
 10
32.49992999999995
 20
-480.0
 30
0.0
 11
31.5
 21
-480.0
 31
0.0
  0
LINE
  5
22A18
330
A
100
AcDbEntity
  8
10
  6
Continuous
100
AcDbLine
 10
40.30000000000018
 20
-480.0
 30
0.0
 11
32.49992999999995
 21
-480.0
 31
0.0
  0
LINE
  5
22A19
330
A
100
AcDbEntity
  8
10
  6
Continuous
100
AcDbLine
 10
58.5
 20
-480.0
 30
0.0
 11
57.50007000000005
 21
-480.0
 31
0.0
  0
LINE
  5
22A1A
330
A
100
AcDbEntity
  8
10
  6
Continuous
100
AcDbLine
 10
57.50007000000005
 20
-480.0
 30
0.0
 11
49.70000000000027
 21
-480.0
 31
0.0
  0
LINE
  5
22A1B
330
A
100
AcDbEntity
  8
10
  6
Continuous
100
AcDbLine
 10
-31.5
 20
-480.0
 30
0.0
 11
-32.49993749999976
 21
-480.0
 31
0.0
  0
LINE
  5
22A1C
330
A
100
AcDbEntity
  8
10
  6
Continuous
100
AcDbLine
 10
-32.49993749999976
 20
-480.0
 30
0.0
 11
-40.29999999999972
 21
-480.0
 31
0.0
  0
LINE
  5
22A1D
330
A
100
AcDbEntity
  8
10
  6
Continuous
100
AcDbLine
 10
-46.458255
 20
-403.2282126205654
 30
0.0
 11
-46.0
 21
-403.2282126205654
 31
0.0
  0
LINE
  5
22A1E
330
A
100
AcDbEntity
  8
10
  6
Continuous
100
AcDbLine
 10
-46.0
 20
-403.2282126205654
 30
0.0
 11
82.5
 21
-403.2282126205654
 31
0.0
  0
LINE
  5
22A1F
330
A
100
AcDbEntity
  8
10
  6
Continuous
100
AcDbLine
 10
83.0
 20
-403.2282126205654
 30
0.0
 11
82.5
 21
-403.2282126205654
 31
0.0
  0
ARC
  5
22A28
330
A
100
AcDbEntity
  8
10
  6
Continuous
100
AcDbCircle
 10
68.09999999999991
 20
-375.3000000000002
 30
0.0
 40
12.5
210
0.0
220
0.0
230
-1.0
100
AcDbArc
 50
0.0
 51
90.0
  0
ARC
  5
22A29
330
A
100
AcDbEntity
  8
10
  6
Continuous
100
AcDbCircle
 10
-109.0
 20
-420.0
 30
0.0
 40
1.0
100
AcDbArc
 50
90.0
 51
180.0
  0
ARC
  5
22A2A
330
A
100
AcDbEntity
  8
10
  6
Continuous
100
AcDbCircle
 10
109.0
 20
-420.0
 30
0.0
 40
1.0
100
AcDbArc
 50
0.0
 51
90.0
  0
ARC
  5
22A2B
330
A
100
AcDbEntity
  8
10
  6
Continuous
100
AcDbCircle
 10
-89.50000000000001
 20
-420.0
 30
0.0
 40
1.0
210
0.0
220
0.0
230
-1.0
100
AcDbArc
 50
90.0
 51
180.0
  0
ARC
  5
22A2C
330
A
100
AcDbEntity
  8
10
  6
Continuous
100
AcDbCircle
 10
109.0
 20
-430.8000000000001
 30
0.0
 40
1.0
100
AcDbArc
 50
0.0
 51
90.0
  0
ARC
  5
22A32
330
A
100
AcDbEntity
  8
10
  6
Continuous
100
AcDbCircle
 10
2.511234999999942
 20
-457.8000000000002
 30
0.0
 40
0.5
100
AcDbArc
 50
1.301953000001034
 51
90.0
  0
ARC
  5
22A33
330
A
100
AcDbEntity
  8
10
  6
Continuous
100
AcDbCircle
 10
-2.511234999999942
 20
-457.8000000000002
 30
0.0
 40
0.5
100
AcDbArc
 50
90.0
 51
178.698046999999
  0
ARC
  5
22A34
330
A
100
AcDbEntity
  8
10
  6
Continuous
100
AcDbCircle
 10
42.48876500000005
 20
-457.8000000000002
 30
0.0
 40
0.5
100
AcDbArc
 50
90.0
 51
178.698046999999
  0
ARC
  5
22A35
330
A
100
AcDbEntity
  8
10
  6
Continuous
100
AcDbCircle
 10
-47.51123499999994
 20
-457.8000000000002
 30
0.0
 40
0.5
100
AcDbArc
 50
90.0
 51
178.698046999999
  0
ARC
  5
22A36
330
A
100
AcDbEntity
  8
10
  6
Continuous
100
AcDbCircle
 10
47.51123499999994
 20
-457.8000000000002
 30
0.0
 40
0.5
100
AcDbArc
 50
1.301953000001034
 51
90.0
  0
SPLINE
  5
22A37
330
A
100
AcDbEntity
  8
10
  6
Continuous
100
AcDbSpline
210
0.0000000000000036
220
-0.0000000000000091
230
1.0
 70
     8
 71
     3
 72
    10
 73
     6
 74
     0
 42
0.0000000001
 43
0.0000000001
 40
0.0
 40
0.0
 40
0.0
 40
0.0
 40
0.5
 40
0.5
 40
1.0
 40
1.0
 40
1.0
 40
1.0
 10
86.5
 20
-430.7999990475991
 30
0.0000000000000158
 10
86.95888570096167
 20
-430.5705568854564
 30
0.0000000000000158
 10
87.42293027048026
 20
-430.3372969489583
 30
0.0000000000000158
 10
88.31615133399919
 20
-429.9587470042625
 30
0.0000000000000158
 10
88.75545737486072
 20
-429.7999990475991
 30
0.000000000000016
 10
89.14575131106449
 20
-429.7999990475991
 30
0.000000000000016
  0
SPLINE
  5
22A38
330
A
100
AcDbEntity
  8
10
  6
Continuous
100
AcDbSpline
210
0.0
220
0.0
230
1.0
 70
     8
 71
     3
 72
    10
 73
     6
 74
     0
 42
0.0000000001
 43
0.0000000001
 40
0.0
 40
0.0
 40
0.0
 40
0.0
 40
0.5
 40
0.5
 40
1.0
 40
1.0
 40
1.0
 40
1.0
 10
86.5
 20
-431.2999990475991
 30
0.0000000000000158
 10
86.95888570096167
 20
-431.0705568854573
 30
0.0000000000000158
 10
87.42293027048026
 20
-430.8372969489583
 30
0.0000000000000158
 10
88.31615133399919
 20
-430.4587470042633
 30
0.0000000000000158
 10
88.75545737486072
 20
-430.2999990475991
 30
0.0000000000000158
 10
89.14575131106449
 20
-430.2999990475991
 30
0.0000000000000158
  0
LINE
  5
22B63
330
A
100
AcDbEntity
  8
12
  6
PHANTOM
100
AcDbLine
 10
124.0
 20
-440.0
 30
0.0
 11
84.0
 21
-440.0
 31
0.0
  0
LINE
  5
22B64
330
A
100
AcDbEntity
  8
10
  6
Continuous
100
AcDbLine
 10
101.0000000000002
 20
-446.9000000000001
 30
0.0
 11
100.9954178203257
 21
-429.8000000000001
 31
0.0
  0
LINE
  5
22B65
330
A
100
AcDbEntity
  8
10
  6
Continuous
100
AcDbLine
 10
95.00000000000023
 20
-446.9000000000001
 30
0.0
 11
95.00000000000023
 21
-429.8000000000001
 31
0.0
  0
LINE
  5
22B66
330
A
100
AcDbEntity
  8
10
  6
Continuous
100
AcDbLine
 10
96.00000000000022
 20
-447.9
 30
0.0
 11
100.0000000000002
 21
-447.9
 31
0.0
  0
LINE
  5
22B67
330
A
100
AcDbEntity
  8
10
  6
Continuous
100
AcDbLine
 10
95.00000000000023
 20
-446.9000000000001
 30
0.0
 11
101.0000000000002
 21
-446.9000000000001
 31
0.0
  0
LINE
  5
22B68
330
A
100
AcDbEntity
  8
10
  6
Continuous
100
AcDbLine
 10
96.0000003784005
 20
-447.899999956
 30
0.0
 11
95.00000006560027
 21
-446.8999994322
 31
0.0
  0
LINE
  5
22B69
330
A
100
AcDbEntity
  8
10
  6
Continuous
100
AcDbLine
 10
99.9999996218005
 20
-447.899999956
 30
0.0
 11
100.9999999346003
 21
-446.8999994322
 31
0.0
  0
LINE
  5
22B6A
330
A
100
AcDbEntity
  8
12
  6
PHANTOM
100
AcDbLine
 10
86.0
 20
-443.0
 30
0.0
 11
116.5
 21
-443.0
 31
0.0
  0
LINE
  5
22B6D
330
A
100
AcDbEntity
  8
10
  6
Continuous
100
AcDbLine
 10
92.50000000000023
 20
-429.8000000000001
 30
0.0
 11
103.5000000000002
 21
-429.8000000000001
 31
0.0
  0
ARC
  5
22B6E
330
A
100
AcDbEntity
  8
10
  6
Continuous
100
AcDbCircle
 10
98.00000000017849
 20
-435.2000000001535
 30
0.0
 40
10.00000000023221
100
AcDbArc
 50
64.62306647606748
 51
82.4776265180894
  0
LINE
  5
22B6F
330
A
100
AcDbEntity
  8
12
  6
PHANTOM
100
AcDbLine
 10
84.0
 20
-440.0
 30
0.0
 11
84.0
 21
-441.0
 31
0.0
  0
ARC
  5
22B70
330
A
100
AcDbEntity
  8
12
  6
PHANTOM
100
AcDbCircle
 10
85.99999999990814
 20
-441.0000000000918
 30
0.0
 40
1.999999999908141
100
AcDbArc
 50
179.9999999973684
 51
270.0000000026316
  0
LINE
  5
22B73
330
A
100
AcDbEntity
  8
10
  6
Continuous
100
AcDbLine
 10
92.00000000000022
 20
-429.3000000000001
 30
0.0
 11
92.00000000000022
 21
-428.8754446796001
 31
0.0
  0
ARC
  5
22B76
330
A
100
AcDbEntity
  8
10
  6
Continuous
100
AcDbCircle
 10
98.00000000002228
 20
-435.2000000001549
 30
0.0
 40
10.00000000023358
100
AcDbArc
 50
97.52237348191059
 51
115.3769335239325
  0
ARC
  5
22B77
330
A
100
AcDbEntity
  8
10
  6
Continuous
100
AcDbCircle
 10
95.00000000014825
 20
-428.8754446796636
 30
0.0
 40
3.00000000014803
100
AcDbArc
 50
115.3769335245248
 51
179.9999999987884
  0
ARC
  5
22B78
330
A
100
AcDbEntity
  8
10
  6
Continuous
100
AcDbCircle
 10
92.50000000007549
 20
-429.299999999925
 30
0.0
 40
0.5000000000752607
100
AcDbArc
 50
180.0000000086177
 51
270.0000053542978
  0
LINE
  5
22B7C
330
A
100
AcDbEntity
  8
10
  6
Continuous
100
AcDbLine
 10
104.0000000000002
 20
-429.3000000000001
 30
0.0
 11
104.0000000000002
 21
-428.8754446796001
 31
0.0
  0
ARC
  5
22B7E
330
A
100
AcDbEntity
  8
10
  6
Continuous
100
AcDbCircle
 10
100.9999999999522
 20
-428.8754446795056
 30
0.0
 40
3.000000000047975
100
AcDbArc
 50
359.9999999981957
 51
64.62306647244635
  0
ARC
  5
22B7F
330
A
100
AcDbEntity
  8
10
  6
Continuous
100
AcDbCircle
 10
103.5000000000252
 20
-429.3000000000253
 30
0.0
 40
0.49999999997492
100
AcDbArc
 50
269.9999946571925
 51
0.0000000028725752
  0
LINE
  5
22B82
330
A
100
AcDbEntity
  8
12
  6
PHANTOM
100
AcDbLine
 10
121.0
 20
-447.5
 30
0.0
 11
121.0
 21
-478.0
 31
0.0
  0
LINE
  5
22B83
330
A
100
AcDbEntity
  8
12
  6
PHANTOM
100
AcDbLine
 10
124.0
 20
-480.0
 30
0.0
 11
124.0
 21
-440.0
 31
0.0
  0
ARC
  5
22B84
330
A
100
AcDbEntity
  8
12
  6
PHANTOM
100
AcDbCircle
 10
116.5000000002067
 20
-447.4999999997932
 30
0.0
 40
4.499999999793317
100
AcDbArc
 50
359.9999999973684
 51
90.00000000263158
  0
LINE
  5
22B8D
330
A
100
AcDbEntity
  8
12
  6
PHANTOM
100
AcDbLine
 10
123.0
 20
-480.0
 30
0.0
 11
124.0
 21
-480.0
 31
0.0
  0
ARC
  5
22B8E
330
A
100
AcDbEntity
  8
12
  6
PHANTOM
100
AcDbCircle
 10
122.9999999999081
 20
-478.0000000000918
 30
0.0
 40
1.999999999908141
100
AcDbArc
 50
179.9999999973684
 51
270.0000000026316
  0
LINE
  5
22B9A
330
A
100
AcDbEntity
  8
11
  6
PHANTOM
100
AcDbLine
 10
43.00000000000004
 20
-463.605551275464
 30
0.0
 11
43.00000000000004
 21
-498.6055512754639
 31
0.0
  0
LINE
  5
22B9B
330
A
100
AcDbEntity
  8
11
  6
PHANTOM
100
AcDbLine
 10
47.00000000000004
 20
-498.6055512754639
 30
0.0
 11
47.00000000000004
 21
-463.605551275464
 31
0.0
  0
ARC
  5
22B9C
330
A
100
AcDbEntity
  8
11
  6
PHANTOM
100
AcDbCircle
 10
45.0
 20
-464.0484536989462
 30
0.0
 40
2.048453698946255
100
AcDbArc
 50
12.48670404977225
 51
167.5132959502311
  0
LINE
  5
22C8D
330
A
100
AcDbEntity
  8
16
  6
CENTER
100
AcDbLine
 10
98.00000000000023
 20
-410.3211282479999
 30
0.0
 11
98.00000000000023
 21
-455.0482026797999
 31
0.0
  0
LINE
  5
22C8E
330
A
100
AcDbEntity
  8
11
  6
PHANTOM
100
AcDbLine
 10
-1.999999999999957
 20
-463.605551275464
 30
0.0
 11
-1.999999999999957
 21
-498.6055512754639
 31
0.0
  0
LINE
  5
22C8F
330
A
100
AcDbEntity
  8
11
  6
PHANTOM
100
AcDbLine
 10
2.000000000000042
 20
-498.6055512754639
 30
0.0
 11
2.000000000000042
 21
-463.605551275464
 31
0.0
  0
ARC
  5
22C90
330
A
100
AcDbEntity
  8
11
  6
PHANTOM
100
AcDbCircle
 10
0.0
 20
-464.0484536989462
 30
0.0
 40
2.048453698946255
100
AcDbArc
 50
12.48670404977225
 51
167.5132959502311
  0
LINE
  5
22C91
330
A
100
AcDbEntity
  8
11
  6
PHANTOM
100
AcDbLine
 10
-46.99999999999994
 20
-463.605551275464
 30
0.0
 11
-46.99999999999994
 21
-498.6055512754639
 31
0.0
  0
LINE
  5
22C92
330
A
100
AcDbEntity
  8
11
  6
PHANTOM
100
AcDbLine
 10
-42.99999999999994
 20
-498.6055512754639
 30
0.0
 11
-42.99999999999994
 21
-463.605551275464
 31
0.0
  0
ARC
  5
22C93
330
A
100
AcDbEntity
  8
11
  6
PHANTOM
100
AcDbCircle
 10
-44.99999999999999
 20
-464.0484536989462
 30
0.0
 40
2.048453698946255
100
AcDbArc
 50
12.48670404977225
 51
167.5132959502311
  0
MTEXT
  5
22CBC
330
A
100
AcDbEntity
  8
19
100
AcDbMText
 10
2.861648604733929
 20
-481.3195406651025
 30
0.0
 40
7.0
 41
0.0
 71
     1
 72
     5
  1
適用ﾌﾞｽﾊﾞｰ厚み
  7
SLDTEXTSTYLE0
 73
     1
 44
1.0
1001
ACAD
1000
MTEXTBEGIN
1070
    73
1070
     1
1070
    44
1040
1.0
1070
    74
1070
     0
1000
MTEXTEND
  0
LINE
  5
22D40
330
A
100
AcDbEntity
  8
16
  6
CENTER
100
AcDbLine
 10
42.08004182385171
 20
-376.3915234343999
 30
0.0
 11
42.08004182385171
 21
-399.4945749753999
 31
0.0
  0
ARC
  5
22D41
330
A
100
AcDbEntity
  8
10
  6
Continuous
100
AcDbCircle
 10
49.75149665235209
 20
-387.1
 30
0.0
 40
0.3
100
AcDbArc
 50
331.0438925872971
 51
4.999999999999793
  0
ARC
  5
22D42
330
A
100
AcDbEntity
  8
10
  6
Continuous
100
AcDbCircle
 10
47.86520174427674
 20
-385.0448630597191
 30
0.0
 40
1.99999999997507
100
AcDbArc
 50
4.999761913188804
 51
58.26274604823479
  0
ARC
  5
22D43
330
A
100
AcDbEntity
  8
10
  6
Continuous
100
AcDbCircle
 10
36.2925766610275
 20
-385.0448630597195
 30
0.0
 40
1.999999999975336
100
AcDbArc
 50
121.7372539517488
 51
175.0002380867981
  0
LINE
  5
22D44
330
A
100
AcDbEntity
  8
10
  6
Continuous
100
AcDbLine
 10
33.57888920255196
 20
-393.5
 30
0.0
 11
49.57888920255197
 21
-393.5
 31
0.0
  0
LINE
  5
22D45
330
A
100
AcDbEntity
  8
10
  6
Continuous
100
AcDbLine
 10
34.32888920255197
 20
-391.0
 30
0.0
 11
49.82888920255196
 21
-391.0
 31
0.0
  0
LINE
  5
22D46
330
A
100
AcDbEntity
  8
10
  6
Continuous
100
AcDbLine
 10
34.62888920255215
 20
-389.4000000000001
 30
0.0
 11
49.52888920255223
 21
-389.4000000000001
 31
0.0
  0
LINE
  5
22D47
330
A
100
AcDbEntity
  8
10
  6
Continuous
100
AcDbLine
 10
34.40628175295193
 20
-387.4000000000001
 30
0.0
 11
49.75149665235209
 21
-387.4000000000001
 31
0.0
  0
LINE
  5
22D48
330
A
100
AcDbEntity
  8
10
  6
Continuous
100
AcDbLine
 10
34.32888920255197
 20
-391.0
 30
0.0
 11
34.32888920255197
 21
-389.6999999328
 31
0.0
  0
LINE
  5
22D49
330
A
100
AcDbEntity
  8
10
  6
Continuous
100
AcDbLine
 10
34.37888920255215
 20
-388.8319166038001
 30
0.0
 11
34.37888920255215
 21
-387.9680833960001
 31
0.0
  0
LINE
  5
22D4A
330
A
100
AcDbEntity
  8
10
  6
Continuous
100
AcDbLine
 10
34.10742334335224
 20
-387.0738532794001
 30
0.0
 11
34.30018733455232
 21
-384.870550777
 31
0.0
  0
ARC
  5
22D4B
330
A
100
AcDbEntity
  8
10
  6
Continuous
100
AcDbCircle
 10
34.87888920272541
 20
-388.8319166037395
 30
0.0
 40
0.5000000001732588
100
AcDbArc
 50
180.0000000069502
 51
268.4999999982901
  0
ARC
  5
22D4C
330
A
100
AcDbEntity
  8
10
  6
Continuous
100
AcDbCircle
 10
34.87888920262286
 20
-387.9680833961608
 30
0.0
 40
0.5000000000706386
100
AcDbArc
 50
91.4999999902678
 51
179.999999981592
  0
ARC
  5
22D4D
330
A
100
AcDbEntity
  8
10
  6
Continuous
100
AcDbCircle
 10
34.40628175300809
 20
-387.0999999999988
 30
0.0
 40
0.3000000000013378
100
AcDbArc
 50
174.9999996214969
 51
270.0000038472576
  0
LINE
  5
22D4E
330
A
100
AcDbEntity
  8
10
  6
Continuous
100
AcDbLine
 10
41.38717473875191
 20
-387.4000000000001
 30
0.0
 11
41.94054630995229
 21
-389.4000000000001
 31
0.0
  0
LINE
  5
22D4F
330
A
100
AcDbEntity
  8
10
  6
Continuous
100
AcDbLine
 10
42.21723209535217
 20
-387.4000000000001
 30
0.0
 11
42.7706036665521
 21
-389.4000000000001
 31
0.0
  0
LINE
  5
22D50
330
A
100
AcDbEntity
  8
10
  6
Continuous
100
AcDbLine
 10
50.05035506195223
 20
-387.0738532794001
 30
0.0
 11
49.85759107075215
 21
-384.870550777
 31
0.0
  0
LINE
  5
22D51
330
A
100
AcDbEntity
  8
10
  6
Continuous
100
AcDbLine
 10
49.57888920255197
 20
-391.0
 30
0.0
 11
49.57888920255197
 21
-393.5
 31
0.0
  0
LINE
  5
22D52
330
A
100
AcDbEntity
  8
10
  6
Continuous
100
AcDbLine
 10
49.77888920255224
 20
-388.8319166038001
 30
0.0
 11
49.77888920255224
 21
-387.9680833960001
 31
0.0
  0
LINE
  5
22D53
330
A
100
AcDbEntity
  8
10
  6
Continuous
100
AcDbLine
 10
49.82888920255196
 20
-391.0
 30
0.0
 11
49.82888920255196
 21
-389.6999999328
 31
0.0
  0
ARC
  5
22D54
330
A
100
AcDbEntity
  8
10
  6
Continuous
100
AcDbCircle
 10
49.27888920247879
 20
-388.8319166038419
 30
0.0
 40
0.5000000000734639
100
AcDbArc
 50
271.5000000134517
 51
0.0000000047876254
  0
ARC
  5
22D55
330
A
100
AcDbEntity
  8
10
  6
Continuous
100
AcDbCircle
 10
49.27888920258133
 20
-387.9680833960583
 30
0.0
 40
0.4999999999708962
100
AcDbArc
 50
0.0000000066701066
 51
88.49999999799042
  0
ARC
  5
22D56
330
A
100
AcDbEntity
  8
10
  6
Continuous
100
AcDbCircle
 10
49.7514966521961
 20
-387.0999999999073
 30
0.0
 40
0.3000000000928231
100
AcDbArc
 50
269.9999961336831
 51
5.000000359442876
  0
ARC
  5
22D57
330
A
100
AcDbEntity
  8
10
  6
Continuous
100
AcDbCircle
 10
42.07888920265223
 20
-394.3999999995183
 30
0.0
 40
12.99999999958619
100
AcDbArc
 50
58.26249499899822
 51
121.7375050010018
  0
LINE
  5
22D5A
330
A
100
AcDbEntity
  8
11
  6
PHANTOM
100
AcDbLine
 10
26.0
 20
-349.0
 30
0.0
 11
26.0
 21
-347.0
 31
0.0
  0
LINE
  5
22DAE
330
A
100
AcDbEntity
  8
12
  6
PHANTOM
100
AcDbLine
 10
-124.0
 20
-440.0
 30
0.0
 11
-84.0
 21
-440.0
 31
0.0
  0
LINE
  5
22DAF
330
A
100
AcDbEntity
  8
12
  6
PHANTOM
100
AcDbLine
 10
-86.0
 20
-443.0
 30
0.0
 11
-116.5
 21
-443.0
 31
0.0
  0
LINE
  5
22DB0
330
A
100
AcDbEntity
  8
12
  6
PHANTOM
100
AcDbLine
 10
-84.0
 20
-440.0
 30
0.0
 11
-84.0
 21
-441.0
 31
0.0
  0
ARC
  5
22DB1
330
A
100
AcDbEntity
  8
12
  6
PHANTOM
100
AcDbCircle
 10
-85.99999999990814
 20
-441.0000000000918
 30
0.0
 40
1.999999999908141
100
AcDbArc
 50
269.9999999973684
 51
0.0000000026315655
  0
LINE
  5
22DB2
330
A
100
AcDbEntity
  8
12
  6
PHANTOM
100
AcDbLine
 10
-121.0
 20
-447.5
 30
0.0
 11
-121.0
 21
-478.0
 31
0.0
  0
LINE
  5
22DB3
330
A
100
AcDbEntity
  8
12
  6
PHANTOM
100
AcDbLine
 10
-124.0
 20
-480.0
 30
0.0
 11
-124.0
 21
-440.0
 31
0.0
  0
ARC
  5
22DB4
330
A
100
AcDbEntity
  8
12
  6
PHANTOM
100
AcDbCircle
 10
-116.5000000002067
 20
-447.4999999997932
 30
0.0
 40
4.499999999793317
100
AcDbArc
 50
89.99999999736843
 51
180.0000000026315
  0
LINE
  5
22DB5
330
A
100
AcDbEntity
  8
12
  6
PHANTOM
100
AcDbLine
 10
-123.0
 20
-480.0
 30
0.0
 11
-124.0
 21
-480.0
 31
0.0
  0
ARC
  5
22DB6
330
A
100
AcDbEntity
  8
12
  6
PHANTOM
100
AcDbCircle
 10
-122.9999999999081
 20
-478.0000000000918
 30
0.0
 40
1.999999999908141
100
AcDbArc
 50
269.9999999973684
 51
0.0000000026315655
  0
DIMENSION
  5
231B8
330
A
100
AcDbEntity
  8
30
100
AcDbDimension
  2
*D20
 10
796.0295468939327
 20
-20.96139200678369
 30
0.0
 11
850.5602560467114
 21
-63.54113405688486
 31
0.0
 70
   163
  1
2-M5
 71
     5
 42
5.000000000001023
  3
ISO-25-2
100
AcDbDiametricDimension
 15
799.9704531060692
 25
-24.03860799321587
 35
0.0
 40
0.0
  0
LINE
  5
231B9
330
A
100
AcDbEntity
  8
11
  6
PHANTOM
100
AcDbLine
 10
806.0
 20
-30.00000000000074
 30
0.0
 11
594.0
 21
-30.00000000000085
 31
0.0
  0
LINE
  5
231BA
330
A
100
AcDbEntity
  8
11
  6
PHANTOM
100
AcDbLine
 10
594.0
 20
29.99999999999983
 30
0.0
 11
806.0
 21
29.99999999999983
 31
0.0
  0
LINE
  5
231BB
330
A
100
AcDbEntity
  8
11
  6
PHANTOM
100
AcDbLine
 10
590.0
 20
12.5
 30
0.0
 11
590.0
 21
25.99999999999983
 31
0.0
  0
LINE
  5
231BC
330
A
100
AcDbEntity
  8
11
  6
PHANTOM
100
AcDbLine
 10
810.0
 20
25.99999999999983
 30
0.0
 11
810.0
 21
-12.5
 31
0.0
  0
LINE
  5
231BD
330
A
100
AcDbEntity
  8
11
  6
PHANTOM
100
AcDbLine
 10
590.0
 20
-26.00000000000074
 30
0.0
 11
590.0
 21
12.5
 31
0.0
  0
LINE
  5
231BE
330
A
100
AcDbEntity
  8
11
  6
PHANTOM
100
AcDbLine
 10
810.0
 20
-12.5
 30
0.0
 11
810.0
 21
-26.00000000000074
 31
0.0
  0
ARC
  5
231BF
330
A
100
AcDbEntity
  8
11
  6
PHANTOM
100
AcDbCircle
 10
-594.0
 20
-26.00000000000074
 30
0.0
 40
4.0
210
0.0
220
0.0
230
-1.0
100
AcDbArc
 50
270.0
 51
0.0
  0
ARC
  5
231C0
330
A
100
AcDbEntity
  8
11
  6
PHANTOM
100
AcDbCircle
 10
-806.0
 20
-26.00000000000074
 30
0.0
 40
4.0
210
0.0
220
0.0
230
-1.0
100
AcDbArc
 50
180.0
 51
270.0
  0
ARC
  5
231C1
330
A
100
AcDbEntity
  8
11
  6
PHANTOM
100
AcDbCircle
 10
-594.0
 20
25.99999999999983
 30
0.0
 40
4.0
210
0.0
220
0.0
230
-1.0
100
AcDbArc
 50
0.0
 51
90.0
  0
ARC
  5
231C2
330
A
100
AcDbEntity
  8
11
  6
PHANTOM
100
AcDbCircle
 10
-806.0
 20
25.99999999999983
 30
0.0
 40
4.0
210
0.0
220
0.0
230
-1.0
100
AcDbArc
 50
90.0
 51
180.0
  0
LINE
  5
231C3
330
A
100
AcDbEntity
  8
16
  6
CENTER
100
AcDbLine
 10
802.5000000000002
 20
-22.49999999999983
 30
0.0
 11
793.5000000000002
 21
-22.49999999999983
 31
0.0
  0
CIRCLE
  5
231C4
330
A
100
AcDbEntity
  8
10
  6
Continuous
100
AcDbCircle
 10
602.0000000000002
 20
22.50000000000017
 30
0.0
 40
2.5
  0
LINE
  5
231C5
330
A
100
AcDbEntity
  8
16
  6
Continuous
100
AcDbLine
 10
602.0000000000006
 20
32.50010000000015
 30
0.0
 11
602.0000000000006
 21
12.49990000000019
 31
0.0
  0
LINE
  5
231C6
330
A
100
AcDbEntity
  8
16
  6
Continuous
100
AcDbLine
 10
591.9999000000005
 20
22.50000000000017
 30
0.0
 11
612.0001
 21
22.50000000000017
 31
0.0
  0
CIRCLE
  5
231C7
330
A
100
AcDbEntity
  8
10
  6
Continuous
100
AcDbCircle
 10
798.0000000000002
 20
-22.5
 30
0.0
 40
2.5
  0
LINE
  5
231C8
330
A
100
AcDbEntity
  8
16
  6
Continuous
100
AcDbLine
 10
798.0000000000006
 20
-12.49990000000002
 30
0.0
 11
798.0000000000006
 21
-32.50009999999998
 31
0.0
  0
LINE
  5
231C9
330
A
100
AcDbEntity
  8
16
  6
Continuous
100
AcDbLine
 10
787.9999000000005
 20
-22.5
 30
0.0
 11
808.0000999999999
 21
-22.5
 31
0.0
  0
LINE
  5
2320E
330
A
100
AcDbEntity
  8
11
  6
PHANTOM
100
AcDbLine
 10
806.0
 20
-470.0000000000007
 30
0.0
 11
594.0
 21
-470.0000000000009
 31
0.0
  0
LINE
  5
2320F
330
A
100
AcDbEntity
  8
11
  6
PHANTOM
100
AcDbLine
 10
594.0
 20
-410.0000000000001
 30
0.0
 11
806.0
 21
-410.0000000000001
 31
0.0
  0
LINE
  5
23210
330
A
100
AcDbEntity
  8
11
  6
PHANTOM
100
AcDbLine
 10
590.0
 20
-427.5
 30
0.0
 11
590.0
 21
-414.0000000000001
 31
0.0
  0
LINE
  5
23211
330
A
100
AcDbEntity
  8
11
  6
PHANTOM
100
AcDbLine
 10
810.0
 20
-414.0000000000001
 30
0.0
 11
810.0
 21
-452.5
 31
0.0
  0
LINE
  5
23212
330
A
100
AcDbEntity
  8
11
  6
PHANTOM
100
AcDbLine
 10
590.0
 20
-466.0000000000007
 30
0.0
 11
590.0
 21
-427.5
 31
0.0
  0
LINE
  5
23213
330
A
100
AcDbEntity
  8
11
  6
PHANTOM
100
AcDbLine
 10
810.0
 20
-452.5
 30
0.0
 11
810.0
 21
-466.0000000000007
 31
0.0
  0
ARC
  5
23214
330
A
100
AcDbEntity
  8
11
  6
PHANTOM
100
AcDbCircle
 10
-594.0
 20
-466.0000000000007
 30
0.0
 40
4.0
210
0.0
220
0.0
230
-1.0
100
AcDbArc
 50
270.0
 51
0.0
  0
ARC
  5
23215
330
A
100
AcDbEntity
  8
11
  6
PHANTOM
100
AcDbCircle
 10
-806.0
 20
-466.0000000000007
 30
0.0
 40
4.0
210
0.0
220
0.0
230
-1.0
100
AcDbArc
 50
180.0
 51
270.0
  0
ARC
  5
23216
330
A
100
AcDbEntity
  8
11
  6
PHANTOM
100
AcDbCircle
 10
-594.0
 20
-414.0000000000001
 30
0.0
 40
4.0
210
0.0
220
0.0
230
-1.0
100
AcDbArc
 50
0.0
 51
90.0
  0
ARC
  5
23217
330
A
100
AcDbEntity
  8
11
  6
PHANTOM
100
AcDbCircle
 10
-806.0
 20
-414.0000000000001
 30
0.0
 40
4.0
210
0.0
220
0.0
230
-1.0
100
AcDbArc
 50
90.0
 51
180.0
  0
TEXT
  5
2324E
330
A
100
AcDbEntity
  8
19
  6
Continuous
100
AcDbText
 10
237.6974092885059
 20
-593.4002750333958
 30
0.0
 40
8.0
  1
E30-NF, E50-NF, E60-NF, E100-NF
 41
0.8
100
AcDbText
  0
LWPOLYLINE
  5
2324F
330
A
100
AcDbEntity
  8
19
100
AcDbPolyline
 90
        4
 70
     1
 43
0.0
 10
235.0
 20
-577.2813179999997
 10
354.4830049999998
 20
-577.2813179999997
 10
354.4830049999998
 20
-560.0
 10
235.0
 20
-560.0
  0
TEXT
  5
23250
330
A
100
AcDbEntity
  8
19
100
AcDbText
 10
250.3081877900001
 20
-573.8181273799997
 30
0.0
 40
10.0
  1
T2PG05E 2P
 11
250.3081877900001
 21
-568.8181273799997
 31
0.0
100
AcDbText
 73
     2
  0
TEXT
  5
23251
330
A
100
AcDbEntity
  8
19
  6
Continuous
100
AcDbText
 10
237.4614470315939
 20
-608.1025812884359
 30
0.0
 40
8.0
  1
S30-NF, S50-CF, S50-NF, S60-NF
 41
0.8
100
AcDbText
  0
TEXT
  5
23252
330
A
100
AcDbEntity
  8
19
  6
Continuous
100
AcDbText
 10
237.225484774682
 20
-622.8048875434758
 30
0.0
 40
8.0
  1
E30-NN, E50-NN, E100-NN
 41
0.8
100
AcDbText
  0
TEXT
  5
23253
330
A
100
AcDbEntity
  8
19
  6
Continuous
100
AcDbText
 10
236.98952251777
 20
-637.5071937985158
 30
0.0
 40
8.0
  1
ZE30-NF, ZE50-NF, ZE60-NF
 41
0.8
100
AcDbText
  0
TEXT
  5
23254
330
A
100
AcDbEntity
  8
19
  6
Continuous
100
AcDbText
 10
236.753560260858
 20
-652.2095000535557
 30
0.0
 40
8.0
  1
ZS30-NF, ZS50-NF, ZS60-NF, ZE100-NF
 41
0.8
100
AcDbText
  0
LINE
  5
2329D
330
A
100
AcDbEntity
  8
10
  6
Continuous
100
AcDbLine
 10
-103.4999999999995
 20
-418.9999999999998
 30
0.0
 11
-93.99999999999954
 21
-418.9999999999998
 31
0.0
  0
LINE
  5
2329E
330
A
100
AcDbEntity
  8
10
  6
Continuous
100
AcDbLine
 10
-94.99999999999955
 20
-446.8999999999999
 30
0.0
 11
-95.00458217967409
 21
-429.8
 31
0.0
  0
LINE
  5
2329F
330
A
100
AcDbEntity
  8
10
  6
Continuous
100
AcDbLine
 10
-100.9999999999995
 20
-446.8999999999999
 30
0.0
 11
-100.9999999999995
 21
-429.8
 31
0.0
  0
LINE
  5
232A0
330
A
100
AcDbEntity
  8
10
  6
Continuous
100
AcDbLine
 10
-99.99999999999955
 20
-447.8999999999999
 30
0.0
 11
-95.99999999999955
 21
-447.8999999999999
 31
0.0
  0
LINE
  5
232A1
330
A
100
AcDbEntity
  8
10
  6
Continuous
100
AcDbLine
 10
-100.9999999999995
 20
-446.8999999999999
 30
0.0
 11
-94.99999999999955
 21
-446.8999999999999
 31
0.0
  0
LINE
  5
232A2
330
A
100
AcDbEntity
  8
10
  6
Continuous
100
AcDbLine
 10
-99.99999962159927
 20
-447.8999999559999
 30
0.0
 11
-100.9999999343995
 21
-446.8999994321999
 31
0.0
  0
LINE
  5
232A3
330
A
100
AcDbEntity
  8
10
  6
Continuous
100
AcDbLine
 10
-96.00000037819928
 20
-447.8999999559999
 30
0.0
 11
-95.00000006539949
 21
-446.8999994321999
 31
0.0
  0
LINE
  5
232A4
330
A
100
AcDbEntity
  8
10
  6
Continuous
100
AcDbLine
 10
-103.4999999999995
 20
-429.8
 30
0.0
 11
-92.49999999999955
 21
-429.8
 31
0.0
  0
ARC
  5
232A5
330
A
100
AcDbEntity
  8
10
  6
Continuous
100
AcDbCircle
 10
-97.99999999982128
 20
-435.2000000001533
 30
0.0
 40
10.00000000023221
100
AcDbArc
 50
64.62306647606698
 51
82.47762651808976
  0
LINE
  5
232A6
330
A
100
AcDbEntity
  8
10
  6
Continuous
100
AcDbLine
 10
-103.9999999999995
 20
-429.3
 30
0.0
 11
-103.9999999999995
 21
-428.8754446796
 31
0.0
  0
ARC
  5
232A7
330
A
100
AcDbEntity
  8
10
  6
Continuous
100
AcDbCircle
 10
-97.9999999999775
 20
-435.2000000001547
 30
0.0
 40
10.00000000023358
100
AcDbArc
 50
97.52237348191023
 51
115.376933523933
  0
ARC
  5
232A8
330
A
100
AcDbEntity
  8
10
  6
Continuous
100
AcDbCircle
 10
-100.9999999998515
 20
-428.8754446796635
 30
0.0
 40
3.00000000014803
100
AcDbArc
 50
115.3769335245244
 51
179.9999999987884
  0
ARC
  5
232A9
330
A
100
AcDbEntity
  8
10
  6
Continuous
100
AcDbCircle
 10
-103.4999999999243
 20
-429.2999999999248
 30
0.0
 40
0.5000000000752607
100
AcDbArc
 50
180.0000000086177
 51
270.0000053542978
  0
LINE
  5
232AA
330
A
100
AcDbEntity
  8
10
  6
Continuous
100
AcDbLine
 10
-91.99999999999954
 20
-429.3
 30
0.0
 11
-91.99999999999954
 21
-428.8754446796
 31
0.0
  0
ARC
  5
232AB
330
A
100
AcDbEntity
  8
10
  6
Continuous
100
AcDbCircle
 10
-95.00000000004751
 20
-428.8754446795054
 30
0.0
 40
3.000000000047975
100
AcDbArc
 50
359.9999999981957
 51
64.623066472446
  0
ARC
  5
232AC
330
A
100
AcDbEntity
  8
10
  6
Continuous
100
AcDbCircle
 10
-92.49999999997454
 20
-429.3000000000251
 30
0.0
 40
0.49999999997492
100
AcDbArc
 50
269.9999946571925
 51
0.0000000028725752
  0
LINE
  5
232AD
330
A
100
AcDbEntity
  8
16
  6
CENTER
100
AcDbLine
 10
-97.99999999999954
 20
-410.3211282479997
 30
0.0
 11
-97.99999999999954
 21
-455.0482026797998
 31
0.0
  0
LEADER
  5
233B0
330
A
100
AcDbEntity
  8
19
  6
Continuous
100
AcDbLeader
  3
ISO-25-2
 76
     3
 10
89.0
 20
16.9999999999996
 30
0.0
 10
120.0
 20
47.49999999999954
 30
0.0
 10
183.0
 20
47.49999999999954
 30
0.0
1001
ACAD
1000
DSTYLE
1002
{
1070
   147
1040
5.0
1070
    77
1070
     0
1002
}
  0
TEXT
  5
233B1
330
A
100
AcDbEntity
  8
19
  6
Continuous
100
AcDbText
 10
121.0146023020596
 20
48.28581290632564
 30
0.0
 40
7.0
  1
差込確認インジケータ
 41
0.75
  7
SLDTEXTSTYLE0
100
AcDbText
  0
VIEWPORT
  5
1A93
102
{ACAD_XDICTIONARY
360
2340D
102
}
330
B
100
AcDbEntity
 67
     1
  8
0
  6
Continuous
100
AcDbViewport
 10
5.613749947134903
 20
3.902083231708196
 30
0.0
 40
14.87469589274309
 41
8.746133096049151
 68
     1
 69
     1
 12
5.613749947134903
 22
3.902083231708196
 13
0.0
 23
0.0
 14
10.0
 24
10.0
 15
10.0
 25
10.0
 16
0.0
 26
0.0
 36
1.0
 17
0.0
 27
0.0
 37
0.0
 42
50.0
 43
0.0
 44
0.0
 45
8.746133096049151
 50
0.0
 51
0.0
 72
  2000
 90
    32800
  1

281
     0
 71
     1
 74
     0
110
0.0
120
0.0
130
0.0
111
1.0
121
0.0
131
0.0
112
0.0
122
1.0
132
0.0
 79
     0
146
0.0
  0
VIEWPORT
  5
1A95
102
{ACAD_XDICTIONARY
360
2340F
102
}
330
B
100
AcDbEntity
 67
     1
  8
0
  6
Continuous
100
AcDbViewport
 10
5.613749965908018
 20
3.902083250481312
 30
0.0
 40
8.981999945452834
 41
6.243333200770099
 68
     2
 69
     2
 12
200828.2280000582
 22
-200237.220278856
 13
0.0
 23
0.0
 14
1.0
 24
1.0
 15
0.0
 25
0.0
 16
0.0
 26
0.0
 36
1.0
 17
0.0
 27
0.0
 37
0.0
 42
50.0
 43
0.0
 44
0.0
 45
409243.1622416905
 50
0.0
 51
0.0
 72
  2000
 90
    32800
  1

281
     0
 71
     1
 74
     0
110
0.0
120
0.0
130
0.0
111
1.0
121
0.0
131
0.0
112
0.0
122
1.0
132
0.0
 79
     0
146
0.0
  0
ENDSEC
  0
SECTION
  2
OBJECTS
  0
DICTIONARY
  5
19
330
0
100
AcDbDictionary
281
     1
  3
ACAD_COLOR
350
266B
  3
ACAD_GROUP
350
1A
  3
ACAD_LAYOUT
350
D20
  3
ACAD_MATERIAL
350
263E
  3
ACAD_MLEADERSTYLE
350
2690
  3
ACAD_MLINESTYLE
350
1B
  3
ACAD_PLOTSETTINGS
350
D21
  3
ACAD_PLOTSTYLENAME
350
D1E
  3
ACAD_SCALELIST
350
266E
  3
ACAD_TABLESTYLE
350
266C
  3
ACAD_VISUALSTYLE
350
2657
  3
ACDB_RECOMPOSE_DATA
350
23407
  3
AcDbVariableDictionary
350
25BA
  3
AEC_PROPERTY_SET_DEFS
350
5A45
  3
ASE_INDEX_DICTIONARY
350
2177A
  3
DWGPROPS
350
23408
  0
DICTIONARY
  5
150E5
330
7
100
AcDbDictionary
280
     1
281
     1
  0
DICTIONARY
  5
281C
330
14
100
AcDbDictionary
280
     1
281
     1
  3
ADSK_XREC_LAYER_RECONCILED
360
281D
  0
DICTIONARY
  5
2824
330
E26
100
AcDbDictionary
280
     1
281
     1
  3
ADSK_XREC_LAYER_RECONCILED
360
2825
  0
DICTIONARY
  5
2826
330
E27
100
AcDbDictionary
280
     1
281
     1
  3
ADSK_XREC_LAYER_RECONCILED
360
2827
  0
DICTIONARY
  5
2828
330
E28
100
AcDbDictionary
280
     1
281
     1
  3
ADSK_XREC_LAYER_RECONCILED
360
2829
  0
DICTIONARY
  5
282C
330
E2A
100
AcDbDictionary
280
     1
281
     1
  3
ADSK_XREC_LAYER_RECONCILED
360
282D
  0
DICTIONARY
  5
282E
330
E2B
100
AcDbDictionary
280
     1
281
     1
  3
ADSK_XREC_LAYER_RECONCILED
360
282F
  0
DICTIONARY
  5
2830
330
1E3E
100
AcDbDictionary
280
     1
281
     1
  3
ADSK_XREC_LAYER_RECONCILED
360
2831
  0
DICTIONARY
  5
2832
330
1E44
100
AcDbDictionary
280
     1
281
     1
  3
ADSK_XREC_LAYER_RECONCILED
360
2833
  0
DICTIONARY
  5
2763
330
A
100
AcDbDictionary
280
     1
281
     1
  3
ACAD_SORTENTS
360
2764
  0
DICTIONARY
  5
2340D
330
1A93
100
AcDbDictionary
280
     1
281
     1
  3
ACAD_XREC_ROUNDTRIP
360
2340E
  0
DICTIONARY
  5
2340F
330
1A95
100
AcDbDictionary
280
     1
281
     1
  3
ACAD_XREC_ROUNDTRIP
360
23410
  0
DICTIONARY
  5
266B
102
{ACAD_REACTORS
330
19
102
}
330
19
100
AcDbDictionary
281
     1
  0
DICTIONARY
  5
1A
102
{ACAD_REACTORS
330
19
102
}
330
19
100
AcDbDictionary
281
     1
  0
DICTIONARY
  5
D20
102
{ACAD_REACTORS
330
19
102
}
330
19
100
AcDbDictionary
281
     1
  3
Model
350
D22
  3
ﾚｲｱｳﾄ1
350
D23
  0
DICTIONARY
  5
263E
102
{ACAD_REACTORS
330
19
102
}
330
19
100
AcDbDictionary
281
     1
  3
ByBlock
350
2647
  3
ByLayer
350
263F
  3
Global
350
264F
  0
DICTIONARY
  5
2690
102
{ACAD_REACTORS
330
19
102
}
330
19
100
AcDbDictionary
281
     1
  3
Standard
350
2691
  0
DICTIONARY
  5
1B
102
{ACAD_REACTORS
330
19
102
}
330
19
100
AcDbDictionary
281
     1
  3
STANDARD
350
1C
  0
DICTIONARY
  5
D21
102
{ACAD_REACTORS
330
19
102
}
330
19
100
AcDbDictionary
281
     1
  0
ACDBDICTIONARYWDFLT
  5
D1E
102
{ACAD_REACTORS
330
19
102
}
330
19
100
AcDbDictionary
281
     1
  3
Normal
350
D1F
100
AcDbDictionaryWithDefault
340
D1F
  0
DICTIONARY
  5
266E
102
{ACAD_REACTORS
330
19
102
}
330
19
100
AcDbDictionary
281
     1
  3
A0
350
266F
  3
A1
350
2670
  3
A2
350
2671
  3
A3
350
2672
  3
A4
350
2673
  3
A5
350
2674
  3
A6
350
2675
  3
A7
350
2676
  3
A8
350
2677
  3
A9
350
2678
  3
B0
350
2679
  3
B1
350
267A
  3
B2
350
267B
  3
B3
350
267C
  3
B4
350
267D
  3
B5
350
267E
  3
B6
350
267F
  3
B7
350
2680
  3
B8
350
2681
  3
B9
350
2682
  3
C0
350
2683
  3
C1
350
2684
  3
C2
350
2685
  3
C3
350
2686
  3
C4
350
2687
  3
C5
350
2688
  3
C6
350
2689
  3
C7
350
268A
  3
C8
350
268B
  3
C9
350
268C
  3
D0
350
268D
  3
D1
350
268E
  3
D2
350
268F
  0
DICTIONARY
  5
266C
102
{ACAD_REACTORS
330
19
102
}
330
19
100
AcDbDictionary
281
     1
  3
Standard
350
266D
  0
DICTIONARY
  5
2657
102
{ACAD_REACTORS
330
19
102
}
330
19
100
AcDbDictionary
281
     1
  3
2dWireframe
350
265D
  3
3D Hidden
350
265F
  3
3dWireframe
350
265E
  3
Basic
350
265C
  3
Brighten
350
2663
  3
ColorChange
350
2667
  3
Conceptual
350
2660
  3
Dim
350
2662
  3
EdgeColorOff
350
266A
  3
Facepattern
350
2666
  3
Flat
350
2658
  3
FlatWithEdges
350
2659
  3
Gouraud
350
265A
  3
GouraudWithEdges
350
265B
  3
JitterOff
350
2668
  3
Linepattern
350
2665
  3
OverhangOff
350
2669
  3
Realistic
350
2661
  3
Thicken
350
2664
  0
XRECORD
  5
23407
102
{ACAD_REACTORS
330
19
102
}
330
19
100
AcDbXrecord
280
     1
 90
        1
330
266D
  0
DICTIONARY
  5
25BA
102
{ACAD_REACTORS
330
19
102
}
330
19
100
AcDbDictionary
281
     1
  3
CANNOSCALE
350
2836
  3
CMLEADERSTYLE
350
2835
  3
CTABLESTYLE
350
2834
  3
DIMASSOC
350
2838
  3
INDEXCTL
350
2837
  3
LAYEREVAL
350
14FF9
  3
LAYERNOTIFY
350
14FFA
  3
LIGHTINGUNITS
350
14FF8
  3
MSLTSCALE
350
14FF7
  3
SORTENTS
350
25BB
  3
XCLIPFRAME
350
23405
  0
DICTIONARY
  5
5A45
102
{ACAD_REACTORS
330
19
102
}
330
19
100
AcDbDictionary
281
     1
  0
DICTIONARY
  5
2177A
102
{ACAD_REACTORS
330
19
102
}
330
19
100
AcDbDictionary
281
     1
  3
ASEBlockHierarchyIndexRecord
350
2177B
1001
DCO15
1040
1850644243.0
  0
XRECORD
  5
23408
102
{ACAD_REACTORS
330
19
102
}
330
19
100
AcDbXrecord
280
     1
  1
DWGPROPS COOKIE
  2

  3

  4

  6

  7

  8
CAD-PC
  9

300
=
301
=
302
=
303
=
304
=
305
=
306
=
307
=
308
=
309
=
 40
0.3258228240740741
 41
2311949.301211632
 42
2457225.393719688
  1

 90
        0
  0
XRECORD
  5
281D
102
{ACAD_REACTORS
330
281C
102
}
330
281C
100
AcDbXrecord
280
     1
290
     1
  0
XRECORD
  5
2825
102
{ACAD_REACTORS
330
2824
102
}
330
2824
100
AcDbXrecord
280
     1
290
     1
  0
XRECORD
  5
2827
102
{ACAD_REACTORS
330
2826
102
}
330
2826
100
AcDbXrecord
280
     1
290
     1
  0
XRECORD
  5
2829
102
{ACAD_REACTORS
330
2828
102
}
330
2828
100
AcDbXrecord
280
     1
290
     1
  0
XRECORD
  5
282D
102
{ACAD_REACTORS
330
282C
102
}
330
282C
100
AcDbXrecord
280
     1
290
     1
  0
XRECORD
  5
282F
102
{ACAD_REACTORS
330
282E
102
}
330
282E
100
AcDbXrecord
280
     1
290
     1
  0
XRECORD
  5
2831
102
{ACAD_REACTORS
330
2830
102
}
330
2830
100
AcDbXrecord
280
     1
290
     1
  0
XRECORD
  5
2833
102
{ACAD_REACTORS
330
2832
102
}
330
2832
100
AcDbXrecord
280
     1
290
     1
  0
SORTENTSTABLE
  5
2764
102
{ACAD_REACTORS
330
2763
102
}
330
2763
100
AcDbSortentsTable
330
A
331
20B7D
  5
20B7D
331
20C29
  5
20C29
331
D09
  5
D09
331
BD
  5
BD
331
C0
  5
C0
331
20CDC
  5
20CDC
331
254B
  5
254B
331
254E
  5
254E
331
2088
  5
2088
331
76F
  5
76F
331
203A
  5
203A
331
80D
  5
80D
331
CEB
  5
CEB
331
20B0E
  5
20B0E
331
8B3
  5
8B3
331
20B11
  5
20B11
331
2180
  5
2180
331
14ED5
  5
14ED5
331
8A
  5
8A
331
8BF
  5
8BF
331
14F03
  5
14F03
331
CFA
  5
CFA
331
14FA3
  5
14FA3
331
D08
  5
D08
331
219A
  5
219A
331
14FC7
  5
14FC7
331
BC
  5
BC
331
BF
  5
BF
331
20CDB
  5
20CDB
331
C2
  5
C2
331
14FF5
  5
14FF5
331
254A
  5
254A
331
254D
  5
254D
331
2550
  5
2550
331
76E
  5
76E
331
771
  5
771
331
25AB
  5
25AB
331
20A41
  5
20A41
331
2164
  5
2164
331
25BC
  5
25BC
331
20B10
  5
20B10
331
21E4
  5
21E4
331
2061
  5
2061
331
D01
  5
D01
331
14FA2
  5
14FA2
331
B3
  5
B3
331
24A0
  5
24A0
331
20C2A
  5
20C2A
331
D0D
  5
D0D
331
207B
  5
207B
331
14FC6
  5
14FC6
331
BB
  5
BB
331
D13
  5
D13
331
254C
  5
254C
331
20CF0
  5
20CF0
331
254F
  5
254F
331
25AA
  5
25AA
331
770
  5
770
331
8C0
  5
8C0
331
21BF
  5
21BF
331
1305C
  5
13114
331
2047
  5
2047
331
14782
  5
14786
331
80E
  5
80E
331
25D1
  5
25D1
331
20B0F
  5
20B0F
331
CF2
  5
CF2
  0
XRECORD
  5
2340E
102
{ACAD_REACTORS
330
2340D
102
}
330
2340D
100
AcDbXrecord
280
     1
102
SHADEPLOT
 70
     0
  0
XRECORD
  5
23410
102
{ACAD_REACTORS
330
2340F
102
}
330
2340F
100
AcDbXrecord
280
     1
102
SHADEPLOT
 70
     0
  0
LAYOUT
  5
D22
102
{ACAD_XDICTIONARY
360
23409
102
}
102
{ACAD_REACTORS
330
D20
102
}
330
D20
100
AcDbPlotSettings
  1

  2
Canon LBP3800 LIPSLX
  4
A3
  6

 40
5.873749732971191
 41
5.873747825622557
 42
5.873748779296875
 43
5.873748779296875
 44
296.9259948730469
 45
419.9466552734373
 46
0.0
 47
31.31
 48
0.0
 49
0.0
140
0.0
141
0.0
142
1.0
143
3.687316866556828
 70
 11956
 72
     1
 73
     1
 74
     1
  7
monochrome.ctb
 75
     0
147
0.2711999093622208
148
514.4764523398682
149
-63.24229735472863
100
AcDbLayout
  1
Model
 70
     1
 71
     0
 10
0.0
 20
0.0
 11
12.0
 21
9.0
 12
0.0
 22
0.0
 32
0.0
 14
0.0
 24
0.0
 34
0.0
 15
0.0
 25
0.0
 35
0.0
146
0.0
 13
0.0
 23
0.0
 33
0.0
 16
1.0
 26
0.0
 36
0.0
 17
0.0
 27
1.0
 37
0.0
 76
     0
330
A
331
2636
  0
LAYOUT
  5
D23
102
{ACAD_XDICTIONARY
360
2340B
102
}
102
{ACAD_REACTORS
330
D20
102
}
330
D20
100
AcDbPlotSettings
  1

  2
Canon LBP3800 LIPSLX
  4
A4
  6

 40
5.873749732971191
 41
5.873747825622557
 42
5.873748779296875
 43
5.873748779296875
 44
209.9733276367186
 45
296.9259948730469
 46
0.0
 47
0.0
 48
0.0
 49
0.0
140
0.0
141
0.0
142
1.0
143
1.0
 70
   688
 72
     0
 73
     1
 74
     5
  7
monochrome.ctb
 75
    16
147
1.0
148
0.0
149
0.0
100
AcDbLayout
  1
ﾚｲｱｳﾄ1
 70
     1
 71
     1
 10
-0.2312499519408218
 20
-0.2312499894870548
 11
11.4587498462106
 21
8.035416452903447
 12
0.0
 22
0.0
 32
0.0
 14
1.122749993181602
 24
0.7804166500962629
 34
0.0
 15
10.10474993863443
 25
7.023749850866361
 35
0.0
146
0.0
 13
0.0
 23
0.0
 33
0.0
 16
1.0
 26
0.0
 36
0.0
 17
0.0
 27
1.0
 37
0.0
 76
     0
330
B
331
1A93
  0
MATERIAL
  5
2647
102
{ACAD_XDICTIONARY
360
2648
102
}
102
{ACAD_REACTORS
330
263E
102
}
330
263E
100
AcDbMaterial
  1
ByBlock
 72
     0
 43
0.0208333333333333
 43
0.0
 43
0.0
 43
0.0
 43
0.0
 43
0.0208333333333333
 43
0.0
 43
0.0
 43
0.0
 43
0.0
 43
1.0
 43
0.0
 43
0.0
 43
0.0
 43
0.0
 43
1.0
 77
     0
 47
0.0208333333333333
 47
0.0
 47
0.0
 47
0.0
 47
0.0
 47
0.0208333333333333
 47
0.0
 47
0.0
 47
0.0
 47
0.0
 47
1.0
 47
0.0
 47
0.0
 47
0.0
 47
0.0
 47
1.0
171
     0
 49
0.0208333333333333
 49
0.0
 49
0.0
 49
0.0
 49
0.0
 49
0.0208333333333333
 49
0.0
 49
0.0
 49
0.0
 49
0.0
 49
1.0
 49
0.0
 49
0.0
 49
0.0
 49
0.0
 49
1.0
175
     0
142
0.0208333333333333
142
0.0
142
0.0
142
0.0
142
0.0
142
0.0208333333333333
142
0.0
142
0.0
142
0.0
142
0.0
142
1.0
142
0.0
142
0.0
142
0.0
142
0.0
142
1.0
179
     0
144
0.0208333333333333
144
0.0
144
0.0
144
0.0
144
0.0
144
0.0208333333333333
144
0.0
144
0.0
144
0.0
144
0.0
144
1.0
144
0.0
144
0.0
144
0.0
144
0.0
144
1.0
147
0.0208333333333333
147
0.0
147
0.0
147
0.0
147
0.0
147
0.0208333333333333
147
0.0
147
0.0
147
0.0
147
0.0
147
1.0
147
0.0
147
0.0
147
0.0
147
0.0
147
1.0
  0
MATERIAL
  5
263F
102
{ACAD_XDICTIONARY
360
2640
102
}
102
{ACAD_REACTORS
330
263E
102
}
330
263E
100
AcDbMaterial
  1
ByLayer
 72
     0
 43
0.0208333333333333
 43
0.0
 43
0.0
 43
0.0
 43
0.0
 43
0.0208333333333333
 43
0.0
 43
0.0
 43
0.0
 43
0.0
 43
1.0
 43
0.0
 43
0.0
 43
0.0
 43
0.0
 43
1.0
 77
     0
 47
0.0208333333333333
 47
0.0
 47
0.0
 47
0.0
 47
0.0
 47
0.0208333333333333
 47
0.0
 47
0.0
 47
0.0
 47
0.0
 47
1.0
 47
0.0
 47
0.0
 47
0.0
 47
0.0
 47
1.0
171
     0
 49
0.0208333333333333
 49
0.0
 49
0.0
 49
0.0
 49
0.0
 49
0.0208333333333333
 49
0.0
 49
0.0
 49
0.0
 49
0.0
 49
1.0
 49
0.0
 49
0.0
 49
0.0
 49
0.0
 49
1.0
175
     0
142
0.0208333333333333
142
0.0
142
0.0
142
0.0
142
0.0
142
0.0208333333333333
142
0.0
142
0.0
142
0.0
142
0.0
142
1.0
142
0.0
142
0.0
142
0.0
142
0.0
142
1.0
179
     0
144
0.0208333333333333
144
0.0
144
0.0
144
0.0
144
0.0
144
0.0208333333333333
144
0.0
144
0.0
144
0.0
144
0.0
144
1.0
144
0.0
144
0.0
144
0.0
144
0.0
144
1.0
147
0.0208333333333333
147
0.0
147
0.0
147
0.0
147
0.0
147
0.0208333333333333
147
0.0
147
0.0
147
0.0
147
0.0
147
1.0
147
0.0
147
0.0
147
0.0
147
0.0
147
1.0
  0
MATERIAL
  5
264F
102
{ACAD_XDICTIONARY
360
2650
102
}
102
{ACAD_REACTORS
330
263E
102
}
330
263E
100
AcDbMaterial
  1
Global
 72
     0
 43
0.0208333333333333
 43
0.0
 43
0.0
 43
0.0
 43
0.0
 43
0.0208333333333333
 43
0.0
 43
0.0
 43
0.0
 43
0.0
 43
1.0
 43
0.0
 43
0.0
 43
0.0
 43
0.0
 43
1.0
 77
     0
 47
0.0208333333333333
 47
0.0
 47
0.0
 47
0.0
 47
0.0
 47
0.0208333333333333
 47
0.0
 47
0.0
 47
0.0
 47
0.0
 47
1.0
 47
0.0
 47
0.0
 47
0.0
 47
0.0
 47
1.0
171
     0
 49
0.0208333333333333
 49
0.0
 49
0.0
 49
0.0
 49
0.0
 49
0.0208333333333333
 49
0.0
 49
0.0
 49
0.0
 49
0.0
 49
1.0
 49
0.0
 49
0.0
 49
0.0
 49
0.0
 49
1.0
175
     0
142
0.0208333333333333
142
0.0
142
0.0
142
0.0
142
0.0
142
0.0208333333333333
142
0.0
142
0.0
142
0.0
142
0.0
142
1.0
142
0.0
142
0.0
142
0.0
142
0.0
142
1.0
179
     0
144
0.0208333333333333
144
0.0
144
0.0
144
0.0
144
0.0
144
0.0208333333333333
144
0.0
144
0.0
144
0.0
144
0.0
144
1.0
144
0.0
144
0.0
144
0.0
144
0.0
144
1.0
147
0.0208333333333333
147
0.0
147
0.0
147
0.0
147
0.0
147
0.0208333333333333
147
0.0
147
0.0
147
0.0
147
0.0
147
1.0
147
0.0
147
0.0
147
0.0
147
0.0
147
1.0
  0
MLEADERSTYLE
  5
2691
102
{ACAD_REACTORS
330
2690
102
}
330
2690
100
AcDbMLeaderStyle
170
     2
171
     1
172
     0
 90
        2
 40
0.0
 41
0.0
173
     1
 91
-1056964608
340
11
 92
       -2
290
     1
 42
0.09
291
     1
 43
0.36
  3
Standard
 44
0.18
300

342
17
174
     1
178
     6
175
     1
176
     0
 93
-1056964608
 45
0.18
292
     0
297
     0
 46
0.18
 94
-1056964608
 47
1.0
 49
1.0
140
1.0
293
     1
141
0.0
294
     1
177
     0
142
1.0
295
     0
296
     0
143
0.125
1001
ACAD_MLEADERVER
1070
     2
  0
MLINESTYLE
  5
1C
102
{ACAD_REACTORS
330
1B
102
}
330
1B
100
AcDbMlineStyle
  2
STANDARD
 70
     0
  3

 62
     0
 51
90.0
 52
90.0
 71
     2
 49
0.5
 62
   256
  6
BYLAYER
 49
-0.5
 62
   256
  6
BYLAYER
  0
ACDBPLACEHOLDER
  5
D1F
102
{ACAD_REACTORS
330
D1E
102
}
330
D1E
  0
SCALE
  5
266F
102
{ACAD_REACTORS
330
266E
102
}
330
266E
100
AcDbScale
 70
     0
300
1:1
140
1.0
141
1.0
290
     1
  0
SCALE
  5
2670
102
{ACAD_REACTORS
330
266E
102
}
330
266E
100
AcDbScale
 70
     0
300
1:2
140
1.0
141
2.0
290
     0
  0
SCALE
  5
2671
102
{ACAD_REACTORS
330
266E
102
}
330
266E
100
AcDbScale
 70
     0
300
1:4
140
1.0
141
4.0
290
     0
  0
SCALE
  5
2672
102
{ACAD_REACTORS
330
266E
102
}
330
266E
100
AcDbScale
 70
     0
300
1:5
140
1.0
141
5.0
290
     0
  0
SCALE
  5
2673
102
{ACAD_REACTORS
330
266E
102
}
330
266E
100
AcDbScale
 70
     0
300
1:8
140
1.0
141
8.0
290
     0
  0
SCALE
  5
2674
102
{ACAD_REACTORS
330
266E
102
}
330
266E
100
AcDbScale
 70
     0
300
1:10
140
1.0
141
10.0
290
     0
  0
SCALE
  5
2675
102
{ACAD_REACTORS
330
266E
102
}
330
266E
100
AcDbScale
 70
     0
300
1:16
140
1.0
141
16.0
290
     0
  0
SCALE
  5
2676
102
{ACAD_REACTORS
330
266E
102
}
330
266E
100
AcDbScale
 70
     0
300
1:20
140
1.0
141
20.0
290
     0
  0
SCALE
  5
2677
102
{ACAD_REACTORS
330
266E
102
}
330
266E
100
AcDbScale
 70
     0
300
1:30
140
1.0
141
30.0
290
     0
  0
SCALE
  5
2678
102
{ACAD_REACTORS
330
266E
102
}
330
266E
100
AcDbScale
 70
     0
300
1:40
140
1.0
141
40.0
290
     0
  0
SCALE
  5
2679
102
{ACAD_REACTORS
330
266E
102
}
330
266E
100
AcDbScale
 70
     0
300
1:50
140
1.0
141
50.0
290
     0
  0
SCALE
  5
267A
102
{ACAD_REACTORS
330
266E
102
}
330
266E
100
AcDbScale
 70
     0
300
1:100
140
1.0
141
100.0
290
     0
  0
SCALE
  5
267B
102
{ACAD_REACTORS
330
266E
102
}
330
266E
100
AcDbScale
 70
     0
300
2:1
140
2.0
141
1.0
290
     0
  0
SCALE
  5
267C
102
{ACAD_REACTORS
330
266E
102
}
330
266E
100
AcDbScale
 70
     0
300
4:1
140
4.0
141
1.0
290
     0
  0
SCALE
  5
267D
102
{ACAD_REACTORS
330
266E
102
}
330
266E
100
AcDbScale
 70
     0
300
8:1
140
8.0
141
1.0
290
     0
  0
SCALE
  5
267E
102
{ACAD_REACTORS
330
266E
102
}
330
266E
100
AcDbScale
 70
     0
300
10:1
140
10.0
141
1.0
290
     0
  0
SCALE
  5
267F
102
{ACAD_REACTORS
330
266E
102
}
330
266E
100
AcDbScale
 70
     0
300
100:1
140
100.0
141
1.0
290
     0
  0
SCALE
  5
2680
102
{ACAD_REACTORS
330
266E
102
}
330
266E
100
AcDbScale
 70
     0
300
1/128" = 1'-0"
140
0.0078125
141
12.0
290
     0
  0
SCALE
  5
2681
102
{ACAD_REACTORS
330
266E
102
}
330
266E
100
AcDbScale
 70
     0
300
1/64" = 1'-0"
140
0.015625
141
12.0
290
     0
  0
SCALE
  5
2682
102
{ACAD_REACTORS
330
266E
102
}
330
266E
100
AcDbScale
 70
     0
300
1/32" = 1'-0"
140
0.03125
141
12.0
290
     0
  0
SCALE
  5
2683
102
{ACAD_REACTORS
330
266E
102
}
330
266E
100
AcDbScale
 70
     0
300
1/16" = 1'-0"
140
0.0625
141
12.0
290
     0
  0
SCALE
  5
2684
102
{ACAD_REACTORS
330
266E
102
}
330
266E
100
AcDbScale
 70
     0
300
3/32" = 1'-0"
140
0.09375
141
12.0
290
     0
  0
SCALE
  5
2685
102
{ACAD_REACTORS
330
266E
102
}
330
266E
100
AcDbScale
 70
     0
300
1/8" = 1'-0"
140
0.125
141
12.0
290
     0
  0
SCALE
  5
2686
102
{ACAD_REACTORS
330
266E
102
}
330
266E
100
AcDbScale
 70
     0
300
3/16" = 1'-0"
140
0.1875
141
12.0
290
     0
  0
SCALE
  5
2687
102
{ACAD_REACTORS
330
266E
102
}
330
266E
100
AcDbScale
 70
     0
300
1/4" = 1'-0"
140
0.25
141
12.0
290
     0
  0
SCALE
  5
2688
102
{ACAD_REACTORS
330
266E
102
}
330
266E
100
AcDbScale
 70
     0
300
3/8" = 1'-0"
140
0.375
141
12.0
290
     0
  0
SCALE
  5
2689
102
{ACAD_REACTORS
330
266E
102
}
330
266E
100
AcDbScale
 70
     0
300
1/2" = 1'-0"
140
0.5
141
12.0
290
     0
  0
SCALE
  5
268A
102
{ACAD_REACTORS
330
266E
102
}
330
266E
100
AcDbScale
 70
     0
300
3/4" = 1'-0"
140
0.75
141
12.0
290
     0
  0
SCALE
  5
268B
102
{ACAD_REACTORS
330
266E
102
}
330
266E
100
AcDbScale
 70
     0
300
1" = 1'-0"
140
1.0
141
12.0
290
     0
  0
SCALE
  5
268C
102
{ACAD_REACTORS
330
266E
102
}
330
266E
100
AcDbScale
 70
     0
300
1-1/2" = 1'-0"
140
1.5
141
12.0
290
     0
  0
SCALE
  5
268D
102
{ACAD_REACTORS
330
266E
102
}
330
266E
100
AcDbScale
 70
     0
300
3" = 1'-0"
140
3.0
141
12.0
290
     0
  0
SCALE
  5
268E
102
{ACAD_REACTORS
330
266E
102
}
330
266E
100
AcDbScale
 70
     0
300
6" = 1'-0"
140
6.0
141
12.0
290
     0
  0
SCALE
  5
268F
102
{ACAD_REACTORS
330
266E
102
}
330
266E
100
AcDbScale
 70
     0
300
1'-0" = 1'-0"
140
12.0
141
12.0
290
     0
  0
TABLESTYLE
  5
266D
102
{ACAD_XDICTIONARY
360
283A
102
}
102
{ACAD_REACTORS
330
266C
102
}
330
266C
100
AcDbTableStyle
  3
Standard
 70
     0
 71
     0
 40
0.06
 41
0.06
280
     0
281
     0
  7
STANDARD
140
0.18
170
     2
 62
     0
 63
     7
283
     0
274
    -2
284
     1
 64
     0
275
    -2
285
     1
 65
     0
276
    -2
286
     1
 66
     0
277
    -2
287
     1
 67
     0
278
    -2
288
     1
 68
     0
279
    -2
289
     1
 69
     0
  7
STANDARD
140
0.25
170
     5
 62
     0
 63
     7
283
     0
274
    -2
284
     1
 64
     0
275
    -2
285
     1
 65
     0
276
    -2
286
     1
 66
     0
277
    -2
287
     1
 67
     0
278
    -2
288
     1
 68
     0
279
    -2
289
     1
 69
     0
  7
STANDARD
140
0.18
170
     5
 62
     0
 63
     7
283
     0
274
    -2
284
     1
 64
     0
275
    -2
285
     1
 65
     0
276
    -2
286
     1
 66
     0
277
    -2
287
     1
 67
     0
278
    -2
288
     1
 68
     0
279
    -2
289
     1
 69
     0
  0
VISUALSTYLE
  5
265D
102
{ACAD_XDICTIONARY
360
2341E
102
}
102
{ACAD_REACTORS
330
2657
102
}
330
2657
100
AcDbVisualStyle
  2

 70
     4
 71
     0
 72
     2
 73
     0
 90
        0
 40
-0.6
 41
-30.0
 62
     5
 63
     7
 74
     1
 91
        4
 64
     7
 65
   257
 75
     1
175
     1
 42
1.0
 92
        0
 66
   257
 43
1.0
 76
     1
 77
     6
 78
     2
 67
     7
 79
     5
170
     0
171
     0
290
     0
174
     0
 93
        1
 44
0.0
173
     0
291
     0
 45
0.0
1001
ACAD
1000
AcDbSavedByObjectVersion
1070
     0
  0
VISUALSTYLE
  5
265F
102
{ACAD_XDICTIONARY
360
23422
102
}
102
{ACAD_REACTORS
330
2657
102
}
330
2657
100
AcDbVisualStyle
  2

 70
     6
 71
     1
 72
     2
 73
     2
 90
        0
 40
-0.6
 41
-30.0
 62
     5
 63
     7
 74
     2
 91
        2
 64
     7
 65
   257
 75
     2
175
     1
 42
179.0
 92
        0
 66
   257
 43
1.0
 76
     1
 77
     6
 78
     2
 67
     7
 79
     3
170
     0
171
     0
290
     0
174
     0
 93
        1
 44
0.0
173
     0
291
     0
 45
0.0
1001
ACAD
1000
AcDbSavedByObjectVersion
1070
     0
  0
VISUALSTYLE
  5
265E
102
{ACAD_XDICTIONARY
360
23420
102
}
102
{ACAD_REACTORS
330
2657
102
}
330
2657
100
AcDbVisualStyle
  2

 70
     5
 71
     0
 72
     2
 73
     0
 90
        0
 40
-0.6
 41
-30.0
 62
     5
 63
     7
 74
     1
 91
        4
 64
     7
 65
   257
 75
     1
175
     1
 42
1.0
 92
        0
 66
   257
 43
1.0
 76
     1
 77
     6
 78
     2
 67
     7
 79
     5
170
     0
171
     0
290
     0
174
     0
 93
        1
 44
0.0
173
     0
291
     0
 45
0.0
1001
ACAD
1000
AcDbSavedByObjectVersion
1070
     0
  0
VISUALSTYLE
  5
265C
102
{ACAD_XDICTIONARY
360
2341C
102
}
102
{ACAD_REACTORS
330
2657
102
}
330
2657
100
AcDbVisualStyle
  2

 70
     7
 71
     1
 72
     0
 73
     1
 90
        0
 40
-0.6
 41
-30.0
 62
     5
 63
     7
 74
     0
 91
        4
 64
     7
 65
   257
 75
     1
175
     1
 42
1.0
 92
        8
 66
     7
 43
1.0
 76
     1
 77
     6
 78
     2
 67
     7
 79
     5
170
     0
171
     0
290
     0
174
     0
 93
        1
 44
0.0
173
     0
291
     1
 45
0.0
1001
ACAD
1000
AcDbSavedByObjectVersion
1070
     0
  0
VISUALSTYLE
  5
2663
102
{ACAD_XDICTIONARY
360
2342A
102
}
102
{ACAD_REACTORS
330
2657
102
}
330
2657
100
AcDbVisualStyle
  2

 70
    12
 71
     2
 72
     2
 73
     0
 90
        0
 40
-0.6
 41
-30.0
 62
     5
 63
     7
 74
     1
 91
        4
 64
     7
 65
   257
 75
     1
175
     1
 42
1.0
 92
        8
 66
     7
 43
1.0
 76
     1
 77
     6
 78
     2
 67
     7
 79
     5
170
     0
171
     0
290
     0
174
     0
 93
        1
 44
50.0
173
     0
291
     1
 45
0.0
1001
ACAD
1000
AcDbSavedByObjectVersion
1070
     0
  0
VISUALSTYLE
  5
2667
102
{ACAD_XDICTIONARY
360
23432
102
}
102
{ACAD_REACTORS
330
2657
102
}
330
2657
100
AcDbVisualStyle
  2

 70
    16
 71
     2
 72
     2
 73
     3
 90
        0
 40
-0.6
 41
-30.0
 62
     5
 63
     8
 74
     1
 91
        4
 64
     7
 65
   257
 75
     1
175
     1
 42
1.0
 92
        8
 66
     8
 43
1.0
 76
     1
 77
     6
 78
     2
 67
     7
 79
     5
170
     0
171
     0
290
     0
174
     0
 93
        1
 44
0.0
173
     0
291
     1
 45
0.0
1001
ACAD
1000
AcDbSavedByObjectVersion
1070
     0
  0
VISUALSTYLE
  5
2660
102
{ACAD_XDICTIONARY
360
23424
102
}
102
{ACAD_REACTORS
330
2657
102
}
330
2657
100
AcDbVisualStyle
  2

 70
     9
 71
     3
 72
     2
 73
     0
 90
        0
 40
-0.6
 41
-30.0
 62
     5
 63
     7
 74
     2
 91
        2
 64
     7
 65
   257
 75
     1
175
     1
 42
179.0
 92
        8
 66
     7
 43
1.0
 76
     1
 77
     6
 78
     2
 67
     7
 79
     3
170
     0
171
     0
290
     0
174
     0
 93
        1
 44
0.0
173
     0
291
     0
 45
0.0
1001
ACAD
1000
AcDbSavedByObjectVersion
1070
     0
  0
VISUALSTYLE
  5
2662
102
{ACAD_XDICTIONARY
360
23428
102
}
102
{ACAD_REACTORS
330
2657
102
}
330
2657
100
AcDbVisualStyle
  2

 70
    11
 71
     2
 72
     2
 73
     0
 90
        0
 40
-0.6
 41
-30.0
 62
     5
 63
     7
 74
     1
 91
        4
 64
     7
 65
   257
 75
     1
175
     1
 42
1.0
 92
        8
 66
     7
 43
1.0
 76
     1
 77
     6
 78
     2
 67
     7
 79
     5
170
     0
171
     0
290
     0
174
     0
 93
        1
 44
-50.0
173
     0
291
     1
 45
0.0
1001
ACAD
1000
AcDbSavedByObjectVersion
1070
     0
  0
VISUALSTYLE
  5
266A
102
{ACAD_XDICTIONARY
360
23438
102
}
102
{ACAD_REACTORS
330
2657
102
}
330
2657
100
AcDbVisualStyle
  2

 70
    22
 71
     2
 72
     2
 73
     0
 90
        0
 40
-0.6
 41
-30.0
 62
     5
 63
     7
 74
     1
 91
        4
 64
     7
 65
   257
 75
     1
175
     1
 42
1.0
 92
        8
 66
     7
 43
1.0
 76
     1
 77
     6
 78
     2
 67
     7
 79
     5
170
     0
171
     0
290
     0
174
     0
 93
        1
 44
0.0
173
     0
291
     1
 45
0.0
1001
ACAD
1000
AcDbSavedByObjectVersion
1070
     0
  0
VISUALSTYLE
  5
2666
102
{ACAD_XDICTIONARY
360
23430
102
}
102
{ACAD_REACTORS
330
2657
102
}
330
2657
100
AcDbVisualStyle
  2

 70
    15
 71
     2
 72
     2
 73
     0
 90
        0
 40
-0.6
 41
-30.0
 62
     5
 63
     7
 74
     1
 91
        4
 64
     7
 65
   257
 75
     1
175
     1
 42
1.0
 92
        8
 66
     7
 43
1.0
 76
     1
 77
     6
 78
     2
 67
     7
 79
     5
170
     0
171
     0
290
     0
174
     0
 93
        1
 44
0.0
173
     0
291
     1
 45
0.0
1001
ACAD
1000
AcDbSavedByObjectVersion
1070
     0
  0
VISUALSTYLE
  5
2658
102
{ACAD_XDICTIONARY
360
23414
102
}
102
{ACAD_REACTORS
330
2657
102
}
330
2657
100
AcDbVisualStyle
  2

 70
     0
 71
     2
 72
     1
 73
     1
 90
        2
 40
-0.6
 41
30.0
 62
     5
 63
     7
 74
     0
 91
        4
 64
     7
 65
   257
 75
     1
175
     1
 42
1.0
 92
        8
 66
     7
 43
1.0
 76
     1
 77
     6
 78
     2
 67
     7
 79
     5
170
     0
171
     0
290
     0
174
     0
 93
       13
 44
0.0
173
     0
291
     1
 45
0.0
1001
ACAD
1000
AcDbSavedByObjectVersion
1070
     0
  0
VISUALSTYLE
  5
2659
102
{ACAD_XDICTIONARY
360
23416
102
}
102
{ACAD_REACTORS
330
2657
102
}
330
2657
100
AcDbVisualStyle
  2

 70
     1
 71
     2
 72
     1
 73
     1
 90
        2
 40
-0.6
 41
30.0
 62
     5
 63
     7
 74
     1
 91
        4
 64
     7
 65
   257
 75
     1
175
     1
 42
1.0
 92
        0
 66
   257
 43
1.0
 76
     1
 77
     6
 78
     2
 67
     7
 79
     5
170
     0
171
     0
290
     0
174
     0
 93
       13
 44
0.0
173
     0
291
     1
 45
0.0
1001
ACAD
1000
AcDbSavedByObjectVersion
1070
     0
  0
VISUALSTYLE
  5
265A
102
{ACAD_XDICTIONARY
360
23418
102
}
102
{ACAD_REACTORS
330
2657
102
}
330
2657
100
AcDbVisualStyle
  2

 70
     2
 71
     2
 72
     2
 73
     1
 90
        2
 40
-0.6
 41
30.0
 62
     5
 63
     7
 74
     0
 91
        4
 64
     7
 65
   257
 75
     1
175
     1
 42
1.0
 92
        0
 66
     7
 43
1.0
 76
     1
 77
     6
 78
     2
 67
     7
 79
     5
170
     0
171
     0
290
     0
174
     0
 93
       13
 44
0.0
173
     0
291
     1
 45
0.0
1001
ACAD
1000
AcDbSavedByObjectVersion
1070
     0
  0
VISUALSTYLE
  5
265B
102
{ACAD_XDICTIONARY
360
2341A
102
}
102
{ACAD_REACTORS
330
2657
102
}
330
2657
100
AcDbVisualStyle
  2

 70
     3
 71
     2
 72
     2
 73
     1
 90
        2
 40
-0.6
 41
30.0
 62
     5
 63
     7
 74
     1
 91
        4
 64
     7
 65
   257
 75
     1
175
     1
 42
1.0
 92
        0
 66
   257
 43
1.0
 76
     1
 77
     6
 78
     2
 67
     7
 79
     5
170
     0
171
     0
290
     0
174
     0
 93
       13
 44
0.0
173
     0
291
     1
 45
0.0
1001
ACAD
1000
AcDbSavedByObjectVersion
1070
     0
  0
VISUALSTYLE
  5
2668
102
{ACAD_XDICTIONARY
360
23434
102
}
102
{ACAD_REACTORS
330
2657
102
}
330
2657
100
AcDbVisualStyle
  2

 70
    20
 71
     2
 72
     2
 73
     0
 90
        0
 40
-0.6
 41
-30.0
 62
     5
 63
     7
 74
     1
 91
        4
 64
     7
 65
   257
 75
     1
175
     1
 42
1.0
 92
       10
 66
     7
 43
1.0
 76
     1
 77
     6
 78
     2
 67
     7
 79
     5
170
     0
171
     0
290
     0
174
     0
 93
        1
 44
0.0
173
     0
291
     1
 45
0.0
1001
ACAD
1000
AcDbSavedByObjectVersion
1070
     0
  0
VISUALSTYLE
  5
2665
102
{ACAD_XDICTIONARY
360
2342E
102
}
102
{ACAD_REACTORS
330
2657
102
}
330
2657
100
AcDbVisualStyle
  2

 70
    14
 71
     2
 72
     2
 73
     0
 90
        0
 40
-0.6
 41
-30.0
 62
     5
 63
     7
 74
     1
 91
        4
 64
     7
 65
   257
 75
     7
175
     7
 42
1.0
 92
        8
 66
     7
 43
1.0
 76
     1
 77
     6
 78
     2
 67
     7
 79
     5
170
     0
171
     0
290
     0
174
     0
 93
        1
 44
0.0
173
     0
291
     1
 45
0.0
1001
ACAD
1000
AcDbSavedByObjectVersion
1070
     0
  0
VISUALSTYLE
  5
2669
102
{ACAD_XDICTIONARY
360
23436
102
}
102
{ACAD_REACTORS
330
2657
102
}
330
2657
100
AcDbVisualStyle
  2

 70
    21
 71
     2
 72
     2
 73
     0
 90
        0
 40
-0.6
 41
-30.0
 62
     5
 63
     7
 74
     1
 91
        4
 64
     7
 65
   257
 75
     1
175
     1
 42
1.0
 92
        9
 66
     7
 43
1.0
 76
     1
 77
     6
 78
     2
 67
     7
 79
     5
170
     0
171
     0
290
     0
174
     0
 93
        1
 44
0.0
173
     0
291
     1
 45
0.0
1001
ACAD
1000
AcDbSavedByObjectVersion
1070
     0
  0
VISUALSTYLE
  5
2661
102
{ACAD_XDICTIONARY
360
23426
102
}
102
{ACAD_REACTORS
330
2657
102
}
330
2657
100
AcDbVisualStyle
  2

 70
     8
 71
     2
 72
     2
 73
     0
 90
        0
 40
-0.6
 41
-30.0
 62
     5
 63
     7
 74
     1
 91
        0
 64
     7
 65
   257
 75
     1
175
     1
 42
1.0
 92
        8
 66
     8
 43
1.0
 76
     1
 77
     6
 78
     2
 67
     7
 79
     5
170
     0
171
     0
290
     0
174
     0
 93
       13
 44
0.0
173
     0
291
     0
 45
0.0
1001
ACAD
1000
AcDbSavedByObjectVersion
1070
     0
  0
VISUALSTYLE
  5
2664
102
{ACAD_XDICTIONARY
360
2342C
102
}
102
{ACAD_REACTORS
330
2657
102
}
330
2657
100
AcDbVisualStyle
  2

 70
    13
 71
     2
 72
     2
 73
     0
 90
        0
 40
-0.6
 41
-30.0
 62
     5
 63
     7
 74
     1
 91
        4
 64
     7
 65
   257
 75
     1
175
     1
 42
1.0
 92
       12
 66
     7
 43
1.0
 76
     1
 77
     6
 78
     2
 67
     7
 79
     5
170
     0
171
     0
290
     0
174
     0
 93
        1
 44
0.0
173
     0
291
     1
 45
0.0
1001
ACAD
1000
AcDbSavedByObjectVersion
1070
     0
  0
DICTIONARYVAR
  5
2836
102
{ACAD_REACTORS
330
25BA
102
}
330
25BA
100
DictionaryVariables
280
     0
  1
1:1
  0
DICTIONARYVAR
  5
2835
102
{ACAD_REACTORS
330
25BA
102
}
330
25BA
100
DictionaryVariables
280
     0
  1
STANDARD
  0
DICTIONARYVAR
  5
2834
102
{ACAD_REACTORS
330
25BA
102
}
330
25BA
100
DictionaryVariables
280
     0
  1
STANDARD
  0
DICTIONARYVAR
  5
2838
102
{ACAD_REACTORS
330
25BA
102
}
330
25BA
100
DictionaryVariables
280
     0
  1
1
  0
DICTIONARYVAR
  5
2837
102
{ACAD_REACTORS
330
25BA
102
}
330
25BA
100
DictionaryVariables
280
     0
  1
0
  0
DICTIONARYVAR
  5
14FF9
102
{ACAD_REACTORS
330
25BA
102
}
330
25BA
100
DictionaryVariables
280
     0
  1
1
  0
DICTIONARYVAR
  5
14FFA
102
{ACAD_REACTORS
330
25BA
102
}
330
25BA
100
DictionaryVariables
280
     0
  1
15
  0
DICTIONARYVAR
  5
14FF8
102
{ACAD_REACTORS
330
25BA
102
}
330
25BA
100
DictionaryVariables
280
     0
  1
0
  0
DICTIONARYVAR
  5
14FF7
102
{ACAD_REACTORS
330
25BA
102
}
330
25BA
100
DictionaryVariables
280
     0
  1
0
  0
DICTIONARYVAR
  5
25BB
102
{ACAD_REACTORS
330
25BA
102
}
330
25BA
100
DictionaryVariables
280
     0
  1
96
  0
DICTIONARYVAR
  5
23405
102
{ACAD_REACTORS
330
25BA
102
}
330
25BA
100
DictionaryVariables
280
     0
  1
2
  0
XRECORD
  5
2177B
102
{ACAD_REACTORS
330
2177A
102
}
330
2177A
100
AcDbXrecord
280
     1
330
23365
330
23366
330
23137
330
23138
330
2334A
330
2334B
330
2292C
330
2292D
330
22935
330
22936
330
22DD2
330
22DD3
330
232BC
330
232BD
330
232C8
330
232C9
330
22DF1
330
22DF2
330
22DF9
330
22DFA
330
23338
330
23339
330
22E0B
330
22E0C
330
22E14
330
22E15
330
232D9
330
232DA
330
231E9
330
231EA
330
2295B
330
2295C
330
2293E
330
2293F
330
22947
330
22948
330
23330
330
23331
330
231F3
330
231F4
  0
DICTIONARY
  5
23409
330
D22
100
AcDbDictionary
280
     1
281
     1
  3
ACAD_XREC_ROUNDTRIP
360
2340A
  0
DICTIONARY
  5
2340B
330
D23
100
AcDbDictionary
280
     1
281
     1
  3
ACAD_XREC_ROUNDTRIP
360
2340C
  0
DICTIONARY
  5
2648
330
2647
100
AcDbDictionary
280
     1
281
     1
  3
ACAD_XREC_ROUNDTRIP
360
23412
  3
BUMPTILE
360
264A
  3
DIFFUSETILE
360
2649
  3
OPACITYTILE
360
264D
  3
REFLECTIONTILE
360
264C
  3
REFRACTIONTILE
360
264E
  3
SPECULARTILE
360
264B
  0
DICTIONARY
  5
2640
330
263F
100
AcDbDictionary
280
     1
281
     1
  3
ACAD_XREC_ROUNDTRIP
360
23411
  3
BUMPTILE
360
2642
  3
DIFFUSETILE
360
2641
  3
OPACITYTILE
360
2645
  3
REFLECTIONTILE
360
2644
  3
REFRACTIONTILE
360
2646
  3
SPECULARTILE
360
2643
  0
DICTIONARY
  5
2650
330
264F
100
AcDbDictionary
280
     1
281
     1
  3
ACAD_XREC_ROUNDTRIP
360
23413
  3
BUMPTILE
360
2652
  3
DIFFUSETILE
360
2651
  3
OPACITYTILE
360
2655
  3
REFLECTIONTILE
360
2654
  3
REFRACTIONTILE
360
2656
  3
SPECULARTILE
360
2653
  0
DICTIONARY
  5
283A
330
266D
100
AcDbDictionary
280
     1
281
     1
  3
ACAD_ROUNDTRIP_2008_TABLESTYLE_CELLSTYLEMAP
360
23406
  3
ACAD_XREC_ROUNDTRIP
360
2343A
  0
DICTIONARY
  5
2341E
330
265D
100
AcDbDictionary
280
     1
281
     1
  3
ACAD_XREC_ROUNDTRIP
360
2341F
  0
DICTIONARY
  5
23422
330
265F
100
AcDbDictionary
280
     1
281
     1
  3
ACAD_XREC_ROUNDTRIP
360
23423
  0
DICTIONARY
  5
23420
330
265E
100
AcDbDictionary
280
     1
281
     1
  3
ACAD_XREC_ROUNDTRIP
360
23421
  0
DICTIONARY
  5
2341C
330
265C
100
AcDbDictionary
280
     1
281
     1
  3
ACAD_XREC_ROUNDTRIP
360
2341D
  0
DICTIONARY
  5
2342A
330
2663
100
AcDbDictionary
280
     1
281
     1
  3
ACAD_XREC_ROUNDTRIP
360
2342B
  0
DICTIONARY
  5
23432
330
2667
100
AcDbDictionary
280
     1
281
     1
  3
ACAD_XREC_ROUNDTRIP
360
23433
  0
DICTIONARY
  5
23424
330
2660
100
AcDbDictionary
280
     1
281
     1
  3
ACAD_XREC_ROUNDTRIP
360
23425
  0
DICTIONARY
  5
23428
330
2662
100
AcDbDictionary
280
     1
281
     1
  3
ACAD_XREC_ROUNDTRIP
360
23429
  0
DICTIONARY
  5
23438
330
266A
100
AcDbDictionary
280
     1
281
     1
  3
ACAD_XREC_ROUNDTRIP
360
23439
  0
DICTIONARY
  5
23430
330
2666
100
AcDbDictionary
280
     1
281
     1
  3
ACAD_XREC_ROUNDTRIP
360
23431
  0
DICTIONARY
  5
23414
330
2658
100
AcDbDictionary
280
     1
281
     1
  3
ACAD_XREC_ROUNDTRIP
360
23415
  0
DICTIONARY
  5
23416
330
2659
100
AcDbDictionary
280
     1
281
     1
  3
ACAD_XREC_ROUNDTRIP
360
23417
  0
DICTIONARY
  5
23418
330
265A
100
AcDbDictionary
280
     1
281
     1
  3
ACAD_XREC_ROUNDTRIP
360
23419
  0
DICTIONARY
  5
2341A
330
265B
100
AcDbDictionary
280
     1
281
     1
  3
ACAD_XREC_ROUNDTRIP
360
2341B
  0
DICTIONARY
  5
23434
330
2668
100
AcDbDictionary
280
     1
281
     1
  3
ACAD_XREC_ROUNDTRIP
360
23435
  0
DICTIONARY
  5
2342E
330
2665
100
AcDbDictionary
280
     1
281
     1
  3
ACAD_XREC_ROUNDTRIP
360
2342F
  0
DICTIONARY
  5
23436
330
2669
100
AcDbDictionary
280
     1
281
     1
  3
ACAD_XREC_ROUNDTRIP
360
23437
  0
DICTIONARY
  5
23426
330
2661
100
AcDbDictionary
280
     1
281
     1
  3
ACAD_XREC_ROUNDTRIP
360
23427
  0
DICTIONARY
  5
2342C
330
2664
100
AcDbDictionary
280
     1
281
     1
  3
ACAD_XREC_ROUNDTRIP
360
2342D
  0
XRECORD
  5
2340A
102
{ACAD_REACTORS
330
23409
102
}
330
23409
100
AcDbXrecord
280
     1
102
SHADEPLOT
 70
     0
102
SHADEPLOTRESLEVEL
 70
     2
102
SHADEPLOTCUSTOMDPI
 70
   300
  0
XRECORD
  5
2340C
102
{ACAD_REACTORS
330
2340B
102
}
330
2340B
100
AcDbXrecord
280
     1
102
SHADEPLOT
 70
     0
102
SHADEPLOTRESLEVEL
 70
     2
102
SHADEPLOTCUSTOMDPI
 70
   300
  0
XRECORD
  5
23412
102
{ACAD_REACTORS
330
2648
102
}
330
2648
100
AcDbXrecord
280
     1
102
MATERIAL
148
0.0
149
0.0
149
0.0
 93
        0
 94
      127
282
     0
 72
     0
 77
     0
171
     0
175
     0
179
     0
273
     0
  0
XRECORD
  5
264A
102
{ACAD_REACTORS
330
2648
102
}
330
2648
100
AcDbXrecord
280
     1
270
     1
271
     1
  0
XRECORD
  5
2649
102
{ACAD_REACTORS
330
2648
102
}
330
2648
100
AcDbXrecord
280
     1
270
     1
271
     1
  0
XRECORD
  5
264D
102
{ACAD_REACTORS
330
2648
102
}
330
2648
100
AcDbXrecord
280
     1
270
     1
271
     1
  0
XRECORD
  5
264C
102
{ACAD_REACTORS
330
2648
102
}
330
2648
100
AcDbXrecord
280
     1
270
     1
271
     1
  0
XRECORD
  5
264E
102
{ACAD_REACTORS
330
2648
102
}
330
2648
100
AcDbXrecord
280
     1
270
     1
271
     1
  0
XRECORD
  5
264B
102
{ACAD_REACTORS
330
2648
102
}
330
2648
100
AcDbXrecord
280
     1
270
     1
271
     1
  0
XRECORD
  5
23411
102
{ACAD_REACTORS
330
2640
102
}
330
2640
100
AcDbXrecord
280
     1
102
MATERIAL
148
0.0
149
0.0
149
0.0
 93
        0
 94
      127
282
     0
 72
     0
 77
     0
171
     0
175
     0
179
     0
273
     0
  0
XRECORD
  5
2642
102
{ACAD_REACTORS
330
2640
102
}
330
2640
100
AcDbXrecord
280
     1
270
     1
271
     1
  0
XRECORD
  5
2641
102
{ACAD_REACTORS
330
2640
102
}
330
2640
100
AcDbXrecord
280
     1
270
     1
271
     1
  0
XRECORD
  5
2645
102
{ACAD_REACTORS
330
2640
102
}
330
2640
100
AcDbXrecord
280
     1
270
     1
271
     1
  0
XRECORD
  5
2644
102
{ACAD_REACTORS
330
2640
102
}
330
2640
100
AcDbXrecord
280
     1
270
     1
271
     1
  0
XRECORD
  5
2646
102
{ACAD_REACTORS
330
2640
102
}
330
2640
100
AcDbXrecord
280
     1
270
     1
271
     1
  0
XRECORD
  5
2643
102
{ACAD_REACTORS
330
2640
102
}
330
2640
100
AcDbXrecord
280
     1
270
     1
271
     1
  0
XRECORD
  5
23413
102
{ACAD_REACTORS
330
2650
102
}
330
2650
100
AcDbXrecord
280
     1
102
MATERIAL
148
0.0
149
0.0
149
0.0
 93
        0
 94
      127
282
     0
 72
     0
 77
     0
171
     0
175
     0
179
     0
273
     0
  0
XRECORD
  5
2652
102
{ACAD_REACTORS
330
2650
102
}
330
2650
100
AcDbXrecord
280
     1
270
     1
271
     1
  0
XRECORD
  5
2651
102
{ACAD_REACTORS
330
2650
102
}
330
2650
100
AcDbXrecord
280
     1
270
     1
271
     1
  0
XRECORD
  5
2655
102
{ACAD_REACTORS
330
2650
102
}
330
2650
100
AcDbXrecord
280
     1
270
     1
271
     1
  0
XRECORD
  5
2654
102
{ACAD_REACTORS
330
2650
102
}
330
2650
100
AcDbXrecord
280
     1
270
     1
271
     1
  0
XRECORD
  5
2656
102
{ACAD_REACTORS
330
2650
102
}
330
2650
100
AcDbXrecord
280
     1
270
     1
271
     1
  0
XRECORD
  5
2653
102
{ACAD_REACTORS
330
2650
102
}
330
2650
100
AcDbXrecord
280
     1
270
     1
271
     1
  0
CELLSTYLEMAP
  5
23406
102
{ACAD_REACTORS
330
283A
102
}
330
283A
100
AcDbCellStyleMap
 90
        3
300
CELLSTYLE
  1
TABLEFORMAT_BEGIN
 90
        5
170
     1
 91
        0
 92
    32768
 62
   257
 93
        1
300
CONTENTFORMAT
  1
CONTENTFORMAT_BEGIN
 90
        0
 91
        0
 92
      512
 93
        0
300

 40
0.0
140
1.0
 94
        5
 62
     0
340
17
144
0.25
309
CONTENTFORMAT_END
171
     1
301
MARGIN
  1
CELLMARGIN_BEGIN
 40
0.06
 40
0.06
 40
0.06
 40
0.06
 40
0.18
 40
0.18
309
CELLMARGIN_END
 94
        6
 95
        1
302
GRIDFORMAT
  1
GRIDFORMAT_BEGIN
 90
        0
 91
        1
 62
     0
 92
       -2
340
0
 93
        0
 40
0.045
309
GRIDFORMAT_END
 95
        2
302
GRIDFORMAT
  1
GRIDFORMAT_BEGIN
 90
        0
 91
        1
 62
     0
 92
       -2
340
0
 93
        0
 40
0.045
309
GRIDFORMAT_END
 95
        4
302
GRIDFORMAT
  1
GRIDFORMAT_BEGIN
 90
        0
 91
        1
 62
     0
 92
       -2
340
0
 93
        0
 40
0.045
309
GRIDFORMAT_END
 95
        8
302
GRIDFORMAT
  1
GRIDFORMAT_BEGIN
 90
        0
 91
        1
 62
     0
 92
       -2
340
0
 93
        0
 40
0.045
309
GRIDFORMAT_END
 95
       16
302
GRIDFORMAT
  1
GRIDFORMAT_BEGIN
 90
        0
 91
        1
 62
     0
 92
       -2
340
0
 93
        0
 40
0.045
309
GRIDFORMAT_END
 95
       32
302
GRIDFORMAT
  1
GRIDFORMAT_BEGIN
 90
        0
 91
        1
 62
     0
 92
       -2
340
0
 93
        0
 40
0.045
309
GRIDFORMAT_END
309
TABLEFORMAT_END
  1
CELLSTYLE_BEGIN
 90
        1
 91
        1
300
_TITLE
309
CELLSTYLE_END
300
CELLSTYLE
  1
TABLEFORMAT_BEGIN
 90
        5
170
     1
 91
        0
 92
        0
 62
   257
 93
        1
300
CONTENTFORMAT
  1
CONTENTFORMAT_BEGIN
 90
        0
 91
        0
 92
      512
 93
        0
300

 40
0.0
140
1.0
 94
        5
 62
     0
340
17
144
0.18
309
CONTENTFORMAT_END
171
     1
301
MARGIN
  1
CELLMARGIN_BEGIN
 40
0.06
 40
0.06
 40
0.06
 40
0.06
 40
0.18
 40
0.18
309
CELLMARGIN_END
 94
        6
 95
        1
302
GRIDFORMAT
  1
GRIDFORMAT_BEGIN
 90
        0
 91
        1
 62
     0
 92
       -2
340
0
 93
        0
 40
0.045
309
GRIDFORMAT_END
 95
        2
302
GRIDFORMAT
  1
GRIDFORMAT_BEGIN
 90
        0
 91
        1
 62
     0
 92
       -2
340
0
 93
        0
 40
0.045
309
GRIDFORMAT_END
 95
        4
302
GRIDFORMAT
  1
GRIDFORMAT_BEGIN
 90
        0
 91
        1
 62
     0
 92
       -2
340
0
 93
        0
 40
0.045
309
GRIDFORMAT_END
 95
        8
302
GRIDFORMAT
  1
GRIDFORMAT_BEGIN
 90
        0
 91
        1
 62
     0
 92
       -2
340
0
 93
        0
 40
0.045
309
GRIDFORMAT_END
 95
       16
302
GRIDFORMAT
  1
GRIDFORMAT_BEGIN
 90
        0
 91
        1
 62
     0
 92
       -2
340
0
 93
        0
 40
0.045
309
GRIDFORMAT_END
 95
       32
302
GRIDFORMAT
  1
GRIDFORMAT_BEGIN
 90
        0
 91
        1
 62
     0
 92
       -2
340
0
 93
        0
 40
0.045
309
GRIDFORMAT_END
309
TABLEFORMAT_END
  1
CELLSTYLE_BEGIN
 90
        2
 91
        1
300
_HEADER
309
CELLSTYLE_END
300
CELLSTYLE
  1
TABLEFORMAT_BEGIN
 90
        5
170
     1
 91
        0
 92
        0
 62
   257
 93
        1
300
CONTENTFORMAT
  1
CONTENTFORMAT_BEGIN
 90
        0
 91
        0
 92
      512
 93
        0
300

 40
0.0
140
1.0
 94
        2
 62
     0
340
17
144
0.18
309
CONTENTFORMAT_END
171
     1
301
MARGIN
  1
CELLMARGIN_BEGIN
 40
0.06
 40
0.06
 40
0.06
 40
0.06
 40
0.18
 40
0.18
309
CELLMARGIN_END
 94
        6
 95
        1
302
GRIDFORMAT
  1
GRIDFORMAT_BEGIN
 90
        0
 91
        1
 62
     0
 92
       -2
340
0
 93
        0
 40
0.045
309
GRIDFORMAT_END
 95
        2
302
GRIDFORMAT
  1
GRIDFORMAT_BEGIN
 90
        0
 91
        1
 62
     0
 92
       -2
340
0
 93
        0
 40
0.045
309
GRIDFORMAT_END
 95
        4
302
GRIDFORMAT
  1
GRIDFORMAT_BEGIN
 90
        0
 91
        1
 62
     0
 92
       -2
340
0
 93
        0
 40
0.045
309
GRIDFORMAT_END
 95
        8
302
GRIDFORMAT
  1
GRIDFORMAT_BEGIN
 90
        0
 91
        1
 62
     0
 92
       -2
340
0
 93
        0
 40
0.045
309
GRIDFORMAT_END
 95
       16
302
GRIDFORMAT
  1
GRIDFORMAT_BEGIN
 90
        0
 91
        1
 62
     0
 92
       -2
340
0
 93
        0
 40
0.045
309
GRIDFORMAT_END
 95
       32
302
GRIDFORMAT
  1
GRIDFORMAT_BEGIN
 90
        0
 91
        1
 62
     0
 92
       -2
340
0
 93
        0
 40
0.045
309
GRIDFORMAT_END
309
TABLEFORMAT_END
  1
CELLSTYLE_BEGIN
 90
        3
 91
        2
300
_DATA
309
CELLSTYLE_END
  0
XRECORD
  5
2343A
102
{ACAD_REACTORS
330
283A
102
}
330
283A
100
AcDbXrecord
280
     1
102
ACAD_ROUNDTRIP_PRE2007_TABLESTYLE
 90
      512
 91
        0
  1

 92
      512
 93
        0
  2

 94
      512
 95
        0
  3

  0
XRECORD
  5
2341F
102
{ACAD_REACTORS
330
2341E
102
}
330
2341E
100
AcDbXrecord
280
     1
102
RTVSPropertyOp0
 70
     1
102
RTVSPropertyOp1
 70
     1
102
RTVSPropertyOp2
 70
     1
102
RTVSPropertyOp3
 70
     1
102
RTVSPropertyOp4
 70
     1
102
RTVSPropertyOp5
 70
     1
102
RTVSPropertyOp6
 70
     1
102
RTVSPropertyOp7
 70
     1
102
RTVSPropertyOp8
 70
     1
102
RTVSPropertyOp9
 70
     1
102
RTVSPropertyOp10
 70
     1
102
RTVSPropertyOp11
 70
     1
102
RTVSPropertyOp12
 70
     1
102
RTVSPropertyOp13
 70
     1
102
RTVSPropertyOp14
 70
     1
102
RTVSPropertyOp15
 70
     1
102
RTVSPropertyOp16
 70
     1
102
RTVSPropertyOp17
 70
     1
102
RTVSPropertyOp18
 70
     1
102
RTVSPropertyOp19
 70
     1
102
RTVSPropertyOp20
 70
     1
102
RTVSPropertyOp21
 70
     1
102
RTVSPropertyOp22
 70
     1
102
RTVSPropertyOp23
 70
     1
102
RTVSPropertyOp24
 70
     1
102
RTVSPropertyOp25
 70
     1
102
RTVSPropertyOp26
 70
     1
102
RTVSPropertyOp27
 70
     1
  0
XRECORD
  5
23423
102
{ACAD_REACTORS
330
23422
102
}
330
23422
100
AcDbXrecord
280
     1
102
RTVSPropertyOp0
 70
     1
102
RTVSPropertyOp1
 70
     1
102
RTVSPropertyOp2
 70
     1
102
RTVSPropertyOp3
 70
     1
102
RTVSPropertyOp4
 70
     1
102
RTVSPropertyOp5
 70
     1
102
RTVSPropertyOp6
 70
     1
102
RTVSPropertyOp7
 70
     1
102
RTVSPropertyOp8
 70
     1
102
RTVSPropertyOp9
 70
     1
102
RTVSPropertyOp10
 70
     1
102
RTVSPropertyOp11
 70
     1
102
RTVSPropertyOp12
 70
     1
102
RTVSPropertyOp13
 70
     1
102
RTVSPropertyOp14
 70
     1
102
RTVSPropertyOp15
 70
     1
102
RTVSPropertyOp16
 70
     1
102
RTVSPropertyOp17
 70
     1
102
RTVSPropertyOp18
 70
     1
102
RTVSPropertyOp19
 70
     1
102
RTVSPropertyOp20
 70
     1
102
RTVSPropertyOp21
 70
     1
102
RTVSPropertyOp22
 70
     1
102
RTVSPropertyOp23
 70
     1
102
RTVSPropertyOp24
 70
     1
102
RTVSPropertyOp25
 70
     1
102
RTVSPropertyOp26
 70
     1
102
RTVSPropertyOp27
 70
     1
  0
XRECORD
  5
23421
102
{ACAD_REACTORS
330
23420
102
}
330
23420
100
AcDbXrecord
280
     1
102
RTVSPropertyOp0
 70
     1
102
RTVSPropertyOp1
 70
     1
102
RTVSPropertyOp2
 70
     1
102
RTVSPropertyOp3
 70
     1
102
RTVSPropertyOp4
 70
     1
102
RTVSPropertyOp5
 70
     1
102
RTVSPropertyOp6
 70
     1
102
RTVSPropertyOp7
 70
     1
102
RTVSPropertyOp8
 70
     1
102
RTVSPropertyOp9
 70
     1
102
RTVSPropertyOp10
 70
     1
102
RTVSPropertyOp11
 70
     1
102
RTVSPropertyOp12
 70
     1
102
RTVSPropertyOp13
 70
     1
102
RTVSPropertyOp14
 70
     1
102
RTVSPropertyOp15
 70
     1
102
RTVSPropertyOp16
 70
     1
102
RTVSPropertyOp17
 70
     1
102
RTVSPropertyOp18
 70
     1
102
RTVSPropertyOp19
 70
     1
102
RTVSPropertyOp20
 70
     1
102
RTVSPropertyOp21
 70
     1
102
RTVSPropertyOp22
 70
     1
102
RTVSPropertyOp23
 70
     1
102
RTVSPropertyOp24
 70
     1
102
RTVSPropertyOp25
 70
     1
102
RTVSPropertyOp26
 70
     1
102
RTVSPropertyOp27
 70
     1
  0
XRECORD
  5
2341D
102
{ACAD_REACTORS
330
2341C
102
}
330
2341C
100
AcDbXrecord
280
     1
102
RTVSPropertyOp0
 70
     1
102
RTVSPropertyOp1
 70
     1
102
RTVSPropertyOp2
 70
     1
102
RTVSPropertyOp3
 70
     1
102
RTVSPropertyOp4
 70
     1
102
RTVSPropertyOp5
 70
     1
102
RTVSPropertyOp6
 70
     1
102
RTVSPropertyOp7
 70
     1
102
RTVSPropertyOp8
 70
     1
102
RTVSPropertyOp9
 70
     1
102
RTVSPropertyOp10
 70
     1
102
RTVSPropertyOp11
 70
     1
102
RTVSPropertyOp12
 70
     1
102
RTVSPropertyOp13
 70
     1
102
RTVSPropertyOp14
 70
     1
102
RTVSPropertyOp15
 70
     1
102
RTVSPropertyOp16
 70
     1
102
RTVSPropertyOp17
 70
     1
102
RTVSPropertyOp18
 70
     1
102
RTVSPropertyOp19
 70
     1
102
RTVSPropertyOp20
 70
     1
102
RTVSPropertyOp21
 70
     1
102
RTVSPropertyOp22
 70
     1
102
RTVSPropertyOp23
 70
     1
102
RTVSPropertyOp24
 70
     1
102
RTVSPropertyOp25
 70
     1
102
RTVSPropertyOp26
 70
     1
102
RTVSPropertyOp27
 70
     1
  0
XRECORD
  5
2342B
102
{ACAD_REACTORS
330
2342A
102
}
330
2342A
100
AcDbXrecord
280
     1
102
RTVSPropertyOp0
 70
     1
102
RTVSPropertyOp1
 70
     1
102
RTVSPropertyOp2
 70
     1
102
RTVSPropertyOp3
 70
     1
102
RTVSPropertyOp4
 70
     1
102
RTVSPropertyOp5
 70
     1
102
RTVSPropertyOp6
 70
     1
102
RTVSPropertyOp7
 70
     1
102
RTVSPropertyOp8
 70
     1
102
RTVSPropertyOp9
 70
     1
102
RTVSPropertyOp10
 70
     1
102
RTVSPropertyOp11
 70
     1
102
RTVSPropertyOp12
 70
     1
102
RTVSPropertyOp13
 70
     1
102
RTVSPropertyOp14
 70
     1
102
RTVSPropertyOp15
 70
     1
102
RTVSPropertyOp16
 70
     1
102
RTVSPropertyOp17
 70
     1
102
RTVSPropertyOp18
 70
     1
102
RTVSPropertyOp19
 70
     1
102
RTVSPropertyOp20
 70
     1
102
RTVSPropertyOp21
 70
     1
102
RTVSPropertyOp22
 70
     1
102
RTVSPropertyOp23
 70
     1
102
RTVSPropertyOp24
 70
     1
102
RTVSPropertyOp25
 70
     1
102
RTVSPropertyOp26
 70
     1
102
RTVSPropertyOp27
 70
     1
  0
XRECORD
  5
23433
102
{ACAD_REACTORS
330
23432
102
}
330
23432
100
AcDbXrecord
280
     1
102
RTVSPropertyOp0
 70
     1
102
RTVSPropertyOp1
 70
     1
102
RTVSPropertyOp2
 70
     1
102
RTVSPropertyOp3
 70
     1
102
RTVSPropertyOp4
 70
     1
102
RTVSPropertyOp5
 70
     1
102
RTVSPropertyOp6
 70
     1
102
RTVSPropertyOp7
 70
     1
102
RTVSPropertyOp8
 70
     1
102
RTVSPropertyOp9
 70
     1
102
RTVSPropertyOp10
 70
     1
102
RTVSPropertyOp11
 70
     1
102
RTVSPropertyOp12
 70
     1
102
RTVSPropertyOp13
 70
     1
102
RTVSPropertyOp14
 70
     1
102
RTVSPropertyOp15
 70
     1
102
RTVSPropertyOp16
 70
     1
102
RTVSPropertyOp17
 70
     1
102
RTVSPropertyOp18
 70
     1
102
RTVSPropertyOp19
 70
     1
102
RTVSPropertyOp20
 70
     1
102
RTVSPropertyOp21
 70
     1
102
RTVSPropertyOp22
 70
     1
102
RTVSPropertyOp23
 70
     1
102
RTVSPropertyOp24
 70
     1
102
RTVSPropertyOp25
 70
     1
102
RTVSPropertyOp26
 70
     1
102
RTVSPropertyOp27
 70
     1
  0
XRECORD
  5
23425
102
{ACAD_REACTORS
330
23424
102
}
330
23424
100
AcDbXrecord
280
     1
102
RTVSPropertyOp0
 70
     1
102
RTVSPropertyOp1
 70
     1
102
RTVSPropertyOp2
 70
     1
102
RTVSPropertyOp3
 70
     1
102
RTVSPropertyOp4
 70
     1
102
RTVSPropertyOp5
 70
     1
102
RTVSPropertyOp6
 70
     1
102
RTVSPropertyOp7
 70
     1
102
RTVSPropertyOp8
 70
     1
102
RTVSPropertyOp9
 70
     1
102
RTVSPropertyOp10
 70
     1
102
RTVSPropertyOp11
 70
     1
102
RTVSPropertyOp12
 70
     1
102
RTVSPropertyOp13
 70
     1
102
RTVSPropertyOp14
 70
     1
102
RTVSPropertyOp15
 70
     1
102
RTVSPropertyOp16
 70
     1
102
RTVSPropertyOp17
 70
     1
102
RTVSPropertyOp18
 70
     1
102
RTVSPropertyOp19
 70
     1
102
RTVSPropertyOp20
 70
     1
102
RTVSPropertyOp21
 70
     1
102
RTVSPropertyOp22
 70
     1
102
RTVSPropertyOp23
 70
     1
102
RTVSPropertyOp24
 70
     1
102
RTVSPropertyOp25
 70
     1
102
RTVSPropertyOp26
 70
     1
102
RTVSPropertyOp27
 70
     1
  0
XRECORD
  5
23429
102
{ACAD_REACTORS
330
23428
102
}
330
23428
100
AcDbXrecord
280
     1
102
RTVSPropertyOp0
 70
     1
102
RTVSPropertyOp1
 70
     1
102
RTVSPropertyOp2
 70
     1
102
RTVSPropertyOp3
 70
     1
102
RTVSPropertyOp4
 70
     1
102
RTVSPropertyOp5
 70
     1
102
RTVSPropertyOp6
 70
     1
102
RTVSPropertyOp7
 70
     1
102
RTVSPropertyOp8
 70
     1
102
RTVSPropertyOp9
 70
     1
102
RTVSPropertyOp10
 70
     1
102
RTVSPropertyOp11
 70
     1
102
RTVSPropertyOp12
 70
     1
102
RTVSPropertyOp13
 70
     1
102
RTVSPropertyOp14
 70
     1
102
RTVSPropertyOp15
 70
     1
102
RTVSPropertyOp16
 70
     1
102
RTVSPropertyOp17
 70
     1
102
RTVSPropertyOp18
 70
     1
102
RTVSPropertyOp19
 70
     1
102
RTVSPropertyOp20
 70
     1
102
RTVSPropertyOp21
 70
     1
102
RTVSPropertyOp22
 70
     1
102
RTVSPropertyOp23
 70
     1
102
RTVSPropertyOp24
 70
     1
102
RTVSPropertyOp25
 70
     1
102
RTVSPropertyOp26
 70
     1
102
RTVSPropertyOp27
 70
     1
  0
XRECORD
  5
23439
102
{ACAD_REACTORS
330
23438
102
}
330
23438
100
AcDbXrecord
280
     1
102
RTVSPropertyOp0
 70
     0
102
RTVSPropertyOp1
 70
     0
102
RTVSPropertyOp2
 70
     0
102
RTVSPropertyOp3
 70
     0
102
RTVSPropertyOp4
 70
     0
102
RTVSPropertyOp5
 70
     0
102
RTVSPropertyOp6
 70
     0
102
RTVSPropertyOp7
 70
     0
102
RTVSPropertyOp8
 70
     0
102
RTVSPropertyOp9
 70
     0
102
RTVSPropertyOp10
 70
     0
102
RTVSPropertyOp11
 70
     0
102
RTVSPropertyOp12
 70
     0
102
RTVSPropertyOp13
 70
     0
102
RTVSPropertyOp14
 70
     2
102
RTVSPropertyOp15
 70
     0
102
RTVSPropertyOp16
 70
     0
102
RTVSPropertyOp17
 70
     0
102
RTVSPropertyOp18
 70
     0
102
RTVSPropertyOp19
 70
     0
102
RTVSPropertyOp20
 70
     0
102
RTVSPropertyOp21
 70
     0
102
RTVSPropertyOp22
 70
     0
102
RTVSPropertyOp23
 70
     0
102
RTVSPropertyOp24
 70
     0
102
RTVSPropertyOp25
 70
     0
102
RTVSPropertyOp26
 70
     0
102
RTVSPropertyOp27
 70
     0
  0
XRECORD
  5
23431
102
{ACAD_REACTORS
330
23430
102
}
330
23430
100
AcDbXrecord
280
     1
102
RTVSPropertyOp0
 70
     1
102
RTVSPropertyOp1
 70
     1
102
RTVSPropertyOp2
 70
     1
102
RTVSPropertyOp3
 70
     1
102
RTVSPropertyOp4
 70
     1
102
RTVSPropertyOp5
 70
     1
102
RTVSPropertyOp6
 70
     1
102
RTVSPropertyOp7
 70
     1
102
RTVSPropertyOp8
 70
     1
102
RTVSPropertyOp9
 70
     1
102
RTVSPropertyOp10
 70
     1
102
RTVSPropertyOp11
 70
     1
102
RTVSPropertyOp12
 70
     1
102
RTVSPropertyOp13
 70
     1
102
RTVSPropertyOp14
 70
     1
102
RTVSPropertyOp15
 70
     1
102
RTVSPropertyOp16
 70
     1
102
RTVSPropertyOp17
 70
     1
102
RTVSPropertyOp18
 70
     1
102
RTVSPropertyOp19
 70
     1
102
RTVSPropertyOp20
 70
     1
102
RTVSPropertyOp21
 70
     1
102
RTVSPropertyOp22
 70
     1
102
RTVSPropertyOp23
 70
     1
102
RTVSPropertyOp24
 70
     1
102
RTVSPropertyOp25
 70
     1
102
RTVSPropertyOp26
 70
     1
102
RTVSPropertyOp27
 70
     1
  0
XRECORD
  5
23415
102
{ACAD_REACTORS
330
23414
102
}
330
23414
100
AcDbXrecord
280
     1
102
RTVSPropertyOp0
 70
     1
102
RTVSPropertyOp1
 70
     1
102
RTVSPropertyOp2
 70
     1
102
RTVSPropertyOp3
 70
     1
102
RTVSPropertyOp4
 70
     1
102
RTVSPropertyOp5
 70
     1
102
RTVSPropertyOp6
 70
     1
102
RTVSPropertyOp7
 70
     1
102
RTVSPropertyOp8
 70
     1
102
RTVSPropertyOp9
 70
     1
102
RTVSPropertyOp10
 70
     1
102
RTVSPropertyOp11
 70
     1
102
RTVSPropertyOp12
 70
     1
102
RTVSPropertyOp13
 70
     1
102
RTVSPropertyOp14
 70
     1
102
RTVSPropertyOp15
 70
     1
102
RTVSPropertyOp16
 70
     1
102
RTVSPropertyOp17
 70
     1
102
RTVSPropertyOp18
 70
     1
102
RTVSPropertyOp19
 70
     1
102
RTVSPropertyOp20
 70
     1
102
RTVSPropertyOp21
 70
     1
102
RTVSPropertyOp22
 70
     1
102
RTVSPropertyOp23
 70
     1
102
RTVSPropertyOp24
 70
     1
102
RTVSPropertyOp25
 70
     1
102
RTVSPropertyOp26
 70
     1
102
RTVSPropertyOp27
 70
     1
  0
XRECORD
  5
23417
102
{ACAD_REACTORS
330
23416
102
}
330
23416
100
AcDbXrecord
280
     1
102
RTVSPropertyOp0
 70
     1
102
RTVSPropertyOp1
 70
     1
102
RTVSPropertyOp2
 70
     1
102
RTVSPropertyOp3
 70
     1
102
RTVSPropertyOp4
 70
     1
102
RTVSPropertyOp5
 70
     1
102
RTVSPropertyOp6
 70
     1
102
RTVSPropertyOp7
 70
     1
102
RTVSPropertyOp8
 70
     1
102
RTVSPropertyOp9
 70
     1
102
RTVSPropertyOp10
 70
     1
102
RTVSPropertyOp11
 70
     1
102
RTVSPropertyOp12
 70
     1
102
RTVSPropertyOp13
 70
     1
102
RTVSPropertyOp14
 70
     1
102
RTVSPropertyOp15
 70
     1
102
RTVSPropertyOp16
 70
     1
102
RTVSPropertyOp17
 70
     1
102
RTVSPropertyOp18
 70
     1
102
RTVSPropertyOp19
 70
     1
102
RTVSPropertyOp20
 70
     1
102
RTVSPropertyOp21
 70
     1
102
RTVSPropertyOp22
 70
     1
102
RTVSPropertyOp23
 70
     1
102
RTVSPropertyOp24
 70
     1
102
RTVSPropertyOp25
 70
     1
102
RTVSPropertyOp26
 70
     1
102
RTVSPropertyOp27
 70
     1
  0
XRECORD
  5
23419
102
{ACAD_REACTORS
330
23418
102
}
330
23418
100
AcDbXrecord
280
     1
102
RTVSPropertyOp0
 70
     1
102
RTVSPropertyOp1
 70
     1
102
RTVSPropertyOp2
 70
     1
102
RTVSPropertyOp3
 70
     1
102
RTVSPropertyOp4
 70
     1
102
RTVSPropertyOp5
 70
     1
102
RTVSPropertyOp6
 70
     1
102
RTVSPropertyOp7
 70
     1
102
RTVSPropertyOp8
 70
     1
102
RTVSPropertyOp9
 70
     1
102
RTVSPropertyOp10
 70
     1
102
RTVSPropertyOp11
 70
     1
102
RTVSPropertyOp12
 70
     1
102
RTVSPropertyOp13
 70
     1
102
RTVSPropertyOp14
 70
     1
102
RTVSPropertyOp15
 70
     1
102
RTVSPropertyOp16
 70
     1
102
RTVSPropertyOp17
 70
     1
102
RTVSPropertyOp18
 70
     1
102
RTVSPropertyOp19
 70
     1
102
RTVSPropertyOp20
 70
     1
102
RTVSPropertyOp21
 70
     1
102
RTVSPropertyOp22
 70
     1
102
RTVSPropertyOp23
 70
     1
102
RTVSPropertyOp24
 70
     1
102
RTVSPropertyOp25
 70
     1
102
RTVSPropertyOp26
 70
     1
102
RTVSPropertyOp27
 70
     1
  0
XRECORD
  5
2341B
102
{ACAD_REACTORS
330
2341A
102
}
330
2341A
100
AcDbXrecord
280
     1
102
RTVSPropertyOp0
 70
     1
102
RTVSPropertyOp1
 70
     1
102
RTVSPropertyOp2
 70
     1
102
RTVSPropertyOp3
 70
     1
102
RTVSPropertyOp4
 70
     1
102
RTVSPropertyOp5
 70
     1
102
RTVSPropertyOp6
 70
     1
102
RTVSPropertyOp7
 70
     1
102
RTVSPropertyOp8
 70
     1
102
RTVSPropertyOp9
 70
     1
102
RTVSPropertyOp10
 70
     1
102
RTVSPropertyOp11
 70
     1
102
RTVSPropertyOp12
 70
     1
102
RTVSPropertyOp13
 70
     1
102
RTVSPropertyOp14
 70
     1
102
RTVSPropertyOp15
 70
     1
102
RTVSPropertyOp16
 70
     1
102
RTVSPropertyOp17
 70
     1
102
RTVSPropertyOp18
 70
     1
102
RTVSPropertyOp19
 70
     1
102
RTVSPropertyOp20
 70
     1
102
RTVSPropertyOp21
 70
     1
102
RTVSPropertyOp22
 70
     1
102
RTVSPropertyOp23
 70
     1
102
RTVSPropertyOp24
 70
     1
102
RTVSPropertyOp25
 70
     1
102
RTVSPropertyOp26
 70
     1
102
RTVSPropertyOp27
 70
     1
  0
XRECORD
  5
23435
102
{ACAD_REACTORS
330
23434
102
}
330
23434
100
AcDbXrecord
280
     1
102
RTVSPropertyOp0
 70
     0
102
RTVSPropertyOp1
 70
     0
102
RTVSPropertyOp2
 70
     0
102
RTVSPropertyOp3
 70
     0
102
RTVSPropertyOp4
 70
     0
102
RTVSPropertyOp5
 70
     0
102
RTVSPropertyOp6
 70
     0
102
RTVSPropertyOp7
 70
     0
102
RTVSPropertyOp8
 70
     0
102
RTVSPropertyOp9
 70
     0
102
RTVSPropertyOp10
 70
     0
102
RTVSPropertyOp11
 70
     0
102
RTVSPropertyOp12
 70
     0
102
RTVSPropertyOp13
 70
     0
102
RTVSPropertyOp14
 70
     2
102
RTVSPropertyOp15
 70
     0
102
RTVSPropertyOp16
 70
     0
102
RTVSPropertyOp17
 70
     0
102
RTVSPropertyOp18
 70
     0
102
RTVSPropertyOp19
 70
     0
102
RTVSPropertyOp20
 70
     0
102
RTVSPropertyOp21
 70
     0
102
RTVSPropertyOp22
 70
     0
102
RTVSPropertyOp23
 70
     0
102
RTVSPropertyOp24
 70
     0
102
RTVSPropertyOp25
 70
     0
102
RTVSPropertyOp26
 70
     0
102
RTVSPropertyOp27
 70
     0
  0
XRECORD
  5
2342F
102
{ACAD_REACTORS
330
2342E
102
}
330
2342E
100
AcDbXrecord
280
     1
102
RTVSPropertyOp0
 70
     1
102
RTVSPropertyOp1
 70
     1
102
RTVSPropertyOp2
 70
     1
102
RTVSPropertyOp3
 70
     1
102
RTVSPropertyOp4
 70
     1
102
RTVSPropertyOp5
 70
     1
102
RTVSPropertyOp6
 70
     1
102
RTVSPropertyOp7
 70
     1
102
RTVSPropertyOp8
 70
     1
102
RTVSPropertyOp9
 70
     1
102
RTVSPropertyOp10
 70
     1
102
RTVSPropertyOp11
 70
     1
102
RTVSPropertyOp12
 70
     1
102
RTVSPropertyOp13
 70
     1
102
RTVSPropertyOp14
 70
     1
102
RTVSPropertyOp15
 70
     1
102
RTVSPropertyOp16
 70
     1
102
RTVSPropertyOp17
 70
     1
102
RTVSPropertyOp18
 70
     1
102
RTVSPropertyOp19
 70
     1
102
RTVSPropertyOp20
 70
     1
102
RTVSPropertyOp21
 70
     1
102
RTVSPropertyOp22
 70
     1
102
RTVSPropertyOp23
 70
     1
102
RTVSPropertyOp24
 70
     1
102
RTVSPropertyOp25
 70
     1
102
RTVSPropertyOp26
 70
     1
102
RTVSPropertyOp27
 70
     1
  0
XRECORD
  5
23437
102
{ACAD_REACTORS
330
23436
102
}
330
23436
100
AcDbXrecord
280
     1
102
RTVSPropertyOp0
 70
     0
102
RTVSPropertyOp1
 70
     0
102
RTVSPropertyOp2
 70
     0
102
RTVSPropertyOp3
 70
     0
102
RTVSPropertyOp4
 70
     0
102
RTVSPropertyOp5
 70
     0
102
RTVSPropertyOp6
 70
     0
102
RTVSPropertyOp7
 70
     0
102
RTVSPropertyOp8
 70
     0
102
RTVSPropertyOp9
 70
     0
102
RTVSPropertyOp10
 70
     0
102
RTVSPropertyOp11
 70
     0
102
RTVSPropertyOp12
 70
     0
102
RTVSPropertyOp13
 70
     0
102
RTVSPropertyOp14
 70
     2
102
RTVSPropertyOp15
 70
     0
102
RTVSPropertyOp16
 70
     0
102
RTVSPropertyOp17
 70
     0
102
RTVSPropertyOp18
 70
     0
102
RTVSPropertyOp19
 70
     0
102
RTVSPropertyOp20
 70
     0
102
RTVSPropertyOp21
 70
     0
102
RTVSPropertyOp22
 70
     0
102
RTVSPropertyOp23
 70
     0
102
RTVSPropertyOp24
 70
     0
102
RTVSPropertyOp25
 70
     0
102
RTVSPropertyOp26
 70
     0
102
RTVSPropertyOp27
 70
     0
  0
XRECORD
  5
23427
102
{ACAD_REACTORS
330
23426
102
}
330
23426
100
AcDbXrecord
280
     1
102
RTVSPropertyOp0
 70
     1
102
RTVSPropertyOp1
 70
     1
102
RTVSPropertyOp2
 70
     1
102
RTVSPropertyOp3
 70
     1
102
RTVSPropertyOp4
 70
     1
102
RTVSPropertyOp5
 70
     1
102
RTVSPropertyOp6
 70
     1
102
RTVSPropertyOp7
 70
     1
102
RTVSPropertyOp8
 70
     1
102
RTVSPropertyOp9
 70
     1
102
RTVSPropertyOp10
 70
     1
102
RTVSPropertyOp11
 70
     1
102
RTVSPropertyOp12
 70
     1
102
RTVSPropertyOp13
 70
     1
102
RTVSPropertyOp14
 70
     1
102
RTVSPropertyOp15
 70
     1
102
RTVSPropertyOp16
 70
     1
102
RTVSPropertyOp17
 70
     1
102
RTVSPropertyOp18
 70
     1
102
RTVSPropertyOp19
 70
     1
102
RTVSPropertyOp20
 70
     1
102
RTVSPropertyOp21
 70
     1
102
RTVSPropertyOp22
 70
     1
102
RTVSPropertyOp23
 70
     1
102
RTVSPropertyOp24
 70
     1
102
RTVSPropertyOp25
 70
     1
102
RTVSPropertyOp26
 70
     1
102
RTVSPropertyOp27
 70
     1
  0
XRECORD
  5
2342D
102
{ACAD_REACTORS
330
2342C
102
}
330
2342C
100
AcDbXrecord
280
     1
102
RTVSPropertyOp0
 70
     1
102
RTVSPropertyOp1
 70
     1
102
RTVSPropertyOp2
 70
     1
102
RTVSPropertyOp3
 70
     1
102
RTVSPropertyOp4
 70
     1
102
RTVSPropertyOp5
 70
     1
102
RTVSPropertyOp6
 70
     1
102
RTVSPropertyOp7
 70
     1
102
RTVSPropertyOp8
 70
     1
102
RTVSPropertyOp9
 70
     1
102
RTVSPropertyOp10
 70
     1
102
RTVSPropertyOp11
 70
     1
102
RTVSPropertyOp12
 70
     1
102
RTVSPropertyOp13
 70
     1
102
RTVSPropertyOp14
 70
     1
102
RTVSPropertyOp15
 70
     1
102
RTVSPropertyOp16
 70
     1
102
RTVSPropertyOp17
 70
     1
102
RTVSPropertyOp18
 70
     1
102
RTVSPropertyOp19
 70
     1
102
RTVSPropertyOp20
 70
     1
102
RTVSPropertyOp21
 70
     1
102
RTVSPropertyOp22
 70
     1
102
RTVSPropertyOp23
 70
     1
102
RTVSPropertyOp24
 70
     1
102
RTVSPropertyOp25
 70
     1
102
RTVSPropertyOp26
 70
     1
102
RTVSPropertyOp27
 70
     1
  0
ENDSEC
  0
EOF
