  0
SECTION
  2
HEADER
  9
$ACADVER
  1
AC1014
  9
$ACADMAINTVER
 70
     9
  9
$DWGCODEPAGE
  3
ANSI_932
  9
$INSBASE
 10
0.0
 20
0.0
 30
0.0
  9
$EXTMIN
 10
-177.6166434428803
 20
-850.1257494113083
 30
-0.0000000000112498
  9
$EXTMAX
 10
709.8469430652287
 20
647.2396409914741
 30
0.0000000000002956
  9
$LIMMIN
 10
-184.0
 20
-675.0
  9
$LIMMAX
 10
509.0
 20
453.0
  9
$ORTHOMODE
 70
     0
  9
$REGENMODE
 70
     1
  9
$FILLMODE
 70
     1
  9
$QTEXTMODE
 70
     0
  9
$MIRRTEXT
 70
     1
  9
$DRAGMODE
 70
     2
  9
$LTSCALE
 40
20.0
  9
$OSMODE
 70
   551
  9
$ATTMODE
 70
     1
  9
$TEXTSIZE
 40
5.0
  9
$TRACEWID
 40
0.05
  9
$TEXTSTYLE
  7
STANDARD1
  9
$CLAYER
  8
30
  9
$CELTYPE
  6
CONTINUOUS
  9
$CECOLOR
 62
   256
  9
$CELTSCALE
 40
1.0
  9
$DELOBJ
 70
     1
  9
$DISPSILH
 70
     0
  9
$DIMSCALE
 40
1.0
  9
$DIMASZ
 40
2.0
  9
$DIMEXO
 40
1.0
  9
$DIMDLI
 40
0.5
  9
$DIMRND
 40
0.0
  9
$DIMDLE
 40
0.0
  9
$DIMEXE
 40
0.5
  9
$DIMTP
 40
0.0
  9
$DIMTM
 40
0.0
  9
$DIMTXT
 40
7.0
  9
$DIMCEN
 40
0.09
  9
$DIMTSZ
 40
0.0
  9
$DIMTOL
 70
     0
  9
$DIMLIM
 70
     0
  9
$DIMTIH
 70
     0
  9
$DIMTOH
 70
     1
  9
$DIMSE1
 70
     0
  9
$DIMSE2
 70
     0
  9
$DIMTAD
 70
     3
  9
$DIMZIN
 70
    12
  9
$DIMBLK
  1
OPEN
  9
$DIMASO
 70
     1
  9
$DIMSHO
 70
     1
  9
$DIMPOST
  1

  9
$DIMAPOST
  1

  9
$DIMALT
 70
     0
  9
$DIMALTD
 70
     2
  9
$DIMALTF
 40
25.4
  9
$DIMLFAC
 40
1.0
  9
$DIMTOFL
 70
     0
  9
$DIMTVP
 40
0.0
  9
$DIMTIX
 70
     0
  9
$DIMSOXD
 70
     0
  9
$DIMSAH
 70
     0
  9
$DIMBLK1
  1

  9
$DIMBLK2
  1

  9
$DIMSTYLE
  2
STANDARD
  9
$DIMCLRD
 70
     0
  9
$DIMCLRE
 70
     0
  9
$DIMCLRT
 70
     0
  9
$DIMTFAC
 40
1.0
  9
$DIMGAP
 40
2.0
  9
$DIMJUST
 70
     0
  9
$DIMSD1
 70
     0
  9
$DIMSD2
 70
     0
  9
$DIMTOLJ
 70
     1
  9
$DIMTZIN
 70
     0
  9
$DIMALTZ
 70
     0
  9
$DIMALTTZ
 70
     0
  9
$DIMFIT
 70
     3
  9
$DIMUPT
 70
     0
  9
$DIMUNIT
 70
     2
  9
$DIMDEC
 70
     1
  9
$DIMTDEC
 70
     1
  9
$DIMALTU
 70
     2
  9
$DIMALTTD
 70
     2
  9
$DIMTXSTY
  7
STANDARD
  9
$DIMAUNIT
 70
     0
  9
$LUNITS
 70
     2
  9
$LUPREC
 70
     4
  9
$SKETCHINC
 40
0.1
  9
$FILLETRAD
 40
0.0
  9
$AUNITS
 70
     0
  9
$AUPREC
 70
     0
  9
$MENU
  1
.
  9
$ELEVATION
 40
0.0
  9
$PELEVATION
 40
0.0
  9
$THICKNESS
 40
0.0
  9
$LIMCHECK
 70
     0
  9
$BLIPMODE
 70
     0
  9
$CHAMFERA
 40
0.0
  9
$CHAMFERB
 40
0.0
  9
$CHAMFERC
 40
0.0
  9
$CHAMFERD
 40
0.0
  9
$SKPOLY
 70
     0
  9
$TDCREATE
 40
2452286.555658657
  9
$TDUPDATE
 40
2453243.612640867
  9
$TDINDWG
 40
1.5439527199
  9
$TDUSRTIMER
 40
1.5439527199
  9
$USRTIMER
 70
     1
  9
$ANGBASE
 50
0.0
  9
$ANGDIR
 70
     0
  9
$PDMODE
 70
     0
  9
$PDSIZE
 40
0.0
  9
$PLINEWID
 40
0.0
  9
$COORDS
 70
     1
  9
$SPLFRAME
 70
     0
  9
$SPLINETYPE
 70
     6
  9
$SPLINESEGS
 70
     8
  9
$ATTDIA
 70
     0
  9
$ATTREQ
 70
     1
  9
$HANDLING
 70
 22529
  9
$HANDSEED
  5
8A68
  9
$SURFTAB1
 70
     6
  9
$SURFTAB2
 70
     6
  9
$SURFTYPE
 70
     6
  9
$SURFU
 70
     6
  9
$SURFV
 70
     6
  9
$UCSNAME
  2

  9
$UCSORG
 10
0.0
 20
0.0
 30
0.0
  9
$UCSXDIR
 10
1.0
 20
0.0
 30
0.0
  9
$UCSYDIR
 10
0.0
 20
1.0
 30
0.0
  9
$PUCSNAME
  2

  9
$PUCSORG
 10
0.0
 20
0.0
 30
0.0
  9
$PUCSXDIR
 10
1.0
 20
0.0
 30
0.0
  9
$PUCSYDIR
 10
0.0
 20
1.0
 30
0.0
  9
$USERI1
 70
     0
  9
$USERI2
 70
     0
  9
$USERI3
 70
     0
  9
$USERI4
 70
     0
  9
$USERI5
 70
     0
  9
$USERR1
 40
0.0
  9
$USERR2
 40
0.0
  9
$USERR3
 40
0.0
  9
$USERR4
 40
0.0
  9
$USERR5
 40
0.0
  9
$WORLDVIEW
 70
     1
  9
$SHADEDGE
 70
     3
  9
$SHADEDIF
 70
    70
  9
$TILEMODE
 70
     1
  9
$MAXACTVP
 70
    48
  9
$PINSBASE
 10
0.0
 20
0.0
 30
0.0
  9
$PLIMCHECK
 70
     0
  9
$PEXTMIN
 10
4.273573370203961
 20
5.205246163471485
 30
0.0
  9
$PEXTMAX
 10
194.6100952986349
 20
283.0697008572913
 30
0.0
  9
$PLIMMIN
 10
-5.873748779296875
 20
-5.873749732971191
  9
$PLIMMAX
 10
204.0995788574218
 20
291.1369009017943
  9
$UNITMODE
 70
     0
  9
$VISRETAIN
 70
     1
  9
$PLINEGEN
 70
     0
  9
$PSLTSCALE
 70
     1
  9
$TREEDEPTH
 70
  3020
  9
$PICKSTYLE
 70
     1
  9
$CMLSTYLE
  2
STANDARD
  9
$CMLJUST
 70
     0
  9
$CMLSCALE
 40
1.0
  9
$PROXYGRAPHICS
 70
     1
  9
$MEASUREMENT
 70
     0
  0
ENDSEC
  0
SECTION
  2
CLASSES
  0
CLASS
  1
ACDBDICTIONARYWDFLT
  2
AcDbDictionaryWithDefault
  3
AutoCAD 2000
 90
        0
280
     0
281
     0
  0
CLASS
  1
ACDBPLACEHOLDER
  2
AcDbPlaceHolder
  3
AutoCAD 2000
 90
        0
280
     0
281
     0
  0
CLASS
  1
LAYOUT
  2
AcDbLayout
  3
AutoCAD 2000
 90
        0
280
     0
281
     0
  0
CLASS
  1
LONG_TRANSACTION
  2
AcDbLongTransaction
  3
AutoCAD 2000
 90
        0
280
     0
281
     0
  0
CLASS
  1
LWPOLYLINE
  2
AcDbPolyline
  3
AutoCAD 2000
 90
        0
280
     0
281
     1
  0
CLASS
  1
HATCH
  2
AcDbHatch
  3
AutoCAD 2000
 90
        0
280
     0
281
     1
  0
CLASS
  1
XRECORD
  2
AcDbXrecord
  3
AutoCAD 2000
 90
        0
280
     0
281
     0
  0
CLASS
  1
LONG_TRANSACTION
  2
AcDbLongTransaction
  3
AutoCAD 2000
 90
        0
280
     0
281
     0
  0
CLASS
  1
LWPOLYLINE
  2
AcDbPolyline
  3
AutoCAD 2000
 90
        0
280
     0
281
     1
  0
CLASS
  1
HATCH
  2
AcDbHatch
  3
AutoCAD 2000
 90
        0
280
     0
281
     1
  0
CLASS
  1
XRECORD
  2
AcDbXrecord
  3
AutoCAD 2000
 90
        0
280
     0
281
     0
  0
CLASS
  1
LONG_TRANSACTION
  2
AcDbLongTransaction
  3
AutoCAD 2000
 90
        0
280
     0
281
     0
  0
CLASS
  1
LWPOLYLINE
  2
AcDbPolyline
  3
AutoCAD 2000
 90
        0
280
     0
281
     1
  0
CLASS
  1
HATCH
  2
AcDbHatch
  3
AutoCAD 2000
 90
        0
280
     0
281
     1
  0
CLASS
  1
XRECORD
  2
AcDbXrecord
  3
AutoCAD 2000
 90
        0
280
     0
281
     0
  0
CLASS
  1
LONG_TRANSACTION
  2
AcDbLongTransaction
  3
AutoCAD 2000
 90
        0
280
     0
281
     0
  0
CLASS
  1
LWPOLYLINE
  2
AcDbPolyline
  3
AutoCAD 2000
 90
        0
280
     0
281
     1
  0
CLASS
  1
HATCH
  2
AcDbHatch
  3
AutoCAD 2000
 90
        0
280
     0
281
     1
  0
CLASS
  1
XRECORD
  2
AcDbXrecord
  3
AutoCAD 2000
 90
        0
280
     0
281
     0
  0
CLASS
  1
LONG_TRANSACTION
  2
AcDbLongTransaction
  3
AutoCAD 2000
 90
        0
280
     0
281
     0
  0
CLASS
  1
LWPOLYLINE
  2
AcDbPolyline
  3
AutoCAD 2000
 90
        0
280
     0
281
     1
  0
CLASS
  1
HATCH
  2
AcDbHatch
  3
AutoCAD 2000
 90
        0
280
     0
281
     1
  0
CLASS
  1
XRECORD
  2
AcDbXrecord
  3
AutoCAD 2000
 90
        0
280
     0
281
     0
  0
CLASS
  1
LONG_TRANSACTION
  2
AcDbLongTransaction
  3
AutoCAD 2000
 90
        0
280
     0
281
     0
  0
CLASS
  1
LWPOLYLINE
  2
AcDbPolyline
  3
AutoCAD 2000
 90
        0
280
     0
281
     1
  0
CLASS
  1
HATCH
  2
AcDbHatch
  3
AutoCAD 2000
 90
        0
280
     0
281
     1
  0
CLASS
  1
XRECORD
  2
AcDbXrecord
  3
AutoCAD 2000
 90
        0
280
     0
281
     0
  0
CLASS
  1
LONG_TRANSACTION
  2
AcDbLongTransaction
  3
AutoCAD 2000
 90
        0
280
     0
281
     0
  0
CLASS
  1
LWPOLYLINE
  2
AcDbPolyline
  3
AutoCAD 2000
 90
        0
280
     0
281
     1
  0
CLASS
  1
HATCH
  2
AcDbHatch
  3
AutoCAD 2000
 90
        0
280
     0
281
     1
  0
CLASS
  1
XRECORD
  2
AcDbXrecord
  3
AutoCAD 2000
 90
        0
280
     0
281
     0
  0
CLASS
  1
LONG_TRANSACTION
  2
AcDbLongTransaction
  3
AutoCAD 2000
 90
        0
280
     0
281
     0
  0
CLASS
  1
LWPOLYLINE
  2
AcDbPolyline
  3
AutoCAD 2000
 90
        0
280
     0
281
     1
  0
CLASS
  1
HATCH
  2
AcDbHatch
  3
AutoCAD 2000
 90
        0
280
     0
281
     1
  0
CLASS
  1
XRECORD
  2
AcDbXrecord
  3
AutoCAD 2000
 90
        0
280
     0
281
     0
  0
CLASS
  1
LONG_TRANSACTION
  2
AcDbLongTransaction
  3
AutoCAD 2000
 90
        0
280
     0
281
     0
  0
CLASS
  1
LWPOLYLINE
  2
AcDbPolyline
  3
AutoCAD 2000
 90
        0
280
     0
281
     1
  0
CLASS
  1
HATCH
  2
AcDbHatch
  3
AutoCAD 2000
 90
        0
280
     0
281
     1
  0
CLASS
  1
XRECORD
  2
AcDbXrecord
  3
AutoCAD 2000
 90
        0
280
     0
281
     0
  0
CLASS
  1
LONG_TRANSACTION
  2
AcDbLongTransaction
  3
AutoCAD 2000
 90
        0
280
     0
281
     0
  0
CLASS
  1
LWPOLYLINE
  2
AcDbPolyline
  3
AutoCAD 2000
 90
        0
280
     0
281
     1
  0
CLASS
  1
HATCH
  2
AcDbHatch
  3
AutoCAD 2000
 90
        0
280
     0
281
     1
  0
CLASS
  1
XRECORD
  2
AcDbXrecord
  3
AutoCAD 2000
 90
        0
280
     0
281
     0
  0
CLASS
  1
LONG_TRANSACTION
  2
AcDbLongTransaction
  3
AutoCAD 2000
 90
        0
280
     0
281
     0
  0
CLASS
  1
LWPOLYLINE
  2
AcDbPolyline
  3
AutoCAD 2000
 90
        0
280
     0
281
     1
  0
CLASS
  1
HATCH
  2
AcDbHatch
  3
AutoCAD 2000
 90
        0
280
     0
281
     1
  0
CLASS
  1
XRECORD
  2
AcDbXrecord
  3
AutoCAD 2000
 90
        0
280
     0
281
     0
  0
CLASS
  1
LONG_TRANSACTION
  2
AcDbLongTransaction
  3
AutoCAD 2000
 90
        0
280
     0
281
     0
  0
CLASS
  1
LWPOLYLINE
  2
AcDbPolyline
  3
AutoCAD 2000
 90
        0
280
     0
281
     1
  0
CLASS
  1
HATCH
  2
AcDbHatch
  3
AutoCAD 2000
 90
        0
280
     0
281
     1
  0
CLASS
  1
XRECORD
  2
AcDbXrecord
  3
AutoCAD 2000
 90
        0
280
     0
281
     0
  0
CLASS
  1
LONG_TRANSACTION
  2
AcDbLongTransaction
  3
AutoCAD 2000
 90
        0
280
     0
281
     0
  0
CLASS
  1
LWPOLYLINE
  2
AcDbPolyline
  3
AutoCAD 2000
 90
        0
280
     0
281
     1
  0
CLASS
  1
HATCH
  2
AcDbHatch
  3
AutoCAD 2000
 90
        0
280
     0
281
     1
  0
CLASS
  1
XRECORD
  2
AcDbXrecord
  3
AutoCAD 2000
 90
        0
280
     0
281
     0
  0
CLASS
  1
LONG_TRANSACTION
  2
AcDbLongTransaction
  3
AutoCAD 2000
 90
        0
280
     0
281
     0
  0
CLASS
  1
LWPOLYLINE
  2
AcDbPolyline
  3
AutoCAD 2000
 90
        0
280
     0
281
     1
  0
CLASS
  1
HATCH
  2
AcDbHatch
  3
AutoCAD 2000
 90
        0
280
     0
281
     1
  0
CLASS
  1
XRECORD
  2
AcDbXrecord
  3
AutoCAD 2000
 90
        0
280
     0
281
     0
  0
CLASS
  1
LONG_TRANSACTION
  2
AcDbLongTransaction
  3
AutoCAD 2000
 90
        0
280
     0
281
     0
  0
CLASS
  1
LWPOLYLINE
  2
AcDbPolyline
  3
AutoCAD 2000
 90
        0
280
     0
281
     1
  0
CLASS
  1
HATCH
  2
AcDbHatch
  3
AutoCAD 2000
 90
        0
280
     0
281
     1
  0
CLASS
  1
XRECORD
  2
AcDbXrecord
  3
AutoCAD 2000
 90
        0
280
     0
281
     0
  0
CLASS
  1
LONG_TRANSACTION
  2
AcDbLongTransaction
  3
AutoCAD 2000
 90
        0
280
     0
281
     0
  0
CLASS
  1
LWPOLYLINE
  2
AcDbPolyline
  3
AutoCAD 2000
 90
        0
280
     0
281
     1
  0
CLASS
  1
HATCH
  2
AcDbHatch
  3
AutoCAD 2000
 90
        0
280
     0
281
     1
  0
CLASS
  1
XRECORD
  2
AcDbXrecord
  3
AutoCAD 2000
 90
        0
280
     0
281
     0
  0
CLASS
  1
LONG_TRANSACTION
  2
AcDbLongTransaction
  3
AutoCAD 2000
 90
        0
280
     0
281
     0
  0
CLASS
  1
LWPOLYLINE
  2
AcDbPolyline
  3
AutoCAD 2000
 90
        0
280
     0
281
     1
  0
CLASS
  1
HATCH
  2
AcDbHatch
  3
AutoCAD 2000
 90
        0
280
     0
281
     1
  0
CLASS
  1
XRECORD
  2
AcDbXrecord
  3
AutoCAD 2000
 90
        0
280
     0
281
     0
  0
CLASS
  1
LONG_TRANSACTION
  2
AcDbLongTransaction
  3
AutoCAD 2000
 90
        0
280
     0
281
     0
  0
CLASS
  1
LWPOLYLINE
  2
AcDbPolyline
  3
AutoCAD 2000
 90
        0
280
     0
281
     1
  0
CLASS
  1
HATCH
  2
AcDbHatch
  3
AutoCAD 2000
 90
        0
280
     0
281
     1
  0
CLASS
  1
XRECORD
  2
AcDbXrecord
  3
AutoCAD 2000
 90
        0
280
     0
281
     0
  0
CLASS
  1
LONG_TRANSACTION
  2
AcDbLongTransaction
  3
AutoCAD 2000
 90
        0
280
     0
281
     0
  0
CLASS
  1
LWPOLYLINE
  2
AcDbPolyline
  3
AutoCAD 2000
 90
        0
280
     0
281
     1
  0
CLASS
  1
HATCH
  2
AcDbHatch
  3
AutoCAD 2000
 90
        0
280
     0
281
     1
  0
CLASS
  1
XRECORD
  2
AcDbXrecord
  3
AutoCAD 2000
 90
        0
280
     0
281
     0
  0
CLASS
  1
LONG_TRANSACTION
  2
AcDbLongTransaction
  3
AutoCAD 2000
 90
        0
280
     0
281
     0
  0
CLASS
  1
LWPOLYLINE
  2
AcDbPolyline
  3
AutoCAD 2000
 90
        0
280
     0
281
     1
  0
CLASS
  1
HATCH
  2
AcDbHatch
  3
AutoCAD 2000
 90
        0
280
     0
281
     1
  0
CLASS
  1
XRECORD
  2
AcDbXrecord
  3
AutoCAD 2000
 90
        0
280
     0
281
     0
  0
CLASS
  1
LONG_TRANSACTION
  2
AcDbLongTransaction
  3
AutoCAD 2000
 90
        0
280
     0
281
     0
  0
CLASS
  1
LWPOLYLINE
  2
AcDbPolyline
  3
AutoCAD 2000
 90
        0
280
     0
281
     1
  0
CLASS
  1
HATCH
  2
AcDbHatch
  3
AutoCAD 2000
 90
        0
280
     0
281
     1
  0
CLASS
  1
XRECORD
  2
AcDbXrecord
  3
AutoCAD 2000
 90
        0
280
     0
281
     0
  0
CLASS
  1
LONG_TRANSACTION
  2
AcDbLongTransaction
  3
AutoCAD 2000
 90
        0
280
     0
281
     0
  0
CLASS
  1
LWPOLYLINE
  2
AcDbPolyline
  3
AutoCAD 2000
 90
        0
280
     0
281
     1
  0
CLASS
  1
HATCH
  2
AcDbHatch
  3
AutoCAD 2000
 90
        0
280
     0
281
     1
  0
CLASS
  1
XRECORD
  2
AcDbXrecord
  3
AutoCAD 2000
 90
        0
280
     0
281
     0
  0
CLASS
  1
LONG_TRANSACTION
  2
AcDbLongTransaction
  3
AutoCAD 2000
 90
        0
280
     0
281
     0
  0
CLASS
  1
LWPOLYLINE
  2
AcDbPolyline
  3
AutoCAD 2000
 90
        0
280
     0
281
     1
  0
CLASS
  1
HATCH
  2
AcDbHatch
  3
AutoCAD 2000
 90
        0
280
     0
281
     1
  0
CLASS
  1
XRECORD
  2
AcDbXrecord
  3
AutoCAD 2000
 90
        0
280
     0
281
     0
  0
CLASS
  1
LONG_TRANSACTION
  2
AcDbLongTransaction
  3
AutoCAD 2000
 90
        0
280
     0
281
     0
  0
CLASS
  1
LWPOLYLINE
  2
AcDbPolyline
  3
AutoCAD 2000
 90
        0
280
     0
281
     1
  0
CLASS
  1
HATCH
  2
AcDbHatch
  3
AutoCAD 2000
 90
        0
280
     0
281
     1
  0
CLASS
  1
XRECORD
  2
AcDbXrecord
  3
AutoCAD 2000
 90
        0
280
     0
281
     0
  0
CLASS
  1
LONG_TRANSACTION
  2
AcDbLongTransaction
  3
AutoCAD 2000
 90
        0
280
     0
281
     0
  0
CLASS
  1
LWPOLYLINE
  2
AcDbPolyline
  3
AutoCAD 2000
 90
        0
280
     0
281
     1
  0
CLASS
  1
HATCH
  2
AcDbHatch
  3
AutoCAD 2000
 90
        0
280
     0
281
     1
  0
CLASS
  1
XRECORD
  2
AcDbXrecord
  3
AutoCAD 2000
 90
        0
280
     0
281
     0
  0
CLASS
  1
LONG_TRANSACTION
  2
AcDbLongTransaction
  3
AutoCAD 2000
 90
        0
280
     0
281
     0
  0
CLASS
  1
LWPOLYLINE
  2
AcDbPolyline
  3
AutoCAD 2000
 90
        0
280
     0
281
     1
  0
CLASS
  1
HATCH
  2
AcDbHatch
  3
AutoCAD 2000
 90
        0
280
     0
281
     1
  0
CLASS
  1
XRECORD
  2
AcDbXrecord
  3
AutoCAD 2000
 90
        0
280
     0
281
     0
  0
CLASS
  1
LONG_TRANSACTION
  2
AcDbLongTransaction
  3
AutoCAD 2000
 90
        0
280
     0
281
     0
  0
CLASS
  1
LWPOLYLINE
  2
AcDbPolyline
  3
AutoCAD 2000
 90
        0
280
     0
281
     1
  0
CLASS
  1
HATCH
  2
AcDbHatch
  3
AutoCAD 2000
 90
        0
280
     0
281
     1
  0
CLASS
  1
XRECORD
  2
AcDbXrecord
  3
AutoCAD 2000
 90
        0
280
     0
281
     0
  0
CLASS
  1
DICTIONARYVAR
  2
AcDbDictionaryVar
  3
AutoCAD 2000
 90
        0
280
     0
281
     0
  0
CLASS
  1
LONG_TRANSACTION
  2
AcDbLongTransaction
  3
AutoCAD 2000
 90
        0
280
     0
281
     0
  0
CLASS
  1
LWPOLYLINE
  2
AcDbPolyline
  3
AutoCAD 2000
 90
        0
280
     0
281
     1
  0
CLASS
  1
HATCH
  2
AcDbHatch
  3
AutoCAD 2000
 90
        0
280
     0
281
     1
  0
CLASS
  1
XRECORD
  2
AcDbXrecord
  3
AutoCAD 2000
 90
        0
280
     0
281
     0
  0
CLASS
  1
LONG_TRANSACTION
  2
AcDbLongTransaction
  3
AutoCAD 2000
 90
        0
280
     0
281
     0
  0
CLASS
  1
LWPOLYLINE
  2
AcDbPolyline
  3
AutoCAD 2000
 90
        0
280
     0
281
     1
  0
CLASS
  1
HATCH
  2
AcDbHatch
  3
AutoCAD 2000
 90
        0
280
     0
281
     1
  0
CLASS
  1
XRECORD
  2
AcDbXrecord
  3
AutoCAD 2000
 90
        0
280
     0
281
     0
  0
CLASS
  1
LONG_TRANSACTION
  2
AcDbLongTransaction
  3
AutoCAD 2000
 90
        0
280
     0
281
     0
  0
CLASS
  1
LWPOLYLINE
  2
AcDbPolyline
  3
AutoCAD 2000
 90
        0
280
     0
281
     1
  0
CLASS
  1
HATCH
  2
AcDbHatch
  3
AutoCAD 2000
 90
        0
280
     0
281
     1
  0
CLASS
  1
XRECORD
  2
AcDbXrecord
  3
AutoCAD 2000
 90
        0
280
     0
281
     0
  0
CLASS
  1
LONG_TRANSACTION
  2
AcDbLongTransaction
  3
AutoCAD 2000
 90
        0
280
     0
281
     0
  0
CLASS
  1
LWPOLYLINE
  2
AcDbPolyline
  3
AutoCAD 2000
 90
        0
280
     0
281
     1
  0
CLASS
  1
HATCH
  2
AcDbHatch
  3
AutoCAD 2000
 90
        0
280
     0
281
     1
  0
CLASS
  1
XRECORD
  2
AcDbXrecord
  3
AutoCAD 2000
 90
        0
280
     0
281
     0
  0
CLASS
  1
LONG_TRANSACTION
  2
AcDbLongTransaction
  3
AutoCAD 2000
 90
        0
280
     0
281
     0
  0
CLASS
  1
LWPOLYLINE
  2
AcDbPolyline
  3
AutoCAD 2000
 90
        0
280
     0
281
     1
  0
CLASS
  1
HATCH
  2
AcDbHatch
  3
AutoCAD 2000
 90
        0
280
     0
281
     1
  0
CLASS
  1
XRECORD
  2
AcDbXrecord
  3
AutoCAD 2000
 90
        0
280
     0
281
     0
  0
ENDSEC
  0
SECTION
  2
TABLES
  0
TABLE
  2
VPORT
  5
8
330
0
100
AcDbSymbolTable
 70
     2
  0
VPORT
  5
89F3
330
8
100
AcDbSymbolTableRecord
100
AcDbViewportTableRecord
  2
*ACTIVE
 70
     0
 10
0.0
 20
0.0
 11
1.0
 21
1.0
 12
266.1151498111741
 22
-101.4430542099171
 13
0.0
 23
0.0
 14
1.0
 24
1.0
 15
10.0
 25
10.0
 16
0.0
 26
0.0
 36
1.0
 17
0.0
 27
0.0
 37
0.0
 40
1509.233544091576
 41
1.629629629629629
 42
50.0
 43
0.0
 44
0.0
 50
0.0
 51
0.0
 71
     0
 72
   100
 73
     1
 74
     1
 75
     0
 76
     0
 77
     0
 78
     0
  0
ENDTAB
  0
TABLE
  2
LTYPE
  5
5
330
0
100
AcDbSymbolTable
 70
     5
  0
LTYPE
  5
13
330
5
100
AcDbSymbolTableRecord
100
AcDbLinetypeTableRecord
  2
BYBLOCK
 70
     0
  3

 72
    65
 73
     0
 40
0.0
  0
LTYPE
  5
14
330
5
100
AcDbSymbolTableRecord
100
AcDbLinetypeTableRecord
  2
BYLAYER
 70
     0
  3

 72
    65
 73
     0
 40
0.0
  0
LTYPE
  5
15
330
5
100
AcDbSymbolTableRecord
100
AcDbLinetypeTableRecord
  2
CONTINUOUS
 70
     0
  3
Solid line
 72
    65
 73
     0
 40
0.0
  0
LTYPE
  5
22
330
5
100
AcDbSymbolTableRecord
100
AcDbLinetypeTableRecord
  2
CONTINOUS
 70
     0
  3
Solid line
 72
    65
 73
     0
 40
0.0
  0
LTYPE
  5
23
330
5
100
AcDbSymbolTableRecord
100
AcDbLinetypeTableRecord
  2
DASHED
 70
     0
  3
__ __ __ __ __ __ __ __ __ __ __ __ __ __ __
 72
    65
 73
     2
 40
0.75
 49
0.5
 74
     0
 49
-0.25
 74
     0
  0
LTYPE
  5
24
330
5
100
AcDbSymbolTableRecord
100
AcDbLinetypeTableRecord
  2
DASHDOT
 70
     0
  3
__ . __ . __ . __ . __ . __ . __ . __ . __ . __
 72
    65
 73
     4
 40
1.0
 49
0.5
 74
     0
 49
-0.25
 74
     0
 49
0.0
 74
     0
 49
-0.25
 74
     0
  0
LTYPE
  5
3932
330
5
100
AcDbSymbolTableRecord
100
AcDbLinetypeTableRecord
  2
DIVIDE
 70
     0
  3
Divide ____ . . ____ . . ____ . . ____ . . ____
 72
    65
 73
     6
 40
1.25
 49
0.5
 74
     0
 49
-0.25
 74
     0
 49
0.0
 74
     0
 49
-0.25
 74
     0
 49
0.0
 74
     0
 49
-0.25
 74
     0
  0
ENDTAB
  0
TABLE
  2
LAYER
  5
2
330
0
100
AcDbSymbolTable
 70
    12
  0
LAYER
  5
10
330
2
100
AcDbSymbolTableRecord
100
AcDbLayerTableRecord
  2
0
 70
     0
 62
     7
  6
CONTINOUS
  0
LAYER
  5
2F
330
2
100
AcDbSymbolTableRecord
100
AcDbLayerTableRecord
  2
10
 70
     0
 62
     4
  6
CONTINOUS
  0
LAYER
  5
31
330
2
100
AcDbSymbolTableRecord
100
AcDbLayerTableRecord
  2
12
 70
     0
 62
     3
  6
CONTINOUS
  0
LAYER
  5
35
330
2
100
AcDbSymbolTableRecord
100
AcDbLayerTableRecord
  2
16
 70
     0
 62
     6
  6
DASHDOT
  0
LAYER
  5
38
330
2
100
AcDbSymbolTableRecord
100
AcDbLayerTableRecord
  2
19
 70
     0
 62
     7
  6
CONTINOUS
  0
LAYER
  5
3C
330
2
100
AcDbSymbolTableRecord
100
AcDbLayerTableRecord
  2
11
 70
     0
 62
     1
  6
CONTINOUS
  0
LAYER
  5
3D
330
2
100
AcDbSymbolTableRecord
100
AcDbLayerTableRecord
  2
24
 70
     0
 62
     2
  6
CONTINOUS
  0
LAYER
  5
3A2
330
2
100
AcDbSymbolTableRecord
100
AcDbLayerTableRecord
  2
30
 70
     0
 62
     9
  6
CONTINUOUS
  0
LAYER
  5
3A4
330
2
100
AcDbSymbolTableRecord
100
AcDbLayerTableRecord
  2
DEFPOINTS
 70
     0
 62
     7
  6
CONTINUOUS
  0
LAYER
  5
3933
330
2
100
AcDbSymbolTableRecord
100
AcDbLayerTableRecord
  2
18
 70
     0
 62
     5
  6
DIVIDE
  0
LAYER
  5
4709
330
2
100
AcDbSymbolTableRecord
100
AcDbLayerTableRecord
  2
L0_
 70
     0
 62
     7
  6
CONTINUOUS
  0
LAYER
  5
74BA
330
2
100
AcDbSymbolTableRecord
100
AcDbLayerTableRecord
  2
21
 70
     0
 62
     7
  6
CONTINUOUS
  0
ENDTAB
  0
TABLE
  2
STYLE
  5
3
330
0
100
AcDbSymbolTable
 70
     2
  0
STYLE
  5
11
330
3
100
AcDbSymbolTableRecord
100
AcDbTextStyleTableRecord
  2
STANDARD
 70
     0
 40
0.0
 41
1.0
 50
0.0
 71
     0
 42
2.0
  3
txt.shx
  4
bigfont.shx
  0
STYLE
  5
42
330
3
100
AcDbSymbolTableRecord
100
AcDbTextStyleTableRecord
  2
STANDARD1
 70
     0
 40
0.0
 41
1.0
 50
0.0
 71
     0
 42
5.0
  3
MONOTXT
  4
BIGFONT
  0
ENDTAB
  0
TABLE
  2
VIEW
  5
6
330
0
100
AcDbSymbolTable
 70
     3
  0
VIEW
  5
230C
330
6
100
AcDbSymbolTableRecord
100
AcDbViewTableRecord
  2
OLE1
 70
     0
 40
148.9124878027714
 10
429.4976280407222
 20
2.560626997828478
 41
103.1458057716444
 11
0.0
 21
0.0
 31
1.0
 12
0.0
 22
0.0
 32
0.0
 42
50.0
 43
0.0
 44
0.0
 50
0.0
 71
     0
  0
VIEW
  5
230E
330
6
100
AcDbSymbolTableRecord
100
AcDbViewTableRecord
  2
OLE2
 70
     0
 40
170.7786920545775
 10
322.664969958371
 20
-5.978304054290276
 41
102.4672152327465
 11
0.0
 21
0.0
 31
1.0
 12
0.0
 22
0.0
 32
0.0
 42
50.0
 43
0.0
 44
0.0
 50
0.0
 71
     0
  0
VIEW
  5
23AA
330
6
100
AcDbSymbolTableRecord
100
AcDbViewTableRecord
  2
OLE3
 70
     0
 40
591.7897393182231
 10
84.79698158148218
 20
-46.09336010803995
 41
388.7920961799953
 11
0.0
 21
0.0
 31
1.0
 12
0.0
 22
0.0
 32
0.0
 42
50.0
 43
0.0
 44
0.0
 50
0.0
 71
     0
  0
ENDTAB
  0
TABLE
  2
UCS
  5
7
330
0
100
AcDbSymbolTable
 70
     0
  0
ENDTAB
  0
TABLE
  2
APPID
  5
9
330
0
100
AcDbSymbolTable
 70
     2
  0
APPID
  5
12
330
9
100
AcDbSymbolTableRecord
100
AcDbRegAppTableRecord
  2
ACAD
 70
     0
  0
APPID
  5
ECD
330
9
100
AcDbSymbolTableRecord
100
AcDbRegAppTableRecord
  2
CONTENTBLOCKICON
 70
     0
  0
ENDTAB
  0
TABLE
  2
DIMSTYLE
  5
A
330
0
100
AcDbSymbolTable
 70
     1
  0
DIMSTYLE
105
175
102
{ACAD_REACTORS
330
6F52
330
6F5F
330
6F6C
330
7993
330
7992
330
7991
330
7B4F
330
7B02
330
7B2A
330
7BFD
330
7C25
330
7D60
330
7D64
330
7D66
330
6ED6
330
7EC7
330
7F08
330
7F15
330
7F22
330
7F2F
330
83F2
330
83F3
330
83E2
330
83FB
330
83ED
330
83F1
330
8700
330
8740
330
874D
330
875B
330
8771
330
8780
330
888E
330
888F
330
8890
330
8891
102
}
330
A
100
AcDbSymbolTableRecord
100
AcDbDimStyleTableRecord
  2
STANDARD
 70
     0
  3

  4

  5
OPEN
  6

  7

 40
1.0
 41
2.0
 42
1.0
 43
0.5
 44
0.5
 45
0.0
 46
0.0
 47
0.0
 48
0.0
140
7.0
141
0.09
142
0.0
143
25.4
144
1.0
145
0.0
146
1.0
147
2.0
 71
     0
 72
     0
 73
     0
 74
     1
 75
     0
 76
     0
 77
     3
 78
    12
170
     0
171
     2
172
     0
173
     0
174
     0
175
     0
176
     0
177
     0
178
     0
270
     2
271
     1
272
     1
273
     2
274
     2
340
11
275
     0
280
     0
281
     0
282
     0
283
     1
284
     0
285
     0
286
     0
287
     3
288
     0
  0
ENDTAB
  0
TABLE
  2
BLOCK_RECORD
  5
1
330
0
100
AcDbSymbolTable
 70
    40
  0
BLOCK_RECORD
  5
1E
102
{ACAD_XDICTIONARY
360
178
102
}
330
1
100
AcDbSymbolTableRecord
100
AcDbBlockTableRecord
  2
*MODEL_SPACE
  0
BLOCK_RECORD
  5
1A
102
{ACAD_XDICTIONARY
360
17A
102
}
330
1
100
AcDbSymbolTableRecord
100
AcDbBlockTableRecord
  2
*PAPER_SPACE
  0
BLOCK_RECORD
  5
3B2
330
1
100
AcDbSymbolTableRecord
100
AcDbBlockTableRecord
  2
_OPEN
  0
BLOCK_RECORD
  5
6F53
330
1
100
AcDbSymbolTableRecord
100
AcDbBlockTableRecord
  2
*D1
  0
BLOCK_RECORD
  5
6F60
330
1
100
AcDbSymbolTableRecord
100
AcDbBlockTableRecord
  2
*D2
  0
BLOCK_RECORD
  5
6F6D
330
1
100
AcDbSymbolTableRecord
100
AcDbBlockTableRecord
  2
*D3
  0
BLOCK_RECORD
  5
7994
330
1
100
AcDbSymbolTableRecord
100
AcDbBlockTableRecord
  2
*D4
  0
BLOCK_RECORD
  5
79A0
330
1
100
AcDbSymbolTableRecord
100
AcDbBlockTableRecord
  2
*D5
  0
BLOCK_RECORD
  5
79AC
330
1
100
AcDbSymbolTableRecord
100
AcDbBlockTableRecord
  2
*D6
  0
BLOCK_RECORD
  5
7B51
330
1
100
AcDbSymbolTableRecord
100
AcDbBlockTableRecord
  2
*D7
  0
BLOCK_RECORD
  5
7B69
330
1
100
AcDbSymbolTableRecord
100
AcDbBlockTableRecord
  2
*D8
  0
BLOCK_RECORD
  5
7B81
330
1
100
AcDbSymbolTableRecord
100
AcDbBlockTableRecord
  2
*D9
  0
BLOCK_RECORD
  5
7BFE
330
1
100
AcDbSymbolTableRecord
100
AcDbBlockTableRecord
  2
*D10
  0
BLOCK_RECORD
  5
7C26
330
1
100
AcDbSymbolTableRecord
100
AcDbBlockTableRecord
  2
*D11
  0
BLOCK_RECORD
  5
7D67
330
1
100
AcDbSymbolTableRecord
100
AcDbBlockTableRecord
  2
*D12
  0
BLOCK_RECORD
  5
7D72
330
1
100
AcDbSymbolTableRecord
100
AcDbBlockTableRecord
  2
*D13
  0
BLOCK_RECORD
  5
7D7E
330
1
100
AcDbSymbolTableRecord
100
AcDbBlockTableRecord
  2
*D14
  0
BLOCK_RECORD
  5
7EC8
330
1
100
AcDbSymbolTableRecord
100
AcDbBlockTableRecord
  2
*D15
  0
BLOCK_RECORD
  5
7F09
330
1
100
AcDbSymbolTableRecord
100
AcDbBlockTableRecord
  2
*D16
  0
BLOCK_RECORD
  5
7F16
330
1
100
AcDbSymbolTableRecord
100
AcDbBlockTableRecord
  2
*D17
  0
BLOCK_RECORD
  5
7F23
330
1
100
AcDbSymbolTableRecord
100
AcDbBlockTableRecord
  2
*D18
  0
BLOCK_RECORD
  5
7F30
330
1
100
AcDbSymbolTableRecord
100
AcDbBlockTableRecord
  2
*D19
  0
BLOCK_RECORD
  5
8435
330
1
100
AcDbSymbolTableRecord
100
AcDbBlockTableRecord
  2
*D20
  0
BLOCK_RECORD
  5
844D
330
1
100
AcDbSymbolTableRecord
100
AcDbBlockTableRecord
  2
*D21
  0
BLOCK_RECORD
  5
8459
330
1
100
AcDbSymbolTableRecord
100
AcDbBlockTableRecord
  2
*D22
  0
BLOCK_RECORD
  5
8465
330
1
100
AcDbSymbolTableRecord
100
AcDbBlockTableRecord
  2
*D23
  0
BLOCK_RECORD
  5
8471
330
1
100
AcDbSymbolTableRecord
100
AcDbBlockTableRecord
  2
*D24
  0
BLOCK_RECORD
  5
84AF
330
1
100
AcDbSymbolTableRecord
100
AcDbBlockTableRecord
  2
*D25
  0
BLOCK_RECORD
  5
8701
330
1
100
AcDbSymbolTableRecord
100
AcDbBlockTableRecord
  2
*D26
  0
BLOCK_RECORD
  5
8741
330
1
100
AcDbSymbolTableRecord
100
AcDbBlockTableRecord
  2
*D27
  0
BLOCK_RECORD
  5
874E
330
1
100
AcDbSymbolTableRecord
100
AcDbBlockTableRecord
  2
*D28
  0
BLOCK_RECORD
  5
875C
330
1
100
AcDbSymbolTableRecord
100
AcDbBlockTableRecord
  2
*D29
  0
BLOCK_RECORD
  5
8772
330
1
100
AcDbSymbolTableRecord
100
AcDbBlockTableRecord
  2
*D30
  0
BLOCK_RECORD
  5
8781
330
1
100
AcDbSymbolTableRecord
100
AcDbBlockTableRecord
  2
*D31
  0
BLOCK_RECORD
  5
8856
330
1
100
AcDbSymbolTableRecord
100
AcDbBlockTableRecord
  2
*D32
  0
BLOCK_RECORD
  5
8862
330
1
100
AcDbSymbolTableRecord
100
AcDbBlockTableRecord
  2
*D33
  0
BLOCK_RECORD
  5
886E
330
1
100
AcDbSymbolTableRecord
100
AcDbBlockTableRecord
  2
*D34
  0
BLOCK_RECORD
  5
887A
330
1
100
AcDbSymbolTableRecord
100
AcDbBlockTableRecord
  2
*D35
  0
BLOCK_RECORD
  5
8892
330
1
100
AcDbSymbolTableRecord
100
AcDbBlockTableRecord
  2
*D36
  0
BLOCK_RECORD
  5
889E
330
1
100
AcDbSymbolTableRecord
100
AcDbBlockTableRecord
  2
*D37
  0
BLOCK_RECORD
  5
88AC
330
1
100
AcDbSymbolTableRecord
100
AcDbBlockTableRecord
  2
*D38
  0
BLOCK_RECORD
  5
88B8
330
1
100
AcDbSymbolTableRecord
100
AcDbBlockTableRecord
  2
*D39
  0
ENDTAB
  0
ENDSEC
  0
SECTION
  2
BLOCKS
  0
BLOCK
  5
1F
330
1E
100
AcDbEntity
  8
0
100
AcDbBlockBegin
  2
*MODEL_SPACE
 70
     0
 10
0.0
 20
0.0
 30
0.0
  3
*MODEL_SPACE
  1

  0
ENDBLK
  5
20
330
1E
100
AcDbEntity
  8
0
100
AcDbBlockEnd
  0
BLOCK
  5
1B
330
1A
100
AcDbEntity
 67
     1
  8
0
100
AcDbBlockBegin
  2
*PAPER_SPACE
 70
     0
 10
0.0
 20
0.0
 30
0.0
  3
*PAPER_SPACE
  1

  0
ENDBLK
  5
1C
330
1A
100
AcDbEntity
 67
     1
  8
0
100
AcDbBlockEnd
  0
BLOCK
  5
3B6
330
3B2
100
AcDbEntity
  8
0
100
AcDbBlockBegin
  2
_OPEN
 70
     0
 10
0.0
 20
0.0
 30
0.0
  3
_OPEN
  1

  0
LINE
  5
3B3
330
3B2
100
AcDbEntity
  8
30
  6
CONTINUOUS
 62
     0
100
AcDbLine
 10
-1.0
 20
0.1666666666666666
 30
0.0
 11
0.0
 21
0.0
 31
0.0
  0
LINE
  5
3B4
330
3B2
100
AcDbEntity
  8
30
  6
CONTINUOUS
 62
     0
100
AcDbLine
 10
-1.0
 20
-0.1666666666666666
 30
0.0
 11
0.0
 21
0.0
 31
0.0
  0
LINE
  5
3B5
330
3B2
100
AcDbEntity
  8
30
  6
CONTINUOUS
 62
     0
100
AcDbLine
 10
0.0
 20
0.0
 30
0.0
 11
-1.0
 21
0.0
 31
0.0
  0
ENDBLK
  5
3B7
330
3B2
100
AcDbEntity
  8
0
100
AcDbBlockEnd
  0
BLOCK
  5
6F5D
330
6F53
100
AcDbEntity
  8
0
100
AcDbBlockBegin
  2
*D1
 70
     1
 10
0.0
 20
0.0
 30
0.0
  3
*D1
  1

  0
LINE
  5
8724
330
6F53
100
AcDbEntity
  8
30
  6
CONTINUOUS
 62
     0
100
AcDbLine
 10
-51.0
 20
-417.0
 30
0.0
 11
-169.0802577009398
 21
-416.9999999999998
 31
0.0
  0
LINE
  5
8725
330
6F53
100
AcDbEntity
  8
30
  6
CONTINUOUS
 62
     0
100
AcDbLine
 10
-167.0
 20
-601.0
 30
0.0
 11
-169.0802577009398
 21
-601.0
 31
0.0
  0
LINE
  5
8726
330
6F53
100
AcDbEntity
  8
30
  6
CONTINUOUS
 62
     0
100
AcDbLine
 10
-168.5802577009398
 20
-418.9999999999998
 30
0.0
 11
-168.5802577009398
 21
-599.0
 31
0.0
  0
INSERT
  5
8727
330
6F53
100
AcDbEntity
  8
30
  6
CONTINUOUS
 62
     0
100
AcDbBlockReference
  2
_OPEN
 10
-168.5802577009398
 20
-416.9999999999998
 30
0.0
 41
2.0
 42
2.0
 43
2.0
 50
90.0
  0
INSERT
  5
8728
330
6F53
100
AcDbEntity
  8
30
  6
CONTINUOUS
 62
     0
100
AcDbBlockReference
  2
_OPEN
 10
-168.5802577009398
 20
-601.0
 30
0.0
 41
2.0
 42
2.0
 43
2.0
 50
270.0
  0
MTEXT
  5
8729
330
6F53
100
AcDbEntity
  8
30
  6
CONTINUOUS
 62
     0
100
AcDbMText
 10
-174.0802577009396
 20
-509.0
 30
0.0
 40
7.0
 41
0.0
 71
     5
 72
     1
  1
\A1;184
 11
0.0000000000000001
 21
1.0
 31
0.0
1001
ACAD
1000
MTEXTBEGIN
1070
    73
1070
     1
1070
    44
1040
1.0
1070
    74
1070
     0
1000
MTEXTEND
1000
MTEXTBEGIN
1070
    73
1070
     1
1070
    44
1040
1.0
1070
    74
1070
     0
1000
MTEXTEND
  0
POINT
  5
872A
330
6F53
100
AcDbEntity
  8
DEFPOINTS
  6
CONTINUOUS
 62
     0
100
AcDbPoint
 10
-50.0
 20
-417.0
 30
0.0
  0
POINT
  5
872B
330
6F53
100
AcDbEntity
  8
DEFPOINTS
  6
CONTINUOUS
 62
     0
100
AcDbPoint
 10
-166.0
 20
-601.0
 30
0.0
  0
POINT
  5
872C
330
6F53
100
AcDbEntity
  8
DEFPOINTS
  6
CONTINUOUS
 62
     0
100
AcDbPoint
 10
-168.5802577009398
 20
-601.0
 30
0.0
  0
ENDBLK
  5
6F5E
330
6F53
100
AcDbEntity
  8
0
100
AcDbBlockEnd
  0
BLOCK
  5
6F6A
330
6F60
100
AcDbEntity
  8
0
100
AcDbBlockBegin
  2
*D2
 70
     1
 10
0.0
 20
0.0
 30
0.0
  3
*D2
  1

  0
LINE
  5
8A17
330
6F60
100
AcDbEntity
  8
30
  6
CONTINUOUS
 62
     0
100
AcDbLine
 10
-167.0
 20
-601.0
 30
0.0
 11
-169.0802577009397
 21
-601.0
 31
0.0
  0
LINE
  5
8A18
330
6F60
100
AcDbEntity
  8
30
  6
CONTINUOUS
 62
     0
100
AcDbLine
 10
-51.0
 20
-754.9997558592999
 30
0.0
 11
-169.0802577009398
 21
-754.9997558592999
 31
0.0
  0
LINE
  5
8A19
330
6F60
100
AcDbEntity
  8
30
  6
CONTINUOUS
 62
     0
100
AcDbLine
 10
-168.5802577009397
 20
-603.0
 30
0.0
 11
-168.5802577009398
 21
-752.9997558593
 31
0.0
  0
INSERT
  5
8A1A
330
6F60
100
AcDbEntity
  8
30
  6
CONTINUOUS
 62
     0
100
AcDbBlockReference
  2
_OPEN
 10
-168.5802577009397
 20
-601.0
 30
0.0
 41
2.0
 42
2.0
 43
2.0
 50
90.0
  0
INSERT
  5
8A1B
330
6F60
100
AcDbEntity
  8
30
  6
CONTINUOUS
 62
     0
100
AcDbBlockReference
  2
_OPEN
 10
-168.5802577009398
 20
-754.9997558592999
 30
0.0
 41
2.0
 42
2.0
 43
2.0
 50
270.0
  0
MTEXT
  5
8A1C
330
6F60
100
AcDbEntity
  8
30
  6
CONTINUOUS
 62
     0
100
AcDbMText
 10
-174.0802577009396
 20
-677.99987792965
 30
0.0
 40
7.0
 41
0.0
 71
     5
 72
     1
  1
\A1;154
 11
0.0000000000000001
 21
1.0
 31
0.0
  0
POINT
  5
8A1D
330
6F60
100
AcDbEntity
  8
DEFPOINTS
  6
CONTINUOUS
 62
     0
100
AcDbPoint
 10
-166.0
 20
-601.0
 30
0.0
  0
POINT
  5
8A1E
330
6F60
100
AcDbEntity
  8
DEFPOINTS
  6
CONTINUOUS
 62
     0
100
AcDbPoint
 10
-50.0
 20
-754.9997558592999
 30
0.0
  0
POINT
  5
8A1F
330
6F60
100
AcDbEntity
  8
DEFPOINTS
  6
CONTINUOUS
 62
     0
100
AcDbPoint
 10
-168.5802577009398
 20
-754.9997558592999
 30
0.0
  0
ENDBLK
  5
6F6B
330
6F60
100
AcDbEntity
  8
0
100
AcDbBlockEnd
  0
BLOCK
  5
6F77
330
6F6D
100
AcDbEntity
  8
0
100
AcDbBlockBegin
  2
*D3
 70
     1
 10
0.0
 20
0.0
 30
0.0
  3
*D3
  1

  0
LINE
  5
7E20
330
6F6D
100
AcDbEntity
  8
30
  6
CONTINUOUS
 62
     0
100
AcDbLine
 10
-35.0
 20
-770.9997558592999
 30
0.0
 11
-35.0
 21
-810.9423648938417
 31
0.0
  0
LINE
  5
7E21
330
6F6D
100
AcDbEntity
  8
30
  6
CONTINUOUS
 62
     0
100
AcDbLine
 10
35.0
 20
-770.9997558592999
 30
0.0
 11
35.0
 21
-810.9423648938417
 31
0.0
  0
LINE
  5
7E22
330
6F6D
100
AcDbEntity
  8
30
  6
CONTINUOUS
 62
     0
100
AcDbLine
 10
-33.0
 20
-810.4423648938418
 30
0.0
 11
33.0
 21
-810.4423648938418
 31
0.0
  0
INSERT
  5
7E23
330
6F6D
100
AcDbEntity
  8
30
  6
CONTINUOUS
 62
     0
100
AcDbBlockReference
  2
_OPEN
 10
-35.0
 20
-810.4423648938418
 30
0.0
 41
2.0
 42
2.0
 43
2.0
 50
180.0
  0
INSERT
  5
7E24
330
6F6D
100
AcDbEntity
  8
30
  6
CONTINUOUS
 62
     0
100
AcDbBlockReference
  2
_OPEN
 10
35.0
 20
-810.4423648938418
 30
0.0
 41
2.0
 42
2.0
 43
2.0
  0
MTEXT
  5
7E25
330
6F6D
100
AcDbEntity
  8
30
  6
CONTINUOUS
 62
     0
100
AcDbMText
 10
0.0000000000000003
 20
-804.9423648938414
 30
0.0
 40
7.0
 41
0.0
 71
     5
 72
     1
  1
\A1;70
1001
ACAD
1000
MTEXTBEGIN
1070
    73
1070
     1
1070
    44
1040
1.0
1070
    74
1070
     0
1000
MTEXTEND
1000
MTEXTBEGIN
1070
    73
1070
     1
1070
    44
1040
1.0
1070
    74
1070
     0
1000
MTEXTEND
  0
POINT
  5
7E26
330
6F6D
100
AcDbEntity
  8
DEFPOINTS
  6
CONTINUOUS
 62
     0
100
AcDbPoint
 10
-35.0
 20
-769.9997558593
 30
0.0
  0
POINT
  5
7E27
330
6F6D
100
AcDbEntity
  8
DEFPOINTS
  6
CONTINUOUS
 62
     0
100
AcDbPoint
 10
35.0
 20
-769.9997558593
 30
0.0
  0
POINT
  5
7E28
330
6F6D
100
AcDbEntity
  8
DEFPOINTS
  6
CONTINUOUS
 62
     0
100
AcDbPoint
 10
35.0
 20
-810.4423648938418
 30
0.0
  0
ENDBLK
  5
6F78
330
6F6D
100
AcDbEntity
  8
0
100
AcDbBlockEnd
  0
BLOCK
  5
799E
330
7994
100
AcDbEntity
  8
0
100
AcDbBlockBegin
  2
*D4
 70
     1
 10
0.0
 20
0.0
 30
0.0
  3
*D4
  1

  0
LINE
  5
8A29
330
7994
100
AcDbEntity
  8
30
  6
CONTINUOUS
 62
     0
100
AcDbLine
 10
176.9999389648799
 20
200.0002441407001
 30
0.0
 11
215.3585588512718
 21
200.0002441407001
 31
0.0
  0
LINE
  5
8A2A
330
7994
100
AcDbEntity
  8
30
  6
CONTINUOUS
 62
     0
100
AcDbLine
 10
175.9999389648799
 20
0.0002441407000899
 30
0.0
 11
215.3585588512718
 21
0.0002441407000788
 31
0.0
  0
LINE
  5
8A2B
330
7994
100
AcDbEntity
  8
30
  6
CONTINUOUS
 62
     0
100
AcDbLine
 10
214.8585588512718
 20
198.0002441407
 30
0.0
 11
214.8585588512718
 21
2.000244140700079
 31
0.0
  0
INSERT
  5
8A2C
330
7994
100
AcDbEntity
  8
30
  6
CONTINUOUS
 62
     0
100
AcDbBlockReference
  2
_OPEN
 10
214.8585588512718
 20
200.0002441407001
 30
0.0
 41
2.0
 42
2.0
 43
2.0
 50
90.0
  0
INSERT
  5
8A2D
330
7994
100
AcDbEntity
  8
30
  6
CONTINUOUS
 62
     0
100
AcDbBlockReference
  2
_OPEN
 10
214.8585588512718
 20
0.0002441407000789
 30
0.0
 41
2.0
 42
2.0
 43
2.0
 50
270.0
  0
MTEXT
  5
8A2E
330
7994
100
AcDbEntity
  8
30
  6
CONTINUOUS
 62
     0
100
AcDbMText
 10
209.3585588512718
 20
100.0002441407001
 30
0.0
 40
7.0
 41
0.0
 71
     5
 72
     1
  1
\A1;200
 11
0.0000000000000001
 21
1.0
 31
0.0
  0
POINT
  5
8A2F
330
7994
100
AcDbEntity
  8
DEFPOINTS
  6
CONTINUOUS
 62
     0
100
AcDbPoint
 10
175.9999389648799
 20
200.0002441407001
 30
0.0
  0
POINT
  5
8A30
330
7994
100
AcDbEntity
  8
DEFPOINTS
  6
CONTINUOUS
 62
     0
100
AcDbPoint
 10
174.99993896488
 20
0.0002441407000902
 30
0.0
  0
POINT
  5
8A31
330
7994
100
AcDbEntity
  8
DEFPOINTS
  6
CONTINUOUS
 62
     0
100
AcDbPoint
 10
214.8585588512718
 20
0.0002441407000789
 30
0.0
  0
ENDBLK
  5
799F
330
7994
100
AcDbEntity
  8
0
100
AcDbBlockEnd
  0
BLOCK
  5
79AA
330
79A0
100
AcDbEntity
  8
0
100
AcDbBlockBegin
  2
*D5
 70
     1
 10
0.0
 20
0.0
 30
0.0
  3
*D5
  1

  0
LINE
  5
8A20
330
79A0
100
AcDbEntity
  8
30
  6
CONTINUOUS
 62
     0
100
AcDbLine
 10
175.9999389648799
 20
0.0002441407000899
 30
0.0
 11
215.3585588512718
 21
0.0002441407000788
 31
0.0
  0
LINE
  5
8A21
330
79A0
100
AcDbEntity
  8
30
  6
CONTINUOUS
 62
     0
100
AcDbLine
 10
176.9999389648799
 20
-169.9997558592999
 30
0.0
 11
215.3585588512718
 21
-169.9997558592999
 31
0.0
  0
LINE
  5
8A22
330
79A0
100
AcDbEntity
  8
30
  6
CONTINUOUS
 62
     0
100
AcDbLine
 10
214.8585588512718
 20
-1.999755859299921
 30
0.0
 11
214.8585588512718
 21
-167.9997558592999
 31
0.0
  0
INSERT
  5
8A23
330
79A0
100
AcDbEntity
  8
30
  6
CONTINUOUS
 62
     0
100
AcDbBlockReference
  2
_OPEN
 10
214.8585588512718
 20
0.0002441407000789
 30
0.0
 41
2.0
 42
2.0
 43
2.0
 50
90.0
  0
INSERT
  5
8A24
330
79A0
100
AcDbEntity
  8
30
  6
CONTINUOUS
 62
     0
100
AcDbBlockReference
  2
_OPEN
 10
214.8585588512718
 20
-169.9997558592999
 30
0.0
 41
2.0
 42
2.0
 43
2.0
 50
270.0
  0
MTEXT
  5
8A25
330
79A0
100
AcDbEntity
  8
30
  6
CONTINUOUS
 62
     0
100
AcDbMText
 10
209.3585588512718
 20
-84.99975585929989
 30
0.0
 40
7.0
 41
0.0
 71
     5
 72
     1
  1
\A1;170
 11
0.0000000000000001
 21
1.0
 31
0.0
  0
POINT
  5
8A26
330
79A0
100
AcDbEntity
  8
DEFPOINTS
  6
CONTINUOUS
 62
     0
100
AcDbPoint
 10
174.99993896488
 20
0.0002441407000902
 30
0.0
  0
POINT
  5
8A27
330
79A0
100
AcDbEntity
  8
DEFPOINTS
  6
CONTINUOUS
 62
     0
100
AcDbPoint
 10
175.9999389648799
 20
-169.9997558592999
 30
0.0
  0
POINT
  5
8A28
330
79A0
100
AcDbEntity
  8
DEFPOINTS
  6
CONTINUOUS
 62
     0
100
AcDbPoint
 10
214.8585588512718
 20
-169.9997558592999
 30
0.0
  0
ENDBLK
  5
79AB
330
79A0
100
AcDbEntity
  8
0
100
AcDbBlockEnd
  0
BLOCK
  5
79B6
330
79AC
100
AcDbEntity
  8
0
100
AcDbBlockBegin
  2
*D6
 70
     1
 10
0.0
 20
0.0
 30
0.0
  3
*D6
  1

  0
LINE
  5
7E56
330
79AC
100
AcDbEntity
  8
30
  6
CONTINUOUS
 62
     0
100
AcDbLine
 10
175.9999389648799
 20
200.0002441407001
 30
0.0
 11
234.4083041793779
 21
200.0002441407001
 31
0.0
  0
LINE
  5
7E57
330
79AC
100
AcDbEntity
  8
30
  6
CONTINUOUS
 62
     0
100
AcDbLine
 10
175.9999389648799
 20
-169.9997558592999
 30
0.0
 11
234.4083041793778
 21
-169.9997558592999
 31
0.0
  0
LINE
  5
7E58
330
79AC
100
AcDbEntity
  8
30
  6
CONTINUOUS
 62
     0
100
AcDbLine
 10
233.9083041793779
 20
198.0002441407
 30
0.0
 11
233.9083041793778
 21
-167.9997558592999
 31
0.0
  0
INSERT
  5
7E59
330
79AC
100
AcDbEntity
  8
30
  6
CONTINUOUS
 62
     0
100
AcDbBlockReference
  2
_OPEN
 10
233.9083041793779
 20
200.0002441407001
 30
0.0
 41
2.0
 42
2.0
 43
2.0
 50
90.0
  0
INSERT
  5
7E5A
330
79AC
100
AcDbEntity
  8
30
  6
CONTINUOUS
 62
     0
100
AcDbBlockReference
  2
_OPEN
 10
233.9083041793778
 20
-169.9997558592999
 30
0.0
 41
2.0
 42
2.0
 43
2.0
 50
270.0
  0
MTEXT
  5
7E5B
330
79AC
100
AcDbEntity
  8
30
  6
CONTINUOUS
 62
     0
100
AcDbMText
 10
228.4083041793778
 20
15.0002441407001
 30
0.0
 40
7.0
 41
0.0
 71
     5
 72
     1
  1
\A1;370
 11
0.0000000000000001
 21
1.0
 31
0.0
1001
ACAD
1000
MTEXTBEGIN
1070
    73
1070
     1
1070
    44
1040
1.0
1070
    74
1070
     0
1000
MTEXTEND
1000
MTEXTBEGIN
1070
    73
1070
     1
1070
    44
1040
1.0
1070
    74
1070
     0
1000
MTEXTEND
  0
POINT
  5
7E5C
330
79AC
100
AcDbEntity
  8
DEFPOINTS
  6
CONTINUOUS
 62
     0
100
AcDbPoint
 10
174.99993896488
 20
200.0002441407001
 30
0.0
  0
POINT
  5
7E5D
330
79AC
100
AcDbEntity
  8
DEFPOINTS
  6
CONTINUOUS
 62
     0
100
AcDbPoint
 10
174.99993896488
 20
-169.9997558592999
 30
0.0
  0
POINT
  5
7E5E
330
79AC
100
AcDbEntity
  8
DEFPOINTS
  6
CONTINUOUS
 62
     0
100
AcDbPoint
 10
233.9083041793778
 20
-169.9997558592999
 30
0.0
  0
ENDBLK
  5
79B7
330
79AC
100
AcDbEntity
  8
0
100
AcDbBlockEnd
  0
BLOCK
  5
7B5B
330
7B51
100
AcDbEntity
  8
0
100
AcDbBlockBegin
  2
*D7
 70
     1
 10
0.0
 20
0.0
 30
0.0
  3
*D7
  1

  0
LINE
  5
7E71
330
7B51
100
AcDbEntity
  8
30
  6
CONTINUOUS
 62
     0
100
AcDbLine
 10
619.0
 20
150.0
 30
0.0
 11
672.9278962586224
 21
150.0
 31
0.0
  0
LINE
  5
7E72
330
7B51
100
AcDbEntity
  8
30
  6
CONTINUOUS
 62
     0
100
AcDbLine
 10
619.0
 20
138.0
 30
0.0
 11
672.9278962586224
 21
138.0
 31
0.0
  0
LINE
  5
7E73
330
7B51
100
AcDbEntity
  8
30
  6
CONTINUOUS
 62
     0
100
AcDbLine
 10
672.4278962586224
 20
140.0
 30
0.0
 11
672.4278962586224
 21
148.0
 31
0.0
  0
LINE
  5
7E74
330
7B51
100
AcDbEntity
  8
30
  6
CONTINUOUS
 62
     0
100
AcDbLine
 10
672.4278962586224
 20
150.0
 30
0.0
 11
672.4278962586224
 21
157.1347692395737
 31
0.0
  0
LINE
  5
7E75
330
7B51
100
AcDbEntity
  8
30
  6
CONTINUOUS
 62
     0
100
AcDbLine
 10
672.4278962586224
 20
157.1347692395737
 30
0.0
 11
683.7612295919558
 21
157.1347692395737
 31
0.0
  0
INSERT
  5
7E76
330
7B51
100
AcDbEntity
  8
30
  6
CONTINUOUS
 62
     0
100
AcDbBlockReference
  2
_OPEN
 10
672.4278962586224
 20
138.0
 30
0.0
 41
2.0
 42
2.0
 43
2.0
 50
270.0
  0
INSERT
  5
7E77
330
7B51
100
AcDbEntity
  8
30
  6
CONTINUOUS
 62
     0
100
AcDbBlockReference
  2
_OPEN
 10
672.4278962586224
 20
150.0
 30
0.0
 41
2.0
 42
2.0
 43
2.0
 50
90.0
  0
MTEXT
  5
7E78
330
7B51
100
AcDbEntity
  8
30
  6
CONTINUOUS
 62
     0
100
AcDbMText
 10
679.0945629252892
 20
162.6347692395738
 30
0.0
 40
7.0
 41
0.0
 71
     5
 72
     1
  1
\A1;12
1001
ACAD
1000
MTEXTBEGIN
1070
    73
1070
     1
1070
    44
1040
1.0
1070
    74
1070
     0
1000
MTEXTEND
1000
MTEXTBEGIN
1070
    73
1070
     1
1070
    44
1040
1.0
1070
    74
1070
     0
1000
MTEXTEND
  0
POINT
  5
7E79
330
7B51
100
AcDbEntity
  8
DEFPOINTS
  6
CONTINUOUS
 62
     0
100
AcDbPoint
 10
618.0
 20
150.0
 30
0.0
  0
POINT
  5
7E7A
330
7B51
100
AcDbEntity
  8
DEFPOINTS
  6
CONTINUOUS
 62
     0
100
AcDbPoint
 10
618.0
 20
138.0
 30
0.0
  0
POINT
  5
7E7B
330
7B51
100
AcDbEntity
  8
DEFPOINTS
  6
CONTINUOUS
 62
     0
100
AcDbPoint
 10
672.4278962586224
 20
138.0
 30
0.0
  0
ENDBLK
  5
7B5C
330
7B51
100
AcDbEntity
  8
0
100
AcDbBlockEnd
  0
BLOCK
  5
7B73
330
7B69
100
AcDbEntity
  8
0
100
AcDbBlockBegin
  2
*D8
 70
     1
 10
0.0
 20
0.0
 30
0.0
  3
*D8
  1

  0
LINE
  5
87D7
330
7B69
100
AcDbEntity
  8
30
  6
CONTINUOUS
 62
     0
100
AcDbLine
 10
525.0
 20
-148.9064941407
 30
0.0
 11
525.0
 21
-12.9052734375
 31
0.0
  0
LINE
  5
87D8
330
7B69
100
AcDbEntity
  8
30
  6
CONTINUOUS
 62
     0
100
AcDbLine
 10
665.0
 20
-87.90649414070001
 30
0.0
 11
665.0
 21
-12.9052734375
 31
0.0
  0
LINE
  5
87D9
330
7B69
100
AcDbEntity
  8
30
  6
CONTINUOUS
 62
     0
100
AcDbLine
 10
527.0
 20
-13.4052734375
 30
0.0
 11
663.0
 21
-13.4052734375
 31
0.0
  0
INSERT
  5
87DA
330
7B69
100
AcDbEntity
  8
30
  6
CONTINUOUS
 62
     0
100
AcDbBlockReference
  2
_OPEN
 10
525.0
 20
-13.4052734375
 30
0.0
 41
2.0
 42
2.0
 43
2.0
 50
180.0
  0
INSERT
  5
87DB
330
7B69
100
AcDbEntity
  8
30
  6
CONTINUOUS
 62
     0
100
AcDbBlockReference
  2
_OPEN
 10
665.0
 20
-13.4052734375
 30
0.0
 41
2.0
 42
2.0
 43
2.0
  0
MTEXT
  5
87DC
330
7B69
100
AcDbEntity
  8
30
  6
CONTINUOUS
 62
     0
100
AcDbMText
 10
592.7105263157893
 20
-7.905273437499999
 30
0.0
 40
7.0
 41
0.0
 71
     5
 72
     1
  1
\A1;140
1001
ACAD
1000
MTEXTBEGIN
1070
    73
1070
     1
1070
    44
1040
1.0
1070
    74
1070
     0
1000
MTEXTEND
1000
MTEXTBEGIN
1070
    73
1070
     1
1070
    44
1040
1.0
1070
    74
1070
     0
1000
MTEXTEND
  0
POINT
  5
87DD
330
7B69
100
AcDbEntity
  8
DEFPOINTS
  6
CONTINUOUS
 62
     0
100
AcDbPoint
 10
525.0
 20
-149.9064941407
 30
0.0
  0
POINT
  5
87DE
330
7B69
100
AcDbEntity
  8
DEFPOINTS
  6
CONTINUOUS
 62
     0
100
AcDbPoint
 10
665.0
 20
-88.90649414070002
 30
0.0
  0
POINT
  5
87DF
330
7B69
100
AcDbEntity
  8
DEFPOINTS
  6
CONTINUOUS
 62
     0
100
AcDbPoint
 10
665.0
 20
-13.4052734375
 30
0.0
  0
ENDBLK
  5
7B74
330
7B69
100
AcDbEntity
  8
0
100
AcDbBlockEnd
  0
BLOCK
  5
7B8B
330
7B81
100
AcDbEntity
  8
0
100
AcDbBlockBegin
  2
*D9
 70
     1
 10
0.0
 20
0.0
 30
0.0
  3
*D9
  1

  0
LINE
  5
7E68
330
7B81
100
AcDbEntity
  8
30
  6
CONTINUOUS
 62
     0
100
AcDbLine
 10
499.0936279297
 20
144.0
 30
0.0
 11
709.8317372340637
 21
143.9999999999999
 31
0.0
  0
LINE
  5
7E69
330
7B81
100
AcDbEntity
  8
30
  6
CONTINUOUS
 62
     0
100
AcDbLine
 10
498.1733398437
 20
-114.0
 30
0.0
 11
709.8317372340637
 21
-114.0
 31
0.0
  0
LINE
  5
7E6A
330
7B81
100
AcDbEntity
  8
30
  6
CONTINUOUS
 62
     0
100
AcDbLine
 10
709.3317372340639
 20
141.9999999999999
 30
0.0
 11
709.3317372340639
 21
-112.0
 31
0.0
  0
INSERT
  5
7E6B
330
7B81
100
AcDbEntity
  8
30
  6
CONTINUOUS
 62
     0
100
AcDbBlockReference
  2
_OPEN
 10
709.3317372340639
 20
143.9999999999999
 30
0.0
 41
2.0
 42
2.0
 43
2.0
 50
90.0
  0
INSERT
  5
7E6C
330
7B81
100
AcDbEntity
  8
30
  6
CONTINUOUS
 62
     0
100
AcDbBlockReference
  2
_OPEN
 10
709.3317372340639
 20
-114.0
 30
0.0
 41
2.0
 42
2.0
 43
2.0
 50
270.0
  0
MTEXT
  5
7E6D
330
7B81
100
AcDbEntity
  8
30
  6
CONTINUOUS
 62
     0
100
AcDbMText
 10
703.8317372340639
 20
13.69736768341681
 30
0.0
 40
7.0
 41
0.0
 71
     5
 72
     1
  1
\A1;258
 11
0.0000000000000001
 21
1.0
 31
0.0
1001
ACAD
1000
MTEXTBEGIN
1070
    73
1070
     1
1070
    44
1040
1.0
1070
    74
1070
     0
1000
MTEXTEND
1000
MTEXTBEGIN
1070
    73
1070
     1
1070
    44
1040
1.0
1070
    74
1070
     0
1000
MTEXTEND
  0
POINT
  5
7E6E
330
7B81
100
AcDbEntity
  8
DEFPOINTS
  6
CONTINUOUS
 62
     0
100
AcDbPoint
 10
498.0936279297
 20
144.0
 30
0.0
  0
POINT
  5
7E6F
330
7B81
100
AcDbEntity
  8
DEFPOINTS
  6
CONTINUOUS
 62
     0
100
AcDbPoint
 10
497.1733398437
 20
-114.0
 30
0.0
  0
POINT
  5
7E70
330
7B81
100
AcDbEntity
  8
DEFPOINTS
  6
CONTINUOUS
 62
     0
100
AcDbPoint
 10
709.3317372340639
 20
-114.0
 30
0.0
  0
ENDBLK
  5
7B8C
330
7B81
100
AcDbEntity
  8
0
100
AcDbBlockEnd
  0
BLOCK
  5
7C08
330
7BFE
100
AcDbEntity
  8
0
100
AcDbBlockBegin
  2
*D10
 70
     1
 10
0.0
 20
0.0
 30
0.0
  3
*D10
  1

  0
LINE
  5
87E0
330
7BFE
100
AcDbEntity
  8
30
  6
CONTINUOUS
 62
     0
100
AcDbLine
 10
507.0
 20
-171.0
 30
0.0
 11
507.0
 21
-230.8800613068346
 31
0.0
  0
LINE
  5
87E1
330
7BFE
100
AcDbEntity
  8
30
  6
CONTINUOUS
 62
     0
100
AcDbLine
 10
525.0
 20
-159.0
 30
0.0
 11
525.0
 21
-230.8800613068346
 31
0.0
  0
LINE
  5
87E2
330
7BFE
100
AcDbEntity
  8
30
  6
CONTINUOUS
 62
     0
100
AcDbLine
 10
509.0
 20
-230.3800613068346
 30
0.0
 11
523.0
 21
-230.3800613068346
 31
0.0
  0
INSERT
  5
87E3
330
7BFE
100
AcDbEntity
  8
30
  6
CONTINUOUS
 62
     0
100
AcDbBlockReference
  2
_OPEN
 10
507.0
 20
-230.3800613068346
 30
0.0
 41
2.0
 42
2.0
 43
2.0
 50
180.0
  0
INSERT
  5
87E4
330
7BFE
100
AcDbEntity
  8
30
  6
CONTINUOUS
 62
     0
100
AcDbBlockReference
  2
_OPEN
 10
525.0
 20
-230.3800613068346
 30
0.0
 41
2.0
 42
2.0
 43
2.0
  0
MTEXT
  5
87E5
330
7BFE
100
AcDbEntity
  8
30
  6
CONTINUOUS
 62
     0
100
AcDbMText
 10
516.0
 20
-224.8800613068345
 30
0.0
 40
7.0
 41
0.0
 71
     5
 72
     1
  1
\A1;18
1001
ACAD
1000
MTEXTBEGIN
1070
    73
1070
     1
1070
    44
1040
1.0
1070
    74
1070
     0
1000
MTEXTEND
1000
MTEXTBEGIN
1070
    73
1070
     1
1070
    44
1040
1.0
1070
    74
1070
     0
1000
MTEXTEND
  0
POINT
  5
87E6
330
7BFE
100
AcDbEntity
  8
DEFPOINTS
  6
CONTINUOUS
 62
     0
100
AcDbPoint
 10
507.0
 20
-170.0
 30
0.0
  0
POINT
  5
87E7
330
7BFE
100
AcDbEntity
  8
DEFPOINTS
  6
CONTINUOUS
 62
     0
100
AcDbPoint
 10
525.0
 20
-158.0
 30
0.0
  0
POINT
  5
87E8
330
7BFE
100
AcDbEntity
  8
DEFPOINTS
  6
CONTINUOUS
 62
     0
100
AcDbPoint
 10
525.0
 20
-230.3800613068346
 30
0.0
  0
ENDBLK
  5
7C09
330
7BFE
100
AcDbEntity
  8
0
100
AcDbBlockEnd
  0
BLOCK
  5
7C30
330
7C26
100
AcDbEntity
  8
0
100
AcDbBlockBegin
  2
*D11
 70
     1
 10
0.0
 20
0.0
 30
0.0
  3
*D11
  1

  0
LINE
  5
87CE
330
7C26
100
AcDbEntity
  8
30
  6
CONTINUOUS
 62
     0
100
AcDbLine
 10
616.0
 20
-91.5
 30
0.0
 11
639.3764909405462
 21
-91.5
 31
0.0
  0
LINE
  5
87CF
330
7C26
100
AcDbEntity
  8
30
  6
CONTINUOUS
 62
     0
100
AcDbLine
 10
616.0
 20
-136.4999999999999
 30
0.0
 11
639.3764909405462
 21
-136.4999999999999
 31
0.0
  0
LINE
  5
87D0
330
7C26
100
AcDbEntity
  8
30
  6
CONTINUOUS
 62
     0
100
AcDbLine
 10
638.8764909405463
 20
-93.49999999999999
 30
0.0
 11
638.8764909405463
 21
-134.4999999999999
 31
0.0
  0
INSERT
  5
87D1
330
7C26
100
AcDbEntity
  8
30
  6
CONTINUOUS
 62
     0
100
AcDbBlockReference
  2
_OPEN
 10
638.8764909405463
 20
-91.5
 30
0.0
 41
2.0
 42
2.0
 43
2.0
 50
90.0
  0
INSERT
  5
87D2
330
7C26
100
AcDbEntity
  8
30
  6
CONTINUOUS
 62
     0
100
AcDbBlockReference
  2
_OPEN
 10
638.8764909405463
 20
-136.4999999999999
 30
0.0
 41
2.0
 42
2.0
 43
2.0
 50
270.0
  0
MTEXT
  5
87D3
330
7C26
100
AcDbEntity
  8
30
  6
CONTINUOUS
 62
     0
100
AcDbMText
 10
633.3764909405463
 20
-113.9999999999997
 30
0.0
 40
7.0
 41
0.0
 71
     5
 72
     1
  1
\A1;45
 11
0.0000000000000001
 21
1.0
 31
0.0
1001
ACAD
1000
MTEXTBEGIN
1070
    73
1070
     1
1070
    44
1040
1.0
1070
    74
1070
     0
1000
MTEXTEND
1000
MTEXTBEGIN
1070
    73
1070
     1
1070
    44
1040
1.0
1070
    74
1070
     0
1000
MTEXTEND
  0
POINT
  5
87D4
330
7C26
100
AcDbEntity
  8
DEFPOINTS
  6
CONTINUOUS
 62
     0
100
AcDbPoint
 10
615.0
 20
-91.5
 30
0.0
  0
POINT
  5
87D5
330
7C26
100
AcDbEntity
  8
DEFPOINTS
  6
CONTINUOUS
 62
     0
100
AcDbPoint
 10
615.0
 20
-136.4999999999999
 30
0.0
  0
POINT
  5
87D6
330
7C26
100
AcDbEntity
  8
DEFPOINTS
  6
CONTINUOUS
 62
     0
100
AcDbPoint
 10
638.8764909405463
 20
-136.4999999999999
 30
0.0
  0
ENDBLK
  5
7C31
330
7C26
100
AcDbEntity
  8
0
100
AcDbBlockEnd
  0
BLOCK
  5
7D70
330
7D67
100
AcDbEntity
  8
0
100
AcDbBlockBegin
  2
*D12
 70
     1
 10
0.0
 20
0.0
 30
0.0
  3
*D12
  1

  0
LINE
  5
7E97
330
7D67
100
AcDbEntity
  8
30
  6
CONTINUOUS
 62
     0
100
AcDbLine
 10
449.2778528542236
 20
-535.666441437328
 30
0.0
 11
434.9445195208903
 21
-535.666441437328
 31
0.0
  0
LINE
  5
7E98
330
7D67
100
AcDbEntity
  8
30
  6
CONTINUOUS
 62
     0
100
AcDbLine
 10
434.9445195208903
 20
-535.666441437328
 30
0.0
 11
430.1324555320331
 21
-550.1026334038989
 31
0.0
  0
MTEXT
  5
7E99
330
7D67
100
AcDbEntity
  8
30
  6
CONTINUOUS
 62
     0
100
AcDbMText
 10
443.4445195208905
 20
-530.166441437328
 30
0.0
 40
7.0
 41
0.0
 71
     5
 72
     1
  1
\A1;R6
1001
ACAD
1000
MTEXTBEGIN
1070
    73
1070
     1
1070
    44
1040
1.0
1070
    74
1070
     0
1000
MTEXTEND
1000
MTEXTBEGIN
1070
    73
1070
     1
1070
    44
1040
1.0
1070
    74
1070
     0
1000
MTEXTEND
  0
INSERT
  5
7E9A
330
7D67
100
AcDbEntity
  8
30
  6
CONTINUOUS
 62
     0
100
AcDbBlockReference
  2
_OPEN
 10
429.4999999999993
 20
-552.0
 30
0.0
 41
2.0
 42
2.0
 43
2.0
 50
251.5650511770768
  0
LINE
  5
7E9B
330
7D67
100
AcDbEntity
  8
30
  6
CONTINUOUS
 62
     0
100
AcDbLine
 10
427.3545195208898
 20
-558.1664414373284
 30
0.0
 11
427.5345195208898
 21
-558.1664414373283
 31
0.0
  0
LINE
  5
7E9C
330
7D67
100
AcDbEntity
  8
30
  6
CONTINUOUS
 62
     0
100
AcDbLine
 10
427.4445195208897
 20
-558.2564414373283
 30
0.0
 11
427.4445195208897
 21
-558.0764414373283
 31
0.0
  0
POINT
  5
7E9D
330
7D67
100
AcDbEntity
  8
DEFPOINTS
  6
CONTINUOUS
 62
     0
100
AcDbPoint
 10
429.4999999999993
 20
-552.0
 30
0.0
  0
POINT
  5
7E9E
330
7D67
100
AcDbEntity
  8
DEFPOINTS
  6
CONTINUOUS
 62
     0
100
AcDbPoint
 10
427.4445195208897
 20
-558.1664414373283
 30
0.0
  0
ENDBLK
  5
7D71
330
7D67
100
AcDbEntity
  8
0
100
AcDbBlockEnd
  0
BLOCK
  5
7D7C
330
7D72
100
AcDbEntity
  8
0
100
AcDbBlockBegin
  2
*D13
 70
     1
 10
0.0
 20
0.0
 30
0.0
  3
*D13
  1

  0
LINE
  5
7E9F
330
7D72
100
AcDbEntity
  8
30
  6
CONTINUOUS
 62
     0
100
AcDbLine
 10
354.4999999999998
 20
-645.0
 30
0.0
 11
354.4999999999998
 21
-684.2650401241262
 31
0.0
  0
LINE
  5
7EA0
330
7D72
100
AcDbEntity
  8
30
  6
CONTINUOUS
 62
     0
100
AcDbLine
 10
435.5
 20
-645.0
 30
0.0
 11
435.5
 21
-684.2650401241262
 31
0.0
  0
LINE
  5
7EA1
330
7D72
100
AcDbEntity
  8
30
  6
CONTINUOUS
 62
     0
100
AcDbLine
 10
356.4999999999998
 20
-683.7650401241262
 30
0.0
 11
433.4999999999998
 21
-683.7650401241262
 31
0.0
  0
INSERT
  5
7EA2
330
7D72
100
AcDbEntity
  8
30
  6
CONTINUOUS
 62
     0
100
AcDbBlockReference
  2
_OPEN
 10
354.4999999999998
 20
-683.7650401241262
 30
0.0
 41
2.0
 42
2.0
 43
2.0
 50
180.0
  0
INSERT
  5
7EA3
330
7D72
100
AcDbEntity
  8
30
  6
CONTINUOUS
 62
     0
100
AcDbBlockReference
  2
_OPEN
 10
435.5
 20
-683.7650401241262
 30
0.0
 41
2.0
 42
2.0
 43
2.0
  0
MTEXT
  5
7EA4
330
7D72
100
AcDbEntity
  8
30
  6
CONTINUOUS
 62
     0
100
AcDbMText
 10
394.9999999999998
 20
-678.2650401241262
 30
0.0
 40
7.0
 41
0.0
 71
     5
 72
     1
  1
\A1;81
1001
ACAD
1000
MTEXTBEGIN
1070
    73
1070
     1
1070
    44
1040
1.0
1070
    74
1070
     0
1000
MTEXTEND
1000
MTEXTBEGIN
1070
    73
1070
     1
1070
    44
1040
1.0
1070
    74
1070
     0
1000
MTEXTEND
  0
POINT
  5
7EA5
330
7D72
100
AcDbEntity
  8
DEFPOINTS
  6
CONTINUOUS
 62
     0
100
AcDbPoint
 10
354.4999999999998
 20
-644.0
 30
0.0
  0
POINT
  5
7EA6
330
7D72
100
AcDbEntity
  8
DEFPOINTS
  6
CONTINUOUS
 62
     0
100
AcDbPoint
 10
435.5
 20
-644.0
 30
0.0
  0
POINT
  5
7EA7
330
7D72
100
AcDbEntity
  8
DEFPOINTS
  6
CONTINUOUS
 62
     0
100
AcDbPoint
 10
435.5
 20
-683.7650401241262
 30
0.0
  0
ENDBLK
  5
7D7D
330
7D72
100
AcDbEntity
  8
0
100
AcDbBlockEnd
  0
BLOCK
  5
7D88
330
7D7E
100
AcDbEntity
  8
0
100
AcDbBlockBegin
  2
*D14
 70
     1
 10
0.0
 20
0.0
 30
0.0
  3
*D14
  1

  0
LINE
  5
7EA8
330
7D7E
100
AcDbEntity
  8
30
  6
CONTINUOUS
 62
     0
100
AcDbLine
 10
359.4999999999998
 20
-552.0
 30
0.0
 11
332.597286732649
 21
-552.0
 31
0.0
  0
LINE
  5
7EA9
330
7D7E
100
AcDbEntity
  8
30
  6
CONTINUOUS
 62
     0
100
AcDbLine
 10
359.4999999999998
 20
-650.0
 30
0.0
 11
332.597286732649
 21
-650.0
 31
0.0
  0
LINE
  5
7EAA
330
7D7E
100
AcDbEntity
  8
30
  6
CONTINUOUS
 62
     0
100
AcDbLine
 10
333.097286732649
 20
-554.0
 30
0.0
 11
333.097286732649
 21
-648.0
 31
0.0
  0
INSERT
  5
7EAB
330
7D7E
100
AcDbEntity
  8
30
  6
CONTINUOUS
 62
     0
100
AcDbBlockReference
  2
_OPEN
 10
333.097286732649
 20
-552.0
 30
0.0
 41
2.0
 42
2.0
 43
2.0
 50
90.0
  0
INSERT
  5
7EAC
330
7D7E
100
AcDbEntity
  8
30
  6
CONTINUOUS
 62
     0
100
AcDbBlockReference
  2
_OPEN
 10
333.097286732649
 20
-650.0
 30
0.0
 41
2.0
 42
2.0
 43
2.0
 50
270.0
  0
MTEXT
  5
7EAD
330
7D7E
100
AcDbEntity
  8
30
  6
CONTINUOUS
 62
     0
100
AcDbMText
 10
327.5972867326491
 20
-600.9999999999998
 30
0.0
 40
7.0
 41
0.0
 71
     5
 72
     1
  1
\A1;98
 11
0.0000000000000001
 21
1.0
 31
0.0
1001
ACAD
1000
MTEXTBEGIN
1070
    73
1070
     1
1070
    44
1040
1.0
1070
    74
1070
     0
1000
MTEXTEND
1000
MTEXTBEGIN
1070
    73
1070
     1
1070
    44
1040
1.0
1070
    74
1070
     0
1000
MTEXTEND
  0
POINT
  5
7EAE
330
7D7E
100
AcDbEntity
  8
DEFPOINTS
  6
CONTINUOUS
 62
     0
100
AcDbPoint
 10
360.4999999999998
 20
-552.0
 30
0.0
  0
POINT
  5
7EAF
330
7D7E
100
AcDbEntity
  8
DEFPOINTS
  6
CONTINUOUS
 62
     0
100
AcDbPoint
 10
360.4999999999998
 20
-650.0
 30
0.0
  0
POINT
  5
7EB0
330
7D7E
100
AcDbEntity
  8
DEFPOINTS
  6
CONTINUOUS
 62
     0
100
AcDbPoint
 10
333.097286732649
 20
-650.0
 30
0.0
  0
ENDBLK
  5
7D89
330
7D7E
100
AcDbEntity
  8
0
100
AcDbBlockEnd
  0
BLOCK
  5
7ED2
330
7EC8
100
AcDbEntity
  8
0
100
AcDbBlockBegin
  2
*D15
 70
     1
 10
0.0
 20
0.0
 30
0.0
  3
*D15
  1

  0
LINE
  5
7EC9
330
7EC8
100
AcDbEntity
  8
30
  6
CONTINUOUS
 62
     0
100
AcDbLine
 10
-114.9999999999999
 20
-746.0
 30
0.0
 11
-114.9999999999999
 21
-850.0652181632649
 31
0.0
  0
LINE
  5
7ECA
330
7EC8
100
AcDbEntity
  8
30
  6
CONTINUOUS
 62
     0
100
AcDbLine
 10
185.0
 20
-746.0
 30
0.0
 11
185.0
 21
-850.0652181632649
 31
0.0
  0
LINE
  5
7ECB
330
7EC8
100
AcDbEntity
  8
30
  6
CONTINUOUS
 62
     0
100
AcDbLine
 10
-112.9999999999999
 20
-849.565218163265
 30
0.0
 11
183.0
 21
-849.565218163265
 31
0.0
  0
INSERT
  5
7ECC
330
7EC8
100
AcDbEntity
  8
30
  6
CONTINUOUS
 62
     0
100
AcDbBlockReference
  2
_OPEN
 10
-114.9999999999999
 20
-849.565218163265
 30
0.0
 41
2.0
 42
2.0
 43
2.0
 50
180.0
  0
INSERT
  5
7ECD
330
7EC8
100
AcDbEntity
  8
30
  6
CONTINUOUS
 62
     0
100
AcDbBlockReference
  2
_OPEN
 10
185.0
 20
-849.565218163265
 30
0.0
 41
2.0
 42
2.0
 43
2.0
  0
MTEXT
  5
7ECE
330
7EC8
100
AcDbEntity
  8
30
  6
CONTINUOUS
 62
     0
100
AcDbMText
 10
35.00000000000003
 20
-844.065218163265
 30
0.0
 40
7.0
 41
0.0
 71
     5
 72
     1
  1
\A1;300
1001
ACAD
1000
MTEXTBEGIN
1070
    73
1070
     1
1070
    44
1040
1.0
1070
    74
1070
     0
1000
MTEXTEND
1000
MTEXTBEGIN
1070
    73
1070
     1
1070
    44
1040
1.0
1070
    74
1070
     0
1000
MTEXTEND
  0
POINT
  5
7ECF
330
7EC8
100
AcDbEntity
  8
DEFPOINTS
  6
CONTINUOUS
 62
     0
100
AcDbPoint
 10
-114.9999999999999
 20
-745.0
 30
0.0
  0
POINT
  5
7ED0
330
7EC8
100
AcDbEntity
  8
DEFPOINTS
  6
CONTINUOUS
 62
     0
100
AcDbPoint
 10
185.0
 20
-745.0
 30
0.0
  0
POINT
  5
7ED1
330
7EC8
100
AcDbEntity
  8
DEFPOINTS
  6
CONTINUOUS
 62
     0
100
AcDbPoint
 10
185.0
 20
-849.565218163265
 30
0.0
  0
ENDBLK
  5
7ED3
330
7EC8
100
AcDbEntity
  8
0
100
AcDbBlockEnd
  0
BLOCK
  5
7F13
330
7F09
100
AcDbEntity
  8
0
100
AcDbBlockBegin
  2
*D16
 70
     1
 10
0.0
 20
0.0
 30
0.0
  3
*D16
  1

  0
LINE
  5
7F0A
330
7F09
100
AcDbEntity
  8
30
  6
CONTINUOUS
 62
     0
100
AcDbLine
 10
186.0
 20
-427.0
 30
0.0
 11
213.6424238105974
 21
-427.0
 31
0.0
  0
LINE
  5
7F0B
330
7F09
100
AcDbEntity
  8
30
  6
CONTINUOUS
 62
     0
100
AcDbLine
 10
186.0
 20
-500.0
 30
0.0
 11
213.6424238105973
 21
-500.0
 31
0.0
  0
LINE
  5
7F0C
330
7F09
100
AcDbEntity
  8
30
  6
CONTINUOUS
 62
     0
100
AcDbLine
 10
213.1424238105974
 20
-429.0
 30
0.0
 11
213.1424238105974
 21
-498.0
 31
0.0
  0
INSERT
  5
7F0D
330
7F09
100
AcDbEntity
  8
30
  6
CONTINUOUS
 62
     0
100
AcDbBlockReference
  2
_OPEN
 10
213.1424238105974
 20
-427.0
 30
0.0
 41
2.0
 42
2.0
 43
2.0
 50
90.0
  0
INSERT
  5
7F0E
330
7F09
100
AcDbEntity
  8
30
  6
CONTINUOUS
 62
     0
100
AcDbBlockReference
  2
_OPEN
 10
213.1424238105974
 20
-500.0
 30
0.0
 41
2.0
 42
2.0
 43
2.0
 50
270.0
  0
MTEXT
  5
7F0F
330
7F09
100
AcDbEntity
  8
30
  6
CONTINUOUS
 62
     0
100
AcDbMText
 10
207.6424238105974
 20
-463.4999999999998
 30
0.0
 40
7.0
 41
0.0
 71
     5
 72
     1
  1
\A1;73
 11
0.0000000000000001
 21
1.0
 31
0.0
1001
ACAD
1000
MTEXTBEGIN
1070
    73
1070
     1
1070
    44
1040
1.0
1070
    74
1070
     0
1000
MTEXTEND
1000
MTEXTBEGIN
1070
    73
1070
     1
1070
    44
1040
1.0
1070
    74
1070
     0
1000
MTEXTEND
  0
POINT
  5
7F10
330
7F09
100
AcDbEntity
  8
DEFPOINTS
  6
CONTINUOUS
 62
     0
100
AcDbPoint
 10
185.0
 20
-427.0
 30
0.0
  0
POINT
  5
7F11
330
7F09
100
AcDbEntity
  8
DEFPOINTS
  6
CONTINUOUS
 62
     0
100
AcDbPoint
 10
185.0
 20
-500.0
 30
0.0
  0
POINT
  5
7F12
330
7F09
100
AcDbEntity
  8
DEFPOINTS
  6
CONTINUOUS
 62
     0
100
AcDbPoint
 10
213.1424238105974
 20
-500.0
 30
0.0
  0
ENDBLK
  5
7F14
330
7F09
100
AcDbEntity
  8
0
100
AcDbBlockEnd
  0
BLOCK
  5
7F20
330
7F16
100
AcDbEntity
  8
0
100
AcDbBlockBegin
  2
*D17
 70
     1
 10
0.0
 20
0.0
 30
0.0
  3
*D17
  1

  0
LINE
  5
8A32
330
7F16
100
AcDbEntity
  8
30
  6
CONTINUOUS
 62
     0
100
AcDbLine
 10
186.0
 20
-500.0
 30
0.0
 11
213.6424238105973
 21
-500.0
 31
0.0
  0
LINE
  5
8A33
330
7F16
100
AcDbEntity
  8
30
  6
CONTINUOUS
 62
     0
100
AcDbLine
 10
176.0
 20
-601.0
 30
0.0
 11
213.6424238105973
 21
-601.0
 31
0.0
  0
LINE
  5
8A34
330
7F16
100
AcDbEntity
  8
30
  6
CONTINUOUS
 62
     0
100
AcDbLine
 10
213.1424238105973
 20
-502.0
 30
0.0
 11
213.1424238105973
 21
-599.0
 31
0.0
  0
INSERT
  5
8A35
330
7F16
100
AcDbEntity
  8
30
  6
CONTINUOUS
 62
     0
100
AcDbBlockReference
  2
_OPEN
 10
213.1424238105973
 20
-500.0
 30
0.0
 41
2.0
 42
2.0
 43
2.0
 50
90.0
  0
INSERT
  5
8A36
330
7F16
100
AcDbEntity
  8
30
  6
CONTINUOUS
 62
     0
100
AcDbBlockReference
  2
_OPEN
 10
213.1424238105973
 20
-601.0
 30
0.0
 41
2.0
 42
2.0
 43
2.0
 50
270.0
  0
MTEXT
  5
8A37
330
7F16
100
AcDbEntity
  8
30
  6
CONTINUOUS
 62
     0
100
AcDbMText
 10
207.6424238105974
 20
-550.4999999999999
 30
0.0
 40
7.0
 41
0.0
 71
     5
 72
     1
  1
\A1;101
 11
0.0000000000000001
 21
1.0
 31
0.0
  0
POINT
  5
8A38
330
7F16
100
AcDbEntity
  8
DEFPOINTS
  6
CONTINUOUS
 62
     0
100
AcDbPoint
 10
185.0
 20
-500.0
 30
0.0
  0
POINT
  5
8A39
330
7F16
100
AcDbEntity
  8
DEFPOINTS
  6
CONTINUOUS
 62
     0
100
AcDbPoint
 10
175.0
 20
-601.0
 30
0.0
  0
POINT
  5
8A3A
330
7F16
100
AcDbEntity
  8
DEFPOINTS
  6
CONTINUOUS
 62
     0
100
AcDbPoint
 10
213.1424238105973
 20
-601.0
 30
0.0
  0
ENDBLK
  5
7F21
330
7F16
100
AcDbEntity
  8
0
100
AcDbBlockEnd
  0
BLOCK
  5
7F2D
330
7F23
100
AcDbEntity
  8
0
100
AcDbBlockBegin
  2
*D18
 70
     1
 10
0.0
 20
0.0
 30
0.0
  3
*D18
  1

  0
LINE
  5
8A3B
330
7F23
100
AcDbEntity
  8
30
  6
CONTINUOUS
 62
     0
100
AcDbLine
 10
176.0
 20
-601.0
 30
0.0
 11
213.6424238105973
 21
-601.0
 31
0.0
  0
LINE
  5
8A3C
330
7F23
100
AcDbEntity
  8
30
  6
CONTINUOUS
 62
     0
100
AcDbLine
 10
176.0
 20
-672.0
 30
0.0
 11
213.6424238105973
 21
-672.0
 31
0.0
  0
LINE
  5
8A3D
330
7F23
100
AcDbEntity
  8
30
  6
CONTINUOUS
 62
     0
100
AcDbLine
 10
213.1424238105973
 20
-603.0
 30
0.0
 11
213.1424238105973
 21
-670.0
 31
0.0
  0
INSERT
  5
8A3E
330
7F23
100
AcDbEntity
  8
30
  6
CONTINUOUS
 62
     0
100
AcDbBlockReference
  2
_OPEN
 10
213.1424238105973
 20
-601.0
 30
0.0
 41
2.0
 42
2.0
 43
2.0
 50
90.0
  0
INSERT
  5
8A3F
330
7F23
100
AcDbEntity
  8
30
  6
CONTINUOUS
 62
     0
100
AcDbBlockReference
  2
_OPEN
 10
213.1424238105973
 20
-672.0
 30
0.0
 41
2.0
 42
2.0
 43
2.0
 50
270.0
  0
MTEXT
  5
8A40
330
7F23
100
AcDbEntity
  8
30
  6
CONTINUOUS
 62
     0
100
AcDbMText
 10
207.6424238105974
 20
-636.5
 30
0.0
 40
7.0
 41
0.0
 71
     5
 72
     1
  1
\A1;71
 11
0.0000000000000001
 21
1.0
 31
0.0
  0
POINT
  5
8A41
330
7F23
100
AcDbEntity
  8
DEFPOINTS
  6
CONTINUOUS
 62
     0
100
AcDbPoint
 10
175.0
 20
-601.0
 30
0.0
  0
POINT
  5
8A42
330
7F23
100
AcDbEntity
  8
DEFPOINTS
  6
CONTINUOUS
 62
     0
100
AcDbPoint
 10
175.0
 20
-672.0
 30
0.0
  0
POINT
  5
8A43
330
7F23
100
AcDbEntity
  8
DEFPOINTS
  6
CONTINUOUS
 62
     0
100
AcDbPoint
 10
213.1424238105973
 20
-672.0
 30
0.0
  0
ENDBLK
  5
7F2E
330
7F23
100
AcDbEntity
  8
0
100
AcDbBlockEnd
  0
BLOCK
  5
7F3A
330
7F30
100
AcDbEntity
  8
0
100
AcDbBlockBegin
  2
*D19
 70
     1
 10
0.0
 20
0.0
 30
0.0
  3
*D19
  1

  0
LINE
  5
8A44
330
7F30
100
AcDbEntity
  8
30
  6
CONTINUOUS
 62
     0
100
AcDbLine
 10
176.0
 20
-672.0
 30
0.0
 11
213.6424238105973
 21
-672.0
 31
0.0
  0
LINE
  5
8A45
330
7F30
100
AcDbEntity
  8
30
  6
CONTINUOUS
 62
     0
100
AcDbLine
 10
186.0
 20
-745.0
 30
0.0
 11
213.6424238105973
 21
-745.0
 31
0.0
  0
LINE
  5
8A46
330
7F30
100
AcDbEntity
  8
30
  6
CONTINUOUS
 62
     0
100
AcDbLine
 10
213.1424238105973
 20
-674.0
 30
0.0
 11
213.1424238105973
 21
-743.0
 31
0.0
  0
INSERT
  5
8A47
330
7F30
100
AcDbEntity
  8
30
  6
CONTINUOUS
 62
     0
100
AcDbBlockReference
  2
_OPEN
 10
213.1424238105973
 20
-672.0
 30
0.0
 41
2.0
 42
2.0
 43
2.0
 50
90.0
  0
INSERT
  5
8A48
330
7F30
100
AcDbEntity
  8
30
  6
CONTINUOUS
 62
     0
100
AcDbBlockReference
  2
_OPEN
 10
213.1424238105973
 20
-745.0
 30
0.0
 41
2.0
 42
2.0
 43
2.0
 50
270.0
  0
MTEXT
  5
8A49
330
7F30
100
AcDbEntity
  8
30
  6
CONTINUOUS
 62
     0
100
AcDbMText
 10
207.6424238105974
 20
-708.4999999999999
 30
0.0
 40
7.0
 41
0.0
 71
     5
 72
     1
  1
\A1;73
 11
0.0000000000000001
 21
1.0
 31
0.0
  0
POINT
  5
8A4A
330
7F30
100
AcDbEntity
  8
DEFPOINTS
  6
CONTINUOUS
 62
     0
100
AcDbPoint
 10
175.0
 20
-672.0
 30
0.0
  0
POINT
  5
8A4B
330
7F30
100
AcDbEntity
  8
DEFPOINTS
  6
CONTINUOUS
 62
     0
100
AcDbPoint
 10
185.0
 20
-745.0
 30
0.0
  0
POINT
  5
8A4C
330
7F30
100
AcDbEntity
  8
DEFPOINTS
  6
CONTINUOUS
 62
     0
100
AcDbPoint
 10
213.1424238105973
 20
-745.0
 30
0.0
  0
ENDBLK
  5
7F3B
330
7F30
100
AcDbEntity
  8
0
100
AcDbBlockEnd
  0
BLOCK
  5
843F
330
8435
100
AcDbEntity
  8
0
100
AcDbBlockBegin
  2
*D20
 70
     1
 10
0.0
 20
0.0
 30
0.0
  3
*D20
  1

  0
LINE
  5
86DC
330
8435
100
AcDbEntity
  8
30
  6
CONTINUOUS
 62
     0
100
AcDbLine
 10
69.99999999989995
 20
536.0935058594
 30
0.0
 11
69.99999999989995
 21
638.6775657769192
 31
0.0
  0
LINE
  5
86DD
330
8435
100
AcDbEntity
  8
30
  6
CONTINUOUS
 62
     0
100
AcDbLine
 10
140.0
 20
536.0935058594
 30
0.0
 11
140.0
 21
638.6775657769192
 31
0.0
  0
LINE
  5
86DE
330
8435
100
AcDbEntity
  8
30
  6
CONTINUOUS
 62
     0
100
AcDbLine
 10
71.99999999989995
 20
638.1775657769192
 30
0.0
 11
138.0
 21
638.1775657769192
 31
0.0
  0
INSERT
  5
86DF
330
8435
100
AcDbEntity
  8
30
  6
CONTINUOUS
 62
     0
100
AcDbBlockReference
  2
_OPEN
 10
69.99999999989995
 20
638.1775657769192
 30
0.0
 41
2.0
 42
2.0
 43
2.0
 50
180.0
  0
INSERT
  5
86E0
330
8435
100
AcDbEntity
  8
30
  6
CONTINUOUS
 62
     0
100
AcDbBlockReference
  2
_OPEN
 10
140.0
 20
638.1775657769192
 30
0.0
 41
2.0
 42
2.0
 43
2.0
  0
MTEXT
  5
86E1
330
8435
100
AcDbEntity
  8
30
  6
CONTINUOUS
 62
     0
100
AcDbMText
 10
103.6621621621633
 20
643.6775657769191
 30
0.0
 40
7.0
 41
0.0
 71
     5
 72
     1
  1
\A1;70
1001
ACAD
1000
MTEXTBEGIN
1070
    73
1070
     1
1070
    44
1040
1.0
1070
    74
1070
     0
1000
MTEXTEND
1000
MTEXTBEGIN
1070
    73
1070
     1
1070
    44
1040
1.0
1070
    74
1070
     0
1000
MTEXTEND
  0
POINT
  5
86E2
330
8435
100
AcDbEntity
  8
DEFPOINTS
  6
CONTINUOUS
 62
     0
100
AcDbPoint
 10
69.99999999989995
 20
535.0935058594
 30
0.0
  0
POINT
  5
86E3
330
8435
100
AcDbEntity
  8
DEFPOINTS
  6
CONTINUOUS
 62
     0
100
AcDbPoint
 10
140.0
 20
535.0935058594
 30
0.0
  0
POINT
  5
86E4
330
8435
100
AcDbEntity
  8
DEFPOINTS
  6
CONTINUOUS
 62
     0
100
AcDbPoint
 10
140.0
 20
638.1775657769192
 30
0.0
  0
ENDBLK
  5
8440
330
8435
100
AcDbEntity
  8
0
100
AcDbBlockEnd
  0
BLOCK
  5
8457
330
844D
100
AcDbEntity
  8
0
100
AcDbBlockBegin
  2
*D21
 70
     1
 10
0.0
 20
0.0
 30
0.0
  3
*D21
  1

  0
LINE
  5
86C1
330
844D
100
AcDbEntity
  8
30
  6
CONTINUOUS
 62
     0
100
AcDbLine
 10
-97.0932617188
 20
319.0
 30
0.0
 11
-156.5281498131598
 21
319.0
 31
0.0
  0
LINE
  5
86C2
330
844D
100
AcDbEntity
  8
30
  6
CONTINUOUS
 62
     0
100
AcDbLine
 10
-147.0932617187999
 20
439.0
 30
0.0
 11
-156.5281498131598
 21
439.0
 31
0.0
  0
LINE
  5
86C3
330
844D
100
AcDbEntity
  8
30
  6
CONTINUOUS
 62
     0
100
AcDbLine
 10
-156.0281498131598
 20
321.0
 30
0.0
 11
-156.0281498131598
 21
437.0
 31
0.0
  0
INSERT
  5
86C4
330
844D
100
AcDbEntity
  8
30
  6
CONTINUOUS
 62
     0
100
AcDbBlockReference
  2
_OPEN
 10
-156.0281498131598
 20
319.0
 30
0.0
 41
2.0
 42
2.0
 43
2.0
 50
270.0
  0
INSERT
  5
86C5
330
844D
100
AcDbEntity
  8
30
  6
CONTINUOUS
 62
     0
100
AcDbBlockReference
  2
_OPEN
 10
-156.0281498131598
 20
439.0
 30
0.0
 41
2.0
 42
2.0
 43
2.0
 50
90.0
  0
MTEXT
  5
86C6
330
844D
100
AcDbEntity
  8
30
  6
CONTINUOUS
 62
     0
100
AcDbMText
 10
-161.5281498131598
 20
381.2105270534256
 30
0.0
 40
7.0
 41
0.0
 71
     5
 72
     1
  1
\A1;120
 11
0.0000000000000001
 21
1.0
 31
0.0
1001
ACAD
1000
MTEXTBEGIN
1070
    73
1070
     1
1070
    44
1040
1.0
1070
    74
1070
     0
1000
MTEXTEND
1000
MTEXTBEGIN
1070
    73
1070
     1
1070
    44
1040
1.0
1070
    74
1070
     0
1000
MTEXTEND
  0
POINT
  5
86C7
330
844D
100
AcDbEntity
  8
DEFPOINTS
  6
CONTINUOUS
 62
     0
100
AcDbPoint
 10
-96.09326171880001
 20
319.0
 30
0.0
  0
POINT
  5
86C8
330
844D
100
AcDbEntity
  8
DEFPOINTS
  6
CONTINUOUS
 62
     0
100
AcDbPoint
 10
-146.0932617187999
 20
439.0
 30
0.0
  0
POINT
  5
86C9
330
844D
100
AcDbEntity
  8
DEFPOINTS
  6
CONTINUOUS
 62
     0
100
AcDbPoint
 10
-156.0281498131598
 20
439.0
 30
0.0
  0
ENDBLK
  5
8458
330
844D
100
AcDbEntity
  8
0
100
AcDbBlockEnd
  0
BLOCK
  5
8463
330
8459
100
AcDbEntity
  8
0
100
AcDbBlockBegin
  2
*D22
 70
     1
 10
0.0
 20
0.0
 30
0.0
  3
*D22
  1

  0
LINE
  5
86F7
330
8459
100
AcDbEntity
  8
30
  6
CONTINUOUS
 62
     0
100
AcDbLine
 10
-22.5
 20
551.0935058593998
 30
0.0
 11
-22.49999999999999
 21
604.5800781250027
 31
0.0
  0
LINE
  5
86F8
330
8459
100
AcDbEntity
  8
30
  6
CONTINUOUS
 62
     0
100
AcDbLine
 10
22.5
 20
551.0935058593998
 30
0.0
 11
22.5
 21
604.5800781250027
 31
0.0
  0
LINE
  5
86F9
330
8459
100
AcDbEntity
  8
30
  6
CONTINUOUS
 62
     0
100
AcDbLine
 10
-20.49999999999998
 20
604.0800781250027
 30
0.0
 11
20.5
 21
604.0800781250027
 31
0.0
  0
INSERT
  5
86FA
330
8459
100
AcDbEntity
  8
30
  6
CONTINUOUS
 62
     0
100
AcDbBlockReference
  2
_OPEN
 10
-22.49999999999999
 20
604.0800781250027
 30
0.0
 41
2.0
 42
2.0
 43
2.0
 50
180.0
  0
INSERT
  5
86FB
330
8459
100
AcDbEntity
  8
30
  6
CONTINUOUS
 62
     0
100
AcDbBlockReference
  2
_OPEN
 10
22.5
 20
604.0800781250027
 30
0.0
 41
2.0
 42
2.0
 43
2.0
  0
MTEXT
  5
86FC
330
8459
100
AcDbEntity
  8
30
  6
CONTINUOUS
 62
     0
100
AcDbMText
 10
-1.337837837836671
 20
609.5800781250027
 30
0.0
 40
7.0
 41
0.0
 71
     5
 72
     1
  1
\A1;45
1001
ACAD
1000
MTEXTBEGIN
1070
    73
1070
     1
1070
    44
1040
1.0
1070
    74
1070
     0
1000
MTEXTEND
1000
MTEXTBEGIN
1070
    73
1070
     1
1070
    44
1040
1.0
1070
    74
1070
     0
1000
MTEXTEND
  0
POINT
  5
86FD
330
8459
100
AcDbEntity
  8
DEFPOINTS
  6
CONTINUOUS
 62
     0
100
AcDbPoint
 10
-22.5
 20
550.0935058594
 30
0.0
  0
POINT
  5
86FE
330
8459
100
AcDbEntity
  8
DEFPOINTS
  6
CONTINUOUS
 62
     0
100
AcDbPoint
 10
22.5
 20
550.0935058594
 30
0.0
  0
POINT
  5
86FF
330
8459
100
AcDbEntity
  8
DEFPOINTS
  6
CONTINUOUS
 62
     0
100
AcDbPoint
 10
22.5
 20
604.0800781250027
 30
0.0
  0
ENDBLK
  5
8464
330
8459
100
AcDbEntity
  8
0
100
AcDbBlockEnd
  0
BLOCK
  5
846F
330
8465
100
AcDbEntity
  8
0
100
AcDbBlockBegin
  2
*D23
 70
     1
 10
0.0
 20
0.0
 30
0.0
  3
*D23
  1

  0
LINE
  5
86E5
330
8465
100
AcDbEntity
  8
30
  6
CONTINUOUS
 62
     0
100
AcDbLine
 10
0.0000000000000001
 20
536.0935058594
 30
0.0
 11
0.0000000000000063
 21
638.6775657769192
 31
0.0
  0
LINE
  5
86E6
330
8465
100
AcDbEntity
  8
30
  6
CONTINUOUS
 62
     0
100
AcDbLine
 10
69.99999999989995
 20
536.0935058594
 30
0.0
 11
69.99999999989995
 21
638.6775657769192
 31
0.0
  0
LINE
  5
86E7
330
8465
100
AcDbEntity
  8
30
  6
CONTINUOUS
 62
     0
100
AcDbLine
 10
2.000000000000005
 20
638.1775657769192
 30
0.0
 11
67.99999999989996
 21
638.1775657769192
 31
0.0
  0
INSERT
  5
86E8
330
8465
100
AcDbEntity
  8
30
  6
CONTINUOUS
 62
     0
100
AcDbBlockReference
  2
_OPEN
 10
0.0000000000000063
 20
638.1775657769192
 30
0.0
 41
2.0
 42
2.0
 43
2.0
 50
180.0
  0
INSERT
  5
86E9
330
8465
100
AcDbEntity
  8
30
  6
CONTINUOUS
 62
     0
100
AcDbBlockReference
  2
_OPEN
 10
69.99999999989995
 20
638.1775657769192
 30
0.0
 41
2.0
 42
2.0
 43
2.0
  0
MTEXT
  5
86EA
330
8465
100
AcDbEntity
  8
30
  6
CONTINUOUS
 62
     0
100
AcDbMText
 10
33.66216216216332
 20
643.6775657769191
 30
0.0
 40
7.0
 41
0.0
 71
     5
 72
     1
  1
\A1;70
1001
ACAD
1000
MTEXTBEGIN
1070
    73
1070
     1
1070
    44
1040
1.0
1070
    74
1070
     0
1000
MTEXTEND
1000
MTEXTBEGIN
1070
    73
1070
     1
1070
    44
1040
1.0
1070
    74
1070
     0
1000
MTEXTEND
  0
POINT
  5
86EB
330
8465
100
AcDbEntity
  8
DEFPOINTS
  6
CONTINUOUS
 62
     0
100
AcDbPoint
 10
0.0
 20
535.0935058594
 30
0.0
  0
POINT
  5
86EC
330
8465
100
AcDbEntity
  8
DEFPOINTS
  6
CONTINUOUS
 62
     0
100
AcDbPoint
 10
69.99999999989995
 20
535.0935058594
 30
0.0
  0
POINT
  5
86ED
330
8465
100
AcDbEntity
  8
DEFPOINTS
  6
CONTINUOUS
 62
     0
100
AcDbPoint
 10
69.99999999989995
 20
638.1775657769192
 30
0.0
  0
ENDBLK
  5
8470
330
8465
100
AcDbEntity
  8
0
100
AcDbBlockEnd
  0
BLOCK
  5
847B
330
8471
100
AcDbEntity
  8
0
100
AcDbBlockBegin
  2
*D24
 70
     1
 10
0.0
 20
0.0
 30
0.0
  3
*D24
  1

  0
LINE
  5
86D3
330
8471
100
AcDbEntity
  8
30
  6
CONTINUOUS
 62
     0
100
AcDbLine
 10
-70.0
 20
536.0935058594
 30
0.0
 11
-70.0
 21
638.6775657769192
 31
0.0
  0
LINE
  5
86D4
330
8471
100
AcDbEntity
  8
30
  6
CONTINUOUS
 62
     0
100
AcDbLine
 10
0.0000000000000001
 20
536.0935058594
 30
0.0
 11
0.0000000000000063
 21
638.6775657769192
 31
0.0
  0
LINE
  5
86D5
330
8471
100
AcDbEntity
  8
30
  6
CONTINUOUS
 62
     0
100
AcDbLine
 10
-68.0
 20
638.1775657769192
 30
0.0
 11
-1.999999999999993
 21
638.1775657769192
 31
0.0
  0
INSERT
  5
86D6
330
8471
100
AcDbEntity
  8
30
  6
CONTINUOUS
 62
     0
100
AcDbBlockReference
  2
_OPEN
 10
-70.0
 20
638.1775657769192
 30
0.0
 41
2.0
 42
2.0
 43
2.0
 50
180.0
  0
INSERT
  5
86D7
330
8471
100
AcDbEntity
  8
30
  6
CONTINUOUS
 62
     0
100
AcDbBlockReference
  2
_OPEN
 10
0.0000000000000063
 20
638.1775657769192
 30
0.0
 41
2.0
 42
2.0
 43
2.0
  0
MTEXT
  5
86D8
330
8471
100
AcDbEntity
  8
30
  6
CONTINUOUS
 62
     0
100
AcDbMText
 10
-36.33783783783667
 20
643.6775657769191
 30
0.0
 40
7.0
 41
0.0
 71
     5
 72
     1
  1
\A1;70
1001
ACAD
1000
MTEXTBEGIN
1070
    73
1070
     1
1070
    44
1040
1.0
1070
    74
1070
     0
1000
MTEXTEND
1000
MTEXTBEGIN
1070
    73
1070
     1
1070
    44
1040
1.0
1070
    74
1070
     0
1000
MTEXTEND
  0
POINT
  5
86D9
330
8471
100
AcDbEntity
  8
DEFPOINTS
  6
CONTINUOUS
 62
     0
100
AcDbPoint
 10
-70.0
 20
535.0935058594
 30
0.0
  0
POINT
  5
86DA
330
8471
100
AcDbEntity
  8
DEFPOINTS
  6
CONTINUOUS
 62
     0
100
AcDbPoint
 10
0.0
 20
535.0935058594
 30
0.0
  0
POINT
  5
86DB
330
8471
100
AcDbEntity
  8
DEFPOINTS
  6
CONTINUOUS
 62
     0
100
AcDbPoint
 10
0.0000000000000063
 20
638.1775657769192
 30
0.0
  0
ENDBLK
  5
847C
330
8471
100
AcDbEntity
  8
0
100
AcDbBlockEnd
  0
BLOCK
  5
84B9
330
84AF
100
AcDbEntity
  8
0
100
AcDbBlockBegin
  2
*D25
 70
     1
 10
0.0
 20
0.0
 30
0.0
  3
*D25
  1

  0
LINE
  5
8737
330
84AF
100
AcDbEntity
  8
30
  6
CONTINUOUS
 62
     0
100
AcDbLine
 10
-147.0932617187999
 20
439.0
 30
0.0
 11
-156.5281498288054
 21
439.0
 31
0.0
  0
LINE
  5
8738
330
84AF
100
AcDbEntity
  8
30
  6
CONTINUOUS
 62
     0
100
AcDbLine
 10
-93.49999999999999
 20
549.9999999999999
 30
0.0
 11
-156.5281498288053
 21
549.9999999999999
 31
0.0
  0
LINE
  5
8739
330
84AF
100
AcDbEntity
  8
30
  6
CONTINUOUS
 62
     0
100
AcDbLine
 10
-156.0281498288054
 20
441.0
 30
0.0
 11
-156.0281498288053
 21
547.9999999999998
 31
0.0
  0
INSERT
  5
873A
330
84AF
100
AcDbEntity
  8
30
  6
CONTINUOUS
 62
     0
100
AcDbBlockReference
  2
_OPEN
 10
-156.0281498288054
 20
439.0
 30
0.0
 41
2.0
 42
2.0
 43
2.0
 50
270.0
  0
INSERT
  5
873B
330
84AF
100
AcDbEntity
  8
30
  6
CONTINUOUS
 62
     0
100
AcDbBlockReference
  2
_OPEN
 10
-156.0281498288053
 20
549.9999999999999
 30
0.0
 41
2.0
 42
2.0
 43
2.0
 50
90.0
  0
MTEXT
  5
873C
330
84AF
100
AcDbEntity
  8
30
  6
CONTINUOUS
 62
     0
100
AcDbMText
 10
-161.5281498288053
 20
496.3529419141064
 30
0.0
 40
7.0
 41
0.0
 71
     5
 72
     1
  1
\A1;111
 11
0.0000000000000001
 21
1.0
 31
0.0
1001
ACAD
1000
MTEXTBEGIN
1070
    73
1070
     1
1070
    44
1040
1.0
1070
    74
1070
     0
1000
MTEXTEND
1000
MTEXTBEGIN
1070
    73
1070
     1
1070
    44
1040
1.0
1070
    74
1070
     0
1000
MTEXTEND
  0
POINT
  5
873D
330
84AF
100
AcDbEntity
  8
DEFPOINTS
  6
CONTINUOUS
 62
     0
100
AcDbPoint
 10
-146.0932617187999
 20
439.0
 30
0.0
  0
POINT
  5
873E
330
84AF
100
AcDbEntity
  8
DEFPOINTS
  6
CONTINUOUS
 62
     0
100
AcDbPoint
 10
-92.5
 20
549.9999999999999
 30
0.0
  0
POINT
  5
873F
330
84AF
100
AcDbEntity
  8
DEFPOINTS
  6
CONTINUOUS
 62
     0
100
AcDbPoint
 10
-156.0281498288053
 20
549.9999999999999
 30
0.0
  0
ENDBLK
  5
84BA
330
84AF
100
AcDbEntity
  8
0
100
AcDbBlockEnd
  0
BLOCK
  5
870A
330
8701
100
AcDbEntity
  8
0
100
AcDbBlockBegin
  2
*D26
 70
     1
 10
0.0
 20
0.0
 30
0.0
  3
*D26
  1

  0
LINE
  5
871C
330
8701
100
AcDbEntity
  8
30
  6
CONTINUOUS
 62
     0
100
AcDbLine
 10
168.4310646543089
 20
557.0216310972154
 30
0.0
 11
150.0977313209755
 21
557.0216310972155
 31
0.0
  0
LINE
  5
871D
330
8701
100
AcDbEntity
  8
30
  6
CONTINUOUS
 62
     0
100
AcDbLine
 10
150.0977313209755
 20
557.0216310972155
 30
0.0
 11
145.285667332118
 21
542.5854391306446
 31
0.0
  0
MTEXT
  5
871E
330
8701
100
AcDbEntity
  8
30
  6
CONTINUOUS
 62
     0
100
AcDbMText
 10
160.2643979876421
 20
562.5216310972156
 30
0.0
 40
7.0
 41
0.0
 71
     5
 72
     1
  1
\A1;%%c13
1001
ACAD
1000
MTEXTBEGIN
1070
    73
1070
     1
1070
    44
1040
1.0
1070
    74
1070
     0
1000
MTEXTEND
1000
MTEXTBEGIN
1070
    73
1070
     1
1070
    44
1040
1.0
1070
    74
1070
     0
1000
MTEXTEND
  0
INSERT
  5
871F
330
8701
100
AcDbEntity
  8
30
  6
CONTINUOUS
 62
     0
100
AcDbBlockReference
  2
_OPEN
 10
144.6532118000843
 20
540.6880725345437
 30
0.0
 41
2.0
 42
2.0
 43
2.0
 50
251.5650511770761
  0
LINE
  5
8720
330
8701
100
AcDbEntity
  8
30
  6
CONTINUOUS
 62
     0
100
AcDbLine
 10
142.5077313209748
 20
534.5216310972156
 30
0.0
 11
142.6877313209748
 21
534.5216310972156
 31
0.0
  0
LINE
  5
8721
330
8701
100
AcDbEntity
  8
30
  6
CONTINUOUS
 62
     0
100
AcDbLine
 10
142.5977313209748
 20
534.4316310972157
 30
0.0
 11
142.5977313209748
 21
534.6116310972156
 31
0.0
  0
POINT
  5
8722
330
8701
100
AcDbEntity
  8
DEFPOINTS
  6
CONTINUOUS
 62
     0
100
AcDbPoint
 10
144.6532118000843
 20
540.6880725345437
 30
0.0
  0
POINT
  5
8723
330
8701
100
AcDbEntity
  8
DEFPOINTS
  6
CONTINUOUS
 62
     0
100
AcDbPoint
 10
142.5977313209748
 20
534.5216310972156
 30
0.0
  0
ENDBLK
  5
870B
330
8701
100
AcDbEntity
  8
0
100
AcDbBlockEnd
  0
BLOCK
  5
874B
330
8741
100
AcDbEntity
  8
0
100
AcDbBlockBegin
  2
*D27
 70
     1
 10
0.0
 20
0.0
 30
0.0
  3
*D27
  1

  0
LINE
  5
8742
330
8741
100
AcDbEntity
  8
30
  6
CONTINUOUS
 62
     0
100
AcDbLine
 10
507.0
 20
-172.0
 30
0.0
 11
507.0
 21
-230.8800613068346
 31
0.0
  0
LINE
  5
8743
330
8741
100
AcDbEntity
  8
30
  6
CONTINUOUS
 62
     0
100
AcDbLine
 10
395.0
 20
-171.0
 30
0.0
 11
395.0
 21
-230.8800613068346
 31
0.0
  0
LINE
  5
8744
330
8741
100
AcDbEntity
  8
30
  6
CONTINUOUS
 62
     0
100
AcDbLine
 10
505.0
 20
-230.3800613068346
 30
0.0
 11
397.0
 21
-230.3800613068346
 31
0.0
  0
INSERT
  5
8745
330
8741
100
AcDbEntity
  8
30
  6
CONTINUOUS
 62
     0
100
AcDbBlockReference
  2
_OPEN
 10
507.0
 20
-230.3800613068346
 30
0.0
 41
2.0
 42
2.0
 43
2.0
  0
INSERT
  5
8746
330
8741
100
AcDbEntity
  8
30
  6
CONTINUOUS
 62
     0
100
AcDbBlockReference
  2
_OPEN
 10
395.0
 20
-230.3800613068346
 30
0.0
 41
2.0
 42
2.0
 43
2.0
 50
180.0
  0
MTEXT
  5
8747
330
8741
100
AcDbEntity
  8
30
  6
CONTINUOUS
 62
     0
100
AcDbMText
 10
451.0
 20
-224.8800613068345
 30
0.0
 40
7.0
 41
0.0
 71
     5
 72
     1
  1
\A1;112
1001
ACAD
1000
MTEXTBEGIN
1070
    73
1070
     1
1070
    44
1040
1.0
1070
    74
1070
     0
1000
MTEXTEND
1000
MTEXTBEGIN
1070
    73
1070
     1
1070
    44
1040
1.0
1070
    74
1070
     0
1000
MTEXTEND
  0
POINT
  5
8748
330
8741
100
AcDbEntity
  8
DEFPOINTS
  6
CONTINUOUS
 62
     0
100
AcDbPoint
 10
507.0
 20
-171.0
 30
0.0
  0
POINT
  5
8749
330
8741
100
AcDbEntity
  8
DEFPOINTS
  6
CONTINUOUS
 62
     0
100
AcDbPoint
 10
395.0
 20
-170.0
 30
0.0
  0
POINT
  5
874A
330
8741
100
AcDbEntity
  8
DEFPOINTS
  6
CONTINUOUS
 62
     0
100
AcDbPoint
 10
395.0
 20
-230.3800613068346
 30
0.0
  0
ENDBLK
  5
874C
330
8741
100
AcDbEntity
  8
0
100
AcDbBlockEnd
  0
BLOCK
  5
8759
330
874E
100
AcDbEntity
  8
0
100
AcDbBlockBegin
  2
*D28
 70
     1
 10
0.0
 20
0.0
 30
0.0
  3
*D28
  1

  0
LINE
  5
87A8
330
874E
100
AcDbEntity
  8
30
  6
CONTINUOUS
 62
     0
100
AcDbLine
 10
395.0
 20
-172.0
 30
0.0
 11
395.0
 21
-231.030510233064
 31
0.0
  0
LINE
  5
87A9
330
874E
100
AcDbEntity
  8
30
  6
CONTINUOUS
 62
     0
100
AcDbLine
 10
387.0
 20
-141.0
 30
0.0
 11
387.0
 21
-231.030510233064
 31
0.0
  0
LINE
  5
87AA
330
874E
100
AcDbEntity
  8
30
  6
CONTINUOUS
 62
     0
100
AcDbLine
 10
393.0
 20
-230.5305102330638
 30
0.0
 11
389.0
 21
-230.5305102330638
 31
0.0
  0
INSERT
  5
87AB
330
874E
100
AcDbEntity
  8
30
  6
CONTINUOUS
 62
     0
100
AcDbBlockReference
  2
_OPEN
 10
395.0
 20
-230.5305102330638
 30
0.0
 41
2.0
 42
2.0
 43
2.0
  0
INSERT
  5
87AC
330
874E
100
AcDbEntity
  8
30
  6
CONTINUOUS
 62
     0
100
AcDbBlockReference
  2
_OPEN
 10
387.0
 20
-230.5305102330638
 30
0.0
 41
2.0
 42
2.0
 43
2.0
 50
180.0
  0
MTEXT
  5
87AD
330
874E
100
AcDbEntity
  8
30
  6
CONTINUOUS
 62
     0
100
AcDbMText
 10
391.3705927610462
 20
-225.0305102330639
 30
0.0
 40
7.0
 41
0.0
 71
     5
 72
     1
  1
\A1;8
1001
ACAD
1000
MTEXTBEGIN
1070
    73
1070
     1
1070
    44
1040
1.0
1070
    74
1070
     0
1000
MTEXTEND
1000
MTEXTBEGIN
1070
    73
1070
     1
1070
    44
1040
1.0
1070
    74
1070
     0
1000
MTEXTEND
  0
POINT
  5
87AE
330
874E
100
AcDbEntity
  8
DEFPOINTS
  6
CONTINUOUS
 62
     0
100
AcDbPoint
 10
395.0
 20
-171.0
 30
0.0
  0
POINT
  5
87AF
330
874E
100
AcDbEntity
  8
DEFPOINTS
  6
CONTINUOUS
 62
     0
100
AcDbPoint
 10
387.0
 20
-140.0
 30
0.0
  0
POINT
  5
87B0
330
874E
100
AcDbEntity
  8
DEFPOINTS
  6
CONTINUOUS
 62
     0
100
AcDbPoint
 10
387.0
 20
-230.5305102330638
 30
0.0
  0
ENDBLK
  5
875A
330
874E
100
AcDbEntity
  8
0
100
AcDbBlockEnd
  0
BLOCK
  5
8766
330
875C
100
AcDbEntity
  8
0
100
AcDbBlockBegin
  2
*D29
 70
     1
 10
0.0
 20
0.0
 30
0.0
  3
*D29
  1

  0
LINE
  5
87BA
330
875C
100
AcDbEntity
  8
30
  6
CONTINUOUS
 62
     0
100
AcDbLine
 10
507.0
 20
-231.3800613068345
 30
0.0
 11
507.0
 21
-254.866354951332
 31
0.0
  0
LINE
  5
87BB
330
875C
100
AcDbEntity
  8
30
  6
CONTINUOUS
 62
     0
100
AcDbLine
 10
336.0
 20
-1.0
 30
0.0
 11
336.0
 21
-254.866354951332
 31
0.0
  0
LINE
  5
87BC
330
875C
100
AcDbEntity
  8
30
  6
CONTINUOUS
 62
     0
100
AcDbLine
 10
505.0
 20
-254.3663549513321
 30
0.0
 11
338.0
 21
-254.3663549513321
 31
0.0
  0
INSERT
  5
87BD
330
875C
100
AcDbEntity
  8
30
  6
CONTINUOUS
 62
     0
100
AcDbBlockReference
  2
_OPEN
 10
507.0
 20
-254.3663549513321
 30
0.0
 41
2.0
 42
2.0
 43
2.0
  0
INSERT
  5
87BE
330
875C
100
AcDbEntity
  8
30
  6
CONTINUOUS
 62
     0
100
AcDbBlockReference
  2
_OPEN
 10
336.0
 20
-254.3663549513321
 30
0.0
 41
2.0
 42
2.0
 43
2.0
 50
180.0
  0
MTEXT
  5
87BF
330
875C
100
AcDbEntity
  8
30
  6
CONTINUOUS
 62
     0
100
AcDbMText
 10
421.4999999999998
 20
-248.866354951332
 30
0.0
 40
7.0
 41
0.0
 71
     5
 72
     1
  1
\A1;171
1001
ACAD
1000
MTEXTBEGIN
1070
    73
1070
     1
1070
    44
1040
1.0
1070
    74
1070
     0
1000
MTEXTEND
1000
MTEXTBEGIN
1070
    73
1070
     1
1070
    44
1040
1.0
1070
    74
1070
     0
1000
MTEXTEND
  0
POINT
  5
87C0
330
875C
100
AcDbEntity
  8
DEFPOINTS
  6
CONTINUOUS
 62
     0
100
AcDbPoint
 10
507.0
 20
-230.3800613068346
 30
0.0
  0
POINT
  5
87C1
330
875C
100
AcDbEntity
  8
DEFPOINTS
  6
CONTINUOUS
 62
     0
100
AcDbPoint
 10
336.0
 20
0.0
 30
0.0
  0
POINT
  5
87C2
330
875C
100
AcDbEntity
  8
DEFPOINTS
  6
CONTINUOUS
 62
     0
100
AcDbPoint
 10
336.0
 20
-254.3663549513321
 30
0.0
  0
ENDBLK
  5
8767
330
875C
100
AcDbEntity
  8
0
100
AcDbBlockEnd
  0
BLOCK
  5
877C
330
8772
100
AcDbEntity
  8
0
100
AcDbBlockBegin
  2
*D30
 70
     1
 10
0.0
 20
0.0
 30
0.0
  3
*D30
  1

  0
LINE
  5
87F2
330
8772
100
AcDbEntity
  8
30
  6
CONTINUOUS
 62
     0
100
AcDbLine
 10
336.0
 20
-2.0
 30
0.0
 11
336.0
 21
-254.5330216179988
 31
0.0
  0
LINE
  5
87F3
330
8772
100
AcDbEntity
  8
30
  6
CONTINUOUS
 62
     0
100
AcDbLine
 10
256.0
 20
-2.0
 30
0.0
 11
255.9999999999999
 21
-254.5330216179988
 31
0.0
  0
LINE
  5
87F4
330
8772
100
AcDbEntity
  8
30
  6
CONTINUOUS
 62
     0
100
AcDbLine
 10
334.0
 20
-254.0330216179988
 30
0.0
 11
258.0
 21
-254.0330216179988
 31
0.0
  0
INSERT
  5
87F5
330
8772
100
AcDbEntity
  8
30
  6
CONTINUOUS
 62
     0
100
AcDbBlockReference
  2
_OPEN
 10
336.0
 20
-254.0330216179988
 30
0.0
 41
2.0
 42
2.0
 43
2.0
  0
INSERT
  5
87F6
330
8772
100
AcDbEntity
  8
30
  6
CONTINUOUS
 62
     0
100
AcDbBlockReference
  2
_OPEN
 10
255.9999999999999
 20
-254.0330216179988
 30
0.0
 41
2.0
 42
2.0
 43
2.0
 50
180.0
  0
MTEXT
  5
87F7
330
8772
100
AcDbEntity
  8
30
  6
CONTINUOUS
 62
     0
100
AcDbMText
 10
296.0
 20
-248.5330216179987
 30
0.0
 40
7.0
 41
0.0
 71
     5
 72
     1
  1
\A1;80
1001
ACAD
1000
MTEXTBEGIN
1070
    73
1070
     1
1070
    44
1040
1.0
1070
    74
1070
     0
1000
MTEXTEND
1000
MTEXTBEGIN
1070
    73
1070
     1
1070
    44
1040
1.0
1070
    74
1070
     0
1000
MTEXTEND
  0
POINT
  5
87F8
330
8772
100
AcDbEntity
  8
DEFPOINTS
  6
CONTINUOUS
 62
     0
100
AcDbPoint
 10
336.0
 20
-1.0
 30
0.0
  0
POINT
  5
87F9
330
8772
100
AcDbEntity
  8
DEFPOINTS
  6
CONTINUOUS
 62
     0
100
AcDbPoint
 10
256.0
 20
-1.0
 30
0.0
  0
POINT
  5
87FA
330
8772
100
AcDbEntity
  8
DEFPOINTS
  6
CONTINUOUS
 62
     0
100
AcDbPoint
 10
255.9999999999999
 20
-254.0330216179988
 30
0.0
  0
ENDBLK
  5
877D
330
8772
100
AcDbEntity
  8
0
100
AcDbBlockEnd
  0
BLOCK
  5
878B
330
8781
100
AcDbEntity
  8
0
100
AcDbBlockBegin
  2
*D31
 70
     1
 10
0.0
 20
0.0
 30
0.0
  3
*D31
  1

  0
LINE
  5
8782
330
8781
100
AcDbEntity
  8
30
  6
CONTINUOUS
 62
     0
100
AcDbLine
 10
387.0
 20
-141.0
 30
0.0
 11
387.0
 21
-230.8800613068346
 31
0.0
  0
LINE
  5
8783
330
8781
100
AcDbEntity
  8
30
  6
CONTINUOUS
 62
     0
100
AcDbLine
 10
370.0000000000716
 20
-1.0
 30
0.0
 11
370.0000000000716
 21
-230.8800613068346
 31
0.0
  0
LINE
  5
8784
330
8781
100
AcDbEntity
  8
30
  6
CONTINUOUS
 62
     0
100
AcDbLine
 10
385.0
 20
-230.3800613068346
 30
0.0
 11
372.0000000000716
 21
-230.3800613068346
 31
0.0
  0
INSERT
  5
8785
330
8781
100
AcDbEntity
  8
30
  6
CONTINUOUS
 62
     0
100
AcDbBlockReference
  2
_OPEN
 10
387.0
 20
-230.3800613068346
 30
0.0
 41
2.0
 42
2.0
 43
2.0
  0
INSERT
  5
8786
330
8781
100
AcDbEntity
  8
30
  6
CONTINUOUS
 62
     0
100
AcDbBlockReference
  2
_OPEN
 10
370.0000000000716
 20
-230.3800613068346
 30
0.0
 41
2.0
 42
2.0
 43
2.0
 50
180.0
  0
MTEXT
  5
8787
330
8781
100
AcDbEntity
  8
30
  6
CONTINUOUS
 62
     0
100
AcDbMText
 10
378.5000000000357
 20
-224.8800613068345
 30
0.0
 40
7.0
 41
0.0
 71
     5
 72
     1
  1
\A1;17
1001
ACAD
1000
MTEXTBEGIN
1070
    73
1070
     1
1070
    44
1040
1.0
1070
    74
1070
     0
1000
MTEXTEND
1000
MTEXTBEGIN
1070
    73
1070
     1
1070
    44
1040
1.0
1070
    74
1070
     0
1000
MTEXTEND
  0
POINT
  5
8788
330
8781
100
AcDbEntity
  8
DEFPOINTS
  6
CONTINUOUS
 62
     0
100
AcDbPoint
 10
387.0
 20
-140.0
 30
0.0
  0
POINT
  5
8789
330
8781
100
AcDbEntity
  8
DEFPOINTS
  6
CONTINUOUS
 62
     0
100
AcDbPoint
 10
370.0000000000716
 20
0.0
 30
0.0
  0
POINT
  5
878A
330
8781
100
AcDbEntity
  8
DEFPOINTS
  6
CONTINUOUS
 62
     0
100
AcDbPoint
 10
370.0000000000716
 20
-230.3800613068346
 30
0.0
  0
ENDBLK
  5
878C
330
8781
100
AcDbEntity
  8
0
100
AcDbBlockEnd
  0
BLOCK
  5
8860
330
8856
100
AcDbEntity
  8
0
100
AcDbBlockBegin
  2
*D32
 70
     1
 10
0.0
 20
0.0
 30
0.0
  3
*D32
  1

  0
LINE
  5
8857
330
8856
100
AcDbEntity
  8
30
  6
CONTINUOUS
 62
     0
100
AcDbLine
 10
93.49999999999999
 20
567.1402904381839
 30
0.0
 11
124.8875257438367
 21
567.1402904381839
 31
0.0
  0
LINE
  5
8858
330
8856
100
AcDbEntity
  8
30
  6
CONTINUOUS
 62
     0
100
AcDbLine
 10
86.0
 20
552.1402904381838
 30
0.0
 11
124.8875257438367
 21
552.1402904381838
 31
0.0
  0
LINE
  5
8859
330
8856
100
AcDbEntity
  8
30
  6
CONTINUOUS
 62
     0
100
AcDbLine
 10
124.3875257438367
 20
565.1402904381837
 30
0.0
 11
124.3875257438367
 21
554.1402904381839
 31
0.0
  0
INSERT
  5
885A
330
8856
100
AcDbEntity
  8
30
  6
CONTINUOUS
 62
     0
100
AcDbBlockReference
  2
_OPEN
 10
124.3875257438367
 20
567.1402904381839
 30
0.0
 41
2.0
 42
2.0
 43
2.0
 50
90.0
  0
INSERT
  5
885B
330
8856
100
AcDbEntity
  8
30
  6
CONTINUOUS
 62
     0
100
AcDbBlockReference
  2
_OPEN
 10
124.3875257438367
 20
552.1402904381838
 30
0.0
 41
2.0
 42
2.0
 43
2.0
 50
270.0
  0
MTEXT
  5
885C
330
8856
100
AcDbEntity
  8
30
  6
CONTINUOUS
 62
     0
100
AcDbMText
 10
119.8875257438365
 20
559.6402904381839
 30
0.0
 40
7.0
 41
0.0
 71
     5
 72
     1
  1
\A1;15
 11
0.0000000000000001
 21
1.0
 31
0.0
1001
ACAD
1000
MTEXTBEGIN
1070
    73
1070
     1
1070
    44
1040
1.0
1070
    74
1070
     0
1000
MTEXTEND
1000
MTEXTBEGIN
1070
    73
1070
     1
1070
    44
1040
1.0
1070
    74
1070
     0
1000
MTEXTEND
  0
POINT
  5
885D
330
8856
100
AcDbEntity
  8
DEFPOINTS
  6
CONTINUOUS
 62
     0
100
AcDbPoint
 10
92.5
 20
567.1402904381839
 30
0.0
  0
POINT
  5
885E
330
8856
100
AcDbEntity
  8
DEFPOINTS
  6
CONTINUOUS
 62
     0
100
AcDbPoint
 10
85.0
 20
552.1402904381838
 30
0.0
  0
POINT
  5
885F
330
8856
100
AcDbEntity
  8
DEFPOINTS
  6
CONTINUOUS
 62
     0
100
AcDbPoint
 10
124.3875257438367
 20
552.1402904381838
 30
0.0
  0
ENDBLK
  5
8861
330
8856
100
AcDbEntity
  8
0
100
AcDbBlockEnd
  0
BLOCK
  5
886C
330
8862
100
AcDbEntity
  8
0
100
AcDbBlockBegin
  2
*D33
 70
     1
 10
0.0
 20
0.0
 30
0.0
  3
*D33
  1

  0
LINE
  5
8863
330
8862
100
AcDbEntity
  8
30
  6
CONTINUOUS
 62
     0
100
AcDbLine
 10
86.0
 20
552.1402904381838
 30
0.0
 11
124.8875257438367
 21
552.1402904381838
 31
0.0
  0
LINE
  5
8864
330
8862
100
AcDbEntity
  8
30
  6
CONTINUOUS
 62
     0
100
AcDbLine
 10
86.0
 20
520.1402904381839
 30
0.0
 11
124.8875257438367
 21
520.1402904381839
 31
0.0
  0
LINE
  5
8865
330
8862
100
AcDbEntity
  8
30
  6
CONTINUOUS
 62
     0
100
AcDbLine
 10
124.3875257438367
 20
550.1402904381839
 30
0.0
 11
124.3875257438366
 21
522.1402904381839
 31
0.0
  0
INSERT
  5
8866
330
8862
100
AcDbEntity
  8
30
  6
CONTINUOUS
 62
     0
100
AcDbBlockReference
  2
_OPEN
 10
124.3875257438367
 20
552.1402904381838
 30
0.0
 41
2.0
 42
2.0
 43
2.0
 50
90.0
  0
INSERT
  5
8867
330
8862
100
AcDbEntity
  8
30
  6
CONTINUOUS
 62
     0
100
AcDbBlockReference
  2
_OPEN
 10
124.3875257438366
 20
520.1402904381839
 30
0.0
 41
2.0
 42
2.0
 43
2.0
 50
270.0
  0
MTEXT
  5
8868
330
8862
100
AcDbEntity
  8
30
  6
CONTINUOUS
 62
     0
100
AcDbMText
 10
119.8875257438365
 20
536.1402904381839
 30
0.0
 40
7.0
 41
0.0
 71
     5
 72
     1
  1
\A1;32
 11
0.0000000000000001
 21
1.0
 31
0.0
1001
ACAD
1000
MTEXTBEGIN
1070
    73
1070
     1
1070
    44
1040
1.0
1070
    74
1070
     0
1000
MTEXTEND
1000
MTEXTBEGIN
1070
    73
1070
     1
1070
    44
1040
1.0
1070
    74
1070
     0
1000
MTEXTEND
  0
POINT
  5
8869
330
8862
100
AcDbEntity
  8
DEFPOINTS
  6
CONTINUOUS
 62
     0
100
AcDbPoint
 10
85.0
 20
552.1402904381838
 30
0.0
  0
POINT
  5
886A
330
8862
100
AcDbEntity
  8
DEFPOINTS
  6
CONTINUOUS
 62
     0
100
AcDbPoint
 10
85.0
 20
520.1402904381839
 30
0.0
  0
POINT
  5
886B
330
8862
100
AcDbEntity
  8
DEFPOINTS
  6
CONTINUOUS
 62
     0
100
AcDbPoint
 10
124.3875257438366
 20
520.1402904381839
 30
0.0
  0
ENDBLK
  5
886D
330
8862
100
AcDbEntity
  8
0
100
AcDbBlockEnd
  0
BLOCK
  5
8878
330
886E
100
AcDbEntity
  8
0
100
AcDbBlockBegin
  2
*D34
 70
     1
 10
0.0
 20
0.0
 30
0.0
  3
*D34
  1

  0
LINE
  5
886F
330
886E
100
AcDbEntity
  8
30
  6
CONTINUOUS
 62
     0
100
AcDbLine
 10
86.0
 20
520.1402904381839
 30
0.0
 11
124.8875257438367
 21
520.1402904381839
 31
0.0
  0
LINE
  5
8870
330
886E
100
AcDbEntity
  8
30
  6
CONTINUOUS
 62
     0
100
AcDbLine
 10
86.0
 20
512.1402904381839
 30
0.0
 11
124.8875257438367
 21
512.1402904381839
 31
0.0
  0
LINE
  5
8871
330
886E
100
AcDbEntity
  8
30
  6
CONTINUOUS
 62
     0
100
AcDbLine
 10
124.3875257438366
 20
518.1402904381839
 30
0.0
 11
124.3875257438366
 21
514.1402904381839
 31
0.0
  0
INSERT
  5
8872
330
886E
100
AcDbEntity
  8
30
  6
CONTINUOUS
 62
     0
100
AcDbBlockReference
  2
_OPEN
 10
124.3875257438366
 20
520.1402904381839
 30
0.0
 41
2.0
 42
2.0
 43
2.0
 50
90.0
  0
INSERT
  5
8873
330
886E
100
AcDbEntity
  8
30
  6
CONTINUOUS
 62
     0
100
AcDbBlockReference
  2
_OPEN
 10
124.3875257438366
 20
512.1402904381839
 30
0.0
 41
2.0
 42
2.0
 43
2.0
 50
270.0
  0
MTEXT
  5
8874
330
886E
100
AcDbEntity
  8
30
  6
CONTINUOUS
 62
     0
100
AcDbMText
 10
119.8875257438365
 20
516.1402904381839
 30
0.0
 40
7.0
 41
0.0
 71
     5
 72
     1
  1
\A1;8
 11
0.0000000000000001
 21
1.0
 31
0.0
1001
ACAD
1000
MTEXTBEGIN
1070
    73
1070
     1
1070
    44
1040
1.0
1070
    74
1070
     0
1000
MTEXTEND
1000
MTEXTBEGIN
1070
    73
1070
     1
1070
    44
1040
1.0
1070
    74
1070
     0
1000
MTEXTEND
  0
POINT
  5
8875
330
886E
100
AcDbEntity
  8
DEFPOINTS
  6
CONTINUOUS
 62
     0
100
AcDbPoint
 10
85.0
 20
520.1402904381839
 30
0.0
  0
POINT
  5
8876
330
886E
100
AcDbEntity
  8
DEFPOINTS
  6
CONTINUOUS
 62
     0
100
AcDbPoint
 10
85.0
 20
512.1402904381839
 30
0.0
  0
POINT
  5
8877
330
886E
100
AcDbEntity
  8
DEFPOINTS
  6
CONTINUOUS
 62
     0
100
AcDbPoint
 10
124.3875257438366
 20
512.1402904381839
 30
0.0
  0
ENDBLK
  5
8879
330
886E
100
AcDbEntity
  8
0
100
AcDbBlockEnd
  0
BLOCK
  5
8884
330
887A
100
AcDbEntity
  8
0
100
AcDbBlockBegin
  2
*D35
 70
     1
 10
0.0
 20
0.0
 30
0.0
  3
*D35
  1

  0
LINE
  5
887B
330
887A
100
AcDbEntity
  8
30
  6
CONTINUOUS
 62
     0
100
AcDbLine
 10
86.0
 20
512.1402904381839
 30
0.0
 11
124.8875257438367
 21
512.1402904381839
 31
0.0
  0
LINE
  5
887C
330
887A
100
AcDbEntity
  8
30
  6
CONTINUOUS
 62
     0
100
AcDbLine
 10
93.49999999999999
 20
476.1402904381839
 30
0.0
 11
124.8875257438365
 21
476.1402904381839
 31
0.0
  0
LINE
  5
887D
330
887A
100
AcDbEntity
  8
30
  6
CONTINUOUS
 62
     0
100
AcDbLine
 10
124.3875257438366
 20
510.1402904381838
 30
0.0
 11
124.3875257438366
 21
478.1402904381839
 31
0.0
  0
INSERT
  5
887E
330
887A
100
AcDbEntity
  8
30
  6
CONTINUOUS
 62
     0
100
AcDbBlockReference
  2
_OPEN
 10
124.3875257438366
 20
512.1402904381839
 30
0.0
 41
2.0
 42
2.0
 43
2.0
 50
90.0
  0
INSERT
  5
887F
330
887A
100
AcDbEntity
  8
30
  6
CONTINUOUS
 62
     0
100
AcDbBlockReference
  2
_OPEN
 10
124.3875257438366
 20
476.1402904381839
 30
0.0
 41
2.0
 42
2.0
 43
2.0
 50
270.0
  0
MTEXT
  5
8880
330
887A
100
AcDbEntity
  8
30
  6
CONTINUOUS
 62
     0
100
AcDbMText
 10
119.8875257438365
 20
494.1402904381837
 30
0.0
 40
7.0
 41
0.0
 71
     5
 72
     1
  1
\A1;36
 11
0.0000000000000001
 21
1.0
 31
0.0
1001
ACAD
1000
MTEXTBEGIN
1070
    73
1070
     1
1070
    44
1040
1.0
1070
    74
1070
     0
1000
MTEXTEND
1000
MTEXTBEGIN
1070
    73
1070
     1
1070
    44
1040
1.0
1070
    74
1070
     0
1000
MTEXTEND
  0
POINT
  5
8881
330
887A
100
AcDbEntity
  8
DEFPOINTS
  6
CONTINUOUS
 62
     0
100
AcDbPoint
 10
85.0
 20
512.1402904381839
 30
0.0
  0
POINT
  5
8882
330
887A
100
AcDbEntity
  8
DEFPOINTS
  6
CONTINUOUS
 62
     0
100
AcDbPoint
 10
92.5
 20
476.1402904381839
 30
0.0
  0
POINT
  5
8883
330
887A
100
AcDbEntity
  8
DEFPOINTS
  6
CONTINUOUS
 62
     0
100
AcDbPoint
 10
124.3875257438366
 20
476.1402904381839
 30
0.0
  0
ENDBLK
  5
8885
330
887A
100
AcDbEntity
  8
0
100
AcDbBlockEnd
  0
BLOCK
  5
889C
330
8892
100
AcDbEntity
  8
0
100
AcDbBlockBegin
  2
*D36
 70
     1
 10
0.0
 20
0.0
 30
0.0
  3
*D36
  1

  0
LINE
  5
8A4D
330
8892
100
AcDbEntity
  8
30
  6
CONTINUOUS
 62
     0
100
AcDbLine
 10
156.0
 20
495.0
 30
0.0
 11
194.8875257438365
 21
495.0
 31
0.0
  0
LINE
  5
8A4E
330
8892
100
AcDbEntity
  8
30
  6
CONTINUOUS
 62
     0
100
AcDbLine
 10
163.4999999999999
 20
459.0
 30
0.0
 11
194.8875257438365
 21
459.0
 31
0.0
  0
LINE
  5
8A4F
330
8892
100
AcDbEntity
  8
30
  6
CONTINUOUS
 62
     0
100
AcDbLine
 10
194.3875257438365
 20
493.0
 30
0.0
 11
194.3875257438365
 21
461.0
 31
0.0
  0
INSERT
  5
8A50
330
8892
100
AcDbEntity
  8
30
  6
CONTINUOUS
 62
     0
100
AcDbBlockReference
  2
_OPEN
 10
194.3875257438365
 20
495.0
 30
0.0
 41
2.0
 42
2.0
 43
2.0
 50
90.0
  0
INSERT
  5
8A51
330
8892
100
AcDbEntity
  8
30
  6
CONTINUOUS
 62
     0
100
AcDbBlockReference
  2
_OPEN
 10
194.3875257438365
 20
459.0
 30
0.0
 41
2.0
 42
2.0
 43
2.0
 50
270.0
  0
MTEXT
  5
8A52
330
8892
100
AcDbEntity
  8
30
  6
CONTINUOUS
 62
     0
100
AcDbMText
 10
188.8875257438365
 20
477.0
 30
0.0
 40
7.0
 41
0.0
 71
     5
 72
     1
  1
\A1;36
 11
0.0000000000000001
 21
1.0
 31
0.0
  0
POINT
  5
8A53
330
8892
100
AcDbEntity
  8
DEFPOINTS
  6
CONTINUOUS
 62
     0
100
AcDbPoint
 10
155.0
 20
495.0
 30
0.0
  0
POINT
  5
8A54
330
8892
100
AcDbEntity
  8
DEFPOINTS
  6
CONTINUOUS
 62
     0
100
AcDbPoint
 10
162.5
 20
459.0
 30
0.0
  0
POINT
  5
8A55
330
8892
100
AcDbEntity
  8
DEFPOINTS
  6
CONTINUOUS
 62
     0
100
AcDbPoint
 10
194.3875257438365
 20
459.0
 30
0.0
  0
ENDBLK
  5
889D
330
8892
100
AcDbEntity
  8
0
100
AcDbBlockEnd
  0
BLOCK
  5
88AA
330
889E
100
AcDbEntity
  8
0
100
AcDbBlockBegin
  2
*D37
 70
     1
 10
0.0
 20
0.0
 30
0.0
  3
*D37
  1

  0
LINE
  5
8A56
330
889E
100
AcDbEntity
  8
30
  6
CONTINUOUS
 62
     0
100
AcDbLine
 10
156.0
 20
503.0
 30
0.0
 11
194.8875257438366
 21
503.0
 31
0.0
  0
LINE
  5
8A57
330
889E
100
AcDbEntity
  8
30
  6
CONTINUOUS
 62
     0
100
AcDbLine
 10
156.0
 20
495.0
 30
0.0
 11
194.8875257438366
 21
495.0
 31
0.0
  0
LINE
  5
8A58
330
889E
100
AcDbEntity
  8
30
  6
CONTINUOUS
 62
     0
100
AcDbLine
 10
194.3875257438366
 20
501.0
 30
0.0
 11
194.3875257438366
 21
497.0
 31
0.0
  0
MTEXT
  5
8A59
330
889E
100
AcDbEntity
  8
30
  6
CONTINUOUS
 62
     0
100
AcDbMText
 10
188.8875257438366
 20
499.0
 30
0.0
 40
7.0
 41
0.0
 71
     5
 72
     1
  1
\A1;8
 11
0.0000000000000001
 21
1.0
 31
0.0
  0
INSERT
  5
8A5A
330
889E
100
AcDbEntity
  8
30
  6
CONTINUOUS
 62
     0
100
AcDbBlockReference
  2
_OPEN
 10
194.3875257438366
 20
503.0
 30
0.0
 41
2.0
 42
2.0
 43
2.0
 50
90.0
  0
INSERT
  5
8A5B
330
889E
100
AcDbEntity
  8
30
  6
CONTINUOUS
 62
     0
100
AcDbBlockReference
  2
_OPEN
 10
194.3875257438366
 20
495.0
 30
0.0
 41
2.0
 42
2.0
 43
2.0
 50
270.0
  0
POINT
  5
8A5C
330
889E
100
AcDbEntity
  8
DEFPOINTS
  6
CONTINUOUS
 62
     0
100
AcDbPoint
 10
155.0
 20
503.0
 30
0.0
  0
POINT
  5
8A5D
330
889E
100
AcDbEntity
  8
DEFPOINTS
  6
CONTINUOUS
 62
     0
100
AcDbPoint
 10
155.0
 20
495.0
 30
0.0
  0
POINT
  5
8A5E
330
889E
100
AcDbEntity
  8
DEFPOINTS
  6
CONTINUOUS
 62
     0
100
AcDbPoint
 10
194.3875257438366
 20
495.0
 30
0.0
  0
ENDBLK
  5
88AB
330
889E
100
AcDbEntity
  8
0
100
AcDbBlockEnd
  0
BLOCK
  5
88B6
330
88AC
100
AcDbEntity
  8
0
100
AcDbBlockBegin
  2
*D38
 70
     1
 10
0.0
 20
0.0
 30
0.0
  3
*D38
  1

  0
LINE
  5
8A5F
330
88AC
100
AcDbEntity
  8
30
  6
CONTINUOUS
 62
     0
100
AcDbLine
 10
156.0
 20
535.0
 30
0.0
 11
194.8875257438366
 21
535.0
 31
0.0
  0
LINE
  5
8A60
330
88AC
100
AcDbEntity
  8
30
  6
CONTINUOUS
 62
     0
100
AcDbLine
 10
156.0
 20
503.0
 30
0.0
 11
194.8875257438366
 21
503.0
 31
0.0
  0
LINE
  5
8A61
330
88AC
100
AcDbEntity
  8
30
  6
CONTINUOUS
 62
     0
100
AcDbLine
 10
194.3875257438366
 20
533.0
 30
0.0
 11
194.3875257438366
 21
505.0
 31
0.0
  0
INSERT
  5
8A62
330
88AC
100
AcDbEntity
  8
30
  6
CONTINUOUS
 62
     0
100
AcDbBlockReference
  2
_OPEN
 10
194.3875257438366
 20
535.0
 30
0.0
 41
2.0
 42
2.0
 43
2.0
 50
90.0
  0
INSERT
  5
8A63
330
88AC
100
AcDbEntity
  8
30
  6
CONTINUOUS
 62
     0
100
AcDbBlockReference
  2
_OPEN
 10
194.3875257438366
 20
503.0
 30
0.0
 41
2.0
 42
2.0
 43
2.0
 50
270.0
  0
MTEXT
  5
8A64
330
88AC
100
AcDbEntity
  8
30
  6
CONTINUOUS
 62
     0
100
AcDbMText
 10
188.8875257438366
 20
519.0
 30
0.0
 40
7.0
 41
0.0
 71
     5
 72
     1
  1
\A1;32
 11
0.0000000000000001
 21
1.0
 31
0.0
  0
POINT
  5
8A65
330
88AC
100
AcDbEntity
  8
DEFPOINTS
  6
CONTINUOUS
 62
     0
100
AcDbPoint
 10
155.0
 20
535.0
 30
0.0
  0
POINT
  5
8A66
330
88AC
100
AcDbEntity
  8
DEFPOINTS
  6
CONTINUOUS
 62
     0
100
AcDbPoint
 10
155.0
 20
503.0
 30
0.0
  0
POINT
  5
8A67
330
88AC
100
AcDbEntity
  8
DEFPOINTS
  6
CONTINUOUS
 62
     0
100
AcDbPoint
 10
194.3875257438366
 20
503.0
 30
0.0
  0
ENDBLK
  5
88B7
330
88AC
100
AcDbEntity
  8
0
100
AcDbBlockEnd
  0
BLOCK
  5
88C2
330
88B8
100
AcDbEntity
  8
0
100
AcDbBlockBegin
  2
*D39
 70
     1
 10
0.0
 20
0.0
 30
0.0
  3
*D39
  1

  0
LINE
  5
88E1
330
88B8
100
AcDbEntity
  8
30
  6
CONTINUOUS
 62
     0
100
AcDbLine
 10
163.4999999999999
 20
550.0
 30
0.0
 11
194.8875257438365
 21
550.0
 31
0.0
  0
LINE
  5
88E2
330
88B8
100
AcDbEntity
  8
30
  6
CONTINUOUS
 62
     0
100
AcDbLine
 10
156.0
 20
535.0
 30
0.0
 11
194.8875257438365
 21
535.0
 31
0.0
  0
LINE
  5
88E3
330
88B8
100
AcDbEntity
  8
30
  6
CONTINUOUS
 62
     0
100
AcDbLine
 10
194.3875257438366
 20
548.0
 30
0.0
 11
194.3875257438366
 21
537.0
 31
0.0
  0
INSERT
  5
88E4
330
88B8
100
AcDbEntity
  8
30
  6
CONTINUOUS
 62
     0
100
AcDbBlockReference
  2
_OPEN
 10
194.3875257438366
 20
550.0
 30
0.0
 41
2.0
 42
2.0
 43
2.0
 50
90.0
  0
INSERT
  5
88E5
330
88B8
100
AcDbEntity
  8
30
  6
CONTINUOUS
 62
     0
100
AcDbBlockReference
  2
_OPEN
 10
194.3875257438366
 20
535.0
 30
0.0
 41
2.0
 42
2.0
 43
2.0
 50
270.0
  0
MTEXT
  5
88E6
330
88B8
100
AcDbEntity
  8
30
  6
CONTINUOUS
 62
     0
100
AcDbMText
 10
188.8875257438366
 20
542.4999999999998
 30
0.0
 40
7.0
 41
0.0
 71
     5
 72
     1
  1
\A1;15
 11
0.0000000000000001
 21
1.0
 31
0.0
1001
ACAD
1000
MTEXTBEGIN
1070
    73
1070
     1
1070
    44
1040
1.0
1070
    74
1070
     0
1000
MTEXTEND
1000
MTEXTBEGIN
1070
    73
1070
     1
1070
    44
1040
1.0
1070
    74
1070
     0
1000
MTEXTEND
  0
POINT
  5
88E7
330
88B8
100
AcDbEntity
  8
DEFPOINTS
  6
CONTINUOUS
 62
     0
100
AcDbPoint
 10
162.5
 20
550.0
 30
0.0
  0
POINT
  5
88E8
330
88B8
100
AcDbEntity
  8
DEFPOINTS
  6
CONTINUOUS
 62
     0
100
AcDbPoint
 10
155.0
 20
535.0
 30
0.0
  0
POINT
  5
88E9
330
88B8
100
AcDbEntity
  8
DEFPOINTS
  6
CONTINUOUS
 62
     0
100
AcDbPoint
 10
194.3875257438366
 20
535.0
 30
0.0
  0
ENDBLK
  5
88C3
330
88B8
100
AcDbEntity
  8
0
100
AcDbBlockEnd
  0
ENDSEC
  0
SECTION
  2
ENTITIES
  0
LINE
  5
B5
330
1E
100
AcDbEntity
  8
16
100
AcDbLine
 10
257.6361914121166
 20
0.0000000000000107
 30
0.0
 11
-145.0
 21
0.0
 31
0.0
  0
MTEXT
  5
BF3
330
1E
100
AcDbEntity
  8
24
  6
CONTINUOUS
100
AcDbMText
 10
142.1181906098743
 20
177.5
 30
0.0
 40
3.0
 41
0.0
 71
     1
 72
     1
  1
\A1;
1001
ACAD
1000
MTEXTBEGIN
1070
    73
1070
     1
1070
    44
1040
1.0
1070
    74
1070
     0
1000
MTEXTEND
1000
MTEXTBEGIN
1070
    73
1070
     1
1070
    44
1040
1.0
1070
    74
1070
     0
1000
MTEXTEND
  0
LINE
  5
1C9A
330
1E
100
AcDbEntity
  8
16
100
AcDbLine
 10
0.0
 20
249.4180221072451
 30
0.0
 11
0.0
 21
486.0
 31
0.0
  0
LINE
  5
1C9B
330
1E
100
AcDbEntity
  8
16
100
AcDbLine
 10
625.0
 20
0.0
 30
0.0
 11
332.0942166693739
 21
0.0
 31
0.0
  0
LINE
  5
2233
330
1E
100
AcDbEntity
  8
16
100
AcDbLine
 10
395.0
 20
-793.1306816323568
 30
0.0
 11
395.0
 21
-371.5602850821105
 31
0.0
  0
LINE
  5
2234
330
1E
100
AcDbEntity
  8
16
100
AcDbLine
 10
597.1634296945397
 20
-601.0
 30
0.0
 11
293.1043600603313
 21
-601.0
 31
0.0
  0
LINE
  5
2260
330
1E
100
AcDbEntity
  8
16
100
AcDbLine
 10
202.1634296945399
 20
-601.0
 30
0.0
 11
-166.0
 21
-601.0
 31
0.0
  0
LINE
  5
2261
330
1E
100
AcDbEntity
  8
16
100
AcDbLine
 10
0.0
 20
-791.5926135610889
 30
0.0
 11
0.0
 21
-375.8062147299115
 31
0.0
  0
CIRCLE
  5
6A29
330
1E
100
AcDbEntity
  8
12
100
AcDbCircle
 10
35.0
 20
-754.9997558592999
 30
0.0
 40
4.5
  0
CIRCLE
  5
6A2A
330
1E
100
AcDbEntity
  8
12
100
AcDbCircle
 10
-35.0
 20
-754.9997558592999
 30
0.0
 40
4.5
  0
LINE
  5
6A2B
330
1E
100
AcDbEntity
  8
12
100
AcDbLine
 10
-50.0
 20
-754.9997558592999
 30
0.0
 11
-20.0
 21
-754.9997558592999
 31
0.0
  0
CIRCLE
  5
6A37
330
1E
100
AcDbEntity
  8
12
100
AcDbCircle
 10
35.0
 20
-417.0
 30
0.0
 40
4.5
  0
LINE
  5
6A38
330
1E
100
AcDbEntity
  8
12
100
AcDbLine
 10
-50.0
 20
-417.0
 30
0.0
 11
-20.0
 21
-417.0
 31
0.0
  0
LINE
  5
6A39
330
1E
100
AcDbEntity
  8
12
100
AcDbLine
 10
-35.0
 20
-401.9997558592998
 30
0.0
 11
-35.0
 21
-432.0
 31
0.0
  0
CIRCLE
  5
6A3A
330
1E
100
AcDbEntity
  8
12
100
AcDbCircle
 10
-35.0
 20
-417.0
 30
0.0
 40
4.5
  0
LINE
  5
6A3B
330
1E
100
AcDbEntity
  8
12
100
AcDbLine
 10
35.0
 20
-401.9997558592998
 30
0.0
 11
35.0
 21
-432.0
 31
0.0
  0
LWPOLYLINE
  5
6ED0
330
1E
100
AcDbEntity
  8
18
100
AcDbPolyline
 90
        4
 70
     1
 43
0.0
 10
-104.9997558594004
 20
-770.9997558592999
 10
-104.9997558594004
 20
-400.9997558592998
 10
175.0
 20
-400.9997558592998
 10
175.0
 20
-770.9997558592999
  0
LINE
  5
6ED1
330
1E
100
AcDbEntity
  8
12
100
AcDbLine
 10
35.0
 20
-401.9997558592998
 30
0.0
 11
35.0
 21
-432.0
 31
0.0
  0
LINE
  5
6ED2
330
1E
100
AcDbEntity
  8
12
100
AcDbLine
 10
-35.0
 20
-739.9995117185997
 30
0.0
 11
-35.0
 21
-769.9997558593
 31
0.0
  0
LINE
  5
6ED3
330
1E
100
AcDbEntity
  8
12
100
AcDbLine
 10
35.0
 20
-739.9995117185997
 30
0.0
 11
35.0
 21
-769.9997558593
 31
0.0
  0
LINE
  5
6ED4
330
1E
100
AcDbEntity
  8
12
100
AcDbLine
 10
20.0
 20
-754.9997558592999
 30
0.0
 11
50.0
 21
-754.9997558592999
 31
0.0
  0
TEXT
  5
6ED5
330
1E
100
AcDbEntity
  8
30
  6
CONTINUOUS
100
AcDbText
 10
59.73704305844647
 20
-725.4473330673579
 30
0.0
 40
7.0
  1
%%C9
100
AcDbText
  0
LEADER
  5
6ED6
330
1E
100
AcDbEntity
  8
30
  6
CONTINUOUS
100
AcDbLeader
  3
STANDARD
 76
     3
 10
37.99768925567889
 20
-749.9416939150058
 30
0.0
 10
47.75154943503184
 20
-725.7265809280353
 30
0.0
 10
78.52425257157769
 20
-725.7829347399749
 30
0.0
1001
ACAD
1000
DSTYLE
1002
{
1070
     5
1000
OPEN
1070
   342
1005
3B2
1002
}
  0
DIMENSION
  5
6F52
330
1E
100
AcDbEntity
  8
30
  6
CONTINUOUS
100
AcDbDimension
  2
*D1
 10
-168.5802577009398
 20
-601.0
 30
0.0
 11
-174.0802577009396
 21
-509.0
 31
0.0
 70
    32
  3
STANDARD
100
AcDbAlignedDimension
 13
-50.0
 23
-417.0
 33
0.0
 14
-166.0
 24
-601.0
 34
0.0
 50
90.0
100
AcDbRotatedDimension
  0
DIMENSION
  5
6F5F
330
1E
100
AcDbEntity
  8
30
  6
CONTINUOUS
100
AcDbDimension
  2
*D2
 10
-168.5802577009398
 20
-754.9997558592999
 30
0.0
 11
-174.0802577009396
 21
-677.99987792965
 31
0.0
 70
    32
  3
STANDARD
100
AcDbAlignedDimension
 13
-166.0
 23
-601.0
 33
0.0
 14
-50.0
 24
-754.9997558592999
 34
0.0
 50
90.0
100
AcDbRotatedDimension
1001
ACAD
1000
DSTYLE
1002
{
1070
   287
1070
     4
1070
   287
1070
     4
1070
   287
1070
     4
1070
   287
1070
     4
1070
   287
1070
     4
1070
   279
1070
     1
1002
}
  0
DIMENSION
  5
6F6C
330
1E
100
AcDbEntity
  8
30
  6
CONTINUOUS
100
AcDbDimension
  2
*D3
 10
35.0
 20
-810.4423648938418
 30
0.0
 11
0.0000000000000003
 21
-804.9423648938414
 31
0.0
 70
    32
  3
STANDARD
100
AcDbAlignedDimension
 13
-35.0
 23
-769.9997558593
 33
0.0
 14
35.0
 24
-769.9997558593
 34
0.0
100
AcDbRotatedDimension
  0
LINE
  5
73FF
330
1E
100
AcDbEntity
  8
12
100
AcDbLine
 10
20.0
 20
-417.0
 30
0.0
 11
50.0
 21
-417.0
 31
0.0
  0
LINE
  5
7514
330
1E
100
AcDbEntity
  8
16
100
AcDbLine
 10
0.0
 20
-225.5943258971377
 30
0.0
 11
0.0
 21
223.9297673754971
 31
0.0
  0
MTEXT
  5
7672
330
1E
100
AcDbEntity
  8
30
  6
CONTINUOUS
100
AcDbMText
 10
698.8165228534861
 20
111.6657616031319
 30
0.0
 40
5.0
 41
0.0
 71
     6
 72
     1
  1
\A1; 
1001
ACAD
1000
MTEXTBEGIN
1070
    73
1070
     1
1070
    44
1040
1.0
1070
    74
1070
     0
1000
MTEXTEND
1000
MTEXTBEGIN
1070
    73
1070
     1
1070
    44
1040
1.0
1070
    74
1070
     0
1000
MTEXTEND
  0
MTEXT
  5
7722
330
1E
100
AcDbEntity
  8
19
  6
CONTINUOUS
100
AcDbMText
 10
365.0823807484903
 20
510.1930320279293
 30
0.0
 40
7.0
 41
94.0
 71
     1
 72
     5
  1
XS1000NE 4P RC\PXS1200NE 4P RC\PXH1000NE 4P RC\PXH1200NE 4P RC
  7
STANDARD1
1001
ACAD
1000
MTEXTBEGIN
1070
    73
1070
     1
1070
    44
1040
1.0
1070
    74
1070
     0
1000
MTEXTEND
1000
MTEXTBEGIN
1070
    73
1070
     1
1070
    44
1040
1.0
1070
    74
1070
     0
1000
MTEXTEND
  0
LINE
  5
7967
330
1E
100
AcDbEntity
  8
10
  6
CONTINUOUS
100
AcDbLine
 10
-104.99993896485
 20
-115.5
 30
0.0
 11
174.99993896488
 21
-115.5
 31
0.0
  0
LINE
  5
7968
330
1E
100
AcDbEntity
  8
10
  6
CONTINUOUS
100
AcDbLine
 10
-104.99993896485
 20
-57.5
 30
0.0
 11
174.99993896488
 21
-57.5
 31
0.0
  0
LINE
  5
7969
330
1E
100
AcDbEntity
  8
10
  6
CONTINUOUS
100
AcDbLine
 10
174.99993896488
 20
-140.0
 30
0.0
 11
-104.99993896485
 21
-140.0
 31
0.0
  0
LINE
  5
796A
330
1E
100
AcDbEntity
  8
10
  6
CONTINUOUS
100
AcDbLine
 10
174.99993896488
 20
170.0
 30
0.0
 11
-104.99993896485
 21
170.0
 31
0.0
  0
CIRCLE
  5
796C
330
1E
100
AcDbEntity
  8
12
  6
DASHED
100
AcDbCircle
 10
35.00006103515998
 20
-154.0
 30
0.0
 40
8.5
  0
CIRCLE
  5
796D
330
1E
100
AcDbEntity
  8
12
  6
DASHED
100
AcDbCircle
 10
-35.0
 20
-154.0
 30
0.0
 40
8.5
  0
LINE
  5
796E
330
1E
100
AcDbEntity
  8
12
  6
DASHED
100
AcDbLine
 10
35.00006103515998
 20
-139.0
 30
0.0
 11
35.00006103515998
 21
-169.0
 31
0.0
  0
LINE
  5
796F
330
1E
100
AcDbEntity
  8
12
  6
DASHED
100
AcDbLine
 10
-35.0
 20
-139.0
 30
0.0
 11
-35.0
 21
-169.0
 31
0.0
  0
LINE
  5
7970
330
1E
100
AcDbEntity
  8
12
  6
DASHED
100
AcDbLine
 10
-50.0
 20
-154.0
 30
0.0
 11
-20.0
 21
-154.0
 31
0.0
  0
LINE
  5
7971
330
1E
100
AcDbEntity
  8
12
  6
DASHED
100
AcDbLine
 10
20.00006103516
 20
-154.0
 30
0.0
 11
50.00006103518
 21
-154.0
 31
0.0
  0
LINE
  5
797A
330
1E
100
AcDbEntity
  8
12
  6
DASHED
100
AcDbLine
 10
-35.0
 20
169.0
 30
0.0
 11
-35.0
 21
199.0
 31
0.0
  0
CIRCLE
  5
797B
330
1E
100
AcDbEntity
  8
12
  6
DASHED
100
AcDbCircle
 10
-35.0
 20
184.0
 30
0.0
 40
8.5
  0
LINE
  5
797C
330
1E
100
AcDbEntity
  8
12
  6
DASHED
100
AcDbLine
 10
-50.0
 20
184.0
 30
0.0
 11
-20.0
 21
184.0
 31
0.0
  0
LINE
  5
797D
330
1E
100
AcDbEntity
  8
12
  6
DASHED
100
AcDbLine
 10
20.00006103516
 20
184.0
 30
0.0
 11
50.00006103518
 21
184.0
 31
0.0
  0
CIRCLE
  5
797E
330
1E
100
AcDbEntity
  8
12
  6
DASHED
100
AcDbCircle
 10
35.00006103515998
 20
184.0
 30
0.0
 40
8.5
  0
LINE
  5
797F
330
1E
100
AcDbEntity
  8
12
  6
DASHED
100
AcDbLine
 10
35.00006103515998
 20
169.0
 30
0.0
 11
35.00006103515998
 21
199.0
 31
0.0
  0
LWPOLYLINE
  5
7985
330
1E
100
AcDbEntity
  8
10
  6
CONTINUOUS
100
AcDbPolyline
 90
        4
 70
     1
 43
0.0
 10
174.99993896488
 20
-170.0
 10
-104.99993896485
 20
-170.0
 10
-104.99993896485
 20
200.0
 10
174.99993896488
 20
200.0
  0
LWPOLYLINE
  5
7989
330
1E
100
AcDbEntity
  8
10
  6
CONTINUOUS
100
AcDbPolyline
 90
        4
 70
     1
 43
0.0
 10
39.00006103515999
 20
-47.5
 10
-39.0
 20
-47.5
 10
-39.0
 20
47.5
 10
39.00006103515999
 20
47.5
  0
LWPOLYLINE
  5
798D
330
1E
100
AcDbEntity
  8
10
  6
CONTINUOUS
100
AcDbPolyline
 90
        4
 70
     1
 43
0.0
 10
22.50006103516
 20
-23.0
 10
-22.5
 20
-23.0
 10
-22.5
 20
32.0
 10
22.50006103516
 20
32.0
  0
DIMENSION
  5
7991
330
1E
100
AcDbEntity
  8
30
  6
CONTINUOUS
100
AcDbDimension
  2
*D6
 10
233.9083041793778
 20
-169.9997558592999
 30
0.0
 11
228.4083041793778
 21
15.0002441407001
 31
0.0
 70
    32
  3
STANDARD
100
AcDbAlignedDimension
 13
174.99993896488
 23
200.0002441407001
 33
0.0
 14
174.99993896488
 24
-169.9997558592999
 34
0.0
 50
90.0
100
AcDbRotatedDimension
  0
DIMENSION
  5
7992
330
1E
100
AcDbEntity
  8
30
  6
CONTINUOUS
100
AcDbDimension
  2
*D5
 10
214.8585588512718
 20
-169.9997558592999
 30
0.0
 11
209.3585588512718
 21
-84.99975585929989
 31
0.0
 70
    32
  3
STANDARD
100
AcDbAlignedDimension
 13
174.99993896488
 23
0.0002441407000902
 33
0.0
 14
175.9999389648799
 24
-169.9997558592999
 34
0.0
 50
90.0
100
AcDbRotatedDimension
1001
ACAD
1000
DSTYLE
1002
{
1070
   287
1070
     4
1070
   287
1070
     4
1070
   287
1070
     4
1070
   287
1070
     4
1070
   287
1070
     4
1070
   279
1070
     1
1002
}
  0
DIMENSION
  5
7993
330
1E
100
AcDbEntity
  8
30
  6
CONTINUOUS
100
AcDbDimension
  2
*D4
 10
214.8585588512718
 20
0.0002441407000789
 30
0.0
 11
209.3585588512718
 21
100.0002441407001
 31
0.0
 70
    32
  3
STANDARD
100
AcDbAlignedDimension
 13
175.9999389648799
 23
200.0002441407001
 33
0.0
 14
174.99993896488
 24
0.0002441407000902
 34
0.0
 50
90.0
100
AcDbRotatedDimension
1001
ACAD
1000
DSTYLE
1002
{
1070
   287
1070
     4
1070
   287
1070
     4
1070
   287
1070
     4
1070
   287
1070
     4
1070
   287
1070
     4
1070
   279
1070
     1
1002
}
  0
DIMENSION
  5
7B02
330
1E
100
AcDbEntity
  8
30
  6
CONTINUOUS
100
AcDbDimension
  2
*D7
 10
672.4278962586224
 20
138.0
 30
0.0
 11
679.0945629252892
 21
157.1347692395738
 31
0.0
 70
   160
  1
12
  3
STANDARD
100
AcDbAlignedDimension
 13
618.0
 23
150.0
 33
0.0
 14
618.0
 24
138.0
 34
0.0
 50
270.0
100
AcDbRotatedDimension
  0
LINE
  5
7B04
330
1E
100
AcDbEntity
  8
24
  6
CONTINOUS
100
AcDbLine
 10
563.0
 20
123.0
 30
0.0
 11
563.0
 21
165.0
 31
0.0
  0
LINE
  5
7B05
330
1E
100
AcDbEntity
  8
24
  6
CONTINOUS
100
AcDbLine
 10
571.0
 20
165.0
 30
0.0
 11
571.0
 21
123.0
 31
0.0
  0
LINE
  5
7B06
330
1E
100
AcDbEntity
  8
24
  6
CONTINOUS
100
AcDbLine
 10
603.0
 20
165.0
 30
0.0
 11
603.0
 21
123.0
 31
0.0
  0
LINE
  5
7B07
330
1E
100
AcDbEntity
  8
21
100
AcDbLine
 10
618.0
 20
150.0
 30
0.0
 11
618.0
 21
138.0
 31
0.0
  0
LINE
  5
7B08
330
1E
100
AcDbEntity
  8
18
100
AcDbLine
 10
516.0
 20
-220.0
 30
0.0
 11
516.0
 21
250.0004882811999
 31
0.0
  0
CIRCLE
  5
7B0A
330
1E
100
AcDbEntity
  8
18
100
AcDbCircle
 10
286.1921027274966
 20
57.80023059830863
 30
0.0
 40
20.0000000000001
  0
LINE
  5
7B0B
330
1E
100
AcDbEntity
  8
12
  6
DASHED
100
AcDbLine
 10
523.0
 20
-163.0
 30
0.0
 11
523.0
 21
-145.0
 31
0.0
  0
LINE
  5
7B0E
330
1E
100
AcDbEntity
  8
12
  6
DASHED
100
AcDbLine
 10
525.0
 20
-158.0
 30
0.0
 11
525.0
 21
-150.0
 31
0.0
  0
LINE
  5
7B0F
330
1E
100
AcDbEntity
  8
18
100
AcDbLine
 10
507.0
 20
-170.0
 30
0.0
 11
507.0
 21
-220.0
 31
0.0
  0
LINE
  5
7B10
330
1E
100
AcDbEntity
  8
18
100
AcDbLine
 10
516.0
 20
-220.0
 30
0.0
 11
507.0
 21
-220.0
 31
0.0
  0
LINE
  5
7B11
330
1E
100
AcDbEntity
  8
12
  6
DASHED
100
AcDbLine
 10
523.0
 20
-163.0
 30
0.0
 11
516.0
 21
-163.0
 31
0.0
  0
LINE
  5
7B12
330
1E
100
AcDbEntity
  8
12
  6
DASHED
100
AcDbLine
 10
525.0
 20
-158.0
 30
0.0
 11
516.0
 21
-158.0
 31
0.0
  0
LINE
  5
7B13
330
1E
100
AcDbEntity
  8
12
  6
DASHED
100
AcDbLine
 10
516.0
 20
-150.0
 30
0.0
 11
525.0
 21
-150.0
 31
0.0
  0
LINE
  5
7B14
330
1E
100
AcDbEntity
  8
12
  6
DASHED
100
AcDbLine
 10
492.0
 20
-154.0
 30
0.0
 11
537.0
 21
-154.0
 31
0.0
  0
DIMENSION
  5
7B2A
330
1E
100
AcDbEntity
  8
30
  6
CONTINUOUS
100
AcDbDimension
  2
*D8
 10
665.0
 20
-13.4052734375
 30
0.0
 11
592.7105263157893
 21
-13.4052734375
 31
0.0
 70
   160
  3
STANDARD
100
AcDbAlignedDimension
 13
525.0
 23
-149.9064941407
 33
0.0
 14
665.0
 24
-88.90649414070002
 34
0.0
100
AcDbRotatedDimension
  0
LINE
  5
7B2B
330
1E
100
AcDbEntity
  8
18
100
AcDbLine
 10
665.0
 20
-139.0
 30
0.0
 11
516.0
 21
-139.0
 31
0.0
  0
LINE
  5
7B2C
330
1E
100
AcDbEntity
  8
18
100
AcDbLine
 10
665.0
 20
-89.0
 30
0.0
 11
516.0
 21
-89.0
 31
0.0
  0
CIRCLE
  5
7B2D
330
1E
100
AcDbEntity
  8
24
  6
CONTINOUS
100
AcDbCircle
 10
600.0
 20
-114.0
 30
0.0
 40
6.5
  0
LINE
  5
7B2E
330
1E
100
AcDbEntity
  8
21
100
AcDbLine
 10
615.0
 20
-136.4999999999999
 30
0.0
 11
507.0
 21
-136.4999999999999
 31
0.0
  0
LINE
  5
7B2F
330
1E
100
AcDbEntity
  8
21
100
AcDbLine
 10
507.0
 20
-91.5
 30
0.0
 11
615.0
 21
-91.5
 31
0.0
  0
LINE
  5
7B30
330
1E
100
AcDbEntity
  8
18
100
AcDbLine
 10
550.0
 20
-142.5
 30
0.0
 11
516.0
 21
-142.5
 31
0.0
  0
LINE
  5
7B31
330
1E
100
AcDbEntity
  8
18
100
AcDbLine
 10
550.0
 20
-141.5
 30
0.0
 11
516.0
 21
-141.5
 31
0.0
  0
LINE
  5
7B32
330
1E
100
AcDbEntity
  8
12
  6
DASHED
100
AcDbLine
 10
516.0
 20
-145.0
 30
0.0
 11
523.0
 21
-145.0
 31
0.0
  0
ARC
  5
7B33
330
1E
100
AcDbEntity
  8
24
  6
CONTINOUS
100
AcDbCircle
 10
560.0
 20
-114.0
 30
0.0
 40
6.5
100
AcDbArc
 50
90.0
 51
270.0
  0
LINE
  5
7B34
330
1E
100
AcDbEntity
  8
18
100
AcDbLine
 10
550.0
 20
-141.5
 30
0.0
 11
550.0
 21
-142.5
 31
0.0
  0
LINE
  5
7B35
330
1E
100
AcDbEntity
  8
24
  6
CONTINOUS
100
AcDbLine
 10
568.0
 20
-107.4999999999999
 30
0.0
 11
560.0
 21
-107.4999999999999
 31
0.0
  0
LINE
  5
7B36
330
1E
100
AcDbEntity
  8
24
  6
CONTINOUS
100
AcDbLine
 10
568.0
 20
-120.5
 30
0.0
 11
560.0
 21
-120.5
 31
0.0
  0
ARC
  5
7B37
330
1E
100
AcDbEntity
  8
24
  6
CONTINOUS
100
AcDbCircle
 10
568.0
 20
-114.0
 30
0.0
 40
6.5
100
AcDbArc
 50
270.0
 51
90.0
  0
LINE
  5
7B38
330
1E
100
AcDbEntity
  8
24
  6
CONTINOUS
100
AcDbLine
 10
560.0
 20
-129.0
 30
0.0
 11
560.0
 21
-99.0
 31
0.0
  0
LINE
  5
7B39
330
1E
100
AcDbEntity
  8
24
  6
CONTINOUS
100
AcDbLine
 10
568.0
 20
-99.0
 30
0.0
 11
568.0
 21
-129.0
 31
0.0
  0
LINE
  5
7B3A
330
1E
100
AcDbEntity
  8
24
  6
CONTINOUS
100
AcDbLine
 10
600.0
 20
-129.0
 30
0.0
 11
600.0
 21
-99.0
 31
0.0
  0
LINE
  5
7B3B
330
1E
100
AcDbEntity
  8
21
100
AcDbLine
 10
615.0
 20
-91.5
 30
0.0
 11
615.0
 21
-136.4999999999999
 31
0.0
  0
LINE
  5
7B3C
330
1E
100
AcDbEntity
  8
18
100
AcDbLine
 10
665.0
 20
-89.0
 30
0.0
 11
665.0
 21
-139.0
 31
0.0
  0
LINE
  5
7B3D
330
1E
100
AcDbEntity
  8
21
100
AcDbLine
 10
618.0
 20
138.0
 30
0.0
 11
507.0
 21
138.0
 31
0.0
  0
LINE
  5
7B41
330
1E
100
AcDbEntity
  8
21
100
AcDbLine
 10
618.0
 20
150.0
 30
0.0
 11
507.0
 21
150.0
 31
0.0
  0
LINE
  5
7B42
330
1E
100
AcDbEntity
  8
18
100
AcDbLine
 10
507.0
 20
250.0004882811999
 30
0.0
 11
507.0
 21
200.0004882811999
 31
0.0
  0
LINE
  5
7B43
330
1E
100
AcDbEntity
  8
12
  6
DASHED
100
AcDbLine
 10
547.0
 20
184.0
 30
0.0
 11
492.0
 21
184.0
 31
0.0
  0
LINE
  5
7B44
330
1E
100
AcDbEntity
  8
18
100
AcDbLine
 10
544.0
 20
166.5
 30
0.0
 11
507.0
 21
166.5
 31
0.0
  0
LINE
  5
7B45
330
1E
100
AcDbEntity
  8
18
100
AcDbLine
 10
544.0
 20
167.5
 30
0.0
 11
544.0
 21
166.5
 31
0.0
  0
LINE
  5
7B46
330
1E
100
AcDbEntity
  8
18
100
AcDbLine
 10
544.0
 20
167.5
 30
0.0
 11
507.0
 21
167.5
 31
0.0
  0
LINE
  5
7B47
330
1E
100
AcDbEntity
  8
12
  6
DASHED
100
AcDbLine
 10
528.0
 20
180.0
 30
0.0
 11
516.0
 21
180.0
 31
0.0
  0
LINE
  5
7B48
330
1E
100
AcDbEntity
  8
12
  6
DASHED
100
AcDbLine
 10
516.0
 20
188.0
 30
0.0
 11
528.0
 21
188.0
 31
0.0
  0
LINE
  5
7B49
330
1E
100
AcDbEntity
  8
12
  6
DASHED
100
AcDbLine
 10
528.0
 20
188.0
 30
0.0
 11
528.0
 21
180.0
 31
0.0
  0
LINE
  5
7B4A
330
1E
100
AcDbEntity
  8
12
  6
DASHED
100
AcDbLine
 10
526.0
 20
193.0
 30
0.0
 11
526.0
 21
175.0
 31
0.0
  0
LINE
  5
7B4B
330
1E
100
AcDbEntity
  8
12
  6
DASHED
100
AcDbLine
 10
516.0
 20
193.0
 30
0.0
 11
526.0
 21
193.0
 31
0.0
  0
LINE
  5
7B4C
330
1E
100
AcDbEntity
  8
12
  6
DASHED
100
AcDbLine
 10
516.0
 20
175.0
 30
0.0
 11
526.0
 21
175.0
 31
0.0
  0
LINE
  5
7B4D
330
1E
100
AcDbEntity
  8
18
100
AcDbLine
 10
516.0
 20
250.0004882811999
 30
0.0
 11
507.0
 21
250.0004882811999
 31
0.0
  0
DIMENSION
  5
7B4F
330
1E
100
AcDbEntity
  8
30
  6
CONTINUOUS
100
AcDbDimension
  2
*D9
 10
709.3317372340639
 20
-114.0
 30
0.0
 11
709.3317372340639
 21
13.69736768341681
 31
0.0
 70
   160
  1
258
  3
STANDARD
100
AcDbAlignedDimension
 13
498.0936279297
 23
144.0
 33
0.0
 14
497.1733398437
 24
-114.0
 34
0.0
 50
270.0
100
AcDbRotatedDimension
  0
LWPOLYLINE
  5
7BBA
330
1E
100
AcDbEntity
  8
10
  6
CONTINUOUS
100
AcDbPolyline
 90
        8
 70
     1
 43
0.0
 10
395.0
 20
170.0002441406
 10
387.0
 20
170.0002441406
 10
387.0
 20
-140.0
 10
395.0
 20
-140.0
 10
395.0
 20
-170.0
 10
507.0
 20
-170.0
 10
507.0
 20
200.0004882811999
 10
395.0
 20
200.0004882811999
  0
LWPOLYLINE
  5
7BC2
330
1E
100
AcDbEntity
  8
10
  6
CONTINUOUS
100
AcDbPolyline
 90
        2
 70
     0
 43
0.0
 10
375.9999997765989
 20
29.39387638879713
 42
0.2041241247171607
 10
375.9999979079799
 20
-29.39387200234911
  0
LWPOLYLINE
  5
7BC3
330
1E
100
AcDbEntity
  8
10
  6
CONTINUOUS
100
AcDbPolyline
 90
        3
 70
     0
 43
0.0
 10
376.0
 20
-29.39404296880002
 10
376.0
 20
-47.5
 10
387.0
 20
-47.5
  0
LWPOLYLINE
  5
7BC5
330
1E
100
AcDbEntity
  8
10
  6
CONTINUOUS
100
AcDbPolyline
 90
        3
 70
     0
 43
0.0
 10
376.0
 20
29.39404296869998
 10
376.0
 20
47.5
 10
387.0
 20
47.5
  0
LWPOLYLINE
  5
7BC6
330
1E
100
AcDbEntity
  8
10
  6
CONTINUOUS
100
AcDbPolyline
 90
        2
 70
     0
 43
0.0
 10
372.189453125
 20
17.98974609369996
 10
369.2905273436998
 20
20.55908203119996
  0
LWPOLYLINE
  5
7BC7
330
1E
100
AcDbEntity
  8
10
  6
CONTINUOUS
100
AcDbPolyline
 90
        2
 70
     0
 43
0.0
 10
376.0
 20
32.9755859375
 10
373.7880859375
 20
32.916015625
  0
LWPOLYLINE
  5
7BC8
330
1E
100
AcDbEntity
  8
10
  6
CONTINUOUS
100
AcDbPolyline
 90
        2
 70
     0
 43
0.0
 10
369.289459195492
 20
20.55754783130903
 42
0.0879559986123275
 10
367.8008424665691
 20
21.46924597408528
  0
LWPOLYLINE
  5
7BC9
330
1E
100
AcDbEntity
  8
10
  6
CONTINUOUS
100
AcDbPolyline
 90
        2
 70
     0
 43
0.0
 10
372.060796771549
 20
33.17337300274192
 42
0.0879559385487373
 10
373.7871704314258
 20
32.91490993420401
  0
LWPOLYLINE
  5
7BCB
330
1E
100
AcDbEntity
  8
18
100
AcDbPolyline
 90
        6
 70
     0
 43
0.0
 10
310.3205566405998
 20
59.14013671869998
 10
339.5031738280998
 20
52.232421875
 10
373.3317871094
 20
39.91943359369997
 10
364.4392089844
 20
15.48779296869997
 10
330.6105957030998
 20
27.80029296869997
 10
303.8151855469
 20
41.26660156249999
  0
LWPOLYLINE
  5
7BCC
330
1E
100
AcDbEntity
  8
18
100
AcDbPolyline
 90
        2
 70
     0
 43
0.0
 10
303.8146470060214
 20
41.26534036667842
 42
0.2638043047459365
 10
296.9174127520972
 20
40.91910970370081
  0
LWPOLYLINE
  5
7BCD
330
1E
100
AcDbEntity
  8
18
100
AcDbPolyline
 90
        2
 70
     0
 43
0.0
 10
305.2591427297051
 20
63.83782145378265
 42
0.2638042091204253
 10
310.3201761998716
 20
59.13913800385515
  0
LWPOLYLINE
  5
7BD2
330
1E
100
AcDbEntity
  8
10
  6
CONTINUOUS
100
AcDbPolyline
 90
        4
 70
     0
 43
0.0
 10
372.0615234374998
 20
33.17529296869997
 10
344.4548339844
 20
42.44873046869996
 10
340.6921386719
 20
32.11181640619997
 10
367.8012695311998
 20
21.47021484369996
  0
DIMENSION
  5
7BFD
330
1E
100
AcDbEntity
  8
30
  6
CONTINUOUS
100
AcDbDimension
  2
*D10
 10
525.0
 20
-230.3800613068346
 30
0.0
 11
516.0
 21
-224.8800613068345
 31
0.0
 70
    32
  3
STANDARD
100
AcDbAlignedDimension
 13
507.0
 23
-170.0
 33
0.0
 14
525.0
 24
-158.0
 34
0.0
100
AcDbRotatedDimension
  0
DIMENSION
  5
7C25
330
1E
100
AcDbEntity
  8
30
  6
CONTINUOUS
100
AcDbDimension
  2
*D11
 10
638.8764909405463
 20
-136.4999999999999
 30
0.0
 11
633.3764909405463
 21
-113.9999999999997
 31
0.0
 70
    32
  3
STANDARD
100
AcDbAlignedDimension
 13
615.0
 23
-91.5
 33
0.0
 14
615.0
 24
-136.4999999999999
 34
0.0
 50
90.0
100
AcDbRotatedDimension
  0
DIMENSION
  5
7D60
330
1E
100
AcDbEntity
  8
30
  6
CONTINUOUS
100
AcDbDimension
  2
*D12
 10
427.4445195208897
 20
-558.1664414373283
 30
0.0
 11
443.4445195208905
 21
-535.666441437328
 31
0.0
 70
   164
  1
R6
  3
STANDARD
100
AcDbRadialDimension
 15
429.4999999999993
 25
-552.0
 35
0.0
 40
0.0
1001
ACAD
1000
DSTYLE
1002
{
1070
   288
1070
     1
1002
}
  0
LWPOLYLINE
  5
7D61
330
1E
100
AcDbEntity
  8
18
100
AcDbPolyline
 90
        4
 70
     1
 43
0.0
 10
570.0
 20
-771.0
 10
570.0
 20
-401.0
 10
290.0
 20
-401.0
 10
290.0
 20
-771.0
  0
LINE
  5
7D62
330
1E
100
AcDbEntity
  8
16
100
AcDbLine
 10
395.0
 20
-793.1306816323568
 30
0.0
 11
395.0
 21
-371.5602850821105
 31
0.0
  0
LINE
  5
7D63
330
1E
100
AcDbEntity
  8
16
100
AcDbLine
 10
597.1634296945397
 20
-601.0
 30
0.0
 11
293.1043600603313
 21
-601.0
 31
0.0
  0
DIMENSION
  5
7D64
330
1E
100
AcDbEntity
  8
30
  6
CONTINUOUS
100
AcDbDimension
  2
*D13
 10
435.5
 20
-683.7650401241262
 30
0.0
 11
394.9999999999998
 21
-678.2650401241262
 31
0.0
 70
    32
  3
STANDARD
100
AcDbAlignedDimension
 13
354.4999999999998
 23
-644.0
 33
0.0
 14
435.5
 24
-644.0
 34
0.0
100
AcDbRotatedDimension
  0
LWPOLYLINE
  5
7D65
330
1E
100
AcDbEntity
  8
11
  6
CONTINUOUS
100
AcDbPolyline
 90
        8
 70
     1
 43
0.0
 10
435.5
 20
-644.0
 10
435.5
 20
-558.0
 42
0.4142135623730951
 10
429.4999999999998
 20
-552.0
 10
360.4999999999998
 20
-552.0
 42
0.4142135623730951
 10
354.4999999999998
 20
-558.0
 10
354.4999999999998
 20
-644.0
 42
0.4142135623730951
 10
360.4999999999998
 20
-650.0
 10
429.4999999999998
 20
-650.0
 42
0.4142135623730951
  0
DIMENSION
  5
7D66
330
1E
100
AcDbEntity
  8
30
  6
CONTINUOUS
100
AcDbDimension
  2
*D14
 10
333.097286732649
 20
-650.0
 30
0.0
 11
327.5972867326491
 21
-600.9999999999998
 31
0.0
 70
    32
  3
STANDARD
100
AcDbAlignedDimension
 13
360.4999999999998
 23
-552.0
 33
0.0
 14
360.4999999999998
 24
-650.0
 34
0.0
 50
90.0
100
AcDbRotatedDimension
  0
LINE
  5
7EBF
330
1E
100
AcDbEntity
  8
11
  6
CONTINUOUS
100
AcDbLine
 10
185.0
 20
-500.0
 30
0.0
 11
-114.9999999999999
 21
-500.0
 31
0.0
  0
LINE
  5
7EC0
330
1E
100
AcDbEntity
  8
11
  6
CONTINUOUS
100
AcDbLine
 10
-114.9999999999999
 20
-427.0
 30
0.0
 11
-114.9999999999999
 21
-500.0
 31
0.0
  0
LINE
  5
7EC1
330
1E
100
AcDbEntity
  8
11
  6
CONTINUOUS
100
AcDbLine
 10
185.0
 20
-427.0
 30
0.0
 11
-114.9999999999999
 21
-427.0
 31
0.0
  0
LINE
  5
7EC2
330
1E
100
AcDbEntity
  8
11
  6
CONTINUOUS
100
AcDbLine
 10
185.0
 20
-500.0
 30
0.0
 11
185.0
 21
-427.0
 31
0.0
  0
LINE
  5
7EC3
330
1E
100
AcDbEntity
  8
11
  6
CONTINUOUS
100
AcDbLine
 10
-114.9999999999999
 20
-672.0
 30
0.0
 11
-114.9999999999999
 21
-745.0
 31
0.0
  0
LINE
  5
7EC4
330
1E
100
AcDbEntity
  8
11
  6
CONTINUOUS
100
AcDbLine
 10
185.0
 20
-672.0
 30
0.0
 11
-114.9999999999999
 21
-672.0
 31
0.0
  0
LINE
  5
7EC5
330
1E
100
AcDbEntity
  8
11
  6
CONTINUOUS
100
AcDbLine
 10
185.0
 20
-672.0
 30
0.0
 11
185.0
 21
-745.0
 31
0.0
  0
LINE
  5
7EC6
330
1E
100
AcDbEntity
  8
11
  6
CONTINUOUS
100
AcDbLine
 10
185.0
 20
-745.0
 30
0.0
 11
-114.9999999999999
 21
-745.0
 31
0.0
  0
DIMENSION
  5
7EC7
330
1E
100
AcDbEntity
  8
30
  6
CONTINUOUS
100
AcDbDimension
  2
*D15
 10
185.0
 20
-849.565218163265
 30
0.0
 11
35.00000000000003
 21
-844.065218163265
 31
0.0
 70
    32
  3
STANDARD
100
AcDbAlignedDimension
 13
-114.9999999999999
 23
-745.0
 33
0.0
 14
185.0
 24
-745.0
 34
0.0
100
AcDbRotatedDimension
  0
DIMENSION
  5
7F08
330
1E
100
AcDbEntity
  8
30
  6
CONTINUOUS
100
AcDbDimension
  2
*D16
 10
213.1424238105974
 20
-500.0
 30
0.0
 11
207.6424238105974
 21
-463.4999999999998
 31
0.0
 70
    32
  3
STANDARD
100
AcDbAlignedDimension
 13
185.0
 23
-427.0
 33
0.0
 14
185.0
 24
-500.0
 34
0.0
 50
90.0
100
AcDbRotatedDimension
  0
DIMENSION
  5
7F15
330
1E
100
AcDbEntity
  8
30
  6
CONTINUOUS
100
AcDbDimension
  2
*D17
 10
213.1424238105973
 20
-601.0
 30
0.0
 11
207.6424238105974
 21
-550.4999999999999
 31
0.0
 70
    32
  3
STANDARD
100
AcDbAlignedDimension
 13
185.0
 23
-500.0
 33
0.0
 14
175.0
 24
-601.0
 34
0.0
 50
90.0
100
AcDbRotatedDimension
1001
ACAD
1000
DSTYLE
1002
{
1070
   287
1070
     4
1070
   287
1070
     4
1070
   279
1070
     1
1002
}
  0
DIMENSION
  5
7F22
330
1E
100
AcDbEntity
  8
30
  6
CONTINUOUS
100
AcDbDimension
  2
*D18
 10
213.1424238105973
 20
-672.0
 30
0.0
 11
207.6424238105974
 21
-636.5
 31
0.0
 70
    32
  3
STANDARD
100
AcDbAlignedDimension
 13
175.0
 23
-601.0
 33
0.0
 14
175.0
 24
-672.0
 34
0.0
 50
90.0
100
AcDbRotatedDimension
1001
ACAD
1000
DSTYLE
1002
{
1070
   287
1070
     4
1070
   287
1070
     4
1070
   279
1070
     1
1002
}
  0
DIMENSION
  5
7F2F
330
1E
100
AcDbEntity
  8
30
  6
CONTINUOUS
100
AcDbDimension
  2
*D19
 10
213.1424238105973
 20
-745.0
 30
0.0
 11
207.6424238105974
 21
-708.4999999999999
 31
0.0
 70
    32
  3
STANDARD
100
AcDbAlignedDimension
 13
175.0
 23
-672.0
 33
0.0
 14
185.0
 24
-745.0
 34
0.0
 50
90.0
100
AcDbRotatedDimension
1001
ACAD
1000
DSTYLE
1002
{
1070
   287
1070
     4
1070
   287
1070
     4
1070
   279
1070
     1
1002
}
  0
DIMENSION
  5
83E2
330
1E
100
AcDbEntity
  8
30
  6
CONTINUOUS
100
AcDbDimension
  2
*D20
 10
140.0
 20
638.1775657769192
 30
0.0
 11
103.6621621621633
 21
638.1775657769192
 31
0.0
 70
   160
  1
70
  3
STANDARD
100
AcDbAlignedDimension
 13
69.99999999989995
 23
535.0935058594
 33
0.0
 14
140.0
 24
535.0935058594
 34
0.0
 50
0.000000000000007
100
AcDbRotatedDimension
  0
LINE
  5
83E4
330
1E
100
AcDbEntity
  8
18
100
AcDbLine
 10
154.9997558594
 20
448.0
 30
0.0
 11
-159.1436284253459
 21
448.0
 31
0.0
  0
LINE
  5
83E5
330
1E
100
AcDbEntity
  8
10
  6
CONTINUOUS
100
AcDbLine
 10
-104.9997558594
 20
439.0
 30
0.0
 11
174.990234375
 21
439.0
 31
0.0
  0
LINE
  5
83E6
330
1E
100
AcDbEntity
  8
24
  6
DASHED
100
AcDbLine
 10
155.0
 20
495.0
 30
0.0
 11
125.0
 21
495.0
 31
0.0
  0
LINE
  5
83E7
330
1E
100
AcDbEntity
  8
24
  6
DASHED
100
AcDbLine
 10
155.0
 20
503.0
 30
0.0
 11
125.0
 21
503.0
 31
0.0
  0
LINE
  5
83E8
330
1E
100
AcDbEntity
  8
24
  6
DASHED
100
AcDbLine
 10
155.0
 20
535.0
 30
0.0
 11
125.0
 21
535.0
 31
0.0
  0
LINE
  5
83E9
330
1E
100
AcDbEntity
  8
21
100
AcDbLine
 10
162.5
 20
550.0
 30
0.0
 11
117.5
 21
550.0
 31
0.0
  0
LINE
  5
83EA
330
1E
100
AcDbEntity
  8
10
  6
CONTINUOUS
100
AcDbLine
 10
174.990234375
 20
459.0
 30
0.0
 11
-104.9997558594
 21
459.0
 31
0.0
  0
DIMENSION
  5
83ED
330
1E
100
AcDbEntity
  8
30
  6
CONTINUOUS
100
AcDbDimension
  2
*D21
 10
-156.0281498131598
 20
439.0
 30
0.0
 11
-156.0281498131598
 21
381.2105270534256
 31
0.0
 70
   160
  1
120
  3
STANDARD
100
AcDbAlignedDimension
 13
-96.09326171880001
 23
319.0
 33
0.0
 14
-146.0932617187999
 24
439.0
 34
0.0
 50
90.0
100
AcDbRotatedDimension
  0
LINE
  5
83F0
330
1E
100
AcDbEntity
  8
10
  6
CONTINUOUS
100
AcDbLine
 10
-104.9997558594
 20
319.0
 30
0.0
 11
-104.9997558594
 21
459.0
 31
0.0
  0
DIMENSION
  5
83F1
330
1E
100
AcDbEntity
  8
30
  6
CONTINUOUS
100
AcDbDimension
  2
*D22
 10
22.5
 20
604.0800781250027
 30
0.0
 11
-1.337837837836672
 21
604.0800781250027
 31
0.0
 70
   160
  1
45
  3
STANDARD
100
AcDbAlignedDimension
 13
-22.5
 23
550.0935058594
 33
0.0
 14
22.5
 24
550.0935058594
 34
0.0
 50
0.000000000000007
100
AcDbRotatedDimension
  0
DIMENSION
  5
83F2
330
1E
100
AcDbEntity
  8
30
  6
CONTINUOUS
100
AcDbDimension
  2
*D23
 10
69.99999999989995
 20
638.1775657769192
 30
0.0
 11
33.66216216216332
 21
638.1775657769192
 31
0.0
 70
   160
  1
70
  3
STANDARD
100
AcDbAlignedDimension
 13
0.0
 23
535.0935058594
 33
0.0
 14
69.99999999989995
 24
535.0935058594
 34
0.0
 50
0.000000000000007
100
AcDbRotatedDimension
  0
DIMENSION
  5
83F3
330
1E
100
AcDbEntity
  8
30
  6
CONTINUOUS
100
AcDbDimension
  2
*D24
 10
0.0000000000000063
 20
638.1775657769192
 30
0.0
 11
-36.33783783783667
 21
638.1775657769192
 31
0.0
 70
   160
  1
70
  3
STANDARD
100
AcDbAlignedDimension
 13
-70.0
 23
535.0935058594
 33
0.0
 14
0.0
 24
535.0935058594
 34
0.0
 50
0.000000000000007
100
AcDbRotatedDimension
  0
DIMENSION
  5
83FB
330
1E
100
AcDbEntity
  8
30
  6
CONTINUOUS
100
AcDbDimension
  2
*D25
 10
-156.0281498288053
 20
549.9999999999999
 30
0.0
 11
-156.0281498288054
 21
496.3529419141064
 31
0.0
 70
   160
  1
111
  3
STANDARD
100
AcDbAlignedDimension
 13
-146.0932617187999
 23
439.0
 33
0.0
 14
-92.5
 24
549.9999999999999
 34
0.0
 50
90.0
100
AcDbRotatedDimension
  0
LINE
  5
83FE
330
1E
100
AcDbEntity
  8
21
100
AcDbLine
 10
-47.5
 20
550.0
 30
0.0
 11
-92.5
 21
549.9999999999999
 31
0.0
  0
LINE
  5
8400
330
1E
100
AcDbEntity
  8
10
  6
CONTINUOUS
100
AcDbLine
 10
-104.9997558594
 20
327.0
 30
0.0
 11
174.990234375
 21
327.0
 31
0.0
  0
LINE
  5
8401
330
1E
100
AcDbEntity
  8
21
100
AcDbLine
 10
-92.5
 20
459.0
 30
0.0
 11
-92.5
 21
549.9999999999999
 31
0.0
  0
LINE
  5
8402
330
1E
100
AcDbEntity
  8
30
  6
CONTINUOUS
100
AcDbLine
 10
-154.9997558594
 20
439.0
 30
0.0
 11
-104.9997558594
 21
439.0
 31
0.0
  0
LINE
  5
8403
330
1E
100
AcDbEntity
  8
21
100
AcDbLine
 10
22.5
 20
459.0
 30
0.0
 11
22.5
 21
550.0
 31
0.0
  0
LINE
  5
8404
330
1E
100
AcDbEntity
  8
21
100
AcDbLine
 10
-22.5
 20
459.0
 30
0.0
 11
-22.5
 21
550.0
 31
0.0
  0
LINE
  5
8405
330
1E
100
AcDbEntity
  8
21
100
AcDbLine
 10
117.5
 20
459.0
 30
0.0
 11
117.5
 21
550.0
 31
0.0
  0
LINE
  5
8406
330
1E
100
AcDbEntity
  8
21
100
AcDbLine
 10
92.5
 20
459.0
 30
0.0
 11
92.5
 21
550.0
 31
0.0
  0
LINE
  5
8407
330
1E
100
AcDbEntity
  8
21
100
AcDbLine
 10
47.5
 20
459.0
 30
0.0
 11
47.5
 21
550.0
 31
0.0
  0
LINE
  5
8408
330
1E
100
AcDbEntity
  8
21
100
AcDbLine
 10
-47.5
 20
459.0
 30
0.0
 11
-47.5
 21
550.0
 31
0.0
  0
LINE
  5
8409
330
1E
100
AcDbEntity
  8
21
100
AcDbLine
 10
22.5
 20
550.0
 30
0.0
 11
-22.5
 21
550.0
 31
0.0
  0
CIRCLE
  5
840A
330
1E
100
AcDbEntity
  8
24
  6
CONTINOUS
100
AcDbCircle
 10
-70.0
 20
535.0
 30
0.0
 40
6.5
  0
ARC
  5
840B
330
1E
100
AcDbEntity
  8
24
  6
CONTINOUS
100
AcDbCircle
 10
-70.0
 20
503.0
 30
0.0
 40
6.5
100
AcDbArc
 50
0.000000000000007
 51
180.0
  0
ARC
  5
840C
330
1E
100
AcDbEntity
  8
24
  6
CONTINOUS
100
AcDbCircle
 10
-70.0
 20
495.0
 30
0.0
 40
6.5
100
AcDbArc
 50
180.0
 51
0.000000000000007
  0
LINE
  5
840D
330
1E
100
AcDbEntity
  8
24
  6
CONTINOUS
100
AcDbLine
 10
-63.5
 20
495.0
 30
0.0
 11
-63.5
 21
503.0
 31
0.0
  0
LINE
  5
840E
330
1E
100
AcDbEntity
  8
24
  6
CONTINOUS
100
AcDbLine
 10
-76.5
 20
495.0
 30
0.0
 11
-76.5
 21
503.0
 31
0.0
  0
CIRCLE
  5
840F
330
1E
100
AcDbEntity
  8
24
  6
CONTINOUS
100
AcDbCircle
 10
0.0
 20
535.0
 30
0.0
 40
6.5
  0
LINE
  5
8410
330
1E
100
AcDbEntity
  8
24
  6
CONTINOUS
100
AcDbLine
 10
6.5
 20
495.0
 30
0.0
 11
6.5
 21
503.0
 31
0.0
  0
LINE
  5
8411
330
1E
100
AcDbEntity
  8
24
  6
CONTINOUS
100
AcDbLine
 10
-6.5
 20
495.0
 30
0.0
 11
-6.5
 21
503.0
 31
0.0
  0
ARC
  5
8412
330
1E
100
AcDbEntity
  8
24
  6
CONTINOUS
100
AcDbCircle
 10
0.0
 20
495.0
 30
0.0
 40
6.5
100
AcDbArc
 50
180.0
 51
0.000000000000007
  0
ARC
  5
8413
330
1E
100
AcDbEntity
  8
24
  6
CONTINOUS
100
AcDbCircle
 10
0.0
 20
503.0
 30
0.0
 40
6.5
100
AcDbArc
 50
0.000000000000007
 51
180.0
  0
LINE
  5
8414
330
1E
100
AcDbEntity
  8
24
  6
DASHED
100
AcDbLine
 10
15.0
 20
495.0
 30
0.0
 11
-15.0
 21
495.0
 31
0.0
  0
LINE
  5
8415
330
1E
100
AcDbEntity
  8
24
  6
DASHED
100
AcDbLine
 10
15.0
 20
503.0
 30
0.0
 11
-15.0
 21
503.0
 31
0.0
  0
LINE
  5
8416
330
1E
100
AcDbEntity
  8
24
  6
DASHED
100
AcDbLine
 10
15.0
 20
535.0
 30
0.0
 11
-15.0
 21
535.0
 31
0.0
  0
LINE
  5
8417
330
1E
100
AcDbEntity
  8
21
100
AcDbLine
 10
92.5
 20
550.0
 30
0.0
 11
47.5
 21
550.0
 31
0.0
  0
LINE
  5
8418
330
1E
100
AcDbEntity
  8
24
  6
DASHED
100
AcDbLine
 10
85.0
 20
495.0
 30
0.0
 11
55.0
 21
495.0
 31
0.0
  0
LINE
  5
8419
330
1E
100
AcDbEntity
  8
24
  6
DASHED
100
AcDbLine
 10
85.0
 20
503.0
 30
0.0
 11
55.0
 21
503.0
 31
0.0
  0
LINE
  5
841A
330
1E
100
AcDbEntity
  8
24
  6
DASHED
100
AcDbLine
 10
85.0
 20
535.0
 30
0.0
 11
55.0
 21
535.0
 31
0.0
  0
CIRCLE
  5
841B
330
1E
100
AcDbEntity
  8
24
  6
CONTINOUS
100
AcDbCircle
 10
69.99999999989995
 20
535.0
 30
0.0
 40
6.500000000100044
  0
LINE
  5
841C
330
1E
100
AcDbEntity
  8
24
  6
CONTINOUS
100
AcDbLine
 10
76.5
 20
495.0
 30
0.0
 11
76.5
 21
503.0
 31
0.0
  0
LINE
  5
841D
330
1E
100
AcDbEntity
  8
24
  6
CONTINOUS
100
AcDbLine
 10
63.5
 20
495.0
 30
0.0
 11
63.5
 21
503.0
 31
0.0
  0
ARC
  5
841E
330
1E
100
AcDbEntity
  8
24
  6
CONTINOUS
100
AcDbCircle
 10
69.99999999989995
 20
495.0
 30
0.0
 40
6.500000000100044
100
AcDbArc
 50
180.0
 51
0.000000000000007
  0
ARC
  5
841F
330
1E
100
AcDbEntity
  8
24
  6
CONTINOUS
100
AcDbCircle
 10
69.99999999989995
 20
503.0
 30
0.0
 40
6.499999999899954
100
AcDbArc
 50
0.000000000000007
 51
180.0
  0
LINE
  5
8421
330
1E
100
AcDbEntity
  8
10
  6
CONTINUOUS
100
AcDbLine
 10
-104.9997558594
 20
319.0
 30
0.0
 11
174.990234375
 21
319.0
 31
0.0
  0
LINE
  5
8422
330
1E
100
AcDbEntity
  8
10
  6
CONTINUOUS
100
AcDbLine
 10
-39.0
 20
308.0
 30
0.0
 11
39.0
 21
308.0
 31
0.0
  0
LINE
  5
8423
330
1E
100
AcDbEntity
  8
10
  6
CONTINUOUS
100
AcDbLine
 10
-39.0
 20
308.0
 30
0.0
 11
-39.0
 21
319.0
 31
0.0
  0
LINE
  5
8424
330
1E
100
AcDbEntity
  8
10
  6
CONTINUOUS
100
AcDbLine
 10
-20.0
 20
267.9997558594
 30
0.0
 11
20.0
 21
267.9997558594
 31
0.0
  0
LINE
  5
8425
330
1E
100
AcDbEntity
  8
10
  6
CONTINUOUS
100
AcDbLine
 10
20.0
 20
267.9997558594
 30
0.0
 11
20.0
 21
308.0
 31
0.0
  0
LINE
  5
8426
330
1E
100
AcDbEntity
  8
10
  6
CONTINUOUS
100
AcDbLine
 10
-20.0
 20
267.9997558594
 30
0.0
 11
-20.0
 21
308.0
 31
0.0
  0
LINE
  5
8429
330
1E
100
AcDbEntity
  8
10
  6
CONTINUOUS
100
AcDbLine
 10
39.0
 20
308.0
 30
0.0
 11
39.0
 21
319.0
 31
0.0
  0
LINE
  5
842A
330
1E
100
AcDbEntity
  8
10
  6
CONTINUOUS
100
AcDbLine
 10
174.990234375
 20
319.0
 30
0.0
 11
174.990234375
 21
459.0
 31
0.0
  0
LINE
  5
842D
330
1E
100
AcDbEntity
  8
21
100
AcDbLine
 10
162.5
 20
459.0
 30
0.0
 11
162.5
 21
550.0
 31
0.0
  0
CIRCLE
  5
842E
330
1E
100
AcDbEntity
  8
24
  6
CONTINOUS
100
AcDbCircle
 10
140.0
 20
535.0
 30
0.0
 40
6.5
  0
LINE
  5
842F
330
1E
100
AcDbEntity
  8
24
  6
CONTINOUS
100
AcDbLine
 10
146.5
 20
495.0
 30
0.0
 11
146.5
 21
503.0
 31
0.0
  0
LINE
  5
8430
330
1E
100
AcDbEntity
  8
24
  6
CONTINOUS
100
AcDbLine
 10
133.4999999999999
 20
495.0
 30
0.0
 11
133.4999999999999
 21
503.0
 31
0.0
  0
ARC
  5
8431
330
1E
100
AcDbEntity
  8
24
  6
CONTINOUS
100
AcDbCircle
 10
140.0
 20
495.0
 30
0.0
 40
6.5
100
AcDbArc
 50
180.0
 51
0.000000000000007
  0
ARC
  5
8432
330
1E
100
AcDbEntity
  8
24
  6
CONTINOUS
100
AcDbCircle
 10
140.0
 20
503.0
 30
0.0
 40
6.5
100
AcDbArc
 50
0.000000000000007
 51
180.0
  0
LINE
  5
8433
330
1E
100
AcDbEntity
  8
18
100
AcDbLine
 10
-174.990234375
 20
439.0
 30
0.0
 11
-159.1436284253459
 21
439.0
 31
0.0
  0
DIMENSION
  5
8700
330
1E
100
AcDbEntity
  8
30
  6
CONTINUOUS
100
AcDbDimension
  2
*D26
 10
142.5977313209748
 20
534.5216310972156
 30
0.0
 11
160.2643979876421
 21
557.0216310972154
 31
0.0
 70
   164
  1
%%c13
  3
STANDARD
100
AcDbRadialDimension
 15
144.6532118000843
 25
540.6880725345437
 35
0.0
 40
0.0
1001
ACAD
1000
DSTYLE
1002
{
1070
   288
1070
     1
1002
}
  0
DIMENSION
  5
8740
330
1E
100
AcDbEntity
  8
30
  6
CONTINUOUS
100
AcDbDimension
  2
*D27
 10
395.0
 20
-230.3800613068346
 30
0.0
 11
451.0
 21
-224.8800613068345
 31
0.0
 70
    32
  3
STANDARD
100
AcDbAlignedDimension
 13
507.0
 23
-171.0
 33
0.0
 14
395.0
 24
-170.0
 34
0.0
100
AcDbRotatedDimension
  0
DIMENSION
  5
874D
330
1E
100
AcDbEntity
  8
30
  6
CONTINUOUS
100
AcDbDimension
  2
*D28
 10
387.0
 20
-230.5305102330638
 30
0.0
 11
391.3705927610462
 21
-230.5305102330638
 31
0.0
 70
   160
  3
STANDARD
100
AcDbAlignedDimension
 13
395.0
 23
-171.0
 33
0.0
 14
387.0
 24
-140.0
 34
0.0
100
AcDbRotatedDimension
  0
DIMENSION
  5
875B
330
1E
100
AcDbEntity
  8
30
  6
CONTINUOUS
100
AcDbDimension
  2
*D29
 10
336.0
 20
-254.3663549513321
 30
0.0
 11
421.4999999999998
 21
-248.866354951332
 31
0.0
 70
    32
  3
STANDARD
100
AcDbAlignedDimension
 13
507.0
 23
-230.3800613068346
 33
0.0
 14
336.0
 24
0.0
 34
0.0
100
AcDbRotatedDimension
  0
DIMENSION
  5
8771
330
1E
100
AcDbEntity
  8
30
  6
CONTINUOUS
100
AcDbDimension
  2
*D30
 10
255.9999999999999
 20
-254.0330216179988
 30
0.0
 11
296.0
 21
-248.5330216179987
 31
0.0
 70
    32
  3
STANDARD
100
AcDbAlignedDimension
 13
336.0
 23
-1.0
 33
0.0
 14
256.0
 24
-1.0
 34
0.0
100
AcDbRotatedDimension
  0
ARC
  5
877E
330
1E
100
AcDbEntity
  8
30
  6
CONTINUOUS
100
AcDbCircle
 10
398.0983429002998
 20
7.088660436144563
 30
0.0
 40
62.62292406630713
100
AcDbArc
 50
156.447787704888
 51
187.4213162709208
  0
ARC
  5
877F
330
1E
100
AcDbEntity
  8
30
  6
CONTINUOUS
100
AcDbCircle
 10
408.9996190593814
 20
2.579965891226196
 30
0.0
 40
153.1119340717823
100
AcDbArc
 50
158.8597010780338
 51
180.7514388749138
  0
DIMENSION
  5
8780
330
1E
100
AcDbEntity
  8
30
  6
CONTINUOUS
100
AcDbDimension
  2
*D31
 10
370.0000000000716
 20
-230.3800613068346
 30
0.0
 11
378.5000000000357
 21
-224.8800613068345
 31
0.0
 70
    32
  3
STANDARD
100
AcDbAlignedDimension
 13
387.0
 23
-140.0
 33
0.0
 14
370.0000000000716
 24
0.0
 34
0.0
100
AcDbRotatedDimension
  0
DIMENSION
  5
888E
330
1E
100
AcDbEntity
  8
30
  6
CONTINUOUS
100
AcDbDimension
  2
*D36
 10
194.3875257438365
 20
459.0
 30
0.0
 11
188.8875257438365
 21
477.0
 31
0.0
 70
    32
  3
STANDARD
100
AcDbAlignedDimension
 13
155.0
 23
495.0
 33
0.0
 14
162.5
 24
459.0
 34
0.0
 50
90.0
100
AcDbRotatedDimension
1001
ACAD
1000
DSTYLE
1002
{
1070
   287
1070
     4
1070
   287
1070
     4
1070
   279
1070
     1
1002
}
  0
DIMENSION
  5
888F
330
1E
100
AcDbEntity
  8
30
  6
CONTINUOUS
100
AcDbDimension
  2
*D37
 10
194.3875257438366
 20
495.0
 30
0.0
 11
194.3875257438366
 21
499.0
 31
0.0
 70
   160
  3
STANDARD
100
AcDbAlignedDimension
 13
155.0
 23
503.0
 33
0.0
 14
155.0
 24
495.0
 34
0.0
 50
90.0
100
AcDbRotatedDimension
1001
ACAD
1000
DSTYLE
1002
{
1070
   287
1070
     4
1070
   287
1070
     4
1070
   279
1070
     1
1002
}
  0
DIMENSION
  5
8890
330
1E
100
AcDbEntity
  8
30
  6
CONTINUOUS
100
AcDbDimension
  2
*D38
 10
194.3875257438366
 20
503.0
 30
0.0
 11
188.8875257438366
 21
519.0
 31
0.0
 70
    32
  3
STANDARD
100
AcDbAlignedDimension
 13
155.0
 23
535.0
 33
0.0
 14
155.0
 24
503.0
 34
0.0
 50
90.0
100
AcDbRotatedDimension
1001
ACAD
1000
DSTYLE
1002
{
1070
   287
1070
     4
1070
   287
1070
     4
1070
   279
1070
     1
1002
}
  0
DIMENSION
  5
8891
330
1E
100
AcDbEntity
  8
30
  6
CONTINUOUS
100
AcDbDimension
  2
*D39
 10
194.3875257438366
 20
535.0
 30
0.0
 11
188.8875257438366
 21
542.4999999999998
 31
0.0
 70
    32
  3
STANDARD
100
AcDbAlignedDimension
 13
162.5
 23
550.0
 33
0.0
 14
155.0
 24
535.0
 34
0.0
 50
90.0
100
AcDbRotatedDimension
  0
LINE
  5
89F0
330
1E
100
AcDbEntity
  8
24
  6
DASHED
100
AcDbLine
 10
-55.0
 20
535.0
 30
0.0
 11
-85.0
 21
535.0
 31
0.0
  0
LINE
  5
89F1
330
1E
100
AcDbEntity
  8
24
  6
DASHED
100
AcDbLine
 10
-55.0
 20
503.0
 30
0.0
 11
-85.0
 21
503.0
 31
0.0
  0
LINE
  5
89F2
330
1E
100
AcDbEntity
  8
24
  6
DASHED
100
AcDbLine
 10
-55.0
 20
495.0
 30
0.0
 11
-85.0
 21
495.0
 31
0.0
  0
VIEWPORT
  5
9AC
330
1A
100
AcDbEntity
 67
     1
  8
0
  6
CONTINUOUS
100
AcDbViewport
 10
171.9995348790992
 20
144.1384735538403
 30
0.0
 40
488.8676857773511
 41
292.3514905034161
 68
     1
 69
     1
1001
ACAD
1000
MVIEW
1002
{
1070
    16
1010
0.0
1020
0.0
1030
0.0
1010
0.0
1020
0.0
1030
1.0
1040
0.0
1040
292.3514905034161
1040
171.9995348790992
1040
144.1384735538403
1040
50.0
1040
0.0
1040
0.0
1070
     0
1070
   100
1070
     1
1070
     1
1070
     0
1070
     0
1070
     0
1070
     0
1040
0.0
1040
0.0
1040
0.0
1040
10.0
1040
10.0
1040
10.0
1040
10.0
1070
     0
1002
{
1002
}
1002
}
  0
ENDSEC
  0
SECTION
  2
OBJECTS
  0
DICTIONARY
  5
C
330
0
100
AcDbDictionary
  3
ACAD_GROUP
350
D
  3
ACAD_LAYOUT
350
19
  3
ACAD_MLINESTYLE
350
16
  3
ACAD_PLOTSETTINGS
350
18
  3
ACAD_PLOTSTYLENAME
350
E
  3
ACDBHEADERROUNDTRIPXREC
350
89F4
  3
ACDBVARIABLEDICTIONARY
350
6C1E
  0
DICTIONARY
  5
178
330
1E
100
AcDbDictionary
280
     1
  3
ACAD_LAYOUTSELFREF
360
8A16
  0
DICTIONARY
  5
17A
330
1A
100
AcDbDictionary
280
     1
  3
ACAD_LAYOUTSELFREF
360
8A15
  0
DICTIONARY
  5
D
102
{ACAD_REACTORS
330
C
102
}
330
C
100
AcDbDictionary
  0
DICTIONARY
  5
19
102
{ACAD_REACTORS
330
C
102
}
330
C
100
AcDbDictionary
  0
DICTIONARY
  5
16
102
{ACAD_REACTORS
330
C
102
}
330
C
100
AcDbDictionary
  3
STANDARD
350
17
  0
DICTIONARY
  5
18
102
{ACAD_REACTORS
330
C
102
}
330
C
100
AcDbDictionary
  0
ACDBDICTIONARYWDFLT
  5
E
102
{ACAD_REACTORS
330
C
102
}
330
C
100
AcDbDictionary
281
     1
  3
Normal
350
F
100
AcDbDictionaryWithDefault
340
F
  0
DICTIONARY
  5
89F4
102
{ACAD_REACTORS
330
C
102
}
330
C
100
AcDbDictionary
  3
CEPSNTYPE
350
89FE
  3
DIMSTYLEDATA
350
8A02
  3
FINGERPRINTGUID
350
89FF
  3
HYPERLINKBASE
350
89F7
  3
INSUNITS
350
89FD
  3
LAYOUTDICT
350
89F9
  3
LWETCUNION
350
89FC
  3
PLOTSETDICT
350
89FA
  3
PLOTSTYLNAMDICT
350
89FB
  3
PSVPSCALE
350
8A01
  3
PUCSBASE
350
8A05
  3
PUCSORGBACK
350
8A0B
  3
PUCSORGBOTTOM
350
8A07
  3
PUCSORGFRONT
350
8A0A
  3
PUCSORGLEFT
350
8A08
  3
PUCSORGRIGHT
350
8A09
  3
PUCSORGTOP
350
8A06
  3
PUCSORTHOREF
350
8A03
  3
PUCSORTHOVIEW
350
8A04
  3
STYLESHEET
350
89F8
  3
TSTACKALIGN
350
89F5
  3
TSTACKSIZE
350
89F6
  3
UCSBASE
350
8A0E
  3
UCSORGBACK
350
8A14
  3
UCSORGBOTTOM
350
8A10
  3
UCSORGFRONT
350
8A13
  3
UCSORGLEFT
350
8A11
  3
UCSORGRIGHT
350
8A12
  3
UCSORGTOP
350
8A0F
  3
UCSORTHOREF
350
8A0C
  3
UCSORTHOVIEW
350
8A0D
  3
VERSIONGUID
350
8A00
  0
DICTIONARY
  5
6C1E
102
{ACAD_REACTORS
330
C
102
}
330
C
100
AcDbDictionary
  3
DIMASSOC
350
768F
  3
SORTENTS
350
6C1F
  0
XRECORD
  5
8A16
102
{ACAD_REACTORS
330
178
102
}
330
178
100
AcDbXrecord
340
1E
  0
XRECORD
  5
8A15
102
{ACAD_REACTORS
330
17A
102
}
330
17A
100
AcDbXrecord
340
1A
  0
MLINESTYLE
  5
17
102
{ACAD_REACTORS
330
16
102
}
330
16
100
AcDbMlineStyle
  2
STANDARD
 70
     0
  3

 62
   256
 51
90.0
 52
90.0
 71
     2
 49
0.5
 62
   256
  6
BYLAYER
 49
-0.5
 62
   256
  6
BYLAYER
  0
ACDBPLACEHOLDER
  5
F
102
{ACAD_REACTORS
330
E
102
}
330
E
100
AcDbPlaceHolder
280
     0
  0
XRECORD
  5
89FE
102
{ACAD_REACTORS
330
89F4
102
}
330
89F4
100
AcDbXrecord
 90
        0
  0
XRECORD
  5
8A02
102
{ACAD_REACTORS
330
89F4
102
}
330
89F4
100
AcDbXrecord
1000
DSTYLE
1002
{
1070
   341
340
3B2
1070
   342
340
3B2
1002
}
  0
XRECORD
  5
89FF
102
{ACAD_REACTORS
330
89F4
102
}
330
89F4
100
AcDbXrecord
  1

  0
XRECORD
  5
89F7
102
{ACAD_REACTORS
330
89F4
102
}
330
89F4
100
AcDbXrecord
  1

  0
XRECORD
  5
89FD
102
{ACAD_REACTORS
330
89F4
102
}
330
89F4
100
AcDbXrecord
 90
        0
  0
XRECORD
  5
89F9
102
{ACAD_REACTORS
330
89F4
102
}
330
89F4
100
AcDbXrecord
340
19
  0
XRECORD
  5
89FC
102
{ACAD_REACTORS
330
89F4
102
}
330
89F4
100
AcDbXrecord
 90
    10781
  0
XRECORD
  5
89FA
102
{ACAD_REACTORS
330
89F4
102
}
330
89F4
100
AcDbXrecord
340
18
  0
XRECORD
  5
89FB
102
{ACAD_REACTORS
330
89F4
102
}
330
89F4
100
AcDbXrecord
340
E
  0
XRECORD
  5
8A01
102
{ACAD_REACTORS
330
89F4
102
}
330
89F4
100
AcDbXrecord
 40
0.0
  0
XRECORD
  5
8A05
102
{ACAD_REACTORS
330
89F4
102
}
330
89F4
100
AcDbXrecord
340
0
  0
XRECORD
  5
8A0B
102
{ACAD_REACTORS
330
89F4
102
}
330
89F4
100
AcDbXrecord
 10
0.0
 20
0.0
 30
0.0
  0
XRECORD
  5
8A07
102
{ACAD_REACTORS
330
89F4
102
}
330
89F4
100
AcDbXrecord
 10
0.0
 20
0.0
 30
0.0
  0
XRECORD
  5
8A0A
102
{ACAD_REACTORS
330
89F4
102
}
330
89F4
100
AcDbXrecord
 10
0.0
 20
0.0
 30
0.0
  0
XRECORD
  5
8A08
102
{ACAD_REACTORS
330
89F4
102
}
330
89F4
100
AcDbXrecord
 10
0.0
 20
0.0
 30
0.0
  0
XRECORD
  5
8A09
102
{ACAD_REACTORS
330
89F4
102
}
330
89F4
100
AcDbXrecord
 10
0.0
 20
0.0
 30
0.0
  0
XRECORD
  5
8A06
102
{ACAD_REACTORS
330
89F4
102
}
330
89F4
100
AcDbXrecord
 10
0.0
 20
0.0
 30
0.0
  0
XRECORD
  5
8A03
102
{ACAD_REACTORS
330
89F4
102
}
330
89F4
100
AcDbXrecord
340
0
  0
XRECORD
  5
8A04
102
{ACAD_REACTORS
330
89F4
102
}
330
89F4
100
AcDbXrecord
 70
     0
  0
XRECORD
  5
89F8
102
{ACAD_REACTORS
330
89F4
102
}
330
89F4
100
AcDbXrecord
  1
kiki.ctb
  0
XRECORD
  5
89F5
102
{ACAD_REACTORS
330
89F4
102
}
330
89F4
100
AcDbXrecord
 90
        1
  0
XRECORD
  5
89F6
102
{ACAD_REACTORS
330
89F4
102
}
330
89F4
100
AcDbXrecord
 90
       70
  0
XRECORD
  5
8A0E
102
{ACAD_REACTORS
330
89F4
102
}
330
89F4
100
AcDbXrecord
340
0
  0
XRECORD
  5
8A14
102
{ACAD_REACTORS
330
89F4
102
}
330
89F4
100
AcDbXrecord
 10
0.0
 20
0.0
 30
0.0
  0
XRECORD
  5
8A10
102
{ACAD_REACTORS
330
89F4
102
}
330
89F4
100
AcDbXrecord
 10
0.0
 20
0.0
 30
0.0
  0
XRECORD
  5
8A13
102
{ACAD_REACTORS
330
89F4
102
}
330
89F4
100
AcDbXrecord
 10
0.0
 20
0.0
 30
0.0
  0
XRECORD
  5
8A11
102
{ACAD_REACTORS
330
89F4
102
}
330
89F4
100
AcDbXrecord
 10
0.0
 20
0.0
 30
0.0
  0
XRECORD
  5
8A12
102
{ACAD_REACTORS
330
89F4
102
}
330
89F4
100
AcDbXrecord
 10
0.0
 20
0.0
 30
0.0
  0
XRECORD
  5
8A0F
102
{ACAD_REACTORS
330
89F4
102
}
330
89F4
100
AcDbXrecord
 10
0.0
 20
0.0
 30
0.0
  0
XRECORD
  5
8A0C
102
{ACAD_REACTORS
330
89F4
102
}
330
89F4
100
AcDbXrecord
340
0
  0
XRECORD
  5
8A0D
102
{ACAD_REACTORS
330
89F4
102
}
330
89F4
100
AcDbXrecord
 70
     0
  0
XRECORD
  5
8A00
102
{ACAD_REACTORS
330
89F4
102
}
330
89F4
100
AcDbXrecord
  1
{F51F5613-A820-47FE-A594-3029DFC0AE09}
  0
DICTIONARYVAR
  5
768F
102
{ACAD_REACTORS
330
6C1E
102
}
330
6C1E
100
DictionaryVariables
280
     0
  1
1
  0
DICTIONARYVAR
  5
6C1F
102
{ACAD_REACTORS
330
6C1E
102
}
330
6C1E
100
DictionaryVariables
280
     0
  1
96
  0
ENDSEC
  0
EOF
