  0
SECTION
  2
HEADER
  9
$ACADVER
  1
AC1014
  9
$ACADMAINTVER
 70
     9
  9
$DWGCODEPAGE
  3
ANSI_932
  9
$INSBASE
 10
0.0
 20
0.0
 30
0.0
  9
$EXTMIN
 10
-194.6460085915552
 20
-945.0575979769055
 30
-0.0000000349181948
  9
$EXTMAX
 10
718.8858360673803
 20
714.6561352094095
 30
0.0000000814935746
  9
$LIMMIN
 10
-179.0
 20
-547.0
  9
$LIMMAX
 10
487.0
 20
238.0
  9
$ORTHOMODE
 70
     1
  9
$REGENMODE
 70
     1
  9
$FILLMODE
 70
     1
  9
$QTEXTMODE
 70
     0
  9
$MIRRTEXT
 70
     1
  9
$DRAGMODE
 70
     2
  9
$LTSCALE
 40
30.0
  9
$OSMODE
 70
    37
  9
$ATTMODE
 70
     1
  9
$TEXTSIZE
 40
2.0
  9
$TRACEWID
 40
0.05
  9
$TEXTSTYLE
  7
STANDARD
  9
$CLAYER
  8
30
  9
$CELTYPE
  6
CONTINUOUS
  9
$CECOLOR
 62
   256
  9
$CELTSCALE
 40
1.0
  9
$DELOBJ
 70
     1
  9
$DISPSILH
 70
     0
  9
$DIMSCALE
 40
1.0
  9
$DIMASZ
 40
2.0
  9
$DIMEXO
 40
1.0
  9
$DIMDLI
 40
0.5
  9
$DIMRND
 40
0.0
  9
$DIMDLE
 40
0.0
  9
$DIMEXE
 40
0.5
  9
$DIMTP
 40
0.0
  9
$DIMTM
 40
0.0
  9
$DIMTXT
 40
6.0
  9
$DIMCEN
 40
0.09
  9
$DIMTSZ
 40
0.0
  9
$DIMTOL
 70
     0
  9
$DIMLIM
 70
     0
  9
$DIMTIH
 70
     0
  9
$DIMTOH
 70
     1
  9
$DIMSE1
 70
     0
  9
$DIMSE2
 70
     0
  9
$DIMTAD
 70
     3
  9
$DIMZIN
 70
    12
  9
$DIMBLK
  1
OPEN
  9
$DIMASO
 70
     1
  9
$DIMSHO
 70
     1
  9
$DIMPOST
  1

  9
$DIMAPOST
  1

  9
$DIMALT
 70
     0
  9
$DIMALTD
 70
     2
  9
$DIMALTF
 40
25.4
  9
$DIMLFAC
 40
1.0
  9
$DIMTOFL
 70
     0
  9
$DIMTVP
 40
0.0
  9
$DIMTIX
 70
     0
  9
$DIMSOXD
 70
     0
  9
$DIMSAH
 70
     0
  9
$DIMBLK1
  1

  9
$DIMBLK2
  1

  9
$DIMSTYLE
  2
STANDARD
  9
$DIMCLRD
 70
     0
  9
$DIMCLRE
 70
     0
  9
$DIMCLRT
 70
     0
  9
$DIMTFAC
 40
1.0
  9
$DIMGAP
 40
2.0
  9
$DIMJUST
 70
     0
  9
$DIMSD1
 70
     0
  9
$DIMSD2
 70
     0
  9
$DIMTOLJ
 70
     1
  9
$DIMTZIN
 70
     0
  9
$DIMALTZ
 70
     0
  9
$DIMALTTZ
 70
     0
  9
$DIMFIT
 70
     3
  9
$DIMUPT
 70
     0
  9
$DIMUNIT
 70
     2
  9
$DIMDEC
 70
     1
  9
$DIMTDEC
 70
     1
  9
$DIMALTU
 70
     2
  9
$DIMALTTD
 70
     2
  9
$DIMTXSTY
  7
STANDARD
  9
$DIMAUNIT
 70
     0
  9
$LUNITS
 70
     2
  9
$LUPREC
 70
     4
  9
$SKETCHINC
 40
0.1
  9
$FILLETRAD
 40
0.0
  9
$AUNITS
 70
     0
  9
$AUPREC
 70
     0
  9
$MENU
  1
.
  9
$ELEVATION
 40
0.0
  9
$PELEVATION
 40
0.0
  9
$THICKNESS
 40
0.0
  9
$LIMCHECK
 70
     0
  9
$BLIPMODE
 70
     0
  9
$CHAMFERA
 40
0.0
  9
$CHAMFERB
 40
0.0
  9
$CHAMFERC
 40
0.0
  9
$CHAMFERD
 40
0.0
  9
$SKPOLY
 70
     0
  9
$TDCREATE
 40
2452286.555658657
  9
$TDUPDATE
 40
2453250.477224745
  9
$TDINDWG
 40
1.6348589815
  9
$TDUSRTIMER
 40
1.6348589815
  9
$USRTIMER
 70
     1
  9
$ANGBASE
 50
0.0
  9
$ANGDIR
 70
     0
  9
$PDMODE
 70
     0
  9
$PDSIZE
 40
0.0
  9
$PLINEWID
 40
0.0
  9
$COORDS
 70
     0
  9
$SPLFRAME
 70
     0
  9
$SPLINETYPE
 70
     6
  9
$SPLINESEGS
 70
     8
  9
$ATTDIA
 70
     0
  9
$ATTREQ
 70
     1
  9
$HANDLING
 70
 22529
  9
$HANDSEED
  5
9F41
  9
$SURFTAB1
 70
     6
  9
$SURFTAB2
 70
     6
  9
$SURFTYPE
 70
     6
  9
$SURFU
 70
     6
  9
$SURFV
 70
     6
  9
$UCSNAME
  2

  9
$UCSORG
 10
0.0
 20
0.0
 30
0.0
  9
$UCSXDIR
 10
1.0
 20
0.0
 30
0.0
  9
$UCSYDIR
 10
0.0
 20
1.0
 30
0.0
  9
$PUCSNAME
  2

  9
$PUCSORG
 10
0.0
 20
0.0
 30
0.0
  9
$PUCSXDIR
 10
1.0
 20
0.0
 30
0.0
  9
$PUCSYDIR
 10
0.0
 20
1.0
 30
0.0
  9
$USERI1
 70
     0
  9
$USERI2
 70
     0
  9
$USERI3
 70
     0
  9
$USERI4
 70
     0
  9
$USERI5
 70
     0
  9
$USERR1
 40
0.0
  9
$USERR2
 40
0.0
  9
$USERR3
 40
0.0
  9
$USERR4
 40
0.0
  9
$USERR5
 40
0.0
  9
$WORLDVIEW
 70
     1
  9
$SHADEDGE
 70
     3
  9
$SHADEDIF
 70
    70
  9
$TILEMODE
 70
     1
  9
$MAXACTVP
 70
    48
  9
$PINSBASE
 10
0.0
 20
0.0
 30
0.0
  9
$PLIMCHECK
 70
     0
  9
$PEXTMIN
 10
1.000000000000000E+20
 20
1.000000000000000E+20
 30
1.000000000000000E+20
  9
$PEXTMAX
 10
-1.000000000000000E+20
 20
-1.000000000000000E+20
 30
-1.000000000000000E+20
  9
$PLIMMIN
 10
-5.873748779296875
 20
-5.873749732971191
  9
$PLIMMAX
 10
204.0995788574218
 20
291.1369009017943
  9
$UNITMODE
 70
     0
  9
$VISRETAIN
 70
     1
  9
$PLINEGEN
 70
     0
  9
$PSLTSCALE
 70
     1
  9
$TREEDEPTH
 70
  3020
  9
$PICKSTYLE
 70
     1
  9
$CMLSTYLE
  2
STANDARD
  9
$CMLJUST
 70
     0
  9
$CMLSCALE
 40
1.0
  9
$PROXYGRAPHICS
 70
     1
  9
$MEASUREMENT
 70
     0
  0
ENDSEC
  0
SECTION
  2
CLASSES
  0
CLASS
  1
ACDBDICTIONARYWDFLT
  2
AcDbDictionaryWithDefault
  3
AutoCAD 2000
 90
        0
280
     0
281
     0
  0
CLASS
  1
ACDBPLACEHOLDER
  2
AcDbPlaceHolder
  3
AutoCAD 2000
 90
        0
280
     0
281
     0
  0
CLASS
  1
LAYOUT
  2
AcDbLayout
  3
AutoCAD 2000
 90
        0
280
     0
281
     0
  0
CLASS
  1
LONG_TRANSACTION
  2
AcDbLongTransaction
  3
AutoCAD 2000
 90
        0
280
     0
281
     0
  0
CLASS
  1
LWPOLYLINE
  2
AcDbPolyline
  3
AutoCAD 2000
 90
        0
280
     0
281
     1
  0
CLASS
  1
HATCH
  2
AcDbHatch
  3
AutoCAD 2000
 90
        0
280
     0
281
     1
  0
CLASS
  1
XRECORD
  2
AcDbXrecord
  3
AutoCAD 2000
 90
        0
280
     0
281
     0
  0
CLASS
  1
LONG_TRANSACTION
  2
AcDbLongTransaction
  3
AutoCAD 2000
 90
        0
280
     0
281
     0
  0
CLASS
  1
LWPOLYLINE
  2
AcDbPolyline
  3
AutoCAD 2000
 90
        0
280
     0
281
     1
  0
CLASS
  1
HATCH
  2
AcDbHatch
  3
AutoCAD 2000
 90
        0
280
     0
281
     1
  0
CLASS
  1
XRECORD
  2
AcDbXrecord
  3
AutoCAD 2000
 90
        0
280
     0
281
     0
  0
CLASS
  1
LONG_TRANSACTION
  2
AcDbLongTransaction
  3
AutoCAD 2000
 90
        0
280
     0
281
     0
  0
CLASS
  1
LWPOLYLINE
  2
AcDbPolyline
  3
AutoCAD 2000
 90
        0
280
     0
281
     1
  0
CLASS
  1
HATCH
  2
AcDbHatch
  3
AutoCAD 2000
 90
        0
280
     0
281
     1
  0
CLASS
  1
XRECORD
  2
AcDbXrecord
  3
AutoCAD 2000
 90
        0
280
     0
281
     0
  0
CLASS
  1
LONG_TRANSACTION
  2
AcDbLongTransaction
  3
AutoCAD 2000
 90
        0
280
     0
281
     0
  0
CLASS
  1
LWPOLYLINE
  2
AcDbPolyline
  3
AutoCAD 2000
 90
        0
280
     0
281
     1
  0
CLASS
  1
HATCH
  2
AcDbHatch
  3
AutoCAD 2000
 90
        0
280
     0
281
     1
  0
CLASS
  1
XRECORD
  2
AcDbXrecord
  3
AutoCAD 2000
 90
        0
280
     0
281
     0
  0
CLASS
  1
LONG_TRANSACTION
  2
AcDbLongTransaction
  3
AutoCAD 2000
 90
        0
280
     0
281
     0
  0
CLASS
  1
LWPOLYLINE
  2
AcDbPolyline
  3
AutoCAD 2000
 90
        0
280
     0
281
     1
  0
CLASS
  1
HATCH
  2
AcDbHatch
  3
AutoCAD 2000
 90
        0
280
     0
281
     1
  0
CLASS
  1
XRECORD
  2
AcDbXrecord
  3
AutoCAD 2000
 90
        0
280
     0
281
     0
  0
CLASS
  1
LONG_TRANSACTION
  2
AcDbLongTransaction
  3
AutoCAD 2000
 90
        0
280
     0
281
     0
  0
CLASS
  1
LWPOLYLINE
  2
AcDbPolyline
  3
AutoCAD 2000
 90
        0
280
     0
281
     1
  0
CLASS
  1
HATCH
  2
AcDbHatch
  3
AutoCAD 2000
 90
        0
280
     0
281
     1
  0
CLASS
  1
XRECORD
  2
AcDbXrecord
  3
AutoCAD 2000
 90
        0
280
     0
281
     0
  0
CLASS
  1
LONG_TRANSACTION
  2
AcDbLongTransaction
  3
AutoCAD 2000
 90
        0
280
     0
281
     0
  0
CLASS
  1
LWPOLYLINE
  2
AcDbPolyline
  3
AutoCAD 2000
 90
        0
280
     0
281
     1
  0
CLASS
  1
HATCH
  2
AcDbHatch
  3
AutoCAD 2000
 90
        0
280
     0
281
     1
  0
CLASS
  1
XRECORD
  2
AcDbXrecord
  3
AutoCAD 2000
 90
        0
280
     0
281
     0
  0
CLASS
  1
LONG_TRANSACTION
  2
AcDbLongTransaction
  3
AutoCAD 2000
 90
        0
280
     0
281
     0
  0
CLASS
  1
LWPOLYLINE
  2
AcDbPolyline
  3
AutoCAD 2000
 90
        0
280
     0
281
     1
  0
CLASS
  1
HATCH
  2
AcDbHatch
  3
AutoCAD 2000
 90
        0
280
     0
281
     1
  0
CLASS
  1
XRECORD
  2
AcDbXrecord
  3
AutoCAD 2000
 90
        0
280
     0
281
     0
  0
CLASS
  1
LONG_TRANSACTION
  2
AcDbLongTransaction
  3
AutoCAD 2000
 90
        0
280
     0
281
     0
  0
CLASS
  1
LWPOLYLINE
  2
AcDbPolyline
  3
AutoCAD 2000
 90
        0
280
     0
281
     1
  0
CLASS
  1
HATCH
  2
AcDbHatch
  3
AutoCAD 2000
 90
        0
280
     0
281
     1
  0
CLASS
  1
XRECORD
  2
AcDbXrecord
  3
AutoCAD 2000
 90
        0
280
     0
281
     0
  0
CLASS
  1
LONG_TRANSACTION
  2
AcDbLongTransaction
  3
AutoCAD 2000
 90
        0
280
     0
281
     0
  0
CLASS
  1
LWPOLYLINE
  2
AcDbPolyline
  3
AutoCAD 2000
 90
        0
280
     0
281
     1
  0
CLASS
  1
HATCH
  2
AcDbHatch
  3
AutoCAD 2000
 90
        0
280
     0
281
     1
  0
CLASS
  1
XRECORD
  2
AcDbXrecord
  3
AutoCAD 2000
 90
        0
280
     0
281
     0
  0
CLASS
  1
LONG_TRANSACTION
  2
AcDbLongTransaction
  3
AutoCAD 2000
 90
        0
280
     0
281
     0
  0
CLASS
  1
LWPOLYLINE
  2
AcDbPolyline
  3
AutoCAD 2000
 90
        0
280
     0
281
     1
  0
CLASS
  1
HATCH
  2
AcDbHatch
  3
AutoCAD 2000
 90
        0
280
     0
281
     1
  0
CLASS
  1
XRECORD
  2
AcDbXrecord
  3
AutoCAD 2000
 90
        0
280
     0
281
     0
  0
CLASS
  1
LONG_TRANSACTION
  2
AcDbLongTransaction
  3
AutoCAD 2000
 90
        0
280
     0
281
     0
  0
CLASS
  1
LWPOLYLINE
  2
AcDbPolyline
  3
AutoCAD 2000
 90
        0
280
     0
281
     1
  0
CLASS
  1
HATCH
  2
AcDbHatch
  3
AutoCAD 2000
 90
        0
280
     0
281
     1
  0
CLASS
  1
XRECORD
  2
AcDbXrecord
  3
AutoCAD 2000
 90
        0
280
     0
281
     0
  0
CLASS
  1
LONG_TRANSACTION
  2
AcDbLongTransaction
  3
AutoCAD 2000
 90
        0
280
     0
281
     0
  0
CLASS
  1
LWPOLYLINE
  2
AcDbPolyline
  3
AutoCAD 2000
 90
        0
280
     0
281
     1
  0
CLASS
  1
HATCH
  2
AcDbHatch
  3
AutoCAD 2000
 90
        0
280
     0
281
     1
  0
CLASS
  1
XRECORD
  2
AcDbXrecord
  3
AutoCAD 2000
 90
        0
280
     0
281
     0
  0
CLASS
  1
LONG_TRANSACTION
  2
AcDbLongTransaction
  3
AutoCAD 2000
 90
        0
280
     0
281
     0
  0
CLASS
  1
LWPOLYLINE
  2
AcDbPolyline
  3
AutoCAD 2000
 90
        0
280
     0
281
     1
  0
CLASS
  1
HATCH
  2
AcDbHatch
  3
AutoCAD 2000
 90
        0
280
     0
281
     1
  0
CLASS
  1
XRECORD
  2
AcDbXrecord
  3
AutoCAD 2000
 90
        0
280
     0
281
     0
  0
CLASS
  1
LONG_TRANSACTION
  2
AcDbLongTransaction
  3
AutoCAD 2000
 90
        0
280
     0
281
     0
  0
CLASS
  1
LWPOLYLINE
  2
AcDbPolyline
  3
AutoCAD 2000
 90
        0
280
     0
281
     1
  0
CLASS
  1
HATCH
  2
AcDbHatch
  3
AutoCAD 2000
 90
        0
280
     0
281
     1
  0
CLASS
  1
XRECORD
  2
AcDbXrecord
  3
AutoCAD 2000
 90
        0
280
     0
281
     0
  0
CLASS
  1
LONG_TRANSACTION
  2
AcDbLongTransaction
  3
AutoCAD 2000
 90
        0
280
     0
281
     0
  0
CLASS
  1
LWPOLYLINE
  2
AcDbPolyline
  3
AutoCAD 2000
 90
        0
280
     0
281
     1
  0
CLASS
  1
HATCH
  2
AcDbHatch
  3
AutoCAD 2000
 90
        0
280
     0
281
     1
  0
CLASS
  1
XRECORD
  2
AcDbXrecord
  3
AutoCAD 2000
 90
        0
280
     0
281
     0
  0
CLASS
  1
LONG_TRANSACTION
  2
AcDbLongTransaction
  3
AutoCAD 2000
 90
        0
280
     0
281
     0
  0
CLASS
  1
LWPOLYLINE
  2
AcDbPolyline
  3
AutoCAD 2000
 90
        0
280
     0
281
     1
  0
CLASS
  1
HATCH
  2
AcDbHatch
  3
AutoCAD 2000
 90
        0
280
     0
281
     1
  0
CLASS
  1
XRECORD
  2
AcDbXrecord
  3
AutoCAD 2000
 90
        0
280
     0
281
     0
  0
CLASS
  1
LONG_TRANSACTION
  2
AcDbLongTransaction
  3
AutoCAD 2000
 90
        0
280
     0
281
     0
  0
CLASS
  1
LWPOLYLINE
  2
AcDbPolyline
  3
AutoCAD 2000
 90
        0
280
     0
281
     1
  0
CLASS
  1
HATCH
  2
AcDbHatch
  3
AutoCAD 2000
 90
        0
280
     0
281
     1
  0
CLASS
  1
XRECORD
  2
AcDbXrecord
  3
AutoCAD 2000
 90
        0
280
     0
281
     0
  0
CLASS
  1
LONG_TRANSACTION
  2
AcDbLongTransaction
  3
AutoCAD 2000
 90
        0
280
     0
281
     0
  0
CLASS
  1
LWPOLYLINE
  2
AcDbPolyline
  3
AutoCAD 2000
 90
        0
280
     0
281
     1
  0
CLASS
  1
HATCH
  2
AcDbHatch
  3
AutoCAD 2000
 90
        0
280
     0
281
     1
  0
CLASS
  1
XRECORD
  2
AcDbXrecord
  3
AutoCAD 2000
 90
        0
280
     0
281
     0
  0
CLASS
  1
LONG_TRANSACTION
  2
AcDbLongTransaction
  3
AutoCAD 2000
 90
        0
280
     0
281
     0
  0
CLASS
  1
LWPOLYLINE
  2
AcDbPolyline
  3
AutoCAD 2000
 90
        0
280
     0
281
     1
  0
CLASS
  1
HATCH
  2
AcDbHatch
  3
AutoCAD 2000
 90
        0
280
     0
281
     1
  0
CLASS
  1
XRECORD
  2
AcDbXrecord
  3
AutoCAD 2000
 90
        0
280
     0
281
     0
  0
CLASS
  1
LONG_TRANSACTION
  2
AcDbLongTransaction
  3
AutoCAD 2000
 90
        0
280
     0
281
     0
  0
CLASS
  1
LWPOLYLINE
  2
AcDbPolyline
  3
AutoCAD 2000
 90
        0
280
     0
281
     1
  0
CLASS
  1
HATCH
  2
AcDbHatch
  3
AutoCAD 2000
 90
        0
280
     0
281
     1
  0
CLASS
  1
XRECORD
  2
AcDbXrecord
  3
AutoCAD 2000
 90
        0
280
     0
281
     0
  0
CLASS
  1
LONG_TRANSACTION
  2
AcDbLongTransaction
  3
AutoCAD 2000
 90
        0
280
     0
281
     0
  0
CLASS
  1
LWPOLYLINE
  2
AcDbPolyline
  3
AutoCAD 2000
 90
        0
280
     0
281
     1
  0
CLASS
  1
HATCH
  2
AcDbHatch
  3
AutoCAD 2000
 90
        0
280
     0
281
     1
  0
CLASS
  1
XRECORD
  2
AcDbXrecord
  3
AutoCAD 2000
 90
        0
280
     0
281
     0
  0
CLASS
  1
LONG_TRANSACTION
  2
AcDbLongTransaction
  3
AutoCAD 2000
 90
        0
280
     0
281
     0
  0
CLASS
  1
LWPOLYLINE
  2
AcDbPolyline
  3
AutoCAD 2000
 90
        0
280
     0
281
     1
  0
CLASS
  1
HATCH
  2
AcDbHatch
  3
AutoCAD 2000
 90
        0
280
     0
281
     1
  0
CLASS
  1
XRECORD
  2
AcDbXrecord
  3
AutoCAD 2000
 90
        0
280
     0
281
     0
  0
CLASS
  1
LONG_TRANSACTION
  2
AcDbLongTransaction
  3
AutoCAD 2000
 90
        0
280
     0
281
     0
  0
CLASS
  1
LWPOLYLINE
  2
AcDbPolyline
  3
AutoCAD 2000
 90
        0
280
     0
281
     1
  0
CLASS
  1
HATCH
  2
AcDbHatch
  3
AutoCAD 2000
 90
        0
280
     0
281
     1
  0
CLASS
  1
XRECORD
  2
AcDbXrecord
  3
AutoCAD 2000
 90
        0
280
     0
281
     0
  0
CLASS
  1
LONG_TRANSACTION
  2
AcDbLongTransaction
  3
AutoCAD 2000
 90
        0
280
     0
281
     0
  0
CLASS
  1
LWPOLYLINE
  2
AcDbPolyline
  3
AutoCAD 2000
 90
        0
280
     0
281
     1
  0
CLASS
  1
HATCH
  2
AcDbHatch
  3
AutoCAD 2000
 90
        0
280
     0
281
     1
  0
CLASS
  1
XRECORD
  2
AcDbXrecord
  3
AutoCAD 2000
 90
        0
280
     0
281
     0
  0
CLASS
  1
LONG_TRANSACTION
  2
AcDbLongTransaction
  3
AutoCAD 2000
 90
        0
280
     0
281
     0
  0
CLASS
  1
LWPOLYLINE
  2
AcDbPolyline
  3
AutoCAD 2000
 90
        0
280
     0
281
     1
  0
CLASS
  1
HATCH
  2
AcDbHatch
  3
AutoCAD 2000
 90
        0
280
     0
281
     1
  0
CLASS
  1
XRECORD
  2
AcDbXrecord
  3
AutoCAD 2000
 90
        0
280
     0
281
     0
  0
CLASS
  1
LONG_TRANSACTION
  2
AcDbLongTransaction
  3
AutoCAD 2000
 90
        0
280
     0
281
     0
  0
CLASS
  1
LWPOLYLINE
  2
AcDbPolyline
  3
AutoCAD 2000
 90
        0
280
     0
281
     1
  0
CLASS
  1
HATCH
  2
AcDbHatch
  3
AutoCAD 2000
 90
        0
280
     0
281
     1
  0
CLASS
  1
XRECORD
  2
AcDbXrecord
  3
AutoCAD 2000
 90
        0
280
     0
281
     0
  0
CLASS
  1
LONG_TRANSACTION
  2
AcDbLongTransaction
  3
AutoCAD 2000
 90
        0
280
     0
281
     0
  0
CLASS
  1
LWPOLYLINE
  2
AcDbPolyline
  3
AutoCAD 2000
 90
        0
280
     0
281
     1
  0
CLASS
  1
HATCH
  2
AcDbHatch
  3
AutoCAD 2000
 90
        0
280
     0
281
     1
  0
CLASS
  1
XRECORD
  2
AcDbXrecord
  3
AutoCAD 2000
 90
        0
280
     0
281
     0
  0
CLASS
  1
LONG_TRANSACTION
  2
AcDbLongTransaction
  3
AutoCAD 2000
 90
        0
280
     0
281
     0
  0
CLASS
  1
LWPOLYLINE
  2
AcDbPolyline
  3
AutoCAD 2000
 90
        0
280
     0
281
     1
  0
CLASS
  1
HATCH
  2
AcDbHatch
  3
AutoCAD 2000
 90
        0
280
     0
281
     1
  0
CLASS
  1
XRECORD
  2
AcDbXrecord
  3
AutoCAD 2000
 90
        0
280
     0
281
     0
  0
CLASS
  1
LONG_TRANSACTION
  2
AcDbLongTransaction
  3
AutoCAD 2000
 90
        0
280
     0
281
     0
  0
CLASS
  1
LWPOLYLINE
  2
AcDbPolyline
  3
AutoCAD 2000
 90
        0
280
     0
281
     1
  0
CLASS
  1
HATCH
  2
AcDbHatch
  3
AutoCAD 2000
 90
        0
280
     0
281
     1
  0
CLASS
  1
XRECORD
  2
AcDbXrecord
  3
AutoCAD 2000
 90
        0
280
     0
281
     0
  0
CLASS
  1
LONG_TRANSACTION
  2
AcDbLongTransaction
  3
AutoCAD 2000
 90
        0
280
     0
281
     0
  0
CLASS
  1
LWPOLYLINE
  2
AcDbPolyline
  3
AutoCAD 2000
 90
        0
280
     0
281
     1
  0
CLASS
  1
HATCH
  2
AcDbHatch
  3
AutoCAD 2000
 90
        0
280
     0
281
     1
  0
CLASS
  1
XRECORD
  2
AcDbXrecord
  3
AutoCAD 2000
 90
        0
280
     0
281
     0
  0
CLASS
  1
LONG_TRANSACTION
  2
AcDbLongTransaction
  3
AutoCAD 2000
 90
        0
280
     0
281
     0
  0
CLASS
  1
LWPOLYLINE
  2
AcDbPolyline
  3
AutoCAD 2000
 90
        0
280
     0
281
     1
  0
CLASS
  1
HATCH
  2
AcDbHatch
  3
AutoCAD 2000
 90
        0
280
     0
281
     1
  0
CLASS
  1
XRECORD
  2
AcDbXrecord
  3
AutoCAD 2000
 90
        0
280
     0
281
     0
  0
CLASS
  1
LONG_TRANSACTION
  2
AcDbLongTransaction
  3
AutoCAD 2000
 90
        0
280
     0
281
     0
  0
CLASS
  1
LWPOLYLINE
  2
AcDbPolyline
  3
AutoCAD 2000
 90
        0
280
     0
281
     1
  0
CLASS
  1
HATCH
  2
AcDbHatch
  3
AutoCAD 2000
 90
        0
280
     0
281
     1
  0
CLASS
  1
XRECORD
  2
AcDbXrecord
  3
AutoCAD 2000
 90
        0
280
     0
281
     0
  0
CLASS
  1
DICTIONARYVAR
  2
AcDbDictionaryVar
  3
AutoCAD 2000
 90
        0
280
     0
281
     0
  0
CLASS
  1
LONG_TRANSACTION
  2
AcDbLongTransaction
  3
AutoCAD 2000
 90
        0
280
     0
281
     0
  0
CLASS
  1
LWPOLYLINE
  2
AcDbPolyline
  3
AutoCAD 2000
 90
        0
280
     0
281
     1
  0
CLASS
  1
HATCH
  2
AcDbHatch
  3
AutoCAD 2000
 90
        0
280
     0
281
     1
  0
CLASS
  1
XRECORD
  2
AcDbXrecord
  3
AutoCAD 2000
 90
        0
280
     0
281
     0
  0
CLASS
  1
LONG_TRANSACTION
  2
AcDbLongTransaction
  3
AutoCAD 2000
 90
        0
280
     0
281
     0
  0
CLASS
  1
LWPOLYLINE
  2
AcDbPolyline
  3
AutoCAD 2000
 90
        0
280
     0
281
     1
  0
CLASS
  1
HATCH
  2
AcDbHatch
  3
AutoCAD 2000
 90
        0
280
     0
281
     1
  0
CLASS
  1
XRECORD
  2
AcDbXrecord
  3
AutoCAD 2000
 90
        0
280
     0
281
     0
  0
CLASS
  1
LONG_TRANSACTION
  2
AcDbLongTransaction
  3
AutoCAD 2000
 90
        0
280
     0
281
     0
  0
CLASS
  1
LWPOLYLINE
  2
AcDbPolyline
  3
AutoCAD 2000
 90
        0
280
     0
281
     1
  0
CLASS
  1
HATCH
  2
AcDbHatch
  3
AutoCAD 2000
 90
        0
280
     0
281
     1
  0
CLASS
  1
XRECORD
  2
AcDbXrecord
  3
AutoCAD 2000
 90
        0
280
     0
281
     0
  0
ENDSEC
  0
SECTION
  2
TABLES
  0
TABLE
  2
VPORT
  5
8
330
0
100
AcDbSymbolTable
 70
     3
  0
VPORT
  5
9F02
330
8
100
AcDbSymbolTableRecord
100
AcDbViewportTableRecord
  2
*ACTIVE
 70
     0
 10
0.0
 20
0.0
 11
1.0
 21
1.0
 12
262.1199137379123
 22
-115.200731383748
 13
0.0
 23
0.0
 14
1.0
 24
1.0
 15
10.0
 25
10.0
 16
0.0
 26
0.0
 36
1.0
 17
0.0
 27
0.0
 37
0.0
 40
1682.449537750511
 41
2.295194508009153
 42
50.0
 43
0.0
 44
0.0
 50
0.0
 51
0.0
 71
     0
 72
   100
 73
     1
 74
     1
 75
     0
 76
     0
 77
     0
 78
     0
  0
ENDTAB
  0
TABLE
  2
LTYPE
  5
5
330
0
100
AcDbSymbolTable
 70
     5
  0
LTYPE
  5
13
330
5
100
AcDbSymbolTableRecord
100
AcDbLinetypeTableRecord
  2
BYBLOCK
 70
     0
  3

 72
    65
 73
     0
 40
0.0
  0
LTYPE
  5
14
330
5
100
AcDbSymbolTableRecord
100
AcDbLinetypeTableRecord
  2
BYLAYER
 70
     0
  3

 72
    65
 73
     0
 40
0.0
  0
LTYPE
  5
15
330
5
100
AcDbSymbolTableRecord
100
AcDbLinetypeTableRecord
  2
CONTINUOUS
 70
     0
  3
Solid line
 72
    65
 73
     0
 40
0.0
  0
LTYPE
  5
22
330
5
100
AcDbSymbolTableRecord
100
AcDbLinetypeTableRecord
  2
CONTINOUS
 70
     0
  3
Solid line
 72
    65
 73
     0
 40
0.0
  0
LTYPE
  5
23
330
5
100
AcDbSymbolTableRecord
100
AcDbLinetypeTableRecord
  2
DASHED
 70
     0
  3
__ __ __ __ __ __ __ __ __ __ __ __ __ __ __
 72
    65
 73
     2
 40
0.75
 49
0.5
 74
     0
 49
-0.25
 74
     0
  0
LTYPE
  5
24
330
5
100
AcDbSymbolTableRecord
100
AcDbLinetypeTableRecord
  2
DASHDOT
 70
     0
  3
__ . __ . __ . __ . __ . __ . __ . __ . __ . __
 72
    65
 73
     4
 40
1.0
 49
0.5
 74
     0
 49
-0.25
 74
     0
 49
0.0
 74
     0
 49
-0.25
 74
     0
  0
LTYPE
  5
4C47
330
5
100
AcDbSymbolTableRecord
100
AcDbLinetypeTableRecord
  2
DIVIDE
 70
     0
  3
Divide ____ . . ____ . . ____ . . ____ . . ____
 72
    65
 73
     6
 40
1.25
 49
0.5
 74
     0
 49
-0.25
 74
     0
 49
0.0
 74
     0
 49
-0.25
 74
     0
 49
0.0
 74
     0
 49
-0.25
 74
     0
  0
ENDTAB
  0
TABLE
  2
LAYER
  5
2
330
0
100
AcDbSymbolTable
 70
    11
  0
LAYER
  5
10
330
2
100
AcDbSymbolTableRecord
100
AcDbLayerTableRecord
  2
0
 70
     0
 62
     7
  6
CONTINOUS
  0
LAYER
  5
2F
330
2
100
AcDbSymbolTableRecord
100
AcDbLayerTableRecord
  2
10
 70
     0
 62
     4
  6
CONTINOUS
  0
LAYER
  5
31
330
2
100
AcDbSymbolTableRecord
100
AcDbLayerTableRecord
  2
12
 70
     0
 62
     3
  6
CONTINOUS
  0
LAYER
  5
35
330
2
100
AcDbSymbolTableRecord
100
AcDbLayerTableRecord
  2
16
 70
     0
 62
     6
  6
DASHDOT
  0
LAYER
  5
38
330
2
100
AcDbSymbolTableRecord
100
AcDbLayerTableRecord
  2
19
 70
     0
 62
     7
  6
CONTINOUS
  0
LAYER
  5
3C
330
2
100
AcDbSymbolTableRecord
100
AcDbLayerTableRecord
  2
11
 70
     0
 62
     1
  6
CONTINOUS
  0
LAYER
  5
3D
330
2
100
AcDbSymbolTableRecord
100
AcDbLayerTableRecord
  2
24
 70
     0
 62
     2
  6
CONTINOUS
  0
LAYER
  5
3A2
330
2
100
AcDbSymbolTableRecord
100
AcDbLayerTableRecord
  2
30
 70
     0
 62
     9
  6
CONTINUOUS
  0
LAYER
  5
3A4
330
2
100
AcDbSymbolTableRecord
100
AcDbLayerTableRecord
  2
DEFPOINTS
 70
     0
 62
     7
  6
CONTINUOUS
  0
LAYER
  5
3BBA
330
2
100
AcDbSymbolTableRecord
100
AcDbLayerTableRecord
  2
18
 70
     0
 62
     5
  6
DIVIDE
  0
LAYER
  5
929D
330
2
100
AcDbSymbolTableRecord
100
AcDbLayerTableRecord
  2
21
 70
     0
 62
     7
  6
CONTINUOUS
  0
ENDTAB
  0
TABLE
  2
STYLE
  5
3
330
0
100
AcDbSymbolTable
 70
     2
  0
STYLE
  5
11
330
3
100
AcDbSymbolTableRecord
100
AcDbTextStyleTableRecord
  2
STANDARD
 70
     0
 40
0.0
 41
1.0
 50
0.0
 71
     0
 42
2.0
  3
simplex.shx
  4
bigfont.shx
  0
STYLE
  5
42
330
3
100
AcDbSymbolTableRecord
100
AcDbTextStyleTableRecord
  2
STANDARD1
 70
     0
 40
0.0
 41
1.0
 50
0.0
 71
     0
 42
5.0
  3
simplex.shx
  4
BIGFONT.shx
  0
ENDTAB
  0
TABLE
  2
VIEW
  5
6
330
0
100
AcDbSymbolTable
 70
     3
  0
VIEW
  5
230C
330
6
100
AcDbSymbolTableRecord
100
AcDbViewTableRecord
  2
OLE1
 70
     0
 40
148.9124878027714
 10
429.4976280407223
 20
2.560626997828478
 41
103.1458057716444
 11
0.0
 21
0.0
 31
1.0
 12
0.0
 22
0.0
 32
0.0
 42
50.0
 43
0.0
 44
0.0
 50
0.0
 71
     0
  0
VIEW
  5
230E
330
6
100
AcDbSymbolTableRecord
100
AcDbViewTableRecord
  2
OLE2
 70
     0
 40
170.7786920545775
 10
322.664969958371
 20
-5.978304054290276
 41
102.4672152327465
 11
0.0
 21
0.0
 31
1.0
 12
0.0
 22
0.0
 32
0.0
 42
50.0
 43
0.0
 44
0.0
 50
0.0
 71
     0
  0
VIEW
  5
23AA
330
6
100
AcDbSymbolTableRecord
100
AcDbViewTableRecord
  2
OLE3
 70
     0
 40
591.7897393182231
 10
84.79698158148218
 20
-46.09336010803996
 41
388.7920961799953
 11
0.0
 21
0.0
 31
1.0
 12
0.0
 22
0.0
 32
0.0
 42
50.0
 43
0.0
 44
0.0
 50
0.0
 71
     0
  0
ENDTAB
  0
TABLE
  2
UCS
  5
7
330
0
100
AcDbSymbolTable
 70
     0
  0
ENDTAB
  0
TABLE
  2
APPID
  5
9
330
0
100
AcDbSymbolTable
 70
     2
  0
APPID
  5
12
330
9
100
AcDbSymbolTableRecord
100
AcDbRegAppTableRecord
  2
ACAD
 70
     0
  0
APPID
  5
ECD
330
9
100
AcDbSymbolTableRecord
100
AcDbRegAppTableRecord
  2
CONTENTBLOCKICON
 70
     0
  0
ENDTAB
  0
TABLE
  2
DIMSTYLE
  5
A
330
0
100
AcDbSymbolTable
 70
     1
  0
DIMSTYLE
105
175
102
{ACAD_REACTORS
330
768D
330
8A00
330
8A42
330
8A08
330
8A02
330
8A41
330
89FF
330
89FE
330
8AAB
330
8AA1
330
8A59
330
8A03
330
8A07
330
8A06
330
8A0E
330
91EB
330
93CC
330
93FB
330
93FC
330
93FA
330
9449
330
9456
330
9463
330
9497
330
94A4
330
94B1
330
94BE
330
94D4
330
94E1
330
8A01
330
8A13
330
8A12
330
7673
330
907F
330
90B5
330
90B4
330
907E
330
9A3D
330
9DAB
330
9DAC
330
9DB2
330
9DB6
330
9DC1
330
9DC4
330
9DE5
330
943C
102
}
330
A
100
AcDbSymbolTableRecord
100
AcDbDimStyleTableRecord
  2
STANDARD
 70
     0
  3

  4

  5
OPEN
  6

  7

 40
1.0
 41
2.0
 42
1.0
 43
0.5
 44
0.5
 45
0.0
 46
0.0
 47
0.0
 48
0.0
140
6.0
141
0.09
142
0.0
143
25.4
144
1.0
145
0.0
146
1.0
147
2.0
 71
     0
 72
     0
 73
     0
 74
     1
 75
     0
 76
     0
 77
     3
 78
    12
170
     0
171
     2
172
     0
173
     0
174
     0
175
     0
176
     0
177
     0
178
     0
270
     2
271
     1
272
     1
273
     2
274
     2
340
11
275
     0
280
     0
281
     0
282
     0
283
     1
284
     0
285
     0
286
     0
287
     3
288
     0
  0
ENDTAB
  0
TABLE
  2
BLOCK_RECORD
  5
1
330
0
100
AcDbSymbolTable
 70
    61
  0
BLOCK_RECORD
  5
1E
102
{ACAD_XDICTIONARY
360
178
102
}
330
1
100
AcDbSymbolTableRecord
100
AcDbBlockTableRecord
  2
*MODEL_SPACE
  0
BLOCK_RECORD
  5
1A
102
{ACAD_XDICTIONARY
360
17A
102
}
330
1
100
AcDbSymbolTableRecord
100
AcDbBlockTableRecord
  2
*PAPER_SPACE
  0
BLOCK_RECORD
  5
3B2
330
1
100
AcDbSymbolTableRecord
100
AcDbBlockTableRecord
  2
_OPEN
  0
BLOCK_RECORD
  5
768E
330
1
100
AcDbSymbolTableRecord
100
AcDbBlockTableRecord
  2
*D1
  0
BLOCK_RECORD
  5
8ABE
330
1
100
AcDbSymbolTableRecord
100
AcDbBlockTableRecord
  2
*D9
  0
BLOCK_RECORD
  5
8ACA
330
1
100
AcDbSymbolTableRecord
100
AcDbBlockTableRecord
  2
*D10
  0
BLOCK_RECORD
  5
8AD6
330
1
100
AcDbSymbolTableRecord
100
AcDbBlockTableRecord
  2
*D11
  0
BLOCK_RECORD
  5
8AE2
330
1
100
AcDbSymbolTableRecord
100
AcDbBlockTableRecord
  2
*D12
  0
BLOCK_RECORD
  5
8AEE
330
1
100
AcDbSymbolTableRecord
100
AcDbBlockTableRecord
  2
*D13
  0
BLOCK_RECORD
  5
8AFA
330
1
100
AcDbSymbolTableRecord
100
AcDbBlockTableRecord
  2
*D14
  0
BLOCK_RECORD
  5
8B06
330
1
100
AcDbSymbolTableRecord
100
AcDbBlockTableRecord
  2
*D15
  0
BLOCK_RECORD
  5
8B12
330
1
100
AcDbSymbolTableRecord
100
AcDbBlockTableRecord
  2
*D16
  0
BLOCK_RECORD
  5
8B1E
330
1
100
AcDbSymbolTableRecord
100
AcDbBlockTableRecord
  2
*D17
  0
BLOCK_RECORD
  5
8B2A
330
1
100
AcDbSymbolTableRecord
100
AcDbBlockTableRecord
  2
*D18
  0
BLOCK_RECORD
  5
8B36
330
1
100
AcDbSymbolTableRecord
100
AcDbBlockTableRecord
  2
*D19
  0
BLOCK_RECORD
  5
8B42
330
1
100
AcDbSymbolTableRecord
100
AcDbBlockTableRecord
  2
*D20
  0
BLOCK_RECORD
  5
8B4E
330
1
100
AcDbSymbolTableRecord
100
AcDbBlockTableRecord
  2
*D21
  0
BLOCK_RECORD
  5
8B5A
330
1
100
AcDbSymbolTableRecord
100
AcDbBlockTableRecord
  2
*D22
  0
BLOCK_RECORD
  5
8B66
330
1
100
AcDbSymbolTableRecord
100
AcDbBlockTableRecord
  2
*D23
  0
BLOCK_RECORD
  5
8B72
330
1
100
AcDbSymbolTableRecord
100
AcDbBlockTableRecord
  2
*D24
  0
BLOCK_RECORD
  5
8B7E
330
1
100
AcDbSymbolTableRecord
100
AcDbBlockTableRecord
  2
*D25
  0
BLOCK_RECORD
  5
90C2
330
1
100
AcDbSymbolTableRecord
100
AcDbBlockTableRecord
  2
*D26
  0
BLOCK_RECORD
  5
90CE
330
1
100
AcDbSymbolTableRecord
100
AcDbBlockTableRecord
  2
*D27
  0
BLOCK_RECORD
  5
90FE
330
1
100
AcDbSymbolTableRecord
100
AcDbBlockTableRecord
  2
*D28
  0
BLOCK_RECORD
  5
910A
330
1
100
AcDbSymbolTableRecord
100
AcDbBlockTableRecord
  2
*D29
  0
BLOCK_RECORD
  5
91EC
330
1
100
AcDbSymbolTableRecord
100
AcDbBlockTableRecord
  2
*D30
  0
BLOCK_RECORD
  5
93CD
330
1
100
AcDbSymbolTableRecord
100
AcDbBlockTableRecord
  2
*D31
  0
BLOCK_RECORD
  5
93FD
330
1
100
AcDbSymbolTableRecord
100
AcDbBlockTableRecord
  2
*D32
  0
BLOCK_RECORD
  5
9409
330
1
100
AcDbSymbolTableRecord
100
AcDbBlockTableRecord
  2
*D33
  0
BLOCK_RECORD
  5
9415
330
1
100
AcDbSymbolTableRecord
100
AcDbBlockTableRecord
  2
*D34
  0
BLOCK_RECORD
  5
943D
330
1
100
AcDbSymbolTableRecord
100
AcDbBlockTableRecord
  2
*D35
  0
BLOCK_RECORD
  5
944A
330
1
100
AcDbSymbolTableRecord
100
AcDbBlockTableRecord
  2
*D36
  0
BLOCK_RECORD
  5
9457
330
1
100
AcDbSymbolTableRecord
100
AcDbBlockTableRecord
  2
*D37
  0
BLOCK_RECORD
  5
9464
330
1
100
AcDbSymbolTableRecord
100
AcDbBlockTableRecord
  2
*D38
  0
BLOCK_RECORD
  5
9498
330
1
100
AcDbSymbolTableRecord
100
AcDbBlockTableRecord
  2
*D39
  0
BLOCK_RECORD
  5
94A5
330
1
100
AcDbSymbolTableRecord
100
AcDbBlockTableRecord
  2
*D40
  0
BLOCK_RECORD
  5
94B2
330
1
100
AcDbSymbolTableRecord
100
AcDbBlockTableRecord
  2
*D41
  0
BLOCK_RECORD
  5
94BF
330
1
100
AcDbSymbolTableRecord
100
AcDbBlockTableRecord
  2
*D42
  0
BLOCK_RECORD
  5
94D5
330
1
100
AcDbSymbolTableRecord
100
AcDbBlockTableRecord
  2
*D43
  0
BLOCK_RECORD
  5
94E2
330
1
100
AcDbSymbolTableRecord
100
AcDbBlockTableRecord
  2
*D44
  0
BLOCK_RECORD
  5
9A3E
330
1
100
AcDbSymbolTableRecord
100
AcDbBlockTableRecord
  2
*D45
  0
BLOCK_RECORD
  5
9DF0
330
1
100
AcDbSymbolTableRecord
100
AcDbBlockTableRecord
  2
*D54
  0
BLOCK_RECORD
  5
9DFC
330
1
100
AcDbSymbolTableRecord
100
AcDbBlockTableRecord
  2
*D55
  0
BLOCK_RECORD
  5
9E08
330
1
100
AcDbSymbolTableRecord
100
AcDbBlockTableRecord
  2
*D56
  0
BLOCK_RECORD
  5
9E14
330
1
100
AcDbSymbolTableRecord
100
AcDbBlockTableRecord
  2
*D57
  0
BLOCK_RECORD
  5
9E20
330
1
100
AcDbSymbolTableRecord
100
AcDbBlockTableRecord
  2
*D58
  0
BLOCK_RECORD
  5
9E2C
330
1
100
AcDbSymbolTableRecord
100
AcDbBlockTableRecord
  2
*D59
  0
BLOCK_RECORD
  5
9E38
330
1
100
AcDbSymbolTableRecord
100
AcDbBlockTableRecord
  2
*D60
  0
ENDTAB
  0
ENDSEC
  0
SECTION
  2
BLOCKS
  0
BLOCK
  5
1F
330
1E
100
AcDbEntity
  8
0
100
AcDbBlockBegin
  2
*MODEL_SPACE
 70
     0
 10
0.0
 20
0.0
 30
0.0
  3
*MODEL_SPACE
  1

  0
ENDBLK
  5
20
330
1E
100
AcDbEntity
  8
0
100
AcDbBlockEnd
  0
BLOCK
  5
1B
330
1A
100
AcDbEntity
 67
     1
  8
0
100
AcDbBlockBegin
  2
*PAPER_SPACE
 70
     0
 10
0.0
 20
0.0
 30
0.0
  3
*PAPER_SPACE
  1

  0
ENDBLK
  5
1C
330
1A
100
AcDbEntity
 67
     1
  8
0
100
AcDbBlockEnd
  0
BLOCK
  5
3B6
330
3B2
100
AcDbEntity
  8
0
100
AcDbBlockBegin
  2
_OPEN
 70
     0
 10
0.0
 20
0.0
 30
0.0
  3
_OPEN
  1

  0
LINE
  5
3B3
330
3B2
100
AcDbEntity
  8
30
  6
CONTINUOUS
 62
     0
100
AcDbLine
 10
-1.0
 20
0.1666666666666666
 30
0.0
 11
0.0
 21
0.0
 31
0.0
  0
LINE
  5
3B4
330
3B2
100
AcDbEntity
  8
30
  6
CONTINUOUS
 62
     0
100
AcDbLine
 10
-1.0
 20
-0.1666666666666666
 30
0.0
 11
0.0
 21
0.0
 31
0.0
  0
LINE
  5
3B5
330
3B2
100
AcDbEntity
  8
30
  6
CONTINUOUS
 62
     0
100
AcDbLine
 10
0.0
 20
0.0
 30
0.0
 11
-1.0
 21
0.0
 31
0.0
  0
ENDBLK
  5
3B7
330
3B2
100
AcDbEntity
  8
0
100
AcDbBlockEnd
  0
BLOCK
  5
7698
330
768E
100
AcDbEntity
  8
0
100
AcDbBlockBegin
  2
*D1
 70
     1
 10
0.0
 20
0.0
 30
0.0
  3
*D1
  1

  0
LINE
  5
9A5C
330
768E
100
AcDbEntity
  8
30
  6
CONTINUOUS
 62
     0
100
AcDbLine
 10
478.0983499025897
 20
-711.6617850407571
 30
0.0
 11
478.0983499025897
 21
-770.2472342595171
 31
0.0
  0
LINE
  5
9A5D
330
768E
100
AcDbEntity
  8
30
  6
CONTINUOUS
 62
     0
100
AcDbLine
 10
568.0983499025897
 20
-711.6617850407571
 30
0.0
 11
568.0983499025897
 21
-770.2472342595171
 31
0.0
  0
LINE
  5
9A5E
330
768E
100
AcDbEntity
  8
30
  6
CONTINUOUS
 62
     0
100
AcDbLine
 10
480.0983499025896
 20
-769.7472342595171
 30
0.0
 11
566.0983499025896
 21
-769.7472342595171
 31
0.0
  0
INSERT
  5
9A5F
330
768E
100
AcDbEntity
  8
30
  6
CONTINUOUS
 62
     0
100
AcDbBlockReference
  2
_OPEN
 10
478.0983499025897
 20
-769.7472342595171
 30
0.0
 41
2.0
 42
2.0
 43
2.0
 50
180.0
  0
INSERT
  5
9A60
330
768E
100
AcDbEntity
  8
30
  6
CONTINUOUS
 62
     0
100
AcDbBlockReference
  2
_OPEN
 10
568.0983499025897
 20
-769.7472342595171
 30
0.0
 41
2.0
 42
2.0
 43
2.0
  0
MTEXT
  5
9A61
330
768E
100
AcDbEntity
  8
30
  6
CONTINUOUS
 62
     0
100
AcDbMText
 10
523.0983499025897
 20
-764.7472342595171
 30
0.0
 40
6.0
 41
0.0
 71
     5
 72
     1
  1
\A1;90
1001
ACAD
1000
MTEXTBEGIN
1070
    73
1070
     1
1070
    44
1040
1.0
1070
    74
1070
     0
1000
MTEXTEND
  0
POINT
  5
9A62
330
768E
100
AcDbEntity
  8
DEFPOINTS
  6
CONTINUOUS
 62
     0
100
AcDbPoint
 10
478.0983499025897
 20
-710.6617850407571
 30
0.0
  0
POINT
  5
9A63
330
768E
100
AcDbEntity
  8
DEFPOINTS
  6
CONTINUOUS
 62
     0
100
AcDbPoint
 10
568.0983499025897
 20
-710.6617850407571
 30
0.0
  0
POINT
  5
9A64
330
768E
100
AcDbEntity
  8
DEFPOINTS
  6
CONTINUOUS
 62
     0
100
AcDbPoint
 10
568.0983499025897
 20
-769.7472342595171
 30
0.0
  0
ENDBLK
  5
7699
330
768E
100
AcDbEntity
  8
0
100
AcDbBlockEnd
  0
BLOCK
  5
8AC8
330
8ABE
100
AcDbEntity
  8
0
100
AcDbBlockBegin
  2
*D9
 70
     1
 10
0.0
 20
0.0
 30
0.0
  3
*D9
  1

  0
LINE
  5
9CC3
330
8ABE
100
AcDbEntity
  8
30
  6
CONTINUOUS
 62
     0
100
AcDbLine
 10
105.99993896488
 20
-632.2543784973463
 30
0.0
 11
134.8354472061339
 21
-632.2543784973463
 31
0.0
  0
LINE
  5
9CC4
330
8ABE
100
AcDbEntity
  8
30
  6
CONTINUOUS
 62
     0
100
AcDbLine
 10
105.99993896488
 20
-538.2222174883295
 30
0.0
 11
134.8354472061339
 21
-538.2222174883295
 31
0.0
  0
LINE
  5
9CC5
330
8ABE
100
AcDbEntity
  8
30
  6
CONTINUOUS
 62
     0
100
AcDbLine
 10
134.3354472061339
 20
-630.2543784973464
 30
0.0
 11
134.3354472061339
 21
-540.2222174883295
 31
0.0
  0
INSERT
  5
9CC6
330
8ABE
100
AcDbEntity
  8
30
  6
CONTINUOUS
 62
     0
100
AcDbBlockReference
  2
_OPEN
 10
134.3354472061339
 20
-632.2543784973463
 30
0.0
 41
2.0
 42
2.0
 43
2.0
 50
270.0
  0
INSERT
  5
9CC7
330
8ABE
100
AcDbEntity
  8
30
  6
CONTINUOUS
 62
     0
100
AcDbBlockReference
  2
_OPEN
 10
134.3354472061339
 20
-538.2222174883295
 30
0.0
 41
2.0
 42
2.0
 43
2.0
 50
90.0
  0
MTEXT
  5
9CC8
330
8ABE
100
AcDbEntity
  8
30
  6
CONTINUOUS
 62
     0
100
AcDbMText
 10
129.335447206134
 20
-586.5248498049115
 30
0.0
 40
6.0
 41
0.0
 71
     5
 72
     1
  1
\A1;94
 11
0.0000000000000001
 21
1.0
 31
0.0
1001
ACAD
1000
MTEXTBEGIN
1070
    73
1070
     1
1070
    44
1040
1.0
1070
    74
1070
     0
1000
MTEXTEND
  0
POINT
  5
9CC9
330
8ABE
100
AcDbEntity
  8
DEFPOINTS
  6
CONTINUOUS
 62
     0
100
AcDbPoint
 10
104.99993896488
 20
-632.2543784973463
 30
0.0
  0
POINT
  5
9CCA
330
8ABE
100
AcDbEntity
  8
DEFPOINTS
  6
CONTINUOUS
 62
     0
100
AcDbPoint
 10
104.99993896488
 20
-538.2222174883295
 30
0.0
  0
POINT
  5
9CCB
330
8ABE
100
AcDbEntity
  8
DEFPOINTS
  6
CONTINUOUS
 62
     0
100
AcDbPoint
 10
134.3354472061339
 20
-538.2222174883295
 30
0.0
  0
ENDBLK
  5
8AC9
330
8ABE
100
AcDbEntity
  8
0
100
AcDbBlockEnd
  0
BLOCK
  5
8AD4
330
8ACA
100
AcDbEntity
  8
0
100
AcDbBlockBegin
  2
*D10
 70
     1
 10
0.0
 20
0.0
 30
0.0
  3
*D10
  1

  0
LINE
  5
9C96
330
8ACA
100
AcDbEntity
  8
30
  6
CONTINUOUS
 62
     0
100
AcDbLine
 10
3.596923828099988
 20
-632.2222174883295
 30
0.0
 11
149.9540100235333
 21
-632.2222174883295
 31
0.0
  0
LINE
  5
9C97
330
8ACA
100
AcDbEntity
  8
30
  6
CONTINUOUS
 62
     0
100
AcDbLine
 10
27.09399414059999
 20
-433.2222174883295
 30
0.0
 11
149.9540100235333
 21
-433.2222174883296
 31
0.0
  0
LINE
  5
9C98
330
8ACA
100
AcDbEntity
  8
30
  6
CONTINUOUS
 62
     0
100
AcDbLine
 10
149.4540100235333
 20
-630.2222174883295
 30
0.0
 11
149.4540100235333
 21
-435.2222174883295
 31
0.0
  0
INSERT
  5
9C99
330
8ACA
100
AcDbEntity
  8
30
  6
CONTINUOUS
 62
     0
100
AcDbBlockReference
  2
_OPEN
 10
149.4540100235333
 20
-632.2222174883295
 30
0.0
 41
2.0
 42
2.0
 43
2.0
 50
270.0
  0
INSERT
  5
9C9A
330
8ACA
100
AcDbEntity
  8
30
  6
CONTINUOUS
 62
     0
100
AcDbBlockReference
  2
_OPEN
 10
149.4540100235333
 20
-433.2222174883296
 30
0.0
 41
2.0
 42
2.0
 43
2.0
 50
90.0
  0
MTEXT
  5
9C9B
330
8ACA
100
AcDbEntity
  8
30
  6
CONTINUOUS
 62
     0
100
AcDbMText
 10
144.4540100235334
 20
-535.0525753688218
 30
0.0
 40
6.0
 41
0.0
 71
     5
 72
     1
  1
\A1;199
 11
0.0000000000000001
 21
1.0
 31
0.0
1001
ACAD
1000
MTEXTBEGIN
1070
    73
1070
     1
1070
    44
1040
1.0
1070
    74
1070
     0
1000
MTEXTEND
  0
POINT
  5
9C9C
330
8ACA
100
AcDbEntity
  8
DEFPOINTS
  6
CONTINUOUS
 62
     0
100
AcDbPoint
 10
2.596923828099988
 20
-632.2222174883295
 30
0.0
  0
POINT
  5
9C9D
330
8ACA
100
AcDbEntity
  8
DEFPOINTS
  6
CONTINUOUS
 62
     0
100
AcDbPoint
 10
26.09399414059998
 20
-433.2222174883295
 30
0.0
  0
POINT
  5
9C9E
330
8ACA
100
AcDbEntity
  8
DEFPOINTS
  6
CONTINUOUS
 62
     0
100
AcDbPoint
 10
149.4540100235333
 20
-433.2222174883296
 30
0.0
  0
ENDBLK
  5
8AD5
330
8ACA
100
AcDbEntity
  8
0
100
AcDbBlockEnd
  0
BLOCK
  5
8AE0
330
8AD6
100
AcDbEntity
  8
0
100
AcDbBlockBegin
  2
*D11
 70
     1
 10
0.0
 20
0.0
 30
0.0
  3
*D11
  1

  0
LINE
  5
9C9F
330
8AD6
100
AcDbEntity
  8
30
  6
CONTINUOUS
 62
     0
100
AcDbLine
 10
105.99993896488
 20
-632.2222174883295
 30
0.0
 11
149.4540100235333
 21
-632.2222174883295
 31
0.0
  0
LINE
  5
9CA0
330
8AD6
100
AcDbEntity
  8
30
  6
CONTINUOUS
 62
     0
100
AcDbLine
 10
27.09423828119998
 20
-801.2227057695294
 30
0.0
 11
149.4540100235333
 21
-801.2227057695294
 31
0.0
  0
LINE
  5
9CA1
330
8AD6
100
AcDbEntity
  8
30
  6
CONTINUOUS
 62
     0
100
AcDbLine
 10
148.9540100235333
 20
-634.2222174883295
 30
0.0
 11
148.9540100235333
 21
-799.2227057695295
 31
0.0
  0
INSERT
  5
9CA2
330
8AD6
100
AcDbEntity
  8
30
  6
CONTINUOUS
 62
     0
100
AcDbBlockReference
  2
_OPEN
 10
148.9540100235333
 20
-632.2222174883295
 30
0.0
 41
2.0
 42
2.0
 43
2.0
 50
90.0
  0
INSERT
  5
9CA3
330
8AD6
100
AcDbEntity
  8
30
  6
CONTINUOUS
 62
     0
100
AcDbBlockReference
  2
_OPEN
 10
148.9540100235333
 20
-801.2227057695294
 30
0.0
 41
2.0
 42
2.0
 43
2.0
 50
270.0
  0
MTEXT
  5
9CA4
330
8AD6
100
AcDbEntity
  8
30
  6
CONTINUOUS
 62
     0
100
AcDbMText
 10
143.9540100235334
 20
-715.2176786680584
 30
0.0
 40
6.0
 41
0.0
 71
     5
 72
     1
  1
\A1;169
 11
0.0000000000000001
 21
1.0
 31
0.0
1001
ACAD
1000
MTEXTBEGIN
1070
    73
1070
     1
1070
    44
1040
1.0
1070
    74
1070
     0
1000
MTEXTEND
  0
POINT
  5
9CA5
330
8AD6
100
AcDbEntity
  8
DEFPOINTS
  6
CONTINUOUS
 62
     0
100
AcDbPoint
 10
104.99993896488
 20
-632.2222174883295
 30
0.0
  0
POINT
  5
9CA6
330
8AD6
100
AcDbEntity
  8
DEFPOINTS
  6
CONTINUOUS
 62
     0
100
AcDbPoint
 10
26.09423828119997
 20
-801.2227057695294
 30
0.0
  0
POINT
  5
9CA7
330
8AD6
100
AcDbEntity
  8
DEFPOINTS
  6
CONTINUOUS
 62
     0
100
AcDbPoint
 10
148.9540100235333
 20
-801.2227057695294
 30
0.0
  0
ENDBLK
  5
8AE1
330
8AD6
100
AcDbEntity
  8
0
100
AcDbBlockEnd
  0
BLOCK
  5
8AEC
330
8AE2
100
AcDbEntity
  8
0
100
AcDbBlockBegin
  2
*D12
 70
     1
 10
0.0
 20
0.0
 30
0.0
  3
*D12
  1

  0
LINE
  5
9D03
330
8AE2
100
AcDbEntity
  8
30
  6
CONTINUOUS
 62
     0
100
AcDbLine
 10
45.0
 20
-675.3158454180295
 30
0.0
 11
45.0
 21
-667.944263386732
 31
0.0
  0
LINE
  5
9D04
330
8AE2
100
AcDbEntity
  8
30
  6
CONTINUOUS
 62
     0
100
AcDbLine
 10
-44.99926757809999
 20
-675.3158454180295
 30
0.0
 11
-44.99926757809999
 21
-667.944263386732
 31
0.0
  0
LINE
  5
9D05
330
8AE2
100
AcDbEntity
  8
30
  6
CONTINUOUS
 62
     0
100
AcDbLine
 10
43.0
 20
-668.444263386732
 30
0.0
 11
-42.99926757809998
 21
-668.444263386732
 31
0.0
  0
INSERT
  5
9D06
330
8AE2
100
AcDbEntity
  8
30
  6
CONTINUOUS
 62
     0
100
AcDbBlockReference
  2
_OPEN
 10
45.0
 20
-668.444263386732
 30
0.0
 41
2.0
 42
2.0
 43
2.0
  0
INSERT
  5
9D07
330
8AE2
100
AcDbEntity
  8
30
  6
CONTINUOUS
 62
     0
100
AcDbBlockReference
  2
_OPEN
 10
-44.99926757809999
 20
-668.444263386732
 30
0.0
 41
2.0
 42
2.0
 43
2.0
 50
180.0
  0
MTEXT
  5
9D08
330
8AE2
100
AcDbEntity
  8
30
  6
CONTINUOUS
 62
     0
100
AcDbMText
 10
1.112113334063451
 20
-663.444263386732
 30
0.0
 40
6.0
 41
0.0
 71
     5
 72
     1
  1
\A1;90
1001
ACAD
1000
MTEXTBEGIN
1070
    73
1070
     1
1070
    44
1040
1.0
1070
    74
1070
     0
1000
MTEXTEND
  0
POINT
  5
9D09
330
8AE2
100
AcDbEntity
  8
DEFPOINTS
  6
CONTINUOUS
 62
     0
100
AcDbPoint
 10
45.0
 20
-676.3158454180295
 30
0.0
  0
POINT
  5
9D0A
330
8AE2
100
AcDbEntity
  8
DEFPOINTS
  6
CONTINUOUS
 62
     0
100
AcDbPoint
 10
-44.99926757809999
 20
-676.3158454180295
 30
0.0
  0
POINT
  5
9D0B
330
8AE2
100
AcDbEntity
  8
DEFPOINTS
  6
CONTINUOUS
 62
     0
100
AcDbPoint
 10
-44.99926757809999
 20
-668.444263386732
 30
0.0
  0
ENDBLK
  5
8AED
330
8AE2
100
AcDbEntity
  8
0
100
AcDbBlockEnd
  0
BLOCK
  5
8AF8
330
8AEE
100
AcDbEntity
  8
0
100
AcDbBlockBegin
  2
*D13
 70
     1
 10
0.0
 20
0.0
 30
0.0
  3
*D13
  1

  0
LINE
  5
9CDE
330
8AEE
100
AcDbEntity
  8
30
  6
CONTINUOUS
 62
     0
100
AcDbLine
 10
3.596923828099988
 20
-632.2222174883295
 30
0.0
 11
134.835447206134
 21
-632.2222174883295
 31
0.0
  0
LINE
  5
9CDF
330
8AEE
100
AcDbEntity
  8
30
  6
CONTINUOUS
 62
     0
100
AcDbLine
 10
37.09350585940001
 20
-696.2217292070294
 30
0.0
 11
134.835447206134
 21
-696.2217292070294
 31
0.0
  0
LINE
  5
9CE0
330
8AEE
100
AcDbEntity
  8
30
  6
CONTINUOUS
 62
     0
100
AcDbLine
 10
134.335447206134
 20
-634.2222174883295
 30
0.0
 11
134.335447206134
 21
-694.2217292070295
 31
0.0
  0
INSERT
  5
9CE1
330
8AEE
100
AcDbEntity
  8
30
  6
CONTINUOUS
 62
     0
100
AcDbBlockReference
  2
_OPEN
 10
134.335447206134
 20
-632.2222174883295
 30
0.0
 41
2.0
 42
2.0
 43
2.0
 50
90.0
  0
INSERT
  5
9CE2
330
8AEE
100
AcDbEntity
  8
30
  6
CONTINUOUS
 62
     0
100
AcDbBlockReference
  2
_OPEN
 10
134.335447206134
 20
-696.2217292070294
 30
0.0
 41
2.0
 42
2.0
 43
2.0
 50
270.0
  0
MTEXT
  5
9CE3
330
8AEE
100
AcDbEntity
  8
30
  6
CONTINUOUS
 62
     0
100
AcDbMText
 10
129.3354472061341
 20
-665.960281034529
 30
0.0
 40
6.0
 41
0.0
 71
     5
 72
     1
  1
\A1;64
 11
0.0000000000000001
 21
1.0
 31
0.0
1001
ACAD
1000
MTEXTBEGIN
1070
    73
1070
     1
1070
    44
1040
1.0
1070
    74
1070
     0
1000
MTEXTEND
  0
POINT
  5
9CE4
330
8AEE
100
AcDbEntity
  8
DEFPOINTS
  6
CONTINUOUS
 62
     0
100
AcDbPoint
 10
2.596923828099988
 20
-632.2222174883295
 30
0.0
  0
POINT
  5
9CE5
330
8AEE
100
AcDbEntity
  8
DEFPOINTS
  6
CONTINUOUS
 62
     0
100
AcDbPoint
 10
36.09350585940001
 20
-696.2217292070294
 30
0.0
  0
POINT
  5
9CE6
330
8AEE
100
AcDbEntity
  8
DEFPOINTS
  6
CONTINUOUS
 62
     0
100
AcDbPoint
 10
134.335447206134
 20
-696.2217292070294
 30
0.0
  0
ENDBLK
  5
8AF9
330
8AEE
100
AcDbEntity
  8
0
100
AcDbBlockEnd
  0
BLOCK
  5
8B04
330
8AFA
100
AcDbEntity
  8
0
100
AcDbBlockBegin
  2
*D14
 70
     1
 10
0.0
 20
0.0
 30
0.0
  3
*D14
  1

  0
LINE
  5
9AF9
330
8AFA
100
AcDbEntity
  8
30
  6
CONTINUOUS
 62
     0
100
AcDbLine
 10
-0.0000000000000001
 20
-575.5166510820295
 30
0.0
 11
-0.0000000000000199
 21
-898.8363474198804
 31
0.0
  0
LINE
  5
9AFA
330
8AFA
100
AcDbEntity
  8
30
  6
CONTINUOUS
 62
     0
100
AcDbLine
 10
105.0009765625
 20
-776.3163336992294
 30
0.0
 11
105.0009765624999
 21
-898.8363474198804
 31
0.0
  0
LINE
  5
9AFB
330
8AFA
100
AcDbEntity
  8
30
  6
CONTINUOUS
 62
     0
100
AcDbLine
 10
1.99999999999998
 20
-898.3363474198805
 30
0.0
 11
103.0009765624999
 21
-898.3363474198805
 31
0.0
  0
INSERT
  5
9AFC
330
8AFA
100
AcDbEntity
  8
30
  6
CONTINUOUS
 62
     0
100
AcDbBlockReference
  2
_OPEN
 10
-0.0000000000000198
 20
-898.3363474198805
 30
0.0
 41
2.0
 42
2.0
 43
2.0
 50
180.0
  0
INSERT
  5
9AFD
330
8AFA
100
AcDbEntity
  8
30
  6
CONTINUOUS
 62
     0
100
AcDbBlockReference
  2
_OPEN
 10
105.0009765624999
 20
-898.3363474198805
 30
0.0
 41
2.0
 42
2.0
 43
2.0
  0
MTEXT
  5
9AFE
330
8AFA
100
AcDbEntity
  8
30
  6
CONTINUOUS
 62
     0
100
AcDbMText
 10
50.21101459698957
 20
-893.3363474198804
 30
0.0
 40
6.0
 41
0.0
 71
     5
 72
     1
  1
\A1;105
1001
ACAD
1000
MTEXTBEGIN
1070
    73
1070
     1
1070
    44
1040
1.0
1070
    74
1070
     0
1000
MTEXTEND
  0
POINT
  5
9AFF
330
8AFA
100
AcDbEntity
  8
DEFPOINTS
  6
CONTINUOUS
 62
     0
100
AcDbPoint
 10
0.0
 20
-574.5166510820295
 30
0.0
  0
POINT
  5
9B00
330
8AFA
100
AcDbEntity
  8
DEFPOINTS
  6
CONTINUOUS
 62
     0
100
AcDbPoint
 10
105.0009765625
 20
-775.3163336992295
 30
0.0
  0
POINT
  5
9B01
330
8AFA
100
AcDbEntity
  8
DEFPOINTS
  6
CONTINUOUS
 62
     0
100
AcDbPoint
 10
105.0009765624999
 20
-898.3363474198805
 30
0.0
  0
ENDBLK
  5
8B05
330
8AFA
100
AcDbEntity
  8
0
100
AcDbBlockEnd
  0
BLOCK
  5
8B10
330
8B06
100
AcDbEntity
  8
0
100
AcDbBlockBegin
  2
*D15
 70
     1
 10
0.0
 20
0.0
 30
0.0
  3
*D15
  1

  0
LINE
  5
9AD5
330
8B06
100
AcDbEntity
  8
30
  6
CONTINUOUS
 62
     0
100
AcDbLine
 10
-174.9995117188
 20
-766.3158454180295
 30
0.0
 11
-174.9995117188
 21
-945.0341040073553
 31
0.0
  0
LINE
  5
9AD6
330
8B06
100
AcDbEntity
  8
30
  6
CONTINUOUS
 62
     0
100
AcDbLine
 10
105.0009765625
 20
-766.3163336992295
 30
0.0
 11
105.0009765624999
 21
-945.0341040073553
 31
0.0
  0
LINE
  5
9AD7
330
8B06
100
AcDbEntity
  8
30
  6
CONTINUOUS
 62
     0
100
AcDbLine
 10
-172.9995117188
 20
-944.5341040073554
 30
0.0
 11
103.0009765624999
 21
-944.5341040073554
 31
0.0
  0
INSERT
  5
9AD8
330
8B06
100
AcDbEntity
  8
30
  6
CONTINUOUS
 62
     0
100
AcDbBlockReference
  2
_OPEN
 10
-174.9995117188
 20
-944.5341040073554
 30
0.0
 41
2.0
 42
2.0
 43
2.0
 50
180.0
  0
INSERT
  5
9AD9
330
8B06
100
AcDbEntity
  8
30
  6
CONTINUOUS
 62
     0
100
AcDbBlockReference
  2
_OPEN
 10
105.0009765624999
 20
-944.5341040073554
 30
0.0
 41
2.0
 42
2.0
 43
2.0
  0
MTEXT
  5
9ADA
330
8B06
100
AcDbEntity
  8
30
  6
CONTINUOUS
 62
     0
100
AcDbMText
 10
-36.3018991570475
 20
-939.5341040073553
 30
0.0
 40
6.0
 41
0.0
 71
     5
 72
     1
  1
\A1;280
1001
ACAD
1000
MTEXTBEGIN
1070
    73
1070
     1
1070
    44
1040
1.0
1070
    74
1070
     0
1000
MTEXTEND
  0
POINT
  5
9ADB
330
8B06
100
AcDbEntity
  8
DEFPOINTS
  6
CONTINUOUS
 62
     0
100
AcDbPoint
 10
-174.9995117188
 20
-765.3158454180295
 30
0.0
  0
POINT
  5
9ADC
330
8B06
100
AcDbEntity
  8
DEFPOINTS
  6
CONTINUOUS
 62
     0
100
AcDbPoint
 10
105.0009765625
 20
-765.3163336992295
 30
0.0
  0
POINT
  5
9ADD
330
8B06
100
AcDbEntity
  8
DEFPOINTS
  6
CONTINUOUS
 62
     0
100
AcDbPoint
 10
105.0009765624999
 20
-944.5341040073554
 30
0.0
  0
ENDBLK
  5
8B11
330
8B06
100
AcDbEntity
  8
0
100
AcDbBlockEnd
  0
BLOCK
  5
8B1C
330
8B12
100
AcDbEntity
  8
0
100
AcDbBlockBegin
  2
*D16
 70
     1
 10
0.0
 20
0.0
 30
0.0
  3
*D16
  1

  0
LINE
  5
9B14
330
8B12
100
AcDbEntity
  8
30
  6
CONTINUOUS
 62
     0
100
AcDbLine
 10
70.0
 20
-802.2227057695294
 30
0.0
 11
70.0
 21
-876.331714558632
 31
0.0
  0
LINE
  5
9B15
330
8B12
100
AcDbEntity
  8
30
  6
CONTINUOUS
 62
     0
100
AcDbLine
 10
-0.0000000000000143
 20
-803.2227057695294
 30
0.0
 11
-0.0000000000000187
 21
-876.331714558632
 31
0.0
  0
LINE
  5
9B16
330
8B12
100
AcDbEntity
  8
30
  6
CONTINUOUS
 62
     0
100
AcDbLine
 10
68.0
 20
-875.8317145586319
 30
0.0
 11
1.999999999999981
 21
-875.8317145586319
 31
0.0
  0
INSERT
  5
9B17
330
8B12
100
AcDbEntity
  8
30
  6
CONTINUOUS
 62
     0
100
AcDbBlockReference
  2
_OPEN
 10
70.0
 20
-875.8317145586319
 30
0.0
 41
2.0
 42
2.0
 43
2.0
  0
INSERT
  5
9B18
330
8B12
100
AcDbEntity
  8
30
  6
CONTINUOUS
 62
     0
100
AcDbBlockReference
  2
_OPEN
 10
-0.0000000000000187
 20
-875.8317145586319
 30
0.0
 41
2.0
 42
2.0
 43
2.0
 50
180.0
  0
MTEXT
  5
9B19
330
8B12
100
AcDbEntity
  8
30
  6
CONTINUOUS
 62
     0
100
AcDbMText
 10
33.66216216216344
 20
-870.831714558632
 30
0.0
 40
6.0
 41
0.0
 71
     5
 72
     1
  1
\A1;70
1001
ACAD
1000
MTEXTBEGIN
1070
    73
1070
     1
1070
    44
1040
1.0
1070
    74
1070
     0
1000
MTEXTEND
  0
POINT
  5
9B1A
330
8B12
100
AcDbEntity
  8
DEFPOINTS
  6
CONTINUOUS
 62
     0
100
AcDbPoint
 10
70.0
 20
-801.2227057695294
 30
0.0
  0
POINT
  5
9B1B
330
8B12
100
AcDbEntity
  8
DEFPOINTS
  6
CONTINUOUS
 62
     0
100
AcDbPoint
 10
-0.0000000000000142
 20
-802.2227057695294
 30
0.0
  0
POINT
  5
9B1C
330
8B12
100
AcDbEntity
  8
DEFPOINTS
  6
CONTINUOUS
 62
     0
100
AcDbPoint
 10
-0.0000000000000187
 20
-875.8317145586319
 30
0.0
  0
ENDBLK
  5
8B1D
330
8B12
100
AcDbEntity
  8
0
100
AcDbBlockEnd
  0
BLOCK
  5
8B28
330
8B1E
100
AcDbEntity
  8
0
100
AcDbBlockBegin
  2
*D17
 70
     1
 10
0.0
 20
0.0
 30
0.0
  3
*D17
  1

  0
LINE
  5
9CF9
330
8B1E
100
AcDbEntity
  8
30
  6
CONTINUOUS
 62
     0
100
AcDbLine
 10
97.09448242190001
 20
-775.2227057695295
 30
0.0
 11
134.3354472061341
 21
-775.2227057695295
 31
0.0
  0
LINE
  5
9CFA
330
8B1E
100
AcDbEntity
  8
30
  6
CONTINUOUS
 62
     0
100
AcDbLine
 10
27.09423828119998
 20
-801.2227057695294
 30
0.0
 11
134.3354472061341
 21
-801.2227057695294
 31
0.0
  0
LINE
  5
9CFB
330
8B1E
100
AcDbEntity
  8
30
  6
CONTINUOUS
 62
     0
100
AcDbLine
 10
133.8354472061341
 20
-777.2227057695295
 30
0.0
 11
133.8354472061341
 21
-799.2227057695295
 31
0.0
  0
INSERT
  5
9CFC
330
8B1E
100
AcDbEntity
  8
30
  6
CONTINUOUS
 62
     0
100
AcDbBlockReference
  2
_OPEN
 10
133.8354472061341
 20
-775.2227057695295
 30
0.0
 41
2.0
 42
2.0
 43
2.0
 50
90.0
  0
INSERT
  5
9CFD
330
8B1E
100
AcDbEntity
  8
30
  6
CONTINUOUS
 62
     0
100
AcDbBlockReference
  2
_OPEN
 10
133.8354472061341
 20
-801.2227057695294
 30
0.0
 41
2.0
 42
2.0
 43
2.0
 50
270.0
  0
MTEXT
  5
9CFE
330
8B1E
100
AcDbEntity
  8
30
  6
CONTINUOUS
 62
     0
100
AcDbMText
 10
128.8354472061342
 20
-787.8451128940164
 30
0.0
 40
6.0
 41
0.0
 71
     5
 72
     1
  1
\A1;26
 11
0.0000000000000001
 21
1.0
 31
0.0
1001
ACAD
1000
MTEXTBEGIN
1070
    73
1070
     1
1070
    44
1040
1.0
1070
    74
1070
     0
1000
MTEXTEND
  0
POINT
  5
9CFF
330
8B1E
100
AcDbEntity
  8
DEFPOINTS
  6
CONTINUOUS
 62
     0
100
AcDbPoint
 10
96.09448242190001
 20
-775.2227057695295
 30
0.0
  0
POINT
  5
9D00
330
8B1E
100
AcDbEntity
  8
DEFPOINTS
  6
CONTINUOUS
 62
     0
100
AcDbPoint
 10
26.09423828119997
 20
-801.2227057695294
 30
0.0
  0
POINT
  5
9D01
330
8B1E
100
AcDbEntity
  8
DEFPOINTS
  6
CONTINUOUS
 62
     0
100
AcDbPoint
 10
133.8354472061341
 20
-801.2227057695294
 30
0.0
  0
ENDBLK
  5
8B29
330
8B1E
100
AcDbEntity
  8
0
100
AcDbBlockEnd
  0
BLOCK
  5
8B34
330
8B2A
100
AcDbEntity
  8
0
100
AcDbBlockBegin
  2
*D18
 70
     1
 10
0.0
 20
0.0
 30
0.0
  3
*D18
  1

  0
LINE
  5
9ACC
330
8B2A
100
AcDbEntity
  8
30
  6
CONTINUOUS
 62
     0
100
AcDbLine
 10
-174.9995117188
 20
-766.3158454180295
 30
0.0
 11
-174.9995117188
 21
-898.8363474198804
 31
0.0
  0
LINE
  5
9ACD
330
8B2A
100
AcDbEntity
  8
30
  6
CONTINUOUS
 62
     0
100
AcDbLine
 10
-0.0000000000000143
 20
-802.2227057695294
 30
0.0
 11
-0.0000000000000202
 21
-898.8363474198804
 31
0.0
  0
LINE
  5
9ACE
330
8B2A
100
AcDbEntity
  8
30
  6
CONTINUOUS
 62
     0
100
AcDbLine
 10
-172.9995117188
 20
-898.3363474198805
 30
0.0
 11
-2.000000000000019
 21
-898.3363474198805
 31
0.0
  0
INSERT
  5
9ACF
330
8B2A
100
AcDbEntity
  8
30
  6
CONTINUOUS
 62
     0
100
AcDbBlockReference
  2
_OPEN
 10
-174.9995117188
 20
-898.3363474198805
 30
0.0
 41
2.0
 42
2.0
 43
2.0
 50
180.0
  0
INSERT
  5
9AD0
330
8B2A
100
AcDbEntity
  8
30
  6
CONTINUOUS
 62
     0
100
AcDbBlockReference
  2
_OPEN
 10
-0.0000000000000202
 20
-898.3363474198805
 30
0.0
 41
2.0
 42
2.0
 43
2.0
  0
MTEXT
  5
9AD1
330
8B2A
100
AcDbEntity
  8
30
  6
CONTINUOUS
 62
     0
100
AcDbMText
 10
-89.78922954361042
 20
-893.3363474198804
 30
0.0
 40
6.0
 41
0.0
 71
     5
 72
     1
  1
\A1;175
1001
ACAD
1000
MTEXTBEGIN
1070
    73
1070
     1
1070
    44
1040
1.0
1070
    74
1070
     0
1000
MTEXTEND
  0
POINT
  5
9AD2
330
8B2A
100
AcDbEntity
  8
DEFPOINTS
  6
CONTINUOUS
 62
     0
100
AcDbPoint
 10
-174.9995117188
 20
-765.3158454180295
 30
0.0
  0
POINT
  5
9AD3
330
8B2A
100
AcDbEntity
  8
DEFPOINTS
  6
CONTINUOUS
 62
     0
100
AcDbPoint
 10
-0.0000000000000142
 20
-801.2227057695294
 30
0.0
  0
POINT
  5
9AD4
330
8B2A
100
AcDbEntity
  8
DEFPOINTS
  6
CONTINUOUS
 62
     0
100
AcDbPoint
 10
-0.0000000000000202
 20
-898.3363474198805
 30
0.0
  0
ENDBLK
  5
8B35
330
8B2A
100
AcDbEntity
  8
0
100
AcDbBlockEnd
  0
BLOCK
  5
8B40
330
8B36
100
AcDbEntity
  8
0
100
AcDbBlockBegin
  2
*D19
 70
     1
 10
0.0
 20
0.0
 30
0.0
  3
*D19
  1

  0
LINE
  5
9AF0
330
8B36
100
AcDbEntity
  8
30
  6
CONTINUOUS
 62
     0
100
AcDbLine
 10
-139.9995117188
 20
-747.2222174883295
 30
0.0
 11
-139.9995117188
 21
-876.331714558632
 31
0.0
  0
LINE
  5
9AF1
330
8B36
100
AcDbEntity
  8
30
  6
CONTINUOUS
 62
     0
100
AcDbLine
 10
-69.9990234375
 20
-739.2227057695294
 30
0.0
 11
-69.99902343750001
 21
-876.331714558632
 31
0.0
  0
LINE
  5
9AF2
330
8B36
100
AcDbEntity
  8
30
  6
CONTINUOUS
 62
     0
100
AcDbLine
 10
-137.9995117188
 20
-875.8317145586319
 30
0.0
 11
-71.99902343750001
 21
-875.8317145586319
 31
0.0
  0
INSERT
  5
9AF3
330
8B36
100
AcDbEntity
  8
30
  6
CONTINUOUS
 62
     0
100
AcDbBlockReference
  2
_OPEN
 10
-139.9995117188
 20
-875.8317145586319
 30
0.0
 41
2.0
 42
2.0
 43
2.0
 50
180.0
  0
INSERT
  5
9AF4
330
8B36
100
AcDbEntity
  8
30
  6
CONTINUOUS
 62
     0
100
AcDbBlockReference
  2
_OPEN
 10
-69.99902343750001
 20
-875.8317145586319
 30
0.0
 41
2.0
 42
2.0
 43
2.0
  0
MTEXT
  5
9AF5
330
8B36
100
AcDbEntity
  8
30
  6
CONTINUOUS
 62
     0
100
AcDbMText
 10
-106.3371054159365
 20
-870.831714558632
 30
0.0
 40
6.0
 41
0.0
 71
     5
 72
     1
  1
\A1;70
1001
ACAD
1000
MTEXTBEGIN
1070
    73
1070
     1
1070
    44
1040
1.0
1070
    74
1070
     0
1000
MTEXTEND
  0
POINT
  5
9AF6
330
8B36
100
AcDbEntity
  8
DEFPOINTS
  6
CONTINUOUS
 62
     0
100
AcDbPoint
 10
-139.9995117188
 20
-746.2222174883295
 30
0.0
  0
POINT
  5
9AF7
330
8B36
100
AcDbEntity
  8
DEFPOINTS
  6
CONTINUOUS
 62
     0
100
AcDbPoint
 10
-69.9990234375
 20
-738.2227057695295
 30
0.0
  0
POINT
  5
9AF8
330
8B36
100
AcDbEntity
  8
DEFPOINTS
  6
CONTINUOUS
 62
     0
100
AcDbPoint
 10
-69.99902343750001
 20
-875.8317145586319
 30
0.0
  0
ENDBLK
  5
8B41
330
8B36
100
AcDbEntity
  8
0
100
AcDbBlockEnd
  0
BLOCK
  5
8B4C
330
8B42
100
AcDbEntity
  8
0
100
AcDbBlockBegin
  2
*D20
 70
     1
 10
0.0
 20
0.0
 30
0.0
  3
*D20
  1

  0
LINE
  5
9AC3
330
8B42
100
AcDbEntity
  8
30
  6
CONTINUOUS
 62
     0
100
AcDbLine
 10
-69.9990234375
 20
-740.2227057695295
 30
0.0
 11
-69.99902343750001
 21
-876.331714558632
 31
0.0
  0
LINE
  5
9AC4
330
8B42
100
AcDbEntity
  8
30
  6
CONTINUOUS
 62
     0
100
AcDbLine
 10
-0.0000000000000001
 20
-739.2227057695294
 30
0.0
 11
-0.0000000000000085
 21
-876.331714558632
 31
0.0
  0
LINE
  5
9AC5
330
8B42
100
AcDbEntity
  8
30
  6
CONTINUOUS
 62
     0
100
AcDbLine
 10
-67.99902343750002
 20
-875.8317145586319
 30
0.0
 11
-2.000000000000008
 21
-875.8317145586319
 31
0.0
  0
INSERT
  5
9AC6
330
8B42
100
AcDbEntity
  8
30
  6
CONTINUOUS
 62
     0
100
AcDbBlockReference
  2
_OPEN
 10
-69.99902343750001
 20
-875.8317145586319
 30
0.0
 41
2.0
 42
2.0
 43
2.0
 50
180.0
  0
INSERT
  5
9AC7
330
8B42
100
AcDbEntity
  8
30
  6
CONTINUOUS
 62
     0
100
AcDbBlockReference
  2
_OPEN
 10
-0.0000000000000084
 20
-875.8317145586319
 30
0.0
 41
2.0
 42
2.0
 43
2.0
  0
MTEXT
  5
9AC8
330
8B42
100
AcDbEntity
  8
30
  6
CONTINUOUS
 62
     0
100
AcDbMText
 10
-36.33734955663658
 20
-870.831714558632
 30
0.0
 40
6.0
 41
0.0
 71
     5
 72
     1
  1
\A1;70
1001
ACAD
1000
MTEXTBEGIN
1070
    73
1070
     1
1070
    44
1040
1.0
1070
    74
1070
     0
1000
MTEXTEND
  0
POINT
  5
9AC9
330
8B42
100
AcDbEntity
  8
DEFPOINTS
  6
CONTINUOUS
 62
     0
100
AcDbPoint
 10
-69.9990234375
 20
-739.2227057695294
 30
0.0
  0
POINT
  5
9ACA
330
8B42
100
AcDbEntity
  8
DEFPOINTS
  6
CONTINUOUS
 62
     0
100
AcDbPoint
 10
0.0
 20
-738.2227057695295
 30
0.0
  0
POINT
  5
9ACB
330
8B42
100
AcDbEntity
  8
DEFPOINTS
  6
CONTINUOUS
 62
     0
100
AcDbPoint
 10
-0.0000000000000084
 20
-875.8317145586319
 30
0.0
  0
ENDBLK
  5
8B4D
330
8B42
100
AcDbEntity
  8
0
100
AcDbBlockEnd
  0
BLOCK
  5
8B58
330
8B4E
100
AcDbEntity
  8
0
100
AcDbBlockBegin
  2
*D21
 70
     1
 10
0.0
 20
0.0
 30
0.0
  3
*D21
  1

  0
LINE
  5
9CE7
330
8B4E
100
AcDbEntity
  8
30
  6
CONTINUOUS
 62
     0
100
AcDbLine
 10
87.09448242190001
 20
-717.2227057695295
 30
0.0
 11
134.835447206134
 21
-717.2227057695295
 31
0.0
  0
LINE
  5
9CE8
330
8B4E
100
AcDbEntity
  8
30
  6
CONTINUOUS
 62
     0
100
AcDbLine
 10
50.99999997615814
 20
-696.2222174883295
 30
0.0
 11
134.835447206134
 21
-696.2222174883295
 31
0.0
  0
LINE
  5
9CE9
330
8B4E
100
AcDbEntity
  8
30
  6
CONTINUOUS
 62
     0
100
AcDbLine
 10
134.335447206134
 20
-715.2227057695295
 30
0.0
 11
134.335447206134
 21
-698.2222174883295
 31
0.0
  0
INSERT
  5
9CEA
330
8B4E
100
AcDbEntity
  8
30
  6
CONTINUOUS
 62
     0
100
AcDbBlockReference
  2
_OPEN
 10
134.335447206134
 20
-717.2227057695295
 30
0.0
 41
2.0
 42
2.0
 43
2.0
 50
270.0
  0
INSERT
  5
9CEB
330
8B4E
100
AcDbEntity
  8
30
  6
CONTINUOUS
 62
     0
100
AcDbBlockReference
  2
_OPEN
 10
134.335447206134
 20
-696.2222174883295
 30
0.0
 41
2.0
 42
2.0
 43
2.0
 50
90.0
  0
MTEXT
  5
9CEC
330
8B4E
100
AcDbEntity
  8
30
  6
CONTINUOUS
 62
     0
100
AcDbMText
 10
129.3354472061341
 20
-706.7224616289295
 30
0.0
 40
6.0
 41
0.0
 71
     5
 72
     1
  1
\A1;21
 11
0.0000000000000001
 21
1.0
 31
0.0
1001
ACAD
1000
MTEXTBEGIN
1070
    73
1070
     1
1070
    44
1040
1.0
1070
    74
1070
     0
1000
MTEXTEND
  0
POINT
  5
9CED
330
8B4E
100
AcDbEntity
  8
DEFPOINTS
  6
CONTINUOUS
 62
     0
100
AcDbPoint
 10
86.09448242190001
 20
-717.2227057695295
 30
0.0
  0
POINT
  5
9CEE
330
8B4E
100
AcDbEntity
  8
DEFPOINTS
  6
CONTINUOUS
 62
     0
100
AcDbPoint
 10
49.99999997615813
 20
-696.2222174883295
 30
0.0
  0
POINT
  5
9CEF
330
8B4E
100
AcDbEntity
  8
DEFPOINTS
  6
CONTINUOUS
 62
     0
100
AcDbPoint
 10
134.335447206134
 20
-696.2222174883295
 30
0.0
  0
ENDBLK
  5
8B59
330
8B4E
100
AcDbEntity
  8
0
100
AcDbBlockEnd
  0
BLOCK
  5
8B64
330
8B5A
100
AcDbEntity
  8
0
100
AcDbBlockBegin
  2
*D22
 70
     1
 10
0.0
 20
0.0
 30
0.0
  3
*D22
  1

  0
LINE
  5
9CF0
330
8B5A
100
AcDbEntity
  8
30
  6
CONTINUOUS
 62
     0
100
AcDbLine
 10
97.09448242190001
 20
-717.2227057695295
 30
0.0
 11
134.8354472061341
 21
-717.2227057695295
 31
0.0
  0
LINE
  5
9CF1
330
8B5A
100
AcDbEntity
  8
30
  6
CONTINUOUS
 62
     0
100
AcDbLine
 10
97.09448242190001
 20
-775.2227057695295
 30
0.0
 11
134.8354472061341
 21
-775.2227057695295
 31
0.0
  0
LINE
  5
9CF2
330
8B5A
100
AcDbEntity
  8
30
  6
CONTINUOUS
 62
     0
100
AcDbLine
 10
134.3354472061341
 20
-719.2227057695295
 30
0.0
 11
134.3354472061341
 21
-773.2227057695295
 31
0.0
  0
INSERT
  5
9CF3
330
8B5A
100
AcDbEntity
  8
30
  6
CONTINUOUS
 62
     0
100
AcDbBlockReference
  2
_OPEN
 10
134.3354472061341
 20
-717.2227057695295
 30
0.0
 41
2.0
 42
2.0
 43
2.0
 50
90.0
  0
INSERT
  5
9CF4
330
8B5A
100
AcDbEntity
  8
30
  6
CONTINUOUS
 62
     0
100
AcDbBlockReference
  2
_OPEN
 10
134.3354472061341
 20
-775.2227057695295
 30
0.0
 41
2.0
 42
2.0
 43
2.0
 50
270.0
  0
MTEXT
  5
9CF5
330
8B5A
100
AcDbEntity
  8
30
  6
CONTINUOUS
 62
     0
100
AcDbMText
 10
129.3354472061342
 20
-747.6213551558128
 30
0.0
 40
6.0
 41
0.0
 71
     5
 72
     1
  1
\A1;58
 11
0.0000000000000001
 21
1.0
 31
0.0
1001
ACAD
1000
MTEXTBEGIN
1070
    73
1070
     1
1070
    44
1040
1.0
1070
    74
1070
     0
1000
MTEXTEND
  0
POINT
  5
9CF6
330
8B5A
100
AcDbEntity
  8
DEFPOINTS
  6
CONTINUOUS
 62
     0
100
AcDbPoint
 10
96.09448242190001
 20
-717.2227057695295
 30
0.0
  0
POINT
  5
9CF7
330
8B5A
100
AcDbEntity
  8
DEFPOINTS
  6
CONTINUOUS
 62
     0
100
AcDbPoint
 10
96.09448242190001
 20
-775.2227057695295
 30
0.0
  0
POINT
  5
9CF8
330
8B5A
100
AcDbEntity
  8
DEFPOINTS
  6
CONTINUOUS
 62
     0
100
AcDbPoint
 10
134.3354472061341
 20
-775.2227057695295
 30
0.0
  0
ENDBLK
  5
8B65
330
8B5A
100
AcDbEntity
  8
0
100
AcDbBlockEnd
  0
BLOCK
  5
8B70
330
8B66
100
AcDbEntity
  8
0
100
AcDbBlockBegin
  2
*D23
 70
     1
 10
0.0
 20
0.0
 30
0.0
  3
*D23
  1

  0
LINE
  5
9CA8
330
8B66
100
AcDbEntity
  8
30
  6
CONTINUOUS
 62
     0
100
AcDbLine
 10
97.09399414059999
 20
-459.2222174883295
 30
0.0
 11
135.258925719341
 21
-459.2222174883295
 31
0.0
  0
LINE
  5
9CA9
330
8B66
100
AcDbEntity
  8
30
  6
CONTINUOUS
 62
     0
100
AcDbLine
 10
27.09399414059999
 20
-433.2222174883295
 30
0.0
 11
135.2589257193411
 21
-433.2222174883296
 31
0.0
  0
LINE
  5
9CAA
330
8B66
100
AcDbEntity
  8
30
  6
CONTINUOUS
 62
     0
100
AcDbLine
 10
134.758925719341
 20
-457.2222174883296
 30
0.0
 11
134.7589257193411
 21
-435.2222174883295
 31
0.0
  0
INSERT
  5
9CAB
330
8B66
100
AcDbEntity
  8
30
  6
CONTINUOUS
 62
     0
100
AcDbBlockReference
  2
_OPEN
 10
134.758925719341
 20
-459.2222174883295
 30
0.0
 41
2.0
 42
2.0
 43
2.0
 50
270.0
  0
INSERT
  5
9CAC
330
8B66
100
AcDbEntity
  8
30
  6
CONTINUOUS
 62
     0
100
AcDbBlockReference
  2
_OPEN
 10
134.7589257193411
 20
-433.2222174883296
 30
0.0
 41
2.0
 42
2.0
 43
2.0
 50
90.0
  0
MTEXT
  5
9CAD
330
8B66
100
AcDbEntity
  8
30
  6
CONTINUOUS
 62
     0
100
AcDbMText
 10
129.7589257193411
 20
-445.9833194319717
 30
0.0
 40
6.0
 41
0.0
 71
     5
 72
     1
  1
\A1;26
 11
0.0000000000000001
 21
1.0
 31
0.0
1001
ACAD
1000
MTEXTBEGIN
1070
    73
1070
     1
1070
    44
1040
1.0
1070
    74
1070
     0
1000
MTEXTEND
  0
POINT
  5
9CAE
330
8B66
100
AcDbEntity
  8
DEFPOINTS
  6
CONTINUOUS
 62
     0
100
AcDbPoint
 10
96.0939941406
 20
-459.2222174883295
 30
0.0
  0
POINT
  5
9CAF
330
8B66
100
AcDbEntity
  8
DEFPOINTS
  6
CONTINUOUS
 62
     0
100
AcDbPoint
 10
26.09399414059998
 20
-433.2222174883295
 30
0.0
  0
POINT
  5
9CB0
330
8B66
100
AcDbEntity
  8
DEFPOINTS
  6
CONTINUOUS
 62
     0
100
AcDbPoint
 10
134.7589257193411
 20
-433.2222174883296
 30
0.0
  0
ENDBLK
  5
8B71
330
8B66
100
AcDbEntity
  8
0
100
AcDbBlockEnd
  0
BLOCK
  5
8B7C
330
8B72
100
AcDbEntity
  8
0
100
AcDbBlockBegin
  2
*D24
 70
     1
 10
0.0
 20
0.0
 30
0.0
  3
*D24
  1

  0
LINE
  5
9CBA
330
8B72
100
AcDbEntity
  8
30
  6
CONTINUOUS
 62
     0
100
AcDbLine
 10
106.99993896488
 20
-538.2222174883295
 30
0.0
 11
135.0021138728006
 21
-538.2222174883295
 31
0.0
  0
LINE
  5
9CBB
330
8B72
100
AcDbEntity
  8
30
  6
CONTINUOUS
 62
     0
100
AcDbLine
 10
87.09399414059999
 20
-517.2222174883295
 30
0.0
 11
135.0021138728006
 21
-517.2222174883295
 31
0.0
  0
LINE
  5
9CBC
330
8B72
100
AcDbEntity
  8
30
  6
CONTINUOUS
 62
     0
100
AcDbLine
 10
134.5021138728006
 20
-536.2222174883295
 30
0.0
 11
134.5021138728006
 21
-519.2222174883295
 31
0.0
  0
INSERT
  5
9CBD
330
8B72
100
AcDbEntity
  8
30
  6
CONTINUOUS
 62
     0
100
AcDbBlockReference
  2
_OPEN
 10
134.5021138728006
 20
-538.2222174883295
 30
0.0
 41
2.0
 42
2.0
 43
2.0
 50
270.0
  0
INSERT
  5
9CBE
330
8B72
100
AcDbEntity
  8
30
  6
CONTINUOUS
 62
     0
100
AcDbBlockReference
  2
_OPEN
 10
134.5021138728006
 20
-517.2222174883295
 30
0.0
 41
2.0
 42
2.0
 43
2.0
 50
90.0
  0
MTEXT
  5
9CBF
330
8B72
100
AcDbEntity
  8
30
  6
CONTINUOUS
 62
     0
100
AcDbMText
 10
129.5021138728007
 20
-526.4045755218067
 30
0.0
 40
6.0
 41
0.0
 71
     5
 72
     1
  1
\A1;21
 11
0.0000000000000001
 21
1.0
 31
0.0
1001
ACAD
1000
MTEXTBEGIN
1070
    73
1070
     1
1070
    44
1040
1.0
1070
    74
1070
     0
1000
MTEXTEND
  0
POINT
  5
9CC0
330
8B72
100
AcDbEntity
  8
DEFPOINTS
  6
CONTINUOUS
 62
     0
100
AcDbPoint
 10
105.99993896488
 20
-538.2222174883295
 30
0.0
  0
POINT
  5
9CC1
330
8B72
100
AcDbEntity
  8
DEFPOINTS
  6
CONTINUOUS
 62
     0
100
AcDbPoint
 10
86.09399414059998
 20
-517.2222174883295
 30
0.0
  0
POINT
  5
9CC2
330
8B72
100
AcDbEntity
  8
DEFPOINTS
  6
CONTINUOUS
 62
     0
100
AcDbPoint
 10
134.5021138728006
 20
-517.2222174883295
 30
0.0
  0
ENDBLK
  5
8B7D
330
8B72
100
AcDbEntity
  8
0
100
AcDbBlockEnd
  0
BLOCK
  5
8B88
330
8B7E
100
AcDbEntity
  8
0
100
AcDbBlockBegin
  2
*D25
 70
     1
 10
0.0
 20
0.0
 30
0.0
  3
*D25
  1

  0
LINE
  5
9CB1
330
8B7E
100
AcDbEntity
  8
30
  6
CONTINUOUS
 62
     0
100
AcDbLine
 10
97.09399414059999
 20
-517.2222174883295
 30
0.0
 11
135.0021138728006
 21
-517.2222174883295
 31
0.0
  0
LINE
  5
9CB2
330
8B7E
100
AcDbEntity
  8
30
  6
CONTINUOUS
 62
     0
100
AcDbLine
 10
97.09399414059999
 20
-459.2222174883295
 30
0.0
 11
135.0021138728006
 21
-459.2222174883295
 31
0.0
  0
LINE
  5
9CB3
330
8B7E
100
AcDbEntity
  8
30
  6
CONTINUOUS
 62
     0
100
AcDbLine
 10
134.5021138728006
 20
-515.2222174883295
 30
0.0
 11
134.5021138728006
 21
-461.2222174883296
 31
0.0
  0
INSERT
  5
9CB4
330
8B7E
100
AcDbEntity
  8
30
  6
CONTINUOUS
 62
     0
100
AcDbBlockReference
  2
_OPEN
 10
134.5021138728006
 20
-517.2222174883295
 30
0.0
 41
2.0
 42
2.0
 43
2.0
 50
270.0
  0
INSERT
  5
9CB5
330
8B7E
100
AcDbEntity
  8
30
  6
CONTINUOUS
 62
     0
100
AcDbBlockReference
  2
_OPEN
 10
134.5021138728006
 20
-459.2222174883295
 30
0.0
 41
2.0
 42
2.0
 43
2.0
 50
90.0
  0
MTEXT
  5
9CB6
330
8B7E
100
AcDbEntity
  8
30
  6
CONTINUOUS
 62
     0
100
AcDbMText
 10
129.5021138728007
 20
-489.6208668746137
 30
0.0
 40
6.0
 41
0.0
 71
     5
 72
     1
  1
\A1;58
 11
0.0000000000000001
 21
1.0
 31
0.0
1001
ACAD
1000
MTEXTBEGIN
1070
    73
1070
     1
1070
    44
1040
1.0
1070
    74
1070
     0
1000
MTEXTEND
  0
POINT
  5
9CB7
330
8B7E
100
AcDbEntity
  8
DEFPOINTS
  6
CONTINUOUS
 62
     0
100
AcDbPoint
 10
96.0939941406
 20
-517.2222174883295
 30
0.0
  0
POINT
  5
9CB8
330
8B7E
100
AcDbEntity
  8
DEFPOINTS
  6
CONTINUOUS
 62
     0
100
AcDbPoint
 10
96.0939941406
 20
-459.2222174883295
 30
0.0
  0
POINT
  5
9CB9
330
8B7E
100
AcDbEntity
  8
DEFPOINTS
  6
CONTINUOUS
 62
     0
100
AcDbPoint
 10
134.5021138728006
 20
-459.2222174883295
 30
0.0
  0
ENDBLK
  5
8B89
330
8B7E
100
AcDbEntity
  8
0
100
AcDbBlockEnd
  0
BLOCK
  5
90CC
330
90C2
100
AcDbEntity
  8
0
100
AcDbBlockBegin
  2
*D26
 70
     1
 10
0.0
 20
0.0
 30
0.0
  3
*D26
  1

  0
LINE
  5
9A53
330
90C2
100
AcDbEntity
  8
30
  6
CONTINUOUS
 62
     0
100
AcDbLine
 10
560.1920999025897
 20
-696.1617850407572
 30
0.0
 11
702.5045984421244
 21
-696.1617850407572
 31
0.0
  0
LINE
  5
9A54
330
90C2
100
AcDbEntity
  8
30
  6
CONTINUOUS
 62
     0
100
AcDbLine
 10
660.1920999025897
 20
-671.1617850407572
 30
0.0
 11
702.5045984421244
 21
-671.1617850407572
 31
0.0
  0
LINE
  5
9A55
330
90C2
100
AcDbEntity
  8
30
  6
CONTINUOUS
 62
     0
100
AcDbLine
 10
702.0045984421244
 20
-694.1617850407571
 30
0.0
 11
702.0045984421244
 21
-673.1617850407571
 31
0.0
  0
INSERT
  5
9A56
330
90C2
100
AcDbEntity
  8
30
  6
CONTINUOUS
 62
     0
100
AcDbBlockReference
  2
_OPEN
 10
702.0045984421244
 20
-696.1617850407572
 30
0.0
 41
2.0
 42
2.0
 43
2.0
 50
270.0
  0
INSERT
  5
9A57
330
90C2
100
AcDbEntity
  8
30
  6
CONTINUOUS
 62
     0
100
AcDbBlockReference
  2
_OPEN
 10
702.0045984421244
 20
-671.1617850407572
 30
0.0
 41
2.0
 42
2.0
 43
2.0
 50
90.0
  0
MTEXT
  5
9A58
330
90C2
100
AcDbEntity
  8
30
  6
CONTINUOUS
 62
     0
100
AcDbMText
 10
697.0045984421245
 20
-683.6617850407573
 30
0.0
 40
6.0
 41
0.0
 71
     5
 72
     1
  1
\A1;25
 11
0.0000000000000001
 21
1.0
 31
0.0
1001
ACAD
1000
MTEXTBEGIN
1070
    73
1070
     1
1070
    44
1040
1.0
1070
    74
1070
     0
1000
MTEXTEND
  0
POINT
  5
9A59
330
90C2
100
AcDbEntity
  8
DEFPOINTS
  6
CONTINUOUS
 62
     0
100
AcDbPoint
 10
559.1920999025896
 20
-696.1617850407572
 30
0.0
  0
POINT
  5
9A5A
330
90C2
100
AcDbEntity
  8
DEFPOINTS
  6
CONTINUOUS
 62
     0
100
AcDbPoint
 10
659.1920999025896
 20
-671.1617850407572
 30
0.0
  0
POINT
  5
9A5B
330
90C2
100
AcDbEntity
  8
DEFPOINTS
  6
CONTINUOUS
 62
     0
100
AcDbPoint
 10
702.0045984421244
 20
-671.1617850407572
 30
0.0
  0
ENDBLK
  5
90CD
330
90C2
100
AcDbEntity
  8
0
100
AcDbBlockEnd
  0
BLOCK
  5
90D8
330
90CE
100
AcDbEntity
  8
0
100
AcDbBlockBegin
  2
*D27
 70
     1
 10
0.0
 20
0.0
 30
0.0
  3
*D27
  1

  0
LINE
  5
9A4A
330
90CE
100
AcDbEntity
  8
30
  6
CONTINUOUS
 62
     0
100
AcDbLine
 10
538.1256936525897
 20
-632.1617850407571
 30
0.0
 11
718.8330313059849
 21
-632.1617850407571
 31
0.0
  0
LINE
  5
9A4B
330
90CE
100
AcDbEntity
  8
30
  6
CONTINUOUS
 62
     0
100
AcDbLine
 10
560.1920999025897
 20
-696.1617850407572
 30
0.0
 11
718.8330313059849
 21
-696.1617850407572
 31
0.0
  0
LINE
  5
9A4C
330
90CE
100
AcDbEntity
  8
30
  6
CONTINUOUS
 62
     0
100
AcDbLine
 10
718.3330313059849
 20
-634.1617850407572
 30
0.0
 11
718.3330313059849
 21
-694.1617850407571
 31
0.0
  0
INSERT
  5
9A4D
330
90CE
100
AcDbEntity
  8
30
  6
CONTINUOUS
 62
     0
100
AcDbBlockReference
  2
_OPEN
 10
718.3330313059849
 20
-632.1617850407571
 30
0.0
 41
2.0
 42
2.0
 43
2.0
 50
90.0
  0
INSERT
  5
9A4E
330
90CE
100
AcDbEntity
  8
30
  6
CONTINUOUS
 62
     0
100
AcDbBlockReference
  2
_OPEN
 10
718.3330313059849
 20
-696.1617850407572
 30
0.0
 41
2.0
 42
2.0
 43
2.0
 50
270.0
  0
MTEXT
  5
9A4F
330
90CE
100
AcDbEntity
  8
30
  6
CONTINUOUS
 62
     0
100
AcDbMText
 10
713.333031305985
 20
-663.683022743422
 30
0.0
 40
6.0
 41
0.0
 71
     5
 72
     1
  1
\A1;64
 11
0.0000000000000001
 21
1.0
 31
0.0
1001
ACAD
1000
MTEXTBEGIN
1070
    73
1070
     1
1070
    44
1040
1.0
1070
    74
1070
     0
1000
MTEXTEND
  0
POINT
  5
9A50
330
90CE
100
AcDbEntity
  8
DEFPOINTS
  6
CONTINUOUS
 62
     0
100
AcDbPoint
 10
537.1256936525896
 20
-632.1617850407571
 30
0.0
  0
POINT
  5
9A51
330
90CE
100
AcDbEntity
  8
DEFPOINTS
  6
CONTINUOUS
 62
     0
100
AcDbPoint
 10
559.1920999025896
 20
-696.1617850407572
 30
0.0
  0
POINT
  5
9A52
330
90CE
100
AcDbEntity
  8
DEFPOINTS
  6
CONTINUOUS
 62
     0
100
AcDbPoint
 10
718.3330313059849
 20
-696.1617850407572
 30
0.0
  0
ENDBLK
  5
90D9
330
90CE
100
AcDbEntity
  8
0
100
AcDbBlockEnd
  0
BLOCK
  5
9108
330
90FE
100
AcDbEntity
  8
0
100
AcDbBlockBegin
  2
*D28
 70
     1
 10
0.0
 20
0.0
 30
0.0
  3
*D28
  1

  0
LINE
  5
9A6E
330
90FE
100
AcDbEntity
  8
30
  6
CONTINUOUS
 62
     0
100
AcDbLine
 10
560.1920999025897
 20
-538.1617850407572
 30
0.0
 11
699.1431453871691
 21
-538.1617850407572
 31
0.0
  0
LINE
  5
9A6F
330
90FE
100
AcDbEntity
  8
30
  6
CONTINUOUS
 62
     0
100
AcDbLine
 10
670.1920999025896
 20
-563.1617850407572
 30
0.0
 11
699.1431453871691
 21
-563.1617850407572
 31
0.0
  0
LINE
  5
9A70
330
90FE
100
AcDbEntity
  8
30
  6
CONTINUOUS
 62
     0
100
AcDbLine
 10
698.6431453871691
 20
-540.1617850407571
 30
0.0
 11
698.6431453871691
 21
-561.1617850407571
 31
0.0
  0
INSERT
  5
9A71
330
90FE
100
AcDbEntity
  8
30
  6
CONTINUOUS
 62
     0
100
AcDbBlockReference
  2
_OPEN
 10
698.6431453871691
 20
-538.1617850407572
 30
0.0
 41
2.0
 42
2.0
 43
2.0
 50
90.0
  0
INSERT
  5
9A72
330
90FE
100
AcDbEntity
  8
30
  6
CONTINUOUS
 62
     0
100
AcDbBlockReference
  2
_OPEN
 10
698.6431453871691
 20
-563.1617850407572
 30
0.0
 41
2.0
 42
2.0
 43
2.0
 50
270.0
  0
MTEXT
  5
9A73
330
90FE
100
AcDbEntity
  8
30
  6
CONTINUOUS
 62
     0
100
AcDbMText
 10
693.6431453871692
 20
-550.6617850407573
 30
0.0
 40
6.0
 41
0.0
 71
     5
 72
     1
  1
\A1;25
 11
0.0000000000000001
 21
1.0
 31
0.0
1001
ACAD
1000
MTEXTBEGIN
1070
    73
1070
     1
1070
    44
1040
1.0
1070
    74
1070
     0
1000
MTEXTEND
  0
POINT
  5
9A74
330
90FE
100
AcDbEntity
  8
DEFPOINTS
  6
CONTINUOUS
 62
     0
100
AcDbPoint
 10
559.1920999025896
 20
-538.1617850407572
 30
0.0
  0
POINT
  5
9A75
330
90FE
100
AcDbEntity
  8
DEFPOINTS
  6
CONTINUOUS
 62
     0
100
AcDbPoint
 10
669.1920999025897
 20
-563.1617850407572
 30
0.0
  0
POINT
  5
9A76
330
90FE
100
AcDbEntity
  8
DEFPOINTS
  6
CONTINUOUS
 62
     0
100
AcDbPoint
 10
698.6431453871691
 20
-563.1617850407572
 30
0.0
  0
ENDBLK
  5
9109
330
90FE
100
AcDbEntity
  8
0
100
AcDbBlockEnd
  0
BLOCK
  5
9114
330
910A
100
AcDbEntity
  8
0
100
AcDbBlockBegin
  2
*D29
 70
     1
 10
0.0
 20
0.0
 30
0.0
  3
*D29
  1

  0
LINE
  5
9A65
330
910A
100
AcDbEntity
  8
30
  6
CONTINUOUS
 62
     0
100
AcDbLine
 10
560.1920999025897
 20
-538.1617850407572
 30
0.0
 11
718.8330312870074
 21
-538.1617850407572
 31
0.0
  0
LINE
  5
9A66
330
910A
100
AcDbEntity
  8
30
  6
CONTINUOUS
 62
     0
100
AcDbLine
 10
515.1920999025897
 20
-632.1617850407571
 30
0.0
 11
718.8330312870074
 21
-632.1617850407571
 31
0.0
  0
LINE
  5
9A67
330
910A
100
AcDbEntity
  8
30
  6
CONTINUOUS
 62
     0
100
AcDbLine
 10
718.3330312870074
 20
-540.1617850407571
 30
0.0
 11
718.3330312870074
 21
-630.1617850407572
 31
0.0
  0
INSERT
  5
9A68
330
910A
100
AcDbEntity
  8
30
  6
CONTINUOUS
 62
     0
100
AcDbBlockReference
  2
_OPEN
 10
718.3330312870074
 20
-538.1617850407572
 30
0.0
 41
2.0
 42
2.0
 43
2.0
 50
90.0
  0
INSERT
  5
9A69
330
910A
100
AcDbEntity
  8
30
  6
CONTINUOUS
 62
     0
100
AcDbBlockReference
  2
_OPEN
 10
718.3330312870074
 20
-632.1617850407571
 30
0.0
 41
2.0
 42
2.0
 43
2.0
 50
270.0
  0
MTEXT
  5
9A6A
330
910A
100
AcDbEntity
  8
30
  6
CONTINUOUS
 62
     0
100
AcDbMText
 10
713.3330312870075
 20
-584.2488122171046
 30
0.0
 40
6.0
 41
0.0
 71
     5
 72
     1
  1
\A1;94
 11
0.0000000000000001
 21
1.0
 31
0.0
1001
ACAD
1000
MTEXTBEGIN
1070
    73
1070
     1
1070
    44
1040
1.0
1070
    74
1070
     0
1000
MTEXTEND
  0
POINT
  5
9A6B
330
910A
100
AcDbEntity
  8
DEFPOINTS
  6
CONTINUOUS
 62
     0
100
AcDbPoint
 10
559.1920999025896
 20
-538.1617850407572
 30
0.0
  0
POINT
  5
9A6C
330
910A
100
AcDbEntity
  8
DEFPOINTS
  6
CONTINUOUS
 62
     0
100
AcDbPoint
 10
514.1920999025897
 20
-632.1617850407571
 30
0.0
  0
POINT
  5
9A6D
330
910A
100
AcDbEntity
  8
DEFPOINTS
  6
CONTINUOUS
 62
     0
100
AcDbPoint
 10
718.3330312870074
 20
-632.1617850407571
 30
0.0
  0
ENDBLK
  5
9115
330
910A
100
AcDbEntity
  8
0
100
AcDbBlockEnd
  0
BLOCK
  5
91F6
330
91EC
100
AcDbEntity
  8
0
100
AcDbBlockBegin
  2
*D30
 70
     1
 10
0.0
 20
0.0
 30
0.0
  3
*D30
  1

  0
LINE
  5
9EDD
330
91EC
100
AcDbEntity
  8
30
  6
CONTINUOUS
 62
     0
100
AcDbLine
 10
-22.49975585929991
 20
634.0
 30
0.0
 11
-22.49975585929991
 21
671.8554801843456
 31
0.0
  0
LINE
  5
9EDE
330
91EC
100
AcDbEntity
  8
30
  6
CONTINUOUS
 62
     0
100
AcDbLine
 10
22.50024414070008
 20
634.0
 30
0.0
 11
22.50024414070009
 21
671.8554801843456
 31
0.0
  0
LINE
  5
9EDF
330
91EC
100
AcDbEntity
  8
30
  6
CONTINUOUS
 62
     0
100
AcDbLine
 10
-20.49975585929991
 20
671.3554801843456
 30
0.0
 11
20.50024414070009
 21
671.3554801843456
 31
0.0
  0
INSERT
  5
9EE0
330
91EC
100
AcDbEntity
  8
30
  6
CONTINUOUS
 62
     0
100
AcDbBlockReference
  2
_OPEN
 10
-22.49975585929991
 20
671.3554801843456
 30
0.0
 41
2.0
 42
2.0
 43
2.0
 50
180.0
  0
INSERT
  5
9EE1
330
91EC
100
AcDbEntity
  8
30
  6
CONTINUOUS
 62
     0
100
AcDbBlockReference
  2
_OPEN
 10
22.50024414070009
 20
671.3554801843456
 30
0.0
 41
2.0
 42
2.0
 43
2.0
  0
MTEXT
  5
9EE2
330
91EC
100
AcDbEntity
  8
30
  6
CONTINUOUS
 62
     0
100
AcDbMText
 10
-2.710242156633656
 20
676.3554801843456
 30
0.0
 40
6.0
 41
0.0
 71
     5
 72
     1
  1
\A1;45
1001
ACAD
1000
MTEXTBEGIN
1070
    73
1070
     1
1070
    44
1040
1.0
1070
    74
1070
     0
1000
MTEXTEND
  0
POINT
  5
9EE3
330
91EC
100
AcDbEntity
  8
DEFPOINTS
  6
CONTINUOUS
 62
     0
100
AcDbPoint
 10
-22.49975585929999
 20
633.0
 30
0.0
  0
POINT
  5
9EE4
330
91EC
100
AcDbEntity
  8
DEFPOINTS
  6
CONTINUOUS
 62
     0
100
AcDbPoint
 10
22.5002441407
 20
633.0
 30
0.0
  0
POINT
  5
9EE5
330
91EC
100
AcDbEntity
  8
DEFPOINTS
  6
CONTINUOUS
 62
     0
100
AcDbPoint
 10
22.5002441407
 20
671.3554801843456
 30
0.0
  0
ENDBLK
  5
91F7
330
91EC
100
AcDbEntity
  8
0
100
AcDbBlockEnd
  0
BLOCK
  5
93D6
330
93CD
100
AcDbEntity
  8
0
100
AcDbBlockBegin
  2
*D31
 70
     1
 10
0.0
 20
0.0
 30
0.0
  3
*D31
  1

  0
LINE
  5
9B9B
330
93CD
100
AcDbEntity
  8
30
  6
CONTINUOUS
 62
     0
100
AcDbLine
 10
164.0602629793265
 20
642.5222693466473
 30
0.0
 11
146.8935963126604
 21
642.5222693466475
 31
0.0
  0
LINE
  5
9B9C
330
93CD
100
AcDbEntity
  8
30
  6
CONTINUOUS
 62
     0
100
AcDbLine
 10
146.8935963126604
 20
642.5222693466475
 30
0.0
 11
142.0815323238023
 21
628.0860773800762
 31
0.0
  0
MTEXT
  5
9B9D
330
93CD
100
AcDbEntity
  8
30
  6
CONTINUOUS
 62
     0
100
AcDbMText
 10
157.0602629793264
 20
647.5222693466474
 30
0.0
 40
6.0
 41
0.0
 71
     5
 72
     1
  1
\A1;%%c13
1001
ACAD
1000
MTEXTBEGIN
1070
    73
1070
     1
1070
    44
1040
1.0
1070
    74
1070
     0
1000
MTEXTEND
  0
INSERT
  5
9B9E
330
93CD
100
AcDbEntity
  8
30
  6
CONTINUOUS
 62
     0
100
AcDbBlockReference
  2
_OPEN
 10
141.4490767917685
 20
626.1887107839753
 30
0.0
 41
2.0
 42
2.0
 43
2.0
 50
251.5650511770746
  0
LINE
  5
9B9F
330
93CD
100
AcDbEntity
  8
30
  6
CONTINUOUS
 62
     0
100
AcDbLine
 10
139.3035963126589
 20
620.0222693466477
 30
0.0
 11
139.4835963126589
 21
620.0222693466476
 31
0.0
  0
LINE
  5
9BA0
330
93CD
100
AcDbEntity
  8
30
  6
CONTINUOUS
 62
     0
100
AcDbLine
 10
139.3935963126588
 20
619.9322693466475
 30
0.0
 11
139.3935963126589
 21
620.1122693466476
 31
0.0
  0
POINT
  5
9BA1
330
93CD
100
AcDbEntity
  8
DEFPOINTS
  6
CONTINUOUS
 62
     0
100
AcDbPoint
 10
141.4490767917685
 20
626.1887107839753
 30
0.0
  0
POINT
  5
9BA2
330
93CD
100
AcDbEntity
  8
DEFPOINTS
  6
CONTINUOUS
 62
     0
100
AcDbPoint
 10
139.3935963126589
 20
620.0222693466474
 30
0.0
  0
ENDBLK
  5
93D7
330
93CD
100
AcDbEntity
  8
0
100
AcDbBlockEnd
  0
BLOCK
  5
9407
330
93FD
100
AcDbEntity
  8
0
100
AcDbBlockBegin
  2
*D32
 70
     1
 10
0.0
 20
0.0
 30
0.0
  3
*D32
  1

  0
LINE
  5
9ED4
330
93FD
100
AcDbEntity
  8
30
  6
CONTINUOUS
 62
     0
100
AcDbLine
 10
-70.0
 20
620.0935058594
 30
0.0
 11
-70.0
 21
707.0532543537364
 31
0.0
  0
LINE
  5
9ED5
330
93FD
100
AcDbEntity
  8
30
  6
CONTINUOUS
 62
     0
100
AcDbLine
 10
0.0000000000000001
 20
620.0935058594
 30
0.0
 11
0.0000000000000054
 21
707.0532543537364
 31
0.0
  0
LINE
  5
9ED6
330
93FD
100
AcDbEntity
  8
30
  6
CONTINUOUS
 62
     0
100
AcDbLine
 10
-68.0
 20
706.5532543537364
 30
0.0
 11
-1.999999999999994
 21
706.5532543537364
 31
0.0
  0
INSERT
  5
9ED7
330
93FD
100
AcDbEntity
  8
30
  6
CONTINUOUS
 62
     0
100
AcDbBlockReference
  2
_OPEN
 10
-70.0
 20
706.5532543537364
 30
0.0
 41
2.0
 42
2.0
 43
2.0
 50
180.0
  0
INSERT
  5
9ED8
330
93FD
100
AcDbEntity
  8
30
  6
CONTINUOUS
 62
     0
100
AcDbBlockReference
  2
_OPEN
 10
0.0000000000000054
 20
706.5532543537364
 30
0.0
 41
2.0
 42
2.0
 43
2.0
  0
MTEXT
  5
9ED9
330
93FD
100
AcDbEntity
  8
30
  6
CONTINUOUS
 62
     0
100
AcDbMText
 10
-35.68598756442963
 20
711.5532543537364
 30
0.0
 40
6.0
 41
0.0
 71
     5
 72
     1
  1
\A1;70
1001
ACAD
1000
MTEXTBEGIN
1070
    73
1070
     1
1070
    44
1040
1.0
1070
    74
1070
     0
1000
MTEXTEND
  0
POINT
  5
9EDA
330
93FD
100
AcDbEntity
  8
DEFPOINTS
  6
CONTINUOUS
 62
     0
100
AcDbPoint
 10
-70.0
 20
619.0935058594
 30
0.0
  0
POINT
  5
9EDB
330
93FD
100
AcDbEntity
  8
DEFPOINTS
  6
CONTINUOUS
 62
     0
100
AcDbPoint
 10
0.0
 20
619.0935058594
 30
0.0
  0
POINT
  5
9EDC
330
93FD
100
AcDbEntity
  8
DEFPOINTS
  6
CONTINUOUS
 62
     0
100
AcDbPoint
 10
0.0000000000000054
 20
706.5532543537364
 30
0.0
  0
ENDBLK
  5
9408
330
93FD
100
AcDbEntity
  8
0
100
AcDbBlockEnd
  0
BLOCK
  5
9413
330
9409
100
AcDbEntity
  8
0
100
AcDbBlockBegin
  2
*D33
 70
     1
 10
0.0
 20
0.0
 30
0.0
  3
*D33
  1

  0
LINE
  5
9EC2
330
9409
100
AcDbEntity
  8
30
  6
CONTINUOUS
 62
     0
100
AcDbLine
 10
69.99999999989995
 20
620.0935058594
 30
0.0
 11
69.99999999989995
 21
707.0532543537364
 31
0.0
  0
LINE
  5
9EC3
330
9409
100
AcDbEntity
  8
30
  6
CONTINUOUS
 62
     0
100
AcDbLine
 10
140.0
 20
620.0935058594
 30
0.0
 11
140.0
 21
707.0532543537364
 31
0.0
  0
LINE
  5
9EC4
330
9409
100
AcDbEntity
  8
30
  6
CONTINUOUS
 62
     0
100
AcDbLine
 10
71.99999999989995
 20
706.5532543537364
 30
0.0
 11
138.0
 21
706.5532543537364
 31
0.0
  0
INSERT
  5
9EC5
330
9409
100
AcDbEntity
  8
30
  6
CONTINUOUS
 62
     0
100
AcDbBlockReference
  2
_OPEN
 10
69.99999999989995
 20
706.5532543537364
 30
0.0
 41
2.0
 42
2.0
 43
2.0
 50
180.0
  0
INSERT
  5
9EC6
330
9409
100
AcDbEntity
  8
30
  6
CONTINUOUS
 62
     0
100
AcDbBlockReference
  2
_OPEN
 10
140.0
 20
706.5532543537364
 30
0.0
 41
2.0
 42
2.0
 43
2.0
  0
MTEXT
  5
9EC7
330
9409
100
AcDbEntity
  8
30
  6
CONTINUOUS
 62
     0
100
AcDbMText
 10
104.3140124355703
 20
711.5532543537364
 30
0.0
 40
6.0
 41
0.0
 71
     5
 72
     1
  1
\A1;70
1001
ACAD
1000
MTEXTBEGIN
1070
    73
1070
     1
1070
    44
1040
1.0
1070
    74
1070
     0
1000
MTEXTEND
  0
POINT
  5
9EC8
330
9409
100
AcDbEntity
  8
DEFPOINTS
  6
CONTINUOUS
 62
     0
100
AcDbPoint
 10
69.99999999989995
 20
619.0935058594
 30
0.0
  0
POINT
  5
9EC9
330
9409
100
AcDbEntity
  8
DEFPOINTS
  6
CONTINUOUS
 62
     0
100
AcDbPoint
 10
140.0
 20
619.0935058594
 30
0.0
  0
POINT
  5
9ECA
330
9409
100
AcDbEntity
  8
DEFPOINTS
  6
CONTINUOUS
 62
     0
100
AcDbPoint
 10
140.0
 20
706.5532543537364
 30
0.0
  0
ENDBLK
  5
9414
330
9409
100
AcDbEntity
  8
0
100
AcDbBlockEnd
  0
BLOCK
  5
941F
330
9415
100
AcDbEntity
  8
0
100
AcDbBlockBegin
  2
*D34
 70
     1
 10
0.0
 20
0.0
 30
0.0
  3
*D34
  1

  0
LINE
  5
9ECB
330
9415
100
AcDbEntity
  8
30
  6
CONTINUOUS
 62
     0
100
AcDbLine
 10
0.0000000000000001
 20
620.0935058594
 30
0.0
 11
0.0000000000000054
 21
707.0532543537364
 31
0.0
  0
LINE
  5
9ECC
330
9415
100
AcDbEntity
  8
30
  6
CONTINUOUS
 62
     0
100
AcDbLine
 10
69.99999999989995
 20
620.0935058594
 30
0.0
 11
69.99999999989995
 21
707.0532543537364
 31
0.0
  0
LINE
  5
9ECD
330
9415
100
AcDbEntity
  8
30
  6
CONTINUOUS
 62
     0
100
AcDbLine
 10
2.000000000000005
 20
706.5532543537364
 30
0.0
 11
67.99999999989996
 21
706.5532543537364
 31
0.0
  0
INSERT
  5
9ECE
330
9415
100
AcDbEntity
  8
30
  6
CONTINUOUS
 62
     0
100
AcDbBlockReference
  2
_OPEN
 10
0.0000000000000054
 20
706.5532543537364
 30
0.0
 41
2.0
 42
2.0
 43
2.0
 50
180.0
  0
INSERT
  5
9ECF
330
9415
100
AcDbEntity
  8
30
  6
CONTINUOUS
 62
     0
100
AcDbBlockReference
  2
_OPEN
 10
69.99999999989995
 20
706.5532543537364
 30
0.0
 41
2.0
 42
2.0
 43
2.0
  0
MTEXT
  5
9ED0
330
9415
100
AcDbEntity
  8
30
  6
CONTINUOUS
 62
     0
100
AcDbMText
 10
34.31401243557036
 20
711.5532543537364
 30
0.0
 40
6.0
 41
0.0
 71
     5
 72
     1
  1
\A1;70
1001
ACAD
1000
MTEXTBEGIN
1070
    73
1070
     1
1070
    44
1040
1.0
1070
    74
1070
     0
1000
MTEXTEND
  0
POINT
  5
9ED1
330
9415
100
AcDbEntity
  8
DEFPOINTS
  6
CONTINUOUS
 62
     0
100
AcDbPoint
 10
0.0
 20
619.0935058594
 30
0.0
  0
POINT
  5
9ED2
330
9415
100
AcDbEntity
  8
DEFPOINTS
  6
CONTINUOUS
 62
     0
100
AcDbPoint
 10
69.99999999989995
 20
619.0935058594
 30
0.0
  0
POINT
  5
9ED3
330
9415
100
AcDbEntity
  8
DEFPOINTS
  6
CONTINUOUS
 62
     0
100
AcDbPoint
 10
69.99999999989995
 20
706.5532543537364
 30
0.0
  0
ENDBLK
  5
9420
330
9415
100
AcDbEntity
  8
0
100
AcDbBlockEnd
  0
BLOCK
  5
9447
330
943D
100
AcDbEntity
  8
0
100
AcDbBlockBegin
  2
*D35
 70
     1
 10
0.0
 20
0.0
 30
0.0
  3
*D35
  1

  0
LINE
  5
9BD0
330
943D
100
AcDbEntity
  8
30
  6
CONTINUOUS
 62
     0
100
AcDbLine
 10
176.0002441406
 20
548.9998779297
 30
0.0
 11
186.2167400158613
 21
548.9998779297
 31
0.0
  0
LINE
  5
9BD1
330
943D
100
AcDbEntity
  8
30
  6
CONTINUOUS
 62
     0
100
AcDbLine
 10
156.0
 20
579.0
 30
0.0
 11
186.2167400158613
 21
579.0
 31
0.0
  0
LINE
  5
9BD2
330
943D
100
AcDbEntity
  8
30
  6
CONTINUOUS
 62
     0
100
AcDbLine
 10
185.7167400158612
 20
550.9998779296999
 30
0.0
 11
185.7167400158613
 21
577.0
 31
0.0
  0
INSERT
  5
9BD3
330
943D
100
AcDbEntity
  8
30
  6
CONTINUOUS
 62
     0
100
AcDbBlockReference
  2
_OPEN
 10
185.7167400158612
 20
548.9998779297
 30
0.0
 41
2.0
 42
2.0
 43
2.0
 50
270.0
  0
INSERT
  5
9BD4
330
943D
100
AcDbEntity
  8
30
  6
CONTINUOUS
 62
     0
100
AcDbBlockReference
  2
_OPEN
 10
185.7167400158613
 20
579.0
 30
0.0
 41
2.0
 42
2.0
 43
2.0
 50
90.0
  0
MTEXT
  5
9BD5
330
943D
100
AcDbEntity
  8
30
  6
CONTINUOUS
 62
     0
100
AcDbMText
 10
180.7167400158611
 20
563.99993896485
 30
0.0
 40
6.0
 41
0.0
 71
     5
 72
     1
  1
\A1;30
 11
0.0000000000000001
 21
1.0
 31
0.0
1001
ACAD
1000
MTEXTBEGIN
1070
    73
1070
     1
1070
    44
1040
1.0
1070
    74
1070
     0
1000
MTEXTEND
  0
POINT
  5
9BD6
330
943D
100
AcDbEntity
  8
DEFPOINTS
  6
CONTINUOUS
 62
     0
100
AcDbPoint
 10
175.0002441406
 20
548.9998779297
 30
0.0
  0
POINT
  5
9BD7
330
943D
100
AcDbEntity
  8
DEFPOINTS
  6
CONTINUOUS
 62
     0
100
AcDbPoint
 10
155.0
 20
579.0
 30
0.0
  0
POINT
  5
9BD8
330
943D
100
AcDbEntity
  8
DEFPOINTS
  6
CONTINUOUS
 62
     0
100
AcDbPoint
 10
185.7167400158613
 20
579.0
 30
0.0
  0
ENDBLK
  5
9448
330
943D
100
AcDbEntity
  8
0
100
AcDbBlockEnd
  0
BLOCK
  5
9454
330
944A
100
AcDbEntity
  8
0
100
AcDbBlockBegin
  2
*D36
 70
     1
 10
0.0
 20
0.0
 30
0.0
  3
*D36
  1

  0
LINE
  5
9F26
330
944A
100
AcDbEntity
  8
30
  6
CONTINUOUS
 62
     0
100
AcDbLine
 10
156.0
 20
579.0
 30
0.0
 11
186.2167400158613
 21
579.0
 31
0.0
  0
LINE
  5
9F27
330
944A
100
AcDbEntity
  8
30
  6
CONTINUOUS
 62
     0
100
AcDbLine
 10
156.0
 20
587.0
 30
0.0
 11
186.2167400158613
 21
587.0
 31
0.0
  0
LINE
  5
9F28
330
944A
100
AcDbEntity
  8
30
  6
CONTINUOUS
 62
     0
100
AcDbLine
 10
185.7167400158613
 20
581.0
 30
0.0
 11
185.7167400158613
 21
585.0
 31
0.0
  0
MTEXT
  5
9F29
330
944A
100
AcDbEntity
  8
30
  6
CONTINUOUS
 62
     0
100
AcDbMText
 10
180.7167400158613
 20
583.0
 30
0.0
 40
6.0
 41
0.0
 71
     5
 72
     1
  1
\A1;8
 11
0.0000000000000001
 21
1.0
 31
0.0
  0
INSERT
  5
9F2A
330
944A
100
AcDbEntity
  8
30
  6
CONTINUOUS
 62
     0
100
AcDbBlockReference
  2
_OPEN
 10
185.7167400158613
 20
579.0
 30
0.0
 41
2.0
 42
2.0
 43
2.0
 50
270.0
  0
INSERT
  5
9F2B
330
944A
100
AcDbEntity
  8
30
  6
CONTINUOUS
 62
     0
100
AcDbBlockReference
  2
_OPEN
 10
185.7167400158613
 20
587.0
 30
0.0
 41
2.0
 42
2.0
 43
2.0
 50
90.0
  0
POINT
  5
9F2C
330
944A
100
AcDbEntity
  8
DEFPOINTS
  6
CONTINUOUS
 62
     0
100
AcDbPoint
 10
155.0
 20
579.0
 30
0.0
  0
POINT
  5
9F2D
330
944A
100
AcDbEntity
  8
DEFPOINTS
  6
CONTINUOUS
 62
     0
100
AcDbPoint
 10
155.0
 20
587.0
 30
0.0
  0
POINT
  5
9F2E
330
944A
100
AcDbEntity
  8
DEFPOINTS
  6
CONTINUOUS
 62
     0
100
AcDbPoint
 10
185.7167400158613
 20
587.0
 30
0.0
  0
ENDBLK
  5
9455
330
944A
100
AcDbEntity
  8
0
100
AcDbBlockEnd
  0
BLOCK
  5
9461
330
9457
100
AcDbEntity
  8
0
100
AcDbBlockBegin
  2
*D37
 70
     1
 10
0.0
 20
0.0
 30
0.0
  3
*D37
  1

  0
LINE
  5
9F2F
330
9457
100
AcDbEntity
  8
30
  6
CONTINUOUS
 62
     0
100
AcDbLine
 10
156.0
 20
587.0
 30
0.0
 11
186.2167400158613
 21
587.0
 31
0.0
  0
LINE
  5
9F30
330
9457
100
AcDbEntity
  8
30
  6
CONTINUOUS
 62
     0
100
AcDbLine
 10
156.0
 20
619.0
 30
0.0
 11
186.2167400158613
 21
619.0
 31
0.0
  0
LINE
  5
9F31
330
9457
100
AcDbEntity
  8
30
  6
CONTINUOUS
 62
     0
100
AcDbLine
 10
185.7167400158613
 20
589.0
 30
0.0
 11
185.7167400158613
 21
617.0
 31
0.0
  0
INSERT
  5
9F32
330
9457
100
AcDbEntity
  8
30
  6
CONTINUOUS
 62
     0
100
AcDbBlockReference
  2
_OPEN
 10
185.7167400158613
 20
587.0
 30
0.0
 41
2.0
 42
2.0
 43
2.0
 50
270.0
  0
INSERT
  5
9F33
330
9457
100
AcDbEntity
  8
30
  6
CONTINUOUS
 62
     0
100
AcDbBlockReference
  2
_OPEN
 10
185.7167400158613
 20
619.0
 30
0.0
 41
2.0
 42
2.0
 43
2.0
 50
90.0
  0
MTEXT
  5
9F34
330
9457
100
AcDbEntity
  8
30
  6
CONTINUOUS
 62
     0
100
AcDbMText
 10
180.7167400158611
 20
603.0
 30
0.0
 40
6.0
 41
0.0
 71
     5
 72
     1
  1
\A1;32
 11
0.0000000000000001
 21
1.0
 31
0.0
  0
POINT
  5
9F35
330
9457
100
AcDbEntity
  8
DEFPOINTS
  6
CONTINUOUS
 62
     0
100
AcDbPoint
 10
155.0
 20
587.0
 30
0.0
  0
POINT
  5
9F36
330
9457
100
AcDbEntity
  8
DEFPOINTS
  6
CONTINUOUS
 62
     0
100
AcDbPoint
 10
155.0
 20
619.0
 30
0.0
  0
POINT
  5
9F37
330
9457
100
AcDbEntity
  8
DEFPOINTS
  6
CONTINUOUS
 62
     0
100
AcDbPoint
 10
185.7167400158613
 20
619.0
 30
0.0
  0
ENDBLK
  5
9462
330
9457
100
AcDbEntity
  8
0
100
AcDbBlockEnd
  0
BLOCK
  5
946E
330
9464
100
AcDbEntity
  8
0
100
AcDbBlockBegin
  2
*D38
 70
     1
 10
0.0
 20
0.0
 30
0.0
  3
*D38
  1

  0
LINE
  5
9F38
330
9464
100
AcDbEntity
  8
30
  6
CONTINUOUS
 62
     0
100
AcDbLine
 10
156.0
 20
619.0
 30
0.0
 11
186.2167400158613
 21
619.0
 31
0.0
  0
LINE
  5
9F39
330
9464
100
AcDbEntity
  8
30
  6
CONTINUOUS
 62
     0
100
AcDbLine
 10
163.5002441407
 20
634.0
 30
0.0
 11
186.2167400158613
 21
634.0
 31
0.0
  0
LINE
  5
9F3A
330
9464
100
AcDbEntity
  8
30
  6
CONTINUOUS
 62
     0
100
AcDbLine
 10
185.7167400158613
 20
621.0
 30
0.0
 11
185.7167400158613
 21
632.0
 31
0.0
  0
INSERT
  5
9F3B
330
9464
100
AcDbEntity
  8
30
  6
CONTINUOUS
 62
     0
100
AcDbBlockReference
  2
_OPEN
 10
185.7167400158613
 20
619.0
 30
0.0
 41
2.0
 42
2.0
 43
2.0
 50
270.0
  0
INSERT
  5
9F3C
330
9464
100
AcDbEntity
  8
30
  6
CONTINUOUS
 62
     0
100
AcDbBlockReference
  2
_OPEN
 10
185.7167400158613
 20
634.0
 30
0.0
 41
2.0
 42
2.0
 43
2.0
 50
90.0
  0
MTEXT
  5
9F3D
330
9464
100
AcDbEntity
  8
30
  6
CONTINUOUS
 62
     0
100
AcDbMText
 10
180.7167400158611
 20
626.5
 30
0.0
 40
6.0
 41
0.0
 71
     5
 72
     1
  1
\A1;15
 11
0.0000000000000001
 21
1.0
 31
0.0
  0
POINT
  5
9F3E
330
9464
100
AcDbEntity
  8
DEFPOINTS
  6
CONTINUOUS
 62
     0
100
AcDbPoint
 10
155.0
 20
619.0
 30
0.0
  0
POINT
  5
9F3F
330
9464
100
AcDbEntity
  8
DEFPOINTS
  6
CONTINUOUS
 62
     0
100
AcDbPoint
 10
162.5002441407
 20
634.0
 30
0.0
  0
POINT
  5
9F40
330
9464
100
AcDbEntity
  8
DEFPOINTS
  6
CONTINUOUS
 62
     0
100
AcDbPoint
 10
185.7167400158613
 20
634.0
 30
0.0
  0
ENDBLK
  5
946F
330
9464
100
AcDbEntity
  8
0
100
AcDbBlockEnd
  0
BLOCK
  5
94A2
330
9498
100
AcDbEntity
  8
0
100
AcDbBlockBegin
  2
*D39
 70
     1
 10
0.0
 20
0.0
 30
0.0
  3
*D39
  1

  0
LINE
  5
9B77
330
9498
100
AcDbEntity
  8
30
  6
CONTINUOUS
 62
     0
100
AcDbLine
 10
-105.99993896485
 20
200.0
 30
0.0
 11
-166.4169122489493
 21
200.0
 31
0.0
  0
LINE
  5
9B78
330
9498
100
AcDbEntity
  8
30
  6
CONTINUOUS
 62
     0
100
AcDbLine
 10
-105.99993896485
 20
0.0000000000000287
 30
0.0
 11
-166.4169122489494
 21
0.0000000000000458
 31
0.0
  0
LINE
  5
9B79
330
9498
100
AcDbEntity
  8
30
  6
CONTINUOUS
 62
     0
100
AcDbLine
 10
-165.9169122489493
 20
198.0
 30
0.0
 11
-165.9169122489494
 21
2.000000000000045
 31
0.0
  0
INSERT
  5
9B7A
330
9498
100
AcDbEntity
  8
30
  6
CONTINUOUS
 62
     0
100
AcDbBlockReference
  2
_OPEN
 10
-165.9169122489493
 20
200.0
 30
0.0
 41
2.0
 42
2.0
 43
2.0
 50
90.0
  0
INSERT
  5
9B7B
330
9498
100
AcDbEntity
  8
30
  6
CONTINUOUS
 62
     0
100
AcDbBlockReference
  2
_OPEN
 10
-165.9169122489494
 20
0.0000000000000457
 30
0.0
 41
2.0
 42
2.0
 43
2.0
 50
270.0
  0
MTEXT
  5
9B7C
330
9498
100
AcDbEntity
  8
30
  6
CONTINUOUS
 62
     0
100
AcDbMText
 10
-170.9169122489494
 20
100.0
 30
0.0
 40
6.0
 41
0.0
 71
     5
 72
     1
  1
\A1;200
 11
0.0000000000000001
 21
1.0
 31
0.0
1001
ACAD
1000
MTEXTBEGIN
1070
    73
1070
     1
1070
    44
1040
1.0
1070
    74
1070
     0
1000
MTEXTEND
  0
POINT
  5
9B7D
330
9498
100
AcDbEntity
  8
DEFPOINTS
  6
CONTINUOUS
 62
     0
100
AcDbPoint
 10
-104.99993896485
 20
200.0
 30
0.0
  0
POINT
  5
9B7E
330
9498
100
AcDbEntity
  8
DEFPOINTS
  6
CONTINUOUS
 62
     0
100
AcDbPoint
 10
-104.99993896485
 20
0.0000000000000284
 30
0.0
  0
POINT
  5
9B7F
330
9498
100
AcDbEntity
  8
DEFPOINTS
  6
CONTINUOUS
 62
     0
100
AcDbPoint
 10
-165.9169122489494
 20
0.0000000000000457
 30
0.0
  0
ENDBLK
  5
94A3
330
9498
100
AcDbEntity
  8
0
100
AcDbBlockEnd
  0
BLOCK
  5
94AF
330
94A5
100
AcDbEntity
  8
0
100
AcDbBlockBegin
  2
*D40
 70
     1
 10
0.0
 20
0.0
 30
0.0
  3
*D40
  1

  0
LINE
  5
9ABA
330
94A5
100
AcDbEntity
  8
30
  6
CONTINUOUS
 62
     0
100
AcDbLine
 10
-105.99993896485
 20
0.0000000000000287
 30
0.0
 11
-166.4169122489494
 21
0.0000000000000458
 31
0.0
  0
LINE
  5
9ABB
330
94A5
100
AcDbEntity
  8
30
  6
CONTINUOUS
 62
     0
100
AcDbLine
 10
-105.99993896485
 20
-169.9999999999999
 30
0.0
 11
-166.4169122489494
 21
-169.9999999999999
 31
0.0
  0
LINE
  5
9ABC
330
94A5
100
AcDbEntity
  8
30
  6
CONTINUOUS
 62
     0
100
AcDbLine
 10
-165.9169122489494
 20
-1.999999999999954
 30
0.0
 11
-165.9169122489494
 21
-167.9999999999999
 31
0.0
  0
INSERT
  5
9ABD
330
94A5
100
AcDbEntity
  8
30
  6
CONTINUOUS
 62
     0
100
AcDbBlockReference
  2
_OPEN
 10
-165.9169122489494
 20
0.0000000000000457
 30
0.0
 41
2.0
 42
2.0
 43
2.0
 50
90.0
  0
INSERT
  5
9ABE
330
94A5
100
AcDbEntity
  8
30
  6
CONTINUOUS
 62
     0
100
AcDbBlockReference
  2
_OPEN
 10
-165.9169122489494
 20
-169.9999999999999
 30
0.0
 41
2.0
 42
2.0
 43
2.0
 50
270.0
  0
MTEXT
  5
9ABF
330
94A5
100
AcDbEntity
  8
30
  6
CONTINUOUS
 62
     0
100
AcDbMText
 10
-170.9169122489494
 20
-84.99999999999998
 30
0.0
 40
6.0
 41
0.0
 71
     5
 72
     1
  1
\A1;170
 11
0.0000000000000001
 21
1.0
 31
0.0
1001
ACAD
1000
MTEXTBEGIN
1070
    73
1070
     1
1070
    44
1040
1.0
1070
    74
1070
     0
1000
MTEXTEND
  0
POINT
  5
9AC0
330
94A5
100
AcDbEntity
  8
DEFPOINTS
  6
CONTINUOUS
 62
     0
100
AcDbPoint
 10
-104.99993896485
 20
0.0000000000000284
 30
0.0
  0
POINT
  5
9AC1
330
94A5
100
AcDbEntity
  8
DEFPOINTS
  6
CONTINUOUS
 62
     0
100
AcDbPoint
 10
-104.99993896485
 20
-169.9999999999999
 30
0.0
  0
POINT
  5
9AC2
330
94A5
100
AcDbEntity
  8
DEFPOINTS
  6
CONTINUOUS
 62
     0
100
AcDbPoint
 10
-165.9169122489494
 20
-169.9999999999999
 30
0.0
  0
ENDBLK
  5
94B0
330
94A5
100
AcDbEntity
  8
0
100
AcDbBlockEnd
  0
BLOCK
  5
94BC
330
94B2
100
AcDbEntity
  8
0
100
AcDbBlockBegin
  2
*D41
 70
     1
 10
0.0
 20
0.0
 30
0.0
  3
*D41
  1

  0
LINE
  5
9B92
330
94B2
100
AcDbEntity
  8
30
  6
CONTINUOUS
 62
     0
100
AcDbLine
 10
-40.0
 20
47.50000000000002
 30
0.0
 11
-139.4197758474457
 21
47.50000000000006
 31
0.0
  0
LINE
  5
9B93
330
94B2
100
AcDbEntity
  8
30
  6
CONTINUOUS
 62
     0
100
AcDbLine
 10
-105.99993896485
 20
0.0000000000000287
 30
0.0
 11
-139.4197758474457
 21
0.0000000000000382
 31
0.0
  0
LINE
  5
9B94
330
94B2
100
AcDbEntity
  8
30
  6
CONTINUOUS
 62
     0
100
AcDbLine
 10
-138.9197758474457
 20
45.50000000000006
 30
0.0
 11
-138.9197758474457
 21
2.000000000000037
 31
0.0
  0
INSERT
  5
9B95
330
94B2
100
AcDbEntity
  8
30
  6
CONTINUOUS
 62
     0
100
AcDbBlockReference
  2
_OPEN
 10
-138.9197758474457
 20
47.50000000000006
 30
0.0
 41
2.0
 42
2.0
 43
2.0
 50
90.0
  0
INSERT
  5
9B96
330
94B2
100
AcDbEntity
  8
30
  6
CONTINUOUS
 62
     0
100
AcDbBlockReference
  2
_OPEN
 10
-138.9197758474457
 20
0.000000000000038
 30
0.0
 41
2.0
 42
2.0
 43
2.0
 50
270.0
  0
MTEXT
  5
9B97
330
94B2
100
AcDbEntity
  8
30
  6
CONTINUOUS
 62
     0
100
AcDbMText
 10
-143.9197758474457
 20
23.75000000000002
 30
0.0
 40
6.0
 41
0.0
 71
     5
 72
     1
  1
\A1;47.5
 11
0.0000000000000001
 21
1.0
 31
0.0
1001
ACAD
1000
MTEXTBEGIN
1070
    73
1070
     1
1070
    44
1040
1.0
1070
    74
1070
     0
1000
MTEXTEND
  0
POINT
  5
9B98
330
94B2
100
AcDbEntity
  8
DEFPOINTS
  6
CONTINUOUS
 62
     0
100
AcDbPoint
 10
-39.0
 20
47.50000000000002
 30
0.0
  0
POINT
  5
9B99
330
94B2
100
AcDbEntity
  8
DEFPOINTS
  6
CONTINUOUS
 62
     0
100
AcDbPoint
 10
-104.99993896485
 20
0.0000000000000284
 30
0.0
  0
POINT
  5
9B9A
330
94B2
100
AcDbEntity
  8
DEFPOINTS
  6
CONTINUOUS
 62
     0
100
AcDbPoint
 10
-138.9197758474457
 20
0.000000000000038
 30
0.0
  0
ENDBLK
  5
94BD
330
94B2
100
AcDbEntity
  8
0
100
AcDbBlockEnd
  0
BLOCK
  5
94C9
330
94BF
100
AcDbEntity
  8
0
100
AcDbBlockBegin
  2
*D42
 70
     1
 10
0.0
 20
0.0
 30
0.0
  3
*D42
  1

  0
LINE
  5
9B89
330
94BF
100
AcDbEntity
  8
30
  6
CONTINUOUS
 62
     0
100
AcDbLine
 10
-105.99993896485
 20
0.0000000000000287
 30
0.0
 11
-139.9197758474457
 21
0.0000000000000383
 31
0.0
  0
LINE
  5
9B8A
330
94BF
100
AcDbEntity
  8
30
  6
CONTINUOUS
 62
     0
100
AcDbLine
 10
-40.0
 20
-47.49999999999997
 30
0.0
 11
-139.9197758474457
 21
-47.49999999999994
 31
0.0
  0
LINE
  5
9B8B
330
94BF
100
AcDbEntity
  8
30
  6
CONTINUOUS
 62
     0
100
AcDbLine
 10
-139.4197758474457
 20
-1.999999999999961
 30
0.0
 11
-139.4197758474457
 21
-45.49999999999994
 31
0.0
  0
INSERT
  5
9B8C
330
94BF
100
AcDbEntity
  8
30
  6
CONTINUOUS
 62
     0
100
AcDbBlockReference
  2
_OPEN
 10
-139.4197758474457
 20
0.0000000000000382
 30
0.0
 41
2.0
 42
2.0
 43
2.0
 50
90.0
  0
INSERT
  5
9B8D
330
94BF
100
AcDbEntity
  8
30
  6
CONTINUOUS
 62
     0
100
AcDbBlockReference
  2
_OPEN
 10
-139.4197758474457
 20
-47.49999999999994
 30
0.0
 41
2.0
 42
2.0
 43
2.0
 50
270.0
  0
MTEXT
  5
9B8E
330
94BF
100
AcDbEntity
  8
30
  6
CONTINUOUS
 62
     0
100
AcDbMText
 10
-144.4197758474457
 20
-23.74999999999997
 30
0.0
 40
6.0
 41
0.0
 71
     5
 72
     1
  1
\A1;47.5
 11
0.0000000000000001
 21
1.0
 31
0.0
1001
ACAD
1000
MTEXTBEGIN
1070
    73
1070
     1
1070
    44
1040
1.0
1070
    74
1070
     0
1000
MTEXTEND
  0
POINT
  5
9B8F
330
94BF
100
AcDbEntity
  8
DEFPOINTS
  6
CONTINUOUS
 62
     0
100
AcDbPoint
 10
-104.99993896485
 20
0.0000000000000284
 30
0.0
  0
POINT
  5
9B90
330
94BF
100
AcDbEntity
  8
DEFPOINTS
  6
CONTINUOUS
 62
     0
100
AcDbPoint
 10
-39.0
 20
-47.49999999999997
 30
0.0
  0
POINT
  5
9B91
330
94BF
100
AcDbEntity
  8
DEFPOINTS
  6
CONTINUOUS
 62
     0
100
AcDbPoint
 10
-139.4197758474457
 20
-47.49999999999994
 30
0.0
  0
ENDBLK
  5
94CA
330
94BF
100
AcDbEntity
  8
0
100
AcDbBlockEnd
  0
BLOCK
  5
94DF
330
94D5
100
AcDbEntity
  8
0
100
AcDbBlockBegin
  2
*D43
 70
     1
 10
0.0
 20
0.0
 30
0.0
  3
*D43
  1

  0
LINE
  5
9B80
330
94D5
100
AcDbEntity
  8
30
  6
CONTINUOUS
 62
     0
100
AcDbLine
 10
-51.0
 20
184.0
 30
0.0
 11
-153.0815270822969
 21
184.0
 31
0.0
  0
LINE
  5
9B81
330
94D5
100
AcDbEntity
  8
30
  6
CONTINUOUS
 62
     0
100
AcDbLine
 10
-105.99993896485
 20
0.0000000000000287
 30
0.0
 11
-153.0815270822969
 21
0.000000000000042
 31
0.0
  0
LINE
  5
9B82
330
94D5
100
AcDbEntity
  8
30
  6
CONTINUOUS
 62
     0
100
AcDbLine
 10
-152.5815270822969
 20
182.0
 30
0.0
 11
-152.5815270822969
 21
2.000000000000041
 31
0.0
  0
INSERT
  5
9B83
330
94D5
100
AcDbEntity
  8
30
  6
CONTINUOUS
 62
     0
100
AcDbBlockReference
  2
_OPEN
 10
-152.5815270822969
 20
184.0
 30
0.0
 41
2.0
 42
2.0
 43
2.0
 50
90.0
  0
INSERT
  5
9B84
330
94D5
100
AcDbEntity
  8
30
  6
CONTINUOUS
 62
     0
100
AcDbBlockReference
  2
_OPEN
 10
-152.5815270822969
 20
0.0000000000000419
 30
0.0
 41
2.0
 42
2.0
 43
2.0
 50
270.0
  0
MTEXT
  5
9B85
330
94D5
100
AcDbEntity
  8
30
  6
CONTINUOUS
 62
     0
100
AcDbMText
 10
-157.5815270822969
 20
92.00000000000002
 30
0.0
 40
6.0
 41
0.0
 71
     5
 72
     1
  1
\A1;184
 11
0.0000000000000001
 21
1.0
 31
0.0
1001
ACAD
1000
MTEXTBEGIN
1070
    73
1070
     1
1070
    44
1040
1.0
1070
    74
1070
     0
1000
MTEXTEND
  0
POINT
  5
9B86
330
94D5
100
AcDbEntity
  8
DEFPOINTS
  6
CONTINUOUS
 62
     0
100
AcDbPoint
 10
-50.0
 20
184.0
 30
0.0
  0
POINT
  5
9B87
330
94D5
100
AcDbEntity
  8
DEFPOINTS
  6
CONTINUOUS
 62
     0
100
AcDbPoint
 10
-104.99993896485
 20
0.0000000000000284
 30
0.0
  0
POINT
  5
9B88
330
94D5
100
AcDbEntity
  8
DEFPOINTS
  6
CONTINUOUS
 62
     0
100
AcDbPoint
 10
-152.5815270822969
 20
0.0000000000000419
 30
0.0
  0
ENDBLK
  5
94E0
330
94D5
100
AcDbEntity
  8
0
100
AcDbBlockEnd
  0
BLOCK
  5
94EC
330
94E2
100
AcDbEntity
  8
0
100
AcDbBlockBegin
  2
*D44
 70
     1
 10
0.0
 20
0.0
 30
0.0
  3
*D44
  1

  0
LINE
  5
9AB1
330
94E2
100
AcDbEntity
  8
30
  6
CONTINUOUS
 62
     0
100
AcDbLine
 10
-105.99993896485
 20
0.0000000000000287
 30
0.0
 11
-153.0815270822969
 21
0.000000000000042
 31
0.0
  0
LINE
  5
9AB2
330
94E2
100
AcDbEntity
  8
30
  6
CONTINUOUS
 62
     0
100
AcDbLine
 10
-51.0
 20
-153.9999999999999
 30
0.0
 11
-153.081527082297
 21
-153.9999999999999
 31
0.0
  0
LINE
  5
9AB3
330
94E2
100
AcDbEntity
  8
30
  6
CONTINUOUS
 62
     0
100
AcDbLine
 10
-152.5815270822969
 20
-1.999999999999958
 30
0.0
 11
-152.581527082297
 21
-151.9999999999999
 31
0.0
  0
INSERT
  5
9AB4
330
94E2
100
AcDbEntity
  8
30
  6
CONTINUOUS
 62
     0
100
AcDbBlockReference
  2
_OPEN
 10
-152.5815270822969
 20
0.0000000000000419
 30
0.0
 41
2.0
 42
2.0
 43
2.0
 50
90.0
  0
INSERT
  5
9AB5
330
94E2
100
AcDbEntity
  8
30
  6
CONTINUOUS
 62
     0
100
AcDbBlockReference
  2
_OPEN
 10
-152.581527082297
 20
-153.9999999999999
 30
0.0
 41
2.0
 42
2.0
 43
2.0
 50
270.0
  0
MTEXT
  5
9AB6
330
94E2
100
AcDbEntity
  8
30
  6
CONTINUOUS
 62
     0
100
AcDbMText
 10
-157.5815270822969
 20
-76.99999999999997
 30
0.0
 40
6.0
 41
0.0
 71
     5
 72
     1
  1
\A1;154
 11
0.0000000000000001
 21
1.0
 31
0.0
1001
ACAD
1000
MTEXTBEGIN
1070
    73
1070
     1
1070
    44
1040
1.0
1070
    74
1070
     0
1000
MTEXTEND
  0
POINT
  5
9AB7
330
94E2
100
AcDbEntity
  8
DEFPOINTS
  6
CONTINUOUS
 62
     0
100
AcDbPoint
 10
-104.99993896485
 20
0.0000000000000284
 30
0.0
  0
POINT
  5
9AB8
330
94E2
100
AcDbEntity
  8
DEFPOINTS
  6
CONTINUOUS
 62
     0
100
AcDbPoint
 10
-50.0
 20
-153.9999999999999
 30
0.0
  0
POINT
  5
9AB9
330
94E2
100
AcDbEntity
  8
DEFPOINTS
  6
CONTINUOUS
 62
     0
100
AcDbPoint
 10
-152.581527082297
 20
-153.9999999999999
 30
0.0
  0
ENDBLK
  5
94ED
330
94E2
100
AcDbEntity
  8
0
100
AcDbBlockEnd
  0
BLOCK
  5
9A48
330
9A3E
100
AcDbEntity
  8
0
100
AcDbBlockBegin
  2
*D45
 70
     1
 10
0.0
 20
0.0
 30
0.0
  3
*D45
  1

  0
LINE
  5
9ADE
330
9A3E
100
AcDbEntity
  8
30
  6
CONTINUOUS
 62
     0
100
AcDbLine
 10
-104.99993896485
 20
-170.9999999999999
 30
0.0
 11
-104.99993896485
 21
-230.0322991154853
 31
0.0
  0
LINE
  5
9ADF
330
9A3E
100
AcDbEntity
  8
30
  6
CONTINUOUS
 62
     0
100
AcDbLine
 10
174.99993896488
 20
-170.9999999999999
 30
0.0
 11
174.99993896488
 21
-230.0322991154853
 31
0.0
  0
LINE
  5
9AE0
330
9A3E
100
AcDbEntity
  8
30
  6
CONTINUOUS
 62
     0
100
AcDbLine
 10
-102.99993896485
 20
-229.5322991154852
 30
0.0
 11
172.99993896488
 21
-229.5322991154852
 31
0.0
  0
INSERT
  5
9AE1
330
9A3E
100
AcDbEntity
  8
30
  6
CONTINUOUS
 62
     0
100
AcDbBlockReference
  2
_OPEN
 10
-104.99993896485
 20
-229.5322991154852
 30
0.0
 41
2.0
 42
2.0
 43
2.0
 50
180.0
  0
INSERT
  5
9AE2
330
9A3E
100
AcDbEntity
  8
30
  6
CONTINUOUS
 62
     0
100
AcDbBlockReference
  2
_OPEN
 10
174.99993896488
 20
-229.5322991154852
 30
0.0
 41
2.0
 42
2.0
 43
2.0
  0
MTEXT
  5
9AE3
330
9A3E
100
AcDbEntity
  8
30
  6
CONTINUOUS
 62
     0
100
AcDbMText
 10
35.00000000001501
 20
-224.5322991154853
 30
0.0
 40
6.0
 41
0.0
 71
     5
 72
     1
  1
\A1;280
1001
ACAD
1000
MTEXTBEGIN
1070
    73
1070
     1
1070
    44
1040
1.0
1070
    74
1070
     0
1000
MTEXTEND
  0
POINT
  5
9AE4
330
9A3E
100
AcDbEntity
  8
DEFPOINTS
  6
CONTINUOUS
 62
     0
100
AcDbPoint
 10
-104.99993896485
 20
-169.9999999999999
 30
0.0
  0
POINT
  5
9AE5
330
9A3E
100
AcDbEntity
  8
DEFPOINTS
  6
CONTINUOUS
 62
     0
100
AcDbPoint
 10
174.99993896488
 20
-169.9999999999999
 30
0.0
  0
POINT
  5
9AE6
330
9A3E
100
AcDbEntity
  8
DEFPOINTS
  6
CONTINUOUS
 62
     0
100
AcDbPoint
 10
174.99993896488
 20
-229.5322991154852
 30
0.0
  0
ENDBLK
  5
9A49
330
9A3E
100
AcDbEntity
  8
0
100
AcDbBlockEnd
  0
BLOCK
  5
9DFA
330
9DF0
100
AcDbEntity
  8
0
100
AcDbBlockBegin
  2
*D54
 70
     1
 10
0.0
 20
0.0
 30
0.0
  3
*D54
  1

  0
LINE
  5
9E83
330
9DF0
100
AcDbEntity
  8
30
  6
CONTINUOUS
 62
     0
100
AcDbLine
 10
505.4199363862351
 20
-86.50048828119997
 30
0.0
 11
505.4199363862351
 21
-179.708715488558
 31
0.0
  0
LINE
  5
9E84
330
9DF0
100
AcDbEntity
  8
30
  6
CONTINUOUS
 62
     0
100
AcDbLine
 10
526.420082870635
 20
-70.79411621089997
 30
0.0
 11
526.420082870635
 21
-179.708715488558
 31
0.0
  0
LINE
  5
9E85
330
9DF0
100
AcDbEntity
  8
30
  6
CONTINUOUS
 62
     0
100
AcDbLine
 10
507.4199363862351
 20
-179.208715488558
 30
0.0
 11
524.420082870635
 21
-179.208715488558
 31
0.0
  0
INSERT
  5
9E86
330
9DF0
100
AcDbEntity
  8
30
  6
CONTINUOUS
 62
     0
100
AcDbBlockReference
  2
_OPEN
 10
505.4199363862351
 20
-179.208715488558
 30
0.0
 41
2.0
 42
2.0
 43
2.0
 50
180.0
  0
INSERT
  5
9E87
330
9DF0
100
AcDbEntity
  8
30
  6
CONTINUOUS
 62
     0
100
AcDbBlockReference
  2
_OPEN
 10
526.420082870635
 20
-179.208715488558
 30
0.0
 41
2.0
 42
2.0
 43
2.0
  0
MTEXT
  5
9E88
330
9DF0
100
AcDbEntity
  8
30
  6
CONTINUOUS
 62
     0
100
AcDbMText
 10
515.9700096284351
 20
-174.208715488558
 30
0.0
 40
6.0
 41
0.0
 71
     5
 72
     1
  1
\A1;21
1001
ACAD
1000
MTEXTBEGIN
1070
    73
1070
     1
1070
    44
1040
1.0
1070
    74
1070
     0
1000
MTEXTEND
  0
POINT
  5
9E89
330
9DF0
100
AcDbEntity
  8
DEFPOINTS
  6
CONTINUOUS
 62
     0
100
AcDbPoint
 10
505.4199363862351
 20
-85.50048828119997
 30
0.0
  0
POINT
  5
9E8A
330
9DF0
100
AcDbEntity
  8
DEFPOINTS
  6
CONTINUOUS
 62
     0
100
AcDbPoint
 10
526.420082870635
 20
-69.79411621089997
 30
0.0
  0
POINT
  5
9E8B
330
9DF0
100
AcDbEntity
  8
DEFPOINTS
  6
CONTINUOUS
 62
     0
100
AcDbPoint
 10
526.420082870635
 20
-179.208715488558
 30
0.0
  0
ENDBLK
  5
9DFB
330
9DF0
100
AcDbEntity
  8
0
100
AcDbBlockEnd
  0
BLOCK
  5
9E06
330
9DFC
100
AcDbEntity
  8
0
100
AcDbBlockBegin
  2
*D55
 70
     1
 10
0.0
 20
0.0
 30
0.0
  3
*D55
  1

  0
LINE
  5
9EA7
330
9DFC
100
AcDbEntity
  8
30
  6
CONTINUOUS
 62
     0
100
AcDbLine
 10
580.7195361126068
 20
-0.0000000000000003
 30
0.0
 11
683.7246684674737
 21
-0.0000000000000295
 31
0.0
  0
LINE
  5
9EA8
330
9DFC
100
AcDbEntity
  8
30
  6
CONTINUOUS
 62
     0
100
AcDbLine
 10
653.4199363862351
 20
-114.0
 30
0.0
 11
683.7246684674737
 21
-114.0
 31
0.0
  0
LINE
  5
9EA9
330
9DFC
100
AcDbEntity
  8
30
  6
CONTINUOUS
 62
     0
100
AcDbLine
 10
683.2246684674737
 20
-2.000000000000029
 30
0.0
 11
683.2246684674737
 21
-112.0
 31
0.0
  0
INSERT
  5
9EAA
330
9DFC
100
AcDbEntity
  8
30
  6
CONTINUOUS
 62
     0
100
AcDbBlockReference
  2
_OPEN
 10
683.2246684674737
 20
-0.0000000000000293
 30
0.0
 41
2.0
 42
2.0
 43
2.0
 50
90.0
  0
INSERT
  5
9EAB
330
9DFC
100
AcDbEntity
  8
30
  6
CONTINUOUS
 62
     0
100
AcDbBlockReference
  2
_OPEN
 10
683.2246684674737
 20
-114.0
 30
0.0
 41
2.0
 42
2.0
 43
2.0
 50
270.0
  0
MTEXT
  5
9EAC
330
9DFC
100
AcDbEntity
  8
30
  6
CONTINUOUS
 62
     0
100
AcDbMText
 10
678.2246684674738
 20
-58.93965591004853
 30
0.0
 40
6.0
 41
0.0
 71
     5
 72
     1
  1
\A1;114
 11
0.0000000000000001
 21
1.0
 31
0.0
1001
ACAD
1000
MTEXTBEGIN
1070
    73
1070
     1
1070
    44
1040
1.0
1070
    74
1070
     0
1000
MTEXTEND
  0
POINT
  5
9EAD
330
9DFC
100
AcDbEntity
  8
DEFPOINTS
  6
CONTINUOUS
 62
     0
100
AcDbPoint
 10
579.7195361126068
 20
0.0
 30
0.0
  0
POINT
  5
9EAE
330
9DFC
100
AcDbEntity
  8
DEFPOINTS
  6
CONTINUOUS
 62
     0
100
AcDbPoint
 10
652.4199363862351
 20
-114.0
 30
0.0
  0
POINT
  5
9EAF
330
9DFC
100
AcDbEntity
  8
DEFPOINTS
  6
CONTINUOUS
 62
     0
100
AcDbPoint
 10
683.2246684674737
 20
-114.0
 30
0.0
  0
ENDBLK
  5
9E07
330
9DFC
100
AcDbEntity
  8
0
100
AcDbBlockEnd
  0
BLOCK
  5
9E12
330
9E08
100
AcDbEntity
  8
0
100
AcDbBlockBegin
  2
*D56
 70
     1
 10
0.0
 20
0.0
 30
0.0
  3
*D56
  1

  0
LINE
  5
9E8C
330
9E08
100
AcDbEntity
  8
30
  6
CONTINUOUS
 62
     0
100
AcDbLine
 10
567.4199363862351
 20
-144.5004882811999
 30
0.0
 11
567.4199363862351
 21
-198.7344486611493
 31
0.0
  0
LINE
  5
9E8D
330
9E08
100
AcDbEntity
  8
30
  6
CONTINUOUS
 62
     0
100
AcDbLine
 10
652.4199363862351
 20
-122.5936279297
 30
0.0
 11
652.4199363862351
 21
-198.7344486611493
 31
0.0
  0
LINE
  5
9E8E
330
9E08
100
AcDbEntity
  8
30
  6
CONTINUOUS
 62
     0
100
AcDbLine
 10
569.4199363862351
 20
-198.2344486611493
 30
0.0
 11
650.4199363862351
 21
-198.2344486611493
 31
0.0
  0
INSERT
  5
9E8F
330
9E08
100
AcDbEntity
  8
30
  6
CONTINUOUS
 62
     0
100
AcDbBlockReference
  2
_OPEN
 10
567.4199363862351
 20
-198.2344486611493
 30
0.0
 41
2.0
 42
2.0
 43
2.0
 50
180.0
  0
INSERT
  5
9E90
330
9E08
100
AcDbEntity
  8
30
  6
CONTINUOUS
 62
     0
100
AcDbBlockReference
  2
_OPEN
 10
652.4199363862351
 20
-198.2344486611493
 30
0.0
 41
2.0
 42
2.0
 43
2.0
  0
MTEXT
  5
9E91
330
9E08
100
AcDbEntity
  8
30
  6
CONTINUOUS
 62
     0
100
AcDbMText
 10
599.0982779642345
 20
-193.2344486611493
 30
0.0
 40
6.0
 41
0.0
 71
     5
 72
     1
  1
\A1;85
1001
ACAD
1000
MTEXTBEGIN
1070
    73
1070
     1
1070
    44
1040
1.0
1070
    74
1070
     0
1000
MTEXTEND
  0
POINT
  5
9E92
330
9E08
100
AcDbEntity
  8
DEFPOINTS
  6
CONTINUOUS
 62
     0
100
AcDbPoint
 10
567.4199363862351
 20
-143.5004882811999
 30
0.0
  0
POINT
  5
9E93
330
9E08
100
AcDbEntity
  8
DEFPOINTS
  6
CONTINUOUS
 62
     0
100
AcDbPoint
 10
652.4199363862351
 20
-121.5936279297
 30
0.0
  0
POINT
  5
9E94
330
9E08
100
AcDbEntity
  8
DEFPOINTS
  6
CONTINUOUS
 62
     0
100
AcDbPoint
 10
652.4199363862351
 20
-198.2344486611493
 30
0.0
  0
ENDBLK
  5
9E13
330
9E08
100
AcDbEntity
  8
0
100
AcDbBlockEnd
  0
BLOCK
  5
9E1E
330
9E14
100
AcDbEntity
  8
0
100
AcDbBlockBegin
  2
*D57
 70
     1
 10
0.0
 20
0.0
 30
0.0
  3
*D57
  1

  0
LINE
  5
9E95
330
9E14
100
AcDbEntity
  8
30
  6
CONTINUOUS
 62
     0
100
AcDbLine
 10
505.3200828706351
 20
-172.0002441405999
 30
0.0
 11
505.3200828706351
 21
-198.7344486611482
 31
0.0
  0
LINE
  5
9E96
330
9E14
100
AcDbEntity
  8
30
  6
CONTINUOUS
 62
     0
100
AcDbLine
 10
567.4199363862351
 20
-144.5004882811999
 30
0.0
 11
567.4199363862351
 21
-198.7344486611482
 31
0.0
  0
LINE
  5
9E97
330
9E14
100
AcDbEntity
  8
30
  6
CONTINUOUS
 62
     0
100
AcDbLine
 10
507.320082870635
 20
-198.2344486611482
 30
0.0
 11
565.4199363862351
 21
-198.2344486611482
 31
0.0
  0
INSERT
  5
9E98
330
9E14
100
AcDbEntity
  8
30
  6
CONTINUOUS
 62
     0
100
AcDbBlockReference
  2
_OPEN
 10
505.3200828706351
 20
-198.2344486611482
 30
0.0
 41
2.0
 42
2.0
 43
2.0
 50
180.0
  0
INSERT
  5
9E99
330
9E14
100
AcDbEntity
  8
30
  6
CONTINUOUS
 62
     0
100
AcDbBlockReference
  2
_OPEN
 10
567.4199363862351
 20
-198.2344486611482
 30
0.0
 41
2.0
 42
2.0
 43
2.0
  0
MTEXT
  5
9E9A
330
9E14
100
AcDbEntity
  8
30
  6
CONTINUOUS
 62
     0
100
AcDbMText
 10
525.2401698561259
 20
-193.2344486611482
 30
0.0
 40
6.0
 41
0.0
 71
     5
 72
     1
  1
\A1;62
1001
ACAD
1000
MTEXTBEGIN
1070
    73
1070
     1
1070
    44
1040
1.0
1070
    74
1070
     0
1000
MTEXTEND
  0
POINT
  5
9E9B
330
9E14
100
AcDbEntity
  8
DEFPOINTS
  6
CONTINUOUS
 62
     0
100
AcDbPoint
 10
505.3200828706351
 20
-171.0002441405999
 30
0.0
  0
POINT
  5
9E9C
330
9E14
100
AcDbEntity
  8
DEFPOINTS
  6
CONTINUOUS
 62
     0
100
AcDbPoint
 10
567.4199363862351
 20
-143.5004882811999
 30
0.0
  0
POINT
  5
9E9D
330
9E14
100
AcDbEntity
  8
DEFPOINTS
  6
CONTINUOUS
 62
     0
100
AcDbPoint
 10
567.4199363862351
 20
-198.2344486611482
 30
0.0
  0
ENDBLK
  5
9E1F
330
9E14
100
AcDbEntity
  8
0
100
AcDbBlockEnd
  0
BLOCK
  5
9E2A
330
9E20
100
AcDbEntity
  8
0
100
AcDbBlockBegin
  2
*D58
 70
     1
 10
0.0
 20
0.0
 30
0.0
  3
*D58
  1

  0
LINE
  5
9EEF
330
9E20
100
AcDbEntity
  8
30
  6
CONTINUOUS
 62
     0
100
AcDbLine
 10
554.5517625176744
 20
-0.0000000000000006
 30
0.0
 11
683.7246684674737
 21
-0.0000000000000372
 31
0.0
  0
LINE
  5
9EF0
330
9E20
100
AcDbEntity
  8
30
  6
CONTINUOUS
 62
     0
100
AcDbLine
 10
568.4199363862351
 20
143.9999999999999
 30
0.0
 11
683.7246684674737
 21
143.9999999999999
 31
0.0
  0
LINE
  5
9EF1
330
9E20
100
AcDbEntity
  8
30
  6
CONTINUOUS
 62
     0
100
AcDbLine
 10
683.2246684674737
 20
1.999999999999962
 30
0.0
 11
683.2246684674737
 21
141.9999999999999
 31
0.0
  0
INSERT
  5
9EF2
330
9E20
100
AcDbEntity
  8
30
  6
CONTINUOUS
 62
     0
100
AcDbBlockReference
  2
_OPEN
 10
683.2246684674737
 20
-0.000000000000037
 30
0.0
 41
2.0
 42
2.0
 43
2.0
 50
270.0
  0
INSERT
  5
9EF3
330
9E20
100
AcDbEntity
  8
30
  6
CONTINUOUS
 62
     0
100
AcDbBlockReference
  2
_OPEN
 10
683.2246684674737
 20
143.9999999999999
 30
0.0
 41
2.0
 42
2.0
 43
2.0
 50
90.0
  0
MTEXT
  5
9EF4
330
9E20
100
AcDbEntity
  8
30
  6
CONTINUOUS
 62
     0
100
AcDbMText
 10
678.2246684674738
 20
73.04784196101173
 30
0.0
 40
6.0
 41
0.0
 71
     5
 72
     1
  1
\A1;144
 11
0.0000000000000001
 21
1.0
 31
0.0
1001
ACAD
1000
MTEXTBEGIN
1070
    73
1070
     1
1070
    44
1040
1.0
1070
    74
1070
     0
1000
MTEXTEND
  0
POINT
  5
9EF5
330
9E20
100
AcDbEntity
  8
DEFPOINTS
  6
CONTINUOUS
 62
     0
100
AcDbPoint
 10
553.5517625176744
 20
-0.0000000000000003
 30
0.0
  0
POINT
  5
9EF6
330
9E20
100
AcDbEntity
  8
DEFPOINTS
  6
CONTINUOUS
 62
     0
100
AcDbPoint
 10
567.4199363862351
 20
143.9999999999999
 30
0.0
  0
POINT
  5
9EF7
330
9E20
100
AcDbEntity
  8
DEFPOINTS
  6
CONTINUOUS
 62
     0
100
AcDbPoint
 10
683.2246684674737
 20
143.9999999999999
 30
0.0
  0
ENDBLK
  5
9E2B
330
9E20
100
AcDbEntity
  8
0
100
AcDbBlockEnd
  0
BLOCK
  5
9E36
330
9E2C
100
AcDbEntity
  8
0
100
AcDbBlockBegin
  2
*D59
 70
     1
 10
0.0
 20
0.0
 30
0.0
  3
*D59
  1

  0
LINE
  5
9EE6
330
9E2C
100
AcDbEntity
  8
30
  6
CONTINUOUS
 62
     0
100
AcDbLine
 10
367.419936386235
 20
171.0936279296999
 30
0.0
 11
367.419936386235
 21
217.4513534649002
 31
0.0
  0
LINE
  5
9EE7
330
9E2C
100
AcDbEntity
  8
30
  6
CONTINUOUS
 62
     0
100
AcDbLine
 10
505.4199363862351
 20
116.4986572266
 30
0.0
 11
505.4199363862351
 21
217.4513534649002
 31
0.0
  0
LINE
  5
9EE8
330
9E2C
100
AcDbEntity
  8
30
  6
CONTINUOUS
 62
     0
100
AcDbLine
 10
369.419936386235
 20
216.9513534649002
 30
0.0
 11
503.4199363862351
 21
216.9513534649002
 31
0.0
  0
INSERT
  5
9EE9
330
9E2C
100
AcDbEntity
  8
30
  6
CONTINUOUS
 62
     0
100
AcDbBlockReference
  2
_OPEN
 10
367.419936386235
 20
216.9513534649002
 30
0.0
 41
2.0
 42
2.0
 43
2.0
 50
180.0
  0
INSERT
  5
9EEA
330
9E2C
100
AcDbEntity
  8
30
  6
CONTINUOUS
 62
     0
100
AcDbBlockReference
  2
_OPEN
 10
505.4199363862351
 20
216.9513534649002
 30
0.0
 41
2.0
 42
2.0
 43
2.0
  0
MTEXT
  5
9EEB
330
9E2C
100
AcDbEntity
  8
30
  6
CONTINUOUS
 62
     0
100
AcDbMText
 10
434.0515153336034
 20
221.9513534649002
 30
0.0
 40
6.0
 41
0.0
 71
     5
 72
     1
  1
\A1;138
1001
ACAD
1000
MTEXTBEGIN
1070
    73
1070
     1
1070
    44
1040
1.0
1070
    74
1070
     0
1000
MTEXTEND
  0
POINT
  5
9EEC
330
9E2C
100
AcDbEntity
  8
DEFPOINTS
  6
CONTINUOUS
 62
     0
100
AcDbPoint
 10
367.419936386235
 20
170.0936279297
 30
0.0
  0
POINT
  5
9EED
330
9E2C
100
AcDbEntity
  8
DEFPOINTS
  6
CONTINUOUS
 62
     0
100
AcDbPoint
 10
505.4199363862351
 20
115.4986572266
 30
0.0
  0
POINT
  5
9EEE
330
9E2C
100
AcDbEntity
  8
DEFPOINTS
  6
CONTINUOUS
 62
     0
100
AcDbPoint
 10
505.4199363862351
 20
216.9513534649002
 30
0.0
  0
ENDBLK
  5
9E37
330
9E2C
100
AcDbEntity
  8
0
100
AcDbBlockEnd
  0
BLOCK
  5
9E42
330
9E38
100
AcDbEntity
  8
0
100
AcDbBlockBegin
  2
*D60
 70
     1
 10
0.0
 20
0.0
 30
0.0
  3
*D60
  1

  0
LINE
  5
9EB9
330
9E38
100
AcDbEntity
  8
30
  6
CONTINUOUS
 62
     0
100
AcDbLine
 10
644.5135643159351
 20
136.9986572266
 30
0.0
 11
697.2299506494964
 21
136.9986572266
 31
0.0
  0
LINE
  5
9EBA
330
9E38
100
AcDbEntity
  8
30
  6
CONTINUOUS
 62
     0
100
AcDbLine
 10
644.5135643159351
 20
151.9986572266
 30
0.0
 11
697.2299506494964
 21
151.9986572266
 31
0.0
  0
LINE
  5
9EBB
330
9E38
100
AcDbEntity
  8
30
  6
CONTINUOUS
 62
     0
100
AcDbLine
 10
696.7299506494964
 20
138.9986572266
 30
0.0
 11
696.7299506494964
 21
149.9986572266
 31
0.0
  0
INSERT
  5
9EBC
330
9E38
100
AcDbEntity
  8
30
  6
CONTINUOUS
 62
     0
100
AcDbBlockReference
  2
_OPEN
 10
696.7299506494964
 20
136.9986572266
 30
0.0
 41
2.0
 42
2.0
 43
2.0
 50
270.0
  0
INSERT
  5
9EBD
330
9E38
100
AcDbEntity
  8
30
  6
CONTINUOUS
 62
     0
100
AcDbBlockReference
  2
_OPEN
 10
696.7299506494964
 20
151.9986572266
 30
0.0
 41
2.0
 42
2.0
 43
2.0
 50
90.0
  0
MTEXT
  5
9EBE
330
9E38
100
AcDbEntity
  8
30
  6
CONTINUOUS
 62
     0
100
AcDbMText
 10
691.7299506494964
 20
143.7415748127484
 30
0.0
 40
6.0
 41
0.0
 71
     5
 72
     1
  1
\A1;15
 11
0.0000000000000001
 21
1.0
 31
0.0
1001
ACAD
1000
MTEXTBEGIN
1070
    73
1070
     1
1070
    44
1040
1.0
1070
    74
1070
     0
1000
MTEXTEND
  0
POINT
  5
9EBF
330
9E38
100
AcDbEntity
  8
DEFPOINTS
  6
CONTINUOUS
 62
     0
100
AcDbPoint
 10
643.5135643159351
 20
136.9986572266
 30
0.0
  0
POINT
  5
9EC0
330
9E38
100
AcDbEntity
  8
DEFPOINTS
  6
CONTINUOUS
 62
     0
100
AcDbPoint
 10
643.5135643159351
 20
151.9986572266
 30
0.0
  0
POINT
  5
9EC1
330
9E38
100
AcDbEntity
  8
DEFPOINTS
  6
CONTINUOUS
 62
     0
100
AcDbPoint
 10
696.7299506494964
 20
151.9986572266
 30
0.0
  0
ENDBLK
  5
9E43
330
9E38
100
AcDbEntity
  8
0
100
AcDbBlockEnd
  0
ENDSEC
  0
SECTION
  2
ENTITIES
  0
LINE
  5
B4
330
1E
100
AcDbEntity
  8
16
100
AcDbLine
 10
0.0
 20
-214.1719131951985
 30
0.0
 11
0.0
 21
200.0
 31
0.0
  0
MTEXT
  5
BF3
330
1E
100
AcDbEntity
  8
24
  6
CONTINUOUS
100
AcDbMText
 10
142.1181906098743
 20
177.5
 30
0.0
 40
3.0
 41
0.0
 71
     1
 72
     1
  1
\A1;
1001
ACAD
1000
MTEXTBEGIN
1070
    73
1070
     1
1070
    44
1040
1.0
1070
    74
1070
     0
1000
MTEXTEND
  0
LINE
  5
2261
330
1E
100
AcDbEntity
  8
16
100
AcDbLine
 10
0.0
 20
-786.7320398582522
 30
0.0
 11
0.0
 21
-471.849285040757
 31
0.0
  0
LINE
  5
4C5A
330
1E
100
AcDbEntity
  8
16
100
AcDbLine
 10
200.8112503086266
 20
0.0000000000000284
 30
0.0
 11
-127.3695499245856
 21
0.0000000000000284
 31
0.0
  0
LINE
  5
6B0B
330
1E
100
AcDbEntity
  8
16
100
AcDbLine
 10
523.0983499025897
 20
-769.7472342595171
 30
0.0
 11
523.0983499025897
 21
-462.9903968221542
 31
0.0
  0
LINE
  5
718F
330
1E
100
AcDbEntity
  8
16
100
AcDbLine
 10
-194.6020082204275
 20
-632.1617850407571
 30
0.0
 11
141.6410974966001
 21
-632.2657026277592
 31
0.0
  0
LEADER
  5
7673
330
1E
100
AcDbEntity
  8
30
  6
CONTINUOUS
100
AcDbLeader
  3
STANDARD
 76
     3
 10
568.0983499025897
 20
-701.6617850407572
 30
0.0
 10
583.4354095348372
 20
-761.9999448216143
 30
0.0
 10
611.4354095348369
 20
-761.9999448216143
 30
0.0
1001
ACAD
1000
DSTYLE
1002
{
1070
     5
1000
OPEN
1070
    77
1070
     0
1070
   147
1040
1.0
1070
   342
1005
3B2
1002
}
  0
TEXT
  5
7674
330
1E
100
AcDbEntity
  8
30
  6
CONTINUOUS
100
AcDbText
 10
591.4354095348371
 20
-758.9999448216145
 30
0.0
 40
5.0
  1
%%C11
100
AcDbText
  0
DIMENSION
  5
768D
330
1E
100
AcDbEntity
  8
30
  6
CONTINUOUS
100
AcDbDimension
  2
*D1
 10
568.0983499025897
 20
-769.7472342595171
 30
0.0
 11
523.0983499025897
 21
-769.7472342595171
 31
0.0
 70
   160
  3
STANDARD
100
AcDbAlignedDimension
 13
478.0983499025897
 23
-710.6617850407571
 33
0.0
 14
568.0983499025897
 24
-710.6617850407571
 34
0.0
100
AcDbRotatedDimension
  0
LINE
  5
8714
330
1E
100
AcDbEntity
  8
10
  6
CONTINUOUS
100
AcDbLine
 10
-104.99993896485
 20
-115.4999999999999
 30
0.0
 11
174.99993896488
 21
-115.4999999999999
 31
0.0
  0
LINE
  5
8715
330
1E
100
AcDbEntity
  8
10
  6
CONTINUOUS
100
AcDbLine
 10
-104.99993896485
 20
-57.49999999999997
 30
0.0
 11
174.99993896488
 21
-57.49999999999997
 31
0.0
  0
LINE
  5
8716
330
1E
100
AcDbEntity
  8
10
  6
CONTINUOUS
100
AcDbLine
 10
174.99993896488
 20
-139.9999999999999
 30
0.0
 11
-104.99993896485
 21
-139.9999999999999
 31
0.0
  0
LINE
  5
8717
330
1E
100
AcDbEntity
  8
10
  6
CONTINUOUS
100
AcDbLine
 10
174.99993896488
 20
170.0
 30
0.0
 11
-104.99993896485
 21
170.0
 31
0.0
  0
CIRCLE
  5
871C
330
1E
100
AcDbEntity
  8
12
100
AcDbCircle
 10
-35.0
 20
-153.9999999999999
 30
0.0
 40
8.5
  0
LINE
  5
871D
330
1E
100
AcDbEntity
  8
12
100
AcDbLine
 10
-50.0
 20
-153.9999999999999
 30
0.0
 11
-20.0
 21
-153.9999999999999
 31
0.0
  0
LINE
  5
871E
330
1E
100
AcDbEntity
  8
12
100
AcDbLine
 10
-35.0
 20
-138.9999999999999
 30
0.0
 11
-35.0
 21
-168.9999999999999
 31
0.0
  0
LINE
  5
871F
330
1E
100
AcDbEntity
  8
12
100
AcDbLine
 10
20.00006103516
 20
-153.9999999999999
 30
0.0
 11
50.00006103518001
 21
-153.9999999999999
 31
0.0
  0
CIRCLE
  5
8720
330
1E
100
AcDbEntity
  8
12
100
AcDbCircle
 10
35.00006103516
 20
-153.9999999999999
 30
0.0
 40
8.5
  0
LINE
  5
8721
330
1E
100
AcDbEntity
  8
12
100
AcDbLine
 10
35.00006103516
 20
-138.9999999999999
 30
0.0
 11
35.00006103516
 21
-168.9999999999999
 31
0.0
  0
LINE
  5
8727
330
1E
100
AcDbEntity
  8
12
100
AcDbLine
 10
-35.0
 20
169.0
 30
0.0
 11
-35.0
 21
199.0
 31
0.0
  0
CIRCLE
  5
8728
330
1E
100
AcDbEntity
  8
12
100
AcDbCircle
 10
-35.0
 20
184.0
 30
0.0
 40
8.5
  0
LINE
  5
8729
330
1E
100
AcDbEntity
  8
12
100
AcDbLine
 10
-50.0
 20
184.0
 30
0.0
 11
-20.0
 21
184.0
 31
0.0
  0
LINE
  5
872A
330
1E
100
AcDbEntity
  8
12
100
AcDbLine
 10
35.00006103516
 20
169.0
 30
0.0
 11
35.00006103516
 21
199.0
 31
0.0
  0
CIRCLE
  5
872B
330
1E
100
AcDbEntity
  8
12
100
AcDbCircle
 10
35.00006103516
 20
184.0
 30
0.0
 40
8.5
  0
LINE
  5
872C
330
1E
100
AcDbEntity
  8
12
100
AcDbLine
 10
20.00006103516
 20
184.0
 30
0.0
 11
50.00006103518001
 21
184.0
 31
0.0
  0
LINE
  5
872F
330
1E
100
AcDbEntity
  8
0
  6
CONTINUOUS
100
AcDbLine
 10
134.39984130858
 20
106.0
 30
0.0
 11
145.6000366210799
 21
94.00000000000003
 31
0.0
  0
LINE
  5
8730
330
1E
100
AcDbEntity
  8
0
  6
CONTINUOUS
100
AcDbLine
 10
145.6000366210799
 20
106.0
 30
0.0
 11
145.6000366210799
 21
94.00000000000003
 31
0.0
  0
LINE
  5
8731
330
1E
100
AcDbEntity
  8
0
  6
CONTINUOUS
100
AcDbLine
 10
134.39984130858
 20
106.0
 30
0.0
 11
134.39984130858
 21
94.00000000000003
 31
0.0
  0
DIMENSION
  5
89FE
330
1E
100
AcDbEntity
  8
30
  6
CONTINUOUS
100
AcDbDimension
  2
*D9
 10
134.3354472061339
 20
-538.2222174883295
 30
0.0
 11
134.335447206134
 21
-586.5248498049115
 31
0.0
 70
   160
  3
STANDARD
100
AcDbAlignedDimension
 13
104.99993896488
 23
-632.2543784973463
 33
0.0
 14
104.99993896488
 24
-538.2222174883295
 34
0.0
 50
90.0
100
AcDbRotatedDimension
  0
DIMENSION
  5
89FF
330
1E
100
AcDbEntity
  8
30
  6
CONTINUOUS
100
AcDbDimension
  2
*D10
 10
149.4540100235333
 20
-433.2222174883296
 30
0.0
 11
149.4540100235334
 21
-535.0525753688218
 31
0.0
 70
   160
  3
STANDARD
100
AcDbAlignedDimension
 13
2.596923828099988
 23
-632.2222174883295
 33
0.0
 14
26.09399414059998
 24
-433.2222174883295
 34
0.0
 50
90.0
100
AcDbRotatedDimension
  0
DIMENSION
  5
8A00
330
1E
100
AcDbEntity
  8
30
  6
CONTINUOUS
100
AcDbDimension
  2
*D11
 10
148.9540100235333
 20
-801.2227057695294
 30
0.0
 11
148.9540100235334
 21
-715.2176786680584
 31
0.0
 70
   160
  3
STANDARD
100
AcDbAlignedDimension
 13
104.99993896488
 23
-632.2222174883295
 33
0.0
 14
26.09423828119997
 24
-801.2227057695294
 34
0.0
 50
270.0
100
AcDbRotatedDimension
  0
DIMENSION
  5
8A01
330
1E
100
AcDbEntity
  8
30
  6
CONTINUOUS
100
AcDbDimension
  2
*D12
 10
-44.99926757809999
 20
-668.444263386732
 30
0.0
 11
1.112113334063451
 21
-668.444263386732
 31
0.0
 70
   160
  3
STANDARD
100
AcDbAlignedDimension
 13
45.0
 23
-676.3158454180295
 33
0.0
 14
-44.99926757809999
 24
-676.3158454180295
 34
0.0
 50
180.0
100
AcDbRotatedDimension
  0
DIMENSION
  5
8A02
330
1E
100
AcDbEntity
  8
30
  6
CONTINUOUS
100
AcDbDimension
  2
*D13
 10
134.335447206134
 20
-696.2217292070294
 30
0.0
 11
134.3354472061341
 21
-665.960281034529
 31
0.0
 70
   160
  3
STANDARD
100
AcDbAlignedDimension
 13
2.596923828099988
 23
-632.2222174883295
 33
0.0
 14
36.09350585940001
 24
-696.2217292070294
 34
0.0
 50
270.0
100
AcDbRotatedDimension
  0
DIMENSION
  5
8A03
330
1E
100
AcDbEntity
  8
30
  6
CONTINUOUS
100
AcDbDimension
  2
*D14
 10
105.0009765624999
 20
-898.3363474198805
 30
0.0
 11
50.21101459698957
 21
-898.3363474198805
 31
0.0
 70
   160
  3
STANDARD
100
AcDbAlignedDimension
 13
0.0
 23
-574.5166510820295
 33
0.0
 14
105.0009765625
 24
-775.3163336992295
 34
0.0
100
AcDbRotatedDimension
  0
LINE
  5
8A04
330
1E
100
AcDbEntity
  8
18
 48
2.0
100
AcDbLine
 10
-171.9995117188
 20
-524.0847663164295
 30
0.0
 11
-171.9995117188
 21
-710.3594245195295
 31
0.0
  0
LINE
  5
8A05
330
1E
100
AcDbEntity
  8
18
  6
DASHED
 48
2.0
100
AcDbLine
 10
102.0004882811999
 20
-524.0845221758295
 30
0.0
 11
102.0004882811999
 21
-710.3600348711295
 31
0.0
  0
DIMENSION
  5
8A06
330
1E
100
AcDbEntity
  8
30
  6
CONTINUOUS
100
AcDbDimension
  2
*D15
 10
105.0009765624999
 20
-944.5341040073554
 30
0.0
 11
-36.3018991570475
 21
-944.5341040073554
 31
0.0
 70
   160
  3
STANDARD
100
AcDbAlignedDimension
 13
-174.9995117188
 23
-765.3158454180295
 33
0.0
 14
105.0009765625
 24
-765.3163336992295
 34
0.0
100
AcDbRotatedDimension
  0
DIMENSION
  5
8A07
330
1E
100
AcDbEntity
  8
30
  6
CONTINUOUS
100
AcDbDimension
  2
*D16
 10
-0.0000000000000187
 20
-875.8317145586319
 30
0.0
 11
33.66216216216344
 21
-875.8317145586319
 31
0.0
 70
   160
  3
STANDARD
100
AcDbAlignedDimension
 13
70.0
 23
-801.2227057695294
 33
0.0
 14
-0.0000000000000142
 24
-802.2227057695294
 34
0.0
 50
180.0
100
AcDbRotatedDimension
  0
DIMENSION
  5
8A08
330
1E
100
AcDbEntity
  8
30
  6
CONTINUOUS
100
AcDbDimension
  2
*D17
 10
133.8354472061341
 20
-801.2227057695294
 30
0.0
 11
133.8354472061342
 21
-787.8451128940164
 31
0.0
 70
   160
  3
STANDARD
100
AcDbAlignedDimension
 13
96.09448242190001
 23
-775.2227057695295
 33
0.0
 14
26.09423828119997
 24
-801.2227057695294
 34
0.0
 50
270.0
100
AcDbRotatedDimension
  0
LINE
  5
8A0A
330
1E
100
AcDbEntity
  8
18
 48
2.0
100
AcDbLine
 10
95.0009765625
 20
-717.2227057695295
 30
0.0
 11
0.0007324219000111
 21
-717.2227057695295
 31
0.0
  0
LINE
  5
8A0B
330
1E
100
AcDbEntity
  8
18
 48
2.0
100
AcDbLine
 10
-171.9995117188
 20
-708.2222174883295
 30
0.0
 11
102.0004882811999
 21
-708.2222174883295
 31
0.0
  0
LINE
  5
8A0C
330
1E
100
AcDbEntity
  8
18
 48
2.0
100
AcDbLine
 10
87.0
 20
-775.2227057695295
 30
0.0
 11
0.0007324219000111
 21
-775.2227057695295
 31
0.0
  0
LINE
  5
8A0D
330
1E
100
AcDbEntity
  8
18
 48
2.0
100
AcDbLine
 10
0.0007324219000111
 20
-801.2227057695294
 30
0.0
 11
35.00073242179996
 21
-801.2227057695294
 31
0.0
  0
DIMENSION
  5
8A0E
330
1E
100
AcDbEntity
  8
30
  6
CONTINUOUS
100
AcDbDimension
  2
*D18
 10
-0.0000000000000202
 20
-898.3363474198805
 30
0.0
 11
-89.78922954361042
 21
-898.3363474198805
 31
0.0
 70
   160
  3
STANDARD
100
AcDbAlignedDimension
 13
-174.9995117188
 23
-765.3158454180295
 33
0.0
 14
-0.0000000000000142
 24
-801.2227057695294
 34
0.0
100
AcDbRotatedDimension
  0
DIMENSION
  5
8A12
330
1E
100
AcDbEntity
  8
30
  6
CONTINUOUS
100
AcDbDimension
  2
*D19
 10
-69.99902343750001
 20
-875.8317145586319
 30
0.0
 11
-106.3371054159365
 21
-875.8317145586319
 31
0.0
 70
   160
  3
STANDARD
100
AcDbAlignedDimension
 13
-139.9995117188
 23
-746.2222174883295
 33
0.0
 14
-69.9990234375
 24
-738.2227057695295
 34
0.0
100
AcDbRotatedDimension
  0
DIMENSION
  5
8A13
330
1E
100
AcDbEntity
  8
30
  6
CONTINUOUS
100
AcDbDimension
  2
*D20
 10
-0.0000000000000084
 20
-875.8317145586319
 30
0.0
 11
-36.33734955663658
 21
-875.8317145586319
 31
0.0
 70
   160
  3
STANDARD
100
AcDbAlignedDimension
 13
-69.9990234375
 23
-739.2227057695294
 33
0.0
 14
0.0
 24
-738.2227057695295
 34
0.0
100
AcDbRotatedDimension
  0
LINE
  5
8A14
330
1E
100
AcDbEntity
  8
18
 48
2.0
100
AcDbLine
 10
-86.9990234375
 20
-775.2227057695295
 30
0.0
 11
0.0007324219000111
 21
-775.2227057695295
 31
0.0
  0
LINE
  5
8A15
330
1E
100
AcDbEntity
  8
18
 48
2.0
100
AcDbLine
 10
-46.99926757809999
 20
-754.2227057695295
 30
0.0
 11
-92.99926757809998
 21
-754.2227057695295
 31
0.0
  0
LINE
  5
8A16
330
1E
100
AcDbEntity
  8
18
 48
2.0
100
AcDbLine
 10
-165.0983886719
 20
-717.2227057695295
 30
0.0
 11
0.0007324219000111
 21
-717.2227057695295
 31
0.0
  0
ARC
  5
8A17
330
1E
100
AcDbEntity
  8
18
 48
2.0
100
AcDbCircle
 10
86.9990234375
 20
-825.2227057695295
 30
0.0
 40
50.0
210
0.0
220
0.0
230
-1.0
100
AcDbArc
 50
90.0
 51
143.1300974541587
  0
LINE
  5
8A18
330
1E
100
AcDbEntity
  8
18
 48
2.0
100
AcDbLine
 10
-92.99926757809998
 20
-738.2227057695295
 30
0.0
 11
-46.99926757809999
 21
-738.2227057695295
 31
0.0
  0
LINE
  5
8A19
330
1E
100
AcDbEntity
  8
18
 48
2.0
100
AcDbLine
 10
-174.9995117188
 20
-718.6660651445294
 30
0.0
 11
-174.9995117188
 21
-765.2222174883295
 31
0.0
  0
LINE
  5
8A1A
330
1E
100
AcDbEntity
  8
18
 48
2.0
100
AcDbLine
 10
-116.9995117188
 20
-738.2222174883295
 30
0.0
 11
-116.9995117188
 21
-754.2222174883295
 31
0.0
  0
LINE
  5
8A1B
330
1E
100
AcDbEntity
  8
18
 48
2.0
100
AcDbLine
 10
-162.9995117188
 20
-738.2222174883295
 30
0.0
 11
-162.9995117188
 21
-754.2222174883295
 31
0.0
  0
ARC
  5
8A1C
330
1E
100
AcDbEntity
  8
18
 48
2.0
100
AcDbCircle
 10
-139.9995117188
 20
-746.2222174883295
 30
0.0
 40
25.99999999998827
100
AcDbArc
 50
322.0419713659713
 51
37.95802134900934
  0
ARC
  5
8A1D
330
1E
100
AcDbEntity
  8
18
 48
2.0
100
AcDbCircle
 10
-139.9995117188
 20
-746.2222174883295
 30
0.0
 40
25.99999999999375
100
AcDbArc
 50
142.0419663569266
 51
217.9580300004777
  0
ARC
  5
8A1E
330
1E
100
AcDbEntity
  8
18
 48
2.0
100
AcDbCircle
 10
69.9990234375
 20
-746.2227057695295
 30
0.0
 40
25.99999999998813
210
0.0
220
0.0
230
-1.0
100
AcDbArc
 50
322.0419713659713
 51
37.95802134900934
  0
LINE
  5
8A1F
330
1E
100
AcDbEntity
  8
18
 48
2.0
100
AcDbLine
 10
-92.99926757809998
 20
-738.2227057695295
 30
0.0
 11
-92.99926757809998
 21
-754.2227057695295
 31
0.0
  0
LINE
  5
8A20
330
1E
100
AcDbEntity
  8
18
 48
2.0
100
AcDbLine
 10
-116.9995117188
 20
-754.2222174883295
 30
0.0
 11
-162.9995117188
 21
-754.2222174883295
 31
0.0
  0
LINE
  5
8A21
330
1E
100
AcDbEntity
  8
18
 48
2.0
100
AcDbLine
 10
-164.9995117188
 20
-775.2227057695295
 30
0.0
 11
-86.9990234375
 21
-775.2227057695295
 31
0.0
  0
LINE
  5
8A22
330
1E
100
AcDbEntity
  8
18
 48
2.0
100
AcDbLine
 10
-160.4995117188
 20
-762.2144049883295
 30
0.0
 11
-160.4995117188
 21
-775.2222174883295
 31
0.0
  0
ARC
  5
8A23
330
1E
100
AcDbEntity
  8
18
 48
2.0
100
AcDbCircle
 10
-164.9995117188
 20
-765.2222174883295
 30
0.0
 40
10.0
100
AcDbArc
 50
180.0
 51
270.0
  0
LINE
  5
8A24
330
1E
100
AcDbEntity
  8
18
 48
2.0
100
AcDbLine
 10
-119.4995117188
 20
-762.2144049883295
 30
0.0
 11
-119.4995117188
 21
-775.2222174883295
 31
0.0
  0
LINE
  5
8A25
330
1E
100
AcDbEntity
  8
18
 48
2.0
100
AcDbLine
 10
-90.4990234375
 20
-762.2148932695295
 30
0.0
 11
-90.4990234375
 21
-775.2227057695295
 31
0.0
  0
LINE
  5
8A26
330
1E
100
AcDbEntity
  8
18
 48
2.0
100
AcDbLine
 10
-116.9995117188
 20
-738.2222174883295
 30
0.0
 11
-162.9995117188
 21
-738.2222174883295
 31
0.0
  0
ARC
  5
8A27
330
1E
100
AcDbEntity
  8
18
 48
2.0
100
AcDbCircle
 10
161.9995117188
 20
-718.6660651445294
 30
0.0
 40
13.0
210
0.0
220
0.0
230
-1.0
100
AcDbArc
 50
0.0
 51
39.7151355516487
  0
LINE
  5
8A28
330
1E
100
AcDbEntity
  8
18
 48
2.0
100
AcDbLine
 10
-160.4995117188
 20
-717.2222174883295
 30
0.0
 11
-160.4995117188
 21
-730.2300299883295
 31
0.0
  0
ARC
  5
8A29
330
1E
100
AcDbEntity
  8
18
 48
2.0
100
AcDbCircle
 10
-164.9995117188
 20
-727.2222174883295
 30
0.0
 40
10.0
100
AcDbArc
 50
90.0
 51
180.0
  0
LINE
  5
8A2A
330
1E
100
AcDbEntity
  8
18
 48
2.0
100
AcDbLine
 10
-119.4995117188
 20
-717.2222174883295
 30
0.0
 11
-119.4995117188
 21
-730.2300299883295
 31
0.0
  0
LINE
  5
8A2B
330
1E
100
AcDbEntity
  8
18
 48
2.0
100
AcDbLine
 10
-90.4990234375
 20
-717.2227057695295
 30
0.0
 11
-90.4990234375
 21
-730.2305182695294
 31
0.0
  0
ARC
  5
8A2C
330
1E
100
AcDbEntity
  8
18
 48
2.0
100
AcDbCircle
 10
69.9990234375
 20
-746.2227057695295
 30
0.0
 40
25.99999999993221
210
0.0
220
0.0
230
-1.0
100
AcDbArc
 50
142.0419663570975
 51
217.9580300006435
  0
LINE
  5
8A2D
330
1E
100
AcDbEntity
  8
18
  6
DASHED
 48
2.0
100
AcDbLine
 10
-46.99926757809999
 20
-738.2227057695295
 30
0.0
 11
-46.99926757809999
 21
-754.2227057695295
 31
0.0
  0
ARC
  5
8A2E
330
1E
100
AcDbEntity
  8
18
 48
2.0
100
AcDbCircle
 10
0.0
 20
-746.2217292070294
 30
0.0
 40
26.00000000001109
100
AcDbArc
 50
142.0419663572379
 51
217.9580300006435
  0
LINE
  5
8A2F
330
1E
100
AcDbEntity
  8
18
 48
2.0
100
AcDbLine
 10
-22.99926757809998
 20
-738.2227057695295
 30
0.0
 11
-22.99926757809998
 21
-754.2227057695295
 31
0.0
  0
LINE
  5
8A30
330
1E
100
AcDbEntity
  8
18
 48
2.0
100
AcDbLine
 10
23.00073242190001
 20
-738.2227057695295
 30
0.0
 11
23.00073242190001
 21
-754.2227057695295
 31
0.0
  0
ARC
  5
8A31
330
1E
100
AcDbEntity
  8
18
 48
2.0
100
AcDbCircle
 10
-0.0007324219000111
 20
-746.2227057695295
 30
0.0
 40
25.99999999993221
210
0.0
220
0.0
230
-1.0
100
AcDbArc
 50
142.0419663570975
 51
217.9580300006435
  0
LINE
  5
8A32
330
1E
100
AcDbEntity
  8
18
 48
2.0
100
AcDbLine
 10
0.0007324219000111
 20
-801.2227057695294
 30
0.0
 11
-34.99926757809999
 21
-801.2227057695294
 31
0.0
  0
LINE
  5
8A33
330
1E
100
AcDbEntity
  8
18
 48
2.0
100
AcDbLine
 10
-22.99926757809998
 20
-754.2227057695295
 30
0.0
 11
23.00073242190001
 21
-754.2227057695295
 31
0.0
  0
ARC
  5
8A34
330
1E
100
AcDbEntity
  8
18
 48
2.0
100
AcDbCircle
 10
34.99926757809999
 20
-786.2227057695295
 30
0.0
 40
15.0
210
0.0
220
0.0
230
-1.0
100
AcDbArc
 50
270.0
 51
323.386425802058
  0
LINE
  5
8A35
330
1E
100
AcDbEntity
  8
18
  6
DASHED
 48
2.0
100
AcDbLine
 10
-49.49926757809999
 20
-762.2148932695295
 30
0.0
 11
-49.49926757809999
 21
-775.2227057695295
 31
0.0
  0
LINE
  5
8A36
330
1E
100
AcDbEntity
  8
18
 48
2.0
100
AcDbLine
 10
-20.49926757809998
 20
-762.2148932695295
 30
0.0
 11
-20.49926757809998
 21
-775.2227057695295
 31
0.0
  0
LINE
  5
8A37
330
1E
100
AcDbEntity
  8
18
 48
2.0
100
AcDbLine
 10
20.50073242190001
 20
-762.2148932695295
 30
0.0
 11
20.50073242190001
 21
-775.2227057695295
 31
0.0
  0
LINE
  5
8A38
330
1E
100
AcDbEntity
  8
18
 48
2.0
100
AcDbLine
 10
-22.99926757809998
 20
-738.2227057695295
 30
0.0
 11
23.00073242190001
 21
-738.2227057695295
 31
0.0
  0
LINE
  5
8A39
330
1E
100
AcDbEntity
  8
12
  6
CONTINUOUS
 62
     3
100
AcDbLine
 10
-44.99926757809999
 20
-711.2222174883295
 30
0.0
 11
-44.99926757809999
 21
-676.2222174883295
 31
0.0
  0
CIRCLE
  5
8A3A
330
1E
100
AcDbEntity
  8
12
  6
CONTINUOUS
 62
     3
100
AcDbCircle
 10
44.99926757809999
 20
-696.2227057695295
 30
0.0
 40
5.0
210
0.0
220
0.0
230
-1.0
  0
LINE
  5
8A3B
330
1E
100
AcDbEntity
  8
12
  6
CONTINUOUS
 62
     3
100
AcDbLine
 10
-58.49926757809999
 20
-696.2222174883295
 30
0.0
 11
-31.49926757809998
 21
-696.2222174883295
 31
0.0
  0
LINE
  5
8A3C
330
1E
100
AcDbEntity
  8
18
  6
DASHED
 48
2.0
100
AcDbLine
 10
-49.49926757809999
 20
-717.2227057695295
 30
0.0
 11
-49.49926757809999
 21
-730.2305182695294
 31
0.0
  0
CIRCLE
  5
8A3D
330
1E
100
AcDbEntity
  8
12
  6
CONTINUOUS
 62
     3
100
AcDbCircle
 10
44.99926757809999
 20
-696.2227057695295
 30
0.0
 40
4.188000202200328
210
0.0
220
0.0
230
-1.0
  0
LINE
  5
8A3E
330
1E
100
AcDbEntity
  8
18
 48
2.0
100
AcDbLine
 10
-20.49926757809998
 20
-717.2227057695295
 30
0.0
 11
-20.49926757809998
 21
-730.2305182695294
 31
0.0
  0
LINE
  5
8A3F
330
1E
100
AcDbEntity
  8
18
 48
2.0
100
AcDbLine
 10
20.50073242190001
 20
-717.2227057695295
 30
0.0
 11
20.50073242190001
 21
-730.2305182695294
 31
0.0
  0
LINE
  5
8A40
330
1E
100
AcDbEntity
  8
18
 48
2.0
100
AcDbLine
 10
70.0
 20
-709.2227057695295
 30
0.0
 11
70.0
 21
-801.2227057695294
 31
0.0
  0
DIMENSION
  5
8A41
330
1E
100
AcDbEntity
  8
30
  6
CONTINUOUS
100
AcDbDimension
  2
*D21
 10
134.335447206134
 20
-696.2222174883295
 30
0.0
 11
134.3354472061341
 21
-706.7224616289295
 31
0.0
 70
   160
  3
STANDARD
100
AcDbAlignedDimension
 13
86.09448242190001
 23
-717.2227057695295
 33
0.0
 14
49.99999997615813
 24
-696.2222174883295
 34
0.0
 50
90.0
100
AcDbRotatedDimension
  0
DIMENSION
  5
8A42
330
1E
100
AcDbEntity
  8
30
  6
CONTINUOUS
100
AcDbDimension
  2
*D22
 10
134.3354472061341
 20
-775.2227057695295
 30
0.0
 11
134.3354472061342
 21
-747.6213551558128
 31
0.0
 70
   160
  3
STANDARD
100
AcDbAlignedDimension
 13
96.09448242190001
 23
-717.2227057695295
 33
0.0
 14
96.09448242190001
 24
-775.2227057695295
 34
0.0
 50
270.0
100
AcDbRotatedDimension
  0
LINE
  5
8A43
330
1E
100
AcDbEntity
  8
18
  6
DASHED
 48
2.0
100
AcDbLine
 10
105.0009765625
 20
-718.6670417070295
 30
0.0
 11
105.0009765625
 21
-765.2227057695295
 31
0.0
  0
LINE
  5
8A44
330
1E
100
AcDbEntity
  8
18
 48
2.0
100
AcDbLine
 10
93.00097656250001
 20
-738.2227057695295
 30
0.0
 11
93.00097656250001
 21
-754.2227057695295
 31
0.0
  0
LINE
  5
8A45
330
1E
100
AcDbEntity
  8
18
 48
2.0
100
AcDbLine
 10
47.00073242190001
 20
-738.2227057695295
 30
0.0
 11
47.00073242190001
 21
-754.2227057695295
 31
0.0
  0
ARC
  5
8A46
330
1E
100
AcDbEntity
  8
18
 48
2.0
100
AcDbCircle
 10
70.0
 20
-746.2217292070294
 30
0.0
 40
25.99999999998813
100
AcDbArc
 50
322.0419713659713
 51
37.95802134915738
  0
ARC
  5
8A47
330
1E
100
AcDbEntity
  8
18
 48
2.0
100
AcDbCircle
 10
70.0
 20
-746.2217292070294
 30
0.0
 40
26.00000000001109
100
AcDbArc
 50
142.0419663572379
 51
217.9580300006435
  0
LINE
  5
8A48
330
1E
100
AcDbEntity
  8
18
 48
2.0
100
AcDbLine
 10
93.00097656250001
 20
-754.2227057695295
 30
0.0
 11
47.00073242190001
 21
-754.2227057695295
 31
0.0
  0
LINE
  5
8A49
330
1E
100
AcDbEntity
  8
18
 48
2.0
100
AcDbLine
 10
95.0009765625
 20
-775.2227057695295
 30
0.0
 11
87.0
 21
-775.2227057695295
 31
0.0
  0
LINE
  5
8A4A
330
1E
100
AcDbEntity
  8
18
 48
2.0
100
AcDbLine
 10
49.50073242190001
 20
-762.2148932695295
 30
0.0
 11
49.50073242190001
 21
-775.2227057695295
 31
0.0
  0
ARC
  5
8A4B
330
1E
100
AcDbEntity
  8
18
 48
2.0
100
AcDbCircle
 10
87.0
 20
-825.2217292070294
 30
0.0
 40
50.0
100
AcDbArc
 50
90.0
 51
143.1300974542156
  0
ARC
  5
8A4C
330
1E
100
AcDbEntity
  8
18
 48
2.0
100
AcDbCircle
 10
35.0
 20
-786.2217292070295
 30
0.0
 40
15.0
100
AcDbArc
 50
270.0
 51
323.1301297835552
  0
LINE
  5
8A4D
330
1E
100
AcDbEntity
  8
18
 48
2.0
100
AcDbLine
 10
90.5007324219
 20
-762.2148932695295
 30
0.0
 11
90.5007324219
 21
-775.2227057695295
 31
0.0
  0
ARC
  5
8A4E
330
1E
100
AcDbEntity
  8
18
  6
DASHED
 48
2.0
100
AcDbCircle
 10
95.0
 20
-765.2217292070295
 30
0.0
 40
10.0
100
AcDbArc
 50
270.0
 51
0.0
  0
LINE
  5
8A4F
330
1E
100
AcDbEntity
  8
18
 48
2.0
100
AcDbLine
 10
93.00097656250001
 20
-738.2227057695295
 30
0.0
 11
47.00073242190001
 21
-738.2227057695295
 31
0.0
  0
LINE
  5
8A50
330
1E
100
AcDbEntity
  8
12
  6
CONTINUOUS
 62
     3
100
AcDbLine
 10
45.0
 20
-711.2222174883295
 30
0.0
 11
45.0
 21
-676.2222174883295
 31
0.0
  0
CIRCLE
  5
8A51
330
1E
100
AcDbEntity
  8
12
  6
CONTINUOUS
 62
     3
100
AcDbCircle
 10
45.0
 20
-696.2217292070294
 30
0.0
 40
5.0
  0
CIRCLE
  5
8A52
330
1E
100
AcDbEntity
  8
12
  6
CONTINUOUS
 62
     3
100
AcDbCircle
 10
45.0
 20
-696.2217292070294
 30
0.0
 40
4.188000202199873
  0
LINE
  5
8A53
330
1E
100
AcDbEntity
  8
18
 48
2.0
100
AcDbLine
 10
49.50073242190001
 20
-717.2227057695295
 30
0.0
 11
49.50073242190001
 21
-730.2305182695294
 31
0.0
  0
ARC
  5
8A54
330
1E
100
AcDbEntity
  8
18
  6
DASHED
 48
2.0
100
AcDbCircle
 10
92.0
 20
-718.6660651445294
 30
0.0
 40
13.0
100
AcDbArc
 50
0.0
 51
39.71176826856465
  0
ARC
  5
8A55
330
1E
100
AcDbEntity
  8
18
  6
DASHED
 48
2.0
100
AcDbCircle
 10
95.0
 20
-727.2217292070295
 30
0.0
 40
10.0
100
AcDbArc
 50
0.0
 51
90.0
  0
LINE
  5
8A56
330
1E
100
AcDbEntity
  8
18
 48
2.0
100
AcDbLine
 10
90.5007324219
 20
-717.2227057695295
 30
0.0
 11
90.5007324219
 21
-730.2305182695294
 31
0.0
  0
DIMENSION
  5
8A59
330
1E
100
AcDbEntity
  8
30
  6
CONTINUOUS
100
AcDbDimension
  2
*D23
 10
134.7589257193411
 20
-433.2222174883296
 30
0.0
 11
134.7589257193411
 21
-445.9833194319717
 31
0.0
 70
   160
  3
STANDARD
100
AcDbAlignedDimension
 13
96.0939941406
 23
-459.2222174883295
 33
0.0
 14
26.09399414059998
 24
-433.2222174883295
 34
0.0
 50
90.0
100
AcDbRotatedDimension
  0
LINE
  5
8A5A
330
1E
100
AcDbEntity
  8
18
 48
2.0
100
AcDbLine
 10
95.00048828119998
 20
-517.2222174883295
 30
0.0
 11
0.0004882811999778
 21
-517.2222174883295
 31
0.0
  0
LINE
  5
8A5C
330
1E
100
AcDbEntity
  8
18
 48
2.0
100
AcDbLine
 10
-171.9995117188
 20
-526.2222174883295
 30
0.0
 11
102.0004882811999
 21
-526.2222174883295
 31
0.0
  0
LINE
  5
8A5D
330
1E
100
AcDbEntity
  8
18
 48
2.0
100
AcDbLine
 10
87.00048828119998
 20
-459.2222174883295
 30
0.0
 11
0.0004882811999778
 21
-459.2222174883295
 31
0.0
  0
LINE
  5
8A60
330
1E
100
AcDbEntity
  8
18
 48
2.0
100
AcDbLine
 10
0.0004882811999778
 20
-433.2222174883295
 30
0.0
 11
35.00048828119997
 21
-433.2222174883295
 31
0.0
  0
LINE
  5
8A63
330
1E
100
AcDbEntity
  8
12
  6
CONTINUOUS
 62
     3
100
AcDbLine
 10
-44.99951171880002
 20
-553.2222174883295
 30
0.0
 11
-44.99951171880002
 21
-523.2222174883295
 31
0.0
  0
CIRCLE
  5
8A6E
330
1E
100
AcDbEntity
  8
12
  6
CONTINUOUS
 62
     3
100
AcDbCircle
 10
-43.99951171880002
 20
-662.7222174883295
 30
0.0
 40
1.75
  0
CIRCLE
  5
8A6F
330
1E
100
AcDbEntity
  8
12
  6
CONTINUOUS
 62
     3
100
AcDbCircle
 10
-43.99951171880002
 20
-662.7222174883295
 30
0.0
 40
1.425003051800104
  0
CIRCLE
  5
8A71
330
1E
100
AcDbEntity
  8
18
  6
DASHED
 48
2.0
100
AcDbCircle
 10
0.0004882811999778
 20
-620.2222174883295
 30
0.0
 40
1.5
  0
CIRCLE
  5
8A72
330
1E
100
AcDbEntity
  8
18
  6
DASHED
 48
2.0
100
AcDbCircle
 10
0.0004882811999778
 20
-620.2222174883295
 30
0.0
 40
2.0
  0
LINE
  5
8A74
330
1E
100
AcDbEntity
  8
12
  6
CONTINUOUS
 62
     3
100
AcDbLine
 10
-58.49951171880002
 20
-538.2222174883295
 30
0.0
 11
-31.49951171880002
 21
-538.2222174883295
 31
0.0
  0
CIRCLE
  5
8A75
330
1E
100
AcDbEntity
  8
12
  6
CONTINUOUS
 62
     3
100
AcDbCircle
 10
-43.99951171880002
 20
-571.7222174883295
 30
0.0
 40
1.75
  0
CIRCLE
  5
8A76
330
1E
100
AcDbEntity
  8
12
  6
CONTINUOUS
 62
     3
100
AcDbCircle
 10
-43.99951171880002
 20
-571.7222174883295
 30
0.0
 40
1.425003051800104
  0
CIRCLE
  5
8A77
330
1E
100
AcDbEntity
  8
12
  6
CONTINUOUS
 62
     3
100
AcDbCircle
 10
-44.99951171880002
 20
-538.2224616289295
 30
0.0
 40
5.0
  0
CIRCLE
  5
8A78
330
1E
100
AcDbEntity
  8
12
  6
CONTINUOUS
 62
     3
100
AcDbCircle
 10
-44.99951171880002
 20
-538.2224616289295
 30
0.0
 40
4.188000202199873
  0
LINE
  5
8A79
330
1E
100
AcDbEntity
  8
18
 48
2.0
100
AcDbLine
 10
-86.99951171880002
 20
-459.2222174883295
 30
0.0
 11
0.0004882811999778
 21
-459.2222174883295
 31
0.0
  0
LINE
  5
8A7A
330
1E
100
AcDbEntity
  8
18
 48
2.0
100
AcDbLine
 10
-46.99951171880002
 20
-480.2222174883295
 30
0.0
 11
-92.99951171880001
 21
-480.2222174883295
 31
0.0
  0
LINE
  5
8A7B
330
1E
100
AcDbEntity
  8
18
 48
2.0
100
AcDbLine
 10
-92.99951171880001
 20
-496.2222174883295
 30
0.0
 11
-46.99951171880002
 21
-496.2222174883295
 31
0.0
  0
ARC
  5
8A7C
330
1E
100
AcDbEntity
  8
18
 48
2.0
100
AcDbCircle
 10
-86.99951171880002
 20
-409.2224616289295
 30
0.0
 40
50.0
100
AcDbArc
 50
270.0
 51
323.1300974541246
  0
LINE
  5
8A7D
330
1E
100
AcDbEntity
  8
18
 48
2.0
100
AcDbLine
 10
-164.9997558594
 20
-517.2222174883295
 30
0.0
 11
0.0004882811999778
 21
-517.2222174883295
 31
0.0
  0
LINE
  5
8A7E
330
1E
100
AcDbEntity
  8
18
 48
2.0
100
AcDbLine
 10
-162.9997558594
 20
-496.2220954180295
 30
0.0
 11
-116.9997558594
 21
-496.2220954180295
 31
0.0
  0
LINE
  5
8A7F
330
1E
100
AcDbEntity
  8
18
 48
2.0
100
AcDbLine
 10
-116.9997558594
 20
-480.2220954180295
 30
0.0
 11
-162.9997558594
 21
-480.2220954180295
 31
0.0
  0
LINE
  5
8A80
330
1E
100
AcDbEntity
  8
18
 48
2.0
100
AcDbLine
 10
-86.80810546880001
 20
-459.2220954180295
 30
0.0
 11
-164.9997558594
 21
-459.2220954180295
 31
0.0
  0
ARC
  5
8A81
330
1E
100
AcDbEntity
  8
18
 48
2.0
100
AcDbCircle
 10
-161.9997558594
 20
-515.7778815508295
 30
0.0
 40
13.0
100
AcDbArc
 50
180.0
 51
219.7168226084787
  0
LINE
  5
8A82
330
1E
100
AcDbEntity
  8
18
 48
2.0
100
AcDbLine
 10
-162.9997558594
 20
-496.2220954180295
 30
0.0
 11
-162.9997558594
 21
-480.2220954180295
 31
0.0
  0
ARC
  5
8A83
330
1E
100
AcDbEntity
  8
18
 48
2.0
100
AcDbCircle
 10
-139.9997558594
 20
-488.2222174883295
 30
0.0
 40
25.99999999998813
100
AcDbArc
 50
142.0419713659713
 51
217.9580213490093
  0
LINE
  5
8A84
330
1E
100
AcDbEntity
  8
18
 48
2.0
100
AcDbLine
 10
-160.4997558594
 20
-472.2299079180295
 30
0.0
 11
-160.4997558594
 21
-459.2220954180295
 31
0.0
  0
LINE
  5
8A85
330
1E
100
AcDbEntity
  8
18
 48
2.0
100
AcDbLine
 10
-160.4997558594
 20
-517.2220954180295
 30
0.0
 11
-160.4997558594
 21
-504.2142829180295
 31
0.0
  0
ARC
  5
8A86
330
1E
100
AcDbEntity
  8
18
 48
2.0
100
AcDbCircle
 10
-164.9997558594
 20
-469.2222174883295
 30
0.0
 40
10.0
100
AcDbArc
 50
90.0
 51
180.0
  0
ARC
  5
8A87
330
1E
100
AcDbEntity
  8
18
 48
2.0
100
AcDbCircle
 10
-164.9997558594
 20
-507.2222174883295
 30
0.0
 40
10.0
100
AcDbArc
 50
180.0
 51
270.0
  0
LINE
  5
8A88
330
1E
100
AcDbEntity
  8
18
 48
2.0
100
AcDbLine
 10
-174.9997558594
 20
-515.7778815508295
 30
0.0
 11
-174.9997558594
 21
-469.2220954180295
 31
0.0
  0
LINE
  5
8A89
330
1E
100
AcDbEntity
  8
18
 48
2.0
100
AcDbLine
 10
-116.9997558594
 20
-496.2220954180295
 30
0.0
 11
-116.9997558594
 21
-480.2220954180295
 31
0.0
  0
LINE
  5
8A8A
330
1E
100
AcDbEntity
  8
18
 48
2.0
100
AcDbLine
 10
-119.4997558594
 20
-472.2299079180295
 30
0.0
 11
-119.4997558594
 21
-459.2220954180295
 31
0.0
  0
LINE
  5
8A8B
330
1E
100
AcDbEntity
  8
18
 48
2.0
100
AcDbLine
 10
-119.4997558594
 20
-517.2220954180295
 30
0.0
 11
-119.4997558594
 21
-504.2142829180295
 31
0.0
  0
ARC
  5
8A8C
330
1E
100
AcDbEntity
  8
18
 48
2.0
100
AcDbCircle
 10
-139.9997558594
 20
-488.2222174883295
 30
0.0
 40
25.99999999999361
100
AcDbArc
 50
322.0419663569266
 51
37.95803000047773
  0
LINE
  5
8A8D
330
1E
100
AcDbEntity
  8
18
 48
2.0
100
AcDbLine
 10
-92.99951171880001
 20
-496.2222174883295
 30
0.0
 11
-92.99951171880001
 21
-480.2222174883295
 31
0.0
  0
ARC
  5
8A8E
330
1E
100
AcDbEntity
  8
18
 48
2.0
100
AcDbCircle
 10
-69.99951171880002
 20
-488.2224616289295
 30
0.0
 40
25.99999999998813
100
AcDbArc
 50
142.0419713659713
 51
217.9580213491573
  0
LINE
  5
8A8F
330
1E
100
AcDbEntity
  8
18
 48
2.0
100
AcDbLine
 10
-90.49951171880001
 20
-472.2300299883295
 30
0.0
 11
-90.49951171880001
 21
-459.2222174883295
 31
0.0
  0
LINE
  5
8A90
330
1E
100
AcDbEntity
  8
18
 48
2.0
100
AcDbLine
 10
-90.49951171880001
 20
-517.2222174883295
 30
0.0
 11
-90.49951171880001
 21
-504.2144049883295
 31
0.0
  0
LINE
  5
8A91
330
1E
100
AcDbEntity
  8
18
 48
2.0
100
AcDbLine
 10
23.00048828119997
 20
-480.2222174883295
 30
0.0
 11
-22.99951171880002
 21
-480.2222174883295
 31
0.0
  0
LINE
  5
8A92
330
1E
100
AcDbEntity
  8
18
 48
2.0
100
AcDbLine
 10
-22.99951171880002
 20
-496.2222174883295
 30
0.0
 11
23.00048828119997
 21
-496.2222174883295
 31
0.0
  0
ARC
  5
8A93
330
1E
100
AcDbEntity
  8
18
 48
2.0
100
AcDbCircle
 10
-0.0004882811999778
 20
-488.2222174883295
 30
0.0
 40
25.99999999999361
210
0.0
220
0.0
230
-1.0
100
AcDbArc
 50
322.0419663569266
 51
37.95803000047773
  0
LINE
  5
8A94
330
1E
100
AcDbEntity
  8
18
 48
2.0
100
AcDbLine
 10
-22.99951171880002
 20
-496.2222174883295
 30
0.0
 11
-22.99951171880002
 21
-480.2222174883295
 31
0.0
  0
LINE
  5
8A95
330
1E
100
AcDbEntity
  8
18
 48
2.0
100
AcDbLine
 10
-46.99951171880002
 20
-496.2222174883295
 30
0.0
 11
-46.99951171880002
 21
-480.2222174883295
 31
0.0
  0
LINE
  5
8A96
330
1E
100
AcDbEntity
  8
18
 48
2.0
100
AcDbLine
 10
-49.49951171880002
 20
-472.2300299883295
 30
0.0
 11
-49.49951171880002
 21
-459.2222174883295
 31
0.0
  0
LINE
  5
8A97
330
1E
100
AcDbEntity
  8
18
 48
2.0
100
AcDbLine
 10
-49.49951171880002
 20
-517.2222174883295
 30
0.0
 11
-49.49951171880002
 21
-504.2144049883295
 31
0.0
  0
ARC
  5
8A98
330
1E
100
AcDbEntity
  8
18
 48
2.0
100
AcDbCircle
 10
-69.99951171880002
 20
-488.2224616289295
 30
0.0
 40
26.00000000007248
100
AcDbArc
 50
322.0419663570584
 51
37.95803000047773
  0
LINE
  5
8A99
330
1E
100
AcDbEntity
  8
18
 48
2.0
100
AcDbLine
 10
20.50048828119997
 20
-517.2222174883295
 30
0.0
 11
20.50048828119997
 21
-504.2144049883295
 31
0.0
  0
ARC
  5
8A9A
330
1E
100
AcDbEntity
  8
18
 48
2.0
100
AcDbCircle
 10
0.0004882811999778
 20
-488.2224616289295
 30
0.0
 40
26.00000000007248
100
AcDbArc
 50
322.0419663570584
 51
37.95803000047773
  0
LINE
  5
8A9B
330
1E
100
AcDbEntity
  8
18
 48
2.0
100
AcDbLine
 10
20.50048828119997
 20
-472.2300299883295
 30
0.0
 11
20.50048828119997
 21
-459.2222174883295
 31
0.0
  0
LINE
  5
8A9C
330
1E
100
AcDbEntity
  8
18
 48
2.0
100
AcDbLine
 10
23.00048828119997
 20
-496.2222174883295
 30
0.0
 11
23.00048828119997
 21
-480.2222174883295
 31
0.0
  0
LINE
  5
8A9D
330
1E
100
AcDbEntity
  8
18
 48
2.0
100
AcDbLine
 10
-20.49951171880002
 20
-472.2300299883295
 30
0.0
 11
-20.49951171880002
 21
-459.2222174883295
 31
0.0
  0
LINE
  5
8A9E
330
1E
100
AcDbEntity
  8
18
 48
2.0
100
AcDbLine
 10
-20.49951171880002
 20
-517.2222174883295
 30
0.0
 11
-20.49951171880002
 21
-504.2144049883295
 31
0.0
  0
LINE
  5
8A9F
330
1E
100
AcDbEntity
  8
18
 48
2.0
100
AcDbLine
 10
0.0004882811999778
 20
-433.2222174883295
 30
0.0
 11
-34.99951171880002
 21
-433.2222174883295
 31
0.0
  0
ARC
  5
8AA0
330
1E
100
AcDbEntity
  8
18
 48
2.0
100
AcDbCircle
 10
-34.99951171880002
 20
-448.2224616289295
 30
0.0
 40
15.0
100
AcDbArc
 50
90.0
 51
143.1301297838641
  0
DIMENSION
  5
8AA1
330
1E
100
AcDbEntity
  8
30
  6
CONTINUOUS
100
AcDbDimension
  2
*D24
 10
134.5021138728006
 20
-517.2222174883295
 30
0.0
 11
134.5021138728007
 21
-526.4045755218067
 31
0.0
 70
   160
  3
STANDARD
100
AcDbAlignedDimension
 13
105.99993896488
 23
-538.2222174883295
 33
0.0
 14
86.09399414059998
 24
-517.2222174883295
 34
0.0
 50
90.0
100
AcDbRotatedDimension
  0
LINE
  5
8AA2
330
1E
100
AcDbEntity
  8
12
  6
CONTINUOUS
 62
     3
100
AcDbLine
 10
45.00048828119997
 20
-553.2222174883295
 30
0.0
 11
45.00048828119997
 21
-523.2222174883295
 31
0.0
  0
CIRCLE
  5
8AA4
330
1E
100
AcDbEntity
  8
12
  6
CONTINUOUS
 62
     3
100
AcDbCircle
 10
88.00048828119997
 20
-620.2222174883295
 30
0.0
 40
1.5
  0
CIRCLE
  5
8AA5
330
1E
100
AcDbEntity
  8
12
  6
CONTINUOUS
 62
     3
100
AcDbCircle
 10
88.00048828119997
 20
-620.2222174883295
 30
0.0
 40
2.0
  0
CIRCLE
  5
8AA7
330
1E
100
AcDbEntity
  8
12
  6
CONTINUOUS
 62
     3
100
AcDbCircle
 10
44.00048828119998
 20
-571.7222174883295
 30
0.0
 40
1.75
  0
CIRCLE
  5
8AA8
330
1E
100
AcDbEntity
  8
12
  6
CONTINUOUS
 62
     3
100
AcDbCircle
 10
44.00048828119998
 20
-571.7222174883295
 30
0.0
 40
1.425003051800104
  0
CIRCLE
  5
8AA9
330
1E
100
AcDbEntity
  8
12
  6
CONTINUOUS
 62
     3
100
AcDbCircle
 10
-45.00048828119997
 20
-538.2222174883295
 30
0.0
 40
4.188000202200328
210
0.0
220
0.0
230
-1.0
  0
CIRCLE
  5
8AAA
330
1E
100
AcDbEntity
  8
12
  6
CONTINUOUS
 62
     3
100
AcDbCircle
 10
-45.00048828119997
 20
-538.2222174883295
 30
0.0
 40
5.0
210
0.0
220
0.0
230
-1.0
  0
DIMENSION
  5
8AAB
330
1E
100
AcDbEntity
  8
30
  6
CONTINUOUS
100
AcDbDimension
  2
*D25
 10
134.5021138728006
 20
-459.2222174883295
 30
0.0
 11
134.5021138728007
 21
-489.6208668746137
 31
0.0
 70
   160
  3
STANDARD
100
AcDbAlignedDimension
 13
96.0939941406
 23
-517.2222174883295
 33
0.0
 14
96.0939941406
 24
-459.2222174883295
 34
0.0
 50
90.0
100
AcDbRotatedDimension
  0
ARC
  5
8AAC
330
1E
100
AcDbEntity
  8
18
 48
2.0
100
AcDbCircle
 10
-87.00048828119998
 20
-409.2222174883294
 30
0.0
 40
50.0
210
0.0
220
0.0
230
-1.0
100
AcDbArc
 50
270.0
 51
323.1300974540677
  0
LINE
  5
8AAD
330
1E
100
AcDbEntity
  8
18
 48
2.0
100
AcDbLine
 10
95.00048828119998
 20
-459.2222174883295
 30
0.0
 11
87.00048828119998
 21
-459.2222174883295
 31
0.0
  0
LINE
  5
8AAE
330
1E
100
AcDbEntity
  8
18
 48
2.0
100
AcDbLine
 10
93.00048828119997
 20
-496.2222174883295
 30
0.0
 11
47.00048828119998
 21
-496.2222174883295
 31
0.0
  0
LINE
  5
8AAF
330
1E
100
AcDbEntity
  8
18
 48
2.0
100
AcDbLine
 10
93.00048828119997
 20
-480.2222174883295
 30
0.0
 11
47.00048828119998
 21
-480.2222174883295
 31
0.0
  0
ARC
  5
8AB0
330
1E
100
AcDbEntity
  8
18
 48
2.0
100
AcDbCircle
 10
-70.00048828119997
 20
-488.2222174883295
 30
0.0
 40
25.99999999999361
210
0.0
220
0.0
230
-1.0
100
AcDbArc
 50
322.0419663569266
 51
37.95803000047773
  0
LINE
  5
8AB1
330
1E
100
AcDbEntity
  8
18
 48
2.0
100
AcDbLine
 10
49.50048828119998
 20
-517.2222174883295
 30
0.0
 11
49.50048828119998
 21
-504.2144049883295
 31
0.0
  0
LINE
  5
8AB2
330
1E
100
AcDbEntity
  8
18
 48
2.0
100
AcDbLine
 10
49.50048828119998
 20
-472.2300299883295
 30
0.0
 11
49.50048828119998
 21
-459.2222174883295
 31
0.0
  0
LINE
  5
8AB3
330
1E
100
AcDbEntity
  8
18
 48
2.0
100
AcDbLine
 10
47.00048828119998
 20
-496.2222174883295
 30
0.0
 11
47.00048828119998
 21
-480.2222174883295
 31
0.0
  0
LINE
  5
8AB4
330
1E
100
AcDbEntity
  8
18
 48
2.0
100
AcDbLine
 10
105.0004882811999
 20
-515.7778815508295
 30
0.0
 11
105.0004882811999
 21
-469.2222174883295
 31
0.0
  0
ARC
  5
8AB5
330
1E
100
AcDbEntity
  8
18
 48
2.0
100
AcDbCircle
 10
-95.00048828119998
 20
-469.2222174883295
 30
0.0
 40
10.0
210
0.0
220
0.0
230
-1.0
100
AcDbArc
 50
90.0
 51
180.0
  0
LINE
  5
8AB6
330
1E
100
AcDbEntity
  8
18
 48
2.0
100
AcDbLine
 10
90.50048828119997
 20
-517.2222174883295
 30
0.0
 11
90.50048828119997
 21
-504.2144049883295
 31
0.0
  0
LINE
  5
8AB7
330
1E
100
AcDbEntity
  8
18
 48
2.0
100
AcDbLine
 10
90.50048828119997
 20
-472.2300299883295
 30
0.0
 11
90.50048828119997
 21
-459.2222174883295
 31
0.0
  0
ARC
  5
8AB8
330
1E
100
AcDbEntity
  8
18
 48
2.0
100
AcDbCircle
 10
-70.00048828119997
 20
-488.2222174883295
 30
0.0
 40
25.99999999998813
210
0.0
220
0.0
230
-1.0
100
AcDbArc
 50
142.0419713659713
 51
217.9580213490093
  0
LINE
  5
8AB9
330
1E
100
AcDbEntity
  8
18
 48
2.0
100
AcDbLine
 10
93.00048828119997
 20
-496.2222174883295
 30
0.0
 11
93.00048828119997
 21
-480.2222174883295
 31
0.0
  0
ARC
  5
8ABA
330
1E
100
AcDbEntity
  8
18
 48
2.0
100
AcDbCircle
 10
-95.00048828119998
 20
-507.2222174883295
 30
0.0
 40
10.0
210
0.0
220
0.0
230
-1.0
100
AcDbArc
 50
180.0
 51
270.0
  0
ARC
  5
8ABB
330
1E
100
AcDbEntity
  8
18
 48
2.0
100
AcDbCircle
 10
-92.00048828119998
 20
-515.7778815508295
 30
0.0
 40
13.0
210
0.0
220
0.0
230
-1.0
100
AcDbArc
 50
180.0
 51
219.7151355517234
  0
ARC
  5
8ABC
330
1E
100
AcDbEntity
  8
18
 48
2.0
100
AcDbCircle
 10
-35.00048828119997
 20
-448.2222174883295
 30
0.0
 40
15.0
210
0.0
220
0.0
230
-1.0
100
AcDbArc
 50
90.0
 51
143.1301297840907
  0
DIMENSION
  5
907E
330
1E
100
AcDbEntity
  8
30
  6
CONTINUOUS
100
AcDbDimension
  2
*D26
 10
702.0045984421244
 20
-671.1617850407572
 30
0.0
 11
702.0045984421245
 21
-683.6617850407573
 31
0.0
 70
   160
  1
25
  3
STANDARD
100
AcDbAlignedDimension
 13
559.1920999025896
 23
-696.1617850407572
 33
0.0
 14
659.1920999025896
 24
-671.1617850407572
 34
0.0
 50
90.0
100
AcDbRotatedDimension
1001
ACAD
1000
DSTYLE
1002
{
1070
   271
1070
     0
1002
}
  0
DIMENSION
  5
907F
330
1E
100
AcDbEntity
  8
30
  6
CONTINUOUS
100
AcDbDimension
  2
*D27
 10
718.3330313059849
 20
-696.1617850407572
 30
0.0
 11
718.333031305985
 21
-663.683022743422
 31
0.0
 70
   160
  3
STANDARD
100
AcDbAlignedDimension
 13
537.1256936525896
 23
-632.1617850407571
 33
0.0
 14
559.1920999025896
 24
-696.1617850407572
 34
0.0
 50
270.0
100
AcDbRotatedDimension
1001
ACAD
1000
DSTYLE
1002
{
1070
   271
1070
     0
1002
}
  0
LINE
  5
9080
330
1E
100
AcDbEntity
  8
18
 48
2.0
100
AcDbLine
 10
668.0983499025897
 20
-671.1617850407572
 30
0.0
 11
678.0983499025897
 21
-680.1617850407572
 31
0.0
  0
LINE
  5
9081
330
1E
100
AcDbEntity
  8
18
  6
DASHED
 48
2.0
100
AcDbLine
 10
298.0983499025896
 20
-671.1617850407572
 30
0.0
 11
308.0983499025896
 21
-680.1617850407572
 31
0.0
  0
ARC
  5
9082
330
1E
100
AcDbEntity
  8
18
 48
2.0
100
AcDbCircle
 10
210.0585549806896
 20
-681.1617850407571
 30
0.0
 40
10.0
100
AcDbArc
 50
90.0
 51
180.0
  0
LINE
  5
9083
330
1E
100
AcDbEntity
  8
18
 48
2.0
100
AcDbLine
 10
250.0585549806896
 20
-680.1617850407572
 30
0.0
 11
250.0585549806896
 21
-671.1617850407572
 31
0.0
  0
LINE
  5
9086
330
1E
100
AcDbEntity
  8
18
  6
DASHED
 48
2.0
100
AcDbLine
 10
628.0983499025897
 20
-802.1617850407572
 30
0.0
 11
628.0983499025897
 21
-432.1617850407571
 31
0.0
  0
LINE
  5
9087
330
1E
100
AcDbEntity
  8
18
 48
2.0
100
AcDbLine
 10
348.0983499025896
 20
-802.1617850407571
 30
0.0
 11
348.0983499025896
 21
-432.1617850407571
 31
0.0
  0
LINE
  5
9088
330
1E
100
AcDbEntity
  8
18
 48
2.0
100
AcDbLine
 10
308.0983499025896
 20
-680.1617850407572
 30
0.0
 11
678.0983499025897
 21
-680.1617850407572
 31
0.0
  0
LINE
  5
9089
330
1E
100
AcDbEntity
  8
18
 48
2.0
100
AcDbLine
 10
678.0983499025897
 20
-721.1617850407572
 30
0.0
 11
308.0983499025896
 21
-721.1617850407572
 31
0.0
  0
LINE
  5
908B
330
1E
100
AcDbEntity
  8
12
  6
CONTINUOUS
 62
     3
100
AcDbLine
 10
246.0837014650897
 20
-696.1617850407572
 30
0.0
 11
160.6759866213897
 21
-696.1617850407572
 31
0.0
  0
ARC
  5
908C
330
1E
100
AcDbEntity
  8
18
 48
2.0
100
AcDbCircle
 10
214.0585549806896
 20
-685.1617850407571
 30
0.0
 40
5.0
100
AcDbArc
 50
90.0
 51
180.0
  0
LINE
  5
908D
330
1E
100
AcDbEntity
  8
18
 48
2.0
100
AcDbLine
 10
209.0585549806896
 20
-721.9946707829572
 30
0.0
 11
200.0585549806896
 21
-721.9946707829572
 31
0.0
  0
LINE
  5
908E
330
1E
100
AcDbEntity
  8
18
 48
2.0
100
AcDbLine
 10
209.0585549806896
 20
-721.9946707829572
 30
0.0
 11
209.0585549806896
 21
-685.1617850407571
 31
0.0
  0
LINE
  5
908F
330
1E
100
AcDbEntity
  8
18
 48
2.0
100
AcDbLine
 10
200.0585549806896
 20
-681.1617850407571
 30
0.0
 11
200.0585549806896
 21
-721.9946707829572
 31
0.0
  0
LINE
  5
9090
330
1E
100
AcDbEntity
  8
18
 48
2.0
100
AcDbLine
 10
250.0585549806896
 20
-680.1617850407572
 30
0.0
 11
214.0585549806896
 21
-680.1617850407572
 31
0.0
  0
LINE
  5
9091
330
1E
100
AcDbEntity
  8
18
  6
DASHED
 48
2.0
100
AcDbLine
 10
298.5602639650896
 20
-706.8596610173572
 30
0.0
 11
308.0983499025896
 21
-721.1617850407572
 31
0.0
  0
LINE
  5
9092
330
1E
100
AcDbEntity
  8
18
  6
DASHED
 48
2.0
100
AcDbLine
 10
308.0983499025896
 20
-680.1617850407572
 30
0.0
 11
298.5602639650896
 21
-706.8596610173572
 31
0.0
  0
LINE
  5
9095
330
1E
100
AcDbEntity
  8
18
 48
2.0
100
AcDbLine
 10
628.0983499025897
 20
-802.1617850407572
 30
0.0
 11
348.0983499025896
 21
-802.1617850407571
 31
0.0
  0
LINE
  5
9099
330
1E
100
AcDbEntity
  8
12
  6
CONTINUOUS
 62
     3
100
AcDbLine
 10
458.0983499025896
 20
-696.1617850407572
 30
0.0
 11
498.0983499025897
 21
-696.1617850407572
 31
0.0
  0
CIRCLE
  5
909A
330
1E
100
AcDbEntity
  8
12
  6
CONTINUOUS
 62
     3
100
AcDbCircle
 10
478.0983499025897
 20
-696.1617850407572
 30
0.0
 40
5.5
  0
CIRCLE
  5
909B
330
1E
100
AcDbEntity
  8
12
  6
CONTINUOUS
 62
     3
100
AcDbCircle
 10
568.0983499025897
 20
-696.1617850407572
 30
0.0
 40
5.5
  0
LINE
  5
909C
330
1E
100
AcDbEntity
  8
18
 48
2.0
100
AcDbLine
 10
666.1178811525896
 20
-704.8619803532572
 30
0.0
 11
678.0983499025897
 21
-721.1617850407572
 31
0.0
  0
LINE
  5
909D
330
1E
100
AcDbEntity
  8
18
 48
2.0
100
AcDbLine
 10
678.0983499025897
 20
-680.1617850407572
 30
0.0
 11
666.1178811525896
 21
-704.8619803532572
 31
0.0
  0
LINE
  5
909F
330
1E
100
AcDbEntity
  8
18
 48
2.0
100
AcDbLine
 10
678.0983499025897
 20
-563.1617850407572
 30
0.0
 11
308.0983499025896
 21
-563.1617850407572
 31
0.0
  0
LINE
  5
90A0
330
1E
100
AcDbEntity
  8
18
 48
2.0
100
AcDbLine
 10
298.0983499025896
 20
-554.1617850407572
 30
0.0
 11
668.0983499025897
 21
-554.1617850407572
 31
0.0
  0
LINE
  5
90A1
330
1E
100
AcDbEntity
  8
18
 48
2.0
100
AcDbLine
 10
668.0983499025897
 20
-671.1617850407572
 30
0.0
 11
298.0983499025896
 21
-671.1617850407572
 31
0.0
  0
LINE
  5
90A3
330
1E
100
AcDbEntity
  8
18
 48
2.0
100
AcDbLine
 10
668.0983499025897
 20
-513.1617850407572
 30
0.0
 11
298.0983499025896
 21
-513.1617850407572
 31
0.0
  0
LINE
  5
90A5
330
1E
100
AcDbEntity
  8
18
  6
DASHED
 48
2.0
100
AcDbLine
 10
304.5531838869897
 20
-533.0688895329571
 30
0.0
 11
298.0983499025896
 21
-513.1617850407572
 31
0.0
  0
LINE
  5
90A6
330
1E
100
AcDbEntity
  8
18
 48
2.0
100
AcDbLine
 10
200.0585549806896
 20
-512.3288992985571
 30
0.0
 11
200.0585549806896
 21
-553.1617850407571
 31
0.0
  0
LINE
  5
90A7
330
1E
100
AcDbEntity
  8
18
 48
2.0
100
AcDbLine
 10
209.0585549806896
 20
-512.3288992985571
 30
0.0
 11
209.0585549806896
 21
-549.1617850407571
 31
0.0
  0
LINE
  5
90A9
330
1E
100
AcDbEntity
  8
18
 48
2.0
100
AcDbLine
 10
250.0585549806896
 20
-671.1617850407572
 30
0.0
 11
210.0585549806896
 21
-671.1617850407572
 31
0.0
  0
LINE
  5
90AA
330
1E
100
AcDbEntity
  8
12
  6
CONTINUOUS
 62
     3
100
AcDbLine
 10
223.2592385744897
 20
-538.1617850407572
 30
0.0
 11
178.3463967775896
 21
-538.1617850407572
 31
0.0
  0
ARC
  5
90AB
330
1E
100
AcDbEntity
  8
18
 48
2.0
100
AcDbCircle
 10
214.0585549806896
 20
-549.1617850407571
 30
0.0
 40
5.0
100
AcDbArc
 50
180.0
 51
270.0
  0
LINE
  5
90AC
330
1E
100
AcDbEntity
  8
18
 48
2.0
100
AcDbLine
 10
250.0585549806896
 20
-563.1617850407572
 30
0.0
 11
210.0585549806896
 21
-563.1617850407572
 31
0.0
  0
ARC
  5
90AD
330
1E
100
AcDbEntity
  8
18
 48
2.0
100
AcDbCircle
 10
210.0585549806896
 20
-553.1617850407571
 30
0.0
 40
10.0
100
AcDbArc
 50
180.0
 51
270.0
  0
LINE
  5
90AE
330
1E
100
AcDbEntity
  8
18
 48
2.0
100
AcDbLine
 10
250.0585549806896
 20
-554.1617850407572
 30
0.0
 11
250.0585549806896
 21
-563.1617850407572
 31
0.0
  0
LINE
  5
90AF
330
1E
100
AcDbEntity
  8
18
 48
2.0
100
AcDbLine
 10
250.0585549806896
 20
-554.1617850407572
 30
0.0
 11
214.0585549806896
 21
-554.1617850407572
 31
0.0
  0
LINE
  5
90B0
330
1E
100
AcDbEntity
  8
18
  6
DASHED
 48
2.0
100
AcDbLine
 10
298.0983499025896
 20
-554.1617850407572
 30
0.0
 11
304.5531838869897
 21
-533.0688895329571
 31
0.0
  0
LINE
  5
90B1
330
1E
100
AcDbEntity
  8
18
  6
DASHED
 48
2.0
100
AcDbLine
 10
308.0983499025896
 20
-563.1617850407572
 30
0.0
 11
298.0983499025896
 21
-554.1617850407572
 31
0.0
  0
LINE
  5
90B2
330
1E
100
AcDbEntity
  8
18
 48
2.0
100
AcDbLine
 10
200.0585549806896
 20
-512.3288992985571
 30
0.0
 11
209.0585549806896
 21
-512.3288992985571
 31
0.0
  0
DIMENSION
  5
90B4
330
1E
100
AcDbEntity
  8
30
  6
CONTINUOUS
100
AcDbDimension
  2
*D28
 10
698.6431453871691
 20
-563.1617850407572
 30
0.0
 11
698.6431453871692
 21
-550.6617850407573
 31
0.0
 70
   160
  1
25
  3
STANDARD
100
AcDbAlignedDimension
 13
559.1920999025896
 23
-538.1617850407572
 33
0.0
 14
669.1920999025897
 24
-563.1617850407572
 34
0.0
 50
270.0
100
AcDbRotatedDimension
1001
ACAD
1000
DSTYLE
1002
{
1070
   271
1070
     0
1002
}
  0
DIMENSION
  5
90B5
330
1E
100
AcDbEntity
  8
30
  6
CONTINUOUS
100
AcDbDimension
  2
*D29
 10
718.3330312870074
 20
-632.1617850407571
 30
0.0
 11
718.3330312870075
 21
-584.2488122171046
 31
0.0
 70
   160
  3
STANDARD
100
AcDbAlignedDimension
 13
559.1920999025896
 23
-538.1617850407572
 33
0.0
 14
514.1920999025897
 24
-632.1617850407571
 34
0.0
 50
270.0
100
AcDbRotatedDimension
1001
ACAD
1000
DSTYLE
1002
{
1070
   271
1070
     0
1002
}
  0
LINE
  5
90B7
330
1E
100
AcDbEntity
  8
18
 48
2.0
100
AcDbLine
 10
628.0983499025897
 20
-432.1617850407571
 30
0.0
 11
348.0983499025896
 21
-432.1617850407571
 31
0.0
  0
LINE
  5
90B8
330
1E
100
AcDbEntity
  8
12
  6
CONTINUOUS
 62
     3
100
AcDbLine
 10
478.0983499025897
 20
-518.1617850407572
 30
0.0
 11
478.0983499025897
 21
-558.1617850407572
 31
0.0
  0
LINE
  5
90B9
330
1E
100
AcDbEntity
  8
12
  6
CONTINUOUS
 62
     3
100
AcDbLine
 10
568.0983499025897
 20
-518.1617850407572
 30
0.0
 11
568.0983499025897
 21
-558.1617850407572
 31
0.0
  0
LINE
  5
90BA
330
1E
100
AcDbEntity
  8
12
  6
CONTINUOUS
 62
     3
100
AcDbLine
 10
498.0983499025897
 20
-538.1617850407572
 30
0.0
 11
458.0983499025896
 21
-538.1617850407572
 31
0.0
  0
CIRCLE
  5
90BB
330
1E
100
AcDbEntity
  8
12
  6
CONTINUOUS
 62
     3
100
AcDbCircle
 10
478.0983499025897
 20
-538.1617850407572
 30
0.0
 40
5.5
  0
CIRCLE
  5
90BC
330
1E
100
AcDbEntity
  8
12
  6
CONTINUOUS
 62
     3
100
AcDbCircle
 10
568.0983499025897
 20
-538.1617850407572
 30
0.0
 40
5.5
  0
LINE
  5
90BF
330
1E
100
AcDbEntity
  8
18
 48
2.0
100
AcDbLine
 10
672.1105569338897
 20
-530.0724295719572
 30
0.0
 11
668.0983499025897
 21
-513.1617850407572
 31
0.0
  0
LINE
  5
90C0
330
1E
100
AcDbEntity
  8
18
 48
2.0
100
AcDbLine
 10
668.0983499025897
 20
-554.1617850407572
 30
0.0
 11
672.1105569338897
 21
-530.0724295719572
 31
0.0
  0
LINE
  5
90C1
330
1E
100
AcDbEntity
  8
18
 48
2.0
100
AcDbLine
 10
678.0983499025897
 20
-563.1617850407572
 30
0.0
 11
668.0983499025897
 21
-554.1617850407572
 31
0.0
  0
LINE
  5
915A
330
1E
100
AcDbEntity
  8
16
100
AcDbLine
 10
0.0
 20
245.9724825939063
 30
0.0
 11
0.0
 21
570.0427374114014
 31
0.0
  0
LINE
  5
9169
330
1E
100
AcDbEntity
  8
18
100
AcDbLine
 10
226.2194824219
 20
506.9028320311999
 30
0.0
 11
219.990234375
 21
517.0
 31
0.0
  0
LINE
  5
916A
330
1E
100
AcDbEntity
  8
18
100
AcDbLine
 10
-159.5539550780999
 20
508.1564941405999
 30
0.0
 11
-149.9997558592999
 21
517.0
 31
0.0
  0
LINE
  5
916B
330
1E
100
AcDbEntity
  8
10
  6
CONTINUOUS
100
AcDbLine
 10
-104.9997558592999
 20
487.0
 30
0.0
 11
-104.9997558592999
 21
548.9998779297
 31
0.0
  0
LINE
  5
916C
330
1E
100
AcDbEntity
  8
10
  6
CONTINUOUS
100
AcDbLine
 10
175.0002441406
 20
487.0
 30
0.0
 11
175.0002441406
 21
548.9998779297
 31
0.0
  0
LINE
  5
9197
330
1E
100
AcDbEntity
  8
18
100
AcDbLine
 10
-149.9997558592999
 20
517.0
 30
0.0
 11
219.990234375
 21
517.0
 31
0.0
  0
LINE
  5
9199
330
1E
100
AcDbEntity
  8
21
100
AcDbLine
 10
-92.49999999999998
 20
634.0
 30
0.0
 11
-47.49999999999997
 21
634.0
 31
0.0
  0
LINE
  5
919A
330
1E
100
AcDbEntity
  8
21
100
AcDbLine
 10
-92.49999999999998
 20
548.9998779297
 30
0.0
 11
-92.49999999999998
 21
634.0
 31
0.0
  0
LINE
  5
919B
330
1E
100
AcDbEntity
  8
10
  6
CONTINUOUS
100
AcDbLine
 10
175.0002441406
 20
548.9998779297
 30
0.0
 11
-104.9999999999999
 21
548.9998779297
 31
0.0
  0
LINE
  5
919D
330
1E
100
AcDbEntity
  8
21
100
AcDbLine
 10
162.5002441407
 20
634.0
 30
0.0
 11
117.5002441407
 21
634.0
 31
0.0
  0
LINE
  5
919E
330
1E
100
AcDbEntity
  8
24
  6
CONTINOUS
100
AcDbLine
 10
155.0
 20
619.0
 30
0.0
 11
125.0
 21
619.0
 31
0.0
  0
LINE
  5
919F
330
1E
100
AcDbEntity
  8
24
  6
CONTINOUS
100
AcDbLine
 10
155.0
 20
587.0
 30
0.0
 11
125.0
 21
587.0
 31
0.0
  0
LINE
  5
91A0
330
1E
100
AcDbEntity
  8
24
  6
CONTINOUS
100
AcDbLine
 10
155.0
 20
579.0
 30
0.0
 11
125.0
 21
579.0
 31
0.0
  0
LINE
  5
91A3
330
1E
100
AcDbEntity
  8
21
100
AcDbLine
 10
-22.49975585929993
 20
634.0
 30
0.0
 11
22.50024414070006
 21
634.0
 31
0.0
  0
ARC
  5
91A4
330
1E
100
AcDbEntity
  8
24
  6
CONTINOUS
100
AcDbCircle
 10
69.99999999999997
 20
587.0
 30
0.0
 40
6.5
210
0.0
220
0.0
230
-1.0
100
AcDbArc
 50
0.0
 51
180.0
  0
LINE
  5
91A5
330
1E
100
AcDbEntity
  8
21
100
AcDbLine
 10
-47.49999999999997
 20
548.9998779297
 30
0.0
 11
-47.49999999999997
 21
634.0
 31
0.0
  0
LINE
  5
91A6
330
1E
100
AcDbEntity
  8
21
100
AcDbLine
 10
-22.49975585929993
 20
548.9998779297
 30
0.0
 11
-22.49975585929993
 21
634.0
 31
0.0
  0
ARC
  5
91A7
330
1E
100
AcDbEntity
  8
24
  6
CONTINOUS
100
AcDbCircle
 10
-0.0002441407000617
 20
587.0
 30
0.0
 40
6.5
210
0.0
220
0.0
230
-1.0
100
AcDbArc
 50
0.0
 51
180.0
  0
CIRCLE
  5
91A8
330
1E
100
AcDbEntity
  8
24
  6
CONTINOUS
100
AcDbCircle
 10
69.99999999999997
 20
619.0
 30
0.0
 40
6.5
210
0.0
220
0.0
230
-1.0
  0
LINE
  5
91A9
330
1E
100
AcDbEntity
  8
24
  6
CONTINOUS
100
AcDbLine
 10
15.00000000000002
 20
619.0
 30
0.0
 11
-14.99999999999997
 21
619.0
 31
0.0
  0
CIRCLE
  5
91AA
330
1E
100
AcDbEntity
  8
24
  6
CONTINOUS
100
AcDbCircle
 10
-0.0002441407000617
 20
619.0
 30
0.0
 40
6.5
210
0.0
220
0.0
230
-1.0
  0
ARC
  5
91AC
330
1E
100
AcDbEntity
  8
24
  6
CONTINOUS
100
AcDbCircle
 10
69.99999999999997
 20
579.0
 30
0.0
 40
6.5
210
0.0
220
0.0
230
-1.0
100
AcDbArc
 50
180.0
 51
0.0
  0
LINE
  5
91AE
330
1E
100
AcDbEntity
  8
24
  6
CONTINOUS
100
AcDbLine
 10
-76.49999999999997
 20
579.0
 30
0.0
 11
-76.49999999999997
 21
587.0
 31
0.0
  0
LINE
  5
91AF
330
1E
100
AcDbEntity
  8
24
  6
CONTINOUS
100
AcDbLine
 10
-63.49999999999997
 20
579.0
 30
0.0
 11
-63.49999999999997
 21
587.0
 31
0.0
  0
LINE
  5
91B0
330
1E
100
AcDbEntity
  8
24
  6
CONTINOUS
100
AcDbLine
 10
15.00000000000002
 20
587.0
 30
0.0
 11
-14.99999999999997
 21
587.0
 31
0.0
  0
LINE
  5
91B1
330
1E
100
AcDbEntity
  8
24
  6
CONTINOUS
100
AcDbLine
 10
15.00000000000002
 20
579.0
 30
0.0
 11
-14.99999999999997
 21
579.0
 31
0.0
  0
ARC
  5
91B4
330
1E
100
AcDbEntity
  8
24
  6
CONTINOUS
100
AcDbCircle
 10
-0.0002441407000617
 20
579.0
 30
0.0
 40
6.5
210
0.0
220
0.0
230
-1.0
100
AcDbArc
 50
180.0
 51
0.0
  0
LINE
  5
91B5
330
1E
100
AcDbEntity
  8
24
  6
CONTINOUS
100
AcDbLine
 10
-6.499755859299938
 20
579.0
 30
0.0
 11
-6.499755859299938
 21
587.0
 31
0.0
  0
LINE
  5
91B6
330
1E
100
AcDbEntity
  8
24
  6
CONTINOUS
100
AcDbLine
 10
6.500244140700061
 20
579.0
 30
0.0
 11
6.500244140700061
 21
587.0
 31
0.0
  0
ARC
  5
91B7
330
1E
100
AcDbEntity
  8
24
  6
CONTINOUS
100
AcDbCircle
 10
-70.00024414070006
 20
587.0
 30
0.0
 40
6.5
210
0.0
220
0.0
230
-1.0
100
AcDbArc
 50
0.0
 51
90.0
  0
LINE
  5
91B8
330
1E
100
AcDbEntity
  8
21
100
AcDbLine
 10
47.50024414070005
 20
548.9998779297
 30
0.0
 11
47.50024414070007
 21
634.0
 31
0.0
  0
LINE
  5
91B9
330
1E
100
AcDbEntity
  8
21
100
AcDbLine
 10
22.50024414070006
 20
548.9998779297
 30
0.0
 11
22.50024414070006
 21
634.0
 31
0.0
  0
ARC
  5
91BA
330
1E
100
AcDbEntity
  8
24
  6
CONTINOUS
100
AcDbCircle
 10
70.00024414070006
 20
587.0
 30
0.0
 40
6.5
100
AcDbArc
 50
0.0
 51
90.0
  0
LINE
  5
91BB
330
1E
100
AcDbEntity
  8
21
100
AcDbLine
 10
92.50024414070006
 20
548.9998779297
 30
0.0
 11
92.50024414070006
 21
634.0
 31
0.0
  0
LINE
  5
91BC
330
1E
100
AcDbEntity
  8
21
100
AcDbLine
 10
117.5002441407
 20
548.9998779297
 30
0.0
 11
117.5002441407
 21
634.0
 31
0.0
  0
LINE
  5
91BD
330
1E
100
AcDbEntity
  8
24
  6
CONTINOUS
100
AcDbLine
 10
85.00000000000003
 20
619.0
 30
0.0
 11
55.00000000000003
 21
619.0
 31
0.0
  0
ARC
  5
91BE
330
1E
100
AcDbEntity
  8
24
  6
CONTINOUS
100
AcDbCircle
 10
70.00024414070006
 20
619.0
 30
0.0
 40
6.5
100
AcDbArc
 50
270.0
 51
90.0
  0
LINE
  5
91BF
330
1E
100
AcDbEntity
  8
21
100
AcDbLine
 10
92.50024414070006
 20
634.0
 30
0.0
 11
70.00024414070006
 21
634.0
 31
0.0
  0
ARC
  5
91C0
330
1E
100
AcDbEntity
  8
24
  6
CONTINOUS
100
AcDbCircle
 10
-70.00024414070006
 20
619.0
 30
0.0
 40
6.5
210
0.0
220
0.0
230
-1.0
100
AcDbArc
 50
270.0
 51
90.0
  0
LINE
  5
91C1
330
1E
100
AcDbEntity
  8
21
100
AcDbLine
 10
47.50024414070007
 20
634.0
 30
0.0
 11
70.00024414070006
 21
634.0
 31
0.0
  0
LINE
  5
91C2
330
1E
100
AcDbEntity
  8
24
  6
CONTINOUS
100
AcDbLine
 10
85.00000000000003
 20
587.0
 30
0.0
 11
55.00000000000003
 21
587.0
 31
0.0
  0
LINE
  5
91C3
330
1E
100
AcDbEntity
  8
24
  6
CONTINOUS
100
AcDbLine
 10
85.00000000000003
 20
579.0
 30
0.0
 11
55.00000000000003
 21
579.0
 31
0.0
  0
ARC
  5
91C4
330
1E
100
AcDbEntity
  8
24
  6
CONTINOUS
100
AcDbCircle
 10
70.00024414070006
 20
579.0
 30
0.0
 40
6.5
100
AcDbArc
 50
270.0
 51
0.0
  0
LINE
  5
91C6
330
1E
100
AcDbEntity
  8
24
  6
CONTINOUS
100
AcDbLine
 10
63.50024414070006
 20
579.0
 30
0.0
 11
63.50024414070006
 21
587.0
 31
0.0
  0
ARC
  5
91C7
330
1E
100
AcDbEntity
  8
24
  6
CONTINOUS
100
AcDbCircle
 10
-70.00024414070006
 20
579.0
 30
0.0
 40
6.5
210
0.0
220
0.0
230
-1.0
100
AcDbArc
 50
270.0
 51
0.0
  0
LINE
  5
91CC
330
1E
100
AcDbEntity
  8
21
100
AcDbLine
 10
76.50024414070006
 20
579.0
 30
0.0
 11
76.50024414070006
 21
587.0
 31
0.0
  0
LINE
  5
91D0
330
1E
100
AcDbEntity
  8
21
100
AcDbLine
 10
162.5002441407
 20
548.9998779297
 30
0.0
 11
162.5002441407
 21
634.0
 31
0.0
  0
ARC
  5
91D1
330
1E
100
AcDbEntity
  8
24
  6
CONTINOUS
100
AcDbCircle
 10
140.0002441407
 20
587.0
 30
0.0
 40
6.5
100
AcDbArc
 50
0.0
 51
180.0
  0
CIRCLE
  5
91D2
330
1E
100
AcDbEntity
  8
24
  6
CONTINOUS
100
AcDbCircle
 10
140.0002441407
 20
619.0
 30
0.0
 40
6.5
  0
LINE
  5
91D4
330
1E
100
AcDbEntity
  8
24
  6
CONTINOUS
100
AcDbLine
 10
133.5002441407
 20
579.0
 30
0.0
 11
133.5002441407
 21
587.0
 31
0.0
  0
LINE
  5
91D5
330
1E
100
AcDbEntity
  8
24
  6
CONTINOUS
100
AcDbLine
 10
146.5002441407
 20
579.0
 30
0.0
 11
146.5002441407
 21
587.0
 31
0.0
  0
ARC
  5
91D6
330
1E
100
AcDbEntity
  8
24
  6
CONTINOUS
100
AcDbCircle
 10
140.0002441407
 20
579.0
 30
0.0
 40
6.5
100
AcDbArc
 50
180.0
 51
0.0
  0
LINE
  5
91D8
330
1E
100
AcDbEntity
  8
18
100
AcDbLine
 10
225.0002441407
 20
487.0
 30
0.0
 11
-154.9997558592999
 21
487.0
 31
0.0
  0
LINE
  5
91D9
330
1E
100
AcDbEntity
  8
18
100
AcDbLine
 10
-149.9997558592999
 20
496.0
 30
0.0
 11
219.990234375
 21
496.0
 31
0.0
  0
LINE
  5
91DA
330
1E
100
AcDbEntity
  8
10
  6
CONTINUOUS
100
AcDbLine
 10
-104.9997558592999
 20
357.0
 30
0.0
 11
175.0002441406
 21
357.0
 31
0.0
  0
LINE
  5
91DB
330
1E
100
AcDbEntity
  8
10
  6
CONTINUOUS
100
AcDbLine
 10
-104.9997558592999
 20
349.0
 30
0.0
 11
175.0002441406
 21
349.0
 31
0.0
  0
LINE
  5
91DC
330
1E
100
AcDbEntity
  8
10
  6
CONTINUOUS
100
AcDbLine
 10
-104.9997558592999
 20
349.0
 30
0.0
 11
-104.9997558592999
 21
487.0
 31
0.0
  0
LINE
  5
91DD
330
1E
100
AcDbEntity
  8
18
100
AcDbLine
 10
-149.9997558592999
 20
496.0
 30
0.0
 11
-159.5539550780999
 21
508.1564941405999
 31
0.0
  0
LINE
  5
91DE
330
1E
100
AcDbEntity
  8
18
100
AcDbLine
 10
-154.9997558592999
 20
487.0
 30
0.0
 11
-149.9997558592999
 21
496.0
 31
0.0
  0
LINE
  5
91DF
330
1E
100
AcDbEntity
  8
10
  6
CONTINUOUS
100
AcDbLine
 10
-39.0
 20
338.0
 30
0.0
 11
39.0
 21
338.0
 31
0.0
  0
LINE
  5
91E0
330
1E
100
AcDbEntity
  8
10
  6
CONTINUOUS
100
AcDbLine
 10
-20.0
 20
297.9997558594
 30
0.0
 11
19.99999999999999
 21
297.9997558594
 31
0.0
  0
LINE
  5
91E1
330
1E
100
AcDbEntity
  8
10
  6
CONTINUOUS
100
AcDbLine
 10
-39.0
 20
338.0
 30
0.0
 11
-39.0
 21
349.0
 31
0.0
  0
LINE
  5
91E2
330
1E
100
AcDbEntity
  8
10
  6
CONTINUOUS
100
AcDbLine
 10
-20.0
 20
297.9997558594
 30
0.0
 11
-20.0
 21
338.0
 31
0.0
  0
LINE
  5
91E3
330
1E
100
AcDbEntity
  8
10
  6
CONTINUOUS
100
AcDbLine
 10
19.99999999999999
 20
297.9997558594
 30
0.0
 11
20.0
 21
338.0
 31
0.0
  0
LINE
  5
91E4
330
1E
100
AcDbEntity
  8
10
  6
CONTINUOUS
100
AcDbLine
 10
39.0
 20
338.0
 30
0.0
 11
39.0
 21
349.0
 31
0.0
  0
LINE
  5
91E6
330
1E
100
AcDbEntity
  8
10
  6
CONTINUOUS
100
AcDbLine
 10
175.0002441406
 20
349.0
 30
0.0
 11
175.0002441406
 21
487.0
 31
0.0
  0
LINE
  5
91E7
330
1E
100
AcDbEntity
  8
18
100
AcDbLine
 10
219.990234375
 20
496.0
 30
0.0
 11
226.2194824219
 21
506.9028320311999
 31
0.0
  0
LINE
  5
91E8
330
1E
100
AcDbEntity
  8
18
100
AcDbLine
 10
225.0002441407
 20
487.0
 30
0.0
 11
219.990234375
 21
496.0
 31
0.0
  0
DIMENSION
  5
91EB
330
1E
100
AcDbEntity
  8
30
  6
CONTINUOUS
100
AcDbDimension
  2
*D30
 10
22.5002441407
 20
671.3554801843456
 30
0.0
 11
-2.710242156633739
 21
671.3554801843456
 31
0.0
 70
   160
 51
0.000000000000007
  3
STANDARD
100
AcDbAlignedDimension
 13
-22.49975585929999
 23
633.0
 33
0.0
 14
22.5002441407
 24
633.0
 34
0.0
100
AcDbRotatedDimension
  0
LINE
  5
93C8
330
1E
100
AcDbEntity
  8
24
  6
CONTINOUS
100
AcDbLine
 10
-55.00024414069994
 20
580.0936279296999
 30
0.0
 11
-85.00024414069995
 21
580.0936279296999
 31
0.0
  0
LINE
  5
93C9
330
1E
100
AcDbEntity
  8
24
  6
CONTINOUS
100
AcDbLine
 10
-55.00024414069994
 20
588.0936279296999
 30
0.0
 11
-85.00024414069995
 21
588.0936279296999
 31
0.0
  0
LINE
  5
93CA
330
1E
100
AcDbEntity
  8
24
  6
CONTINOUS
100
AcDbLine
 10
-55.00024414069994
 20
620.0936279297
 30
0.0
 11
-85.00024414069995
 21
620.0936279297
 31
0.0
  0
DIMENSION
  5
93CC
330
1E
100
AcDbEntity
  8
30
  6
CONTINUOUS
100
AcDbDimension
  2
*D31
 10
139.3935963126589
 20
620.0222693466474
 30
0.0
 11
157.0602629793264
 21
642.5222693466475
 31
0.0
 70
   164
  1
%%c13
  3
STANDARD
100
AcDbRadialDimension
 15
141.4490767917685
 25
626.1887107839753
 35
0.0
 40
0.0
1001
ACAD
1000
DSTYLE
1002
{
1070
   288
1070
     1
1002
}
  0
DIMENSION
  5
93FA
330
1E
100
AcDbEntity
  8
30
  6
CONTINUOUS
100
AcDbDimension
  2
*D34
 10
69.99999999989995
 20
706.5532543537364
 30
0.0
 11
34.31401243557036
 21
706.5532543537364
 31
0.0
 70
   160
  3
STANDARD
100
AcDbAlignedDimension
 13
0.0
 23
619.0935058594
 33
0.0
 14
69.99999999989995
 24
619.0935058594
 34
0.0
100
AcDbRotatedDimension
  0
DIMENSION
  5
93FB
330
1E
100
AcDbEntity
  8
30
  6
CONTINUOUS
100
AcDbDimension
  2
*D32
 10
0.0000000000000054
 20
706.5532543537364
 30
0.0
 11
-35.68598756442963
 21
706.5532543537364
 31
0.0
 70
   160
  3
STANDARD
100
AcDbAlignedDimension
 13
-70.0
 23
619.0935058594
 33
0.0
 14
0.0
 24
619.0935058594
 34
0.0
100
AcDbRotatedDimension
  0
DIMENSION
  5
93FC
330
1E
100
AcDbEntity
  8
30
  6
CONTINUOUS
100
AcDbDimension
  2
*D33
 10
140.0
 20
706.5532543537364
 30
0.0
 11
104.3140124355703
 21
706.5532543537364
 31
0.0
 70
   160
  3
STANDARD
100
AcDbAlignedDimension
 13
69.99999999989995
 23
619.0935058594
 33
0.0
 14
140.0
 24
619.0935058594
 34
0.0
100
AcDbRotatedDimension
  0
DIMENSION
  5
943C
330
1E
100
AcDbEntity
  8
30
  6
CONTINUOUS
100
AcDbDimension
  2
*D35
 10
185.7167400158613
 20
579.0
 30
0.0
 11
180.7167400158611
 21
563.99993896485
 31
0.0
 70
    32
  3
STANDARD
100
AcDbAlignedDimension
 13
175.0002441406
 23
548.9998779297
 33
0.0
 14
155.0
 24
579.0
 34
0.0
 50
90.0
100
AcDbRotatedDimension
1001
ACAD
1000
DSTYLE
1002
{
1070
    79
1070
     3
1002
}
  0
DIMENSION
  5
9449
330
1E
100
AcDbEntity
  8
30
  6
CONTINUOUS
100
AcDbDimension
  2
*D36
 10
185.7167400158613
 20
587.0
 30
0.0
 11
185.7167400158613
 21
583.0
 31
0.0
 70
   160
  3
STANDARD
100
AcDbAlignedDimension
 13
155.0
 23
579.0
 33
0.0
 14
155.0
 24
587.0
 34
0.0
 50
90.0
100
AcDbRotatedDimension
1001
ACAD
1000
DSTYLE
1002
{
1070
   287
1070
     4
1070
   279
1070
     1
1070
    79
1070
     3
1002
}
  0
DIMENSION
  5
9456
330
1E
100
AcDbEntity
  8
30
  6
CONTINUOUS
100
AcDbDimension
  2
*D37
 10
185.7167400158613
 20
619.0
 30
0.0
 11
180.7167400158611
 21
603.0
 31
0.0
 70
    32
  3
STANDARD
100
AcDbAlignedDimension
 13
155.0
 23
587.0
 33
0.0
 14
155.0
 24
619.0
 34
0.0
 50
90.0
100
AcDbRotatedDimension
1001
ACAD
1000
DSTYLE
1002
{
1070
   287
1070
     4
1070
   279
1070
     1
1070
    79
1070
     3
1002
}
  0
DIMENSION
  5
9463
330
1E
100
AcDbEntity
  8
30
  6
CONTINUOUS
100
AcDbDimension
  2
*D38
 10
185.7167400158613
 20
634.0
 30
0.0
 11
180.7167400158611
 21
626.5
 31
0.0
 70
    32
  3
STANDARD
100
AcDbAlignedDimension
 13
155.0
 23
619.0
 33
0.0
 14
162.5002441407
 24
634.0
 34
0.0
 50
90.0
100
AcDbRotatedDimension
1001
ACAD
1000
DSTYLE
1002
{
1070
   287
1070
     4
1070
   279
1070
     1
1070
    79
1070
     3
1002
}
  0
LWPOLYLINE
  5
948B
330
1E
100
AcDbEntity
  8
10
  6
CONTINUOUS
100
AcDbPolyline
 90
        4
 70
     1
 43
0.0
 10
174.99993896488
 20
-169.9999999999999
 10
-104.99993896485
 20
-169.9999999999999
 10
-104.99993896485
 20
200.0
 10
174.99993896488
 20
200.0
  0
LWPOLYLINE
  5
948F
330
1E
100
AcDbEntity
  8
10
  6
CONTINUOUS
100
AcDbPolyline
 90
        4
 70
     1
 43
0.0
 10
22.50006103516
 20
-22.99999999999997
 10
-22.5
 20
-22.99999999999997
 10
-22.5
 20
32.00000000000002
 10
22.50006103516
 20
32.00000000000002
  0
LWPOLYLINE
  5
9490
330
1E
100
AcDbEntity
  8
10
  6
CONTINUOUS
100
AcDbPolyline
 90
        4
 70
     1
 43
0.0
 10
39.00006103516
 20
-47.49999999999997
 10
-39.0
 20
-47.49999999999997
 10
-39.0
 20
47.50000000000002
 10
39.00006103516
 20
47.50000000000002
  0
DIMENSION
  5
9497
330
1E
100
AcDbEntity
  8
30
  6
CONTINUOUS
100
AcDbDimension
  2
*D39
 10
-165.9169122489494
 20
0.0000000000000457
 30
0.0
 11
-170.9169122489494
 21
100.0
 31
0.0
 70
    32
  3
STANDARD
100
AcDbAlignedDimension
 13
-104.99993896485
 23
200.0
 33
0.0
 14
-104.99993896485
 24
0.0000000000000284
 34
0.0
 50
90.0
100
AcDbRotatedDimension
1001
ACAD
1000
DSTYLE
1002
{
1070
    79
1070
     3
1002
}
  0
DIMENSION
  5
94A4
330
1E
100
AcDbEntity
  8
30
  6
CONTINUOUS
100
AcDbDimension
  2
*D40
 10
-165.9169122489494
 20
-169.9999999999999
 30
0.0
 11
-170.9169122489494
 21
-84.99999999999998
 31
0.0
 70
    32
  3
STANDARD
100
AcDbAlignedDimension
 13
-104.99993896485
 23
0.0000000000000284
 33
0.0
 14
-104.99993896485
 24
-169.9999999999999
 34
0.0
 50
90.0
100
AcDbRotatedDimension
1001
ACAD
1000
DSTYLE
1002
{
1070
    79
1070
     3
1002
}
  0
DIMENSION
  5
94B1
330
1E
100
AcDbEntity
  8
30
  6
CONTINUOUS
100
AcDbDimension
  2
*D41
 10
-138.9197758474457
 20
0.000000000000038
 30
0.0
 11
-143.9197758474457
 21
23.75000000000002
 31
0.0
 70
    32
  3
STANDARD
100
AcDbAlignedDimension
 13
-39.0
 23
47.50000000000002
 33
0.0
 14
-104.99993896485
 24
0.0000000000000284
 34
0.0
 50
90.0
100
AcDbRotatedDimension
1001
ACAD
1000
DSTYLE
1002
{
1070
    79
1070
     3
1002
}
  0
DIMENSION
  5
94BE
330
1E
100
AcDbEntity
  8
30
  6
CONTINUOUS
100
AcDbDimension
  2
*D42
 10
-139.4197758474457
 20
-47.49999999999994
 30
0.0
 11
-144.4197758474457
 21
-23.74999999999997
 31
0.0
 70
    32
  3
STANDARD
100
AcDbAlignedDimension
 13
-104.99993896485
 23
0.0000000000000284
 33
0.0
 14
-39.0
 24
-47.49999999999997
 34
0.0
 50
90.0
100
AcDbRotatedDimension
1001
ACAD
1000
DSTYLE
1002
{
1070
    79
1070
     3
1002
}
  0
DIMENSION
  5
94D4
330
1E
100
AcDbEntity
  8
30
  6
CONTINUOUS
100
AcDbDimension
  2
*D43
 10
-152.5815270822969
 20
0.0000000000000419
 30
0.0
 11
-157.5815270822969
 21
92.00000000000002
 31
0.0
 70
    32
  3
STANDARD
100
AcDbAlignedDimension
 13
-50.0
 23
184.0
 33
0.0
 14
-104.99993896485
 24
0.0000000000000284
 34
0.0
 50
90.0
100
AcDbRotatedDimension
1001
ACAD
1000
DSTYLE
1002
{
1070
    79
1070
     3
1002
}
  0
DIMENSION
  5
94E1
330
1E
100
AcDbEntity
  8
30
  6
CONTINUOUS
100
AcDbDimension
  2
*D44
 10
-152.581527082297
 20
-153.9999999999999
 30
0.0
 11
-157.5815270822969
 21
-76.99999999999997
 31
0.0
 70
    32
  3
STANDARD
100
AcDbAlignedDimension
 13
-104.99993896485
 23
0.0000000000000284
 33
0.0
 14
-50.0
 24
-153.9999999999999
 34
0.0
 50
90.0
100
AcDbRotatedDimension
1001
ACAD
1000
DSTYLE
1002
{
1070
    79
1070
     3
1002
}
  0
LWPOLYLINE
  5
94EE
330
1E
100
AcDbEntity
  8
11
  6
CONTINUOUS
100
AcDbPolyline
 90
        4
 70
     1
 43
0.0
 10
79.00048828119998
 20
-624.7222174883295
 10
79.00048828119998
 20
-657.7222174883295
 10
9.000488281199977
 20
-657.7222174883295
 10
9.000488281199977
 20
-624.7222174883295
  0
LWPOLYLINE
  5
94F0
330
1E
100
AcDbEntity
  8
11
  6
CONTINUOUS
100
AcDbPolyline
 90
        4
 70
     1
 43
0.0
 10
-8.999511718800022
 20
-624.7222174883295
 10
-8.999511718800022
 20
-657.7222174883295
 10
-78.99951171880002
 20
-657.7222174883295
 10
-78.99951171880002
 20
-624.7222174883295
  0
LWPOLYLINE
  5
94F4
330
1E
100
AcDbEntity
  8
11
  6
CONTINUOUS
100
AcDbPolyline
 90
        4
 70
     1
 43
0.0
 10
-8.999511718800022
 20
-609.7222174883295
 10
-8.999511718800022
 20
-576.7222174883295
 10
-78.99951171880002
 20
-576.7222174883295
 10
-78.99951171880002
 20
-609.7222174883295
  0
LWPOLYLINE
  5
94F9
330
1E
100
AcDbEntity
  8
11
  6
CONTINUOUS
100
AcDbPolyline
 90
        4
 70
     1
 43
0.0
 10
79.00048828119998
 20
-609.7222174883295
 10
9.000488281199977
 20
-609.7222174883295
 10
9.000488281199977
 20
-576.7222174883295
 10
79.00048828119998
 20
-576.7222174883295
  0
LINE
  5
99EF
330
1E
100
AcDbEntity
  8
12
  6
CONTINUOUS
 62
     3
100
AcDbLine
 10
478.0983499025897
 20
-676.1617850407572
 30
0.0
 11
478.0983499025897
 21
-716.1617850407572
 31
0.0
  0
LINE
  5
99F0
330
1E
100
AcDbEntity
  8
12
  6
CONTINUOUS
 62
     3
100
AcDbLine
 10
588.0983499025896
 20
-538.1617850407572
 30
0.0
 11
548.0983499025897
 21
-538.1617850407572
 31
0.0
  0
LINE
  5
99F1
330
1E
100
AcDbEntity
  8
12
  6
CONTINUOUS
 62
     3
100
AcDbLine
 10
548.0983499025897
 20
-696.1617850407572
 30
0.0
 11
588.0983499025896
 21
-696.1617850407572
 31
0.0
  0
LINE
  5
99F2
330
1E
100
AcDbEntity
  8
12
  6
CONTINUOUS
 62
     3
100
AcDbLine
 10
568.0983499025897
 20
-676.1617850407572
 30
0.0
 11
568.0983499025897
 21
-716.1617850407572
 31
0.0
  0
MTEXT
  5
9A3C
330
1E
100
AcDbEntity
  8
19
  6
CONTINUOUS
100
AcDbMText
 10
400.2356561354718
 20
465.16522414909
 30
0.0
 40
7.0
 41
94.0
 71
     1
 72
     5
  1
XS1000NE 4P PM\PXS1200NE 4P PM\PXH1000NE 4P PM\PXH1200NE 4P PM
  7
STANDARD1
1001
ACAD
1000
MTEXTBEGIN
1070
    73
1070
     1
1070
    44
1040
1.0
1070
    74
1070
     0
1000
MTEXTEND
  0
DIMENSION
  5
9A3D
330
1E
100
AcDbEntity
  8
30
  6
CONTINUOUS
100
AcDbDimension
  2
*D45
 10
174.99993896488
 20
-229.5322991154852
 30
0.0
 11
35.00000000001501
 21
-224.5322991154853
 31
0.0
 70
    32
  3
STANDARD
100
AcDbAlignedDimension
 13
-104.99993896485
 23
-169.9999999999999
 33
0.0
 14
174.99993896488
 24
-169.9999999999999
 34
0.0
100
AcDbRotatedDimension
1001
ACAD
1000
DSTYLE
1002
{
1070
    79
1070
     3
1002
}
  0
LINE
  5
9D02
330
1E
100
AcDbEntity
  8
12
  6
CONTINUOUS
 62
     3
100
AcDbLine
 10
31.50048828119997
 20
-538.2222174883295
 30
0.0
 11
58.50048828119998
 21
-538.2222174883295
 31
0.0
  0
LINE
  5
9DAA
330
1E
100
AcDbEntity
  8
16
100
AcDbLine
 10
553.5517625176744
 20
0.0
 30
0.0
 11
266.3937097878774
 21
0.0
 31
0.0
  0
DIMENSION
  5
9DAB
330
1E
100
AcDbEntity
  8
30
  6
CONTINUOUS
100
AcDbDimension
  2
*D54
 10
526.420082870635
 20
-179.208715488558
 30
0.0
 11
515.9700096284351
 21
-179.208715488558
 31
0.0
 70
   160
  3
STANDARD
100
AcDbAlignedDimension
 13
505.4199363862351
 23
-85.50048828119997
 33
0.0
 14
526.420082870635
 24
-69.79411621089997
 34
0.0
100
AcDbRotatedDimension
  0
DIMENSION
  5
9DAC
330
1E
100
AcDbEntity
  8
30
  6
CONTINUOUS
100
AcDbDimension
  2
*D55
 10
683.2246684674737
 20
-114.0
 30
0.0
 11
683.2246684674737
 21
-58.93965591004853
 31
0.0
 70
   160
  3
STANDARD
100
AcDbAlignedDimension
 13
579.7195361126068
 23
0.0
 33
0.0
 14
652.4199363862351
 24
-114.0
 34
0.0
 50
270.0
100
AcDbRotatedDimension
  0
LINE
  5
9DAD
330
1E
100
AcDbEntity
  8
10
  6
CONTINUOUS
100
AcDbLine
 10
567.4199363862349
 20
-143.5004882811999
 30
0.0
 11
567.4199363862351
 21
-85.50048828119997
 31
0.0
  0
LINE
  5
9DAE
330
1E
100
AcDbEntity
  8
10
  6
CONTINUOUS
100
AcDbLine
 10
367.419936386235
 20
170.0
 30
0.0
 11
367.419936386235
 21
-140.0002441405999
 31
0.0
  0
LWPOLYLINE
  5
9DAF
330
1E
100
AcDbEntity
  8
10
  6
CONTINUOUS
100
AcDbPolyline
 90
        2
 70
     0
 43
0.0
 10
546.4199363862351
 20
-85.50048828119997
 10
546.4199363862351
 20
-143.5004882811999
  0
LINE
  5
9DB0
330
1E
100
AcDbEntity
  8
0
  6
CONTINUOUS
100
AcDbLine
 10
652.4199363862351
 20
-106.4999999999999
 30
0.0
 11
567.4199363862351
 21
-106.4999999999999
 31
0.0
  0
LINE
  5
9DB1
330
1E
100
AcDbEntity
  8
0
  6
CONTINUOUS
100
AcDbLine
 10
567.4199363862351
 20
-121.5
 30
0.0
 11
652.4199363862351
 21
-121.5
 31
0.0
  0
DIMENSION
  5
9DB2
330
1E
100
AcDbEntity
  8
30
  6
CONTINUOUS
100
AcDbDimension
  2
*D56
 10
652.4199363862351
 20
-198.2344486611493
 30
0.0
 11
599.0982779642345
 21
-198.2344486611493
 31
0.0
 70
   160
  3
STANDARD
100
AcDbAlignedDimension
 13
567.4199363862351
 23
-143.5004882811999
 33
0.0
 14
652.4199363862351
 24
-121.5936279297
 34
0.0
100
AcDbRotatedDimension
  0
LINE
  5
9DB3
330
1E
100
AcDbEntity
  8
10
  6
CONTINUOUS
100
AcDbLine
 10
375.419936386235
 20
-170.0002441406
 30
0.0
 11
512.4199363862351
 21
-170.0002441405999
 31
0.0
  0
LINE
  5
9DB4
330
1E
100
AcDbEntity
  8
10
  6
CONTINUOUS
100
AcDbLine
 10
367.419936386235
 20
-140.0002441405999
 30
0.0
 11
375.419936386235
 21
-140.0002441405999
 31
0.0
  0
LINE
  5
9DB5
330
1E
100
AcDbEntity
  8
10
  6
CONTINUOUS
100
AcDbLine
 10
375.419936386235
 20
-140.0002441405999
 30
0.0
 11
375.419936386235
 21
-170.0002441406
 31
0.0
  0
DIMENSION
  5
9DB6
330
1E
100
AcDbEntity
  8
30
  6
CONTINUOUS
100
AcDbDimension
  2
*D57
 10
567.4199363862351
 20
-198.2344486611482
 30
0.0
 11
525.2401698561259
 21
-198.2344486611482
 31
0.0
 70
   160
  3
STANDARD
100
AcDbAlignedDimension
 13
505.3200828706351
 23
-171.0002441405999
 33
0.0
 14
567.4199363862351
 24
-143.5004882811999
 34
0.0
100
AcDbRotatedDimension
1001
ACAD
1000
DSTYLE
1002
{
1070
   271
1070
     0
1070
    45
1040
0.0
1002
}
  0
LWPOLYLINE
  5
9DB7
330
1E
100
AcDbEntity
  8
0
  6
CONTINUOUS
100
AcDbPolyline
 90
        2
 70
     0
 43
0.0
 10
505.419936386235
 20
-170.0002441406
 10
505.419936386235
 20
-170.0002441406
  0
LINE
  5
9DB8
330
1E
100
AcDbEntity
  8
10
  6
CONTINUOUS
100
AcDbLine
 10
512.4199363862351
 20
-143.5004882812
 30
0.0
 11
567.4199363862349
 21
-143.5004882811999
 31
0.0
  0
LINE
  5
9DB9
330
1E
100
AcDbEntity
  8
10
  6
CONTINUOUS
100
AcDbLine
 10
512.4199363862351
 20
-170.0002441405999
 30
0.0
 11
512.4199363862351
 21
-143.5004882812
 31
0.0
  0
LINE
  5
9DBA
330
1E
100
AcDbEntity
  8
24
  6
CONTINOUS
100
AcDbLine
 10
601.4199363862351
 20
-91.19775390619997
 30
0.0
 11
601.4199363862351
 21
-156.6791992186999
 31
0.0
  0
LINE
  5
9DBB
330
1E
100
AcDbEntity
  8
0
  6
CONTINUOUS
100
AcDbLine
 10
590.9199363862351
 20
-106.4999999999999
 30
0.0
 11
590.9199363862351
 21
-121.5
 31
0.0
  0
LINE
  5
9DBC
330
1E
100
AcDbEntity
  8
24
  6
CONTINOUS
100
AcDbLine
 10
637.4199363862351
 20
-88.45849609369997
 30
0.0
 11
637.4199363862351
 21
-155.7661132811999
 31
0.0
  0
LINE
  5
9DBD
330
1E
100
AcDbEntity
  8
0
  6
CONTINUOUS
100
AcDbLine
 10
611.919936386235
 20
-106.4999999999999
 30
0.0
 11
611.919936386235
 21
-121.5
 31
0.0
  0
LINE
  5
9DBE
330
1E
100
AcDbEntity
  8
0
  6
CONTINUOUS
100
AcDbLine
 10
630.9199363862351
 20
-106.4999999999999
 30
0.0
 11
630.9199363862351
 21
-121.5
 31
0.0
  0
LINE
  5
9DBF
330
1E
100
AcDbEntity
  8
0
  6
CONTINUOUS
100
AcDbLine
 10
643.9199363862351
 20
-106.4999999999999
 30
0.0
 11
643.9199363862351
 21
-121.5
 31
0.0
  0
LINE
  5
9DC0
330
1E
100
AcDbEntity
  8
0
  6
CONTINUOUS
100
AcDbLine
 10
652.4199363862351
 20
-106.4999999999999
 30
0.0
 11
652.4199363862351
 21
-121.5
 31
0.0
  0
DIMENSION
  5
9DC1
330
1E
100
AcDbEntity
  8
30
  6
CONTINUOUS
100
AcDbDimension
  2
*D58
 10
683.2246684674737
 20
143.9999999999999
 30
0.0
 11
683.2246684674737
 21
73.04784196101173
 31
0.0
 70
   160
  3
STANDARD
100
AcDbAlignedDimension
 13
553.5517625176744
 23
-0.0000000000000003
 33
0.0
 14
567.4199363862351
 24
143.9999999999999
 34
0.0
 50
90.0
100
AcDbRotatedDimension
  0
LINE
  5
9DC2
330
1E
100
AcDbEntity
  8
0
  6
CONTINUOUS
100
AcDbLine
 10
567.4199363862351
 20
151.9986572266
 30
0.0
 11
652.4199363862351
 21
151.9986572266
 31
0.0
  0
LINE
  5
9DC3
330
1E
100
AcDbEntity
  8
0
  6
CONTINUOUS
100
AcDbLine
 10
567.4199363862351
 20
136.9986572266
 30
0.0
 11
652.4199363862351
 21
136.9986572266
 31
0.0
  0
DIMENSION
  5
9DC4
330
1E
100
AcDbEntity
  8
30
  6
CONTINUOUS
100
AcDbDimension
  2
*D59
 10
505.4199363862351
 20
216.9513534649002
 30
0.0
 11
434.0515153336034
 21
216.9513534649002
 31
0.0
 70
   160
  3
STANDARD
100
AcDbAlignedDimension
 13
367.419936386235
 23
170.0936279297
 33
0.0
 14
505.4199363862351
 24
115.4986572266
 34
0.0
100
AcDbRotatedDimension
  0
LINE
  5
9DC5
330
1E
100
AcDbEntity
  8
10
  6
CONTINUOUS
100
AcDbLine
 10
512.4199363862351
 20
200.0002441406
 30
0.0
 11
375.419936386235
 21
200.0002441406
 31
0.0
  0
LWPOLYLINE
  5
9DC6
330
1E
100
AcDbEntity
  8
10
  6
CONTINUOUS
100
AcDbPolyline
 90
        4
 70
     0
 43
0.0
 10
352.481459823735
 20
33.17504882809998
 10
324.874770370635
 20
42.44848632809999
 10
321.1120750581351
 20
32.11157226559999
 10
348.221205917535
 20
21.46997070309998
  0
LWPOLYLINE
  5
9DC7
330
1E
100
AcDbEntity
  8
18
100
AcDbPolyline
 90
        2
 70
     0
 43
0.0
 10
353.751723495635
 20
39.91918945309999
 10
344.859145370635
 20
15.48754882809999
  0
LINE
  5
9DC8
330
1E
100
AcDbEntity
  8
10
  6
CONTINUOUS
100
AcDbLine
 10
356.419936386235
 20
29.39379882809999
 30
0.0
 11
356.419936386235
 21
47.49975585940001
 31
0.0
  0
LINE
  5
9DC9
330
1E
100
AcDbEntity
  8
18
100
AcDbLine
 10
311.030532089335
 20
27.80004882809999
 30
0.0
 11
344.859145370635
 21
15.48754882809999
 31
0.0
  0
ARC
  5
9DCA
330
1E
100
AcDbEntity
  8
10
  6
CONTINUOUS
100
AcDbCircle
 10
425.419936386235
 20
-0.0002441405999889
 30
0.0
 40
74.99999999996735
100
AcDbArc
 50
156.9260823698896
 51
203.0739139876615
  0
LINE
  5
9DCB
330
1E
100
AcDbEntity
  8
10
  6
CONTINUOUS
100
AcDbLine
 10
356.419936386235
 20
-47.50024414059999
 30
0.0
 11
367.419936386235
 21
-47.50024414059999
 31
0.0
  0
LINE
  5
9DCC
330
1E
100
AcDbEntity
  8
10
  6
CONTINUOUS
100
AcDbLine
 10
356.419936386235
 20
-29.39428710940001
 30
0.0
 11
356.419936386235
 21
-47.50024414059999
 31
0.0
  0
LWPOLYLINE
  5
9DCD
330
1E
100
AcDbEntity
  8
10
  6
CONTINUOUS
100
AcDbPolyline
 90
        2
 70
     0
 43
0.0
 10
352.609389511235
 20
17.98950195309998
 10
349.710463730035
 20
20.55883789059998
  0
LWPOLYLINE
  5
9DCE
330
1E
100
AcDbEntity
  8
10
  6
CONTINUOUS
100
AcDbPolyline
 90
        2
 70
     0
 43
0.0
 10
349.7094520261738
 20
20.55734795966466
 42
0.0879559986116207
 10
348.2208352972682
 20
21.46904610245978
  0
LWPOLYLINE
  5
9DCF
330
1E
100
AcDbEntity
  8
10
  6
CONTINUOUS
100
AcDbPolyline
 90
        2
 70
     0
 43
0.0
 10
352.4807896022498
 20
33.17317313109064
 42
0.0879559385456228
 10
354.2071632620704
 20
32.91471006258211
  0
LWPOLYLINE
  5
9DD0
330
1E
100
AcDbEntity
  8
10
  6
CONTINUOUS
100
AcDbPolyline
 90
        2
 70
     0
 43
0.0
 10
356.419936386235
 20
32.97534179690001
 10
354.208022323735
 20
32.91577148440001
  0
LINE
  5
9DD1
330
1E
100
AcDbEntity
  8
18
100
AcDbLine
 10
319.923110214335
 20
52.23217773440001
 30
0.0
 11
353.751723495635
 21
39.91918945309999
 31
0.0
  0
LINE
  5
9DD2
330
1E
100
AcDbEntity
  8
10
  6
CONTINUOUS
100
AcDbLine
 10
356.419936386235
 20
47.49975585940001
 30
0.0
 11
367.419936386235
 21
47.49975585940001
 31
0.0
  0
LINE
  5
9DD3
330
1E
100
AcDbEntity
  8
10
  6
CONTINUOUS
100
AcDbLine
 10
375.419936386235
 20
170.0
 30
0.0
 11
367.419936386235
 21
170.0
 31
0.0
  0
LINE
  5
9DD4
330
1E
100
AcDbEntity
  8
10
  6
CONTINUOUS
100
AcDbLine
 10
375.419936386235
 20
200.0002441406
 30
0.0
 11
375.419936386235
 21
170.0
 31
0.0
  0
LINE
  5
9DD5
330
1E
100
AcDbEntity
  8
10
  6
CONTINUOUS
100
AcDbLine
 10
567.4199363862351
 20
115.4986572266
 30
0.0
 11
567.4199363862351
 21
173.4986572266
 31
0.0
  0
LWPOLYLINE
  5
9DD6
330
1E
100
AcDbEntity
  8
10
  6
CONTINUOUS
100
AcDbPolyline
 90
        2
 70
     0
 43
0.0
 10
546.4199363862351
 20
115.4986572266
 10
546.4199363862351
 20
173.4986572266
  0
LWPOLYLINE
  5
9DD7
330
1E
100
AcDbEntity
  8
12
  6
DASHED
100
AcDbPolyline
 90
        4
 70
     0
 43
0.0
 10
505.419936386235
 20
-69.50048828119998
 10
526.420082870635
 20
-69.70048828119996
 10
526.420082870635
 20
-59.70048828119998
 10
505.419936386235
 20
-59.50048828119998
  0
LINE
  5
9DD8
330
1E
100
AcDbEntity
  8
10
  6
CONTINUOUS
100
AcDbLine
 10
505.4199363862351
 20
115.4986572266
 30
0.0
 11
567.4199363862351
 21
115.4986572266
 31
0.0
  0
LINE
  5
9DD9
330
1E
100
AcDbEntity
  8
10
  6
CONTINUOUS
100
AcDbLine
 10
567.4199363862351
 20
-85.50048828119997
 30
0.0
 11
505.4199363862351
 21
-85.50048828119997
 31
0.0
  0
LWPOLYLINE
  5
9DDA
330
1E
100
AcDbEntity
  8
10
  6
CONTINUOUS
100
AcDbPolyline
 90
        6
 70
     0
 43
0.0
 10
505.419936386235
 20
60.49865722660001
 10
513.4199363862351
 20
60.49865722660001
 10
513.4199363862351
 20
50.49865722660001
 10
517.5200340425351
 20
50.49865722660001
 10
517.5200340425351
 20
25.49865722660001
 10
505.419936386235
 20
25.49865722660001
  0
LWPOLYLINE
  5
9DDB
330
1E
100
AcDbEntity
  8
10
  6
CONTINUOUS
100
AcDbPolyline
 90
        6
 70
     0
 43
0.0
 10
505.419936386235
 20
-29.50134277339998
 10
513.4199363862351
 20
-29.50134277339998
 10
513.4199363862351
 20
-19.50134277339998
 10
517.5200340425351
 20
-19.50134277339998
 10
517.5200340425351
 20
5.498657226600016
 10
505.419936386235
 20
5.498657226600016
  0
LWPOLYLINE
  5
9DDC
330
1E
100
AcDbEntity
  8
12
  6
DASHED
100
AcDbPolyline
 90
        4
 70
     0
 43
0.0
 10
505.419936386235
 20
-75.50048828119997
 10
517.5200340425351
 20
-75.50048828119997
 10
517.5200340425351
 20
-53.50048828119998
 10
505.419936386235
 20
-53.50048828119998
  0
LWPOLYLINE
  5
9DDD
330
1E
100
AcDbEntity
  8
12
  6
DASHED
100
AcDbPolyline
 90
        4
 70
     0
 43
0.0
 10
505.419936386235
 20
83.49865722660002
 10
517.5200340425351
 20
83.49865722660002
 10
517.5200340425351
 20
105.4986572266
 10
505.419936386235
 20
105.4986572266
  0
LWPOLYLINE
  5
9DDE
330
1E
100
AcDbEntity
  8
12
  6
DASHED
100
AcDbPolyline
 90
        4
 70
     0
 43
0.0
 10
505.419936386235
 20
89.49865722660002
 10
526.3200828706351
 20
89.49865722660002
 10
526.3200828706351
 20
99.49865722660002
 10
505.419936386235
 20
99.49865722660002
  0
LINE
  5
9DDF
330
1E
100
AcDbEntity
  8
10
  6
CONTINUOUS
100
AcDbLine
 10
505.4199363862351
 20
-85.50048828119997
 30
0.0
 11
505.4199363862351
 21
115.4986572266
 31
0.0
  0
LWPOLYLINE
  5
9DE0
330
1E
100
AcDbEntity
  8
10
  6
CONTINUOUS
100
AcDbPolyline
 90
        6
 70
     0
 43
0.0
 10
505.3200828706351
 20
107.4986572266
 10
502.820082870635
 20
107.4986572266
 10
502.820082870635
 20
105.9995117188
 10
502.820082870635
 20
-76.00048828119998
 10
502.820082870635
 20
-77.50048828119997
 10
505.3200828706351
 20
-77.50048828119997
  0
LINE
  5
9DE1
330
1E
100
AcDbEntity
  8
10
  6
CONTINUOUS
100
AcDbLine
 10
567.4199363862351
 20
173.4986572266
 30
0.0
 11
512.4199363862351
 21
173.4986572266
 31
0.0
  0
LINE
  5
9DE2
330
1E
100
AcDbEntity
  8
10
  6
CONTINUOUS
100
AcDbLine
 10
512.4199363862351
 20
173.4986572266
 30
0.0
 11
512.4199363862351
 21
200.0002441406
 31
0.0
  0
LINE
  5
9DE3
330
1E
100
AcDbEntity
  8
24
  6
CONTINOUS
100
AcDbLine
 10
601.4199363862351
 20
171.0783691405999
 30
0.0
 11
601.4199363862351
 21
99.46716308589998
 31
0.0
  0
LINE
  5
9DE4
330
1E
100
AcDbEntity
  8
24
  6
CONTINOUS
100
AcDbLine
 10
637.4199363862351
 20
171.0783691405999
 30
0.0
 11
637.4199363862351
 21
99.46716308589998
 31
0.0
  0
DIMENSION
  5
9DE5
330
1E
100
AcDbEntity
  8
30
  6
CONTINUOUS
100
AcDbDimension
  2
*D60
 10
696.7299506494964
 20
151.9986572266
 30
0.0
 11
696.7299506494964
 21
143.7415748127484
 31
0.0
 70
   160
  3
STANDARD
100
AcDbAlignedDimension
 13
643.5135643159351
 23
136.9986572266
 33
0.0
 14
643.5135643159351
 24
151.9986572266
 34
0.0
 50
90.0
100
AcDbRotatedDimension
  0
LINE
  5
9DE6
330
1E
100
AcDbEntity
  8
0
  6
CONTINUOUS
100
AcDbLine
 10
590.9199363862351
 20
136.9986572266
 30
0.0
 11
590.9199363862351
 21
151.9986572266
 31
0.0
  0
LINE
  5
9DE7
330
1E
100
AcDbEntity
  8
0
  6
CONTINUOUS
100
AcDbLine
 10
611.919936386235
 20
136.9986572266
 30
0.0
 11
611.919936386235
 21
151.9986572266
 31
0.0
  0
LINE
  5
9DE8
330
1E
100
AcDbEntity
  8
0
  6
CONTINUOUS
100
AcDbLine
 10
630.9199363862351
 20
136.9986572266
 30
0.0
 11
630.9199363862351
 21
151.9986572266
 31
0.0
  0
LINE
  5
9DE9
330
1E
100
AcDbEntity
  8
0
  6
CONTINUOUS
100
AcDbLine
 10
643.9199363862351
 20
136.9986572266
 30
0.0
 11
643.9199363862351
 21
151.9986572266
 31
0.0
  0
LINE
  5
9DEA
330
1E
100
AcDbEntity
  8
0
  6
CONTINUOUS
100
AcDbLine
 10
652.4199363862351
 20
136.9986572266
 30
0.0
 11
652.4199363862351
 21
151.9986572266
 31
0.0
  0
LINE
  5
9DEB
330
1E
100
AcDbEntity
  8
18
100
AcDbLine
 10
319.923110214335
 20
52.23217773440001
 30
0.0
 11
290.740493026835
 21
59.13989257809999
 31
0.0
  0
LINE
  5
9DEC
330
1E
100
AcDbEntity
  8
18
100
AcDbLine
 10
311.030532089335
 20
27.80004882809999
 30
0.0
 11
284.235121933135
 21
41.26635742190001
 31
0.0
  0
CIRCLE
  5
9DED
330
1E
100
AcDbEntity
  8
18
100
AcDbCircle
 10
266.6120955581597
 20
57.80003072667136
 30
0.0
 40
20.00000000000003
  0
ARC
  5
9DEE
330
1E
100
AcDbEntity
  8
18
100
AcDbCircle
 10
281.0913015912969
 20
35.01058817887951
 30
0.0
 40
7.00000000003626
100
AcDbArc
 50
63.31735842156689
 51
122.4301390081852
  0
ARC
  5
9DEF
330
1E
100
AcDbEntity
  8
18
100
AcDbCircle
 10
292.3525823696083
 20
65.95070172351416
 30
0.0
 40
6.999999999971634
100
AcDbArc
 50
197.5698696903585
 51
256.6826297871005
  0
VIEWPORT
  5
9AC
330
1A
100
AcDbEntity
 67
     1
  8
0
  6
CONTINUOUS
100
AcDbViewport
 10
233.2842860419309
 20
144.1384735538403
 30
0.0
 40
611.4371881030149
 41
292.3514905034161
 68
     1
 69
     1
1001
ACAD
1000
MVIEW
1002
{
1070
    16
1010
0.0
1020
0.0
1030
0.0
1010
0.0
1020
0.0
1030
1.0
1040
0.0
1040
292.3514905034161
1040
233.2842860419309
1040
144.1384735538403
1040
50.0
1040
0.0
1040
0.0
1070
     0
1070
   100
1070
     1
1070
     1
1070
     0
1070
     0
1070
     0
1070
     0
1040
0.0
1040
0.0
1040
0.0
1040
10.0
1040
10.0
1040
10.0
1040
10.0
1070
     0
1002
{
1002
}
1002
}
  0
ENDSEC
  0
SECTION
  2
OBJECTS
  0
DICTIONARY
  5
C
330
0
100
AcDbDictionary
  3
ACAD_GROUP
350
D
  3
ACAD_LAYOUT
350
19
  3
ACAD_MLINESTYLE
350
16
  3
ACAD_PLOTSETTINGS
350
18
  3
ACAD_PLOTSTYLENAME
350
E
  3
ACDBHEADERROUNDTRIPXREC
350
9F03
  3
ACDBVARIABLEDICTIONARY
350
7B2E
  0
DICTIONARY
  5
178
330
1E
100
AcDbDictionary
280
     1
  3
ACAD_LAYOUTSELFREF
360
9F25
  0
DICTIONARY
  5
17A
330
1A
100
AcDbDictionary
280
     1
  3
ACAD_LAYOUTSELFREF
360
9F24
  0
DICTIONARY
  5
D
102
{ACAD_REACTORS
330
C
102
}
330
C
100
AcDbDictionary
  0
DICTIONARY
  5
19
102
{ACAD_REACTORS
330
C
102
}
330
C
100
AcDbDictionary
  0
DICTIONARY
  5
16
102
{ACAD_REACTORS
330
C
102
}
330
C
100
AcDbDictionary
  3
STANDARD
350
17
  0
DICTIONARY
  5
18
102
{ACAD_REACTORS
330
C
102
}
330
C
100
AcDbDictionary
  0
ACDBDICTIONARYWDFLT
  5
E
102
{ACAD_REACTORS
330
C
102
}
330
C
100
AcDbDictionary
281
     1
  3
Normal
350
F
100
AcDbDictionaryWithDefault
340
F
  0
DICTIONARY
  5
9F03
102
{ACAD_REACTORS
330
C
102
}
330
C
100
AcDbDictionary
  3
CEPSNTYPE
350
9F0D
  3
DIMSTYLEDATA
350
9F11
  3
FINGERPRINTGUID
350
9F0E
  3
HYPERLINKBASE
350
9F06
  3
INSUNITS
350
9F0C
  3
LAYOUTDICT
350
9F08
  3
LWETCUNION
350
9F0B
  3
PLOTSETDICT
350
9F09
  3
PLOTSTYLNAMDICT
350
9F0A
  3
PSVPSCALE
350
9F10
  3
PUCSBASE
350
9F14
  3
PUCSORGBACK
350
9F1A
  3
PUCSORGBOTTOM
350
9F16
  3
PUCSORGFRONT
350
9F19
  3
PUCSORGLEFT
350
9F17
  3
PUCSORGRIGHT
350
9F18
  3
PUCSORGTOP
350
9F15
  3
PUCSORTHOREF
350
9F12
  3
PUCSORTHOVIEW
350
9F13
  3
STYLESHEET
350
9F07
  3
TSTACKALIGN
350
9F04
  3
TSTACKSIZE
350
9F05
  3
UCSBASE
350
9F1D
  3
UCSORGBACK
350
9F23
  3
UCSORGBOTTOM
350
9F1F
  3
UCSORGFRONT
350
9F22
  3
UCSORGLEFT
350
9F20
  3
UCSORGRIGHT
350
9F21
  3
UCSORGTOP
350
9F1E
  3
UCSORTHOREF
350
9F1B
  3
UCSORTHOVIEW
350
9F1C
  3
VERSIONGUID
350
9F0F
  0
DICTIONARY
  5
7B2E
102
{ACAD_REACTORS
330
C
102
}
330
C
100
AcDbDictionary
  3
DIMASSOC
350
7D99
  3
SORTENTS
350
7B2F
  0
XRECORD
  5
9F25
102
{ACAD_REACTORS
330
178
102
}
330
178
100
AcDbXrecord
340
1E
  0
XRECORD
  5
9F24
102
{ACAD_REACTORS
330
17A
102
}
330
17A
100
AcDbXrecord
340
1A
  0
MLINESTYLE
  5
17
102
{ACAD_REACTORS
330
16
102
}
330
16
100
AcDbMlineStyle
  2
STANDARD
 70
     0
  3

 62
   256
 51
90.0
 52
90.0
 71
     2
 49
0.5
 62
   256
  6
BYLAYER
 49
-0.5
 62
   256
  6
BYLAYER
  0
ACDBPLACEHOLDER
  5
F
102
{ACAD_REACTORS
330
E
102
}
330
E
100
AcDbPlaceHolder
280
     0
  0
XRECORD
  5
9F0D
102
{ACAD_REACTORS
330
9F03
102
}
330
9F03
100
AcDbXrecord
 90
        0
  0
XRECORD
  5
9F11
102
{ACAD_REACTORS
330
9F03
102
}
330
9F03
100
AcDbXrecord
1000
DSTYLE
1002
{
1070
    79
 70
     3
1070
   341
340
3B2
1070
   342
340
3B2
1002
}
  0
XRECORD
  5
9F0E
102
{ACAD_REACTORS
330
9F03
102
}
330
9F03
100
AcDbXrecord
  1

  0
XRECORD
  5
9F06
102
{ACAD_REACTORS
330
9F03
102
}
330
9F03
100
AcDbXrecord
  1

  0
XRECORD
  5
9F0C
102
{ACAD_REACTORS
330
9F03
102
}
330
9F03
100
AcDbXrecord
 90
        0
  0
XRECORD
  5
9F08
102
{ACAD_REACTORS
330
9F03
102
}
330
9F03
100
AcDbXrecord
340
19
  0
XRECORD
  5
9F0B
102
{ACAD_REACTORS
330
9F03
102
}
330
9F03
100
AcDbXrecord
 90
    10781
  0
XRECORD
  5
9F09
102
{ACAD_REACTORS
330
9F03
102
}
330
9F03
100
AcDbXrecord
340
18
  0
XRECORD
  5
9F0A
102
{ACAD_REACTORS
330
9F03
102
}
330
9F03
100
AcDbXrecord
340
E
  0
XRECORD
  5
9F10
102
{ACAD_REACTORS
330
9F03
102
}
330
9F03
100
AcDbXrecord
 40
0.0
  0
XRECORD
  5
9F14
102
{ACAD_REACTORS
330
9F03
102
}
330
9F03
100
AcDbXrecord
340
0
  0
XRECORD
  5
9F1A
102
{ACAD_REACTORS
330
9F03
102
}
330
9F03
100
AcDbXrecord
 10
0.0
 20
0.0
 30
0.0
  0
XRECORD
  5
9F16
102
{ACAD_REACTORS
330
9F03
102
}
330
9F03
100
AcDbXrecord
 10
0.0
 20
0.0
 30
0.0
  0
XRECORD
  5
9F19
102
{ACAD_REACTORS
330
9F03
102
}
330
9F03
100
AcDbXrecord
 10
0.0
 20
0.0
 30
0.0
  0
XRECORD
  5
9F17
102
{ACAD_REACTORS
330
9F03
102
}
330
9F03
100
AcDbXrecord
 10
0.0
 20
0.0
 30
0.0
  0
XRECORD
  5
9F18
102
{ACAD_REACTORS
330
9F03
102
}
330
9F03
100
AcDbXrecord
 10
0.0
 20
0.0
 30
0.0
  0
XRECORD
  5
9F15
102
{ACAD_REACTORS
330
9F03
102
}
330
9F03
100
AcDbXrecord
 10
0.0
 20
0.0
 30
0.0
  0
XRECORD
  5
9F12
102
{ACAD_REACTORS
330
9F03
102
}
330
9F03
100
AcDbXrecord
340
0
  0
XRECORD
  5
9F13
102
{ACAD_REACTORS
330
9F03
102
}
330
9F03
100
AcDbXrecord
 70
     0
  0
XRECORD
  5
9F07
102
{ACAD_REACTORS
330
9F03
102
}
330
9F03
100
AcDbXrecord
  1
KIKI.ctb
  0
XRECORD
  5
9F04
102
{ACAD_REACTORS
330
9F03
102
}
330
9F03
100
AcDbXrecord
 90
        1
  0
XRECORD
  5
9F05
102
{ACAD_REACTORS
330
9F03
102
}
330
9F03
100
AcDbXrecord
 90
       70
  0
XRECORD
  5
9F1D
102
{ACAD_REACTORS
330
9F03
102
}
330
9F03
100
AcDbXrecord
340
0
  0
XRECORD
  5
9F23
102
{ACAD_REACTORS
330
9F03
102
}
330
9F03
100
AcDbXrecord
 10
0.0
 20
0.0
 30
0.0
  0
XRECORD
  5
9F1F
102
{ACAD_REACTORS
330
9F03
102
}
330
9F03
100
AcDbXrecord
 10
0.0
 20
0.0
 30
0.0
  0
XRECORD
  5
9F22
102
{ACAD_REACTORS
330
9F03
102
}
330
9F03
100
AcDbXrecord
 10
0.0
 20
0.0
 30
0.0
  0
XRECORD
  5
9F20
102
{ACAD_REACTORS
330
9F03
102
}
330
9F03
100
AcDbXrecord
 10
0.0
 20
0.0
 30
0.0
  0
XRECORD
  5
9F21
102
{ACAD_REACTORS
330
9F03
102
}
330
9F03
100
AcDbXrecord
 10
0.0
 20
0.0
 30
0.0
  0
XRECORD
  5
9F1E
102
{ACAD_REACTORS
330
9F03
102
}
330
9F03
100
AcDbXrecord
 10
0.0
 20
0.0
 30
0.0
  0
XRECORD
  5
9F1B
102
{ACAD_REACTORS
330
9F03
102
}
330
9F03
100
AcDbXrecord
340
0
  0
XRECORD
  5
9F1C
102
{ACAD_REACTORS
330
9F03
102
}
330
9F03
100
AcDbXrecord
 70
     0
  0
XRECORD
  5
9F0F
102
{ACAD_REACTORS
330
9F03
102
}
330
9F03
100
AcDbXrecord
  1
{3731B4D7-95DF-4E69-BF2E-8FDC1415B0C9}
  0
DICTIONARYVAR
  5
7D99
102
{ACAD_REACTORS
330
7B2E
102
}
330
7B2E
100
DictionaryVariables
280
     0
  1
1
  0
DICTIONARYVAR
  5
7B2F
102
{ACAD_REACTORS
330
7B2E
102
}
330
7B2E
100
DictionaryVariables
280
     0
  1
96
  0
ENDSEC
  0
EOF
