  0
SECTION
  2
HEADER
  9
$ACADVER
  1
AC1014
  9
$ACADMAINTVER
 70
     9
  9
$DWGCODEPAGE
  3
ANSI_932
  9
$INSBASE
 10
0.0
 20
0.0
 30
0.0
  9
$EXTMIN
 10
-209.1074575810878
 20
-840.2822533387119
 30
-0.0000000000112498
  9
$EXTMAX
 10
709.8457619152013
 20
663.4208301202051
 30
0.0000000000002956
  9
$LIMMIN
 10
-184.0
 20
-675.0
  9
$LIMMAX
 10
509.0
 20
453.0
  9
$ORTHOMODE
 70
     1
  9
$REGENMODE
 70
     1
  9
$FILLMODE
 70
     1
  9
$QTEXTMODE
 70
     0
  9
$MIRRTEXT
 70
     1
  9
$DRAGMODE
 70
     2
  9
$LTSCALE
 40
20.0
  9
$OSMODE
 70
   551
  9
$ATTMODE
 70
     1
  9
$TEXTSIZE
 40
5.0
  9
$TRACEWID
 40
0.05
  9
$TEXTSTYLE
  7
STANDARD1
  9
$CLAYER
  8
30
  9
$CELTYPE
  6
CONTINUOUS
  9
$CECOLOR
 62
   256
  9
$CELTSCALE
 40
1.0
  9
$DELOBJ
 70
     1
  9
$DISPSILH
 70
     0
  9
$DIMSCALE
 40
1.0
  9
$DIMASZ
 40
2.0
  9
$DIMEXO
 40
1.0
  9
$DIMDLI
 40
0.5
  9
$DIMRND
 40
0.0
  9
$DIMDLE
 40
0.0
  9
$DIMEXE
 40
0.5
  9
$DIMTP
 40
0.0
  9
$DIMTM
 40
0.0
  9
$DIMTXT
 40
7.0
  9
$DIMCEN
 40
0.09
  9
$DIMTSZ
 40
0.0
  9
$DIMTOL
 70
     0
  9
$DIMLIM
 70
     0
  9
$DIMTIH
 70
     0
  9
$DIMTOH
 70
     1
  9
$DIMSE1
 70
     0
  9
$DIMSE2
 70
     0
  9
$DIMTAD
 70
     3
  9
$DIMZIN
 70
    12
  9
$DIMBLK
  1
OPEN
  9
$DIMASO
 70
     1
  9
$DIMSHO
 70
     1
  9
$DIMPOST
  1

  9
$DIMAPOST
  1

  9
$DIMALT
 70
     0
  9
$DIMALTD
 70
     2
  9
$DIMALTF
 40
25.4
  9
$DIMLFAC
 40
1.0
  9
$DIMTOFL
 70
     0
  9
$DIMTVP
 40
0.0
  9
$DIMTIX
 70
     0
  9
$DIMSOXD
 70
     0
  9
$DIMSAH
 70
     0
  9
$DIMBLK1
  1

  9
$DIMBLK2
  1

  9
$DIMSTYLE
  2
STANDARD
  9
$DIMCLRD
 70
     0
  9
$DIMCLRE
 70
     0
  9
$DIMCLRT
 70
     0
  9
$DIMTFAC
 40
1.0
  9
$DIMGAP
 40
1.0
  9
$DIMJUST
 70
     0
  9
$DIMSD1
 70
     0
  9
$DIMSD2
 70
     0
  9
$DIMTOLJ
 70
     1
  9
$DIMTZIN
 70
     0
  9
$DIMALTZ
 70
     0
  9
$DIMALTTZ
 70
     0
  9
$DIMFIT
 70
     3
  9
$DIMUPT
 70
     0
  9
$DIMUNIT
 70
     2
  9
$DIMDEC
 70
     1
  9
$DIMTDEC
 70
     1
  9
$DIMALTU
 70
     2
  9
$DIMALTTD
 70
     2
  9
$DIMTXSTY
  7
STANDARD
  9
$DIMAUNIT
 70
     0
  9
$LUNITS
 70
     2
  9
$LUPREC
 70
     4
  9
$SKETCHINC
 40
0.1
  9
$FILLETRAD
 40
0.0
  9
$AUNITS
 70
     0
  9
$AUPREC
 70
     0
  9
$MENU
  1
.
  9
$ELEVATION
 40
0.0
  9
$PELEVATION
 40
0.0
  9
$THICKNESS
 40
0.0
  9
$LIMCHECK
 70
     0
  9
$BLIPMODE
 70
     0
  9
$CHAMFERA
 40
0.0
  9
$CHAMFERB
 40
0.0
  9
$CHAMFERC
 40
0.0
  9
$CHAMFERD
 40
0.0
  9
$SKPOLY
 70
     0
  9
$TDCREATE
 40
2452286.555658657
  9
$TDUPDATE
 40
2453243.612930763
  9
$TDINDWG
 40
1.5835852431
  9
$TDUSRTIMER
 40
1.5835807176
  9
$USRTIMER
 70
     1
  9
$ANGBASE
 50
0.0
  9
$ANGDIR
 70
     0
  9
$PDMODE
 70
     0
  9
$PDSIZE
 40
0.0
  9
$PLINEWID
 40
0.0
  9
$COORDS
 70
     1
  9
$SPLFRAME
 70
     0
  9
$SPLINETYPE
 70
     6
  9
$SPLINESEGS
 70
     8
  9
$ATTDIA
 70
     0
  9
$ATTREQ
 70
     1
  9
$HANDLING
 70
 22529
  9
$HANDSEED
  5
82F2
  9
$SURFTAB1
 70
     6
  9
$SURFTAB2
 70
     6
  9
$SURFTYPE
 70
     6
  9
$SURFU
 70
     6
  9
$SURFV
 70
     6
  9
$UCSNAME
  2

  9
$UCSORG
 10
0.0
 20
0.0
 30
0.0
  9
$UCSXDIR
 10
1.0
 20
0.0
 30
0.0
  9
$UCSYDIR
 10
0.0
 20
1.0
 30
0.0
  9
$PUCSNAME
  2

  9
$PUCSORG
 10
0.0
 20
0.0
 30
0.0
  9
$PUCSXDIR
 10
1.0
 20
0.0
 30
0.0
  9
$PUCSYDIR
 10
0.0
 20
1.0
 30
0.0
  9
$USERI1
 70
     0
  9
$USERI2
 70
     0
  9
$USERI3
 70
     0
  9
$USERI4
 70
     0
  9
$USERI5
 70
     0
  9
$USERR1
 40
0.0
  9
$USERR2
 40
0.0
  9
$USERR3
 40
0.0
  9
$USERR4
 40
0.0
  9
$USERR5
 40
0.0
  9
$WORLDVIEW
 70
     1
  9
$SHADEDGE
 70
     3
  9
$SHADEDIF
 70
    70
  9
$TILEMODE
 70
     1
  9
$MAXACTVP
 70
    48
  9
$PINSBASE
 10
0.0
 20
0.0
 30
0.0
  9
$PLIMCHECK
 70
     0
  9
$PEXTMIN
 10
4.273573370203961
 20
5.205246163471485
 30
0.0
  9
$PEXTMAX
 10
194.6100952986349
 20
283.0697008572913
 30
0.0
  9
$PLIMMIN
 10
-5.873748779296875
 20
-5.873749732971191
  9
$PLIMMAX
 10
204.0995788574218
 20
291.1369009017943
  9
$UNITMODE
 70
     0
  9
$VISRETAIN
 70
     1
  9
$PLINEGEN
 70
     0
  9
$PSLTSCALE
 70
     1
  9
$TREEDEPTH
 70
  3020
  9
$PICKSTYLE
 70
     1
  9
$CMLSTYLE
  2
STANDARD
  9
$CMLJUST
 70
     0
  9
$CMLSCALE
 40
1.0
  9
$PROXYGRAPHICS
 70
     1
  9
$MEASUREMENT
 70
     0
  0
ENDSEC
  0
SECTION
  2
CLASSES
  0
CLASS
  1
ACDBDICTIONARYWDFLT
  2
AcDbDictionaryWithDefault
  3
AutoCAD 2000
 90
        0
280
     0
281
     0
  0
CLASS
  1
ACDBPLACEHOLDER
  2
AcDbPlaceHolder
  3
AutoCAD 2000
 90
        0
280
     0
281
     0
  0
CLASS
  1
LAYOUT
  2
AcDbLayout
  3
AutoCAD 2000
 90
        0
280
     0
281
     0
  0
CLASS
  1
LONG_TRANSACTION
  2
AcDbLongTransaction
  3
AutoCAD 2000
 90
        0
280
     0
281
     0
  0
CLASS
  1
LWPOLYLINE
  2
AcDbPolyline
  3
AutoCAD 2000
 90
        0
280
     0
281
     1
  0
CLASS
  1
HATCH
  2
AcDbHatch
  3
AutoCAD 2000
 90
        0
280
     0
281
     1
  0
CLASS
  1
XRECORD
  2
AcDbXrecord
  3
AutoCAD 2000
 90
        0
280
     0
281
     0
  0
CLASS
  1
LONG_TRANSACTION
  2
AcDbLongTransaction
  3
AutoCAD 2000
 90
        0
280
     0
281
     0
  0
CLASS
  1
LWPOLYLINE
  2
AcDbPolyline
  3
AutoCAD 2000
 90
        0
280
     0
281
     1
  0
CLASS
  1
HATCH
  2
AcDbHatch
  3
AutoCAD 2000
 90
        0
280
     0
281
     1
  0
CLASS
  1
XRECORD
  2
AcDbXrecord
  3
AutoCAD 2000
 90
        0
280
     0
281
     0
  0
CLASS
  1
LONG_TRANSACTION
  2
AcDbLongTransaction
  3
AutoCAD 2000
 90
        0
280
     0
281
     0
  0
CLASS
  1
LWPOLYLINE
  2
AcDbPolyline
  3
AutoCAD 2000
 90
        0
280
     0
281
     1
  0
CLASS
  1
HATCH
  2
AcDbHatch
  3
AutoCAD 2000
 90
        0
280
     0
281
     1
  0
CLASS
  1
XRECORD
  2
AcDbXrecord
  3
AutoCAD 2000
 90
        0
280
     0
281
     0
  0
CLASS
  1
LONG_TRANSACTION
  2
AcDbLongTransaction
  3
AutoCAD 2000
 90
        0
280
     0
281
     0
  0
CLASS
  1
LWPOLYLINE
  2
AcDbPolyline
  3
AutoCAD 2000
 90
        0
280
     0
281
     1
  0
CLASS
  1
HATCH
  2
AcDbHatch
  3
AutoCAD 2000
 90
        0
280
     0
281
     1
  0
CLASS
  1
XRECORD
  2
AcDbXrecord
  3
AutoCAD 2000
 90
        0
280
     0
281
     0
  0
CLASS
  1
LONG_TRANSACTION
  2
AcDbLongTransaction
  3
AutoCAD 2000
 90
        0
280
     0
281
     0
  0
CLASS
  1
LWPOLYLINE
  2
AcDbPolyline
  3
AutoCAD 2000
 90
        0
280
     0
281
     1
  0
CLASS
  1
HATCH
  2
AcDbHatch
  3
AutoCAD 2000
 90
        0
280
     0
281
     1
  0
CLASS
  1
XRECORD
  2
AcDbXrecord
  3
AutoCAD 2000
 90
        0
280
     0
281
     0
  0
CLASS
  1
LONG_TRANSACTION
  2
AcDbLongTransaction
  3
AutoCAD 2000
 90
        0
280
     0
281
     0
  0
CLASS
  1
LWPOLYLINE
  2
AcDbPolyline
  3
AutoCAD 2000
 90
        0
280
     0
281
     1
  0
CLASS
  1
HATCH
  2
AcDbHatch
  3
AutoCAD 2000
 90
        0
280
     0
281
     1
  0
CLASS
  1
XRECORD
  2
AcDbXrecord
  3
AutoCAD 2000
 90
        0
280
     0
281
     0
  0
CLASS
  1
LONG_TRANSACTION
  2
AcDbLongTransaction
  3
AutoCAD 2000
 90
        0
280
     0
281
     0
  0
CLASS
  1
LWPOLYLINE
  2
AcDbPolyline
  3
AutoCAD 2000
 90
        0
280
     0
281
     1
  0
CLASS
  1
HATCH
  2
AcDbHatch
  3
AutoCAD 2000
 90
        0
280
     0
281
     1
  0
CLASS
  1
XRECORD
  2
AcDbXrecord
  3
AutoCAD 2000
 90
        0
280
     0
281
     0
  0
CLASS
  1
LONG_TRANSACTION
  2
AcDbLongTransaction
  3
AutoCAD 2000
 90
        0
280
     0
281
     0
  0
CLASS
  1
LWPOLYLINE
  2
AcDbPolyline
  3
AutoCAD 2000
 90
        0
280
     0
281
     1
  0
CLASS
  1
HATCH
  2
AcDbHatch
  3
AutoCAD 2000
 90
        0
280
     0
281
     1
  0
CLASS
  1
XRECORD
  2
AcDbXrecord
  3
AutoCAD 2000
 90
        0
280
     0
281
     0
  0
CLASS
  1
LONG_TRANSACTION
  2
AcDbLongTransaction
  3
AutoCAD 2000
 90
        0
280
     0
281
     0
  0
CLASS
  1
LWPOLYLINE
  2
AcDbPolyline
  3
AutoCAD 2000
 90
        0
280
     0
281
     1
  0
CLASS
  1
HATCH
  2
AcDbHatch
  3
AutoCAD 2000
 90
        0
280
     0
281
     1
  0
CLASS
  1
XRECORD
  2
AcDbXrecord
  3
AutoCAD 2000
 90
        0
280
     0
281
     0
  0
CLASS
  1
LONG_TRANSACTION
  2
AcDbLongTransaction
  3
AutoCAD 2000
 90
        0
280
     0
281
     0
  0
CLASS
  1
LWPOLYLINE
  2
AcDbPolyline
  3
AutoCAD 2000
 90
        0
280
     0
281
     1
  0
CLASS
  1
HATCH
  2
AcDbHatch
  3
AutoCAD 2000
 90
        0
280
     0
281
     1
  0
CLASS
  1
XRECORD
  2
AcDbXrecord
  3
AutoCAD 2000
 90
        0
280
     0
281
     0
  0
CLASS
  1
LONG_TRANSACTION
  2
AcDbLongTransaction
  3
AutoCAD 2000
 90
        0
280
     0
281
     0
  0
CLASS
  1
LWPOLYLINE
  2
AcDbPolyline
  3
AutoCAD 2000
 90
        0
280
     0
281
     1
  0
CLASS
  1
HATCH
  2
AcDbHatch
  3
AutoCAD 2000
 90
        0
280
     0
281
     1
  0
CLASS
  1
XRECORD
  2
AcDbXrecord
  3
AutoCAD 2000
 90
        0
280
     0
281
     0
  0
CLASS
  1
LONG_TRANSACTION
  2
AcDbLongTransaction
  3
AutoCAD 2000
 90
        0
280
     0
281
     0
  0
CLASS
  1
LWPOLYLINE
  2
AcDbPolyline
  3
AutoCAD 2000
 90
        0
280
     0
281
     1
  0
CLASS
  1
HATCH
  2
AcDbHatch
  3
AutoCAD 2000
 90
        0
280
     0
281
     1
  0
CLASS
  1
XRECORD
  2
AcDbXrecord
  3
AutoCAD 2000
 90
        0
280
     0
281
     0
  0
CLASS
  1
LONG_TRANSACTION
  2
AcDbLongTransaction
  3
AutoCAD 2000
 90
        0
280
     0
281
     0
  0
CLASS
  1
LWPOLYLINE
  2
AcDbPolyline
  3
AutoCAD 2000
 90
        0
280
     0
281
     1
  0
CLASS
  1
HATCH
  2
AcDbHatch
  3
AutoCAD 2000
 90
        0
280
     0
281
     1
  0
CLASS
  1
XRECORD
  2
AcDbXrecord
  3
AutoCAD 2000
 90
        0
280
     0
281
     0
  0
CLASS
  1
LONG_TRANSACTION
  2
AcDbLongTransaction
  3
AutoCAD 2000
 90
        0
280
     0
281
     0
  0
CLASS
  1
LWPOLYLINE
  2
AcDbPolyline
  3
AutoCAD 2000
 90
        0
280
     0
281
     1
  0
CLASS
  1
HATCH
  2
AcDbHatch
  3
AutoCAD 2000
 90
        0
280
     0
281
     1
  0
CLASS
  1
XRECORD
  2
AcDbXrecord
  3
AutoCAD 2000
 90
        0
280
     0
281
     0
  0
CLASS
  1
LONG_TRANSACTION
  2
AcDbLongTransaction
  3
AutoCAD 2000
 90
        0
280
     0
281
     0
  0
CLASS
  1
LWPOLYLINE
  2
AcDbPolyline
  3
AutoCAD 2000
 90
        0
280
     0
281
     1
  0
CLASS
  1
HATCH
  2
AcDbHatch
  3
AutoCAD 2000
 90
        0
280
     0
281
     1
  0
CLASS
  1
XRECORD
  2
AcDbXrecord
  3
AutoCAD 2000
 90
        0
280
     0
281
     0
  0
CLASS
  1
LONG_TRANSACTION
  2
AcDbLongTransaction
  3
AutoCAD 2000
 90
        0
280
     0
281
     0
  0
CLASS
  1
LWPOLYLINE
  2
AcDbPolyline
  3
AutoCAD 2000
 90
        0
280
     0
281
     1
  0
CLASS
  1
HATCH
  2
AcDbHatch
  3
AutoCAD 2000
 90
        0
280
     0
281
     1
  0
CLASS
  1
XRECORD
  2
AcDbXrecord
  3
AutoCAD 2000
 90
        0
280
     0
281
     0
  0
CLASS
  1
LONG_TRANSACTION
  2
AcDbLongTransaction
  3
AutoCAD 2000
 90
        0
280
     0
281
     0
  0
CLASS
  1
LWPOLYLINE
  2
AcDbPolyline
  3
AutoCAD 2000
 90
        0
280
     0
281
     1
  0
CLASS
  1
HATCH
  2
AcDbHatch
  3
AutoCAD 2000
 90
        0
280
     0
281
     1
  0
CLASS
  1
XRECORD
  2
AcDbXrecord
  3
AutoCAD 2000
 90
        0
280
     0
281
     0
  0
CLASS
  1
LONG_TRANSACTION
  2
AcDbLongTransaction
  3
AutoCAD 2000
 90
        0
280
     0
281
     0
  0
CLASS
  1
LWPOLYLINE
  2
AcDbPolyline
  3
AutoCAD 2000
 90
        0
280
     0
281
     1
  0
CLASS
  1
HATCH
  2
AcDbHatch
  3
AutoCAD 2000
 90
        0
280
     0
281
     1
  0
CLASS
  1
XRECORD
  2
AcDbXrecord
  3
AutoCAD 2000
 90
        0
280
     0
281
     0
  0
CLASS
  1
LONG_TRANSACTION
  2
AcDbLongTransaction
  3
AutoCAD 2000
 90
        0
280
     0
281
     0
  0
CLASS
  1
LWPOLYLINE
  2
AcDbPolyline
  3
AutoCAD 2000
 90
        0
280
     0
281
     1
  0
CLASS
  1
HATCH
  2
AcDbHatch
  3
AutoCAD 2000
 90
        0
280
     0
281
     1
  0
CLASS
  1
XRECORD
  2
AcDbXrecord
  3
AutoCAD 2000
 90
        0
280
     0
281
     0
  0
CLASS
  1
LONG_TRANSACTION
  2
AcDbLongTransaction
  3
AutoCAD 2000
 90
        0
280
     0
281
     0
  0
CLASS
  1
LWPOLYLINE
  2
AcDbPolyline
  3
AutoCAD 2000
 90
        0
280
     0
281
     1
  0
CLASS
  1
HATCH
  2
AcDbHatch
  3
AutoCAD 2000
 90
        0
280
     0
281
     1
  0
CLASS
  1
XRECORD
  2
AcDbXrecord
  3
AutoCAD 2000
 90
        0
280
     0
281
     0
  0
CLASS
  1
LONG_TRANSACTION
  2
AcDbLongTransaction
  3
AutoCAD 2000
 90
        0
280
     0
281
     0
  0
CLASS
  1
LWPOLYLINE
  2
AcDbPolyline
  3
AutoCAD 2000
 90
        0
280
     0
281
     1
  0
CLASS
  1
HATCH
  2
AcDbHatch
  3
AutoCAD 2000
 90
        0
280
     0
281
     1
  0
CLASS
  1
XRECORD
  2
AcDbXrecord
  3
AutoCAD 2000
 90
        0
280
     0
281
     0
  0
CLASS
  1
LONG_TRANSACTION
  2
AcDbLongTransaction
  3
AutoCAD 2000
 90
        0
280
     0
281
     0
  0
CLASS
  1
LWPOLYLINE
  2
AcDbPolyline
  3
AutoCAD 2000
 90
        0
280
     0
281
     1
  0
CLASS
  1
HATCH
  2
AcDbHatch
  3
AutoCAD 2000
 90
        0
280
     0
281
     1
  0
CLASS
  1
XRECORD
  2
AcDbXrecord
  3
AutoCAD 2000
 90
        0
280
     0
281
     0
  0
CLASS
  1
LONG_TRANSACTION
  2
AcDbLongTransaction
  3
AutoCAD 2000
 90
        0
280
     0
281
     0
  0
CLASS
  1
LWPOLYLINE
  2
AcDbPolyline
  3
AutoCAD 2000
 90
        0
280
     0
281
     1
  0
CLASS
  1
HATCH
  2
AcDbHatch
  3
AutoCAD 2000
 90
        0
280
     0
281
     1
  0
CLASS
  1
XRECORD
  2
AcDbXrecord
  3
AutoCAD 2000
 90
        0
280
     0
281
     0
  0
CLASS
  1
LONG_TRANSACTION
  2
AcDbLongTransaction
  3
AutoCAD 2000
 90
        0
280
     0
281
     0
  0
CLASS
  1
LWPOLYLINE
  2
AcDbPolyline
  3
AutoCAD 2000
 90
        0
280
     0
281
     1
  0
CLASS
  1
HATCH
  2
AcDbHatch
  3
AutoCAD 2000
 90
        0
280
     0
281
     1
  0
CLASS
  1
XRECORD
  2
AcDbXrecord
  3
AutoCAD 2000
 90
        0
280
     0
281
     0
  0
CLASS
  1
LONG_TRANSACTION
  2
AcDbLongTransaction
  3
AutoCAD 2000
 90
        0
280
     0
281
     0
  0
CLASS
  1
LWPOLYLINE
  2
AcDbPolyline
  3
AutoCAD 2000
 90
        0
280
     0
281
     1
  0
CLASS
  1
HATCH
  2
AcDbHatch
  3
AutoCAD 2000
 90
        0
280
     0
281
     1
  0
CLASS
  1
XRECORD
  2
AcDbXrecord
  3
AutoCAD 2000
 90
        0
280
     0
281
     0
  0
CLASS
  1
LONG_TRANSACTION
  2
AcDbLongTransaction
  3
AutoCAD 2000
 90
        0
280
     0
281
     0
  0
CLASS
  1
LWPOLYLINE
  2
AcDbPolyline
  3
AutoCAD 2000
 90
        0
280
     0
281
     1
  0
CLASS
  1
HATCH
  2
AcDbHatch
  3
AutoCAD 2000
 90
        0
280
     0
281
     1
  0
CLASS
  1
XRECORD
  2
AcDbXrecord
  3
AutoCAD 2000
 90
        0
280
     0
281
     0
  0
CLASS
  1
LONG_TRANSACTION
  2
AcDbLongTransaction
  3
AutoCAD 2000
 90
        0
280
     0
281
     0
  0
CLASS
  1
LWPOLYLINE
  2
AcDbPolyline
  3
AutoCAD 2000
 90
        0
280
     0
281
     1
  0
CLASS
  1
HATCH
  2
AcDbHatch
  3
AutoCAD 2000
 90
        0
280
     0
281
     1
  0
CLASS
  1
XRECORD
  2
AcDbXrecord
  3
AutoCAD 2000
 90
        0
280
     0
281
     0
  0
CLASS
  1
DICTIONARYVAR
  2
AcDbDictionaryVar
  3
AutoCAD 2000
 90
        0
280
     0
281
     0
  0
CLASS
  1
LONG_TRANSACTION
  2
AcDbLongTransaction
  3
AutoCAD 2000
 90
        0
280
     0
281
     0
  0
CLASS
  1
LWPOLYLINE
  2
AcDbPolyline
  3
AutoCAD 2000
 90
        0
280
     0
281
     1
  0
CLASS
  1
HATCH
  2
AcDbHatch
  3
AutoCAD 2000
 90
        0
280
     0
281
     1
  0
CLASS
  1
XRECORD
  2
AcDbXrecord
  3
AutoCAD 2000
 90
        0
280
     0
281
     0
  0
CLASS
  1
LONG_TRANSACTION
  2
AcDbLongTransaction
  3
AutoCAD 2000
 90
        0
280
     0
281
     0
  0
CLASS
  1
LWPOLYLINE
  2
AcDbPolyline
  3
AutoCAD 2000
 90
        0
280
     0
281
     1
  0
CLASS
  1
HATCH
  2
AcDbHatch
  3
AutoCAD 2000
 90
        0
280
     0
281
     1
  0
CLASS
  1
XRECORD
  2
AcDbXrecord
  3
AutoCAD 2000
 90
        0
280
     0
281
     0
  0
CLASS
  1
LONG_TRANSACTION
  2
AcDbLongTransaction
  3
AutoCAD 2000
 90
        0
280
     0
281
     0
  0
CLASS
  1
LWPOLYLINE
  2
AcDbPolyline
  3
AutoCAD 2000
 90
        0
280
     0
281
     1
  0
CLASS
  1
HATCH
  2
AcDbHatch
  3
AutoCAD 2000
 90
        0
280
     0
281
     1
  0
CLASS
  1
XRECORD
  2
AcDbXrecord
  3
AutoCAD 2000
 90
        0
280
     0
281
     0
  0
CLASS
  1
LONG_TRANSACTION
  2
AcDbLongTransaction
  3
AutoCAD 2000
 90
        0
280
     0
281
     0
  0
CLASS
  1
LWPOLYLINE
  2
AcDbPolyline
  3
AutoCAD 2000
 90
        0
280
     0
281
     1
  0
CLASS
  1
HATCH
  2
AcDbHatch
  3
AutoCAD 2000
 90
        0
280
     0
281
     1
  0
CLASS
  1
XRECORD
  2
AcDbXrecord
  3
AutoCAD 2000
 90
        0
280
     0
281
     0
  0
CLASS
  1
LONG_TRANSACTION
  2
AcDbLongTransaction
  3
AutoCAD 2000
 90
        0
280
     0
281
     0
  0
CLASS
  1
LWPOLYLINE
  2
AcDbPolyline
  3
AutoCAD 2000
 90
        0
280
     0
281
     1
  0
CLASS
  1
HATCH
  2
AcDbHatch
  3
AutoCAD 2000
 90
        0
280
     0
281
     1
  0
CLASS
  1
XRECORD
  2
AcDbXrecord
  3
AutoCAD 2000
 90
        0
280
     0
281
     0
  0
ENDSEC
  0
SECTION
  2
TABLES
  0
TABLE
  2
VPORT
  5
8
330
0
100
AcDbSymbolTable
 70
     2
  0
VPORT
  5
8286
330
8
100
AcDbSymbolTableRecord
100
AcDbViewportTableRecord
  2
*ACTIVE
 70
     0
 10
0.0
 20
0.0
 11
1.0
 21
1.0
 12
250.3691521670567
 22
-88.43071160925342
 13
0.0
 23
0.0
 14
1.0
 24
1.0
 15
10.0
 25
10.0
 16
0.0
 26
0.0
 36
1.0
 17
0.0
 27
0.0
 37
0.0
 40
1515.621469853571
 41
1.629629629629629
 42
50.0
 43
0.0
 44
0.0
 50
0.0
 51
0.0
 71
     0
 72
   100
 73
     1
 74
     1
 75
     0
 76
     0
 77
     0
 78
     0
  0
ENDTAB
  0
TABLE
  2
LTYPE
  5
5
330
0
100
AcDbSymbolTable
 70
     5
  0
LTYPE
  5
13
330
5
100
AcDbSymbolTableRecord
100
AcDbLinetypeTableRecord
  2
BYBLOCK
 70
     0
  3

 72
    65
 73
     0
 40
0.0
  0
LTYPE
  5
14
330
5
100
AcDbSymbolTableRecord
100
AcDbLinetypeTableRecord
  2
BYLAYER
 70
     0
  3

 72
    65
 73
     0
 40
0.0
  0
LTYPE
  5
15
330
5
100
AcDbSymbolTableRecord
100
AcDbLinetypeTableRecord
  2
CONTINUOUS
 70
     0
  3
Solid line
 72
    65
 73
     0
 40
0.0
  0
LTYPE
  5
22
330
5
100
AcDbSymbolTableRecord
100
AcDbLinetypeTableRecord
  2
CONTINOUS
 70
     0
  3
Solid line
 72
    65
 73
     0
 40
0.0
  0
LTYPE
  5
23
330
5
100
AcDbSymbolTableRecord
100
AcDbLinetypeTableRecord
  2
DASHED
 70
     0
  3
__ __ __ __ __ __ __ __ __ __ __ __ __ __ __
 72
    65
 73
     2
 40
0.75
 49
0.5
 74
     0
 49
-0.25
 74
     0
  0
LTYPE
  5
24
330
5
100
AcDbSymbolTableRecord
100
AcDbLinetypeTableRecord
  2
DASHDOT
 70
     0
  3
__ . __ . __ . __ . __ . __ . __ . __ . __ . __
 72
    65
 73
     4
 40
1.0
 49
0.5
 74
     0
 49
-0.25
 74
     0
 49
0.0
 74
     0
 49
-0.25
 74
     0
  0
LTYPE
  5
3932
330
5
100
AcDbSymbolTableRecord
100
AcDbLinetypeTableRecord
  2
DIVIDE
 70
     0
  3
Divide ____ . . ____ . . ____ . . ____ . . ____
 72
    65
 73
     6
 40
1.25
 49
0.5
 74
     0
 49
-0.25
 74
     0
 49
0.0
 74
     0
 49
-0.25
 74
     0
 49
0.0
 74
     0
 49
-0.25
 74
     0
  0
ENDTAB
  0
TABLE
  2
LAYER
  5
2
330
0
100
AcDbSymbolTable
 70
    12
  0
LAYER
  5
10
330
2
100
AcDbSymbolTableRecord
100
AcDbLayerTableRecord
  2
0
 70
     0
 62
     7
  6
CONTINOUS
  0
LAYER
  5
2F
330
2
100
AcDbSymbolTableRecord
100
AcDbLayerTableRecord
  2
10
 70
     0
 62
     4
  6
CONTINOUS
  0
LAYER
  5
31
330
2
100
AcDbSymbolTableRecord
100
AcDbLayerTableRecord
  2
12
 70
     0
 62
     3
  6
CONTINOUS
  0
LAYER
  5
35
330
2
100
AcDbSymbolTableRecord
100
AcDbLayerTableRecord
  2
16
 70
     4
 62
     6
  6
DASHDOT
  0
LAYER
  5
38
330
2
100
AcDbSymbolTableRecord
100
AcDbLayerTableRecord
  2
19
 70
     0
 62
     7
  6
CONTINOUS
  0
LAYER
  5
3C
330
2
100
AcDbSymbolTableRecord
100
AcDbLayerTableRecord
  2
11
 70
     0
 62
     1
  6
CONTINOUS
  0
LAYER
  5
3D
330
2
100
AcDbSymbolTableRecord
100
AcDbLayerTableRecord
  2
24
 70
     0
 62
     2
  6
CONTINOUS
  0
LAYER
  5
3A2
330
2
100
AcDbSymbolTableRecord
100
AcDbLayerTableRecord
  2
30
 70
     0
 62
     9
  6
CONTINUOUS
  0
LAYER
  5
3A4
330
2
100
AcDbSymbolTableRecord
100
AcDbLayerTableRecord
  2
DEFPOINTS
 70
     0
 62
     7
  6
CONTINUOUS
  0
LAYER
  5
3933
330
2
100
AcDbSymbolTableRecord
100
AcDbLayerTableRecord
  2
18
 70
     0
 62
     5
  6
DIVIDE
  0
LAYER
  5
4709
330
2
100
AcDbSymbolTableRecord
100
AcDbLayerTableRecord
  2
L0_
 70
     0
 62
     7
  6
CONTINUOUS
  0
LAYER
  5
74BA
330
2
100
AcDbSymbolTableRecord
100
AcDbLayerTableRecord
  2
21
 70
     0
 62
     7
  6
CONTINUOUS
  0
ENDTAB
  0
TABLE
  2
STYLE
  5
3
330
0
100
AcDbSymbolTable
 70
     2
  0
STYLE
  5
11
330
3
100
AcDbSymbolTableRecord
100
AcDbTextStyleTableRecord
  2
STANDARD
 70
     0
 40
0.0
 41
1.0
 50
0.0
 71
     0
 42
2.0
  3
txt.shx
  4
bigfont.shx
  0
STYLE
  5
42
330
3
100
AcDbSymbolTableRecord
100
AcDbTextStyleTableRecord
  2
STANDARD1
 70
     0
 40
0.0
 41
1.0
 50
0.0
 71
     0
 42
5.0
  3
MONOTXT
  4
BIGFONT
  0
ENDTAB
  0
TABLE
  2
VIEW
  5
6
330
0
100
AcDbSymbolTable
 70
     3
  0
VIEW
  5
230C
330
6
100
AcDbSymbolTableRecord
100
AcDbViewTableRecord
  2
OLE1
 70
     0
 40
148.9124878027714
 10
429.4976280407222
 20
2.560626997828478
 41
103.1458057716444
 11
0.0
 21
0.0
 31
1.0
 12
0.0
 22
0.0
 32
0.0
 42
50.0
 43
0.0
 44
0.0
 50
0.0
 71
     0
  0
VIEW
  5
230E
330
6
100
AcDbSymbolTableRecord
100
AcDbViewTableRecord
  2
OLE2
 70
     0
 40
170.7786920545775
 10
322.664969958371
 20
-5.978304054290276
 41
102.4672152327465
 11
0.0
 21
0.0
 31
1.0
 12
0.0
 22
0.0
 32
0.0
 42
50.0
 43
0.0
 44
0.0
 50
0.0
 71
     0
  0
VIEW
  5
23AA
330
6
100
AcDbSymbolTableRecord
100
AcDbViewTableRecord
  2
OLE3
 70
     0
 40
591.7897393182231
 10
84.79698158148218
 20
-46.09336010803995
 41
388.7920961799953
 11
0.0
 21
0.0
 31
1.0
 12
0.0
 22
0.0
 32
0.0
 42
50.0
 43
0.0
 44
0.0
 50
0.0
 71
     0
  0
ENDTAB
  0
TABLE
  2
UCS
  5
7
330
0
100
AcDbSymbolTable
 70
     0
  0
ENDTAB
  0
TABLE
  2
APPID
  5
9
330
0
100
AcDbSymbolTable
 70
     2
  0
APPID
  5
12
330
9
100
AcDbSymbolTableRecord
100
AcDbRegAppTableRecord
  2
ACAD
 70
     0
  0
APPID
  5
ECD
330
9
100
AcDbSymbolTableRecord
100
AcDbRegAppTableRecord
  2
CONTENTBLOCKICON
 70
     0
  0
ENDTAB
  0
TABLE
  2
DIMSTYLE
  5
A
330
0
100
AcDbSymbolTable
 70
     1
  0
DIMSTYLE
105
175
102
{ACAD_REACTORS
330
6F52
330
6F5F
330
6F6C
330
6ED6
330
7993
330
7992
330
7991
330
79D3
330
7B4F
330
7B02
330
7B2A
330
7BFD
330
7C25
330
7D60
330
7D64
330
7D66
330
7E38
330
7E45
330
7E52
330
7E68
330
7E75
330
800B
330
8010
330
8013
330
8024
330
8025
330
8046
330
8169
330
816A
330
816B
330
816C
330
816D
330
81D7
330
81E4
330
81F1
330
81FE
102
}
330
A
100
AcDbSymbolTableRecord
100
AcDbDimStyleTableRecord
  2
STANDARD
 70
     0
  3

  4

  5
OPEN
  6

  7

 40
1.0
 41
2.0
 42
1.0
 43
0.5
 44
0.5
 45
0.0
 46
0.0
 47
0.0
 48
0.0
140
7.0
141
0.09
142
0.0
143
25.4
144
1.0
145
0.0
146
1.0
147
1.0
 71
     0
 72
     0
 73
     0
 74
     1
 75
     0
 76
     0
 77
     3
 78
    12
170
     0
171
     2
172
     0
173
     0
174
     0
175
     0
176
     0
177
     0
178
     0
270
     2
271
     1
272
     1
273
     2
274
     2
340
11
275
     0
280
     0
281
     0
282
     0
283
     1
284
     0
285
     0
286
     0
287
     3
288
     0
  0
ENDTAB
  0
TABLE
  2
BLOCK_RECORD
  5
1
330
0
100
AcDbSymbolTable
 70
    52
  0
BLOCK_RECORD
  5
1E
102
{ACAD_XDICTIONARY
360
178
102
}
330
1
100
AcDbSymbolTableRecord
100
AcDbBlockTableRecord
  2
*MODEL_SPACE
  0
BLOCK_RECORD
  5
1A
102
{ACAD_XDICTIONARY
360
17A
102
}
330
1
100
AcDbSymbolTableRecord
100
AcDbBlockTableRecord
  2
*PAPER_SPACE
  0
BLOCK_RECORD
  5
3B2
330
1
100
AcDbSymbolTableRecord
100
AcDbBlockTableRecord
  2
_OPEN
  0
BLOCK_RECORD
  5
6D16
330
1
100
AcDbSymbolTableRecord
100
AcDbBlockTableRecord
  2
*D1
  0
BLOCK_RECORD
  5
6F53
330
1
100
AcDbSymbolTableRecord
100
AcDbBlockTableRecord
  2
*D2
  0
BLOCK_RECORD
  5
6F60
330
1
100
AcDbSymbolTableRecord
100
AcDbBlockTableRecord
  2
*D3
  0
BLOCK_RECORD
  5
6F6D
330
1
100
AcDbSymbolTableRecord
100
AcDbBlockTableRecord
  2
*D4
  0
BLOCK_RECORD
  5
7587
330
1
100
AcDbSymbolTableRecord
100
AcDbBlockTableRecord
  2
*D5
  0
BLOCK_RECORD
  5
7594
330
1
100
AcDbSymbolTableRecord
100
AcDbBlockTableRecord
  2
*D6
  0
BLOCK_RECORD
  5
7994
330
1
100
AcDbSymbolTableRecord
100
AcDbBlockTableRecord
  2
*D7
  0
BLOCK_RECORD
  5
79A0
330
1
100
AcDbSymbolTableRecord
100
AcDbBlockTableRecord
  2
*D8
  0
BLOCK_RECORD
  5
79AC
330
1
100
AcDbSymbolTableRecord
100
AcDbBlockTableRecord
  2
*D9
  0
BLOCK_RECORD
  5
79D4
330
1
100
AcDbSymbolTableRecord
100
AcDbBlockTableRecord
  2
*D10
  0
BLOCK_RECORD
  5
7B51
330
1
100
AcDbSymbolTableRecord
100
AcDbBlockTableRecord
  2
*D11
  0
BLOCK_RECORD
  5
7B69
330
1
100
AcDbSymbolTableRecord
100
AcDbBlockTableRecord
  2
*D12
  0
BLOCK_RECORD
  5
7B81
330
1
100
AcDbSymbolTableRecord
100
AcDbBlockTableRecord
  2
*D13
  0
BLOCK_RECORD
  5
7BFE
330
1
100
AcDbSymbolTableRecord
100
AcDbBlockTableRecord
  2
*D14
  0
BLOCK_RECORD
  5
7C26
330
1
100
AcDbSymbolTableRecord
100
AcDbBlockTableRecord
  2
*D15
  0
BLOCK_RECORD
  5
7D67
330
1
100
AcDbSymbolTableRecord
100
AcDbBlockTableRecord
  2
*D16
  0
BLOCK_RECORD
  5
7D72
330
1
100
AcDbSymbolTableRecord
100
AcDbBlockTableRecord
  2
*D17
  0
BLOCK_RECORD
  5
7D7E
330
1
100
AcDbSymbolTableRecord
100
AcDbBlockTableRecord
  2
*D18
  0
BLOCK_RECORD
  5
7E39
330
1
100
AcDbSymbolTableRecord
100
AcDbBlockTableRecord
  2
*D19
  0
BLOCK_RECORD
  5
7E46
330
1
100
AcDbSymbolTableRecord
100
AcDbBlockTableRecord
  2
*D20
  0
BLOCK_RECORD
  5
7E53
330
1
100
AcDbSymbolTableRecord
100
AcDbBlockTableRecord
  2
*D21
  0
BLOCK_RECORD
  5
7E69
330
1
100
AcDbSymbolTableRecord
100
AcDbBlockTableRecord
  2
*D22
  0
BLOCK_RECORD
  5
7E76
330
1
100
AcDbSymbolTableRecord
100
AcDbBlockTableRecord
  2
*D23
  0
BLOCK_RECORD
  5
7F73
330
1
100
AcDbSymbolTableRecord
100
AcDbBlockTableRecord
  2
*D24
  0
BLOCK_RECORD
  5
7F7F
330
1
100
AcDbSymbolTableRecord
100
AcDbBlockTableRecord
  2
*D25
  0
BLOCK_RECORD
  5
7F8B
330
1
100
AcDbSymbolTableRecord
100
AcDbBlockTableRecord
  2
*D26
  0
BLOCK_RECORD
  5
7F97
330
1
100
AcDbSymbolTableRecord
100
AcDbBlockTableRecord
  2
*D27
  0
BLOCK_RECORD
  5
7FA3
330
1
100
AcDbSymbolTableRecord
100
AcDbBlockTableRecord
  2
*D28
  0
BLOCK_RECORD
  5
7FAF
330
1
100
AcDbSymbolTableRecord
100
AcDbBlockTableRecord
  2
*D29
  0
BLOCK_RECORD
  5
7FBB
330
1
100
AcDbSymbolTableRecord
100
AcDbBlockTableRecord
  2
*D30
  0
BLOCK_RECORD
  5
8048
330
1
100
AcDbSymbolTableRecord
100
AcDbBlockTableRecord
  2
*D31
  0
BLOCK_RECORD
  5
8054
330
1
100
AcDbSymbolTableRecord
100
AcDbBlockTableRecord
  2
*D32
  0
BLOCK_RECORD
  5
8060
330
1
100
AcDbSymbolTableRecord
100
AcDbBlockTableRecord
  2
*D33
  0
BLOCK_RECORD
  5
806C
330
1
100
AcDbSymbolTableRecord
100
AcDbBlockTableRecord
  2
*D34
  0
BLOCK_RECORD
  5
8078
330
1
100
AcDbSymbolTableRecord
100
AcDbBlockTableRecord
  2
*D35
  0
BLOCK_RECORD
  5
8084
330
1
100
AcDbSymbolTableRecord
100
AcDbBlockTableRecord
  2
*D36
  0
BLOCK_RECORD
  5
8090
330
1
100
AcDbSymbolTableRecord
100
AcDbBlockTableRecord
  2
*D37
  0
BLOCK_RECORD
  5
8120
330
1
100
AcDbSymbolTableRecord
100
AcDbBlockTableRecord
  2
*D38
  0
BLOCK_RECORD
  5
812C
330
1
100
AcDbSymbolTableRecord
100
AcDbBlockTableRecord
  2
*D39
  0
BLOCK_RECORD
  5
8138
330
1
100
AcDbSymbolTableRecord
100
AcDbBlockTableRecord
  2
*D40
  0
BLOCK_RECORD
  5
8144
330
1
100
AcDbSymbolTableRecord
100
AcDbBlockTableRecord
  2
*D41
  0
BLOCK_RECORD
  5
8150
330
1
100
AcDbSymbolTableRecord
100
AcDbBlockTableRecord
  2
*D42
  0
BLOCK_RECORD
  5
816E
330
1
100
AcDbSymbolTableRecord
100
AcDbBlockTableRecord
  2
*D43
  0
BLOCK_RECORD
  5
817A
330
1
100
AcDbSymbolTableRecord
100
AcDbBlockTableRecord
  2
*D44
  0
BLOCK_RECORD
  5
8186
330
1
100
AcDbSymbolTableRecord
100
AcDbBlockTableRecord
  2
*D45
  0
BLOCK_RECORD
  5
8192
330
1
100
AcDbSymbolTableRecord
100
AcDbBlockTableRecord
  2
*D46
  0
BLOCK_RECORD
  5
819E
330
1
100
AcDbSymbolTableRecord
100
AcDbBlockTableRecord
  2
*D47
  0
BLOCK_RECORD
  5
81D8
330
1
100
AcDbSymbolTableRecord
100
AcDbBlockTableRecord
  2
*D48
  0
BLOCK_RECORD
  5
81E5
330
1
100
AcDbSymbolTableRecord
100
AcDbBlockTableRecord
  2
*D49
  0
BLOCK_RECORD
  5
81F2
330
1
100
AcDbSymbolTableRecord
100
AcDbBlockTableRecord
  2
*D50
  0
BLOCK_RECORD
  5
81FF
330
1
100
AcDbSymbolTableRecord
100
AcDbBlockTableRecord
  2
*D51
  0
ENDTAB
  0
ENDSEC
  0
SECTION
  2
BLOCKS
  0
BLOCK
  5
1F
330
1E
100
AcDbEntity
  8
0
100
AcDbBlockBegin
  2
*MODEL_SPACE
 70
     0
 10
0.0
 20
0.0
 30
0.0
  3
*MODEL_SPACE
  1

  0
ENDBLK
  5
20
330
1E
100
AcDbEntity
  8
0
100
AcDbBlockEnd
  0
BLOCK
  5
1B
330
1A
100
AcDbEntity
 67
     1
  8
0
100
AcDbBlockBegin
  2
*PAPER_SPACE
 70
     0
 10
0.0
 20
0.0
 30
0.0
  3
*PAPER_SPACE
  1

  0
ENDBLK
  5
1C
330
1A
100
AcDbEntity
 67
     1
  8
0
100
AcDbBlockEnd
  0
BLOCK
  5
3B6
330
3B2
100
AcDbEntity
  8
0
100
AcDbBlockBegin
  2
_OPEN
 70
     0
 10
0.0
 20
0.0
 30
0.0
  3
_OPEN
  1

  0
LINE
  5
3B3
330
3B2
100
AcDbEntity
  8
30
  6
CONTINUOUS
 62
     0
100
AcDbLine
 10
-1.0
 20
0.1666666666666666
 30
0.0
 11
0.0
 21
0.0
 31
0.0
  0
LINE
  5
3B4
330
3B2
100
AcDbEntity
  8
30
  6
CONTINUOUS
 62
     0
100
AcDbLine
 10
-1.0
 20
-0.1666666666666666
 30
0.0
 11
0.0
 21
0.0
 31
0.0
  0
LINE
  5
3B5
330
3B2
100
AcDbEntity
  8
30
  6
CONTINUOUS
 62
     0
100
AcDbLine
 10
0.0
 20
0.0
 30
0.0
 11
-1.0
 21
0.0
 31
0.0
  0
ENDBLK
  5
3B7
330
3B2
100
AcDbEntity
  8
0
100
AcDbBlockEnd
  0
BLOCK
  5
6D20
330
6D16
100
AcDbEntity
  8
0
100
AcDbBlockBegin
  2
*D1
 70
     1
 10
0.0
 20
0.0
 30
0.0
  3
*D1
  1

  0
LINE
  5
7830
330
6D16
100
AcDbEntity
  8
30
  6
CONTINUOUS
 62
     0
100
AcDbLine
 10
-105.0002441405998
 20
496.1514359345528
 30
0.0
 11
-118.5002441405998
 21
496.1514359345528
 31
0.0
  0
LINE
  5
7831
330
6D16
100
AcDbEntity
  8
30
  6
CONTINUOUS
 62
     0
100
AcDbLine
 10
-105.0002441405998
 20
376.1514359345528
 30
0.0
 11
-118.5002441405998
 21
376.1514359345528
 31
0.0
  0
LINE
  5
7832
330
6D16
100
AcDbEntity
  8
30
  6
CONTINUOUS
 62
     0
100
AcDbLine
 10
-118.0002441405997
 20
494.1514359345529
 30
0.0
 11
-118.0002441405999
 21
378.1514359345528
 31
0.0
  0
INSERT
  5
7833
330
6D16
100
AcDbEntity
  8
30
  6
CONTINUOUS
 62
     0
100
AcDbBlockReference
  2
_OPEN
 10
-118.0002441405997
 20
496.1514359345528
 30
0.0
 41
2.0
 42
2.0
 43
2.0
 50
90.0
  0
INSERT
  5
7834
330
6D16
100
AcDbEntity
  8
30
  6
CONTINUOUS
 62
     0
100
AcDbBlockReference
  2
_OPEN
 10
-118.0002441405999
 20
376.1514359345528
 30
0.0
 41
2.0
 42
2.0
 43
2.0
 50
270.0
  0
MTEXT
  5
7835
330
6D16
100
AcDbEntity
  8
30
  6
CONTINUOUS
 62
     0
100
AcDbMText
 10
-122.5002441405999
 20
436.1514359345529
 30
0.0
 40
7.0
 41
0.0
 71
     5
 72
     1
  1
\A1;120
 11
0.0000000000000001
 21
1.0
 31
0.0
1001
ACAD
1000
MTEXTBEGIN
1070
    73
1070
     1
1070
    44
1040
1.0
1070
    74
1070
     0
1000
MTEXTEND
1000
MTEXTBEGIN
1070
    73
1070
     1
1070
    44
1040
1.0
1070
    74
1070
     0
1000
MTEXTEND
  0
POINT
  5
7836
330
6D16
100
AcDbEntity
  8
DEFPOINTS
  6
CONTINUOUS
 62
     0
100
AcDbPoint
 10
-104.0002441405998
 20
496.1514359345528
 30
0.0
  0
POINT
  5
7837
330
6D16
100
AcDbEntity
  8
DEFPOINTS
  6
CONTINUOUS
 62
     0
100
AcDbPoint
 10
-104.0002441405998
 20
376.1514359345528
 30
0.0
  0
POINT
  5
7838
330
6D16
100
AcDbEntity
  8
DEFPOINTS
  6
CONTINUOUS
 62
     0
100
AcDbPoint
 10
-118.0002441405999
 20
376.1514359345528
 30
0.0
  0
ENDBLK
  5
6D21
330
6D16
100
AcDbEntity
  8
0
100
AcDbBlockEnd
  0
BLOCK
  5
6F5D
330
6F53
100
AcDbEntity
  8
0
100
AcDbBlockBegin
  2
*D2
 70
     1
 10
0.0
 20
0.0
 30
0.0
  3
*D2
  1

  0
LINE
  5
7773
330
6F53
100
AcDbEntity
  8
30
  6
CONTINUOUS
 62
     0
100
AcDbLine
 10
-51.0
 20
-417.0
 30
0.0
 11
-201.5934457379698
 21
-416.9999999999998
 31
0.0
  0
LINE
  5
7774
330
6F53
100
AcDbEntity
  8
30
  6
CONTINUOUS
 62
     0
100
AcDbLine
 10
-167.0
 20
-601.0
 30
0.0
 11
-201.5934457379699
 21
-601.0
 31
0.0
  0
LINE
  5
7775
330
6F53
100
AcDbEntity
  8
30
  6
CONTINUOUS
 62
     0
100
AcDbLine
 10
-201.0934457379698
 20
-418.9999999999998
 30
0.0
 11
-201.0934457379698
 21
-599.0
 31
0.0
  0
INSERT
  5
7776
330
6F53
100
AcDbEntity
  8
30
  6
CONTINUOUS
 62
     0
100
AcDbBlockReference
  2
_OPEN
 10
-201.0934457379698
 20
-416.9999999999998
 30
0.0
 41
2.0
 42
2.0
 43
2.0
 50
90.0
  0
INSERT
  5
7777
330
6F53
100
AcDbEntity
  8
30
  6
CONTINUOUS
 62
     0
100
AcDbBlockReference
  2
_OPEN
 10
-201.0934457379698
 20
-601.0
 30
0.0
 41
2.0
 42
2.0
 43
2.0
 50
270.0
  0
MTEXT
  5
7778
330
6F53
100
AcDbEntity
  8
30
  6
CONTINUOUS
 62
     0
100
AcDbMText
 10
-205.5934457379697
 20
-509.0
 30
0.0
 40
7.0
 41
0.0
 71
     5
 72
     1
  1
\A1;184
 11
0.0000000000000001
 21
1.0
 31
0.0
1001
ACAD
1000
MTEXTBEGIN
1070
    73
1070
     1
1070
    44
1040
1.0
1070
    74
1070
     0
1000
MTEXTEND
1000
MTEXTBEGIN
1070
    73
1070
     1
1070
    44
1040
1.0
1070
    74
1070
     0
1000
MTEXTEND
  0
POINT
  5
7779
330
6F53
100
AcDbEntity
  8
DEFPOINTS
  6
CONTINUOUS
 62
     0
100
AcDbPoint
 10
-50.0
 20
-417.0
 30
0.0
  0
POINT
  5
777A
330
6F53
100
AcDbEntity
  8
DEFPOINTS
  6
CONTINUOUS
 62
     0
100
AcDbPoint
 10
-166.0
 20
-601.0
 30
0.0
  0
POINT
  5
777B
330
6F53
100
AcDbEntity
  8
DEFPOINTS
  6
CONTINUOUS
 62
     0
100
AcDbPoint
 10
-201.0934457379698
 20
-601.0
 30
0.0
  0
ENDBLK
  5
6F5E
330
6F53
100
AcDbEntity
  8
0
100
AcDbBlockEnd
  0
BLOCK
  5
6F6A
330
6F60
100
AcDbEntity
  8
0
100
AcDbBlockBegin
  2
*D3
 70
     1
 10
0.0
 20
0.0
 30
0.0
  3
*D3
  1

  0
LINE
  5
82AA
330
6F60
100
AcDbEntity
  8
30
  6
CONTINUOUS
 62
     0
100
AcDbLine
 10
-167.0
 20
-601.0
 30
0.0
 11
-201.5934457379698
 21
-601.0
 31
0.0
  0
LINE
  5
82AB
330
6F60
100
AcDbEntity
  8
30
  6
CONTINUOUS
 62
     0
100
AcDbLine
 10
-51.0
 20
-754.9997558592999
 30
0.0
 11
-201.5934457379698
 21
-754.9997558592999
 31
0.0
  0
LINE
  5
82AC
330
6F60
100
AcDbEntity
  8
30
  6
CONTINUOUS
 62
     0
100
AcDbLine
 10
-201.0934457379697
 20
-603.0
 30
0.0
 11
-201.0934457379698
 21
-752.9997558593
 31
0.0
  0
INSERT
  5
82AD
330
6F60
100
AcDbEntity
  8
30
  6
CONTINUOUS
 62
     0
100
AcDbBlockReference
  2
_OPEN
 10
-201.0934457379697
 20
-601.0
 30
0.0
 41
2.0
 42
2.0
 43
2.0
 50
90.0
  0
INSERT
  5
82AE
330
6F60
100
AcDbEntity
  8
30
  6
CONTINUOUS
 62
     0
100
AcDbBlockReference
  2
_OPEN
 10
-201.0934457379698
 20
-754.9997558592999
 30
0.0
 41
2.0
 42
2.0
 43
2.0
 50
270.0
  0
MTEXT
  5
82AF
330
6F60
100
AcDbEntity
  8
30
  6
CONTINUOUS
 62
     0
100
AcDbMText
 10
-205.5934457379696
 20
-677.99987792965
 30
0.0
 40
7.0
 41
0.0
 71
     5
 72
     1
  1
\A1;154
 11
0.0000000000000001
 21
1.0
 31
0.0
  0
POINT
  5
82B0
330
6F60
100
AcDbEntity
  8
DEFPOINTS
  6
CONTINUOUS
 62
     0
100
AcDbPoint
 10
-166.0
 20
-601.0
 30
0.0
  0
POINT
  5
82B1
330
6F60
100
AcDbEntity
  8
DEFPOINTS
  6
CONTINUOUS
 62
     0
100
AcDbPoint
 10
-50.0
 20
-754.9997558592999
 30
0.0
  0
POINT
  5
82B2
330
6F60
100
AcDbEntity
  8
DEFPOINTS
  6
CONTINUOUS
 62
     0
100
AcDbPoint
 10
-201.0934457379698
 20
-754.9997558592999
 30
0.0
  0
ENDBLK
  5
6F6B
330
6F60
100
AcDbEntity
  8
0
100
AcDbBlockEnd
  0
BLOCK
  5
6F77
330
6F6D
100
AcDbEntity
  8
0
100
AcDbBlockBegin
  2
*D4
 70
     1
 10
0.0
 20
0.0
 30
0.0
  3
*D4
  1

  0
LINE
  5
7785
330
6F6D
100
AcDbEntity
  8
30
  6
CONTINUOUS
 62
     0
100
AcDbLine
 10
-35.0
 20
-770.9997558592999
 30
0.0
 11
-35.0
 21
-810.9423648938417
 31
0.0
  0
LINE
  5
7786
330
6F6D
100
AcDbEntity
  8
30
  6
CONTINUOUS
 62
     0
100
AcDbLine
 10
35.0
 20
-770.9997558592999
 30
0.0
 11
35.0
 21
-810.9423648938417
 31
0.0
  0
LINE
  5
7787
330
6F6D
100
AcDbEntity
  8
30
  6
CONTINUOUS
 62
     0
100
AcDbLine
 10
-33.0
 20
-810.4423648938418
 30
0.0
 11
33.0
 21
-810.4423648938418
 31
0.0
  0
INSERT
  5
7788
330
6F6D
100
AcDbEntity
  8
30
  6
CONTINUOUS
 62
     0
100
AcDbBlockReference
  2
_OPEN
 10
-35.0
 20
-810.4423648938418
 30
0.0
 41
2.0
 42
2.0
 43
2.0
 50
180.0
  0
INSERT
  5
7789
330
6F6D
100
AcDbEntity
  8
30
  6
CONTINUOUS
 62
     0
100
AcDbBlockReference
  2
_OPEN
 10
35.0
 20
-810.4423648938418
 30
0.0
 41
2.0
 42
2.0
 43
2.0
  0
MTEXT
  5
778A
330
6F6D
100
AcDbEntity
  8
30
  6
CONTINUOUS
 62
     0
100
AcDbMText
 10
0.0000000000000003
 20
-805.9423648938414
 30
0.0
 40
7.0
 41
0.0
 71
     5
 72
     1
  1
\A1;70
1001
ACAD
1000
MTEXTBEGIN
1070
    73
1070
     1
1070
    44
1040
1.0
1070
    74
1070
     0
1000
MTEXTEND
1000
MTEXTBEGIN
1070
    73
1070
     1
1070
    44
1040
1.0
1070
    74
1070
     0
1000
MTEXTEND
  0
POINT
  5
778B
330
6F6D
100
AcDbEntity
  8
DEFPOINTS
  6
CONTINUOUS
 62
     0
100
AcDbPoint
 10
-35.0
 20
-769.9997558593
 30
0.0
  0
POINT
  5
778C
330
6F6D
100
AcDbEntity
  8
DEFPOINTS
  6
CONTINUOUS
 62
     0
100
AcDbPoint
 10
35.0
 20
-769.9997558593
 30
0.0
  0
POINT
  5
778D
330
6F6D
100
AcDbEntity
  8
DEFPOINTS
  6
CONTINUOUS
 62
     0
100
AcDbPoint
 10
35.0
 20
-810.4423648938418
 30
0.0
  0
ENDBLK
  5
6F78
330
6F6D
100
AcDbEntity
  8
0
100
AcDbBlockEnd
  0
BLOCK
  5
7591
330
7587
100
AcDbEntity
  8
0
100
AcDbBlockBegin
  2
*D5
 70
     1
 10
0.0
 20
0.0
 30
0.0
  3
*D5
  1

  0
LINE
  5
7827
330
7587
100
AcDbEntity
  8
30
  6
CONTINUOUS
 62
     0
100
AcDbLine
 10
-69.99987792964997
 20
582.1514359345527
 30
0.0
 11
-69.99987792964997
 21
648.1380778065357
 31
0.0
  0
LINE
  5
7828
330
7587
100
AcDbEntity
  8
30
  6
CONTINUOUS
 62
     0
100
AcDbLine
 10
0.0000000000000001
 20
627.1514359345527
 30
0.0
 11
0.0000000000000013
 21
648.1380778065357
 31
0.0
  0
LINE
  5
7829
330
7587
100
AcDbEntity
  8
30
  6
CONTINUOUS
 62
     0
100
AcDbLine
 10
-67.99987792964997
 20
647.6380778065357
 30
0.0
 11
-1.999999999999998
 21
647.6380778065357
 31
0.0
  0
INSERT
  5
782A
330
7587
100
AcDbEntity
  8
30
  6
CONTINUOUS
 62
     0
100
AcDbBlockReference
  2
_OPEN
 10
-69.99987792964997
 20
647.6380778065357
 30
0.0
 41
2.0
 42
2.0
 43
2.0
 50
180.0
  0
INSERT
  5
782B
330
7587
100
AcDbEntity
  8
30
  6
CONTINUOUS
 62
     0
100
AcDbBlockReference
  2
_OPEN
 10
0.0000000000000013
 20
647.6380778065357
 30
0.0
 41
2.0
 42
2.0
 43
2.0
  0
MTEXT
  5
782C
330
7587
100
AcDbEntity
  8
30
  6
CONTINUOUS
 62
     0
100
AcDbMText
 10
-34.99993896482498
 20
652.1380778065357
 30
0.0
 40
7.0
 41
0.0
 71
     5
 72
     1
  1
\A1;70
1001
ACAD
1000
MTEXTBEGIN
1070
    73
1070
     1
1070
    44
1040
1.0
1070
    74
1070
     0
1000
MTEXTEND
1000
MTEXTBEGIN
1070
    73
1070
     1
1070
    44
1040
1.0
1070
    74
1070
     0
1000
MTEXTEND
  0
POINT
  5
782D
330
7587
100
AcDbEntity
  8
DEFPOINTS
  6
CONTINUOUS
 62
     0
100
AcDbPoint
 10
-69.99987792964997
 20
581.1514359345527
 30
0.0
  0
POINT
  5
782E
330
7587
100
AcDbEntity
  8
DEFPOINTS
  6
CONTINUOUS
 62
     0
100
AcDbPoint
 10
0.0
 20
626.1514359345527
 30
0.0
  0
POINT
  5
782F
330
7587
100
AcDbEntity
  8
DEFPOINTS
  6
CONTINUOUS
 62
     0
100
AcDbPoint
 10
0.0000000000000013
 20
647.6380778065357
 30
0.0
  0
ENDBLK
  5
7592
330
7587
100
AcDbEntity
  8
0
100
AcDbBlockEnd
  0
BLOCK
  5
759E
330
7594
100
AcDbEntity
  8
0
100
AcDbBlockBegin
  2
*D6
 70
     1
 10
0.0
 20
0.0
 30
0.0
  3
*D6
  1

  0
LINE
  5
7DFD
330
7594
100
AcDbEntity
  8
30
  6
CONTINUOUS
 62
     0
100
AcDbLine
 10
0.0000000000000001
 20
627.1514359345527
 30
0.0
 11
0.0000000000000013
 21
648.1380778065357
 31
0.0
  0
LINE
  5
7DFE
330
7594
100
AcDbEntity
  8
30
  6
CONTINUOUS
 62
     0
100
AcDbLine
 10
70.0
 20
582.1514359345527
 30
0.0
 11
70.0
 21
648.1380778065357
 31
0.0
  0
LINE
  5
7DFF
330
7594
100
AcDbEntity
  8
30
  6
CONTINUOUS
 62
     0
100
AcDbLine
 10
2.0
 20
647.6380778065357
 30
0.0
 11
68.0
 21
647.6380778065357
 31
0.0
  0
INSERT
  5
7E00
330
7594
100
AcDbEntity
  8
30
  6
CONTINUOUS
 62
     0
100
AcDbBlockReference
  2
_OPEN
 10
0.0000000000000013
 20
647.6380778065357
 30
0.0
 41
2.0
 42
2.0
 43
2.0
 50
180.0
  0
INSERT
  5
7E01
330
7594
100
AcDbEntity
  8
30
  6
CONTINUOUS
 62
     0
100
AcDbBlockReference
  2
_OPEN
 10
70.0
 20
647.6380778065357
 30
0.0
 41
2.0
 42
2.0
 43
2.0
  0
MTEXT
  5
7E02
330
7594
100
AcDbEntity
  8
30
  6
CONTINUOUS
 62
     0
100
AcDbMText
 10
35.0
 20
652.1380778065357
 30
0.0
 40
7.0
 41
0.0
 71
     5
 72
     1
  1
\A1;70
1001
ACAD
1000
MTEXTBEGIN
1070
    73
1070
     1
1070
    44
1040
1.0
1070
    74
1070
     0
1000
MTEXTEND
1000
MTEXTBEGIN
1070
    73
1070
     1
1070
    44
1040
1.0
1070
    74
1070
     0
1000
MTEXTEND
  0
POINT
  5
7E03
330
7594
100
AcDbEntity
  8
DEFPOINTS
  6
CONTINUOUS
 62
     0
100
AcDbPoint
 10
0.0
 20
626.1514359345527
 30
0.0
  0
POINT
  5
7E04
330
7594
100
AcDbEntity
  8
DEFPOINTS
  6
CONTINUOUS
 62
     0
100
AcDbPoint
 10
70.0
 20
581.1514359345527
 30
0.0
  0
POINT
  5
7E05
330
7594
100
AcDbEntity
  8
DEFPOINTS
  6
CONTINUOUS
 62
     0
100
AcDbPoint
 10
70.0
 20
647.6380778065357
 30
0.0
  0
ENDBLK
  5
759F
330
7594
100
AcDbEntity
  8
0
100
AcDbBlockEnd
  0
BLOCK
  5
799E
330
7994
100
AcDbEntity
  8
0
100
AcDbBlockBegin
  2
*D7
 70
     1
 10
0.0
 20
0.0
 30
0.0
  3
*D7
  1

  0
LINE
  5
82BC
330
7994
100
AcDbEntity
  8
30
  6
CONTINUOUS
 62
     0
100
AcDbLine
 10
106.99993896488
 20
200.0002441407001
 30
0.0
 11
145.3585588512718
 21
200.0002441407001
 31
0.0
  0
LINE
  5
82BD
330
7994
100
AcDbEntity
  8
30
  6
CONTINUOUS
 62
     0
100
AcDbLine
 10
105.99993896488
 20
0.0002441407000899
 30
0.0
 11
145.3585588512718
 21
0.0002441407000788
 31
0.0
  0
LINE
  5
82BE
330
7994
100
AcDbEntity
  8
30
  6
CONTINUOUS
 62
     0
100
AcDbLine
 10
144.8585588512718
 20
198.0002441407001
 30
0.0
 11
144.8585588512718
 21
2.000244140700079
 31
0.0
  0
INSERT
  5
82BF
330
7994
100
AcDbEntity
  8
30
  6
CONTINUOUS
 62
     0
100
AcDbBlockReference
  2
_OPEN
 10
144.8585588512718
 20
200.0002441407001
 30
0.0
 41
2.0
 42
2.0
 43
2.0
 50
90.0
  0
INSERT
  5
82C0
330
7994
100
AcDbEntity
  8
30
  6
CONTINUOUS
 62
     0
100
AcDbBlockReference
  2
_OPEN
 10
144.8585588512718
 20
0.0002441407000789
 30
0.0
 41
2.0
 42
2.0
 43
2.0
 50
270.0
  0
MTEXT
  5
82C1
330
7994
100
AcDbEntity
  8
30
  6
CONTINUOUS
 62
     0
100
AcDbMText
 10
140.3585588512718
 20
100.0002441407001
 30
0.0
 40
7.0
 41
0.0
 71
     5
 72
     1
  1
\A1;200
 11
0.0000000000000001
 21
1.0
 31
0.0
  0
POINT
  5
82C2
330
7994
100
AcDbEntity
  8
DEFPOINTS
  6
CONTINUOUS
 62
     0
100
AcDbPoint
 10
105.99993896488
 20
200.0002441407001
 30
0.0
  0
POINT
  5
82C3
330
7994
100
AcDbEntity
  8
DEFPOINTS
  6
CONTINUOUS
 62
     0
100
AcDbPoint
 10
104.99993896488
 20
0.0002441407000902
 30
0.0
  0
POINT
  5
82C4
330
7994
100
AcDbEntity
  8
DEFPOINTS
  6
CONTINUOUS
 62
     0
100
AcDbPoint
 10
144.8585588512718
 20
0.0002441407000789
 30
0.0
  0
ENDBLK
  5
799F
330
7994
100
AcDbEntity
  8
0
100
AcDbBlockEnd
  0
BLOCK
  5
79AA
330
79A0
100
AcDbEntity
  8
0
100
AcDbBlockBegin
  2
*D8
 70
     1
 10
0.0
 20
0.0
 30
0.0
  3
*D8
  1

  0
LINE
  5
82B3
330
79A0
100
AcDbEntity
  8
30
  6
CONTINUOUS
 62
     0
100
AcDbLine
 10
105.99993896488
 20
0.0002441407000899
 30
0.0
 11
145.3585588512718
 21
0.0002441407000788
 31
0.0
  0
LINE
  5
82B4
330
79A0
100
AcDbEntity
  8
30
  6
CONTINUOUS
 62
     0
100
AcDbLine
 10
106.99993896488
 20
-169.9997558592999
 30
0.0
 11
145.3585588512718
 21
-169.9997558592999
 31
0.0
  0
LINE
  5
82B5
330
79A0
100
AcDbEntity
  8
30
  6
CONTINUOUS
 62
     0
100
AcDbLine
 10
144.8585588512718
 20
-1.999755859299921
 30
0.0
 11
144.8585588512718
 21
-167.9997558592999
 31
0.0
  0
INSERT
  5
82B6
330
79A0
100
AcDbEntity
  8
30
  6
CONTINUOUS
 62
     0
100
AcDbBlockReference
  2
_OPEN
 10
144.8585588512718
 20
0.0002441407000789
 30
0.0
 41
2.0
 42
2.0
 43
2.0
 50
90.0
  0
INSERT
  5
82B7
330
79A0
100
AcDbEntity
  8
30
  6
CONTINUOUS
 62
     0
100
AcDbBlockReference
  2
_OPEN
 10
144.8585588512718
 20
-169.9997558592999
 30
0.0
 41
2.0
 42
2.0
 43
2.0
 50
270.0
  0
MTEXT
  5
82B8
330
79A0
100
AcDbEntity
  8
30
  6
CONTINUOUS
 62
     0
100
AcDbMText
 10
140.3585588512718
 20
-84.99975585929989
 30
0.0
 40
7.0
 41
0.0
 71
     5
 72
     1
  1
\A1;170
 11
0.0000000000000001
 21
1.0
 31
0.0
  0
POINT
  5
82B9
330
79A0
100
AcDbEntity
  8
DEFPOINTS
  6
CONTINUOUS
 62
     0
100
AcDbPoint
 10
104.99993896488
 20
0.0002441407000902
 30
0.0
  0
POINT
  5
82BA
330
79A0
100
AcDbEntity
  8
DEFPOINTS
  6
CONTINUOUS
 62
     0
100
AcDbPoint
 10
105.99993896488
 20
-169.9997558592999
 30
0.0
  0
POINT
  5
82BB
330
79A0
100
AcDbEntity
  8
DEFPOINTS
  6
CONTINUOUS
 62
     0
100
AcDbPoint
 10
144.8585588512718
 20
-169.9997558592999
 30
0.0
  0
ENDBLK
  5
79AB
330
79A0
100
AcDbEntity
  8
0
100
AcDbBlockEnd
  0
BLOCK
  5
79B6
330
79AC
100
AcDbEntity
  8
0
100
AcDbBlockBegin
  2
*D9
 70
     1
 10
0.0
 20
0.0
 30
0.0
  3
*D9
  1

  0
LINE
  5
7DAE
330
79AC
100
AcDbEntity
  8
30
  6
CONTINUOUS
 62
     0
100
AcDbLine
 10
105.99993896488
 20
200.0002441407001
 30
0.0
 11
164.4083041793779
 21
200.0002441407001
 31
0.0
  0
LINE
  5
7DAF
330
79AC
100
AcDbEntity
  8
30
  6
CONTINUOUS
 62
     0
100
AcDbLine
 10
105.99993896488
 20
-169.9997558592999
 30
0.0
 11
164.4083041793778
 21
-169.9997558592999
 31
0.0
  0
LINE
  5
7DB0
330
79AC
100
AcDbEntity
  8
30
  6
CONTINUOUS
 62
     0
100
AcDbLine
 10
163.9083041793778
 20
198.0002441407
 30
0.0
 11
163.9083041793778
 21
-167.9997558592999
 31
0.0
  0
INSERT
  5
7DB1
330
79AC
100
AcDbEntity
  8
30
  6
CONTINUOUS
 62
     0
100
AcDbBlockReference
  2
_OPEN
 10
163.9083041793778
 20
200.0002441407001
 30
0.0
 41
2.0
 42
2.0
 43
2.0
 50
90.0
  0
INSERT
  5
7DB2
330
79AC
100
AcDbEntity
  8
30
  6
CONTINUOUS
 62
     0
100
AcDbBlockReference
  2
_OPEN
 10
163.9083041793778
 20
-169.9997558592999
 30
0.0
 41
2.0
 42
2.0
 43
2.0
 50
270.0
  0
MTEXT
  5
7DB3
330
79AC
100
AcDbEntity
  8
30
  6
CONTINUOUS
 62
     0
100
AcDbMText
 10
159.4083041793779
 20
15.0002441407001
 30
0.0
 40
7.0
 41
0.0
 71
     5
 72
     1
  1
\A1;370
 11
0.0000000000000001
 21
1.0
 31
0.0
1001
ACAD
1000
MTEXTBEGIN
1070
    73
1070
     1
1070
    44
1040
1.0
1070
    74
1070
     0
1000
MTEXTEND
1000
MTEXTBEGIN
1070
    73
1070
     1
1070
    44
1040
1.0
1070
    74
1070
     0
1000
MTEXTEND
  0
POINT
  5
7DB4
330
79AC
100
AcDbEntity
  8
DEFPOINTS
  6
CONTINUOUS
 62
     0
100
AcDbPoint
 10
104.99993896488
 20
200.0002441407001
 30
0.0
  0
POINT
  5
7DB5
330
79AC
100
AcDbEntity
  8
DEFPOINTS
  6
CONTINUOUS
 62
     0
100
AcDbPoint
 10
104.99993896488
 20
-169.9997558592999
 30
0.0
  0
POINT
  5
7DB6
330
79AC
100
AcDbEntity
  8
DEFPOINTS
  6
CONTINUOUS
 62
     0
100
AcDbPoint
 10
163.9083041793778
 20
-169.9997558592999
 30
0.0
  0
ENDBLK
  5
79B7
330
79AC
100
AcDbEntity
  8
0
100
AcDbBlockEnd
  0
BLOCK
  5
79DE
330
79D4
100
AcDbEntity
  8
0
100
AcDbBlockBegin
  2
*D10
 70
     1
 10
0.0
 20
0.0
 30
0.0
  3
*D10
  1

  0
LINE
  5
7DB7
330
79D4
100
AcDbEntity
  8
30
  6
CONTINUOUS
 62
     0
100
AcDbLine
 10
104.99993896488
 20
201.0
 30
0.0
 11
104.99993896488
 21
236.1263349819032
 31
0.0
  0
LINE
  5
7DB8
330
79D4
100
AcDbEntity
  8
30
  6
CONTINUOUS
 62
     0
100
AcDbLine
 10
-104.99993896485
 20
201.0
 30
0.0
 11
-104.99993896485
 21
236.1263349819032
 31
0.0
  0
LINE
  5
7DB9
330
79D4
100
AcDbEntity
  8
30
  6
CONTINUOUS
 62
     0
100
AcDbLine
 10
102.99993896488
 20
235.6263349819032
 30
0.0
 11
-102.99993896485
 21
235.6263349819032
 31
0.0
  0
INSERT
  5
7DBA
330
79D4
100
AcDbEntity
  8
30
  6
CONTINUOUS
 62
     0
100
AcDbBlockReference
  2
_OPEN
 10
104.99993896488
 20
235.6263349819032
 30
0.0
 41
2.0
 42
2.0
 43
2.0
  0
INSERT
  5
7DBB
330
79D4
100
AcDbEntity
  8
30
  6
CONTINUOUS
 62
     0
100
AcDbBlockReference
  2
_OPEN
 10
-104.99993896485
 20
235.6263349819032
 30
0.0
 41
2.0
 42
2.0
 43
2.0
 50
180.0
  0
MTEXT
  5
7DBC
330
79D4
100
AcDbEntity
  8
30
  6
CONTINUOUS
 62
     0
100
AcDbMText
 10
0.0000000000150069
 20
240.1263349819032
 30
0.0
 40
7.0
 41
0.0
 71
     5
 72
     1
  1
\A1;210
1001
ACAD
1000
MTEXTBEGIN
1070
    73
1070
     1
1070
    44
1040
1.0
1070
    74
1070
     0
1000
MTEXTEND
1000
MTEXTBEGIN
1070
    73
1070
     1
1070
    44
1040
1.0
1070
    74
1070
     0
1000
MTEXTEND
  0
POINT
  5
7DBD
330
79D4
100
AcDbEntity
  8
DEFPOINTS
  6
CONTINUOUS
 62
     0
100
AcDbPoint
 10
104.99993896488
 20
200.0
 30
0.0
  0
POINT
  5
7DBE
330
79D4
100
AcDbEntity
  8
DEFPOINTS
  6
CONTINUOUS
 62
     0
100
AcDbPoint
 10
-104.99993896485
 20
200.0
 30
0.0
  0
POINT
  5
7DBF
330
79D4
100
AcDbEntity
  8
DEFPOINTS
  6
CONTINUOUS
 62
     0
100
AcDbPoint
 10
-104.99993896485
 20
235.6263349819032
 30
0.0
  0
ENDBLK
  5
79DF
330
79D4
100
AcDbEntity
  8
0
100
AcDbBlockEnd
  0
BLOCK
  5
7B5B
330
7B51
100
AcDbEntity
  8
0
100
AcDbBlockBegin
  2
*D11
 70
     1
 10
0.0
 20
0.0
 30
0.0
  3
*D11
  1

  0
LINE
  5
7C53
330
7B51
100
AcDbEntity
  8
30
  6
CONTINUOUS
 62
     0
100
AcDbLine
 10
619.0
 20
150.0
 30
0.0
 11
673.9278962586222
 21
150.0
 31
0.0
  0
LINE
  5
7C54
330
7B51
100
AcDbEntity
  8
30
  6
CONTINUOUS
 62
     0
100
AcDbLine
 10
619.0
 20
138.0
 30
0.0
 11
673.9278962586222
 21
138.0
 31
0.0
  0
LINE
  5
7C55
330
7B51
100
AcDbEntity
  8
30
  6
CONTINUOUS
 62
     0
100
AcDbLine
 10
673.4278962586222
 20
140.0
 30
0.0
 11
673.4278962586222
 21
148.0
 31
0.0
  0
LINE
  5
7C56
330
7B51
100
AcDbEntity
  8
30
  6
CONTINUOUS
 62
     0
100
AcDbLine
 10
673.4278962586222
 20
150.0
 30
0.0
 11
673.4278962586222
 21
157.1347692395737
 31
0.0
  0
LINE
  5
7C57
330
7B51
100
AcDbEntity
  8
30
  6
CONTINUOUS
 62
     0
100
AcDbLine
 10
673.4278962586222
 20
157.1347692395737
 30
0.0
 11
683.7612295919557
 21
157.1347692395737
 31
0.0
  0
INSERT
  5
7C58
330
7B51
100
AcDbEntity
  8
30
  6
CONTINUOUS
 62
     0
100
AcDbBlockReference
  2
_OPEN
 10
673.4278962586222
 20
138.0
 30
0.0
 41
2.0
 42
2.0
 43
2.0
 50
270.0
  0
INSERT
  5
7C59
330
7B51
100
AcDbEntity
  8
30
  6
CONTINUOUS
 62
     0
100
AcDbBlockReference
  2
_OPEN
 10
673.4278962586222
 20
150.0
 30
0.0
 41
2.0
 42
2.0
 43
2.0
 50
90.0
  0
MTEXT
  5
7C5A
330
7B51
100
AcDbEntity
  8
30
  6
CONTINUOUS
 62
     0
100
AcDbMText
 10
679.0945629252892
 20
161.6347692395738
 30
0.0
 40
7.0
 41
0.0
 71
     5
 72
     1
  1
\A1;12
1001
ACAD
1000
MTEXTBEGIN
1070
    73
1070
     1
1070
    44
1040
1.0
1070
    74
1070
     0
1000
MTEXTEND
1000
MTEXTBEGIN
1070
    73
1070
     1
1070
    44
1040
1.0
1070
    74
1070
     0
1000
MTEXTEND
  0
POINT
  5
7C5B
330
7B51
100
AcDbEntity
  8
DEFPOINTS
  6
CONTINUOUS
 62
     0
100
AcDbPoint
 10
618.0
 20
150.0
 30
0.0
  0
POINT
  5
7C5C
330
7B51
100
AcDbEntity
  8
DEFPOINTS
  6
CONTINUOUS
 62
     0
100
AcDbPoint
 10
618.0
 20
138.0
 30
0.0
  0
POINT
  5
7C5D
330
7B51
100
AcDbEntity
  8
DEFPOINTS
  6
CONTINUOUS
 62
     0
100
AcDbPoint
 10
673.4278962586222
 20
138.0
 30
0.0
  0
ENDBLK
  5
7B5C
330
7B51
100
AcDbEntity
  8
0
100
AcDbBlockEnd
  0
BLOCK
  5
7B73
330
7B69
100
AcDbEntity
  8
0
100
AcDbBlockBegin
  2
*D12
 70
     1
 10
0.0
 20
0.0
 30
0.0
  3
*D12
  1

  0
LINE
  5
7EAF
330
7B69
100
AcDbEntity
  8
30
  6
CONTINUOUS
 62
     0
100
AcDbLine
 10
525.0
 20
-148.9064941407
 30
0.0
 11
525.0
 21
-12.9052734375
 31
0.0
  0
LINE
  5
7EB0
330
7B69
100
AcDbEntity
  8
30
  6
CONTINUOUS
 62
     0
100
AcDbLine
 10
665.0
 20
-87.90649414070001
 30
0.0
 11
665.0
 21
-12.9052734375
 31
0.0
  0
LINE
  5
7EB1
330
7B69
100
AcDbEntity
  8
30
  6
CONTINUOUS
 62
     0
100
AcDbLine
 10
527.0
 20
-13.4052734375
 30
0.0
 11
663.0
 21
-13.4052734375
 31
0.0
  0
INSERT
  5
7EB2
330
7B69
100
AcDbEntity
  8
30
  6
CONTINUOUS
 62
     0
100
AcDbBlockReference
  2
_OPEN
 10
525.0
 20
-13.4052734375
 30
0.0
 41
2.0
 42
2.0
 43
2.0
 50
180.0
  0
INSERT
  5
7EB3
330
7B69
100
AcDbEntity
  8
30
  6
CONTINUOUS
 62
     0
100
AcDbBlockReference
  2
_OPEN
 10
665.0
 20
-13.4052734375
 30
0.0
 41
2.0
 42
2.0
 43
2.0
  0
MTEXT
  5
7EB4
330
7B69
100
AcDbEntity
  8
30
  6
CONTINUOUS
 62
     0
100
AcDbMText
 10
592.7105263157893
 20
-8.9052734375
 30
0.0
 40
7.0
 41
0.0
 71
     5
 72
     1
  1
\A1;140
1001
ACAD
1000
MTEXTBEGIN
1070
    73
1070
     1
1070
    44
1040
1.0
1070
    74
1070
     0
1000
MTEXTEND
1000
MTEXTBEGIN
1070
    73
1070
     1
1070
    44
1040
1.0
1070
    74
1070
     0
1000
MTEXTEND
  0
POINT
  5
7EB5
330
7B69
100
AcDbEntity
  8
DEFPOINTS
  6
CONTINUOUS
 62
     0
100
AcDbPoint
 10
525.0
 20
-149.9064941407
 30
0.0
  0
POINT
  5
7EB6
330
7B69
100
AcDbEntity
  8
DEFPOINTS
  6
CONTINUOUS
 62
     0
100
AcDbPoint
 10
665.0
 20
-88.90649414070002
 30
0.0
  0
POINT
  5
7EB7
330
7B69
100
AcDbEntity
  8
DEFPOINTS
  6
CONTINUOUS
 62
     0
100
AcDbPoint
 10
665.0
 20
-13.4052734375
 30
0.0
  0
ENDBLK
  5
7B74
330
7B69
100
AcDbEntity
  8
0
100
AcDbBlockEnd
  0
BLOCK
  5
7B8B
330
7B81
100
AcDbEntity
  8
0
100
AcDbBlockBegin
  2
*D13
 70
     1
 10
0.0
 20
0.0
 30
0.0
  3
*D13
  1

  0
LINE
  5
7C5E
330
7B81
100
AcDbEntity
  8
30
  6
CONTINUOUS
 62
     0
100
AcDbLine
 10
499.0936279297
 20
144.0
 30
0.0
 11
709.8317372340637
 21
143.9999999999999
 31
0.0
  0
LINE
  5
7C5F
330
7B81
100
AcDbEntity
  8
30
  6
CONTINUOUS
 62
     0
100
AcDbLine
 10
498.1733398437
 20
-114.0
 30
0.0
 11
709.8317372340637
 21
-114.0
 31
0.0
  0
LINE
  5
7C60
330
7B81
100
AcDbEntity
  8
30
  6
CONTINUOUS
 62
     0
100
AcDbLine
 10
709.3317372340639
 20
141.9999999999999
 30
0.0
 11
709.3317372340639
 21
-112.0
 31
0.0
  0
INSERT
  5
7C61
330
7B81
100
AcDbEntity
  8
30
  6
CONTINUOUS
 62
     0
100
AcDbBlockReference
  2
_OPEN
 10
709.3317372340639
 20
143.9999999999999
 30
0.0
 41
2.0
 42
2.0
 43
2.0
 50
90.0
  0
INSERT
  5
7C62
330
7B81
100
AcDbEntity
  8
30
  6
CONTINUOUS
 62
     0
100
AcDbBlockReference
  2
_OPEN
 10
709.3317372340639
 20
-114.0
 30
0.0
 41
2.0
 42
2.0
 43
2.0
 50
270.0
  0
MTEXT
  5
7C63
330
7B81
100
AcDbEntity
  8
30
  6
CONTINUOUS
 62
     0
100
AcDbMText
 10
704.831737234064
 20
13.69736768341681
 30
0.0
 40
7.0
 41
0.0
 71
     5
 72
     1
  1
\A1;258
 11
0.0000000000000001
 21
1.0
 31
0.0
1001
ACAD
1000
MTEXTBEGIN
1070
    73
1070
     1
1070
    44
1040
1.0
1070
    74
1070
     0
1000
MTEXTEND
1000
MTEXTBEGIN
1070
    73
1070
     1
1070
    44
1040
1.0
1070
    74
1070
     0
1000
MTEXTEND
  0
POINT
  5
7C64
330
7B81
100
AcDbEntity
  8
DEFPOINTS
  6
CONTINUOUS
 62
     0
100
AcDbPoint
 10
498.0936279297
 20
144.0
 30
0.0
  0
POINT
  5
7C65
330
7B81
100
AcDbEntity
  8
DEFPOINTS
  6
CONTINUOUS
 62
     0
100
AcDbPoint
 10
497.1733398437
 20
-114.0
 30
0.0
  0
POINT
  5
7C66
330
7B81
100
AcDbEntity
  8
DEFPOINTS
  6
CONTINUOUS
 62
     0
100
AcDbPoint
 10
709.3317372340639
 20
-114.0
 30
0.0
  0
ENDBLK
  5
7B8C
330
7B81
100
AcDbEntity
  8
0
100
AcDbBlockEnd
  0
BLOCK
  5
7C08
330
7BFE
100
AcDbEntity
  8
0
100
AcDbBlockBegin
  2
*D14
 70
     1
 10
0.0
 20
0.0
 30
0.0
  3
*D14
  1

  0
LINE
  5
7E9D
330
7BFE
100
AcDbEntity
  8
30
  6
CONTINUOUS
 62
     0
100
AcDbLine
 10
507.0
 20
-171.0
 30
0.0
 11
507.0
 21
-230.8800613068346
 31
0.0
  0
LINE
  5
7E9E
330
7BFE
100
AcDbEntity
  8
30
  6
CONTINUOUS
 62
     0
100
AcDbLine
 10
525.0
 20
-159.0
 30
0.0
 11
525.0
 21
-230.8800613068346
 31
0.0
  0
LINE
  5
7E9F
330
7BFE
100
AcDbEntity
  8
30
  6
CONTINUOUS
 62
     0
100
AcDbLine
 10
509.0
 20
-230.3800613068346
 30
0.0
 11
523.0
 21
-230.3800613068346
 31
0.0
  0
INSERT
  5
7EA0
330
7BFE
100
AcDbEntity
  8
30
  6
CONTINUOUS
 62
     0
100
AcDbBlockReference
  2
_OPEN
 10
507.0
 20
-230.3800613068346
 30
0.0
 41
2.0
 42
2.0
 43
2.0
 50
180.0
  0
INSERT
  5
7EA1
330
7BFE
100
AcDbEntity
  8
30
  6
CONTINUOUS
 62
     0
100
AcDbBlockReference
  2
_OPEN
 10
525.0
 20
-230.3800613068346
 30
0.0
 41
2.0
 42
2.0
 43
2.0
  0
MTEXT
  5
7EA2
330
7BFE
100
AcDbEntity
  8
30
  6
CONTINUOUS
 62
     0
100
AcDbMText
 10
516.0
 20
-225.8800613068345
 30
0.0
 40
7.0
 41
0.0
 71
     5
 72
     1
  1
\A1;18
1001
ACAD
1000
MTEXTBEGIN
1070
    73
1070
     1
1070
    44
1040
1.0
1070
    74
1070
     0
1000
MTEXTEND
1000
MTEXTBEGIN
1070
    73
1070
     1
1070
    44
1040
1.0
1070
    74
1070
     0
1000
MTEXTEND
  0
POINT
  5
7EA3
330
7BFE
100
AcDbEntity
  8
DEFPOINTS
  6
CONTINUOUS
 62
     0
100
AcDbPoint
 10
507.0
 20
-170.0
 30
0.0
  0
POINT
  5
7EA4
330
7BFE
100
AcDbEntity
  8
DEFPOINTS
  6
CONTINUOUS
 62
     0
100
AcDbPoint
 10
525.0
 20
-158.0
 30
0.0
  0
POINT
  5
7EA5
330
7BFE
100
AcDbEntity
  8
DEFPOINTS
  6
CONTINUOUS
 62
     0
100
AcDbPoint
 10
525.0
 20
-230.3800613068346
 30
0.0
  0
ENDBLK
  5
7C09
330
7BFE
100
AcDbEntity
  8
0
100
AcDbBlockEnd
  0
BLOCK
  5
7C30
330
7C26
100
AcDbEntity
  8
0
100
AcDbBlockBegin
  2
*D15
 70
     1
 10
0.0
 20
0.0
 30
0.0
  3
*D15
  1

  0
LINE
  5
7C27
330
7C26
100
AcDbEntity
  8
30
  6
CONTINUOUS
 62
     0
100
AcDbLine
 10
619.0
 20
-91.5
 30
0.0
 11
642.3764909405463
 21
-91.5
 31
0.0
  0
LINE
  5
7C28
330
7C26
100
AcDbEntity
  8
30
  6
CONTINUOUS
 62
     0
100
AcDbLine
 10
619.0
 20
-136.4999999999999
 30
0.0
 11
642.3764909405463
 21
-136.4999999999999
 31
0.0
  0
LINE
  5
7C29
330
7C26
100
AcDbEntity
  8
30
  6
CONTINUOUS
 62
     0
100
AcDbLine
 10
641.8764909405463
 20
-93.49999999999999
 30
0.0
 11
641.8764909405463
 21
-134.4999999999999
 31
0.0
  0
INSERT
  5
7C2A
330
7C26
100
AcDbEntity
  8
30
  6
CONTINUOUS
 62
     0
100
AcDbBlockReference
  2
_OPEN
 10
641.8764909405463
 20
-91.5
 30
0.0
 41
2.0
 42
2.0
 43
2.0
 50
90.0
  0
INSERT
  5
7C2B
330
7C26
100
AcDbEntity
  8
30
  6
CONTINUOUS
 62
     0
100
AcDbBlockReference
  2
_OPEN
 10
641.8764909405463
 20
-136.4999999999999
 30
0.0
 41
2.0
 42
2.0
 43
2.0
 50
270.0
  0
MTEXT
  5
7C2C
330
7C26
100
AcDbEntity
  8
30
  6
CONTINUOUS
 62
     0
100
AcDbMText
 10
637.3764909405463
 20
-113.9999999999999
 30
0.0
 40
7.0
 41
0.0
 71
     5
 72
     1
  1
\A1;45
 11
0.0000000000000001
 21
1.0
 31
0.0
1001
ACAD
1000
MTEXTBEGIN
1070
    73
1070
     1
1070
    44
1040
1.0
1070
    74
1070
     0
1000
MTEXTEND
1000
MTEXTBEGIN
1070
    73
1070
     1
1070
    44
1040
1.0
1070
    74
1070
     0
1000
MTEXTEND
  0
POINT
  5
7C2D
330
7C26
100
AcDbEntity
  8
DEFPOINTS
  6
CONTINUOUS
 62
     0
100
AcDbPoint
 10
618.0
 20
-91.5
 30
0.0
  0
POINT
  5
7C2E
330
7C26
100
AcDbEntity
  8
DEFPOINTS
  6
CONTINUOUS
 62
     0
100
AcDbPoint
 10
618.0
 20
-136.4999999999999
 30
0.0
  0
POINT
  5
7C2F
330
7C26
100
AcDbEntity
  8
DEFPOINTS
  6
CONTINUOUS
 62
     0
100
AcDbPoint
 10
641.8764909405463
 20
-136.4999999999999
 30
0.0
  0
ENDBLK
  5
7C31
330
7C26
100
AcDbEntity
  8
0
100
AcDbBlockEnd
  0
BLOCK
  5
7D70
330
7D67
100
AcDbEntity
  8
0
100
AcDbBlockBegin
  2
*D16
 70
     1
 10
0.0
 20
0.0
 30
0.0
  3
*D16
  1

  0
LINE
  5
7D8A
330
7D67
100
AcDbEntity
  8
30
  6
CONTINUOUS
 62
     0
100
AcDbLine
 10
449.2778528542237
 20
-535.666441437328
 30
0.0
 11
434.9445195208901
 21
-535.666441437328
 31
0.0
  0
LINE
  5
7D8B
330
7D67
100
AcDbEntity
  8
30
  6
CONTINUOUS
 62
     0
100
AcDbLine
 10
434.9445195208901
 20
-535.666441437328
 30
0.0
 11
430.1324555320331
 21
-550.1026334038988
 31
0.0
  0
MTEXT
  5
7D8C
330
7D67
100
AcDbEntity
  8
30
  6
CONTINUOUS
 62
     0
100
AcDbMText
 10
443.4445195208905
 20
-531.166441437328
 30
0.0
 40
7.0
 41
0.0
 71
     5
 72
     1
  1
\A1;R6
1001
ACAD
1000
MTEXTBEGIN
1070
    73
1070
     1
1070
    44
1040
1.0
1070
    74
1070
     0
1000
MTEXTEND
1000
MTEXTBEGIN
1070
    73
1070
     1
1070
    44
1040
1.0
1070
    74
1070
     0
1000
MTEXTEND
  0
INSERT
  5
7D8D
330
7D67
100
AcDbEntity
  8
30
  6
CONTINUOUS
 62
     0
100
AcDbBlockReference
  2
_OPEN
 10
429.4999999999993
 20
-552.0
 30
0.0
 41
2.0
 42
2.0
 43
2.0
 50
251.5650511770776
  0
LINE
  5
7D8E
330
7D67
100
AcDbEntity
  8
30
  6
CONTINUOUS
 62
     0
100
AcDbLine
 10
427.3545195208899
 20
-558.1664414373283
 30
0.0
 11
427.5345195208898
 21
-558.1664414373283
 31
0.0
  0
LINE
  5
7D8F
330
7D67
100
AcDbEntity
  8
30
  6
CONTINUOUS
 62
     0
100
AcDbLine
 10
427.4445195208897
 20
-558.2564414373283
 30
0.0
 11
427.4445195208897
 21
-558.0764414373283
 31
0.0
  0
POINT
  5
7D90
330
7D67
100
AcDbEntity
  8
DEFPOINTS
  6
CONTINUOUS
 62
     0
100
AcDbPoint
 10
429.4999999999993
 20
-552.0
 30
0.0
  0
POINT
  5
7D91
330
7D67
100
AcDbEntity
  8
DEFPOINTS
  6
CONTINUOUS
 62
     0
100
AcDbPoint
 10
427.4445195208897
 20
-558.1664414373283
 30
0.0
  0
ENDBLK
  5
7D71
330
7D67
100
AcDbEntity
  8
0
100
AcDbBlockEnd
  0
BLOCK
  5
7D7C
330
7D72
100
AcDbEntity
  8
0
100
AcDbBlockBegin
  2
*D17
 70
     1
 10
0.0
 20
0.0
 30
0.0
  3
*D17
  1

  0
LINE
  5
7D92
330
7D72
100
AcDbEntity
  8
30
  6
CONTINUOUS
 62
     0
100
AcDbLine
 10
354.4999999999998
 20
-645.0
 30
0.0
 11
354.4999999999998
 21
-684.2650401241262
 31
0.0
  0
LINE
  5
7D93
330
7D72
100
AcDbEntity
  8
30
  6
CONTINUOUS
 62
     0
100
AcDbLine
 10
435.5
 20
-645.0
 30
0.0
 11
435.5
 21
-684.2650401241262
 31
0.0
  0
LINE
  5
7D94
330
7D72
100
AcDbEntity
  8
30
  6
CONTINUOUS
 62
     0
100
AcDbLine
 10
356.4999999999998
 20
-683.7650401241262
 30
0.0
 11
433.4999999999998
 21
-683.7650401241262
 31
0.0
  0
INSERT
  5
7D95
330
7D72
100
AcDbEntity
  8
30
  6
CONTINUOUS
 62
     0
100
AcDbBlockReference
  2
_OPEN
 10
354.4999999999998
 20
-683.7650401241262
 30
0.0
 41
2.0
 42
2.0
 43
2.0
 50
180.0
  0
INSERT
  5
7D96
330
7D72
100
AcDbEntity
  8
30
  6
CONTINUOUS
 62
     0
100
AcDbBlockReference
  2
_OPEN
 10
435.5
 20
-683.7650401241262
 30
0.0
 41
2.0
 42
2.0
 43
2.0
  0
MTEXT
  5
7D97
330
7D72
100
AcDbEntity
  8
30
  6
CONTINUOUS
 62
     0
100
AcDbMText
 10
394.9999999999998
 20
-679.2650401241262
 30
0.0
 40
7.0
 41
0.0
 71
     5
 72
     1
  1
\A1;81
1001
ACAD
1000
MTEXTBEGIN
1070
    73
1070
     1
1070
    44
1040
1.0
1070
    74
1070
     0
1000
MTEXTEND
1000
MTEXTBEGIN
1070
    73
1070
     1
1070
    44
1040
1.0
1070
    74
1070
     0
1000
MTEXTEND
  0
POINT
  5
7D98
330
7D72
100
AcDbEntity
  8
DEFPOINTS
  6
CONTINUOUS
 62
     0
100
AcDbPoint
 10
354.4999999999998
 20
-644.0
 30
0.0
  0
POINT
  5
7D99
330
7D72
100
AcDbEntity
  8
DEFPOINTS
  6
CONTINUOUS
 62
     0
100
AcDbPoint
 10
435.5
 20
-644.0
 30
0.0
  0
POINT
  5
7D9A
330
7D72
100
AcDbEntity
  8
DEFPOINTS
  6
CONTINUOUS
 62
     0
100
AcDbPoint
 10
435.5
 20
-683.7650401241262
 30
0.0
  0
ENDBLK
  5
7D7D
330
7D72
100
AcDbEntity
  8
0
100
AcDbBlockEnd
  0
BLOCK
  5
7D88
330
7D7E
100
AcDbEntity
  8
0
100
AcDbBlockBegin
  2
*D18
 70
     1
 10
0.0
 20
0.0
 30
0.0
  3
*D18
  1

  0
LINE
  5
7D9B
330
7D7E
100
AcDbEntity
  8
30
  6
CONTINUOUS
 62
     0
100
AcDbLine
 10
359.4999999999998
 20
-552.0
 30
0.0
 11
332.597286732649
 21
-552.0
 31
0.0
  0
LINE
  5
7D9C
330
7D7E
100
AcDbEntity
  8
30
  6
CONTINUOUS
 62
     0
100
AcDbLine
 10
359.4999999999998
 20
-650.0
 30
0.0
 11
332.597286732649
 21
-650.0
 31
0.0
  0
LINE
  5
7D9D
330
7D7E
100
AcDbEntity
  8
30
  6
CONTINUOUS
 62
     0
100
AcDbLine
 10
333.097286732649
 20
-554.0
 30
0.0
 11
333.097286732649
 21
-648.0
 31
0.0
  0
INSERT
  5
7D9E
330
7D7E
100
AcDbEntity
  8
30
  6
CONTINUOUS
 62
     0
100
AcDbBlockReference
  2
_OPEN
 10
333.097286732649
 20
-552.0
 30
0.0
 41
2.0
 42
2.0
 43
2.0
 50
90.0
  0
INSERT
  5
7D9F
330
7D7E
100
AcDbEntity
  8
30
  6
CONTINUOUS
 62
     0
100
AcDbBlockReference
  2
_OPEN
 10
333.097286732649
 20
-650.0
 30
0.0
 41
2.0
 42
2.0
 43
2.0
 50
270.0
  0
MTEXT
  5
7DA0
330
7D7E
100
AcDbEntity
  8
30
  6
CONTINUOUS
 62
     0
100
AcDbMText
 10
328.5972867326491
 20
-600.9999999999998
 30
0.0
 40
7.0
 41
0.0
 71
     5
 72
     1
  1
\A1;98
 11
0.0000000000000001
 21
1.0
 31
0.0
1001
ACAD
1000
MTEXTBEGIN
1070
    73
1070
     1
1070
    44
1040
1.0
1070
    74
1070
     0
1000
MTEXTEND
1000
MTEXTBEGIN
1070
    73
1070
     1
1070
    44
1040
1.0
1070
    74
1070
     0
1000
MTEXTEND
  0
POINT
  5
7DA1
330
7D7E
100
AcDbEntity
  8
DEFPOINTS
  6
CONTINUOUS
 62
     0
100
AcDbPoint
 10
360.4999999999998
 20
-552.0
 30
0.0
  0
POINT
  5
7DA2
330
7D7E
100
AcDbEntity
  8
DEFPOINTS
  6
CONTINUOUS
 62
     0
100
AcDbPoint
 10
360.4999999999998
 20
-650.0
 30
0.0
  0
POINT
  5
7DA3
330
7D7E
100
AcDbEntity
  8
DEFPOINTS
  6
CONTINUOUS
 62
     0
100
AcDbPoint
 10
333.097286732649
 20
-650.0
 30
0.0
  0
ENDBLK
  5
7D89
330
7D7E
100
AcDbEntity
  8
0
100
AcDbBlockEnd
  0
BLOCK
  5
7E43
330
7E39
100
AcDbEntity
  8
0
100
AcDbBlockBegin
  2
*D19
 70
     1
 10
0.0
 20
0.0
 30
0.0
  3
*D19
  1

  0
LINE
  5
7E3A
330
7E39
100
AcDbEntity
  8
30
  6
CONTINUOUS
 62
     0
100
AcDbLine
 10
-114.9999999999999
 20
-746.0
 30
0.0
 11
-114.9999999999999
 21
-840.1783846693716
 31
0.0
  0
LINE
  5
7E3B
330
7E39
100
AcDbEntity
  8
30
  6
CONTINUOUS
 62
     0
100
AcDbLine
 10
115.0
 20
-746.0
 30
0.0
 11
115.0
 21
-840.1783846693716
 31
0.0
  0
LINE
  5
7E3C
330
7E39
100
AcDbEntity
  8
30
  6
CONTINUOUS
 62
     0
100
AcDbLine
 10
-112.9999999999999
 20
-839.6783846693715
 30
0.0
 11
113.0
 21
-839.6783846693715
 31
0.0
  0
INSERT
  5
7E3D
330
7E39
100
AcDbEntity
  8
30
  6
CONTINUOUS
 62
     0
100
AcDbBlockReference
  2
_OPEN
 10
-114.9999999999999
 20
-839.6783846693715
 30
0.0
 41
2.0
 42
2.0
 43
2.0
 50
180.0
  0
INSERT
  5
7E3E
330
7E39
100
AcDbEntity
  8
30
  6
CONTINUOUS
 62
     0
100
AcDbBlockReference
  2
_OPEN
 10
115.0
 20
-839.6783846693715
 30
0.0
 41
2.0
 42
2.0
 43
2.0
  0
MTEXT
  5
7E3F
330
7E39
100
AcDbEntity
  8
30
  6
CONTINUOUS
 62
     0
100
AcDbMText
 10
0.0000000000000287
 20
-835.1783846693715
 30
0.0
 40
7.0
 41
0.0
 71
     5
 72
     1
  1
\A1;230
1001
ACAD
1000
MTEXTBEGIN
1070
    73
1070
     1
1070
    44
1040
1.0
1070
    74
1070
     0
1000
MTEXTEND
1000
MTEXTBEGIN
1070
    73
1070
     1
1070
    44
1040
1.0
1070
    74
1070
     0
1000
MTEXTEND
  0
POINT
  5
7E40
330
7E39
100
AcDbEntity
  8
DEFPOINTS
  6
CONTINUOUS
 62
     0
100
AcDbPoint
 10
-114.9999999999999
 20
-745.0
 30
0.0
  0
POINT
  5
7E41
330
7E39
100
AcDbEntity
  8
DEFPOINTS
  6
CONTINUOUS
 62
     0
100
AcDbPoint
 10
115.0
 20
-745.0
 30
0.0
  0
POINT
  5
7E42
330
7E39
100
AcDbEntity
  8
DEFPOINTS
  6
CONTINUOUS
 62
     0
100
AcDbPoint
 10
115.0
 20
-839.6783846693715
 30
0.0
  0
ENDBLK
  5
7E44
330
7E39
100
AcDbEntity
  8
0
100
AcDbBlockEnd
  0
BLOCK
  5
7E50
330
7E46
100
AcDbEntity
  8
0
100
AcDbBlockBegin
  2
*D20
 70
     1
 10
0.0
 20
0.0
 30
0.0
  3
*D20
  1

  0
LINE
  5
7E47
330
7E46
100
AcDbEntity
  8
30
  6
CONTINUOUS
 62
     0
100
AcDbLine
 10
116.0
 20
-427.0
 30
0.0
 11
152.220592731065
 21
-427.0
 31
0.0
  0
LINE
  5
7E48
330
7E46
100
AcDbEntity
  8
30
  6
CONTINUOUS
 62
     0
100
AcDbLine
 10
116.0
 20
-500.0
 30
0.0
 11
152.220592731065
 21
-500.0
 31
0.0
  0
LINE
  5
7E49
330
7E46
100
AcDbEntity
  8
30
  6
CONTINUOUS
 62
     0
100
AcDbLine
 10
151.7205927310651
 20
-429.0
 30
0.0
 11
151.7205927310651
 21
-498.0
 31
0.0
  0
INSERT
  5
7E4A
330
7E46
100
AcDbEntity
  8
30
  6
CONTINUOUS
 62
     0
100
AcDbBlockReference
  2
_OPEN
 10
151.7205927310651
 20
-427.0
 30
0.0
 41
2.0
 42
2.0
 43
2.0
 50
90.0
  0
INSERT
  5
7E4B
330
7E46
100
AcDbEntity
  8
30
  6
CONTINUOUS
 62
     0
100
AcDbBlockReference
  2
_OPEN
 10
151.7205927310651
 20
-500.0
 30
0.0
 41
2.0
 42
2.0
 43
2.0
 50
270.0
  0
MTEXT
  5
7E4C
330
7E46
100
AcDbEntity
  8
30
  6
CONTINUOUS
 62
     0
100
AcDbMText
 10
147.2205927310652
 20
-463.4999999999998
 30
0.0
 40
7.0
 41
0.0
 71
     5
 72
     1
  1
\A1;73
 11
0.0000000000000001
 21
1.0
 31
0.0
1001
ACAD
1000
MTEXTBEGIN
1070
    73
1070
     1
1070
    44
1040
1.0
1070
    74
1070
     0
1000
MTEXTEND
1000
MTEXTBEGIN
1070
    73
1070
     1
1070
    44
1040
1.0
1070
    74
1070
     0
1000
MTEXTEND
  0
POINT
  5
7E4D
330
7E46
100
AcDbEntity
  8
DEFPOINTS
  6
CONTINUOUS
 62
     0
100
AcDbPoint
 10
115.0
 20
-427.0
 30
0.0
  0
POINT
  5
7E4E
330
7E46
100
AcDbEntity
  8
DEFPOINTS
  6
CONTINUOUS
 62
     0
100
AcDbPoint
 10
115.0
 20
-500.0
 30
0.0
  0
POINT
  5
7E4F
330
7E46
100
AcDbEntity
  8
DEFPOINTS
  6
CONTINUOUS
 62
     0
100
AcDbPoint
 10
151.7205927310651
 20
-500.0
 30
0.0
  0
ENDBLK
  5
7E51
330
7E46
100
AcDbEntity
  8
0
100
AcDbBlockEnd
  0
BLOCK
  5
7E5D
330
7E53
100
AcDbEntity
  8
0
100
AcDbBlockBegin
  2
*D21
 70
     1
 10
0.0
 20
0.0
 30
0.0
  3
*D21
  1

  0
LINE
  5
7E5F
330
7E53
100
AcDbEntity
  8
30
  6
CONTINUOUS
 62
     0
100
AcDbLine
 10
117.0
 20
-500.0
 30
0.0
 11
152.7205927310651
 21
-500.0
 31
0.0
  0
LINE
  5
7E60
330
7E53
100
AcDbEntity
  8
30
  6
CONTINUOUS
 62
     0
100
AcDbLine
 10
106.0
 20
-601.0
 30
0.0
 11
152.7205927310651
 21
-601.0
 31
0.0
  0
LINE
  5
7E61
330
7E53
100
AcDbEntity
  8
30
  6
CONTINUOUS
 62
     0
100
AcDbLine
 10
152.220592731065
 20
-502.0
 30
0.0
 11
152.220592731065
 21
-599.0
 31
0.0
  0
INSERT
  5
7E62
330
7E53
100
AcDbEntity
  8
30
  6
CONTINUOUS
 62
     0
100
AcDbBlockReference
  2
_OPEN
 10
152.220592731065
 20
-500.0
 30
0.0
 41
2.0
 42
2.0
 43
2.0
 50
90.0
  0
INSERT
  5
7E63
330
7E53
100
AcDbEntity
  8
30
  6
CONTINUOUS
 62
     0
100
AcDbBlockReference
  2
_OPEN
 10
152.220592731065
 20
-601.0
 30
0.0
 41
2.0
 42
2.0
 43
2.0
 50
270.0
  0
MTEXT
  5
7E64
330
7E53
100
AcDbEntity
  8
30
  6
CONTINUOUS
 62
     0
100
AcDbMText
 10
147.7205927310652
 20
-550.4999999999999
 30
0.0
 40
7.0
 41
0.0
 71
     5
 72
     1
  1
\A1;101
 11
0.0000000000000001
 21
1.0
 31
0.0
1001
ACAD
1000
MTEXTBEGIN
1070
    73
1070
     1
1070
    44
1040
1.0
1070
    74
1070
     0
1000
MTEXTEND
1000
MTEXTBEGIN
1070
    73
1070
     1
1070
    44
1040
1.0
1070
    74
1070
     0
1000
MTEXTEND
  0
POINT
  5
7E65
330
7E53
100
AcDbEntity
  8
DEFPOINTS
  6
CONTINUOUS
 62
     0
100
AcDbPoint
 10
116.0
 20
-500.0
 30
0.0
  0
POINT
  5
7E66
330
7E53
100
AcDbEntity
  8
DEFPOINTS
  6
CONTINUOUS
 62
     0
100
AcDbPoint
 10
105.0
 20
-601.0
 30
0.0
  0
POINT
  5
7E67
330
7E53
100
AcDbEntity
  8
DEFPOINTS
  6
CONTINUOUS
 62
     0
100
AcDbPoint
 10
152.220592731065
 20
-601.0
 30
0.0
  0
ENDBLK
  5
7E5E
330
7E53
100
AcDbEntity
  8
0
100
AcDbBlockEnd
  0
BLOCK
  5
7E73
330
7E69
100
AcDbEntity
  8
0
100
AcDbBlockBegin
  2
*D22
 70
     1
 10
0.0
 20
0.0
 30
0.0
  3
*D22
  1

  0
LINE
  5
82C5
330
7E69
100
AcDbEntity
  8
30
  6
CONTINUOUS
 62
     0
100
AcDbLine
 10
106.0
 20
-601.0
 30
0.0
 11
152.7205927310651
 21
-601.0
 31
0.0
  0
LINE
  5
82C6
330
7E69
100
AcDbEntity
  8
30
  6
CONTINUOUS
 62
     0
100
AcDbLine
 10
116.0
 20
-672.0
 30
0.0
 11
152.7205927310651
 21
-672.0
 31
0.0
  0
LINE
  5
82C7
330
7E69
100
AcDbEntity
  8
30
  6
CONTINUOUS
 62
     0
100
AcDbLine
 10
152.220592731065
 20
-603.0
 30
0.0
 11
152.220592731065
 21
-670.0
 31
0.0
  0
INSERT
  5
82C8
330
7E69
100
AcDbEntity
  8
30
  6
CONTINUOUS
 62
     0
100
AcDbBlockReference
  2
_OPEN
 10
152.220592731065
 20
-601.0
 30
0.0
 41
2.0
 42
2.0
 43
2.0
 50
90.0
  0
INSERT
  5
82C9
330
7E69
100
AcDbEntity
  8
30
  6
CONTINUOUS
 62
     0
100
AcDbBlockReference
  2
_OPEN
 10
152.220592731065
 20
-672.0
 30
0.0
 41
2.0
 42
2.0
 43
2.0
 50
270.0
  0
MTEXT
  5
82CA
330
7E69
100
AcDbEntity
  8
30
  6
CONTINUOUS
 62
     0
100
AcDbMText
 10
147.7205927310652
 20
-636.5
 30
0.0
 40
7.0
 41
0.0
 71
     5
 72
     1
  1
\A1;71
 11
0.0000000000000001
 21
1.0
 31
0.0
  0
POINT
  5
82CB
330
7E69
100
AcDbEntity
  8
DEFPOINTS
  6
CONTINUOUS
 62
     0
100
AcDbPoint
 10
105.0
 20
-601.0
 30
0.0
  0
POINT
  5
82CC
330
7E69
100
AcDbEntity
  8
DEFPOINTS
  6
CONTINUOUS
 62
     0
100
AcDbPoint
 10
115.0
 20
-672.0
 30
0.0
  0
POINT
  5
82CD
330
7E69
100
AcDbEntity
  8
DEFPOINTS
  6
CONTINUOUS
 62
     0
100
AcDbPoint
 10
152.220592731065
 20
-672.0
 30
0.0
  0
ENDBLK
  5
7E74
330
7E69
100
AcDbEntity
  8
0
100
AcDbBlockEnd
  0
BLOCK
  5
7E80
330
7E76
100
AcDbEntity
  8
0
100
AcDbBlockBegin
  2
*D23
 70
     1
 10
0.0
 20
0.0
 30
0.0
  3
*D23
  1

  0
LINE
  5
82CE
330
7E76
100
AcDbEntity
  8
30
  6
CONTINUOUS
 62
     0
100
AcDbLine
 10
116.0
 20
-672.0
 30
0.0
 11
152.720592731065
 21
-672.0
 31
0.0
  0
LINE
  5
82CF
330
7E76
100
AcDbEntity
  8
30
  6
CONTINUOUS
 62
     0
100
AcDbLine
 10
116.0
 20
-745.0
 30
0.0
 11
152.720592731065
 21
-745.0
 31
0.0
  0
LINE
  5
82D0
330
7E76
100
AcDbEntity
  8
30
  6
CONTINUOUS
 62
     0
100
AcDbLine
 10
152.220592731065
 20
-674.0
 30
0.0
 11
152.220592731065
 21
-743.0
 31
0.0
  0
INSERT
  5
82D1
330
7E76
100
AcDbEntity
  8
30
  6
CONTINUOUS
 62
     0
100
AcDbBlockReference
  2
_OPEN
 10
152.220592731065
 20
-672.0
 30
0.0
 41
2.0
 42
2.0
 43
2.0
 50
90.0
  0
INSERT
  5
82D2
330
7E76
100
AcDbEntity
  8
30
  6
CONTINUOUS
 62
     0
100
AcDbBlockReference
  2
_OPEN
 10
152.220592731065
 20
-745.0
 30
0.0
 41
2.0
 42
2.0
 43
2.0
 50
270.0
  0
MTEXT
  5
82D3
330
7E76
100
AcDbEntity
  8
30
  6
CONTINUOUS
 62
     0
100
AcDbMText
 10
147.7205927310651
 20
-708.4999999999999
 30
0.0
 40
7.0
 41
0.0
 71
     5
 72
     1
  1
\A1;73
 11
0.0000000000000001
 21
1.0
 31
0.0
  0
POINT
  5
82D4
330
7E76
100
AcDbEntity
  8
DEFPOINTS
  6
CONTINUOUS
 62
     0
100
AcDbPoint
 10
115.0
 20
-672.0
 30
0.0
  0
POINT
  5
82D5
330
7E76
100
AcDbEntity
  8
DEFPOINTS
  6
CONTINUOUS
 62
     0
100
AcDbPoint
 10
115.0
 20
-745.0
 30
0.0
  0
POINT
  5
82D6
330
7E76
100
AcDbEntity
  8
DEFPOINTS
  6
CONTINUOUS
 62
     0
100
AcDbPoint
 10
152.220592731065
 20
-745.0
 30
0.0
  0
ENDBLK
  5
7E81
330
7E76
100
AcDbEntity
  8
0
100
AcDbBlockEnd
  0
BLOCK
  5
7F7D
330
7F73
100
AcDbEntity
  8
0
100
AcDbBlockBegin
  2
*D24
 70
     1
 10
0.0
 20
0.0
 30
0.0
  3
*D24
  1

  0
LINE
  5
7F74
330
7F73
100
AcDbEntity
  8
30
  6
CONTINUOUS
 62
     0
100
AcDbLine
 10
69.99999999989995
 20
536.0935058594
 30
0.0
 11
69.99999999989995
 21
638.6775657769192
 31
0.0
  0
LINE
  5
7F75
330
7F73
100
AcDbEntity
  8
30
  6
CONTINUOUS
 62
     0
100
AcDbLine
 10
140.0
 20
536.0935058594
 30
0.0
 11
140.0
 21
638.6775657769192
 31
0.0
  0
LINE
  5
7F76
330
7F73
100
AcDbEntity
  8
30
  6
CONTINUOUS
 62
     0
100
AcDbLine
 10
71.99999999989995
 20
638.1775657769192
 30
0.0
 11
138.0
 21
638.1775657769192
 31
0.0
  0
INSERT
  5
7F77
330
7F73
100
AcDbEntity
  8
30
  6
CONTINUOUS
 62
     0
100
AcDbBlockReference
  2
_OPEN
 10
69.99999999989995
 20
638.1775657769192
 30
0.0
 41
2.0
 42
2.0
 43
2.0
 50
180.0
  0
INSERT
  5
7F78
330
7F73
100
AcDbEntity
  8
30
  6
CONTINUOUS
 62
     0
100
AcDbBlockReference
  2
_OPEN
 10
140.0
 20
638.1775657769192
 30
0.0
 41
2.0
 42
2.0
 43
2.0
  0
MTEXT
  5
7F79
330
7F73
100
AcDbEntity
  8
30
  6
CONTINUOUS
 62
     0
100
AcDbMText
 10
103.6621621621633
 20
643.6775657769191
 30
0.0
 40
7.0
 41
0.0
 71
     5
 72
     1
  1
\A1;70
1001
ACAD
1000
MTEXTBEGIN
1070
    73
1070
     1
1070
    44
1040
1.0
1070
    74
1070
     0
1000
MTEXTEND
1000
MTEXTBEGIN
1070
    73
1070
     1
1070
    44
1040
1.0
1070
    74
1070
     0
1000
MTEXTEND
  0
POINT
  5
7F7A
330
7F73
100
AcDbEntity
  8
DEFPOINTS
  6
CONTINUOUS
 62
     0
100
AcDbPoint
 10
69.99999999989995
 20
535.0935058594
 30
0.0
  0
POINT
  5
7F7B
330
7F73
100
AcDbEntity
  8
DEFPOINTS
  6
CONTINUOUS
 62
     0
100
AcDbPoint
 10
140.0
 20
535.0935058594
 30
0.0
  0
POINT
  5
7F7C
330
7F73
100
AcDbEntity
  8
DEFPOINTS
  6
CONTINUOUS
 62
     0
100
AcDbPoint
 10
140.0
 20
638.1775657769192
 30
0.0
  0
ENDBLK
  5
7F7E
330
7F73
100
AcDbEntity
  8
0
100
AcDbBlockEnd
  0
BLOCK
  5
7F89
330
7F7F
100
AcDbEntity
  8
0
100
AcDbBlockBegin
  2
*D25
 70
     1
 10
0.0
 20
0.0
 30
0.0
  3
*D25
  1

  0
LINE
  5
7F80
330
7F7F
100
AcDbEntity
  8
30
  6
CONTINUOUS
 62
     0
100
AcDbLine
 10
-97.0932617188
 20
319.0
 30
0.0
 11
-156.5281498131598
 21
319.0
 31
0.0
  0
LINE
  5
7F81
330
7F7F
100
AcDbEntity
  8
30
  6
CONTINUOUS
 62
     0
100
AcDbLine
 10
-147.0932617187999
 20
439.0
 30
0.0
 11
-156.5281498131598
 21
439.0
 31
0.0
  0
LINE
  5
7F82
330
7F7F
100
AcDbEntity
  8
30
  6
CONTINUOUS
 62
     0
100
AcDbLine
 10
-156.0281498131598
 20
321.0
 30
0.0
 11
-156.0281498131598
 21
437.0
 31
0.0
  0
INSERT
  5
7F83
330
7F7F
100
AcDbEntity
  8
30
  6
CONTINUOUS
 62
     0
100
AcDbBlockReference
  2
_OPEN
 10
-156.0281498131598
 20
319.0
 30
0.0
 41
2.0
 42
2.0
 43
2.0
 50
270.0
  0
INSERT
  5
7F84
330
7F7F
100
AcDbEntity
  8
30
  6
CONTINUOUS
 62
     0
100
AcDbBlockReference
  2
_OPEN
 10
-156.0281498131598
 20
439.0
 30
0.0
 41
2.0
 42
2.0
 43
2.0
 50
90.0
  0
MTEXT
  5
7F85
330
7F7F
100
AcDbEntity
  8
30
  6
CONTINUOUS
 62
     0
100
AcDbMText
 10
-161.5281498131598
 20
381.2105270534256
 30
0.0
 40
7.0
 41
0.0
 71
     5
 72
     1
  1
\A1;120
 11
0.0000000000000001
 21
1.0
 31
0.0
1001
ACAD
1000
MTEXTBEGIN
1070
    73
1070
     1
1070
    44
1040
1.0
1070
    74
1070
     0
1000
MTEXTEND
1000
MTEXTBEGIN
1070
    73
1070
     1
1070
    44
1040
1.0
1070
    74
1070
     0
1000
MTEXTEND
  0
POINT
  5
7F86
330
7F7F
100
AcDbEntity
  8
DEFPOINTS
  6
CONTINUOUS
 62
     0
100
AcDbPoint
 10
-96.09326171880001
 20
319.0
 30
0.0
  0
POINT
  5
7F87
330
7F7F
100
AcDbEntity
  8
DEFPOINTS
  6
CONTINUOUS
 62
     0
100
AcDbPoint
 10
-146.0932617187999
 20
439.0
 30
0.0
  0
POINT
  5
7F88
330
7F7F
100
AcDbEntity
  8
DEFPOINTS
  6
CONTINUOUS
 62
     0
100
AcDbPoint
 10
-156.0281498131598
 20
439.0
 30
0.0
  0
ENDBLK
  5
7F8A
330
7F7F
100
AcDbEntity
  8
0
100
AcDbBlockEnd
  0
BLOCK
  5
7F95
330
7F8B
100
AcDbEntity
  8
0
100
AcDbBlockBegin
  2
*D26
 70
     1
 10
0.0
 20
0.0
 30
0.0
  3
*D26
  1

  0
LINE
  5
7F8C
330
7F8B
100
AcDbEntity
  8
30
  6
CONTINUOUS
 62
     0
100
AcDbLine
 10
-22.5
 20
551.0935058593998
 30
0.0
 11
-22.49999999999999
 21
604.5800781250027
 31
0.0
  0
LINE
  5
7F8D
330
7F8B
100
AcDbEntity
  8
30
  6
CONTINUOUS
 62
     0
100
AcDbLine
 10
22.5
 20
551.0935058593998
 30
0.0
 11
22.5
 21
604.5800781250027
 31
0.0
  0
LINE
  5
7F8E
330
7F8B
100
AcDbEntity
  8
30
  6
CONTINUOUS
 62
     0
100
AcDbLine
 10
-20.49999999999998
 20
604.0800781250027
 30
0.0
 11
20.5
 21
604.0800781250027
 31
0.0
  0
INSERT
  5
7F8F
330
7F8B
100
AcDbEntity
  8
30
  6
CONTINUOUS
 62
     0
100
AcDbBlockReference
  2
_OPEN
 10
-22.49999999999999
 20
604.0800781250027
 30
0.0
 41
2.0
 42
2.0
 43
2.0
 50
180.0
  0
INSERT
  5
7F90
330
7F8B
100
AcDbEntity
  8
30
  6
CONTINUOUS
 62
     0
100
AcDbBlockReference
  2
_OPEN
 10
22.5
 20
604.0800781250027
 30
0.0
 41
2.0
 42
2.0
 43
2.0
  0
MTEXT
  5
7F91
330
7F8B
100
AcDbEntity
  8
30
  6
CONTINUOUS
 62
     0
100
AcDbMText
 10
-1.337837837836671
 20
609.5800781250027
 30
0.0
 40
7.0
 41
0.0
 71
     5
 72
     1
  1
\A1;45
1001
ACAD
1000
MTEXTBEGIN
1070
    73
1070
     1
1070
    44
1040
1.0
1070
    74
1070
     0
1000
MTEXTEND
1000
MTEXTBEGIN
1070
    73
1070
     1
1070
    44
1040
1.0
1070
    74
1070
     0
1000
MTEXTEND
  0
POINT
  5
7F92
330
7F8B
100
AcDbEntity
  8
DEFPOINTS
  6
CONTINUOUS
 62
     0
100
AcDbPoint
 10
-22.5
 20
550.0935058594
 30
0.0
  0
POINT
  5
7F93
330
7F8B
100
AcDbEntity
  8
DEFPOINTS
  6
CONTINUOUS
 62
     0
100
AcDbPoint
 10
22.5
 20
550.0935058594
 30
0.0
  0
POINT
  5
7F94
330
7F8B
100
AcDbEntity
  8
DEFPOINTS
  6
CONTINUOUS
 62
     0
100
AcDbPoint
 10
22.5
 20
604.0800781250027
 30
0.0
  0
ENDBLK
  5
7F96
330
7F8B
100
AcDbEntity
  8
0
100
AcDbBlockEnd
  0
BLOCK
  5
7FA1
330
7F97
100
AcDbEntity
  8
0
100
AcDbBlockBegin
  2
*D27
 70
     1
 10
0.0
 20
0.0
 30
0.0
  3
*D27
  1

  0
LINE
  5
7F98
330
7F97
100
AcDbEntity
  8
30
  6
CONTINUOUS
 62
     0
100
AcDbLine
 10
0.0000000000000001
 20
536.0935058594
 30
0.0
 11
0.0000000000000063
 21
638.6775657769192
 31
0.0
  0
LINE
  5
7F99
330
7F97
100
AcDbEntity
  8
30
  6
CONTINUOUS
 62
     0
100
AcDbLine
 10
69.99999999989995
 20
536.0935058594
 30
0.0
 11
69.99999999989995
 21
638.6775657769192
 31
0.0
  0
LINE
  5
7F9A
330
7F97
100
AcDbEntity
  8
30
  6
CONTINUOUS
 62
     0
100
AcDbLine
 10
2.000000000000005
 20
638.1775657769192
 30
0.0
 11
67.99999999989996
 21
638.1775657769192
 31
0.0
  0
INSERT
  5
7F9B
330
7F97
100
AcDbEntity
  8
30
  6
CONTINUOUS
 62
     0
100
AcDbBlockReference
  2
_OPEN
 10
0.0000000000000063
 20
638.1775657769192
 30
0.0
 41
2.0
 42
2.0
 43
2.0
 50
180.0
  0
INSERT
  5
7F9C
330
7F97
100
AcDbEntity
  8
30
  6
CONTINUOUS
 62
     0
100
AcDbBlockReference
  2
_OPEN
 10
69.99999999989995
 20
638.1775657769192
 30
0.0
 41
2.0
 42
2.0
 43
2.0
  0
MTEXT
  5
7F9D
330
7F97
100
AcDbEntity
  8
30
  6
CONTINUOUS
 62
     0
100
AcDbMText
 10
33.66216216216332
 20
643.6775657769191
 30
0.0
 40
7.0
 41
0.0
 71
     5
 72
     1
  1
\A1;70
1001
ACAD
1000
MTEXTBEGIN
1070
    73
1070
     1
1070
    44
1040
1.0
1070
    74
1070
     0
1000
MTEXTEND
1000
MTEXTBEGIN
1070
    73
1070
     1
1070
    44
1040
1.0
1070
    74
1070
     0
1000
MTEXTEND
  0
POINT
  5
7F9E
330
7F97
100
AcDbEntity
  8
DEFPOINTS
  6
CONTINUOUS
 62
     0
100
AcDbPoint
 10
0.0
 20
535.0935058594
 30
0.0
  0
POINT
  5
7F9F
330
7F97
100
AcDbEntity
  8
DEFPOINTS
  6
CONTINUOUS
 62
     0
100
AcDbPoint
 10
69.99999999989995
 20
535.0935058594
 30
0.0
  0
POINT
  5
7FA0
330
7F97
100
AcDbEntity
  8
DEFPOINTS
  6
CONTINUOUS
 62
     0
100
AcDbPoint
 10
69.99999999989995
 20
638.1775657769192
 30
0.0
  0
ENDBLK
  5
7FA2
330
7F97
100
AcDbEntity
  8
0
100
AcDbBlockEnd
  0
BLOCK
  5
7FAD
330
7FA3
100
AcDbEntity
  8
0
100
AcDbBlockBegin
  2
*D28
 70
     1
 10
0.0
 20
0.0
 30
0.0
  3
*D28
  1

  0
LINE
  5
7FA4
330
7FA3
100
AcDbEntity
  8
30
  6
CONTINUOUS
 62
     0
100
AcDbLine
 10
-70.0
 20
536.0935058594
 30
0.0
 11
-70.0
 21
638.6775657769192
 31
0.0
  0
LINE
  5
7FA5
330
7FA3
100
AcDbEntity
  8
30
  6
CONTINUOUS
 62
     0
100
AcDbLine
 10
0.0000000000000001
 20
536.0935058594
 30
0.0
 11
0.0000000000000063
 21
638.6775657769192
 31
0.0
  0
LINE
  5
7FA6
330
7FA3
100
AcDbEntity
  8
30
  6
CONTINUOUS
 62
     0
100
AcDbLine
 10
-68.0
 20
638.1775657769192
 30
0.0
 11
-1.999999999999993
 21
638.1775657769192
 31
0.0
  0
INSERT
  5
7FA7
330
7FA3
100
AcDbEntity
  8
30
  6
CONTINUOUS
 62
     0
100
AcDbBlockReference
  2
_OPEN
 10
-70.0
 20
638.1775657769192
 30
0.0
 41
2.0
 42
2.0
 43
2.0
 50
180.0
  0
INSERT
  5
7FA8
330
7FA3
100
AcDbEntity
  8
30
  6
CONTINUOUS
 62
     0
100
AcDbBlockReference
  2
_OPEN
 10
0.0000000000000063
 20
638.1775657769192
 30
0.0
 41
2.0
 42
2.0
 43
2.0
  0
MTEXT
  5
7FA9
330
7FA3
100
AcDbEntity
  8
30
  6
CONTINUOUS
 62
     0
100
AcDbMText
 10
-36.33783783783667
 20
643.6775657769191
 30
0.0
 40
7.0
 41
0.0
 71
     5
 72
     1
  1
\A1;70
1001
ACAD
1000
MTEXTBEGIN
1070
    73
1070
     1
1070
    44
1040
1.0
1070
    74
1070
     0
1000
MTEXTEND
1000
MTEXTBEGIN
1070
    73
1070
     1
1070
    44
1040
1.0
1070
    74
1070
     0
1000
MTEXTEND
  0
POINT
  5
7FAA
330
7FA3
100
AcDbEntity
  8
DEFPOINTS
  6
CONTINUOUS
 62
     0
100
AcDbPoint
 10
-70.0
 20
535.0935058594
 30
0.0
  0
POINT
  5
7FAB
330
7FA3
100
AcDbEntity
  8
DEFPOINTS
  6
CONTINUOUS
 62
     0
100
AcDbPoint
 10
0.0
 20
535.0935058594
 30
0.0
  0
POINT
  5
7FAC
330
7FA3
100
AcDbEntity
  8
DEFPOINTS
  6
CONTINUOUS
 62
     0
100
AcDbPoint
 10
0.0000000000000063
 20
638.1775657769192
 30
0.0
  0
ENDBLK
  5
7FAE
330
7FA3
100
AcDbEntity
  8
0
100
AcDbBlockEnd
  0
BLOCK
  5
7FB9
330
7FAF
100
AcDbEntity
  8
0
100
AcDbBlockBegin
  2
*D29
 70
     1
 10
0.0
 20
0.0
 30
0.0
  3
*D29
  1

  0
LINE
  5
7FB0
330
7FAF
100
AcDbEntity
  8
30
  6
CONTINUOUS
 62
     0
100
AcDbLine
 10
-147.0932617187999
 20
439.0
 30
0.0
 11
-156.5281498288054
 21
439.0
 31
0.0
  0
LINE
  5
7FB1
330
7FAF
100
AcDbEntity
  8
30
  6
CONTINUOUS
 62
     0
100
AcDbLine
 10
-84.59350585940001
 20
550.0
 30
0.0
 11
-156.5281498288053
 21
550.0
 31
0.0
  0
LINE
  5
7FB2
330
7FAF
100
AcDbEntity
  8
30
  6
CONTINUOUS
 62
     0
100
AcDbLine
 10
-156.0281498288054
 20
441.0
 30
0.0
 11
-156.0281498288053
 21
548.0
 31
0.0
  0
INSERT
  5
7FB3
330
7FAF
100
AcDbEntity
  8
30
  6
CONTINUOUS
 62
     0
100
AcDbBlockReference
  2
_OPEN
 10
-156.0281498288054
 20
439.0
 30
0.0
 41
2.0
 42
2.0
 43
2.0
 50
270.0
  0
INSERT
  5
7FB4
330
7FAF
100
AcDbEntity
  8
30
  6
CONTINUOUS
 62
     0
100
AcDbBlockReference
  2
_OPEN
 10
-156.0281498288053
 20
550.0
 30
0.0
 41
2.0
 42
2.0
 43
2.0
 50
90.0
  0
MTEXT
  5
7FB5
330
7FAF
100
AcDbEntity
  8
30
  6
CONTINUOUS
 62
     0
100
AcDbMText
 10
-161.5281498288053
 20
496.3529419141064
 30
0.0
 40
7.0
 41
0.0
 71
     5
 72
     1
  1
\A1;111
 11
0.0000000000000001
 21
1.0
 31
0.0
1001
ACAD
1000
MTEXTBEGIN
1070
    73
1070
     1
1070
    44
1040
1.0
1070
    74
1070
     0
1000
MTEXTEND
1000
MTEXTBEGIN
1070
    73
1070
     1
1070
    44
1040
1.0
1070
    74
1070
     0
1000
MTEXTEND
  0
POINT
  5
7FB6
330
7FAF
100
AcDbEntity
  8
DEFPOINTS
  6
CONTINUOUS
 62
     0
100
AcDbPoint
 10
-146.0932617187999
 20
439.0
 30
0.0
  0
POINT
  5
7FB7
330
7FAF
100
AcDbEntity
  8
DEFPOINTS
  6
CONTINUOUS
 62
     0
100
AcDbPoint
 10
-83.59350585940001
 20
550.0
 30
0.0
  0
POINT
  5
7FB8
330
7FAF
100
AcDbEntity
  8
DEFPOINTS
  6
CONTINUOUS
 62
     0
100
AcDbPoint
 10
-156.0281498288053
 20
550.0
 30
0.0
  0
ENDBLK
  5
7FBA
330
7FAF
100
AcDbEntity
  8
0
100
AcDbBlockEnd
  0
BLOCK
  5
7FC4
330
7FBB
100
AcDbEntity
  8
0
100
AcDbBlockBegin
  2
*D30
 70
     1
 10
0.0
 20
0.0
 30
0.0
  3
*D30
  1

  0
LINE
  5
7FBC
330
7FBB
100
AcDbEntity
  8
30
  6
CONTINUOUS
 62
     0
100
AcDbLine
 10
168.4310646543089
 20
557.0216310972154
 30
0.0
 11
150.0977313209755
 21
557.0216310972155
 31
0.0
  0
LINE
  5
7FBD
330
7FBB
100
AcDbEntity
  8
30
  6
CONTINUOUS
 62
     0
100
AcDbLine
 10
150.0977313209755
 20
557.0216310972155
 30
0.0
 11
145.285667332118
 21
542.5854391306446
 31
0.0
  0
MTEXT
  5
7FBE
330
7FBB
100
AcDbEntity
  8
30
  6
CONTINUOUS
 62
     0
100
AcDbMText
 10
160.2643979876421
 20
562.5216310972156
 30
0.0
 40
7.0
 41
0.0
 71
     5
 72
     1
  1
\A1;%%c13
1001
ACAD
1000
MTEXTBEGIN
1070
    73
1070
     1
1070
    44
1040
1.0
1070
    74
1070
     0
1000
MTEXTEND
1000
MTEXTBEGIN
1070
    73
1070
     1
1070
    44
1040
1.0
1070
    74
1070
     0
1000
MTEXTEND
  0
INSERT
  5
7FBF
330
7FBB
100
AcDbEntity
  8
30
  6
CONTINUOUS
 62
     0
100
AcDbBlockReference
  2
_OPEN
 10
144.6532118000843
 20
540.6880725345437
 30
0.0
 41
2.0
 42
2.0
 43
2.0
 50
251.5650511770761
  0
LINE
  5
7FC0
330
7FBB
100
AcDbEntity
  8
30
  6
CONTINUOUS
 62
     0
100
AcDbLine
 10
142.5077313209748
 20
534.5216310972156
 30
0.0
 11
142.6877313209748
 21
534.5216310972156
 31
0.0
  0
LINE
  5
7FC1
330
7FBB
100
AcDbEntity
  8
30
  6
CONTINUOUS
 62
     0
100
AcDbLine
 10
142.5977313209748
 20
534.4316310972157
 30
0.0
 11
142.5977313209748
 21
534.6116310972156
 31
0.0
  0
POINT
  5
7FC2
330
7FBB
100
AcDbEntity
  8
DEFPOINTS
  6
CONTINUOUS
 62
     0
100
AcDbPoint
 10
144.6532118000843
 20
540.6880725345437
 30
0.0
  0
POINT
  5
7FC3
330
7FBB
100
AcDbEntity
  8
DEFPOINTS
  6
CONTINUOUS
 62
     0
100
AcDbPoint
 10
142.5977313209748
 20
534.5216310972156
 30
0.0
  0
ENDBLK
  5
7FC5
330
7FBB
100
AcDbEntity
  8
0
100
AcDbBlockEnd
  0
BLOCK
  5
8052
330
8048
100
AcDbEntity
  8
0
100
AcDbBlockBegin
  2
*D31
 70
     1
 10
0.0
 20
0.0
 30
0.0
  3
*D31
  1

  0
LINE
  5
80D9
330
8048
100
AcDbEntity
  8
30
  6
CONTINUOUS
 62
     0
100
AcDbLine
 10
-70.0
 20
553.2337962975837
 30
0.0
 11
-70.0
 21
655.8178562151032
 31
0.0
  0
LINE
  5
80DA
330
8048
100
AcDbEntity
  8
30
  6
CONTINUOUS
 62
     0
100
AcDbLine
 10
0.0000000000000001
 20
553.2337962975837
 30
0.0
 11
0.0000000000000063
 21
655.8178562151032
 31
0.0
  0
LINE
  5
80DB
330
8048
100
AcDbEntity
  8
30
  6
CONTINUOUS
 62
     0
100
AcDbLine
 10
-68.0
 20
655.3178562151032
 30
0.0
 11
-1.999999999999993
 21
655.3178562151032
 31
0.0
  0
INSERT
  5
80DC
330
8048
100
AcDbEntity
  8
30
  6
CONTINUOUS
 62
     0
100
AcDbBlockReference
  2
_OPEN
 10
-70.0
 20
655.3178562151032
 30
0.0
 41
2.0
 42
2.0
 43
2.0
 50
180.0
  0
INSERT
  5
80DD
330
8048
100
AcDbEntity
  8
30
  6
CONTINUOUS
 62
     0
100
AcDbBlockReference
  2
_OPEN
 10
0.0000000000000063
 20
655.3178562151032
 30
0.0
 41
2.0
 42
2.0
 43
2.0
  0
MTEXT
  5
80DE
330
8048
100
AcDbEntity
  8
30
  6
CONTINUOUS
 62
     0
100
AcDbMText
 10
-36.33783783783667
 20
659.8178562151032
 30
0.0
 40
7.0
 41
0.0
 71
     5
 72
     1
  1
\A1;70
1001
ACAD
1000
MTEXTBEGIN
1070
    73
1070
     1
1070
    44
1040
1.0
1070
    74
1070
     0
1000
MTEXTEND
1000
MTEXTBEGIN
1070
    73
1070
     1
1070
    44
1040
1.0
1070
    74
1070
     0
1000
MTEXTEND
  0
POINT
  5
80DF
330
8048
100
AcDbEntity
  8
DEFPOINTS
  6
CONTINUOUS
 62
     0
100
AcDbPoint
 10
-70.0
 20
552.2337962975838
 30
0.0
  0
POINT
  5
80E0
330
8048
100
AcDbEntity
  8
DEFPOINTS
  6
CONTINUOUS
 62
     0
100
AcDbPoint
 10
0.0
 20
552.2337962975838
 30
0.0
  0
POINT
  5
80E1
330
8048
100
AcDbEntity
  8
DEFPOINTS
  6
CONTINUOUS
 62
     0
100
AcDbPoint
 10
0.0000000000000063
 20
655.3178562151032
 30
0.0
  0
ENDBLK
  5
8053
330
8048
100
AcDbEntity
  8
0
100
AcDbBlockEnd
  0
BLOCK
  5
805E
330
8054
100
AcDbEntity
  8
0
100
AcDbBlockBegin
  2
*D32
 70
     1
 10
0.0
 20
0.0
 30
0.0
  3
*D32
  1

  0
LINE
  5
80EB
330
8054
100
AcDbEntity
  8
30
  6
CONTINUOUS
 62
     0
100
AcDbLine
 10
-97.0932617188
 20
336.1402904381838
 30
0.0
 11
-156.5281498131598
 21
336.1402904381838
 31
0.0
  0
LINE
  5
80EC
330
8054
100
AcDbEntity
  8
30
  6
CONTINUOUS
 62
     0
100
AcDbLine
 10
-147.0932617187999
 20
456.1402904381838
 30
0.0
 11
-156.5281498131597
 21
456.1402904381838
 31
0.0
  0
LINE
  5
80ED
330
8054
100
AcDbEntity
  8
30
  6
CONTINUOUS
 62
     0
100
AcDbLine
 10
-156.0281498131598
 20
338.1402904381838
 30
0.0
 11
-156.0281498131597
 21
454.1402904381839
 31
0.0
  0
INSERT
  5
80EE
330
8054
100
AcDbEntity
  8
30
  6
CONTINUOUS
 62
     0
100
AcDbBlockReference
  2
_OPEN
 10
-156.0281498131598
 20
336.1402904381838
 30
0.0
 41
2.0
 42
2.0
 43
2.0
 50
270.0
  0
INSERT
  5
80EF
330
8054
100
AcDbEntity
  8
30
  6
CONTINUOUS
 62
     0
100
AcDbBlockReference
  2
_OPEN
 10
-156.0281498131597
 20
456.1402904381838
 30
0.0
 41
2.0
 42
2.0
 43
2.0
 50
90.0
  0
MTEXT
  5
80F0
330
8054
100
AcDbEntity
  8
30
  6
CONTINUOUS
 62
     0
100
AcDbMText
 10
-160.5281498131598
 20
398.3508174916096
 30
0.0
 40
7.0
 41
0.0
 71
     5
 72
     1
  1
\A1;120
 11
0.0000000000000001
 21
1.0
 31
0.0
1001
ACAD
1000
MTEXTBEGIN
1070
    73
1070
     1
1070
    44
1040
1.0
1070
    74
1070
     0
1000
MTEXTEND
1000
MTEXTBEGIN
1070
    73
1070
     1
1070
    44
1040
1.0
1070
    74
1070
     0
1000
MTEXTEND
  0
POINT
  5
80F1
330
8054
100
AcDbEntity
  8
DEFPOINTS
  6
CONTINUOUS
 62
     0
100
AcDbPoint
 10
-96.09326171880001
 20
336.1402904381838
 30
0.0
  0
POINT
  5
80F2
330
8054
100
AcDbEntity
  8
DEFPOINTS
  6
CONTINUOUS
 62
     0
100
AcDbPoint
 10
-146.0932617187999
 20
456.1402904381838
 30
0.0
  0
POINT
  5
80F3
330
8054
100
AcDbEntity
  8
DEFPOINTS
  6
CONTINUOUS
 62
     0
100
AcDbPoint
 10
-156.0281498131597
 20
456.1402904381838
 30
0.0
  0
ENDBLK
  5
805F
330
8054
100
AcDbEntity
  8
0
100
AcDbBlockEnd
  0
BLOCK
  5
806A
330
8060
100
AcDbEntity
  8
0
100
AcDbBlockBegin
  2
*D33
 70
     1
 10
0.0
 20
0.0
 30
0.0
  3
*D33
  1

  0
LINE
  5
80E2
330
8060
100
AcDbEntity
  8
30
  6
CONTINUOUS
 62
     0
100
AcDbLine
 10
-147.0932617187999
 20
456.1402904381838
 30
0.0
 11
-156.5281498288053
 21
456.1402904381838
 31
0.0
  0
LINE
  5
80E3
330
8060
100
AcDbEntity
  8
30
  6
CONTINUOUS
 62
     0
100
AcDbLine
 10
-84.59350585940001
 20
567.1402904381839
 30
0.0
 11
-156.5281498288053
 21
567.1402904381839
 31
0.0
  0
LINE
  5
80E4
330
8060
100
AcDbEntity
  8
30
  6
CONTINUOUS
 62
     0
100
AcDbLine
 10
-156.0281498288053
 20
458.1402904381839
 30
0.0
 11
-156.0281498288053
 21
565.1402904381837
 31
0.0
  0
INSERT
  5
80E5
330
8060
100
AcDbEntity
  8
30
  6
CONTINUOUS
 62
     0
100
AcDbBlockReference
  2
_OPEN
 10
-156.0281498288053
 20
456.1402904381838
 30
0.0
 41
2.0
 42
2.0
 43
2.0
 50
270.0
  0
INSERT
  5
80E6
330
8060
100
AcDbEntity
  8
30
  6
CONTINUOUS
 62
     0
100
AcDbBlockReference
  2
_OPEN
 10
-156.0281498288053
 20
567.1402904381839
 30
0.0
 41
2.0
 42
2.0
 43
2.0
 50
90.0
  0
MTEXT
  5
80E7
330
8060
100
AcDbEntity
  8
30
  6
CONTINUOUS
 62
     0
100
AcDbMText
 10
-160.5281498288054
 20
513.4932323522901
 30
0.0
 40
7.0
 41
0.0
 71
     5
 72
     1
  1
\A1;111
 11
0.0000000000000001
 21
1.0
 31
0.0
1001
ACAD
1000
MTEXTBEGIN
1070
    73
1070
     1
1070
    44
1040
1.0
1070
    74
1070
     0
1000
MTEXTEND
1000
MTEXTBEGIN
1070
    73
1070
     1
1070
    44
1040
1.0
1070
    74
1070
     0
1000
MTEXTEND
  0
POINT
  5
80E8
330
8060
100
AcDbEntity
  8
DEFPOINTS
  6
CONTINUOUS
 62
     0
100
AcDbPoint
 10
-146.0932617187999
 20
456.1402904381838
 30
0.0
  0
POINT
  5
80E9
330
8060
100
AcDbEntity
  8
DEFPOINTS
  6
CONTINUOUS
 62
     0
100
AcDbPoint
 10
-83.59350585940001
 20
567.1402904381839
 30
0.0
  0
POINT
  5
80EA
330
8060
100
AcDbEntity
  8
DEFPOINTS
  6
CONTINUOUS
 62
     0
100
AcDbPoint
 10
-156.0281498288053
 20
567.1402904381839
 30
0.0
  0
ENDBLK
  5
806B
330
8060
100
AcDbEntity
  8
0
100
AcDbBlockEnd
  0
BLOCK
  5
8076
330
806C
100
AcDbEntity
  8
0
100
AcDbBlockBegin
  2
*D34
 70
     1
 10
0.0
 20
0.0
 30
0.0
  3
*D34
  1

  0
LINE
  5
80F4
330
806C
100
AcDbEntity
  8
30
  6
CONTINUOUS
 62
     0
100
AcDbLine
 10
69.99999999989995
 20
553.2337962975837
 30
0.0
 11
69.99999999989995
 21
655.8178562151032
 31
0.0
  0
LINE
  5
80F5
330
806C
100
AcDbEntity
  8
30
  6
CONTINUOUS
 62
     0
100
AcDbLine
 10
140.0
 20
553.2337962975837
 30
0.0
 11
140.0
 21
655.8178562151032
 31
0.0
  0
LINE
  5
80F6
330
806C
100
AcDbEntity
  8
30
  6
CONTINUOUS
 62
     0
100
AcDbLine
 10
71.99999999989995
 20
655.3178562151032
 30
0.0
 11
138.0
 21
655.3178562151032
 31
0.0
  0
INSERT
  5
80F7
330
806C
100
AcDbEntity
  8
30
  6
CONTINUOUS
 62
     0
100
AcDbBlockReference
  2
_OPEN
 10
69.99999999989995
 20
655.3178562151032
 30
0.0
 41
2.0
 42
2.0
 43
2.0
 50
180.0
  0
INSERT
  5
80F8
330
806C
100
AcDbEntity
  8
30
  6
CONTINUOUS
 62
     0
100
AcDbBlockReference
  2
_OPEN
 10
140.0
 20
655.3178562151032
 30
0.0
 41
2.0
 42
2.0
 43
2.0
  0
MTEXT
  5
80F9
330
806C
100
AcDbEntity
  8
30
  6
CONTINUOUS
 62
     0
100
AcDbMText
 10
103.6621621621633
 20
659.8178562151032
 30
0.0
 40
7.0
 41
0.0
 71
     5
 72
     1
  1
\A1;70
1001
ACAD
1000
MTEXTBEGIN
1070
    73
1070
     1
1070
    44
1040
1.0
1070
    74
1070
     0
1000
MTEXTEND
1000
MTEXTBEGIN
1070
    73
1070
     1
1070
    44
1040
1.0
1070
    74
1070
     0
1000
MTEXTEND
  0
POINT
  5
80FA
330
806C
100
AcDbEntity
  8
DEFPOINTS
  6
CONTINUOUS
 62
     0
100
AcDbPoint
 10
69.99999999989995
 20
552.2337962975838
 30
0.0
  0
POINT
  5
80FB
330
806C
100
AcDbEntity
  8
DEFPOINTS
  6
CONTINUOUS
 62
     0
100
AcDbPoint
 10
140.0
 20
552.2337962975838
 30
0.0
  0
POINT
  5
80FC
330
806C
100
AcDbEntity
  8
DEFPOINTS
  6
CONTINUOUS
 62
     0
100
AcDbPoint
 10
140.0
 20
655.3178562151032
 30
0.0
  0
ENDBLK
  5
8077
330
806C
100
AcDbEntity
  8
0
100
AcDbBlockEnd
  0
BLOCK
  5
8082
330
8078
100
AcDbEntity
  8
0
100
AcDbBlockBegin
  2
*D35
 70
     1
 10
0.0
 20
0.0
 30
0.0
  3
*D35
  1

  0
LINE
  5
8106
330
8078
100
AcDbEntity
  8
30
  6
CONTINUOUS
 62
     0
100
AcDbLine
 10
-22.5
 20
568.2337962975838
 30
0.0
 11
-22.49999999999999
 21
621.7203685631866
 31
0.0
  0
LINE
  5
8107
330
8078
100
AcDbEntity
  8
30
  6
CONTINUOUS
 62
     0
100
AcDbLine
 10
22.5
 20
568.2337962975838
 30
0.0
 11
22.5
 21
621.7203685631866
 31
0.0
  0
LINE
  5
8108
330
8078
100
AcDbEntity
  8
30
  6
CONTINUOUS
 62
     0
100
AcDbLine
 10
-20.49999999999998
 20
621.2203685631866
 30
0.0
 11
20.5
 21
621.2203685631866
 31
0.0
  0
INSERT
  5
8109
330
8078
100
AcDbEntity
  8
30
  6
CONTINUOUS
 62
     0
100
AcDbBlockReference
  2
_OPEN
 10
-22.49999999999999
 20
621.2203685631866
 30
0.0
 41
2.0
 42
2.0
 43
2.0
 50
180.0
  0
INSERT
  5
810A
330
8078
100
AcDbEntity
  8
30
  6
CONTINUOUS
 62
     0
100
AcDbBlockReference
  2
_OPEN
 10
22.5
 20
621.2203685631866
 30
0.0
 41
2.0
 42
2.0
 43
2.0
  0
MTEXT
  5
810B
330
8078
100
AcDbEntity
  8
30
  6
CONTINUOUS
 62
     0
100
AcDbMText
 10
-1.337837837836672
 20
625.7203685631866
 30
0.0
 40
7.0
 41
0.0
 71
     5
 72
     1
  1
\A1;45
1001
ACAD
1000
MTEXTBEGIN
1070
    73
1070
     1
1070
    44
1040
1.0
1070
    74
1070
     0
1000
MTEXTEND
1000
MTEXTBEGIN
1070
    73
1070
     1
1070
    44
1040
1.0
1070
    74
1070
     0
1000
MTEXTEND
  0
POINT
  5
810C
330
8078
100
AcDbEntity
  8
DEFPOINTS
  6
CONTINUOUS
 62
     0
100
AcDbPoint
 10
-22.5
 20
567.2337962975838
 30
0.0
  0
POINT
  5
810D
330
8078
100
AcDbEntity
  8
DEFPOINTS
  6
CONTINUOUS
 62
     0
100
AcDbPoint
 10
22.5
 20
567.2337962975838
 30
0.0
  0
POINT
  5
810E
330
8078
100
AcDbEntity
  8
DEFPOINTS
  6
CONTINUOUS
 62
     0
100
AcDbPoint
 10
22.5
 20
621.2203685631866
 30
0.0
  0
ENDBLK
  5
8083
330
8078
100
AcDbEntity
  8
0
100
AcDbBlockEnd
  0
BLOCK
  5
808E
330
8084
100
AcDbEntity
  8
0
100
AcDbBlockBegin
  2
*D36
 70
     1
 10
0.0
 20
0.0
 30
0.0
  3
*D36
  1

  0
LINE
  5
80FD
330
8084
100
AcDbEntity
  8
30
  6
CONTINUOUS
 62
     0
100
AcDbLine
 10
0.0000000000000001
 20
553.2337962975837
 30
0.0
 11
0.0000000000000063
 21
655.8178562151032
 31
0.0
  0
LINE
  5
80FE
330
8084
100
AcDbEntity
  8
30
  6
CONTINUOUS
 62
     0
100
AcDbLine
 10
69.99999999989995
 20
553.2337962975837
 30
0.0
 11
69.99999999989995
 21
655.8178562151032
 31
0.0
  0
LINE
  5
80FF
330
8084
100
AcDbEntity
  8
30
  6
CONTINUOUS
 62
     0
100
AcDbLine
 10
2.000000000000005
 20
655.3178562151032
 30
0.0
 11
67.99999999989996
 21
655.3178562151032
 31
0.0
  0
INSERT
  5
8100
330
8084
100
AcDbEntity
  8
30
  6
CONTINUOUS
 62
     0
100
AcDbBlockReference
  2
_OPEN
 10
0.0000000000000063
 20
655.3178562151032
 30
0.0
 41
2.0
 42
2.0
 43
2.0
 50
180.0
  0
INSERT
  5
8101
330
8084
100
AcDbEntity
  8
30
  6
CONTINUOUS
 62
     0
100
AcDbBlockReference
  2
_OPEN
 10
69.99999999989995
 20
655.3178562151032
 30
0.0
 41
2.0
 42
2.0
 43
2.0
  0
MTEXT
  5
8102
330
8084
100
AcDbEntity
  8
30
  6
CONTINUOUS
 62
     0
100
AcDbMText
 10
33.66216216216332
 20
659.8178562151032
 30
0.0
 40
7.0
 41
0.0
 71
     5
 72
     1
  1
\A1;70
1001
ACAD
1000
MTEXTBEGIN
1070
    73
1070
     1
1070
    44
1040
1.0
1070
    74
1070
     0
1000
MTEXTEND
1000
MTEXTBEGIN
1070
    73
1070
     1
1070
    44
1040
1.0
1070
    74
1070
     0
1000
MTEXTEND
  0
POINT
  5
8103
330
8084
100
AcDbEntity
  8
DEFPOINTS
  6
CONTINUOUS
 62
     0
100
AcDbPoint
 10
0.0
 20
552.2337962975838
 30
0.0
  0
POINT
  5
8104
330
8084
100
AcDbEntity
  8
DEFPOINTS
  6
CONTINUOUS
 62
     0
100
AcDbPoint
 10
69.99999999989995
 20
552.2337962975838
 30
0.0
  0
POINT
  5
8105
330
8084
100
AcDbEntity
  8
DEFPOINTS
  6
CONTINUOUS
 62
     0
100
AcDbPoint
 10
69.99999999989995
 20
655.3178562151032
 30
0.0
  0
ENDBLK
  5
808F
330
8084
100
AcDbEntity
  8
0
100
AcDbBlockEnd
  0
BLOCK
  5
8099
330
8090
100
AcDbEntity
  8
0
100
AcDbBlockBegin
  2
*D37
 70
     1
 10
0.0
 20
0.0
 30
0.0
  3
*D37
  1

  0
LINE
  5
8117
330
8090
100
AcDbEntity
  8
30
  6
CONTINUOUS
 62
     0
100
AcDbLine
 10
98.43106465430906
 20
574.1619215353995
 30
0.0
 11
80.09773132097519
 21
574.1619215353995
 31
0.0
  0
LINE
  5
8118
330
8090
100
AcDbEntity
  8
30
  6
CONTINUOUS
 62
     0
100
AcDbLine
 10
80.09773132097519
 20
574.1619215353995
 30
0.0
 11
75.28566733211798
 21
559.7257295688287
 31
0.0
  0
MTEXT
  5
8119
330
8090
100
AcDbEntity
  8
30
  6
CONTINUOUS
 62
     0
100
AcDbMText
 10
90.26439798764227
 20
578.6619215353995
 30
0.0
 40
7.0
 41
0.0
 71
     5
 72
     1
  1
\A1;%%c13
1001
ACAD
1000
MTEXTBEGIN
1070
    73
1070
     1
1070
    44
1040
1.0
1070
    74
1070
     0
1000
MTEXTEND
1000
MTEXTBEGIN
1070
    73
1070
     1
1070
    44
1040
1.0
1070
    74
1070
     0
1000
MTEXTEND
  0
INSERT
  5
811A
330
8090
100
AcDbEntity
  8
30
  6
CONTINUOUS
 62
     0
100
AcDbBlockReference
  2
_OPEN
 10
74.65321180008429
 20
557.8283629727275
 30
0.0
 41
2.0
 42
2.0
 43
2.0
 50
251.5650511770771
  0
LINE
  5
811B
330
8090
100
AcDbEntity
  8
30
  6
CONTINUOUS
 62
     0
100
AcDbLine
 10
72.5077313209748
 20
551.6619215353994
 30
0.0
 11
72.6877313209748
 21
551.6619215353994
 31
0.0
  0
LINE
  5
811C
330
8090
100
AcDbEntity
  8
30
  6
CONTINUOUS
 62
     0
100
AcDbLine
 10
72.5977313209748
 20
551.5719215353994
 30
0.0
 11
72.59773132097477
 21
551.7519215353993
 31
0.0
  0
POINT
  5
811D
330
8090
100
AcDbEntity
  8
DEFPOINTS
  6
CONTINUOUS
 62
     0
100
AcDbPoint
 10
74.65321180008429
 20
557.8283629727275
 30
0.0
  0
POINT
  5
811E
330
8090
100
AcDbEntity
  8
DEFPOINTS
  6
CONTINUOUS
 62
     0
100
AcDbPoint
 10
72.5977313209748
 20
551.6619215353991
 30
0.0
  0
ENDBLK
  5
809A
330
8090
100
AcDbEntity
  8
0
100
AcDbBlockEnd
  0
BLOCK
  5
812A
330
8120
100
AcDbEntity
  8
0
100
AcDbBlockBegin
  2
*D38
 70
     1
 10
0.0
 20
0.0
 30
0.0
  3
*D38
  1

  0
LINE
  5
8121
330
8120
100
AcDbEntity
  8
30
  6
CONTINUOUS
 62
     0
100
AcDbLine
 10
507.0
 20
-172.0
 30
0.0
 11
507.0
 21
-230.8800613068346
 31
0.0
  0
LINE
  5
8122
330
8120
100
AcDbEntity
  8
30
  6
CONTINUOUS
 62
     0
100
AcDbLine
 10
395.0
 20
-171.0
 30
0.0
 11
395.0
 21
-230.8800613068346
 31
0.0
  0
LINE
  5
8123
330
8120
100
AcDbEntity
  8
30
  6
CONTINUOUS
 62
     0
100
AcDbLine
 10
505.0
 20
-230.3800613068346
 30
0.0
 11
397.0
 21
-230.3800613068346
 31
0.0
  0
INSERT
  5
8124
330
8120
100
AcDbEntity
  8
30
  6
CONTINUOUS
 62
     0
100
AcDbBlockReference
  2
_OPEN
 10
507.0
 20
-230.3800613068346
 30
0.0
 41
2.0
 42
2.0
 43
2.0
  0
INSERT
  5
8125
330
8120
100
AcDbEntity
  8
30
  6
CONTINUOUS
 62
     0
100
AcDbBlockReference
  2
_OPEN
 10
395.0
 20
-230.3800613068346
 30
0.0
 41
2.0
 42
2.0
 43
2.0
 50
180.0
  0
MTEXT
  5
8126
330
8120
100
AcDbEntity
  8
30
  6
CONTINUOUS
 62
     0
100
AcDbMText
 10
451.0
 20
-224.8800613068345
 30
0.0
 40
7.0
 41
0.0
 71
     5
 72
     1
  1
\A1;112
1001
ACAD
1000
MTEXTBEGIN
1070
    73
1070
     1
1070
    44
1040
1.0
1070
    74
1070
     0
1000
MTEXTEND
1000
MTEXTBEGIN
1070
    73
1070
     1
1070
    44
1040
1.0
1070
    74
1070
     0
1000
MTEXTEND
  0
POINT
  5
8127
330
8120
100
AcDbEntity
  8
DEFPOINTS
  6
CONTINUOUS
 62
     0
100
AcDbPoint
 10
507.0
 20
-171.0
 30
0.0
  0
POINT
  5
8128
330
8120
100
AcDbEntity
  8
DEFPOINTS
  6
CONTINUOUS
 62
     0
100
AcDbPoint
 10
395.0
 20
-170.0
 30
0.0
  0
POINT
  5
8129
330
8120
100
AcDbEntity
  8
DEFPOINTS
  6
CONTINUOUS
 62
     0
100
AcDbPoint
 10
395.0
 20
-230.3800613068346
 30
0.0
  0
ENDBLK
  5
812B
330
8120
100
AcDbEntity
  8
0
100
AcDbBlockEnd
  0
BLOCK
  5
8136
330
812C
100
AcDbEntity
  8
0
100
AcDbBlockBegin
  2
*D39
 70
     1
 10
0.0
 20
0.0
 30
0.0
  3
*D39
  1

  0
LINE
  5
812D
330
812C
100
AcDbEntity
  8
30
  6
CONTINUOUS
 62
     0
100
AcDbLine
 10
395.0
 20
-172.0
 30
0.0
 11
395.0
 21
-231.030510233064
 31
0.0
  0
LINE
  5
812E
330
812C
100
AcDbEntity
  8
30
  6
CONTINUOUS
 62
     0
100
AcDbLine
 10
387.0
 20
-141.0
 30
0.0
 11
387.0
 21
-231.030510233064
 31
0.0
  0
LINE
  5
812F
330
812C
100
AcDbEntity
  8
30
  6
CONTINUOUS
 62
     0
100
AcDbLine
 10
393.0
 20
-230.5305102330638
 30
0.0
 11
389.0
 21
-230.5305102330638
 31
0.0
  0
INSERT
  5
8130
330
812C
100
AcDbEntity
  8
30
  6
CONTINUOUS
 62
     0
100
AcDbBlockReference
  2
_OPEN
 10
395.0
 20
-230.5305102330638
 30
0.0
 41
2.0
 42
2.0
 43
2.0
  0
INSERT
  5
8131
330
812C
100
AcDbEntity
  8
30
  6
CONTINUOUS
 62
     0
100
AcDbBlockReference
  2
_OPEN
 10
387.0
 20
-230.5305102330638
 30
0.0
 41
2.0
 42
2.0
 43
2.0
 50
180.0
  0
MTEXT
  5
8132
330
812C
100
AcDbEntity
  8
30
  6
CONTINUOUS
 62
     0
100
AcDbMText
 10
391.3705927610462
 20
-225.0305102330639
 30
0.0
 40
7.0
 41
0.0
 71
     5
 72
     1
  1
\A1;8
1001
ACAD
1000
MTEXTBEGIN
1070
    73
1070
     1
1070
    44
1040
1.0
1070
    74
1070
     0
1000
MTEXTEND
1000
MTEXTBEGIN
1070
    73
1070
     1
1070
    44
1040
1.0
1070
    74
1070
     0
1000
MTEXTEND
  0
POINT
  5
8133
330
812C
100
AcDbEntity
  8
DEFPOINTS
  6
CONTINUOUS
 62
     0
100
AcDbPoint
 10
395.0
 20
-171.0
 30
0.0
  0
POINT
  5
8134
330
812C
100
AcDbEntity
  8
DEFPOINTS
  6
CONTINUOUS
 62
     0
100
AcDbPoint
 10
387.0
 20
-140.0
 30
0.0
  0
POINT
  5
8135
330
812C
100
AcDbEntity
  8
DEFPOINTS
  6
CONTINUOUS
 62
     0
100
AcDbPoint
 10
387.0
 20
-230.5305102330638
 30
0.0
  0
ENDBLK
  5
8137
330
812C
100
AcDbEntity
  8
0
100
AcDbBlockEnd
  0
BLOCK
  5
8142
330
8138
100
AcDbEntity
  8
0
100
AcDbBlockBegin
  2
*D40
 70
     1
 10
0.0
 20
0.0
 30
0.0
  3
*D40
  1

  0
LINE
  5
8139
330
8138
100
AcDbEntity
  8
30
  6
CONTINUOUS
 62
     0
100
AcDbLine
 10
507.0
 20
-231.3800613068345
 30
0.0
 11
507.0
 21
-254.866354951332
 31
0.0
  0
LINE
  5
813A
330
8138
100
AcDbEntity
  8
30
  6
CONTINUOUS
 62
     0
100
AcDbLine
 10
336.0
 20
-1.0
 30
0.0
 11
336.0
 21
-254.866354951332
 31
0.0
  0
LINE
  5
813B
330
8138
100
AcDbEntity
  8
30
  6
CONTINUOUS
 62
     0
100
AcDbLine
 10
505.0
 20
-254.3663549513321
 30
0.0
 11
338.0
 21
-254.3663549513321
 31
0.0
  0
INSERT
  5
813C
330
8138
100
AcDbEntity
  8
30
  6
CONTINUOUS
 62
     0
100
AcDbBlockReference
  2
_OPEN
 10
507.0
 20
-254.3663549513321
 30
0.0
 41
2.0
 42
2.0
 43
2.0
  0
INSERT
  5
813D
330
8138
100
AcDbEntity
  8
30
  6
CONTINUOUS
 62
     0
100
AcDbBlockReference
  2
_OPEN
 10
336.0
 20
-254.3663549513321
 30
0.0
 41
2.0
 42
2.0
 43
2.0
 50
180.0
  0
MTEXT
  5
813E
330
8138
100
AcDbEntity
  8
30
  6
CONTINUOUS
 62
     0
100
AcDbMText
 10
421.4999999999998
 20
-248.866354951332
 30
0.0
 40
7.0
 41
0.0
 71
     5
 72
     1
  1
\A1;171
1001
ACAD
1000
MTEXTBEGIN
1070
    73
1070
     1
1070
    44
1040
1.0
1070
    74
1070
     0
1000
MTEXTEND
1000
MTEXTBEGIN
1070
    73
1070
     1
1070
    44
1040
1.0
1070
    74
1070
     0
1000
MTEXTEND
  0
POINT
  5
813F
330
8138
100
AcDbEntity
  8
DEFPOINTS
  6
CONTINUOUS
 62
     0
100
AcDbPoint
 10
507.0
 20
-230.3800613068346
 30
0.0
  0
POINT
  5
8140
330
8138
100
AcDbEntity
  8
DEFPOINTS
  6
CONTINUOUS
 62
     0
100
AcDbPoint
 10
336.0
 20
0.0
 30
0.0
  0
POINT
  5
8141
330
8138
100
AcDbEntity
  8
DEFPOINTS
  6
CONTINUOUS
 62
     0
100
AcDbPoint
 10
336.0
 20
-254.3663549513321
 30
0.0
  0
ENDBLK
  5
8143
330
8138
100
AcDbEntity
  8
0
100
AcDbBlockEnd
  0
BLOCK
  5
814E
330
8144
100
AcDbEntity
  8
0
100
AcDbBlockBegin
  2
*D41
 70
     1
 10
0.0
 20
0.0
 30
0.0
  3
*D41
  1

  0
LINE
  5
8145
330
8144
100
AcDbEntity
  8
30
  6
CONTINUOUS
 62
     0
100
AcDbLine
 10
336.0
 20
-2.0
 30
0.0
 11
336.0
 21
-255.366354951332
 31
0.0
  0
LINE
  5
8146
330
8144
100
AcDbEntity
  8
30
  6
CONTINUOUS
 62
     0
100
AcDbLine
 10
256.0
 20
-2.0
 30
0.0
 11
255.9999999999999
 21
-255.366354951332
 31
0.0
  0
LINE
  5
8147
330
8144
100
AcDbEntity
  8
30
  6
CONTINUOUS
 62
     0
100
AcDbLine
 10
334.0
 20
-254.866354951332
 30
0.0
 11
258.0
 21
-254.866354951332
 31
0.0
  0
INSERT
  5
8148
330
8144
100
AcDbEntity
  8
30
  6
CONTINUOUS
 62
     0
100
AcDbBlockReference
  2
_OPEN
 10
336.0
 20
-254.866354951332
 30
0.0
 41
2.0
 42
2.0
 43
2.0
  0
INSERT
  5
8149
330
8144
100
AcDbEntity
  8
30
  6
CONTINUOUS
 62
     0
100
AcDbBlockReference
  2
_OPEN
 10
255.9999999999999
 20
-254.866354951332
 30
0.0
 41
2.0
 42
2.0
 43
2.0
 50
180.0
  0
MTEXT
  5
814A
330
8144
100
AcDbEntity
  8
30
  6
CONTINUOUS
 62
     0
100
AcDbMText
 10
296.0
 20
-249.366354951332
 30
0.0
 40
7.0
 41
0.0
 71
     5
 72
     1
  1
\A1;80
1001
ACAD
1000
MTEXTBEGIN
1070
    73
1070
     1
1070
    44
1040
1.0
1070
    74
1070
     0
1000
MTEXTEND
1000
MTEXTBEGIN
1070
    73
1070
     1
1070
    44
1040
1.0
1070
    74
1070
     0
1000
MTEXTEND
  0
POINT
  5
814B
330
8144
100
AcDbEntity
  8
DEFPOINTS
  6
CONTINUOUS
 62
     0
100
AcDbPoint
 10
336.0
 20
-1.0
 30
0.0
  0
POINT
  5
814C
330
8144
100
AcDbEntity
  8
DEFPOINTS
  6
CONTINUOUS
 62
     0
100
AcDbPoint
 10
256.0
 20
-1.0
 30
0.0
  0
POINT
  5
814D
330
8144
100
AcDbEntity
  8
DEFPOINTS
  6
CONTINUOUS
 62
     0
100
AcDbPoint
 10
255.9999999999999
 20
-254.866354951332
 30
0.0
  0
ENDBLK
  5
814F
330
8144
100
AcDbEntity
  8
0
100
AcDbBlockEnd
  0
BLOCK
  5
815A
330
8150
100
AcDbEntity
  8
0
100
AcDbBlockBegin
  2
*D42
 70
     1
 10
0.0
 20
0.0
 30
0.0
  3
*D42
  1

  0
LINE
  5
8151
330
8150
100
AcDbEntity
  8
30
  6
CONTINUOUS
 62
     0
100
AcDbLine
 10
387.0
 20
-141.0
 30
0.0
 11
387.0
 21
-230.8800613068346
 31
0.0
  0
LINE
  5
8152
330
8150
100
AcDbEntity
  8
30
  6
CONTINUOUS
 62
     0
100
AcDbLine
 10
370.0000000000716
 20
-1.0
 30
0.0
 11
370.0000000000716
 21
-230.8800613068346
 31
0.0
  0
LINE
  5
8153
330
8150
100
AcDbEntity
  8
30
  6
CONTINUOUS
 62
     0
100
AcDbLine
 10
385.0
 20
-230.3800613068346
 30
0.0
 11
372.0000000000716
 21
-230.3800613068346
 31
0.0
  0
INSERT
  5
8154
330
8150
100
AcDbEntity
  8
30
  6
CONTINUOUS
 62
     0
100
AcDbBlockReference
  2
_OPEN
 10
387.0
 20
-230.3800613068346
 30
0.0
 41
2.0
 42
2.0
 43
2.0
  0
INSERT
  5
8155
330
8150
100
AcDbEntity
  8
30
  6
CONTINUOUS
 62
     0
100
AcDbBlockReference
  2
_OPEN
 10
370.0000000000716
 20
-230.3800613068346
 30
0.0
 41
2.0
 42
2.0
 43
2.0
 50
180.0
  0
MTEXT
  5
8156
330
8150
100
AcDbEntity
  8
30
  6
CONTINUOUS
 62
     0
100
AcDbMText
 10
378.5000000000357
 20
-224.8800613068345
 30
0.0
 40
7.0
 41
0.0
 71
     5
 72
     1
  1
\A1;17
1001
ACAD
1000
MTEXTBEGIN
1070
    73
1070
     1
1070
    44
1040
1.0
1070
    74
1070
     0
1000
MTEXTEND
1000
MTEXTBEGIN
1070
    73
1070
     1
1070
    44
1040
1.0
1070
    74
1070
     0
1000
MTEXTEND
  0
POINT
  5
8157
330
8150
100
AcDbEntity
  8
DEFPOINTS
  6
CONTINUOUS
 62
     0
100
AcDbPoint
 10
387.0
 20
-140.0
 30
0.0
  0
POINT
  5
8158
330
8150
100
AcDbEntity
  8
DEFPOINTS
  6
CONTINUOUS
 62
     0
100
AcDbPoint
 10
370.0000000000716
 20
0.0
 30
0.0
  0
POINT
  5
8159
330
8150
100
AcDbEntity
  8
DEFPOINTS
  6
CONTINUOUS
 62
     0
100
AcDbPoint
 10
370.0000000000716
 20
-230.3800613068346
 30
0.0
  0
ENDBLK
  5
815B
330
8150
100
AcDbEntity
  8
0
100
AcDbBlockEnd
  0
BLOCK
  5
8178
330
816E
100
AcDbEntity
  8
0
100
AcDbBlockBegin
  2
*D43
 70
     1
 10
0.0
 20
0.0
 30
0.0
  3
*D43
  1

  0
LINE
  5
81AA
330
816E
100
AcDbEntity
  8
30
  6
CONTINUOUS
 62
     0
100
AcDbLine
 10
336.0
 20
-2.0
 30
0.0
 11
336.0
 21
-255.366354951332
 31
0.0
  0
LINE
  5
81AB
330
816E
100
AcDbEntity
  8
30
  6
CONTINUOUS
 62
     0
100
AcDbLine
 10
256.0
 20
-2.0
 30
0.0
 11
255.9999999999999
 21
-255.366354951332
 31
0.0
  0
LINE
  5
81AC
330
816E
100
AcDbEntity
  8
30
  6
CONTINUOUS
 62
     0
100
AcDbLine
 10
334.0
 20
-254.866354951332
 30
0.0
 11
258.0
 21
-254.866354951332
 31
0.0
  0
INSERT
  5
81AD
330
816E
100
AcDbEntity
  8
30
  6
CONTINUOUS
 62
     0
100
AcDbBlockReference
  2
_OPEN
 10
336.0
 20
-254.866354951332
 30
0.0
 41
2.0
 42
2.0
 43
2.0
  0
INSERT
  5
81AE
330
816E
100
AcDbEntity
  8
30
  6
CONTINUOUS
 62
     0
100
AcDbBlockReference
  2
_OPEN
 10
255.9999999999999
 20
-254.866354951332
 30
0.0
 41
2.0
 42
2.0
 43
2.0
 50
180.0
  0
MTEXT
  5
81AF
330
816E
100
AcDbEntity
  8
30
  6
CONTINUOUS
 62
     0
100
AcDbMText
 10
296.0
 20
-250.3663549513321
 30
0.0
 40
7.0
 41
0.0
 71
     5
 72
     1
  1
\A1;80
1001
ACAD
1000
MTEXTBEGIN
1070
    73
1070
     1
1070
    44
1040
1.0
1070
    74
1070
     0
1000
MTEXTEND
1000
MTEXTBEGIN
1070
    73
1070
     1
1070
    44
1040
1.0
1070
    74
1070
     0
1000
MTEXTEND
  0
POINT
  5
81B0
330
816E
100
AcDbEntity
  8
DEFPOINTS
  6
CONTINUOUS
 62
     0
100
AcDbPoint
 10
336.0
 20
-1.0
 30
0.0
  0
POINT
  5
81B1
330
816E
100
AcDbEntity
  8
DEFPOINTS
  6
CONTINUOUS
 62
     0
100
AcDbPoint
 10
256.0
 20
-1.0
 30
0.0
  0
POINT
  5
81B2
330
816E
100
AcDbEntity
  8
DEFPOINTS
  6
CONTINUOUS
 62
     0
100
AcDbPoint
 10
255.9999999999999
 20
-254.866354951332
 30
0.0
  0
ENDBLK
  5
8179
330
816E
100
AcDbEntity
  8
0
100
AcDbBlockEnd
  0
BLOCK
  5
8184
330
817A
100
AcDbEntity
  8
0
100
AcDbBlockBegin
  2
*D44
 70
     1
 10
0.0
 20
0.0
 30
0.0
  3
*D44
  1

  0
LINE
  5
81B3
330
817A
100
AcDbEntity
  8
30
  6
CONTINUOUS
 62
     0
100
AcDbLine
 10
507.0
 20
-231.3800613068345
 30
0.0
 11
507.0
 21
-254.866354951332
 31
0.0
  0
LINE
  5
81B4
330
817A
100
AcDbEntity
  8
30
  6
CONTINUOUS
 62
     0
100
AcDbLine
 10
336.0
 20
-1.0
 30
0.0
 11
336.0
 21
-254.866354951332
 31
0.0
  0
LINE
  5
81B5
330
817A
100
AcDbEntity
  8
30
  6
CONTINUOUS
 62
     0
100
AcDbLine
 10
505.0
 20
-254.3663549513321
 30
0.0
 11
338.0
 21
-254.3663549513321
 31
0.0
  0
INSERT
  5
81B6
330
817A
100
AcDbEntity
  8
30
  6
CONTINUOUS
 62
     0
100
AcDbBlockReference
  2
_OPEN
 10
507.0
 20
-254.3663549513321
 30
0.0
 41
2.0
 42
2.0
 43
2.0
  0
INSERT
  5
81B7
330
817A
100
AcDbEntity
  8
30
  6
CONTINUOUS
 62
     0
100
AcDbBlockReference
  2
_OPEN
 10
336.0
 20
-254.3663549513321
 30
0.0
 41
2.0
 42
2.0
 43
2.0
 50
180.0
  0
MTEXT
  5
81B8
330
817A
100
AcDbEntity
  8
30
  6
CONTINUOUS
 62
     0
100
AcDbMText
 10
421.4999999999998
 20
-249.866354951332
 30
0.0
 40
7.0
 41
0.0
 71
     5
 72
     1
  1
\A1;171
1001
ACAD
1000
MTEXTBEGIN
1070
    73
1070
     1
1070
    44
1040
1.0
1070
    74
1070
     0
1000
MTEXTEND
1000
MTEXTBEGIN
1070
    73
1070
     1
1070
    44
1040
1.0
1070
    74
1070
     0
1000
MTEXTEND
  0
POINT
  5
81B9
330
817A
100
AcDbEntity
  8
DEFPOINTS
  6
CONTINUOUS
 62
     0
100
AcDbPoint
 10
507.0
 20
-230.3800613068346
 30
0.0
  0
POINT
  5
81BA
330
817A
100
AcDbEntity
  8
DEFPOINTS
  6
CONTINUOUS
 62
     0
100
AcDbPoint
 10
336.0
 20
0.0
 30
0.0
  0
POINT
  5
81BB
330
817A
100
AcDbEntity
  8
DEFPOINTS
  6
CONTINUOUS
 62
     0
100
AcDbPoint
 10
336.0
 20
-254.3663549513321
 30
0.0
  0
ENDBLK
  5
8185
330
817A
100
AcDbEntity
  8
0
100
AcDbBlockEnd
  0
BLOCK
  5
8190
330
8186
100
AcDbEntity
  8
0
100
AcDbBlockBegin
  2
*D45
 70
     1
 10
0.0
 20
0.0
 30
0.0
  3
*D45
  1

  0
LINE
  5
81BC
330
8186
100
AcDbEntity
  8
30
  6
CONTINUOUS
 62
     0
100
AcDbLine
 10
387.0
 20
-141.0
 30
0.0
 11
387.0
 21
-230.8800613068346
 31
0.0
  0
LINE
  5
81BD
330
8186
100
AcDbEntity
  8
30
  6
CONTINUOUS
 62
     0
100
AcDbLine
 10
370.0000000000716
 20
-1.0
 30
0.0
 11
370.0000000000716
 21
-230.8800613068346
 31
0.0
  0
LINE
  5
81BE
330
8186
100
AcDbEntity
  8
30
  6
CONTINUOUS
 62
     0
100
AcDbLine
 10
385.0
 20
-230.3800613068346
 30
0.0
 11
372.0000000000716
 21
-230.3800613068346
 31
0.0
  0
INSERT
  5
81BF
330
8186
100
AcDbEntity
  8
30
  6
CONTINUOUS
 62
     0
100
AcDbBlockReference
  2
_OPEN
 10
387.0
 20
-230.3800613068346
 30
0.0
 41
2.0
 42
2.0
 43
2.0
  0
INSERT
  5
81C0
330
8186
100
AcDbEntity
  8
30
  6
CONTINUOUS
 62
     0
100
AcDbBlockReference
  2
_OPEN
 10
370.0000000000716
 20
-230.3800613068346
 30
0.0
 41
2.0
 42
2.0
 43
2.0
 50
180.0
  0
MTEXT
  5
81C1
330
8186
100
AcDbEntity
  8
30
  6
CONTINUOUS
 62
     0
100
AcDbMText
 10
378.5000000000357
 20
-225.8800613068345
 30
0.0
 40
7.0
 41
0.0
 71
     5
 72
     1
  1
\A1;17
1001
ACAD
1000
MTEXTBEGIN
1070
    73
1070
     1
1070
    44
1040
1.0
1070
    74
1070
     0
1000
MTEXTEND
1000
MTEXTBEGIN
1070
    73
1070
     1
1070
    44
1040
1.0
1070
    74
1070
     0
1000
MTEXTEND
  0
POINT
  5
81C2
330
8186
100
AcDbEntity
  8
DEFPOINTS
  6
CONTINUOUS
 62
     0
100
AcDbPoint
 10
387.0
 20
-140.0
 30
0.0
  0
POINT
  5
81C3
330
8186
100
AcDbEntity
  8
DEFPOINTS
  6
CONTINUOUS
 62
     0
100
AcDbPoint
 10
370.0000000000716
 20
0.0
 30
0.0
  0
POINT
  5
81C4
330
8186
100
AcDbEntity
  8
DEFPOINTS
  6
CONTINUOUS
 62
     0
100
AcDbPoint
 10
370.0000000000716
 20
-230.3800613068346
 30
0.0
  0
ENDBLK
  5
8191
330
8186
100
AcDbEntity
  8
0
100
AcDbBlockEnd
  0
BLOCK
  5
819C
330
8192
100
AcDbEntity
  8
0
100
AcDbBlockBegin
  2
*D46
 70
     1
 10
0.0
 20
0.0
 30
0.0
  3
*D46
  1

  0
LINE
  5
81C5
330
8192
100
AcDbEntity
  8
30
  6
CONTINUOUS
 62
     0
100
AcDbLine
 10
395.0
 20
-172.0
 30
0.0
 11
395.0
 21
-231.030510233064
 31
0.0
  0
LINE
  5
81C6
330
8192
100
AcDbEntity
  8
30
  6
CONTINUOUS
 62
     0
100
AcDbLine
 10
387.0
 20
-141.0
 30
0.0
 11
387.0
 21
-231.030510233064
 31
0.0
  0
LINE
  5
81C7
330
8192
100
AcDbEntity
  8
30
  6
CONTINUOUS
 62
     0
100
AcDbLine
 10
393.0
 20
-230.5305102330638
 30
0.0
 11
389.0
 21
-230.5305102330638
 31
0.0
  0
INSERT
  5
81C8
330
8192
100
AcDbEntity
  8
30
  6
CONTINUOUS
 62
     0
100
AcDbBlockReference
  2
_OPEN
 10
395.0
 20
-230.5305102330638
 30
0.0
 41
2.0
 42
2.0
 43
2.0
  0
INSERT
  5
81C9
330
8192
100
AcDbEntity
  8
30
  6
CONTINUOUS
 62
     0
100
AcDbBlockReference
  2
_OPEN
 10
387.0
 20
-230.5305102330638
 30
0.0
 41
2.0
 42
2.0
 43
2.0
 50
180.0
  0
MTEXT
  5
81CA
330
8192
100
AcDbEntity
  8
30
  6
CONTINUOUS
 62
     0
100
AcDbMText
 10
391.3705927610462
 20
-226.0305102330638
 30
0.0
 40
7.0
 41
0.0
 71
     5
 72
     1
  1
\A1;8
1001
ACAD
1000
MTEXTBEGIN
1070
    73
1070
     1
1070
    44
1040
1.0
1070
    74
1070
     0
1000
MTEXTEND
1000
MTEXTBEGIN
1070
    73
1070
     1
1070
    44
1040
1.0
1070
    74
1070
     0
1000
MTEXTEND
  0
POINT
  5
81CB
330
8192
100
AcDbEntity
  8
DEFPOINTS
  6
CONTINUOUS
 62
     0
100
AcDbPoint
 10
395.0
 20
-171.0
 30
0.0
  0
POINT
  5
81CC
330
8192
100
AcDbEntity
  8
DEFPOINTS
  6
CONTINUOUS
 62
     0
100
AcDbPoint
 10
387.0
 20
-140.0
 30
0.0
  0
POINT
  5
81CD
330
8192
100
AcDbEntity
  8
DEFPOINTS
  6
CONTINUOUS
 62
     0
100
AcDbPoint
 10
387.0
 20
-230.5305102330638
 30
0.0
  0
ENDBLK
  5
819D
330
8192
100
AcDbEntity
  8
0
100
AcDbBlockEnd
  0
BLOCK
  5
81A8
330
819E
100
AcDbEntity
  8
0
100
AcDbBlockBegin
  2
*D47
 70
     1
 10
0.0
 20
0.0
 30
0.0
  3
*D47
  1

  0
LINE
  5
81CE
330
819E
100
AcDbEntity
  8
30
  6
CONTINUOUS
 62
     0
100
AcDbLine
 10
507.0
 20
-172.0
 30
0.0
 11
507.0
 21
-230.8800613068346
 31
0.0
  0
LINE
  5
81CF
330
819E
100
AcDbEntity
  8
30
  6
CONTINUOUS
 62
     0
100
AcDbLine
 10
395.0
 20
-171.0
 30
0.0
 11
395.0
 21
-230.8800613068346
 31
0.0
  0
LINE
  5
81D0
330
819E
100
AcDbEntity
  8
30
  6
CONTINUOUS
 62
     0
100
AcDbLine
 10
505.0
 20
-230.3800613068346
 30
0.0
 11
397.0
 21
-230.3800613068346
 31
0.0
  0
INSERT
  5
81D1
330
819E
100
AcDbEntity
  8
30
  6
CONTINUOUS
 62
     0
100
AcDbBlockReference
  2
_OPEN
 10
507.0
 20
-230.3800613068346
 30
0.0
 41
2.0
 42
2.0
 43
2.0
  0
INSERT
  5
81D2
330
819E
100
AcDbEntity
  8
30
  6
CONTINUOUS
 62
     0
100
AcDbBlockReference
  2
_OPEN
 10
395.0
 20
-230.3800613068346
 30
0.0
 41
2.0
 42
2.0
 43
2.0
 50
180.0
  0
MTEXT
  5
81D3
330
819E
100
AcDbEntity
  8
30
  6
CONTINUOUS
 62
     0
100
AcDbMText
 10
451.0
 20
-225.8800613068345
 30
0.0
 40
7.0
 41
0.0
 71
     5
 72
     1
  1
\A1;112
1001
ACAD
1000
MTEXTBEGIN
1070
    73
1070
     1
1070
    44
1040
1.0
1070
    74
1070
     0
1000
MTEXTEND
1000
MTEXTBEGIN
1070
    73
1070
     1
1070
    44
1040
1.0
1070
    74
1070
     0
1000
MTEXTEND
  0
POINT
  5
81D4
330
819E
100
AcDbEntity
  8
DEFPOINTS
  6
CONTINUOUS
 62
     0
100
AcDbPoint
 10
507.0
 20
-171.0
 30
0.0
  0
POINT
  5
81D5
330
819E
100
AcDbEntity
  8
DEFPOINTS
  6
CONTINUOUS
 62
     0
100
AcDbPoint
 10
395.0
 20
-170.0
 30
0.0
  0
POINT
  5
81D6
330
819E
100
AcDbEntity
  8
DEFPOINTS
  6
CONTINUOUS
 62
     0
100
AcDbPoint
 10
395.0
 20
-230.3800613068346
 30
0.0
  0
ENDBLK
  5
81A9
330
819E
100
AcDbEntity
  8
0
100
AcDbBlockEnd
  0
BLOCK
  5
81E2
330
81D8
100
AcDbEntity
  8
0
100
AcDbBlockBegin
  2
*D48
 70
     1
 10
0.0
 20
0.0
 30
0.0
  3
*D48
  1

  0
LINE
  5
81D9
330
81D8
100
AcDbEntity
  8
30
  6
CONTINUOUS
 62
     0
100
AcDbLine
 10
93.49999999999999
 20
567.1402904381839
 30
0.0
 11
124.8875257438367
 21
567.1402904381839
 31
0.0
  0
LINE
  5
81DA
330
81D8
100
AcDbEntity
  8
30
  6
CONTINUOUS
 62
     0
100
AcDbLine
 10
86.0
 20
552.1402904381838
 30
0.0
 11
124.8875257438367
 21
552.1402904381838
 31
0.0
  0
LINE
  5
81DB
330
81D8
100
AcDbEntity
  8
30
  6
CONTINUOUS
 62
     0
100
AcDbLine
 10
124.3875257438367
 20
565.1402904381837
 30
0.0
 11
124.3875257438367
 21
554.1402904381839
 31
0.0
  0
INSERT
  5
81DC
330
81D8
100
AcDbEntity
  8
30
  6
CONTINUOUS
 62
     0
100
AcDbBlockReference
  2
_OPEN
 10
124.3875257438367
 20
567.1402904381839
 30
0.0
 41
2.0
 42
2.0
 43
2.0
 50
90.0
  0
INSERT
  5
81DD
330
81D8
100
AcDbEntity
  8
30
  6
CONTINUOUS
 62
     0
100
AcDbBlockReference
  2
_OPEN
 10
124.3875257438367
 20
552.1402904381838
 30
0.0
 41
2.0
 42
2.0
 43
2.0
 50
270.0
  0
MTEXT
  5
81DE
330
81D8
100
AcDbEntity
  8
30
  6
CONTINUOUS
 62
     0
100
AcDbMText
 10
119.8875257438365
 20
559.6402904381839
 30
0.0
 40
7.0
 41
0.0
 71
     5
 72
     1
  1
\A1;15
 11
0.0000000000000001
 21
1.0
 31
0.0
1001
ACAD
1000
MTEXTBEGIN
1070
    73
1070
     1
1070
    44
1040
1.0
1070
    74
1070
     0
1000
MTEXTEND
1000
MTEXTBEGIN
1070
    73
1070
     1
1070
    44
1040
1.0
1070
    74
1070
     0
1000
MTEXTEND
  0
POINT
  5
81DF
330
81D8
100
AcDbEntity
  8
DEFPOINTS
  6
CONTINUOUS
 62
     0
100
AcDbPoint
 10
92.5
 20
567.1402904381839
 30
0.0
  0
POINT
  5
81E0
330
81D8
100
AcDbEntity
  8
DEFPOINTS
  6
CONTINUOUS
 62
     0
100
AcDbPoint
 10
85.0
 20
552.1402904381838
 30
0.0
  0
POINT
  5
81E1
330
81D8
100
AcDbEntity
  8
DEFPOINTS
  6
CONTINUOUS
 62
     0
100
AcDbPoint
 10
124.3875257438367
 20
552.1402904381838
 30
0.0
  0
ENDBLK
  5
81E3
330
81D8
100
AcDbEntity
  8
0
100
AcDbBlockEnd
  0
BLOCK
  5
81EF
330
81E5
100
AcDbEntity
  8
0
100
AcDbBlockBegin
  2
*D49
 70
     1
 10
0.0
 20
0.0
 30
0.0
  3
*D49
  1

  0
LINE
  5
82D7
330
81E5
100
AcDbEntity
  8
30
  6
CONTINUOUS
 62
     0
100
AcDbLine
 10
86.0
 20
552.1402904381838
 30
0.0
 11
124.8875257438366
 21
552.1402904381838
 31
0.0
  0
LINE
  5
82D8
330
81E5
100
AcDbEntity
  8
30
  6
CONTINUOUS
 62
     0
100
AcDbLine
 10
86.0
 20
520.1402904381839
 30
0.0
 11
124.8875257438365
 21
520.1402904381839
 31
0.0
  0
LINE
  5
82D9
330
81E5
100
AcDbEntity
  8
30
  6
CONTINUOUS
 62
     0
100
AcDbLine
 10
124.3875257438366
 20
550.1402904381838
 30
0.0
 11
124.3875257438366
 21
522.1402904381839
 31
0.0
  0
INSERT
  5
82DA
330
81E5
100
AcDbEntity
  8
30
  6
CONTINUOUS
 62
     0
100
AcDbBlockReference
  2
_OPEN
 10
124.3875257438366
 20
552.1402904381838
 30
0.0
 41
2.0
 42
2.0
 43
2.0
 50
90.0
  0
INSERT
  5
82DB
330
81E5
100
AcDbEntity
  8
30
  6
CONTINUOUS
 62
     0
100
AcDbBlockReference
  2
_OPEN
 10
124.3875257438366
 20
520.1402904381839
 30
0.0
 41
2.0
 42
2.0
 43
2.0
 50
270.0
  0
MTEXT
  5
82DC
330
81E5
100
AcDbEntity
  8
30
  6
CONTINUOUS
 62
     0
100
AcDbMText
 10
119.8875257438364
 20
536.1402904381839
 30
0.0
 40
7.0
 41
0.0
 71
     5
 72
     1
  1
\A1;32
 11
0.0000000000000001
 21
1.0
 31
0.0
  0
POINT
  5
82DD
330
81E5
100
AcDbEntity
  8
DEFPOINTS
  6
CONTINUOUS
 62
     0
100
AcDbPoint
 10
85.0
 20
552.1402904381838
 30
0.0
  0
POINT
  5
82DE
330
81E5
100
AcDbEntity
  8
DEFPOINTS
  6
CONTINUOUS
 62
     0
100
AcDbPoint
 10
85.0
 20
520.1402904381839
 30
0.0
  0
POINT
  5
82DF
330
81E5
100
AcDbEntity
  8
DEFPOINTS
  6
CONTINUOUS
 62
     0
100
AcDbPoint
 10
124.3875257438366
 20
520.1402904381839
 30
0.0
  0
ENDBLK
  5
81F0
330
81E5
100
AcDbEntity
  8
0
100
AcDbBlockEnd
  0
BLOCK
  5
81FC
330
81F2
100
AcDbEntity
  8
0
100
AcDbBlockBegin
  2
*D50
 70
     1
 10
0.0
 20
0.0
 30
0.0
  3
*D50
  1

  0
LINE
  5
82E0
330
81F2
100
AcDbEntity
  8
30
  6
CONTINUOUS
 62
     0
100
AcDbLine
 10
86.0
 20
520.1402904381839
 30
0.0
 11
124.8875257438365
 21
520.1402904381839
 31
0.0
  0
LINE
  5
82E1
330
81F2
100
AcDbEntity
  8
30
  6
CONTINUOUS
 62
     0
100
AcDbLine
 10
86.0
 20
512.1402904381839
 30
0.0
 11
124.8875257438365
 21
512.1402904381839
 31
0.0
  0
LINE
  5
82E2
330
81F2
100
AcDbEntity
  8
30
  6
CONTINUOUS
 62
     0
100
AcDbLine
 10
124.3875257438366
 20
518.1402904381839
 30
0.0
 11
124.3875257438366
 21
514.1402904381839
 31
0.0
  0
INSERT
  5
82E3
330
81F2
100
AcDbEntity
  8
30
  6
CONTINUOUS
 62
     0
100
AcDbBlockReference
  2
_OPEN
 10
124.3875257438366
 20
520.1402904381839
 30
0.0
 41
2.0
 42
2.0
 43
2.0
 50
90.0
  0
INSERT
  5
82E4
330
81F2
100
AcDbEntity
  8
30
  6
CONTINUOUS
 62
     0
100
AcDbBlockReference
  2
_OPEN
 10
124.3875257438366
 20
512.1402904381839
 30
0.0
 41
2.0
 42
2.0
 43
2.0
 50
270.0
  0
MTEXT
  5
82E5
330
81F2
100
AcDbEntity
  8
30
  6
CONTINUOUS
 62
     0
100
AcDbMText
 10
119.8875257438364
 20
516.1402904381839
 30
0.0
 40
7.0
 41
0.0
 71
     5
 72
     1
  1
\A1;8
 11
0.0000000000000001
 21
1.0
 31
0.0
  0
POINT
  5
82E6
330
81F2
100
AcDbEntity
  8
DEFPOINTS
  6
CONTINUOUS
 62
     0
100
AcDbPoint
 10
85.0
 20
520.1402904381839
 30
0.0
  0
POINT
  5
82E7
330
81F2
100
AcDbEntity
  8
DEFPOINTS
  6
CONTINUOUS
 62
     0
100
AcDbPoint
 10
85.0
 20
512.1402904381839
 30
0.0
  0
POINT
  5
82E8
330
81F2
100
AcDbEntity
  8
DEFPOINTS
  6
CONTINUOUS
 62
     0
100
AcDbPoint
 10
124.3875257438366
 20
512.1402904381839
 30
0.0
  0
ENDBLK
  5
81FD
330
81F2
100
AcDbEntity
  8
0
100
AcDbBlockEnd
  0
BLOCK
  5
8209
330
81FF
100
AcDbEntity
  8
0
100
AcDbBlockBegin
  2
*D51
 70
     1
 10
0.0
 20
0.0
 30
0.0
  3
*D51
  1

  0
LINE
  5
82E9
330
81FF
100
AcDbEntity
  8
30
  6
CONTINUOUS
 62
     0
100
AcDbLine
 10
86.0
 20
512.1402904381839
 30
0.0
 11
124.8875257438366
 21
512.1402904381839
 31
0.0
  0
LINE
  5
82EA
330
81FF
100
AcDbEntity
  8
30
  6
CONTINUOUS
 62
     0
100
AcDbLine
 10
93.49999999999999
 20
476.1402904381839
 30
0.0
 11
124.8875257438365
 21
476.1402904381839
 31
0.0
  0
LINE
  5
82EB
330
81FF
100
AcDbEntity
  8
30
  6
CONTINUOUS
 62
     0
100
AcDbLine
 10
124.3875257438366
 20
510.1402904381838
 30
0.0
 11
124.3875257438366
 21
478.1402904381839
 31
0.0
  0
INSERT
  5
82EC
330
81FF
100
AcDbEntity
  8
30
  6
CONTINUOUS
 62
     0
100
AcDbBlockReference
  2
_OPEN
 10
124.3875257438366
 20
512.1402904381839
 30
0.0
 41
2.0
 42
2.0
 43
2.0
 50
90.0
  0
INSERT
  5
82ED
330
81FF
100
AcDbEntity
  8
30
  6
CONTINUOUS
 62
     0
100
AcDbBlockReference
  2
_OPEN
 10
124.3875257438366
 20
476.1402904381839
 30
0.0
 41
2.0
 42
2.0
 43
2.0
 50
270.0
  0
MTEXT
  5
82EE
330
81FF
100
AcDbEntity
  8
30
  6
CONTINUOUS
 62
     0
100
AcDbMText
 10
119.8875257438365
 20
494.1402904381838
 30
0.0
 40
7.0
 41
0.0
 71
     5
 72
     1
  1
\A1;36
 11
0.0000000000000001
 21
1.0
 31
0.0
  0
POINT
  5
82EF
330
81FF
100
AcDbEntity
  8
DEFPOINTS
  6
CONTINUOUS
 62
     0
100
AcDbPoint
 10
85.0
 20
512.1402904381839
 30
0.0
  0
POINT
  5
82F0
330
81FF
100
AcDbEntity
  8
DEFPOINTS
  6
CONTINUOUS
 62
     0
100
AcDbPoint
 10
92.5
 20
476.1402904381839
 30
0.0
  0
POINT
  5
82F1
330
81FF
100
AcDbEntity
  8
DEFPOINTS
  6
CONTINUOUS
 62
     0
100
AcDbPoint
 10
124.3875257438366
 20
476.1402904381839
 30
0.0
  0
ENDBLK
  5
820A
330
81FF
100
AcDbEntity
  8
0
100
AcDbBlockEnd
  0
ENDSEC
  0
SECTION
  2
ENTITIES
  0
LINE
  5
B5
330
1E
100
AcDbEntity
  8
16
100
AcDbLine
 10
257.6361914121166
 20
0.0000000000000107
 30
0.0
 11
-145.0
 21
0.0
 31
0.0
  0
MTEXT
  5
BF3
330
1E
100
AcDbEntity
  8
24
  6
CONTINUOUS
100
AcDbMText
 10
142.1181906098743
 20
177.5
 30
0.0
 40
3.0
 41
0.0
 71
     1
 72
     1
  1
\A1;
1001
ACAD
1000
MTEXTBEGIN
1070
    73
1070
     1
1070
    44
1040
1.0
1070
    74
1070
     0
1000
MTEXTEND
1000
MTEXTBEGIN
1070
    73
1070
     1
1070
    44
1040
1.0
1070
    74
1070
     0
1000
MTEXTEND
  0
LINE
  5
1C9A
330
1E
100
AcDbEntity
  8
16
100
AcDbLine
 10
0.0
 20
258.0
 30
0.0
 11
0.0
 21
436.0
 31
0.0
  0
LINE
  5
1C9B
330
1E
100
AcDbEntity
  8
16
100
AcDbLine
 10
625.0
 20
0.0
 30
0.0
 11
387.0
 21
0.0
 31
0.0
  0
LINE
  5
2233
330
1E
100
AcDbEntity
  8
16
100
AcDbLine
 10
395.0
 20
-793.1306816323568
 30
0.0
 11
395.0
 21
-371.5602850821105
 31
0.0
  0
LINE
  5
2234
330
1E
100
AcDbEntity
  8
16
100
AcDbLine
 10
597.1634296945397
 20
-601.0
 30
0.0
 11
293.1043600603313
 21
-601.0
 31
0.0
  0
LINE
  5
2260
330
1E
100
AcDbEntity
  8
16
100
AcDbLine
 10
202.1634296945399
 20
-601.0
 30
0.0
 11
-166.0
 21
-601.0
 31
0.0
  0
LINE
  5
2261
330
1E
100
AcDbEntity
  8
16
100
AcDbLine
 10
0.0
 20
-791.5926135610889
 30
0.0
 11
0.0
 21
-375.8062147299115
 31
0.0
  0
CIRCLE
  5
6A29
330
1E
100
AcDbEntity
  8
12
100
AcDbCircle
 10
35.0
 20
-754.9997558592999
 30
0.0
 40
4.5
  0
CIRCLE
  5
6A2A
330
1E
100
AcDbEntity
  8
12
100
AcDbCircle
 10
-35.0
 20
-754.9997558592999
 30
0.0
 40
4.5
  0
LINE
  5
6A2B
330
1E
100
AcDbEntity
  8
12
100
AcDbLine
 10
-50.0
 20
-754.9997558592999
 30
0.0
 11
-20.0
 21
-754.9997558592999
 31
0.0
  0
CIRCLE
  5
6A37
330
1E
100
AcDbEntity
  8
12
100
AcDbCircle
 10
35.0
 20
-417.0
 30
0.0
 40
4.5
  0
LINE
  5
6A38
330
1E
100
AcDbEntity
  8
12
100
AcDbLine
 10
-50.0
 20
-417.0
 30
0.0
 11
-20.0
 21
-417.0
 31
0.0
  0
LINE
  5
6A39
330
1E
100
AcDbEntity
  8
12
100
AcDbLine
 10
-35.0
 20
-401.9997558592998
 30
0.0
 11
-35.0
 21
-432.0
 31
0.0
  0
CIRCLE
  5
6A3A
330
1E
100
AcDbEntity
  8
12
100
AcDbCircle
 10
-35.0
 20
-417.0
 30
0.0
 40
4.5
  0
LINE
  5
6A3B
330
1E
100
AcDbEntity
  8
12
100
AcDbLine
 10
35.0
 20
-401.9997558592998
 30
0.0
 11
35.0
 21
-432.0
 31
0.0
  0
LWPOLYLINE
  5
6ED0
330
1E
100
AcDbEntity
  8
18
100
AcDbPolyline
 90
        4
 70
     1
 43
0.0
 10
-104.9997558594004
 20
-770.9997558592999
 10
-104.9997558594004
 20
-400.9997558592998
 10
105.0
 20
-400.9997558592998
 10
105.0
 20
-770.9997558592999
  0
LINE
  5
6ED1
330
1E
100
AcDbEntity
  8
12
100
AcDbLine
 10
35.0
 20
-401.9997558592998
 30
0.0
 11
35.0
 21
-432.0
 31
0.0
  0
LINE
  5
6ED2
330
1E
100
AcDbEntity
  8
12
100
AcDbLine
 10
-35.0
 20
-739.9995117185997
 30
0.0
 11
-35.0
 21
-769.9997558593
 31
0.0
  0
LINE
  5
6ED3
330
1E
100
AcDbEntity
  8
12
100
AcDbLine
 10
35.0
 20
-739.9995117185997
 30
0.0
 11
35.0
 21
-769.9997558593
 31
0.0
  0
LINE
  5
6ED4
330
1E
100
AcDbEntity
  8
12
100
AcDbLine
 10
20.0
 20
-754.9997558592999
 30
0.0
 11
50.0
 21
-754.9997558592999
 31
0.0
  0
TEXT
  5
6ED5
330
1E
100
AcDbEntity
  8
30
  6
CONTINUOUS
100
AcDbText
 10
59.73704305844647
 20
-725.4473330673579
 30
0.0
 40
7.0
  1
%%C9
100
AcDbText
  0
LEADER
  5
6ED6
330
1E
100
AcDbEntity
  8
30
  6
CONTINUOUS
100
AcDbLeader
  3
STANDARD
 76
     3
 10
37.99768925567889
 20
-749.9416939150058
 30
0.0
 10
47.75154943503184
 20
-725.7265809280353
 30
0.0
 10
78.52425257157769
 20
-725.7829347399749
 30
0.0
1001
ACAD
1000
DSTYLE
1002
{
1070
     5
1000
OPEN
1070
   342
1005
3B2
1002
}
  0
DIMENSION
  5
6F52
330
1E
100
AcDbEntity
  8
30
  6
CONTINUOUS
100
AcDbDimension
  2
*D2
 10
-201.0934457379698
 20
-601.0
 30
0.0
 11
-205.5934457379697
 21
-509.0
 31
0.0
 70
    32
  3
STANDARD
100
AcDbAlignedDimension
 13
-50.0
 23
-417.0
 33
0.0
 14
-166.0
 24
-601.0
 34
0.0
 50
90.0
100
AcDbRotatedDimension
  0
DIMENSION
  5
6F5F
330
1E
100
AcDbEntity
  8
30
  6
CONTINUOUS
100
AcDbDimension
  2
*D3
 10
-201.0934457379698
 20
-754.9997558592999
 30
0.0
 11
-205.5934457379696
 21
-677.99987792965
 31
0.0
 70
    32
  3
STANDARD
100
AcDbAlignedDimension
 13
-166.0
 23
-601.0
 33
0.0
 14
-50.0
 24
-754.9997558592999
 34
0.0
 50
90.0
100
AcDbRotatedDimension
1001
ACAD
1000
DSTYLE
1002
{
1070
   287
1070
     4
1070
   287
1070
     4
1070
   287
1070
     4
1070
   287
1070
     4
1070
   287
1070
     4
1070
   279
1070
     1
1002
}
  0
DIMENSION
  5
6F6C
330
1E
100
AcDbEntity
  8
30
  6
CONTINUOUS
100
AcDbDimension
  2
*D4
 10
35.0
 20
-810.4423648938418
 30
0.0
 11
0.0000000000000003
 21
-805.9423648938414
 31
0.0
 70
    32
  3
STANDARD
100
AcDbAlignedDimension
 13
-35.0
 23
-769.9997558593
 33
0.0
 14
35.0
 24
-769.9997558593
 34
0.0
100
AcDbRotatedDimension
  0
LINE
  5
73FF
330
1E
100
AcDbEntity
  8
12
100
AcDbLine
 10
20.0
 20
-417.0
 30
0.0
 11
50.0
 21
-417.0
 31
0.0
  0
LINE
  5
7514
330
1E
100
AcDbEntity
  8
16
100
AcDbLine
 10
0.0
 20
-225.5943258971377
 30
0.0
 11
0.0
 21
223.9297673754971
 31
0.0
  0
MTEXT
  5
7672
330
1E
100
AcDbEntity
  8
30
  6
CONTINUOUS
100
AcDbMText
 10
698.8165228534861
 20
111.6657616031319
 30
0.0
 40
5.0
 41
0.0
 71
     6
 72
     1
  1
\A1; 
1001
ACAD
1000
MTEXTBEGIN
1070
    73
1070
     1
1070
    44
1040
1.0
1070
    74
1070
     0
1000
MTEXTEND
1000
MTEXTBEGIN
1070
    73
1070
     1
1070
    44
1040
1.0
1070
    74
1070
     0
1000
MTEXTEND
  0
MTEXT
  5
7722
330
1E
100
AcDbEntity
  8
19
  6
CONTINUOUS
100
AcDbMText
 10
365.0823807484903
 20
510.1930320279293
 30
0.0
 40
7.0
 41
94.0
 71
     1
 72
     5
  1
XS1000NE 3P RC\PXS1200NE 3P RC\PXH1000NE 3P RC\PXH1200NE 3P RC
  7
STANDARD1
1001
ACAD
1000
MTEXTBEGIN
1070
    73
1070
     1
1070
    44
1040
1.0
1070
    74
1070
     0
1000
MTEXTEND
1000
MTEXTBEGIN
1070
    73
1070
     1
1070
    44
1040
1.0
1070
    74
1070
     0
1000
MTEXTEND
  0
LINE
  5
7967
330
1E
100
AcDbEntity
  8
10
  6
CONTINUOUS
100
AcDbLine
 10
-104.99993896485
 20
-115.5
 30
0.0
 11
104.99993896488
 21
-115.5
 31
0.0
  0
LINE
  5
7968
330
1E
100
AcDbEntity
  8
10
  6
CONTINUOUS
100
AcDbLine
 10
-104.99993896485
 20
-57.5
 30
0.0
 11
104.99993896488
 21
-57.5
 31
0.0
  0
LINE
  5
7969
330
1E
100
AcDbEntity
  8
10
  6
CONTINUOUS
100
AcDbLine
 10
104.99993896488
 20
-140.0
 30
0.0
 11
-104.99993896485
 21
-140.0
 31
0.0
  0
LINE
  5
796A
330
1E
100
AcDbEntity
  8
10
  6
CONTINUOUS
100
AcDbLine
 10
104.99993896488
 20
170.0
 30
0.0
 11
-104.99993896485
 21
170.0
 31
0.0
  0
CIRCLE
  5
796C
330
1E
100
AcDbEntity
  8
12
  6
DASHED
100
AcDbCircle
 10
35.00006103515998
 20
-154.0
 30
0.0
 40
8.5
  0
CIRCLE
  5
796D
330
1E
100
AcDbEntity
  8
12
  6
DASHED
100
AcDbCircle
 10
-35.0
 20
-154.0
 30
0.0
 40
8.5
  0
LINE
  5
796E
330
1E
100
AcDbEntity
  8
12
  6
DASHED
100
AcDbLine
 10
35.00006103515998
 20
-139.0
 30
0.0
 11
35.00006103515998
 21
-169.0
 31
0.0
  0
LINE
  5
796F
330
1E
100
AcDbEntity
  8
12
  6
DASHED
100
AcDbLine
 10
-35.0
 20
-139.0
 30
0.0
 11
-35.0
 21
-169.0
 31
0.0
  0
LINE
  5
7970
330
1E
100
AcDbEntity
  8
12
  6
DASHED
100
AcDbLine
 10
-50.0
 20
-154.0
 30
0.0
 11
-20.0
 21
-154.0
 31
0.0
  0
LINE
  5
7971
330
1E
100
AcDbEntity
  8
12
  6
DASHED
100
AcDbLine
 10
20.00006103516
 20
-154.0
 30
0.0
 11
50.00006103518
 21
-154.0
 31
0.0
  0
LINE
  5
797A
330
1E
100
AcDbEntity
  8
12
  6
DASHED
100
AcDbLine
 10
-35.0
 20
169.0
 30
0.0
 11
-35.0
 21
199.0
 31
0.0
  0
CIRCLE
  5
797B
330
1E
100
AcDbEntity
  8
12
  6
DASHED
100
AcDbCircle
 10
-35.0
 20
184.0
 30
0.0
 40
8.5
  0
LINE
  5
797C
330
1E
100
AcDbEntity
  8
12
  6
DASHED
100
AcDbLine
 10
-50.0
 20
184.0
 30
0.0
 11
-20.0
 21
184.0
 31
0.0
  0
LINE
  5
797D
330
1E
100
AcDbEntity
  8
12
  6
DASHED
100
AcDbLine
 10
20.00006103516
 20
184.0
 30
0.0
 11
50.00006103518
 21
184.0
 31
0.0
  0
CIRCLE
  5
797E
330
1E
100
AcDbEntity
  8
12
  6
DASHED
100
AcDbCircle
 10
35.00006103515998
 20
184.0
 30
0.0
 40
8.5
  0
LINE
  5
797F
330
1E
100
AcDbEntity
  8
12
  6
DASHED
100
AcDbLine
 10
35.00006103515998
 20
169.0
 30
0.0
 11
35.00006103515998
 21
199.0
 31
0.0
  0
LWPOLYLINE
  5
7985
330
1E
100
AcDbEntity
  8
10
  6
CONTINUOUS
100
AcDbPolyline
 90
        4
 70
     1
 43
0.0
 10
104.99993896488
 20
-170.0
 10
-104.99993896485
 20
-170.0
 10
-104.99993896485
 20
200.0
 10
104.99993896488
 20
200.0
  0
LWPOLYLINE
  5
7989
330
1E
100
AcDbEntity
  8
10
  6
CONTINUOUS
100
AcDbPolyline
 90
        4
 70
     1
 43
0.0
 10
39.00006103515999
 20
-47.5
 10
-39.0
 20
-47.5
 10
-39.0
 20
47.5
 10
39.00006103515999
 20
47.5
  0
LWPOLYLINE
  5
798D
330
1E
100
AcDbEntity
  8
10
  6
CONTINUOUS
100
AcDbPolyline
 90
        4
 70
     1
 43
0.0
 10
22.50006103516
 20
-23.0
 10
-22.5
 20
-23.0
 10
-22.5
 20
32.0
 10
22.50006103516
 20
32.0
  0
DIMENSION
  5
7991
330
1E
100
AcDbEntity
  8
30
  6
CONTINUOUS
100
AcDbDimension
  2
*D9
 10
163.9083041793778
 20
-169.9997558592999
 30
0.0
 11
159.4083041793779
 21
15.0002441407001
 31
0.0
 70
    32
  3
STANDARD
100
AcDbAlignedDimension
 13
104.99993896488
 23
200.0002441407001
 33
0.0
 14
104.99993896488
 24
-169.9997558592999
 34
0.0
 50
90.0
100
AcDbRotatedDimension
  0
DIMENSION
  5
7992
330
1E
100
AcDbEntity
  8
30
  6
CONTINUOUS
100
AcDbDimension
  2
*D8
 10
144.8585588512718
 20
-169.9997558592999
 30
0.0
 11
140.3585588512718
 21
-84.99975585929989
 31
0.0
 70
    32
  3
STANDARD
100
AcDbAlignedDimension
 13
104.99993896488
 23
0.0002441407000902
 33
0.0
 14
105.99993896488
 24
-169.9997558592999
 34
0.0
 50
90.0
100
AcDbRotatedDimension
1001
ACAD
1000
DSTYLE
1002
{
1070
   287
1070
     4
1070
   287
1070
     4
1070
   287
1070
     4
1070
   287
1070
     4
1070
   287
1070
     4
1070
   279
1070
     1
1002
}
  0
DIMENSION
  5
7993
330
1E
100
AcDbEntity
  8
30
  6
CONTINUOUS
100
AcDbDimension
  2
*D7
 10
144.8585588512718
 20
0.0002441407000789
 30
0.0
 11
140.3585588512718
 21
100.0002441407001
 31
0.0
 70
    32
  3
STANDARD
100
AcDbAlignedDimension
 13
105.99993896488
 23
200.0002441407001
 33
0.0
 14
104.99993896488
 24
0.0002441407000902
 34
0.0
 50
90.0
100
AcDbRotatedDimension
1001
ACAD
1000
DSTYLE
1002
{
1070
   287
1070
     4
1070
   287
1070
     4
1070
   287
1070
     4
1070
   287
1070
     4
1070
   287
1070
     4
1070
   279
1070
     1
1002
}
  0
DIMENSION
  5
79D3
330
1E
100
AcDbEntity
  8
30
  6
CONTINUOUS
100
AcDbDimension
  2
*D10
 10
-104.99993896485
 20
235.6263349819032
 30
0.0
 11
0.0000000000150069
 21
240.1263349819032
 31
0.0
 70
    32
  3
STANDARD
100
AcDbAlignedDimension
 13
104.99993896488
 23
200.0
 33
0.0
 14
-104.99993896485
 24
200.0
 34
0.0
100
AcDbRotatedDimension
  0
DIMENSION
  5
7B02
330
1E
100
AcDbEntity
  8
30
  6
CONTINUOUS
100
AcDbDimension
  2
*D11
 10
673.4278962586222
 20
138.0
 30
0.0
 11
679.0945629252892
 21
157.1347692395738
 31
0.0
 70
   160
  1
12
  3
STANDARD
100
AcDbAlignedDimension
 13
618.0
 23
150.0
 33
0.0
 14
618.0
 24
138.0
 34
0.0
 50
270.0
100
AcDbRotatedDimension
  0
LINE
  5
7B04
330
1E
100
AcDbEntity
  8
24
  6
CONTINOUS
100
AcDbLine
 10
563.0
 20
123.0
 30
0.0
 11
563.0
 21
165.0
 31
0.0
  0
LINE
  5
7B05
330
1E
100
AcDbEntity
  8
24
  6
CONTINOUS
100
AcDbLine
 10
571.0
 20
165.0
 30
0.0
 11
571.0
 21
123.0
 31
0.0
  0
LINE
  5
7B06
330
1E
100
AcDbEntity
  8
24
  6
CONTINOUS
100
AcDbLine
 10
603.0
 20
165.0
 30
0.0
 11
603.0
 21
123.0
 31
0.0
  0
LINE
  5
7B07
330
1E
100
AcDbEntity
  8
21
100
AcDbLine
 10
618.0
 20
150.0
 30
0.0
 11
618.0
 21
138.0
 31
0.0
  0
LINE
  5
7B08
330
1E
100
AcDbEntity
  8
18
100
AcDbLine
 10
516.0
 20
-220.0
 30
0.0
 11
516.0
 21
250.0004882811999
 31
0.0
  0
CIRCLE
  5
7B0A
330
1E
100
AcDbEntity
  8
18
100
AcDbCircle
 10
286.1921027274966
 20
57.80023059830863
 30
0.0
 40
20.0000000000001
  0
LINE
  5
7B0B
330
1E
100
AcDbEntity
  8
12
  6
DASHED
100
AcDbLine
 10
523.0
 20
-163.0
 30
0.0
 11
523.0
 21
-145.0
 31
0.0
  0
LINE
  5
7B0E
330
1E
100
AcDbEntity
  8
12
  6
DASHED
100
AcDbLine
 10
525.0
 20
-158.0
 30
0.0
 11
525.0
 21
-150.0
 31
0.0
  0
LINE
  5
7B0F
330
1E
100
AcDbEntity
  8
18
100
AcDbLine
 10
507.0
 20
-170.0
 30
0.0
 11
507.0
 21
-220.0
 31
0.0
  0
LINE
  5
7B10
330
1E
100
AcDbEntity
  8
18
100
AcDbLine
 10
516.0
 20
-220.0
 30
0.0
 11
507.0
 21
-220.0
 31
0.0
  0
LINE
  5
7B11
330
1E
100
AcDbEntity
  8
12
  6
DASHED
100
AcDbLine
 10
523.0
 20
-163.0
 30
0.0
 11
516.0
 21
-163.0
 31
0.0
  0
LINE
  5
7B12
330
1E
100
AcDbEntity
  8
12
  6
DASHED
100
AcDbLine
 10
525.0
 20
-158.0
 30
0.0
 11
516.0
 21
-158.0
 31
0.0
  0
LINE
  5
7B13
330
1E
100
AcDbEntity
  8
12
  6
DASHED
100
AcDbLine
 10
516.0
 20
-150.0
 30
0.0
 11
525.0
 21
-150.0
 31
0.0
  0
LINE
  5
7B14
330
1E
100
AcDbEntity
  8
12
  6
DASHED
100
AcDbLine
 10
492.0
 20
-154.0
 30
0.0
 11
537.0
 21
-154.0
 31
0.0
  0
DIMENSION
  5
7B2A
330
1E
100
AcDbEntity
  8
30
  6
CONTINUOUS
100
AcDbDimension
  2
*D12
 10
665.0
 20
-13.4052734375
 30
0.0
 11
592.7105263157893
 21
-13.4052734375
 31
0.0
 70
   160
  3
STANDARD
100
AcDbAlignedDimension
 13
525.0
 23
-149.9064941407
 33
0.0
 14
665.0
 24
-88.90649414070002
 34
0.0
100
AcDbRotatedDimension
  0
LINE
  5
7B2B
330
1E
100
AcDbEntity
  8
18
100
AcDbLine
 10
665.0
 20
-139.0
 30
0.0
 11
516.0
 21
-139.0
 31
0.0
  0
LINE
  5
7B2C
330
1E
100
AcDbEntity
  8
18
100
AcDbLine
 10
665.0
 20
-89.0
 30
0.0
 11
516.0
 21
-89.0
 31
0.0
  0
CIRCLE
  5
7B2D
330
1E
100
AcDbEntity
  8
24
  6
CONTINOUS
100
AcDbCircle
 10
603.0
 20
-114.0
 30
0.0
 40
6.5
  0
LINE
  5
7B2E
330
1E
100
AcDbEntity
  8
21
100
AcDbLine
 10
618.0
 20
-136.4999999999999
 30
0.0
 11
507.0
 21
-136.4999999999999
 31
0.0
  0
LINE
  5
7B2F
330
1E
100
AcDbEntity
  8
21
100
AcDbLine
 10
507.0
 20
-91.5
 30
0.0
 11
618.0
 21
-91.5
 31
0.0
  0
LINE
  5
7B30
330
1E
100
AcDbEntity
  8
18
100
AcDbLine
 10
553.0
 20
-142.5
 30
0.0
 11
516.0
 21
-142.5
 31
0.0
  0
LINE
  5
7B31
330
1E
100
AcDbEntity
  8
18
100
AcDbLine
 10
553.0
 20
-141.5
 30
0.0
 11
516.0
 21
-141.5
 31
0.0
  0
LINE
  5
7B32
330
1E
100
AcDbEntity
  8
12
  6
DASHED
100
AcDbLine
 10
516.0
 20
-145.0
 30
0.0
 11
523.0
 21
-145.0
 31
0.0
  0
ARC
  5
7B33
330
1E
100
AcDbEntity
  8
24
  6
CONTINOUS
100
AcDbCircle
 10
563.0
 20
-114.0
 30
0.0
 40
6.5
100
AcDbArc
 50
90.0
 51
270.0
  0
LINE
  5
7B34
330
1E
100
AcDbEntity
  8
18
100
AcDbLine
 10
553.0
 20
-141.5
 30
0.0
 11
553.0
 21
-142.5
 31
0.0
  0
LINE
  5
7B35
330
1E
100
AcDbEntity
  8
24
  6
CONTINOUS
100
AcDbLine
 10
571.0
 20
-107.4999999999999
 30
0.0
 11
563.0
 21
-107.4999999999999
 31
0.0
  0
LINE
  5
7B36
330
1E
100
AcDbEntity
  8
24
  6
CONTINOUS
100
AcDbLine
 10
571.0
 20
-120.5
 30
0.0
 11
563.0
 21
-120.5
 31
0.0
  0
ARC
  5
7B37
330
1E
100
AcDbEntity
  8
24
  6
CONTINOUS
100
AcDbCircle
 10
571.0
 20
-114.0
 30
0.0
 40
6.5
100
AcDbArc
 50
270.0
 51
90.0
  0
LINE
  5
7B38
330
1E
100
AcDbEntity
  8
24
  6
CONTINOUS
100
AcDbLine
 10
563.0
 20
-129.0
 30
0.0
 11
563.0
 21
-99.0
 31
0.0
  0
LINE
  5
7B39
330
1E
100
AcDbEntity
  8
24
  6
CONTINOUS
100
AcDbLine
 10
571.0
 20
-99.0
 30
0.0
 11
571.0
 21
-129.0
 31
0.0
  0
LINE
  5
7B3A
330
1E
100
AcDbEntity
  8
24
  6
CONTINOUS
100
AcDbLine
 10
603.0
 20
-129.0
 30
0.0
 11
603.0
 21
-99.0
 31
0.0
  0
LINE
  5
7B3B
330
1E
100
AcDbEntity
  8
21
100
AcDbLine
 10
618.0
 20
-91.5
 30
0.0
 11
618.0
 21
-136.4999999999999
 31
0.0
  0
LINE
  5
7B3C
330
1E
100
AcDbEntity
  8
18
100
AcDbLine
 10
665.0
 20
-89.0
 30
0.0
 11
665.0
 21
-139.0
 31
0.0
  0
LINE
  5
7B3D
330
1E
100
AcDbEntity
  8
21
100
AcDbLine
 10
618.0
 20
138.0
 30
0.0
 11
507.0
 21
138.0
 31
0.0
  0
LINE
  5
7B41
330
1E
100
AcDbEntity
  8
21
100
AcDbLine
 10
618.0
 20
150.0
 30
0.0
 11
507.0
 21
150.0
 31
0.0
  0
LINE
  5
7B42
330
1E
100
AcDbEntity
  8
18
100
AcDbLine
 10
507.0
 20
250.0004882811999
 30
0.0
 11
507.0
 21
200.0004882811999
 31
0.0
  0
LINE
  5
7B43
330
1E
100
AcDbEntity
  8
12
  6
DASHED
100
AcDbLine
 10
547.0
 20
184.0
 30
0.0
 11
492.0
 21
184.0
 31
0.0
  0
LINE
  5
7B44
330
1E
100
AcDbEntity
  8
18
100
AcDbLine
 10
544.0
 20
166.5
 30
0.0
 11
507.0
 21
166.5
 31
0.0
  0
LINE
  5
7B45
330
1E
100
AcDbEntity
  8
18
100
AcDbLine
 10
544.0
 20
167.5
 30
0.0
 11
544.0
 21
166.5
 31
0.0
  0
LINE
  5
7B46
330
1E
100
AcDbEntity
  8
18
100
AcDbLine
 10
544.0
 20
167.5
 30
0.0
 11
507.0
 21
167.5
 31
0.0
  0
LINE
  5
7B47
330
1E
100
AcDbEntity
  8
12
  6
DASHED
100
AcDbLine
 10
528.0
 20
180.0
 30
0.0
 11
516.0
 21
180.0
 31
0.0
  0
LINE
  5
7B48
330
1E
100
AcDbEntity
  8
12
  6
DASHED
100
AcDbLine
 10
516.0
 20
188.0
 30
0.0
 11
528.0
 21
188.0
 31
0.0
  0
LINE
  5
7B49
330
1E
100
AcDbEntity
  8
12
  6
DASHED
100
AcDbLine
 10
528.0
 20
188.0
 30
0.0
 11
528.0
 21
180.0
 31
0.0
  0
LINE
  5
7B4A
330
1E
100
AcDbEntity
  8
12
  6
DASHED
100
AcDbLine
 10
526.0
 20
193.0
 30
0.0
 11
526.0
 21
175.0
 31
0.0
  0
LINE
  5
7B4B
330
1E
100
AcDbEntity
  8
12
  6
DASHED
100
AcDbLine
 10
516.0
 20
193.0
 30
0.0
 11
526.0
 21
193.0
 31
0.0
  0
LINE
  5
7B4C
330
1E
100
AcDbEntity
  8
12
  6
DASHED
100
AcDbLine
 10
516.0
 20
175.0
 30
0.0
 11
526.0
 21
175.0
 31
0.0
  0
LINE
  5
7B4D
330
1E
100
AcDbEntity
  8
18
100
AcDbLine
 10
516.0
 20
250.0004882811999
 30
0.0
 11
507.0
 21
250.0004882811999
 31
0.0
  0
DIMENSION
  5
7B4F
330
1E
100
AcDbEntity
  8
30
  6
CONTINUOUS
100
AcDbDimension
  2
*D13
 10
709.3317372340639
 20
-114.0
 30
0.0
 11
709.3317372340639
 21
13.69736768341681
 31
0.0
 70
   160
  1
258
  3
STANDARD
100
AcDbAlignedDimension
 13
498.0936279297
 23
144.0
 33
0.0
 14
497.1733398437
 24
-114.0
 34
0.0
 50
270.0
100
AcDbRotatedDimension
  0
LWPOLYLINE
  5
7BBA
330
1E
100
AcDbEntity
  8
10
  6
CONTINUOUS
100
AcDbPolyline
 90
        8
 70
     1
 43
0.0
 10
395.0
 20
170.0002441406
 10
387.0
 20
170.0002441406
 10
387.0
 20
-140.0
 10
395.0
 20
-140.0
 10
395.0
 20
-170.0
 10
507.0
 20
-170.0
 10
507.0
 20
200.0004882811999
 10
395.0
 20
200.0004882811999
  0
LWPOLYLINE
  5
7BC2
330
1E
100
AcDbEntity
  8
10
  6
CONTINUOUS
100
AcDbPolyline
 90
        2
 70
     0
 43
0.0
 10
375.9999997765989
 20
29.39387638879713
 42
0.2041241247171607
 10
375.9999979079799
 20
-29.39387200234911
  0
LWPOLYLINE
  5
7BC3
330
1E
100
AcDbEntity
  8
10
  6
CONTINUOUS
100
AcDbPolyline
 90
        3
 70
     0
 43
0.0
 10
376.0
 20
-29.39404296880002
 10
376.0
 20
-47.5
 10
387.0
 20
-47.5
  0
LWPOLYLINE
  5
7BC5
330
1E
100
AcDbEntity
  8
10
  6
CONTINUOUS
100
AcDbPolyline
 90
        3
 70
     0
 43
0.0
 10
376.0
 20
29.39404296869998
 10
376.0
 20
47.5
 10
387.0
 20
47.5
  0
LWPOLYLINE
  5
7BC6
330
1E
100
AcDbEntity
  8
10
  6
CONTINUOUS
100
AcDbPolyline
 90
        2
 70
     0
 43
0.0
 10
372.189453125
 20
17.98974609369996
 10
369.2905273436998
 20
20.55908203119996
  0
LWPOLYLINE
  5
7BC7
330
1E
100
AcDbEntity
  8
10
  6
CONTINUOUS
100
AcDbPolyline
 90
        2
 70
     0
 43
0.0
 10
376.0
 20
32.9755859375
 10
373.7880859375
 20
32.916015625
  0
LWPOLYLINE
  5
7BC8
330
1E
100
AcDbEntity
  8
10
  6
CONTINUOUS
100
AcDbPolyline
 90
        2
 70
     0
 43
0.0
 10
369.289459195492
 20
20.55754783130903
 42
0.0879559986123275
 10
367.8008424665691
 20
21.46924597408528
  0
LWPOLYLINE
  5
7BC9
330
1E
100
AcDbEntity
  8
10
  6
CONTINUOUS
100
AcDbPolyline
 90
        2
 70
     0
 43
0.0
 10
372.060796771549
 20
33.17337300274192
 42
0.0879559385487373
 10
373.7871704314258
 20
32.91490993420401
  0
LWPOLYLINE
  5
7BCB
330
1E
100
AcDbEntity
  8
18
100
AcDbPolyline
 90
        6
 70
     0
 43
0.0
 10
310.3205566405998
 20
59.14013671869998
 10
339.5031738280998
 20
52.232421875
 10
373.3317871094
 20
39.91943359369997
 10
364.4392089844
 20
15.48779296869997
 10
330.6105957030998
 20
27.80029296869997
 10
303.8151855469
 20
41.26660156249999
  0
LWPOLYLINE
  5
7BCC
330
1E
100
AcDbEntity
  8
18
100
AcDbPolyline
 90
        2
 70
     0
 43
0.0
 10
303.8146470060214
 20
41.26534036667842
 42
0.2638043047459365
 10
296.9174127520972
 20
40.91910970370081
  0
LWPOLYLINE
  5
7BCD
330
1E
100
AcDbEntity
  8
18
100
AcDbPolyline
 90
        2
 70
     0
 43
0.0
 10
305.2591427297051
 20
63.83782145378265
 42
0.2638042091204253
 10
310.3201761998716
 20
59.13913800385515
  0
LWPOLYLINE
  5
7BD2
330
1E
100
AcDbEntity
  8
10
  6
CONTINUOUS
100
AcDbPolyline
 90
        4
 70
     0
 43
0.0
 10
372.0615234374998
 20
33.17529296869997
 10
344.4548339844
 20
42.44873046869996
 10
340.6921386719
 20
32.11181640619997
 10
367.8012695311998
 20
21.47021484369996
  0
DIMENSION
  5
7BFD
330
1E
100
AcDbEntity
  8
30
  6
CONTINUOUS
100
AcDbDimension
  2
*D14
 10
525.0
 20
-230.3800613068346
 30
0.0
 11
516.0
 21
-225.8800613068345
 31
0.0
 70
    32
  3
STANDARD
100
AcDbAlignedDimension
 13
507.0
 23
-170.0
 33
0.0
 14
525.0
 24
-158.0
 34
0.0
100
AcDbRotatedDimension
  0
DIMENSION
  5
7C25
330
1E
100
AcDbEntity
  8
30
  6
CONTINUOUS
100
AcDbDimension
  2
*D15
 10
641.8764909405463
 20
-136.4999999999999
 30
0.0
 11
637.3764909405463
 21
-113.9999999999999
 31
0.0
 70
    32
  3
STANDARD
100
AcDbAlignedDimension
 13
618.0
 23
-91.5
 33
0.0
 14
618.0
 24
-136.4999999999999
 34
0.0
 50
90.0
100
AcDbRotatedDimension
  0
DIMENSION
  5
7D60
330
1E
100
AcDbEntity
  8
30
  6
CONTINUOUS
100
AcDbDimension
  2
*D16
 10
427.4445195208897
 20
-558.1664414373283
 30
0.0
 11
443.4445195208905
 21
-535.666441437328
 31
0.0
 70
   164
  1
R6
  3
STANDARD
100
AcDbRadialDimension
 15
429.4999999999993
 25
-552.0
 35
0.0
 40
0.0
1001
ACAD
1000
DSTYLE
1002
{
1070
   288
1070
     1
1002
}
  0
LWPOLYLINE
  5
7D61
330
1E
100
AcDbEntity
  8
18
100
AcDbPolyline
 90
        4
 70
     1
 43
0.0
 10
570.0
 20
-771.0
 10
570.0
 20
-401.0
 10
290.0
 20
-401.0
 10
290.0
 20
-771.0
  0
LINE
  5
7D62
330
1E
100
AcDbEntity
  8
16
100
AcDbLine
 10
395.0
 20
-793.1306816323568
 30
0.0
 11
395.0
 21
-371.5602850821105
 31
0.0
  0
LINE
  5
7D63
330
1E
100
AcDbEntity
  8
16
100
AcDbLine
 10
597.1634296945397
 20
-601.0
 30
0.0
 11
293.1043600603313
 21
-601.0
 31
0.0
  0
DIMENSION
  5
7D64
330
1E
100
AcDbEntity
  8
30
  6
CONTINUOUS
100
AcDbDimension
  2
*D17
 10
435.5
 20
-683.7650401241262
 30
0.0
 11
394.9999999999998
 21
-679.2650401241262
 31
0.0
 70
    32
  3
STANDARD
100
AcDbAlignedDimension
 13
354.4999999999998
 23
-644.0
 33
0.0
 14
435.5
 24
-644.0
 34
0.0
100
AcDbRotatedDimension
  0
LWPOLYLINE
  5
7D65
330
1E
100
AcDbEntity
  8
11
  6
CONTINUOUS
100
AcDbPolyline
 90
        8
 70
     1
 43
0.0
 10
435.5
 20
-644.0
 10
435.5
 20
-558.0
 42
0.4142135623730951
 10
429.4999999999998
 20
-552.0
 10
360.4999999999998
 20
-552.0
 42
0.4142135623730951
 10
354.4999999999998
 20
-558.0
 10
354.4999999999998
 20
-644.0
 42
0.4142135623730951
 10
360.4999999999998
 20
-650.0
 10
429.4999999999998
 20
-650.0
 42
0.4142135623730951
  0
DIMENSION
  5
7D66
330
1E
100
AcDbEntity
  8
30
  6
CONTINUOUS
100
AcDbDimension
  2
*D18
 10
333.097286732649
 20
-650.0
 30
0.0
 11
328.5972867326491
 21
-600.9999999999998
 31
0.0
 70
    32
  3
STANDARD
100
AcDbAlignedDimension
 13
360.4999999999998
 23
-552.0
 33
0.0
 14
360.4999999999998
 24
-650.0
 34
0.0
 50
90.0
100
AcDbRotatedDimension
  0
LINE
  5
7E30
330
1E
100
AcDbEntity
  8
11
  6
CONTINUOUS
100
AcDbLine
 10
115.0
 20
-427.0
 30
0.0
 11
-114.9999999999999
 21
-427.0
 31
0.0
  0
LINE
  5
7E31
330
1E
100
AcDbEntity
  8
11
  6
CONTINUOUS
100
AcDbLine
 10
115.0
 20
-427.0
 30
0.0
 11
115.0
 21
-500.0
 31
0.0
  0
LINE
  5
7E32
330
1E
100
AcDbEntity
  8
11
  6
CONTINUOUS
100
AcDbLine
 10
115.0
 20
-500.0
 30
0.0
 11
-114.9999999999999
 21
-500.0
 31
0.0
  0
LINE
  5
7E33
330
1E
100
AcDbEntity
  8
11
  6
CONTINUOUS
100
AcDbLine
 10
-114.9999999999999
 20
-427.0
 30
0.0
 11
-114.9999999999999
 21
-500.0
 31
0.0
  0
LINE
  5
7E34
330
1E
100
AcDbEntity
  8
11
  6
CONTINUOUS
100
AcDbLine
 10
115.0
 20
-672.0
 30
0.0
 11
-114.9999999999999
 21
-672.0
 31
0.0
  0
LINE
  5
7E35
330
1E
100
AcDbEntity
  8
11
  6
CONTINUOUS
100
AcDbLine
 10
115.0
 20
-745.0
 30
0.0
 11
115.0
 21
-672.0
 31
0.0
  0
LINE
  5
7E36
330
1E
100
AcDbEntity
  8
11
  6
CONTINUOUS
100
AcDbLine
 10
-114.9999999999999
 20
-745.0
 30
0.0
 11
115.0
 21
-745.0
 31
0.0
  0
LINE
  5
7E37
330
1E
100
AcDbEntity
  8
11
  6
CONTINUOUS
100
AcDbLine
 10
-114.9999999999999
 20
-672.0
 30
0.0
 11
-114.9999999999999
 21
-745.0
 31
0.0
  0
DIMENSION
  5
7E38
330
1E
100
AcDbEntity
  8
30
  6
CONTINUOUS
100
AcDbDimension
  2
*D19
 10
115.0
 20
-839.6783846693715
 30
0.0
 11
0.0000000000000287
 21
-835.1783846693715
 31
0.0
 70
    32
  3
STANDARD
100
AcDbAlignedDimension
 13
-114.9999999999999
 23
-745.0
 33
0.0
 14
115.0
 24
-745.0
 34
0.0
100
AcDbRotatedDimension
  0
DIMENSION
  5
7E45
330
1E
100
AcDbEntity
  8
30
  6
CONTINUOUS
100
AcDbDimension
  2
*D20
 10
151.7205927310651
 20
-500.0
 30
0.0
 11
147.2205927310652
 21
-463.4999999999998
 31
0.0
 70
    32
  3
STANDARD
100
AcDbAlignedDimension
 13
115.0
 23
-427.0
 33
0.0
 14
115.0
 24
-500.0
 34
0.0
 50
90.0
100
AcDbRotatedDimension
  0
DIMENSION
  5
7E52
330
1E
100
AcDbEntity
  8
30
  6
CONTINUOUS
100
AcDbDimension
  2
*D21
 10
152.220592731065
 20
-601.0
 30
0.0
 11
147.7205927310652
 21
-550.4999999999999
 31
0.0
 70
    32
  3
STANDARD
100
AcDbAlignedDimension
 13
116.0
 23
-500.0
 33
0.0
 14
105.0
 24
-601.0
 34
0.0
 50
90.0
100
AcDbRotatedDimension
  0
DIMENSION
  5
7E68
330
1E
100
AcDbEntity
  8
30
  6
CONTINUOUS
100
AcDbDimension
  2
*D22
 10
152.220592731065
 20
-672.0
 30
0.0
 11
147.7205927310652
 21
-636.5
 31
0.0
 70
    32
  3
STANDARD
100
AcDbAlignedDimension
 13
105.0
 23
-601.0
 33
0.0
 14
115.0
 24
-672.0
 34
0.0
 50
90.0
100
AcDbRotatedDimension
1001
ACAD
1000
DSTYLE
1002
{
1070
   287
1070
     4
1070
   287
1070
     4
1070
   279
1070
     1
1002
}
  0
DIMENSION
  5
7E75
330
1E
100
AcDbEntity
  8
30
  6
CONTINUOUS
100
AcDbDimension
  2
*D23
 10
152.220592731065
 20
-745.0
 30
0.0
 11
147.7205927310651
 21
-708.4999999999999
 31
0.0
 70
    32
  3
STANDARD
100
AcDbAlignedDimension
 13
115.0
 23
-672.0
 33
0.0
 14
115.0
 24
-745.0
 34
0.0
 50
90.0
100
AcDbRotatedDimension
1001
ACAD
1000
DSTYLE
1002
{
1070
   287
1070
     4
1070
   287
1070
     4
1070
   279
1070
     1
1002
}
  0
LINE
  5
8009
330
1E
100
AcDbEntity
  8
10
  6
CONTINUOUS
100
AcDbLine
 10
-104.9997558594
 20
344.1402904381839
 30
0.0
 11
104.9902343749999
 21
344.1402904381839
 31
0.0
  0
LINE
  5
800A
330
1E
100
AcDbEntity
  8
10
  6
CONTINUOUS
100
AcDbLine
 10
-104.9997558594
 20
456.1402904381838
 30
0.0
 11
104.9902343749999
 21
456.1402904381838
 31
0.0
  0
DIMENSION
  5
800B
330
1E
100
AcDbEntity
  8
30
  6
CONTINUOUS
100
AcDbDimension
  2
*D31
 10
0.0000000000000063
 20
655.3178562151032
 30
0.0
 11
-36.33783783783667
 21
655.3178562151032
 31
0.0
 70
   160
  1
70
  3
STANDARD
100
AcDbAlignedDimension
 13
-70.0
 23
552.2337962975838
 33
0.0
 14
0.0
 24
552.2337962975838
 34
0.0
100
AcDbRotatedDimension
  0
LINE
  5
800C
330
1E
100
AcDbEntity
  8
18
100
AcDbLine
 10
84.99975585940001
 20
465.1402904381837
 30
0.0
 11
-159.1436284253459
 21
465.1402904381837
 31
0.0
  0
LINE
  5
800D
330
1E
100
AcDbEntity
  8
10
  6
CONTINUOUS
100
AcDbLine
 10
104.9902343749999
 20
476.1402904381839
 30
0.0
 11
-104.9997558594
 21
476.1402904381839
 31
0.0
  0
LINE
  5
800E
330
1E
100
AcDbEntity
  8
10
  6
CONTINUOUS
100
AcDbLine
 10
-104.9997558594
 20
336.1402904381838
 30
0.0
 11
104.9902343749999
 21
336.1402904381838
 31
0.0
  0
LINE
  5
800F
330
1E
100
AcDbEntity
  8
10
  6
CONTINUOUS
100
AcDbLine
 10
-39.0
 20
325.1402904381838
 30
0.0
 11
39.0
 21
325.1402904381838
 31
0.0
  0
DIMENSION
  5
8010
330
1E
100
AcDbEntity
  8
30
  6
CONTINUOUS
100
AcDbDimension
  2
*D32
 10
-156.0281498131597
 20
456.1402904381838
 30
0.0
 11
-156.0281498131598
 21
398.3508174916096
 31
0.0
 70
   160
  1
120
  3
STANDARD
100
AcDbAlignedDimension
 13
-96.09326171880001
 23
336.1402904381838
 33
0.0
 14
-146.0932617187999
 24
456.1402904381838
 34
0.0
 50
90.0
100
AcDbRotatedDimension
  0
LINE
  5
8011
330
1E
100
AcDbEntity
  8
10
  6
CONTINUOUS
100
AcDbLine
 10
-104.9997558594
 20
336.1402904381838
 30
0.0
 11
-104.9997558594
 21
476.1402904381839
 31
0.0
  0
LINE
  5
8012
330
1E
100
AcDbEntity
  8
10
  6
CONTINUOUS
100
AcDbLine
 10
-39.0
 20
325.1402904381838
 30
0.0
 11
-39.0
 21
336.1402904381838
 31
0.0
  0
DIMENSION
  5
8013
330
1E
100
AcDbEntity
  8
30
  6
CONTINUOUS
100
AcDbDimension
  2
*D33
 10
-156.0281498288053
 20
567.1402904381839
 30
0.0
 11
-156.0281498288054
 21
513.4932323522901
 31
0.0
 70
   160
  1
111
  3
STANDARD
100
AcDbAlignedDimension
 13
-146.0932617187999
 23
456.1402904381838
 33
0.0
 14
-83.59350585940001
 24
567.1402904381839
 34
0.0
 50
90.0
100
AcDbRotatedDimension
  0
LINE
  5
8014
330
1E
100
AcDbEntity
  8
30
  6
CONTINUOUS
100
AcDbLine
 10
-154.9997558594
 20
456.1402904381838
 30
0.0
 11
-104.9997558594
 21
456.1402904381838
 31
0.0
  0
LINE
  5
8015
330
1E
100
AcDbEntity
  8
18
100
AcDbLine
 10
-174.990234375
 20
456.1402904381838
 30
0.0
 11
-159.1436284253459
 21
456.1402904381838
 31
0.0
  0
ARC
  5
8016
330
1E
100
AcDbEntity
  8
24
  6
CONTINOUS
100
AcDbCircle
 10
-70.0
 20
512.1402904381839
 30
0.0
 40
6.5
100
AcDbArc
 50
180.0
 51
0.0
  0
LINE
  5
8017
330
1E
100
AcDbEntity
  8
21
100
AcDbLine
 10
-47.5
 20
476.1402904381839
 30
0.0
 11
-47.5
 21
567.1402904381839
 31
0.0
  0
LINE
  5
8018
330
1E
100
AcDbEntity
  8
21
100
AcDbLine
 10
-92.5
 20
476.1402904381839
 30
0.0
 11
-92.5
 21
567.1402904381838
 31
0.0
  0
ARC
  5
8019
330
1E
100
AcDbEntity
  8
24
  6
CONTINOUS
100
AcDbCircle
 10
-70.0
 20
520.1402904381839
 30
0.0
 40
6.5
100
AcDbArc
 50
0.0
 51
180.0
  0
CIRCLE
  5
801A
330
1E
100
AcDbEntity
  8
24
  6
CONTINOUS
100
AcDbCircle
 10
-70.0
 20
552.1402904381838
 30
0.0
 40
6.5
  0
LINE
  5
801B
330
1E
100
AcDbEntity
  8
21
100
AcDbLine
 10
-47.5
 20
567.1402904381839
 30
0.0
 11
-92.5
 21
567.1402904381838
 31
0.0
  0
LINE
  5
801C
330
1E
100
AcDbEntity
  8
24
  6
CONTINOUS
100
AcDbLine
 10
-76.5
 20
512.1402904381839
 30
0.0
 11
-76.5
 21
520.1402904381839
 31
0.0
  0
LINE
  5
801D
330
1E
100
AcDbEntity
  8
24
  6
CONTINOUS
100
AcDbLine
 10
-63.5
 20
512.1402904381839
 30
0.0
 11
-63.5
 21
520.1402904381839
 31
0.0
  0
LINE
  5
801E
330
1E
100
AcDbEntity
  8
10
  6
CONTINUOUS
100
AcDbLine
 10
104.9902343749999
 20
336.1402904381838
 30
0.0
 11
104.9902343749999
 21
476.1402904381839
 31
0.0
  0
LINE
  5
801F
330
1E
100
AcDbEntity
  8
10
  6
CONTINUOUS
100
AcDbLine
 10
-20.0
 20
285.1400462975838
 30
0.0
 11
20.0
 21
285.1400462975838
 31
0.0
  0
LINE
  5
8020
330
1E
100
AcDbEntity
  8
10
  6
CONTINUOUS
100
AcDbLine
 10
-20.0
 20
285.1400462975838
 30
0.0
 11
-20.0
 21
325.1402904381838
 31
0.0
  0
LINE
  5
8021
330
1E
100
AcDbEntity
  8
10
  6
CONTINUOUS
100
AcDbLine
 10
20.0
 20
285.1400462975838
 30
0.0
 11
20.0
 21
325.1402904381838
 31
0.0
  0
LINE
  5
8022
330
1E
100
AcDbEntity
  8
10
  6
CONTINUOUS
100
AcDbLine
 10
39.0
 20
325.1402904381838
 30
0.0
 11
39.0
 21
336.1402904381838
 31
0.0
  0
DIMENSION
  5
8024
330
1E
100
AcDbEntity
  8
30
  6
CONTINUOUS
100
AcDbDimension
  2
*D35
 10
22.5
 20
621.2203685631866
 30
0.0
 11
-1.337837837836672
 21
621.2203685631866
 31
0.0
 70
   160
  1
45
  3
STANDARD
100
AcDbAlignedDimension
 13
-22.5
 23
567.2337962975838
 33
0.0
 14
22.5
 24
567.2337962975838
 34
0.0
100
AcDbRotatedDimension
  0
DIMENSION
  5
8025
330
1E
100
AcDbEntity
  8
30
  6
CONTINUOUS
100
AcDbDimension
  2
*D36
 10
69.99999999989995
 20
655.3178562151032
 30
0.0
 11
33.66216216216332
 21
655.3178562151032
 31
0.0
 70
   160
  1
70
  3
STANDARD
100
AcDbAlignedDimension
 13
0.0
 23
552.2337962975838
 33
0.0
 14
69.99999999989995
 24
552.2337962975838
 34
0.0
100
AcDbRotatedDimension
  0
ARC
  5
8026
330
1E
100
AcDbEntity
  8
24
  6
CONTINOUS
100
AcDbCircle
 10
0.0
 20
512.1402904381839
 30
0.0
 40
6.5
100
AcDbArc
 50
180.0
 51
0.0
  0
LINE
  5
8027
330
1E
100
AcDbEntity
  8
21
100
AcDbLine
 10
22.5
 20
476.1402904381839
 30
0.0
 11
22.5
 21
567.1402904381839
 31
0.0
  0
LINE
  5
8028
330
1E
100
AcDbEntity
  8
21
100
AcDbLine
 10
-22.5
 20
476.1402904381839
 30
0.0
 11
-22.5
 21
567.1402904381839
 31
0.0
  0
LINE
  5
8029
330
1E
100
AcDbEntity
  8
24
  6
DASHED
100
AcDbLine
 10
15.0
 20
552.1402904381838
 30
0.0
 11
-15.0
 21
552.1402904381838
 31
0.0
  0
LINE
  5
802A
330
1E
100
AcDbEntity
  8
24
  6
DASHED
100
AcDbLine
 10
15.0
 20
520.1402904381839
 30
0.0
 11
-15.0
 21
520.1402904381839
 31
0.0
  0
LINE
  5
802B
330
1E
100
AcDbEntity
  8
24
  6
DASHED
100
AcDbLine
 10
15.0
 20
512.1402904381839
 30
0.0
 11
-15.0
 21
512.1402904381839
 31
0.0
  0
ARC
  5
802C
330
1E
100
AcDbEntity
  8
24
  6
CONTINOUS
100
AcDbCircle
 10
0.0
 20
520.1402904381839
 30
0.0
 40
6.5
100
AcDbArc
 50
0.0
 51
180.0
  0
CIRCLE
  5
802D
330
1E
100
AcDbEntity
  8
24
  6
CONTINOUS
100
AcDbCircle
 10
0.0
 20
552.1402904381838
 30
0.0
 40
6.5
  0
LINE
  5
802E
330
1E
100
AcDbEntity
  8
21
100
AcDbLine
 10
22.5
 20
567.1402904381839
 30
0.0
 11
-22.5
 21
567.1402904381839
 31
0.0
  0
LINE
  5
802F
330
1E
100
AcDbEntity
  8
24
  6
CONTINOUS
100
AcDbLine
 10
-6.5
 20
512.1402904381839
 30
0.0
 11
-6.5
 21
520.1402904381839
 31
0.0
  0
LINE
  5
8030
330
1E
100
AcDbEntity
  8
24
  6
CONTINOUS
100
AcDbLine
 10
6.5
 20
512.1402904381839
 30
0.0
 11
6.5
 21
520.1402904381839
 31
0.0
  0
ARC
  5
8031
330
1E
100
AcDbEntity
  8
24
  6
CONTINOUS
100
AcDbCircle
 10
69.99999999989995
 20
512.1402904381839
 30
0.0
 40
6.500000000100044
100
AcDbArc
 50
180.0
 51
0.0
  0
LINE
  5
8032
330
1E
100
AcDbEntity
  8
21
100
AcDbLine
 10
92.5
 20
476.1402904381839
 30
0.0
 11
92.5
 21
567.1402904381839
 31
0.0
  0
LINE
  5
8033
330
1E
100
AcDbEntity
  8
21
100
AcDbLine
 10
47.5
 20
476.1402904381839
 30
0.0
 11
47.5
 21
567.1402904381839
 31
0.0
  0
LINE
  5
8034
330
1E
100
AcDbEntity
  8
24
  6
DASHED
100
AcDbLine
 10
85.0
 20
552.1402904381838
 30
0.0
 11
55.0
 21
552.1402904381838
 31
0.0
  0
LINE
  5
8035
330
1E
100
AcDbEntity
  8
24
  6
DASHED
100
AcDbLine
 10
85.0
 20
520.1402904381839
 30
0.0
 11
55.0
 21
520.1402904381839
 31
0.0
  0
LINE
  5
8036
330
1E
100
AcDbEntity
  8
24
  6
DASHED
100
AcDbLine
 10
85.0
 20
512.1402904381839
 30
0.0
 11
55.0
 21
512.1402904381839
 31
0.0
  0
ARC
  5
8037
330
1E
100
AcDbEntity
  8
24
  6
CONTINOUS
100
AcDbCircle
 10
69.99999999989995
 20
520.1402904381839
 30
0.0
 40
6.499999999899954
100
AcDbArc
 50
0.0
 51
180.0
  0
CIRCLE
  5
8038
330
1E
100
AcDbEntity
  8
24
  6
CONTINOUS
100
AcDbCircle
 10
69.99999999989995
 20
552.1402904381838
 30
0.0
 40
6.500000000100044
  0
LINE
  5
8039
330
1E
100
AcDbEntity
  8
21
100
AcDbLine
 10
92.5
 20
567.1402904381839
 30
0.0
 11
47.5
 21
567.1402904381839
 31
0.0
  0
LINE
  5
803A
330
1E
100
AcDbEntity
  8
24
  6
CONTINOUS
100
AcDbLine
 10
63.5
 20
512.1402904381839
 30
0.0
 11
63.5
 21
520.1402904381839
 31
0.0
  0
LINE
  5
803B
330
1E
100
AcDbEntity
  8
24
  6
CONTINOUS
100
AcDbLine
 10
76.5
 20
512.1402904381839
 30
0.0
 11
76.5
 21
520.1402904381839
 31
0.0
  0
DIMENSION
  5
8046
330
1E
100
AcDbEntity
  8
30
  6
CONTINUOUS
100
AcDbDimension
  2
*D37
 10
72.5977313209748
 20
551.6619215353991
 30
0.0
 11
90.26439798764227
 21
574.1619215353995
 31
0.0
 70
   164
  1
%%c13
  3
STANDARD
100
AcDbRadialDimension
 15
74.65321180008429
 25
557.8283629727275
 35
0.0
 40
0.0
1001
ACAD
1000
DSTYLE
1002
{
1070
   288
1070
     1
1002
}
  0
ARC
  5
8167
330
1E
100
AcDbEntity
  8
30
  6
CONTINUOUS
100
AcDbCircle
 10
408.9996190593814
 20
2.579965891226193
 30
0.0
 40
153.1119340717823
100
AcDbArc
 50
158.8597010780335
 51
180.7514388749137
  0
ARC
  5
8168
330
1E
100
AcDbEntity
  8
30
  6
CONTINUOUS
100
AcDbCircle
 10
398.0983429002998
 20
7.088660436144563
 30
0.0
 40
62.62292406630713
100
AcDbArc
 50
156.447787704887
 51
187.4213162709208
  0
DIMENSION
  5
8169
330
1E
100
AcDbEntity
  8
30
  6
CONTINUOUS
100
AcDbDimension
  2
*D43
 10
255.9999999999999
 20
-254.866354951332
 30
0.0
 11
296.0
 21
-250.3663549513321
 31
0.0
 70
    32
  3
STANDARD
100
AcDbAlignedDimension
 13
336.0
 23
-1.0
 33
0.0
 14
256.0
 24
-1.0
 34
0.0
100
AcDbRotatedDimension
  0
DIMENSION
  5
816A
330
1E
100
AcDbEntity
  8
30
  6
CONTINUOUS
100
AcDbDimension
  2
*D44
 10
336.0
 20
-254.3663549513321
 30
0.0
 11
421.4999999999998
 21
-249.866354951332
 31
0.0
 70
    32
  3
STANDARD
100
AcDbAlignedDimension
 13
507.0
 23
-230.3800613068346
 33
0.0
 14
336.0
 24
0.0
 34
0.0
100
AcDbRotatedDimension
  0
DIMENSION
  5
816B
330
1E
100
AcDbEntity
  8
30
  6
CONTINUOUS
100
AcDbDimension
  2
*D45
 10
370.0000000000716
 20
-230.3800613068346
 30
0.0
 11
378.5000000000357
 21
-225.8800613068345
 31
0.0
 70
    32
  3
STANDARD
100
AcDbAlignedDimension
 13
387.0
 23
-140.0
 33
0.0
 14
370.0000000000716
 24
0.0
 34
0.0
100
AcDbRotatedDimension
  0
DIMENSION
  5
816C
330
1E
100
AcDbEntity
  8
30
  6
CONTINUOUS
100
AcDbDimension
  2
*D46
 10
387.0
 20
-230.5305102330638
 30
0.0
 11
391.3705927610462
 21
-230.5305102330638
 31
0.0
 70
   160
  3
STANDARD
100
AcDbAlignedDimension
 13
395.0
 23
-171.0
 33
0.0
 14
387.0
 24
-140.0
 34
0.0
100
AcDbRotatedDimension
  0
DIMENSION
  5
816D
330
1E
100
AcDbEntity
  8
30
  6
CONTINUOUS
100
AcDbDimension
  2
*D47
 10
395.0
 20
-230.3800613068346
 30
0.0
 11
451.0
 21
-225.8800613068345
 31
0.0
 70
    32
  3
STANDARD
100
AcDbAlignedDimension
 13
507.0
 23
-171.0
 33
0.0
 14
395.0
 24
-170.0
 34
0.0
100
AcDbRotatedDimension
  0
DIMENSION
  5
81D7
330
1E
100
AcDbEntity
  8
30
  6
CONTINUOUS
100
AcDbDimension
  2
*D48
 10
124.3875257438367
 20
552.1402904381838
 30
0.0
 11
119.8875257438365
 21
559.6402904381839
 31
0.0
 70
    32
  3
STANDARD
100
AcDbAlignedDimension
 13
92.5
 23
567.1402904381839
 33
0.0
 14
85.0
 24
552.1402904381838
 34
0.0
 50
90.0
100
AcDbRotatedDimension
  0
DIMENSION
  5
81E4
330
1E
100
AcDbEntity
  8
30
  6
CONTINUOUS
100
AcDbDimension
  2
*D49
 10
124.3875257438366
 20
520.1402904381839
 30
0.0
 11
119.8875257438364
 21
536.1402904381839
 31
0.0
 70
    32
  3
STANDARD
100
AcDbAlignedDimension
 13
85.0
 23
552.1402904381838
 33
0.0
 14
85.0
 24
520.1402904381839
 34
0.0
 50
90.0
100
AcDbRotatedDimension
1001
ACAD
1000
DSTYLE
1002
{
1070
   287
1070
     4
1070
   287
1070
     4
1070
   279
1070
     1
1002
}
  0
DIMENSION
  5
81F1
330
1E
100
AcDbEntity
  8
30
  6
CONTINUOUS
100
AcDbDimension
  2
*D50
 10
124.3875257438366
 20
512.1402904381839
 30
0.0
 11
119.8875257438364
 21
516.1402904381839
 31
0.0
 70
    32
  3
STANDARD
100
AcDbAlignedDimension
 13
85.0
 23
520.1402904381839
 33
0.0
 14
85.0
 24
512.1402904381839
 34
0.0
 50
90.0
100
AcDbRotatedDimension
1001
ACAD
1000
DSTYLE
1002
{
1070
   287
1070
     4
1070
   287
1070
     4
1070
   279
1070
     1
1002
}
  0
DIMENSION
  5
81FE
330
1E
100
AcDbEntity
  8
30
  6
CONTINUOUS
100
AcDbDimension
  2
*D51
 10
124.3875257438366
 20
476.1402904381839
 30
0.0
 11
119.8875257438365
 21
494.1402904381838
 31
0.0
 70
    32
  3
STANDARD
100
AcDbAlignedDimension
 13
85.0
 23
512.1402904381839
 33
0.0
 14
92.5
 24
476.1402904381839
 34
0.0
 50
90.0
100
AcDbRotatedDimension
1001
ACAD
1000
DSTYLE
1002
{
1070
   287
1070
     4
1070
   287
1070
     4
1070
   279
1070
     1
1002
}
  0
LINE
  5
8283
330
1E
100
AcDbEntity
  8
24
  6
DASHED
100
AcDbLine
 10
-55.0
 20
512.1402904381839
 30
0.0
 11
-85.0
 21
512.1402904381839
 31
0.0
  0
LINE
  5
8284
330
1E
100
AcDbEntity
  8
24
  6
DASHED
100
AcDbLine
 10
-55.0
 20
520.1402904381839
 30
0.0
 11
-85.0
 21
520.1402904381839
 31
0.0
  0
LINE
  5
8285
330
1E
100
AcDbEntity
  8
24
  6
DASHED
100
AcDbLine
 10
-55.0
 20
552.1402904381838
 30
0.0
 11
-85.0
 21
552.1402904381838
 31
0.0
  0
VIEWPORT
  5
9AC
330
1A
100
AcDbEntity
 67
     1
  8
0
  6
CONTINUOUS
100
AcDbViewport
 10
171.9995348790992
 20
144.1384735538403
 30
0.0
 40
488.8676857773511
 41
292.3514905034161
 68
     1
 69
     1
1001
ACAD
1000
MVIEW
1002
{
1070
    16
1010
0.0
1020
0.0
1030
0.0
1010
0.0
1020
0.0
1030
1.0
1040
0.0
1040
292.3514905034161
1040
171.9995348790992
1040
144.1384735538403
1040
50.0
1040
0.0
1040
0.0
1070
     0
1070
   100
1070
     1
1070
     1
1070
     0
1070
     0
1070
     0
1070
     0
1040
0.0
1040
0.0
1040
0.0
1040
10.0
1040
10.0
1040
10.0
1040
10.0
1070
     0
1002
{
1002
}
1002
}
  0
ENDSEC
  0
SECTION
  2
OBJECTS
  0
DICTIONARY
  5
C
330
0
100
AcDbDictionary
  3
ACAD_GROUP
350
D
  3
ACAD_LAYOUT
350
19
  3
ACAD_MLINESTYLE
350
16
  3
ACAD_PLOTSETTINGS
350
18
  3
ACAD_PLOTSTYLENAME
350
E
  3
ACDBHEADERROUNDTRIPXREC
350
8287
  3
ACDBVARIABLEDICTIONARY
350
6C1E
  0
DICTIONARY
  5
178
330
1E
100
AcDbDictionary
280
     1
  3
ACAD_LAYOUTSELFREF
360
82A9
  0
DICTIONARY
  5
17A
330
1A
100
AcDbDictionary
280
     1
  3
ACAD_LAYOUTSELFREF
360
82A8
  0
DICTIONARY
  5
D
102
{ACAD_REACTORS
330
C
102
}
330
C
100
AcDbDictionary
  0
DICTIONARY
  5
19
102
{ACAD_REACTORS
330
C
102
}
330
C
100
AcDbDictionary
  0
DICTIONARY
  5
16
102
{ACAD_REACTORS
330
C
102
}
330
C
100
AcDbDictionary
  3
STANDARD
350
17
  0
DICTIONARY
  5
18
102
{ACAD_REACTORS
330
C
102
}
330
C
100
AcDbDictionary
  0
ACDBDICTIONARYWDFLT
  5
E
102
{ACAD_REACTORS
330
C
102
}
330
C
100
AcDbDictionary
281
     1
  3
Normal
350
F
100
AcDbDictionaryWithDefault
340
F
  0
DICTIONARY
  5
8287
102
{ACAD_REACTORS
330
C
102
}
330
C
100
AcDbDictionary
  3
CEPSNTYPE
350
8291
  3
DIMSTYLEDATA
350
8295
  3
FINGERPRINTGUID
350
8292
  3
HYPERLINKBASE
350
828A
  3
INSUNITS
350
8290
  3
LAYOUTDICT
350
828C
  3
LWETCUNION
350
828F
  3
PLOTSETDICT
350
828D
  3
PLOTSTYLNAMDICT
350
828E
  3
PSVPSCALE
350
8294
  3
PUCSBASE
350
8298
  3
PUCSORGBACK
350
829E
  3
PUCSORGBOTTOM
350
829A
  3
PUCSORGFRONT
350
829D
  3
PUCSORGLEFT
350
829B
  3
PUCSORGRIGHT
350
829C
  3
PUCSORGTOP
350
8299
  3
PUCSORTHOREF
350
8296
  3
PUCSORTHOVIEW
350
8297
  3
STYLESHEET
350
828B
  3
TSTACKALIGN
350
8288
  3
TSTACKSIZE
350
8289
  3
UCSBASE
350
82A1
  3
UCSORGBACK
350
82A7
  3
UCSORGBOTTOM
350
82A3
  3
UCSORGFRONT
350
82A6
  3
UCSORGLEFT
350
82A4
  3
UCSORGRIGHT
350
82A5
  3
UCSORGTOP
350
82A2
  3
UCSORTHOREF
350
829F
  3
UCSORTHOVIEW
350
82A0
  3
VERSIONGUID
350
8293
  0
DICTIONARY
  5
6C1E
102
{ACAD_REACTORS
330
C
102
}
330
C
100
AcDbDictionary
  3
DIMASSOC
350
768F
  3
SORTENTS
350
6C1F
  0
XRECORD
  5
82A9
102
{ACAD_REACTORS
330
178
102
}
330
178
100
AcDbXrecord
340
1E
  0
XRECORD
  5
82A8
102
{ACAD_REACTORS
330
17A
102
}
330
17A
100
AcDbXrecord
340
1A
  0
MLINESTYLE
  5
17
102
{ACAD_REACTORS
330
16
102
}
330
16
100
AcDbMlineStyle
  2
STANDARD
 70
     0
  3

 62
   256
 51
90.0
 52
90.0
 71
     2
 49
0.5
 62
   256
  6
BYLAYER
 49
-0.5
 62
   256
  6
BYLAYER
  0
ACDBPLACEHOLDER
  5
F
102
{ACAD_REACTORS
330
E
102
}
330
E
100
AcDbPlaceHolder
280
     0
  0
XRECORD
  5
8291
102
{ACAD_REACTORS
330
8287
102
}
330
8287
100
AcDbXrecord
 90
        0
  0
XRECORD
  5
8295
102
{ACAD_REACTORS
330
8287
102
}
330
8287
100
AcDbXrecord
1000
DSTYLE
1002
{
1070
   341
340
3B2
1070
   342
340
3B2
1002
}
  0
XRECORD
  5
8292
102
{ACAD_REACTORS
330
8287
102
}
330
8287
100
AcDbXrecord
  1

  0
XRECORD
  5
828A
102
{ACAD_REACTORS
330
8287
102
}
330
8287
100
AcDbXrecord
  1

  0
XRECORD
  5
8290
102
{ACAD_REACTORS
330
8287
102
}
330
8287
100
AcDbXrecord
 90
        0
  0
XRECORD
  5
828C
102
{ACAD_REACTORS
330
8287
102
}
330
8287
100
AcDbXrecord
340
19
  0
XRECORD
  5
828F
102
{ACAD_REACTORS
330
8287
102
}
330
8287
100
AcDbXrecord
 90
    10781
  0
XRECORD
  5
828D
102
{ACAD_REACTORS
330
8287
102
}
330
8287
100
AcDbXrecord
340
18
  0
XRECORD
  5
828E
102
{ACAD_REACTORS
330
8287
102
}
330
8287
100
AcDbXrecord
340
E
  0
XRECORD
  5
8294
102
{ACAD_REACTORS
330
8287
102
}
330
8287
100
AcDbXrecord
 40
0.0
  0
XRECORD
  5
8298
102
{ACAD_REACTORS
330
8287
102
}
330
8287
100
AcDbXrecord
340
0
  0
XRECORD
  5
829E
102
{ACAD_REACTORS
330
8287
102
}
330
8287
100
AcDbXrecord
 10
0.0
 20
0.0
 30
0.0
  0
XRECORD
  5
829A
102
{ACAD_REACTORS
330
8287
102
}
330
8287
100
AcDbXrecord
 10
0.0
 20
0.0
 30
0.0
  0
XRECORD
  5
829D
102
{ACAD_REACTORS
330
8287
102
}
330
8287
100
AcDbXrecord
 10
0.0
 20
0.0
 30
0.0
  0
XRECORD
  5
829B
102
{ACAD_REACTORS
330
8287
102
}
330
8287
100
AcDbXrecord
 10
0.0
 20
0.0
 30
0.0
  0
XRECORD
  5
829C
102
{ACAD_REACTORS
330
8287
102
}
330
8287
100
AcDbXrecord
 10
0.0
 20
0.0
 30
0.0
  0
XRECORD
  5
8299
102
{ACAD_REACTORS
330
8287
102
}
330
8287
100
AcDbXrecord
 10
0.0
 20
0.0
 30
0.0
  0
XRECORD
  5
8296
102
{ACAD_REACTORS
330
8287
102
}
330
8287
100
AcDbXrecord
340
0
  0
XRECORD
  5
8297
102
{ACAD_REACTORS
330
8287
102
}
330
8287
100
AcDbXrecord
 70
     0
  0
XRECORD
  5
828B
102
{ACAD_REACTORS
330
8287
102
}
330
8287
100
AcDbXrecord
  1
kiki.ctb
  0
XRECORD
  5
8288
102
{ACAD_REACTORS
330
8287
102
}
330
8287
100
AcDbXrecord
 90
        1
  0
XRECORD
  5
8289
102
{ACAD_REACTORS
330
8287
102
}
330
8287
100
AcDbXrecord
 90
       70
  0
XRECORD
  5
82A1
102
{ACAD_REACTORS
330
8287
102
}
330
8287
100
AcDbXrecord
340
0
  0
XRECORD
  5
82A7
102
{ACAD_REACTORS
330
8287
102
}
330
8287
100
AcDbXrecord
 10
0.0
 20
0.0
 30
0.0
  0
XRECORD
  5
82A3
102
{ACAD_REACTORS
330
8287
102
}
330
8287
100
AcDbXrecord
 10
0.0
 20
0.0
 30
0.0
  0
XRECORD
  5
82A6
102
{ACAD_REACTORS
330
8287
102
}
330
8287
100
AcDbXrecord
 10
0.0
 20
0.0
 30
0.0
  0
XRECORD
  5
82A4
102
{ACAD_REACTORS
330
8287
102
}
330
8287
100
AcDbXrecord
 10
0.0
 20
0.0
 30
0.0
  0
XRECORD
  5
82A5
102
{ACAD_REACTORS
330
8287
102
}
330
8287
100
AcDbXrecord
 10
0.0
 20
0.0
 30
0.0
  0
XRECORD
  5
82A2
102
{ACAD_REACTORS
330
8287
102
}
330
8287
100
AcDbXrecord
 10
0.0
 20
0.0
 30
0.0
  0
XRECORD
  5
829F
102
{ACAD_REACTORS
330
8287
102
}
330
8287
100
AcDbXrecord
340
0
  0
XRECORD
  5
82A0
102
{ACAD_REACTORS
330
8287
102
}
330
8287
100
AcDbXrecord
 70
     0
  0
XRECORD
  5
8293
102
{ACAD_REACTORS
330
8287
102
}
330
8287
100
AcDbXrecord
  1
{140BF90E-2EBB-4F05-B7AA-83C8C61E23BF}
  0
DICTIONARYVAR
  5
768F
102
{ACAD_REACTORS
330
6C1E
102
}
330
6C1E
100
DictionaryVariables
280
     0
  1
1
  0
DICTIONARYVAR
  5
6C1F
102
{ACAD_REACTORS
330
6C1E
102
}
330
6C1E
100
DictionaryVariables
280
     0
  1
96
  0
ENDSEC
  0
EOF
