  0
SECTION
  2
HEADER
  9
$ACADVER
  1
AC1014
  9
$ACADMAINTVER
 70
     9
  9
$DWGCODEPAGE
  3
ANSI_932
  9
$INSBASE
 10
0.0
 20
0.0
 30
0.0
  9
$EXTMIN
 10
-209.1535585546578
 20
-806.5220384315626
 30
-0.0000000349181948
  9
$EXTMAX
 10
619.0247595746893
 20
499.0683222207103
 30
0.0000000814935746
  9
$LIMMIN
 10
-184.0
 20
-675.0
  9
$LIMMAX
 10
509.0
 20
453.0
  9
$ORTHOMODE
 70
     1
  9
$REGENMODE
 70
     1
  9
$FILLMODE
 70
     1
  9
$QTEXTMODE
 70
     0
  9
$MIRRTEXT
 70
     1
  9
$DRAGMODE
 70
     2
  9
$LTSCALE
 40
20.0
  9
$OSMODE
 70
    37
  9
$ATTMODE
 70
     1
  9
$TEXTSIZE
 40
5.0
  9
$TRACEWID
 40
0.05
  9
$TEXTSTYLE
  7
STANDARD1
  9
$CLAYER
  8
30
  9
$CELTYPE
  6
CONTINUOUS
  9
$CECOLOR
 62
   256
  9
$CELTSCALE
 40
1.0
  9
$DELOBJ
 70
     1
  9
$DISPSILH
 70
     0
  9
$DIMSCALE
 40
1.0
  9
$DIMASZ
 40
2.0
  9
$DIMEXO
 40
1.0
  9
$DIMDLI
 40
0.5
  9
$DIMRND
 40
0.0
  9
$DIMDLE
 40
0.0
  9
$DIMEXE
 40
0.5
  9
$DIMTP
 40
0.0
  9
$DIMTM
 40
0.0
  9
$DIMTXT
 40
7.0
  9
$DIMCEN
 40
0.09
  9
$DIMTSZ
 40
0.0
  9
$DIMTOL
 70
     0
  9
$DIMLIM
 70
     0
  9
$DIMTIH
 70
     0
  9
$DIMTOH
 70
     1
  9
$DIMSE1
 70
     0
  9
$DIMSE2
 70
     0
  9
$DIMTAD
 70
     3
  9
$DIMZIN
 70
    12
  9
$DIMBLK
  1
OPEN
  9
$DIMASO
 70
     1
  9
$DIMSHO
 70
     1
  9
$DIMPOST
  1

  9
$DIMAPOST
  1

  9
$DIMALT
 70
     0
  9
$DIMALTD
 70
     2
  9
$DIMALTF
 40
25.4
  9
$DIMLFAC
 40
1.0
  9
$DIMTOFL
 70
     0
  9
$DIMTVP
 40
0.0
  9
$DIMTIX
 70
     0
  9
$DIMSOXD
 70
     0
  9
$DIMSAH
 70
     0
  9
$DIMBLK1
  1

  9
$DIMBLK2
  1

  9
$DIMSTYLE
  2
STANDARD
  9
$DIMCLRD
 70
     0
  9
$DIMCLRE
 70
     0
  9
$DIMCLRT
 70
     0
  9
$DIMTFAC
 40
1.0
  9
$DIMGAP
 40
2.0
  9
$DIMJUST
 70
     0
  9
$DIMSD1
 70
     0
  9
$DIMSD2
 70
     0
  9
$DIMTOLJ
 70
     1
  9
$DIMTZIN
 70
     0
  9
$DIMALTZ
 70
     0
  9
$DIMALTTZ
 70
     0
  9
$DIMFIT
 70
     3
  9
$DIMUPT
 70
     0
  9
$DIMUNIT
 70
     2
  9
$DIMDEC
 70
     1
  9
$DIMTDEC
 70
     1
  9
$DIMALTU
 70
     2
  9
$DIMALTTD
 70
     2
  9
$DIMTXSTY
  7
STANDARD
  9
$DIMAUNIT
 70
     0
  9
$LUNITS
 70
     2
  9
$LUPREC
 70
     4
  9
$SKETCHINC
 40
0.1
  9
$FILLETRAD
 40
0.0
  9
$AUNITS
 70
     0
  9
$AUPREC
 70
     0
  9
$MENU
  1
.
  9
$ELEVATION
 40
0.0
  9
$PELEVATION
 40
0.0
  9
$THICKNESS
 40
0.0
  9
$LIMCHECK
 70
     0
  9
$BLIPMODE
 70
     0
  9
$CHAMFERA
 40
0.0
  9
$CHAMFERB
 40
0.0
  9
$CHAMFERC
 40
0.0
  9
$CHAMFERD
 40
0.0
  9
$SKPOLY
 70
     0
  9
$TDCREATE
 40
2452286.555658657
  9
$TDUPDATE
 40
2453243.511967951
  9
$TDINDWG
 40
1.5029194560
  9
$TDUSRTIMER
 40
1.5029187269
  9
$USRTIMER
 70
     1
  9
$ANGBASE
 50
0.0
  9
$ANGDIR
 70
     0
  9
$PDMODE
 70
     0
  9
$PDSIZE
 40
0.0
  9
$PLINEWID
 40
0.0
  9
$COORDS
 70
     0
  9
$SPLFRAME
 70
     0
  9
$SPLINETYPE
 70
     6
  9
$SPLINESEGS
 70
     8
  9
$ATTDIA
 70
     0
  9
$ATTREQ
 70
     1
  9
$HANDLING
 70
 22529
  9
$HANDSEED
  5
88AA
  9
$SURFTAB1
 70
     6
  9
$SURFTAB2
 70
     6
  9
$SURFTYPE
 70
     6
  9
$SURFU
 70
     6
  9
$SURFV
 70
     6
  9
$UCSNAME
  2

  9
$UCSORG
 10
0.0
 20
0.0
 30
0.0
  9
$UCSXDIR
 10
1.0
 20
0.0
 30
0.0
  9
$UCSYDIR
 10
0.0
 20
1.0
 30
0.0
  9
$PUCSNAME
  2

  9
$PUCSORG
 10
0.0
 20
0.0
 30
0.0
  9
$PUCSXDIR
 10
1.0
 20
0.0
 30
0.0
  9
$PUCSYDIR
 10
0.0
 20
1.0
 30
0.0
  9
$USERI1
 70
     0
  9
$USERI2
 70
     0
  9
$USERI3
 70
     0
  9
$USERI4
 70
     0
  9
$USERI5
 70
     0
  9
$USERR1
 40
0.0
  9
$USERR2
 40
0.0
  9
$USERR3
 40
0.0
  9
$USERR4
 40
0.0
  9
$USERR5
 40
0.0
  9
$WORLDVIEW
 70
     1
  9
$SHADEDGE
 70
     3
  9
$SHADEDIF
 70
    70
  9
$TILEMODE
 70
     1
  9
$MAXACTVP
 70
    48
  9
$PINSBASE
 10
0.0
 20
0.0
 30
0.0
  9
$PLIMCHECK
 70
     0
  9
$PEXTMIN
 10
4.273573370203961
 20
5.205246163471485
 30
0.0
  9
$PEXTMAX
 10
194.6100952986349
 20
283.0697008572913
 30
0.0
  9
$PLIMMIN
 10
-5.873748779296875
 20
-5.873749732971191
  9
$PLIMMAX
 10
204.0995788574218
 20
291.1369009017943
  9
$UNITMODE
 70
     0
  9
$VISRETAIN
 70
     1
  9
$PLINEGEN
 70
     0
  9
$PSLTSCALE
 70
     1
  9
$TREEDEPTH
 70
  3020
  9
$PICKSTYLE
 70
     1
  9
$CMLSTYLE
  2
STANDARD
  9
$CMLJUST
 70
     0
  9
$CMLSCALE
 40
1.0
  9
$PROXYGRAPHICS
 70
     1
  9
$MEASUREMENT
 70
     0
  0
ENDSEC
  0
SECTION
  2
CLASSES
  0
CLASS
  1
ACDBDICTIONARYWDFLT
  2
AcDbDictionaryWithDefault
  3
AutoCAD 2000
 90
        0
280
     0
281
     0
  0
CLASS
  1
ACDBPLACEHOLDER
  2
AcDbPlaceHolder
  3
AutoCAD 2000
 90
        0
280
     0
281
     0
  0
CLASS
  1
LAYOUT
  2
AcDbLayout
  3
AutoCAD 2000
 90
        0
280
     0
281
     0
  0
CLASS
  1
LONG_TRANSACTION
  2
AcDbLongTransaction
  3
AutoCAD 2000
 90
        0
280
     0
281
     0
  0
CLASS
  1
LWPOLYLINE
  2
AcDbPolyline
  3
AutoCAD 2000
 90
        0
280
     0
281
     1
  0
CLASS
  1
HATCH
  2
AcDbHatch
  3
AutoCAD 2000
 90
        0
280
     0
281
     1
  0
CLASS
  1
XRECORD
  2
AcDbXrecord
  3
AutoCAD 2000
 90
        0
280
     0
281
     0
  0
CLASS
  1
LONG_TRANSACTION
  2
AcDbLongTransaction
  3
AutoCAD 2000
 90
        0
280
     0
281
     0
  0
CLASS
  1
LWPOLYLINE
  2
AcDbPolyline
  3
AutoCAD 2000
 90
        0
280
     0
281
     1
  0
CLASS
  1
HATCH
  2
AcDbHatch
  3
AutoCAD 2000
 90
        0
280
     0
281
     1
  0
CLASS
  1
XRECORD
  2
AcDbXrecord
  3
AutoCAD 2000
 90
        0
280
     0
281
     0
  0
CLASS
  1
LONG_TRANSACTION
  2
AcDbLongTransaction
  3
AutoCAD 2000
 90
        0
280
     0
281
     0
  0
CLASS
  1
LWPOLYLINE
  2
AcDbPolyline
  3
AutoCAD 2000
 90
        0
280
     0
281
     1
  0
CLASS
  1
HATCH
  2
AcDbHatch
  3
AutoCAD 2000
 90
        0
280
     0
281
     1
  0
CLASS
  1
XRECORD
  2
AcDbXrecord
  3
AutoCAD 2000
 90
        0
280
     0
281
     0
  0
CLASS
  1
LONG_TRANSACTION
  2
AcDbLongTransaction
  3
AutoCAD 2000
 90
        0
280
     0
281
     0
  0
CLASS
  1
LWPOLYLINE
  2
AcDbPolyline
  3
AutoCAD 2000
 90
        0
280
     0
281
     1
  0
CLASS
  1
HATCH
  2
AcDbHatch
  3
AutoCAD 2000
 90
        0
280
     0
281
     1
  0
CLASS
  1
XRECORD
  2
AcDbXrecord
  3
AutoCAD 2000
 90
        0
280
     0
281
     0
  0
CLASS
  1
LONG_TRANSACTION
  2
AcDbLongTransaction
  3
AutoCAD 2000
 90
        0
280
     0
281
     0
  0
CLASS
  1
LWPOLYLINE
  2
AcDbPolyline
  3
AutoCAD 2000
 90
        0
280
     0
281
     1
  0
CLASS
  1
HATCH
  2
AcDbHatch
  3
AutoCAD 2000
 90
        0
280
     0
281
     1
  0
CLASS
  1
XRECORD
  2
AcDbXrecord
  3
AutoCAD 2000
 90
        0
280
     0
281
     0
  0
CLASS
  1
LONG_TRANSACTION
  2
AcDbLongTransaction
  3
AutoCAD 2000
 90
        0
280
     0
281
     0
  0
CLASS
  1
LWPOLYLINE
  2
AcDbPolyline
  3
AutoCAD 2000
 90
        0
280
     0
281
     1
  0
CLASS
  1
HATCH
  2
AcDbHatch
  3
AutoCAD 2000
 90
        0
280
     0
281
     1
  0
CLASS
  1
XRECORD
  2
AcDbXrecord
  3
AutoCAD 2000
 90
        0
280
     0
281
     0
  0
CLASS
  1
LONG_TRANSACTION
  2
AcDbLongTransaction
  3
AutoCAD 2000
 90
        0
280
     0
281
     0
  0
CLASS
  1
LWPOLYLINE
  2
AcDbPolyline
  3
AutoCAD 2000
 90
        0
280
     0
281
     1
  0
CLASS
  1
HATCH
  2
AcDbHatch
  3
AutoCAD 2000
 90
        0
280
     0
281
     1
  0
CLASS
  1
XRECORD
  2
AcDbXrecord
  3
AutoCAD 2000
 90
        0
280
     0
281
     0
  0
CLASS
  1
LONG_TRANSACTION
  2
AcDbLongTransaction
  3
AutoCAD 2000
 90
        0
280
     0
281
     0
  0
CLASS
  1
LWPOLYLINE
  2
AcDbPolyline
  3
AutoCAD 2000
 90
        0
280
     0
281
     1
  0
CLASS
  1
HATCH
  2
AcDbHatch
  3
AutoCAD 2000
 90
        0
280
     0
281
     1
  0
CLASS
  1
XRECORD
  2
AcDbXrecord
  3
AutoCAD 2000
 90
        0
280
     0
281
     0
  0
CLASS
  1
LONG_TRANSACTION
  2
AcDbLongTransaction
  3
AutoCAD 2000
 90
        0
280
     0
281
     0
  0
CLASS
  1
LWPOLYLINE
  2
AcDbPolyline
  3
AutoCAD 2000
 90
        0
280
     0
281
     1
  0
CLASS
  1
HATCH
  2
AcDbHatch
  3
AutoCAD 2000
 90
        0
280
     0
281
     1
  0
CLASS
  1
XRECORD
  2
AcDbXrecord
  3
AutoCAD 2000
 90
        0
280
     0
281
     0
  0
CLASS
  1
LONG_TRANSACTION
  2
AcDbLongTransaction
  3
AutoCAD 2000
 90
        0
280
     0
281
     0
  0
CLASS
  1
LWPOLYLINE
  2
AcDbPolyline
  3
AutoCAD 2000
 90
        0
280
     0
281
     1
  0
CLASS
  1
HATCH
  2
AcDbHatch
  3
AutoCAD 2000
 90
        0
280
     0
281
     1
  0
CLASS
  1
XRECORD
  2
AcDbXrecord
  3
AutoCAD 2000
 90
        0
280
     0
281
     0
  0
CLASS
  1
LONG_TRANSACTION
  2
AcDbLongTransaction
  3
AutoCAD 2000
 90
        0
280
     0
281
     0
  0
CLASS
  1
LWPOLYLINE
  2
AcDbPolyline
  3
AutoCAD 2000
 90
        0
280
     0
281
     1
  0
CLASS
  1
HATCH
  2
AcDbHatch
  3
AutoCAD 2000
 90
        0
280
     0
281
     1
  0
CLASS
  1
XRECORD
  2
AcDbXrecord
  3
AutoCAD 2000
 90
        0
280
     0
281
     0
  0
CLASS
  1
LONG_TRANSACTION
  2
AcDbLongTransaction
  3
AutoCAD 2000
 90
        0
280
     0
281
     0
  0
CLASS
  1
LWPOLYLINE
  2
AcDbPolyline
  3
AutoCAD 2000
 90
        0
280
     0
281
     1
  0
CLASS
  1
HATCH
  2
AcDbHatch
  3
AutoCAD 2000
 90
        0
280
     0
281
     1
  0
CLASS
  1
XRECORD
  2
AcDbXrecord
  3
AutoCAD 2000
 90
        0
280
     0
281
     0
  0
CLASS
  1
LONG_TRANSACTION
  2
AcDbLongTransaction
  3
AutoCAD 2000
 90
        0
280
     0
281
     0
  0
CLASS
  1
LWPOLYLINE
  2
AcDbPolyline
  3
AutoCAD 2000
 90
        0
280
     0
281
     1
  0
CLASS
  1
HATCH
  2
AcDbHatch
  3
AutoCAD 2000
 90
        0
280
     0
281
     1
  0
CLASS
  1
XRECORD
  2
AcDbXrecord
  3
AutoCAD 2000
 90
        0
280
     0
281
     0
  0
CLASS
  1
LONG_TRANSACTION
  2
AcDbLongTransaction
  3
AutoCAD 2000
 90
        0
280
     0
281
     0
  0
CLASS
  1
LWPOLYLINE
  2
AcDbPolyline
  3
AutoCAD 2000
 90
        0
280
     0
281
     1
  0
CLASS
  1
HATCH
  2
AcDbHatch
  3
AutoCAD 2000
 90
        0
280
     0
281
     1
  0
CLASS
  1
XRECORD
  2
AcDbXrecord
  3
AutoCAD 2000
 90
        0
280
     0
281
     0
  0
CLASS
  1
LONG_TRANSACTION
  2
AcDbLongTransaction
  3
AutoCAD 2000
 90
        0
280
     0
281
     0
  0
CLASS
  1
LWPOLYLINE
  2
AcDbPolyline
  3
AutoCAD 2000
 90
        0
280
     0
281
     1
  0
CLASS
  1
HATCH
  2
AcDbHatch
  3
AutoCAD 2000
 90
        0
280
     0
281
     1
  0
CLASS
  1
XRECORD
  2
AcDbXrecord
  3
AutoCAD 2000
 90
        0
280
     0
281
     0
  0
CLASS
  1
LONG_TRANSACTION
  2
AcDbLongTransaction
  3
AutoCAD 2000
 90
        0
280
     0
281
     0
  0
CLASS
  1
LWPOLYLINE
  2
AcDbPolyline
  3
AutoCAD 2000
 90
        0
280
     0
281
     1
  0
CLASS
  1
HATCH
  2
AcDbHatch
  3
AutoCAD 2000
 90
        0
280
     0
281
     1
  0
CLASS
  1
XRECORD
  2
AcDbXrecord
  3
AutoCAD 2000
 90
        0
280
     0
281
     0
  0
CLASS
  1
LONG_TRANSACTION
  2
AcDbLongTransaction
  3
AutoCAD 2000
 90
        0
280
     0
281
     0
  0
CLASS
  1
LWPOLYLINE
  2
AcDbPolyline
  3
AutoCAD 2000
 90
        0
280
     0
281
     1
  0
CLASS
  1
HATCH
  2
AcDbHatch
  3
AutoCAD 2000
 90
        0
280
     0
281
     1
  0
CLASS
  1
XRECORD
  2
AcDbXrecord
  3
AutoCAD 2000
 90
        0
280
     0
281
     0
  0
CLASS
  1
LONG_TRANSACTION
  2
AcDbLongTransaction
  3
AutoCAD 2000
 90
        0
280
     0
281
     0
  0
CLASS
  1
LWPOLYLINE
  2
AcDbPolyline
  3
AutoCAD 2000
 90
        0
280
     0
281
     1
  0
CLASS
  1
HATCH
  2
AcDbHatch
  3
AutoCAD 2000
 90
        0
280
     0
281
     1
  0
CLASS
  1
XRECORD
  2
AcDbXrecord
  3
AutoCAD 2000
 90
        0
280
     0
281
     0
  0
CLASS
  1
LONG_TRANSACTION
  2
AcDbLongTransaction
  3
AutoCAD 2000
 90
        0
280
     0
281
     0
  0
CLASS
  1
LWPOLYLINE
  2
AcDbPolyline
  3
AutoCAD 2000
 90
        0
280
     0
281
     1
  0
CLASS
  1
HATCH
  2
AcDbHatch
  3
AutoCAD 2000
 90
        0
280
     0
281
     1
  0
CLASS
  1
XRECORD
  2
AcDbXrecord
  3
AutoCAD 2000
 90
        0
280
     0
281
     0
  0
CLASS
  1
LONG_TRANSACTION
  2
AcDbLongTransaction
  3
AutoCAD 2000
 90
        0
280
     0
281
     0
  0
CLASS
  1
LWPOLYLINE
  2
AcDbPolyline
  3
AutoCAD 2000
 90
        0
280
     0
281
     1
  0
CLASS
  1
HATCH
  2
AcDbHatch
  3
AutoCAD 2000
 90
        0
280
     0
281
     1
  0
CLASS
  1
XRECORD
  2
AcDbXrecord
  3
AutoCAD 2000
 90
        0
280
     0
281
     0
  0
CLASS
  1
LONG_TRANSACTION
  2
AcDbLongTransaction
  3
AutoCAD 2000
 90
        0
280
     0
281
     0
  0
CLASS
  1
LWPOLYLINE
  2
AcDbPolyline
  3
AutoCAD 2000
 90
        0
280
     0
281
     1
  0
CLASS
  1
HATCH
  2
AcDbHatch
  3
AutoCAD 2000
 90
        0
280
     0
281
     1
  0
CLASS
  1
XRECORD
  2
AcDbXrecord
  3
AutoCAD 2000
 90
        0
280
     0
281
     0
  0
CLASS
  1
LONG_TRANSACTION
  2
AcDbLongTransaction
  3
AutoCAD 2000
 90
        0
280
     0
281
     0
  0
CLASS
  1
LWPOLYLINE
  2
AcDbPolyline
  3
AutoCAD 2000
 90
        0
280
     0
281
     1
  0
CLASS
  1
HATCH
  2
AcDbHatch
  3
AutoCAD 2000
 90
        0
280
     0
281
     1
  0
CLASS
  1
XRECORD
  2
AcDbXrecord
  3
AutoCAD 2000
 90
        0
280
     0
281
     0
  0
CLASS
  1
LONG_TRANSACTION
  2
AcDbLongTransaction
  3
AutoCAD 2000
 90
        0
280
     0
281
     0
  0
CLASS
  1
LWPOLYLINE
  2
AcDbPolyline
  3
AutoCAD 2000
 90
        0
280
     0
281
     1
  0
CLASS
  1
HATCH
  2
AcDbHatch
  3
AutoCAD 2000
 90
        0
280
     0
281
     1
  0
CLASS
  1
XRECORD
  2
AcDbXrecord
  3
AutoCAD 2000
 90
        0
280
     0
281
     0
  0
CLASS
  1
LONG_TRANSACTION
  2
AcDbLongTransaction
  3
AutoCAD 2000
 90
        0
280
     0
281
     0
  0
CLASS
  1
LWPOLYLINE
  2
AcDbPolyline
  3
AutoCAD 2000
 90
        0
280
     0
281
     1
  0
CLASS
  1
HATCH
  2
AcDbHatch
  3
AutoCAD 2000
 90
        0
280
     0
281
     1
  0
CLASS
  1
XRECORD
  2
AcDbXrecord
  3
AutoCAD 2000
 90
        0
280
     0
281
     0
  0
CLASS
  1
LONG_TRANSACTION
  2
AcDbLongTransaction
  3
AutoCAD 2000
 90
        0
280
     0
281
     0
  0
CLASS
  1
LWPOLYLINE
  2
AcDbPolyline
  3
AutoCAD 2000
 90
        0
280
     0
281
     1
  0
CLASS
  1
HATCH
  2
AcDbHatch
  3
AutoCAD 2000
 90
        0
280
     0
281
     1
  0
CLASS
  1
XRECORD
  2
AcDbXrecord
  3
AutoCAD 2000
 90
        0
280
     0
281
     0
  0
CLASS
  1
LONG_TRANSACTION
  2
AcDbLongTransaction
  3
AutoCAD 2000
 90
        0
280
     0
281
     0
  0
CLASS
  1
LWPOLYLINE
  2
AcDbPolyline
  3
AutoCAD 2000
 90
        0
280
     0
281
     1
  0
CLASS
  1
HATCH
  2
AcDbHatch
  3
AutoCAD 2000
 90
        0
280
     0
281
     1
  0
CLASS
  1
XRECORD
  2
AcDbXrecord
  3
AutoCAD 2000
 90
        0
280
     0
281
     0
  0
CLASS
  1
LONG_TRANSACTION
  2
AcDbLongTransaction
  3
AutoCAD 2000
 90
        0
280
     0
281
     0
  0
CLASS
  1
LWPOLYLINE
  2
AcDbPolyline
  3
AutoCAD 2000
 90
        0
280
     0
281
     1
  0
CLASS
  1
HATCH
  2
AcDbHatch
  3
AutoCAD 2000
 90
        0
280
     0
281
     1
  0
CLASS
  1
XRECORD
  2
AcDbXrecord
  3
AutoCAD 2000
 90
        0
280
     0
281
     0
  0
CLASS
  1
DICTIONARYVAR
  2
AcDbDictionaryVar
  3
AutoCAD 2000
 90
        0
280
     0
281
     0
  0
CLASS
  1
LONG_TRANSACTION
  2
AcDbLongTransaction
  3
AutoCAD 2000
 90
        0
280
     0
281
     0
  0
CLASS
  1
LWPOLYLINE
  2
AcDbPolyline
  3
AutoCAD 2000
 90
        0
280
     0
281
     1
  0
CLASS
  1
HATCH
  2
AcDbHatch
  3
AutoCAD 2000
 90
        0
280
     0
281
     1
  0
CLASS
  1
XRECORD
  2
AcDbXrecord
  3
AutoCAD 2000
 90
        0
280
     0
281
     0
  0
CLASS
  1
LONG_TRANSACTION
  2
AcDbLongTransaction
  3
AutoCAD 2000
 90
        0
280
     0
281
     0
  0
CLASS
  1
LWPOLYLINE
  2
AcDbPolyline
  3
AutoCAD 2000
 90
        0
280
     0
281
     1
  0
CLASS
  1
HATCH
  2
AcDbHatch
  3
AutoCAD 2000
 90
        0
280
     0
281
     1
  0
CLASS
  1
XRECORD
  2
AcDbXrecord
  3
AutoCAD 2000
 90
        0
280
     0
281
     0
  0
CLASS
  1
LONG_TRANSACTION
  2
AcDbLongTransaction
  3
AutoCAD 2000
 90
        0
280
     0
281
     0
  0
CLASS
  1
LWPOLYLINE
  2
AcDbPolyline
  3
AutoCAD 2000
 90
        0
280
     0
281
     1
  0
CLASS
  1
HATCH
  2
AcDbHatch
  3
AutoCAD 2000
 90
        0
280
     0
281
     1
  0
CLASS
  1
XRECORD
  2
AcDbXrecord
  3
AutoCAD 2000
 90
        0
280
     0
281
     0
  0
CLASS
  1
LONG_TRANSACTION
  2
AcDbLongTransaction
  3
AutoCAD 2000
 90
        0
280
     0
281
     0
  0
CLASS
  1
LWPOLYLINE
  2
AcDbPolyline
  3
AutoCAD 2000
 90
        0
280
     0
281
     1
  0
CLASS
  1
HATCH
  2
AcDbHatch
  3
AutoCAD 2000
 90
        0
280
     0
281
     1
  0
CLASS
  1
XRECORD
  2
AcDbXrecord
  3
AutoCAD 2000
 90
        0
280
     0
281
     0
  0
ENDSEC
  0
SECTION
  2
TABLES
  0
TABLE
  2
VPORT
  5
8
330
0
100
AcDbSymbolTable
 70
     3
  0
VPORT
  5
887D
330
8
100
AcDbSymbolTableRecord
100
AcDbViewportTableRecord
  2
*ACTIVE
 70
     0
 10
0.0
 20
0.0
 11
1.0
 21
1.0
 12
204.9356005100156
 22
-153.7268581054261
 13
0.0
 23
0.0
 14
1.0
 24
1.0
 15
10.0
 25
10.0
 16
0.0
 26
0.0
 36
1.0
 17
0.0
 27
0.0
 37
0.0
 40
1322.436687886495
 41
2.161637931034482
 42
50.0
 43
0.0
 44
0.0
 50
0.0
 51
0.0
 71
     0
 72
   100
 73
     1
 74
     1
 75
     0
 76
     0
 77
     0
 78
     0
  0
ENDTAB
  0
TABLE
  2
LTYPE
  5
5
330
0
100
AcDbSymbolTable
 70
     5
  0
LTYPE
  5
13
330
5
100
AcDbSymbolTableRecord
100
AcDbLinetypeTableRecord
  2
BYBLOCK
 70
     0
  3

 72
    65
 73
     0
 40
0.0
  0
LTYPE
  5
14
330
5
100
AcDbSymbolTableRecord
100
AcDbLinetypeTableRecord
  2
BYLAYER
 70
     0
  3

 72
    65
 73
     0
 40
0.0
  0
LTYPE
  5
15
330
5
100
AcDbSymbolTableRecord
100
AcDbLinetypeTableRecord
  2
CONTINUOUS
 70
     0
  3
Solid line
 72
    65
 73
     0
 40
0.0
  0
LTYPE
  5
22
330
5
100
AcDbSymbolTableRecord
100
AcDbLinetypeTableRecord
  2
CONTINOUS
 70
     0
  3
Solid line
 72
    65
 73
     0
 40
0.0
  0
LTYPE
  5
23
330
5
100
AcDbSymbolTableRecord
100
AcDbLinetypeTableRecord
  2
DASHED
 70
     0
  3
__ __ __ __ __ __ __ __ __ __ __ __ __ __ __
 72
    65
 73
     2
 40
0.75
 49
0.5
 74
     0
 49
-0.25
 74
     0
  0
LTYPE
  5
24
330
5
100
AcDbSymbolTableRecord
100
AcDbLinetypeTableRecord
  2
DASHDOT
 70
     0
  3
__ . __ . __ . __ . __ . __ . __ . __ . __ . __
 72
    65
 73
     4
 40
1.0
 49
0.5
 74
     0
 49
-0.25
 74
     0
 49
0.0
 74
     0
 49
-0.25
 74
     0
  0
LTYPE
  5
3932
330
5
100
AcDbSymbolTableRecord
100
AcDbLinetypeTableRecord
  2
DIVIDE
 70
     0
  3
Divide ____ . . ____ . . ____ . . ____ . . ____
 72
    65
 73
     6
 40
1.25
 49
0.5
 74
     0
 49
-0.25
 74
     0
 49
0.0
 74
     0
 49
-0.25
 74
     0
 49
0.0
 74
     0
 49
-0.25
 74
     0
  0
ENDTAB
  0
TABLE
  2
LAYER
  5
2
330
0
100
AcDbSymbolTable
 70
    12
  0
LAYER
  5
10
330
2
100
AcDbSymbolTableRecord
100
AcDbLayerTableRecord
  2
0
 70
     0
 62
     7
  6
CONTINOUS
  0
LAYER
  5
2F
330
2
100
AcDbSymbolTableRecord
100
AcDbLayerTableRecord
  2
10
 70
     0
 62
     4
  6
CONTINOUS
  0
LAYER
  5
31
330
2
100
AcDbSymbolTableRecord
100
AcDbLayerTableRecord
  2
12
 70
     0
 62
     3
  6
CONTINOUS
  0
LAYER
  5
35
330
2
100
AcDbSymbolTableRecord
100
AcDbLayerTableRecord
  2
16
 70
     0
 62
     6
  6
DASHDOT
  0
LAYER
  5
36
330
2
100
AcDbSymbolTableRecord
100
AcDbLayerTableRecord
  2
17
 70
     0
 62
     2
  6
DASHDOT
  0
LAYER
  5
38
330
2
100
AcDbSymbolTableRecord
100
AcDbLayerTableRecord
  2
19
 70
     0
 62
     7
  6
CONTINOUS
  0
LAYER
  5
3C
330
2
100
AcDbSymbolTableRecord
100
AcDbLayerTableRecord
  2
11
 70
     0
 62
     1
  6
CONTINOUS
  0
LAYER
  5
3D
330
2
100
AcDbSymbolTableRecord
100
AcDbLayerTableRecord
  2
24
 70
     0
 62
     2
  6
CONTINOUS
  0
LAYER
  5
3A2
330
2
100
AcDbSymbolTableRecord
100
AcDbLayerTableRecord
  2
30
 70
     0
 62
     9
  6
CONTINUOUS
  0
LAYER
  5
3A4
330
2
100
AcDbSymbolTableRecord
100
AcDbLayerTableRecord
  2
DEFPOINTS
 70
     0
 62
     7
  6
CONTINUOUS
  0
LAYER
  5
3933
330
2
100
AcDbSymbolTableRecord
100
AcDbLayerTableRecord
  2
18
 70
     0
 62
     5
  6
DIVIDE
  0
LAYER
  5
4709
330
2
100
AcDbSymbolTableRecord
100
AcDbLayerTableRecord
  2
L0_
 70
     0
 62
     7
  6
CONTINUOUS
  0
ENDTAB
  0
TABLE
  2
STYLE
  5
3
330
0
100
AcDbSymbolTable
 70
     2
  0
STYLE
  5
11
330
3
100
AcDbSymbolTableRecord
100
AcDbTextStyleTableRecord
  2
STANDARD
 70
     0
 40
0.0
 41
1.0
 50
0.0
 71
     0
 42
2.0
  3
txt.shx
  4
bigfont.shx
  0
STYLE
  5
42
330
3
100
AcDbSymbolTableRecord
100
AcDbTextStyleTableRecord
  2
STANDARD1
 70
     0
 40
0.0
 41
1.0
 50
0.0
 71
     0
 42
5.0
  3
MONOTXT
  4
BIGFONT
  0
ENDTAB
  0
TABLE
  2
VIEW
  5
6
330
0
100
AcDbSymbolTable
 70
     3
  0
VIEW
  5
230C
330
6
100
AcDbSymbolTableRecord
100
AcDbViewTableRecord
  2
OLE1
 70
     0
 40
148.9124878027714
 10
429.4976280407223
 20
2.560626997828478
 41
103.1458057716444
 11
0.0
 21
0.0
 31
1.0
 12
0.0
 22
0.0
 32
0.0
 42
50.0
 43
0.0
 44
0.0
 50
0.0
 71
     0
  0
VIEW
  5
230E
330
6
100
AcDbSymbolTableRecord
100
AcDbViewTableRecord
  2
OLE2
 70
     0
 40
170.7786920545775
 10
322.664969958371
 20
-5.978304054290276
 41
102.4672152327465
 11
0.0
 21
0.0
 31
1.0
 12
0.0
 22
0.0
 32
0.0
 42
50.0
 43
0.0
 44
0.0
 50
0.0
 71
     0
  0
VIEW
  5
23AA
330
6
100
AcDbSymbolTableRecord
100
AcDbViewTableRecord
  2
OLE3
 70
     0
 40
591.7897393182231
 10
84.79698158148218
 20
-46.09336010803996
 41
388.7920961799953
 11
0.0
 21
0.0
 31
1.0
 12
0.0
 22
0.0
 32
0.0
 42
50.0
 43
0.0
 44
0.0
 50
0.0
 71
     0
  0
ENDTAB
  0
TABLE
  2
UCS
  5
7
330
0
100
AcDbSymbolTable
 70
     0
  0
ENDTAB
  0
TABLE
  2
APPID
  5
9
330
0
100
AcDbSymbolTable
 70
     2
  0
APPID
  5
12
330
9
100
AcDbSymbolTableRecord
100
AcDbRegAppTableRecord
  2
ACAD
 70
     0
  0
APPID
  5
ECD
330
9
100
AcDbSymbolTableRecord
100
AcDbRegAppTableRecord
  2
CONTENTBLOCKICON
 70
     0
  0
ENDTAB
  0
TABLE
  2
DIMSTYLE
  5
A
330
0
100
AcDbSymbolTable
 70
     1
  0
DIMSTYLE
105
175
102
{ACAD_REACTORS
330
795F
330
795C
330
7954
330
7735
330
75D5
330
75D2
330
75D1
330
75D0
330
75CF
330
75CE
330
75CD
330
6CBC
330
6CAF
330
6CA2
330
6C95
330
8152
330
814F
330
8150
330
814E
330
8151
330
814D
330
814C
330
82C8
330
82D5
330
7614
330
761A
330
75EB
330
75EC
330
7812
330
7817
330
780C
330
7972
102
}
330
A
100
AcDbSymbolTableRecord
100
AcDbDimStyleTableRecord
  2
STANDARD
 70
     0
  3

  4

  5
OPEN
  6

  7

 40
1.0
 41
2.0
 42
1.0
 43
0.5
 44
0.5
 45
0.0
 46
0.0
 47
0.0
 48
0.0
140
7.0
141
0.09
142
0.0
143
25.4
144
1.0
145
0.0
146
1.0
147
2.0
 71
     0
 72
     0
 73
     0
 74
     1
 75
     0
 76
     0
 77
     3
 78
    12
170
     0
171
     2
172
     0
173
     0
174
     0
175
     0
176
     0
177
     0
178
     0
270
     2
271
     1
272
     1
273
     2
274
     2
340
11
275
     0
280
     0
281
     0
282
     0
283
     1
284
     0
285
     0
286
     0
287
     3
288
     0
  0
ENDTAB
  0
TABLE
  2
BLOCK_RECORD
  5
1
330
0
100
AcDbSymbolTable
 70
    32
  0
BLOCK_RECORD
  5
1E
102
{ACAD_XDICTIONARY
360
178
102
}
330
1
100
AcDbSymbolTableRecord
100
AcDbBlockTableRecord
  2
*MODEL_SPACE
  0
BLOCK_RECORD
  5
1A
102
{ACAD_XDICTIONARY
360
17A
102
}
330
1
100
AcDbSymbolTableRecord
100
AcDbBlockTableRecord
  2
*PAPER_SPACE
  0
BLOCK_RECORD
  5
3B2
330
1
100
AcDbSymbolTableRecord
100
AcDbBlockTableRecord
  2
_OPEN
  0
BLOCK_RECORD
  5
6C96
330
1
100
AcDbSymbolTableRecord
100
AcDbBlockTableRecord
  2
*D1
  0
BLOCK_RECORD
  5
6CA3
330
1
100
AcDbSymbolTableRecord
100
AcDbBlockTableRecord
  2
*D2
  0
BLOCK_RECORD
  5
6CB0
330
1
100
AcDbSymbolTableRecord
100
AcDbBlockTableRecord
  2
*D3
  0
BLOCK_RECORD
  5
6CBD
330
1
100
AcDbSymbolTableRecord
100
AcDbBlockTableRecord
  2
*D4
  0
BLOCK_RECORD
  5
761F
330
1
100
AcDbSymbolTableRecord
100
AcDbBlockTableRecord
  2
*D5
  0
BLOCK_RECORD
  5
762B
330
1
100
AcDbSymbolTableRecord
100
AcDbBlockTableRecord
  2
*D6
  0
BLOCK_RECORD
  5
7637
330
1
100
AcDbSymbolTableRecord
100
AcDbBlockTableRecord
  2
*D7
  0
BLOCK_RECORD
  5
7643
330
1
100
AcDbSymbolTableRecord
100
AcDbBlockTableRecord
  2
*D8
  0
BLOCK_RECORD
  5
764F
330
1
100
AcDbSymbolTableRecord
100
AcDbBlockTableRecord
  2
*D9
  0
BLOCK_RECORD
  5
765B
330
1
100
AcDbSymbolTableRecord
100
AcDbBlockTableRecord
  2
*D10
  0
BLOCK_RECORD
  5
7667
330
1
100
AcDbSymbolTableRecord
100
AcDbBlockTableRecord
  2
*D11
  0
BLOCK_RECORD
  5
768B
330
1
100
AcDbSymbolTableRecord
100
AcDbBlockTableRecord
  2
*D12
  0
BLOCK_RECORD
  5
7697
330
1
100
AcDbSymbolTableRecord
100
AcDbBlockTableRecord
  2
*D13
  0
BLOCK_RECORD
  5
76A3
330
1
100
AcDbSymbolTableRecord
100
AcDbBlockTableRecord
  2
*D14
  0
BLOCK_RECORD
  5
76AF
330
1
100
AcDbSymbolTableRecord
100
AcDbBlockTableRecord
  2
*D15
  0
BLOCK_RECORD
  5
7742
330
1
100
AcDbSymbolTableRecord
100
AcDbBlockTableRecord
  2
*D16
  0
BLOCK_RECORD
  5
783B
330
1
100
AcDbSymbolTableRecord
100
AcDbBlockTableRecord
  2
*D17
  0
BLOCK_RECORD
  5
7847
330
1
100
AcDbSymbolTableRecord
100
AcDbBlockTableRecord
  2
*D18
  0
BLOCK_RECORD
  5
7853
330
1
100
AcDbSymbolTableRecord
100
AcDbBlockTableRecord
  2
*D19
  0
BLOCK_RECORD
  5
797E
330
1
100
AcDbSymbolTableRecord
100
AcDbBlockTableRecord
  2
*D20
  0
BLOCK_RECORD
  5
798A
330
1
100
AcDbSymbolTableRecord
100
AcDbBlockTableRecord
  2
*D21
  0
BLOCK_RECORD
  5
7996
330
1
100
AcDbSymbolTableRecord
100
AcDbBlockTableRecord
  2
*D22
  0
BLOCK_RECORD
  5
8153
330
1
100
AcDbSymbolTableRecord
100
AcDbBlockTableRecord
  2
*D23
  0
BLOCK_RECORD
  5
815F
330
1
100
AcDbSymbolTableRecord
100
AcDbBlockTableRecord
  2
*D24
  0
BLOCK_RECORD
  5
816B
330
1
100
AcDbSymbolTableRecord
100
AcDbBlockTableRecord
  2
*D25
  0
BLOCK_RECORD
  5
8177
330
1
100
AcDbSymbolTableRecord
100
AcDbBlockTableRecord
  2
*D26
  0
BLOCK_RECORD
  5
8183
330
1
100
AcDbSymbolTableRecord
100
AcDbBlockTableRecord
  2
*D27
  0
BLOCK_RECORD
  5
818F
330
1
100
AcDbSymbolTableRecord
100
AcDbBlockTableRecord
  2
*D28
  0
BLOCK_RECORD
  5
819B
330
1
100
AcDbSymbolTableRecord
100
AcDbBlockTableRecord
  2
*D29
  0
BLOCK_RECORD
  5
82C9
330
1
100
AcDbSymbolTableRecord
100
AcDbBlockTableRecord
  2
*D30
  0
BLOCK_RECORD
  5
82D6
330
1
100
AcDbSymbolTableRecord
100
AcDbBlockTableRecord
  2
*D31
  0
ENDTAB
  0
ENDSEC
  0
SECTION
  2
BLOCKS
  0
BLOCK
  5
1F
330
1E
100
AcDbEntity
  8
0
100
AcDbBlockBegin
  2
*MODEL_SPACE
 70
     0
 10
0.0
 20
0.0
 30
0.0
  3
*MODEL_SPACE
  1

  0
ENDBLK
  5
20
330
1E
100
AcDbEntity
  8
0
100
AcDbBlockEnd
  0
BLOCK
  5
1B
330
1A
100
AcDbEntity
 67
     1
  8
0
100
AcDbBlockBegin
  2
*PAPER_SPACE
 70
     0
 10
0.0
 20
0.0
 30
0.0
  3
*PAPER_SPACE
  1

  0
ENDBLK
  5
1C
330
1A
100
AcDbEntity
 67
     1
  8
0
100
AcDbBlockEnd
  0
BLOCK
  5
3B6
330
3B2
100
AcDbEntity
  8
0
100
AcDbBlockBegin
  2
_OPEN
 70
     0
 10
0.0
 20
0.0
 30
0.0
  3
_OPEN
  1

  0
LINE
  5
3B3
330
3B2
100
AcDbEntity
  8
30
  6
CONTINUOUS
 62
     0
100
AcDbLine
 10
-1.0
 20
0.1666666666666666
 30
0.0
 11
0.0
 21
0.0
 31
0.0
  0
LINE
  5
3B4
330
3B2
100
AcDbEntity
  8
30
  6
CONTINUOUS
 62
     0
100
AcDbLine
 10
-1.0
 20
-0.1666666666666666
 30
0.0
 11
0.0
 21
0.0
 31
0.0
  0
LINE
  5
3B5
330
3B2
100
AcDbEntity
  8
30
  6
CONTINUOUS
 62
     0
100
AcDbLine
 10
0.0
 20
0.0
 30
0.0
 11
-1.0
 21
0.0
 31
0.0
  0
ENDBLK
  5
3B7
330
3B2
100
AcDbEntity
  8
0
100
AcDbBlockEnd
  0
BLOCK
  5
6CA0
330
6C96
100
AcDbEntity
  8
0
100
AcDbBlockBegin
  2
*D1
 70
     1
 10
0.0
 20
0.0
 30
0.0
  3
*D1
  1

  0
LINE
  5
87B7
330
6C96
100
AcDbEntity
  8
30
  6
CONTINUOUS
 62
     0
100
AcDbLine
 10
47.5001220703201
 20
-250.0
 30
0.0
 11
47.5001220703201
 21
-299.5577322434742
 31
0.0
  0
LINE
  5
87B8
330
6C96
100
AcDbEntity
  8
30
  6
CONTINUOUS
 62
     0
100
AcDbLine
 10
92.5
 20
-250.0
 30
0.0
 11
92.5
 21
-299.5577322434742
 31
0.0
  0
LINE
  5
87B9
330
6C96
100
AcDbEntity
  8
30
  6
CONTINUOUS
 62
     0
100
AcDbLine
 10
49.50012207032011
 20
-299.0577322434742
 30
0.0
 11
90.5
 21
-299.0577322434742
 31
0.0
  0
INSERT
  5
87BA
330
6C96
100
AcDbEntity
  8
30
  6
CONTINUOUS
 62
     0
100
AcDbBlockReference
  2
_OPEN
 10
47.5001220703201
 20
-299.0577322434742
 30
0.0
 41
2.0
 42
2.0
 43
2.0
 50
180.0
  0
INSERT
  5
87BB
330
6C96
100
AcDbEntity
  8
30
  6
CONTINUOUS
 62
     0
100
AcDbBlockReference
  2
_OPEN
 10
92.5
 20
-299.0577322434742
 30
0.0
 41
2.0
 42
2.0
 43
2.0
  0
MTEXT
  5
87BC
330
6C96
100
AcDbEntity
  8
30
  6
CONTINUOUS
 62
     0
100
AcDbMText
 10
70.00006103516006
 20
-293.5577322434742
 30
0.0
 40
7.0
 41
0.0
 71
     5
 72
     1
  1
\A1;45
1001
ACAD
1000
MTEXTBEGIN
1070
    73
1070
     1
1070
    44
1040
1.0
1070
    74
1070
     0
1000
MTEXTEND
  0
POINT
  5
87BD
330
6C96
100
AcDbEntity
  8
DEFPOINTS
  6
CONTINUOUS
 62
     0
100
AcDbPoint
 10
47.5001220703201
 20
-249.0
 30
0.0
  0
POINT
  5
87BE
330
6C96
100
AcDbEntity
  8
DEFPOINTS
  6
CONTINUOUS
 62
     0
100
AcDbPoint
 10
92.5
 20
-249.0
 30
0.0
  0
POINT
  5
87BF
330
6C96
100
AcDbEntity
  8
DEFPOINTS
  6
CONTINUOUS
 62
     0
100
AcDbPoint
 10
92.5
 20
-299.0577322434742
 30
0.0
  0
ENDBLK
  5
6CA1
330
6C96
100
AcDbEntity
  8
0
100
AcDbBlockEnd
  0
BLOCK
  5
6CAD
330
6CA3
100
AcDbEntity
  8
0
100
AcDbBlockBegin
  2
*D2
 70
     1
 10
0.0
 20
0.0
 30
0.0
  3
*D2
  1

  0
LINE
  5
87AE
330
6CA3
100
AcDbEntity
  8
30
  6
CONTINUOUS
 62
     0
100
AcDbLine
 10
-69.99969482420978
 20
-250.0
 30
0.0
 11
-69.99969482420978
 21
-277.9962531344657
 31
0.0
  0
LINE
  5
87AF
330
6CA3
100
AcDbEntity
  8
30
  6
CONTINUOUS
 62
     0
100
AcDbLine
 10
0.0002441406402339
 20
-250.0
 30
0.0
 11
0.0002441406402322
 21
-277.9962531344657
 31
0.0
  0
LINE
  5
87B0
330
6CA3
100
AcDbEntity
  8
30
  6
CONTINUOUS
 62
     0
100
AcDbLine
 10
-67.99969482420978
 20
-277.4962531344657
 30
0.0
 11
-1.999755859359767
 21
-277.4962531344657
 31
0.0
  0
INSERT
  5
87B1
330
6CA3
100
AcDbEntity
  8
30
  6
CONTINUOUS
 62
     0
100
AcDbBlockReference
  2
_OPEN
 10
-69.99969482420978
 20
-277.4962531344657
 30
0.0
 41
2.0
 42
2.0
 43
2.0
 50
180.0
  0
INSERT
  5
87B2
330
6CA3
100
AcDbEntity
  8
30
  6
CONTINUOUS
 62
     0
100
AcDbBlockReference
  2
_OPEN
 10
0.0002441406402323
 20
-277.4962531344657
 30
0.0
 41
2.0
 42
2.0
 43
2.0
  0
MTEXT
  5
87B3
330
6CA3
100
AcDbEntity
  8
30
  6
CONTINUOUS
 62
     0
100
AcDbMText
 10
-34.99972534178477
 20
-271.9962531344658
 30
0.0
 40
7.0
 41
0.0
 71
     5
 72
     1
  1
\A1;70
1001
ACAD
1000
MTEXTBEGIN
1070
    73
1070
     1
1070
    44
1040
1.0
1070
    74
1070
     0
1000
MTEXTEND
  0
POINT
  5
87B4
330
6CA3
100
AcDbEntity
  8
DEFPOINTS
  6
CONTINUOUS
 62
     0
100
AcDbPoint
 10
-69.99969482420978
 20
-249.0
 30
0.0
  0
POINT
  5
87B5
330
6CA3
100
AcDbEntity
  8
DEFPOINTS
  6
CONTINUOUS
 62
     0
100
AcDbPoint
 10
0.000244140640234
 20
-249.0
 30
0.0
  0
POINT
  5
87B6
330
6CA3
100
AcDbEntity
  8
DEFPOINTS
  6
CONTINUOUS
 62
     0
100
AcDbPoint
 10
0.0002441406402323
 20
-277.4962531344657
 30
0.0
  0
ENDBLK
  5
6CAE
330
6CA3
100
AcDbEntity
  8
0
100
AcDbBlockEnd
  0
BLOCK
  5
6CBA
330
6CB0
100
AcDbEntity
  8
0
100
AcDbBlockBegin
  2
*D3
 70
     1
 10
0.0
 20
0.0
 30
0.0
  3
*D3
  1

  0
LINE
  5
87A5
330
6CB0
100
AcDbEntity
  8
30
  6
CONTINUOUS
 62
     0
100
AcDbLine
 10
0.0002441406402339
 20
-250.0
 30
0.0
 11
0.0002441406402322
 21
-277.9962531344657
 31
0.0
  0
LINE
  5
87A6
330
6CB0
100
AcDbEntity
  8
30
  6
CONTINUOUS
 62
     0
100
AcDbLine
 10
70.00012207032011
 20
-250.0
 30
0.0
 11
70.00012207032011
 21
-277.9962531344657
 31
0.0
  0
LINE
  5
87A7
330
6CB0
100
AcDbEntity
  8
30
  6
CONTINUOUS
 62
     0
100
AcDbLine
 10
2.000244140640232
 20
-277.4962531344657
 30
0.0
 11
68.00012207032011
 21
-277.4962531344657
 31
0.0
  0
INSERT
  5
87A8
330
6CB0
100
AcDbEntity
  8
30
  6
CONTINUOUS
 62
     0
100
AcDbBlockReference
  2
_OPEN
 10
0.0002441406402323
 20
-277.4962531344657
 30
0.0
 41
2.0
 42
2.0
 43
2.0
 50
180.0
  0
INSERT
  5
87A9
330
6CB0
100
AcDbEntity
  8
30
  6
CONTINUOUS
 62
     0
100
AcDbBlockReference
  2
_OPEN
 10
70.00012207032011
 20
-277.4962531344657
 30
0.0
 41
2.0
 42
2.0
 43
2.0
  0
MTEXT
  5
87AA
330
6CB0
100
AcDbEntity
  8
30
  6
CONTINUOUS
 62
     0
100
AcDbMText
 10
35.00018310548017
 20
-271.9962531344658
 30
0.0
 40
7.0
 41
0.0
 71
     5
 72
     1
  1
\A1;70
1001
ACAD
1000
MTEXTBEGIN
1070
    73
1070
     1
1070
    44
1040
1.0
1070
    74
1070
     0
1000
MTEXTEND
  0
POINT
  5
87AB
330
6CB0
100
AcDbEntity
  8
DEFPOINTS
  6
CONTINUOUS
 62
     0
100
AcDbPoint
 10
0.000244140640234
 20
-249.0
 30
0.0
  0
POINT
  5
87AC
330
6CB0
100
AcDbEntity
  8
DEFPOINTS
  6
CONTINUOUS
 62
     0
100
AcDbPoint
 10
70.00012207032011
 20
-249.0
 30
0.0
  0
POINT
  5
87AD
330
6CB0
100
AcDbEntity
  8
DEFPOINTS
  6
CONTINUOUS
 62
     0
100
AcDbPoint
 10
70.00012207032011
 20
-277.4962531344657
 30
0.0
  0
ENDBLK
  5
6CBB
330
6CB0
100
AcDbEntity
  8
0
100
AcDbBlockEnd
  0
BLOCK
  5
6CC7
330
6CBD
100
AcDbEntity
  8
0
100
AcDbBlockBegin
  2
*D4
 70
     1
 10
0.0
 20
0.0
 30
0.0
  3
*D4
  1

  0
LINE
  5
879C
330
6CBD
100
AcDbEntity
  8
30
  6
CONTINUOUS
 62
     0
100
AcDbLine
 10
-104.9998168945297
 20
-171.0
 30
0.0
 11
-104.9998168945298
 21
-314.1091583979323
 31
0.0
  0
LINE
  5
879D
330
6CBD
100
AcDbEntity
  8
30
  6
CONTINUOUS
 62
     0
100
AcDbLine
 10
105.0
 20
-171.0
 30
0.0
 11
104.9999999999999
 21
-314.1091583979323
 31
0.0
  0
LINE
  5
879E
330
6CBD
100
AcDbEntity
  8
30
  6
CONTINUOUS
 62
     0
100
AcDbLine
 10
-102.9998168945298
 20
-313.6091583979323
 30
0.0
 11
102.9999999999999
 21
-313.6091583979323
 31
0.0
  0
INSERT
  5
879F
330
6CBD
100
AcDbEntity
  8
30
  6
CONTINUOUS
 62
     0
100
AcDbBlockReference
  2
_OPEN
 10
-104.9998168945298
 20
-313.6091583979323
 30
0.0
 41
2.0
 42
2.0
 43
2.0
 50
180.0
  0
INSERT
  5
87A0
330
6CBD
100
AcDbEntity
  8
30
  6
CONTINUOUS
 62
     0
100
AcDbBlockReference
  2
_OPEN
 10
104.9999999999999
 20
-313.6091583979323
 30
0.0
 41
2.0
 42
2.0
 43
2.0
  0
MTEXT
  5
87A1
330
6CBD
100
AcDbEntity
  8
30
  6
CONTINUOUS
 62
     0
100
AcDbMText
 10
0.0000915527350859
 20
-308.1091583979323
 30
0.0
 40
7.0
 41
0.0
 71
     5
 72
     1
  1
\A1;210
1001
ACAD
1000
MTEXTBEGIN
1070
    73
1070
     1
1070
    44
1040
1.0
1070
    74
1070
     0
1000
MTEXTEND
  0
POINT
  5
87A2
330
6CBD
100
AcDbEntity
  8
DEFPOINTS
  6
CONTINUOUS
 62
     0
100
AcDbPoint
 10
-104.9998168945297
 20
-170.0
 30
0.0
  0
POINT
  5
87A3
330
6CBD
100
AcDbEntity
  8
DEFPOINTS
  6
CONTINUOUS
 62
     0
100
AcDbPoint
 10
105.0
 20
-170.0
 30
0.0
  0
POINT
  5
87A4
330
6CBD
100
AcDbEntity
  8
DEFPOINTS
  6
CONTINUOUS
 62
     0
100
AcDbPoint
 10
104.9999999999999
 20
-313.6091583979323
 30
0.0
  0
ENDBLK
  5
6CC8
330
6CBD
100
AcDbEntity
  8
0
100
AcDbBlockEnd
  0
BLOCK
  5
7629
330
761F
100
AcDbEntity
  8
0
100
AcDbBlockBegin
  2
*D5
 70
     1
 10
0.0
 20
0.0
 30
0.0
  3
*D5
  1

  0
LINE
  5
8793
330
761F
100
AcDbEntity
  8
30
  6
CONTINUOUS
 62
     0
100
AcDbLine
 10
578.9742431640004
 20
-171.0935058566683
 30
0.0
 11
578.9742431640004
 21
-266.5913454632095
 31
0.0
  0
LINE
  5
8794
330
761F
100
AcDbEntity
  8
30
  6
CONTINUOUS
 62
     0
100
AcDbLine
 10
549.9742431640004
 20
-251.0935058566683
 30
0.0
 11
549.9742431640004
 21
-266.5913454632095
 31
0.0
  0
LINE
  5
8795
330
761F
100
AcDbEntity
  8
30
  6
CONTINUOUS
 62
     0
100
AcDbLine
 10
576.9742431640004
 20
-266.0913454632094
 30
0.0
 11
551.9742431640004
 21
-266.0913454632094
 31
0.0
  0
INSERT
  5
8796
330
761F
100
AcDbEntity
  8
30
  6
CONTINUOUS
 62
     0
100
AcDbBlockReference
  2
_OPEN
 10
578.9742431640004
 20
-266.0913454632094
 30
0.0
 41
2.0
 42
2.0
 43
2.0
  0
INSERT
  5
8797
330
761F
100
AcDbEntity
  8
30
  6
CONTINUOUS
 62
     0
100
AcDbBlockReference
  2
_OPEN
 10
549.9742431640004
 20
-266.0913454632094
 30
0.0
 41
2.0
 42
2.0
 43
2.0
 50
180.0
  0
MTEXT
  5
8798
330
761F
100
AcDbEntity
  8
30
  6
CONTINUOUS
 62
     0
100
AcDbMText
 10
565.6597900390002
 20
-260.5913454632095
 30
0.0
 40
7.0
 41
0.0
 71
     5
 72
     1
  1
\A1;29
1001
ACAD
1000
MTEXTBEGIN
1070
    73
1070
     1
1070
    44
1040
1.0
1070
    74
1070
     0
1000
MTEXTEND
  0
POINT
  5
8799
330
761F
100
AcDbEntity
  8
DEFPOINTS
  6
CONTINUOUS
 62
     0
100
AcDbPoint
 10
578.9742431640004
 20
-170.0935058566683
 30
0.0
  0
POINT
  5
879A
330
761F
100
AcDbEntity
  8
DEFPOINTS
  6
CONTINUOUS
 62
     0
100
AcDbPoint
 10
549.9742431640004
 20
-250.0935058566683
 30
0.0
  0
POINT
  5
879B
330
761F
100
AcDbEntity
  8
DEFPOINTS
  6
CONTINUOUS
 62
     0
100
AcDbPoint
 10
549.9742431640004
 20
-266.0913454632094
 30
0.0
  0
ENDBLK
  5
762A
330
761F
100
AcDbEntity
  8
0
100
AcDbBlockEnd
  0
BLOCK
  5
7635
330
762B
100
AcDbEntity
  8
0
100
AcDbBlockBegin
  2
*D6
 70
     1
 10
0.0
 20
0.0
 30
0.0
  3
*D6
  1

  0
LINE
  5
8789
330
762B
100
AcDbEntity
  8
30
  6
CONTINUOUS
 62
     0
100
AcDbLine
 10
458.9742431640003
 20
-141.0935058566682
 30
0.0
 11
458.9742431640003
 21
-193.034130220209
 31
0.0
  0
LINE
  5
878A
330
762B
100
AcDbEntity
  8
30
  6
CONTINUOUS
 62
     0
100
AcDbLine
 10
466.9742431640004
 20
-171.0935058566683
 30
0.0
 11
466.9742431640004
 21
-193.034130220209
 31
0.0
  0
LINE
  5
878B
330
762B
100
AcDbEntity
  8
30
  6
CONTINUOUS
 62
     0
100
AcDbLine
 10
460.9742431640003
 20
-192.534130220209
 30
0.0
 11
464.9742431640003
 21
-192.534130220209
 31
0.0
  0
LINE
  5
878C
330
762B
100
AcDbEntity
  8
30
  6
CONTINUOUS
 62
     0
100
AcDbLine
 10
466.9742431640004
 20
-192.534130220209
 30
0.0
 11
490.8425101485161
 21
-192.534130220209
 31
0.0
  0
INSERT
  5
878D
330
762B
100
AcDbEntity
  8
30
  6
CONTINUOUS
 62
     0
100
AcDbBlockReference
  2
_OPEN
 10
458.9742431640003
 20
-192.534130220209
 30
0.0
 41
2.0
 42
2.0
 43
2.0
 50
180.0
  0
INSERT
  5
878E
330
762B
100
AcDbEntity
  8
30
  6
CONTINUOUS
 62
     0
100
AcDbBlockReference
  2
_OPEN
 10
466.9742431640004
 20
-192.534130220209
 30
0.0
 41
2.0
 42
2.0
 43
2.0
  0
MTEXT
  5
878F
330
762B
100
AcDbEntity
  8
30
  6
CONTINUOUS
 62
     0
100
AcDbMText
 10
486.5091768151827
 20
-187.034130220209
 30
0.0
 40
7.0
 41
0.0
 71
     5
 72
     1
  1
\A1;8
1001
ACAD
1000
MTEXTBEGIN
1070
    73
1070
     1
1070
    44
1040
1.0
1070
    74
1070
     0
1000
MTEXTEND
  0
POINT
  5
8790
330
762B
100
AcDbEntity
  8
DEFPOINTS
  6
CONTINUOUS
 62
     0
100
AcDbPoint
 10
458.9742431640003
 20
-140.0935058566682
 30
0.0
  0
POINT
  5
8791
330
762B
100
AcDbEntity
  8
DEFPOINTS
  6
CONTINUOUS
 62
     0
100
AcDbPoint
 10
466.9742431640004
 20
-170.0935058566683
 30
0.0
  0
POINT
  5
8792
330
762B
100
AcDbEntity
  8
DEFPOINTS
  6
CONTINUOUS
 62
     0
100
AcDbPoint
 10
466.9742431640004
 20
-192.534130220209
 30
0.0
  0
ENDBLK
  5
7636
330
762B
100
AcDbEntity
  8
0
100
AcDbBlockEnd
  0
BLOCK
  5
7641
330
7637
100
AcDbEntity
  8
0
100
AcDbBlockBegin
  2
*D7
 70
     1
 10
0.0
 20
0.0
 30
0.0
  3
*D7
  1

  0
LINE
  5
877F
330
7637
100
AcDbEntity
  8
30
  6
CONTINUOUS
 62
     0
100
AcDbLine
 10
458.9742431640003
 20
-141.0935058566682
 30
0.0
 11
458.9742431640003
 21
-193.534130220209
 31
0.0
  0
LINE
  5
8780
330
7637
100
AcDbEntity
  8
30
  6
CONTINUOUS
 62
     0
100
AcDbLine
 10
441.9742431640004
 20
-1.093505856668343
 30
0.0
 11
441.9742431640004
 21
-193.534130220209
 31
0.0
  0
LINE
  5
8781
330
7637
100
AcDbEntity
  8
30
  6
CONTINUOUS
 62
     0
100
AcDbLine
 10
456.9742431640003
 20
-193.034130220209
 30
0.0
 11
443.9742431640003
 21
-193.034130220209
 31
0.0
  0
LINE
  5
8782
330
7637
100
AcDbEntity
  8
30
  6
CONTINUOUS
 62
     0
100
AcDbLine
 10
441.9742431640004
 20
-193.034130220209
 30
0.0
 11
420.2637730503445
 21
-193.034130220209
 31
0.0
  0
INSERT
  5
8783
330
7637
100
AcDbEntity
  8
30
  6
CONTINUOUS
 62
     0
100
AcDbBlockReference
  2
_OPEN
 10
458.9742431640003
 20
-193.034130220209
 30
0.0
 41
2.0
 42
2.0
 43
2.0
  0
INSERT
  5
8784
330
7637
100
AcDbEntity
  8
30
  6
CONTINUOUS
 62
     0
100
AcDbBlockReference
  2
_OPEN
 10
441.9742431640004
 20
-193.034130220209
 30
0.0
 41
2.0
 42
2.0
 43
2.0
 50
180.0
  0
MTEXT
  5
8785
330
7637
100
AcDbEntity
  8
30
  6
CONTINUOUS
 62
     0
100
AcDbMText
 10
426.9304397170111
 20
-187.534130220209
 30
0.0
 40
7.0
 41
0.0
 71
     5
 72
     1
  1
\A1;17
1001
ACAD
1000
MTEXTBEGIN
1070
    73
1070
     1
1070
    44
1040
1.0
1070
    74
1070
     0
1000
MTEXTEND
  0
POINT
  5
8786
330
7637
100
AcDbEntity
  8
DEFPOINTS
  6
CONTINUOUS
 62
     0
100
AcDbPoint
 10
458.9742431640003
 20
-140.0935058566682
 30
0.0
  0
POINT
  5
8787
330
7637
100
AcDbEntity
  8
DEFPOINTS
  6
CONTINUOUS
 62
     0
100
AcDbPoint
 10
441.9742431640004
 20
-0.0935058566683438
 30
0.0
  0
POINT
  5
8788
330
7637
100
AcDbEntity
  8
DEFPOINTS
  6
CONTINUOUS
 62
     0
100
AcDbPoint
 10
441.9742431640004
 20
-193.034130220209
 30
0.0
  0
ENDBLK
  5
7642
330
7637
100
AcDbEntity
  8
0
100
AcDbBlockEnd
  0
BLOCK
  5
764D
330
7643
100
AcDbEntity
  8
0
100
AcDbBlockBegin
  2
*D8
 70
     1
 10
0.0
 20
0.0
 30
0.0
  3
*D8
  1

  0
LINE
  5
8776
330
7643
100
AcDbEntity
  8
30
  6
CONTINUOUS
 62
     0
100
AcDbLine
 10
578.9742431640004
 20
-171.0935058566683
 30
0.0
 11
578.9742431640004
 21
-286.6524052902514
 31
0.0
  0
LINE
  5
8777
330
7643
100
AcDbEntity
  8
30
  6
CONTINUOUS
 62
     0
100
AcDbLine
 10
458.9742431640003
 20
-141.0935058566682
 30
0.0
 11
458.9742431640003
 21
-286.6524052902514
 31
0.0
  0
LINE
  5
8778
330
7643
100
AcDbEntity
  8
30
  6
CONTINUOUS
 62
     0
100
AcDbLine
 10
576.9742431640004
 20
-286.1524052902514
 30
0.0
 11
460.9742431640003
 21
-286.1524052902514
 31
0.0
  0
INSERT
  5
8779
330
7643
100
AcDbEntity
  8
30
  6
CONTINUOUS
 62
     0
100
AcDbBlockReference
  2
_OPEN
 10
578.9742431640004
 20
-286.1524052902514
 30
0.0
 41
2.0
 42
2.0
 43
2.0
  0
INSERT
  5
877A
330
7643
100
AcDbEntity
  8
30
  6
CONTINUOUS
 62
     0
100
AcDbBlockReference
  2
_OPEN
 10
458.9742431640003
 20
-286.1524052902514
 30
0.0
 41
2.0
 42
2.0
 43
2.0
 50
180.0
  0
MTEXT
  5
877B
330
7643
100
AcDbEntity
  8
30
  6
CONTINUOUS
 62
     0
100
AcDbMText
 10
516.7637168482109
 20
-280.6524052902513
 30
0.0
 40
7.0
 41
0.0
 71
     5
 72
     1
  1
\A1;120
1001
ACAD
1000
MTEXTBEGIN
1070
    73
1070
     1
1070
    44
1040
1.0
1070
    74
1070
     0
1000
MTEXTEND
  0
POINT
  5
877C
330
7643
100
AcDbEntity
  8
DEFPOINTS
  6
CONTINUOUS
 62
     0
100
AcDbPoint
 10
578.9742431640004
 20
-170.0935058566683
 30
0.0
  0
POINT
  5
877D
330
7643
100
AcDbEntity
  8
DEFPOINTS
  6
CONTINUOUS
 62
     0
100
AcDbPoint
 10
458.9742431640003
 20
-140.0935058566682
 30
0.0
  0
POINT
  5
877E
330
7643
100
AcDbEntity
  8
DEFPOINTS
  6
CONTINUOUS
 62
     0
100
AcDbPoint
 10
458.9742431640003
 20
-286.1524052902514
 30
0.0
  0
ENDBLK
  5
764E
330
7643
100
AcDbEntity
  8
0
100
AcDbBlockEnd
  0
BLOCK
  5
7659
330
764F
100
AcDbEntity
  8
0
100
AcDbBlockBegin
  2
*D9
 70
     1
 10
0.0
 20
0.0
 30
0.0
  3
*D9
  1

  0
LINE
  5
876D
330
764F
100
AcDbEntity
  8
30
  6
CONTINUOUS
 62
     0
100
AcDbLine
 10
407.9741210937004
 20
-1.093505856668343
 30
0.0
 11
407.9741210937004
 21
-311.5048103712513
 31
0.0
  0
LINE
  5
876E
330
764F
100
AcDbEntity
  8
30
  6
CONTINUOUS
 62
     0
100
AcDbLine
 10
327.9743652343003
 20
-1.093505856668343
 30
0.0
 11
327.9743652343003
 21
-311.5048103712513
 31
0.0
  0
LINE
  5
876F
330
764F
100
AcDbEntity
  8
30
  6
CONTINUOUS
 62
     0
100
AcDbLine
 10
405.9741210937004
 20
-311.0048103712514
 30
0.0
 11
329.9743652343003
 21
-311.0048103712514
 31
0.0
  0
INSERT
  5
8770
330
764F
100
AcDbEntity
  8
30
  6
CONTINUOUS
 62
     0
100
AcDbBlockReference
  2
_OPEN
 10
407.9741210937004
 20
-311.0048103712514
 30
0.0
 41
2.0
 42
2.0
 43
2.0
  0
INSERT
  5
8771
330
764F
100
AcDbEntity
  8
30
  6
CONTINUOUS
 62
     0
100
AcDbBlockReference
  2
_OPEN
 10
327.9743652343003
 20
-311.0048103712514
 30
0.0
 41
2.0
 42
2.0
 43
2.0
 50
180.0
  0
MTEXT
  5
8772
330
764F
100
AcDbEntity
  8
30
  6
CONTINUOUS
 62
     0
100
AcDbMText
 10
368.5755945153523
 20
-305.5048103712513
 30
0.0
 40
7.0
 41
0.0
 71
     5
 72
     1
  1
\A1;80
1001
ACAD
1000
MTEXTBEGIN
1070
    73
1070
     1
1070
    44
1040
1.0
1070
    74
1070
     0
1000
MTEXTEND
  0
POINT
  5
8773
330
764F
100
AcDbEntity
  8
DEFPOINTS
  6
CONTINUOUS
 62
     0
100
AcDbPoint
 10
407.9741210937004
 20
-0.0935058566683438
 30
0.0
  0
POINT
  5
8774
330
764F
100
AcDbEntity
  8
DEFPOINTS
  6
CONTINUOUS
 62
     0
100
AcDbPoint
 10
327.9743652343003
 20
-0.0935058566683438
 30
0.0
  0
POINT
  5
8775
330
764F
100
AcDbEntity
  8
DEFPOINTS
  6
CONTINUOUS
 62
     0
100
AcDbPoint
 10
327.9743652343003
 20
-311.0048103712514
 30
0.0
  0
ENDBLK
  5
765A
330
764F
100
AcDbEntity
  8
0
100
AcDbBlockEnd
  0
BLOCK
  5
7665
330
765B
100
AcDbEntity
  8
0
100
AcDbBlockBegin
  2
*D10
 70
     1
 10
0.0
 20
0.0
 30
0.0
  3
*D10
  1

  0
LINE
  5
8764
330
765B
100
AcDbEntity
  8
30
  6
CONTINUOUS
 62
     0
100
AcDbLine
 10
578.9742431640004
 20
-171.0935058566683
 30
0.0
 11
578.9742431640004
 21
-311.171477037918
 31
0.0
  0
LINE
  5
8765
330
765B
100
AcDbEntity
  8
30
  6
CONTINUOUS
 62
     0
100
AcDbLine
 10
407.9741210937004
 20
-1.093505856668343
 30
0.0
 11
407.9741210937004
 21
-311.171477037918
 31
0.0
  0
LINE
  5
8766
330
765B
100
AcDbEntity
  8
30
  6
CONTINUOUS
 62
     0
100
AcDbLine
 10
576.9742431640004
 20
-310.671477037918
 30
0.0
 11
409.9741210937004
 21
-310.671477037918
 31
0.0
  0
INSERT
  5
8767
330
765B
100
AcDbEntity
  8
30
  6
CONTINUOUS
 62
     0
100
AcDbBlockReference
  2
_OPEN
 10
578.9742431640004
 20
-310.671477037918
 30
0.0
 41
2.0
 42
2.0
 43
2.0
  0
INSERT
  5
8768
330
765B
100
AcDbEntity
  8
30
  6
CONTINUOUS
 62
     0
100
AcDbBlockReference
  2
_OPEN
 10
407.9741210937004
 20
-310.671477037918
 30
0.0
 41
2.0
 42
2.0
 43
2.0
 50
180.0
  0
MTEXT
  5
8769
330
765B
100
AcDbEntity
  8
30
  6
CONTINUOUS
 62
     0
100
AcDbMText
 10
491.2682387407593
 20
-305.171477037918
 30
0.0
 40
7.0
 41
0.0
 71
     5
 72
     1
  1
\A1;171
1001
ACAD
1000
MTEXTBEGIN
1070
    73
1070
     1
1070
    44
1040
1.0
1070
    74
1070
     0
1000
MTEXTEND
  0
POINT
  5
876A
330
765B
100
AcDbEntity
  8
DEFPOINTS
  6
CONTINUOUS
 62
     0
100
AcDbPoint
 10
578.9742431640004
 20
-170.0935058566683
 30
0.0
  0
POINT
  5
876B
330
765B
100
AcDbEntity
  8
DEFPOINTS
  6
CONTINUOUS
 62
     0
100
AcDbPoint
 10
407.9741210937004
 20
-0.0935058566683438
 30
0.0
  0
POINT
  5
876C
330
765B
100
AcDbEntity
  8
DEFPOINTS
  6
CONTINUOUS
 62
     0
100
AcDbPoint
 10
407.9741210937004
 20
-310.671477037918
 30
0.0
  0
ENDBLK
  5
7666
330
765B
100
AcDbEntity
  8
0
100
AcDbBlockEnd
  0
BLOCK
  5
7671
330
7667
100
AcDbEntity
  8
0
100
AcDbBlockBegin
  2
*D11
 70
     1
 10
0.0
 20
0.0
 30
0.0
  3
*D11
  1

  0
LINE
  5
875A
330
7667
100
AcDbEntity
  8
30
  6
CONTINUOUS
 62
     0
100
AcDbLine
 10
549.9742431640004
 20
-251.0935058566683
 30
0.0
 11
549.9742431640004
 21
-266.5913454632095
 31
0.0
  0
LINE
  5
875B
330
7667
100
AcDbEntity
  8
30
  6
CONTINUOUS
 62
     0
100
AcDbLine
 10
535.9742431640004
 20
-251.0935058566683
 30
0.0
 11
535.9742431640004
 21
-266.5913454632095
 31
0.0
  0
LINE
  5
875C
330
7667
100
AcDbEntity
  8
30
  6
CONTINUOUS
 62
     0
100
AcDbLine
 10
547.9742431640004
 20
-266.0913454632094
 30
0.0
 11
537.9742431640003
 21
-266.0913454632094
 31
0.0
  0
LINE
  5
875D
330
7667
100
AcDbEntity
  8
30
  6
CONTINUOUS
 62
     0
100
AcDbLine
 10
535.9742431640004
 20
-266.0913454632094
 30
0.0
 11
490.0303676671654
 21
-266.0913454632094
 31
0.0
  0
INSERT
  5
875E
330
7667
100
AcDbEntity
  8
30
  6
CONTINUOUS
 62
     0
100
AcDbBlockReference
  2
_OPEN
 10
549.9742431640004
 20
-266.0913454632094
 30
0.0
 41
2.0
 42
2.0
 43
2.0
  0
INSERT
  5
875F
330
7667
100
AcDbEntity
  8
30
  6
CONTINUOUS
 62
     0
100
AcDbBlockReference
  2
_OPEN
 10
535.9742431640004
 20
-266.0913454632094
 30
0.0
 41
2.0
 42
2.0
 43
2.0
 50
180.0
  0
MTEXT
  5
8760
330
7667
100
AcDbEntity
  8
30
  6
CONTINUOUS
 62
     0
100
AcDbMText
 10
496.6970343338321
 20
-260.5913454632095
 30
0.0
 40
7.0
 41
0.0
 71
     5
 72
     1
  1
\A1;14
1001
ACAD
1000
MTEXTBEGIN
1070
    73
1070
     1
1070
    44
1040
1.0
1070
    74
1070
     0
1000
MTEXTEND
  0
POINT
  5
8761
330
7667
100
AcDbEntity
  8
DEFPOINTS
  6
CONTINUOUS
 62
     0
100
AcDbPoint
 10
549.9742431640004
 20
-250.0935058566683
 30
0.0
  0
POINT
  5
8762
330
7667
100
AcDbEntity
  8
DEFPOINTS
  6
CONTINUOUS
 62
     0
100
AcDbPoint
 10
535.9742431640004
 20
-250.0935058566683
 30
0.0
  0
POINT
  5
8763
330
7667
100
AcDbEntity
  8
DEFPOINTS
  6
CONTINUOUS
 62
     0
100
AcDbPoint
 10
535.9742431640004
 20
-266.0913454632094
 30
0.0
  0
ENDBLK
  5
7672
330
7667
100
AcDbEntity
  8
0
100
AcDbBlockEnd
  0
BLOCK
  5
7695
330
768B
100
AcDbEntity
  8
0
100
AcDbBlockBegin
  2
*D12
 70
     1
 10
0.0
 20
0.0
 30
0.0
  3
*D12
  1

  0
LINE
  5
8825
330
768B
100
AcDbEntity
  8
30
  6
CONTINUOUS
 62
     0
100
AcDbLine
 10
596.9742431640004
 20
-148.9064941378683
 30
0.0
 11
596.9742431640004
 21
-118.2061564379614
 31
0.0
  0
LINE
  5
8826
330
768B
100
AcDbEntity
  8
30
  6
CONTINUOUS
 62
     0
100
AcDbLine
 10
578.9742431640004
 20
-168.9064941378683
 30
0.0
 11
578.9742431640004
 21
-118.2061564379614
 31
0.0
  0
LINE
  5
8827
330
768B
100
AcDbEntity
  8
30
  6
CONTINUOUS
 62
     0
100
AcDbLine
 10
580.9742431640004
 20
-118.7061564379614
 30
0.0
 11
594.9742431640004
 21
-118.7061564379614
 31
0.0
  0
LINE
  5
8828
330
768B
100
AcDbEntity
  8
30
  6
CONTINUOUS
 62
     0
100
AcDbLine
 10
596.9742431640004
 20
-118.7061564379614
 30
0.0
 11
613.3075764973339
 21
-118.7061564379614
 31
0.0
  0
INSERT
  5
8829
330
768B
100
AcDbEntity
  8
30
  6
CONTINUOUS
 62
     0
100
AcDbBlockReference
  2
_OPEN
 10
578.9742431640004
 20
-118.7061564379614
 30
0.0
 41
2.0
 42
2.0
 43
2.0
 50
180.0
  0
INSERT
  5
882A
330
768B
100
AcDbEntity
  8
30
  6
CONTINUOUS
 62
     0
100
AcDbBlockReference
  2
_OPEN
 10
596.9742431640004
 20
-118.7061564379614
 30
0.0
 41
2.0
 42
2.0
 43
2.0
  0
MTEXT
  5
882B
330
768B
100
AcDbEntity
  8
30
  6
CONTINUOUS
 62
     0
100
AcDbMText
 10
606.6409098306671
 20
-113.2061564379614
 30
0.0
 40
7.0
 41
0.0
 71
     5
 72
     1
  1
\A1;18
1001
ACAD
1000
MTEXTBEGIN
1070
    73
1070
     1
1070
    44
1040
1.0
1070
    74
1070
     0
1000
MTEXTEND
  0
POINT
  5
882C
330
768B
100
AcDbEntity
  8
DEFPOINTS
  6
CONTINUOUS
 62
     0
100
AcDbPoint
 10
596.9742431640004
 20
-149.9064941378683
 30
0.0
  0
POINT
  5
882D
330
768B
100
AcDbEntity
  8
DEFPOINTS
  6
CONTINUOUS
 62
     0
100
AcDbPoint
 10
578.9742431640004
 20
-169.9064941378683
 30
0.0
  0
POINT
  5
882E
330
768B
100
AcDbEntity
  8
DEFPOINTS
  6
CONTINUOUS
 62
     0
100
AcDbPoint
 10
578.9742431640004
 20
-118.7061564379614
 30
0.0
  0
ENDBLK
  5
7696
330
768B
100
AcDbEntity
  8
0
100
AcDbBlockEnd
  0
BLOCK
  5
76A1
330
7697
100
AcDbEntity
  8
0
100
AcDbBlockBegin
  2
*D13
 70
     1
 10
0.0
 20
0.0
 30
0.0
  3
*D13
  1

  0
LINE
  5
882F
330
7697
100
AcDbEntity
  8
30
  6
CONTINUOUS
 62
     0
100
AcDbLine
 10
578.9742431640004
 20
-152.9064941378683
 30
0.0
 11
578.9742431640004
 21
-118.2061564379614
 31
0.0
  0
LINE
  5
8830
330
7697
100
AcDbEntity
  8
30
  6
CONTINUOUS
 62
     0
100
AcDbLine
 10
550.9742431640004
 20
-144.4064941378683
 30
0.0
 11
550.9742431640004
 21
-118.2061564379614
 31
0.0
  0
LINE
  5
8831
330
7697
100
AcDbEntity
  8
30
  6
CONTINUOUS
 62
     0
100
AcDbLine
 10
576.9742431640004
 20
-118.7061564379614
 30
0.0
 11
552.9742431640004
 21
-118.7061564379614
 31
0.0
  0
INSERT
  5
8832
330
7697
100
AcDbEntity
  8
30
  6
CONTINUOUS
 62
     0
100
AcDbBlockReference
  2
_OPEN
 10
578.9742431640004
 20
-118.7061564379614
 30
0.0
 41
2.0
 42
2.0
 43
2.0
  0
INSERT
  5
8833
330
7697
100
AcDbEntity
  8
30
  6
CONTINUOUS
 62
     0
100
AcDbBlockReference
  2
_OPEN
 10
550.9742431640004
 20
-118.7061564379614
 30
0.0
 41
2.0
 42
2.0
 43
2.0
 50
180.0
  0
MTEXT
  5
8834
330
7697
100
AcDbEntity
  8
30
  6
CONTINUOUS
 62
     0
100
AcDbMText
 10
559.7653115761637
 20
-113.2061564379614
 30
0.0
 40
7.0
 41
0.0
 71
     5
 72
     1
  1
\A1;28
1001
ACAD
1000
MTEXTBEGIN
1070
    73
1070
     1
1070
    44
1040
1.0
1070
    74
1070
     0
1000
MTEXTEND
  0
POINT
  5
8835
330
7697
100
AcDbEntity
  8
DEFPOINTS
  6
CONTINUOUS
 62
     0
100
AcDbPoint
 10
578.9742431640004
 20
-153.9064941378683
 30
0.0
  0
POINT
  5
8836
330
7697
100
AcDbEntity
  8
DEFPOINTS
  6
CONTINUOUS
 62
     0
100
AcDbPoint
 10
550.9742431640004
 20
-145.4064941378683
 30
0.0
  0
POINT
  5
8837
330
7697
100
AcDbEntity
  8
DEFPOINTS
  6
CONTINUOUS
 62
     0
100
AcDbPoint
 10
550.9742431640004
 20
-118.7061564379614
 30
0.0
  0
ENDBLK
  5
76A2
330
7697
100
AcDbEntity
  8
0
100
AcDbBlockEnd
  0
BLOCK
  5
76AD
330
76A3
100
AcDbEntity
  8
0
100
AcDbBlockBegin
  2
*D14
 70
     1
 10
0.0
 20
0.0
 30
0.0
  3
*D14
  1

  0
LINE
  5
8812
330
76A3
100
AcDbEntity
  8
30
  6
CONTINUOUS
 62
     0
100
AcDbLine
 10
578.9742431640004
 20
201.0935058621315
 30
0.0
 11
578.9742431640004
 21
308.6916511740463
 31
0.0
  0
LINE
  5
8813
330
76A3
100
AcDbEntity
  8
30
  6
CONTINUOUS
 62
     0
100
AcDbLine
 10
547.9742431640004
 20
281.0935058621315
 30
0.0
 11
547.9742431640004
 21
308.6916511740463
 31
0.0
  0
LINE
  5
8814
330
76A3
100
AcDbEntity
  8
30
  6
CONTINUOUS
 62
     0
100
AcDbLine
 10
576.9742431640004
 20
308.1916511740463
 30
0.0
 11
549.9742431640004
 21
308.1916511740463
 31
0.0
  0
INSERT
  5
8815
330
76A3
100
AcDbEntity
  8
30
  6
CONTINUOUS
 62
     0
100
AcDbBlockReference
  2
_OPEN
 10
578.9742431640004
 20
308.1916511740463
 30
0.0
 41
2.0
 42
2.0
 43
2.0
  0
INSERT
  5
8816
330
76A3
100
AcDbEntity
  8
30
  6
CONTINUOUS
 62
     0
100
AcDbBlockReference
  2
_OPEN
 10
547.9742431640004
 20
308.1916511740463
 30
0.0
 41
2.0
 42
2.0
 43
2.0
 50
180.0
  0
MTEXT
  5
8817
330
76A3
100
AcDbEntity
  8
30
  6
CONTINUOUS
 62
     0
100
AcDbMText
 10
564.679998582397
 20
313.6916511740463
 30
0.0
 40
7.0
 41
0.0
 71
     5
 72
     1
  1
\A1;31
1001
ACAD
1000
MTEXTBEGIN
1070
    73
1070
     1
1070
    44
1040
1.0
1070
    74
1070
     0
1000
MTEXTEND
  0
POINT
  5
8818
330
76A3
100
AcDbEntity
  8
DEFPOINTS
  6
CONTINUOUS
 62
     0
100
AcDbPoint
 10
578.9742431640004
 20
200.0935058621315
 30
0.0
  0
POINT
  5
8819
330
76A3
100
AcDbEntity
  8
DEFPOINTS
  6
CONTINUOUS
 62
     0
100
AcDbPoint
 10
547.9742431640004
 20
280.0935058621315
 30
0.0
  0
POINT
  5
881A
330
76A3
100
AcDbEntity
  8
DEFPOINTS
  6
CONTINUOUS
 62
     0
100
AcDbPoint
 10
547.9742431640004
 20
308.1916511740463
 30
0.0
  0
ENDBLK
  5
76AE
330
76A3
100
AcDbEntity
  8
0
100
AcDbBlockEnd
  0
BLOCK
  5
76B9
330
76AF
100
AcDbEntity
  8
0
100
AcDbBlockBegin
  2
*D15
 70
     1
 10
0.0
 20
0.0
 30
0.0
  3
*D15
  1

  0
LINE
  5
881B
330
76AF
100
AcDbEntity
  8
30
  6
CONTINUOUS
 62
     0
100
AcDbLine
 10
547.9742431640004
 20
281.0935058621315
 30
0.0
 11
547.9742431640004
 21
308.6916511740463
 31
0.0
  0
LINE
  5
881C
330
76AF
100
AcDbEntity
  8
30
  6
CONTINUOUS
 62
     0
100
AcDbLine
 10
533.9742431640003
 20
281.0935058621315
 30
0.0
 11
533.9742431640003
 21
308.6916511740463
 31
0.0
  0
LINE
  5
881D
330
76AF
100
AcDbEntity
  8
30
  6
CONTINUOUS
 62
     0
100
AcDbLine
 10
545.9742431640004
 20
308.1916511740463
 30
0.0
 11
535.9742431640003
 21
308.1916511740463
 31
0.0
  0
LINE
  5
881E
330
76AF
100
AcDbEntity
  8
30
  6
CONTINUOUS
 62
     0
100
AcDbLine
 10
533.9742431640003
 20
308.1916511740463
 30
0.0
 11
512.0776088781654
 21
308.1916511740463
 31
0.0
  0
INSERT
  5
881F
330
76AF
100
AcDbEntity
  8
30
  6
CONTINUOUS
 62
     0
100
AcDbBlockReference
  2
_OPEN
 10
547.9742431640004
 20
308.1916511740463
 30
0.0
 41
2.0
 42
2.0
 43
2.0
  0
INSERT
  5
8820
330
76AF
100
AcDbEntity
  8
30
  6
CONTINUOUS
 62
     0
100
AcDbBlockReference
  2
_OPEN
 10
533.9742431640003
 20
308.1916511740463
 30
0.0
 41
2.0
 42
2.0
 43
2.0
 50
180.0
  0
MTEXT
  5
8821
330
76AF
100
AcDbEntity
  8
30
  6
CONTINUOUS
 62
     0
100
AcDbMText
 10
518.7442755448321
 20
313.6916511740463
 30
0.0
 40
7.0
 41
0.0
 71
     5
 72
     1
  1
\A1;14
1001
ACAD
1000
MTEXTBEGIN
1070
    73
1070
     1
1070
    44
1040
1.0
1070
    74
1070
     0
1000
MTEXTEND
  0
POINT
  5
8822
330
76AF
100
AcDbEntity
  8
DEFPOINTS
  6
CONTINUOUS
 62
     0
100
AcDbPoint
 10
547.9742431640004
 20
280.0935058621315
 30
0.0
  0
POINT
  5
8823
330
76AF
100
AcDbEntity
  8
DEFPOINTS
  6
CONTINUOUS
 62
     0
100
AcDbPoint
 10
533.9742431640003
 20
280.0935058621315
 30
0.0
  0
POINT
  5
8824
330
76AF
100
AcDbEntity
  8
DEFPOINTS
  6
CONTINUOUS
 62
     0
100
AcDbPoint
 10
533.9742431640003
 20
308.1916511740463
 30
0.0
  0
ENDBLK
  5
76BA
330
76AF
100
AcDbEntity
  8
0
100
AcDbBlockEnd
  0
BLOCK
  5
774C
330
7742
100
AcDbEntity
  8
0
100
AcDbBlockBegin
  2
*D16
 70
     1
 10
0.0
 20
0.0
 30
0.0
  3
*D16
  1

  0
LINE
  5
8751
330
7742
100
AcDbEntity
  8
30
  6
CONTINUOUS
 62
     0
100
AcDbLine
 10
-106.0
 20
481.1509476533529
 30
0.0
 11
-123.9999999999999
 21
481.1509476533529
 31
0.0
  0
LINE
  5
8752
330
7742
100
AcDbEntity
  8
30
  6
CONTINUOUS
 62
     0
100
AcDbLine
 10
-106.0
 20
361.1509476533528
 30
0.0
 11
-123.9999999999999
 21
361.1509476533528
 31
0.0
  0
LINE
  5
8753
330
7742
100
AcDbEntity
  8
30
  6
CONTINUOUS
 62
     0
100
AcDbLine
 10
-123.4999999999999
 20
479.1509476533528
 30
0.0
 11
-123.4999999999999
 21
363.1509476533528
 31
0.0
  0
INSERT
  5
8754
330
7742
100
AcDbEntity
  8
30
  6
CONTINUOUS
 62
     0
100
AcDbBlockReference
  2
_OPEN
 10
-123.4999999999999
 20
481.1509476533529
 30
0.0
 41
2.0
 42
2.0
 43
2.0
 50
90.0
  0
INSERT
  5
8755
330
7742
100
AcDbEntity
  8
30
  6
CONTINUOUS
 62
     0
100
AcDbBlockReference
  2
_OPEN
 10
-123.4999999999999
 20
361.1509476533528
 30
0.0
 41
2.0
 42
2.0
 43
2.0
 50
270.0
  0
MTEXT
  5
8756
330
7742
100
AcDbEntity
  8
30
  6
CONTINUOUS
 62
     0
100
AcDbMText
 10
-129.0
 20
427.1509476533529
 30
0.0
 40
7.0
 41
0.0
 71
     5
 72
     1
  1
\A1;120
 11
0.0000000000000001
 21
1.0
 31
0.0
1001
ACAD
1000
MTEXTBEGIN
1070
    73
1070
     1
1070
    44
1040
1.0
1070
    74
1070
     0
1000
MTEXTEND
  0
POINT
  5
8757
330
7742
100
AcDbEntity
  8
DEFPOINTS
  6
CONTINUOUS
 62
     0
100
AcDbPoint
 10
-105.0
 20
481.1509476533529
 30
0.0
  0
POINT
  5
8758
330
7742
100
AcDbEntity
  8
DEFPOINTS
  6
CONTINUOUS
 62
     0
100
AcDbPoint
 10
-105.0
 20
361.1509476533528
 30
0.0
  0
POINT
  5
8759
330
7742
100
AcDbEntity
  8
DEFPOINTS
  6
CONTINUOUS
 62
     0
100
AcDbPoint
 10
-123.4999999999999
 20
361.1509476533528
 30
0.0
  0
ENDBLK
  5
774D
330
7742
100
AcDbEntity
  8
0
100
AcDbBlockEnd
  0
BLOCK
  5
7845
330
783B
100
AcDbEntity
  8
0
100
AcDbBlockBegin
  2
*D17
 70
     1
 10
0.0
 20
0.0
 30
0.0
  3
*D17
  1

  0
LINE
  5
8849
330
783B
100
AcDbEntity
  8
30
  6
CONTINUOUS
 62
     0
100
AcDbLine
 10
457.59375
 20
-552.0
 30
0.0
 11
500.9155890606753
 21
-552.0
 31
0.0
  0
LINE
  5
884A
330
783B
100
AcDbEntity
  8
30
  6
CONTINUOUS
 62
     0
100
AcDbLine
 10
457.59375
 20
-650.0
 30
0.0
 11
500.9155890606752
 21
-650.0
 31
0.0
  0
LINE
  5
884B
330
783B
100
AcDbEntity
  8
30
  6
CONTINUOUS
 62
     0
100
AcDbLine
 10
500.4155890606752
 20
-554.0
 30
0.0
 11
500.4155890606752
 21
-648.0
 31
0.0
  0
INSERT
  5
884C
330
783B
100
AcDbEntity
  8
30
  6
CONTINUOUS
 62
     0
100
AcDbBlockReference
  2
_OPEN
 10
500.4155890606752
 20
-552.0
 30
0.0
 41
2.0
 42
2.0
 43
2.0
 50
90.0
  0
INSERT
  5
884D
330
783B
100
AcDbEntity
  8
30
  6
CONTINUOUS
 62
     0
100
AcDbBlockReference
  2
_OPEN
 10
500.4155890606752
 20
-650.0
 30
0.0
 41
2.0
 42
2.0
 43
2.0
 50
270.0
  0
MTEXT
  5
884E
330
783B
100
AcDbEntity
  8
30
  6
CONTINUOUS
 62
     0
100
AcDbMText
 10
494.9155890606753
 20
-602.3986493862835
 30
0.0
 40
7.0
 41
0.0
 71
     5
 72
     1
  1
\A1;98
 11
0.0000000000000001
 21
1.0
 31
0.0
1001
ACAD
1000
MTEXTBEGIN
1070
    73
1070
     1
1070
    44
1040
1.0
1070
    74
1070
     0
1000
MTEXTEND
  0
POINT
  5
884F
330
783B
100
AcDbEntity
  8
DEFPOINTS
  6
CONTINUOUS
 62
     0
100
AcDbPoint
 10
456.59375
 20
-552.0
 30
0.0
  0
POINT
  5
8850
330
783B
100
AcDbEntity
  8
DEFPOINTS
  6
CONTINUOUS
 62
     0
100
AcDbPoint
 10
456.59375
 20
-650.0
 30
0.0
  0
POINT
  5
8851
330
783B
100
AcDbEntity
  8
DEFPOINTS
  6
CONTINUOUS
 62
     0
100
AcDbPoint
 10
500.4155890606752
 20
-650.0
 30
0.0
  0
ENDBLK
  5
7846
330
783B
100
AcDbEntity
  8
0
100
AcDbBlockEnd
  0
BLOCK
  5
7851
330
7847
100
AcDbEntity
  8
0
100
AcDbBlockBegin
  2
*D18
 70
     1
 10
0.0
 20
0.0
 30
0.0
  3
*D18
  1

  0
LINE
  5
8838
330
7847
100
AcDbEntity
  8
30
  6
CONTINUOUS
 62
     0
100
AcDbLine
 10
384.5
 20
-651.0935058594
 30
0.0
 11
384.5
 21
-688.6294412440469
 31
0.0
  0
LINE
  5
8839
330
7847
100
AcDbEntity
  8
30
  6
CONTINUOUS
 62
     0
100
AcDbLine
 10
465.5
 20
-651.0935058594
 30
0.0
 11
465.5
 21
-688.6294412440469
 31
0.0
  0
LINE
  5
883A
330
7847
100
AcDbEntity
  8
30
  6
CONTINUOUS
 62
     0
100
AcDbLine
 10
386.5
 20
-688.1294412440468
 30
0.0
 11
463.4999999999999
 21
-688.1294412440468
 31
0.0
  0
INSERT
  5
883B
330
7847
100
AcDbEntity
  8
30
  6
CONTINUOUS
 62
     0
100
AcDbBlockReference
  2
_OPEN
 10
384.5
 20
-688.1294412440468
 30
0.0
 41
2.0
 42
2.0
 43
2.0
 50
180.0
  0
INSERT
  5
883C
330
7847
100
AcDbEntity
  8
30
  6
CONTINUOUS
 62
     0
100
AcDbBlockReference
  2
_OPEN
 10
465.5
 20
-688.1294412440468
 30
0.0
 41
2.0
 42
2.0
 43
2.0
  0
MTEXT
  5
883D
330
7847
100
AcDbEntity
  8
30
  6
CONTINUOUS
 62
     0
100
AcDbMText
 10
423.6209677419354
 20
-682.6294412440469
 30
0.0
 40
7.0
 41
0.0
 71
     5
 72
     1
  1
\A1;81
1001
ACAD
1000
MTEXTBEGIN
1070
    73
1070
     1
1070
    44
1040
1.0
1070
    74
1070
     0
1000
MTEXTEND
  0
POINT
  5
883E
330
7847
100
AcDbEntity
  8
DEFPOINTS
  6
CONTINUOUS
 62
     0
100
AcDbPoint
 10
384.5
 20
-650.0935058594
 30
0.0
  0
POINT
  5
883F
330
7847
100
AcDbEntity
  8
DEFPOINTS
  6
CONTINUOUS
 62
     0
100
AcDbPoint
 10
465.5
 20
-650.0935058594
 30
0.0
  0
POINT
  5
8840
330
7847
100
AcDbEntity
  8
DEFPOINTS
  6
CONTINUOUS
 62
     0
100
AcDbPoint
 10
465.5
 20
-688.1294412440468
 30
0.0
  0
ENDBLK
  5
7852
330
7847
100
AcDbEntity
  8
0
100
AcDbBlockEnd
  0
BLOCK
  5
7859
330
7853
100
AcDbEntity
  8
0
100
AcDbBlockBegin
  2
*D19
 70
     1
 10
0.0
 20
0.0
 30
0.0
  3
*D19
  1

  0
LINE
  5
8841
330
7853
100
AcDbEntity
  8
30
  6
CONTINUOUS
 62
     0
100
AcDbLine
 10
338.667289975543
 20
-661.5554580355408
 30
0.0
 11
371.4795685329801
 21
-661.5554580355408
 31
0.0
  0
LINE
  5
8842
330
7853
100
AcDbEntity
  8
30
  6
CONTINUOUS
 62
     0
100
AcDbLine
 10
371.4795685329801
 20
-661.5554580355408
 30
0.0
 11
384.621141667452
 21
-649.4260625440008
 31
0.0
  0
MTEXT
  5
8843
330
7853
100
AcDbEntity
  8
30
  6
CONTINUOUS
 62
     0
100
AcDbMText
 10
346.6006233088763
 20
-656.0554580355407
 30
0.0
 40
7.0
 41
0.0
 71
     5
 72
     1
  1
\A1;R 6
1001
ACAD
1000
MTEXTBEGIN
1070
    73
1070
     1
1070
    44
1040
1.0
1070
    74
1070
     0
1000
MTEXTEND
  0
INSERT
  5
8844
330
7853
100
AcDbEntity
  8
30
  6
CONTINUOUS
 62
     0
100
AcDbBlockReference
  2
_OPEN
 10
386.090820312499
 20
-648.0695800781013
 30
0.0
 41
2.0
 42
2.0
 43
2.0
 50
42.70635918745553
  0
LINE
  5
8845
330
7853
100
AcDbEntity
  8
30
  6
CONTINUOUS
 62
     0
100
AcDbLine
 10
390.4099999999999
 20
-643.9999999999997
 30
0.0
 11
390.5899999999998
 21
-643.9999999999997
 31
0.0
  0
LINE
  5
8846
330
7853
100
AcDbEntity
  8
30
  6
CONTINUOUS
 62
     0
100
AcDbLine
 10
390.4999999999998
 20
-644.0899999999998
 30
0.0
 11
390.4999999999999
 21
-643.9099999999998
 31
0.0
  0
POINT
  5
8847
330
7853
100
AcDbEntity
  8
DEFPOINTS
  6
CONTINUOUS
 62
     0
100
AcDbPoint
 10
386.090820312499
 20
-648.0695800781013
 30
0.0
  0
POINT
  5
8848
330
7853
100
AcDbEntity
  8
DEFPOINTS
  6
CONTINUOUS
 62
     0
100
AcDbPoint
 10
390.4999999999999
 20
-643.9999999999997
 30
0.0
  0
ENDBLK
  5
785A
330
7853
100
AcDbEntity
  8
0
100
AcDbBlockEnd
  0
BLOCK
  5
7988
330
797E
100
AcDbEntity
  8
0
100
AcDbBlockBegin
  2
*D20
 70
     1
 10
0.0
 20
0.0
 30
0.0
  3
*D20
  1

  0
LINE
  5
873F
330
797E
100
AcDbEntity
  8
30
  6
CONTINUOUS
 62
     0
100
AcDbLine
 10
-50.0
 20
-417.0
 30
0.0
 11
-200.5934457379697
 21
-416.9999999999999
 31
0.0
  0
LINE
  5
8740
330
797E
100
AcDbEntity
  8
30
  6
CONTINUOUS
 62
     0
100
AcDbLine
 10
-166.0
 20
-601.0
 30
0.0
 11
-200.5934457379698
 21
-601.0
 31
0.0
  0
LINE
  5
8741
330
797E
100
AcDbEntity
  8
30
  6
CONTINUOUS
 62
     0
100
AcDbLine
 10
-200.0934457379697
 20
-418.9999999999999
 30
0.0
 11
-200.0934457379698
 21
-599.0
 31
0.0
  0
INSERT
  5
8742
330
797E
100
AcDbEntity
  8
30
  6
CONTINUOUS
 62
     0
100
AcDbBlockReference
  2
_OPEN
 10
-200.0934457379697
 20
-416.9999999999999
 30
0.0
 41
2.0
 42
2.0
 43
2.0
 50
90.0
  0
INSERT
  5
8743
330
797E
100
AcDbEntity
  8
30
  6
CONTINUOUS
 62
     0
100
AcDbBlockReference
  2
_OPEN
 10
-200.0934457379698
 20
-601.0
 30
0.0
 41
2.0
 42
2.0
 43
2.0
 50
270.0
  0
MTEXT
  5
8744
330
797E
100
AcDbEntity
  8
30
  6
CONTINUOUS
 62
     0
100
AcDbMText
 10
-205.5934457379697
 20
-509.0
 30
0.0
 40
7.0
 41
0.0
 71
     5
 72
     1
  1
\A1;184
 11
0.0000000000000001
 21
1.0
 31
0.0
1001
ACAD
1000
MTEXTBEGIN
1070
    73
1070
     1
1070
    44
1040
1.0
1070
    74
1070
     0
1000
MTEXTEND
  0
POINT
  5
8745
330
797E
100
AcDbEntity
  8
DEFPOINTS
  6
CONTINUOUS
 62
     0
100
AcDbPoint
 10
-49.0
 20
-417.0
 30
0.0
  0
POINT
  5
8746
330
797E
100
AcDbEntity
  8
DEFPOINTS
  6
CONTINUOUS
 62
     0
100
AcDbPoint
 10
-165.0
 20
-601.0
 30
0.0
  0
POINT
  5
8747
330
797E
100
AcDbEntity
  8
DEFPOINTS
  6
CONTINUOUS
 62
     0
100
AcDbPoint
 10
-200.0934457379698
 20
-601.0
 30
0.0
  0
ENDBLK
  5
7989
330
797E
100
AcDbEntity
  8
0
100
AcDbBlockEnd
  0
BLOCK
  5
7994
330
798A
100
AcDbEntity
  8
0
100
AcDbBlockBegin
  2
*D21
 70
     1
 10
0.0
 20
0.0
 30
0.0
  3
*D21
  1

  0
LINE
  5
8736
330
798A
100
AcDbEntity
  8
30
  6
CONTINUOUS
 62
     0
100
AcDbLine
 10
-166.0
 20
-601.0
 30
0.0
 11
-200.5934457379697
 21
-601.0
 31
0.0
  0
LINE
  5
8737
330
798A
100
AcDbEntity
  8
30
  6
CONTINUOUS
 62
     0
100
AcDbLine
 10
-50.0
 20
-754.9997558592999
 30
0.0
 11
-200.5934457379698
 21
-754.9997558592999
 31
0.0
  0
LINE
  5
8738
330
798A
100
AcDbEntity
  8
30
  6
CONTINUOUS
 62
     0
100
AcDbLine
 10
-200.0934457379698
 20
-603.0
 30
0.0
 11
-200.0934457379698
 21
-752.9997558593
 31
0.0
  0
INSERT
  5
8739
330
798A
100
AcDbEntity
  8
30
  6
CONTINUOUS
 62
     0
100
AcDbBlockReference
  2
_OPEN
 10
-200.0934457379698
 20
-601.0
 30
0.0
 41
2.0
 42
2.0
 43
2.0
 50
90.0
  0
INSERT
  5
873A
330
798A
100
AcDbEntity
  8
30
  6
CONTINUOUS
 62
     0
100
AcDbBlockReference
  2
_OPEN
 10
-200.0934457379698
 20
-754.9997558592999
 30
0.0
 41
2.0
 42
2.0
 43
2.0
 50
270.0
  0
MTEXT
  5
873B
330
798A
100
AcDbEntity
  8
30
  6
CONTINUOUS
 62
     0
100
AcDbMText
 10
-205.5934457379696
 20
-677.99987792965
 30
0.0
 40
7.0
 41
0.0
 71
     5
 72
     1
  1
\A1;154
 11
0.0000000000000001
 21
1.0
 31
0.0
1001
ACAD
1000
MTEXTBEGIN
1070
    73
1070
     1
1070
    44
1040
1.0
1070
    74
1070
     0
1000
MTEXTEND
  0
POINT
  5
873C
330
798A
100
AcDbEntity
  8
DEFPOINTS
  6
CONTINUOUS
 62
     0
100
AcDbPoint
 10
-165.0
 20
-601.0
 30
0.0
  0
POINT
  5
873D
330
798A
100
AcDbEntity
  8
DEFPOINTS
  6
CONTINUOUS
 62
     0
100
AcDbPoint
 10
-49.0
 20
-754.9997558592999
 30
0.0
  0
POINT
  5
873E
330
798A
100
AcDbEntity
  8
DEFPOINTS
  6
CONTINUOUS
 62
     0
100
AcDbPoint
 10
-200.0934457379698
 20
-754.9997558592999
 30
0.0
  0
ENDBLK
  5
7995
330
798A
100
AcDbEntity
  8
0
100
AcDbBlockEnd
  0
BLOCK
  5
79A0
330
7996
100
AcDbEntity
  8
0
100
AcDbBlockBegin
  2
*D22
 70
     1
 10
0.0
 20
0.0
 30
0.0
  3
*D22
  1

  0
LINE
  5
8748
330
7996
100
AcDbEntity
  8
30
  6
CONTINUOUS
 62
     0
100
AcDbLine
 10
-35.0
 20
-766.4997558592999
 30
0.0
 11
-35.0
 21
-806.4423648938417
 31
0.0
  0
LINE
  5
8749
330
7996
100
AcDbEntity
  8
30
  6
CONTINUOUS
 62
     0
100
AcDbLine
 10
35.0
 20
-766.4997558592999
 30
0.0
 11
35.0
 21
-806.4423648938417
 31
0.0
  0
LINE
  5
874A
330
7996
100
AcDbEntity
  8
30
  6
CONTINUOUS
 62
     0
100
AcDbLine
 10
-33.0
 20
-805.9423648938416
 30
0.0
 11
33.0
 21
-805.9423648938416
 31
0.0
  0
INSERT
  5
874B
330
7996
100
AcDbEntity
  8
30
  6
CONTINUOUS
 62
     0
100
AcDbBlockReference
  2
_OPEN
 10
-35.0
 20
-805.9423648938416
 30
0.0
 41
2.0
 42
2.0
 43
2.0
 50
180.0
  0
INSERT
  5
874C
330
7996
100
AcDbEntity
  8
30
  6
CONTINUOUS
 62
     0
100
AcDbBlockReference
  2
_OPEN
 10
35.0
 20
-805.9423648938416
 30
0.0
 41
2.0
 42
2.0
 43
2.0
  0
MTEXT
  5
874D
330
7996
100
AcDbEntity
  8
30
  6
CONTINUOUS
 62
     0
100
AcDbMText
 10
0.0000000000000003
 20
-800.4423648938416
 30
0.0
 40
7.0
 41
0.0
 71
     5
 72
     1
  1
\A1;70
1001
ACAD
1000
MTEXTBEGIN
1070
    73
1070
     1
1070
    44
1040
1.0
1070
    74
1070
     0
1000
MTEXTEND
  0
POINT
  5
874E
330
7996
100
AcDbEntity
  8
DEFPOINTS
  6
CONTINUOUS
 62
     0
100
AcDbPoint
 10
-35.0
 20
-765.4997558593
 30
0.0
  0
POINT
  5
874F
330
7996
100
AcDbEntity
  8
DEFPOINTS
  6
CONTINUOUS
 62
     0
100
AcDbPoint
 10
35.0
 20
-765.4997558593
 30
0.0
  0
POINT
  5
8750
330
7996
100
AcDbEntity
  8
DEFPOINTS
  6
CONTINUOUS
 62
     0
100
AcDbPoint
 10
35.0
 20
-805.9423648938416
 30
0.0
  0
ENDBLK
  5
79A1
330
7996
100
AcDbEntity
  8
0
100
AcDbBlockEnd
  0
BLOCK
  5
815D
330
8153
100
AcDbEntity
  8
0
100
AcDbBlockBegin
  2
*D23
 70
     1
 10
0.0
 20
0.0
 30
0.0
  3
*D23
  1

  0
LINE
  5
87C0
330
8153
100
AcDbEntity
  8
30
  6
CONTINUOUS
 62
     0
100
AcDbLine
 10
93.49999999999999
 20
280.0
 30
0.0
 11
121.6721146557077
 21
280.0
 31
0.0
  0
LINE
  5
87C1
330
8153
100
AcDbEntity
  8
30
  6
CONTINUOUS
 62
     0
100
AcDbLine
 10
86.0
 20
265.0
 30
0.0
 11
121.6721146557077
 21
265.0
 31
0.0
  0
LINE
  5
87C2
330
8153
100
AcDbEntity
  8
30
  6
CONTINUOUS
 62
     0
100
AcDbLine
 10
121.1721146557078
 20
278.0
 30
0.0
 11
121.1721146557078
 21
267.0
 31
0.0
  0
INSERT
  5
87C3
330
8153
100
AcDbEntity
  8
30
  6
CONTINUOUS
 62
     0
100
AcDbBlockReference
  2
_OPEN
 10
121.1721146557078
 20
280.0
 30
0.0
 41
2.0
 42
2.0
 43
2.0
 50
90.0
  0
INSERT
  5
87C4
330
8153
100
AcDbEntity
  8
30
  6
CONTINUOUS
 62
     0
100
AcDbBlockReference
  2
_OPEN
 10
121.1721146557078
 20
265.0
 30
0.0
 41
2.0
 42
2.0
 43
2.0
 50
270.0
  0
MTEXT
  5
87C5
330
8153
100
AcDbEntity
  8
30
  6
CONTINUOUS
 62
     0
100
AcDbMText
 10
115.6721146557077
 20
272.5
 30
0.0
 40
7.0
 41
0.0
 71
     5
 72
     1
  1
\A1;15
 11
0.0000000000000001
 21
1.0
 31
0.0
1001
ACAD
1000
MTEXTBEGIN
1070
    73
1070
     1
1070
    44
1040
1.0
1070
    74
1070
     0
1000
MTEXTEND
  0
POINT
  5
87C6
330
8153
100
AcDbEntity
  8
DEFPOINTS
  6
CONTINUOUS
 62
     0
100
AcDbPoint
 10
92.5
 20
280.0
 30
0.0
  0
POINT
  5
87C7
330
8153
100
AcDbEntity
  8
DEFPOINTS
  6
CONTINUOUS
 62
     0
100
AcDbPoint
 10
85.0
 20
265.0
 30
0.0
  0
POINT
  5
87C8
330
8153
100
AcDbEntity
  8
DEFPOINTS
  6
CONTINUOUS
 62
     0
100
AcDbPoint
 10
121.1721146557078
 20
265.0
 30
0.0
  0
ENDBLK
  5
815E
330
8153
100
AcDbEntity
  8
0
100
AcDbBlockEnd
  0
BLOCK
  5
8169
330
815F
100
AcDbEntity
  8
0
100
AcDbBlockBegin
  2
*D24
 70
     1
 10
0.0
 20
0.0
 30
0.0
  3
*D24
  1

  0
LINE
  5
87C9
330
815F
100
AcDbEntity
  8
30
  6
CONTINUOUS
 62
     0
100
AcDbLine
 10
86.0
 20
265.0
 30
0.0
 11
121.6721146557077
 21
265.0
 31
0.0
  0
LINE
  5
87CA
330
815F
100
AcDbEntity
  8
30
  6
CONTINUOUS
 62
     0
100
AcDbLine
 10
87.0
 20
233.0
 30
0.0
 11
121.6721146557077
 21
233.0
 31
0.0
  0
LINE
  5
87CB
330
815F
100
AcDbEntity
  8
30
  6
CONTINUOUS
 62
     0
100
AcDbLine
 10
121.1721146557078
 20
263.0
 30
0.0
 11
121.1721146557078
 21
235.0
 31
0.0
  0
INSERT
  5
87CC
330
815F
100
AcDbEntity
  8
30
  6
CONTINUOUS
 62
     0
100
AcDbBlockReference
  2
_OPEN
 10
121.1721146557078
 20
265.0
 30
0.0
 41
2.0
 42
2.0
 43
2.0
 50
90.0
  0
INSERT
  5
87CD
330
815F
100
AcDbEntity
  8
30
  6
CONTINUOUS
 62
     0
100
AcDbBlockReference
  2
_OPEN
 10
121.1721146557078
 20
233.0
 30
0.0
 41
2.0
 42
2.0
 43
2.0
 50
270.0
  0
MTEXT
  5
87CE
330
815F
100
AcDbEntity
  8
30
  6
CONTINUOUS
 62
     0
100
AcDbMText
 10
115.6721146557077
 20
249.0
 30
0.0
 40
7.0
 41
0.0
 71
     5
 72
     1
  1
\A1;32
 11
0.0000000000000001
 21
1.0
 31
0.0
1001
ACAD
1000
MTEXTBEGIN
1070
    73
1070
     1
1070
    44
1040
1.0
1070
    74
1070
     0
1000
MTEXTEND
  0
POINT
  5
87CF
330
815F
100
AcDbEntity
  8
DEFPOINTS
  6
CONTINUOUS
 62
     0
100
AcDbPoint
 10
85.0
 20
265.0
 30
0.0
  0
POINT
  5
87D0
330
815F
100
AcDbEntity
  8
DEFPOINTS
  6
CONTINUOUS
 62
     0
100
AcDbPoint
 10
86.0
 20
233.0
 30
0.0
  0
POINT
  5
87D1
330
815F
100
AcDbEntity
  8
DEFPOINTS
  6
CONTINUOUS
 62
     0
100
AcDbPoint
 10
121.1721146557078
 20
233.0
 30
0.0
  0
ENDBLK
  5
816A
330
815F
100
AcDbEntity
  8
0
100
AcDbBlockEnd
  0
BLOCK
  5
8175
330
816B
100
AcDbEntity
  8
0
100
AcDbBlockBegin
  2
*D25
 70
     1
 10
0.0
 20
0.0
 30
0.0
  3
*D25
  1

  0
LINE
  5
87D2
330
816B
100
AcDbEntity
  8
30
  6
CONTINUOUS
 62
     0
100
AcDbLine
 10
86.0
 20
225.0
 30
0.0
 11
121.6721146557078
 21
225.0
 31
0.0
  0
LINE
  5
87D3
330
816B
100
AcDbEntity
  8
30
  6
CONTINUOUS
 62
     0
100
AcDbLine
 10
106.0
 20
200.0002441407
 30
0.0
 11
121.6721146557077
 21
200.0002441407
 31
0.0
  0
LINE
  5
87D4
330
816B
100
AcDbEntity
  8
30
  6
CONTINUOUS
 62
     0
100
AcDbLine
 10
121.1721146557078
 20
223.0
 30
0.0
 11
121.1721146557078
 21
202.0002441407
 31
0.0
  0
INSERT
  5
87D5
330
816B
100
AcDbEntity
  8
30
  6
CONTINUOUS
 62
     0
100
AcDbBlockReference
  2
_OPEN
 10
121.1721146557078
 20
225.0
 30
0.0
 41
2.0
 42
2.0
 43
2.0
 50
90.0
  0
INSERT
  5
87D6
330
816B
100
AcDbEntity
  8
30
  6
CONTINUOUS
 62
     0
100
AcDbBlockReference
  2
_OPEN
 10
121.1721146557078
 20
200.0002441407
 30
0.0
 41
2.0
 42
2.0
 43
2.0
 50
270.0
  0
MTEXT
  5
87D7
330
816B
100
AcDbEntity
  8
30
  6
CONTINUOUS
 62
     0
100
AcDbMText
 10
115.6721146557077
 20
212.50012207035
 30
0.0
 40
7.0
 41
0.0
 71
     5
 72
     1
  1
\A1;25
 11
0.0000000000000001
 21
1.0
 31
0.0
1001
ACAD
1000
MTEXTBEGIN
1070
    73
1070
     1
1070
    44
1040
1.0
1070
    74
1070
     0
1000
MTEXTEND
  0
POINT
  5
87D8
330
816B
100
AcDbEntity
  8
DEFPOINTS
  6
CONTINUOUS
 62
     0
100
AcDbPoint
 10
85.0
 20
225.0
 30
0.0
  0
POINT
  5
87D9
330
816B
100
AcDbEntity
  8
DEFPOINTS
  6
CONTINUOUS
 62
     0
100
AcDbPoint
 10
105.0
 20
200.0002441407
 30
0.0
  0
POINT
  5
87DA
330
816B
100
AcDbEntity
  8
DEFPOINTS
  6
CONTINUOUS
 62
     0
100
AcDbPoint
 10
121.1721146557078
 20
200.0002441407
 30
0.0
  0
ENDBLK
  5
8176
330
816B
100
AcDbEntity
  8
0
100
AcDbBlockEnd
  0
BLOCK
  5
8181
330
8177
100
AcDbEntity
  8
0
100
AcDbBlockBegin
  2
*D26
 70
     1
 10
0.0
 20
0.0
 30
0.0
  3
*D26
  1

  0
LINE
  5
87DB
330
8177
100
AcDbEntity
  8
30
  6
CONTINUOUS
 62
     0
100
AcDbLine
 10
93.49999999999999
 20
280.0
 30
0.0
 11
145.3586198863917
 21
279.9999999999999
 31
0.0
  0
LINE
  5
87DC
330
8177
100
AcDbEntity
  8
30
  6
CONTINUOUS
 62
     0
100
AcDbLine
 10
107.0
 20
200.0002441407
 30
0.0
 11
145.3586198863917
 21
200.0002441407
 31
0.0
  0
LINE
  5
87DD
330
8177
100
AcDbEntity
  8
30
  6
CONTINUOUS
 62
     0
100
AcDbLine
 10
144.8586198863918
 20
277.9999999999999
 30
0.0
 11
144.8586198863918
 21
202.0002441407
 31
0.0
  0
INSERT
  5
87DE
330
8177
100
AcDbEntity
  8
30
  6
CONTINUOUS
 62
     0
100
AcDbBlockReference
  2
_OPEN
 10
144.8586198863918
 20
279.9999999999999
 30
0.0
 41
2.0
 42
2.0
 43
2.0
 50
90.0
  0
INSERT
  5
87DF
330
8177
100
AcDbEntity
  8
30
  6
CONTINUOUS
 62
     0
100
AcDbBlockReference
  2
_OPEN
 10
144.8586198863918
 20
200.0002441407
 30
0.0
 41
2.0
 42
2.0
 43
2.0
 50
270.0
  0
MTEXT
  5
87E0
330
8177
100
AcDbEntity
  8
30
  6
CONTINUOUS
 62
     0
100
AcDbMText
 10
139.3586198863917
 20
240.00012207035
 30
0.0
 40
7.0
 41
0.0
 71
     5
 72
     1
  1
\A1;80
 11
0.0000000000000001
 21
1.0
 31
0.0
1001
ACAD
1000
MTEXTBEGIN
1070
    73
1070
     1
1070
    44
1040
1.0
1070
    74
1070
     0
1000
MTEXTEND
  0
POINT
  5
87E1
330
8177
100
AcDbEntity
  8
DEFPOINTS
  6
CONTINUOUS
 62
     0
100
AcDbPoint
 10
92.5
 20
280.0
 30
0.0
  0
POINT
  5
87E2
330
8177
100
AcDbEntity
  8
DEFPOINTS
  6
CONTINUOUS
 62
     0
100
AcDbPoint
 10
106.0
 20
200.0002441407
 30
0.0
  0
POINT
  5
87E3
330
8177
100
AcDbEntity
  8
DEFPOINTS
  6
CONTINUOUS
 62
     0
100
AcDbPoint
 10
144.8586198863918
 20
200.0002441407
 30
0.0
  0
ENDBLK
  5
8182
330
8177
100
AcDbEntity
  8
0
100
AcDbBlockEnd
  0
BLOCK
  5
818D
330
8183
100
AcDbEntity
  8
0
100
AcDbBlockBegin
  2
*D27
 70
     1
 10
0.0
 20
0.0
 30
0.0
  3
*D27
  1

  0
LINE
  5
87E4
330
8183
100
AcDbEntity
  8
30
  6
CONTINUOUS
 62
     0
100
AcDbLine
 10
107.0
 20
200.0002441407
 30
0.0
 11
145.3586198863917
 21
200.0002441407
 31
0.0
  0
LINE
  5
87E5
330
8183
100
AcDbEntity
  8
30
  6
CONTINUOUS
 62
     0
100
AcDbLine
 10
106.0
 20
0.000244140700033
 30
0.0
 11
145.3586198863916
 21
0.0002441407000219
 31
0.0
  0
LINE
  5
87E6
330
8183
100
AcDbEntity
  8
30
  6
CONTINUOUS
 62
     0
100
AcDbLine
 10
144.8586198863917
 20
198.0002441407
 30
0.0
 11
144.8586198863917
 21
2.000244140700022
 31
0.0
  0
INSERT
  5
87E7
330
8183
100
AcDbEntity
  8
30
  6
CONTINUOUS
 62
     0
100
AcDbBlockReference
  2
_OPEN
 10
144.8586198863917
 20
200.0002441407
 30
0.0
 41
2.0
 42
2.0
 43
2.0
 50
90.0
  0
INSERT
  5
87E8
330
8183
100
AcDbEntity
  8
30
  6
CONTINUOUS
 62
     0
100
AcDbBlockReference
  2
_OPEN
 10
144.8586198863917
 20
0.000244140700022
 30
0.0
 41
2.0
 42
2.0
 43
2.0
 50
270.0
  0
MTEXT
  5
87E9
330
8183
100
AcDbEntity
  8
30
  6
CONTINUOUS
 62
     0
100
AcDbMText
 10
139.3586198863916
 20
100.0002441407
 30
0.0
 40
7.0
 41
0.0
 71
     5
 72
     1
  1
\A1;200
 11
0.0000000000000001
 21
1.0
 31
0.0
1001
ACAD
1000
MTEXTBEGIN
1070
    73
1070
     1
1070
    44
1040
1.0
1070
    74
1070
     0
1000
MTEXTEND
  0
POINT
  5
87EA
330
8183
100
AcDbEntity
  8
DEFPOINTS
  6
CONTINUOUS
 62
     0
100
AcDbPoint
 10
106.0
 20
200.0002441407
 30
0.0
  0
POINT
  5
87EB
330
8183
100
AcDbEntity
  8
DEFPOINTS
  6
CONTINUOUS
 62
     0
100
AcDbPoint
 10
105.0
 20
0.0002441407000333
 30
0.0
  0
POINT
  5
87EC
330
8183
100
AcDbEntity
  8
DEFPOINTS
  6
CONTINUOUS
 62
     0
100
AcDbPoint
 10
144.8586198863917
 20
0.000244140700022
 30
0.0
  0
ENDBLK
  5
818E
330
8183
100
AcDbEntity
  8
0
100
AcDbBlockEnd
  0
BLOCK
  5
8199
330
818F
100
AcDbEntity
  8
0
100
AcDbBlockBegin
  2
*D28
 70
     1
 10
0.0
 20
0.0
 30
0.0
  3
*D28
  1

  0
LINE
  5
87ED
330
818F
100
AcDbEntity
  8
30
  6
CONTINUOUS
 62
     0
100
AcDbLine
 10
106.0
 20
0.000244140700033
 30
0.0
 11
145.3586198863917
 21
0.0002441407000219
 31
0.0
  0
LINE
  5
87EE
330
818F
100
AcDbEntity
  8
30
  6
CONTINUOUS
 62
     0
100
AcDbLine
 10
106.0
 20
-170.0
 30
0.0
 11
145.3586198863916
 21
-170.0
 31
0.0
  0
LINE
  5
87EF
330
818F
100
AcDbEntity
  8
30
  6
CONTINUOUS
 62
     0
100
AcDbLine
 10
144.8586198863917
 20
-1.999755859299978
 30
0.0
 11
144.8586198863917
 21
-168.0
 31
0.0
  0
INSERT
  5
87F0
330
818F
100
AcDbEntity
  8
30
  6
CONTINUOUS
 62
     0
100
AcDbBlockReference
  2
_OPEN
 10
144.8586198863917
 20
0.000244140700022
 30
0.0
 41
2.0
 42
2.0
 43
2.0
 50
90.0
  0
INSERT
  5
87F1
330
818F
100
AcDbEntity
  8
30
  6
CONTINUOUS
 62
     0
100
AcDbBlockReference
  2
_OPEN
 10
144.8586198863917
 20
-170.0
 30
0.0
 41
2.0
 42
2.0
 43
2.0
 50
270.0
  0
MTEXT
  5
87F2
330
818F
100
AcDbEntity
  8
30
  6
CONTINUOUS
 62
     0
100
AcDbMText
 10
139.3586198863917
 20
-84.99987792964997
 30
0.0
 40
7.0
 41
0.0
 71
     5
 72
     1
  1
\A1;170
 11
0.0000000000000001
 21
1.0
 31
0.0
1001
ACAD
1000
MTEXTBEGIN
1070
    73
1070
     1
1070
    44
1040
1.0
1070
    74
1070
     0
1000
MTEXTEND
  0
POINT
  5
87F3
330
818F
100
AcDbEntity
  8
DEFPOINTS
  6
CONTINUOUS
 62
     0
100
AcDbPoint
 10
105.0
 20
0.0002441407000333
 30
0.0
  0
POINT
  5
87F4
330
818F
100
AcDbEntity
  8
DEFPOINTS
  6
CONTINUOUS
 62
     0
100
AcDbPoint
 10
105.0
 20
-170.0
 30
0.0
  0
POINT
  5
87F5
330
818F
100
AcDbEntity
  8
DEFPOINTS
  6
CONTINUOUS
 62
     0
100
AcDbPoint
 10
144.8586198863917
 20
-170.0
 30
0.0
  0
ENDBLK
  5
819A
330
818F
100
AcDbEntity
  8
0
100
AcDbBlockEnd
  0
BLOCK
  5
81A5
330
819B
100
AcDbEntity
  8
0
100
AcDbBlockBegin
  2
*D29
 70
     1
 10
0.0
 20
0.0
 30
0.0
  3
*D29
  1

  0
LINE
  5
87F6
330
819B
100
AcDbEntity
  8
30
  6
CONTINUOUS
 62
     0
100
AcDbLine
 10
106.0
 20
200.0002441407
 30
0.0
 11
164.4083652144977
 21
200.0002441407
 31
0.0
  0
LINE
  5
87F7
330
819B
100
AcDbEntity
  8
30
  6
CONTINUOUS
 62
     0
100
AcDbLine
 10
106.0
 20
-169.9997558592999
 30
0.0
 11
164.4083652144976
 21
-169.9997558592999
 31
0.0
  0
LINE
  5
87F8
330
819B
100
AcDbEntity
  8
30
  6
CONTINUOUS
 62
     0
100
AcDbLine
 10
163.9083652144977
 20
198.0002441407
 30
0.0
 11
163.9083652144976
 21
-167.9997558592999
 31
0.0
  0
INSERT
  5
87F9
330
819B
100
AcDbEntity
  8
30
  6
CONTINUOUS
 62
     0
100
AcDbBlockReference
  2
_OPEN
 10
163.9083652144977
 20
200.0002441407
 30
0.0
 41
2.0
 42
2.0
 43
2.0
 50
90.0
  0
INSERT
  5
87FA
330
819B
100
AcDbEntity
  8
30
  6
CONTINUOUS
 62
     0
100
AcDbBlockReference
  2
_OPEN
 10
163.9083652144976
 20
-169.9997558592999
 30
0.0
 41
2.0
 42
2.0
 43
2.0
 50
270.0
  0
MTEXT
  5
87FB
330
819B
100
AcDbEntity
  8
30
  6
CONTINUOUS
 62
     0
100
AcDbMText
 10
158.4083652144976
 20
15.00024414070006
 30
0.0
 40
7.0
 41
0.0
 71
     5
 72
     1
  1
\A1;370
 11
0.0000000000000001
 21
1.0
 31
0.0
1001
ACAD
1000
MTEXTBEGIN
1070
    73
1070
     1
1070
    44
1040
1.0
1070
    74
1070
     0
1000
MTEXTEND
  0
POINT
  5
87FC
330
819B
100
AcDbEntity
  8
DEFPOINTS
  6
CONTINUOUS
 62
     0
100
AcDbPoint
 10
105.0
 20
200.0002441407
 30
0.0
  0
POINT
  5
87FD
330
819B
100
AcDbEntity
  8
DEFPOINTS
  6
CONTINUOUS
 62
     0
100
AcDbPoint
 10
105.0
 20
-169.9997558592999
 30
0.0
  0
POINT
  5
87FE
330
819B
100
AcDbEntity
  8
DEFPOINTS
  6
CONTINUOUS
 62
     0
100
AcDbPoint
 10
163.9083652144976
 20
-169.9997558592999
 30
0.0
  0
ENDBLK
  5
81A6
330
819B
100
AcDbEntity
  8
0
100
AcDbBlockEnd
  0
BLOCK
  5
82D3
330
82C9
100
AcDbEntity
  8
0
100
AcDbBlockBegin
  2
*D30
 70
     1
 10
0.0
 20
0.0
 30
0.0
  3
*D30
  1

  0
LINE
  5
88A1
330
82C9
100
AcDbEntity
  8
30
  6
CONTINUOUS
 62
     0
100
AcDbLine
 10
88.0
 20
233.0
 30
0.0
 11
121.6721146557077
 21
233.0
 31
0.0
  0
LINE
  5
88A2
330
82C9
100
AcDbEntity
  8
30
  6
CONTINUOUS
 62
     0
100
AcDbLine
 10
86.0
 20
225.0
 30
0.0
 11
121.6721146557077
 21
225.0
 31
0.0
  0
LINE
  5
88A3
330
82C9
100
AcDbEntity
  8
30
  6
CONTINUOUS
 62
     0
100
AcDbLine
 10
121.1721146557078
 20
231.0
 30
0.0
 11
121.1721146557078
 21
227.0
 31
0.0
  0
MTEXT
  5
88A4
330
82C9
100
AcDbEntity
  8
30
  6
CONTINUOUS
 62
     0
100
AcDbMText
 10
115.709149735454
 20
229.0
 30
0.0
 40
7.0
 41
0.0
 71
     5
 72
     1
  1
\A1;8
 11
0.0000000000000001
 21
1.0
 31
0.0
  0
INSERT
  5
88A5
330
82C9
100
AcDbEntity
  8
30
  6
CONTINUOUS
 62
     0
100
AcDbBlockReference
  2
_OPEN
 10
121.1721146557078
 20
233.0
 30
0.0
 41
2.0
 42
2.0
 43
2.0
 50
90.0
  0
INSERT
  5
88A6
330
82C9
100
AcDbEntity
  8
30
  6
CONTINUOUS
 62
     0
100
AcDbBlockReference
  2
_OPEN
 10
121.1721146557078
 20
225.0
 30
0.0
 41
2.0
 42
2.0
 43
2.0
 50
270.0
  0
POINT
  5
88A7
330
82C9
100
AcDbEntity
  8
DEFPOINTS
  6
CONTINUOUS
 62
     0
100
AcDbPoint
 10
87.0
 20
233.0
 30
0.0
  0
POINT
  5
88A8
330
82C9
100
AcDbEntity
  8
DEFPOINTS
  6
CONTINUOUS
 62
     0
100
AcDbPoint
 10
85.0
 20
225.0
 30
0.0
  0
POINT
  5
88A9
330
82C9
100
AcDbEntity
  8
DEFPOINTS
  6
CONTINUOUS
 62
     0
100
AcDbPoint
 10
121.1721146557078
 20
225.0
 30
0.0
  0
ENDBLK
  5
82D4
330
82C9
100
AcDbEntity
  8
0
100
AcDbBlockEnd
  0
BLOCK
  5
82DF
330
82D6
100
AcDbEntity
  8
0
100
AcDbBlockBegin
  2
*D31
 70
     1
 10
0.0
 20
0.0
 30
0.0
  3
*D31
  1

  0
LINE
  5
880A
330
82D6
100
AcDbEntity
  8
30
  6
CONTINUOUS
 62
     0
100
AcDbLine
 10
121.8333333333333
 20
301.6779803001734
 30
0.0
 11
100.9999999999998
 21
301.6779803001734
 31
0.0
  0
LINE
  5
880B
330
82D6
100
AcDbEntity
  8
30
  6
CONTINUOUS
 62
     0
100
AcDbLine
 10
100.9999999999998
 20
301.6779803001734
 30
0.0
 11
75.91425933452946
 21
275.7830221938814
 31
0.0
  0
MTEXT
  5
880C
330
82D6
100
AcDbEntity
  8
30
  6
CONTINUOUS
 62
     0
100
AcDbMText
 10
113.6666666666666
 20
307.1779803001735
 30
0.0
 40
7.0
 41
0.0
 71
     5
 72
     1
  1
\A1;\U+220513
1001
ACAD
1000
MTEXTBEGIN
1070
    73
1070
     1
1070
    44
1040
1.0
1070
    74
1070
     0
1000
MTEXTEND
  0
INSERT
  5
880D
330
82D6
100
AcDbEntity
  8
30
  6
CONTINUOUS
 62
     0
100
AcDbBlockReference
  2
_OPEN
 10
74.52266890287545
 20
274.346541748303
 30
0.0
 41
2.0
 42
2.0
 43
2.0
 50
225.9093804491991
  0
LINE
  5
880E
330
82D6
100
AcDbEntity
  8
30
  6
CONTINUOUS
 62
     0
100
AcDbLine
 10
69.90999999999985
 20
269.6779803001734
 30
0.0
 11
70.08999999999986
 21
269.6779803001734
 31
0.0
  0
LINE
  5
880F
330
82D6
100
AcDbEntity
  8
30
  6
CONTINUOUS
 62
     0
100
AcDbLine
 10
69.99999999999984
 20
269.5879803001734
 30
0.0
 11
69.99999999999983
 21
269.7679803001733
 31
0.0
  0
POINT
  5
8810
330
82D6
100
AcDbEntity
  8
DEFPOINTS
  6
CONTINUOUS
 62
     0
100
AcDbPoint
 10
74.52266890287545
 20
274.346541748303
 30
0.0
  0
POINT
  5
8811
330
82D6
100
AcDbEntity
  8
DEFPOINTS
  6
CONTINUOUS
 62
     0
100
AcDbPoint
 10
65.47733109712426
 20
265.0094188520437
 30
0.0
  0
ENDBLK
  5
82E0
330
82D6
100
AcDbEntity
  8
0
100
AcDbBlockEnd
  0
ENDSEC
  0
SECTION
  2
ENTITIES
  0
LINE
  5
B4
330
1E
100
AcDbEntity
  8
16
100
AcDbLine
 10
-0.0000000000000021
 20
-239.0
 30
0.0
 11
0.0
 21
245.0
 31
0.0
  0
LINE
  5
B5
330
1E
100
AcDbEntity
  8
16
100
AcDbLine
 10
187.6361914121165
 20
0.0000000000000107
 30
0.0
 11
-145.0
 21
0.0
 31
0.0
  0
MTEXT
  5
BF3
330
1E
100
AcDbEntity
  8
24
  6
CONTINUOUS
100
AcDbMText
 10
142.1181906098743
 20
177.5
 30
0.0
 40
3.0
 41
0.0
 71
     1
 72
     1
  1
\A1;
1001
ACAD
1000
MTEXTBEGIN
1070
    73
1070
     1
1070
    44
1040
1.0
1070
    74
1070
     0
1000
MTEXTEND
  0
LINE
  5
1C9A
330
1E
100
AcDbEntity
  8
16
100
AcDbLine
 10
0.0
 20
297.9456929114926
 30
0.0
 11
0.0
 21
498.9886365248458
 31
0.0
  0
LINE
  5
1C9B
330
1E
100
AcDbEntity
  8
16
100
AcDbLine
 10
585.0
 20
0.0
 30
0.0
 11
347.0
 21
0.0
 31
0.0
  0
LINE
  5
2233
330
1E
100
AcDbEntity
  8
16
100
AcDbLine
 10
425.0
 20
-793.5269974259799
 30
0.0
 11
425.0
 21
-369.7401473546586
 31
0.0
  0
LINE
  5
2234
330
1E
100
AcDbEntity
  8
16
100
AcDbLine
 10
557.1634296945399
 20
-601.0
 30
0.0
 11
323.1043600603313
 21
-601.0
 31
0.0
  0
LINE
  5
2260
330
1E
100
AcDbEntity
  8
16
100
AcDbLine
 10
202.1634296945399
 20
-601.0
 30
0.0
 11
-166.0
 21
-601.0
 31
0.0
  0
LINE
  5
2261
330
1E
100
AcDbEntity
  8
16
100
AcDbLine
 10
0.0
 20
-791.5926135610889
 30
0.0
 11
0.0
 21
-375.8062147299115
 31
0.0
  0
DIMENSION
  5
6C95
330
1E
100
AcDbEntity
  8
30
  6
CONTINUOUS
100
AcDbDimension
  2
*D1
 10
92.5
 20
-299.0577322434742
 30
0.0
 11
70.00006103516006
 21
-293.5577322434742
 31
0.0
 70
    32
  3
STANDARD
100
AcDbAlignedDimension
 13
47.5001220703201
 23
-249.0
 33
0.0
 14
92.5
 24
-249.0
 34
0.0
100
AcDbRotatedDimension
  0
DIMENSION
  5
6CA2
330
1E
100
AcDbEntity
  8
30
  6
CONTINUOUS
100
AcDbDimension
  2
*D2
 10
0.0002441406402323
 20
-277.4962531344657
 30
0.0
 11
-34.99972534178477
 21
-271.9962531344658
 31
0.0
 70
    32
  3
STANDARD
100
AcDbAlignedDimension
 13
-69.99969482420978
 23
-249.0
 33
0.0
 14
0.000244140640234
 24
-249.0
 34
0.0
100
AcDbRotatedDimension
  0
DIMENSION
  5
6CAF
330
1E
100
AcDbEntity
  8
30
  6
CONTINUOUS
100
AcDbDimension
  2
*D3
 10
70.00012207032011
 20
-277.4962531344657
 30
0.0
 11
35.00018310548017
 21
-271.9962531344658
 31
0.0
 70
    32
  3
STANDARD
100
AcDbAlignedDimension
 13
0.000244140640234
 23
-249.0
 33
0.0
 14
70.00012207032011
 24
-249.0
 34
0.0
100
AcDbRotatedDimension
  0
DIMENSION
  5
6CBC
330
1E
100
AcDbEntity
  8
30
  6
CONTINUOUS
100
AcDbDimension
  2
*D4
 10
104.9999999999999
 20
-313.6091583979323
 30
0.0
 11
0.0000915527350859
 21
-308.1091583979323
 31
0.0
 70
    32
  3
STANDARD
100
AcDbAlignedDimension
 13
-104.9998168945297
 23
-170.0
 33
0.0
 14
105.0
 24
-170.0
 34
0.0
100
AcDbRotatedDimension
  0
LINE
  5
740C
330
1E
100
AcDbEntity
  8
17
  6
CONTINOUS
100
AcDbLine
 10
92.5
 20
-170.0
 30
0.0
 11
92.5
 21
-250.0
 31
0.0
  0
LINE
  5
740D
330
1E
100
AcDbEntity
  8
17
  6
CONTINOUS
100
AcDbLine
 10
47.5
 20
-170.0
 30
0.0
 11
47.5
 21
-250.0
 31
0.0
  0
LINE
  5
740E
330
1E
100
AcDbEntity
  8
17
  6
CONTINOUS
100
AcDbLine
 10
-92.5
 20
-170.0
 30
0.0
 11
-92.5
 21
-250.0
 31
0.0
  0
LINE
  5
7411
330
1E
100
AcDbEntity
  8
17
  6
CONTINOUS
100
AcDbLine
 10
22.5
 20
-170.0
 30
0.0
 11
22.5
 21
-250.0
 31
0.0
  0
LINE
  5
7412
330
1E
100
AcDbEntity
  8
17
  6
CONTINOUS
100
AcDbLine
 10
-22.5
 20
-170.0
 30
0.0
 11
-22.5
 21
-250.0
 31
0.0
  0
LINE
  5
7413
330
1E
100
AcDbEntity
  8
17
  6
CONTINOUS
100
AcDbLine
 10
-47.5
 20
-170.0
 30
0.0
 11
-47.5
 21
-250.0
 31
0.0
  0
LINE
  5
7415
330
1E
100
AcDbEntity
  8
17
  6
CONTINOUS
100
AcDbLine
 10
-92.5
 20
-250.0
 30
0.0
 11
-47.5
 21
-250.0
 31
0.0
  0
LINE
  5
7416
330
1E
100
AcDbEntity
  8
17
  6
CONTINOUS
100
AcDbLine
 10
-22.5
 20
-250.0
 30
0.0
 11
22.5
 21
-250.0
 31
0.0
  0
LINE
  5
7419
330
1E
100
AcDbEntity
  8
17
  6
CONTINOUS
100
AcDbLine
 10
47.5
 20
-250.0
 30
0.0
 11
92.5
 21
-250.0
 31
0.0
  0
LINE
  5
741D
330
1E
100
AcDbEntity
  8
12
  6
DASHED
100
AcDbLine
 10
20.0
 20
-154.0
 30
0.0
 11
50.0
 21
-154.0
 31
0.0
  0
LINE
  5
741E
330
1E
100
AcDbEntity
  8
12
  6
DASHED
100
AcDbLine
 10
20.0
 20
184.0
 30
0.0
 11
50.0
 21
184.0
 31
0.0
  0
CIRCLE
  5
7421
330
1E
100
AcDbEntity
  8
12
  6
DASHED
100
AcDbCircle
 10
35.0
 20
-154.0
 30
0.0
 40
8.5
  0
CIRCLE
  5
7422
330
1E
100
AcDbEntity
  8
12
  6
DASHED
100
AcDbCircle
 10
35.0
 20
184.0
 30
0.0
 40
8.5
  0
LINE
  5
7423
330
1E
100
AcDbEntity
  8
10
  6
CONTINUOUS
100
AcDbLine
 10
-105.0
 20
-115.5
 30
0.0
 11
105.0
 21
-115.5
 31
0.0
  0
LINE
  5
7424
330
1E
100
AcDbEntity
  8
10
  6
CONTINUOUS
100
AcDbLine
 10
-105.0
 20
-57.5
 30
0.0
 11
105.0
 21
-57.5
 31
0.0
  0
LINE
  5
7425
330
1E
100
AcDbEntity
  8
10
  6
CONTINUOUS
100
AcDbLine
 10
105.0
 20
-140.0
 30
0.0
 11
-105.0
 21
-140.0
 31
0.0
  0
LINE
  5
7426
330
1E
100
AcDbEntity
  8
10
  6
CONTINUOUS
100
AcDbLine
 10
105.0
 20
170.0
 30
0.0
 11
-105.0
 21
170.0
 31
0.0
  0
LINE
  5
742B
330
1E
100
AcDbEntity
  8
17
  6
CONTINOUS
100
AcDbLine
 10
-55.0
 20
-195.0
 30
0.0
 11
-85.0
 21
-195.0
 31
0.0
  0
ARC
  5
742C
330
1E
100
AcDbEntity
  8
17
  6
CONTINOUS
100
AcDbCircle
 10
-70.0
 20
-195.0
 30
0.0
 40
6.5
100
AcDbArc
 50
0.0
 51
180.0
  0
ARC
  5
742D
330
1E
100
AcDbEntity
  8
17
  6
CONTINOUS
100
AcDbCircle
 10
-70.0
 20
-203.0
 30
0.0
 40
6.5
100
AcDbArc
 50
180.0
 51
0.0
  0
LINE
  5
742E
330
1E
100
AcDbEntity
  8
17
  6
CONTINOUS
100
AcDbLine
 10
-55.0
 20
-203.0
 30
0.0
 11
-85.0
 21
-203.0
 31
0.0
  0
CIRCLE
  5
742F
330
1E
100
AcDbEntity
  8
17
  6
CONTINOUS
100
AcDbCircle
 10
-70.0
 20
-235.0
 30
0.0
 40
6.5
  0
LINE
  5
7430
330
1E
100
AcDbEntity
  8
17
  6
CONTINOUS
100
AcDbLine
 10
-85.0
 20
-235.0
 30
0.0
 11
-55.0
 21
-235.0
 31
0.0
  0
LINE
  5
7431
330
1E
100
AcDbEntity
  8
17
  6
CONTINOUS
100
AcDbLine
 10
-76.5
 20
-195.0
 30
0.0
 11
-76.5
 21
-203.0
 31
0.0
  0
LINE
  5
7433
330
1E
100
AcDbEntity
  8
17
  6
CONTINOUS
100
AcDbLine
 10
-63.5
 20
-195.0
 30
0.0
 11
-63.5
 21
-203.0
 31
0.0
  0
LINE
  5
7434
330
1E
100
AcDbEntity
  8
17
  6
CONTINOUS
100
AcDbLine
 10
6.5
 20
-195.0
 30
0.0
 11
6.5
 21
-203.0
 31
0.0
  0
LINE
  5
7435
330
1E
100
AcDbEntity
  8
17
  6
CONTINOUS
100
AcDbLine
 10
-6.5
 20
-195.0
 30
0.0
 11
-6.5
 21
-203.0
 31
0.0
  0
ARC
  5
7436
330
1E
100
AcDbEntity
  8
17
  6
CONTINOUS
100
AcDbCircle
 10
0.0
 20
-195.0
 30
0.0
 40
6.5
100
AcDbArc
 50
0.0
 51
180.0
  0
ARC
  5
7437
330
1E
100
AcDbEntity
  8
17
  6
CONTINOUS
100
AcDbCircle
 10
0.0
 20
-203.0
 30
0.0
 40
6.5
100
AcDbArc
 50
180.0
 51
0.0
  0
LINE
  5
7438
330
1E
100
AcDbEntity
  8
17
  6
CONTINOUS
100
AcDbLine
 10
15.0
 20
-195.0
 30
0.0
 11
-15.0
 21
-195.0
 31
0.0
  0
LINE
  5
7439
330
1E
100
AcDbEntity
  8
17
  6
CONTINOUS
100
AcDbLine
 10
15.0
 20
-203.0
 30
0.0
 11
-15.0
 21
-203.0
 31
0.0
  0
CIRCLE
  5
743A
330
1E
100
AcDbEntity
  8
17
  6
CONTINOUS
100
AcDbCircle
 10
0.0
 20
-235.0
 30
0.0
 40
6.5
  0
LINE
  5
743B
330
1E
100
AcDbEntity
  8
17
  6
CONTINOUS
100
AcDbLine
 10
-15.0
 20
-235.0
 30
0.0
 11
15.0
 21
-235.0
 31
0.0
  0
LINE
  5
743E
330
1E
100
AcDbEntity
  8
12
  6
DASHED
100
AcDbLine
 10
-35.0
 20
-139.0
 30
0.0
 11
-35.0
 21
-169.0
 31
0.0
  0
CIRCLE
  5
743F
330
1E
100
AcDbEntity
  8
12
  6
DASHED
100
AcDbCircle
 10
-35.0
 20
-154.0
 30
0.0
 40
8.5
  0
LINE
  5
7440
330
1E
100
AcDbEntity
  8
12
  6
DASHED
100
AcDbLine
 10
-50.0
 20
-154.0
 30
0.0
 11
-20.0
 21
-154.0
 31
0.0
  0
LINE
  5
7441
330
1E
100
AcDbEntity
  8
12
  6
DASHED
100
AcDbLine
 10
35.0
 20
-139.0
 30
0.0
 11
35.0
 21
-169.0
 31
0.0
  0
LINE
  5
7447
330
1E
100
AcDbEntity
  8
17
  6
CONTINOUS
100
AcDbLine
 10
22.5
 20
200.0
 30
0.0
 11
22.5
 21
280.0
 31
0.0
  0
LINE
  5
7448
330
1E
100
AcDbEntity
  8
17
  6
CONTINOUS
100
AcDbLine
 10
-22.5
 20
200.0
 30
0.0
 11
-22.5
 21
280.0
 31
0.0
  0
LINE
  5
7449
330
1E
100
AcDbEntity
  8
17
  6
CONTINOUS
100
AcDbLine
 10
-47.5
 20
200.0
 30
0.0
 11
-47.5
 21
280.0
 31
0.0
  0
LINE
  5
744A
330
1E
100
AcDbEntity
  8
17
  6
CONTINOUS
100
AcDbLine
 10
-92.5
 20
200.0
 30
0.0
 11
-92.5
 21
280.0
 31
0.0
  0
CIRCLE
  5
744F
330
1E
100
AcDbEntity
  8
12
  6
DASHED
100
AcDbCircle
 10
-35.0
 20
184.0
 30
0.0
 40
8.5
  0
LINE
  5
7450
330
1E
100
AcDbEntity
  8
12
  6
DASHED
100
AcDbLine
 10
-50.0
 20
184.0
 30
0.0
 11
-20.0
 21
184.0
 31
0.0
  0
LINE
  5
7451
330
1E
100
AcDbEntity
  8
12
  6
DASHED
100
AcDbLine
 10
-35.0
 20
199.0
 30
0.0
 11
-35.0
 21
169.0
 31
0.0
  0
LINE
  5
7452
330
1E
100
AcDbEntity
  8
12
  6
DASHED
100
AcDbLine
 10
35.0
 20
199.0
 30
0.0
 11
35.0
 21
169.0
 31
0.0
  0
CIRCLE
  5
7454
330
1E
100
AcDbEntity
  8
17
  6
CONTINOUS
100
AcDbCircle
 10
-70.0
 20
265.0
 30
0.0
 40
6.5
  0
LINE
  5
7455
330
1E
100
AcDbEntity
  8
17
  6
CONTINOUS
100
AcDbLine
 10
-47.5
 20
280.0
 30
0.0
 11
-92.5
 21
280.0
 31
0.0
  0
ARC
  5
7456
330
1E
100
AcDbEntity
  8
17
  6
CONTINOUS
100
AcDbCircle
 10
-70.0
 20
225.0
 30
0.0
 40
6.5
100
AcDbArc
 50
180.0
 51
0.0
  0
ARC
  5
7457
330
1E
100
AcDbEntity
  8
17
  6
CONTINOUS
100
AcDbCircle
 10
-70.0
 20
233.0
 30
0.0
 40
6.5
100
AcDbArc
 50
0.0
 51
180.0
  0
LINE
  5
7458
330
1E
100
AcDbEntity
  8
17
  6
CONTINOUS
100
AcDbLine
 10
-55.0
 20
225.0
 30
0.0
 11
-85.0
 21
225.0
 31
0.0
  0
LINE
  5
7459
330
1E
100
AcDbEntity
  8
17
  6
CONTINOUS
100
AcDbLine
 10
-85.0
 20
233.0
 30
0.0
 11
-55.0
 21
233.0
 31
0.0
  0
LINE
  5
745A
330
1E
100
AcDbEntity
  8
17
  6
CONTINOUS
100
AcDbLine
 10
-85.0
 20
265.0
 30
0.0
 11
-55.0
 21
265.0
 31
0.0
  0
LINE
  5
745B
330
1E
100
AcDbEntity
  8
17
  6
CONTINOUS
100
AcDbLine
 10
-76.5
 20
233.0
 30
0.0
 11
-76.5
 21
225.0
 31
0.0
  0
LINE
  5
745D
330
1E
100
AcDbEntity
  8
17
  6
CONTINOUS
100
AcDbLine
 10
-63.5
 20
233.0
 30
0.0
 11
-63.5
 21
225.0
 31
0.0
  0
LINE
  5
745E
330
1E
100
AcDbEntity
  8
17
  6
CONTINOUS
100
AcDbLine
 10
6.5
 20
233.0
 30
0.0
 11
6.5
 21
225.0
 31
0.0
  0
ARC
  5
745F
330
1E
100
AcDbEntity
  8
17
  6
CONTINOUS
100
AcDbCircle
 10
0.0
 20
225.0
 30
0.0
 40
6.5
100
AcDbArc
 50
180.0
 51
0.0
  0
LINE
  5
7460
330
1E
100
AcDbEntity
  8
17
  6
CONTINOUS
100
AcDbLine
 10
-6.5
 20
233.0
 30
0.0
 11
-6.5
 21
225.0
 31
0.0
  0
LINE
  5
7461
330
1E
100
AcDbEntity
  8
17
  6
CONTINOUS
100
AcDbLine
 10
15.0
 20
225.0
 30
0.0
 11
-15.0
 21
225.0
 31
0.0
  0
ARC
  5
7462
330
1E
100
AcDbEntity
  8
17
  6
CONTINOUS
100
AcDbCircle
 10
0.0
 20
233.0
 30
0.0
 40
6.5
100
AcDbArc
 50
0.0
 51
180.0
  0
CIRCLE
  5
7463
330
1E
100
AcDbEntity
  8
17
  6
CONTINOUS
100
AcDbCircle
 10
0.0
 20
265.0
 30
0.0
 40
6.5
  0
LINE
  5
7464
330
1E
100
AcDbEntity
  8
17
  6
CONTINOUS
100
AcDbLine
 10
-15.0
 20
233.0
 30
0.0
 11
15.0
 21
233.0
 31
0.0
  0
LINE
  5
7465
330
1E
100
AcDbEntity
  8
17
  6
CONTINOUS
100
AcDbLine
 10
-15.0
 20
265.0
 30
0.0
 11
15.0
 21
265.0
 31
0.0
  0
LINE
  5
7466
330
1E
100
AcDbEntity
  8
17
  6
CONTINOUS
100
AcDbLine
 10
22.5
 20
280.0
 30
0.0
 11
-22.5
 21
280.0
 31
0.0
  0
LINE
  5
7468
330
1E
100
AcDbEntity
  8
17
  6
CONTINOUS
100
AcDbLine
 10
85.0
 20
-195.0
 30
0.0
 11
55.0
 21
-195.0
 31
0.0
  0
LINE
  5
7469
330
1E
100
AcDbEntity
  8
17
  6
CONTINOUS
100
AcDbLine
 10
63.5
 20
-195.0
 30
0.0
 11
63.5
 21
-203.0
 31
0.0
  0
LINE
  5
746A
330
1E
100
AcDbEntity
  8
17
  6
CONTINOUS
100
AcDbLine
 10
76.5
 20
-195.0
 30
0.0
 11
76.5
 21
-203.0
 31
0.0
  0
ARC
  5
746B
330
1E
100
AcDbEntity
  8
17
  6
CONTINOUS
100
AcDbCircle
 10
70.0
 20
-195.0
 30
0.0
 40
6.5
100
AcDbArc
 50
0.0
 51
180.0
  0
ARC
  5
746C
330
1E
100
AcDbEntity
  8
17
  6
CONTINOUS
100
AcDbCircle
 10
70.0
 20
-203.0
 30
0.0
 40
6.5
100
AcDbArc
 50
180.0
 51
0.0
  0
LINE
  5
746D
330
1E
100
AcDbEntity
  8
17
  6
CONTINOUS
100
AcDbLine
 10
85.0
 20
-203.0
 30
0.0
 11
55.0
 21
-203.0
 31
0.0
  0
CIRCLE
  5
746E
330
1E
100
AcDbEntity
  8
17
  6
CONTINOUS
100
AcDbCircle
 10
70.0
 20
-235.0
 30
0.0
 40
6.5
  0
LINE
  5
746F
330
1E
100
AcDbEntity
  8
17
  6
CONTINOUS
100
AcDbLine
 10
55.0
 20
-235.0
 30
0.0
 11
85.0
 21
-235.0
 31
0.0
  0
LINE
  5
7473
330
1E
100
AcDbEntity
  8
17
  6
CONTINOUS
100
AcDbLine
 10
92.5
 20
200.0
 30
0.0
 11
92.5
 21
280.0
 31
0.0
  0
LINE
  5
7474
330
1E
100
AcDbEntity
  8
17
  6
CONTINOUS
100
AcDbLine
 10
47.5
 20
200.0
 30
0.0
 11
47.5
 21
280.0
 31
0.0
  0
LINE
  5
7479
330
1E
100
AcDbEntity
  8
17
  6
CONTINOUS
100
AcDbLine
 10
55.0
 20
265.0
 30
0.0
 11
85.0
 21
265.0
 31
0.0
  0
CIRCLE
  5
747A
330
1E
100
AcDbEntity
  8
17
  6
CONTINOUS
100
AcDbCircle
 10
70.0
 20
265.0
 30
0.0
 40
6.5
  0
LINE
  5
747B
330
1E
100
AcDbEntity
  8
17
  6
CONTINOUS
100
AcDbLine
 10
76.5
 20
233.0
 30
0.0
 11
76.5
 21
225.0
 31
0.0
  0
ARC
  5
747C
330
1E
100
AcDbEntity
  8
17
  6
CONTINOUS
100
AcDbCircle
 10
70.0
 20
225.0
 30
0.0
 40
6.5
100
AcDbArc
 50
180.0
 51
0.0
  0
LINE
  5
747D
330
1E
100
AcDbEntity
  8
17
  6
CONTINOUS
100
AcDbLine
 10
63.5
 20
233.0
 30
0.0
 11
63.5
 21
225.0
 31
0.0
  0
LINE
  5
747E
330
1E
100
AcDbEntity
  8
17
  6
CONTINOUS
100
AcDbLine
 10
85.0
 20
225.0
 30
0.0
 11
55.0
 21
225.0
 31
0.0
  0
ARC
  5
747F
330
1E
100
AcDbEntity
  8
17
  6
CONTINOUS
100
AcDbCircle
 10
70.0
 20
233.0
 30
0.0
 40
6.5
100
AcDbArc
 50
0.0
 51
180.0
  0
LINE
  5
7480
330
1E
100
AcDbEntity
  8
17
  6
CONTINOUS
100
AcDbLine
 10
55.0
 20
233.0
 30
0.0
 11
85.0
 21
233.0
 31
0.0
  0
LINE
  5
7481
330
1E
100
AcDbEntity
  8
17
  6
CONTINOUS
100
AcDbLine
 10
92.5
 20
280.0
 30
0.0
 11
47.5
 21
280.0
 31
0.0
  0
DIMENSION
  5
75CD
330
1E
100
AcDbEntity
  8
30
  6
CONTINUOUS
100
AcDbDimension
  2
*D5
 10
549.9742431640004
 20
-266.0913454632094
 30
0.0
 11
565.6597900390002
 21
-266.0913454632094
 31
0.0
 70
   160
  1
29
  3
STANDARD
100
AcDbAlignedDimension
 13
578.9742431640004
 23
-170.0935058566683
 33
0.0
 14
549.9742431640004
 24
-250.0935058566683
 34
0.0
 50
180.0
100
AcDbRotatedDimension
  0
DIMENSION
  5
75CE
330
1E
100
AcDbEntity
  8
30
  6
CONTINUOUS
100
AcDbDimension
  2
*D6
 10
466.9742431640004
 20
-192.534130220209
 30
0.0
 11
486.5091768151827
 21
-192.534130220209
 31
0.0
 70
   160
  1
8
  3
STANDARD
100
AcDbAlignedDimension
 13
458.9742431640003
 23
-140.0935058566682
 33
0.0
 14
466.9742431640004
 24
-170.0935058566683
 34
0.0
100
AcDbRotatedDimension
  0
DIMENSION
  5
75CF
330
1E
100
AcDbEntity
  8
30
  6
CONTINUOUS
100
AcDbDimension
  2
*D7
 10
441.9742431640004
 20
-193.034130220209
 30
0.0
 11
426.9304397170111
 21
-193.034130220209
 31
0.0
 70
   160
  1
17
  3
STANDARD
100
AcDbAlignedDimension
 13
458.9742431640003
 23
-140.0935058566682
 33
0.0
 14
441.9742431640004
 24
-0.0935058566683438
 34
0.0
 50
180.0
100
AcDbRotatedDimension
  0
DIMENSION
  5
75D0
330
1E
100
AcDbEntity
  8
30
  6
CONTINUOUS
100
AcDbDimension
  2
*D8
 10
458.9742431640003
 20
-286.1524052902514
 30
0.0
 11
516.7637168482109
 21
-286.1524052902514
 31
0.0
 70
   160
  1
120
  3
STANDARD
100
AcDbAlignedDimension
 13
578.9742431640004
 23
-170.0935058566683
 33
0.0
 14
458.9742431640003
 24
-140.0935058566682
 34
0.0
 50
180.0
100
AcDbRotatedDimension
  0
DIMENSION
  5
75D1
330
1E
100
AcDbEntity
  8
30
  6
CONTINUOUS
100
AcDbDimension
  2
*D9
 10
327.9743652343003
 20
-311.0048103712514
 30
0.0
 11
368.5755945153523
 21
-311.0048103712514
 31
0.0
 70
   160
  1
80
  3
STANDARD
100
AcDbAlignedDimension
 13
407.9741210937004
 23
-0.0935058566683438
 33
0.0
 14
327.9743652343003
 24
-0.0935058566683438
 34
0.0
 50
180.0
100
AcDbRotatedDimension
  0
DIMENSION
  5
75D2
330
1E
100
AcDbEntity
  8
30
  6
CONTINUOUS
100
AcDbDimension
  2
*D10
 10
407.9741210937004
 20
-310.671477037918
 30
0.0
 11
491.2682387407593
 21
-310.671477037918
 31
0.0
 70
   160
  1
171
  3
STANDARD
100
AcDbAlignedDimension
 13
578.9742431640004
 23
-170.0935058566683
 33
0.0
 14
407.9741210937004
 24
-0.0935058566683438
 34
0.0
 50
180.0
100
AcDbRotatedDimension
  0
LINE
  5
75D3
330
1E
100
AcDbEntity
  8
17
  6
CONTINOUS
100
AcDbLine
 10
535.9742431640004
 20
-169.9999999972683
 30
0.0
 11
535.9742431640004
 21
-249.9999999972683
 31
0.0
  0
LINE
  5
75D4
330
1E
100
AcDbEntity
  8
17
  6
CONTINOUS
100
AcDbLine
 10
549.9742431640004
 20
-169.9999999972683
 30
0.0
 11
549.9742431640004
 21
-249.9999999972683
 31
0.0
  0
DIMENSION
  5
75D5
330
1E
100
AcDbEntity
  8
30
  6
CONTINUOUS
100
AcDbDimension
  2
*D11
 10
535.9742431640004
 20
-266.0913454632094
 30
0.0
 11
496.6970343338321
 21
-266.0913454632094
 31
0.0
 70
   160
  1
14
  3
STANDARD
100
AcDbAlignedDimension
 13
549.9742431640004
 23
-250.0935058566683
 33
0.0
 14
535.9742431640004
 24
-250.0935058566683
 34
0.0
 50
180.0
100
AcDbRotatedDimension
  0
LINE
  5
75D6
330
1E
100
AcDbEntity
  8
17
  6
CONTINOUS
100
AcDbLine
 10
535.9742431640004
 20
-249.9999999972683
 30
0.0
 11
549.9742431640004
 21
-249.9999999972683
 31
0.0
  0
LINE
  5
75D9
330
1E
100
AcDbEntity
  8
18
100
AcDbLine
 10
411.4766845703003
 20
52.23242187773166
 30
0.0
 11
445.3052978515003
 21
39.91943359653168
 31
0.0
  0
LINE
  5
75DA
330
1E
100
AcDbEntity
  8
18
100
AcDbLine
 10
402.5841064453003
 20
27.80029297153169
 30
0.0
 11
436.4127197265004
 21
15.48779297153169
 31
0.0
  0
LINE
  5
75DC
330
1E
100
AcDbEntity
  8
10
  6
CONTINUOUS
100
AcDbLine
 10
444.0357666015003
 20
33.17529297153169
 30
0.0
 11
418.2779541015003
 21
41.82763672153169
 31
0.0
  0
LINE
  5
75DD
330
1E
100
AcDbEntity
  8
10
  6
CONTINUOUS
100
AcDbLine
 10
414.4825439453003
 20
31.39892578403169
 30
0.0
 11
439.7755126953003
 21
21.47021484653169
 31
0.0
  0
ARC
  5
75DE
330
1E
100
AcDbEntity
  8
30
  6
CONTINUOUS
100
AcDbCircle
 10
516.9735107422003
 20
0.0000000027316673
 30
0.0
 40
188.9991607666885
100
AcDbArc
 50
159.999913383235
 51
180.0
  0
LINE
  5
75DF
330
1E
100
AcDbEntity
  8
18
100
AcDbLine
 10
411.4766845703003
 20
52.23242187773166
 30
0.0
 11
402.5841064453003
 21
27.80029297153169
 31
0.0
  0
CIRCLE
  5
75E0
330
1E
100
AcDbEntity
  8
18
100
AcDbCircle
 10
358.1664863133306
 20
57.80208746667359
 30
0.0
 40
20.0000000000001
  0
ARC
  5
75E1
330
1E
100
AcDbEntity
  8
18
100
AcDbCircle
 10
372.6456349921878
 20
35.01266579413321
 30
0.0
 40
6.999999999936429
100
AcDbArc
 50
63.31735842147242
 51
122.430139008834
  0
ARC
  5
75E2
330
1E
100
AcDbEntity
  8
30
  6
CONTINUOUS
100
AcDbCircle
 10
516.9735107422003
 20
0.0000000027316673
 30
0.0
 40
108.9994277954571
100
AcDbArc
 50
159.999913383235
 51
180.0
  0
LINE
  5
75E3
330
1E
100
AcDbEntity
  8
18
100
AcDbLine
 10
402.5841064453003
 20
27.80029297153169
 30
0.0
 11
375.7886962890003
 21
41.26660156523167
 31
0.0
  0
ARC
  5
75E4
330
1E
100
AcDbEntity
  8
18
100
AcDbCircle
 10
415.2130126953004
 20
33.26074219023166
 30
0.0
 40
1.999999999970468
100
AcDbArc
 50
159.9997221383786
 51
248.5674954434514
  0
ARC
  5
75E5
330
1E
100
AcDbEntity
  8
18
100
AcDbCircle
 10
417.6412353515003
 20
39.93164062773166
 30
0.0
 40
1.99999999997784
100
AcDbArc
 50
71.43229716818197
 51
160.000596400206
  0
LINE
  5
75E6
330
1E
100
AcDbEntity
  8
18
100
AcDbLine
 10
415.7618408203004
 20
40.61572265903168
 30
0.0
 11
413.3336181640003
 21
33.94482422153169
 31
0.0
  0
ARC
  5
75E7
330
1E
100
AcDbEntity
  8
18
100
AcDbCircle
 10
383.9068322694938
 20
65.95254992164837
 30
0.0
 40
7.000000000040718
100
AcDbArc
 50
197.569869690948
 51
256.68262978701
  0
LINE
  5
75E8
330
1E
100
AcDbEntity
  8
18
100
AcDbLine
 10
411.4766845703003
 20
52.23242187773166
 30
0.0
 11
382.2940673828004
 21
59.14013672153169
 31
0.0
  0
DIMENSION
  5
75EB
330
1E
100
AcDbEntity
  8
30
  6
CONTINUOUS
100
AcDbDimension
  2
*D12
 10
578.9742431640004
 20
-118.7061564379614
 30
0.0
 11
606.6409098306671
 21
-118.7061564379614
 31
0.0
 70
   160
  1
18
  3
STANDARD
100
AcDbAlignedDimension
 13
596.9742431640004
 23
-149.9064941378683
 33
0.0
 14
578.9742431640004
 24
-169.9064941378683
 34
0.0
 50
180.0
100
AcDbRotatedDimension
  0
DIMENSION
  5
75EC
330
1E
100
AcDbEntity
  8
30
  6
CONTINUOUS
100
AcDbDimension
  2
*D13
 10
550.9742431640004
 20
-118.7061564379614
 30
0.0
 11
559.7653115761637
 21
-118.7061564379614
 31
0.0
 70
   160
  1
28
  3
STANDARD
100
AcDbAlignedDimension
 13
578.9742431640004
 23
-153.9064941378683
 33
0.0
 14
550.9742431640004
 24
-145.4064941378683
 34
0.0
 50
180.0
100
AcDbRotatedDimension
  0
LINE
  5
75ED
330
1E
100
AcDbEntity
  8
17
  6
DASHDOT
100
AcDbLine
 10
521.0764160156003
 20
-194.9999999972683
 30
0.0
 11
567.9742431640004
 21
-194.9999999972683
 31
0.0
  0
LINE
  5
75EE
330
1E
100
AcDbEntity
  8
17
  6
DASHDOT
100
AcDbLine
 10
567.9742431640004
 20
-202.9999999972682
 30
0.0
 11
521.0764160156003
 21
-202.9999999972682
 31
0.0
  0
LINE
  5
75F0
330
1E
100
AcDbEntity
  8
12
  6
DASHED
100
AcDbLine
 10
466.9742431640004
 20
-162.4999999972683
 30
0.0
 11
550.9742431640004
 21
-162.4999999972683
 31
0.0
  0
LINE
  5
75F1
330
1E
100
AcDbEntity
  8
12
  6
DASHED
100
AcDbLine
 10
466.9742431640004
 20
-145.4999999972683
 30
0.0
 11
550.9742431640004
 21
-145.4999999972683
 31
0.0
  0
LINE
  5
75F2
330
1E
100
AcDbEntity
  8
17
  6
DASHDOT
100
AcDbLine
 10
520.9742431640004
 20
-234.9999999972683
 30
0.0
 11
567.9742431640004
 21
-234.9999999972683
 31
0.0
  0
LINE
  5
75F5
330
1E
100
AcDbEntity
  8
12
  6
DASHED
100
AcDbLine
 10
578.9742431640004
 20
-169.9999999972683
 30
0.0
 11
578.9742431640004
 21
-178.9999999972683
 31
0.0
  0
ARC
  5
75F6
330
1E
100
AcDbEntity
  8
12
  6
DASHED
100
AcDbCircle
 10
-590.9742431640004
 20
-166.9999999972683
 30
0.0
 40
6.0
210
0.0
220
0.0
230
-1.0
100
AcDbArc
 50
270.0
 51
0.0
  0
LINE
  5
75F7
330
1E
100
AcDbEntity
  8
12
  6
DASHED
100
AcDbLine
 10
618.9742431640004
 20
-178.9999999972683
 30
0.0
 11
578.9742431640004
 21
-178.9999999972683
 31
0.0
  0
LINE
  5
75F8
330
1E
100
AcDbEntity
  8
12
  6
DASHED
100
AcDbLine
 10
618.9742431640004
 20
-178.9999999972683
 30
0.0
 11
618.9742431640004
 21
-172.9999999972683
 31
0.0
  0
LINE
  5
75F9
330
1E
100
AcDbEntity
  8
12
  6
DASHED
100
AcDbLine
 10
590.9742431640004
 20
-172.9999999972683
 30
0.0
 11
618.9742431640004
 21
-172.9999999972683
 31
0.0
  0
LINE
  5
75FA
330
1E
100
AcDbEntity
  8
12
  6
DASHED
100
AcDbLine
 10
594.9742431640004
 20
-144.9999999972683
 30
0.0
 11
584.9742431640004
 21
-144.9999999972683
 31
0.0
  0
LINE
  5
75FB
330
1E
100
AcDbEntity
  8
12
  6
DASHED
100
AcDbLine
 10
594.9742431640004
 20
-162.9999999972683
 30
0.0
 11
584.9742431640004
 21
-162.9999999972683
 31
0.0
  0
LINE
  5
75FC
330
1E
100
AcDbEntity
  8
12
  6
DASHED
100
AcDbLine
 10
596.9742431640004
 20
-157.9999999972683
 30
0.0
 11
584.9742431640004
 21
-157.9999999972683
 31
0.0
  0
LINE
  5
75FD
330
1E
100
AcDbEntity
  8
12
  6
DASHED
100
AcDbLine
 10
584.9742431640004
 20
-149.9999999972683
 30
0.0
 11
596.9742431640004
 21
-149.9999999972683
 31
0.0
  0
LINE
  5
75FE
330
1E
100
AcDbEntity
  8
12
  6
DASHED
100
AcDbLine
 10
538.6530761718004
 20
-153.9999999972683
 30
0.0
 11
611.9742431640004
 21
-153.9999999972683
 31
0.0
  0
LINE
  5
75FF
330
1E
100
AcDbEntity
  8
12
  6
DASHED
100
AcDbLine
 10
550.9742431640004
 20
-145.4999999972683
 30
0.0
 11
550.9742431640004
 21
-162.4999999972683
 31
0.0
  0
LINE
  5
7600
330
1E
100
AcDbEntity
  8
12
  6
DASHED
100
AcDbLine
 10
543.9742431640004
 20
-145.4999999972683
 30
0.0
 11
543.9742431640004
 21
-162.4999999972683
 31
0.0
  0
ARC
  5
7601
330
1E
100
AcDbEntity
  8
12
  6
DASHED
100
AcDbCircle
 10
-580.9742431640004
 20
-142.0009765597683
 30
0.0
 40
4.000001778531268
210
0.0
220
0.0
230
-1.0
100
AcDbArc
 50
179.9459695845761
 51
180.0
  0
LINE
  5
7602
330
1E
100
AcDbEntity
  8
12
  6
DASHED
100
AcDbLine
 10
584.9742431640004
 20
-166.9999999972683
 30
0.0
 11
584.9742431640004
 21
-138.9999999972683
 31
0.0
  0
LINE
  5
7603
330
1E
100
AcDbEntity
  8
12
  6
DASHED
100
AcDbLine
 10
578.9742431640004
 20
-138.9999999972683
 30
0.0
 11
584.9742431640004
 21
-138.9999999972683
 31
0.0
  0
LINE
  5
7604
330
1E
100
AcDbEntity
  8
12
  6
DASHED
100
AcDbLine
 10
550.9742431640004
 20
-157.9999999972683
 30
0.0
 11
578.9742431640004
 21
-157.9999999972683
 31
0.0
  0
LINE
  5
7605
330
1E
100
AcDbEntity
  8
12
  6
DASHED
100
AcDbLine
 10
550.9742431640004
 20
-149.9999999972683
 30
0.0
 11
578.9742431640004
 21
-149.9999999972683
 31
0.0
  0
LINE
  5
7606
330
1E
100
AcDbEntity
  8
12
  6
DASHED
100
AcDbLine
 10
596.9742431640004
 20
-157.9999999972683
 30
0.0
 11
596.9742431640004
 21
-149.9999999972683
 31
0.0
  0
LINE
  5
7607
330
1E
100
AcDbEntity
  8
12
  6
DASHED
100
AcDbLine
 10
594.9742431640004
 20
-162.9999999972683
 30
0.0
 11
594.9742431640004
 21
-144.9999999972683
 31
0.0
  0
ARC
  5
7609
330
1E
100
AcDbEntity
  8
10
  6
CONTINUOUS
100
AcDbCircle
 10
516.9742431640004
 20
0.0000000027316673
 30
0.0
 40
75.0
100
AcDbArc
 50
180.0
 51
203.0739139876488
  0
LINE
  5
760A
330
1E
100
AcDbEntity
  8
10
  6
CONTINUOUS
100
AcDbLine
 10
447.9742431640003
 20
-47.49999999726832
 30
0.0
 11
458.9742431640003
 21
-47.49999999726832
 31
0.0
  0
LINE
  5
760B
330
1E
100
AcDbEntity
  8
10
  6
CONTINUOUS
100
AcDbLine
 10
447.9742431640003
 20
-29.3940429659683
 30
0.0
 11
447.9742431640003
 21
-47.49999999726832
 31
0.0
  0
LINE
  5
760C
330
1E
100
AcDbEntity
  8
18
100
AcDbLine
 10
445.3052978515003
 20
39.91943359653168
 30
0.0
 11
436.4127197265004
 21
15.48779297153169
 31
0.0
  0
ARC
  5
760D
330
1E
100
AcDbEntity
  8
10
  6
CONTINUOUS
100
AcDbCircle
 10
445.6280361580532
 20
37.91496443724918
 30
0.0
 40
5.000000000014861
100
AcDbArc
 50
251.4320994475313
 51
271.5383731939835
  0
ARC
  5
760E
330
1E
100
AcDbEntity
  8
10
  6
CONTINUOUS
100
AcDbCircle
 10
437.9490323896863
 20
16.81707573523499
 30
0.0
 40
5.000000000042933
100
AcDbArc
 50
48.46161501470561
 51
68.56790242147176
  0
LINE
  5
760F
330
1E
100
AcDbEntity
  8
10
  6
CONTINUOUS
100
AcDbLine
 10
444.1636962890004
 20
17.98974609653169
 30
0.0
 11
441.2647705078003
 21
20.55908203393164
 31
0.0
  0
LINE
  5
7610
330
1E
100
AcDbEntity
  8
10
  6
CONTINUOUS
100
AcDbLine
 10
447.9742431640003
 20
32.97558594023167
 30
0.0
 11
445.7623291015003
 21
32.91601562773166
 31
0.0
  0
LINE
  5
7611
330
1E
100
AcDbEntity
  8
10
  6
CONTINUOUS
100
AcDbLine
 10
447.9742431640003
 20
29.39404297153169
 30
0.0
 11
447.9742431640003
 21
47.50000000273167
 31
0.0
  0
LINE
  5
7612
330
1E
100
AcDbEntity
  8
10
  6
CONTINUOUS
100
AcDbLine
 10
447.9742431640003
 20
47.50000000273167
 30
0.0
 11
458.9742431640003
 21
47.50000000273167
 31
0.0
  0
ARC
  5
7613
330
1E
100
AcDbEntity
  8
10
  6
CONTINUOUS
100
AcDbCircle
 10
516.9742431640004
 20
0.0000000027316673
 30
0.0
 40
74.99999999996744
100
AcDbArc
 50
156.9260823698781
 51
180.0
  0
DIMENSION
  5
7614
330
1E
100
AcDbEntity
  8
30
  6
CONTINUOUS
100
AcDbDimension
  2
*D14
 10
547.9742431640004
 20
308.1916511740463
 30
0.0
 11
564.679998582397
 21
308.1916511740463
 31
0.0
 70
   160
  1
31
  3
STANDARD
100
AcDbAlignedDimension
 13
578.9742431640004
 23
200.0935058621315
 33
0.0
 14
547.9742431640004
 24
280.0935058621315
 34
0.0
 50
180.0
100
AcDbRotatedDimension
  0
LINE
  5
7615
330
1E
100
AcDbEntity
  8
17
  6
CONTINOUS
100
AcDbLine
 10
533.9742431640003
 20
280.0000000027316
 30
0.0
 11
533.9742431640003
 21
200.0000000027315
 31
0.0
  0
LINE
  5
7616
330
1E
100
AcDbEntity
  8
17
  6
CONTINOUS
100
AcDbLine
 10
547.9742431640004
 20
280.0000000027316
 30
0.0
 11
547.9742431640004
 21
200.0000000027315
 31
0.0
  0
DIMENSION
  5
761A
330
1E
100
AcDbEntity
  8
30
  6
CONTINUOUS
100
AcDbDimension
  2
*D15
 10
533.9742431640003
 20
308.1916511740463
 30
0.0
 11
518.7442755448321
 21
308.1916511740463
 31
0.0
 70
   160
  1
14
  3
STANDARD
100
AcDbAlignedDimension
 13
547.9742431640004
 23
280.0935058621315
 33
0.0
 14
533.9742431640003
 24
280.0935058621315
 34
0.0
 50
180.0
100
AcDbRotatedDimension
  0
LINE
  5
761B
330
1E
100
AcDbEntity
  8
17
  6
DASHDOT
100
AcDbLine
 10
557.9742431640004
 20
225.0000000027315
 30
0.0
 11
523.9742431640004
 21
225.0000000027315
 31
0.0
  0
LINE
  5
761C
330
1E
100
AcDbEntity
  8
17
  6
DASHDOT
100
AcDbLine
 10
557.9742431640004
 20
233.0000000027315
 30
0.0
 11
523.9742431640004
 21
233.0000000027315
 31
0.0
  0
LINE
  5
761D
330
1E
100
AcDbEntity
  8
17
  6
DASHDOT
100
AcDbLine
 10
557.9742431640004
 20
265.0000000027316
 30
0.0
 11
523.9742431640004
 21
265.0000000027316
 31
0.0
  0
LINE
  5
761E
330
1E
100
AcDbEntity
  8
17
  6
CONTINOUS
100
AcDbLine
 10
547.9742431640004
 20
280.0000000027316
 30
0.0
 11
533.9742431640003
 21
280.0000000027316
 31
0.0
  0
LWPOLYLINE
  5
7730
330
1E
100
AcDbEntity
  8
17
  6
CONTINOUS
100
AcDbPolyline
 90
        4
 70
     1
 43
0.0
 10
-20.0
 20
450.1509476533528
 10
20.0
 20
450.1509476533528
 10
20.0
 20
436.1509476533528
 10
-20.0
 20
436.1509476533528
  0
LWPOLYLINE
  5
7731
330
1E
100
AcDbEntity
  8
10
  6
CONTINUOUS
100
AcDbPolyline
 90
        3
 70
     0
 43
0.0
 10
-39.0
 20
361.1509476533528
 10
-39.0
 20
344.1509476533529
 10
39.0
 20
344.1509476533529
  0
LWPOLYLINE
  5
7732
330
1E
100
AcDbEntity
  8
10
  6
CONTINUOUS
100
AcDbPolyline
 90
        4
 70
     0
 43
0.0
 10
-22.5
 20
344.1509476533529
 10
-22.5
 20
310.1509476533529
 10
22.5
 20
310.1509476533529
 10
22.5
 20
344.1509476533529
  0
LWPOLYLINE
  5
7733
330
1E
100
AcDbEntity
  8
10
  6
CONTINUOUS
100
AcDbPolyline
 90
        6
 70
     1
 43
0.0
 10
-51.0
 20
361.1509476533528
 10
104.9998168945297
 20
361.1509476533528
 10
104.9998168945297
 20
481.1509476533529
 10
-105.0
 20
481.1509476533529
 10
-105.0
 20
368.1509476533528
 10
-105.0
 20
361.1509476533528
  0
DIMENSION
  5
7735
330
1E
100
AcDbEntity
  8
30
  6
CONTINUOUS
100
AcDbDimension
  2
*D16
 10
-123.4999999999999
 20
361.1509476533528
 30
0.0
 11
-123.5
 21
427.1509476533529
 31
0.0
 70
   160
  3
STANDARD
100
AcDbAlignedDimension
 13
-105.0
 23
481.1509476533529
 33
0.0
 14
-105.0
 24
361.1509476533528
 34
0.0
 50
90.0
100
AcDbRotatedDimension
  0
LINE
  5
7736
330
1E
100
AcDbEntity
  8
10
  6
CONTINUOUS
100
AcDbLine
 10
-105.0
 20
368.1509476533528
 30
0.0
 11
-105.0
 21
368.1509476533528
 31
0.0
  0
LINE
  5
7737
330
1E
100
AcDbEntity
  8
10
  6
CONTINUOUS
100
AcDbLine
 10
-51.0
 20
361.1509476533528
 30
0.0
 11
-51.0
 21
361.1509476533528
 31
0.0
  0
LWPOLYLINE
  5
7738
330
1E
100
AcDbEntity
  8
17
  6
CONTINOUS
100
AcDbPolyline
 90
        4
 70
     1
 43
0.0
 10
-89.99993896484012
 20
450.1509476533528
 10
-49.9999389648401
 20
450.1509476533528
 10
-49.9999389648401
 20
436.1509476533528
 10
-89.99993896484012
 20
436.1509476533528
  0
LWPOLYLINE
  5
7739
330
1E
100
AcDbEntity
  8
17
  6
CONTINOUS
100
AcDbPolyline
 90
        2
 70
     0
 43
0.0
 10
-76.49993896484011
 20
450.1509476533528
 10
-76.49993896484011
 20
436.1509476533528
  0
LWPOLYLINE
  5
773A
330
1E
100
AcDbEntity
  8
17
  6
CONTINOUS
100
AcDbPolyline
 90
        2
 70
     0
 43
0.0
 10
-63.5
 20
450.1509476533528
 10
-63.5
 20
436.1509476533528
  0
LINE
  5
773B
330
1E
100
AcDbEntity
  8
10
  6
CONTINUOUS
100
AcDbLine
 10
39.0
 20
344.1509476533529
 30
0.0
 11
39.0
 21
361.1509476533528
 31
0.0
  0
LINE
  5
773C
330
1E
100
AcDbEntity
  8
10
  6
CONTINUOUS
100
AcDbLine
 10
39.0
 20
361.1509476533528
 30
0.0
 11
39.0
 21
361.1509476533528
 31
0.0
  0
LWPOLYLINE
  5
773D
330
1E
100
AcDbEntity
  8
17
  6
CONTINOUS
100
AcDbPolyline
 90
        2
 70
     0
 43
0.0
 10
-6.5
 20
450.1509476533528
 10
-6.5
 20
436.1509476533528
  0
LWPOLYLINE
  5
773E
330
1E
100
AcDbEntity
  8
17
  6
CONTINOUS
100
AcDbPolyline
 90
        2
 70
     0
 43
0.0
 10
6.5
 20
450.1509476533528
 10
6.5
 20
436.1509476533528
  0
LWPOLYLINE
  5
773F
330
1E
100
AcDbEntity
  8
17
  6
CONTINOUS
100
AcDbPolyline
 90
        4
 70
     1
 43
0.0
 10
50.0
 20
450.1509476533528
 10
90.0
 20
450.1509476533528
 10
90.0
 20
436.1509476533528
 10
50.0
 20
436.1509476533528
  0
LWPOLYLINE
  5
7740
330
1E
100
AcDbEntity
  8
17
  6
CONTINOUS
100
AcDbPolyline
 90
        2
 70
     0
 43
0.0
 10
63.5
 20
450.1509476533528
 10
63.5
 20
436.1509476533528
  0
LWPOLYLINE
  5
7741
330
1E
100
AcDbEntity
  8
17
  6
CONTINOUS
100
AcDbPolyline
 90
        2
 70
     0
 43
0.0
 10
76.5
 20
450.1509476533528
 10
76.5
 20
436.1509476533528
  0
DIMENSION
  5
780C
330
1E
100
AcDbEntity
  8
30
  6
CONTINUOUS
100
AcDbDimension
  2
*D17
 10
500.4155890606752
 20
-650.0
 30
0.0
 11
500.4155890606753
 21
-602.3986493862835
 31
0.0
 70
   160
  1
98
  3
STANDARD
100
AcDbAlignedDimension
 13
456.59375
 23
-552.0
 33
0.0
 14
456.59375
 24
-650.0
 34
0.0
 50
270.0
100
AcDbRotatedDimension
  0
LINE
  5
780D
330
1E
100
AcDbEntity
  8
18
100
AcDbLine
 10
320.0
 20
-771.0
 30
0.0
 11
530.0
 21
-771.0
 31
0.0
  0
LINE
  5
780E
330
1E
100
AcDbEntity
  8
18
100
AcDbLine
 10
320.0
 20
-401.0
 30
0.0
 11
530.0
 21
-401.0
 31
0.0
  0
LINE
  5
7810
330
1E
100
AcDbEntity
  8
18
100
AcDbLine
 10
320.0
 20
-771.0
 30
0.0
 11
320.0
 21
-401.0
 31
0.0
  0
DIMENSION
  5
7812
330
1E
100
AcDbEntity
  8
30
  6
CONTINUOUS
100
AcDbDimension
  2
*D18
 10
465.5
 20
-688.1294412440468
 30
0.0
 11
423.6209677419354
 21
-688.1294412440468
 31
0.0
 70
   160
  1
81
  3
STANDARD
100
AcDbAlignedDimension
 13
384.5
 23
-650.0935058594
 33
0.0
 14
465.5
 24
-650.0935058594
 34
0.0
100
AcDbRotatedDimension
  0
LINE
  5
7814
330
1E
100
AcDbEntity
  8
11
  6
CONTINUOUS
100
AcDbLine
 10
465.5
 20
-644.0
 30
0.0
 11
465.5
 21
-558.0
 31
0.0
  0
LINE
  5
7815
330
1E
100
AcDbEntity
  8
11
  6
CONTINUOUS
100
AcDbLine
 10
384.5
 20
-644.0
 30
0.0
 11
384.5
 21
-558.0
 31
0.0
  0
LINE
  5
7816
330
1E
100
AcDbEntity
  8
11
  6
CONTINUOUS
100
AcDbLine
 10
390.5
 20
-650.0
 30
0.0
 11
459.4999999999997
 21
-650.0
 31
0.0
  0
DIMENSION
  5
7817
330
1E
100
AcDbEntity
  8
30
  6
CONTINUOUS
100
AcDbDimension
  2
*D19
 10
390.4999999999999
 20
-643.9999999999997
 30
0.0
 11
346.6006233088763
 21
-661.5554580355408
 31
0.0
 70
   164
  1
R 6
  3
STANDARD
100
AcDbRadialDimension
 15
386.090820312499
 25
-648.0695800781013
 35
0.0
 40
0.0
  0
ARC
  5
7818
330
1E
100
AcDbEntity
  8
11
  6
CONTINUOUS
100
AcDbCircle
 10
390.5
 20
-644.0
 30
0.0
 40
6.0
100
AcDbArc
 50
180.0
 51
270.0
  0
ARC
  5
7819
330
1E
100
AcDbEntity
  8
11
  6
CONTINUOUS
100
AcDbCircle
 10
459.4999999999997
 20
-644.0
 30
0.0
 40
6.0
100
AcDbArc
 50
270.0
 51
0.0
  0
LINE
  5
781A
330
1E
100
AcDbEntity
  8
11
  6
CONTINUOUS
100
AcDbLine
 10
390.5
 20
-552.0
 30
0.0
 11
459.4999999999997
 21
-552.0
 31
0.0
  0
ARC
  5
781B
330
1E
100
AcDbEntity
  8
11
  6
CONTINUOUS
100
AcDbCircle
 10
390.5
 20
-558.0
 30
0.0
 40
6.0
100
AcDbArc
 50
90.0
 51
180.0
  0
ARC
  5
781C
330
1E
100
AcDbEntity
  8
11
  6
CONTINUOUS
100
AcDbCircle
 10
459.4999999999997
 20
-558.0
 30
0.0
 40
6.0
100
AcDbArc
 50
0.0
 51
90.0
  0
LINE
  5
781F
330
1E
100
AcDbEntity
  8
18
100
AcDbLine
 10
530.0
 20
-771.0
 30
0.0
 11
530.0
 21
-401.0
 31
0.0
  0
DIMENSION
  5
7954
330
1E
100
AcDbEntity
  8
30
  6
CONTINUOUS
100
AcDbDimension
  2
*D22
 10
35.0
 20
-805.9423648938416
 30
0.0
 11
0.0000000000000003
 21
-800.4423648938416
 31
0.0
 70
    32
  3
STANDARD
100
AcDbAlignedDimension
 13
-35.0
 23
-765.4997558593
 33
0.0
 14
35.0
 24
-765.4997558593
 34
0.0
100
AcDbRotatedDimension
  0
LWPOLYLINE
  5
7955
330
1E
100
AcDbEntity
  8
18
100
AcDbPolyline
 90
        4
 70
     1
 43
0.0
 10
-103.9997558594004
 20
-770.9997558592999
 10
-103.9997558594004
 20
-400.9997558592998
 10
106.0
 20
-400.9997558592998
 10
106.0
 20
-770.9997558592999
  0
DIMENSION
  5
795C
330
1E
100
AcDbEntity
  8
30
  6
CONTINUOUS
100
AcDbDimension
  2
*D20
 10
-200.0934457379698
 20
-601.0
 30
0.0
 11
-205.5934457379697
 21
-509.0
 31
0.0
 70
    32
  3
STANDARD
100
AcDbAlignedDimension
 13
-49.0
 23
-417.0
 33
0.0
 14
-165.0
 24
-601.0
 34
0.0
 50
90.0
100
AcDbRotatedDimension
  0
DIMENSION
  5
795F
330
1E
100
AcDbEntity
  8
30
  6
CONTINUOUS
100
AcDbDimension
  2
*D21
 10
-200.0934457379698
 20
-754.9997558592999
 30
0.0
 11
-205.5934457379696
 21
-677.99987792965
 31
0.0
 70
    32
  3
STANDARD
100
AcDbAlignedDimension
 13
-165.0
 23
-601.0
 33
0.0
 14
-49.0
 24
-754.9997558592999
 34
0.0
 50
90.0
100
AcDbRotatedDimension
  0
LINE
  5
7960
330
1E
100
AcDbEntity
  8
12
100
AcDbLine
 10
-34.0
 20
-739.9995117185998
 30
0.0
 11
-34.0
 21
-769.9997558593
 31
0.0
  0
LINE
  5
7962
330
1E
100
AcDbEntity
  8
12
100
AcDbLine
 10
-49.0
 20
-754.9997558592999
 30
0.0
 11
-19.0
 21
-754.9997558592999
 31
0.0
  0
CIRCLE
  5
7963
330
1E
100
AcDbEntity
  8
12
100
AcDbCircle
 10
-34.0
 20
-754.9997558592999
 30
0.0
 40
4.5
  0
LINE
  5
796D
330
1E
100
AcDbEntity
  8
12
100
AcDbLine
 10
-49.0
 20
-417.0
 30
0.0
 11
-19.0
 21
-417.0
 31
0.0
  0
LINE
  5
796E
330
1E
100
AcDbEntity
  8
12
100
AcDbLine
 10
-34.0
 20
-401.9997558592998
 30
0.0
 11
-34.0
 21
-432.0
 31
0.0
  0
CIRCLE
  5
796F
330
1E
100
AcDbEntity
  8
12
100
AcDbCircle
 10
-34.0
 20
-417.0
 30
0.0
 40
4.5
  0
LINE
  5
7970
330
1E
100
AcDbEntity
  8
12
100
AcDbLine
 10
36.0
 20
-739.9995117185998
 30
0.0
 11
36.0
 21
-769.9997558593
 31
0.0
  0
LINE
  5
7971
330
1E
100
AcDbEntity
  8
12
100
AcDbLine
 10
21.0
 20
-754.9997558592999
 30
0.0
 11
51.0
 21
-754.9997558592999
 31
0.0
  0
LEADER
  5
7972
330
1E
100
AcDbEntity
  8
30
  6
CONTINUOUS
100
AcDbLeader
  3
STANDARD
 76
     3
 10
38.99768925567889
 20
-749.9416939150058
 30
0.0
 10
48.75154943503186
 20
-725.7265809280353
 30
0.0
 10
79.52425257157767
 20
-725.7829347399749
 30
0.0
1001
ACAD
1000
DSTYLE
1002
{
1070
     5
1000
OPEN
1070
   342
1005
3B2
1002
}
  0
CIRCLE
  5
7973
330
1E
100
AcDbEntity
  8
12
100
AcDbCircle
 10
36.0
 20
-754.9997558592999
 30
0.0
 40
4.5
  0
TEXT
  5
7974
330
1E
100
AcDbEntity
  8
30
  6
CONTINUOUS
100
AcDbText
 10
60.7370430584465
 20
-725.447333067358
 30
0.0
 40
7.0
  1
%%C9
100
AcDbText
  0
LINE
  5
7978
330
1E
100
AcDbEntity
  8
12
100
AcDbLine
 10
36.0
 20
-401.9997558592998
 30
0.0
 11
36.0
 21
-432.0
 31
0.0
  0
LINE
  5
7979
330
1E
100
AcDbEntity
  8
12
100
AcDbLine
 10
36.0
 20
-401.9997558592998
 30
0.0
 11
36.0
 21
-432.0
 31
0.0
  0
CIRCLE
  5
797A
330
1E
100
AcDbEntity
  8
12
100
AcDbCircle
 10
36.0
 20
-417.0
 30
0.0
 40
4.5
  0
DIMENSION
  5
814C
330
1E
100
AcDbEntity
  8
30
  6
CONTINUOUS
100
AcDbDimension
  2
*D29
 10
163.9083652144976
 20
-169.9997558592999
 30
0.0
 11
158.4083652144976
 21
15.00024414070006
 31
0.0
 70
    32
  3
STANDARD
100
AcDbAlignedDimension
 13
105.0
 23
200.0002441407
 33
0.0
 14
105.0
 24
-169.9997558592999
 34
0.0
 50
90.0
100
AcDbRotatedDimension
  0
DIMENSION
  5
814D
330
1E
100
AcDbEntity
  8
30
  6
CONTINUOUS
100
AcDbDimension
  2
*D28
 10
144.8586198863917
 20
-170.0
 30
0.0
 11
139.3586198863917
 21
-84.99987792964997
 31
0.0
 70
    32
  3
STANDARD
100
AcDbAlignedDimension
 13
105.0
 23
0.0002441407000333
 33
0.0
 14
105.0
 24
-170.0
 34
0.0
 50
90.0
100
AcDbRotatedDimension
  0
DIMENSION
  5
814E
330
1E
100
AcDbEntity
  8
30
  6
CONTINUOUS
100
AcDbDimension
  2
*D26
 10
144.8586198863918
 20
200.0002441407
 30
0.0
 11
139.3586198863917
 21
240.00012207035
 31
0.0
 70
    32
  3
STANDARD
100
AcDbAlignedDimension
 13
92.5
 23
280.0
 33
0.0
 14
106.0
 24
200.0002441407
 34
0.0
 50
90.0
100
AcDbRotatedDimension
  0
DIMENSION
  5
814F
330
1E
100
AcDbEntity
  8
30
  6
CONTINUOUS
100
AcDbDimension
  2
*D24
 10
121.1721146557078
 20
233.0
 30
0.0
 11
115.6721146557077
 21
249.0
 31
0.0
 70
    32
  3
STANDARD
100
AcDbAlignedDimension
 13
85.0
 23
265.0
 33
0.0
 14
86.0
 24
233.0
 34
0.0
 50
90.0
100
AcDbRotatedDimension
  0
DIMENSION
  5
8150
330
1E
100
AcDbEntity
  8
30
  6
CONTINUOUS
100
AcDbDimension
  2
*D25
 10
121.1721146557078
 20
200.0002441407
 30
0.0
 11
115.6721146557077
 21
212.50012207035
 31
0.0
 70
    32
  3
STANDARD
100
AcDbAlignedDimension
 13
85.0
 23
225.0
 33
0.0
 14
105.0
 24
200.0002441407
 34
0.0
 50
90.0
100
AcDbRotatedDimension
  0
DIMENSION
  5
8151
330
1E
100
AcDbEntity
  8
30
  6
CONTINUOUS
100
AcDbDimension
  2
*D27
 10
144.8586198863917
 20
0.000244140700022
 30
0.0
 11
139.3586198863916
 21
100.0002441407
 31
0.0
 70
    32
  3
STANDARD
100
AcDbAlignedDimension
 13
106.0
 23
200.0002441407
 33
0.0
 14
105.0
 24
0.0002441407000333
 34
0.0
 50
90.0
100
AcDbRotatedDimension
  0
DIMENSION
  5
8152
330
1E
100
AcDbEntity
  8
30
  6
CONTINUOUS
100
AcDbDimension
  2
*D23
 10
121.1721146557078
 20
265.0
 30
0.0
 11
115.6721146557077
 21
272.5
 31
0.0
 70
    32
  3
STANDARD
100
AcDbAlignedDimension
 13
92.5
 23
280.0
 33
0.0
 14
85.0
 24
265.0
 34
0.0
 50
90.0
100
AcDbRotatedDimension
  0
LWPOLYLINE
  5
825B
330
1E
100
AcDbEntity
  8
10
  6
CONTINUOUS
100
AcDbPolyline
 90
       16
 70
     1
 43
0.0
 10
47.5001220703201
 20
-169.9997558592999
 10
22.5001220703201
 20
-169.9997558592999
 10
-22.49981689452987
 20
-169.9997558592999
 10
-47.49981689452988
 20
-169.9997558592999
 10
-92.49981689452987
 20
-169.9997558592999
 10
-104.9998168945297
 20
-169.9997558592999
 10
-104.9998168945297
 20
200.0002441407
 10
-92.49981689452987
 20
200.0002441407
 10
-47.49981689452988
 20
200.0002441407
 10
-22.49981689452987
 20
200.0002441407
 10
22.5001220703201
 20
200.0002441407
 10
47.5001220703201
 20
200.0002441407
 10
92.5
 20
200.0002441407
 10
105.0
 20
200.0002441407
 10
105.0
 20
-169.9997558592999
 10
92.5
 20
-169.9997558592999
  0
LWPOLYLINE
  5
825D
330
1E
100
AcDbEntity
  8
10
  6
CONTINUOUS
100
AcDbPolyline
 90
        4
 70
     1
 43
0.0
 10
39.0
 20
-47.49999999999999
 10
39.0
 20
47.5
 10
-39.0
 20
47.5
 10
-39.0
 20
-47.49999999999999
  0
LWPOLYLINE
  5
8261
330
1E
100
AcDbEntity
  8
10
  6
CONTINUOUS
100
AcDbPolyline
 90
        4
 70
     1
 43
0.0
 10
22.5
 20
-22.99999999999998
 10
-22.5
 20
-22.99999999999998
 10
-22.5
 20
32.00000000000001
 10
22.5
 20
32.00000000000001
  0
DIMENSION
  5
82C8
330
1E
100
AcDbEntity
  8
30
  6
CONTINUOUS
100
AcDbDimension
  2
*D30
 10
121.1721146557078
 20
225.0
 30
0.0
 11
115.709149735454
 21
229.0
 31
0.0
 70
   160
  3
STANDARD
100
AcDbAlignedDimension
 13
87.0
 23
233.0
 33
0.0
 14
85.0
 24
225.0
 34
0.0
 50
90.0
100
AcDbRotatedDimension
1001
ACAD
1000
DSTYLE
1002
{
1070
   287
1070
     5
1070
    74
1070
     0
1070
   279
1070
     2
1002
}
  0
DIMENSION
  5
82D5
330
1E
100
AcDbEntity
  8
30
  6
CONTINUOUS
100
AcDbDimension
  2
*D31
 10
65.47733109712426
 20
265.0094188520437
 30
0.0
 11
113.6666666666666
 21
301.6779803001734
 31
0.0
 70
   163
  3
STANDARD
100
AcDbDiametricDimension
 15
74.52266890287545
 25
274.346541748303
 35
0.0
 40
0.0
  0
LWPOLYLINE
  5
8398
330
1E
100
AcDbEntity
  8
10
  6
CONTINUOUS
100
AcDbPolyline
 90
        8
 70
     1
 43
0.0
 10
578.9742431640004
 20
-169.9999999972683
 10
466.9742431640004
 20
-169.9999999972683
 10
466.9742431640004
 20
-139.9999999972683
 10
458.9742431640003
 20
-139.9999999972683
 10
458.9742431640003
 20
170.0000000027315
 10
466.9742431640004
 20
170.0000000027315
 10
466.9742431640004
 20
200.0000000027315
 10
578.9742431640004
 20
200.0000000027315
  0
MTEXT
  5
8653
330
1E
100
AcDbEntity
  8
19
  6
CONTINUOUS
100
AcDbMText
 10
354.5333010440343
 20
459.1861641448089
 30
0.0
 40
7.0
 41
94.0
 71
     1
 72
     5
  1
XS1000NE 3P FC\PXS1200NE 3P FC\PXH1000NE 3P FC\PXH1200NE 3P FC\P \P \P 
  7
STANDARD1
1001
ACAD
1000
MTEXTBEGIN
1070
    73
1070
     1
1070
    44
1040
1.0
1070
    74
1070
     0
1000
MTEXTEND
  0
LINE
  5
86DD
330
1E
100
AcDbEntity
  8
12
100
AcDbLine
 10
21.0
 20
-417.0
 30
0.0
 11
51.0
 21
-417.0
 31
0.0
  0
VIEWPORT
  5
9AC
330
1A
100
AcDbEntity
 67
     1
  8
0
  6
CONTINUOUS
100
AcDbViewport
 10
171.9995348790992
 20
144.1384735538403
 30
0.0
 40
488.8676857773513
 41
292.3514905034161
 68
     1
 69
     1
1001
ACAD
1000
MVIEW
1002
{
1070
    16
1010
0.0
1020
0.0
1030
0.0
1010
0.0
1020
0.0
1030
1.0
1040
0.0
1040
292.3514905034161
1040
171.9995348790992
1040
144.1384735538403
1040
50.0
1040
0.0
1040
0.0
1070
     0
1070
   100
1070
     1
1070
     1
1070
     0
1070
     0
1070
     0
1070
     0
1040
0.0
1040
0.0
1040
0.0
1040
10.0
1040
10.0
1040
10.0
1040
10.0
1070
     0
1002
{
1002
}
1002
}
  0
ENDSEC
  0
SECTION
  2
OBJECTS
  0
DICTIONARY
  5
C
330
0
100
AcDbDictionary
  3
ACAD_GROUP
350
D
  3
ACAD_LAYOUT
350
19
  3
ACAD_MLINESTYLE
350
16
  3
ACAD_PLOTSETTINGS
350
18
  3
ACAD_PLOTSTYLENAME
350
E
  3
ACDBHEADERROUNDTRIPXREC
350
887E
  3
ACDBVARIABLEDICTIONARY
350
6C1E
  0
DICTIONARY
  5
178
330
1E
100
AcDbDictionary
280
     1
  3
ACAD_LAYOUTSELFREF
360
88A0
  0
DICTIONARY
  5
17A
330
1A
100
AcDbDictionary
280
     1
  3
ACAD_LAYOUTSELFREF
360
889F
  0
DICTIONARY
  5
D
102
{ACAD_REACTORS
330
C
102
}
330
C
100
AcDbDictionary
  0
DICTIONARY
  5
19
102
{ACAD_REACTORS
330
C
102
}
330
C
100
AcDbDictionary
  0
DICTIONARY
  5
16
102
{ACAD_REACTORS
330
C
102
}
330
C
100
AcDbDictionary
  3
STANDARD
350
17
  0
DICTIONARY
  5
18
102
{ACAD_REACTORS
330
C
102
}
330
C
100
AcDbDictionary
  0
ACDBDICTIONARYWDFLT
  5
E
102
{ACAD_REACTORS
330
C
102
}
330
C
100
AcDbDictionary
281
     1
  3
Normal
350
F
100
AcDbDictionaryWithDefault
340
F
  0
DICTIONARY
  5
887E
102
{ACAD_REACTORS
330
C
102
}
330
C
100
AcDbDictionary
  3
CEPSNTYPE
350
8888
  3
DIMSTYLEDATA
350
888C
  3
FINGERPRINTGUID
350
8889
  3
HYPERLINKBASE
350
8881
  3
INSUNITS
350
8887
  3
LAYOUTDICT
350
8883
  3
LWETCUNION
350
8886
  3
PLOTSETDICT
350
8884
  3
PLOTSTYLNAMDICT
350
8885
  3
PSVPSCALE
350
888B
  3
PUCSBASE
350
888F
  3
PUCSORGBACK
350
8895
  3
PUCSORGBOTTOM
350
8891
  3
PUCSORGFRONT
350
8894
  3
PUCSORGLEFT
350
8892
  3
PUCSORGRIGHT
350
8893
  3
PUCSORGTOP
350
8890
  3
PUCSORTHOREF
350
888D
  3
PUCSORTHOVIEW
350
888E
  3
STYLESHEET
350
8882
  3
TSTACKALIGN
350
887F
  3
TSTACKSIZE
350
8880
  3
UCSBASE
350
8898
  3
UCSORGBACK
350
889E
  3
UCSORGBOTTOM
350
889A
  3
UCSORGFRONT
350
889D
  3
UCSORGLEFT
350
889B
  3
UCSORGRIGHT
350
889C
  3
UCSORGTOP
350
8899
  3
UCSORTHOREF
350
8896
  3
UCSORTHOVIEW
350
8897
  3
VERSIONGUID
350
888A
  0
DICTIONARY
  5
6C1E
102
{ACAD_REACTORS
330
C
102
}
330
C
100
AcDbDictionary
  3
DIMASSOC
350
70D7
  3
SORTENTS
350
6C1F
  0
XRECORD
  5
88A0
102
{ACAD_REACTORS
330
178
102
}
330
178
100
AcDbXrecord
340
1E
  0
XRECORD
  5
889F
102
{ACAD_REACTORS
330
17A
102
}
330
17A
100
AcDbXrecord
340
1A
  0
MLINESTYLE
  5
17
102
{ACAD_REACTORS
330
16
102
}
330
16
100
AcDbMlineStyle
  2
STANDARD
 70
     0
  3

 62
   256
 51
90.0
 52
90.0
 71
     2
 49
0.5
 62
   256
  6
BYLAYER
 49
-0.5
 62
   256
  6
BYLAYER
  0
ACDBPLACEHOLDER
  5
F
102
{ACAD_REACTORS
330
E
102
}
330
E
100
AcDbPlaceHolder
280
     0
  0
XRECORD
  5
8888
102
{ACAD_REACTORS
330
887E
102
}
330
887E
100
AcDbXrecord
 90
        0
  0
XRECORD
  5
888C
102
{ACAD_REACTORS
330
887E
102
}
330
887E
100
AcDbXrecord
1000
DSTYLE
1002
{
1070
   341
340
3B2
1070
   342
340
3B2
1002
}
  0
XRECORD
  5
8889
102
{ACAD_REACTORS
330
887E
102
}
330
887E
100
AcDbXrecord
  1

  0
XRECORD
  5
8881
102
{ACAD_REACTORS
330
887E
102
}
330
887E
100
AcDbXrecord
  1

  0
XRECORD
  5
8887
102
{ACAD_REACTORS
330
887E
102
}
330
887E
100
AcDbXrecord
 90
        0
  0
XRECORD
  5
8883
102
{ACAD_REACTORS
330
887E
102
}
330
887E
100
AcDbXrecord
340
19
  0
XRECORD
  5
8886
102
{ACAD_REACTORS
330
887E
102
}
330
887E
100
AcDbXrecord
 90
    10781
  0
XRECORD
  5
8884
102
{ACAD_REACTORS
330
887E
102
}
330
887E
100
AcDbXrecord
340
18
  0
XRECORD
  5
8885
102
{ACAD_REACTORS
330
887E
102
}
330
887E
100
AcDbXrecord
340
E
  0
XRECORD
  5
888B
102
{ACAD_REACTORS
330
887E
102
}
330
887E
100
AcDbXrecord
 40
0.0
  0
XRECORD
  5
888F
102
{ACAD_REACTORS
330
887E
102
}
330
887E
100
AcDbXrecord
340
0
  0
XRECORD
  5
8895
102
{ACAD_REACTORS
330
887E
102
}
330
887E
100
AcDbXrecord
 10
0.0
 20
0.0
 30
0.0
  0
XRECORD
  5
8891
102
{ACAD_REACTORS
330
887E
102
}
330
887E
100
AcDbXrecord
 10
0.0
 20
0.0
 30
0.0
  0
XRECORD
  5
8894
102
{ACAD_REACTORS
330
887E
102
}
330
887E
100
AcDbXrecord
 10
0.0
 20
0.0
 30
0.0
  0
XRECORD
  5
8892
102
{ACAD_REACTORS
330
887E
102
}
330
887E
100
AcDbXrecord
 10
0.0
 20
0.0
 30
0.0
  0
XRECORD
  5
8893
102
{ACAD_REACTORS
330
887E
102
}
330
887E
100
AcDbXrecord
 10
0.0
 20
0.0
 30
0.0
  0
XRECORD
  5
8890
102
{ACAD_REACTORS
330
887E
102
}
330
887E
100
AcDbXrecord
 10
0.0
 20
0.0
 30
0.0
  0
XRECORD
  5
888D
102
{ACAD_REACTORS
330
887E
102
}
330
887E
100
AcDbXrecord
340
0
  0
XRECORD
  5
888E
102
{ACAD_REACTORS
330
887E
102
}
330
887E
100
AcDbXrecord
 70
     0
  0
XRECORD
  5
8882
102
{ACAD_REACTORS
330
887E
102
}
330
887E
100
AcDbXrecord
  1
kiki.ctb
  0
XRECORD
  5
887F
102
{ACAD_REACTORS
330
887E
102
}
330
887E
100
AcDbXrecord
 90
        1
  0
XRECORD
  5
8880
102
{ACAD_REACTORS
330
887E
102
}
330
887E
100
AcDbXrecord
 90
       70
  0
XRECORD
  5
8898
102
{ACAD_REACTORS
330
887E
102
}
330
887E
100
AcDbXrecord
340
0
  0
XRECORD
  5
889E
102
{ACAD_REACTORS
330
887E
102
}
330
887E
100
AcDbXrecord
 10
0.0
 20
0.0
 30
0.0
  0
XRECORD
  5
889A
102
{ACAD_REACTORS
330
887E
102
}
330
887E
100
AcDbXrecord
 10
0.0
 20
0.0
 30
0.0
  0
XRECORD
  5
889D
102
{ACAD_REACTORS
330
887E
102
}
330
887E
100
AcDbXrecord
 10
0.0
 20
0.0
 30
0.0
  0
XRECORD
  5
889B
102
{ACAD_REACTORS
330
887E
102
}
330
887E
100
AcDbXrecord
 10
0.0
 20
0.0
 30
0.0
  0
XRECORD
  5
889C
102
{ACAD_REACTORS
330
887E
102
}
330
887E
100
AcDbXrecord
 10
0.0
 20
0.0
 30
0.0
  0
XRECORD
  5
8899
102
{ACAD_REACTORS
330
887E
102
}
330
887E
100
AcDbXrecord
 10
0.0
 20
0.0
 30
0.0
  0
XRECORD
  5
8896
102
{ACAD_REACTORS
330
887E
102
}
330
887E
100
AcDbXrecord
340
0
  0
XRECORD
  5
8897
102
{ACAD_REACTORS
330
887E
102
}
330
887E
100
AcDbXrecord
 70
     0
  0
XRECORD
  5
888A
102
{ACAD_REACTORS
330
887E
102
}
330
887E
100
AcDbXrecord
  1
{D2B5EDF5-F960-4551-AA8F-DBABBD453980}
  0
DICTIONARYVAR
  5
70D7
102
{ACAD_REACTORS
330
6C1E
102
}
330
6C1E
100
DictionaryVariables
280
     0
  1
1
  0
DICTIONARYVAR
  5
6C1F
102
{ACAD_REACTORS
330
6C1E
102
}
330
6C1E
100
DictionaryVariables
280
     0
  1
96
  0
ENDSEC
  0
EOF
