  0
SECTION
  2
HEADER
  9
$ACADVER
  1
AC1015
  9
$ACADMAINTVER
 70
    10
  9
$DWGCODEPAGE
  3
ANSI_932
  9
$INSBASE
 10
0.0
 20
0.0
 30
0.0
  9
$EXTMIN
 10
-56.61646818818462
 20
-320.7256946013778
 30
-0.0000000349181948
  9
$EXTMAX
 10
243.5039323760569
 20
226.0786726112507
 30
0.0000000814935746
  9
$LIMMIN
 10
-73.36291800000002
 20
-328.1505989999998
  9
$LIMMAX
 10
266.103609
 20
223.0601529999999
  9
$ORTHOMODE
 70
     1
  9
$REGENMODE
 70
     1
  9
$FILLMODE
 70
     1
  9
$QTEXTMODE
 70
     0
  9
$MIRRTEXT
 70
     1
  9
$LTSCALE
 40
10.0
  9
$ATTMODE
 70
     1
  9
$TEXTSIZE
 40
4.0
  9
$TRACEWID
 40
0.05
  9
$TEXTSTYLE
  7
STANDARD1
  9
$CLAYER
  8
0
  9
$CELTYPE
  6
CONTINUOUS
  9
$CECOLOR
 62
   256
  9
$CELTSCALE
 40
1.0
  9
$DISPSILH
 70
     0
  9
$DIMSCALE
 40
1.0
  9
$DIMASZ
 40
2.0
  9
$DIMEXO
 40
1.0
  9
$DIMDLI
 40
0.5
  9
$DIMRND
 40
0.0
  9
$DIMDLE
 40
0.0
  9
$DIMEXE
 40
0.5
  9
$DIMTP
 40
0.0
  9
$DIMTM
 40
0.0
  9
$DIMTXT
 40
4.0
  9
$DIMCEN
 40
0.09
  9
$DIMTSZ
 40
0.0
  9
$DIMTOL
 70
     0
  9
$DIMLIM
 70
     0
  9
$DIMTIH
 70
     0
  9
$DIMTOH
 70
     1
  9
$DIMSE1
 70
     0
  9
$DIMSE2
 70
     0
  9
$DIMTAD
 70
     3
  9
$DIMZIN
 70
    12
  9
$DIMBLK
  1
OPEN
  9
$DIMASO
 70
     1
  9
$DIMSHO
 70
     1
  9
$DIMPOST
  1

  9
$DIMAPOST
  1

  9
$DIMALT
 70
     0
  9
$DIMALTD
 70
     2
  9
$DIMALTF
 40
25.4
  9
$DIMLFAC
 40
1.0
  9
$DIMTOFL
 70
     0
  9
$DIMTVP
 40
0.0
  9
$DIMTIX
 70
     0
  9
$DIMSOXD
 70
     0
  9
$DIMSAH
 70
     0
  9
$DIMBLK1
  1

  9
$DIMBLK2
  1

  9
$DIMSTYLE
  2
STANDARD
  9
$DIMCLRD
 70
     0
  9
$DIMCLRE
 70
     0
  9
$DIMCLRT
 70
     0
  9
$DIMTFAC
 40
1.0
  9
$DIMGAP
 40
1.0
  9
$DIMJUST
 70
     0
  9
$DIMSD1
 70
     0
  9
$DIMSD2
 70
     0
  9
$DIMTOLJ
 70
     1
  9
$DIMTZIN
 70
     0
  9
$DIMALTZ
 70
     0
  9
$DIMALTTZ
 70
     0
  9
$DIMUPT
 70
     0
  9
$DIMDEC
 70
     1
  9
$DIMTDEC
 70
     1
  9
$DIMALTU
 70
     2
  9
$DIMALTTD
 70
     2
  9
$DIMTXSTY
  7
STANDARD
  9
$DIMAUNIT
 70
     0
  9
$DIMADEC
 70
     0
  9
$DIMALTRND
 40
0.0
  9
$DIMAZIN
 70
     3
  9
$DIMDSEP
 70
    46
  9
$DIMATFIT
 70
     3
  9
$DIMFRAC
 70
     0
  9
$DIMLDRBLK
  1
OPEN
  9
$DIMLUNIT
 70
     2
  9
$DIMLWD
 70
    -2
  9
$DIMLWE
 70
    -2
  9
$DIMTMOVE
 70
     0
  9
$LUNITS
 70
     2
  9
$LUPREC
 70
     4
  9
$SKETCHINC
 40
0.1
  9
$FILLETRAD
 40
1.0
  9
$AUNITS
 70
     0
  9
$AUPREC
 70
     0
  9
$MENU
  1
.
  9
$ELEVATION
 40
0.0
  9
$PELEVATION
 40
0.0
  9
$THICKNESS
 40
0.0
  9
$LIMCHECK
 70
     0
  9
$CHAMFERA
 40
0.0
  9
$CHAMFERB
 40
0.0
  9
$CHAMFERC
 40
0.0
  9
$CHAMFERD
 40
0.0
  9
$SKPOLY
 70
     0
  9
$TDCREATE
 40
2452286.555658657
  9
$TDUCREATE
 40
2452286.180658657
  9
$TDUPDATE
 40
2454854.563079965
  9
$TDUUPDATE
 40
2454854.188079965
  9
$TDINDWG
 40
1.4278650694
  9
$TDUSRTIMER
 40
1.4278636227
  9
$USRTIMER
 70
     1
  9
$ANGBASE
 50
0.0
  9
$ANGDIR
 70
     0
  9
$PDMODE
 70
     0
  9
$PDSIZE
 40
0.0
  9
$PLINEWID
 40
0.0
  9
$SPLFRAME
 70
     0
  9
$SPLINETYPE
 70
     6
  9
$SPLINESEGS
 70
     8
  9
$HANDSEED
  5
4F93
  9
$SURFTAB1
 70
     6
  9
$SURFTAB2
 70
     6
  9
$SURFTYPE
 70
     6
  9
$SURFU
 70
     6
  9
$SURFV
 70
     6
  9
$UCSBASE
  2

  9
$UCSNAME
  2

  9
$UCSORG
 10
0.0
 20
0.0
 30
0.0
  9
$UCSXDIR
 10
1.0
 20
0.0
 30
0.0
  9
$UCSYDIR
 10
0.0
 20
1.0
 30
0.0
  9
$UCSORTHOREF
  2

  9
$UCSORTHOVIEW
 70
     0
  9
$UCSORGTOP
 10
0.0
 20
0.0
 30
0.0
  9
$UCSORGBOTTOM
 10
0.0
 20
0.0
 30
0.0
  9
$UCSORGLEFT
 10
0.0
 20
0.0
 30
0.0
  9
$UCSORGRIGHT
 10
0.0
 20
0.0
 30
0.0
  9
$UCSORGFRONT
 10
0.0
 20
0.0
 30
0.0
  9
$UCSORGBACK
 10
0.0
 20
0.0
 30
0.0
  9
$PUCSBASE
  2

  9
$PUCSNAME
  2

  9
$PUCSORG
 10
0.0
 20
0.0
 30
0.0
  9
$PUCSXDIR
 10
1.0
 20
0.0
 30
0.0
  9
$PUCSYDIR
 10
0.0
 20
1.0
 30
0.0
  9
$PUCSORTHOREF
  2

  9
$PUCSORTHOVIEW
 70
     0
  9
$PUCSORGTOP
 10
0.0
 20
0.0
 30
0.0
  9
$PUCSORGBOTTOM
 10
0.0
 20
0.0
 30
0.0
  9
$PUCSORGLEFT
 10
0.0
 20
0.0
 30
0.0
  9
$PUCSORGRIGHT
 10
0.0
 20
0.0
 30
0.0
  9
$PUCSORGFRONT
 10
0.0
 20
0.0
 30
0.0
  9
$PUCSORGBACK
 10
0.0
 20
0.0
 30
0.0
  9
$USERI1
 70
     0
  9
$USERI2
 70
     0
  9
$USERI3
 70
     0
  9
$USERI4
 70
     0
  9
$USERI5
 70
     0
  9
$USERR1
 40
0.0
  9
$USERR2
 40
0.0
  9
$USERR3
 40
0.0
  9
$USERR4
 40
0.0
  9
$USERR5
 40
0.0
  9
$WORLDVIEW
 70
     1
  9
$SHADEDGE
 70
     3
  9
$SHADEDIF
 70
    70
  9
$TILEMODE
 70
     1
  9
$MAXACTVP
 70
    48
  9
$PINSBASE
 10
0.0
 20
0.0
 30
0.0
  9
$PLIMCHECK
 70
     0
  9
$PEXTMIN
 10
4.273573
 20
5.205245999999998
 30
0.0
  9
$PEXTMAX
 10
194.610095
 20
283.0697009999998
 30
0.0
  9
$PLIMMIN
 10
-5.873749
 20
-5.87375
  9
$PLIMMAX
 10
204.099579
 20
291.1369009999999
  9
$UNITMODE
 70
     0
  9
$VISRETAIN
 70
     1
  9
$PLINEGEN
 70
     0
  9
$PSLTSCALE
 70
     1
  9
$TREEDEPTH
 70
  3020
  9
$CMLSTYLE
  2
STANDARD
  9
$CMLJUST
 70
     0
  9
$CMLSCALE
 40
1.0
  9
$PROXYGRAPHICS
 70
     1
  9
$MEASUREMENT
 70
     0
  9
$CELWEIGHT
370
    -1
  9
$ENDCAPS
280
     0
  9
$JOINSTYLE
280
     0
  9
$LWDISPLAY
290
     0
  9
$INSUNITS
 70
     0
  9
$HYPERLINKBASE
  1

  9
$STYLESHEET
  1
KIKI.CTB
  9
$XEDIT
290
     1
  9
$CEPSNTYPE
380
     0
  9
$PSTYLEMODE
290
     1
  9
$FINGERPRINTGUID
  2

  9
$VERSIONGUID
  2
{4626E93B-9F38-4B9A-A6B0-558E52BF000F}
  9
$EXTNAMES
290
     1
  9
$PSVPSCALE
 40
0.0
  9
$OLESTARTUP
290
     0
  0
ENDSEC
  0
SECTION
  2
CLASSES
  0
CLASS
  1
ACDBDICTIONARYWDFLT
  2
AcDbDictionaryWithDefault
  3
AutoCAD 2000
 90
        0
280
     0
281
     0
  0
CLASS
  1
ACDBPLACEHOLDER
  2
AcDbPlaceHolder
  3
AutoCAD 2000
 90
        0
280
     0
281
     0
  0
CLASS
  1
LAYOUT
  2
AcDbLayout
  3
AutoCAD 2000
 90
        0
280
     0
281
     0
  0
CLASS
  1
LONG_TRANSACTION
  2
AcDbLongTransaction
  3
AutoCAD 2000
 90
    32768
280
     0
281
     0
  0
CLASS
  1
LWPOLYLINE
  2
AcDbPolyline
  3
AutoCAD 2000
 90
    32768
280
     0
281
     1
  0
CLASS
  1
HATCH
  2
AcDbHatch
  3
AutoCAD 2000
 90
    32768
280
     0
281
     1
  0
CLASS
  1
XRECORD
  2
AcDbXrecord
  3
AutoCAD 2000
 90
    32768
280
     0
281
     0
  0
CLASS
  1
LONG_TRANSACTION
  2
AcDbLongTransaction
  3
AutoCAD 2000
 90
    32768
280
     0
281
     0
  0
CLASS
  1
LWPOLYLINE
  2
AcDbPolyline
  3
AutoCAD 2000
 90
    32768
280
     0
281
     1
  0
CLASS
  1
HATCH
  2
AcDbHatch
  3
AutoCAD 2000
 90
    32768
280
     0
281
     1
  0
CLASS
  1
XRECORD
  2
AcDbXrecord
  3
AutoCAD 2000
 90
    32768
280
     0
281
     0
  0
CLASS
  1
LONG_TRANSACTION
  2
AcDbLongTransaction
  3
AutoCAD 2000
 90
    32768
280
     0
281
     0
  0
CLASS
  1
LWPOLYLINE
  2
AcDbPolyline
  3
AutoCAD 2000
 90
    32768
280
     0
281
     1
  0
CLASS
  1
HATCH
  2
AcDbHatch
  3
AutoCAD 2000
 90
    32768
280
     0
281
     1
  0
CLASS
  1
XRECORD
  2
AcDbXrecord
  3
AutoCAD 2000
 90
    32768
280
     0
281
     0
  0
CLASS
  1
LONG_TRANSACTION
  2
AcDbLongTransaction
  3
AutoCAD 2000
 90
    32768
280
     0
281
     0
  0
CLASS
  1
LWPOLYLINE
  2
AcDbPolyline
  3
AutoCAD 2000
 90
    32768
280
     0
281
     1
  0
CLASS
  1
HATCH
  2
AcDbHatch
  3
AutoCAD 2000
 90
    32768
280
     0
281
     1
  0
CLASS
  1
XRECORD
  2
AcDbXrecord
  3
AutoCAD 2000
 90
    32768
280
     0
281
     0
  0
CLASS
  1
LONG_TRANSACTION
  2
AcDbLongTransaction
  3
AutoCAD 2000
 90
    32768
280
     0
281
     0
  0
CLASS
  1
LWPOLYLINE
  2
AcDbPolyline
  3
AutoCAD 2000
 90
    32768
280
     0
281
     1
  0
CLASS
  1
HATCH
  2
AcDbHatch
  3
AutoCAD 2000
 90
    32768
280
     0
281
     1
  0
CLASS
  1
XRECORD
  2
AcDbXrecord
  3
AutoCAD 2000
 90
    32768
280
     0
281
     0
  0
CLASS
  1
LONG_TRANSACTION
  2
AcDbLongTransaction
  3
AutoCAD 2000
 90
    32768
280
     0
281
     0
  0
CLASS
  1
LWPOLYLINE
  2
AcDbPolyline
  3
AutoCAD 2000
 90
    32768
280
     0
281
     1
  0
CLASS
  1
HATCH
  2
AcDbHatch
  3
AutoCAD 2000
 90
    32768
280
     0
281
     1
  0
CLASS
  1
XRECORD
  2
AcDbXrecord
  3
AutoCAD 2000
 90
    32768
280
     0
281
     0
  0
CLASS
  1
LONG_TRANSACTION
  2
AcDbLongTransaction
  3
AutoCAD 2000
 90
    32768
280
     0
281
     0
  0
CLASS
  1
LWPOLYLINE
  2
AcDbPolyline
  3
AutoCAD 2000
 90
    32768
280
     0
281
     1
  0
CLASS
  1
HATCH
  2
AcDbHatch
  3
AutoCAD 2000
 90
    32768
280
     0
281
     1
  0
CLASS
  1
XRECORD
  2
AcDbXrecord
  3
AutoCAD 2000
 90
    32768
280
     0
281
     0
  0
CLASS
  1
LONG_TRANSACTION
  2
AcDbLongTransaction
  3
AutoCAD 2000
 90
    32768
280
     0
281
     0
  0
CLASS
  1
LWPOLYLINE
  2
AcDbPolyline
  3
AutoCAD 2000
 90
    32768
280
     0
281
     1
  0
CLASS
  1
HATCH
  2
AcDbHatch
  3
AutoCAD 2000
 90
    32768
280
     0
281
     1
  0
CLASS
  1
XRECORD
  2
AcDbXrecord
  3
AutoCAD 2000
 90
    32768
280
     0
281
     0
  0
CLASS
  1
LONG_TRANSACTION
  2
AcDbLongTransaction
  3
AutoCAD 2000
 90
    32768
280
     0
281
     0
  0
CLASS
  1
LWPOLYLINE
  2
AcDbPolyline
  3
AutoCAD 2000
 90
    32768
280
     0
281
     1
  0
CLASS
  1
HATCH
  2
AcDbHatch
  3
AutoCAD 2000
 90
    32768
280
     0
281
     1
  0
CLASS
  1
XRECORD
  2
AcDbXrecord
  3
AutoCAD 2000
 90
    32768
280
     0
281
     0
  0
CLASS
  1
LONG_TRANSACTION
  2
AcDbLongTransaction
  3
AutoCAD 2000
 90
    32768
280
     0
281
     0
  0
CLASS
  1
LWPOLYLINE
  2
AcDbPolyline
  3
AutoCAD 2000
 90
    32768
280
     0
281
     1
  0
CLASS
  1
HATCH
  2
AcDbHatch
  3
AutoCAD 2000
 90
    32768
280
     0
281
     1
  0
CLASS
  1
XRECORD
  2
AcDbXrecord
  3
AutoCAD 2000
 90
    32768
280
     0
281
     0
  0
CLASS
  1
LONG_TRANSACTION
  2
AcDbLongTransaction
  3
AutoCAD 2000
 90
    32768
280
     0
281
     0
  0
CLASS
  1
LWPOLYLINE
  2
AcDbPolyline
  3
AutoCAD 2000
 90
    32768
280
     0
281
     1
  0
CLASS
  1
HATCH
  2
AcDbHatch
  3
AutoCAD 2000
 90
    32768
280
     0
281
     1
  0
CLASS
  1
XRECORD
  2
AcDbXrecord
  3
AutoCAD 2000
 90
    32768
280
     0
281
     0
  0
CLASS
  1
LONG_TRANSACTION
  2
AcDbLongTransaction
  3
AutoCAD 2000
 90
    32768
280
     0
281
     0
  0
CLASS
  1
LWPOLYLINE
  2
AcDbPolyline
  3
AutoCAD 2000
 90
    32768
280
     0
281
     1
  0
CLASS
  1
HATCH
  2
AcDbHatch
  3
AutoCAD 2000
 90
    32768
280
     0
281
     1
  0
CLASS
  1
XRECORD
  2
AcDbXrecord
  3
AutoCAD 2000
 90
    32768
280
     0
281
     0
  0
CLASS
  1
LONG_TRANSACTION
  2
AcDbLongTransaction
  3
AutoCAD 2000
 90
    32768
280
     0
281
     0
  0
CLASS
  1
LWPOLYLINE
  2
AcDbPolyline
  3
AutoCAD 2000
 90
    32768
280
     0
281
     1
  0
CLASS
  1
HATCH
  2
AcDbHatch
  3
AutoCAD 2000
 90
    32768
280
     0
281
     1
  0
CLASS
  1
XRECORD
  2
AcDbXrecord
  3
AutoCAD 2000
 90
    32768
280
     0
281
     0
  0
CLASS
  1
LONG_TRANSACTION
  2
AcDbLongTransaction
  3
AutoCAD 2000
 90
    32768
280
     0
281
     0
  0
CLASS
  1
LWPOLYLINE
  2
AcDbPolyline
  3
AutoCAD 2000
 90
    32768
280
     0
281
     1
  0
CLASS
  1
HATCH
  2
AcDbHatch
  3
AutoCAD 2000
 90
    32768
280
     0
281
     1
  0
CLASS
  1
XRECORD
  2
AcDbXrecord
  3
AutoCAD 2000
 90
    32768
280
     0
281
     0
  0
CLASS
  1
LONG_TRANSACTION
  2
AcDbLongTransaction
  3
AutoCAD 2000
 90
    32768
280
     0
281
     0
  0
CLASS
  1
LWPOLYLINE
  2
AcDbPolyline
  3
AutoCAD 2000
 90
    32768
280
     0
281
     1
  0
CLASS
  1
HATCH
  2
AcDbHatch
  3
AutoCAD 2000
 90
    32768
280
     0
281
     1
  0
CLASS
  1
XRECORD
  2
AcDbXrecord
  3
AutoCAD 2000
 90
    32768
280
     0
281
     0
  0
CLASS
  1
LONG_TRANSACTION
  2
AcDbLongTransaction
  3
AutoCAD 2000
 90
    32768
280
     0
281
     0
  0
CLASS
  1
LWPOLYLINE
  2
AcDbPolyline
  3
AutoCAD 2000
 90
    32768
280
     0
281
     1
  0
CLASS
  1
HATCH
  2
AcDbHatch
  3
AutoCAD 2000
 90
    32768
280
     0
281
     1
  0
CLASS
  1
XRECORD
  2
AcDbXrecord
  3
AutoCAD 2000
 90
    32768
280
     0
281
     0
  0
CLASS
  1
LONG_TRANSACTION
  2
AcDbLongTransaction
  3
AutoCAD 2000
 90
    32768
280
     0
281
     0
  0
CLASS
  1
LWPOLYLINE
  2
AcDbPolyline
  3
AutoCAD 2000
 90
    32768
280
     0
281
     1
  0
CLASS
  1
HATCH
  2
AcDbHatch
  3
AutoCAD 2000
 90
    32768
280
     0
281
     1
  0
CLASS
  1
XRECORD
  2
AcDbXrecord
  3
AutoCAD 2000
 90
    32768
280
     0
281
     0
  0
CLASS
  1
LONG_TRANSACTION
  2
AcDbLongTransaction
  3
AutoCAD 2000
 90
    32768
280
     0
281
     0
  0
CLASS
  1
LWPOLYLINE
  2
AcDbPolyline
  3
AutoCAD 2000
 90
    32768
280
     0
281
     1
  0
CLASS
  1
HATCH
  2
AcDbHatch
  3
AutoCAD 2000
 90
    32768
280
     0
281
     1
  0
CLASS
  1
XRECORD
  2
AcDbXrecord
  3
AutoCAD 2000
 90
    32768
280
     0
281
     0
  0
CLASS
  1
LONG_TRANSACTION
  2
AcDbLongTransaction
  3
AutoCAD 2000
 90
    32768
280
     0
281
     0
  0
CLASS
  1
LWPOLYLINE
  2
AcDbPolyline
  3
AutoCAD 2000
 90
    32768
280
     0
281
     1
  0
CLASS
  1
HATCH
  2
AcDbHatch
  3
AutoCAD 2000
 90
    32768
280
     0
281
     1
  0
CLASS
  1
XRECORD
  2
AcDbXrecord
  3
AutoCAD 2000
 90
    32768
280
     0
281
     0
  0
CLASS
  1
LONG_TRANSACTION
  2
AcDbLongTransaction
  3
AutoCAD 2000
 90
    32768
280
     0
281
     0
  0
CLASS
  1
LWPOLYLINE
  2
AcDbPolyline
  3
AutoCAD 2000
 90
    32768
280
     0
281
     1
  0
CLASS
  1
HATCH
  2
AcDbHatch
  3
AutoCAD 2000
 90
    32768
280
     0
281
     1
  0
CLASS
  1
XRECORD
  2
AcDbXrecord
  3
AutoCAD 2000
 90
    32768
280
     0
281
     0
  0
CLASS
  1
LONG_TRANSACTION
  2
AcDbLongTransaction
  3
AutoCAD 2000
 90
    32768
280
     0
281
     0
  0
CLASS
  1
LWPOLYLINE
  2
AcDbPolyline
  3
AutoCAD 2000
 90
    32768
280
     0
281
     1
  0
CLASS
  1
HATCH
  2
AcDbHatch
  3
AutoCAD 2000
 90
    32768
280
     0
281
     1
  0
CLASS
  1
XRECORD
  2
AcDbXrecord
  3
AutoCAD 2000
 90
    32768
280
     0
281
     0
  0
CLASS
  1
LONG_TRANSACTION
  2
AcDbLongTransaction
  3
AutoCAD 2000
 90
    32768
280
     0
281
     0
  0
CLASS
  1
LWPOLYLINE
  2
AcDbPolyline
  3
AutoCAD 2000
 90
    32768
280
     0
281
     1
  0
CLASS
  1
HATCH
  2
AcDbHatch
  3
AutoCAD 2000
 90
    32768
280
     0
281
     1
  0
CLASS
  1
XRECORD
  2
AcDbXrecord
  3
AutoCAD 2000
 90
    32768
280
     0
281
     0
  0
CLASS
  1
DICTIONARYVAR
  2
AcDbDictionaryVar
  3
AutoCAD 2000
 90
        0
280
     0
281
     0
  0
CLASS
  1
LONG_TRANSACTION
  2
AcDbLongTransaction
  3
AutoCAD 2000
 90
    32768
280
     0
281
     0
  0
CLASS
  1
LWPOLYLINE
  2
AcDbPolyline
  3
AutoCAD 2000
 90
    32768
280
     0
281
     1
  0
CLASS
  1
HATCH
  2
AcDbHatch
  3
AutoCAD 2000
 90
    32768
280
     0
281
     1
  0
CLASS
  1
XRECORD
  2
AcDbXrecord
  3
AutoCAD 2000
 90
    32768
280
     0
281
     0
  0
CLASS
  1
LONG_TRANSACTION
  2
AcDbLongTransaction
  3
AutoCAD 2000
 90
    32768
280
     0
281
     0
  0
CLASS
  1
LWPOLYLINE
  2
AcDbPolyline
  3
AutoCAD 2000
 90
    32768
280
     0
281
     1
  0
CLASS
  1
HATCH
  2
AcDbHatch
  3
AutoCAD 2000
 90
    32768
280
     0
281
     1
  0
CLASS
  1
XRECORD
  2
AcDbXrecord
  3
AutoCAD 2000
 90
    32768
280
     0
281
     0
  0
CLASS
  1
LONG_TRANSACTION
  2
AcDbLongTransaction
  3
AutoCAD 2000
 90
    32768
280
     0
281
     0
  0
CLASS
  1
LWPOLYLINE
  2
AcDbPolyline
  3
AutoCAD 2000
 90
    32768
280
     0
281
     1
  0
CLASS
  1
HATCH
  2
AcDbHatch
  3
AutoCAD 2000
 90
    32768
280
     0
281
     1
  0
CLASS
  1
XRECORD
  2
AcDbXrecord
  3
AutoCAD 2000
 90
    32768
280
     0
281
     0
  0
CLASS
  1
LONG_TRANSACTION
  2
AcDbLongTransaction
  3
AutoCAD 2000
 90
    32768
280
     0
281
     0
  0
CLASS
  1
LWPOLYLINE
  2
AcDbPolyline
  3
AutoCAD 2000
 90
    32768
280
     0
281
     1
  0
CLASS
  1
HATCH
  2
AcDbHatch
  3
AutoCAD 2000
 90
    32768
280
     0
281
     1
  0
CLASS
  1
XRECORD
  2
AcDbXrecord
  3
AutoCAD 2000
 90
    32768
280
     0
281
     0
  0
ENDSEC
  0
SECTION
  2
TABLES
  0
TABLE
  2
VPORT
  5
8
330
0
100
AcDbSymbolTable
 70
     3
  0
VPORT
  5
4F71
330
8
100
AcDbSymbolTableRecord
100
AcDbViewportTableRecord
  2
*Active
 70
     0
 10
0.0
 20
0.0
 11
1.0
 21
1.0
 12
93.44373209393621
 22
-47.32351099506354
 13
0.0
 23
0.0
 14
1.0
 24
1.0
 15
10.0
 25
10.0
 16
0.0
 26
0.0
 36
1.0
 17
0.0
 27
0.0
 37
0.0
 40
553.1502592885973
 41
1.839147286821705
 42
50.0
 43
0.0
 44
0.0
 50
0.0
 51
0.0
 71
     0
 72
   100
 73
     1
 74
     1
 75
     0
 76
     1
 77
     0
 78
     0
281
     0
 65
     1
110
0.0
120
0.0
130
0.0
111
1.0
121
0.0
131
0.0
112
0.0
122
1.0
132
0.0
 79
     0
146
0.0
  0
ENDTAB
  0
TABLE
  2
LTYPE
  5
5
330
0
100
AcDbSymbolTable
 70
     5
  0
LTYPE
  5
13
330
5
100
AcDbSymbolTableRecord
100
AcDbLinetypeTableRecord
  2
BYBLOCK
 70
     0
  3

 72
    65
 73
     0
 40
0.0
  0
LTYPE
  5
14
330
5
100
AcDbSymbolTableRecord
100
AcDbLinetypeTableRecord
  2
BYLAYER
 70
     0
  3

 72
    65
 73
     0
 40
0.0
  0
LTYPE
  5
15
330
5
100
AcDbSymbolTableRecord
100
AcDbLinetypeTableRecord
  2
CONTINUOUS
 70
     0
  3
Solid line
 72
    65
 73
     0
 40
0.0
  0
LTYPE
  5
22
330
5
100
AcDbSymbolTableRecord
100
AcDbLinetypeTableRecord
  2
CONTINOUS
 70
     0
  3
Solid line
 72
    65
 73
     0
 40
0.0
  0
LTYPE
  5
23
330
5
100
AcDbSymbolTableRecord
100
AcDbLinetypeTableRecord
  2
DASHED
 70
     0
  3
__ __ __ __ __ __ __ __ __ __ __ __ __ __ __
 72
    65
 73
     2
 40
0.75
 49
0.5
 74
     0
 49
-0.25
 74
     0
  0
LTYPE
  5
24
330
5
100
AcDbSymbolTableRecord
100
AcDbLinetypeTableRecord
  2
DASHDOT
 70
     0
  3
__ . __ . __ . __ . __ . __ . __ . __ . __ . __
 72
    65
 73
     4
 40
1.0
 49
0.5
 74
     0
 49
-0.25
 74
     0
 49
0.0
 74
     0
 49
-0.25
 74
     0
  0
LTYPE
  5
33DE
330
5
100
AcDbSymbolTableRecord
100
AcDbLinetypeTableRecord
  2
DIVIDE
 70
     0
  3
Divide ____ . . ____ . . ____ . . ____ . . ____
 72
    65
 73
     6
 40
1.25
 49
0.5
 74
     0
 49
-0.25
 74
     0
 49
0.0
 74
     0
 49
-0.25
 74
     0
 49
0.0
 74
     0
 49
-0.25
 74
     0
  0
ENDTAB
  0
TABLE
  2
LAYER
  5
2
330
0
100
AcDbSymbolTable
 70
    11
  0
LAYER
  5
10
330
2
100
AcDbSymbolTableRecord
100
AcDbLayerTableRecord
  2
0
 70
     0
 62
     7
  6
CONTINOUS
370
    -3
390
F
  0
LAYER
  5
2F
330
2
100
AcDbSymbolTableRecord
100
AcDbLayerTableRecord
  2
10
 70
     0
 62
     4
  6
CONTINOUS
370
    -3
390
F
  0
LAYER
  5
31
330
2
100
AcDbSymbolTableRecord
100
AcDbLayerTableRecord
  2
12
 70
     0
 62
     3
  6
CONTINOUS
370
    -3
390
F
  0
LAYER
  5
35
330
2
100
AcDbSymbolTableRecord
100
AcDbLayerTableRecord
  2
16
 70
     0
 62
     6
  6
DASHDOT
370
    -3
390
F
  0
LAYER
  5
36
330
2
100
AcDbSymbolTableRecord
100
AcDbLayerTableRecord
  2
17
 70
     0
 62
     2
  6
DASHDOT
370
    -3
390
F
  0
LAYER
  5
38
330
2
100
AcDbSymbolTableRecord
100
AcDbLayerTableRecord
  2
19
 70
     0
 62
     7
  6
CONTINOUS
370
    -3
390
F
  0
LAYER
  5
3C
330
2
100
AcDbSymbolTableRecord
100
AcDbLayerTableRecord
  2
11
 70
     0
 62
     1
  6
CONTINOUS
370
    -3
390
F
  0
LAYER
  5
3D
330
2
100
AcDbSymbolTableRecord
100
AcDbLayerTableRecord
  2
24
 70
     0
 62
     2
  6
CONTINOUS
370
    -3
390
F
  0
LAYER
  5
3A2
330
2
100
AcDbSymbolTableRecord
100
AcDbLayerTableRecord
  2
30
 70
     0
 62
     9
  6
CONTINUOUS
370
    -3
390
F
  0
LAYER
  5
3A4
330
2
100
AcDbSymbolTableRecord
100
AcDbLayerTableRecord
  2
DEFPOINTS
 70
     0
 62
     7
  6
CONTINUOUS
290
     0
370
    -3
390
F
  0
LAYER
  5
2AEF
330
2
100
AcDbSymbolTableRecord
100
AcDbLayerTableRecord
  2
18
 70
     0
 62
     5
  6
DIVIDE
370
    -3
390
F
  0
ENDTAB
  0
TABLE
  2
STYLE
  5
3
330
0
100
AcDbSymbolTable
 70
     3
  0
STYLE
  5
11
330
3
100
AcDbSymbolTableRecord
100
AcDbTextStyleTableRecord
  2
STANDARD
 70
     0
 40
0.0
 41
1.0
 50
0.0
 71
     0
 42
2.0
  3
txt.shx
  4
bigfont.shx
  0
STYLE
  5
42
330
3
100
AcDbSymbolTableRecord
100
AcDbTextStyleTableRecord
  2
STANDARD1
 70
     0
 40
0.0
 41
1.0
 50
0.0
 71
     0
 42
4.0
  3
MONOTXT
  4
BIGFONT
  0
STYLE
  5
3BC7
330
3
100
AcDbSymbolTableRecord
100
AcDbTextStyleTableRecord
  2
MX_NOTE_STANDARD
 70
     0
 40
0.0
 41
1.0
 50
0.0
 71
     0
 42
5.891046
  3
txt.shx
  4
extfont.shx
  0
ENDTAB
  0
TABLE
  2
VIEW
  5
6
330
0
100
AcDbSymbolTable
 70
     3
  0
VIEW
  5
230C
330
6
100
AcDbSymbolTableRecord
100
AcDbViewTableRecord
  2
OLE1
 70
     0
 40
148.912488
 10
429.497628
 20
2.560627
 41
103.145806
 11
0.0
 21
0.0
 31
1.0
 12
0.0
 22
0.0
 32
0.0
 42
50.0
 43
0.0
 44
0.0
 50
0.0
 71
     0
281
     0
 72
     0
  0
VIEW
  5
230E
330
6
100
AcDbSymbolTableRecord
100
AcDbViewTableRecord
  2
OLE2
 70
     0
 40
170.778692
 10
322.66497
 20
-5.978304
 41
102.467215
 11
0.0
 21
0.0
 31
1.0
 12
0.0
 22
0.0
 32
0.0
 42
50.0
 43
0.0
 44
0.0
 50
0.0
 71
     0
281
     0
 72
     0
  0
VIEW
  5
23AA
330
6
100
AcDbSymbolTableRecord
100
AcDbViewTableRecord
  2
OLE3
 70
     0
 40
591.7897389999998
 10
84.79698199999999
 20
-46.09335999999998
 41
388.792096
 11
0.0
 21
0.0
 31
1.0
 12
0.0
 22
0.0
 32
0.0
 42
50.0
 43
0.0
 44
0.0
 50
0.0
 71
     0
281
     0
 72
     0
  0
ENDTAB
  0
TABLE
  2
UCS
  5
7
330
0
100
AcDbSymbolTable
 70
     0
  0
ENDTAB
  0
TABLE
  2
APPID
  5
9
330
0
100
AcDbSymbolTable
 70
     2
  0
APPID
  5
12
330
9
100
AcDbSymbolTableRecord
100
AcDbRegAppTableRecord
  2
ACAD
 70
     0
  0
APPID
  5
ECD
330
9
100
AcDbSymbolTableRecord
100
AcDbRegAppTableRecord
  2
CONTENTBLOCKICON
 70
     0
  0
ENDTAB
  0
TABLE
  2
DIMSTYLE
  5
A
330
0
100
AcDbSymbolTable
 70
     1
100
AcDbDimStyleTable
 71
     1
340
175
  0
DIMSTYLE
105
175
102
{ACAD_REACTORS
330
3DE1
330
3DE2
330
3DE3
330
3E09
330
3DD5
330
3E2E
330
3E2D
330
3DD7
330
3DD6
330
3DAB
330
3F3A
330
3F37
330
3F46
330
3F45
330
3F42
330
3F38
330
3F39
330
3DB9
330
3DA9
330
3EA6
330
3EA5
330
3E90
330
3EA4
330
3E5D
330
3EFC
330
3DB8
330
3DD1
330
4D2F
330
4D31
330
4D32
330
4D33
330
4D46
102
}
330
A
100
AcDbSymbolTableRecord
100
AcDbDimStyleTableRecord
  2
STANDARD
 70
     0
 41
2.0
 42
1.0
 43
0.5
 44
0.5
 73
     0
 77
     3
 78
    12
140
4.0
147
1.0
271
     1
272
     1
340
11
341
3B2
342
3B2
  0
ENDTAB
  0
TABLE
  2
BLOCK_RECORD
  5
1
330
0
100
AcDbSymbolTable
 70
    41
  0
BLOCK_RECORD
  5
1E
102
{ACAD_XDICTIONARY
360
178
102
}
330
1
100
AcDbSymbolTableRecord
100
AcDbBlockTableRecord
  2
*MODEL_SPACE
340
21
  0
BLOCK_RECORD
  5
1A
102
{ACAD_XDICTIONARY
360
17A
102
}
330
1
100
AcDbSymbolTableRecord
100
AcDbBlockTableRecord
  2
*PAPER_SPACE
340
1D
  0
BLOCK_RECORD
  5
3B2
330
1
100
AcDbSymbolTableRecord
100
AcDbBlockTableRecord
  2
_OPEN
340
0
102
{BLKREFS
331
45AB
331
45AC
331
45B4
331
45B5
331
45C6
331
45C7
331
45CF
331
45D0
331
45D8
331
45D9
331
45E1
331
45E2
331
45EA
331
45EB
331
45F3
331
45F4
331
4620
331
4621
331
464A
331
464B
331
4654
331
4655
331
465D
331
465E
331
4666
331
4667
331
466F
331
4670
331
4678
331
4679
331
4682
331
4683
331
468B
331
468C
331
46D7
331
46D8
331
4B1B
331
4B1C
331
4B3D
331
4C17
331
4C4D
331
4C4E
331
4C56
331
4C57
331
4C5F
331
4C60
331
4CA9
331
4CAA
331
4CB5
331
4CB6
331
4CC1
331
4CC2
331
4CCF
331
4CD0
331
4CDB
331
4CDC
331
4E44
331
4E45
331
4E4D
331
4E4E
331
4E56
331
4E57
331
4E5F
331
4E60
331
4E6A
331
4E6B
331
4E7C
331
4E7D
331
4EA2
331
4EA3
331
4ED2
331
4ED3
331
4EDB
331
4EDC
331
4EE4
331
4EE5
331
4EEF
331
4EF0
331
4F23
331
4F24
331
4F32
331
4F33
331
4F3B
331
4F3C
331
4F43
331
4F4C
331
4F4D
331
4F55
331
4F56
331
4F5D
331
4F5E
331
4F67
331
4F68
102
}
  0
BLOCK_RECORD
  5
3F7E
330
1
100
AcDbSymbolTableRecord
100
AcDbBlockTableRecord
  2
*D1
340
0
  0
BLOCK_RECORD
  5
3F8A
330
1
100
AcDbSymbolTableRecord
100
AcDbBlockTableRecord
  2
*D2
340
0
  0
BLOCK_RECORD
  5
3F96
330
1
100
AcDbSymbolTableRecord
100
AcDbBlockTableRecord
  2
*D3
340
0
  0
BLOCK_RECORD
  5
3FA2
330
1
100
AcDbSymbolTableRecord
100
AcDbBlockTableRecord
  2
*D4
340
0
  0
BLOCK_RECORD
  5
3FAB
330
1
100
AcDbSymbolTableRecord
100
AcDbBlockTableRecord
  2
*D5
340
0
  0
BLOCK_RECORD
  5
3FB7
330
1
100
AcDbSymbolTableRecord
100
AcDbBlockTableRecord
  2
*D6
340
0
  0
BLOCK_RECORD
  5
3FC5
330
1
100
AcDbSymbolTableRecord
100
AcDbBlockTableRecord
  2
*D7
340
0
  0
BLOCK_RECORD
  5
3FD1
330
1
100
AcDbSymbolTableRecord
100
AcDbBlockTableRecord
  2
*D8
340
0
  0
BLOCK_RECORD
  5
3FDD
330
1
100
AcDbSymbolTableRecord
100
AcDbBlockTableRecord
  2
*D9
340
0
  0
BLOCK_RECORD
  5
3FE9
330
1
100
AcDbSymbolTableRecord
100
AcDbBlockTableRecord
  2
*D10
340
0
  0
BLOCK_RECORD
  5
4014
330
1
100
AcDbSymbolTableRecord
100
AcDbBlockTableRecord
  2
*D11
340
0
  0
BLOCK_RECORD
  5
4020
330
1
100
AcDbSymbolTableRecord
100
AcDbBlockTableRecord
  2
*D12
340
0
  0
BLOCK_RECORD
  5
402C
330
1
100
AcDbSymbolTableRecord
100
AcDbBlockTableRecord
  2
*D13
340
0
  0
BLOCK_RECORD
  5
4052
330
1
100
AcDbSymbolTableRecord
100
AcDbBlockTableRecord
  2
*D14
340
0
  0
BLOCK_RECORD
  5
405E
330
1
100
AcDbSymbolTableRecord
100
AcDbBlockTableRecord
  2
*D15
340
0
  0
BLOCK_RECORD
  5
4066
330
1
100
AcDbSymbolTableRecord
100
AcDbBlockTableRecord
  2
*D16
340
0
  0
BLOCK_RECORD
  5
4072
330
1
100
AcDbSymbolTableRecord
100
AcDbBlockTableRecord
  2
*D17
340
0
  0
BLOCK_RECORD
  5
409A
330
1
100
AcDbSymbolTableRecord
100
AcDbBlockTableRecord
  2
*D18
340
0
  0
BLOCK_RECORD
  5
40A6
330
1
100
AcDbSymbolTableRecord
100
AcDbBlockTableRecord
  2
*D19
340
0
  0
BLOCK_RECORD
  5
40B2
330
1
100
AcDbSymbolTableRecord
100
AcDbBlockTableRecord
  2
*D20
340
0
  0
BLOCK_RECORD
  5
40BE
330
1
100
AcDbSymbolTableRecord
100
AcDbBlockTableRecord
  2
*D21
340
0
  0
BLOCK_RECORD
  5
40CA
330
1
100
AcDbSymbolTableRecord
100
AcDbBlockTableRecord
  2
*D22
340
0
  0
BLOCK_RECORD
  5
40D6
330
1
100
AcDbSymbolTableRecord
100
AcDbBlockTableRecord
  2
*D23
340
0
  0
BLOCK_RECORD
  5
40E4
330
1
100
AcDbSymbolTableRecord
100
AcDbBlockTableRecord
  2
*D24
340
0
  0
BLOCK_RECORD
  5
4D6D
330
1
100
AcDbSymbolTableRecord
100
AcDbBlockTableRecord
  2
*D36
340
0
  0
BLOCK_RECORD
  5
4D79
330
1
100
AcDbSymbolTableRecord
100
AcDbBlockTableRecord
  2
*D37
340
0
  0
BLOCK_RECORD
  5
4D85
330
1
100
AcDbSymbolTableRecord
100
AcDbBlockTableRecord
  2
*D38
340
0
  0
BLOCK_RECORD
  5
4D91
330
1
100
AcDbSymbolTableRecord
100
AcDbBlockTableRecord
  2
*D39
340
0
  0
BLOCK_RECORD
  5
4D9F
330
1
100
AcDbSymbolTableRecord
100
AcDbBlockTableRecord
  2
*D40
340
0
  0
ENDTAB
  0
ENDSEC
  0
SECTION
  2
BLOCKS
  0
BLOCK
  5
1F
330
1E
100
AcDbEntity
  8
0
100
AcDbBlockBegin
  2
*MODEL_SPACE
 70
     0
 10
0.0
 20
0.0
 30
0.0
  3
*MODEL_SPACE
  1

  0
ENDBLK
  5
20
330
1E
100
AcDbEntity
  8
0
100
AcDbBlockEnd
  0
BLOCK
  5
1B
330
1A
100
AcDbEntity
 67
     1
  8
0
100
AcDbBlockBegin
  2
*PAPER_SPACE
 70
     0
 10
0.0
 20
0.0
 30
0.0
  3
*PAPER_SPACE
  1

  0
ENDBLK
  5
1C
330
1A
100
AcDbEntity
 67
     1
  8
0
100
AcDbBlockEnd
  0
BLOCK
  5
3B6
330
3B2
100
AcDbEntity
  8
0
100
AcDbBlockBegin
  2
_OPEN
 70
     0
 10
0.0
 20
0.0
 30
0.0
  3
_OPEN
  1

  0
LINE
  5
3B3
330
3B2
100
AcDbEntity
  8
30
  6
Continuous
 62
     0
100
AcDbLine
 10
-1.0
 20
0.166667
 30
0.0
 11
0.0
 21
0.0
 31
0.0
1001
ACAD
1000
RTLwPs
1070
   158
  0
LINE
  5
3B4
330
3B2
100
AcDbEntity
  8
30
  6
Continuous
 62
     0
100
AcDbLine
 10
-1.0
 20
-0.166667
 30
0.0
 11
0.0
 21
0.0
 31
0.0
1001
ACAD
1000
RTLwPs
1070
   158
  0
LINE
  5
3B5
330
3B2
100
AcDbEntity
  8
30
  6
Continuous
 62
     0
100
AcDbLine
 10
0.0
 20
0.0
 30
0.0
 11
-1.0
 21
0.0
 31
0.0
1001
ACAD
1000
RTLwPs
1070
   158
  0
ENDBLK
  5
3B7
330
3B2
100
AcDbEntity
  8
0
100
AcDbBlockEnd
  0
BLOCK
  5
3F88
330
3F7E
100
AcDbEntity
  8
0
100
AcDbBlockBegin
  2
*D1
 70
     1
 10
0.0
 20
0.0
 30
0.0
  3
*D1
  1

  0
LINE
  5
4F51
330
3F7E
100
AcDbEntity
  8
30
  6
Continuous
 62
     0
370
    -2
100
AcDbLine
 10
184.9999919999999
 20
-275.0
 30
0.0
 11
184.9999919999999
 21
-312.9674329448298
 31
0.0
  0
LINE
  5
4F52
330
3F7E
100
AcDbEntity
  8
30
  6
Continuous
 62
     0
370
    -2
100
AcDbLine
 10
135.0000079999999
 20
-275.0
 30
0.0
 11
135.0000079999999
 21
-312.9674329448298
 31
0.0
  0
LINE
  5
4F53
330
3F7E
100
AcDbEntity
  8
30
  6
Continuous
 62
     0
370
    -2
100
AcDbLine
 10
182.9999919999998
 20
-312.4674329448298
 30
0.0
 11
137.0000079999999
 21
-312.4674329448298
 31
0.0
  0
MTEXT
  5
4F54
330
3F7E
100
AcDbEntity
  8
30
  6
Continuous
 62
     0
100
AcDbMText
 10
160.0
 20
-318.697891
 30
0.0
 40
4.0
 41
0.0
 71
     5
 72
     1
  1
\A1;more than 50
 73
     1
 44
1.0
  0
INSERT
  5
4F55
330
3F7E
100
AcDbEntity
  8
30
  6
Continuous
 62
     0
370
    -2
100
AcDbBlockReference
  2
_OPEN
 10
184.9999919999999
 20
-312.4674329448298
 30
0.0
 41
2.0
 42
2.0
 43
2.0
  0
INSERT
  5
4F56
330
3F7E
100
AcDbEntity
  8
30
  6
Continuous
 62
     0
370
    -2
100
AcDbBlockReference
  2
_OPEN
 10
135.0000079999999
 20
-312.4674329448298
 30
0.0
 41
2.0
 42
2.0
 43
2.0
 50
180.0
  0
POINT
  5
4F57
330
3F7E
100
AcDbEntity
  8
DEFPOINTS
  6
Continuous
 62
     0
100
AcDbPoint
 10
184.9999919999999
 20
-274.0
 30
0.0
  0
POINT
  5
4F58
330
3F7E
100
AcDbEntity
  8
DEFPOINTS
  6
Continuous
 62
     0
100
AcDbPoint
 10
135.0000079999999
 20
-274.0
 30
0.0
  0
POINT
  5
4F59
330
3F7E
100
AcDbEntity
  8
DEFPOINTS
  6
Continuous
 62
     0
100
AcDbPoint
 10
135.0000079999999
 20
-312.4674329448298
 30
0.0
  0
ENDBLK
  5
3F89
330
3F7E
100
AcDbEntity
  8
0
100
AcDbBlockEnd
  0
BLOCK
  5
3F94
330
3F8A
100
AcDbEntity
  8
0
100
AcDbBlockBegin
  2
*D2
 70
     1
 10
0.0
 20
0.0
 30
0.0
  3
*D2
  1

  0
LINE
  5
45E7
330
3F8A
100
AcDbEntity
  8
30
  6
Continuous
 62
     0
370
    -2
100
AcDbLine
 10
24.19993900000003
 20
49.75000099999994
 30
0.0
 11
53.70407600000006
 21
49.75000099999993
 31
0.0
  0
LINE
  5
45E8
330
3F8A
100
AcDbEntity
  8
30
  6
Continuous
 62
     0
370
    -2
100
AcDbLine
 10
22.000001
 20
-49.75000200000002
 30
0.0
 11
53.70407600000003
 21
-49.75000200000003
 31
0.0
  0
LINE
  5
45E9
330
3F8A
100
AcDbEntity
  8
30
  6
Continuous
 62
     0
370
    -2
100
AcDbLine
 10
53.20407600000005
 20
47.75000099999993
 30
0.0
 11
53.20407600000003
 21
-47.75000200000003
 31
0.0
  0
INSERT
  5
45EA
330
3F8A
100
AcDbEntity
  8
30
  6
Continuous
 62
     0
370
    -2
100
AcDbBlockReference
  2
_OPEN
 10
53.20407600000006
 20
49.75000099999993
 30
0.0
 41
2.0
 42
2.0
 43
2.0
 50
90.0
  0
INSERT
  5
45EB
330
3F8A
100
AcDbEntity
  8
30
  6
Continuous
 62
     0
370
    -2
100
AcDbBlockReference
  2
_OPEN
 10
53.20407600000002
 20
-49.75000200000003
 30
0.0
 41
2.0
 42
2.0
 43
2.0
 50
270.0
  0
MTEXT
  5
45EC
330
3F8A
100
AcDbEntity
  8
30
  6
Continuous
 62
     0
100
AcDbMText
 10
50.20407600000004
 20
0.000000999999941
 30
0.0
 40
4.0
 41
0.0
 71
     5
 72
     1
  1
\A1;99.5
 11
0.0000000000000001
 21
1.0
 31
0.0
 73
     1
 44
1.0
  0
POINT
  5
45ED
330
3F8A
100
AcDbEntity
  8
DEFPOINTS
  6
Continuous
 62
     0
100
AcDbPoint
 10
23.19993900000003
 20
49.75000099999994
 30
0.0
  0
POINT
  5
45EE
330
3F8A
100
AcDbEntity
  8
DEFPOINTS
  6
Continuous
 62
     0
100
AcDbPoint
 10
21.00000099999999
 20
-49.75000200000002
 30
0.0
  0
POINT
  5
45EF
330
3F8A
100
AcDbEntity
  8
DEFPOINTS
  6
Continuous
 62
     0
100
AcDbPoint
 10
53.20407600000002
 20
-49.75000200000003
 30
0.0
  0
ENDBLK
  5
3F95
330
3F8A
100
AcDbEntity
  8
0
100
AcDbBlockEnd
  0
BLOCK
  5
3FA0
330
3F96
100
AcDbEntity
  8
0
100
AcDbBlockBegin
  2
*D3
 70
     1
 10
0.0
 20
0.0
 30
0.0
  3
*D3
  1

  0
LINE
  5
4F5A
330
3F96
100
AcDbEntity
  8
30
  6
Continuous
 62
     0
370
    -2
100
AcDbLine
 10
8.87545399999999
 20
-207.9999979999999
 30
0.0
 11
40.17718799156884
 21
-207.9999979999999
 31
0.0
  0
LINE
  5
4F5B
330
3F96
100
AcDbEntity
  8
30
  6
Continuous
 62
     0
370
    -2
100
AcDbLine
 10
9.453547999999955
 20
-292.0
 30
0.0
 11
40.17718799156882
 21
-292.0
 31
0.0
  0
LINE
  5
4F5C
330
3F96
100
AcDbEntity
  8
30
  6
Continuous
 62
     0
370
    -2
100
AcDbLine
 10
39.67718799156883
 20
-209.9999979999999
 30
0.0
 11
39.67718799156882
 21
-290.0
 31
0.0
  0
INSERT
  5
4F5D
330
3F96
100
AcDbEntity
  8
30
  6
Continuous
 62
     0
370
    -2
100
AcDbBlockReference
  2
_OPEN
 10
39.67718799156884
 20
-207.9999979999999
 30
0.0
 41
2.0
 42
2.0
 43
2.0
 50
90.0
  0
INSERT
  5
4F5E
330
3F96
100
AcDbEntity
  8
30
  6
Continuous
 62
     0
370
    -2
100
AcDbBlockReference
  2
_OPEN
 10
39.67718799156882
 20
-292.0
 30
0.0
 41
2.0
 42
2.0
 43
2.0
 50
270.0
  0
MTEXT
  5
4F5F
330
3F96
100
AcDbEntity
  8
30
  6
Continuous
 62
     0
100
AcDbMText
 10
36.67718799156887
 20
-250.0
 30
0.0
 40
4.0
 41
0.0
 71
     5
 72
     1
  1
\A1;84
 11
0.0000000000000001
 21
1.0
 31
0.0
 73
     1
 44
1.0
  0
POINT
  5
4F60
330
3F96
100
AcDbEntity
  8
DEFPOINTS
  6
Continuous
 62
     0
100
AcDbPoint
 10
7.87545399999999
 20
-207.9999979999999
 30
0.0
  0
POINT
  5
4F61
330
3F96
100
AcDbEntity
  8
DEFPOINTS
  6
Continuous
 62
     0
100
AcDbPoint
 10
8.453547999999955
 20
-292.0
 30
0.0
  0
POINT
  5
4F62
330
3F96
100
AcDbEntity
  8
DEFPOINTS
  6
Continuous
 62
     0
100
AcDbPoint
 10
39.67718799156882
 20
-292.0
 30
0.0
  0
ENDBLK
  5
3FA1
330
3F96
100
AcDbEntity
  8
0
100
AcDbBlockEnd
  0
BLOCK
  5
3FA9
330
3FA2
100
AcDbEntity
  8
0
100
AcDbBlockBegin
  2
*D4
 70
     1
 10
0.0
 20
0.0
 30
0.0
  3
*D4
  1

  0
LINE
  5
4F40
330
3FA2
100
AcDbEntity
  8
30
  6
Continuous
 62
     0
370
    -2
100
AcDbLine
 10
90.29069820858707
 20
-221.7573608752549
 30
0.0
 11
132.7573648752537
 21
-221.7573608752549
 31
0.0
  0
LINE
  5
4F41
330
3FA2
100
AcDbEntity
  8
30
  6
Continuous
 62
     0
370
    -2
100
AcDbLine
 10
132.7573648752537
 20
-221.7573608752549
 30
0.0
 11
134.1715794376268
 21
-223.1715734376273
 31
0.0
  0
MTEXT
  5
4F42
330
3FA2
100
AcDbEntity
  8
30
  6
Continuous
 62
     0
100
AcDbMText
 10
111.0240315419203
 20
-218.7573608752549
 30
0.0
 40
4.0
 41
0.0
 71
     5
 72
     1
  1
\A1;less than R2
 73
     1
 44
1.0
  0
INSERT
  5
4F43
330
3FA2
100
AcDbEntity
  8
30
  6
Continuous
 62
     0
370
    -2
100
AcDbBlockReference
  2
_OPEN
 10
135.5857939999998
 20
-224.5857859999997
 30
0.0
 41
2.0
 42
2.0
 43
2.0
 50
315.0000405142479
  0
LINE
  5
4F44
330
3FA2
100
AcDbEntity
  8
30
  6
Continuous
 62
     0
370
    -2
100
AcDbLine
 10
136.9100079999998
 20
-225.9999979999999
 30
0.0
 11
137.0900079999999
 21
-225.9999979999999
 31
0.0
  0
LINE
  5
4F45
330
3FA2
100
AcDbEntity
  8
30
  6
Continuous
 62
     0
370
    -2
100
AcDbLine
 10
137.0000079999998
 20
-226.089998
 30
0.0
 11
137.0000079999999
 21
-225.909998
 31
0.0
  0
POINT
  5
4F46
330
3FA2
100
AcDbEntity
  8
DEFPOINTS
  6
Continuous
 62
     0
100
AcDbPoint
 10
135.5857939999998
 20
-224.5857859999997
 30
0.0
  0
POINT
  5
4F47
330
3FA2
100
AcDbEntity
  8
DEFPOINTS
  6
Continuous
 62
     0
100
AcDbPoint
 10
137.0000079999999
 20
-225.9999979999999
 30
0.0
  0
ENDBLK
  5
3FAA
330
3FA2
100
AcDbEntity
  8
0
100
AcDbBlockEnd
  0
BLOCK
  5
3FB5
330
3FAB
100
AcDbEntity
  8
0
100
AcDbBlockBegin
  2
*D5
 70
     1
 10
0.0
 20
0.0
 30
0.0
  3
*D5
  1

  0
LINE
  5
45B1
330
3FAB
100
AcDbEntity
  8
30
  6
Continuous
 62
     0
370
    -2
100
AcDbLine
 10
-4.449938999999972
 20
-42.01091400000001
 30
0.0
 11
-45.33404099999996
 21
-42.01091400000001
 31
0.0
  0
LINE
  5
45B2
330
3FAB
100
AcDbEntity
  8
30
  6
Continuous
 62
     0
370
    -2
100
AcDbLine
 10
-4.44996900000001
 20
41.99993999999998
 30
0.0
 11
-45.33404099999994
 21
41.99993999999999
 31
0.0
  0
LINE
  5
45B3
330
3FAB
100
AcDbEntity
  8
30
  6
Continuous
 62
     0
370
    -2
100
AcDbLine
 10
-44.83404099999996
 20
-40.010914
 30
0.0
 11
-44.83404099999995
 21
39.99993999999999
 31
0.0
  0
INSERT
  5
45B4
330
3FAB
100
AcDbEntity
  8
30
  6
Continuous
 62
     0
370
    -2
100
AcDbBlockReference
  2
_OPEN
 10
-44.83404099999996
 20
-42.01091400000001
 30
0.0
 41
2.0
 42
2.0
 43
2.0
 50
270.0
  0
INSERT
  5
45B5
330
3FAB
100
AcDbEntity
  8
30
  6
Continuous
 62
     0
370
    -2
100
AcDbBlockReference
  2
_OPEN
 10
-44.83404099999995
 20
41.99993999999999
 30
0.0
 41
2.0
 42
2.0
 43
2.0
 50
90.0
  0
MTEXT
  5
45B6
330
3FAB
100
AcDbEntity
  8
30
  6
Continuous
 62
     0
100
AcDbMText
 10
-47.83404099999995
 20
-0.0054860000000755
 30
0.0
 40
4.0
 41
0.0
 71
     5
 72
     1
  1
\A1;84
 11
0.0000000000000001
 21
1.0
 31
0.0
 73
     1
 44
1.0
  0
POINT
  5
45B7
330
3FAB
100
AcDbEntity
  8
DEFPOINTS
  6
Continuous
 62
     0
100
AcDbPoint
 10
-3.449938999999972
 20
-42.01091400000001
 30
0.0
  0
POINT
  5
45B8
330
3FAB
100
AcDbEntity
  8
DEFPOINTS
  6
Continuous
 62
     0
100
AcDbPoint
 10
-3.44996900000001
 20
41.99993999999998
 30
0.0
  0
POINT
  5
45B9
330
3FAB
100
AcDbEntity
  8
DEFPOINTS
  6
Continuous
 62
     0
100
AcDbPoint
 10
-44.83404099999995
 20
41.99993999999999
 30
0.0
  0
ENDBLK
  5
3FB6
330
3FAB
100
AcDbEntity
  8
0
100
AcDbBlockEnd
  0
BLOCK
  5
3FC3
330
3FB7
100
AcDbEntity
  8
0
100
AcDbBlockBegin
  2
*D6
 70
     1
 10
0.0
 20
0.0
 30
0.0
  3
*D6
  1

  0
LINE
  5
45DE
330
3FB7
100
AcDbEntity
  8
30
  6
Continuous
 62
     0
370
    -2
100
AcDbLine
 10
20.999999
 20
49.75000099999994
 30
0.0
 11
44.512814
 21
49.75000099999994
 31
0.0
  0
LINE
  5
45DF
330
3FB7
100
AcDbEntity
  8
30
  6
Continuous
 62
     0
370
    -2
100
AcDbLine
 10
19.57505700000002
 20
40.0
 30
0.0
 11
44.512814
 21
40.0
 31
0.0
  0
LINE
  5
45E0
330
3FB7
100
AcDbEntity
  8
30
  6
Continuous
 62
     0
370
    -2
100
AcDbLine
 10
44.012814
 20
47.75000099999994
 30
0.0
 11
44.012814
 21
42.0
 31
0.0
  0
INSERT
  5
45E1
330
3FB7
100
AcDbEntity
  8
30
  6
Continuous
 62
     0
370
    -2
100
AcDbBlockReference
  2
_OPEN
 10
44.01281400000001
 20
49.75000099999994
 30
0.0
 41
2.0
 42
2.0
 43
2.0
 50
90.0
  0
INSERT
  5
45E2
330
3FB7
100
AcDbEntity
  8
30
  6
Continuous
 62
     0
370
    -2
100
AcDbBlockReference
  2
_OPEN
 10
44.012814
 20
40.0
 30
0.0
 41
2.0
 42
2.0
 43
2.0
 50
270.0
  0
MTEXT
  5
45E3
330
3FB7
100
AcDbEntity
  8
30
  6
Continuous
 62
     0
100
AcDbMText
 10
41.01281399999999
 20
44.87500049999997
 30
0.0
 40
4.0
 41
0.0
 71
     5
 72
     1
  1
\A1;9.8
 11
0.0000000000000001
 21
1.0
 31
0.0
 73
     1
 44
1.0
  0
POINT
  5
45E4
330
3FB7
100
AcDbEntity
  8
DEFPOINTS
  6
Continuous
 62
     0
100
AcDbPoint
 10
19.999999
 20
49.75000099999994
 30
0.0
  0
POINT
  5
45E5
330
3FB7
100
AcDbEntity
  8
DEFPOINTS
  6
Continuous
 62
     0
100
AcDbPoint
 10
18.57505700000001
 20
40.0
 30
0.0
  0
POINT
  5
45E6
330
3FB7
100
AcDbEntity
  8
DEFPOINTS
  6
Continuous
 62
     0
100
AcDbPoint
 10
44.012814
 20
40.0
 30
0.0
  0
ENDBLK
  5
3FC4
330
3FB7
100
AcDbEntity
  8
0
100
AcDbBlockEnd
  0
BLOCK
  5
3FCF
330
3FC5
100
AcDbEntity
  8
0
100
AcDbBlockBegin
  2
*D7
 70
     1
 10
0.0
 20
0.0
 30
0.0
  3
*D7
  1

  0
LINE
  5
45D5
330
3FC5
100
AcDbEntity
  8
30
  6
Continuous
 62
     0
370
    -2
100
AcDbLine
 10
19.57505700000002
 20
40.0
 30
0.0
 11
44.512814
 21
40.0
 31
0.0
  0
LINE
  5
45D6
330
3FC5
100
AcDbEntity
  8
30
  6
Continuous
 62
     0
370
    -2
100
AcDbLine
 10
30.21921800000001
 20
-0.0000000000000003
 30
0.0
 11
44.51281399999999
 21
-0.0000000000000043
 31
0.0
  0
LINE
  5
45D7
330
3FC5
100
AcDbEntity
  8
30
  6
Continuous
 62
     0
370
    -2
100
AcDbLine
 10
44.012814
 20
38.0
 30
0.0
 11
44.01281399999999
 21
1.999999999999996
 31
0.0
  0
INSERT
  5
45D8
330
3FC5
100
AcDbEntity
  8
30
  6
Continuous
 62
     0
370
    -2
100
AcDbBlockReference
  2
_OPEN
 10
44.012814
 20
40.0
 30
0.0
 41
2.0
 42
2.0
 43
2.0
 50
90.0
  0
INSERT
  5
45D9
330
3FC5
100
AcDbEntity
  8
30
  6
Continuous
 62
     0
370
    -2
100
AcDbBlockReference
  2
_OPEN
 10
44.01281399999999
 20
-0.0000000000000042
 30
0.0
 41
2.0
 42
2.0
 43
2.0
 50
270.0
  0
MTEXT
  5
45DA
330
3FC5
100
AcDbEntity
  8
30
  6
Continuous
 62
     0
100
AcDbMText
 10
41.01281399999999
 20
20.0
 30
0.0
 40
4.0
 41
0.0
 71
     5
 72
     1
  1
\A1;40
 11
0.0000000000000001
 21
1.0
 31
0.0
 73
     1
 44
1.0
  0
POINT
  5
45DB
330
3FC5
100
AcDbEntity
  8
DEFPOINTS
  6
Continuous
 62
     0
100
AcDbPoint
 10
18.57505700000001
 20
40.0
 30
0.0
  0
POINT
  5
45DC
330
3FC5
100
AcDbEntity
  8
DEFPOINTS
  6
Continuous
 62
     0
100
AcDbPoint
 10
29.21921800000001
 20
0.0
 30
0.0
  0
POINT
  5
45DD
330
3FC5
100
AcDbEntity
  8
DEFPOINTS
  6
Continuous
 62
     0
100
AcDbPoint
 10
44.01281399999999
 20
-0.0000000000000042
 30
0.0
  0
ENDBLK
  5
3FD0
330
3FC5
100
AcDbEntity
  8
0
100
AcDbBlockEnd
  0
BLOCK
  5
3FDB
330
3FD1
100
AcDbEntity
  8
0
100
AcDbBlockBegin
  2
*D8
 70
     1
 10
0.0
 20
0.0
 30
0.0
  3
*D8
  1

  0
LINE
  5
4647
330
3FD1
100
AcDbEntity
  8
30
  6
Continuous
 62
     0
370
    -2
100
AcDbLine
 10
25.0
 20
-47.25000300000004
 30
0.0
 11
25.0
 21
-79.20399800000001
 31
0.0
  0
LINE
  5
4648
330
3FD1
100
AcDbEntity
  8
30
  6
Continuous
 62
     0
370
    -2
100
AcDbLine
 10
-25.0
 20
-47.25000300000004
 30
0.0
 11
-25.0
 21
-79.20399800000001
 31
0.0
  0
LINE
  5
4649
330
3FD1
100
AcDbEntity
  8
30
  6
Continuous
 62
     0
370
    -2
100
AcDbLine
 10
22.99999999999999
 20
-78.70399800000001
 30
0.0
 11
-23.0
 21
-78.70399800000001
 31
0.0
  0
INSERT
  5
464A
330
3FD1
100
AcDbEntity
  8
30
  6
Continuous
 62
     0
370
    -2
100
AcDbBlockReference
  2
_OPEN
 10
25.0
 20
-78.70399800000001
 30
0.0
 41
2.0
 42
2.0
 43
2.0
  0
INSERT
  5
464B
330
3FD1
100
AcDbEntity
  8
30
  6
Continuous
 62
     0
370
    -2
100
AcDbBlockReference
  2
_OPEN
 10
-25.0
 20
-78.70399800000001
 30
0.0
 41
2.0
 42
2.0
 43
2.0
 50
180.0
  0
MTEXT
  5
464C
330
3FD1
100
AcDbEntity
  8
30
  6
Continuous
 62
     0
100
AcDbMText
 10
0.0000000000000002
 20
-75.70399800000001
 30
0.0
 40
4.0
 41
0.0
 71
     5
 72
     1
  1
\A1;50
 73
     1
 44
1.0
  0
POINT
  5
464D
330
3FD1
100
AcDbEntity
  8
DEFPOINTS
  6
Continuous
 62
     0
100
AcDbPoint
 10
25.0
 20
-46.25000300000005
 30
0.0
  0
POINT
  5
464E
330
3FD1
100
AcDbEntity
  8
DEFPOINTS
  6
Continuous
 62
     0
100
AcDbPoint
 10
-25.0
 20
-46.25000300000005
 30
0.0
  0
POINT
  5
464F
330
3FD1
100
AcDbEntity
  8
DEFPOINTS
  6
Continuous
 62
     0
100
AcDbPoint
 10
-25.0
 20
-78.70399800000001
 30
0.0
  0
ENDBLK
  5
3FDC
330
3FD1
100
AcDbEntity
  8
0
100
AcDbBlockEnd
  0
BLOCK
  5
3FE7
330
3FDD
100
AcDbEntity
  8
0
100
AcDbBlockBegin
  2
*D9
 70
     1
 10
0.0
 20
0.0
 30
0.0
  3
*D9
  1

  0
LINE
  5
45F0
330
3FDD
100
AcDbEntity
  8
30
  6
Continuous
 62
     0
370
    -2
100
AcDbLine
 10
23.50000699999998
 20
-25.00003100000003
 30
0.0
 11
23.50000699999998
 21
-69.99052100000003
 31
0.0
  0
LINE
  5
45F1
330
3FDD
100
AcDbEntity
  8
30
  6
Continuous
 62
     0
370
    -2
100
AcDbLine
 10
-23.99999299999996
 20
-25.646477
 30
0.0
 11
-23.99999299999996
 21
-69.99052100000003
 31
0.0
  0
LINE
  5
45F2
330
3FDD
100
AcDbEntity
  8
30
  6
Continuous
 62
     0
370
    -2
100
AcDbLine
 10
21.50000699999997
 20
-69.49052100000002
 30
0.0
 11
-21.99999299999996
 21
-69.49052100000002
 31
0.0
  0
INSERT
  5
45F3
330
3FDD
100
AcDbEntity
  8
30
  6
Continuous
 62
     0
370
    -2
100
AcDbBlockReference
  2
_OPEN
 10
23.50000699999998
 20
-69.49052100000002
 30
0.0
 41
2.0
 42
2.0
 43
2.0
  0
INSERT
  5
45F4
330
3FDD
100
AcDbEntity
  8
30
  6
Continuous
 62
     0
370
    -2
100
AcDbBlockReference
  2
_OPEN
 10
-23.99999299999996
 20
-69.49052100000002
 30
0.0
 41
2.0
 42
2.0
 43
2.0
 50
180.0
  0
MTEXT
  5
45F5
330
3FDD
100
AcDbEntity
  8
30
  6
Continuous
 62
     0
100
AcDbMText
 10
-0.2499929999999606
 20
-66.49052100000003
 30
0.0
 40
4.0
 41
0.0
 71
     5
 72
     1
  1
\A1;47.5
 73
     1
 44
1.0
  0
POINT
  5
45F6
330
3FDD
100
AcDbEntity
  8
DEFPOINTS
  6
Continuous
 62
     0
100
AcDbPoint
 10
23.50000699999998
 20
-24.00003100000003
 30
0.0
  0
POINT
  5
45F7
330
3FDD
100
AcDbEntity
  8
DEFPOINTS
  6
Continuous
 62
     0
100
AcDbPoint
 10
-23.99999299999996
 20
-24.646477
 30
0.0
  0
POINT
  5
45F8
330
3FDD
100
AcDbEntity
  8
DEFPOINTS
  6
Continuous
 62
     0
100
AcDbPoint
 10
-23.99999299999996
 20
-69.49052100000002
 30
0.0
  0
ENDBLK
  5
3FE8
330
3FDD
100
AcDbEntity
  8
0
100
AcDbBlockEnd
  0
BLOCK
  5
3FF3
330
3FE9
100
AcDbEntity
  8
0
100
AcDbBlockBegin
  2
*D10
 70
     1
 10
0.0
 20
0.0
 30
0.0
  3
*D10
  1

  0
LINE
  5
461D
330
3FE9
100
AcDbEntity
  8
30
  6
Continuous
 62
     0
370
    -2
100
AcDbLine
 10
12.500045
 20
-49.07501300000006
 30
0.0
 11
12.500045
 21
-61.81171800000004
 31
0.0
  0
LINE
  5
461E
330
3FE9
100
AcDbEntity
  8
30
  6
Continuous
 62
     0
370
    -2
100
AcDbLine
 10
-12.49992599999996
 20
-49.07501300000006
 30
0.0
 11
-12.49992599999996
 21
-61.81171800000004
 31
0.0
  0
LINE
  5
461F
330
3FE9
100
AcDbEntity
  8
30
  6
Continuous
 62
     0
370
    -2
100
AcDbLine
 10
10.500045
 20
-61.31171800000004
 30
0.0
 11
-10.49992599999995
 21
-61.31171800000004
 31
0.0
  0
INSERT
  5
4620
330
3FE9
100
AcDbEntity
  8
30
  6
Continuous
 62
     0
370
    -2
100
AcDbBlockReference
  2
_OPEN
 10
12.500045
 20
-61.31171800000004
 30
0.0
 41
2.0
 42
2.0
 43
2.0
  0
INSERT
  5
4621
330
3FE9
100
AcDbEntity
  8
30
  6
Continuous
 62
     0
370
    -2
100
AcDbBlockReference
  2
_OPEN
 10
-12.49992599999996
 20
-61.31171800000004
 30
0.0
 41
2.0
 42
2.0
 43
2.0
 50
180.0
  0
MTEXT
  5
4622
330
3FE9
100
AcDbEntity
  8
30
  6
Continuous
 62
     0
100
AcDbMText
 10
0.0000590000000218
 20
-58.31171800000004
 30
0.0
 40
4.0
 41
0.0
 71
     5
 72
     1
  1
\A1;25
 73
     1
 44
1.0
  0
POINT
  5
4623
330
3FE9
100
AcDbEntity
  8
DEFPOINTS
  6
Continuous
 62
     0
100
AcDbPoint
 10
12.500045
 20
-48.07501300000007
 30
0.0
  0
POINT
  5
4624
330
3FE9
100
AcDbEntity
  8
DEFPOINTS
  6
Continuous
 62
     0
100
AcDbPoint
 10
-12.49992599999996
 20
-48.07501300000007
 30
0.0
  0
POINT
  5
4625
330
3FE9
100
AcDbEntity
  8
DEFPOINTS
  6
Continuous
 62
     0
100
AcDbPoint
 10
-12.49992599999996
 20
-61.31171800000004
 30
0.0
  0
ENDBLK
  5
3FF4
330
3FE9
100
AcDbEntity
  8
0
100
AcDbBlockEnd
  0
BLOCK
  5
401E
330
4014
100
AcDbEntity
  8
0
100
AcDbBlockBegin
  2
*D11
 70
     1
 10
0.0
 20
0.0
 30
0.0
  3
*D11
  1

  0
LINE
  5
45A8
330
4014
100
AcDbEntity
  8
30
  6
Continuous
 62
     0
370
    -2
100
AcDbLine
 10
-24.646433
 20
-25.00003200000003
 30
0.0
 11
-36.23971899999999
 21
-25.00003200000003
 31
0.0
  0
LINE
  5
45A9
330
4014
100
AcDbEntity
  8
30
  6
Continuous
 62
     0
370
    -2
100
AcDbLine
 10
-24.646433
 20
24.99996999999996
 30
0.0
 11
-36.23971899999997
 21
24.99996999999996
 31
0.0
  0
LINE
  5
45AA
330
4014
100
AcDbEntity
  8
30
  6
Continuous
 62
     0
370
    -2
100
AcDbLine
 10
-35.73971899999998
 20
-23.00003200000003
 30
0.0
 11
-35.73971899999997
 21
22.99996999999996
 31
0.0
  0
INSERT
  5
45AB
330
4014
100
AcDbEntity
  8
30
  6
Continuous
 62
     0
370
    -2
100
AcDbBlockReference
  2
_OPEN
 10
-35.73971899999998
 20
-25.00003200000003
 30
0.0
 41
2.0
 42
2.0
 43
2.0
 50
270.0
  0
INSERT
  5
45AC
330
4014
100
AcDbEntity
  8
30
  6
Continuous
 62
     0
370
    -2
100
AcDbBlockReference
  2
_OPEN
 10
-35.73971899999997
 20
24.99996999999996
 30
0.0
 41
2.0
 42
2.0
 43
2.0
 50
90.0
  0
MTEXT
  5
45AD
330
4014
100
AcDbEntity
  8
30
  6
Continuous
 62
     0
100
AcDbMText
 10
-38.73971899999998
 20
-0.0000320000000325
 30
0.0
 40
4.0
 41
0.0
 71
     5
 72
     1
  1
\A1;50
 11
0.0000000000000001
 21
1.0
 31
0.0
 73
     1
 44
1.0
  0
POINT
  5
45AE
330
4014
100
AcDbEntity
  8
DEFPOINTS
  6
Continuous
 62
     0
100
AcDbPoint
 10
-23.646433
 20
-25.00003200000003
 30
0.0
  0
POINT
  5
45AF
330
4014
100
AcDbEntity
  8
DEFPOINTS
  6
Continuous
 62
     0
100
AcDbPoint
 10
-23.646433
 20
24.99996999999996
 30
0.0
  0
POINT
  5
45B0
330
4014
100
AcDbEntity
  8
DEFPOINTS
  6
Continuous
 62
     0
100
AcDbPoint
 10
-35.73971899999997
 20
24.99996999999996
 30
0.0
  0
ENDBLK
  5
401F
330
4014
100
AcDbEntity
  8
0
100
AcDbBlockEnd
  0
BLOCK
  5
402A
330
4020
100
AcDbEntity
  8
0
100
AcDbBlockBegin
  2
*D12
 70
     1
 10
0.0
 20
0.0
 30
0.0
  3
*D12
  1

  0
LINE
  5
45CC
330
4020
100
AcDbEntity
  8
30
  6
Continuous
 62
     0
370
    -2
100
AcDbLine
 10
30.21921800000001
 20
-0.0000000000000003
 30
0.0
 11
44.51281399999999
 21
-0.0000000000000043
 31
0.0
  0
LINE
  5
45CD
330
4020
100
AcDbEntity
  8
30
  6
Continuous
 62
     0
370
    -2
100
AcDbLine
 10
19.57505700000001
 20
-42.00000100000005
 30
0.0
 11
44.51281399999998
 21
-42.00000100000005
 31
0.0
  0
LINE
  5
45CE
330
4020
100
AcDbEntity
  8
30
  6
Continuous
 62
     0
370
    -2
100
AcDbLine
 10
44.01281399999999
 20
-2.000000000000004
 30
0.0
 11
44.01281399999998
 21
-40.00000100000005
 31
0.0
  0
INSERT
  5
45CF
330
4020
100
AcDbEntity
  8
30
  6
Continuous
 62
     0
370
    -2
100
AcDbBlockReference
  2
_OPEN
 10
44.01281399999999
 20
-0.0000000000000042
 30
0.0
 41
2.0
 42
2.0
 43
2.0
 50
90.0
  0
INSERT
  5
45D0
330
4020
100
AcDbEntity
  8
30
  6
Continuous
 62
     0
370
    -2
100
AcDbBlockReference
  2
_OPEN
 10
44.01281399999998
 20
-42.00000100000005
 30
0.0
 41
2.0
 42
2.0
 43
2.0
 50
270.0
  0
MTEXT
  5
45D1
330
4020
100
AcDbEntity
  8
30
  6
Continuous
 62
     0
100
AcDbMText
 10
41.01281399999999
 20
-21.0
 30
0.0
 40
4.0
 41
0.0
 71
     5
 72
     1
  1
\A1;42
 11
0.0000000000000001
 21
1.0
 31
0.0
 73
     1
 44
1.0
  0
POINT
  5
45D2
330
4020
100
AcDbEntity
  8
DEFPOINTS
  6
Continuous
 62
     0
100
AcDbPoint
 10
29.21921800000001
 20
0.0
 30
0.0
  0
POINT
  5
45D3
330
4020
100
AcDbEntity
  8
DEFPOINTS
  6
Continuous
 62
     0
100
AcDbPoint
 10
18.57505700000001
 20
-42.00000100000005
 30
0.0
  0
POINT
  5
45D4
330
4020
100
AcDbEntity
  8
DEFPOINTS
  6
Continuous
 62
     0
100
AcDbPoint
 10
44.01281399999998
 20
-42.00000100000005
 30
0.0
  0
ENDBLK
  5
402B
330
4020
100
AcDbEntity
  8
0
100
AcDbBlockEnd
  0
BLOCK
  5
4038
330
402C
100
AcDbEntity
  8
0
100
AcDbBlockBegin
  2
*D13
 70
     1
 10
0.0
 20
0.0
 30
0.0
  3
*D13
  1

  0
LINE
  5
45C3
330
402C
100
AcDbEntity
  8
30
  6
Continuous
 62
     0
370
    -2
100
AcDbLine
 10
19.57505700000001
 20
-42.00000100000005
 30
0.0
 11
44.51281399999998
 21
-42.00000100000005
 31
0.0
  0
LINE
  5
45C4
330
402C
100
AcDbEntity
  8
30
  6
Continuous
 62
     0
370
    -2
100
AcDbLine
 10
21.999999
 20
-49.75000200000002
 30
0.0
 11
44.51281399999998
 21
-49.75000200000002
 31
0.0
  0
LINE
  5
45C5
330
402C
100
AcDbEntity
  8
30
  6
Continuous
 62
     0
370
    -2
100
AcDbLine
 10
44.01281399999998
 20
-44.00000100000005
 30
0.0
 11
44.01281399999998
 21
-47.75000200000002
 31
0.0
  0
INSERT
  5
45C6
330
402C
100
AcDbEntity
  8
30
  6
Continuous
 62
     0
370
    -2
100
AcDbBlockReference
  2
_OPEN
 10
44.01281399999998
 20
-42.00000100000005
 30
0.0
 41
2.0
 42
2.0
 43
2.0
 50
90.0
  0
INSERT
  5
45C7
330
402C
100
AcDbEntity
  8
30
  6
Continuous
 62
     0
370
    -2
100
AcDbBlockReference
  2
_OPEN
 10
44.01281399999997
 20
-49.75000200000002
 30
0.0
 41
2.0
 42
2.0
 43
2.0
 50
270.0
  0
MTEXT
  5
45C8
330
402C
100
AcDbEntity
  8
30
  6
Continuous
 62
     0
100
AcDbMText
 10
41.01281399999999
 20
-45.87500150000002
 30
0.0
 40
4.0
 41
0.0
 71
     5
 72
     1
  1
\A1;7.8
 11
0.0000000000000001
 21
1.0
 31
0.0
 73
     1
 44
1.0
  0
POINT
  5
45C9
330
402C
100
AcDbEntity
  8
DEFPOINTS
  6
Continuous
 62
     0
100
AcDbPoint
 10
18.57505700000001
 20
-42.00000100000005
 30
0.0
  0
POINT
  5
45CA
330
402C
100
AcDbEntity
  8
DEFPOINTS
  6
Continuous
 62
     0
100
AcDbPoint
 10
20.999999
 20
-49.75000200000002
 30
0.0
  0
POINT
  5
45CB
330
402C
100
AcDbEntity
  8
DEFPOINTS
  6
Continuous
 62
     0
100
AcDbPoint
 10
44.01281399999997
 20
-49.75000200000002
 30
0.0
  0
ENDBLK
  5
4039
330
402C
100
AcDbEntity
  8
0
100
AcDbBlockEnd
  0
BLOCK
  5
405C
330
4052
100
AcDbEntity
  8
0
100
AcDbBlockBegin
  2
*D14
 70
     1
 10
0.0
 20
0.0
 30
0.0
  3
*D14
  1

  0
LINE
  5
4F63
330
4052
100
AcDbEntity
  8
30
  6
Continuous
 62
     0
370
    -2
100
AcDbLine
 10
183.9999919999998
 20
-223.9999979999999
 30
0.0
 11
200.3379274336131
 21
-223.999998
 31
0.0
  0
LINE
  5
4F64
330
4052
100
AcDbEntity
  8
30
  6
Continuous
 62
     0
370
    -2
100
AcDbLine
 10
183.4999919999999
 20
-276.0
 30
0.0
 11
200.3379274336131
 21
-276.0
 31
0.0
  0
LINE
  5
4F65
330
4052
100
AcDbEntity
  8
30
  6
Continuous
 62
     0
370
    -2
100
AcDbLine
 10
199.8379274336131
 20
-225.999998
 30
0.0
 11
199.8379274336131
 21
-274.0
 31
0.0
  0
MTEXT
  5
4F66
330
4052
100
AcDbEntity
  8
30
  6
Continuous
 62
     0
100
AcDbMText
 10
205.2530554255696
 20
-243.0596893839551
 30
0.0
 40
4.0
 41
0.0
 71
     5
 72
     1
  1
\A1;more than 52
 11
0.0000000000000001
 21
1.0
 31
0.0
 73
     1
 44
1.0
  0
INSERT
  5
4F67
330
4052
100
AcDbEntity
  8
30
  6
Continuous
 62
     0
370
    -2
100
AcDbBlockReference
  2
_OPEN
 10
199.8379274336131
 20
-223.999998
 30
0.0
 41
2.0
 42
2.0
 43
2.0
 50
90.0
  0
INSERT
  5
4F68
330
4052
100
AcDbEntity
  8
30
  6
Continuous
 62
     0
370
    -2
100
AcDbBlockReference
  2
_OPEN
 10
199.8379274336131
 20
-276.0
 30
0.0
 41
2.0
 42
2.0
 43
2.0
 50
270.0
  0
POINT
  5
4F69
330
4052
100
AcDbEntity
  8
DEFPOINTS
  6
Continuous
 62
     0
100
AcDbPoint
 10
182.9999919999998
 20
-223.9999979999999
 30
0.0
  0
POINT
  5
4F6A
330
4052
100
AcDbEntity
  8
DEFPOINTS
  6
Continuous
 62
     0
100
AcDbPoint
 10
182.4999919999999
 20
-276.0
 30
0.0
  0
POINT
  5
4F6B
330
4052
100
AcDbEntity
  8
DEFPOINTS
  6
Continuous
 62
     0
100
AcDbPoint
 10
199.8379274336131
 20
-276.0
 30
0.0
  0
ENDBLK
  5
405D
330
4052
100
AcDbEntity
  8
0
100
AcDbBlockEnd
  0
BLOCK
  5
4064
330
405E
100
AcDbEntity
  8
0
100
AcDbBlockBegin
  2
*D15
 70
     1
 10
0.0
 20
0.0
 30
0.0
  3
*D15
  1

  0
LINE
  5
4B3A
330
405E
100
AcDbEntity
  8
30
  6
Continuous
 62
     0
370
    -2
100
AcDbLine
 10
215.8802541610629
 20
193.842494835158
 30
0.0
 11
202.8802541610629
 21
193.842494835158
 31
0.0
  0
LINE
  5
4B3B
330
405E
100
AcDbEntity
  8
30
  6
Continuous
 62
     0
370
    -2
100
AcDbLine
 10
202.8802541610629
 20
193.842494835158
 30
0.0
 11
190.6907969867331
 21
169.0766580769548
 31
0.0
  0
MTEXT
  5
4B3C
330
405E
100
AcDbEntity
  8
30
  6
Continuous
 62
     0
100
AcDbMText
 10
209.8802541610629
 20
196.842494835158
 30
0.0
 40
4.0
 41
0.0
 71
     5
 72
     1
  1
\A1;\U+22055.5
 73
     1
 44
1.0
  0
INSERT
  5
4B3D
330
405E
100
AcDbEntity
  8
30
  6
Continuous
 62
     0
370
    -2
100
AcDbBlockReference
  2
_OPEN
 10
189.8076012647009
 20
167.2822318966443
 30
0.0
 41
2.0
 42
2.0
 43
2.0
 50
243.7941245285325
  0
LINE
  5
4B3E
330
405E
100
AcDbEntity
  8
30
  6
Continuous
 62
     0
370
    -2
100
AcDbLine
 10
188.5032072394989
 20
164.8148960868408
 30
0.0
 11
188.6832072394989
 21
164.8148960868408
 31
0.0
  0
LINE
  5
4B3F
330
405E
100
AcDbEntity
  8
30
  6
Continuous
 62
     0
370
    -2
100
AcDbLine
 10
188.593207239499
 20
164.7248960868408
 30
0.0
 11
188.593207239499
 21
164.9048960868408
 31
0.0
  0
POINT
  5
4B40
330
405E
100
AcDbEntity
  8
DEFPOINTS
  6
Continuous
 62
     0
100
AcDbPoint
 10
189.8076012647009
 20
167.2822318966443
 30
0.0
  0
POINT
  5
4B41
330
405E
100
AcDbEntity
  8
DEFPOINTS
  6
Continuous
 62
     0
100
AcDbPoint
 10
187.378813214297
 20
162.3475602770374
 30
0.0
  0
ENDBLK
  5
4065
330
405E
100
AcDbEntity
  8
0
100
AcDbBlockEnd
  0
BLOCK
  5
4070
330
4066
100
AcDbEntity
  8
0
100
AcDbBlockBegin
  2
*D16
 70
     1
 10
0.0
 20
0.0
 30
0.0
  3
*D16
  1

  0
LINE
  5
4C5B
330
4066
100
AcDbEntity
  8
30
  6
Continuous
 62
     0
370
    -2
100
AcDbLine
 10
196.093207739499
 20
156.814895586841
 30
0.0
 11
196.093207739499
 21
148.7218078863829
 31
0.0
  0
LINE
  5
4C5C
330
4066
100
AcDbEntity
  8
30
  6
Continuous
 62
     0
370
    -2
100
AcDbLine
 10
181.093207739499
 20
156.814895586841
 30
0.0
 11
181.093207739499
 21
148.7218078863829
 31
0.0
  0
LINE
  5
4C5D
330
4066
100
AcDbEntity
  8
30
  6
Continuous
 62
     0
370
    -2
100
AcDbLine
 10
194.093207739499
 20
149.2218078863829
 30
0.0
 11
183.093207739499
 21
149.2218078863829
 31
0.0
  0
MTEXT
  5
4C5E
330
4066
100
AcDbEntity
  8
30
  6
Continuous
 62
     0
100
AcDbMText
 10
188.593207739499
 20
144.8862884303096
 30
0.0
 40
4.0
 41
0.0
 71
     5
 72
     1
  1
\A1;max15
 73
     1
 44
1.0
  0
INSERT
  5
4C5F
330
4066
100
AcDbEntity
  8
30
  6
Continuous
 62
     0
370
    -2
100
AcDbBlockReference
  2
_OPEN
 10
196.093207739499
 20
149.2218078863829
 30
0.0
 41
2.0
 42
2.0
 43
2.0
  0
INSERT
  5
4C60
330
4066
100
AcDbEntity
  8
30
  6
Continuous
 62
     0
370
    -2
100
AcDbBlockReference
  2
_OPEN
 10
181.093207739499
 20
149.2218078863829
 30
0.0
 41
2.0
 42
2.0
 43
2.0
 50
180.0
  0
POINT
  5
4C61
330
4066
100
AcDbEntity
  8
DEFPOINTS
  6
Continuous
 62
     0
100
AcDbPoint
 10
196.093207739499
 20
157.814895586841
 30
0.0
  0
POINT
  5
4C62
330
4066
100
AcDbEntity
  8
DEFPOINTS
  6
Continuous
 62
     0
100
AcDbPoint
 10
181.093207739499
 20
157.814895586841
 30
0.0
  0
POINT
  5
4C63
330
4066
100
AcDbEntity
  8
DEFPOINTS
  6
Continuous
 62
     0
100
AcDbPoint
 10
181.093207739499
 20
149.2218078863829
 30
0.0
  0
ENDBLK
  5
4071
330
4066
100
AcDbEntity
  8
0
100
AcDbBlockEnd
  0
BLOCK
  5
407E
330
4072
100
AcDbEntity
  8
0
100
AcDbBlockBegin
  2
*D17
 70
     1
 10
0.0
 20
0.0
 30
0.0
  3
*D17
  1

  0
LINE
  5
4B18
330
4072
100
AcDbEntity
  8
30
  6
Continuous
 62
     0
370
    -2
100
AcDbLine
 10
197.343207739499
 20
164.814896586841
 30
0.0
 11
205.701044739499
 21
164.814896586841
 31
0.0
  0
LINE
  5
4B19
330
4072
100
AcDbEntity
  8
30
  6
Continuous
 62
     0
370
    -2
100
AcDbLine
 10
197.093207739499
 20
157.814895586841
 30
0.0
 11
205.701044739499
 21
157.814895586841
 31
0.0
  0
LINE
  5
4B1A
330
4072
100
AcDbEntity
  8
30
  6
Continuous
 62
     0
370
    -2
100
AcDbLine
 10
205.201044739499
 20
162.814896586841
 30
0.0
 11
205.201044739499
 21
159.814895586841
 31
0.0
  0
INSERT
  5
4B1B
330
4072
100
AcDbEntity
  8
30
  6
Continuous
 62
     0
370
    -2
100
AcDbBlockReference
  2
_OPEN
 10
205.201044739499
 20
164.814896586841
 30
0.0
 41
2.0
 42
2.0
 43
2.0
 50
90.0
  0
INSERT
  5
4B1C
330
4072
100
AcDbEntity
  8
30
  6
Continuous
 62
     0
370
    -2
100
AcDbBlockReference
  2
_OPEN
 10
205.201044739499
 20
157.814895586841
 30
0.0
 41
2.0
 42
2.0
 43
2.0
 50
270.0
  0
MTEXT
  5
4B1D
330
4072
100
AcDbEntity
  8
30
  6
Continuous
 62
     0
100
AcDbMText
 10
202.201044739499
 20
161.3148960868409
 30
0.0
 40
4.0
 41
0.0
 71
     5
 72
     1
  1
\A1;7
 11
0.0000000000000001
 21
1.0
 31
0.0
 73
     1
 44
1.0
  0
POINT
  5
4B1E
330
4072
100
AcDbEntity
  8
DEFPOINTS
  6
Continuous
 62
     0
100
AcDbPoint
 10
196.343207739499
 20
164.814896586841
 30
0.0
  0
POINT
  5
4B1F
330
4072
100
AcDbEntity
  8
DEFPOINTS
  6
Continuous
 62
     0
100
AcDbPoint
 10
196.093207739499
 20
157.814895586841
 30
0.0
  0
POINT
  5
4B20
330
4072
100
AcDbEntity
  8
DEFPOINTS
  6
Continuous
 62
     0
100
AcDbPoint
 10
205.201044739499
 20
157.814895586841
 30
0.0
  0
ENDBLK
  5
407F
330
4072
100
AcDbEntity
  8
0
100
AcDbBlockEnd
  0
BLOCK
  5
40A4
330
409A
100
AcDbEntity
  8
0
100
AcDbBlockBegin
  2
*D18
 70
     1
 10
0.0
 20
0.0
 30
0.0
  3
*D18
  1

  0
LINE
  5
4675
330
409A
100
AcDbEntity
  8
30
  6
Continuous
 62
     0
370
    -2
100
AcDbLine
 10
220.0
 20
-44.06257100000004
 30
0.0
 11
220.0
 21
-69.99052100000003
 31
0.0
  0
LINE
  5
4676
330
409A
100
AcDbEntity
  8
30
  6
Continuous
 62
     0
370
    -2
100
AcDbLine
 10
136.0
 20
8.500002999999935
 30
0.0
 11
136.0
 21
-69.99052100000003
 31
0.0
  0
LINE
  5
4677
330
409A
100
AcDbEntity
  8
30
  6
Continuous
 62
     0
370
    -2
100
AcDbLine
 10
218.0
 20
-69.49052100000002
 30
0.0
 11
138.0
 21
-69.49052100000002
 31
0.0
  0
INSERT
  5
4678
330
409A
100
AcDbEntity
  8
30
  6
Continuous
 62
     0
370
    -2
100
AcDbBlockReference
  2
_OPEN
 10
220.0
 20
-69.49052100000002
 30
0.0
 41
2.0
 42
2.0
 43
2.0
  0
INSERT
  5
4679
330
409A
100
AcDbEntity
  8
30
  6
Continuous
 62
     0
370
    -2
100
AcDbBlockReference
  2
_OPEN
 10
136.0
 20
-69.49052100000002
 30
0.0
 41
2.0
 42
2.0
 43
2.0
 50
180.0
  0
MTEXT
  5
467A
330
409A
100
AcDbEntity
  8
30
  6
Continuous
 62
     0
100
AcDbMText
 10
178.0
 20
-66.49052100000003
 30
0.0
 40
4.0
 41
0.0
 71
     5
 72
     1
  1
\A1;84
 73
     1
 44
1.0
  0
POINT
  5
467B
330
409A
100
AcDbEntity
  8
DEFPOINTS
  6
Continuous
 62
     0
100
AcDbPoint
 10
220.0
 20
-43.06257100000005
 30
0.0
  0
POINT
  5
467C
330
409A
100
AcDbEntity
  8
DEFPOINTS
  6
Continuous
 62
     0
100
AcDbPoint
 10
136.0
 20
9.500002999999935
 30
0.0
  0
POINT
  5
467D
330
409A
100
AcDbEntity
  8
DEFPOINTS
  6
Continuous
 62
     0
100
AcDbPoint
 10
136.0
 20
-69.49052100000002
 30
0.0
  0
ENDBLK
  5
40A5
330
409A
100
AcDbEntity
  8
0
100
AcDbBlockEnd
  0
BLOCK
  5
40B0
330
40A6
100
AcDbEntity
  8
0
100
AcDbBlockBegin
  2
*D19
 70
     1
 10
0.0
 20
0.0
 30
0.0
  3
*D19
  1

  0
LINE
  5
4651
330
40A6
100
AcDbEntity
  8
30
  6
Continuous
 62
     0
370
    -2
100
AcDbLine
 10
169.000029
 20
48.19999999999999
 30
0.0
 11
169.000029
 21
68.70557699999995
 31
0.0
  0
LINE
  5
4652
330
40A6
100
AcDbEntity
  8
30
  6
Continuous
 62
     0
370
    -2
100
AcDbLine
 10
220.0
 20
44.00006199999995
 30
0.0
 11
220.0
 21
68.70557699999995
 31
0.0
  0
LINE
  5
4653
330
40A6
100
AcDbEntity
  8
30
  6
Continuous
 62
     0
370
    -2
100
AcDbLine
 10
171.000029
 20
68.20557699999994
 30
0.0
 11
218.0
 21
68.20557699999994
 31
0.0
  0
INSERT
  5
4654
330
40A6
100
AcDbEntity
  8
30
  6
Continuous
 62
     0
370
    -2
100
AcDbBlockReference
  2
_OPEN
 10
169.000029
 20
68.20557699999994
 30
0.0
 41
2.0
 42
2.0
 43
2.0
 50
180.0
  0
INSERT
  5
4655
330
40A6
100
AcDbEntity
  8
30
  6
Continuous
 62
     0
370
    -2
100
AcDbBlockReference
  2
_OPEN
 10
220.0
 20
68.20557699999994
 30
0.0
 41
2.0
 42
2.0
 43
2.0
  0
MTEXT
  5
4656
330
40A6
100
AcDbEntity
  8
30
  6
Continuous
 62
     0
100
AcDbMText
 10
194.5000139999999
 20
71.20557699999995
 30
0.0
 40
4.0
 41
0.0
 71
     5
 72
     1
  1
\A1;51
 73
     1
 44
1.0
  0
POINT
  5
4657
330
40A6
100
AcDbEntity
  8
DEFPOINTS
  6
Continuous
 62
     0
100
AcDbPoint
 10
169.000029
 20
47.19999999999998
 30
0.0
  0
POINT
  5
4658
330
40A6
100
AcDbEntity
  8
DEFPOINTS
  6
Continuous
 62
     0
100
AcDbPoint
 10
220.0
 20
43.00006199999995
 30
0.0
  0
POINT
  5
4659
330
40A6
100
AcDbEntity
  8
DEFPOINTS
  6
Continuous
 62
     0
100
AcDbPoint
 10
220.0
 20
68.20557699999994
 30
0.0
  0
ENDBLK
  5
40B1
330
40A6
100
AcDbEntity
  8
0
100
AcDbBlockEnd
  0
BLOCK
  5
40BC
330
40B2
100
AcDbEntity
  8
0
100
AcDbBlockBegin
  2
*D20
 70
     1
 10
0.0
 20
0.0
 30
0.0
  3
*D20
  1

  0
LINE
  5
4663
330
40B2
100
AcDbEntity
  8
30
  6
Continuous
 62
     0
370
    -2
100
AcDbLine
 10
176.9996089999999
 20
46.89999999999997
 30
0.0
 11
176.9996089999999
 21
59.77054899999996
 31
0.0
  0
LINE
  5
4664
330
40B2
100
AcDbEntity
  8
30
  6
Continuous
 62
     0
370
    -2
100
AcDbLine
 10
220.0
 20
44.00005999999996
 30
0.0
 11
220.0
 21
59.77054899999996
 31
0.0
  0
LINE
  5
4665
330
40B2
100
AcDbEntity
  8
30
  6
Continuous
 62
     0
370
    -2
100
AcDbLine
 10
178.9996089999999
 20
59.27054899999996
 30
0.0
 11
218.0
 21
59.27054899999996
 31
0.0
  0
INSERT
  5
4666
330
40B2
100
AcDbEntity
  8
30
  6
Continuous
 62
     0
370
    -2
100
AcDbBlockReference
  2
_OPEN
 10
176.9996089999999
 20
59.27054899999996
 30
0.0
 41
2.0
 42
2.0
 43
2.0
 50
180.0
  0
INSERT
  5
4667
330
40B2
100
AcDbEntity
  8
30
  6
Continuous
 62
     0
370
    -2
100
AcDbBlockReference
  2
_OPEN
 10
220.0
 20
59.27054899999996
 30
0.0
 41
2.0
 42
2.0
 43
2.0
  0
MTEXT
  5
4668
330
40B2
100
AcDbEntity
  8
30
  6
Continuous
 62
     0
100
AcDbMText
 10
198.499804
 20
62.27054899999996
 30
0.0
 40
4.0
 41
0.0
 71
     5
 72
     1
  1
\A1;43
 73
     1
 44
1.0
  0
POINT
  5
4669
330
40B2
100
AcDbEntity
  8
DEFPOINTS
  6
Continuous
 62
     0
100
AcDbPoint
 10
176.9996089999999
 20
45.89999999999998
 30
0.0
  0
POINT
  5
466A
330
40B2
100
AcDbEntity
  8
DEFPOINTS
  6
Continuous
 62
     0
100
AcDbPoint
 10
220.0
 20
43.00005999999996
 30
0.0
  0
POINT
  5
466B
330
40B2
100
AcDbEntity
  8
DEFPOINTS
  6
Continuous
 62
     0
100
AcDbPoint
 10
220.0
 20
59.27054899999996
 30
0.0
  0
ENDBLK
  5
40BD
330
40B2
100
AcDbEntity
  8
0
100
AcDbBlockEnd
  0
BLOCK
  5
40C8
330
40BE
100
AcDbEntity
  8
0
100
AcDbBlockBegin
  2
*D21
 70
     1
 10
0.0
 20
0.0
 30
0.0
  3
*D21
  1

  0
LINE
  5
466C
330
40BE
100
AcDbEntity
  8
30
  6
Continuous
 62
     0
370
    -2
100
AcDbLine
 10
220.0
 20
-44.00005400000003
 30
0.0
 11
220.0
 21
-61.81171800000004
 31
0.0
  0
LINE
  5
466D
330
40BE
100
AcDbEntity
  8
30
  6
Continuous
 62
     0
370
    -2
100
AcDbLine
 10
160.0000589999999
 20
-37.89997100000005
 30
0.0
 11
160.0000589999999
 21
-61.81171800000004
 31
0.0
  0
LINE
  5
466E
330
40BE
100
AcDbEntity
  8
30
  6
Continuous
 62
     0
370
    -2
100
AcDbLine
 10
218.0
 20
-61.31171800000004
 30
0.0
 11
162.0000589999999
 21
-61.31171800000004
 31
0.0
  0
INSERT
  5
466F
330
40BE
100
AcDbEntity
  8
30
  6
Continuous
 62
     0
370
    -2
100
AcDbBlockReference
  2
_OPEN
 10
220.0
 20
-61.31171800000004
 30
0.0
 41
2.0
 42
2.0
 43
2.0
  0
INSERT
  5
4670
330
40BE
100
AcDbEntity
  8
30
  6
Continuous
 62
     0
370
    -2
100
AcDbBlockReference
  2
_OPEN
 10
160.0000589999999
 20
-61.31171800000004
 30
0.0
 41
2.0
 42
2.0
 43
2.0
 50
180.0
  0
MTEXT
  5
4671
330
40BE
100
AcDbEntity
  8
30
  6
Continuous
 62
     0
100
AcDbMText
 10
190.00003
 20
-58.31171800000004
 30
0.0
 40
4.0
 41
0.0
 71
     5
 72
     1
  1
\A1;60
 73
     1
 44
1.0
  0
POINT
  5
4672
330
40BE
100
AcDbEntity
  8
DEFPOINTS
  6
Continuous
 62
     0
100
AcDbPoint
 10
220.0
 20
-43.00005400000003
 30
0.0
  0
POINT
  5
4673
330
40BE
100
AcDbEntity
  8
DEFPOINTS
  6
Continuous
 62
     0
100
AcDbPoint
 10
160.0000589999999
 20
-36.89997100000005
 30
0.0
  0
POINT
  5
4674
330
40BE
100
AcDbEntity
  8
DEFPOINTS
  6
Continuous
 62
     0
100
AcDbPoint
 10
160.0000589999999
 20
-61.31171800000004
 30
0.0
  0
ENDBLK
  5
40C9
330
40BE
100
AcDbEntity
  8
0
100
AcDbBlockEnd
  0
BLOCK
  5
40D4
330
40CA
100
AcDbEntity
  8
0
100
AcDbBlockBegin
  2
*D22
 70
     1
 10
0.0
 20
0.0
 30
0.0
  3
*D22
  1

  0
LINE
  5
465A
330
40CA
100
AcDbEntity
  8
30
  6
Continuous
 62
     0
370
    -2
100
AcDbLine
 10
159.4999999999999
 20
-38.0
 30
0.0
 11
126.0777739999999
 21
-37.99999999999999
 31
0.0
  0
LINE
  5
465B
330
40CA
100
AcDbEntity
  8
30
  6
Continuous
 62
     0
370
    -2
100
AcDbLine
 10
159.4999999999999
 20
38.0
 30
0.0
 11
126.0777739999999
 21
38.0
 31
0.0
  0
LINE
  5
465C
330
40CA
100
AcDbEntity
  8
30
  6
Continuous
 62
     0
370
    -2
100
AcDbLine
 10
126.5777739999999
 20
-35.99999999999999
 30
0.0
 11
126.5777739999999
 21
36.0
 31
0.0
  0
INSERT
  5
465D
330
40CA
100
AcDbEntity
  8
30
  6
Continuous
 62
     0
370
    -2
100
AcDbBlockReference
  2
_OPEN
 10
126.5777739999999
 20
-37.99999999999999
 30
0.0
 41
2.0
 42
2.0
 43
2.0
 50
270.0
  0
INSERT
  5
465E
330
40CA
100
AcDbEntity
  8
30
  6
Continuous
 62
     0
370
    -2
100
AcDbBlockReference
  2
_OPEN
 10
126.5777739999999
 20
38.0
 30
0.0
 41
2.0
 42
2.0
 43
2.0
 50
90.0
  0
MTEXT
  5
465F
330
40CA
100
AcDbEntity
  8
30
  6
Continuous
 62
     0
100
AcDbMText
 10
123.5777739999999
 20
0.0000000000000004
 30
0.0
 40
4.0
 41
0.0
 71
     5
 72
     1
  1
\A1;76
 11
0.0000000000000001
 21
1.0
 31
0.0
 73
     1
 44
1.0
  0
POINT
  5
4660
330
40CA
100
AcDbEntity
  8
DEFPOINTS
  6
Continuous
 62
     0
100
AcDbPoint
 10
160.4999999999999
 20
-38.0
 30
0.0
  0
POINT
  5
4661
330
40CA
100
AcDbEntity
  8
DEFPOINTS
  6
Continuous
 62
     0
100
AcDbPoint
 10
160.4999999999999
 20
38.0
 30
0.0
  0
POINT
  5
4662
330
40CA
100
AcDbEntity
  8
DEFPOINTS
  6
Continuous
 62
     0
100
AcDbPoint
 10
126.5777739999999
 20
38.0
 30
0.0
  0
ENDBLK
  5
40D5
330
40CA
100
AcDbEntity
  8
0
100
AcDbBlockEnd
  0
BLOCK
  5
40E2
330
40D6
100
AcDbEntity
  8
0
100
AcDbBlockBegin
  2
*D23
 70
     1
 10
0.0
 20
0.0
 30
0.0
  3
*D23
  1

  0
LINE
  5
467E
330
40D6
100
AcDbEntity
  8
30
  6
Continuous
 62
     0
370
    -2
100
AcDbLine
 10
152.0
 20
-26.0
 30
0.0
 11
152.0
 21
-61.81171800000004
 31
0.0
  0
LINE
  5
467F
330
40D6
100
AcDbEntity
  8
30
  6
Continuous
 62
     0
370
    -2
100
AcDbLine
 10
148.0
 20
-25.0
 30
0.0
 11
148.0
 21
-61.81171800000004
 31
0.0
  0
LINE
  5
4680
330
40D6
100
AcDbEntity
  8
30
  6
Continuous
 62
     0
370
    -2
100
AcDbLine
 10
154.0
 20
-61.31171800000004
 30
0.0
 11
156.0
 21
-61.31171800000004
 31
0.0
  0
LINE
  5
4681
330
40D6
100
AcDbEntity
  8
30
  6
Continuous
 62
     0
370
    -2
100
AcDbLine
 10
146.0
 20
-61.31171800000004
 30
0.0
 11
136.5119945133333
 21
-61.31171800000004
 31
0.0
  0
INSERT
  5
4682
330
40D6
100
AcDbEntity
  8
30
  6
Continuous
 62
     0
370
    -2
100
AcDbBlockReference
  2
_OPEN
 10
152.0
 20
-61.31171800000004
 30
0.0
 41
2.0
 42
2.0
 43
2.0
 50
180.0
  0
INSERT
  5
4683
330
40D6
100
AcDbEntity
  8
30
  6
Continuous
 62
     0
370
    -2
100
AcDbBlockReference
  2
_OPEN
 10
148.0
 20
-61.31171800000004
 30
0.0
 41
2.0
 42
2.0
 43
2.0
  0
MTEXT
  5
4684
330
40D6
100
AcDbEntity
  8
30
  6
Continuous
 62
     0
100
AcDbMText
 10
138.8453278466666
 20
-58.31171800000004
 30
0.0
 40
4.0
 41
0.0
 71
     5
 72
     1
  1
\A1;4
 73
     1
 44
1.0
  0
POINT
  5
4685
330
40D6
100
AcDbEntity
  8
DEFPOINTS
  6
Continuous
 62
     0
100
AcDbPoint
 10
152.0
 20
-25.0
 30
0.0
  0
POINT
  5
4686
330
40D6
100
AcDbEntity
  8
DEFPOINTS
  6
Continuous
 62
     0
100
AcDbPoint
 10
148.0
 20
-24.0
 30
0.0
  0
POINT
  5
4687
330
40D6
100
AcDbEntity
  8
DEFPOINTS
  6
Continuous
 62
     0
100
AcDbPoint
 10
148.0
 20
-61.31171800000004
 30
0.0
  0
ENDBLK
  5
40E3
330
40D6
100
AcDbEntity
  8
0
100
AcDbBlockEnd
  0
BLOCK
  5
40EE
330
40E4
100
AcDbEntity
  8
0
100
AcDbBlockBegin
  2
*D24
 70
     1
 10
0.0
 20
0.0
 30
0.0
  3
*D24
  1

  0
LINE
  5
4688
330
40E4
100
AcDbEntity
  8
30
  6
Continuous
 62
     0
370
    -2
100
AcDbLine
 10
160.0
 20
-38.5
 30
0.0
 11
160.0
 21
-61.81171800000004
 31
0.0
  0
LINE
  5
4689
330
40E4
100
AcDbEntity
  8
30
  6
Continuous
 62
     0
370
    -2
100
AcDbLine
 10
152.0
 20
-26.0
 30
0.0
 11
152.0
 21
-61.81171800000004
 31
0.0
  0
LINE
  5
468A
330
40E4
100
AcDbEntity
  8
30
  6
Continuous
 62
     0
370
    -2
100
AcDbLine
 10
158.0
 20
-61.31171800000004
 30
0.0
 11
154.0
 21
-61.31171800000004
 31
0.0
  0
INSERT
  5
468B
330
40E4
100
AcDbEntity
  8
30
  6
Continuous
 62
     0
370
    -2
100
AcDbBlockReference
  2
_OPEN
 10
160.0
 20
-61.31171800000004
 30
0.0
 41
2.0
 42
2.0
 43
2.0
  0
INSERT
  5
468C
330
40E4
100
AcDbEntity
  8
30
  6
Continuous
 62
     0
370
    -2
100
AcDbBlockReference
  2
_OPEN
 10
152.0
 20
-61.31171800000004
 30
0.0
 41
2.0
 42
2.0
 43
2.0
 50
180.0
  0
MTEXT
  5
468D
330
40E4
100
AcDbEntity
  8
30
  6
Continuous
 62
     0
100
AcDbMText
 10
156.0
 20
-58.31171800000004
 30
0.0
 40
4.0
 41
0.0
 71
     5
 72
     1
  1
\A1;8
 73
     1
 44
1.0
  0
POINT
  5
468E
330
40E4
100
AcDbEntity
  8
DEFPOINTS
  6
Continuous
 62
     0
100
AcDbPoint
 10
160.0
 20
-37.5
 30
0.0
  0
POINT
  5
468F
330
40E4
100
AcDbEntity
  8
DEFPOINTS
  6
Continuous
 62
     0
100
AcDbPoint
 10
152.0
 20
-25.0
 30
0.0
  0
POINT
  5
4690
330
40E4
100
AcDbEntity
  8
DEFPOINTS
  6
Continuous
 62
     0
100
AcDbPoint
 10
152.0
 20
-61.31171800000004
 30
0.0
  0
ENDBLK
  5
40EF
330
40E4
100
AcDbEntity
  8
0
100
AcDbBlockEnd
  0
BLOCK
  5
4D77
330
4D6D
100
AcDbEntity
  8
0
100
AcDbBlockBegin
  2
*D36
 70
     1
 10
0.0
 20
0.0
 30
0.0
  3
*D36
  1

  0
LINE
  5
4EE1
330
4D6D
100
AcDbEntity
  8
30
  6
Continuous
 62
     0
370
    -2
100
AcDbLine
 10
-26.0
 20
222.0
 30
0.0
 11
-41.83816379239234
 21
222.0
 31
0.0
  0
LINE
  5
4EE2
330
4D6D
100
AcDbEntity
  8
30
  6
Continuous
 62
     0
370
    -2
100
AcDbLine
 10
-19.55000349999998
 20
138.0
 30
0.0
 11
-41.83816379239236
 21
138.0
 31
0.0
  0
LINE
  5
4EE3
330
4D6D
100
AcDbEntity
  8
30
  6
Continuous
 62
     0
370
    -2
100
AcDbLine
 10
-41.33816379239234
 20
220.0
 30
0.0
 11
-41.33816379239236
 21
140.0
 31
0.0
  0
INSERT
  5
4EE4
330
4D6D
100
AcDbEntity
  8
30
  6
Continuous
 62
     0
370
    -2
100
AcDbBlockReference
  2
_OPEN
 10
-41.33816379239234
 20
222.0
 30
0.0
 41
2.0
 42
2.0
 43
2.0
 50
90.0
  0
INSERT
  5
4EE5
330
4D6D
100
AcDbEntity
  8
30
  6
Continuous
 62
     0
370
    -2
100
AcDbBlockReference
  2
_OPEN
 10
-41.33816379239236
 20
138.0
 30
0.0
 41
2.0
 42
2.0
 43
2.0
 50
270.0
  0
MTEXT
  5
4EE6
330
4D6D
100
AcDbEntity
  8
30
  6
Continuous
 62
     0
100
AcDbMText
 10
-44.33816379239238
 20
180.0
 30
0.0
 40
4.0
 41
0.0
 71
     5
 72
     1
  1
\A1;84
 11
0.0000000000000001
 21
1.0
 31
0.0
 73
     1
 44
1.0
  0
POINT
  5
4EE7
330
4D6D
100
AcDbEntity
  8
DEFPOINTS
  6
Continuous
 62
     0
100
AcDbPoint
 10
-25.0
 20
222.0
 30
0.0
  0
POINT
  5
4EE8
330
4D6D
100
AcDbEntity
  8
DEFPOINTS
  6
Continuous
 62
     0
100
AcDbPoint
 10
-18.55000349999998
 20
138.0
 30
0.0
  0
POINT
  5
4EE9
330
4D6D
100
AcDbEntity
  8
DEFPOINTS
  6
Continuous
 62
     0
100
AcDbPoint
 10
-41.33816379239236
 20
138.0
 30
0.0
  0
ENDBLK
  5
4D78
330
4D6D
100
AcDbEntity
  8
0
100
AcDbBlockEnd
  0
BLOCK
  5
4D83
330
4D79
100
AcDbEntity
  8
0
100
AcDbBlockBegin
  2
*D37
 70
     1
 10
0.0
 20
0.0
 30
0.0
  3
*D37
  1

  0
LINE
  5
4ED8
330
4D79
100
AcDbEntity
  8
30
  6
Continuous
 62
     0
370
    -2
100
AcDbLine
 10
-31.00005400000009
 20
221.9999999999999
 30
0.0
 11
-33.65936079239233
 21
221.9999999999999
 31
0.0
  0
LINE
  5
4ED9
330
4D79
100
AcDbEntity
  8
30
  6
Continuous
 62
     0
370
    -2
100
AcDbLine
 10
-24.89997100000005
 20
162.0000589999999
 30
0.0
 11
-33.65936079239235
 21
162.0000589999999
 31
0.0
  0
LINE
  5
4EDA
330
4D79
100
AcDbEntity
  8
30
  6
Continuous
 62
     0
370
    -2
100
AcDbLine
 10
-33.15936079239233
 20
219.9999999999999
 30
0.0
 11
-33.15936079239234
 21
164.0000589999999
 31
0.0
  0
INSERT
  5
4EDB
330
4D79
100
AcDbEntity
  8
30
  6
Continuous
 62
     0
370
    -2
100
AcDbBlockReference
  2
_OPEN
 10
-33.15936079239233
 20
221.9999999999999
 30
0.0
 41
2.0
 42
2.0
 43
2.0
 50
90.0
  0
INSERT
  5
4EDC
330
4D79
100
AcDbEntity
  8
30
  6
Continuous
 62
     0
370
    -2
100
AcDbBlockReference
  2
_OPEN
 10
-33.15936079239234
 20
162.0000589999999
 30
0.0
 41
2.0
 42
2.0
 43
2.0
 50
270.0
  0
MTEXT
  5
4EDD
330
4D79
100
AcDbEntity
  8
30
  6
Continuous
 62
     0
100
AcDbMText
 10
-36.15936079239236
 20
192.00003
 30
0.0
 40
4.0
 41
0.0
 71
     5
 72
     1
  1
\A1;60
 11
0.0000000000000001
 21
1.0
 31
0.0
 73
     1
 44
1.0
  0
POINT
  5
4EDE
330
4D79
100
AcDbEntity
  8
DEFPOINTS
  6
Continuous
 62
     0
100
AcDbPoint
 10
-30.00005400000009
 20
221.9999999999999
 30
0.0
  0
POINT
  5
4EDF
330
4D79
100
AcDbEntity
  8
DEFPOINTS
  6
Continuous
 62
     0
100
AcDbPoint
 10
-23.89997100000005
 20
162.0000589999999
 30
0.0
  0
POINT
  5
4EE0
330
4D79
100
AcDbEntity
  8
DEFPOINTS
  6
Continuous
 62
     0
100
AcDbPoint
 10
-33.15936079239234
 20
162.0000589999999
 30
0.0
  0
ENDBLK
  5
4D84
330
4D79
100
AcDbEntity
  8
0
100
AcDbBlockEnd
  0
BLOCK
  5
4D8F
330
4D85
100
AcDbEntity
  8
0
100
AcDbBlockBegin
  2
*D38
 70
     1
 10
0.0
 20
0.0
 30
0.0
  3
*D38
  1

  0
LINE
  5
4ECF
330
4D85
100
AcDbEntity
  8
30
  6
Continuous
 62
     0
370
    -2
100
AcDbLine
 10
-25.5
 20
161.9999999999999
 30
0.0
 11
-33.65936079239234
 21
161.9999999999999
 31
0.0
  0
LINE
  5
4ED0
330
4D85
100
AcDbEntity
  8
30
  6
Continuous
 62
     0
370
    -2
100
AcDbLine
 10
-25.88180899999998
 20
154.0
 30
0.0
 11
-33.65936079239234
 21
154.0
 31
0.0
  0
LINE
  5
4ED1
330
4D85
100
AcDbEntity
  8
30
  6
Continuous
 62
     0
370
    -2
100
AcDbLine
 10
-33.15936079239234
 20
159.9999999999999
 30
0.0
 11
-33.15936079239234
 21
156.0
 31
0.0
  0
INSERT
  5
4ED2
330
4D85
100
AcDbEntity
  8
30
  6
Continuous
 62
     0
370
    -2
100
AcDbBlockReference
  2
_OPEN
 10
-33.15936079239234
 20
161.9999999999999
 30
0.0
 41
2.0
 42
2.0
 43
2.0
 50
90.0
  0
INSERT
  5
4ED3
330
4D85
100
AcDbEntity
  8
30
  6
Continuous
 62
     0
370
    -2
100
AcDbBlockReference
  2
_OPEN
 10
-33.15936079239234
 20
154.0
 30
0.0
 41
2.0
 42
2.0
 43
2.0
 50
270.0
  0
MTEXT
  5
4ED4
330
4D85
100
AcDbEntity
  8
30
  6
Continuous
 62
     0
100
AcDbMText
 10
-36.15936079239236
 20
158.0
 30
0.0
 40
4.0
 41
0.0
 71
     5
 72
     1
  1
\A1;8
 11
0.0000000000000001
 21
1.0
 31
0.0
 73
     1
 44
1.0
  0
POINT
  5
4ED5
330
4D85
100
AcDbEntity
  8
DEFPOINTS
  6
Continuous
 62
     0
100
AcDbPoint
 10
-24.50000000000001
 20
161.9999999999999
 30
0.0
  0
POINT
  5
4ED6
330
4D85
100
AcDbEntity
  8
DEFPOINTS
  6
Continuous
 62
     0
100
AcDbPoint
 10
-24.88180899999998
 20
154.0
 30
0.0
  0
POINT
  5
4ED7
330
4D85
100
AcDbEntity
  8
DEFPOINTS
  6
Continuous
 62
     0
100
AcDbPoint
 10
-33.15936079239234
 20
154.0
 30
0.0
  0
ENDBLK
  5
4D90
330
4D85
100
AcDbEntity
  8
0
100
AcDbBlockEnd
  0
BLOCK
  5
4D9D
330
4D91
100
AcDbEntity
  8
0
100
AcDbBlockBegin
  2
*D39
 70
     1
 10
0.0
 20
0.0
 30
0.0
  3
*D39
  1

  0
LINE
  5
4EEA
330
4D91
100
AcDbEntity
  8
30
  6
Continuous
 62
     0
370
    -2
100
AcDbLine
 10
-25.88180899999998
 20
154.0
 30
0.0
 11
-33.65936079239249
 21
154.0
 31
0.0
  0
LINE
  5
4EEB
330
4D91
100
AcDbEntity
  8
30
  6
Continuous
 62
     0
370
    -2
100
AcDbLine
 10
-24.88180899999998
 20
150.0
 30
0.0
 11
-33.65936079239249
 21
150.0
 31
0.0
  0
LINE
  5
4EEC
330
4D91
100
AcDbEntity
  8
30
  6
Continuous
 62
     0
370
    -2
100
AcDbLine
 10
-33.15936079239249
 20
156.0
 30
0.0
 11
-33.15936079239249
 21
158.0
 31
0.0
  0
LINE
  5
4EED
330
4D91
100
AcDbEntity
  8
30
  6
Continuous
 62
     0
370
    -2
100
AcDbLine
 10
-33.15936079239249
 20
148.0
 30
0.0
 11
-33.1593607923925
 21
140.8453278466667
 31
0.0
  0
LINE
  5
4EEE
330
4D91
100
AcDbEntity
  8
30
  6
Continuous
 62
     0
370
    -2
100
AcDbLine
 10
-33.1593607923925
 20
140.8453278466667
 30
0.0
 11
-36.82602745905916
 21
140.8453278466667
 31
0.0
  0
INSERT
  5
4EEF
330
4D91
100
AcDbEntity
  8
30
  6
Continuous
 62
     0
370
    -2
100
AcDbBlockReference
  2
_OPEN
 10
-33.15936079239249
 20
154.0
 30
0.0
 41
2.0
 42
2.0
 43
2.0
 50
270.0
  0
INSERT
  5
4EF0
330
4D91
100
AcDbEntity
  8
30
  6
Continuous
 62
     0
370
    -2
100
AcDbBlockReference
  2
_OPEN
 10
-33.15936079239249
 20
150.0
 30
0.0
 41
2.0
 42
2.0
 43
2.0
 50
90.0
  0
MTEXT
  5
4EF1
330
4D91
100
AcDbEntity
  8
30
  6
Continuous
 62
     0
100
AcDbMText
 10
-35.49269412572585
 20
143.8453278466667
 30
0.0
 40
4.0
 41
0.0
 71
     5
 72
     1
  1
\A1;4
 73
     1
 44
1.0
  0
POINT
  5
4EF2
330
4D91
100
AcDbEntity
  8
DEFPOINTS
  6
Continuous
 62
     0
100
AcDbPoint
 10
-24.88180899999998
 20
154.0
 30
0.0
  0
POINT
  5
4EF3
330
4D91
100
AcDbEntity
  8
DEFPOINTS
  6
Continuous
 62
     0
100
AcDbPoint
 10
-23.88180899999998
 20
150.0
 30
0.0
  0
POINT
  5
4EF4
330
4D91
100
AcDbEntity
  8
DEFPOINTS
  6
Continuous
 62
     0
100
AcDbPoint
 10
-33.15936079239249
 20
150.0
 30
0.0
  0
ENDBLK
  5
4D9E
330
4D91
100
AcDbEntity
  8
0
100
AcDbBlockEnd
  0
BLOCK
  5
4DA9
330
4D9F
100
AcDbEntity
  8
0
100
AcDbBlockBegin
  2
*D40
 70
     1
 10
0.0
 20
0.0
 30
0.0
  3
*D40
  1

  0
LINE
  5
4E9F
330
4D9F
100
AcDbEntity
  8
30
  6
Continuous
 62
     0
370
    -2
100
AcDbLine
 10
25.981748
 20
222.0
 30
0.0
 11
33.79954771902377
 21
222.0
 31
0.0
  0
LINE
  5
4EA0
330
4D9F
100
AcDbEntity
  8
30
  6
Continuous
 62
     0
370
    -2
100
AcDbLine
 10
18.3818505
 20
198.0
 30
0.0
 11
33.79954771902376
 21
198.0
 31
0.0
  0
LINE
  5
4EA1
330
4D9F
100
AcDbEntity
  8
30
  6
Continuous
 62
     0
370
    -2
100
AcDbLine
 10
33.29954771902377
 20
220.0
 30
0.0
 11
33.29954771902376
 21
200.0
 31
0.0
  0
INSERT
  5
4EA2
330
4D9F
100
AcDbEntity
  8
30
  6
Continuous
 62
     0
370
    -2
100
AcDbBlockReference
  2
_OPEN
 10
33.29954771902377
 20
222.0
 30
0.0
 41
2.0
 42
2.0
 43
2.0
 50
90.0
  0
INSERT
  5
4EA3
330
4D9F
100
AcDbEntity
  8
30
  6
Continuous
 62
     0
370
    -2
100
AcDbBlockReference
  2
_OPEN
 10
33.29954771902376
 20
198.0
 30
0.0
 41
2.0
 42
2.0
 43
2.0
 50
270.0
  0
MTEXT
  5
4EA4
330
4D9F
100
AcDbEntity
  8
30
  6
Continuous
 62
     0
100
AcDbMText
 10
30.29954771902373
 20
210.0
 30
0.0
 40
4.0
 41
0.0
 71
     5
 72
     1
  1
\A1;24
 11
0.0000000000000001
 21
1.0
 31
0.0
 73
     1
 44
1.0
  0
POINT
  5
4EA5
330
4D9F
100
AcDbEntity
  8
DEFPOINTS
  6
Continuous
 62
     0
100
AcDbPoint
 10
24.981748
 20
222.0
 30
0.0
  0
POINT
  5
4EA6
330
4D9F
100
AcDbEntity
  8
DEFPOINTS
  6
Continuous
 62
     0
100
AcDbPoint
 10
17.3818505
 20
198.0
 30
0.0
  0
POINT
  5
4EA7
330
4D9F
100
AcDbEntity
  8
DEFPOINTS
  6
Continuous
 62
     0
100
AcDbPoint
 10
33.29954771902376
 20
198.0
 30
0.0
  0
ENDBLK
  5
4DAA
330
4D9F
100
AcDbEntity
  8
0
100
AcDbBlockEnd
  0
ENDSEC
  0
SECTION
  2
ENTITIES
  0
LINE
  5
B4
330
1E
100
AcDbEntity
  8
16
100
AcDbLine
 10
0.0
 20
-68.697891
 30
0.0
 11
0.0
 21
71.25
 31
0.0
  0
LINE
  5
B5
330
1E
100
AcDbEntity
  8
16
100
AcDbLine
 10
48.424128
 20
0.0
 30
0.0
 11
-56.608689
 21
0.0
 31
0.0
  0
MTEXT
  5
BF3
330
1E
100
AcDbEntity
  8
24
  6
Continuous
100
AcDbMText
 10
142.118191
 20
177.5
 30
0.0
 40
3.0
 41
0.0
 71
     1
 72
     1
  1
\A1;
 73
     1
 44
1.0
  0
LINE
  5
1C9B
330
1E
100
AcDbEntity
  8
16
100
AcDbLine
 10
219.189032
 20
0.0
 30
0.0
 11
115.19371
 21
0.0
 31
0.0
  0
LINE
  5
2233
330
1E
100
AcDbEntity
  8
16
100
AcDbLine
 10
160.0
 20
-318.697891
 30
0.0
 11
160.0
 21
-178.75
 31
0.0
  0
LINE
  5
2234
330
1E
100
AcDbEntity
  8
16
100
AcDbLine
 10
208.424128
 20
-250.0
 30
0.0
 11
103.391311
 21
-250.0
 31
0.0
  0
LINE
  5
2260
330
1E
100
AcDbEntity
  8
16
100
AcDbLine
 10
48.424128
 20
-250.0
 30
0.0
 11
-56.608689
 21
-250.0
 31
0.0
  0
LINE
  5
2261
330
1E
100
AcDbEntity
  8
16
100
AcDbLine
 10
0.0
 20
-318.697891
 30
0.0
 11
0.0
 21
-178.75
 31
0.0
  0
DIMENSION
  5
3DA9
330
1E
100
AcDbEntity
  8
30
  6
Continuous
100
AcDbDimension
  2
*D1
 10
135.0000079999999
 20
-312.4674329448298
 30
0.0
 11
160.0
 21
-318.697891
 31
0.0
 70
   160
  1
more than <>
 71
     5
 42
49.99998399999992
  3
STANDARD
100
AcDbAlignedDimension
 13
184.9999919999999
 23
-274.0
 33
0.0
 14
135.0000079999999
 24
-274.0
 34
0.0
100
AcDbRotatedDimension
1001
ACAD
1000
DSTYLE
1002
{
1070
   279
1070
     2
1002
}
  0
DIMENSION
  5
3DAB
330
1E
100
AcDbEntity
  8
30
  6
Continuous
100
AcDbDimension
  2
*D2
 10
53.20407600000002
 20
-49.75000200000003
 30
0.0
 11
53.20407600000004
 21
0.0000009999999406
 31
0.0
 70
   160
  1
<>
 71
     5
 42
99.50000299999997
  3
STANDARD
100
AcDbAlignedDimension
 13
23.19993900000003
 23
49.75000099999994
 33
0.0
 14
21.00000099999999
 24
-49.75000200000002
 34
0.0
 50
90.0
100
AcDbRotatedDimension
  0
LINE
  5
3DB1
330
1E
100
AcDbEntity
  8
11
  6
Continuous
100
AcDbLine
 10
137.0
 20
-223.9999979999999
 30
0.0
 11
183.0000019999999
 21
-223.999998
 31
0.0
  0
LINE
  5
3DB2
330
1E
100
AcDbEntity
  8
11
  6
Continuous
100
AcDbLine
 10
137.0
 20
-276.0000000000001
 30
0.0
 11
183.0000019999999
 21
-276.0
 31
0.0
  0
MTEXT
  5
3DB7
330
1E
100
AcDbEntity
  8
30
  6
Continuous
100
AcDbMText
 10
-35.57914100000004
 20
-188.4391699999999
 30
0.0
 40
3.535533
 41
0.0
 71
     4
 72
     1
  1
\W0.827;\A1;M4 or \U+22055
  7
MX_NOTE_STANDARD
 73
     1
 44
1.0
  0
LEADER
  5
3DB8
330
1E
100
AcDbEntity
  8
30
  6
Continuous
100
AcDbLeader
  3
STANDARD
 74
     0
 76
     3
 10
-1.243619000000023
 20
-206.4336609999999
 30
0.0
 10
-12.30248600000004
 20
-192.5050329999999
 30
0.0
 10
-35.57914100000004
 20
-192.5050329999999
 30
0.0
  0
DIMENSION
  5
3DB9
330
1E
100
AcDbEntity
  8
30
  6
Continuous
100
AcDbDimension
  2
*D3
 10
39.67718799156882
 20
-292.0
 30
0.0
 11
39.67718799156887
 21
-250.0
 31
0.0
 70
   160
  1
<>
 71
     5
 42
84.00000200000006
  3
STANDARD
100
AcDbAlignedDimension
 13
7.87545399999999
 23
-207.9999979999999
 33
0.0
 14
8.453547999999955
 24
-292.0
 34
0.0
 50
90.0
100
AcDbRotatedDimension
  0
LINE
  5
3DBB
330
1E
100
AcDbEntity
  8
18
  6
DIVIDE
100
AcDbLine
 10
25.0
 20
-299.9999839999999
 30
0.0
 11
25.0
 21
-200.0000159999999
 31
0.0
  0
LINE
  5
3DBC
330
1E
100
AcDbEntity
  8
18
  6
DIVIDE
100
AcDbLine
 10
-25.00000199999999
 20
-299.9999839999999
 30
0.0
 11
-25.00000199999999
 21
-200.0000159999999
 31
0.0
  0
LINE
  5
3DBF
330
1E
100
AcDbEntity
  8
12
  6
CONTINOUS
100
AcDbLine
 10
-3.796151000000008
 20
-292.0
 30
0.0
 11
4.226773999999977
 21
-292.0
 31
0.0
  0
LINE
  5
3DC0
330
1E
100
AcDbEntity
  8
18
  6
DIVIDE
100
AcDbLine
 10
-25.00000199999999
 20
-299.9999839999999
 30
0.0
 11
25.0
 21
-299.9999839999999
 31
0.0
  0
CIRCLE
  5
3DC1
330
1E
100
AcDbEntity
  8
12
  6
CONTINOUS
100
AcDbCircle
 10
0.0
 20
-292.0
 30
0.0
 40
2.0
  0
CIRCLE
  5
3DC2
330
1E
100
AcDbEntity
  8
12
  6
CONTINOUS
100
AcDbCircle
 10
0.0
 20
-292.0
 30
0.0
 40
1.25
  0
LINE
  5
3DC3
330
1E
100
AcDbEntity
  8
12
  6
CONTINOUS
100
AcDbLine
 10
-4.113158999999996
 20
-207.9999979999999
 30
0.0
 11
3.937727999999992
 21
-207.9999979999999
 31
0.0
  0
LINE
  5
3DC5
330
1E
100
AcDbEntity
  8
18
  6
DIVIDE
100
AcDbLine
 10
-25.00000199999999
 20
-200.0000159999999
 30
0.0
 11
25.0
 21
-200.0000159999999
 31
0.0
  0
CIRCLE
  5
3DC8
330
1E
100
AcDbEntity
  8
12
  6
CONTINOUS
100
AcDbCircle
 10
0.0
 20
-207.9999979999999
 30
0.0
 40
2.0
  0
CIRCLE
  5
3DC9
330
1E
100
AcDbEntity
  8
12
  6
CONTINOUS
100
AcDbCircle
 10
0.0
 20
-207.9999979999999
 30
0.0
 40
1.25
  0
LINE
  5
3DCF
330
1E
100
AcDbEntity
  8
11
  6
Continuous
100
AcDbLine
 10
135.0
 20
-274.0000000000001
 30
0.0
 11
135.0
 21
-225.9999979999999
 31
0.0
  0
DIMENSION
  5
3DD1
330
1E
100
AcDbEntity
  8
30
  6
Continuous
100
AcDbDimension
  2
*D4
 10
137.0000079999999
 20
-225.9999979999999
 30
0.0
 11
111.0240315419203
 21
-218.7573608752549
 31
0.0
 70
    36
  1
less than <>
 71
     5
 42
1.999999204685082
  3
STANDARD
100
AcDbRadialDimension
 15
135.5857939999998
 25
-224.5857859999997
 35
0.0
 40
0.0
  0
ARC
  5
3DD2
330
1E
100
AcDbEntity
  8
11
  6
Continuous
100
AcDbCircle
 10
137.0000079999999
 20
-225.9999979999999
 30
0.0
 40
2.0
100
AcDbArc
 50
90.0
 51
180.0000050000005
  0
DIMENSION
  5
3DD5
330
1E
100
AcDbEntity
  8
30
  6
Continuous
100
AcDbDimension
  2
*D5
 10
-44.83404099999995
 20
41.99993999999999
 30
0.0
 11
-44.83404099999996
 21
-0.0054860000000758
 31
0.0
 70
   160
  1
<>
 71
     5
 42
84.01085399999999
  3
STANDARD
100
AcDbAlignedDimension
 13
-3.449938999999972
 23
-42.01091400000001
 33
0.0
 14
-3.44996900000001
 24
41.99993999999998
 34
0.0
 50
90.0
100
AcDbRotatedDimension
  0
DIMENSION
  5
3DD6
330
1E
100
AcDbEntity
  8
30
  6
Continuous
100
AcDbDimension
  2
*D6
 10
44.012814
 20
40.0
 30
0.0
 11
44.01281399999999
 21
44.87500049999997
 31
0.0
 70
   160
  1
<>
 71
     5
 42
9.75000099999994
  3
STANDARD
100
AcDbAlignedDimension
 13
19.999999
 23
49.75000099999994
 33
0.0
 14
18.57505700000001
 24
40.0
 34
0.0
 50
90.0
100
AcDbRotatedDimension
  0
DIMENSION
  5
3DD7
330
1E
100
AcDbEntity
  8
30
  6
Continuous
100
AcDbDimension
  2
*D7
 10
44.01281399999999
 20
-0.0000000000000042
 30
0.0
 11
44.01281399999999
 21
20.0
 31
0.0
 70
   160
  1
<>
 71
     5
 42
40.0
  3
STANDARD
100
AcDbAlignedDimension
 13
18.57505700000001
 23
40.0
 33
0.0
 14
29.21921800000001
 24
0.0
 34
0.0
 50
90.0
100
AcDbRotatedDimension
  0
LINE
  5
3DD8
330
1E
100
AcDbEntity
  8
10
  6
Continuous
100
AcDbLine
 10
-25.0
 20
46.25000099999994
 30
0.0
 11
-25.0
 21
-46.25000200000005
 31
0.0
  0
LINE
  5
3DD9
330
1E
100
AcDbEntity
  8
10
  6
Continuous
100
AcDbLine
 10
4.999999000000002
 20
49.75000099999994
 30
0.0
 11
4.999999000000002
 21
33.69999999999999
 31
0.0
  0
LINE
  5
3DDA
330
1E
100
AcDbEntity
  8
10
  6
Continuous
100
AcDbLine
 10
-20.00000199999999
 20
49.75000099999994
 30
0.0
 11
-20.00000199999999
 21
33.69999999999999
 31
0.0
  0
LINE
  5
3DDB
330
1E
100
AcDbEntity
  8
10
  6
Continuous
100
AcDbLine
 10
19.999999
 20
49.75000099999994
 30
0.0
 11
19.999999
 21
33.69999999999999
 31
0.0
  0
LINE
  5
3DDC
330
1E
100
AcDbEntity
  8
10
  6
Continuous
100
AcDbLine
 10
-5.000000999999997
 20
33.69999999999999
 30
0.0
 11
-5.000000999999997
 21
49.75000099999994
 31
0.0
  0
LINE
  5
3DDD
330
1E
100
AcDbEntity
  8
10
  6
Continuous
100
AcDbLine
 10
25.0
 20
46.25000099999994
 30
0.0
 11
25.0
 21
-46.25000200000005
 31
0.0
  0
LINE
  5
3DDF
330
1E
100
AcDbEntity
  8
17
  6
DASHDOT
100
AcDbLine
 10
12.500045
 20
47.13567199999994
 30
0.0
 11
12.500045
 21
32.86809299999993
 31
0.0
  0
LINE
  5
3DE0
330
1E
100
AcDbEntity
  8
17
  6
DASHDOT
100
AcDbLine
 10
-12.49992599999996
 20
47.13567199999994
 30
0.0
 11
-12.49992599999996
 21
32.86809299999993
 31
0.0
  0
DIMENSION
  5
3DE1
330
1E
100
AcDbEntity
  8
30
  6
Continuous
100
AcDbDimension
  2
*D8
 10
-25.0
 20
-78.70399800000001
 30
0.0
 11
0.0
 21
-78.70399800000001
 31
0.0
 70
   160
 71
     5
 42
50.0
  3
STANDARD
100
AcDbAlignedDimension
 13
25.0
 23
-46.25000300000005
 33
0.0
 14
-25.0
 24
-46.25000300000005
 34
0.0
100
AcDbRotatedDimension
  0
DIMENSION
  5
3DE2
330
1E
100
AcDbEntity
  8
30
  6
Continuous
100
AcDbDimension
  2
*D9
 10
-23.99999299999996
 20
-69.49052100000002
 30
0.0
 11
-0.2499929999999608
 21
-69.49052100000002
 31
0.0
 70
   160
  1
<>
 71
     5
 42
47.49999999999994
  3
STANDARD
100
AcDbAlignedDimension
 13
23.50000699999998
 23
-24.00003100000003
 33
0.0
 14
-23.99999299999996
 24
-24.646477
 34
0.0
100
AcDbRotatedDimension
  0
DIMENSION
  5
3DE3
330
1E
100
AcDbEntity
  8
30
  6
Continuous
100
AcDbDimension
  2
*D10
 10
-12.49992599999996
 20
-61.31171800000004
 30
0.0
 11
0.0000590000000216
 21
-61.31171800000004
 31
0.0
 70
   160
  1
<>
 71
     5
 42
24.99997099999996
  3
STANDARD
100
AcDbAlignedDimension
 13
12.500045
 23
-48.07501300000007
 33
0.0
 14
-12.49992599999996
 24
-48.07501300000007
 34
0.0
100
AcDbRotatedDimension
  0
LINE
  5
3DE5
330
1E
100
AcDbEntity
  8
10
  6
Continuous
100
AcDbLine
 10
-23.646433
 20
-25.00003200000003
 30
0.0
 11
22.499999
 21
-25.00003200000003
 31
0.0
  0
LINE
  5
3DE6
330
1E
100
AcDbEntity
  8
10
  6
Continuous
100
AcDbLine
 10
0.5999990000000253
 20
-49.75000200000002
 30
0.0
 11
4.999999000000002
 21
-49.75000200000002
 31
0.0
  0
LINE
  5
3DE7
330
1E
100
AcDbEntity
  8
10
  6
Continuous
100
AcDbLine
 10
4.999999000000002
 20
-37.900033
 30
0.0
 11
-5.000000999999997
 21
-37.900033
 31
0.0
  0
LINE
  5
3DE8
330
1E
100
AcDbEntity
  8
10
  6
Continuous
100
AcDbLine
 10
22.50003000000003
 20
24.99996999999996
 30
0.0
 11
-23.646433
 21
24.99996999999996
 31
0.0
  0
ARC
  5
3DE9
330
1E
100
AcDbEntity
  8
12
  6
DASHED
100
AcDbCircle
 10
0.000060000000019
 20
-41.99994000000003
 30
0.0
 40
3.9
100
AcDbArc
 50
284.4766920000005
 51
217.3004790000004
  0
LINE
  5
3DF2
330
1E
100
AcDbEntity
  8
10
  6
Continuous
100
AcDbLine
 10
-20.00000199999999
 20
-49.75000200000002
 30
0.0
 11
-5.000000999999997
 21
-49.75000200000002
 31
0.0
  0
LINE
  5
3DF3
330
1E
100
AcDbEntity
  8
10
  6
Continuous
100
AcDbLine
 10
-5.000000999999997
 20
-33.70000900000007
 30
0.0
 11
-20.00000199999999
 21
-33.70000900000007
 31
0.0
  0
LINE
  5
3DF4
330
1E
100
AcDbEntity
  8
10
  6
Continuous
100
AcDbLine
 10
-20.00000199999999
 20
-33.70000900000007
 30
0.0
 11
-20.00000199999999
 21
-49.75000200000002
 31
0.0
  0
LINE
  5
3DF5
330
1E
100
AcDbEntity
  8
10
  6
Continuous
100
AcDbLine
 10
-23.19993899999997
 20
-47.20000000000005
 30
0.0
 11
-20.0
 21
-47.20000000000005
 31
0.0
  0
LINE
  5
3DF6
330
1E
100
AcDbEntity
  8
10
  6
Continuous
100
AcDbLine
 10
-23.19993899999997
 20
-49.75000200000002
 30
0.0
 11
-20.00000199999999
 21
-49.75000200000002
 31
0.0
  0
LINE
  5
3DF7
330
1E
100
AcDbEntity
  8
10
  6
Continuous
100
AcDbLine
 10
-23.19993899999997
 20
-46.25000200000005
 30
0.0
 11
-25.0
 21
-46.25000200000005
 31
0.0
  0
LINE
  5
3DF8
330
1E
100
AcDbEntity
  8
10
  6
Continuous
100
AcDbLine
 10
-23.19993899999997
 20
-46.25000200000005
 30
0.0
 11
-23.19993899999997
 21
-49.75000200000002
 31
0.0
  0
LINE
  5
3DF9
330
1E
100
AcDbEntity
  8
17
  6
DASHDOT
100
AcDbLine
 10
-18.57493699999997
 20
-42.00000100000005
 30
0.0
 11
-6.424942999999984
 21
-42.00000100000005
 31
0.0
  0
LINE
  5
3DFA
330
1E
100
AcDbEntity
  8
17
  6
DASHDOT
100
AcDbLine
 10
-12.49992599999996
 20
-35.92498900000004
 30
0.0
 11
-12.49992599999996
 21
-48.07501400000006
 31
0.0
  0
LINE
  5
3DFB
330
1E
100
AcDbEntity
  8
10
  6
Continuous
100
AcDbLine
 10
-5.000000999999997
 20
-49.75000200000002
 30
0.0
 11
-5.000000999999997
 21
-33.70000900000007
 31
0.0
  0
LINE
  5
3DFC
330
1E
100
AcDbEntity
  8
10
  6
Continuous
100
AcDbLine
 10
-3.000000999999997
 20
-44.66631900000004
 30
0.0
 11
-3.000000999999997
 21
-49.75000200000002
 31
0.0
  0
LINE
  5
3DFD
330
1E
100
AcDbEntity
  8
10
  6
Continuous
100
AcDbLine
 10
-3.000000999999997
 20
-46.25000200000005
 30
0.0
 11
0.5999990000000253
 21
-46.25000200000005
 31
0.0
  0
LINE
  5
3DFE
330
1E
100
AcDbEntity
  8
10
  6
Continuous
100
AcDbLine
 10
-5.000000999999997
 20
-49.75000200000002
 30
0.0
 11
-3.000000999999997
 21
-49.75000200000002
 31
0.0
  0
ARC
  5
3DFF
330
1E
100
AcDbEntity
  8
10
  6
Continuous
100
AcDbCircle
 10
1.099999000000025
 20
-46.26023800000007
 30
0.0
 40
0.5
100
AcDbArc
 50
104.4766920000005
 51
179.9999910000003
  0
LINE
  5
3E00
330
1E
100
AcDbEntity
  8
10
  6
Continuous
100
AcDbLine
 10
0.5999990000000253
 20
-46.26023800000007
 30
0.0
 11
0.5999990000000253
 21
-49.75000200000002
 31
0.0
  0
CIRCLE
  5
3E01
330
1E
100
AcDbEntity
  8
12
  6
DASHED
100
AcDbCircle
 10
0.000060000000019
 20
-41.99994000000003
 30
0.0
 40
2.45
  0
LINE
  5
3E02
330
1E
100
AcDbEntity
  8
12
  6
DASHED
100
AcDbLine
 10
3.450060000000007
 20
-41.99994000000003
 30
0.0
 11
-3.449939999999969
 21
-41.99994000000003
 31
0.0
  0
LINE
  5
3E03
330
1E
100
AcDbEntity
  8
12
  6
DASHED
100
AcDbLine
 10
-3.899939999999958
 20
-41.99604700000003
 30
0.0
 11
-3.899939999999958
 21
-42.01091400000001
 31
0.0
  0
ARC
  5
3E04
330
1E
100
AcDbEntity
  8
10
  6
Continuous
100
AcDbCircle
 10
-3.500000999999997
 20
-44.66631900000004
 30
0.0
 40
0.5
100
AcDbArc
 50
0.0
 51
37.30047900000048
  0
LINE
  5
3E06
330
1E
100
AcDbEntity
  8
10
  6
Continuous
100
AcDbLine
 10
-2.749993999999958
 20
-24.0
 30
0.0
 11
-22.74999399999996
 21
-24.0
 31
0.0
  0
LINE
  5
3E07
330
1E
100
AcDbEntity
  8
10
  6
Continuous
100
AcDbLine
 10
-2.749993999999958
 20
24.0
 30
0.0
 11
-22.74999399999996
 21
24.0
 31
0.0
  0
LINE
  5
3E08
330
1E
100
AcDbEntity
  8
10
  6
Continuous
100
AcDbLine
 10
-5.000000999999997
 20
33.69999999999999
 30
0.0
 11
-20.00000199999999
 21
33.69999999999999
 31
0.0
  0
DIMENSION
  5
3E09
330
1E
100
AcDbEntity
  8
30
  6
Continuous
100
AcDbDimension
  2
*D11
 10
-35.73971899999997
 20
24.99996999999996
 30
0.0
 11
-35.73971899999998
 21
-0.0000320000000329
 31
0.0
 70
   160
  1
<>
 71
     5
 42
50.00000199999999
  3
STANDARD
100
AcDbAlignedDimension
 13
-23.646433
 23
-25.00003200000003
 33
0.0
 14
-23.646433
 24
24.99996999999996
 34
0.0
 50
90.0
100
AcDbRotatedDimension
  0
LINE
  5
3E0A
330
1E
100
AcDbEntity
  8
10
  6
Continuous
100
AcDbLine
 10
-22.99999399999995
 20
24.0
 30
0.0
 11
-22.99999399999995
 21
-24.0
 31
0.0
  0
LINE
  5
3E0B
330
1E
100
AcDbEntity
  8
10
  6
Continuous
100
AcDbLine
 10
-23.99998599999997
 20
24.64641599999993
 30
0.0
 11
-23.99998599999997
 21
-24.64647800000006
 31
0.0
  0
LINE
  5
3E0E
330
1E
100
AcDbEntity
  8
10
  6
Continuous
100
AcDbLine
 10
-22.99999399999995
 20
-24.0
 30
0.0
 11
-23.99999399999996
 21
-24.57735100000007
 31
0.0
  0
ARC
  5
3E0F
330
1E
100
AcDbEntity
  8
10
  6
Continuous
100
AcDbCircle
 10
-23.646433
 20
-24.64647800000006
 30
0.0
 40
0.353553
100
AcDbArc
 50
180.0
 51
270.0
  0
LINE
  5
3E10
330
1E
100
AcDbEntity
  8
10
  6
Continuous
100
AcDbLine
 10
-22.99999399999995
 20
24.0
 30
0.0
 11
-23.99999399999996
 21
24.57734999999996
 31
0.0
  0
ARC
  5
3E11
330
1E
100
AcDbEntity
  8
10
  6
Continuous
100
AcDbCircle
 10
-23.646433
 20
24.64641599999993
 30
0.0
 40
0.353553
100
AcDbArc
 50
90.0
 51
180.0
  0
LINE
  5
3E12
330
1E
100
AcDbEntity
  8
10
  6
Continuous
100
AcDbLine
 10
-2.749993999999958
 20
24.0
 30
0.0
 11
-2.749993999999958
 21
-24.0
 31
0.0
  0
LINE
  5
3E13
330
1E
100
AcDbEntity
  8
10
  6
Continuous
100
AcDbLine
 10
-19.00000099999999
 20
18.25002999999998
 30
0.0
 11
-19.00000099999999
 21
0.7500299999999811
 31
0.0
  0
LINE
  5
3E14
330
1E
100
AcDbEntity
  8
10
  6
Continuous
100
AcDbLine
 10
-5.999985999999978
 20
18.25002999999998
 30
0.0
 11
-5.999985999999978
 21
0.7500299999999811
 31
0.0
  0
LINE
  5
3E15
330
1E
100
AcDbEntity
  8
10
  6
Continuous
100
AcDbLine
 10
-1.750000999999997
 20
24.64641599999993
 30
0.0
 11
-1.750000999999997
 21
-24.64647800000006
 31
0.0
  0
LINE
  5
3E18
330
1E
100
AcDbEntity
  8
10
  6
Continuous
100
AcDbLine
 10
-19.00000099999999
 20
0.7500299999999811
 30
0.0
 11
-5.999985999999978
 21
0.7500299999999811
 31
0.0
  0
LINE
  5
3E19
330
1E
100
AcDbEntity
  8
10
  6
Continuous
100
AcDbLine
 10
-2.749993999999958
 20
-24.0
 30
0.0
 11
-1.749993999999958
 21
-24.57735100000007
 31
0.0
  0
ARC
  5
3E1A
330
1E
100
AcDbEntity
  8
10
  6
Continuous
100
AcDbCircle
 10
-2.103554999999971
 20
-24.64647800000006
 30
0.0
 40
0.353553
100
AcDbArc
 50
270.0
 51
0.0
  0
LINE
  5
3E1D
330
1E
100
AcDbEntity
  8
10
  6
Continuous
100
AcDbLine
 10
-18.55000099999995
 20
9.279080999999962
 30
0.0
 11
-6.449993999999946
 21
9.279080999999962
 31
0.0
  0
LINE
  5
3E1E
330
1E
100
AcDbEntity
  8
10
  6
Continuous
100
AcDbLine
 10
-19.00000099999999
 20
3.900029999999958
 30
0.0
 11
-5.999985999999978
 21
3.900029999999958
 31
0.0
  0
LINE
  5
3E1F
330
1E
100
AcDbEntity
  8
10
  6
Continuous
100
AcDbLine
 10
-7.146894999999972
 20
17.27753199999995
 30
0.0
 11
-17.76432199999999
 21
17.27753199999995
 31
0.0
  0
ARC
  5
3E20
330
1E
100
AcDbEntity
  8
10
  6
Continuous
100
AcDbCircle
 10
-8.199993999999946
 20
19.63531799999992
 30
0.0
 40
1.75
100
AcDbArc
 50
0.0
 51
90.0
  0
ARC
  5
3E21
330
1E
100
AcDbEntity
  8
10
  6
Continuous
100
AcDbCircle
 10
-16.80000099999995
 20
19.63531799999992
 30
0.0
 40
1.75
100
AcDbArc
 50
90.0
 51
180.0
  0
LINE
  5
3E22
330
1E
100
AcDbEntity
  8
10
  6
Continuous
100
AcDbLine
 10
-18.55000099999995
 20
19.63531799999992
 30
0.0
 11
-18.55000099999995
 21
3.900029999999958
 31
0.0
  0
LINE
  5
3E23
330
1E
100
AcDbEntity
  8
10
  6
Continuous
100
AcDbLine
 10
-19.00000099999999
 20
18.25002999999998
 30
0.0
 11
-18.55000099999995
 21
18.25002999999998
 31
0.0
  0
LINE
  5
3E24
330
1E
100
AcDbEntity
  8
10
  6
Continuous
100
AcDbLine
 10
-19.00000099999999
 20
15.10002999999994
 30
0.0
 11
-18.55000099999995
 21
15.10002999999994
 31
0.0
  0
LINE
  5
3E25
330
1E
100
AcDbEntity
  8
10
  6
Continuous
100
AcDbLine
 10
-8.199993999999946
 20
21.38531799999992
 30
0.0
 11
-16.80000099999995
 21
21.38531799999992
 31
0.0
  0
LINE
  5
3E26
330
1E
100
AcDbEntity
  8
10
  6
Continuous
100
AcDbLine
 10
-6.449993999999946
 20
19.63531799999992
 30
0.0
 11
-6.449993999999946
 21
3.900029999999958
 31
0.0
  0
LINE
  5
3E27
330
1E
100
AcDbEntity
  8
10
  6
Continuous
100
AcDbLine
 10
-6.449993999999946
 20
18.25002999999998
 30
0.0
 11
-5.999985999999978
 21
18.25002999999998
 31
0.0
  0
LINE
  5
3E28
330
1E
100
AcDbEntity
  8
10
  6
Continuous
100
AcDbLine
 10
-6.449993999999946
 20
15.10002999999994
 30
0.0
 11
-5.999985999999978
 21
15.10002999999994
 31
0.0
  0
LINE
  5
3E2B
330
1E
100
AcDbEntity
  8
10
  6
Continuous
100
AcDbLine
 10
-2.749993999999958
 20
24.0
 30
0.0
 11
-1.749993999999958
 21
24.57734999999996
 31
0.0
  0
ARC
  5
3E2C
330
1E
100
AcDbEntity
  8
10
  6
Continuous
100
AcDbCircle
 10
-2.103554999999971
 20
24.64641599999993
 30
0.0
 40
0.353553
100
AcDbArc
 50
0.0
 51
90.0
  0
DIMENSION
  5
3E2D
330
1E
100
AcDbEntity
  8
30
  6
Continuous
100
AcDbDimension
  2
*D12
 10
44.01281399999998
 20
-42.00000100000005
 30
0.0
 11
44.01281399999999
 21
-21.0
 31
0.0
 70
   160
  1
<>
 71
     5
 42
42.00000100000005
  3
STANDARD
100
AcDbAlignedDimension
 13
29.21921800000001
 23
0.0
 33
0.0
 14
18.57505700000001
 24
-42.00000100000005
 34
0.0
 50
90.0
100
AcDbRotatedDimension
  0
DIMENSION
  5
3E2E
330
1E
100
AcDbEntity
  8
30
  6
Continuous
100
AcDbDimension
  2
*D13
 10
44.01281399999997
 20
-49.75000200000002
 30
0.0
 11
44.01281399999999
 21
-45.87500150000002
 31
0.0
 70
   160
  1
<>
 71
     5
 42
7.750000999999969
  3
STANDARD
100
AcDbAlignedDimension
 13
18.57505700000001
 23
-42.00000100000005
 33
0.0
 14
20.999999
 24
-49.75000200000002
 34
0.0
 50
90.0
100
AcDbRotatedDimension
  0
LINE
  5
3E2F
330
1E
100
AcDbEntity
  8
10
  6
Continuous
100
AcDbLine
 10
4.999999000000002
 20
-49.75000200000002
 30
0.0
 11
20.999999
 21
-49.75000200000002
 31
0.0
  0
LINE
  5
3E30
330
1E
100
AcDbEntity
  8
10
  6
Continuous
100
AcDbLine
 10
19.999999
 20
-33.70000900000007
 30
0.0
 11
4.999999000000002
 21
-33.70000900000007
 31
0.0
  0
LINE
  5
3E31
330
1E
100
AcDbEntity
  8
17
  6
DASHDOT
100
AcDbLine
 10
6.425063000000022
 20
-42.00000100000005
 30
0.0
 11
18.57505700000001
 21
-42.00000100000005
 31
0.0
  0
LINE
  5
3E32
330
1E
100
AcDbEntity
  8
10
  6
Continuous
100
AcDbLine
 10
4.999999000000002
 20
-33.70000900000007
 30
0.0
 11
4.999999000000002
 21
-49.75000200000002
 31
0.0
  0
LINE
  5
3E33
330
1E
100
AcDbEntity
  8
17
  6
DASHDOT
100
AcDbLine
 10
12.500045
 20
-35.92498900000004
 30
0.0
 11
12.500045
 21
-48.07501400000006
 31
0.0
  0
LINE
  5
3E34
330
1E
100
AcDbEntity
  8
10
  6
Continuous
100
AcDbLine
 10
19.999999
 20
-49.75000200000002
 30
0.0
 11
19.999999
 21
-33.70000900000007
 31
0.0
  0
LINE
  5
3E35
330
1E
100
AcDbEntity
  8
10
  6
Continuous
100
AcDbLine
 10
23.19993800000003
 20
-47.20000000000005
 30
0.0
 11
19.999999
 21
-47.20000000000005
 31
0.0
  0
LINE
  5
3E36
330
1E
100
AcDbEntity
  8
10
  6
Continuous
100
AcDbLine
 10
19.999999
 20
-49.75000200000002
 30
0.0
 11
23.19993800000003
 21
-49.75000200000002
 31
0.0
  0
LINE
  5
3E37
330
1E
100
AcDbEntity
  8
10
  6
Continuous
100
AcDbLine
 10
23.19993800000003
 20
-46.25000200000005
 30
0.0
 11
25.0
 21
-46.25000200000005
 31
0.0
  0
LINE
  5
3E38
330
1E
100
AcDbEntity
  8
10
  6
Continuous
100
AcDbLine
 10
23.19993800000003
 20
-46.25000200000005
 30
0.0
 11
23.19993800000003
 21
-49.75000200000002
 31
0.0
  0
LINE
  5
3E39
330
1E
100
AcDbEntity
  8
10
  6
Continuous
100
AcDbLine
 10
25.0
 20
-37.900033
 30
0.0
 11
19.999999
 21
-37.900033
 31
0.0
  0
LINE
  5
3E3C
330
1E
100
AcDbEntity
  8
10
  6
Continuous
100
AcDbLine
 10
23.499999
 20
23.99996999999996
 30
0.0
 11
23.499999
 21
-24.00003200000003
 31
0.0
  0
CIRCLE
  5
3E49
330
1E
100
AcDbEntity
  8
10
  6
Continuous
100
AcDbCircle
 10
20.200015
 20
-13.49985700000007
 30
0.0
 40
1.9
  0
LINE
  5
3E4C
330
1E
100
AcDbEntity
  8
10
  6
Continuous
100
AcDbLine
 10
20.200015
 20
-10.59985700000004
 30
0.0
 11
20.200015
 21
-16.39985700000005
 31
0.0
  0
LINE
  5
3E4D
330
1E
100
AcDbEntity
  8
10
  6
Continuous
100
AcDbLine
 10
23.10001499999998
 20
-13.49985700000007
 30
0.0
 11
17.30001500000003
 21
-13.49985700000007
 31
0.0
  0
ARC
  5
3E50
330
1E
100
AcDbEntity
  8
10
  6
Continuous
100
AcDbCircle
 10
22.499999
 20
-24.00003200000003
 30
0.0
 40
1.0
100
AcDbArc
 50
270.0
 51
359.9999989999985
  0
LINE
  5
3E55
330
1E
100
AcDbEntity
  8
10
  6
Continuous
100
AcDbLine
 10
19.999999
 20
33.69999999999999
 30
0.0
 11
4.999999000000002
 21
33.69999999999999
 31
0.0
  0
ARC
  5
3E58
330
1E
100
AcDbEntity
  8
10
  6
Continuous
100
AcDbCircle
 10
22.50003000000003
 20
23.99996999999996
 30
0.0
 40
1.0
100
AcDbArc
 50
0.0
 51
90.0
  0
LINE
  5
3E59
330
1E
100
AcDbEntity
  8
10
  6
Continuous
100
AcDbLine
 10
2.999999000000002
 20
49.75000099999994
 30
0.0
 11
4.999999000000002
 21
49.75000099999994
 31
0.0
  0
LINE
  5
3E5A
330
1E
100
AcDbEntity
  8
10
  6
Continuous
100
AcDbLine
 10
4.999999000000002
 20
37.89996399999995
 30
0.0
 11
-5.000000999999997
 21
37.89996399999995
 31
0.0
  0
ARC
  5
3E5B
330
1E
100
AcDbEntity
  8
12
  6
DASHED
100
AcDbCircle
 10
0.000060000000019
 20
41.99993999999998
 30
0.0
 40
3.9
100
AcDbArc
 50
104.4783329999995
 51
37.3031020000012
  0
MTEXT
  5
3E5C
330
1E
100
AcDbEntity
  8
30
  6
Continuous
100
AcDbMText
 10
-28.02019610483949
 20
71.37234209166823
 30
0.0
 40
3.535533
 41
0.0
 71
     4
 72
     1
  1
%%C4.9
  7
MX_NOTE_STANDARD
 73
     1
 44
1.0
  0
LEADER
  5
3E5D
330
1E
100
AcDbEntity
  8
30
  6
Continuous
100
AcDbLeader
  3
STANDARD
 71
     0
 74
     0
 76
     3
 10
0.000060000000019
 20
41.99993999999998
 30
0.0
 10
-7.96596599999998
 20
68.758981
 30
0.0
 10
-30.93801763445708
 20
68.758981
 30
0.0
  0
LINE
  5
3E5E
330
1E
100
AcDbEntity
  8
10
  6
Continuous
100
AcDbLine
 10
-20.00000199999999
 20
49.75000099999994
 30
0.0
 11
-5.000000999999997
 21
49.75000099999994
 31
0.0
  0
LINE
  5
3E5F
330
1E
100
AcDbEntity
  8
10
  6
Continuous
100
AcDbLine
 10
-23.19993899999997
 20
47.19999999999998
 30
0.0
 11
-20.0
 21
47.19999999999998
 31
0.0
  0
LINE
  5
3E60
330
1E
100
AcDbEntity
  8
10
  6
Continuous
100
AcDbLine
 10
-23.19993899999997
 20
49.75000099999994
 30
0.0
 11
-20.00000199999999
 21
49.75000099999994
 31
0.0
  0
LINE
  5
3E61
330
1E
100
AcDbEntity
  8
10
  6
Continuous
100
AcDbLine
 10
-23.19993899999997
 20
46.25000099999994
 30
0.0
 11
-25.0
 21
46.25000099999994
 31
0.0
  0
LINE
  5
3E62
330
1E
100
AcDbEntity
  8
10
  6
Continuous
100
AcDbLine
 10
-23.19993899999997
 20
46.25000099999994
 30
0.0
 11
-23.19993899999997
 21
49.75000099999994
 31
0.0
  0
LINE
  5
3E63
330
1E
100
AcDbEntity
  8
17
  6
DASHDOT
100
AcDbLine
 10
-18.57493699999997
 20
40.0
 30
0.0
 11
-6.424942999999984
 21
40.0
 31
0.0
  0
LINE
  5
3E64
330
1E
100
AcDbEntity
  8
10
  6
Continuous
100
AcDbLine
 10
-5.000000999999997
 20
49.75000099999994
 30
0.0
 11
-0.6000009999999634
 21
49.75000099999994
 31
0.0
  0
CIRCLE
  5
3E65
330
1E
100
AcDbEntity
  8
12
  6
DASHED
100
AcDbCircle
 10
0.000060000000019
 20
41.99993999999998
 30
0.0
 40
2.45
  0
LINE
  5
3E66
330
1E
100
AcDbEntity
  8
12
  6
DASHED
100
AcDbLine
 10
3.450060000000007
 20
41.99993999999998
 30
0.0
 11
-3.449939999999969
 21
41.99993999999998
 31
0.0
  0
ARC
  5
3E67
330
1E
100
AcDbEntity
  8
10
  6
Continuous
100
AcDbCircle
 10
3.499999000000002
 20
44.66647799999992
 30
0.0
 40
0.5
100
AcDbArc
 50
180.0
 51
217.3031020000011
  0
LINE
  5
3E68
330
1E
100
AcDbEntity
  8
10
  6
Continuous
100
AcDbLine
 10
-0.6000009999999634
 20
46.25000099999994
 30
0.0
 11
2.999999000000002
 21
46.25000099999994
 31
0.0
  0
LINE
  5
3E69
330
1E
100
AcDbEntity
  8
10
  6
Continuous
100
AcDbLine
 10
-0.6000009999999634
 20
46.26020599999998
 30
0.0
 11
-0.6000009999999634
 21
49.75000099999994
 31
0.0
  0
ARC
  5
3E6A
330
1E
100
AcDbEntity
  8
10
  6
Continuous
100
AcDbCircle
 10
-1.100000999999963
 20
46.26020599999998
 30
0.0
 40
0.5
100
AcDbArc
 50
284.4783329999994
 51
0.0
  0
LINE
  5
3E6B
330
1E
100
AcDbEntity
  8
10
  6
Continuous
100
AcDbLine
 10
2.999999000000002
 20
44.66647799999992
 30
0.0
 11
2.999999000000002
 21
49.75000099999994
 31
0.0
  0
LINE
  5
3E6E
330
1E
100
AcDbEntity
  8
17
  6
DASHDOT
100
AcDbLine
 10
6.425063000000022
 20
40.0
 30
0.0
 11
18.57505700000001
 21
40.0
 31
0.0
  0
LINE
  5
3E6F
330
1E
100
AcDbEntity
  8
10
  6
Continuous
100
AcDbLine
 10
4.999999000000002
 20
49.75000099999994
 30
0.0
 11
19.999999
 21
49.75000099999994
 31
0.0
  0
LINE
  5
3E71
330
1E
100
AcDbEntity
  8
10
  6
Continuous
100
AcDbLine
 10
23.19993800000003
 20
47.19999999999998
 30
0.0
 11
19.999999
 21
47.19999999999998
 31
0.0
  0
LINE
  5
3E72
330
1E
100
AcDbEntity
  8
10
  6
Continuous
100
AcDbLine
 10
19.999999
 20
49.75000099999994
 30
0.0
 11
23.19993800000003
 21
49.75000099999994
 31
0.0
  0
LINE
  5
3E73
330
1E
100
AcDbEntity
  8
10
  6
Continuous
100
AcDbLine
 10
25.0
 20
37.89996399999995
 30
0.0
 11
19.999999
 21
37.89996399999995
 31
0.0
  0
LINE
  5
3E74
330
1E
100
AcDbEntity
  8
10
  6
Continuous
100
AcDbLine
 10
23.19993800000003
 20
46.25000099999994
 30
0.0
 11
25.0
 21
46.25000099999994
 31
0.0
  0
LINE
  5
3E75
330
1E
100
AcDbEntity
  8
10
  6
Continuous
100
AcDbLine
 10
23.19993800000003
 20
46.25000099999994
 30
0.0
 11
23.19993800000003
 21
49.75000099999994
 31
0.0
  0
DIMENSION
  5
3E90
330
1E
100
AcDbEntity
  8
30
  6
Continuous
100
AcDbDimension
  2
*D14
 10
199.8379274336131
 20
-276.0
 30
0.0
 11
205.2530554255696
 21
-243.0596893839551
 31
0.0
 70
   160
  1
more than <>
 71
     5
 42
52.00000199999997
 53
90.0
  3
STANDARD
100
AcDbAlignedDimension
 13
182.9999919999998
 23
-223.9999979999999
 33
0.0
 14
182.4999919999999
 24
-276.0
 34
0.0
 50
90.0
100
AcDbRotatedDimension
1001
ACAD
1000
DSTYLE
1002
{
1070
   279
1070
     2
1002
}
  0
LINE
  5
3E93
330
1E
100
AcDbEntity
  8
11
  6
Continuous
100
AcDbLine
 10
185.0000019999999
 20
-274.0
 30
0.0
 11
185.0000019999999
 21
-225.999998
 31
0.0
  0
ARC
  5
3E95
330
1E
100
AcDbEntity
  8
11
  6
Continuous
100
AcDbCircle
 10
182.9999919999998
 20
-225.9999979999999
 30
0.0
 40
2.0
100
AcDbArc
 50
359.9999949999995
 51
90.0
  0
DIMENSION
  5
3EA4
330
1E
100
AcDbEntity
  8
30
  6
Continuous
100
AcDbDimension
  2
*D15
 10
187.378813214297
 20
162.3475602770374
 30
0.0
 11
209.8802541610629
 21
193.842494835158
 31
0.0
 70
   163
  1
<>
 71
     5
 42
5.499999580648932
  3
STANDARD
100
AcDbDiametricDimension
 15
189.8076012647009
 25
167.2822318966443
 35
0.0
 40
0.0
  0
DIMENSION
  5
3EA5
330
1E
100
AcDbEntity
  8
30
  6
Continuous
100
AcDbDimension
  2
*D16
 10
181.093207739499
 20
149.2218078863829
 30
0.0
 11
188.593207739499
 21
144.8862884303096
 31
0.0
 70
   160
  1
max<>
 71
     5
 42
15.0
  3
STANDARD
100
AcDbAlignedDimension
 13
196.093207739499
 23
157.814895586841
 33
0.0
 14
181.093207739499
 24
157.814895586841
 34
0.0
 50
180.0
100
AcDbRotatedDimension
1001
ACAD
1000
DSTYLE
1002
{
1070
   279
1070
     2
1002
}
  0
DIMENSION
  5
3EA6
330
1E
100
AcDbEntity
  8
30
  6
Continuous
100
AcDbDimension
  2
*D17
 10
205.201044739499
 20
157.814895586841
 30
0.0
 11
205.201044739499
 21
161.3148960868409
 31
0.0
 70
   160
  1
<>
 71
     5
 42
7.000000999999997
  3
STANDARD
100
AcDbAlignedDimension
 13
196.343207739499
 23
164.814896586841
 33
0.0
 14
196.093207739499
 24
157.814895586841
 34
0.0
 50
90.0
100
AcDbRotatedDimension
  0
LINE
  5
3EA8
330
1E
100
AcDbEntity
  8
17
  6
DASHDOT
100
AcDbLine
 10
188.593207739499
 20
172.5648965868409
 30
0.0
 11
188.593207739499
 21
157.0648965868409
 31
0.0
  0
CIRCLE
  5
3EA9
330
1E
100
AcDbEntity
  8
24
100
AcDbCircle
 10
188.593207739499
 20
164.814896586841
 30
0.0
 40
2.75
  0
LINE
  5
3EAA
330
1E
100
AcDbEntity
  8
24
100
AcDbLine
 10
196.093207739499
 20
157.814895586841
 30
0.0
 11
196.093207739499
 21
187.1909795868409
 31
0.0
  0
LINE
  5
3EAB
330
1E
100
AcDbEntity
  8
24
100
AcDbLine
 10
181.093207739499
 20
157.814895586841
 30
0.0
 11
181.093207739499
 21
187.1909795868409
 31
0.0
  0
LINE
  5
3EAC
330
1E
100
AcDbEntity
  8
17
  6
DASHDOT
100
AcDbLine
 10
180.8432077394989
 20
164.814896586841
 30
0.0
 11
196.343207739499
 21
164.814896586841
 31
0.0
  0
LINE
  5
3EAD
330
1E
100
AcDbEntity
  8
24
100
AcDbLine
 10
181.093207739499
 20
157.814895586841
 30
0.0
 11
196.093207739499
 21
157.814895586841
 31
0.0
  0
MTEXT
  5
3EF9
330
1E
100
AcDbEntity
  8
30
  6
Continuous
100
AcDbMText
 10
182.8769146866199
 20
135.8261932220275
 30
0.0
 40
4.0
 41
0.0
 71
     1
 72
     1
  1
\W0.879;\A1;t≦4
  7
MX_NOTE_STANDARD
 73
     1
 44
1.0
  0
MTEXT
  5
3EFB
330
1E
100
AcDbEntity
  8
30
  6
Continuous
100
AcDbMText
 10
226.9149856154874
 20
63.10377057657973
 30
0.0
 40
3.535533
 41
0.0
 71
     4
 72
     1
  1
M5x14
  7
MX_NOTE_STANDARD
 73
     1
 44
1.0
  0
LEADER
  5
3EFC
330
1E
100
AcDbEntity
  8
30
  6
Continuous
100
AcDbLeader
  3
STANDARD
 74
     0
 76
     3
 10
192.105823
 20
40.0
 30
0.0
 10
226.5333516154874
 20
59.90861022716058
 30
0.0
 10
243.4877956154875
 20
59.90861022716058
 30
0.0
  0
DIMENSION
  5
3F37
330
1E
100
AcDbEntity
  8
30
  6
Continuous
100
AcDbDimension
  2
*D18
 10
136.0
 20
-69.49052100000002
 30
0.0
 11
178.0
 21
-69.49052100000002
 31
0.0
 70
   160
  1
<>
 71
     5
 42
84.0
  3
STANDARD
100
AcDbAlignedDimension
 13
220.0
 23
-43.06257100000005
 33
0.0
 14
136.0
 24
9.500002999999935
 34
0.0
100
AcDbRotatedDimension
  0
DIMENSION
  5
3F38
330
1E
100
AcDbEntity
  8
30
  6
Continuous
100
AcDbDimension
  2
*D19
 10
220.0
 20
68.20557699999994
 30
0.0
 11
194.5000139999999
 21
68.20557699999994
 31
0.0
 70
   160
  1
<>
 71
     5
 42
50.99997099999995
  3
STANDARD
100
AcDbAlignedDimension
 13
169.000029
 23
47.19999999999998
 33
0.0
 14
220.0
 24
43.00006199999995
 34
0.0
100
AcDbRotatedDimension
  0
DIMENSION
  5
3F39
330
1E
100
AcDbEntity
  8
30
  6
Continuous
100
AcDbDimension
  2
*D20
 10
220.0
 20
59.27054899999996
 30
0.0
 11
198.499804
 21
59.27054899999996
 31
0.0
 70
   160
  1
<>
 71
     5
 42
43.00039100000003
  3
STANDARD
100
AcDbAlignedDimension
 13
176.9996089999999
 23
45.89999999999998
 33
0.0
 14
220.0
 24
43.00005999999996
 34
0.0
100
AcDbRotatedDimension
  0
DIMENSION
  5
3F3A
330
1E
100
AcDbEntity
  8
30
  6
Continuous
100
AcDbDimension
  2
*D21
 10
160.0000589999999
 20
-61.31171800000004
 30
0.0
 11
190.00003
 21
-61.31171800000004
 31
0.0
 70
   160
  1
<>
 71
     5
 42
59.99994100000003
  3
STANDARD
100
AcDbAlignedDimension
 13
220.0
 23
-43.00005400000003
 33
0.0
 14
160.0000589999999
 24
-36.89997100000005
 34
0.0
100
AcDbRotatedDimension
  0
LINE
  5
3F3B
330
1E
100
AcDbEntity
  8
12
  6
DASHED
100
AcDbLine
 10
177.0
 20
39.54999999999995
 30
0.0
 11
220.0
 21
39.54999999999995
 31
0.0
  0
LINE
  5
3F3C
330
1E
100
AcDbEntity
  8
12
  6
DASHED
100
AcDbLine
 10
177.0
 20
44.44999999999999
 30
0.0
 11
220.0
 21
44.44999999999999
 31
0.0
  0
LINE
  5
3F3D
330
1E
100
AcDbEntity
  8
10
  6
Continuous
100
AcDbLine
 10
169.0
 20
46.25
 30
0.0
 11
219.457928
 21
46.25
 31
0.0
  0
LINE
  5
3F3E
330
1E
100
AcDbEntity
  8
10
  6
Continuous
100
AcDbLine
 10
169.0
 20
-46.25
 30
0.0
 11
219.457918
 21
-46.25
 31
0.0
  0
LINE
  5
3F3F
330
1E
100
AcDbEntity
  8
10
  6
Continuous
100
AcDbLine
 10
171.7999999999999
 20
50.0
 30
0.0
 11
217.131591
 21
50.0
 31
0.0
  0
LINE
  5
3F40
330
1E
100
AcDbEntity
  8
10
  6
Continuous
100
AcDbLine
 10
171.7999999999999
 20
-50.00000000000003
 30
0.0
 11
217.1315810000001
 21
-50.00000000000003
 31
0.0
  0
DIMENSION
  5
3F42
330
1E
100
AcDbEntity
  8
30
  6
Continuous
100
AcDbDimension
  2
*D22
 10
126.5777739999999
 20
38.0
 30
0.0
 11
126.5777739999999
 21
0.0
 31
0.0
 70
   160
  1
<>
 71
     5
 42
76.0
  3
STANDARD
100
AcDbAlignedDimension
 13
160.4999999999999
 23
-38.0
 33
0.0
 14
160.4999999999999
 24
38.0
 34
0.0
 50
90.0
100
AcDbRotatedDimension
  0
LINE
  5
3F43
330
1E
100
AcDbEntity
  8
10
  6
Continuous
100
AcDbLine
 10
160.0
 20
37.5
 30
0.0
 11
160.0
 21
-37.5
 31
0.0
  0
DIMENSION
  5
3F45
330
1E
100
AcDbEntity
  8
30
  6
Continuous
100
AcDbDimension
  2
*D23
 10
148.0
 20
-61.31171800000004
 30
0.0
 11
138.8453278466666
 21
-61.31171800000004
 31
0.0
 70
   160
  1
<>
 71
     5
 42
4.0
  3
STANDARD
100
AcDbAlignedDimension
 13
152.0
 23
-25.0
 33
0.0
 14
148.0
 24
-24.0
 34
0.0
100
AcDbRotatedDimension
  0
DIMENSION
  5
3F46
330
1E
100
AcDbEntity
  8
30
  6
Continuous
100
AcDbDimension
  2
*D24
 10
152.0
 20
-61.31171800000004
 30
0.0
 11
156.0
 21
-61.31171800000004
 31
0.0
 70
   160
  1
<>
 71
     5
 42
8.0
  3
STANDARD
100
AcDbAlignedDimension
 13
160.0
 23
-37.5
 33
0.0
 14
152.0
 24
-25.0
 34
0.0
100
AcDbRotatedDimension
  0
LINE
  5
3F47
330
1E
100
AcDbEntity
  8
10
  6
Continuous
100
AcDbLine
 10
160.0
 20
25.0
 30
0.0
 11
152.0
 21
25.0
 31
0.0
  0
LINE
  5
3F48
330
1E
100
AcDbEntity
  8
10
  6
Continuous
100
AcDbLine
 10
152.0
 20
-25.0
 30
0.0
 11
160.0
 21
-25.0
 31
0.0
  0
LINE
  5
3F4A
330
1E
100
AcDbEntity
  8
10
  6
Continuous
100
AcDbLine
 10
149.0
 20
24.23809499999993
 30
0.0
 11
149.0
 21
-24.25
 31
0.0
  0
LINE
  5
3F4B
330
1E
100
AcDbEntity
  8
10
  6
Continuous
100
AcDbLine
 10
152.0
 20
25.0
 30
0.0
 11
152.0
 21
-25.0
 31
0.0
  0
LINE
  5
3F4C
330
1E
100
AcDbEntity
  8
10
  6
Continuous
100
AcDbLine
 10
148.0
 20
24.0
 30
0.0
 11
148.0
 21
-24.0
 31
0.0
  0
LINE
  5
3F4E
330
1E
100
AcDbEntity
  8
10
  6
Continuous
100
AcDbLine
 10
152.0
 20
-25.0
 30
0.0
 11
148.0
 21
-24.0
 31
0.0
  0
LINE
  5
3F4F
330
1E
100
AcDbEntity
  8
10
  6
Continuous
100
AcDbLine
 10
140.621396
 20
21.25771899999995
 30
0.0
 11
148.0
 21
18.27656999999993
 31
0.0
  0
LINE
  5
3F50
330
1E
100
AcDbEntity
  8
10
  6
Continuous
100
AcDbLine
 10
138.748364
 20
16.62179999999995
 30
0.0
 11
148.0
 21
12.88389599999999
 31
0.0
  0
LINE
  5
3F51
330
1E
100
AcDbEntity
  8
10
  6
Continuous
100
AcDbLine
 10
141.2246709999999
 20
19.39617899999996
 30
0.0
 11
148.0
 21
16.65876799999995
 31
0.0
  0
LINE
  5
3F52
330
1E
100
AcDbEntity
  8
10
  6
Continuous
100
AcDbLine
 10
148.0
 20
14.50170999999994
 30
0.0
 11
140.4688959999999
 21
17.54445499999997
 31
0.0
  0
LINE
  5
3F53
330
1E
100
AcDbEntity
  8
10
  6
Continuous
100
AcDbLine
 10
138.3432629999999
 20
20.29070899999993
 30
0.0
 11
137.781353
 21
18.89993299999991
 31
0.0
  0
ARC
  5
3F54
330
1E
100
AcDbEntity
  8
10
  6
Continuous
100
AcDbCircle
 10
139.403925
 20
18.24437199999994
 30
0.0
 40
1.75
100
AcDbArc
 50
157.9999999999994
 51
247.9999999999988
  0
ARC
  5
3F55
330
1E
100
AcDbEntity
  8
30
  6
Continuous
100
AcDbCircle
 10
163.0499999999999
 20
9.5
 30
0.0
 40
27.05
100
AcDbArc
 50
163.666330999999
 51
180.0
  0
CIRCLE
  5
3F56
330
1E
100
AcDbEntity
  8
10
  6
Continuous
100
AcDbCircle
 10
140.843512
 20
18.47166899999996
 30
0.0
 40
1.0
  0
ARC
  5
3F58
330
1E
100
AcDbEntity
  8
10
  6
Continuous
100
AcDbCircle
 10
139.9658349999999
 20
19.63514699999996
 30
0.0
 40
1.75
100
AcDbArc
 50
67.99999999999889
 51
157.9999999999994
  0
LINE
  5
3F59
330
1E
100
AcDbEntity
  8
10
  6
Continuous
100
AcDbLine
 10
152.0
 20
25.0
 30
0.0
 11
148.0
 21
24.0
 31
0.0
  0
LINE
  5
3F5A
330
1E
100
AcDbEntity
  8
10
  6
Continuous
100
AcDbLine
 10
169.0
 20
-38.0
 30
0.0
 11
160.4999999999999
 21
-38.0
 31
0.0
  0
ARC
  5
3F5B
330
1E
100
AcDbEntity
  8
10
  6
Continuous
100
AcDbCircle
 10
160.4999999999999
 20
-37.5
 30
0.0
 40
0.5
100
AcDbArc
 50
180.0
 51
270.0
  0
LINE
  5
3F5C
330
1E
100
AcDbEntity
  8
10
  6
Continuous
100
AcDbLine
 10
169.0
 20
-38.0
 30
0.0
 11
169.0
 21
-47.20000000000005
 31
0.0
  0
LINE
  5
3F5D
330
1E
100
AcDbEntity
  8
10
  6
Continuous
100
AcDbLine
 10
169.0
 20
-47.20000000000005
 30
0.0
 11
171.7999999999999
 21
-50.00000000000003
 31
0.0
  0
LINE
  5
3F63
330
1E
100
AcDbEntity
  8
10
  6
Continuous
100
AcDbLine
 10
169.0
 20
38.0
 30
0.0
 11
160.4999999999999
 21
38.0
 31
0.0
  0
ARC
  5
3F64
330
1E
100
AcDbEntity
  8
10
  6
Continuous
100
AcDbCircle
 10
160.4999999999999
 20
37.5
 30
0.0
 40
0.5
100
AcDbArc
 50
90.0
 51
180.0
  0
LINE
  5
3F65
330
1E
100
AcDbEntity
  8
12
  6
DASHED
100
AcDbLine
 10
169.0
 20
38.09999999999996
 30
0.0
 11
177.0
 21
38.09999999999996
 31
0.0
  0
LINE
  5
3F67
330
1E
100
AcDbEntity
  8
10
  6
Continuous
100
AcDbLine
 10
169.0
 20
47.19999999999998
 30
0.0
 11
169.0
 21
38.0
 31
0.0
  0
LINE
  5
3F68
330
1E
100
AcDbEntity
  8
10
  6
Continuous
100
AcDbLine
 10
169.0
 20
47.19999999999998
 30
0.0
 11
171.7999999999999
 21
50.0
 31
0.0
  0
LINE
  5
3F69
330
1E
100
AcDbEntity
  8
12
  6
DASHED
100
AcDbLine
 10
177.0
 20
38.09999999999996
 30
0.0
 11
177.0
 21
45.89999999999998
 31
0.0
  0
LINE
  5
3F6A
330
1E
100
AcDbEntity
  8
10
  6
Continuous
100
AcDbLine
 10
220.0
 20
43.06262799999996
 30
0.0
 11
220.0
 21
15.80004799999994
 31
0.0
  0
LINE
  5
3F6B
330
1E
100
AcDbEntity
  8
10
  6
Continuous
100
AcDbLine
 10
220.0
 20
-20.10652000000004
 30
0.0
 11
220.0
 21
-43.06257100000005
 31
0.0
  0
LINE
  5
3F6C
330
1E
100
AcDbEntity
  8
10
  6
Continuous
100
AcDbLine
 10
219.10327
 20
-48.33532300000001
 30
0.0
 11
220.0
 21
-43.06257100000005
 31
0.0
  0
ARC
  5
3F6D
330
1E
100
AcDbEntity
  8
10
  6
Continuous
100
AcDbCircle
 10
217.1315810000001
 20
-48.0
 30
0.0
 40
2.0
100
AcDbArc
 50
270.0
 51
350.3481370000006
  0
LINE
  5
3F6E
330
1E
100
AcDbEntity
  8
10
  6
Continuous
100
AcDbLine
 10
216.25
 20
17.79998699999993
 30
0.0
 11
216.25
 21
-17.56704900000005
 31
0.0
  0
LINE
  5
3F6F
330
1E
100
AcDbEntity
  8
10
  6
Continuous
100
AcDbLine
 10
217.1998390000001
 20
-15.64986900000002
 30
0.0
 11
219.499839
 21
-17.94986900000003
 31
0.0
  0
ARC
  5
3F70
330
1E
100
AcDbEntity
  8
10
  6
Continuous
100
AcDbCircle
 10
218.0
 20
-20.10652000000004
 30
0.0
 40
2.0
100
AcDbArc
 50
0.0
 51
74.99999999999889
  0
LINE
  5
3F71
330
1E
100
AcDbEntity
  8
10
  6
Continuous
100
AcDbLine
 10
216.559058
 20
-17.64986900000002
 30
0.0
 11
216.6998390000001
 21
-17.64986900000002
 31
0.0
  0
LINE
  5
3F72
330
1E
100
AcDbEntity
  8
10
  6
Continuous
100
AcDbLine
 10
217.1998390000001
 20
-15.64986900000002
 30
0.0
 11
216.6998390000001
 21
-17.64986900000002
 31
0.0
  0
LINE
  5
3F73
330
1E
100
AcDbEntity
  8
10
  6
Continuous
100
AcDbLine
 10
216.25
 20
-17.56705700000003
 30
0.0
 11
218.517638
 21
-18.17466899999999
 31
0.0
  0
LINE
  5
3F74
330
1E
100
AcDbEntity
  8
10
  6
Continuous
100
AcDbLine
 10
219.499839
 20
-17.94986900000003
 30
0.0
 11
219.602422
 21
-18.90975600000001
 31
0.0
  0
LINE
  5
3F75
330
1E
100
AcDbEntity
  8
10
  6
Continuous
100
AcDbLine
 10
217.791741
 20
16.53027799999995
 30
0.0
 11
219.206959
 21
15.30004799999994
 31
0.0
  0
ARC
  5
3F76
330
1E
100
AcDbEntity
  8
10
  6
Continuous
100
AcDbCircle
 10
217.988559
 20
16.75669099999993
 30
0.0
 40
0.3
100
AcDbArc
 50
189.9999999999986
 51
228.9999999999996
  0
ARC
  5
3F77
330
1E
100
AcDbEntity
  8
10
  6
Continuous
100
AcDbCircle
 10
217.988559
 20
16.75669099999993
 30
0.0
 40
0.3
100
AcDbArc
 50
189.9999999999986
 51
228.9999999999996
  0
LINE
  5
3F78
330
1E
100
AcDbEntity
  8
10
  6
Continuous
100
AcDbLine
 10
217.4999689999999
 20
17.79998699999993
 30
0.0
 11
217.693116
 21
16.70459699999992
 31
0.0
  0
LINE
  5
3F79
330
1E
100
AcDbEntity
  8
10
  6
Continuous
100
AcDbLine
 10
216.25
 20
17.79998699999993
 30
0.0
 11
217.4999689999999
 21
17.79998699999993
 31
0.0
  0
ARC
  5
3F7A
330
1E
100
AcDbEntity
  8
10
  6
Continuous
100
AcDbCircle
 10
219.4999689999999
 20
15.80004799999994
 30
0.0
 40
0.5
100
AcDbArc
 50
270.0
 51
0.0
  0
LINE
  5
3F7B
330
1E
100
AcDbEntity
  8
10
  6
Continuous
100
AcDbLine
 10
219.206959
 20
15.30004799999994
 30
0.0
 11
219.4999689999999
 21
15.30004799999994
 31
0.0
  0
ARC
  5
3F7C
330
1E
100
AcDbEntity
  8
10
  6
Continuous
100
AcDbCircle
 10
217.131591
 20
48.0
 30
0.0
 40
2.0
100
AcDbArc
 50
9.651861000001138
 51
90.0
  0
LINE
  5
3F7D
330
1E
100
AcDbEntity
  8
10
  6
Continuous
100
AcDbLine
 10
219.103281
 20
48.33532199999996
 30
0.0
 11
220.0
 21
43.06262799999996
 31
0.0
  0
TEXT
  5
46CE
330
1E
100
AcDbEntity
  8
19
  6
Continuous
100
AcDbText
 10
170.8301252857708
 20
221.044844108861
 30
0.0
 40
5.0
  1
FC-52ET 2P
  7
STANDARD1
100
AcDbText
  0
LWPOLYLINE
  5
46D3
330
1E
100
AcDbEntity
  8
18
  6
DIVIDE
100
AcDbPolyline
 90
        4
 70
     1
 43
0.0
 10
135.0
 20
-299.75
 10
185.0
 20
-299.75
 10
185.0
 20
-200.2499999999999
 10
135.0
 20
-200.2499999999999
  0
LINE
  5
46E6
330
1E
100
AcDbEntity
  8
12
  6
CONTINOUS
100
AcDbLine
 10
0.0
 20
-211.2499979999998
 30
0.0
 11
0.0
 21
-204.7499979999998
 31
0.0
  0
LINE
  5
46E7
330
1E
100
AcDbEntity
  8
12
  6
CONTINOUS
100
AcDbLine
 10
0.0
 20
-295.2499999999998
 30
0.0
 11
0.0
 21
-288.7499999999998
 31
0.0
  0
LINE
  5
4A82
330
1E
100
AcDbEntity
  8
24
  6
DASHDOT
100
AcDbLine
 10
180.200012
 20
40.0
 30
0.0
 11
210.2000129999999
 21
40.0
 31
0.0
  0
ARC
  5
4A83
330
1E
100
AcDbEntity
  8
24
  6
DASHDOT
100
AcDbCircle
 10
190.840095
 20
42.9
 30
0.0
 40
1.6
100
AcDbArc
 50
90.0
 51
162.9665899999992
  0
ARC
  5
4A84
330
1E
100
AcDbEntity
  8
24
  6
DASHDOT
100
AcDbCircle
 10
190.840095
 20
37.10000000000002
 30
0.0
 40
1.6
100
AcDbArc
 50
197.0334100000007
 51
270.0
  0
ARC
  5
4A87
330
1E
100
AcDbEntity
  8
24
  6
DASHDOT
100
AcDbCircle
 10
200.3058229999999
 20
40.0
 30
0.0
 40
11.5
100
AcDbArc
 50
163.1999889999988
 51
196.7999850000012
  0
LINE
  5
4A89
330
1E
100
AcDbEntity
  8
24
  6
DASHDOT
100
AcDbLine
 10
197.8
 20
37.5
 30
0.0
 11
205.105824
 21
37.5
 31
0.0
  0
LINE
  5
4A8A
330
1E
100
AcDbEntity
  8
24
  6
DASHDOT
100
AcDbLine
 10
197.8
 20
38.0
 30
0.0
 11
205.105824
 21
38.0
 31
0.0
  0
LINE
  5
4A8B
330
1E
100
AcDbEntity
  8
24
  6
DASHDOT
100
AcDbLine
 10
205.105824
 20
42.5
 30
0.0
 11
197.8
 21
42.5
 31
0.0
  0
LINE
  5
4A8C
330
1E
100
AcDbEntity
  8
24
  6
DASHDOT
100
AcDbLine
 10
197.8
 20
42.0
 30
0.0
 11
205.105824
 21
42.0
 31
0.0
  0
LINE
  5
4A92
330
1E
100
AcDbEntity
  8
24
  6
DASHDOT
100
AcDbLine
 10
197.8
 20
42.5
 30
0.0
 11
196.3
 21
42.5
 31
0.0
  0
LINE
  5
4A93
330
1E
100
AcDbEntity
  8
24
  6
DASHDOT
100
AcDbLine
 10
197.8
 20
37.5
 30
0.0
 11
196.3
 21
37.5
 31
0.0
  0
ARC
  5
4A97
330
1E
100
AcDbEntity
  8
24
  6
DASHDOT
100
AcDbCircle
 10
195.6999999999999
 20
40.70000000000002
 30
0.0
 40
0.3
100
AcDbArc
 50
270.0
 51
0.0
  0
SPLINE
  5
4A99
330
1E
100
AcDbEntity
  8
24
  6
DASHDOT
100
AcDbSpline
210
0.0
220
0.0
230
1.0
 70
     8
 71
     3
 72
    71
 73
    67
 74
    65
 42
0.0000000001
 43
0.0000000001
 44
0.000001
 12
0.2169304578185634
 22
0.9761870601839733
 32
0.0
 13
0.2169304578186913
 23
0.9761870601839449
 33
0.0
 40
0.0
 40
0.0
 40
0.0
 40
0.0
 40
0.1296676152133095
 40
0.2593353661303711
 40
0.3888620587091495
 40
0.5183882630553278
 40
0.6475267039589186
 40
0.776664159544064
 40
0.905219579737386
 40
1.033773477100951
 40
1.161657696846877
 40
1.289541252873627
 40
1.416833340182315
 40
1.544124711226168
 40
1.670973814695162
 40
1.797822167178459
 40
1.924426044889843
 40
2.051029163199939
 40
2.177632266838565
 40
2.304236174937132
 40
2.431082895359967
 40
2.557930403629475
 40
2.685213919979072
 40
2.812498180487598
 40
2.940360613246146
 40
3.068223728644962
 40
3.19674044094524
 40
3.325258472010596
 40
3.454367662412879
 40
3.583477762589768
 40
3.713024407423697
 40
3.842571583175991
 40
3.972349638440174
 40
4.10212780024943
 40
4.231905962058661
 40
4.361684017322928
 40
4.491231193075138
 40
4.620777837909175
 40
4.749887938085981
 40
4.878997128488292
 40
5.007515159553732
 40
5.136031871853991
 40
5.263894987252655
 40
5.391757420011273
 40
5.519041680519812
 40
5.64632519686938
 40
5.773172705138888
 40
5.900019425561752
 40
6.026623333660262
 40
6.153226437298946
 40
6.27982955560904
 40
6.406433433320421
 40
6.533281785803739
 40
6.660130889272696
 40
6.787422260316538
 40
6.914714347625239
 40
7.042597903651946
 40
7.170482123397889
 40
7.299036020761501
 40
7.427591440954928
 40
7.556728896539939
 40
7.68586733744366
 40
7.815393541789807
 40
7.944920234368638
 40
8.074587985285754
 40
8.204255600499084
 40
8.204255600499084
 40
8.204255600499084
 40
8.204255600499084
 10
193.3000003680711
 20
35.95000044462344
 30
0.0
 10
193.3093766531152
 20
35.99219372732216
 30
0.0
 10
193.3282194459251
 20
36.07656025777835
 30
0.0
 10
193.3564564631651
 20
36.2030679491779
 30
0.0
 10
193.3843694946208
 20
36.32959951484824
 30
0.0
 10
193.4116359914315
 20
36.45609198717628
 30
0.0
 10
193.437971200006
 20
36.5826498374747
 30
0.0
 10
193.4630360622559
 20
36.70913653488057
 30
0.0
 10
193.4865576082932
 20
36.83572230049267
 30
0.0
 10
193.508190442116
 20
36.96222239988912
 30
0.0
 10
193.5276618510343
 20
37.08884771256473
 30
0.0
 10
193.5448406420514
 20
37.21538044806268
 30
0.0
 10
193.5596549644007
 20
37.34201342639873
 30
0.0
 10
193.5719884657308
 20
37.4685663122227
 30
0.0
 10
193.5817571651335
 20
37.59519526675337
 30
0.0
 10
193.5888570624097
 20
37.72177310131094
 30
0.0
 10
193.5931930588487
 20
37.84839433231874
 30
0.0
 10
193.5946700457469
 20
37.97500038814622
 30
0.0
 10
193.5931870766244
 20
38.10160636040647
 30
0.0
 10
193.5888513046338
 20
38.22822699085562
 30
0.0
 10
193.581764092235
 20
38.35480435843149
 30
0.0
 10
193.5720267352219
 20
38.48143187430904
 30
0.0
 10
193.5597493790575
 20
38.60798425121825
 30
0.0
 10
193.5450224236
 20
38.73461485599555
 30
0.0
 10
193.5279679597374
 20
38.86114734086648
 30
0.0
 10
193.5086645488825
 20
38.98777130831582
 30
0.0
 10
193.4872479934684
 20
39.11427568755687
 30
0.0
 10
193.4639497457399
 20
39.24086796516429
 30
0.0
 10
193.4390728948194
 20
39.36736005329502
 30
0.0
 10
193.4128475088149
 20
39.49392868621785
 30
0.0
 10
193.3855729686892
 20
39.62042402654978
 30
0.0
 10
193.3574877327665
 20
39.74696938330841
 30
0.0
 10
193.3288785478069
 20
39.87347608099286
 30
0.0
 10
193.3000003680709
 20
40.00000044462338
 30
0.0
 10
193.2711221883353
 20
40.12652480825401
 30
0.0
 10
193.2425130033755
 20
40.25303150593843
 30
0.0
 10
193.2144277674529
 20
40.37957686269712
 30
0.0
 10
193.187153227327
 20
40.50607220302896
 30
0.0
 10
193.1609278413226
 20
40.63264083595183
 30
0.0
 10
193.136050990402
 20
40.75913292408256
 30
0.0
 10
193.1127527426736
 20
40.88572520169001
 30
0.0
 10
193.0913361872597
 20
41.01222958093108
 30
0.0
 10
193.0720327764045
 20
41.13885354838035
 30
0.0
 10
193.0549783125421
 20
41.26538603325129
 30
0.0
 10
193.0402513570845
 20
41.39201663802856
 30
0.0
 10
193.0279740009201
 20
41.51856901493779
 30
0.0
 10
193.0182366439071
 20
41.64519653081533
 30
0.0
 10
193.0111494315083
 20
41.77177389839121
 30
0.0
 10
193.0068136595175
 20
41.89839452884034
 30
0.0
 10
193.0053306903949
 20
42.02500050110059
 30
0.0
 10
193.006807677293
 20
42.15160655692811
 30
0.0
 10
193.011143673732
 20
42.27822778793591
 30
0.0
 10
193.018243571008
 20
42.40480562249348
 30
0.0
 10
193.0280122704106
 20
42.53143457702413
 30
0.0
 10
193.0403457717406
 20
42.65798746284813
 30
0.0
 10
193.05516009409
 20
42.78462044118414
 30
0.0
 10
193.072338885107
 20
42.91115317668211
 30
0.0
 10
193.0918102940255
 20
43.03777848935769
 30
0.0
 10
193.1134431278483
 20
43.16427858875419
 30
0.0
 10
193.1369646738858
 20
43.29086435436628
 30
0.0
 10
193.1620295361355
 20
43.41735105177222
 30
0.0
 10
193.1883647447103
 20
43.54390890207057
 30
0.0
 10
193.2156312415211
 20
43.67040137439864
 30
0.0
 10
193.243544272977
 20
43.79693294006895
 30
0.0
 10
193.2717812902167
 20
43.92344063146858
 30
0.0
 10
193.290624083027
 20
44.00780716192474
 30
0.0
 10
193.3000003680711
 20
44.05000044462346
 30
0.0
 11
193.3000003680711
 21
35.95000044462344
 31
0.0
 11
193.3282176118176
 21
36.07656077911099
 31
0.0
 11
193.3564153517614
 21
36.20312544462348
 31
0.0
 11
193.384269005638
 21
36.32962184637597
 31
0.0
 11
193.4115130409248
 21
36.45625044462343
 31
0.0
 11
193.4377712255478
 21
36.5826911284644
 31
0.0
 11
193.4628225426997
 21
36.70937544462347
 31
0.0
 11
193.48625610573
 21
36.83577705193437
 31
0.0
 11
193.5078729642246
 21
36.96250044462343
 31
0.0
 11
193.5272908606835
 21
37.08890187407542
 31
0.0
 11
193.5444764083865
 21
37.21562544462347
 31
0.0
 11
193.5592487254623
 21
37.34205746834874
 31
0.0
 11
193.5715769610663
 21
37.46875044462342
 31
0.0
 11
193.5813160341241
 21
37.59522513762965
 31
0.0
 11
193.5884017038937
 21
37.72187544462346
 31
0.0
 11
193.5927180272395
 21
37.84840573200685
 31
0.0
 11
193.5941777184984
 21
37.97500044462342
 31
0.0
 11
193.5927130754049
 21
38.10159508522619
 31
0.0
 11
193.588397986606
 21
38.22812544462342
 31
0.0
 11
193.5813260288082
 21
38.35477488249489
 31
0.0
 11
193.571619090329
 21
38.48125044462344
 31
0.0
 11
193.5593481869815
 21
38.6079410933703
 31
0.0
 11
193.5446635118759
 21
38.73437544462342
 31
0.0
 11
193.52760392846
 21
38.86109471737816
 31
0.0
 11
193.5083537334556
 21
38.98750044462346
 31
0.0
 11
193.4869474638675
 21
39.11422186513283
 31
0.0
 11
193.4637306451482
 21
39.24062544462342
 31
0.0
 11
193.4388604567939
 21
39.3673166355941
 31
0.0
 11
193.412708768522
 21
39.49375044462342
 31
0.0
 11
193.3854467761963
 21
39.62039608279241
 31
0.0
 11
193.3574210330164
 21
39.74687544462344
 31
0.0
 11
193.3288375417402
 21
39.87346662898847
 31
0.0
 11
193.3000003680711
 21
40.00000044462348
 31
0.0
 11
193.2711631944019
 21
40.12653426025835
 31
0.0
 11
193.2425797031257
 21
40.25312544462346
 31
0.0
 11
193.2145539599458
 21
40.3796048064544
 31
0.0
 11
193.18729196762
 21
40.50625044462347
 31
0.0
 11
193.161140279348
 21
40.63268425365271
 31
0.0
 11
193.1362700909938
 21
40.75937544462343
 31
0.0
 11
193.1130532722745
 21
40.8857790241141
 31
0.0
 11
193.0916470026865
 21
41.01250044462346
 31
0.0
 11
193.072396807682
 21
41.1389061718686
 31
0.0
 11
193.0553372242662
 21
41.26562544462342
 31
0.0
 11
193.0406525491605
 21
41.39205979587655
 31
0.0
 11
193.0283816458129
 21
41.51875044462338
 31
0.0
 11
193.0186747073337
 21
41.64522600675192
 31
0.0
 11
193.011602749536
 21
41.77187544462341
 31
0.0
 11
193.0072876607371
 21
41.89840580402059
 31
0.0
 11
193.0058230176435
 21
42.02500044462342
 31
0.0
 11
193.0072827089023
 21
42.15159515723999
 31
0.0
 11
193.0115990322479
 21
42.27812544462338
 31
0.0
 11
193.0186847020175
 21
42.40477575161722
 31
0.0
 11
193.0284237750751
 21
42.53125044462342
 31
0.0
 11
193.040752010679
 21
42.65794342089811
 31
0.0
 11
193.0555243277549
 21
42.78437544462337
 31
0.0
 11
193.0727098754578
 21
42.9110990151714
 31
0.0
 11
193.0921277719168
 21
43.03750044462339
 31
0.0
 11
193.1137446304115
 21
43.16422383731247
 31
0.0
 11
193.137178193442
 21
43.29062544462345
 31
0.0
 11
193.1622295105938
 21
43.41730976078241
 31
0.0
 11
193.188487695217
 21
43.54375044462346
 31
0.0
 11
193.2157317305039
 21
43.67037904287087
 31
0.0
 11
193.2435853843806
 21
43.79687544462339
 31
0.0
 11
193.2717831243244
 21
43.92344011013594
 31
0.0
 11
193.3000003680711
 21
44.05000044462346
 31
0.0
  0
LINE
  5
4A9A
330
1E
100
AcDbEntity
  8
24
  6
DASHDOT
100
AcDbLine
 10
193.5999999999999
 20
34.0
 30
0.0
 11
193.5999999999999
 21
46.0
 31
0.0
  0
SPLINE
  5
4A9B
330
1E
100
AcDbEntity
  8
24
  6
DASHDOT
100
AcDbSpline
210
0.0
220
0.0
230
1.0
 70
     8
 71
     3
 72
    79
 73
    75
 74
    73
 42
0.0000000001
 43
0.0000000001
 44
0.000001
 12
0.216930457819766
 22
0.9761870601837062
 32
0.0
 13
0.2169304578196485
 23
0.9761870601837323
 33
0.0
 40
0.0
 40
0.0
 40
0.0
 40
0.0
 40
0.1152356051514296
 40
0.2304713228570126
 40
0.3455886675656785
 40
0.4607057863456954
 40
0.5755618983185271
 40
0.6904175998100563
 40
0.8048923384914687
 40
0.9193664704323097
 40
1.033380092391167
 40
1.147393109798357
 40
1.260928734879052
 40
1.374463629316185
 40
1.487555640969573
 40
1.600646799382745
 40
1.713383730785943
 40
1.826119700542917
 40
1.938653292388654
 40
2.051187089729654
 40
2.163714936530597
 40
2.276243025951347
 40
2.388953957463623
 40
2.501665159260598
 40
2.614731325711789
 40
2.727797781106237
 40
2.841356917840297
 40
2.954917317288877
 40
3.068999216327168
 40
3.183082075707238
 40
3.297627855882892
 40
3.412174309172458
 40
3.527067813493149
 40
3.641961722514608
 40
3.757061948391201
 40
3.872162289022335
 40
3.987362235385491
 40
4.102562152992896
 40
4.217762070600681
 40
4.332962016963861
 40
4.448062357594892
 40
4.563162583471532
 40
4.678056492492888
 40
4.79294999681363
 40
4.907496450103197
 40
5.022042230278899
 40
5.136125089658986
 40
5.250206988697221
 40
5.36376738814583
 40
5.477326524879876
 40
5.590392980274266
 40
5.70345914672557
 40
5.81617034852253
 40
5.928881280034801
 40
6.041409369455521
 40
6.153937216256465
 40
6.266471013597465
 40
6.379004605443153
 40
6.491740575200156
 40
6.604477506603399
 40
6.717568665016581
 40
6.830660676669957
 40
6.944195571107146
 40
7.057731196187813
 40
7.171744213594975
 40
7.285757835553833
 40
7.400231967494674
 40
7.514706706176142
 40
7.62956240766761
 40
7.744418519640475
 40
7.859535638420464
 40
7.974652983129129
 40
8.089888700834737
 40
8.205124305986142
 40
8.205124305986142
 40
8.205124305986142
 40
8.205124305986142
 10
192.400000368071
 20
35.95000044462344
 30
0.0
 10
192.4083330722652
 20
35.98749761349719
 30
0.0
 10
192.425022256991
 20
36.06248669978732
 30
0.0
 10
192.4499558786927
 20
36.17495222053325
 30
0.0
 10
192.4746165877737
 20
36.28743760738486
 30
0.0
 10
192.4988161179919
 20
36.39989391106317
 30
0.0
 10
192.5223925812104
 20
36.51239370128787
 30
0.0
 10
192.5451477402611
 20
36.6248444465672
 30
0.0
 10
192.5669273837339
 20
36.73735900547305
 30
0.0
 10
192.5875278509659
 20
36.84981070808619
 30
0.0
 10
192.6067979777177
 20
36.96234246170964
 30
0.0
 10
192.6245768467465
 20
37.074803312199
 30
0.0
 10
192.6407545455035
 20
37.18734505230875
 30
0.0
 10
192.6551749114899
 20
37.29981666048671
 30
0.0
 10
192.6677220237779
 20
37.41236428391486
 30
0.0
 10
192.6782470526334
 20
37.52485270282773
 30
0.0
 10
192.6866255813697
 20
37.63740313208693
 30
0.0
 10
192.6927174209382
 20
37.74991546380064
 30
0.0
 10
192.6963894634861
 20
37.86246535569131
 30
0.0
 10
192.6976751395574
 20
37.97499805198926
 30
0.0
 10
192.6966040088547
 20
38.08753097587098
 30
0.0
 10
192.6932116428519
 20
38.2000766732198
 30
0.0
 10
192.6875290214964
 20
38.31259097257732
 30
0.0
 10
192.6795877226827
 20
38.42514798568346
 30
0.0
 10
192.6694251049409
 20
38.5376449548962
 30
0.0
 10
192.6570647382003
 20
38.65020590588475
 30
0.0
 10
192.6425555348597
 20
38.76267543665048
 30
0.0
 10
192.6260892672195
 20
38.87521580643957
 30
0.0
 10
192.6079016423304
 20
38.98766666474953
 30
0.0
 10
192.5881769931478
 20
39.1001906222225
 30
0.0
 10
192.5671546382608
 20
39.21263611573064
 30
0.0
 10
192.5450186207505
 20
39.32514240804638
 30
0.0
 10
192.5220049939437
 20
39.43759038444312
 30
0.0
 10
192.4983027476946
 20
39.5500834524655
 30
0.0
 10
192.4741392169834
 20
39.6625486345758
 30
0.0
 10
192.4496189799621
 20
39.77504089742199
 30
0.0
 10
192.4248682359004
 20
39.88751661138561
 30
0.0
 10
192.4000003680716
 20
40.00000044462362
 30
0.0
 10
192.3751325002401
 20
40.11248427786106
 30
0.0
 10
192.3503817561788
 20
40.22495999182488
 30
0.0
 10
192.3258615191579
 20
40.33745225467114
 30
0.0
 10
192.3016979884462
 20
40.44991743678127
 30
0.0
 10
192.2779957421976
 20
40.56241050480373
 30
0.0
 10
192.2549821153904
 20
40.6748584812004
 30
0.0
 10
192.2328460978803
 20
40.7873647735162
 30
0.0
 10
192.211823742993
 20
40.89981026702431
 30
0.0
 10
192.1920990938109
 20
41.01233422449737
 30
0.0
 10
192.1739114689216
 20
41.12478508280729
 30
0.0
 10
192.1574452012812
 20
41.23732545259636
 30
0.0
 10
192.142935997941
 20
41.34979498336213
 30
0.0
 10
192.1305756312003
 20
41.46235593435067
 30
0.0
 10
192.1204130134585
 20
41.57485290356342
 30
0.0
 10
192.1124717146451
 20
41.68740991666961
 30
0.0
 10
192.1067890932897
 20
41.79992421602711
 30
0.0
 10
192.1033967272869
 20
41.91246991337592
 30
0.0
 10
192.1023255965842
 20
42.02500283725765
 30
0.0
 10
192.1036112726554
 20
42.13753553355557
 30
0.0
 10
192.1072833152036
 20
42.25008542544623
 30
0.0
 10
192.113375154772
 20
42.36259775715995
 30
0.0
 10
192.1217536835087
 20
42.47514818641915
 30
0.0
 10
192.1322787123643
 20
42.58763660533202
 30
0.0
 10
192.144825824652
 20
42.70018422876022
 30
0.0
 10
192.1592461906385
 20
42.81265583693818
 30
0.0
 10
192.1754238893956
 20
42.92519757704794
 30
0.0
 10
192.1932027584243
 20
43.03765842753726
 30
0.0
 10
192.2124728851762
 20
43.15019018116072
 30
0.0
 10
192.2330733524082
 20
43.26264188377388
 30
0.0
 10
192.2548529958809
 20
43.37515644267972
 30
0.0
 10
192.2776081549318
 20
43.487607187959
 30
0.0
 10
192.3011846181501
 20
43.60010697818376
 30
0.0
 10
192.3253841483683
 20
43.71256328186203
 30
0.0
 10
192.3500448574493
 20
43.82504866871367
 30
0.0
 10
192.3749784791512
 20
43.93751418945953
 30
0.0
 10
192.3916676638768
 20
44.01250327574971
 30
0.0
 10
192.400000368071
 20
44.05000044462346
 30
0.0
 11
192.400000368071
 21
35.95000044462344
 31
0.0
 11
192.4250079776529
 21
36.0624900102014
 31
0.0
 11
192.449921304418
 21
36.17500044462346
 31
0.0
 11
192.4745452012053
 21
36.2874534032313
 31
0.0
 11
192.4987343666535
 21
36.40000044462345
 31
0.0
 11
192.522263900884
 21
36.51242058855217
 31
0.0
 11
192.54501493457
 21
36.62500044462348
 31
0.0
 11
192.5667405303054
 21
36.73739468698602
 31
0.0
 11
192.58733838796
 21
36.85000044462347
 31
0.0
 11
192.6065589327343
 21
36.96238228578687
 31
0.0
 11
192.6243386985109
 21
37.07500044462347
 31
0.0
 11
192.6404695979171
 21
37.18738431319684
 31
0.0
 11
192.6548842054901
 21
37.30000044462346
 31
0.0
 11
192.6673906030358
 21
37.4123988203396
 31
0.0
 11
192.67790184006
 21
37.52500044462343
 31
0.0
 11
192.6862475586018
 21
37.63742805019629
 31
0.0
 11
192.6923185333825
 21
37.75000044462342
 31
0.0
 11
192.6959931027748
 21
37.86247403572946
 31
0.0
 11
192.697283338487
 21
37.97500044462347
 31
0.0
 11
192.6962184383765
 21
38.0875232606854
 31
0.0
 11
192.69283379587
 21
38.20000044462346
 31
0.0
 11
192.6871554779886
 21
38.31256825771891
 31
0.0
 11
192.6792295678946
 21
38.42500044462346
 31
0.0
 11
192.669064581422
 21
38.53760875991383
 31
0.0
 11
192.6567303169247
 21
38.6500004446234
 31
0.0
 11
192.6422381143327
 21
38.76263105789073
 31
0.0
 11
192.6258342557915
 21
38.87500044462342
 31
0.0
 11
192.6076555919369
 21
38.98762467416236
 31
0.0
 11
192.5879937991986
 21
39.10000044462341
 31
0.0
 11
192.566978516231
 21
39.21260193033032
 31
0.0
 11
192.5448999123182
 21
39.32500044462344
 31
0.0
 11
192.5218974747572
 21
39.4375677838965
 31
0.0
 11
192.4982435603221
 21
39.55000044462337
 31
0.0
 11
192.4740843506759
 21
39.66253663881147
 31
0.0
 11
192.4495898391822
 21
39.77500044462343
 31
0.0
 11
192.4248508908771
 21
39.88751272065531
 31
0.0
 11
192.4000003680706
 21
40.00000044462342
 31
0.0
 11
192.3751498452639
 21
40.1124881685916
 31
0.0
 11
192.3504108969587
 21
40.22500044462347
 31
0.0
 11
192.3259163854653
 21
40.33746425043537
 31
0.0
 11
192.3017571758188
 21
40.45000044462347
 31
0.0
 11
192.2781032613839
 21
40.56243310535029
 31
0.0
 11
192.2551008238228
 21
40.67500044462337
 31
0.0
 11
192.23302221991
 21
40.7873989589165
 31
0.0
 11
192.2120069369423
 21
40.90000044462342
 31
0.0
 11
192.1923451442042
 21
41.01237621508454
 31
0.0
 11
192.1741664803496
 21
41.12500044462342
 31
0.0
 11
192.1577626218084
 21
41.23736983135614
 31
0.0
 11
192.1432704192165
 21
41.35000044462347
 31
0.0
 11
192.1309361547192
 21
41.46239212933298
 31
0.0
 11
192.1207711682466
 21
41.57500044462347
 31
0.0
 11
192.1128452581529
 21
41.68743263152802
 31
0.0
 11
192.1071669402716
 21
41.80000044462346
 31
0.0
 11
192.1037822977651
 21
41.9124776285615
 31
0.0
 11
192.1027173976546
 21
42.02500044462342
 31
0.0
 11
192.1040076333668
 21
42.13752685351744
 31
0.0
 11
192.1076822027593
 21
42.25000044462342
 31
0.0
 11
192.1137531775401
 21
42.36257283905058
 31
0.0
 11
192.122098896082
 21
42.47500044462348
 31
0.0
 11
192.1326101331064
 21
42.58760206890729
 31
0.0
 11
192.1451165306519
 21
42.70000044462344
 31
0.0
 11
192.1595311382249
 21
42.81261657605011
 31
0.0
 11
192.1756620376311
 21
42.92500044462346
 31
0.0
 11
192.1934418034077
 21
43.03761860346003
 31
0.0
 11
192.212662348182
 21
43.15000044462343
 31
0.0
 11
192.2332602058366
 21
43.26260620226088
 31
0.0
 11
192.254985801572
 21
43.37500044462347
 31
0.0
 11
192.2777368352581
 21
43.4875803006947
 31
0.0
 11
192.3012663694885
 21
43.60000044462347
 31
0.0
 11
192.3254555349368
 21
43.7125474860156
 31
0.0
 11
192.350079431724
 21
43.82500044462344
 31
0.0
 11
192.3749927584893
 21
43.9375108790455
 31
0.0
 11
192.400000368071
 21
44.05000044462346
 31
0.0
  0
LINE
  5
4A9C
330
1E
100
AcDbEntity
  8
24
  6
DASHDOT
100
AcDbLine
 10
192.105823
 20
44.5
 30
0.0
 11
192.105823
 21
35.5
 31
0.0
  0
LINE
  5
4A9D
330
1E
100
AcDbEntity
  8
24
  6
DASHDOT
100
AcDbLine
 10
192.3999999999999
 20
35.95000000000001
 30
0.0
 11
193.3
 21
35.95000000000001
 31
0.0
  0
SPLINE
  5
4A9E
330
1E
100
AcDbEntity
  8
24
  6
DASHDOT
100
AcDbSpline
210
0.0
220
0.0
230
1.0
 70
     8
 71
     3
 72
    55
 73
    51
 74
    49
 42
0.0000000001
 43
0.0000000001
 44
0.000001
 12
-0.2169304578160424
 22
0.9761870601845336
 32
0.0
 13
0.0046239517060918
 23
0.9999893094781661
 33
0.0
 40
0.0
 40
0.0
 40
0.0
 40
0.0
 40
0.0437569220238872
 40
0.0875135305951176
 40
0.1312755701087971
 40
0.1750376094504256
 40
0.2187938241451015
 40
0.2625500362757181
 40
0.3062892585533234
 40
0.3500284758650771
 40
0.3937398216691061
 40
0.4374511601531936
 40
0.4811242574570915
 40
0.5247973450301667
 40
0.5684224514579997
 40
0.6120475457280704
 40
0.6556157063047574
 40
0.699183852282832
 40
0.7426877102869917
 40
0.7861915579188396
 40
0.8296272735879862
 40
0.8730629775103277
 40
0.916428147595402
 40
0.9597933047015636
 40
1.003086366766058
 40
1.046379414694103
 40
1.089599731301324
 40
1.132820032890379
 40
1.175967996175546
 40
1.219115943425244
 40
1.262193000575672
 40
1.305270040784864
 40
1.348278752327486
 40
1.391287446239313
 40
1.434231893442853
 40
1.477176333852319
 40
1.520062938375901
 40
1.562949535944077
 40
1.605785576126205
 40
1.648621609266638
 40
1.691414829409665
 40
1.734208042473236
 40
1.77696665479641
 40
1.819725259758312
 40
1.862457945136828
 40
1.905190623241541
 40
1.947906558641992
 40
1.990622487064079
 40
2.033331354958134
 40
2.076039743334764
 40
2.076039743334764
 40
2.076039743334764
 40
2.076039743334764
 10
192.400000368071
 20
35.95000044462344
 30
0.0
 10
192.3968362983619
 20
35.96423875831451
 30
0.0
 10
192.3904973635434
 20
35.99271288061819
 30
0.0
 10
192.3809618055025
 20
36.03541980760215
 30
0.0
 10
192.3714146911969
 20
36.0781258992073
 30
0.0
 10
192.3618678512601
 20
36.12083191773885
 30
0.0
 10
192.3523342212631
 20
36.16353889817684
 30
0.0
 10
192.3428272884693
 20
36.20624404025453
 30
0.0
 10
192.3333589566636
 20
36.24895195772672
 30
0.0
 10
192.3239435712718
 20
36.29165626951236
 30
0.0
 10
192.3145922389078
 20
36.33436514475405
 30
0.0
 10
192.3053199365914
 20
36.37706870160039
 30
0.0
 10
192.2961369233576
 20
36.4197785128025
 30
0.0
 10
192.2870588571561
 20
36.46248137784808
 30
0.0
 10
192.2780953578103
 20
36.50519209941009
 30
0.0
 10
192.269262674046
 20
36.54789436280232
 30
0.0
 10
192.2605698886343
 20
36.59060596193348
 30
0.0
 10
192.252033688057
 20
36.6333079361545
 30
0.0
 10
192.2436627467563
 20
36.67602078131453
 30
0.0
 10
192.2354690466294
 20
36.71872304296265
 30
0.0
 10
192.2274561386169
 20
36.76143649528545
 30
0.0
 10
192.2196360024443
 20
36.80413867900257
 30
0.0
 10
192.212012180649
 20
36.84685246881766
 30
0.0
 10
192.204596580147
 20
36.88955465475064
 30
0.0
 10
192.1973928561443
 20
36.9322687264067
 30
0.0
 10
192.1904127636049
 20
36.97497100572004
 30
0.0
 10
192.1836601482699
 20
37.01768530573954
 30
0.0
 10
192.1771464152055
 20
37.06038778054672
 30
0.0
 10
192.1708755542835
 20
37.10310222910367
 30
0.0
 10
192.164858669855
 20
37.14580498959934
 30
0.0
 10
192.1591000839577
 20
37.18851950915237
 30
0.0
 10
192.1536105393398
 20
37.23122266133827
 30
0.0
 10
192.1483947474927
 20
37.27393717241578
 30
0.0
 10
192.1434630244533
 20
37.31664094107538
 30
0.0
 10
192.138820524153
 20
37.35935558111759
 30
0.0
 10
192.1344720998113
 20
37.40206025877597
 30
0.0
 10
192.1304183999014
 20
37.44477455664948
 30
0.0
 10
192.1266637596578
 20
37.48747991490043
 30
0.0
 10
192.1232093000518
 20
37.53019369644327
 30
0.0
 10
192.1200588946703
 20
37.57289977650909
 30
0.0
 10
192.1172140998918
 20
37.61561300137223
 30
0.0
 10
192.1146783821809
 20
37.65831984358195
 30
0.0
 10
192.1124536750276
 20
37.70103246851228
 30
0.0
 10
192.1105432176551
 20
37.74374011406922
 30
0.0
 10
192.1089493752324
 20
37.78645210301341
 30
0.0
 10
192.1076750998791
 20
37.82916059888076
 30
0.0
 10
192.1067230454166
 20
37.87187190910659
 30
0.0
 10
192.1060957656389
 20
37.9145813033643
 30
0.0
 10
192.1057968349493
 20
37.95729171599993
 30
0.0
 10
192.1058161561198
 20
37.98576446735619
 30
0.0
 10
192.1058819832949
 20
38.00000044462342
 30
0.0
 11
192.400000368071
 21
35.95000044462344
 31
0.0
 11
192.390492020698
 21
35.99271147355202
 31
0.0
 11
192.3809594777051
 21
36.03541711129017
 31
0.0
 11
192.3714138731216
 21
36.07812539649557
 31
0.0
 11
192.3618686994046
 21
36.12083377795693
 31
0.0
 11
192.3523375346547
 21
36.16353932014772
 31
0.0
 11
192.3428314279217
 21
36.20625044462369
 31
0.0
 11
192.3333663811475
 21
36.24895328505442
 31
0.0
 11
192.3239510580088
 21
36.29166711129042
 31
0.0
 11
192.3146037645714
 21
36.33436734537116
 31
0.0
 11
192.3053308128452
 21
36.37708377795718
 31
0.0
 11
192.2961525478211
 21
36.41978154151388
 31
0.0
 11
192.2870732293178
 21
36.46250044462391
 31
0.0
 11
192.2781151047159
 21
36.5051959014676
 31
0.0
 11
192.2692806727405
 21
36.54791711129064
 31
0.0
 11
192.2605937863487
 21
36.59061046800701
 31
0.0
 11
192.2520555084275
 21
36.63333377795729
 31
0.0
 11
192.2436900177771
 21
36.67602574739962
 31
0.0
 11
192.2354933710024
 21
36.71875044462387
 31
0.0
 11
192.227485994254
 21
36.76144170048255
 31
0.0
 11
192.2196629723287
 21
36.80416711129041
 31
0.0
 11
192.2120446406768
 21
36.84685784851092
 31
0.0
 11
192.204626293579
 21
36.88958377795697
 31
0.0
 11
192.1974279393995
 21
36.93227421034658
 31
0.0
 11
192.1904453159266
 21
36.97500044462362
 31
0.0
 11
192.1836978525751
 21
37.01769081429318
 31
0.0
 11
192.1771818568568
 21
37.06041711129026
 31
0.0
 11
192.1709158756127
 21
37.10310767731084
 31
0.0
 11
192.1648970791041
 21
37.1458337779569
 31
0.0
 11
192.1591430362125
 21
37.18852480858254
 31
0.0
 11
192.1536519817153
 21
37.23125044462369
 31
0.0
 11
192.1484403419015
 21
37.2739422276193
 31
0.0
 11
192.1435075637371
 21
37.31666711129046
 31
0.0
 11
192.1388679428929
 21
37.35936019800192
 31
0.0
 11
192.1345181354112
 21
37.40208377795721
 31
0.0
 11
192.1304668093489
 21
37.44477859868115
 31
0.0
 11
192.1267112517576
 21
37.48750044462392
 31
0.0
 11
192.1232586892955
 21
37.53019712140693
 31
0.0
 11
192.1201077789908
 21
37.57291711129056
 31
0.0
 11
192.1172644553985
 21
37.61561576723119
 31
0.0
 11
192.1147285833256
 21
37.65833377795721
 31
0.0
 11
192.1125050003802
 21
37.701034534369
 31
0.0
 11
192.1105946885908
 21
37.74375044462368
 31
0.0
 11
192.1090016700232
 21
37.78645342652788
 31
0.0
 11
192.1077277490736
 21
37.82916711129018
 31
0.0
 11
192.1067762636786
 21
37.87187244773844
 31
0.0
 11
192.1061495766744
 21
37.91458377795683
 31
0.0
 11
192.1058506008934
 21
37.95729159736268
 31
0.0
 11
192.1058819832949
 21
38.00000044462342
 31
0.0
  0
LINE
  5
4A9F
330
1E
100
AcDbEntity
  8
24
  6
DASHDOT
100
AcDbLine
 10
192.105823
 20
38.0
 30
0.0
 11
192.6972489999999
 21
38.0
 31
0.0
  0
LINE
  5
4AA0
330
1E
100
AcDbEntity
  8
24
  6
DASHDOT
100
AcDbLine
 10
190.840095
 20
35.5
 30
0.0
 11
192.105823
 21
35.5
 31
0.0
  0
ARC
  5
4AA1
330
1E
100
AcDbEntity
  8
24
  6
DASHDOT
100
AcDbCircle
 10
195.5
 20
36.54289400000001
 30
0.0
 40
0.5
100
AcDbArc
 50
0.0
 51
44.99999999999985
  0
ARC
  5
4AA2
330
1E
100
AcDbEntity
  8
24
  6
DASHDOT
100
AcDbCircle
 10
195.6999999999999
 20
37.30000000000001
 30
0.0
 40
0.3
100
AcDbArc
 50
270.0
 51
0.0
  0
ARC
  5
4AA3
330
1E
100
AcDbEntity
  8
24
  6
DASHDOT
100
AcDbCircle
 10
195.6999999999999
 20
39.30000000000001
 30
0.0
 40
0.3
100
AcDbArc
 50
0.0
 51
90.0
  0
LINE
  5
4AA4
330
1E
100
AcDbEntity
  8
24
  6
DASHDOT
100
AcDbLine
 10
195.5999999999999
 20
36.80000000000001
 30
0.0
 11
195.5999999999999
 21
37.0
 31
0.0
  0
LINE
  5
4AA5
330
1E
100
AcDbEntity
  8
24
  6
DASHDOT
100
AcDbLine
 10
195.8535539999999
 20
36.89644699999999
 30
0.0
 11
195.746392
 21
37.00360900000001
 31
0.0
  0
LINE
  5
4AA6
330
1E
100
AcDbEntity
  8
24
  6
DASHDOT
100
AcDbLine
 10
195.5999999999999
 20
37.0
 30
0.0
 11
195.6999999999999
 21
37.0
 31
0.0
  0
LINE
  5
4AA7
330
1E
100
AcDbEntity
  8
24
  6
DASHDOT
100
AcDbLine
 10
196.3
 20
34.0
 30
0.0
 11
195.5999999999999
 21
36.80000000000001
 31
0.0
  0
LINE
  5
4AA8
330
1E
100
AcDbEntity
  8
24
  6
DASHDOT
100
AcDbLine
 10
196.0
 20
36.54289400000001
 30
0.0
 11
196.0
 21
35.20000000000001
 31
0.0
  0
LINE
  5
4AA9
330
1E
100
AcDbEntity
  8
24
  6
DASHDOT
100
AcDbLine
 10
195.5999999999999
 20
39.60000000000002
 30
0.0
 11
195.6999999999999
 21
39.60000000000002
 31
0.0
  0
LINE
  5
4AAA
330
1E
100
AcDbEntity
  8
24
  6
DASHDOT
100
AcDbLine
 10
196.0
 20
37.30000000000001
 30
0.0
 11
196.0
 21
39.30000000000001
 31
0.0
  0
LINE
  5
4AAB
330
1E
100
AcDbEntity
  8
24
  6
DASHDOT
100
AcDbLine
 10
195.5999999999999
 20
40.4
 30
0.0
 11
195.6999999999999
 21
40.4
 31
0.0
  0
LINE
  5
4AAC
330
1E
100
AcDbEntity
  8
24
  6
DASHDOT
100
AcDbLine
 10
195.5999999999999
 20
39.60000000000002
 30
0.0
 11
195.5999999999999
 21
40.4
 31
0.0
  0
LINE
  5
4AAD
330
1E
100
AcDbEntity
  8
24
  6
DASHDOT
100
AcDbLine
 10
194.0
 20
38.70000000000001
 30
0.0
 11
194.0
 21
37.30000000000001
 31
0.0
  0
LINE
  5
4AAE
330
1E
100
AcDbEntity
  8
24
  6
DASHDOT
100
AcDbLine
 10
193.5999999999999
 20
39.0
 30
0.0
 11
193.6999999999999
 21
39.0
 31
0.0
  0
LINE
  5
4AAF
330
1E
100
AcDbEntity
  8
24
  6
DASHDOT
100
AcDbLine
 10
193.5999999999999
 20
37.0
 30
0.0
 11
193.6999999999999
 21
37.0
 31
0.0
  0
ARC
  5
4AB0
330
1E
100
AcDbEntity
  8
24
  6
DASHDOT
100
AcDbCircle
 10
193.6999999999999
 20
38.70000000000001
 30
0.0
 40
0.3
100
AcDbArc
 50
0.0
 51
90.0
  0
ARC
  5
4AB1
330
1E
100
AcDbEntity
  8
24
  6
DASHDOT
100
AcDbCircle
 10
193.6999999999999
 20
37.30000000000001
 30
0.0
 40
0.3
100
AcDbArc
 50
270.0
 51
0.0
  0
LINE
  5
4AB2
330
1E
100
AcDbEntity
  8
24
  6
DASHDOT
100
AcDbLine
 10
193.5999999999999
 20
34.0
 30
0.0
 11
196.3
 21
34.0
 31
0.0
  0
LINE
  5
4AB3
330
1E
100
AcDbEntity
  8
24
  6
DASHDOT
100
AcDbLine
 10
193.5999999999999
 20
36.80000000000001
 30
0.0
 11
194.2999999999999
 21
34.0
 31
0.0
  0
LINE
  5
4AB4
330
1E
100
AcDbEntity
  8
24
  6
DASHDOT
100
AcDbLine
 10
193.005881
 20
42.0
 30
0.0
 11
193.5999999999999
 21
42.0
 31
0.0
  0
LINE
  5
4AB5
330
1E
100
AcDbEntity
  8
24
  6
DASHDOT
100
AcDbLine
 10
192.3999999999999
 20
44.05000000000001
 30
0.0
 11
193.3
 21
44.05000000000001
 31
0.0
  0
LINE
  5
4AB7
330
1E
100
AcDbEntity
  8
24
  6
DASHDOT
100
AcDbLine
 10
192.105823
 20
44.5
 30
0.0
 11
190.840095
 21
44.5
 31
0.0
  0
ARC
  5
4AB8
330
1E
100
AcDbEntity
  8
24
  6
DASHDOT
100
AcDbCircle
 10
195.6999999999999
 20
42.70000000000002
 30
0.0
 40
0.3
100
AcDbArc
 50
0.0
 51
90.0
  0
ARC
  5
4AB9
330
1E
100
AcDbEntity
  8
24
  6
DASHDOT
100
AcDbCircle
 10
195.5
 20
43.457107
 30
0.0
 40
0.5
100
AcDbArc
 50
315.0
 51
0.0
  0
LINE
  5
4ABA
330
1E
100
AcDbEntity
  8
24
  6
DASHDOT
100
AcDbLine
 10
196.0
 20
43.457107
 30
0.0
 11
196.0
 21
44.80000000000001
 31
0.0
  0
LINE
  5
4ABB
330
1E
100
AcDbEntity
  8
24
  6
DASHDOT
100
AcDbLine
 10
196.3
 20
46.0
 30
0.0
 11
195.5999999999999
 21
43.20000000000002
 31
0.0
  0
LINE
  5
4ABC
330
1E
100
AcDbEntity
  8
24
  6
DASHDOT
100
AcDbLine
 10
195.5999999999999
 20
43.0
 30
0.0
 11
195.6999999999999
 21
43.0
 31
0.0
  0
LINE
  5
4ABD
330
1E
100
AcDbEntity
  8
24
  6
DASHDOT
100
AcDbLine
 10
195.8535539999999
 20
43.103554
 30
0.0
 11
195.746392
 21
42.99639200000001
 31
0.0
  0
LINE
  5
4ABE
330
1E
100
AcDbEntity
  8
24
  6
DASHDOT
100
AcDbLine
 10
195.5999999999999
 20
43.20000000000002
 30
0.0
 11
195.5999999999999
 21
43.0
 31
0.0
  0
LINE
  5
4ABF
330
1E
100
AcDbEntity
  8
24
  6
DASHDOT
100
AcDbLine
 10
196.0
 20
42.70000000000002
 30
0.0
 11
196.0
 21
40.70000000000002
 31
0.0
  0
LINE
  5
4AC0
330
1E
100
AcDbEntity
  8
24
  6
DASHDOT
100
AcDbLine
 10
193.5999999999999
 20
43.0
 30
0.0
 11
193.6999999999999
 21
43.0
 31
0.0
  0
LINE
  5
4AC1
330
1E
100
AcDbEntity
  8
24
  6
DASHDOT
100
AcDbLine
 10
193.5999999999999
 20
41.0
 30
0.0
 11
193.6999999999999
 21
41.0
 31
0.0
  0
SPLINE
  5
4AC2
330
1E
100
AcDbEntity
  8
24
  6
DASHDOT
100
AcDbSpline
210
0.0
220
0.0
230
1.0
 70
     8
 71
     3
 72
    55
 73
    51
 74
    49
 42
0.0000000001
 43
0.0000000001
 44
0.000001
 12
0.0034274732673631
 22
0.9999941261962501
 32
0.0
 13
-0.2169304578161108
 23
0.9761870601845185
 33
0.0
 40
0.0
 40
0.0
 40
0.0
 40
0.0
 40
0.0427086049425902
 40
0.0854177080221238
 40
0.1281352723289915
 40
0.1708528366910048
 40
0.2135895949018511
 40
0.2563263532965063
 40
0.299092961767312
 40
0.3418595701321123
 40
0.3846662484938548
 40
0.4274729470214296
 40
0.4703280074134967
 40
0.5131830885102527
 40
0.5560931903518269
 40
0.5990033122573077
 40
0.6419737794884455
 40
0.6849442657658481
 40
0.7279791425818393
 40
0.771014037681279
 40
0.8141161053717411
 40
0.8572181901295545
 40
0.9003890705753146
 40
0.9435599668248752
 40
0.986800210714655
 40
1.030040469101925
 40
1.073349544004196
 40
1.116658633328748
 40
1.160034714256728
 40
1.203410808311432
 40
1.246851066592758
 40
1.290291336657843
 40
1.333792105760731
 40
1.37729288520734
 40
1.420849610856975
 40
1.46440634647629
 40
1.5080132462681
 40
1.551620154672111
 40
1.595270672544841
 40
1.638921197651814
 40
1.682608233658629
 40
1.726295275366223
 40
1.770011200883295
 40
1.813727130701514
 40
1.857463630821855
 40
1.901200133772497
 40
1.94494855476851
 40
1.988696977123499
 40
2.032448518077308
 40
2.07620074072971
 40
2.07620074072971
 40
2.07620074072971
 40
2.07620074072971
 10
193.5972441442141
 20
42.00000044462348
 30
0.0
 10
193.5972929384147
 20
42.01423656265035
 30
0.0
 10
193.5972759132673
 20
42.04270948241874
 30
0.0
 10
193.5969131083145
 20
42.08542012263021
 30
0.0
 10
193.5962102464133
 20
42.12812954053998
 30
0.0
 10
193.5951684731592
 20
42.17084124512
 30
0.0
 10
193.5937879566535
 20
42.21354974676475
 30
0.0
 10
193.5920689071122
 20
42.25626232106656
 30
0.0
 10
193.5900119279389
 20
42.29896991562933
 30
0.0
 10
193.5876168926172
 20
42.34168323023981
 30
0.0
 10
193.5848847731032
 20
42.38438968910204
 30
0.0
 10
193.5818223639592
 20
42.42710327109628
 30
0.0
 10
193.5784383510542
 20
42.46980874402942
 30
0.0
 10
193.5747390945702
 20
42.51252264204531
 30
0.0
 10
193.570733726465
 20
42.5552273395828
 30
0.0
 10
193.566428159934
 20
42.59794145381097
 30
0.0
 10
193.561831973958
 20
42.64064550148158
 30
0.0
 10
193.5569506388396
 20
42.68335973306867
 30
0.0
 10
193.5517941676516
 20
42.72606323957776
 30
0.0
 10
193.5463677940793
 20
42.7687774851162
 30
0.0
 10
193.5406821146157
 20
42.81148057304369
 30
0.0
 10
193.534741984135
 20
42.8541947589488
 30
0.0
 10
193.528558352425
 20
42.8968975413866
 30
0.0
 10
193.5221357486696
 20
42.93961159207834
 30
0.0
 10
193.5154854174618
 20
42.98231417086969
 30
0.0
 10
193.5086116291613
 20
43.02502798890517
 30
0.0
 10
193.5015258583997
 20
43.06773040231551
 30
0.0
 10
193.4942329534304
 20
43.11044384435178
 30
0.0
 10
193.4867452846763
 20
43.1531462429586
 30
0.0
 10
193.4790676129708
 20
43.19585930100907
 30
0.0
 10
193.4712123558827
 20
43.2385618005935
 30
0.0
 10
193.4631842737841
 20
43.28127442190199
 30
0.0
 10
193.4549957416564
 20
43.32397710435994
 30
0.0
 10
193.4466516125245
 20
43.36668919880485
 30
0.0
 10
193.4381641369472
 20
43.40939205020747
 30
0.0
 10
193.4295393598965
 20
43.45210346030682
 30
0.0
 10
193.4207902952844
 20
43.49480665067079
 30
0.0
 10
193.4119232875805
 20
43.53751742622631
 30
0.0
 10
193.4029510171116
 20
43.58022106494799
 30
0.0
 10
193.3938802083015
 20
43.62293117969509
 30
0.0
 10
193.3847231254993
 20
43.66563532554536
 30
0.0
 10
193.3754869478771
 20
43.70834473312645
 30
0.0
 10
193.3661834610586
 20
43.75104938132047
 30
0.0
 10
193.3568209444025
 20
43.79375800003351
 30
0.0
 10
193.3474112057671
 20
43.8364632595181
 30
0.0
 10
193.3379631243555
 20
43.87917114190698
 30
0.0
 10
193.328487862096
 20
43.92187707073079
 30
0.0
 10
193.3189950874452
 20
43.9645842440053
 30
0.0
 10
193.3094946538344
 20
44.00729101180654
 30
0.0
 10
193.3031640979679
 20
44.0357636600876
 30
0.0
 10
193.3000003680711
 20
44.05000044462346
 30
0.0
 11
193.5972441442141
 21
42.00000044462348
 31
0.0
 11
193.5972205706335
 21
42.04270954657033
 31
0.0
 11
193.5968573334449
 21
42.08541711129018
 31
0.0
 11
193.596154649977
 21
42.12812890414247
 31
0.0
 11
193.5951130767931
 21
42.17083377795694
 31
0.0
 11
193.5937324781794
 21
42.21354824128574
 31
0.0
 11
193.5920139329256
 21
42.2562504446237
 31
0.0
 11
193.5899566153229
 21
42.29896755409098
 31
0.0
 11
193.5875624605099
 21
42.34166711129041
 31
0.0
 11
193.5848308619259
 21
42.38438656388081
 31
0.0
 11
193.5817709675394
 21
42.42708377795722
 31
0.0
 11
193.5783870619335
 21
42.46980504862157
 31
0.0
 11
193.5746907593164
 21
42.51250044462392
 31
0.0
 11
193.5706850633178
 21
42.55522318651887
 31
0.0
 11
193.566382890469
 21
42.59791711129056
 31
0.0
 11
193.5617859367822
 21
42.64064099595586
 31
0.0
 11
193.5569084156259
 21
42.68333377795727
 31
0.0
 11
193.5517507827503
 21
42.72605848411538
 31
0.0
 11
193.5463286348056
 21
42.76875044462386
 31
0.0
 11
193.5406414043068
 21
42.81147566613157
 31
0.0
 11
193.5347058295871
 21
42.85416711129042
 31
0.0
 11
193.5285203057972
 21
42.89689257173963
 31
0.0
 11
193.5221025269393
 21
42.93958377795698
 31
0.0
 11
193.5154500210503
 21
42.9823092210942
 31
0.0
 11
193.5085812538312
 21
43.02500044462362
 31
0.0
 11
193.5014932211666
 21
43.06772556961263
 31
0.0
 11
193.4942055611582
 21
43.11041711129028
 31
0.0
 11
193.4867155123093
 21
43.15314162444008
 31
0.0
 11
193.479043095523
 21
43.19583377795689
 31
0.0
 11
193.4711854291725
 21
43.23855746570191
 31
0.0
 11
193.4631625274547
 21
43.2812504446237
 31
0.0
 11
193.4549716414142
 21
43.32397311548803
 31
0.0
 11
193.4466325274821
 21
43.36666711129043
 31
0.0
 11
193.4381430076196
 21
43.40938849561564
 31
0.0
 11
193.4295231266333
 21
43.45208377795716
 31
0.0
 11
193.42077228019
 21
43.49480361694645
 31
0.0
 11
193.4119097979303
 21
43.5375004446239
 31
0.0
 11
193.4029360984361
 21
43.58021859799191
 31
0.0
 11
193.3938693748937
 21
43.62291711129057
 31
0.0
 11
193.3847112882087
 21
43.66563346306614
 31
0.0
 11
193.3754786910444
 21
43.70833377795716
 31
0.0
 11
193.3661747863807
 21
43.75104817402456
 31
0.0
 11
193.3568153666238
 21
43.7937504446237
 31
0.0
 11
193.3474057780916
 21
43.83646275220505
 31
0.0
 11
193.3379601687571
 21
43.87916711129017
 31
0.0
 11
193.3284856948574
 21
43.92187728348969
 31
0.0
 11
193.3189946512909
 21
43.96458377795681
 31
0.0
 11
193.3094960789572
 21
44.00729179325094
 31
0.0
 11
193.3000003680711
 21
44.05000044462346
 31
0.0
  0
LINE
  5
4AC3
330
1E
100
AcDbEntity
  8
24
  6
DASHDOT
100
AcDbLine
 10
194.0
 20
41.30000000000001
 30
0.0
 11
194.0
 21
42.70000000000002
 31
0.0
  0
ARC
  5
4AC4
330
1E
100
AcDbEntity
  8
24
  6
DASHDOT
100
AcDbCircle
 10
193.6999999999999
 20
42.70000000000002
 30
0.0
 40
0.3
100
AcDbArc
 50
0.0
 51
90.0
  0
ARC
  5
4AC5
330
1E
100
AcDbEntity
  8
24
  6
DASHDOT
100
AcDbCircle
 10
193.6999999999999
 20
41.30000000000001
 30
0.0
 40
0.3
100
AcDbArc
 50
270.0
 51
0.0
  0
LINE
  5
4AC6
330
1E
100
AcDbEntity
  8
24
  6
DASHDOT
100
AcDbLine
 10
193.5999999999999
 20
43.20000000000002
 30
0.0
 11
194.2999999999999
 21
46.0
 31
0.0
  0
LINE
  5
4AC7
330
1E
100
AcDbEntity
  8
24
  6
DASHDOT
100
AcDbLine
 10
193.5999999999999
 20
46.0
 30
0.0
 11
196.3
 21
46.0
 31
0.0
  0
LINE
  5
4AD1
330
1E
100
AcDbEntity
  8
24
  6
DASHDOT
100
AcDbLine
 10
206.105824
 20
38.5
 30
0.0
 11
206.105824
 21
41.5
 31
0.0
  0
LINE
  5
4AD2
330
1E
100
AcDbEntity
  8
24
  6
DASHDOT
100
AcDbLine
 10
205.105824
 20
42.5
 30
0.0
 11
205.105824
 21
37.5
 31
0.0
  0
LINE
  5
4AD4
330
1E
100
AcDbEntity
  8
24
  6
DASHDOT
100
AcDbLine
 10
205.105824
 20
37.5
 30
0.0
 11
206.105824
 21
38.5
 31
0.0
  0
LINE
  5
4AD6
330
1E
100
AcDbEntity
  8
24
  6
DASHDOT
100
AcDbLine
 10
205.105824
 20
42.5
 30
0.0
 11
206.105824
 21
41.5
 31
0.0
  0
LINE
  5
4D2A
330
1E
100
AcDbEntity
  8
10
  6
Continuous
100
AcDbLine
 10
24.98174800000001
 20
222.0
 30
0.0
 11
-25.0
 21
222.0
 31
0.0
  0
LINE
  5
4D2B
330
1E
100
AcDbEntity
  8
10
  6
Continuous
100
AcDbLine
 10
24.48174800000001
 20
162.0
 30
0.0
 11
-24.5
 21
162.0
 31
0.0
  0
LINE
  5
4D2C
330
1E
100
AcDbEntity
  8
10
  6
Continuous
100
AcDbLine
 10
23.38174800000001
 20
154.0
 30
0.0
 11
-23.99998599999997
 21
154.0
 31
0.0
  0
LINE
  5
4D2D
330
1E
100
AcDbEntity
  8
10
  6
Continuous
100
AcDbLine
 10
-2.213646499999967
 20
151.0
 30
0.0
 11
-23.53634050000001
 21
151.0
 31
0.0
  0
LINE
  5
4D2E
330
1E
100
AcDbEntity
  8
10
  6
Continuous
100
AcDbLine
 10
-2.368194999999957
 20
150.0
 30
0.0
 11
-23.38179200000002
 21
150.0
 31
0.0
  0
DIMENSION
  5
4D2F
330
1E
100
AcDbEntity
  8
30
  6
Continuous
100
AcDbDimension
  2
*D36
 10
-41.33816379239236
 20
138.0
 30
0.0
 11
-41.33816379239237
 21
180.0
 31
0.0
 70
   160
  1
<>
 71
     5
 42
84.0
  3
STANDARD
100
AcDbAlignedDimension
 13
-25.0
 23
222.0
 33
0.0
 14
-18.55000349999998
 24
138.0
 34
0.0
 50
90.0
100
AcDbRotatedDimension
  0
LINE
  5
4D30
330
1E
100
AcDbEntity
  8
10
  6
Continuous
100
AcDbLine
 10
-25.0
 20
222.0
 30
0.0
 11
-25.0
 21
162.5
 31
0.0
  0
DIMENSION
  5
4D31
330
1E
100
AcDbEntity
  8
30
  6
Continuous
100
AcDbDimension
  2
*D37
 10
-33.15936079239234
 20
162.0000589999999
 30
0.0
 11
-33.15936079239237
 21
192.00003
 31
0.0
 70
   160
  1
<>
 71
     5
 42
59.99994100000003
  3
STANDARD
100
AcDbAlignedDimension
 13
-30.00005400000009
 23
221.9999999999999
 33
0.0
 14
-23.89997100000005
 24
162.0000589999999
 34
0.0
 50
90.0
100
AcDbRotatedDimension
  0
DIMENSION
  5
4D32
330
1E
100
AcDbEntity
  8
30
  6
Continuous
100
AcDbDimension
  2
*D38
 10
-33.15936079239234
 20
154.0
 30
0.0
 11
-33.15936079239237
 21
158.0
 31
0.0
 70
   160
  1
<>
 71
     5
 42
7.999999999999943
  3
STANDARD
100
AcDbAlignedDimension
 13
-24.50000000000001
 23
161.9999999999999
 33
0.0
 14
-24.88180899999998
 24
154.0
 34
0.0
 50
90.0
100
AcDbRotatedDimension
  0
DIMENSION
  5
4D33
330
1E
100
AcDbEntity
  8
30
  6
Continuous
100
AcDbDimension
  2
*D39
 10
-33.15936079239249
 20
150.0
 30
0.0
 11
-35.49269412572585
 21
140.8453278466667
 31
0.0
 70
   160
  1
<>
 71
     5
 42
4.0
  3
STANDARD
100
AcDbAlignedDimension
 13
-24.88180899999998
 23
154.0
 33
0.0
 14
-23.88180899999998
 24
150.0
 34
0.0
 50
90.0
100
AcDbRotatedDimension
  0
ARC
  5
4D34
330
1E
100
AcDbEntity
  8
10
  6
Continuous
100
AcDbCircle
 10
-24.5
 20
162.4999999999998
 30
0.0
 40
0.5
100
AcDbArc
 50
180.0
 51
270.0
  0
LINE
  5
4D37
330
1E
100
AcDbEntity
  8
10
  6
Continuous
100
AcDbLine
 10
-23.99998599999997
 20
154.0
 30
0.0
 11
-23.99998599999997
 21
162.0
 31
0.0
  0
LINE
  5
4D38
330
1E
100
AcDbEntity
  8
10
  6
Continuous
100
AcDbLine
 10
-23.99998599999997
 20
154.0
 30
0.0
 11
-23.38179200000002
 21
150.0
 31
0.0
  0
DIMENSION
  5
4D46
330
1E
100
AcDbEntity
  8
30
  6
Continuous
100
AcDbDimension
  2
*D40
 10
33.29954771902376
 20
198.0
 30
0.0
 11
30.29954771902373
 21
210.0
 31
0.0
 70
    32
 71
     5
 42
24.00000000000003
  3
STANDARD
100
AcDbAlignedDimension
 13
24.981748
 23
222.0
 33
0.0
 14
17.3818505
 24
198.0
 34
0.0
 50
90.0
100
AcDbRotatedDimension
  0
LINE
  5
4D47
330
1E
100
AcDbEntity
  8
10
  6
Continuous
100
AcDbLine
 10
24.98174800000001
 20
222.0
 30
0.0
 11
24.98174800000001
 21
162.5
 31
0.0
  0
LINE
  5
4D48
330
1E
100
AcDbEntity
  8
17
  6
DASHDOT
100
AcDbLine
 10
-17.5
 20
157.0
 30
0.0
 11
-17.5
 21
198.0
 31
0.0
  0
LINE
  5
4D49
330
1E
100
AcDbEntity
  8
17
  6
DASHDOT
100
AcDbLine
 10
-7.5
 20
157.0
 30
0.0
 11
-7.5
 21
198.0
 31
0.0
  0
LINE
  5
4D4A
330
1E
100
AcDbEntity
  8
10
  6
Continuous
100
AcDbLine
 10
-18.55000349999997
 20
138.0
 30
0.0
 11
-6.449996499999912
 21
138.0
 31
0.0
  0
LINE
  5
4D4B
330
1E
100
AcDbEntity
  8
10
  6
Continuous
100
AcDbLine
 10
-18.55000349999997
 20
138.0
 30
0.0
 11
-18.55000349999997
 21
150.0
 31
0.0
  0
LINE
  5
4D4C
330
1E
100
AcDbEntity
  8
10
  6
Continuous
100
AcDbLine
 10
-6.449996499999912
 20
138.0
 30
0.0
 11
-6.449996499999912
 21
150.0
 31
0.0
  0
ARC
  5
4D4D
330
1E
100
AcDbEntity
  8
24
  6
DASHDOT
100
AcDbCircle
 10
-9.601808000000005
 20
192.2799999999999
 30
0.0
 40
1.6
100
AcDbArc
 50
285.5199999999999
 51
354.8399999999998
  0
LINE
  5
4D4E
330
1E
100
AcDbEntity
  8
24
  6
DASHDOT
100
AcDbLine
 10
-17.5
 20
196.0
 30
0.0
 11
-7.5
 21
196.0
 31
0.0
  0
LINE
  5
4D4F
330
1E
100
AcDbEntity
  8
24
  6
DASHDOT
100
AcDbLine
 10
-17.0
 20
194.5999999999999
 30
0.0
 11
-8.0
 21
194.5999999999999
 31
0.0
  0
LINE
  5
4D50
330
1E
100
AcDbEntity
  8
24
  6
DASHDOT
100
AcDbLine
 10
-17.5
 20
198.0
 30
0.0
 11
-7.5
 21
198.0
 31
0.0
  0
LINE
  5
4D51
330
1E
100
AcDbEntity
  8
24
  6
DASHDOT
100
AcDbLine
 10
-17.38180799999997
 20
193.5999999999999
 30
0.0
 11
-7.381807999999978
 21
193.5999999999999
 31
0.0
  0
LINE
  5
4D52
330
1E
100
AcDbEntity
  8
24
  6
DASHDOT
100
AcDbLine
 10
-17.0
 20
196.0
 30
0.0
 11
-17.0
 21
194.5999999999999
 31
0.0
  0
ARC
  5
4D53
330
1E
100
AcDbEntity
  8
24
  6
DASHDOT
100
AcDbCircle
 10
-15.16180799999995
 20
192.2799999999999
 30
0.0
 40
1.6
100
AcDbArc
 50
185.25
 51
254.58
  0
LINE
  5
4D54
330
1E
100
AcDbEntity
  8
24
  6
DASHDOT
100
AcDbLine
 10
-16.88180799999997
 20
193.5999999999999
 30
0.0
 11
-16.75180799999998
 21
192.1399999999998
 31
0.0
  0
LINE
  5
4D55
330
1E
100
AcDbEntity
  8
24
  6
DASHDOT
100
AcDbLine
 10
-17.38180799999997
 20
193.5999999999999
 30
0.0
 11
-17.38180799999997
 21
194.5999999999999
 31
0.0
  0
ARC
  5
4D56
330
1E
100
AcDbEntity
  8
24
  6
DASHDOT
100
AcDbCircle
 10
-12.38180799999997
 20
202.2999999999999
 30
0.0
 40
12.0
100
AcDbArc
 50
254.58
 51
285.5199999999999
  0
LINE
  5
4D57
330
1E
100
AcDbEntity
  8
24
  6
DASHDOT
100
AcDbLine
 10
-7.381807999999978
 20
193.5999999999999
 30
0.0
 11
-7.381807999999978
 21
194.5999999999999
 31
0.0
  0
LINE
  5
4D58
330
1E
100
AcDbEntity
  8
24
  6
DASHDOT
100
AcDbLine
 10
-7.881807999999978
 20
193.5999999999999
 30
0.0
 11
-8.011807999999973
 21
192.1399999999998
 31
0.0
  0
LINE
  5
4D59
330
1E
100
AcDbEntity
  8
24
  6
DASHDOT
100
AcDbLine
 10
-8.0
 20
194.5999999999999
 30
0.0
 11
-8.0
 21
196.0
 31
0.0
  0
LINE
  5
4D5A
330
1E
100
AcDbEntity
  8
17
  6
DASHDOT
100
AcDbLine
 10
17.5
 20
157.0
 30
0.0
 11
17.5
 21
198.0
 31
0.0
  0
LINE
  5
4D5B
330
1E
100
AcDbEntity
  8
17
  6
DASHDOT
100
AcDbLine
 10
7.5
 20
157.0
 30
0.0
 11
7.5
 21
198.0
 31
0.0
  0
LINE
  5
4D5C
330
1E
100
AcDbEntity
  8
10
  6
Continuous
100
AcDbLine
 10
23.49993900000001
 20
162.0
 30
0.0
 11
23.49993900000001
 21
154.0
 31
0.0
  0
ARC
  5
4D5E
330
1E
100
AcDbEntity
  8
10
  6
Continuous
100
AcDbCircle
 10
24.48174800000001
 20
162.5
 30
0.0
 40
0.5
100
AcDbArc
 50
270.0
 51
0.0
  0
LINE
  5
4D5F
330
1E
100
AcDbEntity
  8
24
  6
DASHDOT
100
AcDbLine
 10
7.618192000000021
 20
193.5999999999999
 30
0.0
 11
17.61819200000002
 21
193.5999999999999
 31
0.0
  0
ARC
  5
4D60
330
1E
100
AcDbEntity
  8
24
  6
DASHDOT
100
AcDbCircle
 10
12.61819200000002
 20
202.2999999999999
 30
0.0
 40
12.0
100
AcDbArc
 50
254.58
 51
285.5199999999999
  0
LINE
  5
4D61
330
1E
100
AcDbEntity
  8
24
  6
DASHDOT
100
AcDbLine
 10
7.5
 20
198.0
 30
0.0
 11
17.5
 21
198.0
 31
0.0
  0
LINE
  5
4D62
330
1E
100
AcDbEntity
  8
24
  6
DASHDOT
100
AcDbLine
 10
8.0
 20
194.5999999999999
 30
0.0
 11
17.0
 21
194.5999999999999
 31
0.0
  0
LINE
  5
4D63
330
1E
100
AcDbEntity
  8
24
  6
DASHDOT
100
AcDbLine
 10
7.5
 20
196.0
 30
0.0
 11
17.5
 21
196.0
 31
0.0
  0
LINE
  5
4D64
330
1E
100
AcDbEntity
  8
24
  6
DASHDOT
100
AcDbLine
 10
7.618192000000021
 20
193.5999999999999
 30
0.0
 11
7.618192000000021
 21
194.5999999999999
 31
0.0
  0
LINE
  5
4D65
330
1E
100
AcDbEntity
  8
24
  6
DASHDOT
100
AcDbLine
 10
8.118192000000021
 20
193.5999999999999
 30
0.0
 11
8.248192000000017
 21
192.1399999999998
 31
0.0
  0
ARC
  5
4D66
330
1E
100
AcDbEntity
  8
24
  6
DASHDOT
100
AcDbCircle
 10
9.838192000000049
 20
192.2799999999999
 30
0.0
 40
1.6
100
AcDbArc
 50
185.25
 51
254.58
  0
LINE
  5
4D67
330
1E
100
AcDbEntity
  8
24
  6
DASHDOT
100
AcDbLine
 10
8.0
 20
196.0
 30
0.0
 11
8.0
 21
194.5999999999999
 31
0.0
  0
LINE
  5
4D68
330
1E
100
AcDbEntity
  8
24
  6
DASHDOT
100
AcDbLine
 10
17.0
 20
194.5999999999999
 30
0.0
 11
17.0
 21
196.0
 31
0.0
  0
LINE
  5
4D69
330
1E
100
AcDbEntity
  8
24
  6
DASHDOT
100
AcDbLine
 10
17.11819200000002
 20
193.5999999999999
 30
0.0
 11
16.98819200000002
 21
192.1399999999998
 31
0.0
  0
ARC
  5
4D6A
330
1E
100
AcDbEntity
  8
24
  6
DASHDOT
100
AcDbCircle
 10
15.39819199999999
 20
192.2799999999999
 30
0.0
 40
1.6
100
AcDbArc
 50
285.5199999999999
 51
354.8399999999998
  0
LINE
  5
4D6B
330
1E
100
AcDbEntity
  8
24
  6
DASHDOT
100
AcDbLine
 10
17.61819200000002
 20
193.5999999999999
 30
0.0
 11
17.61819200000002
 21
194.5999999999999
 31
0.0
  0
LINE
  5
4D6C
330
1E
100
AcDbEntity
  8
16
100
AcDbLine
 10
0.0
 20
119.9708194754172
 30
0.0
 11
0.0
 21
220.159372
 31
0.0
  0
ARC
  5
4F2A
330
1E
100
AcDbEntity
  8
11
  6
Continuous
100
AcDbCircle
 10
183.0000019999999
 20
-274.0
 30
0.0
 40
2.0
100
AcDbArc
 50
270.0
 51
0.0
  0
ARC
  5
4F2B
330
1E
100
AcDbEntity
  8
11
  6
Continuous
100
AcDbCircle
 10
137.0
 20
-274.0000000000001
 30
0.0
 40
2.0
100
AcDbArc
 50
180.0
 51
270.0
  0
ARC
  5
4F2C
330
1E
100
AcDbEntity
  8
11
  6
Continuous
100
AcDbCircle
 10
183.0000019999999
 20
-225.999998
 30
0.0
 40
2.0
100
AcDbArc
 50
0.0
 51
90.0
  0
ARC
  5
4F2D
330
1E
100
AcDbEntity
  8
11
  6
Continuous
100
AcDbCircle
 10
137.0
 20
-225.9999979999999
 30
0.0
 40
2.0
100
AcDbArc
 50
89.99999999999992
 51
180.0
  0
LINE
  5
4F6F
330
1E
100
AcDbEntity
  8
10
  6
Continuous
100
AcDbLine
 10
-1.750000999999997
 20
154.0
 30
0.0
 11
-2.368194999999957
 21
150.0
 31
0.0
  0
VIEWPORT
  5
9AC
330
1A
100
AcDbEntity
 67
     1
  8
0
  6
Continuous
100
AcDbViewport
 10
171.999535
 20
144.1384739999999
 30
0.0
 40
488.867686
 41
292.351491
 68
    -1
 69
     1
 12
171.999535
 22
144.1384739999999
 13
0.0
 23
0.0
 14
10.0
 24
10.0
 15
10.0
 25
10.0
 16
0.0
 26
0.0
 36
1.0
 17
0.0
 27
0.0
 37
0.0
 42
50.0
 43
0.0
 44
0.0
 45
292.351491
 50
0.0
 51
0.0
 72
   100
 90
    32800
  1

281
     0
 71
     1
 74
     0
110
0.0
120
0.0
130
0.0
111
1.0
121
0.0
131
0.0
112
0.0
122
1.0
132
0.0
 79
     0
146
0.0
  0
ENDSEC
  0
SECTION
  2
OBJECTS
  0
DICTIONARY
  5
C
330
0
100
AcDbDictionary
281
     1
  3
ACAD_GROUP
350
D
  3
ACAD_LAYOUT
350
19
  3
ACAD_MLINESTYLE
350
16
  3
ACAD_PLOTSETTINGS
350
18
  3
ACAD_PLOTSTYLENAME
350
E
  3
ACADDIM
350
3625
  3
ACDBHEADERROUNDTRIPXREC
350
4F72
  3
ACDBVARIABLEDICTIONARY
350
3682
  0
DICTIONARY
  5
178
330
1E
100
AcDbDictionary
280
     1
281
     1
  3
ACAD_LAYOUTSELFREF
360
3A0D
  0
DICTIONARY
  5
17A
330
1A
100
AcDbDictionary
280
     1
281
     1
  3
ACAD_LAYOUTSELFREF
360
3A0C
  0
DICTIONARY
  5
D
102
{ACAD_REACTORS
330
C
102
}
330
C
100
AcDbDictionary
281
     1
  0
DICTIONARY
  5
19
102
{ACAD_REACTORS
330
C
102
}
330
C
100
AcDbDictionary
281
     1
  3
MODEL
350
21
  3
ﾚｲｱｳﾄ1
350
1D
  0
DICTIONARY
  5
16
102
{ACAD_REACTORS
330
C
102
}
330
C
100
AcDbDictionary
281
     1
  3
STANDARD
350
17
  0
DICTIONARY
  5
18
102
{ACAD_REACTORS
330
C
102
}
330
C
100
AcDbDictionary
281
     1
  0
ACDBDICTIONARYWDFLT
  5
E
102
{ACAD_REACTORS
330
C
102
}
330
C
100
AcDbDictionary
281
     1
  3
Normal
350
F
100
AcDbDictionaryWithDefault
340
F
  0
XRECORD
  5
3625
102
{ACAD_REACTORS
330
C
102
}
330
C
100
AcDbXrecord
280
     1
 90
   990106
  3

 60
     0
 61
     0
 62
     1
 63
     3
 64
     0
 65
     0
 66
     0
 67
     3
 68
     1
 69
     0
 70
     0
 71
     0
 72
     0
 40
0.0
170
     0
340
0
  0
DICTIONARY
  5
4F72
102
{ACAD_REACTORS
330
C
102
}
330
C
100
AcDbDictionary
281
     1
  3
CEPSNTYPE
350
4F7C
  3
DIMSTYLEDATA
350
4F80
  3
FINGERPRINTGUID
350
4F7D
  3
HYPERLINKBASE
350
4F75
  3
INSUNITS
350
4F7B
  3
LAYOUTDICT
350
4F77
  3
LWETCUNION
350
4F7A
  3
PLOTSETDICT
350
4F78
  3
PLOTSTYLNAMDICT
350
4F79
  3
PSVPSCALE
350
4F7F
  3
PUCSBASE
350
4F83
  3
PUCSORGBACK
350
4F89
  3
PUCSORGBOTTOM
350
4F85
  3
PUCSORGFRONT
350
4F88
  3
PUCSORGLEFT
350
4F86
  3
PUCSORGRIGHT
350
4F87
  3
PUCSORGTOP
350
4F84
  3
PUCSORTHOREF
350
4F81
  3
PUCSORTHOVIEW
350
4F82
  3
STYLESHEET
350
4F76
  3
TSTACKALIGN
350
4F73
  3
TSTACKSIZE
350
4F74
  3
UCSBASE
350
4F8C
  3
UCSORGBACK
350
4F92
  3
UCSORGBOTTOM
350
4F8E
  3
UCSORGFRONT
350
4F91
  3
UCSORGLEFT
350
4F8F
  3
UCSORGRIGHT
350
4F90
  3
UCSORGTOP
350
4F8D
  3
UCSORTHOREF
350
4F8A
  3
UCSORTHOVIEW
350
4F8B
  3
VERSIONGUID
350
4F7E
  0
DICTIONARY
  5
3682
102
{ACAD_REACTORS
330
C
102
}
330
C
100
AcDbDictionary
281
     1
  3
DIMASSOC
350
3A2F
  3
SORTENTS
350
3683
  0
XRECORD
  5
3A0D
102
{ACAD_REACTORS
330
178
102
}
330
178
100
AcDbXrecord
280
     1
340
1E
  0
XRECORD
  5
3A0C
102
{ACAD_REACTORS
330
17A
102
}
330
17A
100
AcDbXrecord
280
     1
340
1A
  0
LAYOUT
  5
21
102
{ACAD_REACTORS
330
19
102
}
330
19
100
AcDbPlotSettings
  1

  2
EPSON LP-8300
  4
A4
  6
OLE1
 40
5.873749732971191
 41
5.873747825622557
 42
5.873748779296875
 43
5.873748779296875
 44
297.0106506347656
 45
209.9733276367186
 46
0.0
 47
16.33
 48
0.0
 49
0.0
140
0.0
141
0.0
142
1.0
143
1.930607247305228
 70
 11956
 72
     1
 73
     1
 74
     1
  7
KIKI.ctb
 75
     0
147
0.5179717425156334
148
75.15363025873194
149
330.5348526764191
100
AcDbLayout
  1
Model
 70
     1
 71
     0
 10
0.0
 20
0.0
 11
12.0
 21
9.0
 12
0.0
 22
0.0
 32
0.0
 14
0.0
 24
0.0
 34
0.0
 15
0.0
 25
0.0
 35
0.0
146
0.0
 13
0.0
 23
0.0
 33
0.0
 16
1.0
 26
0.0
 36
0.0
 17
0.0
 27
1.0
 37
0.0
 76
     0
330
1E
  0
LAYOUT
  5
1D
102
{ACAD_REACTORS
330
19
102
}
330
19
100
AcDbPlotSettings
  1

  2
EPSON LP-8300
  4
A4
  6

 40
5.873749732971191
 41
5.873747825622557
 42
5.873748779296875
 43
5.873748779296875
 44
297.0106506347656
 45
209.9733276367186
 46
0.0
 47
0.0
 48
0.0
 49
0.0
140
0.0
141
0.0
142
1.0
143
1.0
 70
   672
 72
     1
 73
     1
 74
     5
  7
MCCB.ctb
 75
     0
147
1.0
148
0.0
149
0.0
100
AcDbLayout
  1
ﾚｲｱｳﾄ1
 70
     1
 71
     1
 10
-5.873749
 20
-5.87375
 11
204.099579
 21
291.1369009999999
 12
0.0
 22
0.0
 32
0.0
 14
4.273573
 24
5.205245999999998
 34
0.0
 15
194.610095
 25
283.0697009999998
 35
0.0
146
0.0
 13
0.0
 23
0.0
 33
0.0
 16
1.0
 26
0.0
 36
0.0
 17
0.0
 27
1.0
 37
0.0
 76
     0
330
1A
331
9AC
  0
MLINESTYLE
  5
17
102
{ACAD_REACTORS
330
16
102
}
330
16
100
AcDbMlineStyle
  2
STANDARD
 70
     0
  3

 62
   256
 51
90.0
 52
90.0
 71
     2
 49
0.5
 62
   256
  6
BYLAYER
 49
-0.5
 62
   256
  6
BYLAYER
  0
ACDBPLACEHOLDER
  5
F
102
{ACAD_REACTORS
330
E
102
}
330
E
  0
XRECORD
  5
4F7C
102
{ACAD_REACTORS
330
4F72
102
}
330
4F72
100
AcDbXrecord
280
     1
 90
        0
  0
XRECORD
  5
4F80
102
{ACAD_REACTORS
330
4F72
102
}
330
4F72
100
AcDbXrecord
280
     1
1000
DSTYLE
1002
{
1070
    79
 70
     3
1070
   341
340
3B2
1070
   342
340
3B2
1002
}
  0
XRECORD
  5
4F7D
102
{ACAD_REACTORS
330
4F72
102
}
330
4F72
100
AcDbXrecord
280
     1
  1

  0
XRECORD
  5
4F75
102
{ACAD_REACTORS
330
4F72
102
}
330
4F72
100
AcDbXrecord
280
     1
  1

  0
XRECORD
  5
4F7B
102
{ACAD_REACTORS
330
4F72
102
}
330
4F72
100
AcDbXrecord
280
     1
 90
        0
  0
XRECORD
  5
4F77
102
{ACAD_REACTORS
330
4F72
102
}
330
4F72
100
AcDbXrecord
280
     1
340
19
  0
XRECORD
  5
4F7A
102
{ACAD_REACTORS
330
4F72
102
}
330
4F72
100
AcDbXrecord
280
     1
 90
    10781
  0
XRECORD
  5
4F78
102
{ACAD_REACTORS
330
4F72
102
}
330
4F72
100
AcDbXrecord
280
     1
340
18
  0
XRECORD
  5
4F79
102
{ACAD_REACTORS
330
4F72
102
}
330
4F72
100
AcDbXrecord
280
     1
340
E
  0
XRECORD
  5
4F7F
102
{ACAD_REACTORS
330
4F72
102
}
330
4F72
100
AcDbXrecord
280
     1
 40
0.0
  0
XRECORD
  5
4F83
102
{ACAD_REACTORS
330
4F72
102
}
330
4F72
100
AcDbXrecord
280
     1
340
0
  0
XRECORD
  5
4F89
102
{ACAD_REACTORS
330
4F72
102
}
330
4F72
100
AcDbXrecord
280
     1
 10
0.0
 20
0.0
 30
0.0
  0
XRECORD
  5
4F85
102
{ACAD_REACTORS
330
4F72
102
}
330
4F72
100
AcDbXrecord
280
     1
 10
0.0
 20
0.0
 30
0.0
  0
XRECORD
  5
4F88
102
{ACAD_REACTORS
330
4F72
102
}
330
4F72
100
AcDbXrecord
280
     1
 10
0.0
 20
0.0
 30
0.0
  0
XRECORD
  5
4F86
102
{ACAD_REACTORS
330
4F72
102
}
330
4F72
100
AcDbXrecord
280
     1
 10
0.0
 20
0.0
 30
0.0
  0
XRECORD
  5
4F87
102
{ACAD_REACTORS
330
4F72
102
}
330
4F72
100
AcDbXrecord
280
     1
 10
0.0
 20
0.0
 30
0.0
  0
XRECORD
  5
4F84
102
{ACAD_REACTORS
330
4F72
102
}
330
4F72
100
AcDbXrecord
280
     1
 10
0.0
 20
0.0
 30
0.0
  0
XRECORD
  5
4F81
102
{ACAD_REACTORS
330
4F72
102
}
330
4F72
100
AcDbXrecord
280
     1
340
0
  0
XRECORD
  5
4F82
102
{ACAD_REACTORS
330
4F72
102
}
330
4F72
100
AcDbXrecord
280
     1
 70
     0
  0
XRECORD
  5
4F76
102
{ACAD_REACTORS
330
4F72
102
}
330
4F72
100
AcDbXrecord
280
     1
  1
KIKI.CTB
  0
XRECORD
  5
4F73
102
{ACAD_REACTORS
330
4F72
102
}
330
4F72
100
AcDbXrecord
280
     1
 90
        1
  0
XRECORD
  5
4F74
102
{ACAD_REACTORS
330
4F72
102
}
330
4F72
100
AcDbXrecord
280
     1
 90
       70
  0
XRECORD
  5
4F8C
102
{ACAD_REACTORS
330
4F72
102
}
330
4F72
100
AcDbXrecord
280
     1
340
0
  0
XRECORD
  5
4F92
102
{ACAD_REACTORS
330
4F72
102
}
330
4F72
100
AcDbXrecord
280
     1
 10
0.0
 20
0.0
 30
0.0
  0
XRECORD
  5
4F8E
102
{ACAD_REACTORS
330
4F72
102
}
330
4F72
100
AcDbXrecord
280
     1
 10
0.0
 20
0.0
 30
0.0
  0
XRECORD
  5
4F91
102
{ACAD_REACTORS
330
4F72
102
}
330
4F72
100
AcDbXrecord
280
     1
 10
0.0
 20
0.0
 30
0.0
  0
XRECORD
  5
4F8F
102
{ACAD_REACTORS
330
4F72
102
}
330
4F72
100
AcDbXrecord
280
     1
 10
0.0
 20
0.0
 30
0.0
  0
XRECORD
  5
4F90
102
{ACAD_REACTORS
330
4F72
102
}
330
4F72
100
AcDbXrecord
280
     1
 10
0.0
 20
0.0
 30
0.0
  0
XRECORD
  5
4F8D
102
{ACAD_REACTORS
330
4F72
102
}
330
4F72
100
AcDbXrecord
280
     1
 10
0.0
 20
0.0
 30
0.0
  0
XRECORD
  5
4F8A
102
{ACAD_REACTORS
330
4F72
102
}
330
4F72
100
AcDbXrecord
280
     1
340
0
  0
XRECORD
  5
4F8B
102
{ACAD_REACTORS
330
4F72
102
}
330
4F72
100
AcDbXrecord
280
     1
 70
     0
  0
XRECORD
  5
4F7E
102
{ACAD_REACTORS
330
4F72
102
}
330
4F72
100
AcDbXrecord
280
     1
  1
{4626E93B-9F38-4B9A-A6B0-558E52BF000F}
  0
DICTIONARYVAR
  5
3A2F
102
{ACAD_REACTORS
330
3682
102
}
330
3682
100
DictionaryVariables
280
     0
  1
1
  0
DICTIONARYVAR
  5
3683
102
{ACAD_REACTORS
330
3682
102
}
330
3682
100
DictionaryVariables
280
     0
  1
96
  0
ENDSEC
  0
EOF
