  0
SECTION
  2
HEADER
  9
$ACADVER
  1
AC1015
  9
$ACADMAINTVER
 70
    10
  9
$DWGCODEPAGE
  3
ANSI_932
  9
$INSBASE
 10
0.0
 20
0.0
 30
0.0
  9
$EXTMIN
 10
-62.34020037769403
 20
-328.2097927463073
 30
-0.0000000000000053
  9
$EXTMAX
 10
228.5082720243558
 20
226.0671605604866
 30
0.0000000000000099
  9
$LIMMIN
 10
-73.36291800000002
 20
-328.1505989999998
  9
$LIMMAX
 10
266.103609
 20
223.0601529999999
  9
$ORTHOMODE
 70
     1
  9
$REGENMODE
 70
     1
  9
$FILLMODE
 70
     1
  9
$QTEXTMODE
 70
     0
  9
$MIRRTEXT
 70
     1
  9
$LTSCALE
 40
10.0
  9
$ATTMODE
 70
     1
  9
$TEXTSIZE
 40
4.0
  9
$TRACEWID
 40
0.05
  9
$TEXTSTYLE
  7
STANDARD1
  9
$CLAYER
  8
0
  9
$CELTYPE
  6
CONTINUOUS
  9
$CECOLOR
 62
   256
  9
$CELTSCALE
 40
1.0
  9
$DISPSILH
 70
     0
  9
$DIMSCALE
 40
1.0
  9
$DIMASZ
 40
2.0
  9
$DIMEXO
 40
1.0
  9
$DIMDLI
 40
0.5
  9
$DIMRND
 40
0.0
  9
$DIMDLE
 40
0.0
  9
$DIMEXE
 40
0.5
  9
$DIMTP
 40
0.0
  9
$DIMTM
 40
0.0
  9
$DIMTXT
 40
4.0
  9
$DIMCEN
 40
0.09
  9
$DIMTSZ
 40
0.0
  9
$DIMTOL
 70
     0
  9
$DIMLIM
 70
     0
  9
$DIMTIH
 70
     0
  9
$DIMTOH
 70
     1
  9
$DIMSE1
 70
     0
  9
$DIMSE2
 70
     0
  9
$DIMTAD
 70
     3
  9
$DIMZIN
 70
    12
  9
$DIMBLK
  1
OPEN
  9
$DIMASO
 70
     1
  9
$DIMSHO
 70
     1
  9
$DIMPOST
  1

  9
$DIMAPOST
  1

  9
$DIMALT
 70
     0
  9
$DIMALTD
 70
     2
  9
$DIMALTF
 40
25.4
  9
$DIMLFAC
 40
1.0
  9
$DIMTOFL
 70
     0
  9
$DIMTVP
 40
0.0
  9
$DIMTIX
 70
     0
  9
$DIMSOXD
 70
     0
  9
$DIMSAH
 70
     0
  9
$DIMBLK1
  1

  9
$DIMBLK2
  1

  9
$DIMSTYLE
  2
STANDARD
  9
$DIMCLRD
 70
     0
  9
$DIMCLRE
 70
     0
  9
$DIMCLRT
 70
     0
  9
$DIMTFAC
 40
1.0
  9
$DIMGAP
 40
1.0
  9
$DIMJUST
 70
     0
  9
$DIMSD1
 70
     0
  9
$DIMSD2
 70
     0
  9
$DIMTOLJ
 70
     1
  9
$DIMTZIN
 70
     0
  9
$DIMALTZ
 70
     0
  9
$DIMALTTZ
 70
     0
  9
$DIMUPT
 70
     0
  9
$DIMDEC
 70
     1
  9
$DIMTDEC
 70
     1
  9
$DIMALTU
 70
     2
  9
$DIMALTTD
 70
     2
  9
$DIMTXSTY
  7
STANDARD
  9
$DIMAUNIT
 70
     0
  9
$DIMADEC
 70
     0
  9
$DIMALTRND
 40
0.0
  9
$DIMAZIN
 70
     3
  9
$DIMDSEP
 70
    46
  9
$DIMATFIT
 70
     3
  9
$DIMFRAC
 70
     0
  9
$DIMLDRBLK
  1
OPEN
  9
$DIMLUNIT
 70
     2
  9
$DIMLWD
 70
    -2
  9
$DIMLWE
 70
    -2
  9
$DIMTMOVE
 70
     0
  9
$LUNITS
 70
     2
  9
$LUPREC
 70
     4
  9
$SKETCHINC
 40
0.1
  9
$FILLETRAD
 40
0.0
  9
$AUNITS
 70
     0
  9
$AUPREC
 70
     0
  9
$MENU
  1
.
  9
$ELEVATION
 40
0.0
  9
$PELEVATION
 40
0.0
  9
$THICKNESS
 40
0.0
  9
$LIMCHECK
 70
     0
  9
$CHAMFERA
 40
0.0
  9
$CHAMFERB
 40
0.0
  9
$CHAMFERC
 40
0.0
  9
$CHAMFERD
 40
0.0
  9
$SKPOLY
 70
     0
  9
$TDCREATE
 40
2452286.555658657
  9
$TDUCREATE
 40
2452286.180658657
  9
$TDUPDATE
 40
2454854.562792060
  9
$TDUUPDATE
 40
2454854.187792060
  9
$TDINDWG
 40
1.5787734722
  9
$TDUSRTIMER
 40
1.5787720255
  9
$USRTIMER
 70
     1
  9
$ANGBASE
 50
0.0
  9
$ANGDIR
 70
     0
  9
$PDMODE
 70
     0
  9
$PDSIZE
 40
0.0
  9
$PLINEWID
 40
0.0
  9
$SPLFRAME
 70
     0
  9
$SPLINETYPE
 70
     6
  9
$SPLINESEGS
 70
     8
  9
$HANDSEED
  5
7982
  9
$SURFTAB1
 70
     6
  9
$SURFTAB2
 70
     6
  9
$SURFTYPE
 70
     6
  9
$SURFU
 70
     6
  9
$SURFV
 70
     6
  9
$UCSBASE
  2

  9
$UCSNAME
  2

  9
$UCSORG
 10
0.0
 20
0.0
 30
0.0
  9
$UCSXDIR
 10
1.0
 20
0.0
 30
0.0
  9
$UCSYDIR
 10
0.0
 20
1.0
 30
0.0
  9
$UCSORTHOREF
  2

  9
$UCSORTHOVIEW
 70
     0
  9
$UCSORGTOP
 10
0.0
 20
0.0
 30
0.0
  9
$UCSORGBOTTOM
 10
0.0
 20
0.0
 30
0.0
  9
$UCSORGLEFT
 10
0.0
 20
0.0
 30
0.0
  9
$UCSORGRIGHT
 10
0.0
 20
0.0
 30
0.0
  9
$UCSORGFRONT
 10
0.0
 20
0.0
 30
0.0
  9
$UCSORGBACK
 10
0.0
 20
0.0
 30
0.0
  9
$PUCSBASE
  2

  9
$PUCSNAME
  2

  9
$PUCSORG
 10
0.0
 20
0.0
 30
0.0
  9
$PUCSXDIR
 10
1.0
 20
0.0
 30
0.0
  9
$PUCSYDIR
 10
0.0
 20
1.0
 30
0.0
  9
$PUCSORTHOREF
  2

  9
$PUCSORTHOVIEW
 70
     0
  9
$PUCSORGTOP
 10
0.0
 20
0.0
 30
0.0
  9
$PUCSORGBOTTOM
 10
0.0
 20
0.0
 30
0.0
  9
$PUCSORGLEFT
 10
0.0
 20
0.0
 30
0.0
  9
$PUCSORGRIGHT
 10
0.0
 20
0.0
 30
0.0
  9
$PUCSORGFRONT
 10
0.0
 20
0.0
 30
0.0
  9
$PUCSORGBACK
 10
0.0
 20
0.0
 30
0.0
  9
$USERI1
 70
     0
  9
$USERI2
 70
     0
  9
$USERI3
 70
     0
  9
$USERI4
 70
     0
  9
$USERI5
 70
     0
  9
$USERR1
 40
0.0
  9
$USERR2
 40
0.0
  9
$USERR3
 40
0.0
  9
$USERR4
 40
0.0
  9
$USERR5
 40
0.0
  9
$WORLDVIEW
 70
     1
  9
$SHADEDGE
 70
     3
  9
$SHADEDIF
 70
    70
  9
$TILEMODE
 70
     1
  9
$MAXACTVP
 70
    48
  9
$PINSBASE
 10
0.0
 20
0.0
 30
0.0
  9
$PLIMCHECK
 70
     0
  9
$PEXTMIN
 10
4.273573
 20
5.205245999999998
 30
0.0
  9
$PEXTMAX
 10
194.610095
 20
283.0697009999998
 30
0.0
  9
$PLIMMIN
 10
-5.873749
 20
-5.87375
  9
$PLIMMAX
 10
204.099579
 20
291.1369009999999
  9
$UNITMODE
 70
     0
  9
$VISRETAIN
 70
     1
  9
$PLINEGEN
 70
     0
  9
$PSLTSCALE
 70
     1
  9
$TREEDEPTH
 70
  3020
  9
$CMLSTYLE
  2
STANDARD
  9
$CMLJUST
 70
     0
  9
$CMLSCALE
 40
1.0
  9
$PROXYGRAPHICS
 70
     1
  9
$MEASUREMENT
 70
     0
  9
$CELWEIGHT
370
    -1
  9
$ENDCAPS
280
     0
  9
$JOINSTYLE
280
     0
  9
$LWDISPLAY
290
     0
  9
$INSUNITS
 70
     0
  9
$HYPERLINKBASE
  1

  9
$STYLESHEET
  1
monochrome.ctb
  9
$XEDIT
290
     1
  9
$CEPSNTYPE
380
     0
  9
$PSTYLEMODE
290
     1
  9
$FINGERPRINTGUID
  2

  9
$VERSIONGUID
  2
{EAB6D7A3-A94C-4FC4-884D-9346F8647933}
  9
$EXTNAMES
290
     1
  9
$PSVPSCALE
 40
0.0
  9
$OLESTARTUP
290
     0
  0
ENDSEC
  0
SECTION
  2
CLASSES
  0
CLASS
  1
ACDBDICTIONARYWDFLT
  2
AcDbDictionaryWithDefault
  3
AutoCAD 2000
 90
        0
280
     0
281
     0
  0
CLASS
  1
ACDBPLACEHOLDER
  2
AcDbPlaceHolder
  3
AutoCAD 2000
 90
        0
280
     0
281
     0
  0
CLASS
  1
LAYOUT
  2
AcDbLayout
  3
AutoCAD 2000
 90
        0
280
     0
281
     0
  0
CLASS
  1
LONG_TRANSACTION
  2
AcDbLongTransaction
  3
AutoCAD 2000
 90
    32768
280
     0
281
     0
  0
CLASS
  1
LWPOLYLINE
  2
AcDbPolyline
  3
AutoCAD 2000
 90
    32768
280
     0
281
     1
  0
CLASS
  1
HATCH
  2
AcDbHatch
  3
AutoCAD 2000
 90
    32768
280
     0
281
     1
  0
CLASS
  1
XRECORD
  2
AcDbXrecord
  3
AutoCAD 2000
 90
    32768
280
     0
281
     0
  0
CLASS
  1
LONG_TRANSACTION
  2
AcDbLongTransaction
  3
AutoCAD 2000
 90
    32768
280
     0
281
     0
  0
CLASS
  1
LWPOLYLINE
  2
AcDbPolyline
  3
AutoCAD 2000
 90
    32768
280
     0
281
     1
  0
CLASS
  1
HATCH
  2
AcDbHatch
  3
AutoCAD 2000
 90
    32768
280
     0
281
     1
  0
CLASS
  1
XRECORD
  2
AcDbXrecord
  3
AutoCAD 2000
 90
    32768
280
     0
281
     0
  0
CLASS
  1
LONG_TRANSACTION
  2
AcDbLongTransaction
  3
AutoCAD 2000
 90
    32768
280
     0
281
     0
  0
CLASS
  1
LWPOLYLINE
  2
AcDbPolyline
  3
AutoCAD 2000
 90
    32768
280
     0
281
     1
  0
CLASS
  1
HATCH
  2
AcDbHatch
  3
AutoCAD 2000
 90
    32768
280
     0
281
     1
  0
CLASS
  1
XRECORD
  2
AcDbXrecord
  3
AutoCAD 2000
 90
    32768
280
     0
281
     0
  0
CLASS
  1
LONG_TRANSACTION
  2
AcDbLongTransaction
  3
AutoCAD 2000
 90
    32768
280
     0
281
     0
  0
CLASS
  1
LWPOLYLINE
  2
AcDbPolyline
  3
AutoCAD 2000
 90
    32768
280
     0
281
     1
  0
CLASS
  1
HATCH
  2
AcDbHatch
  3
AutoCAD 2000
 90
    32768
280
     0
281
     1
  0
CLASS
  1
XRECORD
  2
AcDbXrecord
  3
AutoCAD 2000
 90
    32768
280
     0
281
     0
  0
CLASS
  1
LONG_TRANSACTION
  2
AcDbLongTransaction
  3
AutoCAD 2000
 90
    32768
280
     0
281
     0
  0
CLASS
  1
LWPOLYLINE
  2
AcDbPolyline
  3
AutoCAD 2000
 90
    32768
280
     0
281
     1
  0
CLASS
  1
HATCH
  2
AcDbHatch
  3
AutoCAD 2000
 90
    32768
280
     0
281
     1
  0
CLASS
  1
XRECORD
  2
AcDbXrecord
  3
AutoCAD 2000
 90
    32768
280
     0
281
     0
  0
CLASS
  1
LONG_TRANSACTION
  2
AcDbLongTransaction
  3
AutoCAD 2000
 90
    32768
280
     0
281
     0
  0
CLASS
  1
LWPOLYLINE
  2
AcDbPolyline
  3
AutoCAD 2000
 90
    32768
280
     0
281
     1
  0
CLASS
  1
HATCH
  2
AcDbHatch
  3
AutoCAD 2000
 90
    32768
280
     0
281
     1
  0
CLASS
  1
XRECORD
  2
AcDbXrecord
  3
AutoCAD 2000
 90
    32768
280
     0
281
     0
  0
CLASS
  1
LONG_TRANSACTION
  2
AcDbLongTransaction
  3
AutoCAD 2000
 90
    32768
280
     0
281
     0
  0
CLASS
  1
LWPOLYLINE
  2
AcDbPolyline
  3
AutoCAD 2000
 90
    32768
280
     0
281
     1
  0
CLASS
  1
HATCH
  2
AcDbHatch
  3
AutoCAD 2000
 90
    32768
280
     0
281
     1
  0
CLASS
  1
XRECORD
  2
AcDbXrecord
  3
AutoCAD 2000
 90
    32768
280
     0
281
     0
  0
CLASS
  1
LONG_TRANSACTION
  2
AcDbLongTransaction
  3
AutoCAD 2000
 90
    32768
280
     0
281
     0
  0
CLASS
  1
LWPOLYLINE
  2
AcDbPolyline
  3
AutoCAD 2000
 90
    32768
280
     0
281
     1
  0
CLASS
  1
HATCH
  2
AcDbHatch
  3
AutoCAD 2000
 90
    32768
280
     0
281
     1
  0
CLASS
  1
XRECORD
  2
AcDbXrecord
  3
AutoCAD 2000
 90
    32768
280
     0
281
     0
  0
CLASS
  1
LONG_TRANSACTION
  2
AcDbLongTransaction
  3
AutoCAD 2000
 90
    32768
280
     0
281
     0
  0
CLASS
  1
LWPOLYLINE
  2
AcDbPolyline
  3
AutoCAD 2000
 90
    32768
280
     0
281
     1
  0
CLASS
  1
HATCH
  2
AcDbHatch
  3
AutoCAD 2000
 90
    32768
280
     0
281
     1
  0
CLASS
  1
XRECORD
  2
AcDbXrecord
  3
AutoCAD 2000
 90
    32768
280
     0
281
     0
  0
CLASS
  1
LONG_TRANSACTION
  2
AcDbLongTransaction
  3
AutoCAD 2000
 90
    32768
280
     0
281
     0
  0
CLASS
  1
LWPOLYLINE
  2
AcDbPolyline
  3
AutoCAD 2000
 90
    32768
280
     0
281
     1
  0
CLASS
  1
HATCH
  2
AcDbHatch
  3
AutoCAD 2000
 90
    32768
280
     0
281
     1
  0
CLASS
  1
XRECORD
  2
AcDbXrecord
  3
AutoCAD 2000
 90
    32768
280
     0
281
     0
  0
CLASS
  1
LONG_TRANSACTION
  2
AcDbLongTransaction
  3
AutoCAD 2000
 90
    32768
280
     0
281
     0
  0
CLASS
  1
LWPOLYLINE
  2
AcDbPolyline
  3
AutoCAD 2000
 90
    32768
280
     0
281
     1
  0
CLASS
  1
HATCH
  2
AcDbHatch
  3
AutoCAD 2000
 90
    32768
280
     0
281
     1
  0
CLASS
  1
XRECORD
  2
AcDbXrecord
  3
AutoCAD 2000
 90
    32768
280
     0
281
     0
  0
CLASS
  1
LONG_TRANSACTION
  2
AcDbLongTransaction
  3
AutoCAD 2000
 90
    32768
280
     0
281
     0
  0
CLASS
  1
LWPOLYLINE
  2
AcDbPolyline
  3
AutoCAD 2000
 90
    32768
280
     0
281
     1
  0
CLASS
  1
HATCH
  2
AcDbHatch
  3
AutoCAD 2000
 90
    32768
280
     0
281
     1
  0
CLASS
  1
XRECORD
  2
AcDbXrecord
  3
AutoCAD 2000
 90
    32768
280
     0
281
     0
  0
CLASS
  1
LONG_TRANSACTION
  2
AcDbLongTransaction
  3
AutoCAD 2000
 90
    32768
280
     0
281
     0
  0
CLASS
  1
LWPOLYLINE
  2
AcDbPolyline
  3
AutoCAD 2000
 90
    32768
280
     0
281
     1
  0
CLASS
  1
HATCH
  2
AcDbHatch
  3
AutoCAD 2000
 90
    32768
280
     0
281
     1
  0
CLASS
  1
XRECORD
  2
AcDbXrecord
  3
AutoCAD 2000
 90
    32768
280
     0
281
     0
  0
CLASS
  1
LONG_TRANSACTION
  2
AcDbLongTransaction
  3
AutoCAD 2000
 90
    32768
280
     0
281
     0
  0
CLASS
  1
LWPOLYLINE
  2
AcDbPolyline
  3
AutoCAD 2000
 90
    32768
280
     0
281
     1
  0
CLASS
  1
HATCH
  2
AcDbHatch
  3
AutoCAD 2000
 90
    32768
280
     0
281
     1
  0
CLASS
  1
XRECORD
  2
AcDbXrecord
  3
AutoCAD 2000
 90
    32768
280
     0
281
     0
  0
CLASS
  1
LONG_TRANSACTION
  2
AcDbLongTransaction
  3
AutoCAD 2000
 90
    32768
280
     0
281
     0
  0
CLASS
  1
LWPOLYLINE
  2
AcDbPolyline
  3
AutoCAD 2000
 90
    32768
280
     0
281
     1
  0
CLASS
  1
HATCH
  2
AcDbHatch
  3
AutoCAD 2000
 90
    32768
280
     0
281
     1
  0
CLASS
  1
XRECORD
  2
AcDbXrecord
  3
AutoCAD 2000
 90
    32768
280
     0
281
     0
  0
CLASS
  1
LONG_TRANSACTION
  2
AcDbLongTransaction
  3
AutoCAD 2000
 90
    32768
280
     0
281
     0
  0
CLASS
  1
LWPOLYLINE
  2
AcDbPolyline
  3
AutoCAD 2000
 90
    32768
280
     0
281
     1
  0
CLASS
  1
HATCH
  2
AcDbHatch
  3
AutoCAD 2000
 90
    32768
280
     0
281
     1
  0
CLASS
  1
XRECORD
  2
AcDbXrecord
  3
AutoCAD 2000
 90
    32768
280
     0
281
     0
  0
CLASS
  1
LONG_TRANSACTION
  2
AcDbLongTransaction
  3
AutoCAD 2000
 90
    32768
280
     0
281
     0
  0
CLASS
  1
LWPOLYLINE
  2
AcDbPolyline
  3
AutoCAD 2000
 90
    32768
280
     0
281
     1
  0
CLASS
  1
HATCH
  2
AcDbHatch
  3
AutoCAD 2000
 90
    32768
280
     0
281
     1
  0
CLASS
  1
XRECORD
  2
AcDbXrecord
  3
AutoCAD 2000
 90
    32768
280
     0
281
     0
  0
CLASS
  1
LONG_TRANSACTION
  2
AcDbLongTransaction
  3
AutoCAD 2000
 90
    32768
280
     0
281
     0
  0
CLASS
  1
LWPOLYLINE
  2
AcDbPolyline
  3
AutoCAD 2000
 90
    32768
280
     0
281
     1
  0
CLASS
  1
HATCH
  2
AcDbHatch
  3
AutoCAD 2000
 90
    32768
280
     0
281
     1
  0
CLASS
  1
XRECORD
  2
AcDbXrecord
  3
AutoCAD 2000
 90
    32768
280
     0
281
     0
  0
CLASS
  1
LONG_TRANSACTION
  2
AcDbLongTransaction
  3
AutoCAD 2000
 90
    32768
280
     0
281
     0
  0
CLASS
  1
LWPOLYLINE
  2
AcDbPolyline
  3
AutoCAD 2000
 90
    32768
280
     0
281
     1
  0
CLASS
  1
HATCH
  2
AcDbHatch
  3
AutoCAD 2000
 90
    32768
280
     0
281
     1
  0
CLASS
  1
XRECORD
  2
AcDbXrecord
  3
AutoCAD 2000
 90
    32768
280
     0
281
     0
  0
CLASS
  1
LONG_TRANSACTION
  2
AcDbLongTransaction
  3
AutoCAD 2000
 90
    32768
280
     0
281
     0
  0
CLASS
  1
LWPOLYLINE
  2
AcDbPolyline
  3
AutoCAD 2000
 90
    32768
280
     0
281
     1
  0
CLASS
  1
HATCH
  2
AcDbHatch
  3
AutoCAD 2000
 90
    32768
280
     0
281
     1
  0
CLASS
  1
XRECORD
  2
AcDbXrecord
  3
AutoCAD 2000
 90
    32768
280
     0
281
     0
  0
CLASS
  1
LONG_TRANSACTION
  2
AcDbLongTransaction
  3
AutoCAD 2000
 90
    32768
280
     0
281
     0
  0
CLASS
  1
LWPOLYLINE
  2
AcDbPolyline
  3
AutoCAD 2000
 90
    32768
280
     0
281
     1
  0
CLASS
  1
HATCH
  2
AcDbHatch
  3
AutoCAD 2000
 90
    32768
280
     0
281
     1
  0
CLASS
  1
XRECORD
  2
AcDbXrecord
  3
AutoCAD 2000
 90
    32768
280
     0
281
     0
  0
CLASS
  1
LONG_TRANSACTION
  2
AcDbLongTransaction
  3
AutoCAD 2000
 90
    32768
280
     0
281
     0
  0
CLASS
  1
LWPOLYLINE
  2
AcDbPolyline
  3
AutoCAD 2000
 90
    32768
280
     0
281
     1
  0
CLASS
  1
HATCH
  2
AcDbHatch
  3
AutoCAD 2000
 90
    32768
280
     0
281
     1
  0
CLASS
  1
XRECORD
  2
AcDbXrecord
  3
AutoCAD 2000
 90
    32768
280
     0
281
     0
  0
CLASS
  1
DICTIONARYVAR
  2
AcDbDictionaryVar
  3
AutoCAD 2000
 90
        0
280
     0
281
     0
  0
CLASS
  1
LONG_TRANSACTION
  2
AcDbLongTransaction
  3
AutoCAD 2000
 90
    32768
280
     0
281
     0
  0
CLASS
  1
LWPOLYLINE
  2
AcDbPolyline
  3
AutoCAD 2000
 90
    32768
280
     0
281
     1
  0
CLASS
  1
HATCH
  2
AcDbHatch
  3
AutoCAD 2000
 90
    32768
280
     0
281
     1
  0
CLASS
  1
XRECORD
  2
AcDbXrecord
  3
AutoCAD 2000
 90
    32768
280
     0
281
     0
  0
CLASS
  1
LONG_TRANSACTION
  2
AcDbLongTransaction
  3
AutoCAD 2000
 90
    32768
280
     0
281
     0
  0
CLASS
  1
LWPOLYLINE
  2
AcDbPolyline
  3
AutoCAD 2000
 90
    32768
280
     0
281
     1
  0
CLASS
  1
HATCH
  2
AcDbHatch
  3
AutoCAD 2000
 90
    32768
280
     0
281
     1
  0
CLASS
  1
XRECORD
  2
AcDbXrecord
  3
AutoCAD 2000
 90
    32768
280
     0
281
     0
  0
CLASS
  1
LONG_TRANSACTION
  2
AcDbLongTransaction
  3
AutoCAD 2000
 90
    32768
280
     0
281
     0
  0
CLASS
  1
LWPOLYLINE
  2
AcDbPolyline
  3
AutoCAD 2000
 90
    32768
280
     0
281
     1
  0
CLASS
  1
HATCH
  2
AcDbHatch
  3
AutoCAD 2000
 90
    32768
280
     0
281
     1
  0
CLASS
  1
XRECORD
  2
AcDbXrecord
  3
AutoCAD 2000
 90
    32768
280
     0
281
     0
  0
CLASS
  1
LONG_TRANSACTION
  2
AcDbLongTransaction
  3
AutoCAD 2000
 90
    32768
280
     0
281
     0
  0
CLASS
  1
LWPOLYLINE
  2
AcDbPolyline
  3
AutoCAD 2000
 90
    32768
280
     0
281
     1
  0
CLASS
  1
HATCH
  2
AcDbHatch
  3
AutoCAD 2000
 90
    32768
280
     0
281
     1
  0
CLASS
  1
XRECORD
  2
AcDbXrecord
  3
AutoCAD 2000
 90
    32768
280
     0
281
     0
  0
ENDSEC
  0
SECTION
  2
TABLES
  0
TABLE
  2
VPORT
  5
8
330
0
100
AcDbSymbolTable
 70
     5
  0
VPORT
  5
7960
330
8
100
AcDbSymbolTableRecord
100
AcDbViewportTableRecord
  2
*Active
 70
     0
 10
0.0
 20
0.0
 11
1.0
 21
1.0
 12
83.08403582333085
 22
-51.07131609291037
 13
0.0
 23
0.0
 14
1.0
 24
1.0
 15
10.0
 25
10.0
 16
0.0
 26
0.0
 36
1.0
 17
0.0
 27
0.0
 37
0.0
 40
560.7095678519405
 41
1.839147286821705
 42
50.0
 43
0.0
 44
0.0
 50
0.0
 51
0.0
 71
     0
 72
   100
 73
     1
 74
     1
 75
     0
 76
     0
 77
     0
 78
     0
281
     0
 65
     1
110
0.0
120
0.0
130
0.0
111
1.0
121
0.0
131
0.0
112
0.0
122
1.0
132
0.0
 79
     0
146
0.0
  0
ENDTAB
  0
TABLE
  2
LTYPE
  5
5
330
0
100
AcDbSymbolTable
 70
     5
  0
LTYPE
  5
13
330
5
100
AcDbSymbolTableRecord
100
AcDbLinetypeTableRecord
  2
BYBLOCK
 70
     0
  3

 72
    65
 73
     0
 40
0.0
  0
LTYPE
  5
14
330
5
100
AcDbSymbolTableRecord
100
AcDbLinetypeTableRecord
  2
BYLAYER
 70
     0
  3

 72
    65
 73
     0
 40
0.0
  0
LTYPE
  5
15
330
5
100
AcDbSymbolTableRecord
100
AcDbLinetypeTableRecord
  2
CONTINUOUS
 70
     0
  3
Solid line
 72
    65
 73
     0
 40
0.0
  0
LTYPE
  5
22
330
5
100
AcDbSymbolTableRecord
100
AcDbLinetypeTableRecord
  2
CONTINOUS
 70
     0
  3
Solid line
 72
    65
 73
     0
 40
0.0
  0
LTYPE
  5
23
330
5
100
AcDbSymbolTableRecord
100
AcDbLinetypeTableRecord
  2
DASHED
 70
     0
  3
__ __ __ __ __ __ __ __ __ __ __ __ __ __ __
 72
    65
 73
     2
 40
0.75
 49
0.5
 74
     0
 49
-0.25
 74
     0
  0
LTYPE
  5
24
330
5
100
AcDbSymbolTableRecord
100
AcDbLinetypeTableRecord
  2
DASHDOT
 70
     0
  3
__ . __ . __ . __ . __ . __ . __ . __ . __ . __
 72
    65
 73
     4
 40
1.0
 49
0.5
 74
     0
 49
-0.25
 74
     0
 49
0.0
 74
     0
 49
-0.25
 74
     0
  0
LTYPE
  5
33DE
330
5
100
AcDbSymbolTableRecord
100
AcDbLinetypeTableRecord
  2
DIVIDE
 70
     0
  3
Divide ____ . . ____ . . ____ . . ____ . . ____
 72
    65
 73
     6
 40
1.25
 49
0.5
 74
     0
 49
-0.25
 74
     0
 49
0.0
 74
     0
 49
-0.25
 74
     0
 49
0.0
 74
     0
 49
-0.25
 74
     0
  0
ENDTAB
  0
TABLE
  2
LAYER
  5
2
330
0
100
AcDbSymbolTable
 70
    11
  0
LAYER
  5
10
330
2
100
AcDbSymbolTableRecord
100
AcDbLayerTableRecord
  2
0
 70
     0
 62
     7
  6
CONTINOUS
370
    -3
390
F
  0
LAYER
  5
2F
330
2
100
AcDbSymbolTableRecord
100
AcDbLayerTableRecord
  2
10
 70
     0
 62
     4
  6
CONTINOUS
370
    -3
390
F
  0
LAYER
  5
31
330
2
100
AcDbSymbolTableRecord
100
AcDbLayerTableRecord
  2
12
 70
     0
 62
     3
  6
CONTINOUS
370
    -3
390
F
  0
LAYER
  5
35
330
2
100
AcDbSymbolTableRecord
100
AcDbLayerTableRecord
  2
16
 70
     0
 62
     6
  6
DASHDOT
370
    -3
390
F
  0
LAYER
  5
36
330
2
100
AcDbSymbolTableRecord
100
AcDbLayerTableRecord
  2
17
 70
     0
 62
     2
  6
DASHDOT
370
    -3
390
F
  0
LAYER
  5
38
330
2
100
AcDbSymbolTableRecord
100
AcDbLayerTableRecord
  2
19
 70
     0
 62
     7
  6
CONTINOUS
370
    -3
390
F
  0
LAYER
  5
3C
330
2
100
AcDbSymbolTableRecord
100
AcDbLayerTableRecord
  2
11
 70
     0
 62
     1
  6
CONTINOUS
370
    -3
390
F
  0
LAYER
  5
3D
330
2
100
AcDbSymbolTableRecord
100
AcDbLayerTableRecord
  2
24
 70
     0
 62
     2
  6
CONTINOUS
370
    -3
390
F
  0
LAYER
  5
3A2
330
2
100
AcDbSymbolTableRecord
100
AcDbLayerTableRecord
  2
30
 70
     0
 62
     9
  6
CONTINUOUS
370
    -3
390
F
  0
LAYER
  5
3A4
330
2
100
AcDbSymbolTableRecord
100
AcDbLayerTableRecord
  2
DEFPOINTS
 70
     0
 62
     7
  6
CONTINUOUS
290
     0
370
    -3
390
F
  0
LAYER
  5
2AEF
330
2
100
AcDbSymbolTableRecord
100
AcDbLayerTableRecord
  2
18
 70
     0
 62
     5
  6
DIVIDE
370
    -3
390
F
  0
ENDTAB
  0
TABLE
  2
STYLE
  5
3
330
0
100
AcDbSymbolTable
 70
     3
  0
STYLE
  5
11
330
3
100
AcDbSymbolTableRecord
100
AcDbTextStyleTableRecord
  2
STANDARD
 70
     0
 40
0.0
 41
1.0
 50
0.0
 71
     0
 42
2.0
  3
txt.shx
  4
bigfont.shx
  0
STYLE
  5
42
330
3
100
AcDbSymbolTableRecord
100
AcDbTextStyleTableRecord
  2
STANDARD1
 70
     0
 40
0.0
 41
1.0
 50
0.0
 71
     0
 42
4.0
  3
MONOTXT
  4
BIGFONT
  0
STYLE
  5
3BC7
330
3
100
AcDbSymbolTableRecord
100
AcDbTextStyleTableRecord
  2
MX_NOTE_STANDARD
 70
     0
 40
0.0
 41
1.0
 50
0.0
 71
     0
 42
5.891046
  3
txt.shx
  4
extfont.shx
  0
ENDTAB
  0
TABLE
  2
VIEW
  5
6
330
0
100
AcDbSymbolTable
 70
     3
  0
VIEW
  5
230C
330
6
100
AcDbSymbolTableRecord
100
AcDbViewTableRecord
  2
OLE1
 70
     0
 40
148.912488
 10
429.497628
 20
2.560627
 41
103.145806
 11
0.0
 21
0.0
 31
1.0
 12
0.0
 22
0.0
 32
0.0
 42
50.0
 43
0.0
 44
0.0
 50
0.0
 71
     0
281
     0
 72
     0
  0
VIEW
  5
230E
330
6
100
AcDbSymbolTableRecord
100
AcDbViewTableRecord
  2
OLE2
 70
     0
 40
170.778692
 10
322.66497
 20
-5.978304
 41
102.467215
 11
0.0
 21
0.0
 31
1.0
 12
0.0
 22
0.0
 32
0.0
 42
50.0
 43
0.0
 44
0.0
 50
0.0
 71
     0
281
     0
 72
     0
  0
VIEW
  5
23AA
330
6
100
AcDbSymbolTableRecord
100
AcDbViewTableRecord
  2
OLE3
 70
     0
 40
591.7897389999998
 10
84.79698199999999
 20
-46.09335999999998
 41
388.792096
 11
0.0
 21
0.0
 31
1.0
 12
0.0
 22
0.0
 32
0.0
 42
50.0
 43
0.0
 44
0.0
 50
0.0
 71
     0
281
     0
 72
     0
  0
ENDTAB
  0
TABLE
  2
UCS
  5
7
330
0
100
AcDbSymbolTable
 70
     0
  0
ENDTAB
  0
TABLE
  2
APPID
  5
9
330
0
100
AcDbSymbolTable
 70
     2
  0
APPID
  5
12
330
9
100
AcDbSymbolTableRecord
100
AcDbRegAppTableRecord
  2
ACAD
 70
     0
  0
APPID
  5
ECD
330
9
100
AcDbSymbolTableRecord
100
AcDbRegAppTableRecord
  2
CONTENTBLOCKICON
 70
     0
  0
ENDTAB
  0
TABLE
  2
DIMSTYLE
  5
A
330
0
100
AcDbSymbolTable
 70
     2
100
AcDbDimStyleTable
 71
     1
340
175
  0
DIMSTYLE
105
175
102
{ACAD_REACTORS
330
59AC
330
59A6
330
61C2
330
61C4
330
61C7
330
61FB
330
61D3
330
61D2
330
61C3
330
61D1
330
61C5
330
6123
330
68A7
330
6A1C
330
6A1E
330
6A20
330
6A21
330
6A34
330
6D98
330
6D9D
330
6D9B
330
6D9A
330
6D99
330
6D97
330
6DA1
330
6DB5
330
6DB4
330
6DB6
330
6DA0
330
78AA
330
78AF
330
78B4
330
78BA
330
78C2
102
}
330
A
100
AcDbSymbolTableRecord
100
AcDbDimStyleTableRecord
  2
STANDARD
 70
     0
 41
2.0
 42
1.0
 43
0.5
 44
0.5
 73
     0
 77
     3
 78
    12
140
4.0
147
1.0
271
     1
272
     1
340
11
341
3B2
342
3B2
  0
DIMSTYLE
105
3BCD
330
A
100
AcDbSymbolTableRecord
100
AcDbDimStyleTableRecord
  2
MXDIMSTYLE
 70
     0
 40
1.414212999999999
 41
2.5
 42
0.5
 43
3.75
 44
1.0
 73
     0
 74
     0
 77
     1
 78
     8
140
4.1656
141
2.5
143
0.03937
144
0.7071069999999999
147
1.0
171
     4
172
     1
274
     4
288
     1
340
3BC7
  0
ENDTAB
  0
TABLE
  2
BLOCK_RECORD
  5
1
330
0
100
AcDbSymbolTable
 70
    69
  0
BLOCK_RECORD
  5
1E
102
{ACAD_XDICTIONARY
360
178
102
}
330
1
100
AcDbSymbolTableRecord
100
AcDbBlockTableRecord
  2
*MODEL_SPACE
340
21
  0
BLOCK_RECORD
  5
1A
102
{ACAD_XDICTIONARY
360
17A
102
}
330
1
100
AcDbSymbolTableRecord
100
AcDbBlockTableRecord
  2
*PAPER_SPACE
340
1D
  0
BLOCK_RECORD
  5
3B2
330
1
100
AcDbSymbolTableRecord
100
AcDbBlockTableRecord
  2
_OPEN
340
0
102
{BLKREFS
331
59E7
331
59E8
331
6846
331
6847
331
684F
331
6850
331
68E3
331
6F9E
331
6F9F
331
6FA7
331
6FA8
331
6FCB
331
6FCC
331
72F5
331
72F6
331
72FE
331
72FF
331
7306
331
730F
331
7310
331
7513
331
7514
331
7549
331
754A
331
7552
331
7553
331
755B
331
755C
331
7564
331
7565
331
756D
331
756E
331
7576
331
7577
331
757F
331
7580
331
7589
331
758A
331
7592
331
7593
331
759B
331
759C
331
75A4
331
75A5
331
75AE
331
75AF
331
75B7
331
75B8
331
75C0
331
75C1
331
75C9
331
75CA
331
75D2
331
75D3
331
75E2
331
75E3
331
75EB
331
75EC
331
75F4
331
75F5
331
75FD
331
75FE
331
7718
331
7719
331
7677
331
7678
331
7700
331
7701
331
769B
331
769C
331
7683
331
7684
331
763A
331
763B
331
768F
331
7690
331
766B
331
766C
331
76B3
331
76B4
331
76F4
331
76F5
331
76E4
331
76E5
331
76A7
331
76A8
331
7646
331
7647
331
770C
331
770D
331
7653
331
7654
331
76BF
331
76C0
331
765F
331
7660
331
77F8
331
77F9
331
780E
331
780F
331
7817
331
7818
331
7874
331
7868
331
7869
331
785C
331
785D
331
7880
331
7881
331
7851
331
7852
331
78CD
331
78D8
331
78D9
331
78E4
331
78E5
331
78F1
331
78F2
331
78FD
331
78FE
331
7907
331
790F
331
7910
331
7918
331
7919
331
7922
331
7923
331
792B
331
792C
331
7937
331
7938
102
}
  0
BLOCK_RECORD
  5
3A40
330
1
100
AcDbSymbolTableRecord
100
AcDbBlockTableRecord
  2
_OPEN30
340
0
  0
BLOCK_RECORD
  5
59BB
330
1
100
AcDbSymbolTableRecord
100
AcDbBlockTableRecord
  2
*D2
340
0
  0
BLOCK_RECORD
  5
59C7
330
1
100
AcDbSymbolTableRecord
100
AcDbBlockTableRecord
  2
*D3
340
0
  0
BLOCK_RECORD
  5
6211
330
1
100
AcDbSymbolTableRecord
100
AcDbBlockTableRecord
  2
*D4
340
0
  0
BLOCK_RECORD
  5
6275
330
1
100
AcDbSymbolTableRecord
100
AcDbBlockTableRecord
  2
*D5
340
0
  0
BLOCK_RECORD
  5
6281
330
1
100
AcDbSymbolTableRecord
100
AcDbBlockTableRecord
  2
*D6
340
0
  0
BLOCK_RECORD
  5
628D
330
1
100
AcDbSymbolTableRecord
100
AcDbBlockTableRecord
  2
*D7
340
0
  0
BLOCK_RECORD
  5
62F2
330
1
100
AcDbSymbolTableRecord
100
AcDbBlockTableRecord
  2
*D8
340
0
  0
BLOCK_RECORD
  5
633A
330
1
100
AcDbSymbolTableRecord
100
AcDbBlockTableRecord
  2
*D9
340
0
  0
BLOCK_RECORD
  5
6344
330
1
100
AcDbSymbolTableRecord
100
AcDbBlockTableRecord
  2
*D10
340
0
  0
BLOCK_RECORD
  5
6350
330
1
100
AcDbSymbolTableRecord
100
AcDbBlockTableRecord
  2
*D11
340
0
  0
BLOCK_RECORD
  5
635C
330
1
100
AcDbSymbolTableRecord
100
AcDbBlockTableRecord
  2
*D12
340
0
  0
BLOCK_RECORD
  5
6368
330
1
100
AcDbSymbolTableRecord
100
AcDbBlockTableRecord
  2
*D13
340
0
  0
BLOCK_RECORD
  5
6374
330
1
100
AcDbSymbolTableRecord
100
AcDbBlockTableRecord
  2
*D14
340
0
  0
BLOCK_RECORD
  5
6380
330
1
100
AcDbSymbolTableRecord
100
AcDbBlockTableRecord
  2
*D15
340
0
  0
BLOCK_RECORD
  5
638E
330
1
100
AcDbSymbolTableRecord
100
AcDbBlockTableRecord
  2
*D16
340
0
  0
BLOCK_RECORD
  5
639A
330
1
100
AcDbSymbolTableRecord
100
AcDbBlockTableRecord
  2
*D17
340
0
  0
BLOCK_RECORD
  5
68A8
330
1
100
AcDbSymbolTableRecord
100
AcDbBlockTableRecord
  2
*D18
340
0
  0
BLOCK_RECORD
  5
6A66
330
1
100
AcDbSymbolTableRecord
100
AcDbBlockTableRecord
  2
*D20
340
0
  0
BLOCK_RECORD
  5
6A72
330
1
100
AcDbSymbolTableRecord
100
AcDbBlockTableRecord
  2
*D21
340
0
  0
BLOCK_RECORD
  5
6A7E
330
1
100
AcDbSymbolTableRecord
100
AcDbBlockTableRecord
  2
*D22
340
0
  0
BLOCK_RECORD
  5
6A8A
330
1
100
AcDbSymbolTableRecord
100
AcDbBlockTableRecord
  2
*D23
340
0
  0
BLOCK_RECORD
  5
6A98
330
1
100
AcDbSymbolTableRecord
100
AcDbBlockTableRecord
  2
*D24
340
0
  0
BLOCK_RECORD
  5
6E61
330
1
100
AcDbSymbolTableRecord
100
AcDbBlockTableRecord
  2
*D25
340
0
  0
BLOCK_RECORD
  5
6E6D
330
1
100
AcDbSymbolTableRecord
100
AcDbBlockTableRecord
  2
*D26
340
0
  0
BLOCK_RECORD
  5
6E7B
330
1
100
AcDbSymbolTableRecord
100
AcDbBlockTableRecord
  2
*D27
340
0
  0
BLOCK_RECORD
  5
6E89
330
1
100
AcDbSymbolTableRecord
100
AcDbBlockTableRecord
  2
*D28
340
0
  0
BLOCK_RECORD
  5
6E95
330
1
100
AcDbSymbolTableRecord
100
AcDbBlockTableRecord
  2
*D29
340
0
  0
BLOCK_RECORD
  5
6EAD
330
1
100
AcDbSymbolTableRecord
100
AcDbBlockTableRecord
  2
*D30
340
0
  0
BLOCK_RECORD
  5
6EB9
330
1
100
AcDbSymbolTableRecord
100
AcDbBlockTableRecord
  2
*D31
340
0
  0
BLOCK_RECORD
  5
6EC5
330
1
100
AcDbSymbolTableRecord
100
AcDbBlockTableRecord
  2
*D32
340
0
  0
BLOCK_RECORD
  5
6ED1
330
1
100
AcDbSymbolTableRecord
100
AcDbBlockTableRecord
  2
*D33
340
0
  0
BLOCK_RECORD
  5
6EDD
330
1
100
AcDbSymbolTableRecord
100
AcDbBlockTableRecord
  2
*D34
340
0
  0
BLOCK_RECORD
  5
6EE9
330
1
100
AcDbSymbolTableRecord
100
AcDbBlockTableRecord
  2
*D35
340
0
  0
BLOCK_RECORD
  5
7636
330
1
100
AcDbSymbolTableRecord
100
AcDbBlockTableRecord
  2
*D36
340
0
  0
BLOCK_RECORD
  5
7642
330
1
100
AcDbSymbolTableRecord
100
AcDbBlockTableRecord
  2
*D37
340
0
  0
BLOCK_RECORD
  5
764E
330
1
100
AcDbSymbolTableRecord
100
AcDbBlockTableRecord
  2
*D38
340
0
  0
BLOCK_RECORD
  5
765B
330
1
100
AcDbSymbolTableRecord
100
AcDbBlockTableRecord
  2
*D39
340
0
  0
BLOCK_RECORD
  5
7667
330
1
100
AcDbSymbolTableRecord
100
AcDbBlockTableRecord
  2
*D40
340
0
  0
BLOCK_RECORD
  5
7673
330
1
100
AcDbSymbolTableRecord
100
AcDbBlockTableRecord
  2
*D41
340
0
  0
BLOCK_RECORD
  5
767F
330
1
100
AcDbSymbolTableRecord
100
AcDbBlockTableRecord
  2
*D42
340
0
  0
BLOCK_RECORD
  5
768B
330
1
100
AcDbSymbolTableRecord
100
AcDbBlockTableRecord
  2
*D43
340
0
  0
BLOCK_RECORD
  5
7697
330
1
100
AcDbSymbolTableRecord
100
AcDbBlockTableRecord
  2
*D44
340
0
  0
BLOCK_RECORD
  5
76A3
330
1
100
AcDbSymbolTableRecord
100
AcDbBlockTableRecord
  2
*D45
340
0
  0
BLOCK_RECORD
  5
76AF
330
1
100
AcDbSymbolTableRecord
100
AcDbBlockTableRecord
  2
*D46
340
0
  0
BLOCK_RECORD
  5
76BB
330
1
100
AcDbSymbolTableRecord
100
AcDbBlockTableRecord
  2
*D47
340
0
  0
BLOCK_RECORD
  5
76C7
330
1
100
AcDbSymbolTableRecord
100
AcDbBlockTableRecord
  2
*D48
340
0
  0
BLOCK_RECORD
  5
76D3
330
1
100
AcDbSymbolTableRecord
100
AcDbBlockTableRecord
  2
*D49
340
0
  0
BLOCK_RECORD
  5
76E0
330
1
100
AcDbSymbolTableRecord
100
AcDbBlockTableRecord
  2
*D50
340
0
  0
BLOCK_RECORD
  5
76EC
330
1
100
AcDbSymbolTableRecord
100
AcDbBlockTableRecord
  2
_DOTSMALL
340
0
102
{BLKREFS
331
76CB
331
76CC
331
76D8
331
76D9
102
}
  0
BLOCK_RECORD
  5
76F0
330
1
100
AcDbSymbolTableRecord
100
AcDbBlockTableRecord
  2
*D52
340
0
  0
BLOCK_RECORD
  5
76FC
330
1
100
AcDbSymbolTableRecord
100
AcDbBlockTableRecord
  2
*D53
340
0
  0
BLOCK_RECORD
  5
7708
330
1
100
AcDbSymbolTableRecord
100
AcDbBlockTableRecord
  2
*D54
340
0
  0
BLOCK_RECORD
  5
7714
330
1
100
AcDbSymbolTableRecord
100
AcDbBlockTableRecord
  2
*D55
340
0
  0
BLOCK_RECORD
  5
7720
330
1
100
AcDbSymbolTableRecord
100
AcDbBlockTableRecord
  2
A$C5F4207B4
340
0
  0
BLOCK_RECORD
  5
784C
330
1
100
AcDbSymbolTableRecord
100
AcDbBlockTableRecord
  2
*D58
340
0
  0
BLOCK_RECORD
  5
7858
330
1
100
AcDbSymbolTableRecord
100
AcDbBlockTableRecord
  2
*D59
340
0
  0
BLOCK_RECORD
  5
7864
330
1
100
AcDbSymbolTableRecord
100
AcDbBlockTableRecord
  2
*D60
340
0
  0
BLOCK_RECORD
  5
7870
330
1
100
AcDbSymbolTableRecord
100
AcDbBlockTableRecord
  2
*D61
340
0
  0
BLOCK_RECORD
  5
787B
330
1
100
AcDbSymbolTableRecord
100
AcDbBlockTableRecord
  2
*D62
340
0
  0
BLOCK_RECORD
  5
78C9
330
1
100
AcDbSymbolTableRecord
100
AcDbBlockTableRecord
  2
*D64
340
0
  0
BLOCK_RECORD
  5
78D4
330
1
100
AcDbSymbolTableRecord
100
AcDbBlockTableRecord
  2
*D65
340
0
  0
BLOCK_RECORD
  5
78E0
330
1
100
AcDbSymbolTableRecord
100
AcDbBlockTableRecord
  2
*D66
340
0
  0
BLOCK_RECORD
  5
78EC
330
1
100
AcDbSymbolTableRecord
100
AcDbBlockTableRecord
  2
*D67
340
0
  0
BLOCK_RECORD
  5
78F8
330
1
100
AcDbSymbolTableRecord
100
AcDbBlockTableRecord
  2
*D68
340
0
  0
ENDTAB
  0
ENDSEC
  0
SECTION
  2
BLOCKS
  0
BLOCK
  5
1F
330
1E
100
AcDbEntity
  8
0
100
AcDbBlockBegin
  2
*MODEL_SPACE
 70
     0
 10
0.0
 20
0.0
 30
0.0
  3
*MODEL_SPACE
  1

  0
ENDBLK
  5
20
330
1E
100
AcDbEntity
  8
0
100
AcDbBlockEnd
  0
BLOCK
  5
1B
330
1A
100
AcDbEntity
 67
     1
  8
0
100
AcDbBlockBegin
  2
*PAPER_SPACE
 70
     0
 10
0.0
 20
0.0
 30
0.0
  3
*PAPER_SPACE
  1

  0
ENDBLK
  5
1C
330
1A
100
AcDbEntity
 67
     1
  8
0
100
AcDbBlockEnd
  0
BLOCK
  5
3B6
330
3B2
100
AcDbEntity
  8
0
100
AcDbBlockBegin
  2
_OPEN
 70
     0
 10
0.0
 20
0.0
 30
0.0
  3
_OPEN
  1

  0
LINE
  5
3B3
330
3B2
100
AcDbEntity
  8
30
  6
Continuous
 62
     0
100
AcDbLine
 10
-1.0
 20
0.166667
 30
0.0
 11
0.0
 21
0.0
 31
0.0
1001
ACAD
1000
RTLwPs
1070
   158
  0
LINE
  5
3B4
330
3B2
100
AcDbEntity
  8
30
  6
Continuous
 62
     0
100
AcDbLine
 10
-1.0
 20
-0.166667
 30
0.0
 11
0.0
 21
0.0
 31
0.0
1001
ACAD
1000
RTLwPs
1070
   158
  0
LINE
  5
3B5
330
3B2
100
AcDbEntity
  8
30
  6
Continuous
 62
     0
100
AcDbLine
 10
0.0
 20
0.0
 30
0.0
 11
-1.0
 21
0.0
 31
0.0
1001
ACAD
1000
RTLwPs
1070
   158
  0
ENDBLK
  5
3B7
330
3B2
100
AcDbEntity
  8
0
100
AcDbBlockEnd
  0
BLOCK
  5
3A44
330
3A40
100
AcDbEntity
  8
0
  6
ByBlock
 62
     0
100
AcDbBlockBegin
  2
_OPEN30
 70
     2
 10
0.0
 20
0.0
 30
0.0
  3
_OPEN30
  1

  0
LINE
  5
3A41
330
3A40
100
AcDbEntity
  8
0
  6
ByBlock
 62
     0
100
AcDbLine
 10
-1.0
 20
0.267949
 30
0.0
 11
0.0
 21
0.0
 31
0.0
  0
LINE
  5
3A42
330
3A40
100
AcDbEntity
  8
0
  6
ByBlock
 62
     0
100
AcDbLine
 10
0.0
 20
0.0
 30
0.0
 11
-1.0
 21
-0.267949
 31
0.0
  0
LINE
  5
3A43
330
3A40
100
AcDbEntity
  8
0
  6
ByBlock
 62
     0
100
AcDbLine
 10
0.0
 20
0.0
 30
0.0
 11
-1.0
 21
0.0
 31
0.0
  0
ENDBLK
  5
3A45
330
3A40
100
AcDbEntity
  8
0
  6
ByBlock
 62
     0
100
AcDbBlockEnd
  0
BLOCK
  5
59C5
330
59BB
100
AcDbEntity
  8
0
100
AcDbBlockBegin
  2
*D2
 70
     1
 10
0.0
 20
0.0
 30
0.0
  3
*D2
  1

  0
LINE
  5
72F1
330
59BB
100
AcDbEntity
  8
30
  6
Continuous
 62
     0
370
    -2
100
AcDbLine
 10
190.6413399457498
 20
156.814895586841
 30
0.0
 11
190.6413399457498
 21
148.721807886383
 31
0.0
  0
LINE
  5
72F2
330
59BB
100
AcDbEntity
  8
30
  6
Continuous
 62
     0
370
    -2
100
AcDbLine
 10
175.6413399457498
 20
156.814895586841
 30
0.0
 11
175.6413399457498
 21
148.721807886383
 31
0.0
  0
LINE
  5
72F3
330
59BB
100
AcDbEntity
  8
30
  6
Continuous
 62
     0
370
    -2
100
AcDbLine
 10
188.6413399457498
 20
149.221807886383
 30
0.0
 11
177.6413399457498
 21
149.221807886383
 31
0.0
  0
MTEXT
  5
72F4
330
59BB
100
AcDbEntity
  8
30
  6
Continuous
 62
     0
100
AcDbMText
 10
183.1413399457498
 20
144.8862884303096
 30
0.0
 40
4.0
 41
0.0
 71
     5
 72
     1
  1
\A1;max15
 73
     1
 44
1.0
  0
INSERT
  5
72F5
330
59BB
100
AcDbEntity
  8
30
  6
Continuous
 62
     0
370
    -2
100
AcDbBlockReference
  2
_OPEN
 10
190.6413399457498
 20
149.221807886383
 30
0.0
 41
2.0
 42
2.0
 43
2.0
  0
INSERT
  5
72F6
330
59BB
100
AcDbEntity
  8
30
  6
Continuous
 62
     0
370
    -2
100
AcDbBlockReference
  2
_OPEN
 10
175.6413399457498
 20
149.221807886383
 30
0.0
 41
2.0
 42
2.0
 43
2.0
 50
180.0
  0
POINT
  5
72F7
330
59BB
100
AcDbEntity
  8
DEFPOINTS
  6
Continuous
 62
     0
100
AcDbPoint
 10
190.6413399457498
 20
157.814895586841
 30
0.0
  0
POINT
  5
72F8
330
59BB
100
AcDbEntity
  8
DEFPOINTS
  6
Continuous
 62
     0
100
AcDbPoint
 10
175.6413399457498
 20
157.814895586841
 30
0.0
  0
POINT
  5
72F9
330
59BB
100
AcDbEntity
  8
DEFPOINTS
  6
Continuous
 62
     0
100
AcDbPoint
 10
175.6413399457498
 20
149.221807886383
 30
0.0
  0
ENDBLK
  5
59C6
330
59BB
100
AcDbEntity
  8
0
100
AcDbBlockEnd
  0
BLOCK
  5
59D1
330
59C7
100
AcDbEntity
  8
0
100
AcDbBlockBegin
  2
*D3
 70
     1
 10
0.0
 20
0.0
 30
0.0
  3
*D3
  1

  0
LINE
  5
59E4
330
59C7
100
AcDbEntity
  8
30
  6
Continuous
 62
     0
370
    -2
100
AcDbLine
 10
191.8913399457498
 20
164.814896586841
 30
0.0
 11
200.2491769457499
 21
164.814896586841
 31
0.0
  0
LINE
  5
59E5
330
59C7
100
AcDbEntity
  8
30
  6
Continuous
 62
     0
370
    -2
100
AcDbLine
 10
191.6413399457498
 20
157.814895586841
 30
0.0
 11
200.2491769457499
 21
157.814895586841
 31
0.0
  0
LINE
  5
59E6
330
59C7
100
AcDbEntity
  8
30
  6
Continuous
 62
     0
370
    -2
100
AcDbLine
 10
199.7491769457498
 20
162.814896586841
 30
0.0
 11
199.7491769457498
 21
159.814895586841
 31
0.0
  0
INSERT
  5
59E7
330
59C7
100
AcDbEntity
  8
30
  6
Continuous
 62
     0
370
    -2
100
AcDbBlockReference
  2
_OPEN
 10
199.7491769457498
 20
164.814896586841
 30
0.0
 41
2.0
 42
2.0
 43
2.0
 50
90.0
  0
INSERT
  5
59E8
330
59C7
100
AcDbEntity
  8
30
  6
Continuous
 62
     0
370
    -2
100
AcDbBlockReference
  2
_OPEN
 10
199.7491769457498
 20
157.814895586841
 30
0.0
 41
2.0
 42
2.0
 43
2.0
 50
270.0
  0
MTEXT
  5
59E9
330
59C7
100
AcDbEntity
  8
30
  6
Continuous
 62
     0
100
AcDbMText
 10
196.7491769457498
 20
161.3148960868409
 30
0.0
 40
4.0
 41
0.0
 71
     5
 72
     1
  1
\A1;7
 11
0.0000000000000001
 21
1.0
 31
0.0
 73
     1
 44
1.0
  0
POINT
  5
59EA
330
59C7
100
AcDbEntity
  8
DEFPOINTS
  6
Continuous
 62
     0
100
AcDbPoint
 10
190.8913399457498
 20
164.814896586841
 30
0.0
  0
POINT
  5
59EB
330
59C7
100
AcDbEntity
  8
DEFPOINTS
  6
Continuous
 62
     0
100
AcDbPoint
 10
190.6413399457498
 20
157.814895586841
 30
0.0
  0
POINT
  5
59EC
330
59C7
100
AcDbEntity
  8
DEFPOINTS
  6
Continuous
 62
     0
100
AcDbPoint
 10
199.7491769457498
 20
157.814895586841
 30
0.0
  0
ENDBLK
  5
59D2
330
59C7
100
AcDbEntity
  8
0
100
AcDbBlockEnd
  0
BLOCK
  5
621B
330
6211
100
AcDbEntity
  8
0
100
AcDbBlockBegin
  2
*D4
 70
     1
 10
0.0
 20
0.0
 30
0.0
  3
*D4
  1

  0
LINE
  5
72FA
330
6211
100
AcDbEntity
  8
30
  6
Continuous
 62
     0
370
    -2
100
AcDbLine
 10
177.499995
 20
-262.999997
 30
0.0
 11
177.499995
 21
-286.598058
 31
0.0
  0
LINE
  5
72FB
330
6211
100
AcDbEntity
  8
30
  6
Continuous
 62
     0
370
    -2
100
AcDbLine
 10
142.500005
 20
-262.999997
 30
0.0
 11
142.500005
 21
-286.598058
 31
0.0
  0
LINE
  5
72FC
330
6211
100
AcDbEntity
  8
30
  6
Continuous
 62
     0
370
    -2
100
AcDbLine
 10
175.499995
 20
-286.0980579999999
 30
0.0
 11
144.500005
 21
-286.0980579999999
 31
0.0
  0
MTEXT
  5
72FD
330
6211
100
AcDbEntity
  8
30
  6
Continuous
 62
     0
100
AcDbMText
 10
159.9426493416235
 20
-288.5730267487867
 30
0.0
 40
4.0
 41
0.0
 71
     5
 72
     1
  1
\A1;more than 74
 73
     1
 44
1.0
  0
INSERT
  5
72FE
330
6211
100
AcDbEntity
  8
30
  6
Continuous
 62
     0
370
    -2
100
AcDbBlockReference
  2
_OPEN
 10
177.499995
 20
-286.0980579999999
 30
0.0
 41
2.0
 42
2.0
 43
2.0
  0
INSERT
  5
72FF
330
6211
100
AcDbEntity
  8
30
  6
Continuous
 62
     0
370
    -2
100
AcDbBlockReference
  2
_OPEN
 10
142.500005
 20
-286.0980579999999
 30
0.0
 41
2.0
 42
2.0
 43
2.0
 50
180.0
  0
POINT
  5
7300
330
6211
100
AcDbEntity
  8
DEFPOINTS
  6
Continuous
 62
     0
100
AcDbPoint
 10
177.499995
 20
-261.999997
 30
0.0
  0
POINT
  5
7301
330
6211
100
AcDbEntity
  8
DEFPOINTS
  6
Continuous
 62
     0
100
AcDbPoint
 10
142.500005
 20
-261.999997
 30
0.0
  0
POINT
  5
7302
330
6211
100
AcDbEntity
  8
DEFPOINTS
  6
Continuous
 62
     0
100
AcDbPoint
 10
142.500005
 20
-286.0980579999999
 30
0.0
  0
ENDBLK
  5
621C
330
6211
100
AcDbEntity
  8
0
100
AcDbBlockEnd
  0
BLOCK
  5
627F
330
6275
100
AcDbEntity
  8
0
100
AcDbBlockBegin
  2
*D5
 70
     1
 10
0.0
 20
0.0
 30
0.0
  3
*D5
  1

  0
LINE
  5
6843
330
6275
100
AcDbEntity
  8
30
  6
Continuous
 62
     0
370
    -2
100
AcDbLine
 10
-1.136838999999998
 20
-229.000006
 30
0.0
 11
31.37284799999995
 21
-229.000006
 31
0.0
  0
LINE
  5
6844
330
6275
100
AcDbEntity
  8
30
  6
Continuous
 62
     0
370
    -2
100
AcDbLine
 10
11.046146
 20
-270.999994
 30
0.0
 11
31.37284799999994
 21
-270.999994
 31
0.0
  0
LINE
  5
6845
330
6275
100
AcDbEntity
  8
30
  6
Continuous
 62
     0
370
    -2
100
AcDbLine
 10
30.87284799999995
 20
-231.0000059999999
 30
0.0
 11
30.87284799999994
 21
-268.999994
 31
0.0
  0
INSERT
  5
6846
330
6275
100
AcDbEntity
  8
30
  6
Continuous
 62
     0
370
    -2
100
AcDbBlockReference
  2
_OPEN
 10
30.87284799999995
 20
-229.000006
 30
0.0
 41
2.0
 42
2.0
 43
2.0
 50
90.0
  0
INSERT
  5
6847
330
6275
100
AcDbEntity
  8
30
  6
Continuous
 62
     0
370
    -2
100
AcDbBlockReference
  2
_OPEN
 10
30.87284799999994
 20
-270.999994
 30
0.0
 41
2.0
 42
2.0
 43
2.0
 50
270.0
  0
MTEXT
  5
6848
330
6275
100
AcDbEntity
  8
30
  6
Continuous
 62
     0
100
AcDbMText
 10
27.87284799999998
 20
-249.999999
 30
0.0
 40
4.0
 41
0.0
 71
     5
 72
     1
  1
\A1;42
 11
0.0000000000000001
 21
1.0
 31
0.0
 73
     1
 44
1.0
  0
POINT
  5
6849
330
6275
100
AcDbEntity
  8
DEFPOINTS
  6
Continuous
 62
     0
100
AcDbPoint
 10
-2.136838999999998
 20
-229.000006
 30
0.0
  0
POINT
  5
684A
330
6275
100
AcDbEntity
  8
DEFPOINTS
  6
Continuous
 62
     0
100
AcDbPoint
 10
10.046146
 20
-270.999994
 30
0.0
  0
POINT
  5
684B
330
6275
100
AcDbEntity
  8
DEFPOINTS
  6
Continuous
 62
     0
100
AcDbPoint
 10
30.87284799999994
 20
-270.999994
 30
0.0
  0
ENDBLK
  5
6280
330
6275
100
AcDbEntity
  8
0
100
AcDbBlockEnd
  0
BLOCK
  5
628B
330
6281
100
AcDbEntity
  8
0
100
AcDbBlockBegin
  2
*D6
 70
     1
 10
0.0
 20
0.0
 30
0.0
  3
*D6
  1

  0
LINE
  5
684C
330
6281
100
AcDbEntity
  8
30
  6
Continuous
 62
     0
370
    -2
100
AcDbLine
 10
6.249998000000001
 20
-277.2247099999999
 30
0.0
 11
6.249998
 21
-286.598058
 31
0.0
  0
LINE
  5
684D
330
6281
100
AcDbEntity
  8
30
  6
Continuous
 62
     0
370
    -2
100
AcDbLine
 10
-6.249998999999991
 20
-234.2748589999999
 30
0.0
 11
-6.249998999999995
 21
-286.598058
 31
0.0
  0
LINE
  5
684E
330
6281
100
AcDbEntity
  8
30
  6
Continuous
 62
     0
370
    -2
100
AcDbLine
 10
4.249998
 20
-286.0980579999999
 30
0.0
 11
-4.249998999999995
 21
-286.0980579999999
 31
0.0
  0
INSERT
  5
684F
330
6281
100
AcDbEntity
  8
30
  6
Continuous
 62
     0
370
    -2
100
AcDbBlockReference
  2
_OPEN
 10
6.249998
 20
-286.0980579999999
 30
0.0
 41
2.0
 42
2.0
 43
2.0
  0
INSERT
  5
6850
330
6281
100
AcDbEntity
  8
30
  6
Continuous
 62
     0
370
    -2
100
AcDbBlockReference
  2
_OPEN
 10
-6.249998999999995
 20
-286.0980579999999
 30
0.0
 41
2.0
 42
2.0
 43
2.0
 50
180.0
  0
MTEXT
  5
6851
330
6281
100
AcDbEntity
  8
30
  6
Continuous
 62
     0
100
AcDbMText
 10
-0.0000004999999972
 20
-283.0980579999999
 30
0.0
 40
4.0
 41
0.0
 71
     5
 72
     1
  1
\A1;12.5
 73
     1
 44
1.0
  0
POINT
  5
6852
330
6281
100
AcDbEntity
  8
DEFPOINTS
  6
Continuous
 62
     0
100
AcDbPoint
 10
6.249998000000001
 20
-276.2247099999999
 30
0.0
  0
POINT
  5
6853
330
6281
100
AcDbEntity
  8
DEFPOINTS
  6
Continuous
 62
     0
100
AcDbPoint
 10
-6.249998999999991
 20
-233.274859
 30
0.0
  0
POINT
  5
6854
330
6281
100
AcDbEntity
  8
DEFPOINTS
  6
Continuous
 62
     0
100
AcDbPoint
 10
-6.249998999999995
 20
-286.0980579999999
 30
0.0
  0
ENDBLK
  5
628C
330
6281
100
AcDbEntity
  8
0
100
AcDbBlockEnd
  0
BLOCK
  5
6293
330
628D
100
AcDbEntity
  8
0
100
AcDbBlockBegin
  2
*D7
 70
     1
 10
0.0
 20
0.0
 30
0.0
  3
*D7
  1

  0
LINE
  5
7303
330
628D
100
AcDbEntity
  8
30
  6
Continuous
 62
     0
370
    -2
100
AcDbLine
 10
110.7806935860332
 20
-224.5544202010965
 30
0.0
 11
136.8640269193666
 21
-224.5544202010965
 31
0.0
  0
LINE
  5
7304
330
628D
100
AcDbEntity
  8
30
  6
Continuous
 62
     0
370
    -2
100
AcDbLine
 10
136.8640269193666
 20
-224.5544202010965
 30
0.0
 11
142.1722780731716
 21
-235.30980991737
 31
0.0
  0
MTEXT
  5
7305
330
628D
100
AcDbEntity
  8
30
  6
Continuous
 62
     0
100
AcDbMText
 10
123.3223602526999
 20
-222.3044202010965
 30
0.0
 40
2.5
 41
0.0
 71
     5
 72
     1
  1
\A1;less than R1
 73
     1
 44
1.0
  0
INSERT
  5
7306
330
628D
100
AcDbEntity
  8
30
  6
Continuous
 62
     0
370
    -2
100
AcDbBlockReference
  2
_OPEN
 10
143.0574294750529
 20
-237.1032722101845
 30
0.0
 41
2.0
 42
2.0
 43
2.0
 50
296.2683368278743
  0
LINE
  5
7307
330
628D
100
AcDbEntity
  8
30
  6
Continuous
 62
     0
370
    -2
100
AcDbLine
 10
143.410005
 20
-238.000003
 30
0.0
 11
143.590005
 21
-238.0000029999999
 31
0.0
  0
LINE
  5
7308
330
628D
100
AcDbEntity
  8
30
  6
Continuous
 62
     0
370
    -2
100
AcDbLine
 10
143.500005
 20
-238.0900029999999
 30
0.0
 11
143.500005
 21
-237.9100029999999
 31
0.0
  0
POINT
  5
7309
330
628D
100
AcDbEntity
  8
DEFPOINTS
  6
Continuous
 62
     0
100
AcDbPoint
 10
143.0574294750529
 20
-237.1032722101845
 30
0.0
  0
POINT
  5
730A
330
628D
100
AcDbEntity
  8
DEFPOINTS
  6
Continuous
 62
     0
100
AcDbPoint
 10
143.500005
 20
-238.0000029999999
 30
0.0
  0
ENDBLK
  5
6294
330
628D
100
AcDbEntity
  8
0
100
AcDbBlockEnd
  0
BLOCK
  5
62FC
330
62F2
100
AcDbEntity
  8
0
100
AcDbBlockBegin
  2
*D8
 70
     1
 10
0.0
 20
0.0
 30
0.0
  3
*D8
  1

  0
LINE
  5
730B
330
62F2
100
AcDbEntity
  8
30
  6
Continuous
 62
     0
370
    -2
100
AcDbLine
 10
177.499996
 20
-237.0000029999999
 30
0.0
 11
189.1884969999999
 21
-237.0000029999999
 31
0.0
  0
LINE
  5
730C
330
62F2
100
AcDbEntity
  8
30
  6
Continuous
 62
     0
370
    -2
100
AcDbLine
 10
177.499996
 20
-262.999996
 30
0.0
 11
189.1884969999999
 21
-262.999996
 31
0.0
  0
LINE
  5
730D
330
62F2
100
AcDbEntity
  8
30
  6
Continuous
 62
     0
370
    -2
100
AcDbLine
 10
188.6884969999999
 20
-239.0000029999999
 30
0.0
 11
188.6884969999999
 21
-260.999996
 31
0.0
  0
MTEXT
  5
730E
330
62F2
100
AcDbEntity
  8
30
  6
Continuous
 62
     0
100
AcDbMText
 10
191.4032558880985
 20
-246.9417903802593
 30
0.0
 40
4.0
 41
0.0
 71
     5
 72
     1
  1
\A1;more than 26
 11
0.0000000000000001
 21
1.0
 31
0.0
 73
     1
 44
1.0
  0
INSERT
  5
730F
330
62F2
100
AcDbEntity
  8
30
  6
Continuous
 62
     0
370
    -2
100
AcDbBlockReference
  2
_OPEN
 10
188.6884969999999
 20
-237.0000029999999
 30
0.0
 41
2.0
 42
2.0
 43
2.0
 50
90.0
  0
INSERT
  5
7310
330
62F2
100
AcDbEntity
  8
30
  6
Continuous
 62
     0
370
    -2
100
AcDbBlockReference
  2
_OPEN
 10
188.6884969999999
 20
-262.999996
 30
0.0
 41
2.0
 42
2.0
 43
2.0
 50
270.0
  0
POINT
  5
7311
330
62F2
100
AcDbEntity
  8
DEFPOINTS
  6
Continuous
 62
     0
100
AcDbPoint
 10
176.499996
 20
-237.0000029999999
 30
0.0
  0
POINT
  5
7312
330
62F2
100
AcDbEntity
  8
DEFPOINTS
  6
Continuous
 62
     0
100
AcDbPoint
 10
176.499996
 20
-262.999996
 30
0.0
  0
POINT
  5
7313
330
62F2
100
AcDbEntity
  8
DEFPOINTS
  6
Continuous
 62
     0
100
AcDbPoint
 10
188.6884969999999
 20
-262.999996
 30
0.0
  0
ENDBLK
  5
62FD
330
62F2
100
AcDbEntity
  8
0
100
AcDbBlockEnd
  0
BLOCK
  5
6342
330
633A
100
AcDbEntity
  8
0
100
AcDbBlockBegin
  2
*D9
 70
     1
 10
0.0
 20
0.0
 30
0.0
  3
*D9
  1

  0
LINE
  5
75C6
330
633A
100
AcDbEntity
  8
30
  6
Continuous
 62
     0
370
    -2
100
AcDbLine
 10
207.5
 20
98.75006199999996
 30
0.0
 11
207.5
 21
89.14793799999996
 31
0.0
  0
LINE
  5
75C7
330
633A
100
AcDbEntity
  8
30
  6
Continuous
 62
     0
370
    -2
100
AcDbLine
 10
162.5
 20
98.75006199999996
 30
0.0
 11
162.5
 21
89.14793799999996
 31
0.0
  0
LINE
  5
75C8
330
633A
100
AcDbEntity
  8
30
  6
Continuous
 62
     0
370
    -2
100
AcDbLine
 10
205.5
 20
89.64793799999995
 30
0.0
 11
164.5
 21
89.64793799999995
 31
0.0
  0
INSERT
  5
75C9
330
633A
100
AcDbEntity
  8
30
  6
Continuous
 62
     0
370
    -2
100
AcDbBlockReference
  2
_OPEN
 10
207.5
 20
89.64793799999995
 30
0.0
 41
2.0
 42
2.0
 43
2.0
  0
INSERT
  5
75CA
330
633A
100
AcDbEntity
  8
30
  6
Continuous
 62
     0
370
    -2
100
AcDbBlockReference
  2
_OPEN
 10
162.5
 20
89.64793799999995
 30
0.0
 41
2.0
 42
2.0
 43
2.0
 50
180.0
  0
MTEXT
  5
75CB
330
633A
100
AcDbEntity
  8
30
  6
Continuous
 62
     0
100
AcDbMText
 10
185.0
 20
92.64793799999996
 30
0.0
 40
4.0
 41
0.0
 71
     5
 72
     1
  1
\A1;45
 73
     1
 44
1.0
  0
POINT
  5
75CC
330
633A
100
AcDbEntity
  8
DEFPOINTS
  6
Continuous
 62
     0
100
AcDbPoint
 10
207.5
 20
99.75006199999995
 30
0.0
  0
POINT
  5
75CD
330
633A
100
AcDbEntity
  8
DEFPOINTS
  6
Continuous
 62
     0
100
AcDbPoint
 10
162.5
 20
99.75006199999995
 30
0.0
  0
POINT
  5
75CE
330
633A
100
AcDbEntity
  8
DEFPOINTS
  6
Continuous
 62
     0
100
AcDbPoint
 10
162.5
 20
89.64793799999995
 30
0.0
  0
ENDBLK
  5
6343
330
633A
100
AcDbEntity
  8
0
100
AcDbBlockEnd
  0
BLOCK
  5
634E
330
6344
100
AcDbEntity
  8
0
100
AcDbBlockBegin
  2
*D10
 70
     1
 10
0.0
 20
0.0
 30
0.0
  3
*D10
  1

  0
LINE
  5
75A1
330
6344
100
AcDbEntity
  8
30
  6
Continuous
 62
     0
370
    -2
100
AcDbLine
 10
210.0
 20
-44.00005400000003
 30
0.0
 11
210.0
 21
-61.81171800000004
 31
0.0
  0
LINE
  5
75A2
330
6344
100
AcDbEntity
  8
30
  6
Continuous
 62
     0
370
    -2
100
AcDbLine
 10
150.0000589999999
 20
-37.89997100000002
 30
0.0
 11
150.0000589999999
 21
-61.81171800000004
 31
0.0
  0
LINE
  5
75A3
330
6344
100
AcDbEntity
  8
30
  6
Continuous
 62
     0
370
    -2
100
AcDbLine
 10
208.0
 20
-61.31171800000004
 30
0.0
 11
152.0000589999999
 21
-61.31171800000004
 31
0.0
  0
INSERT
  5
75A4
330
6344
100
AcDbEntity
  8
30
  6
Continuous
 62
     0
370
    -2
100
AcDbBlockReference
  2
_OPEN
 10
210.0
 20
-61.31171800000004
 30
0.0
 41
2.0
 42
2.0
 43
2.0
  0
INSERT
  5
75A5
330
6344
100
AcDbEntity
  8
30
  6
Continuous
 62
     0
370
    -2
100
AcDbBlockReference
  2
_OPEN
 10
150.0000589999999
 20
-61.31171800000004
 30
0.0
 41
2.0
 42
2.0
 43
2.0
 50
180.0
  0
MTEXT
  5
75A6
330
6344
100
AcDbEntity
  8
30
  6
Continuous
 62
     0
100
AcDbMText
 10
180.00003
 20
-58.31171800000004
 30
0.0
 40
4.0
 41
0.0
 71
     5
 72
     1
  1
\A1;60
 73
     1
 44
1.0
  0
POINT
  5
75A7
330
6344
100
AcDbEntity
  8
DEFPOINTS
  6
Continuous
 62
     0
100
AcDbPoint
 10
210.0
 20
-43.00005400000003
 30
0.0
  0
POINT
  5
75A8
330
6344
100
AcDbEntity
  8
DEFPOINTS
  6
Continuous
 62
     0
100
AcDbPoint
 10
150.0000589999999
 20
-36.89997100000002
 30
0.0
  0
POINT
  5
75A9
330
6344
100
AcDbEntity
  8
DEFPOINTS
  6
Continuous
 62
     0
100
AcDbPoint
 10
150.0000589999999
 20
-61.31171800000004
 30
0.0
  0
ENDBLK
  5
634F
330
6344
100
AcDbEntity
  8
0
100
AcDbBlockEnd
  0
BLOCK
  5
635A
330
6350
100
AcDbEntity
  8
0
100
AcDbBlockBegin
  2
*D11
 70
     1
 10
0.0
 20
0.0
 30
0.0
  3
*D11
  1

  0
LINE
  5
75BD
330
6350
100
AcDbEntity
  8
30
  6
Continuous
 62
     0
370
    -2
100
AcDbLine
 10
166.9996089999999
 20
46.89999999999997
 30
0.0
 11
166.9996089999999
 21
59.77054899999996
 31
0.0
  0
LINE
  5
75BE
330
6350
100
AcDbEntity
  8
30
  6
Continuous
 62
     0
370
    -2
100
AcDbLine
 10
210.0
 20
44.00005999999996
 30
0.0
 11
210.0
 21
59.77054899999996
 31
0.0
  0
LINE
  5
75BF
330
6350
100
AcDbEntity
  8
30
  6
Continuous
 62
     0
370
    -2
100
AcDbLine
 10
168.9996089999999
 20
59.27054899999996
 30
0.0
 11
208.0
 21
59.27054899999996
 31
0.0
  0
INSERT
  5
75C0
330
6350
100
AcDbEntity
  8
30
  6
Continuous
 62
     0
370
    -2
100
AcDbBlockReference
  2
_OPEN
 10
166.9996089999999
 20
59.27054899999996
 30
0.0
 41
2.0
 42
2.0
 43
2.0
 50
180.0
  0
INSERT
  5
75C1
330
6350
100
AcDbEntity
  8
30
  6
Continuous
 62
     0
370
    -2
100
AcDbBlockReference
  2
_OPEN
 10
210.0
 20
59.27054899999996
 30
0.0
 41
2.0
 42
2.0
 43
2.0
  0
MTEXT
  5
75C2
330
6350
100
AcDbEntity
  8
30
  6
Continuous
 62
     0
100
AcDbMText
 10
188.4998039999999
 20
62.27054899999996
 30
0.0
 40
4.0
 41
0.0
 71
     5
 72
     1
  1
\A1;43
 73
     1
 44
1.0
  0
POINT
  5
75C3
330
6350
100
AcDbEntity
  8
DEFPOINTS
  6
Continuous
 62
     0
100
AcDbPoint
 10
166.9996089999999
 20
45.89999999999998
 30
0.0
  0
POINT
  5
75C4
330
6350
100
AcDbEntity
  8
DEFPOINTS
  6
Continuous
 62
     0
100
AcDbPoint
 10
210.0
 20
43.00005999999996
 30
0.0
  0
POINT
  5
75C5
330
6350
100
AcDbEntity
  8
DEFPOINTS
  6
Continuous
 62
     0
100
AcDbPoint
 10
210.0
 20
59.27054899999996
 30
0.0
  0
ENDBLK
  5
635B
330
6350
100
AcDbEntity
  8
0
100
AcDbBlockEnd
  0
BLOCK
  5
6366
330
635C
100
AcDbEntity
  8
0
100
AcDbBlockBegin
  2
*D12
 70
     1
 10
0.0
 20
0.0
 30
0.0
  3
*D12
  1

  0
LINE
  5
7598
330
635C
100
AcDbEntity
  8
30
  6
Continuous
 62
     0
370
    -2
100
AcDbLine
 10
210.0
 20
-44.06257100000002
 30
0.0
 11
210.0
 21
-69.99052100000003
 31
0.0
  0
LINE
  5
7599
330
635C
100
AcDbEntity
  8
30
  6
Continuous
 62
     0
370
    -2
100
AcDbLine
 10
126.0
 20
8.500002999999935
 30
0.0
 11
126.0
 21
-69.99052100000003
 31
0.0
  0
LINE
  5
759A
330
635C
100
AcDbEntity
  8
30
  6
Continuous
 62
     0
370
    -2
100
AcDbLine
 10
208.0
 20
-69.49052100000002
 30
0.0
 11
128.0
 21
-69.49052100000002
 31
0.0
  0
INSERT
  5
759B
330
635C
100
AcDbEntity
  8
30
  6
Continuous
 62
     0
370
    -2
100
AcDbBlockReference
  2
_OPEN
 10
210.0
 20
-69.49052100000002
 30
0.0
 41
2.0
 42
2.0
 43
2.0
  0
INSERT
  5
759C
330
635C
100
AcDbEntity
  8
30
  6
Continuous
 62
     0
370
    -2
100
AcDbBlockReference
  2
_OPEN
 10
126.0
 20
-69.49052100000002
 30
0.0
 41
2.0
 42
2.0
 43
2.0
 50
180.0
  0
MTEXT
  5
759D
330
635C
100
AcDbEntity
  8
30
  6
Continuous
 62
     0
100
AcDbMText
 10
168.0
 20
-66.49052100000003
 30
0.0
 40
4.0
 41
0.0
 71
     5
 72
     1
  1
\A1;84
 73
     1
 44
1.0
  0
POINT
  5
759E
330
635C
100
AcDbEntity
  8
DEFPOINTS
  6
Continuous
 62
     0
100
AcDbPoint
 10
210.0
 20
-43.06257100000002
 30
0.0
  0
POINT
  5
759F
330
635C
100
AcDbEntity
  8
DEFPOINTS
  6
Continuous
 62
     0
100
AcDbPoint
 10
126.0
 20
9.500002999999935
 30
0.0
  0
POINT
  5
75A0
330
635C
100
AcDbEntity
  8
DEFPOINTS
  6
Continuous
 62
     0
100
AcDbPoint
 10
126.0
 20
-69.49052100000002
 30
0.0
  0
ENDBLK
  5
6367
330
635C
100
AcDbEntity
  8
0
100
AcDbBlockEnd
  0
BLOCK
  5
6372
330
6368
100
AcDbEntity
  8
0
100
AcDbBlockBegin
  2
*D13
 70
     1
 10
0.0
 20
0.0
 30
0.0
  3
*D13
  1

  0
LINE
  5
75B4
330
6368
100
AcDbEntity
  8
30
  6
Continuous
 62
     0
370
    -2
100
AcDbLine
 10
159.0000289999999
 20
48.19999999999999
 30
0.0
 11
159.0000289999999
 21
104.7134309999999
 31
0.0
  0
LINE
  5
75B5
330
6368
100
AcDbEntity
  8
30
  6
Continuous
 62
     0
370
    -2
100
AcDbLine
 10
210.0
 20
44.00006399999995
 30
0.0
 11
210.0
 21
104.7134309999999
 31
0.0
  0
LINE
  5
75B6
330
6368
100
AcDbEntity
  8
30
  6
Continuous
 62
     0
370
    -2
100
AcDbLine
 10
161.0000289999999
 20
104.2134309999999
 30
0.0
 11
208.0
 21
104.2134309999999
 31
0.0
  0
INSERT
  5
75B7
330
6368
100
AcDbEntity
  8
30
  6
Continuous
 62
     0
370
    -2
100
AcDbBlockReference
  2
_OPEN
 10
159.0000289999999
 20
104.2134309999999
 30
0.0
 41
2.0
 42
2.0
 43
2.0
 50
180.0
  0
INSERT
  5
75B8
330
6368
100
AcDbEntity
  8
30
  6
Continuous
 62
     0
370
    -2
100
AcDbBlockReference
  2
_OPEN
 10
210.0
 20
104.2134309999999
 30
0.0
 41
2.0
 42
2.0
 43
2.0
  0
MTEXT
  5
75B9
330
6368
100
AcDbEntity
  8
30
  6
Continuous
 62
     0
100
AcDbMText
 10
184.5000139999999
 20
107.2134309999999
 30
0.0
 40
4.0
 41
0.0
 71
     5
 72
     1
  1
\A1;51
 73
     1
 44
1.0
  0
POINT
  5
75BA
330
6368
100
AcDbEntity
  8
DEFPOINTS
  6
Continuous
 62
     0
100
AcDbPoint
 10
159.0000289999999
 20
47.19999999999998
 30
0.0
  0
POINT
  5
75BB
330
6368
100
AcDbEntity
  8
DEFPOINTS
  6
Continuous
 62
     0
100
AcDbPoint
 10
210.0
 20
43.00006399999995
 30
0.0
  0
POINT
  5
75BC
330
6368
100
AcDbEntity
  8
DEFPOINTS
  6
Continuous
 62
     0
100
AcDbPoint
 10
210.0
 20
104.2134309999999
 30
0.0
  0
ENDBLK
  5
6373
330
6368
100
AcDbEntity
  8
0
100
AcDbBlockEnd
  0
BLOCK
  5
637E
330
6374
100
AcDbEntity
  8
0
100
AcDbBlockBegin
  2
*D14
 70
     1
 10
0.0
 20
0.0
 30
0.0
  3
*D14
  1

  0
LINE
  5
758F
330
6374
100
AcDbEntity
  8
30
  6
Continuous
 62
     0
370
    -2
100
AcDbLine
 10
150.0
 20
-38.50000000000003
 30
0.0
 11
150.0
 21
-61.81171800000004
 31
0.0
  0
LINE
  5
7590
330
6374
100
AcDbEntity
  8
30
  6
Continuous
 62
     0
370
    -2
100
AcDbLine
 10
142.0
 20
-26.0
 30
0.0
 11
142.0
 21
-61.81171800000004
 31
0.0
  0
LINE
  5
7591
330
6374
100
AcDbEntity
  8
30
  6
Continuous
 62
     0
370
    -2
100
AcDbLine
 10
148.0
 20
-61.31171800000004
 30
0.0
 11
144.0
 21
-61.31171800000004
 31
0.0
  0
INSERT
  5
7592
330
6374
100
AcDbEntity
  8
30
  6
Continuous
 62
     0
370
    -2
100
AcDbBlockReference
  2
_OPEN
 10
150.0
 20
-61.31171800000004
 30
0.0
 41
2.0
 42
2.0
 43
2.0
  0
INSERT
  5
7593
330
6374
100
AcDbEntity
  8
30
  6
Continuous
 62
     0
370
    -2
100
AcDbBlockReference
  2
_OPEN
 10
142.0
 20
-61.31171800000004
 30
0.0
 41
2.0
 42
2.0
 43
2.0
 50
180.0
  0
MTEXT
  5
7594
330
6374
100
AcDbEntity
  8
30
  6
Continuous
 62
     0
100
AcDbMText
 10
146.0
 20
-58.31171800000004
 30
0.0
 40
4.0
 41
0.0
 71
     5
 72
     1
  1
\A1;8
 73
     1
 44
1.0
  0
POINT
  5
7595
330
6374
100
AcDbEntity
  8
DEFPOINTS
  6
Continuous
 62
     0
100
AcDbPoint
 10
150.0
 20
-37.50000000000003
 30
0.0
  0
POINT
  5
7596
330
6374
100
AcDbEntity
  8
DEFPOINTS
  6
Continuous
 62
     0
100
AcDbPoint
 10
142.0
 20
-25.0
 30
0.0
  0
POINT
  5
7597
330
6374
100
AcDbEntity
  8
DEFPOINTS
  6
Continuous
 62
     0
100
AcDbPoint
 10
142.0
 20
-61.31171800000004
 30
0.0
  0
ENDBLK
  5
637F
330
6374
100
AcDbEntity
  8
0
100
AcDbBlockEnd
  0
BLOCK
  5
638C
330
6380
100
AcDbEntity
  8
0
100
AcDbBlockBegin
  2
*D15
 70
     1
 10
0.0
 20
0.0
 30
0.0
  3
*D15
  1

  0
LINE
  5
7585
330
6380
100
AcDbEntity
  8
30
  6
Continuous
 62
     0
370
    -2
100
AcDbLine
 10
142.0
 20
-26.0
 30
0.0
 11
142.0
 21
-61.81171800000004
 31
0.0
  0
LINE
  5
7586
330
6380
100
AcDbEntity
  8
30
  6
Continuous
 62
     0
370
    -2
100
AcDbLine
 10
138.0
 20
-25.0
 30
0.0
 11
138.0
 21
-61.81171800000004
 31
0.0
  0
LINE
  5
7587
330
6380
100
AcDbEntity
  8
30
  6
Continuous
 62
     0
370
    -2
100
AcDbLine
 10
144.0
 20
-61.31171800000004
 30
0.0
 11
146.0
 21
-61.31171800000004
 31
0.0
  0
LINE
  5
7588
330
6380
100
AcDbEntity
  8
30
  6
Continuous
 62
     0
370
    -2
100
AcDbLine
 10
136.0
 20
-61.31171800000004
 30
0.0
 11
126.5119945133333
 21
-61.31171800000004
 31
0.0
  0
INSERT
  5
7589
330
6380
100
AcDbEntity
  8
30
  6
Continuous
 62
     0
370
    -2
100
AcDbBlockReference
  2
_OPEN
 10
142.0
 20
-61.31171800000004
 30
0.0
 41
2.0
 42
2.0
 43
2.0
 50
180.0
  0
INSERT
  5
758A
330
6380
100
AcDbEntity
  8
30
  6
Continuous
 62
     0
370
    -2
100
AcDbBlockReference
  2
_OPEN
 10
138.0
 20
-61.31171800000004
 30
0.0
 41
2.0
 42
2.0
 43
2.0
  0
MTEXT
  5
758B
330
6380
100
AcDbEntity
  8
30
  6
Continuous
 62
     0
100
AcDbMText
 10
128.8453278466666
 20
-58.31171800000004
 30
0.0
 40
4.0
 41
0.0
 71
     5
 72
     1
  1
\A1;4
 73
     1
 44
1.0
  0
POINT
  5
758C
330
6380
100
AcDbEntity
  8
DEFPOINTS
  6
Continuous
 62
     0
100
AcDbPoint
 10
142.0
 20
-25.0
 30
0.0
  0
POINT
  5
758D
330
6380
100
AcDbEntity
  8
DEFPOINTS
  6
Continuous
 62
     0
100
AcDbPoint
 10
138.0
 20
-24.0
 30
0.0
  0
POINT
  5
758E
330
6380
100
AcDbEntity
  8
DEFPOINTS
  6
Continuous
 62
     0
100
AcDbPoint
 10
138.0
 20
-61.31171800000004
 30
0.0
  0
ENDBLK
  5
638D
330
6380
100
AcDbEntity
  8
0
100
AcDbBlockEnd
  0
BLOCK
  5
6398
330
638E
100
AcDbEntity
  8
0
100
AcDbBlockBegin
  2
*D16
 70
     1
 10
0.0
 20
0.0
 30
0.0
  3
*D16
  1

  0
LINE
  5
75CF
330
638E
100
AcDbEntity
  8
30
  6
Continuous
 62
     0
370
    -2
100
AcDbLine
 10
149.499998
 20
-38.00000000000002
 30
0.0
 11
117.7613539999999
 21
-38.00000000000002
 31
0.0
  0
LINE
  5
75D0
330
638E
100
AcDbEntity
  8
30
  6
Continuous
 62
     0
370
    -2
100
AcDbLine
 10
149.499998
 20
38.0
 30
0.0
 11
117.761354
 21
38.0
 31
0.0
  0
LINE
  5
75D1
330
638E
100
AcDbEntity
  8
30
  6
Continuous
 62
     0
370
    -2
100
AcDbLine
 10
118.2613539999999
 20
-36.00000000000002
 30
0.0
 11
118.2613539999999
 21
36.0
 31
0.0
  0
INSERT
  5
75D2
330
638E
100
AcDbEntity
  8
30
  6
Continuous
 62
     0
370
    -2
100
AcDbBlockReference
  2
_OPEN
 10
118.2613539999999
 20
-38.00000000000002
 30
0.0
 41
2.0
 42
2.0
 43
2.0
 50
270.0
  0
INSERT
  5
75D3
330
638E
100
AcDbEntity
  8
30
  6
Continuous
 62
     0
370
    -2
100
AcDbBlockReference
  2
_OPEN
 10
118.2613539999999
 20
38.0
 30
0.0
 41
2.0
 42
2.0
 43
2.0
 50
90.0
  0
MTEXT
  5
75D4
330
638E
100
AcDbEntity
  8
30
  6
Continuous
 62
     0
100
AcDbMText
 10
115.2613539999999
 20
0.0000000000000004
 30
0.0
 40
4.0
 41
0.0
 71
     5
 72
     1
  1
\A1;76
 11
0.0000000000000001
 21
1.0
 31
0.0
 73
     1
 44
1.0
  0
POINT
  5
75D5
330
638E
100
AcDbEntity
  8
DEFPOINTS
  6
Continuous
 62
     0
100
AcDbPoint
 10
150.499998
 20
-38.00000000000002
 30
0.0
  0
POINT
  5
75D6
330
638E
100
AcDbEntity
  8
DEFPOINTS
  6
Continuous
 62
     0
100
AcDbPoint
 10
150.499998
 20
38.0
 30
0.0
  0
POINT
  5
75D7
330
638E
100
AcDbEntity
  8
DEFPOINTS
  6
Continuous
 62
     0
100
AcDbPoint
 10
118.2613539999999
 20
38.0
 30
0.0
  0
ENDBLK
  5
6399
330
638E
100
AcDbEntity
  8
0
100
AcDbBlockEnd
  0
BLOCK
  5
63A5
330
639A
100
AcDbEntity
  8
0
100
AcDbBlockBegin
  2
*D17
 70
     1
 10
0.0
 20
0.0
 30
0.0
  3
*D17
  1

  0
LINE
  5
75AA
330
639A
100
AcDbEntity
  8
30
  6
Continuous
 62
     0
370
    -2
100
AcDbLine
 10
210.0
 20
41.56262799999995
 30
0.0
 11
210.0
 21
90.14793799999996
 31
0.0
  0
LINE
  5
75AB
330
639A
100
AcDbEntity
  8
30
  6
Continuous
 62
     0
370
    -2
100
AcDbLine
 10
207.5
 20
96.25006199999996
 30
0.0
 11
207.5
 21
89.14793799999996
 31
0.0
  0
LINE
  5
75AC
330
639A
100
AcDbEntity
  8
30
  6
Continuous
 62
     0
370
    -2
100
AcDbLine
 10
205.5
 20
89.64793799999995
 30
0.0
 11
203.5
 21
89.64793799999995
 31
0.0
  0
LINE
  5
75AD
330
639A
100
AcDbEntity
  8
30
  6
Continuous
 62
     0
370
    -2
100
AcDbLine
 10
212.0
 20
89.64793799999995
 30
0.0
 11
228.49159202
 21
89.64793799999995
 31
0.0
  0
INSERT
  5
75AE
330
639A
100
AcDbEntity
  8
30
  6
Continuous
 62
     0
370
    -2
100
AcDbBlockReference
  2
_OPEN
 10
207.5
 20
89.64793799999995
 30
0.0
 41
2.0
 42
2.0
 43
2.0
  0
INSERT
  5
75AF
330
639A
100
AcDbEntity
  8
30
  6
Continuous
 62
     0
370
    -2
100
AcDbBlockReference
  2
_OPEN
 10
210.0
 20
89.64793799999995
 30
0.0
 41
2.0
 42
2.0
 43
2.0
 50
180.0
  0
MTEXT
  5
75B0
330
639A
100
AcDbEntity
  8
30
  6
Continuous
 62
     0
100
AcDbMText
 10
223.4915920199999
 20
92.64793799999996
 30
0.0
 40
4.0
 41
0.0
 71
     5
 72
     1
  1
\A1;2.5
 73
     1
 44
1.0
  0
POINT
  5
75B1
330
639A
100
AcDbEntity
  8
DEFPOINTS
  6
Continuous
 62
     0
100
AcDbPoint
 10
210.0
 20
40.56262799999996
 30
0.0
  0
POINT
  5
75B2
330
639A
100
AcDbEntity
  8
DEFPOINTS
  6
Continuous
 62
     0
100
AcDbPoint
 10
207.5
 20
97.25006199999995
 30
0.0
  0
POINT
  5
75B3
330
639A
100
AcDbEntity
  8
DEFPOINTS
  6
Continuous
 62
     0
100
AcDbPoint
 10
207.5
 20
89.64793799999995
 30
0.0
  0
ENDBLK
  5
63A6
330
639A
100
AcDbEntity
  8
0
100
AcDbBlockEnd
  0
BLOCK
  5
68B1
330
68A8
100
AcDbEntity
  8
0
100
AcDbBlockBegin
  2
*D18
 70
     1
 10
0.0
 20
0.0
 30
0.0
  3
*D18
  1

  0
LINE
  5
68E0
330
68A8
100
AcDbEntity
  8
30
  6
Continuous
 62
     0
370
    -2
100
AcDbLine
 10
204.4361987810208
 20
181.867473232864
 30
0.0
 11
196.7695321143541
 21
181.8674732328641
 31
0.0
  0
LINE
  5
68E1
330
68A8
100
AcDbEntity
  8
30
  6
Continuous
 62
     0
370
    -2
100
AcDbLine
 10
196.7695321143541
 20
181.8674732328641
 30
0.0
 11
187.199339116439
 21
169.8925577345237
 31
0.0
  0
MTEXT
  5
68E2
330
68A8
100
AcDbEntity
  8
30
  6
Continuous
 62
     0
100
AcDbMText
 10
201.1028654476875
 20
184.8674732328641
 30
0.0
 40
4.0
 41
0.0
 71
     5
 72
     1
  1
\A1;\U+22059
 73
     1
 44
1.0
  0
INSERT
  5
68E3
330
68A8
100
AcDbEntity
  8
30
  6
Continuous
 62
     0
370
    -2
100
AcDbBlockReference
  2
_OPEN
 10
185.9507239869962
 20
168.3302004583137
 30
0.0
 41
2.0
 42
2.0
 43
2.0
 50
231.3686174259938
  0
LINE
  5
68E4
330
68A8
100
AcDbEntity
  8
30
  6
Continuous
 62
     0
370
    -2
100
AcDbLine
 10
183.0513399457498
 20
164.814896586841
 30
0.0
 11
183.2313399457498
 21
164.814896586841
 31
0.0
  0
LINE
  5
68E5
330
68A8
100
AcDbEntity
  8
30
  6
Continuous
 62
     0
370
    -2
100
AcDbLine
 10
183.1413399457498
 20
164.7248965868411
 30
0.0
 11
183.1413399457498
 21
164.9048965868411
 31
0.0
  0
POINT
  5
68E6
330
68A8
100
AcDbEntity
  8
DEFPOINTS
  6
Continuous
 62
     0
100
AcDbPoint
 10
185.9507239869962
 20
168.3302004583137
 30
0.0
  0
POINT
  5
68E7
330
68A8
100
AcDbEntity
  8
DEFPOINTS
  6
Continuous
 62
     0
100
AcDbPoint
 10
180.3319559045034
 20
161.2995927153684
 30
0.0
  0
ENDBLK
  5
68B2
330
68A8
100
AcDbEntity
  8
0
100
AcDbBlockEnd
  0
BLOCK
  5
6A70
330
6A66
100
AcDbEntity
  8
0
100
AcDbBlockBegin
  2
*D20
 70
     1
 10
0.0
 20
0.0
 30
0.0
  3
*D20
  1

  0
LINE
  5
75FA
330
6A66
100
AcDbEntity
  8
30
  6
Continuous
 62
     0
370
    -2
100
AcDbLine
 10
-38.50004299999998
 20
222.0
 30
0.0
 11
-54.33820679239232
 21
222.0
 31
0.0
  0
LINE
  5
75FB
330
6A66
100
AcDbEntity
  8
30
  6
Continuous
 62
     0
370
    -2
100
AcDbLine
 10
-7.050003499999981
 20
138.0
 30
0.0
 11
-54.33820679239235
 21
138.0
 31
0.0
  0
LINE
  5
75FC
330
6A66
100
AcDbEntity
  8
30
  6
Continuous
 62
     0
370
    -2
100
AcDbLine
 10
-53.83820679239232
 20
220.0
 30
0.0
 11
-53.83820679239235
 21
140.0
 31
0.0
  0
INSERT
  5
75FD
330
6A66
100
AcDbEntity
  8
30
  6
Continuous
 62
     0
370
    -2
100
AcDbBlockReference
  2
_OPEN
 10
-53.83820679239232
 20
222.0
 30
0.0
 41
2.0
 42
2.0
 43
2.0
 50
90.0
  0
INSERT
  5
75FE
330
6A66
100
AcDbEntity
  8
30
  6
Continuous
 62
     0
370
    -2
100
AcDbBlockReference
  2
_OPEN
 10
-53.83820679239235
 20
138.0
 30
0.0
 41
2.0
 42
2.0
 43
2.0
 50
270.0
  0
MTEXT
  5
75FF
330
6A66
100
AcDbEntity
  8
30
  6
Continuous
 62
     0
100
AcDbMText
 10
-56.83820679239236
 20
180.0
 30
0.0
 40
4.0
 41
0.0
 71
     5
 72
     1
  1
\A1;84
 11
0.0000000000000001
 21
1.0
 31
0.0
 73
     1
 44
1.0
  0
POINT
  5
7600
330
6A66
100
AcDbEntity
  8
DEFPOINTS
  6
Continuous
 62
     0
100
AcDbPoint
 10
-37.50004299999998
 20
222.0
 30
0.0
  0
POINT
  5
7601
330
6A66
100
AcDbEntity
  8
DEFPOINTS
  6
Continuous
 62
     0
100
AcDbPoint
 10
-6.050003499999981
 20
138.0
 30
0.0
  0
POINT
  5
7602
330
6A66
100
AcDbEntity
  8
DEFPOINTS
  6
Continuous
 62
     0
100
AcDbPoint
 10
-53.83820679239235
 20
138.0
 30
0.0
  0
ENDBLK
  5
6A71
330
6A66
100
AcDbEntity
  8
0
100
AcDbBlockEnd
  0
BLOCK
  5
6A7C
330
6A72
100
AcDbEntity
  8
0
100
AcDbBlockBegin
  2
*D21
 70
     1
 10
0.0
 20
0.0
 30
0.0
  3
*D21
  1

  0
LINE
  5
75F1
330
6A72
100
AcDbEntity
  8
30
  6
Continuous
 62
     0
370
    -2
100
AcDbLine
 10
-43.50009700000007
 20
221.9999999999999
 30
0.0
 11
-46.15940379239231
 21
221.9999999999999
 31
0.0
  0
LINE
  5
75F2
330
6A72
100
AcDbEntity
  8
30
  6
Continuous
 62
     0
370
    -2
100
AcDbLine
 10
-37.40001400000003
 20
162.0000589999999
 30
0.0
 11
-46.15940379239233
 21
162.0000589999999
 31
0.0
  0
LINE
  5
75F3
330
6A72
100
AcDbEntity
  8
30
  6
Continuous
 62
     0
370
    -2
100
AcDbLine
 10
-45.65940379239231
 20
219.9999999999999
 30
0.0
 11
-45.65940379239232
 21
164.0000589999999
 31
0.0
  0
INSERT
  5
75F4
330
6A72
100
AcDbEntity
  8
30
  6
Continuous
 62
     0
370
    -2
100
AcDbBlockReference
  2
_OPEN
 10
-45.65940379239231
 20
221.9999999999999
 30
0.0
 41
2.0
 42
2.0
 43
2.0
 50
90.0
  0
INSERT
  5
75F5
330
6A72
100
AcDbEntity
  8
30
  6
Continuous
 62
     0
370
    -2
100
AcDbBlockReference
  2
_OPEN
 10
-45.65940379239232
 20
162.0000589999999
 30
0.0
 41
2.0
 42
2.0
 43
2.0
 50
270.0
  0
MTEXT
  5
75F6
330
6A72
100
AcDbEntity
  8
30
  6
Continuous
 62
     0
100
AcDbMText
 10
-48.65940379239234
 20
192.00003
 30
0.0
 40
4.0
 41
0.0
 71
     5
 72
     1
  1
\A1;60
 11
0.0000000000000001
 21
1.0
 31
0.0
 73
     1
 44
1.0
  0
POINT
  5
75F7
330
6A72
100
AcDbEntity
  8
DEFPOINTS
  6
Continuous
 62
     0
100
AcDbPoint
 10
-42.50009700000007
 20
221.9999999999999
 30
0.0
  0
POINT
  5
75F8
330
6A72
100
AcDbEntity
  8
DEFPOINTS
  6
Continuous
 62
     0
100
AcDbPoint
 10
-36.40001400000003
 20
162.0000589999999
 30
0.0
  0
POINT
  5
75F9
330
6A72
100
AcDbEntity
  8
DEFPOINTS
  6
Continuous
 62
     0
100
AcDbPoint
 10
-45.65940379239232
 20
162.0000589999999
 30
0.0
  0
ENDBLK
  5
6A7D
330
6A72
100
AcDbEntity
  8
0
100
AcDbBlockEnd
  0
BLOCK
  5
6A88
330
6A7E
100
AcDbEntity
  8
0
100
AcDbBlockBegin
  2
*D22
 70
     1
 10
0.0
 20
0.0
 30
0.0
  3
*D22
  1

  0
LINE
  5
75E8
330
6A7E
100
AcDbEntity
  8
30
  6
Continuous
 62
     0
370
    -2
100
AcDbLine
 10
-38.00004299999998
 20
161.9999999999999
 30
0.0
 11
-46.15940379239232
 21
161.9999999999999
 31
0.0
  0
LINE
  5
75E9
330
6A7E
100
AcDbEntity
  8
30
  6
Continuous
 62
     0
370
    -2
100
AcDbLine
 10
-38.38185199999996
 20
154.0
 30
0.0
 11
-46.15940379239232
 21
154.0
 31
0.0
  0
LINE
  5
75EA
330
6A7E
100
AcDbEntity
  8
30
  6
Continuous
 62
     0
370
    -2
100
AcDbLine
 10
-45.65940379239232
 20
159.9999999999999
 30
0.0
 11
-45.65940379239232
 21
156.0
 31
0.0
  0
INSERT
  5
75EB
330
6A7E
100
AcDbEntity
  8
30
  6
Continuous
 62
     0
370
    -2
100
AcDbBlockReference
  2
_OPEN
 10
-45.65940379239232
 20
161.9999999999999
 30
0.0
 41
2.0
 42
2.0
 43
2.0
 50
90.0
  0
INSERT
  5
75EC
330
6A7E
100
AcDbEntity
  8
30
  6
Continuous
 62
     0
370
    -2
100
AcDbBlockReference
  2
_OPEN
 10
-45.65940379239232
 20
154.0
 30
0.0
 41
2.0
 42
2.0
 43
2.0
 50
270.0
  0
MTEXT
  5
75ED
330
6A7E
100
AcDbEntity
  8
30
  6
Continuous
 62
     0
100
AcDbMText
 10
-48.65940379239234
 20
158.0
 30
0.0
 40
4.0
 41
0.0
 71
     5
 72
     1
  1
\A1;8
 11
0.0000000000000001
 21
1.0
 31
0.0
 73
     1
 44
1.0
  0
POINT
  5
75EE
330
6A7E
100
AcDbEntity
  8
DEFPOINTS
  6
Continuous
 62
     0
100
AcDbPoint
 10
-37.00004299999998
 20
161.9999999999999
 30
0.0
  0
POINT
  5
75EF
330
6A7E
100
AcDbEntity
  8
DEFPOINTS
  6
Continuous
 62
     0
100
AcDbPoint
 10
-37.38185199999996
 20
154.0
 30
0.0
  0
POINT
  5
75F0
330
6A7E
100
AcDbEntity
  8
DEFPOINTS
  6
Continuous
 62
     0
100
AcDbPoint
 10
-45.65940379239232
 20
154.0
 30
0.0
  0
ENDBLK
  5
6A89
330
6A7E
100
AcDbEntity
  8
0
100
AcDbBlockEnd
  0
BLOCK
  5
6A96
330
6A8A
100
AcDbEntity
  8
0
100
AcDbBlockBegin
  2
*D23
 70
     1
 10
0.0
 20
0.0
 30
0.0
  3
*D23
  1

  0
LINE
  5
75DD
330
6A8A
100
AcDbEntity
  8
30
  6
Continuous
 62
     0
370
    -2
100
AcDbLine
 10
-38.38185199999996
 20
154.0
 30
0.0
 11
-46.15940379239247
 21
154.0
 31
0.0
  0
LINE
  5
75DE
330
6A8A
100
AcDbEntity
  8
30
  6
Continuous
 62
     0
370
    -2
100
AcDbLine
 10
-37.38185199999996
 20
150.0
 30
0.0
 11
-46.15940379239247
 21
150.0
 31
0.0
  0
LINE
  5
75DF
330
6A8A
100
AcDbEntity
  8
30
  6
Continuous
 62
     0
370
    -2
100
AcDbLine
 10
-45.65940379239246
 20
156.0
 30
0.0
 11
-45.65940379239246
 21
158.0
 31
0.0
  0
LINE
  5
75E0
330
6A8A
100
AcDbEntity
  8
30
  6
Continuous
 62
     0
370
    -2
100
AcDbLine
 10
-45.65940379239246
 20
148.0
 30
0.0
 11
-45.65940379239247
 21
140.8453278466667
 31
0.0
  0
LINE
  5
75E1
330
6A8A
100
AcDbEntity
  8
30
  6
Continuous
 62
     0
370
    -2
100
AcDbLine
 10
-45.65940379239247
 20
140.8453278466667
 30
0.0
 11
-49.32607045905914
 21
140.8453278466667
 31
0.0
  0
INSERT
  5
75E2
330
6A8A
100
AcDbEntity
  8
30
  6
Continuous
 62
     0
370
    -2
100
AcDbBlockReference
  2
_OPEN
 10
-45.65940379239246
 20
154.0
 30
0.0
 41
2.0
 42
2.0
 43
2.0
 50
270.0
  0
INSERT
  5
75E3
330
6A8A
100
AcDbEntity
  8
30
  6
Continuous
 62
     0
370
    -2
100
AcDbBlockReference
  2
_OPEN
 10
-45.65940379239246
 20
150.0
 30
0.0
 41
2.0
 42
2.0
 43
2.0
 50
90.0
  0
MTEXT
  5
75E4
330
6A8A
100
AcDbEntity
  8
30
  6
Continuous
 62
     0
100
AcDbMText
 10
-47.99273712572583
 20
143.8453278466667
 30
0.0
 40
4.0
 41
0.0
 71
     5
 72
     1
  1
\A1;4
 73
     1
 44
1.0
  0
POINT
  5
75E5
330
6A8A
100
AcDbEntity
  8
DEFPOINTS
  6
Continuous
 62
     0
100
AcDbPoint
 10
-37.38185199999996
 20
154.0
 30
0.0
  0
POINT
  5
75E6
330
6A8A
100
AcDbEntity
  8
DEFPOINTS
  6
Continuous
 62
     0
100
AcDbPoint
 10
-36.38185199999996
 20
150.0
 30
0.0
  0
POINT
  5
75E7
330
6A8A
100
AcDbEntity
  8
DEFPOINTS
  6
Continuous
 62
     0
100
AcDbPoint
 10
-45.65940379239246
 20
150.0
 30
0.0
  0
ENDBLK
  5
6A97
330
6A8A
100
AcDbEntity
  8
0
100
AcDbBlockEnd
  0
BLOCK
  5
6AA2
330
6A98
100
AcDbEntity
  8
0
100
AcDbBlockBegin
  2
*D24
 70
     1
 10
0.0
 20
0.0
 30
0.0
  3
*D24
  1

  0
LINE
  5
780B
330
6A98
100
AcDbEntity
  8
30
  6
Continuous
 62
     0
370
    -2
100
AcDbLine
 10
38.481748
 20
222.0
 30
0.0
 11
46.29954771902377
 21
222.0
 31
0.0
  0
LINE
  5
780C
330
6A98
100
AcDbEntity
  8
30
  6
Continuous
 62
     0
370
    -2
100
AcDbLine
 10
30.8818505
 20
198.0
 30
0.0
 11
46.29954771902376
 21
198.0
 31
0.0
  0
LINE
  5
780D
330
6A98
100
AcDbEntity
  8
30
  6
Continuous
 62
     0
370
    -2
100
AcDbLine
 10
45.79954771902377
 20
220.0
 30
0.0
 11
45.79954771902376
 21
200.0
 31
0.0
  0
INSERT
  5
780E
330
6A98
100
AcDbEntity
  8
30
  6
Continuous
 62
     0
370
    -2
100
AcDbBlockReference
  2
_OPEN
 10
45.79954771902377
 20
222.0
 30
0.0
 41
2.0
 42
2.0
 43
2.0
 50
90.0
  0
INSERT
  5
780F
330
6A98
100
AcDbEntity
  8
30
  6
Continuous
 62
     0
370
    -2
100
AcDbBlockReference
  2
_OPEN
 10
45.79954771902376
 20
198.0
 30
0.0
 41
2.0
 42
2.0
 43
2.0
 50
270.0
  0
MTEXT
  5
7810
330
6A98
100
AcDbEntity
  8
30
  6
Continuous
 62
     0
100
AcDbMText
 10
42.79954771902374
 20
210.0
 30
0.0
 40
4.0
 41
0.0
 71
     5
 72
     1
  1
\A1;24
 11
0.0000000000000001
 21
1.0
 31
0.0
 73
     1
 44
1.0
  0
POINT
  5
7811
330
6A98
100
AcDbEntity
  8
DEFPOINTS
  6
Continuous
 62
     0
100
AcDbPoint
 10
37.481748
 20
222.0
 30
0.0
  0
POINT
  5
7812
330
6A98
100
AcDbEntity
  8
DEFPOINTS
  6
Continuous
 62
     0
100
AcDbPoint
 10
29.8818505
 20
198.0
 30
0.0
  0
POINT
  5
7813
330
6A98
100
AcDbEntity
  8
DEFPOINTS
  6
Continuous
 62
     0
100
AcDbPoint
 10
45.79954771902376
 20
198.0
 30
0.0
  0
ENDBLK
  5
6AA3
330
6A98
100
AcDbEntity
  8
0
100
AcDbBlockEnd
  0
BLOCK
  5
6E6B
330
6E61
100
AcDbEntity
  8
0
100
AcDbBlockBegin
  2
*D25
 70
     1
 10
0.0
 20
0.0
 30
0.0
  3
*D25
  1

  0
LINE
  5
757C
330
6E61
100
AcDbEntity
  8
30
  6
Continuous
 62
     0
370
    -2
100
AcDbLine
 10
15.70005999999999
 20
100.0000009999999
 30
0.0
 11
66.20401600000002
 21
100.0000009999999
 31
0.0
  0
LINE
  5
757D
330
6E61
100
AcDbEntity
  8
30
  6
Continuous
 62
     0
370
    -2
100
AcDbLine
 10
36.69987900000001
 20
50.00000099999994
 30
0.0
 11
66.204016
 21
50.00000099999994
 31
0.0
  0
LINE
  5
757E
330
6E61
100
AcDbEntity
  8
30
  6
Continuous
 62
     0
370
    -2
100
AcDbLine
 10
65.70401600000002
 20
98.00000099999992
 30
0.0
 11
65.70401600000001
 21
52.00000099999993
 31
0.0
  0
INSERT
  5
757F
330
6E61
100
AcDbEntity
  8
30
  6
Continuous
 62
     0
370
    -2
100
AcDbBlockReference
  2
_OPEN
 10
65.70401600000002
 20
100.0000009999999
 30
0.0
 41
2.0
 42
2.0
 43
2.0
 50
90.0
  0
INSERT
  5
7580
330
6E61
100
AcDbEntity
  8
30
  6
Continuous
 62
     0
370
    -2
100
AcDbBlockReference
  2
_OPEN
 10
65.70401600000001
 20
50.00000099999994
 30
0.0
 41
2.0
 42
2.0
 43
2.0
 50
270.0
  0
MTEXT
  5
7581
330
6E61
100
AcDbEntity
  8
30
  6
Continuous
 62
     0
100
AcDbMText
 10
62.704016
 20
75.25000099999994
 30
0.0
 40
4.0
 41
0.0
 71
     5
 72
     1
  1
\A1;50
 11
0.0000000000000001
 21
1.0
 31
0.0
 73
     1
 44
1.0
  0
POINT
  5
7582
330
6E61
100
AcDbEntity
  8
DEFPOINTS
  6
Continuous
 62
     0
100
AcDbPoint
 10
14.70005999999999
 20
100.0000009999999
 30
0.0
  0
POINT
  5
7583
330
6E61
100
AcDbEntity
  8
DEFPOINTS
  6
Continuous
 62
     0
100
AcDbPoint
 10
35.699879
 20
50.00000099999994
 30
0.0
  0
POINT
  5
7584
330
6E61
100
AcDbEntity
  8
DEFPOINTS
  6
Continuous
 62
     0
100
AcDbPoint
 10
65.70401600000001
 20
50.00000099999994
 30
0.0
  0
ENDBLK
  5
6E6C
330
6E61
100
AcDbEntity
  8
0
100
AcDbBlockEnd
  0
BLOCK
  5
6E79
330
6E6D
100
AcDbEntity
  8
0
100
AcDbBlockBegin
  2
*D26
 70
     1
 10
0.0
 20
0.0
 30
0.0
  3
*D26
  1

  0
LINE
  5
7573
330
6E6D
100
AcDbEntity
  8
30
  6
Continuous
 62
     0
370
    -2
100
AcDbLine
 10
32.07499700000003
 20
-42.00000100000005
 30
0.0
 11
57.01275400000002
 21
-42.00000100000006
 31
0.0
  0
LINE
  5
7574
330
6E6D
100
AcDbEntity
  8
30
  6
Continuous
 62
     0
370
    -2
100
AcDbLine
 10
35.20704800000001
 20
-50.00000200000002
 30
0.0
 11
57.01275400000001
 21
-50.00000200000003
 31
0.0
  0
LINE
  5
7575
330
6E6D
100
AcDbEntity
  8
30
  6
Continuous
 62
     0
370
    -2
100
AcDbLine
 10
56.51275400000002
 20
-44.00000100000005
 30
0.0
 11
56.51275400000002
 21
-48.00000200000003
 31
0.0
  0
INSERT
  5
7576
330
6E6D
100
AcDbEntity
  8
30
  6
Continuous
 62
     0
370
    -2
100
AcDbBlockReference
  2
_OPEN
 10
56.51275400000002
 20
-42.00000100000006
 30
0.0
 41
2.0
 42
2.0
 43
2.0
 50
90.0
  0
INSERT
  5
7577
330
6E6D
100
AcDbEntity
  8
30
  6
Continuous
 62
     0
370
    -2
100
AcDbBlockReference
  2
_OPEN
 10
56.51275400000002
 20
-50.00000200000003
 30
0.0
 41
2.0
 42
2.0
 43
2.0
 50
270.0
  0
MTEXT
  5
7578
330
6E6D
100
AcDbEntity
  8
30
  6
Continuous
 62
     0
100
AcDbMText
 10
53.51275400000003
 20
-46.12500150000003
 30
0.0
 40
4.0
 41
0.0
 71
     5
 72
     1
  1
\A1;8
 11
0.0000000000000001
 21
1.0
 31
0.0
 73
     1
 44
1.0
  0
POINT
  5
7579
330
6E6D
100
AcDbEntity
  8
DEFPOINTS
  6
Continuous
 62
     0
100
AcDbPoint
 10
31.07499700000002
 20
-42.00000100000005
 30
0.0
  0
POINT
  5
757A
330
6E6D
100
AcDbEntity
  8
DEFPOINTS
  6
Continuous
 62
     0
100
AcDbPoint
 10
34.20704800000001
 20
-50.00000200000002
 30
0.0
  0
POINT
  5
757B
330
6E6D
100
AcDbEntity
  8
DEFPOINTS
  6
Continuous
 62
     0
100
AcDbPoint
 10
56.51275400000002
 20
-50.00000200000003
 30
0.0
  0
ENDBLK
  5
6E7A
330
6E6D
100
AcDbEntity
  8
0
100
AcDbBlockEnd
  0
BLOCK
  5
6E87
330
6E7B
100
AcDbEntity
  8
0
100
AcDbBlockBegin
  2
*D27
 70
     1
 10
0.0
 20
0.0
 30
0.0
  3
*D27
  1

  0
LINE
  5
7546
330
6E7B
100
AcDbEntity
  8
30
  6
Continuous
 62
     0
370
    -2
100
AcDbLine
 10
36.69987800000001
 20
50.00000099999994
 30
0.0
 11
57.01275400000004
 21
50.00000099999994
 31
0.0
  0
LINE
  5
7547
330
6E7B
100
AcDbEntity
  8
30
  6
Continuous
 62
     0
370
    -2
100
AcDbLine
 10
32.07499700000002
 20
40.0
 30
0.0
 11
57.01275400000003
 21
39.99999999999999
 31
0.0
  0
LINE
  5
7548
330
6E7B
100
AcDbEntity
  8
30
  6
Continuous
 62
     0
370
    -2
100
AcDbLine
 10
56.51275400000004
 20
48.00000099999993
 30
0.0
 11
56.51275400000003
 21
41.99999999999999
 31
0.0
  0
INSERT
  5
7549
330
6E7B
100
AcDbEntity
  8
30
  6
Continuous
 62
     0
370
    -2
100
AcDbBlockReference
  2
_OPEN
 10
56.51275400000004
 20
50.00000099999994
 30
0.0
 41
2.0
 42
2.0
 43
2.0
 50
90.0
  0
INSERT
  5
754A
330
6E7B
100
AcDbEntity
  8
30
  6
Continuous
 62
     0
370
    -2
100
AcDbBlockReference
  2
_OPEN
 10
56.51275400000003
 20
39.99999999999999
 30
0.0
 41
2.0
 42
2.0
 43
2.0
 50
270.0
  0
MTEXT
  5
754B
330
6E7B
100
AcDbEntity
  8
30
  6
Continuous
 62
     0
100
AcDbMText
 10
53.51275400000003
 20
45.12500049999998
 30
0.0
 40
4.0
 41
0.0
 71
     5
 72
     1
  1
\A1;10
 11
0.0000000000000001
 21
1.0
 31
0.0
 73
     1
 44
1.0
  0
POINT
  5
754C
330
6E7B
100
AcDbEntity
  8
DEFPOINTS
  6
Continuous
 62
     0
100
AcDbPoint
 10
35.69987800000001
 20
50.00000099999994
 30
0.0
  0
POINT
  5
754D
330
6E7B
100
AcDbEntity
  8
DEFPOINTS
  6
Continuous
 62
     0
100
AcDbPoint
 10
31.07499700000003
 20
40.0
 30
0.0
  0
POINT
  5
754E
330
6E7B
100
AcDbEntity
  8
DEFPOINTS
  6
Continuous
 62
     0
100
AcDbPoint
 10
56.51275400000003
 20
39.99999999999999
 30
0.0
  0
ENDBLK
  5
6E88
330
6E7B
100
AcDbEntity
  8
0
100
AcDbBlockEnd
  0
BLOCK
  5
6E93
330
6E89
100
AcDbEntity
  8
0
100
AcDbBlockBegin
  2
*D28
 70
     1
 10
0.0
 20
0.0
 30
0.0
  3
*D28
  1

  0
LINE
  5
6FA4
330
6E89
100
AcDbEntity
  8
30
  6
Continuous
 62
     0
370
    -2
100
AcDbLine
 10
32.07499700000002
 20
40.0
 30
0.0
 11
57.01275400000003
 21
39.99999999999999
 31
0.0
  0
LINE
  5
6FA5
330
6E89
100
AcDbEntity
  8
30
  6
Continuous
 62
     0
370
    -2
100
AcDbLine
 10
42.71915799999999
 20
-0.0000000000000003
 30
0.0
 11
57.01275400000003
 21
-0.0000000000000043
 31
0.0
  0
LINE
  5
6FA6
330
6E89
100
AcDbEntity
  8
30
  6
Continuous
 62
     0
370
    -2
100
AcDbLine
 10
56.51275400000003
 20
37.99999999999999
 30
0.0
 11
56.51275400000002
 21
1.999999999999995
 31
0.0
  0
INSERT
  5
6FA7
330
6E89
100
AcDbEntity
  8
30
  6
Continuous
 62
     0
370
    -2
100
AcDbBlockReference
  2
_OPEN
 10
56.51275400000003
 20
39.99999999999999
 30
0.0
 41
2.0
 42
2.0
 43
2.0
 50
90.0
  0
INSERT
  5
6FA8
330
6E89
100
AcDbEntity
  8
30
  6
Continuous
 62
     0
370
    -2
100
AcDbBlockReference
  2
_OPEN
 10
56.51275400000002
 20
-0.0000000000000042
 30
0.0
 41
2.0
 42
2.0
 43
2.0
 50
270.0
  0
MTEXT
  5
6FA9
330
6E89
100
AcDbEntity
  8
30
  6
Continuous
 62
     0
100
AcDbMText
 10
53.51275400000003
 20
20.0
 30
0.0
 40
4.0
 41
0.0
 71
     5
 72
     1
  1
\A1;40
 11
0.0000000000000001
 21
1.0
 31
0.0
 73
     1
 44
1.0
  0
POINT
  5
6FAA
330
6E89
100
AcDbEntity
  8
DEFPOINTS
  6
Continuous
 62
     0
100
AcDbPoint
 10
31.07499700000003
 20
40.0
 30
0.0
  0
POINT
  5
6FAB
330
6E89
100
AcDbEntity
  8
DEFPOINTS
  6
Continuous
 62
     0
100
AcDbPoint
 10
41.71915799999999
 20
0.0
 30
0.0
  0
POINT
  5
6FAC
330
6E89
100
AcDbEntity
  8
DEFPOINTS
  6
Continuous
 62
     0
100
AcDbPoint
 10
56.51275400000002
 20
-0.0000000000000042
 30
0.0
  0
ENDBLK
  5
6E94
330
6E89
100
AcDbEntity
  8
0
100
AcDbBlockEnd
  0
BLOCK
  5
6E9F
330
6E95
100
AcDbEntity
  8
0
100
AcDbBlockBegin
  2
*D29
 70
     1
 10
0.0
 20
0.0
 30
0.0
  3
*D29
  1

  0
LINE
  5
6F9B
330
6E95
100
AcDbEntity
  8
30
  6
Continuous
 62
     0
370
    -2
100
AcDbLine
 10
42.71915799999999
 20
-0.0000000000000003
 30
0.0
 11
57.01275400000003
 21
-0.0000000000000043
 31
0.0
  0
LINE
  5
6F9C
330
6E95
100
AcDbEntity
  8
30
  6
Continuous
 62
     0
370
    -2
100
AcDbLine
 10
32.07499700000003
 20
-42.00000100000005
 30
0.0
 11
57.01275400000002
 21
-42.00000100000006
 31
0.0
  0
LINE
  5
6F9D
330
6E95
100
AcDbEntity
  8
30
  6
Continuous
 62
     0
370
    -2
100
AcDbLine
 10
56.51275400000002
 20
-2.000000000000003
 30
0.0
 11
56.51275400000002
 21
-40.00000100000006
 31
0.0
  0
INSERT
  5
6F9E
330
6E95
100
AcDbEntity
  8
30
  6
Continuous
 62
     0
370
    -2
100
AcDbBlockReference
  2
_OPEN
 10
56.51275400000002
 20
-0.0000000000000042
 30
0.0
 41
2.0
 42
2.0
 43
2.0
 50
90.0
  0
INSERT
  5
6F9F
330
6E95
100
AcDbEntity
  8
30
  6
Continuous
 62
     0
370
    -2
100
AcDbBlockReference
  2
_OPEN
 10
56.51275400000002
 20
-42.00000100000006
 30
0.0
 41
2.0
 42
2.0
 43
2.0
 50
270.0
  0
MTEXT
  5
6FA0
330
6E95
100
AcDbEntity
  8
30
  6
Continuous
 62
     0
100
AcDbMText
 10
53.51275400000003
 20
-21.0
 30
0.0
 40
4.0
 41
0.0
 71
     5
 72
     1
  1
\A1;42
 11
0.0000000000000001
 21
1.0
 31
0.0
 73
     1
 44
1.0
  0
POINT
  5
6FA1
330
6E95
100
AcDbEntity
  8
DEFPOINTS
  6
Continuous
 62
     0
100
AcDbPoint
 10
41.71915799999999
 20
0.0
 30
0.0
  0
POINT
  5
6FA2
330
6E95
100
AcDbEntity
  8
DEFPOINTS
  6
Continuous
 62
     0
100
AcDbPoint
 10
31.07499700000002
 20
-42.00000100000005
 30
0.0
  0
POINT
  5
6FA3
330
6E95
100
AcDbEntity
  8
DEFPOINTS
  6
Continuous
 62
     0
100
AcDbPoint
 10
56.51275400000002
 20
-42.00000100000006
 30
0.0
  0
ENDBLK
  5
6EA0
330
6E95
100
AcDbEntity
  8
0
100
AcDbBlockEnd
  0
BLOCK
  5
6EB7
330
6EAD
100
AcDbEntity
  8
0
100
AcDbBlockBegin
  2
*D30
 70
     1
 10
0.0
 20
0.0
 30
0.0
  3
*D30
  1

  0
LINE
  5
754F
330
6EAD
100
AcDbEntity
  8
30
  6
Continuous
 62
     0
370
    -2
100
AcDbLine
 10
36.69987900000001
 20
50.00000099999994
 30
0.0
 11
66.204016
 21
50.00000099999994
 31
0.0
  0
LINE
  5
7550
330
6EAD
100
AcDbEntity
  8
30
  6
Continuous
 62
     0
370
    -2
100
AcDbLine
 10
34.499941
 20
-50.00000200000002
 30
0.0
 11
66.20401599999998
 21
-50.00000200000003
 31
0.0
  0
LINE
  5
7551
330
6EAD
100
AcDbEntity
  8
30
  6
Continuous
 62
     0
370
    -2
100
AcDbLine
 10
65.70401600000001
 20
48.00000099999993
 30
0.0
 11
65.70401599999998
 21
-48.00000200000003
 31
0.0
  0
INSERT
  5
7552
330
6EAD
100
AcDbEntity
  8
30
  6
Continuous
 62
     0
370
    -2
100
AcDbBlockReference
  2
_OPEN
 10
65.70401600000001
 20
50.00000099999994
 30
0.0
 41
2.0
 42
2.0
 43
2.0
 50
90.0
  0
INSERT
  5
7553
330
6EAD
100
AcDbEntity
  8
30
  6
Continuous
 62
     0
370
    -2
100
AcDbBlockReference
  2
_OPEN
 10
65.70401599999998
 20
-50.00000200000003
 30
0.0
 41
2.0
 42
2.0
 43
2.0
 50
270.0
  0
MTEXT
  5
7554
330
6EAD
100
AcDbEntity
  8
30
  6
Continuous
 62
     0
100
AcDbMText
 10
62.70401599999999
 20
0.000000999999941
 30
0.0
 40
4.0
 41
0.0
 71
     5
 72
     1
  1
\A1;100
 11
0.0000000000000001
 21
1.0
 31
0.0
 73
     1
 44
1.0
  0
POINT
  5
7555
330
6EAD
100
AcDbEntity
  8
DEFPOINTS
  6
Continuous
 62
     0
100
AcDbPoint
 10
35.699879
 20
50.00000099999994
 30
0.0
  0
POINT
  5
7556
330
6EAD
100
AcDbEntity
  8
DEFPOINTS
  6
Continuous
 62
     0
100
AcDbPoint
 10
33.499941
 20
-50.00000200000002
 30
0.0
  0
POINT
  5
7557
330
6EAD
100
AcDbEntity
  8
DEFPOINTS
  6
Continuous
 62
     0
100
AcDbPoint
 10
65.70401599999998
 20
-50.00000200000003
 30
0.0
  0
ENDBLK
  5
6EB8
330
6EAD
100
AcDbEntity
  8
0
100
AcDbBlockEnd
  0
BLOCK
  5
6EC3
330
6EB9
100
AcDbEntity
  8
0
100
AcDbBlockBegin
  2
*D31
 70
     1
 10
0.0
 20
0.0
 30
0.0
  3
*D31
  1

  0
LINE
  5
7510
330
6EB9
100
AcDbEntity
  8
30
  6
Continuous
 62
     0
370
    -2
100
AcDbLine
 10
7.600002000000016
 20
-42.01091400000004
 30
0.0
 11
-57.83408699999999
 21
-42.01091400000001
 31
0.0
  0
LINE
  5
7511
330
6EB9
100
AcDbEntity
  8
30
  6
Continuous
 62
     0
370
    -2
100
AcDbLine
 10
-16.95001599999998
 20
41.99993999999999
 30
0.0
 11
-57.83408699999998
 21
41.99993999999999
 31
0.0
  0
LINE
  5
7512
330
6EB9
100
AcDbEntity
  8
30
  6
Continuous
 62
     0
370
    -2
100
AcDbLine
 10
-57.334087
 20
-40.01091400000002
 30
0.0
 11
-57.33408699999998
 21
39.99993999999999
 31
0.0
  0
INSERT
  5
7513
330
6EB9
100
AcDbEntity
  8
30
  6
Continuous
 62
     0
370
    -2
100
AcDbBlockReference
  2
_OPEN
 10
-57.334087
 20
-42.01091400000001
 30
0.0
 41
2.0
 42
2.0
 43
2.0
 50
270.0
  0
INSERT
  5
7514
330
6EB9
100
AcDbEntity
  8
30
  6
Continuous
 62
     0
370
    -2
100
AcDbBlockReference
  2
_OPEN
 10
-57.33408699999998
 20
41.99993999999999
 30
0.0
 41
2.0
 42
2.0
 43
2.0
 50
90.0
  0
MTEXT
  5
7515
330
6EB9
100
AcDbEntity
  8
30
  6
Continuous
 62
     0
100
AcDbMText
 10
-60.33408699999998
 20
-0.0054860000000755
 30
0.0
 40
4.0
 41
0.0
 71
     5
 72
     1
  1
\A1;84
 11
0.0000000000000001
 21
1.0
 31
0.0
 73
     1
 44
1.0
  0
POINT
  5
7516
330
6EB9
100
AcDbEntity
  8
DEFPOINTS
  6
Continuous
 62
     0
100
AcDbPoint
 10
8.600002000000017
 20
-42.01091400000004
 30
0.0
  0
POINT
  5
7517
330
6EB9
100
AcDbEntity
  8
DEFPOINTS
  6
Continuous
 62
     0
100
AcDbPoint
 10
-15.95001599999999
 20
41.99993999999998
 30
0.0
  0
POINT
  5
7518
330
6EB9
100
AcDbEntity
  8
DEFPOINTS
  6
Continuous
 62
     0
100
AcDbPoint
 10
-57.33408699999998
 20
41.99993999999999
 30
0.0
  0
ENDBLK
  5
6EC4
330
6EB9
100
AcDbEntity
  8
0
100
AcDbBlockEnd
  0
BLOCK
  5
6ECF
330
6EC5
100
AcDbEntity
  8
0
100
AcDbBlockBegin
  2
*D32
 70
     1
 10
0.0
 20
0.0
 30
0.0
  3
*D32
  1

  0
LINE
  5
6FC8
330
6EC5
100
AcDbEntity
  8
30
  6
Continuous
 62
     0
370
    -2
100
AcDbLine
 10
-36.00003099999999
 20
-25.00003200000003
 30
0.0
 11
-48.73976599999999
 21
-25.00003200000003
 31
0.0
  0
LINE
  5
6FC9
330
6EC5
100
AcDbEntity
  8
30
  6
Continuous
 62
     0
370
    -2
100
AcDbLine
 10
-36.00003099999999
 20
24.99996999999996
 30
0.0
 11
-48.73976599999998
 21
24.99996999999996
 31
0.0
  0
LINE
  5
6FCA
330
6EC5
100
AcDbEntity
  8
30
  6
Continuous
 62
     0
370
    -2
100
AcDbLine
 10
-48.23976599999999
 20
-23.00003200000003
 30
0.0
 11
-48.23976599999998
 21
22.99996999999996
 31
0.0
  0
INSERT
  5
6FCB
330
6EC5
100
AcDbEntity
  8
30
  6
Continuous
 62
     0
370
    -2
100
AcDbBlockReference
  2
_OPEN
 10
-48.23976599999999
 20
-25.00003200000003
 30
0.0
 41
2.0
 42
2.0
 43
2.0
 50
270.0
  0
INSERT
  5
6FCC
330
6EC5
100
AcDbEntity
  8
30
  6
Continuous
 62
     0
370
    -2
100
AcDbBlockReference
  2
_OPEN
 10
-48.23976599999998
 20
24.99996999999996
 30
0.0
 41
2.0
 42
2.0
 43
2.0
 50
90.0
  0
MTEXT
  5
6FCD
330
6EC5
100
AcDbEntity
  8
30
  6
Continuous
 62
     0
100
AcDbMText
 10
-51.23976599999998
 20
-0.0000320000000325
 30
0.0
 40
4.0
 41
0.0
 71
     5
 72
     1
  1
\A1;50
 11
0.0000000000000001
 21
1.0
 31
0.0
 73
     1
 44
1.0
  0
POINT
  5
6FCE
330
6EC5
100
AcDbEntity
  8
DEFPOINTS
  6
Continuous
 62
     0
100
AcDbPoint
 10
-35.00003099999999
 20
-25.00003200000003
 30
0.0
  0
POINT
  5
6FCF
330
6EC5
100
AcDbEntity
  8
DEFPOINTS
  6
Continuous
 62
     0
100
AcDbPoint
 10
-35.00003099999999
 20
24.99996999999996
 30
0.0
  0
POINT
  5
6FD0
330
6EC5
100
AcDbEntity
  8
DEFPOINTS
  6
Continuous
 62
     0
100
AcDbPoint
 10
-48.23976599999998
 20
24.99996999999996
 30
0.0
  0
ENDBLK
  5
6ED0
330
6EC5
100
AcDbEntity
  8
0
100
AcDbBlockEnd
  0
BLOCK
  5
6EDB
330
6ED1
100
AcDbEntity
  8
0
100
AcDbBlockBegin
  2
*D33
 70
     1
 10
0.0
 20
0.0
 30
0.0
  3
*D33
  1

  0
LINE
  5
756A
330
6ED1
100
AcDbEntity
  8
30
  6
Continuous
 62
     0
370
    -2
100
AcDbLine
 10
37.49993900000001
 20
-47.25000300000004
 30
0.0
 11
37.49993900000001
 21
-79.45399800000001
 31
0.0
  0
LINE
  5
756B
330
6ED1
100
AcDbEntity
  8
30
  6
Continuous
 62
     0
370
    -2
100
AcDbLine
 10
-37.50004699999999
 20
-47.25000300000004
 30
0.0
 11
-37.50004699999999
 21
-79.45399800000001
 31
0.0
  0
LINE
  5
756C
330
6ED1
100
AcDbEntity
  8
30
  6
Continuous
 62
     0
370
    -2
100
AcDbLine
 10
35.49993900000001
 20
-78.95399800000001
 30
0.0
 11
-35.50004699999999
 21
-78.95399800000001
 31
0.0
  0
INSERT
  5
756D
330
6ED1
100
AcDbEntity
  8
30
  6
Continuous
 62
     0
370
    -2
100
AcDbBlockReference
  2
_OPEN
 10
37.49993900000001
 20
-78.95399800000001
 30
0.0
 41
2.0
 42
2.0
 43
2.0
  0
INSERT
  5
756E
330
6ED1
100
AcDbEntity
  8
30
  6
Continuous
 62
     0
370
    -2
100
AcDbBlockReference
  2
_OPEN
 10
-37.50004699999999
 20
-78.95399800000001
 30
0.0
 41
2.0
 42
2.0
 43
2.0
 50
180.0
  0
MTEXT
  5
756F
330
6ED1
100
AcDbEntity
  8
30
  6
Continuous
 62
     0
100
AcDbMText
 10
-0.0000529999999939
 20
-75.95399800000001
 30
0.0
 40
4.0
 41
0.0
 71
     5
 72
     1
  1
\A1;75
 73
     1
 44
1.0
  0
POINT
  5
7570
330
6ED1
100
AcDbEntity
  8
DEFPOINTS
  6
Continuous
 62
     0
100
AcDbPoint
 10
37.49993900000001
 20
-46.25000300000005
 30
0.0
  0
POINT
  5
7571
330
6ED1
100
AcDbEntity
  8
DEFPOINTS
  6
Continuous
 62
     0
100
AcDbPoint
 10
-37.50004699999999
 20
-46.25000300000005
 30
0.0
  0
POINT
  5
7572
330
6ED1
100
AcDbEntity
  8
DEFPOINTS
  6
Continuous
 62
     0
100
AcDbPoint
 10
-37.50004699999999
 20
-78.95399800000001
 30
0.0
  0
ENDBLK
  5
6EDC
330
6ED1
100
AcDbEntity
  8
0
100
AcDbBlockEnd
  0
BLOCK
  5
6EE7
330
6EDD
100
AcDbEntity
  8
0
100
AcDbBlockBegin
  2
*D34
 70
     1
 10
0.0
 20
0.0
 30
0.0
  3
*D34
  1

  0
LINE
  5
7561
330
6EDD
100
AcDbEntity
  8
30
  6
Continuous
 62
     0
370
    -2
100
AcDbLine
 10
35.99993900000001
 20
-25.00003100000003
 30
0.0
 11
35.99993900000001
 21
-70.24052100000003
 31
0.0
  0
LINE
  5
7562
330
6EDD
100
AcDbEntity
  8
30
  6
Continuous
 62
     0
370
    -2
100
AcDbLine
 10
-36.00003199999999
 20
-25.00003100000003
 30
0.0
 11
-36.00003199999999
 21
-70.24052100000003
 31
0.0
  0
LINE
  5
7563
330
6EDD
100
AcDbEntity
  8
30
  6
Continuous
 62
     0
370
    -2
100
AcDbLine
 10
33.99993900000001
 20
-69.74052100000003
 30
0.0
 11
-34.00003199999999
 21
-69.74052100000003
 31
0.0
  0
INSERT
  5
7564
330
6EDD
100
AcDbEntity
  8
30
  6
Continuous
 62
     0
370
    -2
100
AcDbBlockReference
  2
_OPEN
 10
35.99993900000001
 20
-69.74052100000003
 30
0.0
 41
2.0
 42
2.0
 43
2.0
  0
INSERT
  5
7565
330
6EDD
100
AcDbEntity
  8
30
  6
Continuous
 62
     0
370
    -2
100
AcDbBlockReference
  2
_OPEN
 10
-36.00003199999999
 20
-69.74052100000003
 30
0.0
 41
2.0
 42
2.0
 43
2.0
 50
180.0
  0
MTEXT
  5
7566
330
6EDD
100
AcDbEntity
  8
30
  6
Continuous
 62
     0
100
AcDbMText
 10
-0.0000449999999857
 20
-66.74052100000003
 30
0.0
 40
4.0
 41
0.0
 71
     5
 72
     1
  1
\A1;72
 73
     1
 44
1.0
  0
POINT
  5
7567
330
6EDD
100
AcDbEntity
  8
DEFPOINTS
  6
Continuous
 62
     0
100
AcDbPoint
 10
35.99993900000001
 20
-24.00003100000003
 30
0.0
  0
POINT
  5
7568
330
6EDD
100
AcDbEntity
  8
DEFPOINTS
  6
Continuous
 62
     0
100
AcDbPoint
 10
-36.00003199999999
 20
-24.00003100000003
 30
0.0
  0
POINT
  5
7569
330
6EDD
100
AcDbEntity
  8
DEFPOINTS
  6
Continuous
 62
     0
100
AcDbPoint
 10
-36.00003199999999
 20
-69.74052100000003
 30
0.0
  0
ENDBLK
  5
6EE8
330
6EDD
100
AcDbEntity
  8
0
100
AcDbBlockEnd
  0
BLOCK
  5
6EF3
330
6EE9
100
AcDbEntity
  8
0
100
AcDbBlockBegin
  2
*D35
 70
     1
 10
0.0
 20
0.0
 30
0.0
  3
*D35
  1

  0
LINE
  5
7558
330
6EE9
100
AcDbEntity
  8
30
  6
Continuous
 62
     0
370
    -2
100
AcDbLine
 10
24.99998499999999
 20
-49.07501300000006
 30
0.0
 11
24.99998499999999
 21
-62.06171800000004
 31
0.0
  0
LINE
  5
7559
330
6EE9
100
AcDbEntity
  8
30
  6
Continuous
 62
     0
370
    -2
100
AcDbLine
 10
-25.00001599999999
 20
-49.07501300000006
 30
0.0
 11
-25.00001599999999
 21
-62.06171800000004
 31
0.0
  0
LINE
  5
755A
330
6EE9
100
AcDbEntity
  8
30
  6
Continuous
 62
     0
370
    -2
100
AcDbLine
 10
22.99998499999999
 20
-61.56171800000004
 30
0.0
 11
-23.00001599999998
 21
-61.56171800000004
 31
0.0
  0
INSERT
  5
755B
330
6EE9
100
AcDbEntity
  8
30
  6
Continuous
 62
     0
370
    -2
100
AcDbBlockReference
  2
_OPEN
 10
24.99998499999999
 20
-61.56171800000004
 30
0.0
 41
2.0
 42
2.0
 43
2.0
  0
INSERT
  5
755C
330
6EE9
100
AcDbEntity
  8
30
  6
Continuous
 62
     0
370
    -2
100
AcDbBlockReference
  2
_OPEN
 10
-25.00001599999999
 20
-61.56171800000004
 30
0.0
 41
2.0
 42
2.0
 43
2.0
 50
180.0
  0
MTEXT
  5
755D
330
6EE9
100
AcDbEntity
  8
30
  6
Continuous
 62
     0
100
AcDbMText
 10
-0.0000149999999904
 20
-58.56171800000004
 30
0.0
 40
4.0
 41
0.0
 71
     5
 72
     1
  1
\A1;50
 73
     1
 44
1.0
  0
POINT
  5
755E
330
6EE9
100
AcDbEntity
  8
DEFPOINTS
  6
Continuous
 62
     0
100
AcDbPoint
 10
24.99998499999999
 20
-48.07501300000007
 30
0.0
  0
POINT
  5
755F
330
6EE9
100
AcDbEntity
  8
DEFPOINTS
  6
Continuous
 62
     0
100
AcDbPoint
 10
-25.00001599999999
 20
-48.07501300000007
 30
0.0
  0
POINT
  5
7560
330
6EE9
100
AcDbEntity
  8
DEFPOINTS
  6
Continuous
 62
     0
100
AcDbPoint
 10
-25.00001599999999
 20
-61.56171800000004
 30
0.0
  0
ENDBLK
  5
6EF4
330
6EE9
100
AcDbEntity
  8
0
100
AcDbBlockEnd
  0
BLOCK
  5
7640
330
7636
100
AcDbEntity
  8
0
 62
     2
100
AcDbBlockBegin
  2
*D36
 70
     1
 10
0.0
 20
0.0
 30
0.0
  3
*D36
  1

  0
LINE
  5
7637
330
7636
100
AcDbEntity
  8
30
  6
Continuous
 62
     0
100
AcDbLine
 10
-12.5
 20
-195.5
 30
0.0
 11
-12.5
 21
-330.5
 31
0.0
1001
ACAD
1000
RTLwPs
1070
   158
  0
LINE
  5
7638
330
7636
100
AcDbEntity
  8
30
  6
Continuous
 62
     0
100
AcDbLine
 10
12.5
 20
-306.4999999999999
 30
0.0
 11
12.5
 21
-330.5
 31
0.0
1001
ACAD
1000
RTLwPs
1070
   158
  0
LINE
  5
7639
330
7636
100
AcDbEntity
  8
30
  6
Continuous
 62
     0
100
AcDbLine
 10
-10.5
 20
-330.0
 30
0.0
 11
10.5
 21
-330.0
 31
0.0
1001
ACAD
1000
RTLwPs
1070
   158
  0
INSERT
  5
763A
330
7636
100
AcDbEntity
  8
30
  6
Continuous
 62
     0
100
AcDbBlockReference
  2
_OPEN
 10
-12.5
 20
-330.0
 30
0.0
 41
2.0
 42
2.0
 43
2.0
 50
180.0
1001
ACAD
1000
RTLwPs
1070
   158
  0
INSERT
  5
763B
330
7636
100
AcDbEntity
  8
30
  6
Continuous
 62
     0
100
AcDbBlockReference
  2
_OPEN
 10
12.5
 20
-330.0
 30
0.0
 41
2.0
 42
2.0
 43
2.0
1001
ACAD
1000
RTLwPs
1070
   158
  0
MTEXT
  5
763C
330
7636
100
AcDbEntity
  8
30
  6
Continuous
 62
     0
100
AcDbMText
 10
0.0
 20
-327.0
 30
0.0
 40
4.0
 41
0.0
 71
     5
 72
     1
  1
\A1;25
 73
     1
 44
1.0
  0
POINT
  5
763D
330
7636
100
AcDbEntity
  8
DEFPOINTS
  6
Continuous
 62
     0
100
AcDbPoint
 10
-12.5
 20
-194.5
 30
0.0
  0
POINT
  5
763E
330
7636
100
AcDbEntity
  8
DEFPOINTS
  6
Continuous
 62
     0
100
AcDbPoint
 10
12.5
 20
-305.5
 30
0.0
  0
POINT
  5
763F
330
7636
100
AcDbEntity
  8
DEFPOINTS
  6
Continuous
 62
     0
100
AcDbPoint
 10
12.5
 20
-330.0
 30
0.0
  0
ENDBLK
  5
7641
330
7636
100
AcDbEntity
  8
0
 62
     2
100
AcDbBlockEnd
  0
BLOCK
  5
764C
330
7642
100
AcDbEntity
  8
0
 62
     2
100
AcDbBlockBegin
  2
*D37
 70
     1
 10
0.0
 20
0.0
 30
0.0
  3
*D37
  1

  0
LINE
  5
7643
330
7642
100
AcDbEntity
  8
30
 62
     0
100
AcDbLine
 10
124.0
 20
-276.0
 30
0.0
 11
124.0
 21
-330.0600839999999
 31
0.0
1001
ACAD
1000
RTLwPs
1070
   158
  0
LINE
  5
7644
330
7642
100
AcDbEntity
  8
30
 62
     0
100
AcDbLine
 10
196.0
 20
-276.0
 30
0.0
 11
196.0
 21
-330.0600839999999
 31
0.0
1001
ACAD
1000
RTLwPs
1070
   158
  0
LINE
  5
7645
330
7642
100
AcDbEntity
  8
30
 62
     0
100
AcDbLine
 10
126.0
 20
-329.5600839999999
 30
0.0
 11
194.0
 21
-329.5600839999999
 31
0.0
1001
ACAD
1000
RTLwPs
1070
   158
  0
INSERT
  5
7646
330
7642
100
AcDbEntity
  8
30
 62
     0
100
AcDbBlockReference
  2
_OPEN
 10
124.0
 20
-329.5600839999999
 30
0.0
 41
2.0
 42
2.0
 43
2.0
 50
180.0
1001
ACAD
1000
RTLwPs
1070
   158
  0
INSERT
  5
7647
330
7642
100
AcDbEntity
  8
30
 62
     0
100
AcDbBlockReference
  2
_OPEN
 10
196.0
 20
-329.5600839999999
 30
0.0
 41
2.0
 42
2.0
 43
2.0
1001
ACAD
1000
RTLwPs
1070
   158
  0
MTEXT
  5
7648
330
7642
100
AcDbEntity
  8
30
 62
     0
100
AcDbMText
 10
160.0
 20
-326.5600839999998
 30
0.0
 40
4.0
 41
0.0
 71
     5
 72
     1
  1
\A1;72
 73
     1
 44
1.0
  0
POINT
  5
7649
330
7642
100
AcDbEntity
  8
DEFPOINTS
 62
     0
100
AcDbPoint
 10
124.0
 20
-275.0
 30
0.0
  0
POINT
  5
764A
330
7642
100
AcDbEntity
  8
DEFPOINTS
 62
     0
100
AcDbPoint
 10
196.0
 20
-275.0
 30
0.0
  0
POINT
  5
764B
330
7642
100
AcDbEntity
  8
DEFPOINTS
 62
     0
100
AcDbPoint
 10
196.0
 20
-329.5600839999999
 30
0.0
  0
ENDBLK
  5
764D
330
7642
100
AcDbEntity
  8
0
 62
     2
100
AcDbBlockEnd
  0
BLOCK
  5
7659
330
764E
100
AcDbEntity
  8
0
 62
     2
100
AcDbBlockBegin
  2
*D38
 70
     1
 10
0.0
 20
0.0
 30
0.0
  3
*D38
  1

  0
LINE
  5
764F
330
764E
100
AcDbEntity
  8
30
  6
Continuous
 62
     0
100
AcDbLine
 10
169.2032419999998
 20
136.330442
 30
0.0
 11
169.2032419999998
 21
125.3304419999998
 31
0.0
1001
ACAD
1000
RTLwPs
1070
   158
  0
LINE
  5
7650
330
764E
100
AcDbEntity
  8
30
  6
Continuous
 62
     0
100
AcDbLine
 10
181.7032419999999
 20
136.330442
 30
0.0
 11
181.7032419999999
 21
125.3304419999998
 31
0.0
1001
ACAD
1000
RTLwPs
1070
   158
  0
LINE
  5
7651
330
764E
100
AcDbEntity
  8
30
  6
Continuous
 62
     0
100
AcDbLine
 10
171.2032419999999
 20
125.8304419999999
 30
0.0
 11
179.7032419999999
 21
125.8304419999999
 31
0.0
1001
ACAD
1000
RTLwPs
1070
   158
  0
LINE
  5
7652
330
764E
100
AcDbEntity
  8
30
  6
Continuous
 62
     0
100
AcDbLine
 10
181.7032419999999
 20
125.8304419999999
 30
0.0
 11
210.1865749999999
 21
125.8304419999999
 31
0.0
1001
ACAD
1000
RTLwPs
1070
   158
  0
INSERT
  5
7653
330
764E
100
AcDbEntity
  8
30
  6
Continuous
 62
     0
100
AcDbBlockReference
  2
_OPEN
 10
169.2032419999998
 20
125.8304419999999
 30
0.0
 41
2.0
 42
2.0
 43
2.0
 50
180.0
1001
ACAD
1000
RTLwPs
1070
   158
  0
INSERT
  5
7654
330
764E
100
AcDbEntity
  8
30
  6
Continuous
 62
     0
100
AcDbBlockReference
  2
_OPEN
 10
181.7032419999999
 20
125.8304419999999
 30
0.0
 41
2.0
 42
2.0
 43
2.0
1001
ACAD
1000
RTLwPs
1070
   158
  0
MTEXT
  5
7655
330
764E
100
AcDbEntity
  8
30
  6
Continuous
 62
     0
100
AcDbMText
 10
197.853242
 20
128.830442
 30
0.0
 40
4.0
 41
0.0
 71
     5
 72
     1
  1
\A1;MAX12.5
 73
     1
 44
1.0
  0
POINT
  5
7656
330
764E
100
AcDbEntity
  8
DEFPOINTS
  6
Continuous
 62
     0
100
AcDbPoint
 10
169.2032419999998
 20
137.3304419999998
 30
0.0
  0
POINT
  5
7657
330
764E
100
AcDbEntity
  8
DEFPOINTS
  6
Continuous
 62
     0
100
AcDbPoint
 10
181.7032419999999
 20
137.3304419999998
 30
0.0
  0
POINT
  5
7658
330
764E
100
AcDbEntity
  8
DEFPOINTS
  6
Continuous
 62
     0
100
AcDbPoint
 10
181.7032419999999
 20
125.8304419999999
 30
0.0
  0
ENDBLK
  5
765A
330
764E
100
AcDbEntity
  8
0
 62
     2
100
AcDbBlockEnd
  0
BLOCK
  5
7665
330
765B
100
AcDbEntity
  8
0
 62
     2
100
AcDbBlockBegin
  2
*D39
 70
     1
 10
0.0
 20
0.0
 30
0.0
  3
*D39
  1

  0
LINE
  5
765C
330
765B
100
AcDbEntity
  8
30
  6
Continuous
 62
     0
100
AcDbLine
 10
174.4532419999999
 20
144.330442
 30
0.0
 11
150.953242
 21
144.330442
 31
0.0
1001
ACAD
1000
RTLwPs
1070
   158
  0
LINE
  5
765D
330
765B
100
AcDbEntity
  8
30
  6
Continuous
 62
     0
100
AcDbLine
 10
168.2032419999998
 20
137.3304419999998
 30
0.0
 11
150.953242
 21
137.3304419999998
 31
0.0
1001
ACAD
1000
RTLwPs
1070
   158
  0
LINE
  5
765E
330
765B
100
AcDbEntity
  8
30
  6
Continuous
 62
     0
100
AcDbLine
 10
151.4532419999999
 20
142.330442
 30
0.0
 11
151.4532419999999
 21
139.3304419999998
 31
0.0
1001
ACAD
1000
RTLwPs
1070
   158
  0
INSERT
  5
765F
330
765B
100
AcDbEntity
  8
30
  6
Continuous
 62
     0
100
AcDbBlockReference
  2
_OPEN
 10
151.4532419999999
 20
144.330442
 30
0.0
 41
2.0
 42
2.0
 43
2.0
 50
90.0
1001
ACAD
1000
RTLwPs
1070
   158
  0
INSERT
  5
7660
330
765B
100
AcDbEntity
  8
30
  6
Continuous
 62
     0
100
AcDbBlockReference
  2
_OPEN
 10
151.4532419999999
 20
137.3304419999998
 30
0.0
 41
2.0
 42
2.0
 43
2.0
 50
270.0
1001
ACAD
1000
RTLwPs
1070
   158
  0
MTEXT
  5
7661
330
765B
100
AcDbEntity
  8
30
  6
Continuous
 62
     0
100
AcDbMText
 10
148.4532419999998
 20
140.830442
 30
0.0
 40
4.0
 41
0.0
 71
     5
 72
     1
  1
\A1;7
 11
0.0
 21
1.0
 31
0.0
 73
     1
 44
1.0
  0
POINT
  5
7662
330
765B
100
AcDbEntity
  8
DEFPOINTS
  6
Continuous
 62
     0
100
AcDbPoint
 10
175.4532419999999
 20
144.330442
 30
0.0
  0
POINT
  5
7663
330
765B
100
AcDbEntity
  8
DEFPOINTS
  6
Continuous
 62
     0
100
AcDbPoint
 10
169.2032419999998
 20
137.3304419999998
 30
0.0
  0
POINT
  5
7664
330
765B
100
AcDbEntity
  8
DEFPOINTS
  6
Continuous
 62
     0
100
AcDbPoint
 10
151.4532419999999
 20
137.3304419999998
 30
0.0
  0
ENDBLK
  5
7666
330
765B
100
AcDbEntity
  8
0
 62
     2
100
AcDbBlockEnd
  0
BLOCK
  5
7671
330
7667
100
AcDbEntity
  8
0
100
AcDbBlockBegin
  2
*D40
 70
     1
 10
0.0
 20
0.0
 30
0.0
  3
*D40
  1

  0
LINE
  5
7668
330
7667
100
AcDbEntity
  8
30
  6
Continuous
 62
     0
100
AcDbLine
 10
-35.0
 20
25.0
 30
0.0
 11
-50.151895
 21
25.0
 31
0.0
1001
ACAD
1000
RTLwPs
1070
   158
  0
LINE
  5
7669
330
7667
100
AcDbEntity
  8
30
  6
Continuous
 62
     0
100
AcDbLine
 10
-35.0
 20
-25.0
 30
0.0
 11
-50.151895
 21
-25.0
 31
0.0
1001
ACAD
1000
RTLwPs
1070
   158
  0
LINE
  5
766A
330
7667
100
AcDbEntity
  8
30
  6
Continuous
 62
     0
100
AcDbLine
 10
-49.65189500000001
 20
23.0
 30
0.0
 11
-49.65189500000001
 21
-23.0
 31
0.0
1001
ACAD
1000
RTLwPs
1070
   158
  0
INSERT
  5
766B
330
7667
100
AcDbEntity
  8
30
  6
Continuous
 62
     0
100
AcDbBlockReference
  2
_OPEN
 10
-49.65189500000001
 20
25.0
 30
0.0
 41
2.0
 42
2.0
 43
2.0
 50
90.0
1001
ACAD
1000
RTLwPs
1070
   158
  0
INSERT
  5
766C
330
7667
100
AcDbEntity
  8
30
  6
Continuous
 62
     0
100
AcDbBlockReference
  2
_OPEN
 10
-49.65189500000001
 20
-25.0
 30
0.0
 41
2.0
 42
2.0
 43
2.0
 50
270.0
1001
ACAD
1000
RTLwPs
1070
   158
  0
MTEXT
  5
766D
330
7667
100
AcDbEntity
  8
30
  6
Continuous
 62
     0
100
AcDbMText
 10
-52.65189499999999
 20
0.0
 30
0.0
 40
4.0
 41
0.0
 71
     5
 72
     1
  1
\A1;50
 11
0.0
 21
1.0
 31
0.0
 73
     1
 44
1.0
  0
POINT
  5
766E
330
7667
100
AcDbEntity
  8
DEFPOINTS
  6
Continuous
 62
     0
100
AcDbPoint
 10
-34.0
 20
25.0
 30
0.0
  0
POINT
  5
766F
330
7667
100
AcDbEntity
  8
DEFPOINTS
  6
Continuous
 62
     0
100
AcDbPoint
 10
-34.0
 20
-25.0
 30
0.0
  0
POINT
  5
7670
330
7667
100
AcDbEntity
  8
DEFPOINTS
  6
Continuous
 62
     0
100
AcDbPoint
 10
-49.65189500000001
 20
-25.0
 30
0.0
  0
ENDBLK
  5
7672
330
7667
100
AcDbEntity
  8
0
100
AcDbBlockEnd
  0
BLOCK
  5
767D
330
7673
100
AcDbEntity
  8
0
100
AcDbBlockBegin
  2
*D41
 70
     1
 10
0.0
 20
0.0
 30
0.0
  3
*D41
  1

  0
LINE
  5
7674
330
7673
100
AcDbEntity
  8
30
  6
Continuous
 62
     0
100
AcDbLine
 10
-38.5
 20
65.0
 30
0.0
 11
-70.632804
 21
65.0
 31
0.0
1001
ACAD
1000
RTLwPs
1070
   158
  0
LINE
  5
7675
330
7673
100
AcDbEntity
  8
30
  6
Continuous
 62
     0
100
AcDbLine
 10
-38.5
 20
-65.26
 30
0.0
 11
-70.632804
 21
-65.26
 31
0.0
1001
ACAD
1000
RTLwPs
1070
   158
  0
LINE
  5
7676
330
7673
100
AcDbEntity
  8
30
  6
Continuous
 62
     0
100
AcDbLine
 10
-70.13280400000001
 20
63.0
 30
0.0
 11
-70.13280400000001
 21
-63.26
 31
0.0
1001
ACAD
1000
RTLwPs
1070
   158
  0
INSERT
  5
7677
330
7673
100
AcDbEntity
  8
30
  6
Continuous
 62
     0
100
AcDbBlockReference
  2
_OPEN
 10
-70.13280400000001
 20
65.0
 30
0.0
 41
2.0
 42
2.0
 43
2.0
 50
90.0
1001
ACAD
1000
RTLwPs
1070
   158
  0
INSERT
  5
7678
330
7673
100
AcDbEntity
  8
30
  6
Continuous
 62
     0
100
AcDbBlockReference
  2
_OPEN
 10
-70.13280400000001
 20
-65.26
 30
0.0
 41
2.0
 42
2.0
 43
2.0
 50
270.0
1001
ACAD
1000
RTLwPs
1070
   158
  0
MTEXT
  5
7679
330
7673
100
AcDbEntity
  8
30
  6
Continuous
 62
     0
100
AcDbMText
 10
-73.132804
 20
-0.13
 30
0.0
 40
4.0
 41
0.0
 71
     5
 72
     1
  1
\A1;130
 11
0.0
 21
1.0
 31
0.0
 73
     1
 44
1.0
  0
POINT
  5
767A
330
7673
100
AcDbEntity
  8
DEFPOINTS
  6
Continuous
 62
     0
100
AcDbPoint
 10
-37.5
 20
65.0
 30
0.0
  0
POINT
  5
767B
330
7673
100
AcDbEntity
  8
DEFPOINTS
  6
Continuous
 62
     0
100
AcDbPoint
 10
-37.5
 20
-65.26
 30
0.0
  0
POINT
  5
767C
330
7673
100
AcDbEntity
  8
DEFPOINTS
  6
Continuous
 62
     0
100
AcDbPoint
 10
-70.13280400000001
 20
-65.26
 30
0.0
  0
ENDBLK
  5
767E
330
7673
100
AcDbEntity
  8
0
100
AcDbBlockEnd
  0
BLOCK
  5
7689
330
767F
100
AcDbEntity
  8
0
100
AcDbBlockBegin
  2
*D42
 70
     1
 10
0.0
 20
0.0
 30
0.0
  3
*D42
  1

  0
LINE
  5
7680
330
767F
100
AcDbEntity
  8
30
  6
Continuous
 62
     0
100
AcDbLine
 10
-25.0
 20
-56.5
 30
0.0
 11
-25.0
 21
-80.19122299999997
 31
0.0
1001
ACAD
1000
RTLwPs
1070
   158
  0
LINE
  5
7681
330
767F
100
AcDbEntity
  8
30
  6
Continuous
 62
     0
100
AcDbLine
 10
0.0
 20
-56.5
 30
0.0
 11
0.0
 21
-80.19122299999997
 31
0.0
1001
ACAD
1000
RTLwPs
1070
   158
  0
LINE
  5
7682
330
767F
100
AcDbEntity
  8
30
  6
Continuous
 62
     0
100
AcDbLine
 10
-23.0
 20
-79.69122299999998
 30
0.0
 11
-2.0
 21
-79.69122299999998
 31
0.0
1001
ACAD
1000
RTLwPs
1070
   158
  0
INSERT
  5
7683
330
767F
100
AcDbEntity
  8
30
  6
Continuous
 62
     0
100
AcDbBlockReference
  2
_OPEN
 10
-25.0
 20
-79.69122299999998
 30
0.0
 41
2.0
 42
2.0
 43
2.0
 50
180.0
1001
ACAD
1000
RTLwPs
1070
   158
  0
INSERT
  5
7684
330
767F
100
AcDbEntity
  8
30
  6
Continuous
 62
     0
100
AcDbBlockReference
  2
_OPEN
 10
0.0
 20
-79.69122299999998
 30
0.0
 41
2.0
 42
2.0
 43
2.0
1001
ACAD
1000
RTLwPs
1070
   158
  0
MTEXT
  5
7685
330
767F
100
AcDbEntity
  8
30
  6
Continuous
 62
     0
100
AcDbMText
 10
-12.5
 20
-76.69122299999997
 30
0.0
 40
4.0
 41
0.0
 71
     5
 72
     1
  1
\A1;25
 73
     1
 44
1.0
  0
POINT
  5
7686
330
767F
100
AcDbEntity
  8
DEFPOINTS
  6
Continuous
 62
     0
100
AcDbPoint
 10
-25.0
 20
-55.5
 30
0.0
  0
POINT
  5
7687
330
767F
100
AcDbEntity
  8
DEFPOINTS
  6
Continuous
 62
     0
100
AcDbPoint
 10
0.0
 20
-55.5
 30
0.0
  0
POINT
  5
7688
330
767F
100
AcDbEntity
  8
DEFPOINTS
  6
Continuous
 62
     0
100
AcDbPoint
 10
0.0
 20
-79.69122299999998
 30
0.0
  0
ENDBLK
  5
768A
330
767F
100
AcDbEntity
  8
0
100
AcDbBlockEnd
  0
BLOCK
  5
7695
330
768B
100
AcDbEntity
  8
0
100
AcDbBlockBegin
  2
*D43
 70
     1
 10
0.0
 20
0.0
 30
0.0
  3
*D43
  1

  0
LINE
  5
768C
330
768B
100
AcDbEntity
  8
30
  6
Continuous
 62
     0
100
AcDbLine
 10
0.0
 20
-57.5
 30
0.0
 11
0.0
 21
-80.19122299999997
 31
0.0
1001
ACAD
1000
RTLwPs
1070
   158
  0
LINE
  5
768D
330
768B
100
AcDbEntity
  8
30
  6
Continuous
 62
     0
100
AcDbLine
 10
25.0
 20
-56.5
 30
0.0
 11
25.0
 21
-80.19122299999997
 31
0.0
1001
ACAD
1000
RTLwPs
1070
   158
  0
LINE
  5
768E
330
768B
100
AcDbEntity
  8
30
  6
Continuous
 62
     0
100
AcDbLine
 10
2.0
 20
-79.69122299999998
 30
0.0
 11
23.0
 21
-79.69122299999998
 31
0.0
1001
ACAD
1000
RTLwPs
1070
   158
  0
INSERT
  5
768F
330
768B
100
AcDbEntity
  8
30
  6
Continuous
 62
     0
100
AcDbBlockReference
  2
_OPEN
 10
0.0
 20
-79.69122299999998
 30
0.0
 41
2.0
 42
2.0
 43
2.0
 50
180.0
1001
ACAD
1000
RTLwPs
1070
   158
  0
INSERT
  5
7690
330
768B
100
AcDbEntity
  8
30
  6
Continuous
 62
     0
100
AcDbBlockReference
  2
_OPEN
 10
25.0
 20
-79.69122299999998
 30
0.0
 41
2.0
 42
2.0
 43
2.0
1001
ACAD
1000
RTLwPs
1070
   158
  0
MTEXT
  5
7691
330
768B
100
AcDbEntity
  8
30
  6
Continuous
 62
     0
100
AcDbMText
 10
12.5
 20
-76.69122299999997
 30
0.0
 40
4.0
 41
0.0
 71
     5
 72
     1
  1
\A1;25
 73
     1
 44
1.0
  0
POINT
  5
7692
330
768B
100
AcDbEntity
  8
DEFPOINTS
  6
Continuous
 62
     0
100
AcDbPoint
 10
0.0
 20
-56.5
 30
0.0
  0
POINT
  5
7693
330
768B
100
AcDbEntity
  8
DEFPOINTS
  6
Continuous
 62
     0
100
AcDbPoint
 10
25.0
 20
-55.5
 30
0.0
  0
POINT
  5
7694
330
768B
100
AcDbEntity
  8
DEFPOINTS
  6
Continuous
 62
     0
100
AcDbPoint
 10
25.0
 20
-79.69122299999998
 30
0.0
  0
ENDBLK
  5
7696
330
768B
100
AcDbEntity
  8
0
100
AcDbBlockEnd
  0
BLOCK
  5
76A1
330
7697
100
AcDbEntity
  8
0
100
AcDbBlockBegin
  2
*D44
 70
     1
 10
0.0
 20
0.0
 30
0.0
  3
*D44
  1

  0
LINE
  5
7698
330
7697
100
AcDbEntity
  8
30
  6
Continuous
 62
     0
100
AcDbLine
 10
-37.5
 20
-66.26000000000001
 30
0.0
 11
-37.5
 21
-100.369711
 31
0.0
1001
ACAD
1000
RTLwPs
1070
   158
  0
LINE
  5
7699
330
7697
100
AcDbEntity
  8
30
  6
Continuous
 62
     0
100
AcDbLine
 10
37.5
 20
-66.26000000000001
 30
0.0
 11
37.5
 21
-100.369711
 31
0.0
1001
ACAD
1000
RTLwPs
1070
   158
  0
LINE
  5
769A
330
7697
100
AcDbEntity
  8
30
  6
Continuous
 62
     0
100
AcDbLine
 10
-35.5
 20
-99.86971099999999
 30
0.0
 11
35.5
 21
-99.86971099999999
 31
0.0
1001
ACAD
1000
RTLwPs
1070
   158
  0
INSERT
  5
769B
330
7697
100
AcDbEntity
  8
30
  6
Continuous
 62
     0
100
AcDbBlockReference
  2
_OPEN
 10
-37.5
 20
-99.86971099999999
 30
0.0
 41
2.0
 42
2.0
 43
2.0
 50
180.0
1001
ACAD
1000
RTLwPs
1070
   158
  0
INSERT
  5
769C
330
7697
100
AcDbEntity
  8
30
  6
Continuous
 62
     0
100
AcDbBlockReference
  2
_OPEN
 10
37.5
 20
-99.86971099999999
 30
0.0
 41
2.0
 42
2.0
 43
2.0
1001
ACAD
1000
RTLwPs
1070
   158
  0
MTEXT
  5
769D
330
7697
100
AcDbEntity
  8
30
  6
Continuous
 62
     0
100
AcDbMText
 10
0.0
 20
-96.869711
 30
0.0
 40
4.0
 41
0.0
 71
     5
 72
     1
  1
\A1;75
 73
     1
 44
1.0
  0
POINT
  5
769E
330
7697
100
AcDbEntity
  8
DEFPOINTS
  6
Continuous
 62
     0
100
AcDbPoint
 10
-37.5
 20
-65.26
 30
0.0
  0
POINT
  5
769F
330
7697
100
AcDbEntity
  8
DEFPOINTS
  6
Continuous
 62
     0
100
AcDbPoint
 10
37.5
 20
-65.26
 30
0.0
  0
POINT
  5
76A0
330
7697
100
AcDbEntity
  8
DEFPOINTS
  6
Continuous
 62
     0
100
AcDbPoint
 10
37.5
 20
-99.86971099999999
 30
0.0
  0
ENDBLK
  5
76A2
330
7697
100
AcDbEntity
  8
0
100
AcDbBlockEnd
  0
BLOCK
  5
76AD
330
76A3
100
AcDbEntity
  8
0
100
AcDbBlockBegin
  2
*D45
 70
     1
 10
0.0
 20
0.0
 30
0.0
  3
*D45
  1

  0
LINE
  5
76A4
330
76A3
100
AcDbEntity
  8
30
  6
Continuous
 62
     0
100
AcDbLine
 10
157.0
 20
-89.38800099999998
 30
0.0
 11
157.0
 21
-89.478045
 31
0.0
1001
ACAD
1000
RTLwPs
1070
   158
  0
LINE
  5
76A5
330
76A3
100
AcDbEntity
  8
30
  6
Continuous
 62
     0
100
AcDbLine
 10
217.0
 20
-66.0
 30
0.0
 11
217.0
 21
-90.47804499999999
 31
0.0
1001
ACAD
1000
RTLwPs
1070
   158
  0
LINE
  5
76A6
330
76A3
100
AcDbEntity
  8
30
  6
Continuous
 62
     0
100
AcDbLine
 10
159.0
 20
-89.97804499999999
 30
0.0
 11
215.0
 21
-89.97804499999999
 31
0.0
1001
ACAD
1000
RTLwPs
1070
   158
  0
INSERT
  5
76A7
330
76A3
100
AcDbEntity
  8
30
  6
Continuous
 62
     0
100
AcDbBlockReference
  2
_OPEN
 10
157.0
 20
-89.97804499999999
 30
0.0
 41
2.0
 42
2.0
 43
2.0
 50
180.0
1001
ACAD
1000
RTLwPs
1070
   158
  0
INSERT
  5
76A8
330
76A3
100
AcDbEntity
  8
30
  6
Continuous
 62
     0
100
AcDbBlockReference
  2
_OPEN
 10
217.0
 20
-89.97804499999999
 30
0.0
 41
2.0
 42
2.0
 43
2.0
1001
ACAD
1000
RTLwPs
1070
   158
  0
MTEXT
  5
76A9
330
76A3
100
AcDbEntity
  8
30
  6
Continuous
 62
     0
100
AcDbMText
 10
187.0
 20
-86.978045
 30
0.0
 40
4.0
 41
0.0
 71
     5
 72
     1
  1
\A1;60
 73
     1
 44
1.0
  0
POINT
  5
76AA
330
76A3
100
AcDbEntity
  8
DEFPOINTS
  6
Continuous
 62
     0
100
AcDbPoint
 10
157.0
 20
-90.38800100000001
 30
0.0
  0
POINT
  5
76AB
330
76A3
100
AcDbEntity
  8
DEFPOINTS
  6
Continuous
 62
     0
100
AcDbPoint
 10
217.0
 20
-65.0
 30
0.0
  0
POINT
  5
76AC
330
76A3
100
AcDbEntity
  8
DEFPOINTS
  6
Continuous
 62
     0
100
AcDbPoint
 10
217.0
 20
-89.97804499999999
 30
0.0
  0
ENDBLK
  5
76AE
330
76A3
100
AcDbEntity
  8
0
100
AcDbBlockEnd
  0
BLOCK
  5
76B9
330
76AF
100
AcDbEntity
  8
0
100
AcDbBlockBegin
  2
*D46
 70
     1
 10
0.0
 20
0.0
 30
0.0
  3
*D46
  1

  0
LINE
  5
76B0
330
76AF
100
AcDbEntity
  8
30
  6
Continuous
 62
     0
100
AcDbLine
 10
137.0
 20
12.0
 30
0.0
 11
137.0
 21
-100.5
 31
0.0
1001
ACAD
1000
RTLwPs
1070
   158
  0
LINE
  5
76B1
330
76AF
100
AcDbEntity
  8
30
  6
Continuous
 62
     0
100
AcDbLine
 10
217.0
 20
-90.888001
 30
0.0
 11
217.0
 21
-100.5
 31
0.0
1001
ACAD
1000
RTLwPs
1070
   158
  0
LINE
  5
76B2
330
76AF
100
AcDbEntity
  8
30
  6
Continuous
 62
     0
100
AcDbLine
 10
139.0
 20
-100.0
 30
0.0
 11
215.0
 21
-100.0
 31
0.0
1001
ACAD
1000
RTLwPs
1070
   158
  0
INSERT
  5
76B3
330
76AF
100
AcDbEntity
  8
30
  6
Continuous
 62
     0
100
AcDbBlockReference
  2
_OPEN
 10
137.0
 20
-100.0
 30
0.0
 41
2.0
 42
2.0
 43
2.0
 50
180.0
1001
ACAD
1000
RTLwPs
1070
   158
  0
INSERT
  5
76B4
330
76AF
100
AcDbEntity
  8
30
  6
Continuous
 62
     0
100
AcDbBlockReference
  2
_OPEN
 10
217.0
 20
-100.0
 30
0.0
 41
2.0
 42
2.0
 43
2.0
1001
ACAD
1000
RTLwPs
1070
   158
  0
MTEXT
  5
76B5
330
76AF
100
AcDbEntity
  8
30
  6
Continuous
 62
     0
100
AcDbMText
 10
177.0
 20
-97.0
 30
0.0
 40
4.0
 41
0.0
 71
     5
 72
     1
  1
\A1;80
 73
     1
 44
1.0
  0
POINT
  5
76B6
330
76AF
100
AcDbEntity
  8
DEFPOINTS
  6
Continuous
 62
     0
100
AcDbPoint
 10
137.0
 20
13.0
 30
0.0
  0
POINT
  5
76B7
330
76AF
100
AcDbEntity
  8
DEFPOINTS
  6
Continuous
 62
     0
100
AcDbPoint
 10
217.0
 20
-89.888001
 30
0.0
  0
POINT
  5
76B8
330
76AF
100
AcDbEntity
  8
DEFPOINTS
  6
Continuous
 62
     0
100
AcDbPoint
 10
217.0
 20
-100.0
 30
0.0
  0
ENDBLK
  5
76BA
330
76AF
100
AcDbEntity
  8
0
100
AcDbBlockEnd
  0
BLOCK
  5
76C5
330
76BB
100
AcDbEntity
  8
0
100
AcDbBlockBegin
  2
*D47
 70
     1
 10
0.0
 20
0.0
 30
0.0
  3
*D47
  1

  0
LINE
  5
76BC
330
76BB
100
AcDbEntity
  8
30
  6
Continuous
 62
     0
100
AcDbLine
 10
156.0
 20
42.0
 30
0.0
 11
128.618344
 21
42.0
 31
0.0
1001
ACAD
1000
RTLwPs
1070
   158
  0
LINE
  5
76BD
330
76BB
100
AcDbEntity
  8
30
  6
Continuous
 62
     0
100
AcDbLine
 10
156.0
 20
-42.0
 30
0.0
 11
128.618344
 21
-42.0
 31
0.0
1001
ACAD
1000
RTLwPs
1070
   158
  0
LINE
  5
76BE
330
76BB
100
AcDbEntity
  8
30
  6
Continuous
 62
     0
100
AcDbLine
 10
129.118344
 20
40.0
 30
0.0
 11
129.118344
 21
-40.0
 31
0.0
1001
ACAD
1000
RTLwPs
1070
   158
  0
INSERT
  5
76BF
330
76BB
100
AcDbEntity
  8
30
  6
Continuous
 62
     0
100
AcDbBlockReference
  2
_OPEN
 10
129.118344
 20
42.0
 30
0.0
 41
2.0
 42
2.0
 43
2.0
 50
90.0
1001
ACAD
1000
RTLwPs
1070
   158
  0
INSERT
  5
76C0
330
76BB
100
AcDbEntity
  8
30
  6
Continuous
 62
     0
100
AcDbBlockReference
  2
_OPEN
 10
129.118344
 20
-42.0
 30
0.0
 41
2.0
 42
2.0
 43
2.0
 50
270.0
1001
ACAD
1000
RTLwPs
1070
   158
  0
MTEXT
  5
76C1
330
76BB
100
AcDbEntity
  8
30
  6
Continuous
 62
     0
100
AcDbMText
 10
126.1183439999999
 20
0.0
 30
0.0
 40
4.0
 41
0.0
 71
     5
 72
     1
  1
\A1;84
 11
0.0
 21
1.0
 31
0.0
 73
     1
 44
1.0
  0
POINT
  5
76C2
330
76BB
100
AcDbEntity
  8
DEFPOINTS
  6
Continuous
 62
     0
100
AcDbPoint
 10
157.0
 20
42.0
 30
0.0
  0
POINT
  5
76C3
330
76BB
100
AcDbEntity
  8
DEFPOINTS
  6
Continuous
 62
     0
100
AcDbPoint
 10
157.0
 20
-42.0
 30
0.0
  0
POINT
  5
76C4
330
76BB
100
AcDbEntity
  8
DEFPOINTS
  6
Continuous
 62
     0
100
AcDbPoint
 10
129.118344
 20
-42.0
 30
0.0
  0
ENDBLK
  5
76C6
330
76BB
100
AcDbEntity
  8
0
100
AcDbBlockEnd
  0
BLOCK
  5
76D1
330
76C7
100
AcDbEntity
  8
0
100
AcDbBlockBegin
  2
*D48
 70
     1
 10
0.0
 20
0.0
 30
0.0
  3
*D48
  1

  0
LINE
  5
76C8
330
76C7
100
AcDbEntity
  8
30
  6
Continuous
 62
     0
100
AcDbLine
 10
153.0
 20
-43.0
 30
0.0
 11
153.0
 21
-90.5
 31
0.0
  0
LINE
  5
76C9
330
76C7
100
AcDbEntity
  8
30
  6
Continuous
 62
     0
100
AcDbLine
 10
157.0
 20
-43.0
 30
0.0
 11
157.0
 21
-90.5
 31
0.0
  0
LINE
  5
76CA
330
76C7
100
AcDbEntity
  8
30
  6
Continuous
 62
     0
100
AcDbLine
 10
153.0
 20
-90.0
 30
0.0
 11
157.0
 21
-90.0
 31
0.0
  0
INSERT
  5
76CB
330
76C7
100
AcDbEntity
  8
30
  6
Continuous
 62
     0
100
AcDbBlockReference
  2
_DOTSMALL
 10
153.0
 20
-90.0
 30
0.0
 41
2.0
 42
2.0
 43
2.0
 50
180.0
  0
INSERT
  5
76CC
330
76C7
100
AcDbEntity
  8
30
  6
Continuous
 62
     0
100
AcDbBlockReference
  2
_DOTSMALL
 10
157.0
 20
-90.0
 30
0.0
 41
2.0
 42
2.0
 43
2.0
  0
MTEXT
  5
76CD
330
76C7
100
AcDbEntity
  8
30
  6
Continuous
 62
     0
100
AcDbMText
 10
155.0
 20
-87.0
 30
0.0
 40
4.0
 41
0.0
 71
     5
 72
     1
  1
\A1;4
 73
     1
 44
1.0
  0
POINT
  5
76CE
330
76C7
100
AcDbEntity
  8
DEFPOINTS
  6
Continuous
 62
     0
100
AcDbPoint
 10
153.0
 20
-42.0
 30
0.0
  0
POINT
  5
76CF
330
76C7
100
AcDbEntity
  8
DEFPOINTS
  6
Continuous
 62
     0
100
AcDbPoint
 10
157.0
 20
-42.0
 30
0.0
  0
POINT
  5
76D0
330
76C7
100
AcDbEntity
  8
DEFPOINTS
  6
Continuous
 62
     0
100
AcDbPoint
 10
157.0
 20
-90.0
 30
0.0
  0
ENDBLK
  5
76D2
330
76C7
100
AcDbEntity
  8
0
100
AcDbBlockEnd
  0
BLOCK
  5
76DE
330
76D3
100
AcDbEntity
  8
0
100
AcDbBlockBegin
  2
*D49
 70
     1
 10
0.0
 20
0.0
 30
0.0
  3
*D49
  1

  0
LINE
  5
76D4
330
76D3
100
AcDbEntity
  8
30
  6
Continuous
 62
     0
100
AcDbLine
 10
153.0
 20
-44.0
 30
0.0
 11
153.0
 21
-90.5
 31
0.0
  0
LINE
  5
76D5
330
76D3
100
AcDbEntity
  8
30
  6
Continuous
 62
     0
100
AcDbLine
 10
150.0
 20
-43.0
 30
0.0
 11
150.0
 21
-90.5
 31
0.0
  0
LINE
  5
76D6
330
76D3
100
AcDbEntity
  8
30
  6
Continuous
 62
     0
100
AcDbLine
 10
153.0
 20
-90.0
 30
0.0
 11
150.0
 21
-90.0
 31
0.0
  0
LINE
  5
76D7
330
76D3
100
AcDbEntity
  8
30
  6
Continuous
 62
     0
100
AcDbLine
 10
150.0
 20
-90.0
 30
0.0
 11
140.1333329999999
 21
-90.0
 31
0.0
  0
INSERT
  5
76D8
330
76D3
100
AcDbEntity
  8
30
  6
Continuous
 62
     0
100
AcDbBlockReference
  2
_DOTSMALL
 10
153.0
 20
-90.0
 30
0.0
 41
2.0
 42
2.0
 43
2.0
  0
INSERT
  5
76D9
330
76D3
100
AcDbEntity
  8
30
  6
Continuous
 62
     0
100
AcDbBlockReference
  2
_DOTSMALL
 10
150.0
 20
-90.0
 30
0.0
 41
2.0
 42
2.0
 43
2.0
 50
180.0
  0
MTEXT
  5
76DA
330
76D3
100
AcDbEntity
  8
30
  6
Continuous
 62
     0
100
AcDbMText
 10
142.466667
 20
-87.0
 30
0.0
 40
4.0
 41
0.0
 71
     5
 72
     1
  1
\A1;3
 73
     1
 44
1.0
  0
POINT
  5
76DB
330
76D3
100
AcDbEntity
  8
DEFPOINTS
  6
Continuous
 62
     0
100
AcDbPoint
 10
153.0
 20
-43.0
 30
0.0
  0
POINT
  5
76DC
330
76D3
100
AcDbEntity
  8
DEFPOINTS
  6
Continuous
 62
     0
100
AcDbPoint
 10
150.0
 20
-42.0
 30
0.0
  0
POINT
  5
76DD
330
76D3
100
AcDbEntity
  8
DEFPOINTS
  6
Continuous
 62
     0
100
AcDbPoint
 10
150.0
 20
-90.0
 30
0.0
  0
ENDBLK
  5
76DF
330
76D3
100
AcDbEntity
  8
0
100
AcDbBlockEnd
  0
BLOCK
  5
76EA
330
76E0
100
AcDbEntity
  8
0
100
AcDbBlockBegin
  2
*D50
 70
     1
 10
0.0
 20
0.0
 30
0.0
  3
*D50
  1

  0
LINE
  5
76E1
330
76E0
100
AcDbEntity
  8
30
  6
Continuous
 62
     0
100
AcDbLine
 10
161.0
 20
-66.0
 30
0.0
 11
161.0
 21
-80.60699599999997
 31
0.0
1001
ACAD
1000
RTLwPs
1070
   158
  0
LINE
  5
76E2
330
76E0
100
AcDbEntity
  8
30
  6
Continuous
 62
     0
100
AcDbLine
 10
217.0
 20
-66.0
 30
0.0
 11
217.0
 21
-80.60699599999997
 31
0.0
1001
ACAD
1000
RTLwPs
1070
   158
  0
LINE
  5
76E3
330
76E0
100
AcDbEntity
  8
30
  6
Continuous
 62
     0
100
AcDbLine
 10
163.0
 20
-80.106996
 30
0.0
 11
215.0
 21
-80.106996
 31
0.0
1001
ACAD
1000
RTLwPs
1070
   158
  0
INSERT
  5
76E4
330
76E0
100
AcDbEntity
  8
30
  6
Continuous
 62
     0
100
AcDbBlockReference
  2
_OPEN
 10
161.0
 20
-80.106996
 30
0.0
 41
2.0
 42
2.0
 43
2.0
 50
180.0
1001
ACAD
1000
RTLwPs
1070
   158
  0
INSERT
  5
76E5
330
76E0
100
AcDbEntity
  8
30
  6
Continuous
 62
     0
100
AcDbBlockReference
  2
_OPEN
 10
217.0
 20
-80.106996
 30
0.0
 41
2.0
 42
2.0
 43
2.0
1001
ACAD
1000
RTLwPs
1070
   158
  0
MTEXT
  5
76E6
330
76E0
100
AcDbEntity
  8
30
  6
Continuous
 62
     0
100
AcDbMText
 10
189.0
 20
-77.10699599999998
 30
0.0
 40
4.0
 41
0.0
 71
     5
 72
     1
  1
\A1;56
 73
     1
 44
1.0
  0
POINT
  5
76E7
330
76E0
100
AcDbEntity
  8
DEFPOINTS
  6
Continuous
 62
     0
100
AcDbPoint
 10
161.0
 20
-65.0
 30
0.0
  0
POINT
  5
76E8
330
76E0
100
AcDbEntity
  8
DEFPOINTS
  6
Continuous
 62
     0
100
AcDbPoint
 10
217.0
 20
-65.0
 30
0.0
  0
POINT
  5
76E9
330
76E0
100
AcDbEntity
  8
DEFPOINTS
  6
Continuous
 62
     0
100
AcDbPoint
 10
217.0
 20
-80.106996
 30
0.0
  0
ENDBLK
  5
76EB
330
76E0
100
AcDbEntity
  8
0
100
AcDbBlockEnd
  0
BLOCK
  5
76EE
330
76EC
100
AcDbEntity
  8
0
100
AcDbBlockBegin
  2
_DOTSMALL
 70
     0
 10
0.0
 20
0.0
 30
0.0
  3
_DOTSMALL
  1

  0
LWPOLYLINE
  5
76ED
330
76EC
100
AcDbEntity
  8
30
  6
Continuous
 62
     0
100
AcDbPolyline
 90
        2
 70
     1
 43
0.5
 10
-0.0625
 20
0.0
 42
1.0
 10
0.0625
 20
0.0
 42
1.0
  0
ENDBLK
  5
76EF
330
76EC
100
AcDbEntity
  8
0
100
AcDbBlockEnd
  0
BLOCK
  5
76FA
330
76F0
100
AcDbEntity
  8
0
100
AcDbBlockBegin
  2
*D52
 70
     1
 10
0.0
 20
0.0
 30
0.0
  3
*D52
  1

  0
LINE
  5
76F1
330
76F0
100
AcDbEntity
  8
30
  6
Continuous
 62
     0
100
AcDbLine
 10
196.0
 20
-224.0
 30
0.0
 11
221.475112
 21
-224.0
 31
0.0
1001
ACAD
1000
RTLwPs
1070
   158
  0
LINE
  5
76F2
330
76F0
100
AcDbEntity
  8
30
  6
Continuous
 62
     0
100
AcDbLine
 10
196.0
 20
-276.0
 30
0.0
 11
221.475112
 21
-276.0
 31
0.0
1001
ACAD
1000
RTLwPs
1070
   158
  0
LINE
  5
76F3
330
76F0
100
AcDbEntity
  8
30
  6
Continuous
 62
     0
100
AcDbLine
 10
220.975112
 20
-226.0
 30
0.0
 11
220.975112
 21
-274.0
 31
0.0
1001
ACAD
1000
RTLwPs
1070
   158
  0
INSERT
  5
76F4
330
76F0
100
AcDbEntity
  8
30
  6
Continuous
 62
     0
100
AcDbBlockReference
  2
_OPEN
 10
220.975112
 20
-224.0
 30
0.0
 41
2.0
 42
2.0
 43
2.0
 50
90.0
1001
ACAD
1000
RTLwPs
1070
   158
  0
INSERT
  5
76F5
330
76F0
100
AcDbEntity
  8
30
  6
Continuous
 62
     0
100
AcDbBlockReference
  2
_OPEN
 10
220.975112
 20
-276.0
 30
0.0
 41
2.0
 42
2.0
 43
2.0
 50
270.0
1001
ACAD
1000
RTLwPs
1070
   158
  0
MTEXT
  5
76F6
330
76F0
100
AcDbEntity
  8
30
  6
Continuous
 62
     0
100
AcDbMText
 10
217.975112
 20
-250.0
 30
0.0
 40
4.0
 41
0.0
 71
     5
 72
     1
  1
\A1;52
 11
0.0
 21
1.0
 31
0.0
 73
     1
 44
1.0
  0
POINT
  5
76F7
330
76F0
100
AcDbEntity
  8
DEFPOINTS
  6
Continuous
 62
     0
100
AcDbPoint
 10
195.0
 20
-224.0
 30
0.0
  0
POINT
  5
76F8
330
76F0
100
AcDbEntity
  8
DEFPOINTS
  6
Continuous
 62
     0
100
AcDbPoint
 10
195.0
 20
-276.0
 30
0.0
  0
POINT
  5
76F9
330
76F0
100
AcDbEntity
  8
DEFPOINTS
  6
Continuous
 62
     0
100
AcDbPoint
 10
220.975112
 20
-276.0
 30
0.0
  0
ENDBLK
  5
76FB
330
76F0
100
AcDbEntity
  8
0
100
AcDbBlockEnd
  0
BLOCK
  5
7706
330
76FC
100
AcDbEntity
  8
0
100
AcDbBlockBegin
  2
*D53
 70
     1
 10
0.0
 20
0.0
 30
0.0
  3
*D53
  1

  0
LINE
  5
76FD
330
76FC
100
AcDbEntity
  8
30
  6
Continuous
 62
     0
100
AcDbLine
 10
-13.5
 20
-194.5
 30
0.0
 11
-49.93284
 21
-194.5
 31
0.0
1001
ACAD
1000
RTLwPs
1070
   158
  0
LINE
  5
76FE
330
76FC
100
AcDbEntity
  8
30
  6
Continuous
 62
     0
100
AcDbLine
 10
11.5
 20
-305.5
 30
0.0
 11
-49.93284
 21
-305.5
 31
0.0
1001
ACAD
1000
RTLwPs
1070
   158
  0
LINE
  5
76FF
330
76FC
100
AcDbEntity
  8
30
  6
Continuous
 62
     0
100
AcDbLine
 10
-49.43284
 20
-196.5
 30
0.0
 11
-49.43284
 21
-303.5
 31
0.0
1001
ACAD
1000
RTLwPs
1070
   158
  0
INSERT
  5
7700
330
76FC
100
AcDbEntity
  8
30
  6
Continuous
 62
     0
100
AcDbBlockReference
  2
_OPEN
 10
-49.43284
 20
-194.5
 30
0.0
 41
2.0
 42
2.0
 43
2.0
 50
90.0
1001
ACAD
1000
RTLwPs
1070
   158
  0
INSERT
  5
7701
330
76FC
100
AcDbEntity
  8
30
  6
Continuous
 62
     0
100
AcDbBlockReference
  2
_OPEN
 10
-49.43284
 20
-305.5
 30
0.0
 41
2.0
 42
2.0
 43
2.0
 50
270.0
1001
ACAD
1000
RTLwPs
1070
   158
  0
MTEXT
  5
7702
330
76FC
100
AcDbEntity
  8
30
  6
Continuous
 62
     0
100
AcDbMText
 10
-52.43284
 20
-250.0
 30
0.0
 40
4.0
 41
0.0
 71
     5
 72
     1
  1
\A1;111
 11
0.0
 21
1.0
 31
0.0
 73
     1
 44
1.0
  0
POINT
  5
7703
330
76FC
100
AcDbEntity
  8
DEFPOINTS
  6
Continuous
 62
     0
100
AcDbPoint
 10
-12.5
 20
-194.5
 30
0.0
  0
POINT
  5
7704
330
76FC
100
AcDbEntity
  8
DEFPOINTS
  6
Continuous
 62
     0
100
AcDbPoint
 10
12.5
 20
-305.5
 30
0.0
  0
POINT
  5
7705
330
76FC
100
AcDbEntity
  8
DEFPOINTS
  6
Continuous
 62
     0
100
AcDbPoint
 10
-49.43284
 20
-305.5
 30
0.0
  0
ENDBLK
  5
7707
330
76FC
100
AcDbEntity
  8
0
100
AcDbBlockEnd
  0
BLOCK
  5
7712
330
7708
100
AcDbEntity
  8
0
100
AcDbBlockBegin
  2
*D54
 70
     1
 10
0.0
 20
0.0
 30
0.0
  3
*D54
  1

  0
LINE
  5
7709
330
7708
100
AcDbEntity
  8
30
  6
Continuous
 62
     0
100
AcDbLine
 10
217.0
 20
66.0
 30
0.0
 11
217.0
 21
81.57923999999999
 31
0.0
1001
ACAD
1000
RTLwPs
1070
   158
  0
LINE
  5
770A
330
7708
100
AcDbEntity
  8
30
  6
Continuous
 62
     0
100
AcDbLine
 10
193.0
 20
66.0
 30
0.0
 11
193.0
 21
81.57923999999999
 31
0.0
1001
ACAD
1000
RTLwPs
1070
   158
  0
LINE
  5
770B
330
7708
100
AcDbEntity
  8
30
  6
Continuous
 62
     0
100
AcDbLine
 10
215.0
 20
81.07924
 30
0.0
 11
195.0
 21
81.07924
 31
0.0
1001
ACAD
1000
RTLwPs
1070
   158
  0
INSERT
  5
770C
330
7708
100
AcDbEntity
  8
30
  6
Continuous
 62
     0
100
AcDbBlockReference
  2
_OPEN
 10
217.0
 20
81.07924
 30
0.0
 41
2.0
 42
2.0
 43
2.0
1001
ACAD
1000
RTLwPs
1070
   158
  0
INSERT
  5
770D
330
7708
100
AcDbEntity
  8
30
  6
Continuous
 62
     0
100
AcDbBlockReference
  2
_OPEN
 10
193.0
 20
81.07924
 30
0.0
 41
2.0
 42
2.0
 43
2.0
 50
180.0
1001
ACAD
1000
RTLwPs
1070
   158
  0
MTEXT
  5
770E
330
7708
100
AcDbEntity
  8
30
  6
Continuous
 62
     0
100
AcDbMText
 10
205.0
 20
84.07923999999999
 30
0.0
 40
4.0
 41
0.0
 71
     5
 72
     1
  1
\A1;24
 73
     1
 44
1.0
  0
POINT
  5
770F
330
7708
100
AcDbEntity
  8
DEFPOINTS
  6
Continuous
 62
     0
100
AcDbPoint
 10
217.0
 20
65.0
 30
0.0
  0
POINT
  5
7710
330
7708
100
AcDbEntity
  8
DEFPOINTS
  6
Continuous
 62
     0
100
AcDbPoint
 10
193.0
 20
65.0
 30
0.0
  0
POINT
  5
7711
330
7708
100
AcDbEntity
  8
DEFPOINTS
  6
Continuous
 62
     0
100
AcDbPoint
 10
193.0
 20
81.07924
 30
0.0
  0
ENDBLK
  5
7713
330
7708
100
AcDbEntity
  8
0
100
AcDbBlockEnd
  0
BLOCK
  5
771E
330
7714
100
AcDbEntity
  8
0
100
AcDbBlockBegin
  2
*D55
 70
     1
 10
0.0
 20
0.0
 30
0.0
  3
*D55
  1

  0
LINE
  5
7715
330
7714
100
AcDbEntity
  8
30
  6
Continuous
 62
     0
100
AcDbLine
 10
-38.5
 20
57.5
 30
0.0
 11
-60.663575
 21
57.5
 31
0.0
1001
ACAD
1000
RTLwPs
1070
   158
  0
LINE
  5
7716
330
7714
100
AcDbEntity
  8
30
  6
Continuous
 62
     0
100
AcDbLine
 10
-38.5
 20
-57.5
 30
0.0
 11
-60.663575
 21
-57.5
 31
0.0
1001
ACAD
1000
RTLwPs
1070
   158
  0
LINE
  5
7717
330
7714
100
AcDbEntity
  8
30
  6
Continuous
 62
     0
100
AcDbLine
 10
-60.163575
 20
55.5
 30
0.0
 11
-60.163575
 21
-55.5
 31
0.0
1001
ACAD
1000
RTLwPs
1070
   158
  0
INSERT
  5
7718
330
7714
100
AcDbEntity
  8
30
  6
Continuous
 62
     0
100
AcDbBlockReference
  2
_OPEN
 10
-60.163575
 20
57.5
 30
0.0
 41
2.0
 42
2.0
 43
2.0
 50
90.0
1001
ACAD
1000
RTLwPs
1070
   158
  0
INSERT
  5
7719
330
7714
100
AcDbEntity
  8
30
  6
Continuous
 62
     0
100
AcDbBlockReference
  2
_OPEN
 10
-60.163575
 20
-57.5
 30
0.0
 41
2.0
 42
2.0
 43
2.0
 50
270.0
1001
ACAD
1000
RTLwPs
1070
   158
  0
MTEXT
  5
771A
330
7714
100
AcDbEntity
  8
30
  6
Continuous
 62
     0
100
AcDbMText
 10
-63.163575
 20
0.0
 30
0.0
 40
4.0
 41
0.0
 71
     5
 72
     1
  1
\A1;115
 11
0.0
 21
1.0
 31
0.0
 73
     1
 44
1.0
  0
POINT
  5
771B
330
7714
100
AcDbEntity
  8
DEFPOINTS
  6
Continuous
 62
     0
100
AcDbPoint
 10
-37.5
 20
57.5
 30
0.0
  0
POINT
  5
771C
330
7714
100
AcDbEntity
  8
DEFPOINTS
  6
Continuous
 62
     0
100
AcDbPoint
 10
-37.5
 20
-57.5
 30
0.0
  0
POINT
  5
771D
330
7714
100
AcDbEntity
  8
DEFPOINTS
  6
Continuous
 62
     0
100
AcDbPoint
 10
-60.163575
 20
-57.5
 30
0.0
  0
ENDBLK
  5
771F
330
7714
100
AcDbEntity
  8
0
100
AcDbBlockEnd
  0
BLOCK
  5
77E8
330
7720
100
AcDbEntity
  8
0
100
AcDbBlockBegin
  2
A$C5F4207B4
 70
     0
 10
0.0
 20
0.0
 30
0.0
  3
A$C5F4207B4
  1

  0
LINE
  5
7721
330
7720
100
AcDbEntity
  8
24
  6
CONTINOUS
100
AcDbLine
 10
33.5
 20
-65.0
 30
0.0
 11
33.5
 21
-49.0
 31
0.0
  0
LINE
  5
7722
330
7720
100
AcDbEntity
  8
17
  6
DASHDOT
100
AcDbLine
 10
25.0
 20
-64.0
 30
0.0
 11
25.0
 21
-51.0
 31
0.0
  0
LINE
  5
7723
330
7720
100
AcDbEntity
  8
24
  6
CONTINOUS
100
AcDbLine
 10
16.5
 20
-49.0
 30
0.0
 11
16.5
 21
-65.0
 31
0.0
  0
CIRCLE
  5
7724
330
7720
100
AcDbEntity
  8
24
  6
CONTINOUS
100
AcDbCircle
 10
25.0
 20
-57.5
 30
0.0
 40
4.0
  0
LINE
  5
7725
330
7720
100
AcDbEntity
  8
24
  6
CONTINOUS
100
AcDbLine
 10
8.5
 20
-65.0
 30
0.0
 11
8.5
 21
-49.0
 31
0.0
  0
LINE
  5
7726
330
7720
100
AcDbEntity
  8
17
  6
DASHDOT
100
AcDbLine
 10
0.0
 20
-64.0
 30
0.0
 11
0.0
 21
-51.0
 31
0.0
  0
LINE
  5
7727
330
7720
100
AcDbEntity
  8
24
  6
CONTINOUS
100
AcDbLine
 10
-8.5
 20
-49.0
 30
0.0
 11
-8.5
 21
-65.0
 31
0.0
  0
CIRCLE
  5
7728
330
7720
100
AcDbEntity
  8
24
  6
CONTINOUS
100
AcDbCircle
 10
0.0
 20
-57.5
 30
0.0
 40
4.0
  0
LINE
  5
7729
330
7720
100
AcDbEntity
  8
24
  6
CONTINOUS
100
AcDbLine
 10
-16.5
 20
-65.0
 30
0.0
 11
-16.5
 21
-49.0
 31
0.0
  0
LINE
  5
772A
330
7720
100
AcDbEntity
  8
17
  6
DASHDOT
100
AcDbLine
 10
-25.0
 20
-64.0
 30
0.0
 11
-25.0
 21
-51.0
 31
0.0
  0
LINE
  5
772B
330
7720
100
AcDbEntity
  8
24
  6
CONTINOUS
100
AcDbLine
 10
-33.5
 20
-49.0
 30
0.0
 11
-33.5
 21
-65.0
 31
0.0
  0
CIRCLE
  5
772C
330
7720
100
AcDbEntity
  8
24
  6
CONTINOUS
100
AcDbCircle
 10
-25.0
 20
-57.5
 30
0.0
 40
4.0
  0
DIMENSION
  5
772D
330
7720
100
AcDbEntity
  8
30
  6
Continuous
100
AcDbDimension
  2
*D55
 10
-60.163575
 20
-57.5
 30
0.0
 11
-63.163575
 21
0.0
 31
0.0
 71
     5
 42
-1.0
  3
STANDARD
100
AcDbAlignedDimension
 13
-37.5
 23
57.5
 33
0.0
 14
-37.5
 24
-57.5
 34
0.0
 50
90.0
100
AcDbRotatedDimension
  0
DIMENSION
  5
772E
330
7720
100
AcDbEntity
  8
30
  6
Continuous
100
AcDbDimension
  2
*D41
 10
-70.13280400000001
 20
-65.26
 30
0.0
 11
-73.132804
 21
-0.13
 31
0.0
 71
     5
 42
-1.0
  3
STANDARD
100
AcDbAlignedDimension
 13
-37.5
 23
65.0
 33
0.0
 14
-37.5
 24
-65.26
 34
0.0
 50
90.0
100
AcDbRotatedDimension
1001
ACAD
1000
DSTYLE
1002
{
1070
   271
1070
     0
1002
}
  0
ARC
  5
772F
330
7720
100
AcDbEntity
  8
12
100
AcDbCircle
 10
12.5
 20
-55.5
 30
0.0
 40
4.0
100
AcDbArc
 50
0.0
 51
359.8199999999998
  0
LINE
  5
7730
330
7720
100
AcDbEntity
  8
10
100
AcDbLine
 10
37.5
 20
-65.0
 30
0.0
 11
37.5
 21
65.0
 31
0.0
  0
LINE
  5
7731
330
7720
100
AcDbEntity
  8
10
100
AcDbLine
 10
-37.5
 20
-65.0
 30
0.0
 11
-37.5
 21
65.0
 31
0.0
  0
LINE
  5
7732
330
7720
100
AcDbEntity
  8
16
100
AcDbLine
 10
0.0
 20
-68.697891
 30
0.0
 11
0.0
 21
71.25
 31
0.0
  0
LINE
  5
7733
330
7720
100
AcDbEntity
  8
12
  6
DASHDOT
100
AcDbLine
 10
-9.25
 20
-194.5
 30
0.0
 11
-15.75
 21
-194.5
 31
0.0
  0
CIRCLE
  5
7734
330
7720
100
AcDbEntity
  8
12
  6
CONTINOUS
100
AcDbCircle
 10
-12.5
 20
-194.5
 30
0.0
 40
2.0
  0
DIMENSION
  5
7735
330
7720
100
AcDbEntity
  8
30
  6
Continuous
100
AcDbDimension
  2
*D53
 10
-49.43284
 20
-305.5
 30
0.0
 11
-52.43284
 21
-250.0
 31
0.0
 71
     5
 42
-1.0
  3
STANDARD
100
AcDbAlignedDimension
 13
-12.5
 23
-194.5
 33
0.0
 14
12.5
 24
-305.5
 34
0.0
 50
90.0
100
AcDbRotatedDimension
  0
LWPOLYLINE
  5
7736
330
7720
100
AcDbEntity
  8
18
  6
DIVIDE
100
AcDbPolyline
 90
        4
 70
     1
 43
0.0
 10
37.5
 20
-185.0
 10
-37.5
 20
-185.0
 10
-37.5
 20
-315.0
 10
37.5
 20
-315.0
  0
DIMENSION
  5
7737
330
7720
100
AcDbEntity
  8
30
  6
Continuous
100
AcDbDimension
  2
*D44
 10
37.5
 20
-99.86971099999999
 30
0.0
 11
0.0
 21
-96.869711
 31
0.0
 71
     5
 42
-1.0
  3
STANDARD
100
AcDbAlignedDimension
 13
-37.5
 23
-65.26
 33
0.0
 14
37.5
 24
-65.26
 34
0.0
100
AcDbRotatedDimension
  0
DIMENSION
  5
7738
330
7720
100
AcDbEntity
  8
30
  6
Continuous
100
AcDbDimension
  2
*D42
 10
0.0
 20
-79.69122299999998
 30
0.0
 11
-12.5
 21
-76.69122299999997
 31
0.0
 71
     5
 42
-1.0
  3
STANDARD
100
AcDbAlignedDimension
 13
-25.0
 23
-55.5
 33
0.0
 14
0.0
 24
-55.5
 34
0.0
100
AcDbRotatedDimension
  0
LINE
  5
7739
330
7720
100
AcDbEntity
  8
10
100
AcDbLine
 10
-37.5
 20
-65.26
 30
0.0
 11
37.5
 21
-65.26
 31
0.0
  0
LINE
  5
773A
330
7720
100
AcDbEntity
  8
16
100
AcDbLine
 10
48.424128
 20
-250.0
 30
0.0
 11
-56.608689
 21
-250.0
 31
0.0
  0
DIMENSION
  5
773B
330
7720
100
AcDbEntity
  8
30
  6
Continuous
100
AcDbDimension
  2
*D36
 10
12.5
 20
-330.0
 30
0.0
 11
0.0
 21
-327.0
 31
0.0
 71
     5
 42
-1.0
  3
STANDARD
100
AcDbAlignedDimension
 13
-12.5
 23
-194.5
 33
0.0
 14
12.5
 24
-305.5
 34
0.0
100
AcDbRotatedDimension
  0
LINE
  5
773C
330
7720
100
AcDbEntity
  8
12
  6
DASHDOT
100
AcDbLine
 10
-12.5
 20
-197.75
 30
0.0
 11
-12.5
 21
-191.25
 31
0.0
  0
LINE
  5
773D
330
7720
100
AcDbEntity
  8
17
  6
DASHDOT
100
AcDbLine
 10
-31.5
 20
-57.5
 30
0.0
 11
-18.5
 21
-57.5
 31
0.0
  0
LINE
  5
773E
330
7720
100
AcDbEntity
  8
16
100
AcDbLine
 10
0.0
 20
-318.697891
 30
0.0
 11
0.0
 21
-178.75
 31
0.0
  0
LEADER
  5
773F
330
7720
100
AcDbEntity
  8
30
  6
Continuous
100
AcDbLeader
  3
STANDARD
 76
     3
 10
14.186497
 20
-303.764424
 30
0.0
 10
24.94862799999999
 20
-290.2135799999998
 30
0.0
 10
52.49105799999998
 20
-290.185285
 30
0.0
1001
ACAD
1000
DSTYLE
1002
{
1070
     5
1000
OPEN
1070
   342
1005
3B2
1002
}
  0
LINE
  5
7740
330
7720
100
AcDbEntity
  8
12
  6
DASHDOT
100
AcDbLine
 10
15.75
 20
-305.5
 30
0.0
 11
9.25
 21
-305.5
 31
0.0
  0
LINE
  5
7741
330
7720
100
AcDbEntity
  8
12
  6
DASHDOT
100
AcDbLine
 10
12.5
 20
-308.7499999999999
 30
0.0
 11
12.5
 21
-302.2499999999999
 31
0.0
  0
CIRCLE
  5
7742
330
7720
100
AcDbEntity
  8
12
  6
CONTINOUS
100
AcDbCircle
 10
12.5
 20
-305.5
 30
0.0
 40
2.0
  0
TEXT
  5
7743
330
7720
100
AcDbEntity
  8
30
  6
Continuous
100
AcDbText
 10
42.505164
 20
-288.757857
 30
0.0
 40
5.0
  1
M4
100
AcDbText
  0
DIMENSION
  5
7744
330
7720
100
AcDbEntity
  8
30
  6
Continuous
100
AcDbDimension
  2
*D43
 10
25.0
 20
-79.69122299999998
 30
0.0
 11
12.5
 21
-76.69122299999997
 31
0.0
 71
     5
 42
-1.0
  3
STANDARD
100
AcDbAlignedDimension
 13
0.0
 23
-56.5
 33
0.0
 14
25.0
 24
-55.5
 34
0.0
100
AcDbRotatedDimension
  0
LINE
  5
7745
330
7720
100
AcDbEntity
  8
17
  6
DASHDOT
100
AcDbLine
 10
-6.5
 20
-57.5
 30
0.0
 11
6.5
 21
-57.5
 31
0.0
  0
LINE
  5
7746
330
7720
100
AcDbEntity
  8
17
  6
DASHDOT
100
AcDbLine
 10
18.5
 20
-57.5
 30
0.0
 11
31.5
 21
-57.5
 31
0.0
  0
ARC
  5
7747
330
7720
100
AcDbEntity
  8
12
100
AcDbCircle
 10
-12.5
 20
55.5
 30
0.0
 40
4.0
100
AcDbArc
 50
0.0
 51
359.8199999999998
  0
LINE
  5
7748
330
7720
100
AcDbEntity
  8
10
100
AcDbLine
 10
-34.0
 20
-25.0
 30
0.0
 11
34.0
 21
-25.0
 31
0.0
  0
LINE
  5
7749
330
7720
100
AcDbEntity
  8
10
100
AcDbLine
 10
34.0
 20
25.0
 30
0.0
 11
-34.0
 21
25.0
 31
0.0
  0
LINE
  5
774A
330
7720
100
AcDbEntity
  8
10
100
AcDbLine
 10
37.5
 20
42.0
 30
0.0
 11
-37.5
 21
42.0
 31
0.0
  0
LINE
  5
774B
330
7720
100
AcDbEntity
  8
10
100
AcDbLine
 10
37.5
 20
-42.0
 30
0.0
 11
-37.5
 21
-42.0
 31
0.0
  0
LINE
  5
774C
330
7720
100
AcDbEntity
  8
10
100
AcDbLine
 10
-37.5
 20
65.0
 30
0.0
 11
37.5
 21
65.0
 31
0.0
  0
LINE
  5
774D
330
7720
100
AcDbEntity
  8
10
100
AcDbLine
 10
-37.381809
 20
213.0
 30
0.0
 11
37.61819099999998
 21
213.0
 31
0.0
  0
LINE
  5
774E
330
7720
100
AcDbEntity
  8
10
100
AcDbLine
 10
-37.381809
 20
153.0
 30
0.0
 11
37.61819099999998
 21
153.0
 31
0.0
  0
LINE
  5
774F
330
7720
100
AcDbEntity
  8
10
100
AcDbLine
 10
-37.381809
 20
157.0
 30
0.0
 11
37.61819099999998
 21
157.0
 31
0.0
  0
LINE
  5
7750
330
7720
100
AcDbEntity
  8
10
100
AcDbLine
 10
-34.881809
 20
146.0
 30
0.0
 11
35.11819099999998
 21
146.0
 31
0.0
  0
LINE
  5
7751
330
7720
100
AcDbEntity
  8
16
100
AcDbLine
 10
48.424128
 20
0.0
 30
0.0
 11
-56.608689
 21
0.0
 31
0.0
  0
DIMENSION
  5
7752
330
7720
100
AcDbEntity
  8
30
  6
Continuous
100
AcDbDimension
  2
*D40
 10
-49.65189500000001
 20
-25.0
 30
0.0
 11
-52.65189499999999
 21
0.0
 31
0.0
 71
     5
 42
-1.0
  3
STANDARD
100
AcDbAlignedDimension
 13
-34.0
 23
25.0
 33
0.0
 14
-34.0
 24
-25.0
 34
0.0
 50
90.0
100
AcDbRotatedDimension
  0
LINE
  5
7753
330
7720
100
AcDbEntity
  8
10
100
AcDbLine
 10
-34.0
 20
25.0
 30
0.0
 11
-34.0
 21
-25.0
 31
0.0
  0
LINE
  5
7754
330
7720
100
AcDbEntity
  8
24
  6
CONTINOUS
100
AcDbLine
 10
-16.5
 20
-49.0
 30
0.0
 11
-33.5
 21
-49.0
 31
0.0
  0
CIRCLE
  5
7755
330
7720
100
AcDbEntity
  8
24
  6
CONTINOUS
100
AcDbCircle
 10
-25.0
 20
57.5
 30
0.0
 40
4.0
  0
LINE
  5
7756
330
7720
100
AcDbEntity
  8
24
  6
CONTINOUS
100
AcDbLine
 10
-16.5
 20
49.0
 30
0.0
 11
-33.5
 21
49.0
 31
0.0
  0
LINE
  5
7757
330
7720
100
AcDbEntity
  8
17
  6
DASHDOT
100
AcDbLine
 10
-31.5
 20
57.5
 30
0.0
 11
-18.5
 21
57.5
 31
0.0
  0
LINE
  5
7758
330
7720
100
AcDbEntity
  8
17
  6
DASHDOT
100
AcDbLine
 10
-25.0
 20
64.0
 30
0.0
 11
-25.0
 21
51.0
 31
0.0
  0
LINE
  5
7759
330
7720
100
AcDbEntity
  8
24
  6
CONTINOUS
100
AcDbLine
 10
-33.5
 20
49.0
 30
0.0
 11
-33.5
 21
65.0
 31
0.0
  0
LINE
  5
775A
330
7720
100
AcDbEntity
  8
24
  6
CONTINOUS
100
AcDbLine
 10
-16.5
 20
65.0
 30
0.0
 11
-16.5
 21
49.0
 31
0.0
  0
LINE
  5
775B
330
7720
100
AcDbEntity
  8
10
100
AcDbLine
 10
-37.381809
 20
213.0
 30
0.0
 11
-37.381809
 21
153.0
 31
0.0
  0
LINE
  5
775C
330
7720
100
AcDbEntity
  8
17
  6
DASHDOT
100
AcDbLine
 10
-18.381809
 20
157.0
 30
0.0
 11
-18.381809
 21
191.0
 31
0.0
  0
LINE
  5
775D
330
7720
100
AcDbEntity
  8
17
  6
DASHDOT
100
AcDbLine
 10
-31.381809
 20
157.0
 30
0.0
 11
-31.381809
 21
191.0
 31
0.0
  0
LINE
  5
775E
330
7720
100
AcDbEntity
  8
10
100
AcDbLine
 10
-34.881809
 20
146.0
 30
0.0
 11
-34.881809
 21
153.0
 31
0.0
  0
LINE
  5
775F
330
7720
100
AcDbEntity
  8
24
  6
DASHDOT
100
AcDbLine
 10
-31.381809
 20
189.0
 30
0.0
 11
-18.381809
 21
189.0
 31
0.0
  0
LINE
  5
7760
330
7720
100
AcDbEntity
  8
24
  6
DASHDOT
100
AcDbLine
 10
-31.381809
 20
191.0
 30
0.0
 11
-18.381809
 21
191.0
 31
0.0
  0
LINE
  5
7761
330
7720
100
AcDbEntity
  8
24
  6
DASHDOT
100
AcDbLine
 10
-30.881809
 20
187.5999999999999
 30
0.0
 11
-18.881809
 21
187.5999999999999
 31
0.0
  0
LINE
  5
7762
330
7720
100
AcDbEntity
  8
24
  6
DASHDOT
100
AcDbLine
 10
-29.881809
 20
186.5999999999999
 30
0.0
 11
-19.881809
 21
186.5999999999999
 31
0.0
  0
ARC
  5
7763
330
7720
100
AcDbEntity
  8
24
  6
DASHDOT
100
AcDbCircle
 10
-27.661809
 20
185.28
 30
0.0
 40
1.6
100
AcDbArc
 50
185.25
 51
254.58
  0
LINE
  5
7764
330
7720
100
AcDbEntity
  8
24
  6
DASHDOT
100
AcDbLine
 10
-29.381809
 20
186.5999999999999
 30
0.0
 11
-29.251809
 21
185.1399999999999
 31
0.0
  0
LINE
  5
7765
330
7720
100
AcDbEntity
  8
24
  6
DASHDOT
100
AcDbLine
 10
-30.881809
 20
189.0
 30
0.0
 11
-30.881809
 21
187.5999999999999
 31
0.0
  0
LINE
  5
7766
330
7720
100
AcDbEntity
  8
24
  6
DASHDOT
100
AcDbLine
 10
-29.881809
 20
186.5999999999999
 30
0.0
 11
-29.881809
 21
187.5999999999999
 31
0.0
  0
ARC
  5
7767
330
7720
100
AcDbEntity
  8
24
  6
DASHDOT
100
AcDbCircle
 10
-22.101809
 20
185.28
 30
0.0
 40
1.6
100
AcDbArc
 50
285.5199999999999
 51
354.8399999999998
  0
LINE
  5
7768
330
7720
100
AcDbEntity
  8
24
  6
DASHDOT
100
AcDbLine
 10
-18.881809
 20
187.5999999999999
 30
0.0
 11
-18.881809
 21
189.0
 31
0.0
  0
LINE
  5
7769
330
7720
100
AcDbEntity
  8
24
  6
DASHDOT
100
AcDbLine
 10
-19.881809
 20
186.5999999999999
 30
0.0
 11
-19.881809
 21
187.5999999999999
 31
0.0
  0
LINE
  5
776A
330
7720
100
AcDbEntity
  8
24
  6
DASHDOT
100
AcDbLine
 10
-20.38180899999999
 20
186.5999999999999
 30
0.0
 11
-20.51180899999998
 21
185.1399999999999
 31
0.0
  0
LINE
  5
776B
330
7720
100
AcDbEntity
  8
16
100
AcDbLine
 10
0.118191
 20
82.65937199999997
 30
0.0
 11
0.118191
 21
220.159372
 31
0.0
  0
LINE
  5
776C
330
7720
100
AcDbEntity
  8
10
100
AcDbLine
 10
7.25
 20
19.6
 30
0.0
 11
7.25
 21
-14.0
 31
0.0
  0
LINE
  5
776D
330
7720
100
AcDbEntity
  8
10
100
AcDbLine
 10
-7.25
 20
-14.0
 30
0.0
 11
-7.25
 21
19.6
 31
0.0
  0
LINE
  5
776E
330
7720
100
AcDbEntity
  8
24
  6
CONTINOUS
100
AcDbLine
 10
8.5
 20
-49.0
 30
0.0
 11
-8.5
 21
-49.0
 31
0.0
  0
LINE
  5
776F
330
7720
100
AcDbEntity
  8
10
100
AcDbLine
 10
-7.25
 20
-14.0
 30
0.0
 11
7.25
 21
-14.0
 31
0.0
  0
LINE
  5
7770
330
7720
100
AcDbEntity
  8
10
100
AcDbLine
 10
-7.25
 20
19.6
 30
0.0
 11
7.25
 21
19.6
 31
0.0
  0
LINE
  5
7771
330
7720
100
AcDbEntity
  8
10
100
AcDbLine
 10
-7.25
 20
13.0
 30
0.0
 11
7.25
 21
13.0
 31
0.0
  0
LINE
  5
7772
330
7720
100
AcDbEntity
  8
10
100
AcDbLine
 10
-7.25
 20
7.9
 30
0.0
 11
7.25
 21
7.9
 31
0.0
  0
LINE
  5
7773
330
7720
100
AcDbEntity
  8
10
100
AcDbLine
 10
34.0
 20
-25.0
 30
0.0
 11
34.0
 21
25.0
 31
0.0
  0
LINE
  5
7774
330
7720
100
AcDbEntity
  8
24
  6
CONTINOUS
100
AcDbLine
 10
33.5
 20
-49.0
 30
0.0
 11
16.5
 21
-49.0
 31
0.0
  0
CIRCLE
  5
7775
330
7720
100
AcDbEntity
  8
24
  6
CONTINOUS
100
AcDbCircle
 10
0.0
 20
57.5
 30
0.0
 40
4.0
  0
LINE
  5
7776
330
7720
100
AcDbEntity
  8
17
  6
DASHDOT
100
AcDbLine
 10
-6.5
 20
57.5
 30
0.0
 11
6.5
 21
57.5
 31
0.0
  0
LINE
  5
7777
330
7720
100
AcDbEntity
  8
24
  6
CONTINOUS
100
AcDbLine
 10
8.5
 20
49.0
 30
0.0
 11
-8.5
 21
49.0
 31
0.0
  0
LINE
  5
7778
330
7720
100
AcDbEntity
  8
17
  6
DASHDOT
100
AcDbLine
 10
0.0
 20
64.0
 30
0.0
 11
0.0
 21
51.0
 31
0.0
  0
LINE
  5
7779
330
7720
100
AcDbEntity
  8
24
  6
CONTINOUS
100
AcDbLine
 10
-8.5
 20
49.0
 30
0.0
 11
-8.5
 21
65.0
 31
0.0
  0
LINE
  5
777A
330
7720
100
AcDbEntity
  8
24
  6
CONTINOUS
100
AcDbLine
 10
8.5
 20
65.0
 30
0.0
 11
8.5
 21
49.0
 31
0.0
  0
CIRCLE
  5
777B
330
7720
100
AcDbEntity
  8
24
  6
CONTINOUS
100
AcDbCircle
 10
25.0
 20
57.5
 30
0.0
 40
4.0
  0
LINE
  5
777C
330
7720
100
AcDbEntity
  8
17
  6
DASHDOT
100
AcDbLine
 10
18.5
 20
57.5
 30
0.0
 11
31.5
 21
57.5
 31
0.0
  0
LINE
  5
777D
330
7720
100
AcDbEntity
  8
24
  6
CONTINOUS
100
AcDbLine
 10
33.5
 20
49.0
 30
0.0
 11
16.5
 21
49.0
 31
0.0
  0
LINE
  5
777E
330
7720
100
AcDbEntity
  8
17
  6
DASHDOT
100
AcDbLine
 10
25.0
 20
64.0
 30
0.0
 11
25.0
 21
51.0
 31
0.0
  0
LINE
  5
777F
330
7720
100
AcDbEntity
  8
24
  6
CONTINOUS
100
AcDbLine
 10
16.5
 20
49.0
 30
0.0
 11
16.5
 21
65.0
 31
0.0
  0
LINE
  5
7780
330
7720
100
AcDbEntity
  8
24
  6
CONTINOUS
100
AcDbLine
 10
33.5
 20
65.0
 30
0.0
 11
33.5
 21
49.0
 31
0.0
  0
LINE
  5
7781
330
7720
100
AcDbEntity
  8
10
100
AcDbLine
 10
37.61819099999998
 20
213.0
 30
0.0
 11
37.61819099999998
 21
153.0
 31
0.0
  0
LINE
  5
7782
330
7720
100
AcDbEntity
  8
17
  6
DASHDOT
100
AcDbLine
 10
-6.381808999999998
 20
157.0
 30
0.0
 11
-6.381808999999998
 21
191.0
 31
0.0
  0
LINE
  5
7783
330
7720
100
AcDbEntity
  8
17
  6
DASHDOT
100
AcDbLine
 10
6.618191
 20
157.0
 30
0.0
 11
6.618191
 21
191.0
 31
0.0
  0
LINE
  5
7784
330
7720
100
AcDbEntity
  8
10
100
AcDbLine
 10
-7.131808999999998
 20
134.1999999999998
 30
0.0
 11
7.368191
 21
134.1999999999998
 31
0.0
  0
LINE
  5
7785
330
7720
100
AcDbEntity
  8
10
100
AcDbLine
 10
-7.131808999999998
 20
134.1999999999998
 30
0.0
 11
-7.131808999999998
 21
145.7899999999999
 31
0.0
  0
LINE
  5
7786
330
7720
100
AcDbEntity
  8
10
100
AcDbLine
 10
7.368191
 20
134.1999999999998
 30
0.0
 11
7.368191
 21
146.0
 31
0.0
  0
LINE
  5
7787
330
7720
100
AcDbEntity
  8
24
  6
DASHDOT
100
AcDbLine
 10
-4.881808999999998
 20
186.5999999999999
 30
0.0
 11
5.118191
 21
186.5999999999999
 31
0.0
  0
ARC
  5
7788
330
7720
100
AcDbEntity
  8
24
  6
DASHDOT
100
AcDbCircle
 10
0.118191
 20
195.3
 30
0.0
 40
12.0
100
AcDbArc
 50
254.58
 51
285.5199999999999
  0
LINE
  5
7789
330
7720
100
AcDbEntity
  8
24
  6
DASHDOT
100
AcDbLine
 10
-6.381808999999998
 20
191.0
 30
0.0
 11
6.618191
 21
191.0
 31
0.0
  0
LINE
  5
778A
330
7720
100
AcDbEntity
  8
24
  6
DASHDOT
100
AcDbLine
 10
-5.881808999999998
 20
187.5999999999999
 30
0.0
 11
6.118191
 21
187.5999999999999
 31
0.0
  0
LINE
  5
778B
330
7720
100
AcDbEntity
  8
24
  6
DASHDOT
100
AcDbLine
 10
-6.381808999999998
 20
189.0
 30
0.0
 11
6.618191
 21
189.0
 31
0.0
  0
ARC
  5
778C
330
7720
100
AcDbEntity
  8
24
  6
DASHDOT
100
AcDbCircle
 10
-2.661808999999998
 20
185.28
 30
0.0
 40
1.6
100
AcDbArc
 50
185.25
 51
254.58
  0
LINE
  5
778D
330
7720
100
AcDbEntity
  8
24
  6
DASHDOT
100
AcDbLine
 10
-4.881808999999998
 20
186.5999999999999
 30
0.0
 11
-4.881808999999998
 21
187.5999999999999
 31
0.0
  0
LINE
  5
778E
330
7720
100
AcDbEntity
  8
24
  6
DASHDOT
100
AcDbLine
 10
-5.881808999999998
 20
189.0
 30
0.0
 11
-5.881808999999998
 21
187.5999999999999
 31
0.0
  0
LINE
  5
778F
330
7720
100
AcDbEntity
  8
24
  6
DASHDOT
100
AcDbLine
 10
-4.381808999999998
 20
186.5999999999999
 30
0.0
 11
-4.251808999999998
 21
185.1399999999999
 31
0.0
  0
ARC
  5
7790
330
7720
100
AcDbEntity
  8
24
  6
DASHDOT
100
AcDbCircle
 10
2.898191
 20
185.28
 30
0.0
 40
1.6
100
AcDbArc
 50
285.5199999999999
 51
354.8399999999998
  0
LINE
  5
7791
330
7720
100
AcDbEntity
  8
24
  6
DASHDOT
100
AcDbLine
 10
5.118191
 20
186.5999999999999
 30
0.0
 11
5.118191
 21
187.5999999999999
 31
0.0
  0
LINE
  5
7792
330
7720
100
AcDbEntity
  8
24
  6
DASHDOT
100
AcDbLine
 10
4.618191
 20
186.5999999999999
 30
0.0
 11
4.488191
 21
185.1399999999999
 31
0.0
  0
LINE
  5
7793
330
7720
100
AcDbEntity
  8
24
  6
DASHDOT
100
AcDbLine
 10
6.118191
 20
187.5999999999999
 30
0.0
 11
6.118191
 21
189.0
 31
0.0
  0
LINE
  5
7794
330
7720
100
AcDbEntity
  8
17
  6
DASHDOT
100
AcDbLine
 10
18.61819099999999
 20
157.0
 30
0.0
 11
18.61819099999999
 21
191.0
 31
0.0
  0
LINE
  5
7795
330
7720
100
AcDbEntity
  8
17
  6
DASHDOT
100
AcDbLine
 10
31.61819099999998
 20
157.0
 30
0.0
 11
31.61819099999998
 21
191.0
 31
0.0
  0
LINE
  5
7796
330
7720
100
AcDbEntity
  8
10
100
AcDbLine
 10
31.61819099999998
 20
153.0
 30
0.0
 11
37.61819099999998
 21
153.0
 31
0.0
  0
LINE
  5
7797
330
7720
100
AcDbEntity
  8
10
100
AcDbLine
 10
35.11819099999998
 20
153.0
 30
0.0
 11
35.11819099999998
 21
146.0
 31
0.0
  0
ARC
  5
7798
330
7720
100
AcDbEntity
  8
24
  6
DASHDOT
100
AcDbCircle
 10
27.89819099999998
 20
185.28
 30
0.0
 40
1.6
100
AcDbArc
 50
285.5199999999999
 51
354.8399999999998
  0
LINE
  5
7799
330
7720
100
AcDbEntity
  8
24
  6
DASHDOT
100
AcDbLine
 10
18.61819099999999
 20
191.0
 30
0.0
 11
31.61819099999998
 21
191.0
 31
0.0
  0
LINE
  5
779A
330
7720
100
AcDbEntity
  8
24
  6
DASHDOT
100
AcDbLine
 10
19.11819099999998
 20
187.5999999999999
 30
0.0
 11
31.11819099999999
 21
187.5999999999999
 31
0.0
  0
LINE
  5
779B
330
7720
100
AcDbEntity
  8
24
  6
DASHDOT
100
AcDbLine
 10
18.61819099999999
 20
189.0
 30
0.0
 11
31.61819099999998
 21
189.0
 31
0.0
  0
LINE
  5
779C
330
7720
100
AcDbEntity
  8
24
  6
DASHDOT
100
AcDbLine
 10
20.11819099999998
 20
186.5999999999999
 30
0.0
 11
30.11819099999998
 21
186.5999999999999
 31
0.0
  0
ARC
  5
779D
330
7720
100
AcDbEntity
  8
24
  6
DASHDOT
100
AcDbCircle
 10
22.338191
 20
185.28
 30
0.0
 40
1.6
100
AcDbArc
 50
185.25
 51
254.58
  0
ARC
  5
779E
330
7720
100
AcDbEntity
  8
24
  6
DASHDOT
100
AcDbCircle
 10
25.118191
 20
195.3
 30
0.0
 40
12.0
100
AcDbArc
 50
254.58
 51
285.5199999999999
  0
LINE
  5
779F
330
7720
100
AcDbEntity
  8
24
  6
DASHDOT
100
AcDbLine
 10
19.11819099999998
 20
189.0
 30
0.0
 11
19.11819099999998
 21
187.5999999999999
 31
0.0
  0
LINE
  5
77A0
330
7720
100
AcDbEntity
  8
24
  6
DASHDOT
100
AcDbLine
 10
20.11819099999998
 20
186.5999999999999
 30
0.0
 11
20.11819099999998
 21
187.5999999999999
 31
0.0
  0
LINE
  5
77A1
330
7720
100
AcDbEntity
  8
24
  6
DASHDOT
100
AcDbLine
 10
20.618191
 20
186.5999999999999
 30
0.0
 11
20.748191
 21
185.1399999999999
 31
0.0
  0
LINE
  5
77A2
330
7720
100
AcDbEntity
  8
24
  6
DASHDOT
100
AcDbLine
 10
31.11819099999999
 20
187.5999999999999
 30
0.0
 11
31.11819099999999
 21
189.0
 31
0.0
  0
LINE
  5
77A3
330
7720
100
AcDbEntity
  8
24
  6
DASHDOT
100
AcDbLine
 10
30.11819099999998
 20
186.5999999999999
 30
0.0
 11
30.11819099999998
 21
187.5999999999999
 31
0.0
  0
LINE
  5
77A4
330
7720
100
AcDbEntity
  8
24
  6
DASHDOT
100
AcDbLine
 10
29.61819099999999
 20
186.5999999999999
 30
0.0
 11
29.48819099999999
 21
185.1399999999999
 31
0.0
  0
DIMENSION
  5
77A5
330
7720
100
AcDbEntity
  8
30
  6
Continuous
100
AcDbDimension
  2
*D49
 10
150.0
 20
-90.0
 30
0.0
 11
142.466667
 21
-90.0
 31
0.0
 70
   128
 71
     5
 42
-1.0
  3
STANDARD
100
AcDbAlignedDimension
 13
153.0
 23
-43.0
 33
0.0
 14
150.0
 24
-42.0
 34
0.0
100
AcDbRotatedDimension
1001
ACAD
1000
DSTYLE
1002
{
1070
     6
1000
DOTSMALL
1070
     5
1000

1070
   173
1070
     1
1070
     7
1000
DOTSMALL
1002
}
  0
DIMENSION
  5
77A6
330
7720
100
AcDbEntity
  8
30
  6
Continuous
100
AcDbDimension
  2
*D48
 10
157.0
 20
-90.0
 30
0.0
 11
155.0
 21
-90.0
 31
0.0
 70
   128
 71
     5
 42
-1.0
  3
STANDARD
100
AcDbAlignedDimension
 13
153.0
 23
-42.0
 33
0.0
 14
157.0
 24
-42.0
 34
0.0
100
AcDbRotatedDimension
1001
ACAD
1000
DSTYLE
1002
{
1070
   172
1070
     1
1070
     6
1000
DOTSMALL
1070
     5
1000

1070
   173
1070
     1
1070
     7
1000
DOTSMALL
1002
}
  0
DIMENSION
  5
77A7
330
7720
100
AcDbEntity
  8
30
  6
Continuous
100
AcDbDimension
  2
*D46
 10
217.0
 20
-100.0
 30
0.0
 11
177.0
 21
-97.0
 31
0.0
 71
     5
 42
-1.0
  3
STANDARD
100
AcDbAlignedDimension
 13
137.0
 23
13.0
 33
0.0
 14
217.0
 24
-89.888001
 34
0.0
100
AcDbRotatedDimension
  0
LINE
  5
77A8
330
7720
100
AcDbEntity
  8
10
  6
DASHED
 62
     3
100
AcDbLine
 10
168.0
 20
-59.6
 30
0.0
 11
168.0
 21
-51.4
 31
0.0
  0
LINE
  5
77A9
330
7720
100
AcDbEntity
  8
10
100
AcDbLine
 10
217.0
 20
65.0
 30
0.0
 11
217.0
 21
-65.0
 31
0.0
  0
LINE
  5
77AA
330
7720
100
AcDbEntity
  8
10
100
AcDbLine
 10
161.0
 20
-65.0
 30
0.0
 11
161.0
 21
-42.0
 31
0.0
  0
DIMENSION
  5
77AB
330
7720
100
AcDbEntity
  8
30
  6
Continuous
100
AcDbDimension
  2
*D52
 10
220.975112
 20
-276.0
 30
0.0
 11
217.975112
 21
-250.0
 31
0.0
 71
     5
 42
-1.0
  3
STANDARD
100
AcDbAlignedDimension
 13
195.0
 23
-224.0
 33
0.0
 14
195.0
 24
-276.0
 34
0.0
 50
90.0
100
AcDbRotatedDimension
  0
DIMENSION
  5
77AC
330
7720
100
AcDbEntity
  8
30
  6
Continuous
100
AcDbDimension
  2
*D50
 10
217.0
 20
-80.106996
 30
0.0
 11
189.0
 21
-77.10699599999998
 31
0.0
 71
     5
 42
-1.0
  3
STANDARD
100
AcDbAlignedDimension
 13
161.0
 23
-65.0
 33
0.0
 14
217.0
 24
-65.0
 34
0.0
100
AcDbRotatedDimension
  0
DIMENSION
  5
77AD
330
7720
100
AcDbEntity
  8
30
  6
Continuous
100
AcDbDimension
  2
*D45
 10
217.0
 20
-89.97804499999999
 30
0.0
 11
187.0
 21
-86.978045
 31
0.0
 71
     5
 42
-1.0
  3
STANDARD
100
AcDbAlignedDimension
 13
157.0
 23
-90.38800100000001
 33
0.0
 14
217.0
 24
-65.0
 34
0.0
100
AcDbRotatedDimension
  0
LINE
  5
77AE
330
7720
100
AcDbEntity
  8
12
  6
DASHED
100
AcDbLine
 10
168.0
 20
-57.75
 30
0.0
 11
217.0
 21
-57.75
 31
0.0
  0
LINE
  5
77AF
330
7720
100
AcDbEntity
  8
12
  6
DASHDOT
100
AcDbLine
 10
160.0
 20
-55.5
 30
0.0
 11
220.0
 21
-55.5
 31
0.0
  0
LINE
  5
77B0
330
7720
100
AcDbEntity
  8
10
100
AcDbLine
 10
161.0
 20
-65.26
 30
0.0
 11
217.0
 21
-65.26
 31
0.0
  0
LINE
  5
77B1
330
7720
100
AcDbEntity
  8
10
100
AcDbLine
 10
165.0
 20
-65.26
 30
0.0
 11
217.0
 21
-65.26
 31
0.0
  0
LINE
  5
77B2
330
7720
100
AcDbEntity
  8
16
100
AcDbLine
 10
208.424128
 20
-250.0
 30
0.0
 11
103.391311
 21
-250.0
 31
0.0
  0
LWPOLYLINE
  5
77B3
330
7720
100
AcDbEntity
  8
11
  6
Continuous
100
AcDbPolyline
 90
        8
 70
     1
 43
0.0
 10
125.0
 20
-276.0
 10
195.0
 20
-276.0
 42
0.4142140000000002
 10
196.0
 20
-275.0
 10
196.0
 20
-225.0
 42
0.4142140000000002
 10
195.0
 20
-224.0
 10
125.0
 20
-224.0
 42
0.4142140000000002
 10
124.0
 20
-225.0
 10
124.0
 20
-275.0
 42
0.4142140000000002
  0
LWPOLYLINE
  5
77B4
330
7720
100
AcDbEntity
  8
18
  6
DIVIDE
100
AcDbPolyline
 90
        4
 70
     1
 43
0.0
 10
197.5
 20
-185.0
 10
122.5
 20
-185.0
 10
122.5
 20
-315.0
 10
197.5
 20
-315.0
  0
LINE
  5
77B5
330
7720
100
AcDbEntity
  8
16
100
AcDbLine
 10
160.0
 20
-318.697891
 30
0.0
 11
160.0
 21
-178.75
 31
0.0
  0
DIMENSION
  5
77B6
330
7720
100
AcDbEntity
  8
30
100
AcDbDimension
  2
*D37
 10
196.0
 20
-329.5600839999999
 30
0.0
 11
160.0
 21
-326.5600839999998
 31
0.0
 71
     5
 42
-1.0
  3
STANDARD
100
AcDbAlignedDimension
 13
124.0
 23
-275.0
 33
0.0
 14
196.0
 24
-275.0
 34
0.0
100
AcDbRotatedDimension
1001
ACAD
1000
DSTYLE
1002
{
1070
   140
1040
4.0
1002
}
  0
LEADER
  5
77B7
330
7720
100
AcDbEntity
  8
30
  6
Continuous
100
AcDbLeader
  3
STANDARD
 73
     0
 40
4.0
 41
5.333333
 76
     3
 10
125.0
 20
-224.0
 30
0.0
 10
116.688787
 20
-215.5691809999999
 30
0.0
 10
111.746305
 20
-215.5691809999999
 30
0.0
340
77B8
213
0.0
223
2.0
233
0.0
1001
ACAD
1000
DSTYLE
1002
{
1070
     5
1000
OPEN
1070
    77
1070
     0
1070
   147
1040
1.0
1070
   342
1005
3B2
1002
}
  0
MTEXT
  5
77B8
102
{ACAD_REACTORS
330
77B7
102
}
330
7720
100
AcDbEntity
  8
30
  6
Continuous
100
AcDbMText
 10
110.746305
 20
-217.569181
 30
0.0
 40
4.0
 41
0.0
 71
     9
 72
     1
  1
R1
 73
     1
 44
1.0
  0
LINE
  5
77B9
330
7720
100
AcDbEntity
  8
12
  6
DASHED
100
AcDbLine
 10
161.0
 20
-59.6
 30
0.0
 11
168.0
 21
-59.6
 31
0.0
  0
DIMENSION
  5
77BA
330
7720
100
AcDbEntity
  8
30
  6
Continuous
100
AcDbDimension
  2
*D54
 10
193.0
 20
81.07924
 30
0.0
 11
205.0
 21
84.07923999999999
 31
0.0
 71
     5
 42
-1.0
  3
STANDARD
100
AcDbAlignedDimension
 13
217.0
 23
65.0
 33
0.0
 14
193.0
 24
65.0
 34
0.0
100
AcDbRotatedDimension
1001
ACAD
1000
DSTYLE
1002
{
1070
   140
1040
4.0
1002
}
  0
TEXT
  5
77BB
330
7720
100
AcDbEntity
  8
30
  6
Continuous
100
AcDbText
 10
187.824128
 20
161.1905879999999
 30
0.0
 40
4.0
  1
%%c5.5
  7
STANDARD1
100
AcDbText
  0
TEXT
  5
77BC
330
7720
100
AcDbEntity
  8
19
  6
Continuous
100
AcDbText
 10
148.650458
 20
196.6029124591754
 30
0.0
 40
5.0
  1
FB-50HDT 3P FC
  7
STANDARD1
100
AcDbText
  0
LINE
  5
77BD
330
7720
100
AcDbEntity
  8
12
  6
DASHED
100
AcDbLine
 10
168.0
 20
-53.25
 30
0.0
 11
217.0
 21
-53.25
 31
0.0
  0
LINE
  5
77BE
330
7720
100
AcDbEntity
  8
10
100
AcDbLine
 10
217.0
 20
65.0
 30
0.0
 11
161.0
 21
65.0
 31
0.0
  0
LINE
  5
77BF
330
7720
100
AcDbEntity
  8
10
100
AcDbLine
 10
161.0
 20
65.0
 30
0.0
 11
217.0
 21
65.0
 31
0.0
  0
DIMENSION
  5
77C0
330
7720
100
AcDbEntity
  8
30
  6
Continuous
100
AcDbDimension
  2
*D38
 10
181.7032419999999
 20
125.8304419999999
 30
0.0
 11
197.853242
 21
125.8304419999999
 31
0.0
 70
   128
  1
MAX12.5
 71
     5
 42
-1.0
  3
STANDARD
100
AcDbAlignedDimension
 13
169.2032419999998
 23
137.3304419999998
 33
0.0
 14
181.7032419999999
 24
137.3304419999998
 34
0.0
100
AcDbRotatedDimension
  0
TEXT
  5
77C1
330
7720
100
AcDbEntity
  8
19
  6
Continuous
100
AcDbText
 10
148.650458
 20
206.021882
 30
0.0
 40
5.0
  1
FB-50DT 3P FC
  7
STANDARD1
100
AcDbText
  0
LINE
  5
77C2
330
7720
100
AcDbEntity
  8
16
100
AcDbLine
 10
219.189032
 20
0.0
 30
0.0
 11
115.19371
 21
0.0
 31
0.0
  0
DIMENSION
  5
77C3
330
7720
100
AcDbEntity
  8
30
  6
Continuous
100
AcDbDimension
  2
*D47
 10
129.118344
 20
-42.0
 30
0.0
 11
126.1183439999999
 21
0.0
 31
0.0
 71
     5
 42
-1.0
  3
STANDARD
100
AcDbAlignedDimension
 13
157.0
 23
42.0
 33
0.0
 14
157.0
 24
-42.0
 34
0.0
 50
90.0
100
AcDbRotatedDimension
  0
LINE
  5
77C4
330
7720
100
AcDbEntity
  8
10
100
AcDbLine
 10
139.5
 20
19.6
 30
0.0
 11
150.0
 21
16.39999999999999
 31
0.0
  0
LINE
  5
77C5
330
7720
100
AcDbEntity
  8
10
100
AcDbLine
 10
137.0
 20
13.0
 30
0.0
 11
150.0
 21
7.9
 31
0.0
  0
LINE
  5
77C6
330
7720
100
AcDbEntity
  8
10
100
AcDbLine
 10
139.5
 20
19.6
 30
0.0
 11
137.0
 21
13.0
 31
0.0
  0
LINE
  5
77C7
330
7720
100
AcDbEntity
  8
10
100
AcDbLine
 10
157.0
 20
42.0
 30
0.0
 11
157.0
 21
-42.0
 31
0.0
  0
LINE
  5
77C8
330
7720
100
AcDbEntity
  8
10
100
AcDbLine
 10
161.0
 20
42.0
 30
0.0
 11
161.0
 21
-42.0
 31
0.0
  0
TEXT
  5
77C9
330
7720
100
AcDbEntity
  8
30
  6
Continuous
100
AcDbText
 10
172.576258
 20
-41.20896499999999
 30
0.0
 40
4.0
  1
%%C8
  7
STANDARD1
100
AcDbText
  0
LEADER
  5
77CA
330
7720
100
AcDbEntity
  8
30
  6
Continuous
100
AcDbLeader
  3
STANDARD
 76
     3
 10
165.8940889999998
 20
-51.438804
 30
0.0
 10
171.238785
 20
-43.094549
 30
0.0
 10
188.2823699999999
 20
-43.094549
 30
0.0
1001
ACAD
1000
DSTYLE
1002
{
1070
     5
1000
OPEN
1070
    77
1070
     0
1070
   147
1040
1.0
1070
   342
1005
3B2
1002
}
  0
LINE
  5
77CB
330
7720
100
AcDbEntity
  8
10
100
AcDbLine
 10
153.0
 20
-25.0
 30
0.0
 11
153.0
 21
25.0
 31
0.0
  0
LINE
  5
77CC
330
7720
100
AcDbEntity
  8
10
100
AcDbLine
 10
150.0
 20
-25.0
 30
0.0
 11
150.0
 21
25.0
 31
0.0
  0
LINE
  5
77CD
330
7720
100
AcDbEntity
  8
12
  6
DASHED
100
AcDbLine
 10
161.0
 20
-51.4
 30
0.0
 11
168.0
 21
-51.4
 31
0.0
  0
LINE
  5
77CE
330
7720
100
AcDbEntity
  8
10
100
AcDbLine
 10
157.0
 20
-42.0
 30
0.0
 11
161.0
 21
-42.0
 31
0.0
  0
LINE
  5
77CF
330
7720
100
AcDbEntity
  8
10
100
AcDbLine
 10
150.0
 20
-25.0
 30
0.0
 11
157.0
 21
-25.0
 31
0.0
  0
LINE
  5
77D0
330
7720
100
AcDbEntity
  8
10
100
AcDbLine
 10
150.0
 20
25.0
 30
0.0
 11
157.0
 21
25.0
 31
0.0
  0
TEXT
  5
77D1
330
7720
100
AcDbEntity
  8
30
  6
Continuous
100
AcDbText
 10
159.951559
 20
78.00972
 30
0.0
 40
4.0
  1
M5x14
100
AcDbText
  0
LEADER
  5
77D2
330
7720
100
AcDbEntity
  8
30
  6
Continuous
100
AcDbLeader
  3
STANDARD
 76
     3
 10
189.0
 20
59.5
 30
0.0
 10
176.0
 20
75.5
 30
0.0
 10
161.0
 20
75.5
 30
0.0
1001
ACAD
1000
DSTYLE
1002
{
1070
     5
1000
OPEN
1070
   140
1040
4.0
1070
   342
1005
3B2
1002
}
  0
LINE
  5
77D3
330
7720
100
AcDbEntity
  8
10
100
AcDbLine
 10
161.0
 20
65.0
 30
0.0
 11
161.0
 21
42.0
 31
0.0
  0
LINE
  5
77D4
330
7720
100
AcDbEntity
  8
10
100
AcDbLine
 10
157.0
 20
42.0
 30
0.0
 11
161.0
 21
42.0
 31
0.0
  0
LINE
  5
77D5
330
7720
100
AcDbEntity
  8
17
  6
DASHDOT
100
AcDbLine
 10
186.5
 20
57.5
 30
0.0
 11
199.5
 21
57.5
 31
0.0
  0
LINE
  5
77D6
330
7720
100
AcDbEntity
  8
17
  6
DASHDOT
100
AcDbLine
 10
193.0
 20
49.56566099999999
 30
0.0
 11
193.0
 21
62.875
 31
0.0
  0
LINE
  5
77D7
330
7720
100
AcDbEntity
  8
24
  6
CONTINOUS
100
AcDbLine
 10
190.5
 20
53.375
 30
0.0
 11
190.5
 21
61.625
 31
0.0
  0
LINE
  5
77D8
330
7720
100
AcDbEntity
  8
24
  6
CONTINOUS
100
AcDbLine
 10
193.0
 20
53.375
 30
0.0
 11
193.0
 21
61.625
 31
0.0
  0
LINE
  5
77D9
330
7720
100
AcDbEntity
  8
24
  6
CONTINOUS
100
AcDbLine
 10
193.0
 20
53.375
 30
0.0
 11
190.5
 21
53.375
 31
0.0
  0
LINE
  5
77DA
330
7720
100
AcDbEntity
  8
24
  6
DASHED
100
AcDbLine
 10
193.0
 20
59.625
 30
0.0
 11
190.5
 21
59.625
 31
0.0
  0
LINE
  5
77DB
330
7720
100
AcDbEntity
  8
24
  6
CONTINOUS
100
AcDbLine
 10
193.0
 20
61.625
 30
0.0
 11
190.5
 21
61.625
 31
0.0
  0
LINE
  5
77DC
330
7720
100
AcDbEntity
  8
24
  6
DASHED
100
AcDbLine
 10
193.0
 20
55.375
 30
0.0
 11
190.5
 21
55.375
 31
0.0
  0
DIMENSION
  5
77DD
330
7720
100
AcDbEntity
  8
30
  6
Continuous
100
AcDbDimension
  2
*D39
 10
151.4532419999999
 20
137.3304419999998
 30
0.0
 11
148.4532419999998
 21
140.830442
 31
0.0
 71
     5
 42
-1.0
  3
STANDARD
100
AcDbAlignedDimension
 13
175.4532419999999
 23
144.330442
 33
0.0
 14
169.2032419999998
 24
137.3304419999998
 34
0.0
 50
90.0
100
AcDbRotatedDimension
  0
LINE
  5
77DE
330
7720
100
AcDbEntity
  8
17
  6
DASHDOT
100
AcDbLine
 10
166.451982
 20
144.328302
 30
0.0
 11
184.451982
 21
144.328302
 31
0.0
  0
LWPOLYLINE
  5
77DF
330
7720
100
AcDbEntity
  8
24
100
AcDbPolyline
 90
       33
 70
     0
 43
0.0
 10
169.201982
 20
172.328302
 10
169.8288129999999
 20
172.551202
 10
170.446541
 20
172.758827
 10
171.0460629999999
 20
172.935898
 10
171.618277
 20
173.067141
 10
172.1540779999999
 20
173.1372789999999
 10
172.644365
 20
173.131036
 10
173.080034
 20
173.033136
 10
173.451982
 20
172.828302
 10
173.7558149999999
 20
172.507745
 10
174.0059719999999
 20
172.088626
 10
174.2215999999999
 20
171.5945899999999
 10
174.421848
 20
171.049284
 10
174.625862
 20
170.476356
 10
174.8527909999999
 20
169.899452
 10
175.1217819999999
 20
169.3422179999999
 10
175.451982
 20
168.828302
 10
175.856401
 20
168.376886
 10
176.3234939999999
 20
167.9892949999999
 10
176.835579
 20
167.6623909999999
 10
177.374973
 20
167.393034
 10
177.9239929999999
 20
167.178086
 10
178.464956
 20
167.014407
 10
178.98018
 20
166.898859
 10
179.451982
 20
166.828302
 10
179.8668989999999
 20
166.799249
 10
180.228349
 20
166.8068179999998
 10
180.5439709999999
 20
166.8457749999999
 10
180.821402
 20
166.910891
 10
181.06828
 20
166.996933
 10
181.2922439999999
 20
167.09867
 10
181.500932
 20
167.21087
 10
181.701982
 20
167.328302
  0
ARC
  5
77E0
330
7720
100
AcDbEntity
  8
24
100
AcDbCircle
 10
175.451982
 20
144.328302
 30
0.0
 40
2.75
100
AcDbArc
 50
0.0
 51
359.8199999999998
  0
LINE
  5
77E1
330
7720
100
AcDbEntity
  8
24
100
AcDbLine
 10
169.201982
 20
137.328302
 30
0.0
 11
181.701982
 21
137.328302
 31
0.0
  0
LINE
  5
77E2
330
7720
100
AcDbEntity
  8
24
100
AcDbLine
 10
169.201982
 20
172.328302
 30
0.0
 11
169.201982
 21
137.328302
 31
0.0
  0
LINE
  5
77E3
330
7720
100
AcDbEntity
  8
17
  6
DASHDOT
100
AcDbLine
 10
175.451982
 20
153.328302
 30
0.0
 11
175.451982
 21
133.828302
 31
0.0
  0
LINE
  5
77E4
330
7720
100
AcDbEntity
  8
24
100
AcDbLine
 10
181.701982
 20
167.328302
 30
0.0
 11
181.701982
 21
137.328302
 31
0.0
  0
LEADER
  5
77E5
330
7720
100
AcDbEntity
  8
30
  6
Continuous
100
AcDbLeader
  3
STANDARD
 76
     3
 10
177.913987
 20
148.18641
 30
0.0
 10
187.824125
 20
159.7770899999999
 30
0.0
 10
199.999441
 20
159.7770899999999
 30
0.0
1001
ACAD
1000
DSTYLE
1002
{
1070
     5
1000
OPEN
1070
    77
1070
     0
1070
   147
1040
1.0
1070
   342
1005
3B2
1002
}
  0
TEXT
  5
77E6
330
7720
100
AcDbEntity
  8
30
  6
Continuous
100
AcDbText
 10
225.750976
 20
-37.880558
 30
0.0
 40
4.0
  1
%%C5
  7
STANDARD1
100
AcDbText
  0
LEADER
  5
77E7
330
7720
100
AcDbEntity
  8
30
  6
Continuous
100
AcDbLeader
  3
STANDARD
 76
     3
 10
216.271906
 20
-53.039525
 30
0.0
 10
224.370972
 20
-39.76614099999999
 30
0.0
 10
233.6862339999999
 20
-39.76614099999999
 30
0.0
1001
ACAD
1000
DSTYLE
1002
{
1070
     5
1000
OPEN
1070
    77
1070
     0
1070
   147
1040
1.0
1070
   342
1005
3B2
1002
}
  0
ENDBLK
  5
77E9
330
7720
100
AcDbEntity
  8
0
100
AcDbBlockEnd
  0
BLOCK
  5
7856
330
784C
100
AcDbEntity
  8
0
100
AcDbBlockBegin
  2
*D58
 70
     1
 10
0.0
 20
0.0
 30
0.0
  3
*D58
  1

  0
LINE
  5
784D
330
784C
100
AcDbEntity
  8
30
  6
Continuous
 62
     0
370
    -2
100
AcDbLine
 10
195.08727
 20
-274.999996
 30
0.0
 11
195.08727
 21
-322.6961159999999
 31
0.0
  0
LINE
  5
784E
330
784C
100
AcDbEntity
  8
30
  6
Continuous
 62
     0
370
    -2
100
AcDbLine
 10
125.08729
 20
-274.999996
 30
0.0
 11
125.08729
 21
-322.6961159999999
 31
0.0
  0
LINE
  5
784F
330
784C
100
AcDbEntity
  8
30
  6
Continuous
 62
     0
370
    -2
100
AcDbLine
 10
193.08727
 20
-322.1961159999999
 30
0.0
 11
127.08729
 21
-322.1961159999999
 31
0.0
  0
MTEXT
  5
7850
330
784C
100
AcDbEntity
  8
30
  6
Continuous
 62
     0
100
AcDbMText
 10
160.0
 20
-326.1961159999999
 30
0.0
 40
4.0
 41
0.0
 71
     5
 72
     1
  1
\A1;more than 74
 73
     1
 44
1.0
  0
INSERT
  5
7851
330
784C
100
AcDbEntity
  8
30
  6
Continuous
 62
     0
370
    -2
100
AcDbBlockReference
  2
_OPEN
 10
195.08727
 20
-322.1961159999999
 30
0.0
 41
2.0
 42
2.0
 43
2.0
  0
INSERT
  5
7852
330
784C
100
AcDbEntity
  8
30
  6
Continuous
 62
     0
370
    -2
100
AcDbBlockReference
  2
_OPEN
 10
125.08729
 20
-322.1961159999999
 30
0.0
 41
2.0
 42
2.0
 43
2.0
 50
180.0
  0
POINT
  5
7853
330
784C
100
AcDbEntity
  8
DEFPOINTS
  6
Continuous
 62
     0
100
AcDbPoint
 10
195.08727
 20
-273.999996
 30
0.0
  0
POINT
  5
7854
330
784C
100
AcDbEntity
  8
DEFPOINTS
  6
Continuous
 62
     0
100
AcDbPoint
 10
125.08729
 20
-273.999996
 30
0.0
  0
POINT
  5
7855
330
784C
100
AcDbEntity
  8
DEFPOINTS
  6
Continuous
 62
     0
100
AcDbPoint
 10
125.08729
 20
-322.1961159999999
 30
0.0
  0
ENDBLK
  5
7857
330
784C
100
AcDbEntity
  8
0
100
AcDbBlockEnd
  0
BLOCK
  5
7862
330
7858
100
AcDbEntity
  8
0
100
AcDbBlockBegin
  2
*D59
 70
     1
 10
0.0
 20
0.0
 30
0.0
  3
*D59
  1

  0
LINE
  5
7859
330
7858
100
AcDbEntity
  8
30
  6
Continuous
 62
     0
370
    -2
100
AcDbLine
 10
-3.273677999999904
 20
-208.0000119999999
 30
0.0
 11
62.24569600000003
 21
-208.0000119999999
 31
0.0
  0
LINE
  5
785A
330
7858
100
AcDbEntity
  8
30
  6
Continuous
 62
     0
370
    -2
100
AcDbLine
 10
21.09229200000004
 20
-291.999988
 30
0.0
 11
62.24569600000002
 21
-291.999988
 31
0.0
  0
LINE
  5
785B
330
7858
100
AcDbEntity
  8
30
  6
Continuous
 62
     0
370
    -2
100
AcDbLine
 10
61.74569600000003
 20
-210.0000119999999
 30
0.0
 11
61.74569600000001
 21
-289.999988
 31
0.0
  0
INSERT
  5
785C
330
7858
100
AcDbEntity
  8
30
  6
Continuous
 62
     0
370
    -2
100
AcDbBlockReference
  2
_OPEN
 10
61.74569600000003
 20
-208.0000119999999
 30
0.0
 41
2.0
 42
2.0
 43
2.0
 50
90.0
  0
INSERT
  5
785D
330
7858
100
AcDbEntity
  8
30
  6
Continuous
 62
     0
370
    -2
100
AcDbBlockReference
  2
_OPEN
 10
61.74569600000001
 20
-291.999988
 30
0.0
 41
2.0
 42
2.0
 43
2.0
 50
270.0
  0
MTEXT
  5
785E
330
7858
100
AcDbEntity
  8
30
  6
Continuous
 62
     0
100
AcDbMText
 10
58.74569600000007
 20
-250.0
 30
0.0
 40
4.0
 41
0.0
 71
     5
 72
     1
  1
\A1;84
 11
0.0000000000000001
 21
1.0
 31
0.0
 73
     1
 44
1.0
  0
POINT
  5
785F
330
7858
100
AcDbEntity
  8
DEFPOINTS
  6
Continuous
 62
     0
100
AcDbPoint
 10
-4.273677999999904
 20
-208.0000119999999
 30
0.0
  0
POINT
  5
7860
330
7858
100
AcDbEntity
  8
DEFPOINTS
  6
Continuous
 62
     0
100
AcDbPoint
 10
20.09229200000004
 20
-291.999988
 30
0.0
  0
POINT
  5
7861
330
7858
100
AcDbEntity
  8
DEFPOINTS
  6
Continuous
 62
     0
100
AcDbPoint
 10
61.74569600000001
 20
-291.999988
 30
0.0
  0
ENDBLK
  5
7863
330
7858
100
AcDbEntity
  8
0
100
AcDbBlockEnd
  0
BLOCK
  5
786E
330
7864
100
AcDbEntity
  8
0
100
AcDbBlockBegin
  2
*D60
 70
     1
 10
0.0
 20
0.0
 30
0.0
  3
*D60
  1

  0
LINE
  5
7865
330
7864
100
AcDbEntity
  8
30
  6
Continuous
 62
     0
370
    -2
100
AcDbLine
 10
12.49999600000001
 20
-303.4494199999999
 30
0.0
 11
12.499996
 21
-322.6961159999999
 31
0.0
  0
LINE
  5
7866
330
7864
100
AcDbEntity
  8
30
  6
Continuous
 62
     0
370
    -2
100
AcDbLine
 10
-12.49999799999989
 20
-217.5497179999999
 30
0.0
 11
-12.49999799999989
 21
-322.6961159999999
 31
0.0
  0
LINE
  5
7867
330
7864
100
AcDbEntity
  8
30
  6
Continuous
 62
     0
370
    -2
100
AcDbLine
 10
10.499996
 20
-322.1961159999999
 30
0.0
 11
-10.49999799999989
 21
-322.1961159999999
 31
0.0
  0
INSERT
  5
7868
330
7864
100
AcDbEntity
  8
30
  6
Continuous
 62
     0
370
    -2
100
AcDbBlockReference
  2
_OPEN
 10
12.499996
 20
-322.1961159999999
 30
0.0
 41
2.0
 42
2.0
 43
2.0
  0
INSERT
  5
7869
330
7864
100
AcDbEntity
  8
30
  6
Continuous
 62
     0
370
    -2
100
AcDbBlockReference
  2
_OPEN
 10
-12.49999799999989
 20
-322.1961159999999
 30
0.0
 41
2.0
 42
2.0
 43
2.0
 50
180.0
  0
MTEXT
  5
786A
330
7864
100
AcDbEntity
  8
30
  6
Continuous
 62
     0
100
AcDbMText
 10
-0.0000009999999449
 20
-319.1961159999999
 30
0.0
 40
4.0
 41
0.0
 71
     5
 72
     1
  1
\A1;25
 73
     1
 44
1.0
  0
POINT
  5
786B
330
7864
100
AcDbEntity
  8
DEFPOINTS
  6
Continuous
 62
     0
100
AcDbPoint
 10
12.49999600000001
 20
-302.4494199999999
 30
0.0
  0
POINT
  5
786C
330
7864
100
AcDbEntity
  8
DEFPOINTS
  6
Continuous
 62
     0
100
AcDbPoint
 10
-12.49999799999989
 20
-216.549718
 30
0.0
  0
POINT
  5
786D
330
7864
100
AcDbEntity
  8
DEFPOINTS
  6
Continuous
 62
     0
100
AcDbPoint
 10
-12.49999799999989
 20
-322.1961159999999
 30
0.0
  0
ENDBLK
  5
786F
330
7864
100
AcDbEntity
  8
0
100
AcDbBlockEnd
  0
BLOCK
  5
7879
330
7870
100
AcDbEntity
  8
0
100
AcDbBlockBegin
  2
*D61
 70
     1
 10
0.0
 20
0.0
 30
0.0
  3
*D61
  1

  0
LINE
  5
7871
330
7870
100
AcDbEntity
  8
30
  6
Continuous
 62
     0
370
    -2
100
AcDbLine
 10
67.23855945793826
 20
-191.6593410417413
 30
0.0
 11
113.7052261246049
 21
-191.6593410417412
 31
0.0
  0
LINE
  5
7872
330
7870
100
AcDbEntity
  8
30
  6
Continuous
 62
     0
370
    -2
100
AcDbLine
 10
113.7052261246049
 20
-191.6593410417412
 30
0.0
 11
125.6349257555612
 21
-222.2729926991644
 31
0.0
  0
MTEXT
  5
7873
330
7870
100
AcDbEntity
  8
30
  6
Continuous
 62
     0
100
AcDbMText
 10
89.97189279127159
 20
-188.6593410417413
 30
0.0
 40
4.0
 41
0.0
 71
     5
 72
     1
  1
\A1;lsess than R2
 73
     1
 44
1.0
  0
INSERT
  5
7874
330
7870
100
AcDbEntity
  8
30
  6
Continuous
 62
     0
370
    -2
100
AcDbBlockReference
  2
_OPEN
 10
126.3611077654224
 20
-224.1365000612518
 30
0.0
 41
2.0
 42
2.0
 43
2.0
 50
291.2901470150438
  0
LINE
  5
7875
330
7870
100
AcDbEntity
  8
30
  6
Continuous
 62
     0
370
    -2
100
AcDbLine
 10
126.9972899999999
 20
-226.000008
 30
0.0
 11
127.1772899999999
 21
-226.000008
 31
0.0
  0
LINE
  5
7876
330
7870
100
AcDbEntity
  8
30
  6
Continuous
 62
     0
370
    -2
100
AcDbLine
 10
127.08729
 20
-226.090008
 30
0.0
 11
127.08729
 21
-225.910008
 31
0.0
  0
POINT
  5
7877
330
7870
100
AcDbEntity
  8
DEFPOINTS
  6
Continuous
 62
     0
100
AcDbPoint
 10
126.3611077654224
 20
-224.1365000612518
 30
0.0
  0
POINT
  5
7878
330
7870
100
AcDbEntity
  8
DEFPOINTS
  6
Continuous
 62
     0
100
AcDbPoint
 10
127.08729
 20
-226.000008
 30
0.0
  0
ENDBLK
  5
787A
330
7870
100
AcDbEntity
  8
0
100
AcDbBlockEnd
  0
BLOCK
  5
7885
330
787B
100
AcDbEntity
  8
0
100
AcDbBlockBegin
  2
*D62
 70
     1
 10
0.0
 20
0.0
 30
0.0
  3
*D62
  1

  0
LINE
  5
787C
330
787B
100
AcDbEntity
  8
30
  6
Continuous
 62
     0
370
    -2
100
AcDbLine
 10
194.087272
 20
-224.0000079999999
 30
0.0
 11
217.9642739999999
 21
-224.0000079999999
 31
0.0
  0
LINE
  5
787D
330
787B
100
AcDbEntity
  8
30
  6
Continuous
 62
     0
370
    -2
100
AcDbLine
 10
194.087272
 20
-275.999994
 30
0.0
 11
217.9642739999999
 21
-275.999994
 31
0.0
  0
LINE
  5
787E
330
787B
100
AcDbEntity
  8
30
  6
Continuous
 62
     0
370
    -2
100
AcDbLine
 10
217.4642739999999
 20
-226.0000079999999
 30
0.0
 11
217.4642739999999
 21
-273.999994
 31
0.0
  0
MTEXT
  5
787F
330
787B
100
AcDbEntity
  8
30
  6
Continuous
 62
     0
100
AcDbMText
 10
222.1682223234165
 20
-250.0
 30
0.0
 40
4.0
 41
0.0
 71
     5
 72
     1
  1
\A1;more than 26
 11
0.0000000000000001
 21
1.0
 31
0.0
 73
     1
 44
1.0
  0
INSERT
  5
7880
330
787B
100
AcDbEntity
  8
30
  6
Continuous
 62
     0
370
    -2
100
AcDbBlockReference
  2
_OPEN
 10
217.4642739999999
 20
-224.0000079999999
 30
0.0
 41
2.0
 42
2.0
 43
2.0
 50
90.0
  0
INSERT
  5
7881
330
787B
100
AcDbEntity
  8
30
  6
Continuous
 62
     0
370
    -2
100
AcDbBlockReference
  2
_OPEN
 10
217.4642739999999
 20
-275.999994
 30
0.0
 41
2.0
 42
2.0
 43
2.0
 50
270.0
  0
POINT
  5
7882
330
787B
100
AcDbEntity
  8
DEFPOINTS
  6
Continuous
 62
     0
100
AcDbPoint
 10
193.087272
 20
-224.0000079999999
 30
0.0
  0
POINT
  5
7883
330
787B
100
AcDbEntity
  8
DEFPOINTS
  6
Continuous
 62
     0
100
AcDbPoint
 10
193.087272
 20
-275.999994
 30
0.0
  0
POINT
  5
7884
330
787B
100
AcDbEntity
  8
DEFPOINTS
  6
Continuous
 62
     0
100
AcDbPoint
 10
217.4642739999999
 20
-275.999994
 30
0.0
  0
ENDBLK
  5
7886
330
787B
100
AcDbEntity
  8
0
100
AcDbBlockEnd
  0
BLOCK
  5
78D2
330
78C9
100
AcDbEntity
  8
0
100
AcDbBlockBegin
  2
*D64
 70
     1
 10
0.0
 20
0.0
 30
0.0
  3
*D64
  1

  0
LINE
  5
7904
330
78C9
100
AcDbEntity
  8
30
  6
Continuous
 62
     0
370
    -2
100
AcDbLine
 10
67.23855945793824
 20
-191.6593410417413
 30
0.0
 11
113.7052261246051
 21
-191.6593410417413
 31
0.0
  0
LINE
  5
7905
330
78C9
100
AcDbEntity
  8
30
  6
Continuous
 62
     0
370
    -2
100
AcDbLine
 10
113.7052261246051
 20
-191.6593410417413
 30
0.0
 11
125.6349257555612
 21
-222.2729926991644
 31
0.0
  0
MTEXT
  5
7906
330
78C9
100
AcDbEntity
  8
30
  6
Continuous
 62
     0
100
AcDbMText
 10
89.97189279127157
 20
-188.6593410417413
 30
0.0
 40
4.0
 41
0.0
 71
     5
 72
     1
  1
\A1;lsess than R2
 73
     1
 44
1.0
  0
INSERT
  5
7907
330
78C9
100
AcDbEntity
  8
30
  6
Continuous
 62
     0
370
    -2
100
AcDbBlockReference
  2
_OPEN
 10
126.3611077654224
 20
-224.1365000612519
 30
0.0
 41
2.0
 42
2.0
 43
2.0
 50
291.2901470150434
  0
LINE
  5
7908
330
78C9
100
AcDbEntity
  8
30
  6
Continuous
 62
     0
370
    -2
100
AcDbLine
 10
126.9972899999999
 20
-226.000008
 30
0.0
 11
127.1772899999999
 21
-226.000008
 31
0.0
  0
LINE
  5
7909
330
78C9
100
AcDbEntity
  8
30
  6
Continuous
 62
     0
370
    -2
100
AcDbLine
 10
127.08729
 20
-226.090008
 30
0.0
 11
127.08729
 21
-225.910008
 31
0.0
  0
POINT
  5
790A
330
78C9
100
AcDbEntity
  8
DEFPOINTS
  6
Continuous
 62
     0
100
AcDbPoint
 10
126.3611077654224
 20
-224.1365000612519
 30
0.0
  0
POINT
  5
790B
330
78C9
100
AcDbEntity
  8
DEFPOINTS
  6
Continuous
 62
     0
100
AcDbPoint
 10
127.08729
 20
-226.000008
 30
0.0
  0
ENDBLK
  5
78D3
330
78C9
100
AcDbEntity
  8
0
100
AcDbBlockEnd
  0
BLOCK
  5
78DE
330
78D4
100
AcDbEntity
  8
0
100
AcDbBlockBegin
  2
*D65
 70
     1
 10
0.0
 20
0.0
 30
0.0
  3
*D65
  1

  0
LINE
  5
790C
330
78D4
100
AcDbEntity
  8
30
  6
Continuous
 62
     0
370
    -2
100
AcDbLine
 10
12.49999600000001
 20
-303.4494199999999
 30
0.0
 11
12.499996
 21
-322.6961159999999
 31
0.0
  0
LINE
  5
790D
330
78D4
100
AcDbEntity
  8
30
  6
Continuous
 62
     0
370
    -2
100
AcDbLine
 10
-12.49999799999989
 20
-217.5497179999999
 30
0.0
 11
-12.49999799999989
 21
-322.6961159999999
 31
0.0
  0
LINE
  5
790E
330
78D4
100
AcDbEntity
  8
30
  6
Continuous
 62
     0
370
    -2
100
AcDbLine
 10
10.499996
 20
-322.1961159999999
 30
0.0
 11
-10.49999799999989
 21
-322.1961159999999
 31
0.0
  0
INSERT
  5
790F
330
78D4
100
AcDbEntity
  8
30
  6
Continuous
 62
     0
370
    -2
100
AcDbBlockReference
  2
_OPEN
 10
12.499996
 20
-322.1961159999999
 30
0.0
 41
2.0
 42
2.0
 43
2.0
  0
INSERT
  5
7910
330
78D4
100
AcDbEntity
  8
30
  6
Continuous
 62
     0
370
    -2
100
AcDbBlockReference
  2
_OPEN
 10
-12.49999799999989
 20
-322.1961159999999
 30
0.0
 41
2.0
 42
2.0
 43
2.0
 50
180.0
  0
MTEXT
  5
7911
330
78D4
100
AcDbEntity
  8
30
  6
Continuous
 62
     0
100
AcDbMText
 10
-0.0000009999999449
 20
-319.1961159999999
 30
0.0
 40
4.0
 41
0.0
 71
     5
 72
     1
  1
\A1;25
 73
     1
 44
1.0
  0
POINT
  5
7912
330
78D4
100
AcDbEntity
  8
DEFPOINTS
  6
Continuous
 62
     0
100
AcDbPoint
 10
12.49999600000001
 20
-302.4494199999999
 30
0.0
  0
POINT
  5
7913
330
78D4
100
AcDbEntity
  8
DEFPOINTS
  6
Continuous
 62
     0
100
AcDbPoint
 10
-12.49999799999989
 20
-216.549718
 30
0.0
  0
POINT
  5
7914
330
78D4
100
AcDbEntity
  8
DEFPOINTS
  6
Continuous
 62
     0
100
AcDbPoint
 10
-12.49999799999989
 20
-322.1961159999999
 30
0.0
  0
ENDBLK
  5
78DF
330
78D4
100
AcDbEntity
  8
0
100
AcDbBlockEnd
  0
BLOCK
  5
78EA
330
78E0
100
AcDbEntity
  8
0
100
AcDbBlockBegin
  2
*D66
 70
     1
 10
0.0
 20
0.0
 30
0.0
  3
*D66
  1

  0
LINE
  5
7915
330
78E0
100
AcDbEntity
  8
30
  6
Continuous
 62
     0
370
    -2
100
AcDbLine
 10
-3.273677999999904
 20
-208.0000119999999
 30
0.0
 11
62.24569600000003
 21
-208.0000119999999
 31
0.0
  0
LINE
  5
7916
330
78E0
100
AcDbEntity
  8
30
  6
Continuous
 62
     0
370
    -2
100
AcDbLine
 10
21.09229200000004
 20
-291.999988
 30
0.0
 11
62.24569600000002
 21
-291.999988
 31
0.0
  0
LINE
  5
7917
330
78E0
100
AcDbEntity
  8
30
  6
Continuous
 62
     0
370
    -2
100
AcDbLine
 10
61.74569600000003
 20
-210.0000119999999
 30
0.0
 11
61.74569600000001
 21
-289.999988
 31
0.0
  0
INSERT
  5
7918
330
78E0
100
AcDbEntity
  8
30
  6
Continuous
 62
     0
370
    -2
100
AcDbBlockReference
  2
_OPEN
 10
61.74569600000003
 20
-208.0000119999999
 30
0.0
 41
2.0
 42
2.0
 43
2.0
 50
90.0
  0
INSERT
  5
7919
330
78E0
100
AcDbEntity
  8
30
  6
Continuous
 62
     0
370
    -2
100
AcDbBlockReference
  2
_OPEN
 10
61.74569600000001
 20
-291.999988
 30
0.0
 41
2.0
 42
2.0
 43
2.0
 50
270.0
  0
MTEXT
  5
791A
330
78E0
100
AcDbEntity
  8
30
  6
Continuous
 62
     0
100
AcDbMText
 10
58.74569600000007
 20
-250.0
 30
0.0
 40
4.0
 41
0.0
 71
     5
 72
     1
  1
\A1;84
 11
0.0000000000000001
 21
1.0
 31
0.0
 73
     1
 44
1.0
  0
POINT
  5
791B
330
78E0
100
AcDbEntity
  8
DEFPOINTS
  6
Continuous
 62
     0
100
AcDbPoint
 10
-4.273677999999904
 20
-208.0000119999999
 30
0.0
  0
POINT
  5
791C
330
78E0
100
AcDbEntity
  8
DEFPOINTS
  6
Continuous
 62
     0
100
AcDbPoint
 10
20.09229200000004
 20
-291.999988
 30
0.0
  0
POINT
  5
791D
330
78E0
100
AcDbEntity
  8
DEFPOINTS
  6
Continuous
 62
     0
100
AcDbPoint
 10
61.74569600000001
 20
-291.999988
 30
0.0
  0
ENDBLK
  5
78EB
330
78E0
100
AcDbEntity
  8
0
100
AcDbBlockEnd
  0
BLOCK
  5
78F6
330
78EC
100
AcDbEntity
  8
0
100
AcDbBlockBegin
  2
*D67
 70
     1
 10
0.0
 20
0.0
 30
0.0
  3
*D67
  1

  0
LINE
  5
7933
330
78EC
100
AcDbEntity
  8
30
  6
Continuous
 62
     0
370
    -2
100
AcDbLine
 10
194.087272
 20
-224.0000079999999
 30
0.0
 11
217.9642739999999
 21
-224.0000079999999
 31
0.0
  0
LINE
  5
7934
330
78EC
100
AcDbEntity
  8
30
  6
Continuous
 62
     0
370
    -2
100
AcDbLine
 10
194.087272
 20
-275.999994
 30
0.0
 11
217.9642739999999
 21
-275.999994
 31
0.0
  0
LINE
  5
7935
330
78EC
100
AcDbEntity
  8
30
  6
Continuous
 62
     0
370
    -2
100
AcDbLine
 10
217.4642739999999
 20
-226.0000079999999
 30
0.0
 11
217.4642739999999
 21
-273.999994
 31
0.0
  0
MTEXT
  5
7936
330
78EC
100
AcDbEntity
  8
30
  6
Continuous
 62
     0
100
AcDbMText
 10
222.1682223234165
 20
-250.0
 30
0.0
 40
4.0
 41
0.0
 71
     5
 72
     1
  1
\A1;more than 52
 11
0.0000000000000001
 21
1.0
 31
0.0
 73
     1
 44
1.0
  0
INSERT
  5
7937
330
78EC
100
AcDbEntity
  8
30
  6
Continuous
 62
     0
370
    -2
100
AcDbBlockReference
  2
_OPEN
 10
217.4642739999999
 20
-224.0000079999999
 30
0.0
 41
2.0
 42
2.0
 43
2.0
 50
90.0
  0
INSERT
  5
7938
330
78EC
100
AcDbEntity
  8
30
  6
Continuous
 62
     0
370
    -2
100
AcDbBlockReference
  2
_OPEN
 10
217.4642739999999
 20
-275.999994
 30
0.0
 41
2.0
 42
2.0
 43
2.0
 50
270.0
  0
POINT
  5
7939
330
78EC
100
AcDbEntity
  8
DEFPOINTS
  6
Continuous
 62
     0
100
AcDbPoint
 10
193.087272
 20
-224.0000079999999
 30
0.0
  0
POINT
  5
793A
330
78EC
100
AcDbEntity
  8
DEFPOINTS
  6
Continuous
 62
     0
100
AcDbPoint
 10
193.087272
 20
-275.999994
 30
0.0
  0
POINT
  5
793B
330
78EC
100
AcDbEntity
  8
DEFPOINTS
  6
Continuous
 62
     0
100
AcDbPoint
 10
217.4642739999999
 20
-275.999994
 30
0.0
  0
ENDBLK
  5
78F7
330
78EC
100
AcDbEntity
  8
0
100
AcDbBlockEnd
  0
BLOCK
  5
7902
330
78F8
100
AcDbEntity
  8
0
100
AcDbBlockBegin
  2
*D68
 70
     1
 10
0.0
 20
0.0
 30
0.0
  3
*D68
  1

  0
LINE
  5
7927
330
78F8
100
AcDbEntity
  8
30
  6
Continuous
 62
     0
370
    -2
100
AcDbLine
 10
195.08727
 20
-274.999996
 30
0.0
 11
195.08727
 21
-322.6961159999999
 31
0.0
  0
LINE
  5
7928
330
78F8
100
AcDbEntity
  8
30
  6
Continuous
 62
     0
370
    -2
100
AcDbLine
 10
125.08729
 20
-274.999996
 30
0.0
 11
125.08729
 21
-322.6961159999999
 31
0.0
  0
LINE
  5
7929
330
78F8
100
AcDbEntity
  8
30
  6
Continuous
 62
     0
370
    -2
100
AcDbLine
 10
193.08727
 20
-322.1961159999999
 30
0.0
 11
127.08729
 21
-322.1961159999999
 31
0.0
  0
MTEXT
  5
792A
330
78F8
100
AcDbEntity
  8
30
  6
Continuous
 62
     0
100
AcDbMText
 10
160.0
 20
-326.1961159999999
 30
0.0
 40
4.0
 41
0.0
 71
     5
 72
     1
  1
\A1;more than 74
 73
     1
 44
1.0
  0
INSERT
  5
792B
330
78F8
100
AcDbEntity
  8
30
  6
Continuous
 62
     0
370
    -2
100
AcDbBlockReference
  2
_OPEN
 10
195.08727
 20
-322.1961159999999
 30
0.0
 41
2.0
 42
2.0
 43
2.0
  0
INSERT
  5
792C
330
78F8
100
AcDbEntity
  8
30
  6
Continuous
 62
     0
370
    -2
100
AcDbBlockReference
  2
_OPEN
 10
125.08729
 20
-322.1961159999999
 30
0.0
 41
2.0
 42
2.0
 43
2.0
 50
180.0
  0
POINT
  5
792D
330
78F8
100
AcDbEntity
  8
DEFPOINTS
  6
Continuous
 62
     0
100
AcDbPoint
 10
195.08727
 20
-273.999996
 30
0.0
  0
POINT
  5
792E
330
78F8
100
AcDbEntity
  8
DEFPOINTS
  6
Continuous
 62
     0
100
AcDbPoint
 10
125.08729
 20
-273.999996
 30
0.0
  0
POINT
  5
792F
330
78F8
100
AcDbEntity
  8
DEFPOINTS
  6
Continuous
 62
     0
100
AcDbPoint
 10
125.08729
 20
-322.1961159999999
 30
0.0
  0
ENDBLK
  5
7903
330
78F8
100
AcDbEntity
  8
0
100
AcDbBlockEnd
  0
ENDSEC
  0
SECTION
  2
ENTITIES
  0
LINE
  5
B4
330
1E
100
AcDbEntity
  8
16
100
AcDbLine
 10
0.0
 20
-68.697891
 30
0.0
 11
0.0
 21
71.25
 31
0.0
  0
LINE
  5
B5
330
1E
100
AcDbEntity
  8
16
100
AcDbLine
 10
48.424128
 20
0.0
 30
0.0
 11
-56.608689
 21
0.0
 31
0.0
  0
MTEXT
  5
BF3
330
1E
100
AcDbEntity
  8
24
  6
Continuous
100
AcDbMText
 10
142.118191
 20
177.5
 30
0.0
 40
3.0
 41
0.0
 71
     1
 72
     1
  1
\A1;
 73
     1
 44
1.0
  0
LINE
  5
1C9A
330
1E
100
AcDbEntity
  8
16
100
AcDbLine
 10
0.0000000000000041
 20
119.9708194754172
 30
0.0
 11
0.0000000000000041
 21
220.159372
 31
0.0
  0
LINE
  5
1C9B
330
1E
100
AcDbEntity
  8
16
100
AcDbLine
 10
219.189032
 20
0.0
 30
0.0
 11
115.19371
 21
0.0
 31
0.0
  0
LINE
  5
2233
330
1E
100
AcDbEntity
  8
16
100
AcDbLine
 10
160.0
 20
-318.697891
 30
0.0
 11
160.0
 21
-178.75
 31
0.0
  0
LINE
  5
2234
330
1E
100
AcDbEntity
  8
16
100
AcDbLine
 10
208.424128
 20
-250.0
 30
0.0
 11
103.391311
 21
-250.0
 31
0.0
  0
LINE
  5
2260
330
1E
100
AcDbEntity
  8
16
100
AcDbLine
 10
48.424128
 20
-250.0
 30
0.0
 11
-56.608689
 21
-250.0
 31
0.0
  0
LINE
  5
2261
330
1E
100
AcDbEntity
  8
16
100
AcDbLine
 10
0.0
 20
-318.697891
 30
0.0
 11
0.0
 21
-178.75
 31
0.0
  0
TEXT
  5
59A5
330
1E
100
AcDbEntity
  8
19
  6
Continuous
100
AcDbText
 10
165.3782574920217
 20
221.0448441088611
 30
0.0
 40
5.0
  1
FC-100ET 3P
  7
STANDARD1
100
AcDbText
  0
DIMENSION
  5
59A6
330
1E
100
AcDbEntity
  8
30
  6
Continuous
100
AcDbDimension
  2
*D3
 10
199.7491769457498
 20
157.814895586841
 30
0.0
 11
199.7491769457498
 21
161.3148960868409
 31
0.0
 70
   160
  1
<>
 71
     5
 42
7.000000999999997
  3
STANDARD
100
AcDbAlignedDimension
 13
190.8913399457498
 23
164.814896586841
 33
0.0
 14
190.6413399457498
 24
157.814895586841
 34
0.0
 50
90.0
100
AcDbRotatedDimension
  0
LINE
  5
59A8
330
1E
100
AcDbEntity
  8
24
100
AcDbLine
 10
175.6413399457498
 20
157.814895586841
 30
0.0
 11
175.6413399457498
 21
187.190979586841
 31
0.0
  0
LINE
  5
59A9
330
1E
100
AcDbEntity
  8
24
100
AcDbLine
 10
190.6413399457498
 20
157.814895586841
 30
0.0
 11
190.6413399457498
 21
187.190979586841
 31
0.0
  0
CIRCLE
  5
59AA
330
1E
100
AcDbEntity
  8
24
100
AcDbCircle
 10
183.1413399457498
 20
164.814896586841
 30
0.0
 40
4.5
  0
LINE
  5
59AB
330
1E
100
AcDbEntity
  8
17
  6
DASHDOT
100
AcDbLine
 10
183.1413399457498
 20
172.564896586841
 30
0.0
 11
183.1413399457498
 21
157.064896586841
 31
0.0
  0
DIMENSION
  5
59AC
330
1E
100
AcDbEntity
  8
30
  6
Continuous
100
AcDbDimension
  2
*D2
 10
175.6413399457498
 20
149.221807886383
 30
0.0
 11
183.1413399457498
 21
144.8862884303096
 31
0.0
 70
   160
  1
max<>
 71
     5
 42
15.0
  3
STANDARD
100
AcDbAlignedDimension
 13
190.6413399457498
 23
157.814895586841
 33
0.0
 14
175.6413399457498
 24
157.814895586841
 34
0.0
 50
180.0
100
AcDbRotatedDimension
1001
ACAD
1000
DSTYLE
1002
{
1070
   279
1070
     2
1002
}
  0
MTEXT
  5
59AD
330
1E
100
AcDbEntity
  8
19
  6
Continuous
100
AcDbMText
 10
177.4250468928707
 20
135.8261932220275
 30
0.0
 40
5.0
 41
0.0
 71
     1
 72
     1
  1
\W0.879;\A1;t≦6
  7
STANDARD1
 73
     1
 44
1.0
  0
LINE
  5
59AE
330
1E
100
AcDbEntity
  8
24
100
AcDbLine
 10
175.6413399457498
 20
157.814895586841
 30
0.0
 11
190.6413399457498
 21
157.814895586841
 31
0.0
  0
LINE
  5
59AF
330
1E
100
AcDbEntity
  8
17
  6
DASHDOT
100
AcDbLine
 10
175.3913399457498
 20
164.814896586841
 30
0.0
 11
190.8913399457498
 21
164.814896586841
 31
0.0
  0
DIMENSION
  5
61C2
330
1E
100
AcDbEntity
  8
30
  6
Continuous
100
AcDbDimension
  2
*D9
 10
162.5
 20
89.64793799999995
 30
0.0
 11
185.0
 21
89.64793799999995
 31
0.0
 70
   160
  1
<>
 71
     5
 42
45.0
  3
STANDARD
100
AcDbAlignedDimension
 13
207.5
 23
99.75006199999995
 33
0.0
 14
162.5
 24
99.75006199999995
 34
0.0
100
AcDbRotatedDimension
  0
DIMENSION
  5
61C3
330
1E
100
AcDbEntity
  8
30
  6
Continuous
100
AcDbDimension
  2
*D10
 10
150.0000589999999
 20
-61.31171800000004
 30
0.0
 11
180.00003
 21
-61.31171800000004
 31
0.0
 70
   160
  1
<>
 71
     5
 42
59.99994100000003
  3
STANDARD
100
AcDbAlignedDimension
 13
210.0
 23
-43.00005400000003
 33
0.0
 14
150.0000589999999
 24
-36.89997100000002
 34
0.0
100
AcDbRotatedDimension
  0
DIMENSION
  5
61C4
330
1E
100
AcDbEntity
  8
30
  6
Continuous
100
AcDbDimension
  2
*D11
 10
210.0
 20
59.27054899999996
 30
0.0
 11
188.4998039999999
 21
59.27054899999996
 31
0.0
 70
   160
  1
<>
 71
     5
 42
43.00039100000003
  3
STANDARD
100
AcDbAlignedDimension
 13
166.9996089999999
 23
45.89999999999998
 33
0.0
 14
210.0
 24
43.00005999999996
 34
0.0
100
AcDbRotatedDimension
  0
DIMENSION
  5
61C5
330
1E
100
AcDbEntity
  8
30
  6
Continuous
100
AcDbDimension
  2
*D12
 10
126.0
 20
-69.49052100000002
 30
0.0
 11
168.0
 21
-69.49052100000002
 31
0.0
 70
   160
  1
<>
 71
     5
 42
84.0
  3
STANDARD
100
AcDbAlignedDimension
 13
210.0
 23
-43.06257100000002
 33
0.0
 14
126.0
 24
9.500002999999935
 34
0.0
100
AcDbRotatedDimension
  0
LINE
  5
61C6
330
1E
100
AcDbEntity
  8
30
  6
Continuous
100
AcDbLine
 10
162.5
 20
99.75006199999995
 30
0.0
 11
207.5
 21
99.75006199999995
 31
0.0
  0
DIMENSION
  5
61C7
330
1E
100
AcDbEntity
  8
30
  6
Continuous
100
AcDbDimension
  2
*D13
 10
210.0
 20
104.2134309999999
 30
0.0
 11
184.5000139999999
 21
104.2134309999999
 31
0.0
 70
   160
  1
<>
 71
     5
 42
50.99997100000002
  3
STANDARD
100
AcDbAlignedDimension
 13
159.0000289999999
 23
47.19999999999998
 33
0.0
 14
210.0
 24
43.00006399999995
 34
0.0
100
AcDbRotatedDimension
  0
LINE
  5
61C8
330
1E
100
AcDbEntity
  8
12
  6
DASHED
100
AcDbLine
 10
167.0
 20
44.44999999999999
 30
0.0
 11
210.0
 21
44.44999999999999
 31
0.0
  0
LINE
  5
61C9
330
1E
100
AcDbEntity
  8
12
  6
DASHED
100
AcDbLine
 10
167.0
 20
39.54999999999995
 30
0.0
 11
210.0
 21
39.54999999999995
 31
0.0
  0
LINE
  5
61CA
330
1E
100
AcDbEntity
  8
10
  6
Continuous
100
AcDbLine
 10
161.7999999999999
 20
-50.00000000000003
 30
0.0
 11
207.1315809999999
 21
-50.00000000000003
 31
0.0
  0
LINE
  5
61CB
330
1E
100
AcDbEntity
  8
10
  6
Continuous
100
AcDbLine
 10
161.7999999999999
 20
50.0
 30
0.0
 11
207.1315909999999
 21
50.0
 31
0.0
  0
LINE
  5
61CC
330
1E
100
AcDbEntity
  8
10
  6
Continuous
100
AcDbLine
 10
159.0
 20
-46.25000000000002
 30
0.0
 11
209.4579179999999
 21
-46.25000000000002
 31
0.0
  0
LINE
  5
61CD
330
1E
100
AcDbEntity
  8
10
  6
Continuous
100
AcDbLine
 10
159.0
 20
46.25
 30
0.0
 11
209.457928
 21
46.25
 31
0.0
  0
LINE
  5
61CF
330
1E
100
AcDbEntity
  8
10
  6
Continuous
100
AcDbLine
 10
159.0
 20
47.19999999999998
 30
0.0
 11
161.7999999999999
 21
50.0
 31
0.0
  0
DIMENSION
  5
61D1
330
1E
100
AcDbEntity
  8
30
  6
Continuous
100
AcDbDimension
  2
*D14
 10
142.0
 20
-61.31171800000004
 30
0.0
 11
146.0
 21
-61.31171800000004
 31
0.0
 70
   160
  1
<>
 71
     5
 42
8.0
  3
STANDARD
100
AcDbAlignedDimension
 13
150.0
 23
-37.50000000000003
 33
0.0
 14
142.0
 24
-25.0
 34
0.0
100
AcDbRotatedDimension
  0
DIMENSION
  5
61D2
330
1E
100
AcDbEntity
  8
30
  6
Continuous
100
AcDbDimension
  2
*D15
 10
138.0
 20
-61.31171800000004
 30
0.0
 11
128.8453278466666
 21
-61.31171800000004
 31
0.0
 70
   160
  1
<>
 71
     5
 42
4.0
  3
STANDARD
100
AcDbAlignedDimension
 13
142.0
 23
-25.0
 33
0.0
 14
138.0
 24
-24.0
 34
0.0
100
AcDbRotatedDimension
  0
DIMENSION
  5
61D3
330
1E
100
AcDbEntity
  8
30
  6
Continuous
100
AcDbDimension
  2
*D16
 10
118.2613539999999
 20
38.0
 30
0.0
 11
118.2613539999999
 21
0.0
 31
0.0
 70
   160
  1
<>
 71
     5
 42
76.00000000000003
  3
STANDARD
100
AcDbAlignedDimension
 13
150.499998
 23
-38.00000000000002
 33
0.0
 14
150.499998
 24
38.0
 34
0.0
 50
90.0
100
AcDbRotatedDimension
  0
LINE
  5
61D4
330
1E
100
AcDbEntity
  8
10
  6
Continuous
100
AcDbLine
 10
138.0
 20
14.50170999999994
 30
0.0
 11
130.4688959999999
 21
17.54445499999997
 31
0.0
  0
LINE
  5
61D5
330
1E
100
AcDbEntity
  8
10
  6
Continuous
100
AcDbLine
 10
131.2246709999999
 20
19.39617899999996
 30
0.0
 11
138.0
 21
16.65876799999995
 31
0.0
  0
LINE
  5
61D6
330
1E
100
AcDbEntity
  8
10
  6
Continuous
100
AcDbLine
 10
128.748364
 20
16.62179999999995
 30
0.0
 11
138.0
 21
12.88389599999999
 31
0.0
  0
LINE
  5
61D7
330
1E
100
AcDbEntity
  8
10
  6
Continuous
100
AcDbLine
 10
130.621396
 20
21.25771899999995
 30
0.0
 11
138.0
 21
18.27656999999993
 31
0.0
  0
ARC
  5
61D9
330
1E
100
AcDbEntity
  8
30
  6
Continuous
100
AcDbCircle
 10
153.0499999999999
 20
9.5
 30
0.0
 40
27.05
100
AcDbArc
 50
163.6663309999987
 51
180.0
  0
CIRCLE
  5
61DF
330
1E
100
AcDbEntity
  8
10
  6
Continuous
100
AcDbCircle
 10
130.843512
 20
18.47166899999996
 30
0.0
 40
1.0
  0
ARC
  5
61E0
330
1E
100
AcDbEntity
  8
10
  6
Continuous
100
AcDbCircle
 10
129.9658349999999
 20
19.63514699999996
 30
0.0
 40
1.75
100
AcDbArc
 50
68.00000000000078
 51
157.9999999999989
  0
LINE
  5
61E1
330
1E
100
AcDbEntity
  8
10
  6
Continuous
100
AcDbLine
 10
128.3432629999999
 20
20.29070899999993
 30
0.0
 11
127.7813529999999
 21
18.89993299999991
 31
0.0
  0
ARC
  5
61E2
330
1E
100
AcDbEntity
  8
10
  6
Continuous
100
AcDbCircle
 10
129.4039249999999
 20
18.24437199999994
 30
0.0
 40
1.75
100
AcDbArc
 50
157.9999999999989
 51
248.0
  0
LINE
  5
61E3
330
1E
100
AcDbEntity
  8
10
  6
Continuous
100
AcDbLine
 10
138.0
 20
24.0
 30
0.0
 11
138.0
 21
-24.0
 31
0.0
  0
LINE
  5
61E4
330
1E
100
AcDbEntity
  8
10
  6
Continuous
100
AcDbLine
 10
150.0
 20
37.5
 30
0.0
 11
150.0
 21
-37.50000000000003
 31
0.0
  0
LINE
  5
61E5
330
1E
100
AcDbEntity
  8
10
  6
Continuous
100
AcDbLine
 10
142.0
 20
25.0
 30
0.0
 11
142.0
 21
-25.0
 31
0.0
  0
LINE
  5
61E6
330
1E
100
AcDbEntity
  8
10
  6
Continuous
100
AcDbLine
 10
139.0
 20
24.23809499999993
 30
0.0
 11
139.0
 21
-24.25
 31
0.0
  0
LINE
  5
61E9
330
1E
100
AcDbEntity
  8
10
  6
Continuous
100
AcDbLine
 10
159.0
 20
-47.20000000000001
 30
0.0
 11
161.7999999999999
 21
-50.00000000000003
 31
0.0
  0
LINE
  5
61EB
330
1E
100
AcDbEntity
  8
10
  6
Continuous
100
AcDbLine
 10
142.0
 20
-25.0
 30
0.0
 11
150.0
 21
-25.0
 31
0.0
  0
LINE
  5
61EC
330
1E
100
AcDbEntity
  8
10
  6
Continuous
100
AcDbLine
 10
142.0
 20
-25.0
 30
0.0
 11
138.0
 21
-24.0
 31
0.0
  0
LINE
  5
61ED
330
1E
100
AcDbEntity
  8
10
  6
Continuous
100
AcDbLine
 10
159.0
 20
-38.00000000000002
 30
0.0
 11
150.5
 21
-38.00000000000002
 31
0.0
  0
ARC
  5
61EE
330
1E
100
AcDbEntity
  8
10
  6
Continuous
100
AcDbCircle
 10
150.5
 20
-37.50000000000003
 30
0.0
 40
0.5
100
AcDbArc
 50
180.0
 51
270.0
  0
LINE
  5
61EF
330
1E
100
AcDbEntity
  8
10
  6
Continuous
100
AcDbLine
 10
159.0
 20
-38.00000000000002
 30
0.0
 11
159.0
 21
-47.20000000000001
 31
0.0
  0
LINE
  5
61F0
330
1E
100
AcDbEntity
  8
10
  6
Continuous
100
AcDbLine
 10
159.0
 20
45.89999999999998
 30
0.0
 11
167.0
 21
45.89999999999998
 31
0.0
  0
LINE
  5
61F1
330
1E
100
AcDbEntity
  8
10
  6
Continuous
100
AcDbLine
 10
159.0
 20
38.09999999999996
 30
0.0
 11
167.0
 21
38.09999999999996
 31
0.0
  0
LINE
  5
61F3
330
1E
100
AcDbEntity
  8
10
  6
Continuous
100
AcDbLine
 10
150.0
 20
25.0
 30
0.0
 11
142.0
 21
25.0
 31
0.0
  0
LINE
  5
61F4
330
1E
100
AcDbEntity
  8
10
  6
Continuous
100
AcDbLine
 10
142.0
 20
25.0
 30
0.0
 11
138.0
 21
24.0
 31
0.0
  0
LINE
  5
61F5
330
1E
100
AcDbEntity
  8
10
  6
Continuous
100
AcDbLine
 10
159.0
 20
38.0
 30
0.0
 11
150.5
 21
38.0
 31
0.0
  0
ARC
  5
61F6
330
1E
100
AcDbEntity
  8
10
  6
Continuous
100
AcDbCircle
 10
150.5
 20
37.5
 30
0.0
 40
0.5
100
AcDbArc
 50
90.0
 51
180.0
  0
LINE
  5
61F7
330
1E
100
AcDbEntity
  8
10
  6
Continuous
100
AcDbLine
 10
159.0
 20
47.19999999999998
 30
0.0
 11
159.0
 21
38.0
 31
0.0
  0
LINE
  5
61F8
330
1E
100
AcDbEntity
  8
10
  6
Continuous
100
AcDbLine
 10
167.0
 20
38.09999999999996
 30
0.0
 11
167.0
 21
45.89999999999998
 31
0.0
  0
LINE
  5
61FA
330
1E
100
AcDbEntity
  8
30
  6
Continuous
100
AcDbLine
 10
162.5
 20
99.75006199999995
 30
0.0
 11
162.5
 21
50.0
 31
0.0
  0
DIMENSION
  5
61FB
330
1E
100
AcDbEntity
  8
30
  6
Continuous
100
AcDbDimension
  2
*D17
 10
207.5
 20
89.64793799999995
 30
0.0
 11
223.4915920199999
 21
89.64793799999995
 31
0.0
 70
   160
  1
<>
 71
     5
 42
2.5
  3
STANDARD
100
AcDbAlignedDimension
 13
210.0
 23
40.56262799999996
 33
0.0
 14
207.5
 24
97.25006199999995
 34
0.0
100
AcDbRotatedDimension
  0
ARC
  5
61FC
330
1E
100
AcDbEntity
  8
10
  6
Continuous
100
AcDbCircle
 10
207.1315909999999
 20
48.0
 30
0.0
 40
2.0
100
AcDbArc
 50
9.651861000001277
 51
90.0
  0
LINE
  5
61FD
330
1E
100
AcDbEntity
  8
10
  6
Continuous
100
AcDbLine
 10
206.25
 20
17.79998699999993
 30
0.0
 11
206.25
 21
-17.56704900000005
 31
0.0
  0
LINE
  5
61FE
330
1E
100
AcDbEntity
  8
10
  6
Continuous
100
AcDbLine
 10
207.199839
 20
-15.64986900000002
 30
0.0
 11
206.699839
 21
-17.64986900000002
 31
0.0
  0
LINE
  5
61FF
330
1E
100
AcDbEntity
  8
10
  6
Continuous
100
AcDbLine
 10
207.199839
 20
-15.64986900000002
 30
0.0
 11
209.4998389999999
 21
-17.94986900000003
 31
0.0
  0
LINE
  5
6200
330
1E
100
AcDbEntity
  8
10
  6
Continuous
100
AcDbLine
 10
206.25
 20
-17.56705700000003
 30
0.0
 11
208.5176379999999
 21
-18.17466899999999
 31
0.0
  0
LINE
  5
6201
330
1E
100
AcDbEntity
  8
10
  6
Continuous
100
AcDbLine
 10
206.559058
 20
-17.64986900000002
 30
0.0
 11
206.699839
 21
-17.64986900000002
 31
0.0
  0
ARC
  5
6202
330
1E
100
AcDbEntity
  8
10
  6
Continuous
100
AcDbCircle
 10
207.1315809999999
 20
-48.00000000000003
 30
0.0
 40
2.0
100
AcDbArc
 50
270.0
 51
350.3481370000006
  0
LINE
  5
6203
330
1E
100
AcDbEntity
  8
10
  6
Continuous
100
AcDbLine
 10
210.0
 20
-20.10652000000004
 30
0.0
 11
210.0
 21
-43.06257100000002
 31
0.0
  0
LINE
  5
6204
330
1E
100
AcDbEntity
  8
10
  6
Continuous
100
AcDbLine
 10
209.1032699999999
 20
-48.33532300000001
 30
0.0
 11
210.0
 21
-43.06257100000002
 31
0.0
  0
ARC
  5
6205
330
1E
100
AcDbEntity
  8
10
  6
Continuous
100
AcDbCircle
 10
208.0
 20
-20.10652000000004
 30
0.0
 40
2.0
100
AcDbArc
 50
0.0
 51
75.00000000000004
  0
LINE
  5
6206
330
1E
100
AcDbEntity
  8
10
  6
Continuous
100
AcDbLine
 10
209.4998389999999
 20
-17.94986900000003
 30
0.0
 11
209.602422
 21
-18.90975600000001
 31
0.0
  0
LINE
  5
6207
330
1E
100
AcDbEntity
  8
10
  6
Continuous
100
AcDbLine
 10
206.25
 20
17.79998699999993
 30
0.0
 11
207.4999689999999
 21
17.79998699999993
 31
0.0
  0
LINE
  5
6208
330
1E
100
AcDbEntity
  8
10
  6
Continuous
100
AcDbLine
 10
210.0
 20
43.06262799999996
 30
0.0
 11
210.0
 21
15.80004799999994
 31
0.0
  0
LINE
  5
6209
330
1E
100
AcDbEntity
  8
10
  6
Continuous
100
AcDbLine
 10
207.7917409999999
 20
16.53027799999995
 30
0.0
 11
209.2069589999999
 21
15.30004799999994
 31
0.0
  0
ARC
  5
620A
330
1E
100
AcDbEntity
  8
10
  6
Continuous
100
AcDbCircle
 10
209.4999689999999
 20
15.80004799999994
 30
0.0
 40
0.5
100
AcDbArc
 50
270.0
 51
0.0
  0
LINE
  5
620B
330
1E
100
AcDbEntity
  8
10
  6
Continuous
100
AcDbLine
 10
209.2069589999999
 20
15.30004799999994
 30
0.0
 11
209.4999689999999
 21
15.30004799999994
 31
0.0
  0
LINE
  5
620C
330
1E
100
AcDbEntity
  8
10
  6
Continuous
100
AcDbLine
 10
207.4999689999999
 20
17.79998699999993
 30
0.0
 11
207.693116
 21
16.70459699999992
 31
0.0
  0
ARC
  5
620D
330
1E
100
AcDbEntity
  8
10
  6
Continuous
100
AcDbCircle
 10
207.9885589999999
 20
16.75669099999993
 30
0.0
 40
0.3
100
AcDbArc
 50
189.9999999999986
 51
228.9999999999995
  0
ARC
  5
620E
330
1E
100
AcDbEntity
  8
10
  6
Continuous
100
AcDbCircle
 10
207.9885589999999
 20
16.75669099999993
 30
0.0
 40
0.3
100
AcDbArc
 50
189.9999999999986
 51
228.9999999999995
  0
LINE
  5
620F
330
1E
100
AcDbEntity
  8
10
  6
Continuous
100
AcDbLine
 10
209.103281
 20
48.33532199999996
 30
0.0
 11
210.0
 21
43.06262799999996
 31
0.0
  0
LINE
  5
6210
330
1E
100
AcDbEntity
  8
30
  6
Continuous
100
AcDbLine
 10
207.5
 20
99.75006199999995
 30
0.0
 11
207.5
 21
49.96577599999994
 31
0.0
  0
DIMENSION
  5
68A7
330
1E
100
AcDbEntity
  8
30
  6
Continuous
100
AcDbDimension
  2
*D18
 10
180.3319559045034
 20
161.2995927153684
 30
0.0
 11
201.1028654476875
 21
181.8674732328641
 31
0.0
 70
   163
 71
     5
 42
9.000000000000056
  3
STANDARD
100
AcDbDiametricDimension
 15
185.9507239869962
 25
168.3302004583137
 35
0.0
 40
0.0
  0
LINE
  5
6964
330
1E
100
AcDbEntity
  8
17
  6
DASHDOT
100
AcDbLine
 10
179.9000010000001
 20
40.0
 30
0.0
 11
181.900001
 21
40.84543500000001
 31
0.0
  0
LINE
  5
6965
330
1E
100
AcDbEntity
  8
17
  6
DASHDOT
100
AcDbLine
 10
179.9000010000001
 20
39.0
 30
0.0
 11
181.900001
 21
39.845435
 31
0.0
  0
LINE
  5
6966
330
1E
100
AcDbEntity
  8
17
  6
DASHDOT
100
AcDbLine
 10
179.9000010000001
 20
32.75
 30
0.0
 11
181.900001
 21
32.75
 31
0.0
  0
ARC
  5
6967
330
1E
100
AcDbEntity
  8
17
  6
DASHDOT
100
AcDbCircle
 10
192.700001
 20
40.0
 30
0.0
 40
18.0
100
AcDbArc
 50
163.3984499999996
 51
196.6015500000003
  0
ARC
  5
6968
330
1E
100
AcDbEntity
  8
17
  6
DASHDOT
100
AcDbCircle
 10
177.941952
 20
35.59999999999999
 30
0.0
 40
2.6
100
AcDbArc
 50
196.6015500000003
 51
270.0
  0
ARC
  5
6969
330
1E
100
AcDbEntity
  8
17
  6
DASHDOT
100
AcDbCircle
 10
177.941952
 20
44.4
 30
0.0
 40
2.6
100
AcDbArc
 50
90.0
 51
163.3984499999996
  0
LINE
  5
696A
330
1E
100
AcDbEntity
  8
17
  6
DASHDOT
100
AcDbLine
 10
179.9000010000001
 20
32.75
 30
0.0
 11
179.9000010000001
 21
47.25
 31
0.0
  0
LINE
  5
696B
330
1E
100
AcDbEntity
  8
17
  6
DASHDOT
100
AcDbLine
 10
177.941952
 20
33.0
 30
0.0
 11
179.9000010000001
 21
33.0
 31
0.0
  0
LINE
  5
696C
330
1E
100
AcDbEntity
  8
17
  6
DASHDOT
100
AcDbLine
 10
177.941952
 20
47.0
 30
0.0
 11
179.9392460000001
 21
47.0
 31
0.0
  0
LINE
  5
696D
330
1E
100
AcDbEntity
  8
17
  6
DASHDOT
100
AcDbLine
 10
186.0
 20
37.0
 30
0.0
 11
194.900001
 21
37.0
 31
0.0
  0
LINE
  5
696E
330
1E
100
AcDbEntity
  8
17
  6
DASHDOT
100
AcDbLine
 10
194.900001
 20
43.0
 30
0.0
 11
186.0
 21
43.0
 31
0.0
  0
LINE
  5
6971
330
1E
100
AcDbEntity
  8
17
  6
DASHDOT
100
AcDbLine
 10
186.0
 20
36.0
 30
0.0
 11
194.900001
 21
36.0
 31
0.0
  0
LINE
  5
6972
330
1E
100
AcDbEntity
  8
17
  6
DASHDOT
100
AcDbLine
 10
186.0
 20
44.0
 30
0.0
 11
194.900001
 21
44.0
 31
0.0
  0
LINE
  5
6973
330
1E
100
AcDbEntity
  8
17
  6
DASHDOT
100
AcDbLine
 10
186.0
 20
47.75
 30
0.0
 11
186.0000000000001
 21
32.25
 31
0.0
  0
LINE
  5
6974
330
1E
100
AcDbEntity
  8
17
  6
DASHDOT
100
AcDbLine
 10
183.5
 20
47.75
 30
0.0
 11
183.5
 21
32.25
 31
0.0
  0
LINE
  5
6975
330
1E
100
AcDbEntity
  8
17
  6
DASHDOT
100
AcDbLine
 10
181.900001
 20
32.25
 30
0.0
 11
181.900001
 21
47.75
 31
0.0
  0
LINE
  5
6976
330
1E
100
AcDbEntity
  8
17
  6
DASHDOT
100
AcDbLine
 10
186.0
 20
36.0
 30
0.0
 11
183.5
 21
36.0
 31
0.0
  0
LINE
  5
6977
330
1E
100
AcDbEntity
  8
17
  6
DASHDOT
100
AcDbLine
 10
181.900001
 20
32.25
 30
0.0
 11
186.0000000000001
 21
32.25
 31
0.0
  0
LINE
  5
6978
330
1E
100
AcDbEntity
  8
17
  6
DASHDOT
100
AcDbLine
 10
186.0
 20
44.0
 30
0.0
 11
183.5
 21
44.0
 31
0.0
  0
LINE
  5
697A
330
1E
100
AcDbEntity
  8
17
  6
DASHDOT
100
AcDbLine
 10
194.900001
 20
36.0
 30
0.0
 11
194.900001
 21
44.0
 31
0.0
  0
LINE
  5
697B
330
1E
100
AcDbEntity
  8
17
  6
DASHDOT
100
AcDbLine
 10
181.900001
 20
47.75
 30
0.0
 11
186.0
 21
47.75
 31
0.0
  0
LINE
  5
697C
330
1E
100
AcDbEntity
  8
17
  6
DASHDOT
100
AcDbLine
 10
179.9000010000001
 20
47.25
 30
0.0
 11
181.900001
 21
47.25
 31
0.0
  0
LINE
  5
6A18
330
1E
100
AcDbEntity
  8
10
  6
Continuous
100
AcDbLine
 10
37.481748
 20
222.0
 30
0.0
 11
-37.50004299999998
 21
222.0
 31
0.0
  0
LINE
  5
6A19
330
1E
100
AcDbEntity
  8
10
  6
Continuous
100
AcDbLine
 10
36.981748
 20
162.0
 30
0.0
 11
-37.00004299999998
 21
162.0
 31
0.0
  0
LINE
  5
6A1A
330
1E
100
AcDbEntity
  8
10
  6
Continuous
100
AcDbLine
 10
10.53629350000001
 20
151.0
 30
0.0
 11
-10.5364015
 21
151.0
 31
0.0
  0
LINE
  5
6A1B
330
1E
100
AcDbEntity
  8
10
  6
Continuous
100
AcDbLine
 10
35.881748
 20
154.0
 30
0.0
 11
-36.00003199999999
 21
154.0
 31
0.0
  0
DIMENSION
  5
6A1C
330
1E
100
AcDbEntity
  8
30
  6
Continuous
100
AcDbDimension
  2
*D20
 10
-53.83820679239235
 20
138.0
 30
0.0
 11
-53.83820679239236
 21
180.0
 31
0.0
 70
   160
  1
<>
 71
     5
 42
84.0
  3
STANDARD
100
AcDbAlignedDimension
 13
-37.50004299999998
 23
222.0
 33
0.0
 14
-6.050003499999981
 24
138.0
 34
0.0
 50
90.0
100
AcDbRotatedDimension
  0
LINE
  5
6A1D
330
1E
100
AcDbEntity
  8
10
  6
Continuous
100
AcDbLine
 10
10.38174500000001
 20
150.0
 30
0.0
 11
-10.381853
 21
150.0
 31
0.0
  0
DIMENSION
  5
6A1E
330
1E
100
AcDbEntity
  8
30
  6
Continuous
100
AcDbDimension
  2
*D21
 10
-45.65940379239232
 20
162.0000589999999
 30
0.0
 11
-45.65940379239235
 21
192.00003
 31
0.0
 70
   160
  1
<>
 71
     5
 42
59.99994100000003
  3
STANDARD
100
AcDbAlignedDimension
 13
-42.50009700000007
 23
221.9999999999999
 33
0.0
 14
-36.40001400000003
 24
162.0000589999999
 34
0.0
 50
90.0
100
AcDbRotatedDimension
  0
LINE
  5
6A1F
330
1E
100
AcDbEntity
  8
10
  6
Continuous
100
AcDbLine
 10
-37.50004299999998
 20
222.0
 30
0.0
 11
-37.50004299999998
 21
162.5
 31
0.0
  0
DIMENSION
  5
6A20
330
1E
100
AcDbEntity
  8
30
  6
Continuous
100
AcDbDimension
  2
*D22
 10
-45.65940379239232
 20
154.0
 30
0.0
 11
-45.65940379239235
 21
158.0
 31
0.0
 70
   160
  1
<>
 71
     5
 42
7.999999999999943
  3
STANDARD
100
AcDbAlignedDimension
 13
-37.00004299999998
 23
161.9999999999999
 33
0.0
 14
-37.38185199999996
 24
154.0
 34
0.0
 50
90.0
100
AcDbRotatedDimension
  0
DIMENSION
  5
6A21
330
1E
100
AcDbEntity
  8
30
  6
Continuous
100
AcDbDimension
  2
*D23
 10
-45.65940379239246
 20
150.0
 30
0.0
 11
-47.99273712572583
 21
140.8453278466667
 31
0.0
 70
   160
  1
<>
 71
     5
 42
4.0
  3
STANDARD
100
AcDbAlignedDimension
 13
-37.38185199999996
 23
154.0
 33
0.0
 14
-36.38185199999996
 24
150.0
 34
0.0
 50
90.0
100
AcDbRotatedDimension
  0
ARC
  5
6A22
330
1E
100
AcDbEntity
  8
10
  6
Continuous
100
AcDbCircle
 10
-37.00004299999998
 20
162.4999999999998
 30
0.0
 40
0.5
100
AcDbArc
 50
180.0
 51
270.0
  0
LINE
  5
6A25
330
1E
100
AcDbEntity
  8
10
  6
Continuous
100
AcDbLine
 10
-36.00003199999999
 20
154.0
 30
0.0
 11
-36.00003199999999
 21
162.0
 31
0.0
  0
LINE
  5
6A26
330
1E
100
AcDbEntity
  8
10
  6
Continuous
100
AcDbLine
 10
-11.00004699999998
 20
154.0
 30
0.0
 11
-10.381853
 21
150.0
 31
0.0
  0
DIMENSION
  5
6A34
330
1E
100
AcDbEntity
  8
30
  6
Continuous
100
AcDbDimension
  2
*D24
 10
45.79954771902376
 20
198.0
 30
0.0
 11
42.79954771902374
 21
210.0
 31
0.0
 70
    32
 71
     5
 42
24.00000000000003
  3
STANDARD
100
AcDbAlignedDimension
 13
37.481748
 23
222.0
 33
0.0
 14
29.8818505
 24
198.0
 34
0.0
 50
90.0
100
AcDbRotatedDimension
  0
LINE
  5
6A35
330
1E
100
AcDbEntity
  8
10
  6
Continuous
100
AcDbLine
 10
37.481748
 20
222.0
 30
0.0
 11
37.481748
 21
162.5
 31
0.0
  0
LINE
  5
6A38
330
1E
100
AcDbEntity
  8
10
  6
Continuous
100
AcDbLine
 10
-6.050003499999981
 20
138.0
 30
0.0
 11
6.05000350000008
 21
138.0
 31
0.0
  0
LINE
  5
6A39
330
1E
100
AcDbEntity
  8
10
  6
Continuous
100
AcDbLine
 10
-6.050003499999981
 20
138.0
 30
0.0
 11
-6.050003499999981
 21
150.0
 31
0.0
  0
LINE
  5
6A3A
330
1E
100
AcDbEntity
  8
10
  6
Continuous
100
AcDbLine
 10
6.05000350000008
 20
138.0
 30
0.0
 11
6.05000350000008
 21
150.0
 31
0.0
  0
LINE
  5
6A48
330
1E
100
AcDbEntity
  8
17
  6
DASHDOT
100
AcDbLine
 10
32.75
 20
156.9999999999999
 30
0.0
 11
32.75
 21
197.9999999999999
 31
0.0
  0
LINE
  5
6A49
330
1E
100
AcDbEntity
  8
17
  6
DASHDOT
100
AcDbLine
 10
17.24999999999999
 20
156.9999999999999
 30
0.0
 11
17.24999999999999
 21
197.9999999999999
 31
0.0
  0
LINE
  5
6A4A
330
1E
100
AcDbEntity
  8
10
  6
Continuous
100
AcDbLine
 10
35.99993900000001
 20
162.0
 30
0.0
 11
35.99993900000001
 21
154.0
 31
0.0
  0
ARC
  5
6A4C
330
1E
100
AcDbEntity
  8
10
  6
Continuous
100
AcDbCircle
 10
36.981748
 20
162.5
 30
0.0
 40
0.5
100
AcDbArc
 50
270.0
 51
0.0
  0
LINE
  5
6ADC
330
1E
100
AcDbEntity
  8
17
  6
DASHDOT
100
AcDbLine
 10
17.24999999999999
 20
197.9999999999999
 30
0.0
 11
32.75
 21
198.0
 31
0.0
  0
LINE
  5
6ADD
330
1E
100
AcDbEntity
  8
17
  6
DASHDOT
100
AcDbLine
 10
32.75
 20
193.900001
 30
0.0
 11
17.24999999999999
 21
193.900001
 31
0.0
  0
LINE
  5
6ADE
330
1E
100
AcDbEntity
  8
17
  6
DASHDOT
100
AcDbLine
 10
17.24999999999999
 20
195.5
 30
0.0
 11
32.75
 21
195.5
 31
0.0
  0
LINE
  5
6ADF
330
1E
100
AcDbEntity
  8
17
  6
DASHDOT
100
AcDbLine
 10
32.25
 20
191.900001
 30
0.0
 11
17.74999999999999
 21
191.900001
 31
0.0
  0
ARC
  5
6AE0
330
1E
100
AcDbEntity
  8
17
  6
DASHDOT
100
AcDbCircle
 10
25.00000000000001
 20
204.700001
 30
0.0
 40
18.0
100
AcDbArc
 50
253.3984499999996
 51
286.6015500000003
  0
LINE
  5
6AE1
330
1E
100
AcDbEntity
  8
17
  6
DASHDOT
100
AcDbLine
 10
32.75
 20
193.900001
 30
0.0
 11
32.75
 21
198.0
 31
0.0
  0
ARC
  5
6AE2
330
1E
100
AcDbEntity
  8
17
  6
DASHDOT
100
AcDbCircle
 10
29.40000000000002
 20
189.941952
 30
0.0
 40
2.6
100
AcDbArc
 50
286.6015500000003
 51
0.0
  0
LINE
  5
6AE3
330
1E
100
AcDbEntity
  8
17
  6
DASHDOT
100
AcDbLine
 10
32.0
 20
189.941952
 30
0.0
 11
32.0
 21
191.900001
 31
0.0
  0
LINE
  5
6AE4
330
1E
100
AcDbEntity
  8
17
  6
DASHDOT
100
AcDbLine
 10
32.25
 20
191.900001
 30
0.0
 11
32.25
 21
193.900001
 31
0.0
  0
LINE
  5
6AE5
330
1E
100
AcDbEntity
  8
17
  6
DASHDOT
100
AcDbLine
 10
17.24999999999999
 20
193.900001
 30
0.0
 11
17.24999999999999
 21
197.9999999999999
 31
0.0
  0
ARC
  5
6AE6
330
1E
100
AcDbEntity
  8
17
  6
DASHDOT
100
AcDbCircle
 10
20.6
 20
189.941952
 30
0.0
 40
2.6
100
AcDbArc
 50
180.0
 51
253.3984499999996
  0
LINE
  5
6AE9
330
1E
100
AcDbEntity
  8
17
  6
DASHDOT
100
AcDbLine
 10
17.99999999999999
 20
189.941952
 30
0.0
 11
17.99999999999999
 21
191.939246
 31
0.0
  0
LINE
  5
6AEA
330
1E
100
AcDbEntity
  8
17
  6
DASHDOT
100
AcDbLine
 10
17.74999999999999
 20
191.900001
 30
0.0
 11
17.74999999999999
 21
193.900001
 31
0.0
  0
DIMENSION
  5
6D97
330
1E
100
AcDbEntity
  8
30
  6
Continuous
100
AcDbDimension
  2
*D25
 10
65.70401600000001
 20
50.00000099999994
 30
0.0
 11
65.704016
 21
75.25000099999994
 31
0.0
 70
   160
  1
<>
 71
     5
 42
50.0
  3
STANDARD
100
AcDbAlignedDimension
 13
14.70005999999999
 23
100.0000009999999
 33
0.0
 14
35.699879
 24
50.00000099999994
 34
0.0
 50
90.0
100
AcDbRotatedDimension
  0
DIMENSION
  5
6D98
330
1E
100
AcDbEntity
  8
30
  6
Continuous
100
AcDbDimension
  2
*D26
 10
56.51275400000002
 20
-50.00000200000003
 30
0.0
 11
56.51275400000002
 21
-46.12500150000003
 31
0.0
 70
   160
  1
<>
 71
     5
 42
8.000000999999969
  3
STANDARD
100
AcDbAlignedDimension
 13
31.07499700000002
 23
-42.00000100000005
 33
0.0
 14
34.20704800000001
 24
-50.00000200000002
 34
0.0
 50
90.0
100
AcDbRotatedDimension
  0
DIMENSION
  5
6D99
330
1E
100
AcDbEntity
  8
30
  6
Continuous
100
AcDbDimension
  2
*D27
 10
56.51275400000003
 20
39.99999999999999
 30
0.0
 11
56.51275400000002
 21
45.12500049999998
 31
0.0
 70
   160
  1
<>
 71
     5
 42
10.00000099999994
  3
STANDARD
100
AcDbAlignedDimension
 13
35.69987800000001
 23
50.00000099999994
 33
0.0
 14
31.07499700000002
 24
40.0
 34
0.0
 50
90.0
100
AcDbRotatedDimension
  0
DIMENSION
  5
6D9A
330
1E
100
AcDbEntity
  8
30
  6
Continuous
100
AcDbDimension
  2
*D28
 10
56.51275400000002
 20
-0.0000000000000042
 30
0.0
 11
56.51275400000002
 21
20.0
 31
0.0
 70
   160
  1
<>
 71
     5
 42
40.0
  3
STANDARD
100
AcDbAlignedDimension
 13
31.07499700000002
 23
40.0
 33
0.0
 14
41.71915799999999
 24
0.0
 34
0.0
 50
90.0
100
AcDbRotatedDimension
  0
DIMENSION
  5
6D9B
330
1E
100
AcDbEntity
  8
30
  6
Continuous
100
AcDbDimension
  2
*D29
 10
56.51275400000002
 20
-42.00000100000006
 30
0.0
 11
56.51275400000002
 21
-21.0
 31
0.0
 70
   160
  1
<>
 71
     5
 42
42.00000100000005
  3
STANDARD
100
AcDbAlignedDimension
 13
41.71915799999999
 23
0.0
 33
0.0
 14
31.07499700000002
 24
-42.00000100000005
 34
0.0
 50
90.0
100
AcDbRotatedDimension
  0
DIMENSION
  5
6D9D
330
1E
100
AcDbEntity
  8
30
  6
Continuous
100
AcDbDimension
  2
*D30
 10
65.70401599999998
 20
-50.00000200000003
 30
0.0
 11
65.704016
 21
0.0000009999999406
 31
0.0
 70
   160
  1
<>
 71
     5
 42
100.0000029999999
  3
STANDARD
100
AcDbAlignedDimension
 13
35.699879
 23
50.00000099999994
 33
0.0
 14
33.499941
 24
-50.00000200000002
 34
0.0
 50
90.0
100
AcDbRotatedDimension
  0
DIMENSION
  5
6DA0
330
1E
100
AcDbEntity
  8
30
  6
Continuous
100
AcDbDimension
  2
*D31
 10
-57.33408699999998
 20
41.99993999999999
 30
0.0
 11
-57.33408699999999
 21
-0.0054860000000758
 31
0.0
 70
   160
  1
<>
 71
     5
 42
84.01085400000003
  3
STANDARD
100
AcDbAlignedDimension
 13
8.600002000000017
 23
-42.01091400000004
 33
0.0
 14
-15.95001599999999
 24
41.99993999999998
 34
0.0
 50
90.0
100
AcDbRotatedDimension
  0
DIMENSION
  5
6DA1
330
1E
100
AcDbEntity
  8
30
  6
Continuous
100
AcDbDimension
  2
*D32
 10
-48.23976599999998
 20
24.99996999999996
 30
0.0
 11
-48.23976599999999
 21
-0.0000320000000329
 31
0.0
 70
   160
  1
<>
 71
     5
 42
50.00000199999999
  3
STANDARD
100
AcDbAlignedDimension
 13
-35.00003099999999
 23
-25.00003200000003
 33
0.0
 14
-35.00003099999999
 24
24.99996999999996
 34
0.0
 50
90.0
100
AcDbRotatedDimension
  0
LINE
  5
6DA3
330
1E
100
AcDbEntity
  8
18
  6
DIVIDE
100
AcDbLine
 10
-10.30006199999999
 20
100.0000009999999
 30
0.0
 11
-10.30006199999999
 21
46.25000099999994
 31
0.0
  0
LINE
  5
6DA4
330
1E
100
AcDbEntity
  8
18
  6
DIVIDE
100
AcDbLine
 10
-12.30006199999999
 20
100.0000009999999
 30
0.0
 11
-12.30006199999999
 21
46.25000099999994
 31
0.0
  0
LINE
  5
6DA5
330
1E
100
AcDbEntity
  8
18
  6
DIVIDE
100
AcDbLine
 10
14.700061
 20
100.0000009999999
 30
0.0
 11
14.700061
 21
46.25000099999994
 31
0.0
  0
LINE
  5
6DA6
330
1E
100
AcDbEntity
  8
18
  6
DIVIDE
100
AcDbLine
 10
12.700061
 20
100.0000009999999
 30
0.0
 11
12.700061
 21
46.25000099999994
 31
0.0
  0
LINE
  5
6DA7
330
1E
100
AcDbEntity
  8
10
  6
Continuous
100
AcDbLine
 10
7.499938999999997
 20
33.69999999999999
 30
0.0
 11
7.499938999999997
 21
50.00000099999994
 31
0.0
  0
LINE
  5
6DA8
330
1E
100
AcDbEntity
  8
10
  6
Continuous
100
AcDbLine
 10
32.49993900000001
 20
50.00000099999994
 30
0.0
 11
32.49993900000001
 21
33.69999999999999
 31
0.0
  0
LINE
  5
6DA9
330
1E
100
AcDbEntity
  8
10
  6
Continuous
100
AcDbLine
 10
-7.500061999999999
 20
50.00000099999994
 30
0.0
 11
-7.500061999999999
 21
33.69999999999999
 31
0.0
  0
LINE
  5
6DAA
330
1E
100
AcDbEntity
  8
10
  6
Continuous
100
AcDbLine
 10
17.49993899999999
 20
50.00000099999994
 30
0.0
 11
17.49993899999999
 21
33.69999999999999
 31
0.0
  0
LINE
  5
6DAB
330
1E
100
AcDbEntity
  8
10
  6
Continuous
100
AcDbLine
 10
-17.500062
 20
33.69999999999999
 30
0.0
 11
-17.500062
 21
50.00000099999994
 31
0.0
  0
LINE
  5
6DAC
330
1E
100
AcDbEntity
  8
10
  6
Continuous
100
AcDbLine
 10
15.49993899999999
 20
44.66647799999992
 30
0.0
 11
15.49993899999999
 21
50.00000099999994
 31
0.0
  0
LINE
  5
6DAD
330
1E
100
AcDbEntity
  8
10
  6
Continuous
100
AcDbLine
 10
-9.500061999999999
 20
44.66645799999992
 30
0.0
 11
-9.500061999999999
 21
50.00000099999994
 31
0.0
  0
LINE
  5
6DAE
330
1E
100
AcDbEntity
  8
10
  6
Continuous
100
AcDbLine
 10
35.69987800000001
 20
46.25000099999994
 30
0.0
 11
35.69987800000001
 21
50.00000099999994
 31
0.0
  0
LINE
  5
6DAF
330
1E
100
AcDbEntity
  8
10
  6
Continuous
100
AcDbLine
 10
-35.700001
 20
46.25000099999994
 30
0.0
 11
-35.700001
 21
50.00000099999994
 31
0.0
  0
LINE
  5
6DB0
330
1E
100
AcDbEntity
  8
10
  6
Continuous
100
AcDbLine
 10
-32.500062
 20
50.00000099999994
 30
0.0
 11
-32.500062
 21
33.69999999999999
 31
0.0
  0
LINE
  5
6DB1
330
1E
100
AcDbEntity
  8
10
  6
Continuous
100
AcDbLine
 10
-13.10006199999999
 20
46.26020999999991
 30
0.0
 11
-13.10006199999999
 21
50.00000099999994
 31
0.0
  0
LINE
  5
6DB2
330
1E
100
AcDbEntity
  8
10
  6
Continuous
100
AcDbLine
 10
11.899939
 20
46.26020599999998
 30
0.0
 11
11.899939
 21
50.00000099999994
 31
0.0
  0
DIMENSION
  5
6DB4
330
1E
100
AcDbEntity
  8
30
  6
Continuous
100
AcDbDimension
  2
*D33
 10
-37.50004699999999
 20
-78.95399800000001
 30
0.0
 11
-0.0000529999999941
 21
-78.95399800000001
 31
0.0
 70
   160
  1
<>
 71
     5
 42
74.99998600000001
  3
STANDARD
100
AcDbAlignedDimension
 13
37.49993900000001
 23
-46.25000300000005
 33
0.0
 14
-37.50004699999999
 24
-46.25000300000005
 34
0.0
100
AcDbRotatedDimension
  0
DIMENSION
  5
6DB5
330
1E
100
AcDbEntity
  8
30
  6
Continuous
100
AcDbDimension
  2
*D34
 10
-36.00003199999999
 20
-69.74052100000003
 30
0.0
 11
-0.0000449999999859
 21
-69.74052100000003
 31
0.0
 70
   160
  1
<>
 71
     5
 42
71.999971
  3
STANDARD
100
AcDbAlignedDimension
 13
35.99993900000001
 23
-24.00003100000003
 33
0.0
 14
-36.00003199999999
 24
-24.00003100000003
 34
0.0
100
AcDbRotatedDimension
  0
DIMENSION
  5
6DB6
330
1E
100
AcDbEntity
  8
30
  6
Continuous
100
AcDbDimension
  2
*D35
 10
-25.00001599999999
 20
-61.56171800000004
 30
0.0
 11
-0.0000149999999906
 21
-61.56171800000004
 31
0.0
 70
   160
  1
<>
 71
     5
 42
50.00000099999998
  3
STANDARD
100
AcDbAlignedDimension
 13
24.99998499999999
 23
-48.07501300000007
 33
0.0
 14
-25.00001599999999
 24
-48.07501300000007
 34
0.0
100
AcDbRotatedDimension
  0
LINE
  5
6DB9
330
1E
100
AcDbEntity
  8
10
  6
Continuous
100
AcDbLine
 10
10.00000000000001
 20
-24.0
 30
0.0
 11
-10.0
 21
-24.0
 31
0.0
  0
LINE
  5
6DBA
330
1E
100
AcDbEntity
  8
10
  6
Continuous
100
AcDbLine
 10
10.00000000000001
 20
24.0
 30
0.0
 11
-10.0
 21
24.0
 31
0.0
  0
LINE
  5
6DBB
330
1E
100
AcDbEntity
  8
10
  6
Continuous
100
AcDbLine
 10
-6.050007999999991
 20
9.279080999999962
 30
0.0
 11
6.050000000000011
 21
9.279080999999962
 31
0.0
  0
LINE
  5
6DBC
330
1E
100
AcDbEntity
  8
10
  6
Continuous
100
AcDbLine
 10
-6.500007999999994
 20
0.7500299999999811
 30
0.0
 11
6.500006999999996
 21
0.7500299999999811
 31
0.0
  0
LINE
  5
6DBD
330
1E
100
AcDbEntity
  8
10
  6
Continuous
100
AcDbLine
 10
-6.500007999999994
 20
3.900029999999958
 30
0.0
 11
6.500006999999996
 21
3.900029999999958
 31
0.0
  0
LINE
  5
6DBE
330
1E
100
AcDbEntity
  8
10
  6
Continuous
100
AcDbLine
 10
4.300000000000011
 20
21.38531799999992
 30
0.0
 11
-4.300007999999991
 21
21.38531799999992
 31
0.0
  0
LINE
  5
6DBF
330
1E
100
AcDbEntity
  8
10
  6
Continuous
100
AcDbLine
 10
5.353098000000017
 20
17.27753199999995
 30
0.0
 11
-5.264327999999991
 21
17.27753199999995
 31
0.0
  0
LINE
  5
6DC0
330
1E
100
AcDbEntity
  8
10
  6
Continuous
100
AcDbLine
 10
34.99997000000002
 20
24.99996999999996
 30
0.0
 11
-35.00003199999999
 21
24.99996999999996
 31
0.0
  0
LINE
  5
6DC1
330
1E
100
AcDbEntity
  8
10
  6
Continuous
100
AcDbLine
 10
7.499938999999997
 20
33.69999999999999
 30
0.0
 11
-7.500061999999999
 21
33.69999999999999
 31
0.0
  0
LINE
  5
6DC2
330
1E
100
AcDbEntity
  8
10
  6
Continuous
100
AcDbLine
 10
7.499938999999997
 20
-33.70000900000007
 30
0.0
 11
-7.500061999999999
 21
-33.70000900000007
 31
0.0
  0
LINE
  5
6DC3
330
1E
100
AcDbEntity
  8
10
  6
Continuous
100
AcDbLine
 10
-35.00003199999999
 20
-25.00003200000003
 30
0.0
 11
34.99993900000001
 21
-25.00003200000003
 31
0.0
  0
LINE
  5
6DC4
330
1E
100
AcDbEntity
  8
10
  6
Continuous
100
AcDbLine
 10
-7.500061999999999
 20
-50.00000200000002
 30
0.0
 11
7.499938999999997
 21
-50.00000200000002
 31
0.0
  0
LINE
  5
6DC5
330
1E
100
AcDbEntity
  8
17
  6
DASHDOT
100
AcDbLine
 10
-6.074997999999993
 20
-42.00000100000005
 30
0.0
 11
6.07499700000001
 21
-42.00000100000005
 31
0.0
  0
LINE
  5
6DC6
330
1E
100
AcDbEntity
  8
17
  6
DASHDOT
100
AcDbLine
 10
-6.074997999999993
 20
40.0
 30
0.0
 11
6.07499700000001
 21
40.0
 31
0.0
  0
LINE
  5
6DC8
330
1E
100
AcDbEntity
  8
10
  6
Continuous
100
AcDbLine
 10
-10.0
 20
24.0
 30
0.0
 11
-10.0
 21
-24.0
 31
0.0
  0
LINE
  5
6DC9
330
1E
100
AcDbEntity
  8
10
  6
Continuous
100
AcDbLine
 10
-36.00003199999999
 20
23.99996999999996
 30
0.0
 11
-36.00003199999999
 21
-24.00003200000003
 31
0.0
  0
LINE
  5
6DCA
330
1E
100
AcDbEntity
  8
10
  6
Continuous
100
AcDbLine
 10
-11.00004699999999
 20
24.64641599999993
 30
0.0
 11
-11.00004699999999
 21
-24.64647800000006
 31
0.0
  0
LINE
  5
6DCB
330
1E
100
AcDbEntity
  8
10
  6
Continuous
100
AcDbLine
 10
-37.50004699999999
 20
46.25000099999994
 30
0.0
 11
-37.50004699999999
 21
-46.25000200000002
 31
0.0
  0
LINE
  5
6DCC
330
1E
100
AcDbEntity
  8
10
  6
Continuous
100
AcDbLine
 10
-17.500062
 20
-33.70000900000007
 30
0.0
 11
-32.500062
 21
-33.70000900000007
 31
0.0
  0
LINE
  5
6DCD
330
1E
100
AcDbEntity
  8
10
  6
Continuous
100
AcDbLine
 10
-32.500062
 20
-50.00000200000002
 30
0.0
 11
-17.500062
 21
-50.00000200000002
 31
0.0
  0
LINE
  5
6DCE
330
1E
100
AcDbEntity
  8
17
  6
DASHDOT
100
AcDbLine
 10
-31.07499799999999
 20
-42.00000100000005
 30
0.0
 11
-18.92500399999998
 21
-42.00000100000005
 31
0.0
  0
LINE
  5
6DCF
330
1E
100
AcDbEntity
  8
10
  6
Continuous
100
AcDbLine
 10
-35.700001
 20
-46.25000200000002
 30
0.0
 11
-35.700001
 21
-50.00000200000002
 31
0.0
  0
LINE
  5
6DD0
330
1E
100
AcDbEntity
  8
10
  6
Continuous
100
AcDbLine
 10
-32.500062
 20
-50.00000200000002
 30
0.0
 11
-32.500062
 21
-33.70000900000007
 31
0.0
  0
LINE
  5
6DD1
330
1E
100
AcDbEntity
  8
10
  6
Continuous
100
AcDbLine
 10
-35.700001
 20
-50.00000200000002
 30
0.0
 11
-32.500062
 21
-50.00000200000002
 31
0.0
  0
LINE
  5
6DD2
330
1E
100
AcDbEntity
  8
10
  6
Continuous
100
AcDbLine
 10
-35.69987899999999
 20
-47.20000000000001
 30
0.0
 11
-32.49993999999998
 21
-47.20000000000001
 31
0.0
  0
LINE
  5
6DD3
330
1E
100
AcDbEntity
  8
10
  6
Continuous
100
AcDbLine
 10
-32.500062
 20
-37.90003300000003
 30
0.0
 11
-37.50004699999999
 21
-37.90003300000003
 31
0.0
  0
LINE
  5
6DD4
330
1E
100
AcDbEntity
  8
10
  6
Continuous
100
AcDbLine
 10
-35.700001
 20
-46.25000200000002
 30
0.0
 11
-37.50004699999999
 21
-46.25000200000002
 31
0.0
  0
ARC
  5
6DD5
330
1E
100
AcDbEntity
  8
10
  6
Continuous
100
AcDbCircle
 10
-35.00003199999999
 20
-24.00003200000003
 30
0.0
 40
1.0
100
AcDbArc
 50
179.999996999999
 51
270.0
  0
LINE
  5
6DD6
330
1E
100
AcDbEntity
  8
17
  6
DASHDOT
100
AcDbLine
 10
-25.00001599999999
 20
-35.92498900000004
 30
0.0
 11
-25.00001599999999
 21
-48.07501400000004
 31
0.0
  0
LINE
  5
6DD7
330
1E
100
AcDbEntity
  8
10
  6
Continuous
100
AcDbLine
 10
-15.50007699999999
 20
-44.66631900000002
 30
0.0
 11
-15.50007699999999
 21
-50.00000200000002
 31
0.0
  0
LINE
  5
6DD8
330
1E
100
AcDbEntity
  8
10
  6
Continuous
100
AcDbLine
 10
-11.90007699999998
 20
-46.26023800000007
 30
0.0
 11
-11.90007699999998
 21
-50.00000200000002
 31
0.0
  0
LINE
  5
6DD9
330
1E
100
AcDbEntity
  8
10
  6
Continuous
100
AcDbLine
 10
-17.500062
 20
-50.00000200000002
 30
0.0
 11
-17.500062
 21
-33.70000900000007
 31
0.0
  0
LINE
  5
6DDA
330
1E
100
AcDbEntity
  8
10
  6
Continuous
100
AcDbLine
 10
-7.500061999999999
 20
-33.70000900000007
 30
0.0
 11
-7.500061999999999
 21
-50.00000200000002
 31
0.0
  0
LINE
  5
6DDB
330
1E
100
AcDbEntity
  8
10
  6
Continuous
100
AcDbLine
 10
-11.90007699999998
 20
-50.00000200000002
 30
0.0
 11
-7.500061999999999
 21
-50.00000200000002
 31
0.0
  0
LINE
  5
6DDC
330
1E
100
AcDbEntity
  8
10
  6
Continuous
100
AcDbLine
 10
-17.500062
 20
-50.00000200000002
 30
0.0
 11
-15.50007699999999
 21
-50.00000200000002
 31
0.0
  0
LINE
  5
6DDD
330
1E
100
AcDbEntity
  8
10
  6
Continuous
100
AcDbLine
 10
-10.0
 20
-24.0
 30
0.0
 11
-11.0
 21
-24.57735100000007
 31
0.0
  0
ARC
  5
6DDE
330
1E
100
AcDbEntity
  8
10
  6
Continuous
100
AcDbCircle
 10
-12.50001599999998
 20
-41.99994000000006
 30
0.0
 40
3.9
100
AcDbArc
 50
284.476691
 51
217.3004790000006
  0
LINE
  5
6DDF
330
1E
100
AcDbEntity
  8
10
  6
Continuous
100
AcDbLine
 10
-7.500061999999999
 20
-37.90003300000003
 30
0.0
 11
-17.500062
 21
-37.90003300000003
 31
0.0
  0
LINE
  5
6DE0
330
1E
100
AcDbEntity
  8
10
  6
Continuous
100
AcDbLine
 10
-15.50007699999999
 20
-46.25000200000002
 30
0.0
 11
-11.90007699999998
 21
-46.25000200000002
 31
0.0
  0
ARC
  5
6DE1
330
1E
100
AcDbEntity
  8
10
  6
Continuous
100
AcDbCircle
 10
-16.00007699999999
 20
-44.66631900000002
 30
0.0
 40
0.5
100
AcDbArc
 50
0.0
 51
37.30047900000063
  0
ARC
  5
6DE2
330
1E
100
AcDbEntity
  8
10
  6
Continuous
100
AcDbCircle
 10
-11.40007699999998
 20
-46.26023800000007
 30
0.0
 40
0.5
100
AcDbArc
 50
104.476691
 51
180.0
  0
ARC
  5
6DE3
330
1E
100
AcDbEntity
  8
10
  6
Continuous
100
AcDbCircle
 10
-10.64649299999999
 20
-24.64647800000006
 30
0.0
 40
0.353553
100
AcDbArc
 50
180.0
 51
270.0
  0
LINE
  5
6DE4
330
1E
100
AcDbEntity
  8
10
  6
Continuous
100
AcDbLine
 10
-17.500062
 20
33.69999999999999
 30
0.0
 11
-32.500062
 21
33.69999999999999
 31
0.0
  0
LINE
  5
6DE5
330
1E
100
AcDbEntity
  8
17
  6
DASHDOT
100
AcDbLine
 10
-31.07499799999999
 20
40.0
 30
0.0
 11
-18.92500399999998
 21
40.0
 31
0.0
  0
LINE
  5
6DE7
330
1E
100
AcDbEntity
  8
10
  6
Continuous
100
AcDbLine
 10
-35.69987899999999
 20
47.19999999999998
 30
0.0
 11
-32.49993999999998
 21
47.19999999999998
 31
0.0
  0
LINE
  5
6DE8
330
1E
100
AcDbEntity
  8
10
  6
Continuous
100
AcDbLine
 10
-32.500062
 20
37.89996399999995
 30
0.0
 11
-37.50004699999999
 21
37.89996399999995
 31
0.0
  0
ARC
  5
6DE9
330
1E
100
AcDbEntity
  8
10
  6
Continuous
100
AcDbCircle
 10
-35.00003199999999
 20
23.99996999999996
 30
0.0
 40
1.0
100
AcDbArc
 50
90.0
 51
179.999996999999
  0
LINE
  5
6DEA
330
1E
100
AcDbEntity
  8
10
  6
Continuous
100
AcDbLine
 10
-35.700001
 20
46.25000099999994
 30
0.0
 11
-37.50004699999999
 21
46.25000099999994
 31
0.0
  0
LINE
  5
6DEB
330
1E
100
AcDbEntity
  8
17
  6
DASHDOT
100
AcDbLine
 10
-25.00001599999999
 20
47.13567199999994
 30
0.0
 11
-25.00001599999999
 21
33.23142599999994
 31
0.0
  0
LINE
  5
6DEC
330
1E
100
AcDbEntity
  8
10
  6
Continuous
100
AcDbLine
 10
-6.500007999999994
 20
18.25002999999998
 30
0.0
 11
-6.500007999999994
 21
0.7500299999999811
 31
0.0
  0
LINE
  5
6DED
330
1E
100
AcDbEntity
  8
10
  6
Continuous
100
AcDbLine
 10
-6.050007999999991
 20
19.63531799999992
 30
0.0
 11
-6.050007999999991
 21
3.900029999999958
 31
0.0
  0
LINE
  5
6DEE
330
1E
100
AcDbEntity
  8
10
  6
Continuous
100
AcDbLine
 10
-6.500007999999994
 20
15.10002999999994
 30
0.0
 11
-6.050007999999991
 21
15.10002999999994
 31
0.0
  0
LINE
  5
6DEF
330
1E
100
AcDbEntity
  8
10
  6
Continuous
100
AcDbLine
 10
-10.0
 20
24.0
 30
0.0
 11
-11.0
 21
24.57734999999996
 31
0.0
  0
CIRCLE
  5
6DF0
330
1E
100
AcDbEntity
  8
12
  6
DASHED
100
AcDbCircle
 10
-12.50001599999998
 20
41.99993999999998
 30
0.0
 40
2.45
  0
ARC
  5
6DF1
330
1E
100
AcDbEntity
  8
10
  6
Continuous
100
AcDbCircle
 10
-12.50001599999998
 20
41.99993999999998
 30
0.0
 40
3.9
100
AcDbArc
 50
104.4781280000003
 51
37.30277299999978
  0
LINE
  5
6DF2
330
1E
100
AcDbEntity
  8
10
  6
Continuous
100
AcDbLine
 10
-7.500061999999999
 20
37.89996399999995
 30
0.0
 11
-17.500062
 21
37.89996399999995
 31
0.0
  0
LINE
  5
6DF3
330
1E
100
AcDbEntity
  8
10
  6
Continuous
100
AcDbLine
 10
-13.10006199999999
 20
46.25000099999994
 30
0.0
 11
-9.500061999999999
 21
46.25000099999994
 31
0.0
  0
LINE
  5
6DF4
330
1E
100
AcDbEntity
  8
12
  6
DASHED
100
AcDbLine
 10
-9.050015999999985
 20
41.99993999999998
 30
0.0
 11
-15.95001599999999
 21
41.99993999999998
 31
0.0
  0
ARC
  5
6DF5
330
1E
100
AcDbEntity
  8
10
  6
Continuous
100
AcDbCircle
 10
-10.64649299999999
 20
24.64641599999993
 30
0.0
 40
0.353553
100
AcDbArc
 50
90.0
 51
180.0
  0
LINE
  5
6DF6
330
1E
100
AcDbEntity
  8
12
  6
DASHED
100
AcDbLine
 10
-12.50001599999998
 20
45.44993999999997
 30
0.0
 11
-12.50001599999998
 21
38.54993999999993
 31
0.0
  0
ARC
  5
6DF7
330
1E
100
AcDbEntity
  8
10
  6
Continuous
100
AcDbCircle
 10
-13.60006199999999
 20
46.26020999999991
 30
0.0
 40
0.5
100
AcDbArc
 50
284.4781280000003
 51
0.0000010000014034
  0
ARC
  5
6DF8
330
1E
100
AcDbEntity
  8
10
  6
Continuous
100
AcDbCircle
 10
-4.300007999999991
 20
19.63531799999992
 30
0.0
 40
1.75
100
AcDbArc
 50
90.0
 51
180.0
  0
LINE
  5
6DF9
330
1E
100
AcDbEntity
  8
10
  6
Continuous
100
AcDbLine
 10
-6.500007999999994
 20
18.25002999999998
 30
0.0
 11
-6.050007999999991
 21
18.25002999999998
 31
0.0
  0
ARC
  5
6DFA
330
1E
100
AcDbEntity
  8
10
  6
Continuous
100
AcDbCircle
 10
-9.000061999999999
 20
44.66645799999992
 30
0.0
 40
0.5
100
AcDbArc
 50
180.0000010000013
 51
217.3027729999998
  0
LINE
  5
6DFB
330
1E
100
AcDbEntity
  8
10
  6
Continuous
100
AcDbLine
 10
10.00000000000001
 20
24.0
 30
0.0
 11
10.00000000000001
 21
-24.0
 31
0.0
  0
LINE
  5
6DFC
330
1E
100
AcDbEntity
  8
10
  6
Continuous
100
AcDbLine
 10
10.99993899999999
 20
24.64641599999993
 30
0.0
 11
10.99993899999999
 21
-24.64647800000006
 31
0.0
  0
LINE
  5
6DFD
330
1E
100
AcDbEntity
  8
10
  6
Continuous
100
AcDbLine
 10
37.49993900000001
 20
46.25000099999994
 30
0.0
 11
37.49993900000001
 21
-46.25000200000002
 31
0.0
  0
LINE
  5
6DFE
330
1E
100
AcDbEntity
  8
10
  6
Continuous
100
AcDbLine
 10
35.99993900000001
 20
23.99996999999996
 30
0.0
 11
35.99993900000001
 21
-24.00003200000003
 31
0.0
  0
LINE
  5
6E05
330
1E
100
AcDbEntity
  8
10
  6
Continuous
100
AcDbLine
 10
32.49993900000001
 20
-33.70000900000007
 30
0.0
 11
17.49993899999999
 21
-33.70000900000007
 31
0.0
  0
LINE
  5
6E06
330
1E
100
AcDbEntity
  8
10
  6
Continuous
100
AcDbLine
 10
17.49993899999999
 20
-50.00000200000002
 30
0.0
 11
33.49993900000001
 21
-50.00000200000002
 31
0.0
  0
LINE
  5
6E07
330
1E
100
AcDbEntity
  8
17
  6
DASHDOT
100
AcDbLine
 10
18.92500300000001
 20
-42.00000100000005
 30
0.0
 11
31.07499700000002
 21
-42.00000100000005
 31
0.0
  0
LINE
  5
6E0A
330
1E
100
AcDbEntity
  8
10
  6
Continuous
100
AcDbLine
 10
13.099939
 20
-46.26023800000007
 30
0.0
 11
13.099939
 21
-50.00000200000002
 31
0.0
  0
LINE
  5
6E0B
330
1E
100
AcDbEntity
  8
10
  6
Continuous
100
AcDbLine
 10
9.499938999999997
 20
-44.66631900000002
 30
0.0
 11
9.499938999999997
 21
-50.00000200000002
 31
0.0
  0
LINE
  5
6E0C
330
1E
100
AcDbEntity
  8
10
  6
Continuous
100
AcDbLine
 10
7.499938999999997
 20
-50.00000200000002
 30
0.0
 11
7.499938999999997
 21
-33.70000900000007
 31
0.0
  0
LINE
  5
6E0D
330
1E
100
AcDbEntity
  8
10
  6
Continuous
100
AcDbLine
 10
17.49993899999999
 20
-33.70000900000007
 30
0.0
 11
17.49993899999999
 21
-50.00000200000002
 31
0.0
  0
LINE
  5
6E0E
330
1E
100
AcDbEntity
  8
10
  6
Continuous
100
AcDbLine
 10
7.499938999999997
 20
-50.00000200000002
 30
0.0
 11
9.499938999999997
 21
-50.00000200000002
 31
0.0
  0
LINE
  5
6E0F
330
1E
100
AcDbEntity
  8
10
  6
Continuous
100
AcDbLine
 10
13.099939
 20
-50.00000200000002
 30
0.0
 11
17.49993899999999
 21
-50.00000200000002
 31
0.0
  0
CIRCLE
  5
6E10
330
1E
100
AcDbEntity
  8
12
  6
DASHED
100
AcDbCircle
 10
12.50000000000001
 20
-41.99994000000006
 30
0.0
 40
2.45
  0
ARC
  5
6E11
330
1E
100
AcDbEntity
  8
10
  6
Continuous
100
AcDbCircle
 10
12.50000000000001
 20
-41.99994000000006
 30
0.0
 40
3.9
100
AcDbArc
 50
284.4766919999997
 51
217.3004790000006
  0
LINE
  5
6E12
330
1E
100
AcDbEntity
  8
10
  6
Continuous
100
AcDbLine
 10
17.49993899999999
 20
-37.90003300000003
 30
0.0
 11
7.499938999999997
 21
-37.90003300000003
 31
0.0
  0
LINE
  5
6E13
330
1E
100
AcDbEntity
  8
10
  6
Continuous
100
AcDbLine
 10
9.499938999999997
 20
-46.25000200000002
 30
0.0
 11
13.099939
 21
-46.25000200000002
 31
0.0
  0
LINE
  5
6E14
330
1E
100
AcDbEntity
  8
12
  6
DASHED
100
AcDbLine
 10
15.95000000000001
 20
-41.99994000000006
 30
0.0
 11
9.050000000000011
 21
-41.99994000000006
 31
0.0
  0
LINE
  5
6E17
330
1E
100
AcDbEntity
  8
12
  6
DASHED
100
AcDbLine
 10
12.50000000000001
 20
-38.54994000000008
 30
0.0
 11
12.50000000000001
 21
-45.44994000000005
 31
0.0
  0
ARC
  5
6E18
330
1E
100
AcDbEntity
  8
10
  6
Continuous
100
AcDbCircle
 10
8.999938999999997
 20
-44.66631900000002
 30
0.0
 40
0.5
100
AcDbArc
 50
0.0
 51
37.30047900000063
  0
LINE
  5
6E19
330
1E
100
AcDbEntity
  8
10
  6
Continuous
100
AcDbLine
 10
8.600000000000008
 20
-41.99604700000006
 30
0.0
 11
8.600000000000008
 21
-42.01091400000004
 31
0.0
  0
ARC
  5
6E1A
330
1E
100
AcDbEntity
  8
10
  6
Continuous
100
AcDbCircle
 10
10.64638499999999
 20
-24.64647800000006
 30
0.0
 40
0.353553
100
AcDbArc
 50
270.0
 51
0.0
  0
LINE
  5
6E1B
330
1E
100
AcDbEntity
  8
10
  6
Continuous
100
AcDbLine
 10
10.00000000000001
 20
-24.0
 30
0.0
 11
11.00000000000001
 21
-24.57735100000007
 31
0.0
  0
ARC
  5
6E1C
330
1E
100
AcDbEntity
  8
10
  6
Continuous
100
AcDbCircle
 10
13.599939
 20
-46.26023800000007
 30
0.0
 40
0.5
100
AcDbArc
 50
104.4766919999997
 51
179.9999910000003
  0
LINE
  5
6E24
330
1E
100
AcDbEntity
  8
10
  6
Continuous
100
AcDbLine
 10
35.69987800000001
 20
-46.25000200000002
 30
0.0
 11
35.69987800000001
 21
-50.00000200000002
 31
0.0
  0
LINE
  5
6E25
330
1E
100
AcDbEntity
  8
10
  6
Continuous
100
AcDbLine
 10
32.49993900000001
 20
-50.00000200000002
 30
0.0
 11
32.49993900000001
 21
-33.70000900000007
 31
0.0
  0
LINE
  5
6E26
330
1E
100
AcDbEntity
  8
10
  6
Continuous
100
AcDbLine
 10
32.49993900000001
 20
-50.00000200000002
 30
0.0
 11
35.69987800000001
 21
-50.00000200000002
 31
0.0
  0
ARC
  5
6E27
330
1E
100
AcDbEntity
  8
10
  6
Continuous
100
AcDbCircle
 10
34.99993900000001
 20
-24.00003200000003
 30
0.0
 40
1.0
100
AcDbArc
 50
270.0
 51
359.9999989999985
  0
LINE
  5
6E28
330
1E
100
AcDbEntity
  8
10
  6
Continuous
100
AcDbLine
 10
37.49993900000001
 20
-37.90003300000003
 30
0.0
 11
32.49993900000001
 21
-37.90003300000003
 31
0.0
  0
LINE
  5
6E29
330
1E
100
AcDbEntity
  8
10
  6
Continuous
100
AcDbLine
 10
35.69987800000001
 20
-46.25000200000002
 30
0.0
 11
37.49993900000001
 21
-46.25000200000002
 31
0.0
  0
LINE
  5
6E2A
330
1E
100
AcDbEntity
  8
17
  6
DASHDOT
100
AcDbLine
 10
24.99998499999999
 20
-35.92498900000004
 30
0.0
 11
24.99998499999999
 21
-48.07501400000004
 31
0.0
  0
LINE
  5
6E2B
330
1E
100
AcDbEntity
  8
10
  6
Continuous
100
AcDbLine
 10
35.69987800000001
 20
-47.20000000000001
 30
0.0
 11
32.49993900000001
 21
-47.20000000000001
 31
0.0
  0
LINE
  5
6E2C
330
1E
100
AcDbEntity
  8
10
  6
Continuous
100
AcDbLine
 10
32.49993900000001
 20
33.69999999999999
 30
0.0
 11
17.49993899999999
 21
33.69999999999999
 31
0.0
  0
LINE
  5
6E2D
330
1E
100
AcDbEntity
  8
17
  6
DASHDOT
100
AcDbLine
 10
18.92500300000001
 20
40.0
 30
0.0
 11
31.07499700000002
 21
40.0
 31
0.0
  0
LINE
  5
6E31
330
1E
100
AcDbEntity
  8
10
  6
Continuous
100
AcDbLine
 10
6.500006999999996
 20
18.25002999999998
 30
0.0
 11
6.500006999999996
 21
0.7500299999999811
 31
0.0
  0
LINE
  5
6E32
330
1E
100
AcDbEntity
  8
10
  6
Continuous
100
AcDbLine
 10
6.050000000000011
 20
19.63531799999992
 30
0.0
 11
6.050000000000011
 21
3.900029999999958
 31
0.0
  0
LINE
  5
6E33
330
1E
100
AcDbEntity
  8
10
  6
Continuous
100
AcDbLine
 10
6.050000000000011
 20
15.10002999999994
 30
0.0
 11
6.500006999999996
 21
15.10002999999994
 31
0.0
  0
ARC
  5
6E34
330
1E
100
AcDbEntity
  8
10
  6
Continuous
100
AcDbCircle
 10
12.50000000000001
 20
41.99993999999998
 30
0.0
 40
3.9
100
AcDbArc
 50
104.4783329999999
 51
37.30310200000103
  0
LINE
  5
6E35
330
1E
100
AcDbEntity
  8
10
  6
Continuous
100
AcDbLine
 10
17.49993899999999
 20
37.89996399999995
 30
0.0
 11
7.499938999999997
 21
37.89996399999995
 31
0.0
  0
LINE
  5
6E36
330
1E
100
AcDbEntity
  8
10
  6
Continuous
100
AcDbLine
 10
11.899939
 20
46.25000099999994
 30
0.0
 11
15.49993899999999
 21
46.25000099999994
 31
0.0
  0
LINE
  5
6E39
330
1E
100
AcDbEntity
  8
10
  6
Continuous
100
AcDbLine
 10
6.050000000000011
 20
18.25002999999998
 30
0.0
 11
6.500006999999996
 21
18.25002999999998
 31
0.0
  0
ARC
  5
6E3A
330
1E
100
AcDbEntity
  8
10
  6
Continuous
100
AcDbCircle
 10
4.300000000000011
 20
19.63531799999992
 30
0.0
 40
1.75
100
AcDbArc
 50
0.0
 51
90.0
  0
LINE
  5
6E3B
330
1E
100
AcDbEntity
  8
10
  6
Continuous
100
AcDbLine
 10
10.00000000000001
 20
24.0
 30
0.0
 11
11.00000000000001
 21
24.57734999999996
 31
0.0
  0
ARC
  5
6E3C
330
1E
100
AcDbEntity
  8
10
  6
Continuous
100
AcDbCircle
 10
10.64638499999999
 20
24.64641599999993
 30
0.0
 40
0.353553
100
AcDbArc
 50
0.0
 51
90.0
  0
ARC
  5
6E3D
330
1E
100
AcDbEntity
  8
10
  6
Continuous
100
AcDbCircle
 10
11.399939
 20
46.26020599999998
 30
0.0
 40
0.5
100
AcDbArc
 50
284.4783329999999
 51
0.0
  0
ARC
  5
6E3E
330
1E
100
AcDbEntity
  8
10
  6
Continuous
100
AcDbCircle
 10
15.99993899999999
 20
44.66647799999992
 30
0.0
 40
0.5
100
AcDbArc
 50
180.0
 51
217.303102000001
  0
LINE
  5
6E41
330
1E
100
AcDbEntity
  8
10
  6
Continuous
100
AcDbLine
 10
35.59995499999999
 20
-13.49985700000007
 30
0.0
 11
29.79995499999998
 21
-13.49985700000007
 31
0.0
  0
CIRCLE
  5
6E46
330
1E
100
AcDbEntity
  8
10
  6
Continuous
100
AcDbCircle
 10
32.69995499999998
 20
-13.49985700000007
 30
0.0
 40
1.9
  0
LINE
  5
6E49
330
1E
100
AcDbEntity
  8
10
  6
Continuous
100
AcDbLine
 10
32.69995499999998
 20
-10.59985700000004
 30
0.0
 11
32.69995499999998
 21
-16.39985700000005
 31
0.0
  0
ARC
  5
6E4C
330
1E
100
AcDbEntity
  8
10
  6
Continuous
100
AcDbCircle
 10
34.99997000000002
 20
23.99996999999996
 30
0.0
 40
1.0
100
AcDbArc
 50
0.0
 51
90.0
  0
LINE
  5
6E4D
330
1E
100
AcDbEntity
  8
10
  6
Continuous
100
AcDbLine
 10
37.49993900000001
 20
37.89996399999995
 30
0.0
 11
32.49993900000001
 21
37.89996399999995
 31
0.0
  0
LINE
  5
6E4E
330
1E
100
AcDbEntity
  8
10
  6
Continuous
100
AcDbLine
 10
35.69987800000001
 20
46.25000099999994
 30
0.0
 11
37.49993900000001
 21
46.25000099999994
 31
0.0
  0
LINE
  5
6E51
330
1E
100
AcDbEntity
  8
17
  6
DASHDOT
100
AcDbLine
 10
24.99998499999999
 20
47.13567199999994
 30
0.0
 11
24.99998499999999
 21
33.23142599999994
 31
0.0
  0
LINE
  5
6E52
330
1E
100
AcDbEntity
  8
10
  6
Continuous
100
AcDbLine
 10
35.69987800000001
 20
47.19999999999998
 30
0.0
 11
32.49993900000001
 21
47.19999999999998
 31
0.0
  0
LINE
  5
6E53
330
1E
100
AcDbEntity
  8
10
  6
Continuous
100
AcDbLine
 10
-7.500061999999999
 20
50.00000099999994
 30
0.0
 11
7.499938999999997
 21
50.00000099999994
 31
0.0
  0
LINE
  5
6E55
330
1E
100
AcDbEntity
  8
10
  6
Continuous
100
AcDbLine
 10
-32.500062
 20
50.00000099999994
 30
0.0
 11
-17.500062
 21
50.00000099999994
 31
0.0
  0
LINE
  5
6E56
330
1E
100
AcDbEntity
  8
10
  6
Continuous
100
AcDbLine
 10
-35.700001
 20
50.00000099999994
 30
0.0
 11
-32.500062
 21
50.00000099999994
 31
0.0
  0
LINE
  5
6E57
330
1E
100
AcDbEntity
  8
10
  6
Continuous
100
AcDbLine
 10
-17.500062
 20
50.00000099999994
 30
0.0
 11
-13.10006199999999
 21
50.00000099999994
 31
0.0
  0
LINE
  5
6E58
330
1E
100
AcDbEntity
  8
10
  6
Continuous
100
AcDbLine
 10
-9.500061999999999
 20
50.00000099999994
 30
0.0
 11
-7.500061999999999
 21
50.00000099999994
 31
0.0
  0
LINE
  5
6E5A
330
1E
100
AcDbEntity
  8
18
  6
DIVIDE
100
AcDbLine
 10
-12.30006199999999
 20
100.0000009999999
 30
0.0
 11
-10.30006199999999
 21
100.0000009999999
 31
0.0
  0
LINE
  5
6E5C
330
1E
100
AcDbEntity
  8
10
  6
Continuous
100
AcDbLine
 10
17.49993899999999
 20
50.00000099999994
 30
0.0
 11
32.49993900000001
 21
50.00000099999994
 31
0.0
  0
LINE
  5
6E5D
330
1E
100
AcDbEntity
  8
10
  6
Continuous
100
AcDbLine
 10
7.499938999999997
 20
50.00000099999994
 30
0.0
 11
11.899939
 21
50.00000099999994
 31
0.0
  0
LINE
  5
6E5E
330
1E
100
AcDbEntity
  8
10
  6
Continuous
100
AcDbLine
 10
15.49993899999999
 20
50.00000099999994
 30
0.0
 11
17.49993899999999
 21
50.00000099999994
 31
0.0
  0
LINE
  5
6E5F
330
1E
100
AcDbEntity
  8
18
  6
DIVIDE
100
AcDbLine
 10
14.700061
 20
100.0000009999999
 30
0.0
 11
12.700061
 21
100.0000009999999
 31
0.0
  0
LINE
  5
6E60
330
1E
100
AcDbEntity
  8
10
  6
Continuous
100
AcDbLine
 10
32.49993900000001
 20
50.00000099999994
 30
0.0
 11
35.69987800000001
 21
50.00000099999994
 31
0.0
  0
LEADER
  5
74FC
330
1E
100
AcDbEntity
  8
30
  6
Continuous
100
AcDbLeader
  3
STANDARD
 71
     0
 74
     0
 76
     3
 10
-12.50001600000001
 20
41.99993999999995
 30
0.0
 10
-20.07567199999999
 20
62.38897499999993
 30
0.0
 10
-43.90171521683413
 20
62.38897499999993
 30
0.0
  0
MTEXT
  5
74FD
330
1E
100
AcDbEntity
  8
30
  6
Continuous
100
AcDbMText
 10
-37.13705365807192
 20
65.20090782807191
 30
0.0
 40
3.535533
 41
0.0
 71
     4
 72
     1
  1
%%C4.9
  7
MX_NOTE_STANDARD
 73
     1
 44
1.0
  0
LINE
  5
7617
330
1E
100
AcDbEntity
  8
17
  6
DASHDOT
100
AcDbLine
 10
-7.750000000000007
 20
156.9999999999999
 30
0.0
 11
-7.750000000000007
 21
197.9999999999999
 31
0.0
  0
LINE
  5
7618
330
1E
100
AcDbEntity
  8
17
  6
DASHDOT
100
AcDbLine
 10
7.75
 20
156.9999999999999
 30
0.0
 11
7.75
 21
197.9999999999999
 31
0.0
  0
ARC
  5
7619
330
1E
100
AcDbEntity
  8
17
  6
DASHDOT
100
AcDbCircle
 10
0.0000000000000142
 20
204.700001
 30
0.0
 40
18.0
100
AcDbArc
 50
253.3984499999996
 51
286.6015500000003
  0
LINE
  5
761A
330
1E
100
AcDbEntity
  8
17
  6
DASHDOT
100
AcDbLine
 10
-7.750000000000007
 20
197.9999999999999
 30
0.0
 11
7.75
 21
198.0
 31
0.0
  0
LINE
  5
761B
330
1E
100
AcDbEntity
  8
17
  6
DASHDOT
100
AcDbLine
 10
7.75
 20
193.900001
 30
0.0
 11
-7.750000000000007
 21
193.900001
 31
0.0
  0
LINE
  5
761C
330
1E
100
AcDbEntity
  8
17
  6
DASHDOT
100
AcDbLine
 10
-7.750000000000007
 20
195.5
 30
0.0
 11
7.75
 21
195.5
 31
0.0
  0
LINE
  5
761D
330
1E
100
AcDbEntity
  8
17
  6
DASHDOT
100
AcDbLine
 10
7.25
 20
191.900001
 30
0.0
 11
-7.250000000000007
 21
191.900001
 31
0.0
  0
LINE
  5
761E
330
1E
100
AcDbEntity
  8
17
  6
DASHDOT
100
AcDbLine
 10
-7.750000000000007
 20
193.900001
 30
0.0
 11
-7.750000000000007
 21
197.9999999999999
 31
0.0
  0
ARC
  5
761F
330
1E
100
AcDbEntity
  8
17
  6
DASHDOT
100
AcDbCircle
 10
-4.399999999999998
 20
189.941952
 30
0.0
 40
2.6
100
AcDbArc
 50
180.0
 51
253.3984499999996
  0
LINE
  5
7620
330
1E
100
AcDbEntity
  8
17
  6
DASHDOT
100
AcDbLine
 10
-7.000000000000007
 20
189.941952
 30
0.0
 11
-7.000000000000007
 21
191.939246
 31
0.0
  0
LINE
  5
7621
330
1E
100
AcDbEntity
  8
17
  6
DASHDOT
100
AcDbLine
 10
-7.250000000000007
 20
191.900001
 30
0.0
 11
-7.250000000000007
 21
193.900001
 31
0.0
  0
LINE
  5
7622
330
1E
100
AcDbEntity
  8
17
  6
DASHDOT
100
AcDbLine
 10
7.75
 20
193.900001
 30
0.0
 11
7.75
 21
198.0
 31
0.0
  0
ARC
  5
7623
330
1E
100
AcDbEntity
  8
17
  6
DASHDOT
100
AcDbCircle
 10
4.400000000000019
 20
189.941952
 30
0.0
 40
2.6
100
AcDbArc
 50
286.6015500000003
 51
0.0
  0
LINE
  5
7624
330
1E
100
AcDbEntity
  8
17
  6
DASHDOT
100
AcDbLine
 10
7.0
 20
189.941952
 30
0.0
 11
7.0
 21
191.900001
 31
0.0
  0
LINE
  5
7625
330
1E
100
AcDbEntity
  8
17
  6
DASHDOT
100
AcDbLine
 10
7.25
 20
191.900001
 30
0.0
 11
7.25
 21
193.900001
 31
0.0
  0
LINE
  5
7626
330
1E
100
AcDbEntity
  8
17
  6
DASHDOT
100
AcDbLine
 10
-32.75
 20
156.9999999999999
 30
0.0
 11
-32.75
 21
197.9999999999999
 31
0.0
  0
LINE
  5
7627
330
1E
100
AcDbEntity
  8
17
  6
DASHDOT
100
AcDbLine
 10
-17.25
 20
156.9999999999999
 30
0.0
 11
-17.25
 21
197.9999999999999
 31
0.0
  0
ARC
  5
7628
330
1E
100
AcDbEntity
  8
17
  6
DASHDOT
100
AcDbCircle
 10
-24.99999999999998
 20
204.700001
 30
0.0
 40
18.0
100
AcDbArc
 50
253.3984499999996
 51
286.6015500000003
  0
LINE
  5
7629
330
1E
100
AcDbEntity
  8
17
  6
DASHDOT
100
AcDbLine
 10
-32.75
 20
197.9999999999999
 30
0.0
 11
-17.25
 21
198.0
 31
0.0
  0
LINE
  5
762A
330
1E
100
AcDbEntity
  8
17
  6
DASHDOT
100
AcDbLine
 10
-17.25
 20
193.900001
 30
0.0
 11
-32.75
 21
193.900001
 31
0.0
  0
LINE
  5
762B
330
1E
100
AcDbEntity
  8
17
  6
DASHDOT
100
AcDbLine
 10
-32.75
 20
195.5
 30
0.0
 11
-17.25
 21
195.5
 31
0.0
  0
LINE
  5
762C
330
1E
100
AcDbEntity
  8
17
  6
DASHDOT
100
AcDbLine
 10
-17.75
 20
191.900001
 30
0.0
 11
-32.25
 21
191.900001
 31
0.0
  0
LINE
  5
762D
330
1E
100
AcDbEntity
  8
17
  6
DASHDOT
100
AcDbLine
 10
-32.75
 20
193.900001
 30
0.0
 11
-32.75
 21
197.9999999999999
 31
0.0
  0
ARC
  5
762E
330
1E
100
AcDbEntity
  8
17
  6
DASHDOT
100
AcDbCircle
 10
-29.39999999999999
 20
189.941952
 30
0.0
 40
2.6
100
AcDbArc
 50
180.0
 51
253.3984499999996
  0
LINE
  5
762F
330
1E
100
AcDbEntity
  8
17
  6
DASHDOT
100
AcDbLine
 10
-32.00000000000001
 20
189.941952
 30
0.0
 11
-32.00000000000001
 21
191.939246
 31
0.0
  0
LINE
  5
7630
330
1E
100
AcDbEntity
  8
17
  6
DASHDOT
100
AcDbLine
 10
-32.25
 20
191.900001
 30
0.0
 11
-32.25
 21
193.900001
 31
0.0
  0
LINE
  5
7631
330
1E
100
AcDbEntity
  8
17
  6
DASHDOT
100
AcDbLine
 10
-17.25
 20
193.900001
 30
0.0
 11
-17.25
 21
198.0
 31
0.0
  0
ARC
  5
7632
330
1E
100
AcDbEntity
  8
17
  6
DASHDOT
100
AcDbCircle
 10
-20.59999999999998
 20
189.941952
 30
0.0
 40
2.6
100
AcDbArc
 50
286.6015500000003
 51
0.0
  0
LINE
  5
7633
330
1E
100
AcDbEntity
  8
17
  6
DASHDOT
100
AcDbLine
 10
-18.0
 20
189.941952
 30
0.0
 11
-18.0
 21
191.900001
 31
0.0
  0
LINE
  5
7634
330
1E
100
AcDbEntity
  8
17
  6
DASHDOT
100
AcDbLine
 10
-17.75
 20
191.900001
 30
0.0
 11
-17.75
 21
193.900001
 31
0.0
  0
LINE
  5
7821
330
1E
100
AcDbEntity
  8
10
  6
Continuous
100
AcDbLine
 10
10.99993899999999
 20
154.0
 30
0.0
 11
10.38174500000001
 21
150.0
 31
0.0
  0
DIMENSION
  5
78AA
330
1E
100
AcDbEntity
  8
30
  6
Continuous
100
AcDbDimension
  2
*D64
 10
127.08729
 20
-226.000008
 30
0.0
 11
89.97189279127157
 21
-191.6593410417413
 31
0.0
 70
   164
  1
lsess than <>
 71
     5
 42
2.000000618898241
  3
STANDARD
100
AcDbRadialDimension
 15
126.3611077654224
 25
-224.1365000612519
 35
0.0
 40
0.0
  0
LEADER
  5
78AB
330
1E
100
AcDbEntity
  8
30
  6
Continuous
100
AcDbLeader
  3
STANDARD
 74
     0
 76
     3
 10
-13.86880717739893
 20
-202.8113360354833
 30
0.0
 10
-30.30128414419186
 20
-184.2386880354833
 30
0.0
 10
-0.7577612614914529
 20
-184.2386880354833
 30
0.0
  0
MTEXT
  5
78AC
330
1E
100
AcDbEntity
  8
30
  6
Continuous
100
AcDbMText
 10
-26.61234583273869
 20
-181.3301486896762
 30
0.0
 40
3.535533
 41
0.0
 71
     4
 72
     1
  1
\W0.786;\A1;M4 OR %%C5
  7
MX_NOTE_STANDARD
 73
     1
 44
1.0
  0
LWPOLYLINE
  5
78AD
330
1E
100
AcDbEntity
  8
18
  6
DIVIDE
100
AcDbPolyline
 90
        4
 70
     1
 43
0.0
 10
-37.5
 20
-299.75
 10
37.5
 20
-299.75
 10
37.5
 20
-200.2499999999999
 10
-37.5
 20
-200.2499999999999
  0
LINE
  5
78AE
330
1E
100
AcDbEntity
  8
12
  6
CONTINOUS
100
AcDbLine
 10
-16.43772399999994
 20
-208.0000119999999
 30
0.0
 11
-8.386839999999949
 21
-208.0000119999999
 31
0.0
  0
DIMENSION
  5
78AF
330
1E
100
AcDbEntity
  8
30
  6
Continuous
100
AcDbDimension
  2
*D65
 10
-12.49999799999989
 20
-322.1961159999999
 30
0.0
 11
-0.0000009999999451
 21
-322.1961159999999
 31
0.0
 70
   160
  1
<>
 71
     5
 42
24.9999939999999
  3
STANDARD
100
AcDbAlignedDimension
 13
12.49999600000001
 23
-302.4494199999999
 33
0.0
 14
-12.49999799999989
 24
-216.549718
 34
0.0
100
AcDbRotatedDimension
  0
CIRCLE
  5
78B1
330
1E
100
AcDbEntity
  8
12
  6
CONTINOUS
100
AcDbCircle
 10
-12.49999799999989
 20
-208.0000119999999
 30
0.0
 40
1.25
  0
CIRCLE
  5
78B2
330
1E
100
AcDbEntity
  8
12
  6
CONTINOUS
100
AcDbCircle
 10
-12.49999799999989
 20
-208.0000119999999
 30
0.0
 40
1.999999
  0
LINE
  5
78B3
330
1E
100
AcDbEntity
  8
12
  6
CONTINOUS
100
AcDbLine
 10
-12.49999799999989
 20
-203.2000109999999
 30
0.0
 11
-12.49999799999989
 21
-212.2748639999999
 31
0.0
  0
DIMENSION
  5
78B4
330
1E
100
AcDbEntity
  8
30
  6
Continuous
100
AcDbDimension
  2
*D66
 10
61.74569600000001
 20
-291.999988
 30
0.0
 11
61.74569600000006
 21
-250.0
 31
0.0
 70
   160
  1
<>
 71
     5
 42
83.99997600000006
  3
STANDARD
100
AcDbAlignedDimension
 13
-4.273677999999904
 23
-208.0000119999999
 33
0.0
 14
20.09229200000004
 24
-291.999988
 34
0.0
 50
90.0
100
AcDbRotatedDimension
  0
LINE
  5
78B6
330
1E
100
AcDbEntity
  8
12
  6
CONTINOUS
100
AcDbLine
 10
12.49999600000001
 20
-287.399991
 30
0.0
 11
12.49999600000001
 21
-297.2247039999999
 31
0.0
  0
LINE
  5
78B7
330
1E
100
AcDbEntity
  8
12
  6
CONTINOUS
100
AcDbLine
 10
8.273223000000029
 20
-291.999988
 30
0.0
 11
16.29614500000002
 21
-291.999988
 31
0.0
  0
CIRCLE
  5
78B8
330
1E
100
AcDbEntity
  8
12
  6
CONTINOUS
100
AcDbCircle
 10
12.49999600000001
 20
-291.999988
 30
0.0
 40
1.25
  0
CIRCLE
  5
78B9
330
1E
100
AcDbEntity
  8
12
  6
CONTINOUS
100
AcDbCircle
 10
12.49999600000001
 20
-291.999988
 30
0.0
 40
1.999999
  0
DIMENSION
  5
78BA
330
1E
100
AcDbEntity
  8
30
  6
Continuous
100
AcDbDimension
  2
*D67
 10
217.4642739999999
 20
-275.999994
 30
0.0
 11
222.1682223234165
 21
-250.0
 31
0.0
 70
   160
  1
more than 52
 71
     5
 42
51.99998600000004
 53
90.0
  3
STANDARD
100
AcDbAlignedDimension
 13
193.087272
 23
-224.0000079999999
 33
0.0
 14
193.087272
 24
-275.999994
 34
0.0
 50
90.0
100
AcDbRotatedDimension
1001
ACAD
1000
DSTYLE
1002
{
1070
   279
1070
     2
1002
}
  0
ARC
  5
78BE
330
1E
100
AcDbEntity
  8
11
  6
Continuous
100
AcDbCircle
 10
193.087272
 20
-226.0000079999999
 30
0.0
 40
2.0
100
AcDbArc
 50
359.9977419999995
 51
90.0
  0
ARC
  5
78BF
330
1E
100
AcDbEntity
  8
11
  6
Continuous
100
AcDbCircle
 10
127.08729
 20
-226.0000079999999
 30
0.0
 40
2.0
100
AcDbArc
 50
90.0
 51
180.0000050000005
  0
DIMENSION
  5
78C2
330
1E
100
AcDbEntity
  8
30
  6
Continuous
100
AcDbDimension
  2
*D68
 10
125.08729
 20
-322.1961159999999
 30
0.0
 11
160.0
 21
-326.1961159999999
 31
0.0
 70
   160
  1
more than 74
 71
     5
 42
69.99998000000005
  3
STANDARD
100
AcDbAlignedDimension
 13
195.08727
 23
-273.999996
 33
0.0
 14
125.08729
 24
-273.999996
 34
0.0
100
AcDbRotatedDimension
1001
ACAD
1000
DSTYLE
1002
{
1070
   279
1070
     2
1002
}
  0
LINE
  5
78C3
330
1E
100
AcDbEntity
  8
11
  6
Continuous
100
AcDbLine
 10
127.08729
 20
-275.999994
 30
0.0
 11
193.087272
 21
-275.999994
 31
0.0
  0
LINE
  5
78C4
330
1E
100
AcDbEntity
  8
11
  6
Continuous
100
AcDbLine
 10
125.08729
 20
-273.999994
 30
0.0
 11
125.08729
 21
-226.0000079999999
 31
0.0
  0
ARC
  5
78C5
330
1E
100
AcDbEntity
  8
11
  6
Continuous
100
AcDbCircle
 10
127.08729
 20
-273.999994
 30
0.0
 40
2.0
100
AcDbArc
 50
180.0010019999992
 51
270.0
  0
LINE
  5
78C6
330
1E
100
AcDbEntity
  8
11
  6
Continuous
100
AcDbLine
 10
195.08727
 20
-273.999994
 30
0.0
 11
195.08727
 21
-226.0000079999999
 31
0.0
  0
ARC
  5
78C7
330
1E
100
AcDbEntity
  8
11
  6
Continuous
100
AcDbCircle
 10
193.087272
 20
-273.999994
 30
0.0
 40
2.0
100
AcDbArc
 50
270.0
 51
359.9989989999988
  0
LINE
  5
78C8
330
1E
100
AcDbEntity
  8
11
  6
Continuous
100
AcDbLine
 10
127.08729
 20
-224.0000079999999
 30
0.0
 11
193.087272
 21
-224.0000079999999
 31
0.0
  0
LWPOLYLINE
  5
7930
330
1E
100
AcDbEntity
  8
18
  6
DIVIDE
100
AcDbPolyline
 90
        4
 70
     1
 43
0.0
 10
122.5
 20
-299.75
 10
197.5
 20
-299.75
 10
197.5
 20
-200.2499999999999
 10
122.5
 20
-200.2499999999999
  0
VIEWPORT
  5
9AC
330
1A
100
AcDbEntity
 67
     1
  8
0
  6
Continuous
100
AcDbViewport
 10
171.999535
 20
144.1384739999999
 30
0.0
 40
488.867686
 41
292.351491
 68
    -1
 69
     1
 12
171.999535
 22
144.1384739999999
 13
0.0
 23
0.0
 14
10.0
 24
10.0
 15
10.0
 25
10.0
 16
0.0
 26
0.0
 36
1.0
 17
0.0
 27
0.0
 37
0.0
 42
50.0
 43
0.0
 44
0.0
 45
292.351491
 50
0.0
 51
0.0
 72
   100
 90
    32800
  1

281
     0
 71
     1
 74
     0
110
0.0
120
0.0
130
0.0
111
1.0
121
0.0
131
0.0
112
0.0
122
1.0
132
0.0
 79
     0
146
0.0
  0
ENDSEC
  0
SECTION
  2
OBJECTS
  0
DICTIONARY
  5
C
330
0
100
AcDbDictionary
281
     1
  3
ACAD_GROUP
350
D
  3
ACAD_LAYOUT
350
19
  3
ACAD_MLINESTYLE
350
16
  3
ACAD_PLOTSETTINGS
350
18
  3
ACAD_PLOTSTYLENAME
350
E
  3
ACADDIM
350
3625
  3
ACDBHEADERROUNDTRIPXREC
350
7961
  3
ACDBVARIABLEDICTIONARY
350
3682
  0
DICTIONARY
  5
178
330
1E
100
AcDbDictionary
280
     1
281
     1
  3
ACAD_LAYOUTSELFREF
360
3A0D
  0
DICTIONARY
  5
17A
330
1A
100
AcDbDictionary
280
     1
281
     1
  3
ACAD_LAYOUTSELFREF
360
3A0C
  0
DICTIONARY
  5
D
102
{ACAD_REACTORS
330
C
102
}
330
C
100
AcDbDictionary
281
     1
  0
DICTIONARY
  5
19
102
{ACAD_REACTORS
330
C
102
}
330
C
100
AcDbDictionary
281
     1
  3
MODEL
350
21
  3
ﾚｲｱｳﾄ1
350
1D
  0
DICTIONARY
  5
16
102
{ACAD_REACTORS
330
C
102
}
330
C
100
AcDbDictionary
281
     1
  3
STANDARD
350
17
  0
DICTIONARY
  5
18
102
{ACAD_REACTORS
330
C
102
}
330
C
100
AcDbDictionary
281
     1
  0
ACDBDICTIONARYWDFLT
  5
E
102
{ACAD_REACTORS
330
C
102
}
330
C
100
AcDbDictionary
281
     1
  3
Normal
350
F
100
AcDbDictionaryWithDefault
340
F
  0
XRECORD
  5
3625
102
{ACAD_REACTORS
330
C
102
}
330
C
100
AcDbXrecord
280
     1
 90
   990106
  3

 60
     0
 61
     0
 62
     1
 63
     3
 64
     0
 65
     0
 66
     0
 67
     3
 68
     1
 69
     0
 70
     0
 71
     0
 72
     0
 40
0.0
170
     0
340
0
  0
DICTIONARY
  5
7961
102
{ACAD_REACTORS
330
C
102
}
330
C
100
AcDbDictionary
281
     1
  3
CEPSNTYPE
350
796B
  3
DIMSTYLEDATA
350
796F
  3
FINGERPRINTGUID
350
796C
  3
HYPERLINKBASE
350
7964
  3
INSUNITS
350
796A
  3
LAYOUTDICT
350
7966
  3
LWETCUNION
350
7969
  3
PLOTSETDICT
350
7967
  3
PLOTSTYLNAMDICT
350
7968
  3
PSVPSCALE
350
796E
  3
PUCSBASE
350
7972
  3
PUCSORGBACK
350
7978
  3
PUCSORGBOTTOM
350
7974
  3
PUCSORGFRONT
350
7977
  3
PUCSORGLEFT
350
7975
  3
PUCSORGRIGHT
350
7976
  3
PUCSORGTOP
350
7973
  3
PUCSORTHOREF
350
7970
  3
PUCSORTHOVIEW
350
7971
  3
STYLESHEET
350
7965
  3
TSTACKALIGN
350
7962
  3
TSTACKSIZE
350
7963
  3
UCSBASE
350
797B
  3
UCSORGBACK
350
7981
  3
UCSORGBOTTOM
350
797D
  3
UCSORGFRONT
350
7980
  3
UCSORGLEFT
350
797E
  3
UCSORGRIGHT
350
797F
  3
UCSORGTOP
350
797C
  3
UCSORTHOREF
350
7979
  3
UCSORTHOVIEW
350
797A
  3
VERSIONGUID
350
796D
  0
DICTIONARY
  5
3682
102
{ACAD_REACTORS
330
C
102
}
330
C
100
AcDbDictionary
281
     1
  3
DIMASSOC
350
3A2F
  3
SORTENTS
350
3683
  0
XRECORD
  5
3A0D
102
{ACAD_REACTORS
330
178
102
}
330
178
100
AcDbXrecord
280
     1
340
1E
  0
XRECORD
  5
3A0C
102
{ACAD_REACTORS
330
17A
102
}
330
17A
100
AcDbXrecord
280
     1
340
1A
  0
LAYOUT
  5
21
102
{ACAD_REACTORS
330
19
102
}
330
19
100
AcDbPlotSettings
  1

  2
\\PRINT_SERV\RICOH IPSiO NX730N RPCS
  4
A4
  6
OLE1
 40
5.873749732971191
 41
5.873747825622558
 42
5.873748779296875
 43
5.873748779296875
 44
209.9733276367187
 45
296.9259948730469
 46
28.73
 47
6.379999999999999
 48
0.0
 49
0.0
140
0.0
141
0.0
142
1.0
143
2.0
 70
 11940
 72
     1
 73
     0
 74
     1
  7
monochrome.ctb
 75
     0
147
0.5
148
62.34020037769403
149
318.7382997042059
100
AcDbLayout
  1
Model
 70
     1
 71
     0
 10
0.0
 20
0.0
 11
12.0
 21
9.0
 12
0.0
 22
0.0
 32
0.0
 14
0.0
 24
0.0
 34
0.0
 15
0.0
 25
0.0
 35
0.0
146
0.0
 13
0.0
 23
0.0
 33
0.0
 16
1.0
 26
0.0
 36
0.0
 17
0.0
 27
1.0
 37
0.0
 76
     0
330
1E
  0
LAYOUT
  5
1D
102
{ACAD_REACTORS
330
19
102
}
330
19
100
AcDbPlotSettings
  1

  2
EPSON LP-8300
  4
A4
  6

 40
5.873749732971191
 41
5.873747825622557
 42
5.873748779296875
 43
5.873748779296875
 44
297.0106506347656
 45
209.9733276367186
 46
0.0
 47
0.0
 48
0.0
 49
0.0
140
0.0
141
0.0
142
1.0
143
1.0
 70
   672
 72
     1
 73
     1
 74
     5
  7
MCCB.ctb
 75
     0
147
1.0
148
0.0
149
0.0
100
AcDbLayout
  1
ﾚｲｱｳﾄ1
 70
     1
 71
     1
 10
-5.873749
 20
-5.87375
 11
204.099579
 21
291.1369009999999
 12
0.0
 22
0.0
 32
0.0
 14
4.273573
 24
5.205245999999998
 34
0.0
 15
194.610095
 25
283.0697009999998
 35
0.0
146
0.0
 13
0.0
 23
0.0
 33
0.0
 16
1.0
 26
0.0
 36
0.0
 17
0.0
 27
1.0
 37
0.0
 76
     0
330
1A
331
9AC
  0
MLINESTYLE
  5
17
102
{ACAD_REACTORS
330
16
102
}
330
16
100
AcDbMlineStyle
  2
STANDARD
 70
     0
  3

 62
   256
 51
90.0
 52
90.0
 71
     2
 49
0.5
 62
   256
  6
BYLAYER
 49
-0.5
 62
   256
  6
BYLAYER
  0
ACDBPLACEHOLDER
  5
F
102
{ACAD_REACTORS
330
E
102
}
330
E
  0
XRECORD
  5
796B
102
{ACAD_REACTORS
330
7961
102
}
330
7961
100
AcDbXrecord
280
     1
 90
        0
  0
XRECORD
  5
796F
102
{ACAD_REACTORS
330
7961
102
}
330
7961
100
AcDbXrecord
280
     1
1000
DSTYLE
1002
{
1070
    79
 70
     3
1070
   341
340
3B2
1070
   342
340
3B2
1002
}
  0
XRECORD
  5
796C
102
{ACAD_REACTORS
330
7961
102
}
330
7961
100
AcDbXrecord
280
     1
  1

  0
XRECORD
  5
7964
102
{ACAD_REACTORS
330
7961
102
}
330
7961
100
AcDbXrecord
280
     1
  1

  0
XRECORD
  5
796A
102
{ACAD_REACTORS
330
7961
102
}
330
7961
100
AcDbXrecord
280
     1
 90
        0
  0
XRECORD
  5
7966
102
{ACAD_REACTORS
330
7961
102
}
330
7961
100
AcDbXrecord
280
     1
340
19
  0
XRECORD
  5
7969
102
{ACAD_REACTORS
330
7961
102
}
330
7961
100
AcDbXrecord
280
     1
 90
    10781
  0
XRECORD
  5
7967
102
{ACAD_REACTORS
330
7961
102
}
330
7961
100
AcDbXrecord
280
     1
340
18
  0
XRECORD
  5
7968
102
{ACAD_REACTORS
330
7961
102
}
330
7961
100
AcDbXrecord
280
     1
340
E
  0
XRECORD
  5
796E
102
{ACAD_REACTORS
330
7961
102
}
330
7961
100
AcDbXrecord
280
     1
 40
0.0
  0
XRECORD
  5
7972
102
{ACAD_REACTORS
330
7961
102
}
330
7961
100
AcDbXrecord
280
     1
340
0
  0
XRECORD
  5
7978
102
{ACAD_REACTORS
330
7961
102
}
330
7961
100
AcDbXrecord
280
     1
 10
0.0
 20
0.0
 30
0.0
  0
XRECORD
  5
7974
102
{ACAD_REACTORS
330
7961
102
}
330
7961
100
AcDbXrecord
280
     1
 10
0.0
 20
0.0
 30
0.0
  0
XRECORD
  5
7977
102
{ACAD_REACTORS
330
7961
102
}
330
7961
100
AcDbXrecord
280
     1
 10
0.0
 20
0.0
 30
0.0
  0
XRECORD
  5
7975
102
{ACAD_REACTORS
330
7961
102
}
330
7961
100
AcDbXrecord
280
     1
 10
0.0
 20
0.0
 30
0.0
  0
XRECORD
  5
7976
102
{ACAD_REACTORS
330
7961
102
}
330
7961
100
AcDbXrecord
280
     1
 10
0.0
 20
0.0
 30
0.0
  0
XRECORD
  5
7973
102
{ACAD_REACTORS
330
7961
102
}
330
7961
100
AcDbXrecord
280
     1
 10
0.0
 20
0.0
 30
0.0
  0
XRECORD
  5
7970
102
{ACAD_REACTORS
330
7961
102
}
330
7961
100
AcDbXrecord
280
     1
340
0
  0
XRECORD
  5
7971
102
{ACAD_REACTORS
330
7961
102
}
330
7961
100
AcDbXrecord
280
     1
 70
     0
  0
XRECORD
  5
7965
102
{ACAD_REACTORS
330
7961
102
}
330
7961
100
AcDbXrecord
280
     1
  1
monochrome.ctb
  0
XRECORD
  5
7962
102
{ACAD_REACTORS
330
7961
102
}
330
7961
100
AcDbXrecord
280
     1
 90
        1
  0
XRECORD
  5
7963
102
{ACAD_REACTORS
330
7961
102
}
330
7961
100
AcDbXrecord
280
     1
 90
       70
  0
XRECORD
  5
797B
102
{ACAD_REACTORS
330
7961
102
}
330
7961
100
AcDbXrecord
280
     1
340
0
  0
XRECORD
  5
7981
102
{ACAD_REACTORS
330
7961
102
}
330
7961
100
AcDbXrecord
280
     1
 10
0.0
 20
0.0
 30
0.0
  0
XRECORD
  5
797D
102
{ACAD_REACTORS
330
7961
102
}
330
7961
100
AcDbXrecord
280
     1
 10
0.0
 20
0.0
 30
0.0
  0
XRECORD
  5
7980
102
{ACAD_REACTORS
330
7961
102
}
330
7961
100
AcDbXrecord
280
     1
 10
0.0
 20
0.0
 30
0.0
  0
XRECORD
  5
797E
102
{ACAD_REACTORS
330
7961
102
}
330
7961
100
AcDbXrecord
280
     1
 10
0.0
 20
0.0
 30
0.0
  0
XRECORD
  5
797F
102
{ACAD_REACTORS
330
7961
102
}
330
7961
100
AcDbXrecord
280
     1
 10
0.0
 20
0.0
 30
0.0
  0
XRECORD
  5
797C
102
{ACAD_REACTORS
330
7961
102
}
330
7961
100
AcDbXrecord
280
     1
 10
0.0
 20
0.0
 30
0.0
  0
XRECORD
  5
7979
102
{ACAD_REACTORS
330
7961
102
}
330
7961
100
AcDbXrecord
280
     1
340
0
  0
XRECORD
  5
797A
102
{ACAD_REACTORS
330
7961
102
}
330
7961
100
AcDbXrecord
280
     1
 70
     0
  0
XRECORD
  5
796D
102
{ACAD_REACTORS
330
7961
102
}
330
7961
100
AcDbXrecord
280
     1
  1
{EAB6D7A3-A94C-4FC4-884D-9346F8647933}
  0
DICTIONARYVAR
  5
3A2F
102
{ACAD_REACTORS
330
3682
102
}
330
3682
100
DictionaryVariables
280
     0
  1
1
  0
DICTIONARYVAR
  5
3683
102
{ACAD_REACTORS
330
3682
102
}
330
3682
100
DictionaryVariables
280
     0
  1
96
  0
ENDSEC
  0
EOF
