  0
SECTION
  2
HEADER
  9
$ACADVER
  1
AC1015
  9
$ACADMAINTVER
 70
    10
  9
$DWGCODEPAGE
  3
ANSI_932
  9
$INSBASE
 10
0.0
 20
0.0
 30
0.0
  9
$EXTMIN
 10
-77.5
 20
-358.0026263657791
 30
0.0
  9
$EXTMAX
 10
344.6000408010295
 20
186.0764308630129
 30
0.0
  9
$LIMMIN
 10
-90.98839357614634
 20
-332.2303687925309
  9
$LIMMAX
 10
235.1814451155205
 20
221.2972062060898
  9
$ORTHOMODE
 70
     0
  9
$REGENMODE
 70
     1
  9
$FILLMODE
 70
     1
  9
$QTEXTMODE
 70
     0
  9
$MIRRTEXT
 70
     1
  9
$LTSCALE
 40
5.0
  9
$ATTMODE
 70
     1
  9
$TEXTSIZE
 40
5.0
  9
$TRACEWID
 40
0.05
  9
$TEXTSTYLE
  7
STANDARD1
  9
$CLAYER
  8
30
  9
$CELTYPE
  6
Continuous
  9
$CECOLOR
 62
     2
  9
$CELTSCALE
 40
1.0
  9
$DISPSILH
 70
     0
  9
$DIMSCALE
 40
1.0
  9
$DIMASZ
 40
2.0
  9
$DIMEXO
 40
1.0
  9
$DIMDLI
 40
0.5
  9
$DIMRND
 40
0.0
  9
$DIMDLE
 40
0.0
  9
$DIMEXE
 40
0.5
  9
$DIMTP
 40
0.0
  9
$DIMTM
 40
0.0
  9
$DIMTXT
 40
4.0
  9
$DIMCEN
 40
0.09
  9
$DIMTSZ
 40
0.0
  9
$DIMTOL
 70
     0
  9
$DIMLIM
 70
     0
  9
$DIMTIH
 70
     0
  9
$DIMTOH
 70
     0
  9
$DIMSE1
 70
     0
  9
$DIMSE2
 70
     0
  9
$DIMTAD
 70
     3
  9
$DIMZIN
 70
    12
  9
$DIMBLK
  1
Open
  9
$DIMASO
 70
     1
  9
$DIMSHO
 70
     1
  9
$DIMPOST
  1

  9
$DIMAPOST
  1

  9
$DIMALT
 70
     0
  9
$DIMALTD
 70
     2
  9
$DIMALTF
 40
25.4
  9
$DIMLFAC
 40
1.0
  9
$DIMTOFL
 70
     0
  9
$DIMTVP
 40
0.0
  9
$DIMTIX
 70
     0
  9
$DIMSOXD
 70
     0
  9
$DIMSAH
 70
     0
  9
$DIMBLK1
  1

  9
$DIMBLK2
  1

  9
$DIMSTYLE
  2
Standard
  9
$DIMCLRD
 70
     0
  9
$DIMCLRE
 70
     0
  9
$DIMCLRT
 70
     0
  9
$DIMTFAC
 40
1.0
  9
$DIMGAP
 40
1.0
  9
$DIMJUST
 70
     0
  9
$DIMSD1
 70
     0
  9
$DIMSD2
 70
     0
  9
$DIMTOLJ
 70
     1
  9
$DIMTZIN
 70
     0
  9
$DIMALTZ
 70
     0
  9
$DIMALTTZ
 70
     0
  9
$DIMUPT
 70
     0
  9
$DIMDEC
 70
     1
  9
$DIMTDEC
 70
     1
  9
$DIMALTU
 70
     2
  9
$DIMALTTD
 70
     2
  9
$DIMTXSTY
  7
Standard
  9
$DIMAUNIT
 70
     0
  9
$DIMADEC
 70
     0
  9
$DIMALTRND
 40
0.0
  9
$DIMAZIN
 70
     3
  9
$DIMDSEP
 70
    46
  9
$DIMATFIT
 70
     3
  9
$DIMFRAC
 70
     0
  9
$DIMLDRBLK
  1
Open
  9
$DIMLUNIT
 70
     2
  9
$DIMLWD
 70
    -2
  9
$DIMLWE
 70
    -2
  9
$DIMTMOVE
 70
     0
  9
$LUNITS
 70
     2
  9
$LUPREC
 70
     4
  9
$SKETCHINC
 40
0.1
  9
$FILLETRAD
 40
1.0
  9
$AUNITS
 70
     0
  9
$AUPREC
 70
     0
  9
$MENU
  1
.
  9
$ELEVATION
 40
0.0
  9
$PELEVATION
 40
0.0
  9
$THICKNESS
 40
0.0
  9
$LIMCHECK
 70
     0
  9
$CHAMFERA
 40
0.0
  9
$CHAMFERB
 40
0.0
  9
$CHAMFERC
 40
0.0
  9
$CHAMFERD
 40
0.0
  9
$SKPOLY
 70
     0
  9
$TDCREATE
 40
2452286.555658657
  9
$TDUCREATE
 40
2452286.180658657
  9
$TDUPDATE
 40
2454856.467592222
  9
$TDUUPDATE
 40
2454856.092592222
  9
$TDINDWG
 40
1.1100753935
  9
$TDUSRTIMER
 40
1.1100753935
  9
$USRTIMER
 70
     1
  9
$ANGBASE
 50
0.0
  9
$ANGDIR
 70
     0
  9
$PDMODE
 70
     0
  9
$PDSIZE
 40
0.0
  9
$PLINEWID
 40
0.0
  9
$SPLFRAME
 70
     0
  9
$SPLINETYPE
 70
     6
  9
$SPLINESEGS
 70
     8
  9
$HANDSEED
  5
4FCB
  9
$SURFTAB1
 70
     6
  9
$SURFTAB2
 70
     6
  9
$SURFTYPE
 70
     6
  9
$SURFU
 70
     6
  9
$SURFV
 70
     6
  9
$UCSBASE
  2

  9
$UCSNAME
  2

  9
$UCSORG
 10
0.0
 20
0.0
 30
0.0
  9
$UCSXDIR
 10
1.0
 20
0.0
 30
0.0
  9
$UCSYDIR
 10
0.0
 20
1.0
 30
0.0
  9
$UCSORTHOREF
  2

  9
$UCSORTHOVIEW
 70
     0
  9
$UCSORGTOP
 10
0.0
 20
0.0
 30
0.0
  9
$UCSORGBOTTOM
 10
0.0
 20
0.0
 30
0.0
  9
$UCSORGLEFT
 10
0.0
 20
0.0
 30
0.0
  9
$UCSORGRIGHT
 10
0.0
 20
0.0
 30
0.0
  9
$UCSORGFRONT
 10
0.0
 20
0.0
 30
0.0
  9
$UCSORGBACK
 10
0.0
 20
0.0
 30
0.0
  9
$PUCSBASE
  2

  9
$PUCSNAME
  2

  9
$PUCSORG
 10
0.0
 20
0.0
 30
0.0
  9
$PUCSXDIR
 10
1.0
 20
0.0
 30
0.0
  9
$PUCSYDIR
 10
0.0
 20
1.0
 30
0.0
  9
$PUCSORTHOREF
  2

  9
$PUCSORTHOVIEW
 70
     0
  9
$PUCSORGTOP
 10
0.0
 20
0.0
 30
0.0
  9
$PUCSORGBOTTOM
 10
0.0
 20
0.0
 30
0.0
  9
$PUCSORGLEFT
 10
0.0
 20
0.0
 30
0.0
  9
$PUCSORGRIGHT
 10
0.0
 20
0.0
 30
0.0
  9
$PUCSORGFRONT
 10
0.0
 20
0.0
 30
0.0
  9
$PUCSORGBACK
 10
0.0
 20
0.0
 30
0.0
  9
$USERI1
 70
     0
  9
$USERI2
 70
     0
  9
$USERI3
 70
     0
  9
$USERI4
 70
     0
  9
$USERI5
 70
     0
  9
$USERR1
 40
0.0
  9
$USERR2
 40
0.0
  9
$USERR3
 40
0.0
  9
$USERR4
 40
0.0
  9
$USERR5
 40
0.0
  9
$WORLDVIEW
 70
     1
  9
$SHADEDGE
 70
     3
  9
$SHADEDIF
 70
    70
  9
$TILEMODE
 70
     1
  9
$MAXACTVP
 70
    48
  9
$PINSBASE
 10
0.0
 20
0.0
 30
0.0
  9
$PLIMCHECK
 70
     0
  9
$PEXTMIN
 10
4.273573370203962
 20
5.205246163471485
 30
0.0
  9
$PEXTMAX
 10
194.6100952986349
 20
283.0697008572913
 30
0.0
  9
$PLIMMIN
 10
-5.873748779296875
 20
-5.873749732971191
  9
$PLIMMAX
 10
204.0995788574218
 20
291.1369009017944
  9
$UNITMODE
 70
     0
  9
$VISRETAIN
 70
     1
  9
$PLINEGEN
 70
     0
  9
$PSLTSCALE
 70
     1
  9
$TREEDEPTH
 70
  3020
  9
$CMLSTYLE
  2
Standard
  9
$CMLJUST
 70
     0
  9
$CMLSCALE
 40
1.0
  9
$PROXYGRAPHICS
 70
     1
  9
$MEASUREMENT
 70
     0
  9
$CELWEIGHT
370
    -1
  9
$ENDCAPS
280
     0
  9
$JOINSTYLE
280
     0
  9
$LWDISPLAY
290
     0
  9
$INSUNITS
 70
     0
  9
$HYPERLINKBASE
  1

  9
$STYLESHEET
  1
KIKI.ctb
  9
$XEDIT
290
     1
  9
$CEPSNTYPE
380
     0
  9
$PSTYLEMODE
290
     1
  9
$FINGERPRINTGUID
  2

  9
$VERSIONGUID
  2
{73567783-F278-43C9-8E9B-2BBD7D457F37}
  9
$EXTNAMES
290
     1
  9
$PSVPSCALE
 40
0.0
  9
$OLESTARTUP
290
     0
  0
ENDSEC
  0
SECTION
  2
CLASSES
  0
CLASS
  1
ACDBDICTIONARYWDFLT
  2
AcDbDictionaryWithDefault
  3
AutoCAD 2000
 90
        0
280
     0
281
     0
  0
CLASS
  1
ACDBPLACEHOLDER
  2
AcDbPlaceHolder
  3
AutoCAD 2000
 90
        0
280
     0
281
     0
  0
CLASS
  1
LAYOUT
  2
AcDbLayout
  3
AutoCAD 2000
 90
        0
280
     0
281
     0
  0
CLASS
  1
LONG_TRANSACTION
  2
AcDbLongTransaction
  3
AutoCAD 2000
 90
    32768
280
     0
281
     0
  0
CLASS
  1
LWPOLYLINE
  2
AcDbPolyline
  3
AutoCAD 2000
 90
    32768
280
     0
281
     1
  0
CLASS
  1
HATCH
  2
AcDbHatch
  3
AutoCAD 2000
 90
    32768
280
     0
281
     1
  0
CLASS
  1
XRECORD
  2
AcDbXrecord
  3
AutoCAD 2000
 90
    32768
280
     0
281
     0
  0
CLASS
  1
LONG_TRANSACTION
  2
AcDbLongTransaction
  3
AutoCAD 2000
 90
    32768
280
     0
281
     0
  0
CLASS
  1
LWPOLYLINE
  2
AcDbPolyline
  3
AutoCAD 2000
 90
    32768
280
     0
281
     1
  0
CLASS
  1
HATCH
  2
AcDbHatch
  3
AutoCAD 2000
 90
    32768
280
     0
281
     1
  0
CLASS
  1
XRECORD
  2
AcDbXrecord
  3
AutoCAD 2000
 90
    32768
280
     0
281
     0
  0
CLASS
  1
LONG_TRANSACTION
  2
AcDbLongTransaction
  3
AutoCAD 2000
 90
    32768
280
     0
281
     0
  0
CLASS
  1
LWPOLYLINE
  2
AcDbPolyline
  3
AutoCAD 2000
 90
    32768
280
     0
281
     1
  0
CLASS
  1
HATCH
  2
AcDbHatch
  3
AutoCAD 2000
 90
    32768
280
     0
281
     1
  0
CLASS
  1
XRECORD
  2
AcDbXrecord
  3
AutoCAD 2000
 90
    32768
280
     0
281
     0
  0
CLASS
  1
LONG_TRANSACTION
  2
AcDbLongTransaction
  3
AutoCAD 2000
 90
    32768
280
     0
281
     0
  0
CLASS
  1
LWPOLYLINE
  2
AcDbPolyline
  3
AutoCAD 2000
 90
    32768
280
     0
281
     1
  0
CLASS
  1
HATCH
  2
AcDbHatch
  3
AutoCAD 2000
 90
    32768
280
     0
281
     1
  0
CLASS
  1
XRECORD
  2
AcDbXrecord
  3
AutoCAD 2000
 90
    32768
280
     0
281
     0
  0
CLASS
  1
LONG_TRANSACTION
  2
AcDbLongTransaction
  3
AutoCAD 2000
 90
    32768
280
     0
281
     0
  0
CLASS
  1
LWPOLYLINE
  2
AcDbPolyline
  3
AutoCAD 2000
 90
    32768
280
     0
281
     1
  0
CLASS
  1
HATCH
  2
AcDbHatch
  3
AutoCAD 2000
 90
    32768
280
     0
281
     1
  0
CLASS
  1
XRECORD
  2
AcDbXrecord
  3
AutoCAD 2000
 90
    32768
280
     0
281
     0
  0
CLASS
  1
LONG_TRANSACTION
  2
AcDbLongTransaction
  3
AutoCAD 2000
 90
    32768
280
     0
281
     0
  0
CLASS
  1
LWPOLYLINE
  2
AcDbPolyline
  3
AutoCAD 2000
 90
    32768
280
     0
281
     1
  0
CLASS
  1
HATCH
  2
AcDbHatch
  3
AutoCAD 2000
 90
    32768
280
     0
281
     1
  0
CLASS
  1
XRECORD
  2
AcDbXrecord
  3
AutoCAD 2000
 90
    32768
280
     0
281
     0
  0
CLASS
  1
LONG_TRANSACTION
  2
AcDbLongTransaction
  3
AutoCAD 2000
 90
    32768
280
     0
281
     0
  0
CLASS
  1
LWPOLYLINE
  2
AcDbPolyline
  3
AutoCAD 2000
 90
    32768
280
     0
281
     1
  0
CLASS
  1
HATCH
  2
AcDbHatch
  3
AutoCAD 2000
 90
    32768
280
     0
281
     1
  0
CLASS
  1
XRECORD
  2
AcDbXrecord
  3
AutoCAD 2000
 90
    32768
280
     0
281
     0
  0
CLASS
  1
LONG_TRANSACTION
  2
AcDbLongTransaction
  3
AutoCAD 2000
 90
    32768
280
     0
281
     0
  0
CLASS
  1
LWPOLYLINE
  2
AcDbPolyline
  3
AutoCAD 2000
 90
    32768
280
     0
281
     1
  0
CLASS
  1
HATCH
  2
AcDbHatch
  3
AutoCAD 2000
 90
    32768
280
     0
281
     1
  0
CLASS
  1
XRECORD
  2
AcDbXrecord
  3
AutoCAD 2000
 90
    32768
280
     0
281
     0
  0
CLASS
  1
LONG_TRANSACTION
  2
AcDbLongTransaction
  3
AutoCAD 2000
 90
    32768
280
     0
281
     0
  0
CLASS
  1
LWPOLYLINE
  2
AcDbPolyline
  3
AutoCAD 2000
 90
    32768
280
     0
281
     1
  0
CLASS
  1
HATCH
  2
AcDbHatch
  3
AutoCAD 2000
 90
    32768
280
     0
281
     1
  0
CLASS
  1
XRECORD
  2
AcDbXrecord
  3
AutoCAD 2000
 90
    32768
280
     0
281
     0
  0
CLASS
  1
LONG_TRANSACTION
  2
AcDbLongTransaction
  3
AutoCAD 2000
 90
    32768
280
     0
281
     0
  0
CLASS
  1
LWPOLYLINE
  2
AcDbPolyline
  3
AutoCAD 2000
 90
    32768
280
     0
281
     1
  0
CLASS
  1
HATCH
  2
AcDbHatch
  3
AutoCAD 2000
 90
    32768
280
     0
281
     1
  0
CLASS
  1
XRECORD
  2
AcDbXrecord
  3
AutoCAD 2000
 90
    32768
280
     0
281
     0
  0
CLASS
  1
LONG_TRANSACTION
  2
AcDbLongTransaction
  3
AutoCAD 2000
 90
    32768
280
     0
281
     0
  0
CLASS
  1
LWPOLYLINE
  2
AcDbPolyline
  3
AutoCAD 2000
 90
    32768
280
     0
281
     1
  0
CLASS
  1
HATCH
  2
AcDbHatch
  3
AutoCAD 2000
 90
    32768
280
     0
281
     1
  0
CLASS
  1
XRECORD
  2
AcDbXrecord
  3
AutoCAD 2000
 90
    32768
280
     0
281
     0
  0
CLASS
  1
LONG_TRANSACTION
  2
AcDbLongTransaction
  3
AutoCAD 2000
 90
    32768
280
     0
281
     0
  0
CLASS
  1
LWPOLYLINE
  2
AcDbPolyline
  3
AutoCAD 2000
 90
    32768
280
     0
281
     1
  0
CLASS
  1
HATCH
  2
AcDbHatch
  3
AutoCAD 2000
 90
    32768
280
     0
281
     1
  0
CLASS
  1
XRECORD
  2
AcDbXrecord
  3
AutoCAD 2000
 90
    32768
280
     0
281
     0
  0
CLASS
  1
LONG_TRANSACTION
  2
AcDbLongTransaction
  3
AutoCAD 2000
 90
    32768
280
     0
281
     0
  0
CLASS
  1
LWPOLYLINE
  2
AcDbPolyline
  3
AutoCAD 2000
 90
    32768
280
     0
281
     1
  0
CLASS
  1
HATCH
  2
AcDbHatch
  3
AutoCAD 2000
 90
    32768
280
     0
281
     1
  0
CLASS
  1
XRECORD
  2
AcDbXrecord
  3
AutoCAD 2000
 90
    32768
280
     0
281
     0
  0
CLASS
  1
LONG_TRANSACTION
  2
AcDbLongTransaction
  3
AutoCAD 2000
 90
    32768
280
     0
281
     0
  0
CLASS
  1
LWPOLYLINE
  2
AcDbPolyline
  3
AutoCAD 2000
 90
    32768
280
     0
281
     1
  0
CLASS
  1
HATCH
  2
AcDbHatch
  3
AutoCAD 2000
 90
    32768
280
     0
281
     1
  0
CLASS
  1
XRECORD
  2
AcDbXrecord
  3
AutoCAD 2000
 90
    32768
280
     0
281
     0
  0
CLASS
  1
LONG_TRANSACTION
  2
AcDbLongTransaction
  3
AutoCAD 2000
 90
    32768
280
     0
281
     0
  0
CLASS
  1
LWPOLYLINE
  2
AcDbPolyline
  3
AutoCAD 2000
 90
    32768
280
     0
281
     1
  0
CLASS
  1
HATCH
  2
AcDbHatch
  3
AutoCAD 2000
 90
    32768
280
     0
281
     1
  0
CLASS
  1
XRECORD
  2
AcDbXrecord
  3
AutoCAD 2000
 90
    32768
280
     0
281
     0
  0
CLASS
  1
LONG_TRANSACTION
  2
AcDbLongTransaction
  3
AutoCAD 2000
 90
    32768
280
     0
281
     0
  0
CLASS
  1
LWPOLYLINE
  2
AcDbPolyline
  3
AutoCAD 2000
 90
    32768
280
     0
281
     1
  0
CLASS
  1
HATCH
  2
AcDbHatch
  3
AutoCAD 2000
 90
    32768
280
     0
281
     1
  0
CLASS
  1
XRECORD
  2
AcDbXrecord
  3
AutoCAD 2000
 90
    32768
280
     0
281
     0
  0
CLASS
  1
LONG_TRANSACTION
  2
AcDbLongTransaction
  3
AutoCAD 2000
 90
    32768
280
     0
281
     0
  0
CLASS
  1
LWPOLYLINE
  2
AcDbPolyline
  3
AutoCAD 2000
 90
    32768
280
     0
281
     1
  0
CLASS
  1
HATCH
  2
AcDbHatch
  3
AutoCAD 2000
 90
    32768
280
     0
281
     1
  0
CLASS
  1
XRECORD
  2
AcDbXrecord
  3
AutoCAD 2000
 90
    32768
280
     0
281
     0
  0
CLASS
  1
LONG_TRANSACTION
  2
AcDbLongTransaction
  3
AutoCAD 2000
 90
    32768
280
     0
281
     0
  0
CLASS
  1
LWPOLYLINE
  2
AcDbPolyline
  3
AutoCAD 2000
 90
    32768
280
     0
281
     1
  0
CLASS
  1
HATCH
  2
AcDbHatch
  3
AutoCAD 2000
 90
    32768
280
     0
281
     1
  0
CLASS
  1
XRECORD
  2
AcDbXrecord
  3
AutoCAD 2000
 90
    32768
280
     0
281
     0
  0
CLASS
  1
LONG_TRANSACTION
  2
AcDbLongTransaction
  3
AutoCAD 2000
 90
    32768
280
     0
281
     0
  0
CLASS
  1
LWPOLYLINE
  2
AcDbPolyline
  3
AutoCAD 2000
 90
    32768
280
     0
281
     1
  0
CLASS
  1
HATCH
  2
AcDbHatch
  3
AutoCAD 2000
 90
    32768
280
     0
281
     1
  0
CLASS
  1
XRECORD
  2
AcDbXrecord
  3
AutoCAD 2000
 90
    32768
280
     0
281
     0
  0
CLASS
  1
LONG_TRANSACTION
  2
AcDbLongTransaction
  3
AutoCAD 2000
 90
    32768
280
     0
281
     0
  0
CLASS
  1
LWPOLYLINE
  2
AcDbPolyline
  3
AutoCAD 2000
 90
    32768
280
     0
281
     1
  0
CLASS
  1
HATCH
  2
AcDbHatch
  3
AutoCAD 2000
 90
    32768
280
     0
281
     1
  0
CLASS
  1
XRECORD
  2
AcDbXrecord
  3
AutoCAD 2000
 90
    32768
280
     0
281
     0
  0
CLASS
  1
LONG_TRANSACTION
  2
AcDbLongTransaction
  3
AutoCAD 2000
 90
    32768
280
     0
281
     0
  0
CLASS
  1
LWPOLYLINE
  2
AcDbPolyline
  3
AutoCAD 2000
 90
    32768
280
     0
281
     1
  0
CLASS
  1
HATCH
  2
AcDbHatch
  3
AutoCAD 2000
 90
    32768
280
     0
281
     1
  0
CLASS
  1
XRECORD
  2
AcDbXrecord
  3
AutoCAD 2000
 90
    32768
280
     0
281
     0
  0
CLASS
  1
LONG_TRANSACTION
  2
AcDbLongTransaction
  3
AutoCAD 2000
 90
    32768
280
     0
281
     0
  0
CLASS
  1
LWPOLYLINE
  2
AcDbPolyline
  3
AutoCAD 2000
 90
    32768
280
     0
281
     1
  0
CLASS
  1
HATCH
  2
AcDbHatch
  3
AutoCAD 2000
 90
    32768
280
     0
281
     1
  0
CLASS
  1
XRECORD
  2
AcDbXrecord
  3
AutoCAD 2000
 90
    32768
280
     0
281
     0
  0
CLASS
  1
LONG_TRANSACTION
  2
AcDbLongTransaction
  3
AutoCAD 2000
 90
    32768
280
     0
281
     0
  0
CLASS
  1
LWPOLYLINE
  2
AcDbPolyline
  3
AutoCAD 2000
 90
    32768
280
     0
281
     1
  0
CLASS
  1
HATCH
  2
AcDbHatch
  3
AutoCAD 2000
 90
    32768
280
     0
281
     1
  0
CLASS
  1
XRECORD
  2
AcDbXrecord
  3
AutoCAD 2000
 90
    32768
280
     0
281
     0
  0
CLASS
  1
LONG_TRANSACTION
  2
AcDbLongTransaction
  3
AutoCAD 2000
 90
    32768
280
     0
281
     0
  0
CLASS
  1
LWPOLYLINE
  2
AcDbPolyline
  3
AutoCAD 2000
 90
    32768
280
     0
281
     1
  0
CLASS
  1
HATCH
  2
AcDbHatch
  3
AutoCAD 2000
 90
    32768
280
     0
281
     1
  0
CLASS
  1
XRECORD
  2
AcDbXrecord
  3
AutoCAD 2000
 90
    32768
280
     0
281
     0
  0
CLASS
  1
LONG_TRANSACTION
  2
AcDbLongTransaction
  3
AutoCAD 2000
 90
    32768
280
     0
281
     0
  0
CLASS
  1
LWPOLYLINE
  2
AcDbPolyline
  3
AutoCAD 2000
 90
    32768
280
     0
281
     1
  0
CLASS
  1
HATCH
  2
AcDbHatch
  3
AutoCAD 2000
 90
    32768
280
     0
281
     1
  0
CLASS
  1
XRECORD
  2
AcDbXrecord
  3
AutoCAD 2000
 90
    32768
280
     0
281
     0
  0
CLASS
  1
LONG_TRANSACTION
  2
AcDbLongTransaction
  3
AutoCAD 2000
 90
    32768
280
     0
281
     0
  0
CLASS
  1
LWPOLYLINE
  2
AcDbPolyline
  3
AutoCAD 2000
 90
    32768
280
     0
281
     1
  0
CLASS
  1
HATCH
  2
AcDbHatch
  3
AutoCAD 2000
 90
    32768
280
     0
281
     1
  0
CLASS
  1
XRECORD
  2
AcDbXrecord
  3
AutoCAD 2000
 90
    32768
280
     0
281
     0
  0
CLASS
  1
LONG_TRANSACTION
  2
AcDbLongTransaction
  3
AutoCAD 2000
 90
    32768
280
     0
281
     0
  0
CLASS
  1
LWPOLYLINE
  2
AcDbPolyline
  3
AutoCAD 2000
 90
    32768
280
     0
281
     1
  0
CLASS
  1
HATCH
  2
AcDbHatch
  3
AutoCAD 2000
 90
    32768
280
     0
281
     1
  0
CLASS
  1
XRECORD
  2
AcDbXrecord
  3
AutoCAD 2000
 90
    32768
280
     0
281
     0
  0
CLASS
  1
LONG_TRANSACTION
  2
AcDbLongTransaction
  3
AutoCAD 2000
 90
    32768
280
     0
281
     0
  0
CLASS
  1
LWPOLYLINE
  2
AcDbPolyline
  3
AutoCAD 2000
 90
    32768
280
     0
281
     1
  0
CLASS
  1
HATCH
  2
AcDbHatch
  3
AutoCAD 2000
 90
    32768
280
     0
281
     1
  0
CLASS
  1
XRECORD
  2
AcDbXrecord
  3
AutoCAD 2000
 90
    32768
280
     0
281
     0
  0
CLASS
  1
LONG_TRANSACTION
  2
AcDbLongTransaction
  3
AutoCAD 2000
 90
    32768
280
     0
281
     0
  0
CLASS
  1
LWPOLYLINE
  2
AcDbPolyline
  3
AutoCAD 2000
 90
    32768
280
     0
281
     1
  0
CLASS
  1
HATCH
  2
AcDbHatch
  3
AutoCAD 2000
 90
    32768
280
     0
281
     1
  0
CLASS
  1
XRECORD
  2
AcDbXrecord
  3
AutoCAD 2000
 90
    32768
280
     0
281
     0
  0
CLASS
  1
LONG_TRANSACTION
  2
AcDbLongTransaction
  3
AutoCAD 2000
 90
    32768
280
     0
281
     0
  0
CLASS
  1
LWPOLYLINE
  2
AcDbPolyline
  3
AutoCAD 2000
 90
    32768
280
     0
281
     1
  0
CLASS
  1
HATCH
  2
AcDbHatch
  3
AutoCAD 2000
 90
    32768
280
     0
281
     1
  0
CLASS
  1
XRECORD
  2
AcDbXrecord
  3
AutoCAD 2000
 90
    32768
280
     0
281
     0
  0
CLASS
  1
LONG_TRANSACTION
  2
AcDbLongTransaction
  3
AutoCAD 2000
 90
    32768
280
     0
281
     0
  0
CLASS
  1
LWPOLYLINE
  2
AcDbPolyline
  3
AutoCAD 2000
 90
    32768
280
     0
281
     1
  0
CLASS
  1
HATCH
  2
AcDbHatch
  3
AutoCAD 2000
 90
    32768
280
     0
281
     1
  0
CLASS
  1
XRECORD
  2
AcDbXrecord
  3
AutoCAD 2000
 90
    32768
280
     0
281
     0
  0
CLASS
  1
LONG_TRANSACTION
  2
AcDbLongTransaction
  3
AutoCAD 2000
 90
    32768
280
     0
281
     0
  0
CLASS
  1
LWPOLYLINE
  2
AcDbPolyline
  3
AutoCAD 2000
 90
    32768
280
     0
281
     1
  0
CLASS
  1
HATCH
  2
AcDbHatch
  3
AutoCAD 2000
 90
    32768
280
     0
281
     1
  0
CLASS
  1
XRECORD
  2
AcDbXrecord
  3
AutoCAD 2000
 90
    32768
280
     0
281
     0
  0
CLASS
  1
LONG_TRANSACTION
  2
AcDbLongTransaction
  3
AutoCAD 2000
 90
    32768
280
     0
281
     0
  0
CLASS
  1
LWPOLYLINE
  2
AcDbPolyline
  3
AutoCAD 2000
 90
    32768
280
     0
281
     1
  0
CLASS
  1
HATCH
  2
AcDbHatch
  3
AutoCAD 2000
 90
    32768
280
     0
281
     1
  0
CLASS
  1
XRECORD
  2
AcDbXrecord
  3
AutoCAD 2000
 90
    32768
280
     0
281
     0
  0
CLASS
  1
LONG_TRANSACTION
  2
AcDbLongTransaction
  3
AutoCAD 2000
 90
    32768
280
     0
281
     0
  0
CLASS
  1
LWPOLYLINE
  2
AcDbPolyline
  3
AutoCAD 2000
 90
    32768
280
     0
281
     1
  0
CLASS
  1
HATCH
  2
AcDbHatch
  3
AutoCAD 2000
 90
    32768
280
     0
281
     1
  0
CLASS
  1
XRECORD
  2
AcDbXrecord
  3
AutoCAD 2000
 90
    32768
280
     0
281
     0
  0
CLASS
  1
LONG_TRANSACTION
  2
AcDbLongTransaction
  3
AutoCAD 2000
 90
    32768
280
     0
281
     0
  0
CLASS
  1
LWPOLYLINE
  2
AcDbPolyline
  3
AutoCAD 2000
 90
    32768
280
     0
281
     1
  0
CLASS
  1
HATCH
  2
AcDbHatch
  3
AutoCAD 2000
 90
    32768
280
     0
281
     1
  0
CLASS
  1
XRECORD
  2
AcDbXrecord
  3
AutoCAD 2000
 90
    32768
280
     0
281
     0
  0
CLASS
  1
LONG_TRANSACTION
  2
AcDbLongTransaction
  3
AutoCAD 2000
 90
    32768
280
     0
281
     0
  0
CLASS
  1
LWPOLYLINE
  2
AcDbPolyline
  3
AutoCAD 2000
 90
    32768
280
     0
281
     1
  0
CLASS
  1
HATCH
  2
AcDbHatch
  3
AutoCAD 2000
 90
    32768
280
     0
281
     1
  0
CLASS
  1
XRECORD
  2
AcDbXrecord
  3
AutoCAD 2000
 90
    32768
280
     0
281
     0
  0
CLASS
  1
LONG_TRANSACTION
  2
AcDbLongTransaction
  3
AutoCAD 2000
 90
    32768
280
     0
281
     0
  0
CLASS
  1
LWPOLYLINE
  2
AcDbPolyline
  3
AutoCAD 2000
 90
    32768
280
     0
281
     1
  0
CLASS
  1
HATCH
  2
AcDbHatch
  3
AutoCAD 2000
 90
    32768
280
     0
281
     1
  0
CLASS
  1
XRECORD
  2
AcDbXrecord
  3
AutoCAD 2000
 90
    32768
280
     0
281
     0
  0
CLASS
  1
LONG_TRANSACTION
  2
AcDbLongTransaction
  3
AutoCAD 2000
 90
    32768
280
     0
281
     0
  0
CLASS
  1
LWPOLYLINE
  2
AcDbPolyline
  3
AutoCAD 2000
 90
    32768
280
     0
281
     1
  0
CLASS
  1
HATCH
  2
AcDbHatch
  3
AutoCAD 2000
 90
    32768
280
     0
281
     1
  0
CLASS
  1
XRECORD
  2
AcDbXrecord
  3
AutoCAD 2000
 90
    32768
280
     0
281
     0
  0
ENDSEC
  0
SECTION
  2
TABLES
  0
TABLE
  2
VPORT
  5
8
330
0
100
AcDbSymbolTable
 70
     2
  0
VPORT
  5
4FCA
330
8
100
AcDbSymbolTableRecord
100
AcDbViewportTableRecord
  2
*Active
 70
     0
 10
0.0
 20
0.0
 11
1.0
 21
1.0
 12
220.8628224250452
 22
144.1095290870961
 13
0.0
 23
0.0
 14
1.0
 24
1.0
 15
10.0
 25
10.0
 16
0.0
 26
0.0
 36
1.0
 17
0.0
 27
0.0
 37
0.0
 40
86.41251515101544
 41
1.840236686390532
 42
50.0
 43
0.0
 44
0.0
 50
0.0
 51
0.0
 71
     0
 72
   100
 73
     1
 74
     1
 75
     0
 76
     0
 77
     0
 78
     0
281
     0
 65
     1
110
0.0
120
0.0
130
0.0
111
1.0
121
0.0
131
0.0
112
0.0
122
1.0
132
0.0
 79
     0
146
0.0
  0
ENDTAB
  0
TABLE
  2
LTYPE
  5
5
330
0
100
AcDbSymbolTable
 70
     5
  0
LTYPE
  5
13
330
5
100
AcDbSymbolTableRecord
100
AcDbLinetypeTableRecord
  2
ByBlock
 70
     0
  3

 72
    65
 73
     0
 40
0.0
  0
LTYPE
  5
14
330
5
100
AcDbSymbolTableRecord
100
AcDbLinetypeTableRecord
  2
ByLayer
 70
     0
  3

 72
    65
 73
     0
 40
0.0
  0
LTYPE
  5
15
330
5
100
AcDbSymbolTableRecord
100
AcDbLinetypeTableRecord
  2
Continuous
 70
     0
  3
Solid line
 72
    65
 73
     0
 40
0.0
  0
LTYPE
  5
22
330
5
100
AcDbSymbolTableRecord
100
AcDbLinetypeTableRecord
  2
CONTINOUS
 70
     0
  3
Solid line
 72
    65
 73
     0
 40
0.0
  0
LTYPE
  5
23
330
5
100
AcDbSymbolTableRecord
100
AcDbLinetypeTableRecord
  2
DASHED
 70
     0
  3
__ __ __ __ __ __ __ __ __ __ __ __ __ __ __
 72
    65
 73
     2
 40
0.75
 49
0.5
 74
     0
 49
-0.25
 74
     0
  0
LTYPE
  5
24
330
5
100
AcDbSymbolTableRecord
100
AcDbLinetypeTableRecord
  2
DASHDOT
 70
     0
  3
__ . __ . __ . __ . __ . __ . __ . __ . __ . __
 72
    65
 73
     4
 40
1.0
 49
0.5
 74
     0
 49
-0.25
 74
     0
 49
0.0
 74
     0
 49
-0.25
 74
     0
  0
LTYPE
  5
392A
330
5
100
AcDbSymbolTableRecord
100
AcDbLinetypeTableRecord
  2
DIVIDE
 70
     0
  3
Divide ____ . . ____ . . ____ . . ____ . . ____
 72
    65
 73
     6
 40
1.25
 49
0.5
 74
     0
 49
-0.25
 74
     0
 49
0.0
 74
     0
 49
-0.25
 74
     0
 49
0.0
 74
     0
 49
-0.25
 74
     0
  0
ENDTAB
  0
TABLE
  2
LAYER
  5
2
330
0
100
AcDbSymbolTable
 70
    11
  0
LAYER
  5
10
330
2
100
AcDbSymbolTableRecord
100
AcDbLayerTableRecord
  2
0
 70
     0
 62
     7
  6
CONTINOUS
370
    -3
390
F
  0
LAYER
  5
2F
330
2
100
AcDbSymbolTableRecord
100
AcDbLayerTableRecord
  2
10
 70
     0
 62
     4
  6
CONTINOUS
370
    -3
390
F
  0
LAYER
  5
31
330
2
100
AcDbSymbolTableRecord
100
AcDbLayerTableRecord
  2
12
 70
     0
 62
     3
  6
CONTINOUS
370
    -3
390
F
  0
LAYER
  5
35
330
2
100
AcDbSymbolTableRecord
100
AcDbLayerTableRecord
  2
16
 70
     0
 62
     6
  6
DASHDOT
370
    -3
390
F
  0
LAYER
  5
36
330
2
100
AcDbSymbolTableRecord
100
AcDbLayerTableRecord
  2
17
 70
     0
 62
     2
  6
DASHDOT
370
    -3
390
F
  0
LAYER
  5
38
330
2
100
AcDbSymbolTableRecord
100
AcDbLayerTableRecord
  2
19
 70
     0
 62
     7
  6
CONTINOUS
370
    -3
390
F
  0
LAYER
  5
3C
330
2
100
AcDbSymbolTableRecord
100
AcDbLayerTableRecord
  2
11
 70
     0
 62
     1
  6
CONTINOUS
370
    -3
390
F
  0
LAYER
  5
3D
330
2
100
AcDbSymbolTableRecord
100
AcDbLayerTableRecord
  2
24
 70
     0
 62
     2
  6
CONTINOUS
370
    -3
390
F
  0
LAYER
  5
3A2
330
2
100
AcDbSymbolTableRecord
100
AcDbLayerTableRecord
  2
30
 70
     0
 62
     9
  6
Continuous
370
    -3
390
F
  0
LAYER
  5
3A4
330
2
100
AcDbSymbolTableRecord
100
AcDbLayerTableRecord
  2
Defpoints
 70
     0
 62
     7
  6
Continuous
290
     0
370
    -3
390
F
  0
LAYER
  5
4B76
330
2
100
AcDbSymbolTableRecord
100
AcDbLayerTableRecord
  2
18
 70
     0
 62
     5
  6
DIVIDE
370
    -3
390
F
  0
ENDTAB
  0
TABLE
  2
STYLE
  5
3
330
0
100
AcDbSymbolTable
 70
     2
  0
STYLE
  5
11
330
3
100
AcDbSymbolTableRecord
100
AcDbTextStyleTableRecord
  2
Standard
 70
     0
 40
0.0
 41
1.0
 50
0.0
 71
     0
 42
2.0
  3
txt.shx
  4
bigfont.shx
  0
STYLE
  5
42
330
3
100
AcDbSymbolTableRecord
100
AcDbTextStyleTableRecord
  2
STANDARD1
 70
     0
 40
0.0
 41
1.0
 50
0.0
 71
     0
 42
5.0
  3
MONOTXT
  4
BIGFONT
  0
ENDTAB
  0
TABLE
  2
VIEW
  5
6
330
0
100
AcDbSymbolTable
 70
     3
  0
VIEW
  5
230C
330
6
100
AcDbSymbolTableRecord
100
AcDbViewTableRecord
  2
OLE1
 70
     0
 40
148.9124878027715
 10
429.4976280407224
 20
2.560626997828478
 41
103.1458057716445
 11
0.0
 21
0.0
 31
1.0
 12
0.0
 22
0.0
 32
0.0
 42
50.0
 43
0.0
 44
0.0
 50
0.0
 71
     0
281
     0
 72
     0
  0
VIEW
  5
230E
330
6
100
AcDbSymbolTableRecord
100
AcDbViewTableRecord
  2
OLE2
 70
     0
 40
170.7786920545776
 10
322.664969958371
 20
-5.978304054290276
 41
102.4672152327465
 11
0.0
 21
0.0
 31
1.0
 12
0.0
 22
0.0
 32
0.0
 42
50.0
 43
0.0
 44
0.0
 50
0.0
 71
     0
281
     0
 72
     0
  0
VIEW
  5
23AA
330
6
100
AcDbSymbolTableRecord
100
AcDbViewTableRecord
  2
OLE3
 70
     0
 40
591.7897393182231
 10
84.79698158148218
 20
-46.09336010803997
 41
388.7920961799954
 11
0.0
 21
0.0
 31
1.0
 12
0.0
 22
0.0
 32
0.0
 42
50.0
 43
0.0
 44
0.0
 50
0.0
 71
     0
281
     0
 72
     0
  0
ENDTAB
  0
TABLE
  2
UCS
  5
7
330
0
100
AcDbSymbolTable
 70
     0
  0
ENDTAB
  0
TABLE
  2
APPID
  5
9
330
0
100
AcDbSymbolTable
 70
     2
  0
APPID
  5
12
330
9
100
AcDbSymbolTableRecord
100
AcDbRegAppTableRecord
  2
ACAD
 70
     0
  0
APPID
  5
ECD
330
9
100
AcDbSymbolTableRecord
100
AcDbRegAppTableRecord
  2
CONTENTBLOCKICON
 70
     0
  0
ENDTAB
  0
TABLE
  2
DIMSTYLE
  5
A
330
0
100
AcDbSymbolTable
 70
     1
100
AcDbDimStyleTable
 71
     0
  0
DIMSTYLE
105
175
102
{ACAD_REACTORS
330
44B6
330
44B5
330
44AD
330
4278
330
4229
330
4228
330
3DD8
330
3DD7
330
3DD5
330
3DD4
330
3DD3
330
3DD2
330
3D81
330
3D80
330
3D7F
330
3D64
330
3D63
330
3D61
330
3D60
330
3D5F
330
38EA
330
277B
330
277A
330
C4F
330
BFF
330
BD8
330
44B4
330
4995
330
49AB
330
44D8
330
44D7
330
4BF6
330
4F81
102
}
330
A
100
AcDbSymbolTableRecord
100
AcDbDimStyleTableRecord
  2
Standard
 70
     0
 41
2.0
 42
1.0
 43
0.5
 44
0.5
 73
     0
 74
     0
 77
     3
 78
    12
 79
     3
140
4.0
147
1.0
271
     1
272
     1
340
11
341
3B2
342
3B2
  0
ENDTAB
  0
TABLE
  2
BLOCK_RECORD
  5
1
330
0
100
AcDbSymbolTable
 70
    32
  0
BLOCK_RECORD
  5
1E
102
{ACAD_XDICTIONARY
360
178
102
}
330
1
100
AcDbSymbolTableRecord
100
AcDbBlockTableRecord
  2
*Model_Space
340
21
  0
BLOCK_RECORD
  5
1A
102
{ACAD_XDICTIONARY
360
17A
102
}
330
1
100
AcDbSymbolTableRecord
100
AcDbBlockTableRecord
  2
*Paper_Space
340
1D
  0
BLOCK_RECORD
  5
3B2
330
1
100
AcDbSymbolTableRecord
100
AcDbBlockTableRecord
  2
_Open
340
0
102
{BLKREFS
331
4DD4
331
4DD5
331
4DCB
331
4DCC
331
4924
331
4925
331
491B
331
491C
331
48F9
331
48FA
331
48F0
331
48F1
331
48E7
331
48E8
331
48DE
331
48DF
331
48D5
331
48D6
331
48CB
331
48CC
331
48C2
331
48C3
331
4B83
331
4B84
331
4B7A
331
4B7B
331
48A7
331
48A8
331
489D
331
489E
331
4B70
331
4B71
331
4B67
331
4B68
331
4878
331
4879
331
486F
331
4870
331
485C
331
485D
331
4865
331
4866
331
4853
331
4854
331
4967
331
4968
331
498F
331
4990
331
4953
331
4954
331
4949
331
494A
331
49F1
331
49F2
331
49E8
331
49E9
331
49A5
331
49A6
331
49BB
331
49BC
331
4C2A
331
4C2B
102
}
  0
BLOCK_RECORD
  5
BD9
330
1
100
AcDbSymbolTableRecord
100
AcDbBlockTableRecord
  2
*D1
340
0
  0
BLOCK_RECORD
  5
C00
330
1
100
AcDbSymbolTableRecord
100
AcDbBlockTableRecord
  2
*D2
340
0
  0
BLOCK_RECORD
  5
27B9
330
1
100
AcDbSymbolTableRecord
100
AcDbBlockTableRecord
  2
*D3
340
0
  0
BLOCK_RECORD
  5
27C5
330
1
100
AcDbSymbolTableRecord
100
AcDbBlockTableRecord
  2
*D4
340
0
  0
BLOCK_RECORD
  5
38EB
330
1
100
AcDbSymbolTableRecord
100
AcDbBlockTableRecord
  2
*D5
340
0
  0
BLOCK_RECORD
  5
3DD9
330
1
100
AcDbSymbolTableRecord
100
AcDbBlockTableRecord
  2
*D6
340
0
  0
BLOCK_RECORD
  5
3DE5
330
1
100
AcDbSymbolTableRecord
100
AcDbBlockTableRecord
  2
*D7
340
0
  0
BLOCK_RECORD
  5
3DF1
330
1
100
AcDbSymbolTableRecord
100
AcDbBlockTableRecord
  2
*D8
340
0
  0
BLOCK_RECORD
  5
3DFD
330
1
100
AcDbSymbolTableRecord
100
AcDbBlockTableRecord
  2
*D9
340
0
  0
BLOCK_RECORD
  5
3E09
330
1
100
AcDbSymbolTableRecord
100
AcDbBlockTableRecord
  2
*D10
340
0
  0
BLOCK_RECORD
  5
3E15
330
1
100
AcDbSymbolTableRecord
100
AcDbBlockTableRecord
  2
*D11
340
0
  0
BLOCK_RECORD
  5
3E21
330
1
100
AcDbSymbolTableRecord
100
AcDbBlockTableRecord
  2
*D12
340
0
  0
BLOCK_RECORD
  5
3E2D
330
1
100
AcDbSymbolTableRecord
100
AcDbBlockTableRecord
  2
*D13
340
0
  0
BLOCK_RECORD
  5
3E39
330
1
100
AcDbSymbolTableRecord
100
AcDbBlockTableRecord
  2
*D14
340
0
  0
BLOCK_RECORD
  5
3E45
330
1
100
AcDbSymbolTableRecord
100
AcDbBlockTableRecord
  2
*D15
340
0
  0
BLOCK_RECORD
  5
3E51
330
1
100
AcDbSymbolTableRecord
100
AcDbBlockTableRecord
  2
*D16
340
0
  0
BLOCK_RECORD
  5
3E5D
330
1
100
AcDbSymbolTableRecord
100
AcDbBlockTableRecord
  2
*D17
340
0
  0
BLOCK_RECORD
  5
3E76
330
1
100
AcDbSymbolTableRecord
100
AcDbBlockTableRecord
  2
*D18
340
0
  0
BLOCK_RECORD
  5
3E82
330
1
100
AcDbSymbolTableRecord
100
AcDbBlockTableRecord
  2
*D19
340
0
  0
BLOCK_RECORD
  5
422A
330
1
100
AcDbSymbolTableRecord
100
AcDbBlockTableRecord
  2
*D20
340
0
  0
BLOCK_RECORD
  5
4236
330
1
100
AcDbSymbolTableRecord
100
AcDbBlockTableRecord
  2
*D21
340
0
  0
BLOCK_RECORD
  5
4279
330
1
100
AcDbSymbolTableRecord
100
AcDbBlockTableRecord
  2
*D22
340
0
  0
BLOCK_RECORD
  5
44E3
330
1
100
AcDbSymbolTableRecord
100
AcDbBlockTableRecord
  2
*D23
340
0
  0
BLOCK_RECORD
  5
44EF
330
1
100
AcDbSymbolTableRecord
100
AcDbBlockTableRecord
  2
*D24
340
0
  0
BLOCK_RECORD
  5
44FB
330
1
100
AcDbSymbolTableRecord
100
AcDbBlockTableRecord
  2
*D25
340
0
  0
BLOCK_RECORD
  5
4507
330
1
100
AcDbSymbolTableRecord
100
AcDbBlockTableRecord
  2
*D26
340
0
  0
BLOCK_RECORD
  5
451F
330
1
100
AcDbSymbolTableRecord
100
AcDbBlockTableRecord
  2
*D27
340
0
  0
BLOCK_RECORD
  5
452B
330
1
100
AcDbSymbolTableRecord
100
AcDbBlockTableRecord
  2
*D28
340
0
  0
BLOCK_RECORD
  5
4996
330
1
100
AcDbSymbolTableRecord
100
AcDbBlockTableRecord
  2
*D29
340
0
  0
BLOCK_RECORD
  5
49AC
330
1
100
AcDbSymbolTableRecord
100
AcDbBlockTableRecord
  2
*D30
340
0
  0
BLOCK_RECORD
  5
4BF7
330
1
100
AcDbSymbolTableRecord
100
AcDbBlockTableRecord
  2
*D31
340
0
  0
ENDTAB
  0
ENDSEC
  0
SECTION
  2
BLOCKS
  0
BLOCK
  5
1F
330
1E
100
AcDbEntity
  8
0
100
AcDbBlockBegin
  2
*Model_Space
 70
     0
 10
0.0
 20
0.0
 30
0.0
  3
*Model_Space
  1

  0
ENDBLK
  5
20
330
1E
100
AcDbEntity
  8
0
100
AcDbBlockEnd
  0
BLOCK
  5
1B
330
1A
100
AcDbEntity
 67
     1
  8
0
100
AcDbBlockBegin
  2
*Paper_Space
 70
     0
 10
0.0
 20
0.0
 30
0.0
  3
*Paper_Space
  1

  0
ENDBLK
  5
1C
330
1A
100
AcDbEntity
 67
     1
  8
0
100
AcDbBlockEnd
  0
BLOCK
  5
3B6
330
3B2
100
AcDbEntity
  8
0
100
AcDbBlockBegin
  2
_Open
 70
     0
 10
0.0
 20
0.0
 30
0.0
  3
_Open
  1

  0
LINE
  5
3B3
330
3B2
100
AcDbEntity
  8
30
  6
Continuous
 62
     0
370
    -2
100
AcDbLine
 10
-1.0
 20
0.1666666666666666
 30
0.0
 11
0.0
 21
0.0
 31
0.0
  0
LINE
  5
3B4
330
3B2
100
AcDbEntity
  8
30
  6
Continuous
 62
     0
370
    -2
100
AcDbLine
 10
-1.0
 20
-0.1666666666666666
 30
0.0
 11
0.0
 21
0.0
 31
0.0
  0
LINE
  5
3B5
330
3B2
100
AcDbEntity
  8
30
  6
Continuous
 62
     0
370
    -2
100
AcDbLine
 10
0.0
 20
0.0
 30
0.0
 11
-1.0
 21
0.0
 31
0.0
  0
ENDBLK
  5
3B7
330
3B2
100
AcDbEntity
  8
0
100
AcDbBlockEnd
  0
BLOCK
  5
BE3
330
BD9
100
AcDbEntity
  8
0
100
AcDbBlockBegin
  2
*D1
 70
     1
 10
0.0
 20
0.0
 30
0.0
  3
*D1
  1

  0
LINE
  5
4DD1
330
BD9
100
AcDbEntity
  8
30
  6
Continuous
 62
     0
370
    -2
100
AcDbLine
 10
90.42992402192158
 20
136.6332949700004
 30
0.0
 11
99.02798892013471
 21
136.6332949700004
 31
0.0
  0
LINE
  5
4DD2
330
BD9
100
AcDbEntity
  8
30
  6
Continuous
 62
     0
370
    -2
100
AcDbLine
 10
91.42992402192158
 20
146.6332949700004
 30
0.0
 11
99.02798892013471
 21
146.6332949700004
 31
0.0
  0
LINE
  5
4DD3
330
BD9
100
AcDbEntity
  8
30
  6
Continuous
 62
     0
370
    -2
100
AcDbLine
 10
98.52798892013472
 20
138.6332949700004
 30
0.0
 11
98.52798892013472
 21
144.6332949700004
 31
0.0
  0
INSERT
  5
4DD4
330
BD9
100
AcDbEntity
  8
30
  6
Continuous
 62
     0
370
    -2
100
AcDbBlockReference
  2
_Open
 10
98.52798892013472
 20
136.6332949700004
 30
0.0
 41
2.0
 42
2.0
 43
2.0
 50
270.0
  0
INSERT
  5
4DD5
330
BD9
100
AcDbEntity
  8
30
  6
Continuous
 62
     0
370
    -2
100
AcDbBlockReference
  2
_Open
 10
98.52798892013472
 20
146.6332949700004
 30
0.0
 41
2.0
 42
2.0
 43
2.0
 50
90.0
  0
MTEXT
  5
4DD6
330
BD9
100
AcDbEntity
  8
30
  6
Continuous
 62
     0
100
AcDbMText
 10
95.5279889201347
 20
141.6332949700004
 30
0.0
 40
4.0
 41
0.0
 71
     5
 72
     1
  1
\A1;max10
 11
0.0000000000000001
 21
1.0
 31
0.0
 73
     1
 44
1.0
1001
ACAD
1000
MTEXTBEGIN
1070
    73
1070
     1
1070
    44
1040
1.0
1070
    74
1070
     0
1000
MTEXTEND
1000
MTEXTBEGIN
1070
    73
1070
     1
1070
    44
1040
1.0
1070
    74
1070
     0
1000
MTEXTEND
1000
MTEXTBEGIN
1070
    73
1070
     1
1070
    44
1040
1.0
1070
    74
1070
     0
1000
MTEXTEND
1000
MTEXTBEGIN
1070
    73
1070
     1
1070
    44
1040
1.0
1070
    74
1070
     0
1000
MTEXTEND
  0
POINT
  5
4DD7
330
BD9
100
AcDbEntity
  8
Defpoints
  6
Continuous
 62
     0
100
AcDbPoint
 10
89.42992402192158
 20
136.6332949700004
 30
0.0
  0
POINT
  5
4DD8
330
BD9
100
AcDbEntity
  8
Defpoints
  6
Continuous
 62
     0
100
AcDbPoint
 10
90.42992402192158
 20
146.6332949700004
 30
0.0
  0
POINT
  5
4DD9
330
BD9
100
AcDbEntity
  8
Defpoints
  6
Continuous
 62
     0
100
AcDbPoint
 10
98.52798892013472
 20
146.6332949700004
 30
0.0
  0
ENDBLK
  5
BE4
330
BD9
100
AcDbEntity
  8
0
100
AcDbBlockEnd
  0
BLOCK
  5
C0A
330
C00
100
AcDbEntity
  8
0
100
AcDbBlockBegin
  2
*D2
 70
     1
 10
0.0
 20
0.0
 30
0.0
  3
*D2
  1

  0
LINE
  5
4DC7
330
C00
100
AcDbEntity
  8
30
  6
Continuous
 62
     0
370
    -2
100
AcDbLine
 10
71.42992402192158
 20
135.6332949700004
 30
0.0
 11
71.42992402192158
 21
129.4831247421683
 31
0.0
  0
LINE
  5
4DC8
330
C00
100
AcDbEntity
  8
30
  6
Continuous
 62
     0
370
    -2
100
AcDbLine
 10
89.42992402192158
 20
135.6332949700004
 30
0.0
 11
89.42992402192158
 21
129.4831247421683
 31
0.0
  0
LINE
  5
4DC9
330
C00
100
AcDbEntity
  8
30
  6
Continuous
 62
     0
370
    -2
100
AcDbLine
 10
87.42992402192157
 20
129.9831247421683
 30
0.0
 11
73.42992402192158
 21
129.9831247421683
 31
0.0
  0
LINE
  5
4DCA
330
C00
100
AcDbEntity
  8
30
  6
Continuous
 62
     0
370
    -2
100
AcDbLine
 10
71.42992402192158
 20
129.9831247421683
 30
0.0
 11
56.76325735525491
 21
129.9831247421683
 31
0.0
  0
INSERT
  5
4DCB
330
C00
100
AcDbEntity
  8
30
  6
Continuous
 62
     0
370
    -2
100
AcDbBlockReference
  2
_Open
 10
89.42992402192158
 20
129.9831247421683
 30
0.0
 41
2.0
 42
2.0
 43
2.0
  0
INSERT
  5
4DCC
330
C00
100
AcDbEntity
  8
30
  6
Continuous
 62
     0
370
    -2
100
AcDbBlockReference
  2
_Open
 10
71.42992402192158
 20
129.9831247421683
 30
0.0
 41
2.0
 42
2.0
 43
2.0
 50
180.0
  0
MTEXT
  5
4DCD
330
C00
100
AcDbEntity
  8
30
  6
Continuous
 62
     0
100
AcDbMText
 10
63.09659068858825
 20
136.3164580755016
 30
0.0
 40
4.0
 41
0.0
 71
     5
 72
     1
  1
\A1;max\P18
 73
     1
 44
1.0
1001
ACAD
1000
MTEXTBEGIN
1070
    73
1070
     1
1070
    44
1040
1.0
1070
    74
1070
     0
1000
MTEXTEND
1000
MTEXTBEGIN
1070
    73
1070
     1
1070
    44
1040
1.0
1070
    74
1070
     0
1000
MTEXTEND
1000
MTEXTBEGIN
1070
    73
1070
     1
1070
    44
1040
1.0
1070
    74
1070
     0
1000
MTEXTEND
1000
MTEXTBEGIN
1070
    73
1070
     1
1070
    44
1040
1.0
1070
    74
1070
     0
1000
MTEXTEND
  0
POINT
  5
4DCE
330
C00
100
AcDbEntity
  8
Defpoints
  6
Continuous
 62
     0
100
AcDbPoint
 10
71.42992402192158
 20
136.6332949700004
 30
0.0
  0
POINT
  5
4DCF
330
C00
100
AcDbEntity
  8
Defpoints
  6
Continuous
 62
     0
100
AcDbPoint
 10
89.42992402192158
 20
136.6332949700004
 30
0.0
  0
POINT
  5
4DD0
330
C00
100
AcDbEntity
  8
Defpoints
  6
Continuous
 62
     0
100
AcDbPoint
 10
89.42992402192158
 20
129.9831247421683
 30
0.0
  0
ENDBLK
  5
C0B
330
C00
100
AcDbEntity
  8
0
100
AcDbBlockEnd
  0
BLOCK
  5
27C3
330
27B9
100
AcDbEntity
  8
0
 62
     2
100
AcDbBlockBegin
  2
*D3
 70
     1
 10
0.0
 20
0.0
 30
0.0
  3
*D3
  1

  0
LINE
  5
4921
330
27B9
100
AcDbEntity
  8
30
  6
Continuous
 62
     0
370
    -2
100
AcDbLine
 10
-38.5
 20
64.99999999995987
 30
0.0
 11
-63.21059092053769
 21
64.99999999995987
 31
0.0
  0
LINE
  5
4922
330
27B9
100
AcDbEntity
  8
30
  6
Continuous
 62
     0
370
    -2
100
AcDbLine
 10
-38.5
 20
-65.00000000004013
 30
0.0
 11
-63.21059092053771
 21
-65.00000000004013
 31
0.0
  0
LINE
  5
4923
330
27B9
100
AcDbEntity
  8
30
  6
Continuous
 62
     0
370
    -2
100
AcDbLine
 10
-62.71059092053768
 20
62.99999999995987
 30
0.0
 11
-62.71059092053771
 21
-63.00000000004013
 31
0.0
  0
INSERT
  5
4924
330
27B9
100
AcDbEntity
  8
30
  6
Continuous
 62
     0
370
    -2
100
AcDbBlockReference
  2
_Open
 10
-62.71059092053768
 20
64.99999999995987
 30
0.0
 41
2.0
 42
2.0
 43
2.0
 50
90.0
  0
INSERT
  5
4925
330
27B9
100
AcDbEntity
  8
30
  6
Continuous
 62
     0
370
    -2
100
AcDbBlockReference
  2
_Open
 10
-62.71059092053771
 20
-65.00000000004013
 30
0.0
 41
2.0
 42
2.0
 43
2.0
 50
270.0
  0
MTEXT
  5
4926
330
27B9
100
AcDbEntity
  8
30
  6
Continuous
 62
     0
100
AcDbMText
 10
-65.71059092053769
 20
-2.294738000040183
 30
0.0
 40
4.0
 41
0.0
 71
     5
 72
     1
  1
\A1;130
 11
0.0000000000000001
 21
1.0
 31
0.0
 73
     1
 44
1.0
1001
ACAD
1000
MTEXTBEGIN
1070
    73
1070
     1
1070
    44
1040
1.0
1070
    74
1070
     0
1000
MTEXTEND
1000
MTEXTBEGIN
1070
    73
1070
     1
1070
    44
1040
1.0
1070
    74
1070
     0
1000
MTEXTEND
1000
MTEXTBEGIN
1070
    73
1070
     1
1070
    44
1040
1.0
1070
    74
1070
     0
1000
MTEXTEND
1000
MTEXTBEGIN
1070
    73
1070
     1
1070
    44
1040
1.0
1070
    74
1070
     0
1000
MTEXTEND
1000
MTEXTBEGIN
1070
    73
1070
     1
1070
    44
1040
1.0
1070
    74
1070
     0
1000
MTEXTEND
1000
MTEXTBEGIN
1070
    73
1070
     1
1070
    44
1040
1.0
1070
    74
1070
     0
1000
MTEXTEND
1000
MTEXTBEGIN
1070
    73
1070
     1
1070
    44
1040
1.0
1070
    74
1070
     0
1000
MTEXTEND
1000
MTEXTBEGIN
1070
    73
1070
     1
1070
    44
1040
1.0
1070
    74
1070
     0
1000
MTEXTEND
1000
MTEXTBEGIN
1070
    73
1070
     1
1070
    44
1040
1.0
1070
    74
1070
     0
1000
MTEXTEND
1000
MTEXTBEGIN
1070
    73
1070
     1
1070
    44
1040
1.0
1070
    74
1070
     0
1000
MTEXTEND
1000
MTEXTBEGIN
1070
    73
1070
     1
1070
    44
1040
1.0
1070
    74
1070
     0
1000
MTEXTEND
1000
MTEXTBEGIN
1070
    73
1070
     1
1070
    44
1040
1.0
1070
    74
1070
     0
1000
MTEXTEND
1000
MTEXTBEGIN
1070
    73
1070
     1
1070
    44
1040
1.0
1070
    74
1070
     0
1000
MTEXTEND
  0
POINT
  5
4927
330
27B9
100
AcDbEntity
  8
Defpoints
  6
Continuous
 62
     0
100
AcDbPoint
 10
-37.5
 20
64.99999999995987
 30
0.0
  0
POINT
  5
4928
330
27B9
100
AcDbEntity
  8
Defpoints
  6
Continuous
 62
     0
100
AcDbPoint
 10
-37.5
 20
-65.00000000004013
 30
0.0
  0
POINT
  5
4929
330
27B9
100
AcDbEntity
  8
Defpoints
  6
Continuous
 62
     0
100
AcDbPoint
 10
-62.71059092053771
 20
-65.00000000004013
 30
0.0
  0
ENDBLK
  5
27C4
330
27B9
100
AcDbEntity
  8
0
 62
     2
100
AcDbBlockEnd
  0
BLOCK
  5
27CF
330
27C5
100
AcDbEntity
  8
0
 62
     2
100
AcDbBlockBegin
  2
*D4
 70
     1
 10
0.0
 20
0.0
 30
0.0
  3
*D4
  1

  0
LINE
  5
4918
330
27C5
100
AcDbEntity
  8
30
  6
Continuous
 62
     0
370
    -2
100
AcDbLine
 10
-38.5
 20
54.99999999995987
 30
0.0
 11
-54.29999999999982
 21
54.99999999995988
 31
0.0
  0
LINE
  5
4919
330
27C5
100
AcDbEntity
  8
30
  6
Continuous
 62
     0
370
    -2
100
AcDbLine
 10
-38.5
 20
-55.00000000004013
 30
0.0
 11
-54.29999999999985
 21
-55.00000000004012
 31
0.0
  0
LINE
  5
491A
330
27C5
100
AcDbEntity
  8
30
  6
Continuous
 62
     0
370
    -2
100
AcDbLine
 10
-53.79999999999983
 20
52.99999999995987
 30
0.0
 11
-53.79999999999985
 21
-53.00000000004012
 31
0.0
  0
INSERT
  5
491B
330
27C5
100
AcDbEntity
  8
30
  6
Continuous
 62
     0
370
    -2
100
AcDbBlockReference
  2
_Open
 10
-53.79999999999983
 20
54.99999999995988
 30
0.0
 41
2.0
 42
2.0
 43
2.0
 50
90.0
  0
INSERT
  5
491C
330
27C5
100
AcDbEntity
  8
30
  6
Continuous
 62
     0
370
    -2
100
AcDbBlockReference
  2
_Open
 10
-53.79999999999985
 20
-55.00000000004012
 30
0.0
 41
2.0
 42
2.0
 43
2.0
 50
270.0
  0
MTEXT
  5
491D
330
27C5
100
AcDbEntity
  8
30
  6
Continuous
 62
     0
100
AcDbMText
 10
-56.79999999999984
 20
-2.047059000039666
 30
0.0
 40
4.0
 41
0.0
 71
     5
 72
     1
  1
\A1;110
 11
0.0000000000000001
 21
1.0
 31
0.0
 73
     1
 44
1.0
1001
ACAD
1000
MTEXTBEGIN
1070
    73
1070
     1
1070
    44
1040
1.0
1070
    74
1070
     0
1000
MTEXTEND
1000
MTEXTBEGIN
1070
    73
1070
     1
1070
    44
1040
1.0
1070
    74
1070
     0
1000
MTEXTEND
1000
MTEXTBEGIN
1070
    73
1070
     1
1070
    44
1040
1.0
1070
    74
1070
     0
1000
MTEXTEND
1000
MTEXTBEGIN
1070
    73
1070
     1
1070
    44
1040
1.0
1070
    74
1070
     0
1000
MTEXTEND
1000
MTEXTBEGIN
1070
    73
1070
     1
1070
    44
1040
1.0
1070
    74
1070
     0
1000
MTEXTEND
1000
MTEXTBEGIN
1070
    73
1070
     1
1070
    44
1040
1.0
1070
    74
1070
     0
1000
MTEXTEND
1000
MTEXTBEGIN
1070
    73
1070
     1
1070
    44
1040
1.0
1070
    74
1070
     0
1000
MTEXTEND
1000
MTEXTBEGIN
1070
    73
1070
     1
1070
    44
1040
1.0
1070
    74
1070
     0
1000
MTEXTEND
1000
MTEXTBEGIN
1070
    73
1070
     1
1070
    44
1040
1.0
1070
    74
1070
     0
1000
MTEXTEND
1000
MTEXTBEGIN
1070
    73
1070
     1
1070
    44
1040
1.0
1070
    74
1070
     0
1000
MTEXTEND
1000
MTEXTBEGIN
1070
    73
1070
     1
1070
    44
1040
1.0
1070
    74
1070
     0
1000
MTEXTEND
1000
MTEXTBEGIN
1070
    73
1070
     1
1070
    44
1040
1.0
1070
    74
1070
     0
1000
MTEXTEND
1000
MTEXTBEGIN
1070
    73
1070
     1
1070
    44
1040
1.0
1070
    74
1070
     0
1000
MTEXTEND
  0
POINT
  5
491E
330
27C5
100
AcDbEntity
  8
Defpoints
  6
Continuous
 62
     0
100
AcDbPoint
 10
-37.5
 20
54.99999999995987
 30
0.0
  0
POINT
  5
491F
330
27C5
100
AcDbEntity
  8
Defpoints
  6
Continuous
 62
     0
100
AcDbPoint
 10
-37.5
 20
-55.00000000004013
 30
0.0
  0
POINT
  5
4920
330
27C5
100
AcDbEntity
  8
Defpoints
  6
Continuous
 62
     0
100
AcDbPoint
 10
-53.79999999999985
 20
-55.00000000004012
 30
0.0
  0
ENDBLK
  5
27D0
330
27C5
100
AcDbEntity
  8
0
 62
     2
100
AcDbBlockEnd
  0
BLOCK
  5
38F5
330
38EB
100
AcDbEntity
  8
0
 62
     2
100
AcDbBlockBegin
  2
*D5
 70
     1
 10
0.0
 20
0.0
 30
0.0
  3
*D5
  1

  0
LINE
  5
48F6
330
38EB
100
AcDbEntity
  8
30
  6
Continuous
 62
     0
370
    -2
100
AcDbLine
 10
-38.5
 20
31.99999999995986
 30
0.0
 11
-46.49259766323301
 21
31.99999999995987
 31
0.0
  0
LINE
  5
48F7
330
38EB
100
AcDbEntity
  8
30
  6
Continuous
 62
     0
370
    -2
100
AcDbLine
 10
-38.5
 20
-32.00000000004013
 30
0.0
 11
-46.49259766323303
 21
-32.00000000004013
 31
0.0
  0
LINE
  5
48F8
330
38EB
100
AcDbEntity
  8
30
  6
Continuous
 62
     0
370
    -2
100
AcDbLine
 10
-45.99259766323301
 20
29.99999999995987
 30
0.0
 11
-45.99259766323302
 21
-30.00000000004012
 31
0.0
  0
INSERT
  5
48F9
330
38EB
100
AcDbEntity
  8
30
  6
Continuous
 62
     0
370
    -2
100
AcDbBlockReference
  2
_Open
 10
-45.99259766323301
 20
31.99999999995987
 30
0.0
 41
2.0
 42
2.0
 43
2.0
 50
90.0
  0
INSERT
  5
48FA
330
38EB
100
AcDbEntity
  8
30
  6
Continuous
 62
     0
370
    -2
100
AcDbBlockReference
  2
_Open
 10
-45.99259766323302
 20
-32.00000000004013
 30
0.0
 41
2.0
 42
2.0
 43
2.0
 50
270.0
  0
MTEXT
  5
48FB
330
38EB
100
AcDbEntity
  8
30
  6
Continuous
 62
     0
100
AcDbMText
 10
-48.99259766323302
 20
-0.0000000000401354
 30
0.0
 40
4.0
 41
0.0
 71
     5
 72
     1
  1
\A1;64
 11
0.0000000000000001
 21
1.0
 31
0.0
 73
     1
 44
1.0
1001
ACAD
1000
MTEXTBEGIN
1070
    73
1070
     1
1070
    44
1040
1.0
1070
    74
1070
     0
1000
MTEXTEND
1000
MTEXTBEGIN
1070
    73
1070
     1
1070
    44
1040
1.0
1070
    74
1070
     0
1000
MTEXTEND
1000
MTEXTBEGIN
1070
    73
1070
     1
1070
    44
1040
1.0
1070
    74
1070
     0
1000
MTEXTEND
1000
MTEXTBEGIN
1070
    73
1070
     1
1070
    44
1040
1.0
1070
    74
1070
     0
1000
MTEXTEND
1000
MTEXTBEGIN
1070
    73
1070
     1
1070
    44
1040
1.0
1070
    74
1070
     0
1000
MTEXTEND
1000
MTEXTBEGIN
1070
    73
1070
     1
1070
    44
1040
1.0
1070
    74
1070
     0
1000
MTEXTEND
1000
MTEXTBEGIN
1070
    73
1070
     1
1070
    44
1040
1.0
1070
    74
1070
     0
1000
MTEXTEND
1000
MTEXTBEGIN
1070
    73
1070
     1
1070
    44
1040
1.0
1070
    74
1070
     0
1000
MTEXTEND
1000
MTEXTBEGIN
1070
    73
1070
     1
1070
    44
1040
1.0
1070
    74
1070
     0
1000
MTEXTEND
1000
MTEXTBEGIN
1070
    73
1070
     1
1070
    44
1040
1.0
1070
    74
1070
     0
1000
MTEXTEND
1000
MTEXTBEGIN
1070
    73
1070
     1
1070
    44
1040
1.0
1070
    74
1070
     0
1000
MTEXTEND
1000
MTEXTBEGIN
1070
    73
1070
     1
1070
    44
1040
1.0
1070
    74
1070
     0
1000
MTEXTEND
1000
MTEXTBEGIN
1070
    73
1070
     1
1070
    44
1040
1.0
1070
    74
1070
     0
1000
MTEXTEND
  0
POINT
  5
48FC
330
38EB
100
AcDbEntity
  8
Defpoints
  6
Continuous
 62
     0
100
AcDbPoint
 10
-37.5
 20
31.99999999995986
 30
0.0
  0
POINT
  5
48FD
330
38EB
100
AcDbEntity
  8
Defpoints
  6
Continuous
 62
     0
100
AcDbPoint
 10
-37.5
 20
-32.00000000004013
 30
0.0
  0
POINT
  5
48FE
330
38EB
100
AcDbEntity
  8
Defpoints
  6
Continuous
 62
     0
100
AcDbPoint
 10
-45.99259766323302
 20
-32.00000000004013
 30
0.0
  0
ENDBLK
  5
38F6
330
38EB
100
AcDbEntity
  8
0
 62
     2
100
AcDbBlockEnd
  0
BLOCK
  5
3DE3
330
3DD9
100
AcDbEntity
  8
0
 62
     2
100
AcDbBlockBegin
  2
*D6
 70
     1
 10
0.0
 20
0.0
 30
0.0
  3
*D6
  1

  0
LINE
  5
48ED
330
3DD9
100
AcDbEntity
  8
30
  6
Continuous
 62
     0
370
    -2
100
AcDbLine
 10
221.2873377175775
 20
-92.5
 30
0.0
 11
331.1811010038999
 21
-92.50000000000003
 31
0.0
  0
LINE
  5
48EE
330
3DD9
100
AcDbEntity
  8
30
  6
Continuous
 62
     0
370
    -2
100
AcDbLine
 10
314.3637200478079
 20
-0.0000000000200944
 30
0.0
 11
331.1811010038999
 21
-0.0000000000200992
 31
0.0
  0
LINE
  5
48EF
330
3DD9
100
AcDbEntity
  8
30
  6
Continuous
 62
     0
370
    -2
100
AcDbLine
 10
330.6811010038999
 20
-90.50000000000002
 30
0.0
 11
330.6811010038999
 21
-2.000000000020099
 31
0.0
  0
INSERT
  5
48F0
330
3DD9
100
AcDbEntity
  8
30
  6
Continuous
 62
     0
370
    -2
100
AcDbBlockReference
  2
_Open
 10
330.6811010038999
 20
-92.50000000000003
 30
0.0
 41
2.0
 42
2.0
 43
2.0
 50
270.0
  0
INSERT
  5
48F1
330
3DD9
100
AcDbEntity
  8
30
  6
Continuous
 62
     0
370
    -2
100
AcDbBlockReference
  2
_Open
 10
330.6811010038999
 20
-0.0000000000200991
 30
0.0
 41
2.0
 42
2.0
 43
2.0
 50
90.0
  0
MTEXT
  5
48F2
330
3DD9
100
AcDbEntity
  8
30
  6
Continuous
 62
     0
100
AcDbMText
 10
327.6811010038999
 20
-46.98164974408665
 30
0.0
 40
4.0
 41
0.0
 71
     5
 72
     1
  1
\A1;92.5
 11
0.0000000000000001
 21
1.0
 31
0.0
 73
     1
 44
1.0
1001
ACAD
1000
MTEXTBEGIN
1070
    73
1070
     1
1070
    44
1040
1.0
1070
    74
1070
     0
1000
MTEXTEND
1000
MTEXTBEGIN
1070
    73
1070
     1
1070
    44
1040
1.0
1070
    74
1070
     0
1000
MTEXTEND
1000
MTEXTBEGIN
1070
    73
1070
     1
1070
    44
1040
1.0
1070
    74
1070
     0
1000
MTEXTEND
1000
MTEXTBEGIN
1070
    73
1070
     1
1070
    44
1040
1.0
1070
    74
1070
     0
1000
MTEXTEND
1000
MTEXTBEGIN
1070
    73
1070
     1
1070
    44
1040
1.0
1070
    74
1070
     0
1000
MTEXTEND
1000
MTEXTBEGIN
1070
    73
1070
     1
1070
    44
1040
1.0
1070
    74
1070
     0
1000
MTEXTEND
1000
MTEXTBEGIN
1070
    73
1070
     1
1070
    44
1040
1.0
1070
    74
1070
     0
1000
MTEXTEND
1000
MTEXTBEGIN
1070
    73
1070
     1
1070
    44
1040
1.0
1070
    74
1070
     0
1000
MTEXTEND
1000
MTEXTBEGIN
1070
    73
1070
     1
1070
    44
1040
1.0
1070
    74
1070
     0
1000
MTEXTEND
1000
MTEXTBEGIN
1070
    73
1070
     1
1070
    44
1040
1.0
1070
    74
1070
     0
1000
MTEXTEND
1000
MTEXTBEGIN
1070
    73
1070
     1
1070
    44
1040
1.0
1070
    74
1070
     0
1000
MTEXTEND
1000
MTEXTBEGIN
1070
    73
1070
     1
1070
    44
1040
1.0
1070
    74
1070
     0
1000
MTEXTEND
1000
MTEXTBEGIN
1070
    73
1070
     1
1070
    44
1040
1.0
1070
    74
1070
     0
1000
MTEXTEND
  0
POINT
  5
48F3
330
3DD9
100
AcDbEntity
  8
Defpoints
  6
Continuous
 62
     0
100
AcDbPoint
 10
220.2873377175775
 20
-92.5
 30
0.0
  0
POINT
  5
48F4
330
3DD9
100
AcDbEntity
  8
Defpoints
  6
Continuous
 62
     0
100
AcDbPoint
 10
313.3637200478079
 20
-0.0000000000200941
 30
0.0
  0
POINT
  5
48F5
330
3DD9
100
AcDbEntity
  8
Defpoints
  6
Continuous
 62
     0
100
AcDbPoint
 10
330.6811010038999
 20
-0.0000000000200991
 30
0.0
  0
ENDBLK
  5
3DE4
330
3DD9
100
AcDbEntity
  8
0
 62
     2
100
AcDbBlockEnd
  0
BLOCK
  5
3DEF
330
3DE5
100
AcDbEntity
  8
0
 62
     2
100
AcDbBlockBegin
  2
*D7
 70
     1
 10
0.0
 20
0.0
 30
0.0
  3
*D7
  1

  0
LINE
  5
48E4
330
3DE5
100
AcDbEntity
  8
30
  6
Continuous
 62
     0
370
    -2
100
AcDbLine
 10
329.1607903114155
 20
-0.0000000000000003
 30
0.0
 11
331.181101006195
 21
-0.0000000000000009
 31
0.0
  0
LINE
  5
48E5
330
3DE5
100
AcDbEntity
  8
30
  6
Continuous
 62
     0
370
    -2
100
AcDbLine
 10
221.2873377175775
 20
87.49999999995987
 30
0.0
 11
331.181101006195
 21
87.49999999995983
 31
0.0
  0
LINE
  5
48E6
330
3DE5
100
AcDbEntity
  8
30
  6
Continuous
 62
     0
370
    -2
100
AcDbLine
 10
330.681101006195
 20
1.999999999999999
 30
0.0
 11
330.681101006195
 21
85.49999999995984
 31
0.0
  0
INSERT
  5
48E7
330
3DE5
100
AcDbEntity
  8
30
  6
Continuous
 62
     0
370
    -2
100
AcDbBlockReference
  2
_Open
 10
330.681101006195
 20
-0.0000000000000007
 30
0.0
 41
2.0
 42
2.0
 43
2.0
 50
270.0
  0
INSERT
  5
48E8
330
3DE5
100
AcDbEntity
  8
30
  6
Continuous
 62
     0
370
    -2
100
AcDbBlockReference
  2
_Open
 10
330.681101006195
 20
87.49999999995983
 30
0.0
 41
2.0
 42
2.0
 43
2.0
 50
90.0
  0
MTEXT
  5
48E9
330
3DE5
100
AcDbEntity
  8
30
  6
Continuous
 62
     0
100
AcDbMText
 10
327.681101006195
 20
42.67537254421949
 30
0.0
 40
4.0
 41
0.0
 71
     5
 72
     1
  1
\A1;87.5
 11
0.0000000000000001
 21
1.0
 31
0.0
 73
     1
 44
1.0
1001
ACAD
1000
MTEXTBEGIN
1070
    73
1070
     1
1070
    44
1040
1.0
1070
    74
1070
     0
1000
MTEXTEND
1000
MTEXTBEGIN
1070
    73
1070
     1
1070
    44
1040
1.0
1070
    74
1070
     0
1000
MTEXTEND
1000
MTEXTBEGIN
1070
    73
1070
     1
1070
    44
1040
1.0
1070
    74
1070
     0
1000
MTEXTEND
1000
MTEXTBEGIN
1070
    73
1070
     1
1070
    44
1040
1.0
1070
    74
1070
     0
1000
MTEXTEND
1000
MTEXTBEGIN
1070
    73
1070
     1
1070
    44
1040
1.0
1070
    74
1070
     0
1000
MTEXTEND
1000
MTEXTBEGIN
1070
    73
1070
     1
1070
    44
1040
1.0
1070
    74
1070
     0
1000
MTEXTEND
1000
MTEXTBEGIN
1070
    73
1070
     1
1070
    44
1040
1.0
1070
    74
1070
     0
1000
MTEXTEND
1000
MTEXTBEGIN
1070
    73
1070
     1
1070
    44
1040
1.0
1070
    74
1070
     0
1000
MTEXTEND
1000
MTEXTBEGIN
1070
    73
1070
     1
1070
    44
1040
1.0
1070
    74
1070
     0
1000
MTEXTEND
1000
MTEXTBEGIN
1070
    73
1070
     1
1070
    44
1040
1.0
1070
    74
1070
     0
1000
MTEXTEND
1000
MTEXTBEGIN
1070
    73
1070
     1
1070
    44
1040
1.0
1070
    74
1070
     0
1000
MTEXTEND
1000
MTEXTBEGIN
1070
    73
1070
     1
1070
    44
1040
1.0
1070
    74
1070
     0
1000
MTEXTEND
1000
MTEXTBEGIN
1070
    73
1070
     1
1070
    44
1040
1.0
1070
    74
1070
     0
1000
MTEXTEND
  0
POINT
  5
48EA
330
3DE5
100
AcDbEntity
  8
Defpoints
  6
Continuous
 62
     0
100
AcDbPoint
 10
328.1607903114155
 20
0.0
 30
0.0
  0
POINT
  5
48EB
330
3DE5
100
AcDbEntity
  8
Defpoints
  6
Continuous
 62
     0
100
AcDbPoint
 10
220.2873377175775
 20
87.49999999995987
 30
0.0
  0
POINT
  5
48EC
330
3DE5
100
AcDbEntity
  8
Defpoints
  6
Continuous
 62
     0
100
AcDbPoint
 10
330.681101006195
 20
87.49999999995983
 30
0.0
  0
ENDBLK
  5
3DF0
330
3DE5
100
AcDbEntity
  8
0
 62
     2
100
AcDbBlockEnd
  0
BLOCK
  5
3DFB
330
3DF1
100
AcDbEntity
  8
0
 62
     2
100
AcDbBlockBegin
  2
*D8
 70
     1
 10
0.0
 20
0.0
 30
0.0
  3
*D8
  1

  0
LINE
  5
48DB
330
3DF1
100
AcDbEntity
  8
30
  6
Continuous
 62
     0
370
    -2
100
AcDbLine
 10
221.2873377175775
 20
87.49999999995987
 30
0.0
 11
344.6000408010295
 21
87.49999999995983
 31
0.0
  0
LINE
  5
48DC
330
3DF1
100
AcDbEntity
  8
30
  6
Continuous
 62
     0
370
    -2
100
AcDbLine
 10
221.2873377175775
 20
-92.5
 30
0.0
 11
344.6000408010295
 21
-92.50000000000005
 31
0.0
  0
LINE
  5
48DD
330
3DF1
100
AcDbEntity
  8
30
  6
Continuous
 62
     0
370
    -2
100
AcDbLine
 10
344.1000408010295
 20
85.49999999995982
 30
0.0
 11
344.1000408010295
 21
-90.50000000000004
 31
0.0
  0
INSERT
  5
48DE
330
3DF1
100
AcDbEntity
  8
30
  6
Continuous
 62
     0
370
    -2
100
AcDbBlockReference
  2
_Open
 10
344.1000408010295
 20
87.49999999995983
 30
0.0
 41
2.0
 42
2.0
 43
2.0
 50
90.0
  0
INSERT
  5
48DF
330
3DF1
100
AcDbEntity
  8
30
  6
Continuous
 62
     0
370
    -2
100
AcDbBlockReference
  2
_Open
 10
344.1000408010295
 20
-92.50000000000005
 30
0.0
 41
2.0
 42
2.0
 43
2.0
 50
270.0
  0
MTEXT
  5
48E0
330
3DF1
100
AcDbEntity
  8
30
  6
Continuous
 62
     0
100
AcDbMText
 10
341.1000408010295
 20
-4.394737432214242
 30
0.0
 40
4.0
 41
0.0
 71
     5
 72
     1
  1
\A1;180
 11
0.0000000000000001
 21
1.0
 31
0.0
 73
     1
 44
1.0
1001
ACAD
1000
MTEXTBEGIN
1070
    73
1070
     1
1070
    44
1040
1.0
1070
    74
1070
     0
1000
MTEXTEND
1000
MTEXTBEGIN
1070
    73
1070
     1
1070
    44
1040
1.0
1070
    74
1070
     0
1000
MTEXTEND
1000
MTEXTBEGIN
1070
    73
1070
     1
1070
    44
1040
1.0
1070
    74
1070
     0
1000
MTEXTEND
1000
MTEXTBEGIN
1070
    73
1070
     1
1070
    44
1040
1.0
1070
    74
1070
     0
1000
MTEXTEND
1000
MTEXTBEGIN
1070
    73
1070
     1
1070
    44
1040
1.0
1070
    74
1070
     0
1000
MTEXTEND
1000
MTEXTBEGIN
1070
    73
1070
     1
1070
    44
1040
1.0
1070
    74
1070
     0
1000
MTEXTEND
1000
MTEXTBEGIN
1070
    73
1070
     1
1070
    44
1040
1.0
1070
    74
1070
     0
1000
MTEXTEND
1000
MTEXTBEGIN
1070
    73
1070
     1
1070
    44
1040
1.0
1070
    74
1070
     0
1000
MTEXTEND
1000
MTEXTBEGIN
1070
    73
1070
     1
1070
    44
1040
1.0
1070
    74
1070
     0
1000
MTEXTEND
1000
MTEXTBEGIN
1070
    73
1070
     1
1070
    44
1040
1.0
1070
    74
1070
     0
1000
MTEXTEND
1000
MTEXTBEGIN
1070
    73
1070
     1
1070
    44
1040
1.0
1070
    74
1070
     0
1000
MTEXTEND
1000
MTEXTBEGIN
1070
    73
1070
     1
1070
    44
1040
1.0
1070
    74
1070
     0
1000
MTEXTEND
1000
MTEXTBEGIN
1070
    73
1070
     1
1070
    44
1040
1.0
1070
    74
1070
     0
1000
MTEXTEND
  0
POINT
  5
48E1
330
3DF1
100
AcDbEntity
  8
Defpoints
  6
Continuous
 62
     0
100
AcDbPoint
 10
220.2873377175775
 20
87.49999999995987
 30
0.0
  0
POINT
  5
48E2
330
3DF1
100
AcDbEntity
  8
Defpoints
  6
Continuous
 62
     0
100
AcDbPoint
 10
220.2873377175775
 20
-92.5
 30
0.0
  0
POINT
  5
48E3
330
3DF1
100
AcDbEntity
  8
Defpoints
  6
Continuous
 62
     0
100
AcDbPoint
 10
344.1000408010295
 20
-92.50000000000005
 30
0.0
  0
ENDBLK
  5
3DFC
330
3DF1
100
AcDbEntity
  8
0
 62
     2
100
AcDbBlockEnd
  0
BLOCK
  5
3E07
330
3DFD
100
AcDbEntity
  8
0
 62
     2
100
AcDbBlockBegin
  2
*D9
 70
     1
 10
0.0
 20
0.0
 30
0.0
  3
*D9
  1

  0
LINE
  5
48D1
330
3DFD
100
AcDbEntity
  8
30
  6
Continuous
 62
     0
370
    -2
100
AcDbLine
 10
292.2269611170678
 20
-55.0
 30
0.0
 11
272.0496649544602
 21
-55.0
 31
0.0
  0
LINE
  5
48D2
330
3DFD
100
AcDbEntity
  8
30
  6
Continuous
 62
     0
370
    -2
100
AcDbLine
 10
253.3937097878776
 20
-44.0
 30
0.0
 11
273.0496649544602
 21
-44.00000000000001
 31
0.0
  0
LINE
  5
48D3
330
3DFD
100
AcDbEntity
  8
30
  6
Continuous
 62
     0
370
    -2
100
AcDbLine
 10
272.5496649544602
 20
-57.0
 30
0.0
 11
272.5496649544602
 21
-59.0
 31
0.0
  0
LINE
  5
48D4
330
3DFD
100
AcDbEntity
  8
30
  6
Continuous
 62
     0
370
    -2
100
AcDbLine
 10
272.5496649544602
 20
-42.00000000000001
 30
0.0
 11
272.5496649544602
 21
-40.0
 31
0.0
  0
INSERT
  5
48D5
330
3DFD
100
AcDbEntity
  8
30
  6
Continuous
 62
     0
370
    -2
100
AcDbBlockReference
  2
_Open
 10
272.5496649544602
 20
-55.0
 30
0.0
 41
2.0
 42
2.0
 43
2.0
 50
90.0
  0
INSERT
  5
48D6
330
3DFD
100
AcDbEntity
  8
30
  6
Continuous
 62
     0
370
    -2
100
AcDbBlockReference
  2
_Open
 10
272.5496649544602
 20
-44.00000000000001
 30
0.0
 41
2.0
 42
2.0
 43
2.0
 50
270.0
  0
MTEXT
  5
48D7
330
3DFD
100
AcDbEntity
  8
30
  6
Continuous
 62
     0
100
AcDbMText
 10
269.5496649544602
 20
-48.75998817766525
 30
0.0
 40
4.0
 41
0.0
 71
     5
 72
     1
  1
\A1;11
 11
0.0000000000000001
 21
1.0
 31
0.0
 73
     1
 44
1.0
1001
ACAD
1000
MTEXTBEGIN
1070
    73
1070
     1
1070
    44
1040
1.0
1070
    74
1070
     0
1000
MTEXTEND
1000
MTEXTBEGIN
1070
    73
1070
     1
1070
    44
1040
1.0
1070
    74
1070
     0
1000
MTEXTEND
1000
MTEXTBEGIN
1070
    73
1070
     1
1070
    44
1040
1.0
1070
    74
1070
     0
1000
MTEXTEND
1000
MTEXTBEGIN
1070
    73
1070
     1
1070
    44
1040
1.0
1070
    74
1070
     0
1000
MTEXTEND
1000
MTEXTBEGIN
1070
    73
1070
     1
1070
    44
1040
1.0
1070
    74
1070
     0
1000
MTEXTEND
1000
MTEXTBEGIN
1070
    73
1070
     1
1070
    44
1040
1.0
1070
    74
1070
     0
1000
MTEXTEND
1000
MTEXTBEGIN
1070
    73
1070
     1
1070
    44
1040
1.0
1070
    74
1070
     0
1000
MTEXTEND
1000
MTEXTBEGIN
1070
    73
1070
     1
1070
    44
1040
1.0
1070
    74
1070
     0
1000
MTEXTEND
1000
MTEXTBEGIN
1070
    73
1070
     1
1070
    44
1040
1.0
1070
    74
1070
     0
1000
MTEXTEND
1000
MTEXTBEGIN
1070
    73
1070
     1
1070
    44
1040
1.0
1070
    74
1070
     0
1000
MTEXTEND
1000
MTEXTBEGIN
1070
    73
1070
     1
1070
    44
1040
1.0
1070
    74
1070
     0
1000
MTEXTEND
1000
MTEXTBEGIN
1070
    73
1070
     1
1070
    44
1040
1.0
1070
    74
1070
     0
1000
MTEXTEND
1000
MTEXTBEGIN
1070
    73
1070
     1
1070
    44
1040
1.0
1070
    74
1070
     0
1000
MTEXTEND
  0
POINT
  5
48D8
330
3DFD
100
AcDbEntity
  8
Defpoints
  6
Continuous
 62
     0
100
AcDbPoint
 10
293.2269611170678
 20
-55.0
 30
0.0
  0
POINT
  5
48D9
330
3DFD
100
AcDbEntity
  8
Defpoints
  6
Continuous
 62
     0
100
AcDbPoint
 10
252.3937097878775
 20
-44.0
 30
0.0
  0
POINT
  5
48DA
330
3DFD
100
AcDbEntity
  8
Defpoints
  6
Continuous
 62
     0
100
AcDbPoint
 10
272.5496649544602
 20
-44.00000000000001
 30
0.0
  0
ENDBLK
  5
3E08
330
3DFD
100
AcDbEntity
  8
0
 62
     2
100
AcDbBlockEnd
  0
BLOCK
  5
3E13
330
3E09
100
AcDbEntity
  8
0
 62
     2
100
AcDbBlockBegin
  2
*D10
 70
     1
 10
0.0
 20
0.0
 30
0.0
  3
*D10
  1

  0
LINE
  5
48C8
330
3E09
100
AcDbEntity
  8
30
  6
Continuous
 62
     0
370
    -2
100
AcDbLine
 10
253.3937097878776
 20
-64.0
 30
0.0
 11
313.8637200478079
 21
-64.00000000000002
 31
0.0
  0
LINE
  5
48C9
330
3E09
100
AcDbEntity
  8
30
  6
Continuous
 62
     0
370
    -2
100
AcDbLine
 10
253.3937097878776
 20
-41.5
 30
0.0
 11
313.8637200478079
 21
-41.50000000000002
 31
0.0
  0
LINE
  5
48CA
330
3E09
100
AcDbEntity
  8
30
  6
Continuous
 62
     0
370
    -2
100
AcDbLine
 10
313.3637200478079
 20
-62.00000000000002
 30
0.0
 11
313.3637200478079
 21
-43.50000000000002
 31
0.0
  0
INSERT
  5
48CB
330
3E09
100
AcDbEntity
  8
30
  6
Continuous
 62
     0
370
    -2
100
AcDbBlockReference
  2
_Open
 10
313.3637200478079
 20
-64.00000000000002
 30
0.0
 41
2.0
 42
2.0
 43
2.0
 50
270.0
  0
INSERT
  5
48CC
330
3E09
100
AcDbEntity
  8
30
  6
Continuous
 62
     0
370
    -2
100
AcDbBlockReference
  2
_Open
 10
313.3637200478079
 20
-41.50000000000002
 30
0.0
 41
2.0
 42
2.0
 43
2.0
 50
90.0
  0
MTEXT
  5
48CD
330
3E09
100
AcDbEntity
  8
30
  6
Continuous
 62
     0
100
AcDbMText
 10
310.3637200478079
 20
-52.30410161695022
 30
0.0
 40
4.0
 41
0.0
 71
     5
 72
     1
  1
\A1;22.5
 11
0.0000000000000001
 21
1.0
 31
0.0
 73
     1
 44
1.0
1001
ACAD
1000
MTEXTBEGIN
1070
    73
1070
     1
1070
    44
1040
1.0
1070
    74
1070
     0
1000
MTEXTEND
1000
MTEXTBEGIN
1070
    73
1070
     1
1070
    44
1040
1.0
1070
    74
1070
     0
1000
MTEXTEND
1000
MTEXTBEGIN
1070
    73
1070
     1
1070
    44
1040
1.0
1070
    74
1070
     0
1000
MTEXTEND
1000
MTEXTBEGIN
1070
    73
1070
     1
1070
    44
1040
1.0
1070
    74
1070
     0
1000
MTEXTEND
1000
MTEXTBEGIN
1070
    73
1070
     1
1070
    44
1040
1.0
1070
    74
1070
     0
1000
MTEXTEND
1000
MTEXTBEGIN
1070
    73
1070
     1
1070
    44
1040
1.0
1070
    74
1070
     0
1000
MTEXTEND
1000
MTEXTBEGIN
1070
    73
1070
     1
1070
    44
1040
1.0
1070
    74
1070
     0
1000
MTEXTEND
1000
MTEXTBEGIN
1070
    73
1070
     1
1070
    44
1040
1.0
1070
    74
1070
     0
1000
MTEXTEND
1000
MTEXTBEGIN
1070
    73
1070
     1
1070
    44
1040
1.0
1070
    74
1070
     0
1000
MTEXTEND
1000
MTEXTBEGIN
1070
    73
1070
     1
1070
    44
1040
1.0
1070
    74
1070
     0
1000
MTEXTEND
1000
MTEXTBEGIN
1070
    73
1070
     1
1070
    44
1040
1.0
1070
    74
1070
     0
1000
MTEXTEND
1000
MTEXTBEGIN
1070
    73
1070
     1
1070
    44
1040
1.0
1070
    74
1070
     0
1000
MTEXTEND
1000
MTEXTBEGIN
1070
    73
1070
     1
1070
    44
1040
1.0
1070
    74
1070
     0
1000
MTEXTEND
  0
POINT
  5
48CE
330
3E09
100
AcDbEntity
  8
Defpoints
  6
Continuous
 62
     0
100
AcDbPoint
 10
252.3937097878775
 20
-64.0
 30
0.0
  0
POINT
  5
48CF
330
3E09
100
AcDbEntity
  8
Defpoints
  6
Continuous
 62
     0
100
AcDbPoint
 10
252.3937097878775
 20
-41.5
 30
0.0
  0
POINT
  5
48D0
330
3E09
100
AcDbEntity
  8
Defpoints
  6
Continuous
 62
     0
100
AcDbPoint
 10
313.3637200478079
 20
-41.50000000000002
 30
0.0
  0
ENDBLK
  5
3E14
330
3E09
100
AcDbEntity
  8
0
 62
     2
100
AcDbBlockEnd
  0
BLOCK
  5
3E1F
330
3E15
100
AcDbEntity
  8
0
 62
     2
100
AcDbBlockBegin
  2
*D11
 70
     1
 10
0.0
 20
0.0
 30
0.0
  3
*D11
  1

  0
LINE
  5
48BF
330
3E15
100
AcDbEntity
  8
30
  6
Continuous
 62
     0
370
    -2
100
AcDbLine
 10
291.4514865091013
 20
54.99999999995988
 30
0.0
 11
273.9492339383859
 21
54.99999999995988
 31
0.0
  0
LINE
  5
48C0
330
3E15
100
AcDbEntity
  8
30
  6
Continuous
 62
     0
370
    -2
100
AcDbLine
 10
253.3937097878776
 20
43.99999999995986
 30
0.0
 11
274.9492339383859
 21
43.99999999995986
 31
0.0
  0
LINE
  5
48C1
330
3E15
100
AcDbEntity
  8
30
  6
Continuous
 62
     0
370
    -2
100
AcDbLine
 10
274.4492339383859
 20
52.99999999995987
 30
0.0
 11
274.4492339383859
 21
45.99999999995985
 31
0.0
  0
INSERT
  5
48C2
330
3E15
100
AcDbEntity
  8
30
  6
Continuous
 62
     0
370
    -2
100
AcDbBlockReference
  2
_Open
 10
274.4492339383859
 20
54.99999999995988
 30
0.0
 41
2.0
 42
2.0
 43
2.0
 50
90.0
  0
INSERT
  5
48C3
330
3E15
100
AcDbEntity
  8
30
  6
Continuous
 62
     0
370
    -2
100
AcDbBlockReference
  2
_Open
 10
274.4492339383859
 20
43.99999999995986
 30
0.0
 41
2.0
 42
2.0
 43
2.0
 50
270.0
  0
MTEXT
  5
48C4
330
3E15
100
AcDbEntity
  8
30
  6
Continuous
 62
     0
100
AcDbMText
 10
271.449233938386
 20
49.49999999995986
 30
0.0
 40
4.0
 41
0.0
 71
     5
 72
     1
  1
\A1;11
 11
0.0000000000000001
 21
1.0
 31
0.0
 73
     1
 44
1.0
1001
ACAD
1000
MTEXTBEGIN
1070
    73
1070
     1
1070
    44
1040
1.0
1070
    74
1070
     0
1000
MTEXTEND
1000
MTEXTBEGIN
1070
    73
1070
     1
1070
    44
1040
1.0
1070
    74
1070
     0
1000
MTEXTEND
1000
MTEXTBEGIN
1070
    73
1070
     1
1070
    44
1040
1.0
1070
    74
1070
     0
1000
MTEXTEND
1000
MTEXTBEGIN
1070
    73
1070
     1
1070
    44
1040
1.0
1070
    74
1070
     0
1000
MTEXTEND
1000
MTEXTBEGIN
1070
    73
1070
     1
1070
    44
1040
1.0
1070
    74
1070
     0
1000
MTEXTEND
1000
MTEXTBEGIN
1070
    73
1070
     1
1070
    44
1040
1.0
1070
    74
1070
     0
1000
MTEXTEND
1000
MTEXTBEGIN
1070
    73
1070
     1
1070
    44
1040
1.0
1070
    74
1070
     0
1000
MTEXTEND
1000
MTEXTBEGIN
1070
    73
1070
     1
1070
    44
1040
1.0
1070
    74
1070
     0
1000
MTEXTEND
1000
MTEXTBEGIN
1070
    73
1070
     1
1070
    44
1040
1.0
1070
    74
1070
     0
1000
MTEXTEND
1000
MTEXTBEGIN
1070
    73
1070
     1
1070
    44
1040
1.0
1070
    74
1070
     0
1000
MTEXTEND
1000
MTEXTBEGIN
1070
    73
1070
     1
1070
    44
1040
1.0
1070
    74
1070
     0
1000
MTEXTEND
1000
MTEXTBEGIN
1070
    73
1070
     1
1070
    44
1040
1.0
1070
    74
1070
     0
1000
MTEXTEND
1000
MTEXTBEGIN
1070
    73
1070
     1
1070
    44
1040
1.0
1070
    74
1070
     0
1000
MTEXTEND
  0
POINT
  5
48C5
330
3E15
100
AcDbEntity
  8
Defpoints
  6
Continuous
 62
     0
100
AcDbPoint
 10
292.4514865091012
 20
54.99999999995988
 30
0.0
  0
POINT
  5
48C6
330
3E15
100
AcDbEntity
  8
Defpoints
  6
Continuous
 62
     0
100
AcDbPoint
 10
252.3937097878775
 20
43.99999999995986
 30
0.0
  0
POINT
  5
48C7
330
3E15
100
AcDbEntity
  8
Defpoints
  6
Continuous
 62
     0
100
AcDbPoint
 10
274.4492339383859
 20
43.99999999995986
 30
0.0
  0
ENDBLK
  5
3E20
330
3E15
100
AcDbEntity
  8
0
 62
     2
100
AcDbBlockEnd
  0
BLOCK
  5
3E2B
330
3E21
100
AcDbEntity
  8
0
 62
     2
100
AcDbBlockBegin
  2
*D12
 70
     1
 10
0.0
 20
0.0
 30
0.0
  3
*D12
  1

  0
LINE
  5
4B80
330
3E21
100
AcDbEntity
  8
30
  6
Continuous
 62
     0
370
    -2
100
AcDbLine
 10
252.4873377175775
 20
41.49999999995986
 30
0.0
 11
314.3637200478079
 21
41.49999999995984
 31
0.0
  0
LINE
  5
4B81
330
3E21
100
AcDbEntity
  8
30
  6
Continuous
 62
     0
370
    -2
100
AcDbLine
 10
253.3937097878776
 20
63.99999999995987
 30
0.0
 11
314.3637200478079
 21
63.99999999995984
 31
0.0
  0
LINE
  5
4B82
330
3E21
100
AcDbEntity
  8
30
  6
Continuous
 62
     0
370
    -2
100
AcDbLine
 10
313.8637200478079
 20
43.49999999995985
 30
0.0
 11
313.8637200478079
 21
61.99999999995984
 31
0.0
  0
INSERT
  5
4B83
330
3E21
100
AcDbEntity
  8
30
  6
Continuous
 62
     0
370
    -2
100
AcDbBlockReference
  2
_Open
 10
313.8637200478079
 20
41.49999999995984
 30
0.0
 41
2.0
 42
2.0
 43
2.0
 50
270.0
  0
INSERT
  5
4B84
330
3E21
100
AcDbEntity
  8
30
  6
Continuous
 62
     0
370
    -2
100
AcDbBlockReference
  2
_Open
 10
313.8637200478079
 20
63.99999999995984
 30
0.0
 41
2.0
 42
2.0
 43
2.0
 50
90.0
  0
MTEXT
  5
4B85
330
3E21
100
AcDbEntity
  8
30
  6
Continuous
 62
     0
100
AcDbMText
 10
310.8637200478079
 20
51.56251043994724
 30
0.0
 40
4.0
 41
0.0
 71
     5
 72
     1
  1
\A1;22.5
 11
0.0000000000000001
 21
1.0
 31
0.0
 73
     1
 44
1.0
1001
ACAD
1000
MTEXTBEGIN
1070
    73
1070
     1
1070
    44
1040
1.0
1070
    74
1070
     0
1000
MTEXTEND
1000
MTEXTBEGIN
1070
    73
1070
     1
1070
    44
1040
1.0
1070
    74
1070
     0
1000
MTEXTEND
1000
MTEXTBEGIN
1070
    73
1070
     1
1070
    44
1040
1.0
1070
    74
1070
     0
1000
MTEXTEND
1000
MTEXTBEGIN
1070
    73
1070
     1
1070
    44
1040
1.0
1070
    74
1070
     0
1000
MTEXTEND
1000
MTEXTBEGIN
1070
    73
1070
     1
1070
    44
1040
1.0
1070
    74
1070
     0
1000
MTEXTEND
1000
MTEXTBEGIN
1070
    73
1070
     1
1070
    44
1040
1.0
1070
    74
1070
     0
1000
MTEXTEND
1000
MTEXTBEGIN
1070
    73
1070
     1
1070
    44
1040
1.0
1070
    74
1070
     0
1000
MTEXTEND
1000
MTEXTBEGIN
1070
    73
1070
     1
1070
    44
1040
1.0
1070
    74
1070
     0
1000
MTEXTEND
1000
MTEXTBEGIN
1070
    73
1070
     1
1070
    44
1040
1.0
1070
    74
1070
     0
1000
MTEXTEND
1000
MTEXTBEGIN
1070
    73
1070
     1
1070
    44
1040
1.0
1070
    74
1070
     0
1000
MTEXTEND
  0
POINT
  5
4B86
330
3E21
100
AcDbEntity
  8
Defpoints
  6
Continuous
 62
     0
100
AcDbPoint
 10
251.4873377175776
 20
41.49999999995986
 30
0.0
  0
POINT
  5
4B87
330
3E21
100
AcDbEntity
  8
Defpoints
  6
Continuous
 62
     0
100
AcDbPoint
 10
252.3937097878775
 20
63.99999999995987
 30
0.0
  0
POINT
  5
4B88
330
3E21
100
AcDbEntity
  8
Defpoints
  6
Continuous
 62
     0
100
AcDbPoint
 10
313.8637200478079
 20
63.99999999995984
 30
0.0
  0
ENDBLK
  5
3E2C
330
3E21
100
AcDbEntity
  8
0
 62
     2
100
AcDbBlockEnd
  0
BLOCK
  5
3E37
330
3E2D
100
AcDbEntity
  8
0
 62
     2
100
AcDbBlockBegin
  2
*D13
 70
     1
 10
0.0
 20
0.0
 30
0.0
  3
*D13
  1

  0
LINE
  5
4B77
330
3E2D
100
AcDbEntity
  8
30
  6
Continuous
 62
     0
370
    -2
100
AcDbLine
 10
251.2873377175775
 20
41.49999999995986
 30
0.0
 11
313.8637200478079
 21
41.49999999995984
 31
0.0
  0
LINE
  5
4B78
330
3E2D
100
AcDbEntity
  8
30
  6
Continuous
 62
     0
370
    -2
100
AcDbLine
 10
246.2873377175775
 20
-41.5
 30
0.0
 11
313.8637200478079
 21
-41.50000000000002
 31
0.0
  0
LINE
  5
4B79
330
3E2D
100
AcDbEntity
  8
30
  6
Continuous
 62
     0
370
    -2
100
AcDbLine
 10
313.3637200478079
 20
39.49999999995984
 30
0.0
 11
313.3637200478079
 21
-39.50000000000002
 31
0.0
  0
INSERT
  5
4B7A
330
3E2D
100
AcDbEntity
  8
30
  6
Continuous
 62
     0
370
    -2
100
AcDbBlockReference
  2
_Open
 10
313.3637200478079
 20
41.49999999995984
 30
0.0
 41
2.0
 42
2.0
 43
2.0
 50
90.0
  0
INSERT
  5
4B7B
330
3E2D
100
AcDbEntity
  8
30
  6
Continuous
 62
     0
370
    -2
100
AcDbBlockReference
  2
_Open
 10
313.3637200478079
 20
-41.50000000000002
 30
0.0
 41
2.0
 42
2.0
 43
2.0
 50
270.0
  0
MTEXT
  5
4B7C
330
3E2D
100
AcDbEntity
  8
30
  6
Continuous
 62
     0
100
AcDbMText
 10
310.3637200478079
 20
-1.118919699757384
 30
0.0
 40
4.0
 41
0.0
 71
     5
 72
     1
  1
\A1;83
 11
0.0000000000000001
 21
1.0
 31
0.0
 73
     1
 44
1.0
1001
ACAD
1000
MTEXTBEGIN
1070
    73
1070
     1
1070
    44
1040
1.0
1070
    74
1070
     0
1000
MTEXTEND
1000
MTEXTBEGIN
1070
    73
1070
     1
1070
    44
1040
1.0
1070
    74
1070
     0
1000
MTEXTEND
1000
MTEXTBEGIN
1070
    73
1070
     1
1070
    44
1040
1.0
1070
    74
1070
     0
1000
MTEXTEND
1000
MTEXTBEGIN
1070
    73
1070
     1
1070
    44
1040
1.0
1070
    74
1070
     0
1000
MTEXTEND
1000
MTEXTBEGIN
1070
    73
1070
     1
1070
    44
1040
1.0
1070
    74
1070
     0
1000
MTEXTEND
1000
MTEXTBEGIN
1070
    73
1070
     1
1070
    44
1040
1.0
1070
    74
1070
     0
1000
MTEXTEND
1000
MTEXTBEGIN
1070
    73
1070
     1
1070
    44
1040
1.0
1070
    74
1070
     0
1000
MTEXTEND
1000
MTEXTBEGIN
1070
    73
1070
     1
1070
    44
1040
1.0
1070
    74
1070
     0
1000
MTEXTEND
1000
MTEXTBEGIN
1070
    73
1070
     1
1070
    44
1040
1.0
1070
    74
1070
     0
1000
MTEXTEND
1000
MTEXTBEGIN
1070
    73
1070
     1
1070
    44
1040
1.0
1070
    74
1070
     0
1000
MTEXTEND
  0
POINT
  5
4B7D
330
3E2D
100
AcDbEntity
  8
Defpoints
  6
Continuous
 62
     0
100
AcDbPoint
 10
250.2873377175775
 20
41.49999999995986
 30
0.0
  0
POINT
  5
4B7E
330
3E2D
100
AcDbEntity
  8
Defpoints
  6
Continuous
 62
     0
100
AcDbPoint
 10
245.2873377175775
 20
-41.5
 30
0.0
  0
POINT
  5
4B7F
330
3E2D
100
AcDbEntity
  8
Defpoints
  6
Continuous
 62
     0
100
AcDbPoint
 10
313.3637200478079
 20
-41.50000000000002
 30
0.0
  0
ENDBLK
  5
3E38
330
3E2D
100
AcDbEntity
  8
0
 62
     2
100
AcDbBlockEnd
  0
BLOCK
  5
3E43
330
3E39
100
AcDbEntity
  8
0
 62
     2
100
AcDbBlockBegin
  2
*D14
 70
     1
 10
0.0
 20
0.0
 30
0.0
  3
*D14
  1

  0
LINE
  5
48A3
330
3E39
100
AcDbEntity
  8
30
  6
Continuous
 62
     0
370
    -2
100
AcDbLine
 10
227.3937097878775
 20
-93.59362792969012
 30
0.0
 11
227.3937097878775
 21
-110.7811182372859
 31
0.0
  0
LINE
  5
48A4
330
3E39
100
AcDbEntity
  8
30
  6
Continuous
 62
     0
370
    -2
100
AcDbLine
 10
217.3937097878775
 20
-31.71240234375
 30
0.0
 11
217.3937097878775
 21
-110.7811182372859
 31
0.0
  0
LINE
  5
48A5
330
3E39
100
AcDbEntity
  8
30
  6
Continuous
 62
     0
370
    -2
100
AcDbLine
 10
225.3937097878775
 20
-110.2811182372859
 30
0.0
 11
219.3937097878775
 21
-110.2811182372859
 31
0.0
  0
LINE
  5
48A6
330
3E39
100
AcDbEntity
  8
30
  6
Continuous
 62
     0
370
    -2
100
AcDbLine
 10
217.3937097878775
 20
-110.2811182372859
 30
0.0
 11
208.7270431212109
 21
-110.2811182372859
 31
0.0
  0
INSERT
  5
48A7
330
3E39
100
AcDbEntity
  8
30
  6
Continuous
 62
     0
370
    -2
100
AcDbBlockReference
  2
_Open
 10
227.3937097878775
 20
-110.2811182372859
 30
0.0
 41
2.0
 42
2.0
 43
2.0
  0
INSERT
  5
48A8
330
3E39
100
AcDbEntity
  8
30
  6
Continuous
 62
     0
370
    -2
100
AcDbBlockReference
  2
_Open
 10
217.3937097878775
 20
-110.2811182372859
 30
0.0
 41
2.0
 42
2.0
 43
2.0
 50
180.0
  0
MTEXT
  5
48A9
330
3E39
100
AcDbEntity
  8
30
  6
Continuous
 62
     0
100
AcDbMText
 10
212.0603764545442
 20
-107.2811182372859
 30
0.0
 40
4.0
 41
0.0
 71
     5
 72
     1
  1
\A1;10
 73
     1
 44
1.0
1001
ACAD
1000
MTEXTBEGIN
1070
    73
1070
     1
1070
    44
1040
1.0
1070
    74
1070
     0
1000
MTEXTEND
1000
MTEXTBEGIN
1070
    73
1070
     1
1070
    44
1040
1.0
1070
    74
1070
     0
1000
MTEXTEND
1000
MTEXTBEGIN
1070
    73
1070
     1
1070
    44
1040
1.0
1070
    74
1070
     0
1000
MTEXTEND
1000
MTEXTBEGIN
1070
    73
1070
     1
1070
    44
1040
1.0
1070
    74
1070
     0
1000
MTEXTEND
1000
MTEXTBEGIN
1070
    73
1070
     1
1070
    44
1040
1.0
1070
    74
1070
     0
1000
MTEXTEND
1000
MTEXTBEGIN
1070
    73
1070
     1
1070
    44
1040
1.0
1070
    74
1070
     0
1000
MTEXTEND
1000
MTEXTBEGIN
1070
    73
1070
     1
1070
    44
1040
1.0
1070
    74
1070
     0
1000
MTEXTEND
1000
MTEXTBEGIN
1070
    73
1070
     1
1070
    44
1040
1.0
1070
    74
1070
     0
1000
MTEXTEND
1000
MTEXTBEGIN
1070
    73
1070
     1
1070
    44
1040
1.0
1070
    74
1070
     0
1000
MTEXTEND
1000
MTEXTBEGIN
1070
    73
1070
     1
1070
    44
1040
1.0
1070
    74
1070
     0
1000
MTEXTEND
1000
MTEXTBEGIN
1070
    73
1070
     1
1070
    44
1040
1.0
1070
    74
1070
     0
1000
MTEXTEND
1000
MTEXTBEGIN
1070
    73
1070
     1
1070
    44
1040
1.0
1070
    74
1070
     0
1000
MTEXTEND
1000
MTEXTBEGIN
1070
    73
1070
     1
1070
    44
1040
1.0
1070
    74
1070
     0
1000
MTEXTEND
  0
POINT
  5
48AA
330
3E39
100
AcDbEntity
  8
Defpoints
  6
Continuous
 62
     0
100
AcDbPoint
 10
227.3937097878775
 20
-92.59362792969012
 30
0.0
  0
POINT
  5
48AB
330
3E39
100
AcDbEntity
  8
Defpoints
  6
Continuous
 62
     0
100
AcDbPoint
 10
217.3937097878775
 20
-30.71240234375
 30
0.0
  0
POINT
  5
48AC
330
3E39
100
AcDbEntity
  8
Defpoints
  6
Continuous
 62
     0
100
AcDbPoint
 10
217.3937097878775
 20
-110.2811182372859
 30
0.0
  0
ENDBLK
  5
3E44
330
3E39
100
AcDbEntity
  8
0
 62
     2
100
AcDbBlockEnd
  0
BLOCK
  5
3E4F
330
3E45
100
AcDbEntity
  8
0
 62
     2
100
AcDbBlockBegin
  2
*D15
 70
     1
 10
0.0
 20
0.0
 30
0.0
  3
*D15
  1

  0
LINE
  5
489A
330
3E45
100
AcDbEntity
  8
30
  6
Continuous
 62
     0
370
    -2
100
AcDbLine
 10
121.3937097878775
 20
-33.09362792969011
 30
0.0
 11
121.3937097878775
 21
-120.560501093749
 31
0.0
  0
LINE
  5
489B
330
3E45
100
AcDbEntity
  8
30
  6
Continuous
 62
     0
370
    -2
100
AcDbLine
 10
189.3937097878776
 20
-66.09362792969012
 30
0.0
 11
189.3937097878776
 21
-120.560501093749
 31
0.0
  0
LINE
  5
489C
330
3E45
100
AcDbEntity
  8
30
  6
Continuous
 62
     0
370
    -2
100
AcDbLine
 10
123.3937097878775
 20
-120.060501093749
 30
0.0
 11
187.3937097878775
 21
-120.060501093749
 31
0.0
  0
INSERT
  5
489D
330
3E45
100
AcDbEntity
  8
30
  6
Continuous
 62
     0
370
    -2
100
AcDbBlockReference
  2
_Open
 10
121.3937097878775
 20
-120.060501093749
 30
0.0
 41
2.0
 42
2.0
 43
2.0
 50
180.0
  0
INSERT
  5
489E
330
3E45
100
AcDbEntity
  8
30
  6
Continuous
 62
     0
370
    -2
100
AcDbBlockReference
  2
_Open
 10
189.3937097878776
 20
-120.060501093749
 30
0.0
 41
2.0
 42
2.0
 43
2.0
  0
MTEXT
  5
489F
330
3E45
100
AcDbEntity
  8
30
  6
Continuous
 62
     0
100
AcDbMText
 10
155.9357532521863
 20
-117.060501093749
 30
0.0
 40
4.0
 41
0.0
 71
     5
 72
     1
  1
\A1;68
 73
     1
 44
1.0
1001
ACAD
1000
MTEXTBEGIN
1070
    73
1070
     1
1070
    44
1040
1.0
1070
    74
1070
     0
1000
MTEXTEND
1000
MTEXTBEGIN
1070
    73
1070
     1
1070
    44
1040
1.0
1070
    74
1070
     0
1000
MTEXTEND
1000
MTEXTBEGIN
1070
    73
1070
     1
1070
    44
1040
1.0
1070
    74
1070
     0
1000
MTEXTEND
1000
MTEXTBEGIN
1070
    73
1070
     1
1070
    44
1040
1.0
1070
    74
1070
     0
1000
MTEXTEND
1000
MTEXTBEGIN
1070
    73
1070
     1
1070
    44
1040
1.0
1070
    74
1070
     0
1000
MTEXTEND
1000
MTEXTBEGIN
1070
    73
1070
     1
1070
    44
1040
1.0
1070
    74
1070
     0
1000
MTEXTEND
1000
MTEXTBEGIN
1070
    73
1070
     1
1070
    44
1040
1.0
1070
    74
1070
     0
1000
MTEXTEND
1000
MTEXTBEGIN
1070
    73
1070
     1
1070
    44
1040
1.0
1070
    74
1070
     0
1000
MTEXTEND
1000
MTEXTBEGIN
1070
    73
1070
     1
1070
    44
1040
1.0
1070
    74
1070
     0
1000
MTEXTEND
1000
MTEXTBEGIN
1070
    73
1070
     1
1070
    44
1040
1.0
1070
    74
1070
     0
1000
MTEXTEND
1000
MTEXTBEGIN
1070
    73
1070
     1
1070
    44
1040
1.0
1070
    74
1070
     0
1000
MTEXTEND
1000
MTEXTBEGIN
1070
    73
1070
     1
1070
    44
1040
1.0
1070
    74
1070
     0
1000
MTEXTEND
1000
MTEXTBEGIN
1070
    73
1070
     1
1070
    44
1040
1.0
1070
    74
1070
     0
1000
MTEXTEND
  0
POINT
  5
48A0
330
3E45
100
AcDbEntity
  8
Defpoints
  6
Continuous
 62
     0
100
AcDbPoint
 10
121.3937097878775
 20
-32.09362792969011
 30
0.0
  0
POINT
  5
48A1
330
3E45
100
AcDbEntity
  8
Defpoints
  6
Continuous
 62
     0
100
AcDbPoint
 10
189.3937097878776
 20
-65.09362792969011
 30
0.0
  0
POINT
  5
48A2
330
3E45
100
AcDbEntity
  8
Defpoints
  6
Continuous
 62
     0
100
AcDbPoint
 10
189.3937097878776
 20
-120.060501093749
 30
0.0
  0
ENDBLK
  5
3E50
330
3E45
100
AcDbEntity
  8
0
 62
     2
100
AcDbBlockEnd
  0
BLOCK
  5
3E5B
330
3E51
100
AcDbEntity
  8
0
 62
     2
100
AcDbBlockBegin
  2
*D16
 70
     1
 10
0.0
 20
0.0
 30
0.0
  3
*D16
  1

  0
LINE
  5
4B6D
330
3E51
100
AcDbEntity
  8
30
  6
Continuous
 62
     0
370
    -2
100
AcDbLine
 10
227.3937097878775
 20
-93.59362792969012
 30
0.0
 11
227.3937097878775
 21
-120.560501093749
 31
0.0
  0
LINE
  5
4B6E
330
3E51
100
AcDbEntity
  8
30
  6
Continuous
 62
     0
370
    -2
100
AcDbLine
 10
252.3937097878775
 20
-65.09362792969011
 30
0.0
 11
252.3937097878775
 21
-120.560501093749
 31
0.0
  0
LINE
  5
4B6F
330
3E51
100
AcDbEntity
  8
30
  6
Continuous
 62
     0
370
    -2
100
AcDbLine
 10
229.3937097878775
 20
-120.060501093749
 30
0.0
 11
250.3937097878775
 21
-120.060501093749
 31
0.0
  0
INSERT
  5
4B70
330
3E51
100
AcDbEntity
  8
30
  6
Continuous
 62
     0
370
    -2
100
AcDbBlockReference
  2
_Open
 10
227.3937097878775
 20
-120.060501093749
 30
0.0
 41
2.0
 42
2.0
 43
2.0
 50
180.0
  0
INSERT
  5
4B71
330
3E51
100
AcDbEntity
  8
30
  6
Continuous
 62
     0
370
    -2
100
AcDbBlockReference
  2
_Open
 10
252.3937097878775
 20
-120.060501093749
 30
0.0
 41
2.0
 42
2.0
 43
2.0
  0
MTEXT
  5
4B72
330
3E51
100
AcDbEntity
  8
30
  6
Continuous
 62
     0
100
AcDbMText
 10
242.4273850992274
 20
-117.060501093749
 30
0.0
 40
4.0
 41
0.0
 71
     5
 72
     1
  1
\A1;25
 73
     1
 44
1.0
1001
ACAD
1000
MTEXTBEGIN
1070
    73
1070
     1
1070
    44
1040
1.0
1070
    74
1070
     0
1000
MTEXTEND
1000
MTEXTBEGIN
1070
    73
1070
     1
1070
    44
1040
1.0
1070
    74
1070
     0
1000
MTEXTEND
1000
MTEXTBEGIN
1070
    73
1070
     1
1070
    44
1040
1.0
1070
    74
1070
     0
1000
MTEXTEND
1000
MTEXTBEGIN
1070
    73
1070
     1
1070
    44
1040
1.0
1070
    74
1070
     0
1000
MTEXTEND
1000
MTEXTBEGIN
1070
    73
1070
     1
1070
    44
1040
1.0
1070
    74
1070
     0
1000
MTEXTEND
1000
MTEXTBEGIN
1070
    73
1070
     1
1070
    44
1040
1.0
1070
    74
1070
     0
1000
MTEXTEND
1000
MTEXTBEGIN
1070
    73
1070
     1
1070
    44
1040
1.0
1070
    74
1070
     0
1000
MTEXTEND
1000
MTEXTBEGIN
1070
    73
1070
     1
1070
    44
1040
1.0
1070
    74
1070
     0
1000
MTEXTEND
1000
MTEXTBEGIN
1070
    73
1070
     1
1070
    44
1040
1.0
1070
    74
1070
     0
1000
MTEXTEND
1000
MTEXTBEGIN
1070
    73
1070
     1
1070
    44
1040
1.0
1070
    74
1070
     0
1000
MTEXTEND
  0
POINT
  5
4B73
330
3E51
100
AcDbEntity
  8
Defpoints
  6
Continuous
 62
     0
100
AcDbPoint
 10
227.3937097878775
 20
-92.59362792969012
 30
0.0
  0
POINT
  5
4B74
330
3E51
100
AcDbEntity
  8
Defpoints
  6
Continuous
 62
     0
100
AcDbPoint
 10
252.3937097878775
 20
-64.09362792969012
 30
0.0
  0
POINT
  5
4B75
330
3E51
100
AcDbEntity
  8
Defpoints
  6
Continuous
 62
     0
100
AcDbPoint
 10
252.3937097878775
 20
-120.060501093749
 30
0.0
  0
ENDBLK
  5
3E5C
330
3E51
100
AcDbEntity
  8
0
 62
     2
100
AcDbBlockEnd
  0
BLOCK
  5
3E68
330
3E5D
100
AcDbEntity
  8
0
 62
     2
100
AcDbBlockBegin
  2
*D17
 70
     1
 10
0.0
 20
0.0
 30
0.0
  3
*D17
  1

  0
LINE
  5
4B63
330
3E5D
100
AcDbEntity
  8
30
  6
Continuous
 62
     0
370
    -2
100
AcDbLine
 10
189.3937097878776
 20
-66.09362792969012
 30
0.0
 11
189.3937097878776
 21
-111.1229849843737
 31
0.0
  0
LINE
  5
4B64
330
3E5D
100
AcDbEntity
  8
30
  6
Continuous
 62
     0
370
    -2
100
AcDbLine
 10
191.3937097878775
 20
-93.59362792969012
 30
0.0
 11
191.3937097878775
 21
-111.1229849843737
 31
0.0
  0
LINE
  5
4B65
330
3E5D
100
AcDbEntity
  8
30
  6
Continuous
 62
     0
370
    -2
100
AcDbLine
 10
187.3937097878775
 20
-110.6229849843737
 30
0.0
 11
185.3937097878775
 21
-110.6229849843737
 31
0.0
  0
LINE
  5
4B66
330
3E5D
100
AcDbEntity
  8
30
  6
Continuous
 62
     0
370
    -2
100
AcDbLine
 10
193.3937097878775
 20
-110.6229849843737
 30
0.0
 11
195.3937097878775
 21
-110.6229849843737
 31
0.0
  0
INSERT
  5
4B67
330
3E5D
100
AcDbEntity
  8
30
  6
Continuous
 62
     0
370
    -2
100
AcDbBlockReference
  2
_Open
 10
189.3937097878776
 20
-110.6229849843737
 30
0.0
 41
2.0
 42
2.0
 43
2.0
  0
INSERT
  5
4B68
330
3E5D
100
AcDbEntity
  8
30
  6
Continuous
 62
     0
370
    -2
100
AcDbBlockReference
  2
_Open
 10
191.3937097878775
 20
-110.6229849843737
 30
0.0
 41
2.0
 42
2.0
 43
2.0
 50
180.0
  0
MTEXT
  5
4B69
330
3E5D
100
AcDbEntity
  8
30
  6
Continuous
 62
     0
100
AcDbMText
 10
190.3937097878776
 20
-107.6229849843737
 30
0.0
 40
4.0
 41
0.0
 71
     5
 72
     1
  1
\A1;2
 73
     1
 44
1.0
1001
ACAD
1000
MTEXTBEGIN
1070
    73
1070
     1
1070
    44
1040
1.0
1070
    74
1070
     0
1000
MTEXTEND
1000
MTEXTBEGIN
1070
    73
1070
     1
1070
    44
1040
1.0
1070
    74
1070
     0
1000
MTEXTEND
1000
MTEXTBEGIN
1070
    73
1070
     1
1070
    44
1040
1.0
1070
    74
1070
     0
1000
MTEXTEND
1000
MTEXTBEGIN
1070
    73
1070
     1
1070
    44
1040
1.0
1070
    74
1070
     0
1000
MTEXTEND
1000
MTEXTBEGIN
1070
    73
1070
     1
1070
    44
1040
1.0
1070
    74
1070
     0
1000
MTEXTEND
1000
MTEXTBEGIN
1070
    73
1070
     1
1070
    44
1040
1.0
1070
    74
1070
     0
1000
MTEXTEND
1000
MTEXTBEGIN
1070
    73
1070
     1
1070
    44
1040
1.0
1070
    74
1070
     0
1000
MTEXTEND
1000
MTEXTBEGIN
1070
    73
1070
     1
1070
    44
1040
1.0
1070
    74
1070
     0
1000
MTEXTEND
1000
MTEXTBEGIN
1070
    73
1070
     1
1070
    44
1040
1.0
1070
    74
1070
     0
1000
MTEXTEND
1000
MTEXTBEGIN
1070
    73
1070
     1
1070
    44
1040
1.0
1070
    74
1070
     0
1000
MTEXTEND
  0
POINT
  5
4B6A
330
3E5D
100
AcDbEntity
  8
Defpoints
  6
Continuous
 62
     0
100
AcDbPoint
 10
189.3937097878776
 20
-65.09362792969011
 30
0.0
  0
POINT
  5
4B6B
330
3E5D
100
AcDbEntity
  8
Defpoints
  6
Continuous
 62
     0
100
AcDbPoint
 10
191.3937097878775
 20
-92.59362792969012
 30
0.0
  0
POINT
  5
4B6C
330
3E5D
100
AcDbEntity
  8
Defpoints
  6
Continuous
 62
     0
100
AcDbPoint
 10
191.3937097878775
 20
-110.6229849843737
 30
0.0
  0
ENDBLK
  5
3E69
330
3E5D
100
AcDbEntity
  8
0
 62
     2
100
AcDbBlockEnd
  0
BLOCK
  5
3E80
330
3E76
100
AcDbEntity
  8
0
 62
     2
100
AcDbBlockBegin
  2
*D18
 70
     1
 10
0.0
 20
0.0
 30
0.0
  3
*D18
  1

  0
LINE
  5
4875
330
3E76
100
AcDbEntity
  8
30
  6
Continuous
 62
     0
370
    -2
100
AcDbLine
 10
189.3937097878776
 20
-66.09362792969012
 30
0.0
 11
189.3937097878776
 21
-120.560501093749
 31
0.0
  0
LINE
  5
4876
330
3E76
100
AcDbEntity
  8
30
  6
Continuous
 62
     0
370
    -2
100
AcDbLine
 10
227.3937097878775
 20
-93.59362792969012
 30
0.0
 11
227.3937097878775
 21
-120.560501093749
 31
0.0
  0
LINE
  5
4877
330
3E76
100
AcDbEntity
  8
30
  6
Continuous
 62
     0
370
    -2
100
AcDbLine
 10
191.3937097878775
 20
-120.060501093749
 30
0.0
 11
225.3937097878775
 21
-120.060501093749
 31
0.0
  0
INSERT
  5
4878
330
3E76
100
AcDbEntity
  8
30
  6
Continuous
 62
     0
370
    -2
100
AcDbBlockReference
  2
_Open
 10
189.3937097878776
 20
-120.060501093749
 30
0.0
 41
2.0
 42
2.0
 43
2.0
 50
180.0
  0
INSERT
  5
4879
330
3E76
100
AcDbEntity
  8
30
  6
Continuous
 62
     0
370
    -2
100
AcDbBlockReference
  2
_Open
 10
227.3937097878775
 20
-120.060501093749
 30
0.0
 41
2.0
 42
2.0
 43
2.0
  0
MTEXT
  5
487A
330
3E76
100
AcDbEntity
  8
30
  6
Continuous
 62
     0
100
AcDbMText
 10
209.6787213422591
 20
-117.060501093749
 30
0.0
 40
4.0
 41
0.0
 71
     5
 72
     1
  1
\A1;38
 73
     1
 44
1.0
1001
ACAD
1000
MTEXTBEGIN
1070
    73
1070
     1
1070
    44
1040
1.0
1070
    74
1070
     0
1000
MTEXTEND
1000
MTEXTBEGIN
1070
    73
1070
     1
1070
    44
1040
1.0
1070
    74
1070
     0
1000
MTEXTEND
1000
MTEXTBEGIN
1070
    73
1070
     1
1070
    44
1040
1.0
1070
    74
1070
     0
1000
MTEXTEND
1000
MTEXTBEGIN
1070
    73
1070
     1
1070
    44
1040
1.0
1070
    74
1070
     0
1000
MTEXTEND
1000
MTEXTBEGIN
1070
    73
1070
     1
1070
    44
1040
1.0
1070
    74
1070
     0
1000
MTEXTEND
1000
MTEXTBEGIN
1070
    73
1070
     1
1070
    44
1040
1.0
1070
    74
1070
     0
1000
MTEXTEND
1000
MTEXTBEGIN
1070
    73
1070
     1
1070
    44
1040
1.0
1070
    74
1070
     0
1000
MTEXTEND
1000
MTEXTBEGIN
1070
    73
1070
     1
1070
    44
1040
1.0
1070
    74
1070
     0
1000
MTEXTEND
1000
MTEXTBEGIN
1070
    73
1070
     1
1070
    44
1040
1.0
1070
    74
1070
     0
1000
MTEXTEND
1000
MTEXTBEGIN
1070
    73
1070
     1
1070
    44
1040
1.0
1070
    74
1070
     0
1000
MTEXTEND
1000
MTEXTBEGIN
1070
    73
1070
     1
1070
    44
1040
1.0
1070
    74
1070
     0
1000
MTEXTEND
1000
MTEXTBEGIN
1070
    73
1070
     1
1070
    44
1040
1.0
1070
    74
1070
     0
1000
MTEXTEND
1000
MTEXTBEGIN
1070
    73
1070
     1
1070
    44
1040
1.0
1070
    74
1070
     0
1000
MTEXTEND
  0
POINT
  5
487B
330
3E76
100
AcDbEntity
  8
Defpoints
  6
Continuous
 62
     0
100
AcDbPoint
 10
189.3937097878776
 20
-65.09362792969011
 30
0.0
  0
POINT
  5
487C
330
3E76
100
AcDbEntity
  8
Defpoints
  6
Continuous
 62
     0
100
AcDbPoint
 10
227.3937097878775
 20
-92.59362792969012
 30
0.0
  0
POINT
  5
487D
330
3E76
100
AcDbEntity
  8
Defpoints
  6
Continuous
 62
     0
100
AcDbPoint
 10
227.3937097878775
 20
-120.060501093749
 30
0.0
  0
ENDBLK
  5
3E81
330
3E76
100
AcDbEntity
  8
0
 62
     2
100
AcDbBlockEnd
  0
BLOCK
  5
3E8D
330
3E82
100
AcDbEntity
  8
0
 62
     2
100
AcDbBlockBegin
  2
*D19
 70
     1
 10
0.0
 20
0.0
 30
0.0
  3
*D19
  1

  0
LINE
  5
486B
330
3E82
100
AcDbEntity
  8
30
  6
Continuous
 62
     0
370
    -2
100
AcDbLine
 10
227.3937097878775
 20
-93.59362792969012
 30
0.0
 11
227.3937097878775
 21
-110.7811182372859
 31
0.0
  0
LINE
  5
486C
330
3E82
100
AcDbEntity
  8
30
  6
Continuous
 62
     0
370
    -2
100
AcDbLine
 10
230.3937097878776
 20
-72.39361572266012
 30
0.0
 11
230.3937097878776
 21
-110.7811182372859
 31
0.0
  0
LINE
  5
486D
330
3E82
100
AcDbEntity
  8
30
  6
Continuous
 62
     0
370
    -2
100
AcDbLine
 10
225.3937097878775
 20
-110.2811182372859
 30
0.0
 11
223.3937097878775
 21
-110.2811182372859
 31
0.0
  0
LINE
  5
486E
330
3E82
100
AcDbEntity
  8
30
  6
Continuous
 62
     0
370
    -2
100
AcDbLine
 10
232.3937097878775
 20
-110.2811182372859
 30
0.0
 11
245.5385172518913
 21
-110.2811182372859
 31
0.0
  0
INSERT
  5
486F
330
3E82
100
AcDbEntity
  8
30
  6
Continuous
 62
     0
370
    -2
100
AcDbBlockReference
  2
_Open
 10
227.3937097878775
 20
-110.2811182372859
 30
0.0
 41
2.0
 42
2.0
 43
2.0
  0
INSERT
  5
4870
330
3E82
100
AcDbEntity
  8
30
  6
Continuous
 62
     0
370
    -2
100
AcDbBlockReference
  2
_Open
 10
230.3937097878776
 20
-110.2811182372859
 30
0.0
 41
2.0
 42
2.0
 43
2.0
 50
180.0
  0
MTEXT
  5
4871
330
3E82
100
AcDbEntity
  8
30
  6
Continuous
 62
     0
100
AcDbMText
 10
243.205183918558
 20
-107.2811182372859
 30
0.0
 40
4.0
 41
0.0
 71
     5
 72
     1
  1
\A1;3
 73
     1
 44
1.0
1001
ACAD
1000
MTEXTBEGIN
1070
    73
1070
     1
1070
    44
1040
1.0
1070
    74
1070
     0
1000
MTEXTEND
1000
MTEXTBEGIN
1070
    73
1070
     1
1070
    44
1040
1.0
1070
    74
1070
     0
1000
MTEXTEND
1000
MTEXTBEGIN
1070
    73
1070
     1
1070
    44
1040
1.0
1070
    74
1070
     0
1000
MTEXTEND
1000
MTEXTBEGIN
1070
    73
1070
     1
1070
    44
1040
1.0
1070
    74
1070
     0
1000
MTEXTEND
1000
MTEXTBEGIN
1070
    73
1070
     1
1070
    44
1040
1.0
1070
    74
1070
     0
1000
MTEXTEND
1000
MTEXTBEGIN
1070
    73
1070
     1
1070
    44
1040
1.0
1070
    74
1070
     0
1000
MTEXTEND
1000
MTEXTBEGIN
1070
    73
1070
     1
1070
    44
1040
1.0
1070
    74
1070
     0
1000
MTEXTEND
1000
MTEXTBEGIN
1070
    73
1070
     1
1070
    44
1040
1.0
1070
    74
1070
     0
1000
MTEXTEND
1000
MTEXTBEGIN
1070
    73
1070
     1
1070
    44
1040
1.0
1070
    74
1070
     0
1000
MTEXTEND
1000
MTEXTBEGIN
1070
    73
1070
     1
1070
    44
1040
1.0
1070
    74
1070
     0
1000
MTEXTEND
1000
MTEXTBEGIN
1070
    73
1070
     1
1070
    44
1040
1.0
1070
    74
1070
     0
1000
MTEXTEND
1000
MTEXTBEGIN
1070
    73
1070
     1
1070
    44
1040
1.0
1070
    74
1070
     0
1000
MTEXTEND
1000
MTEXTBEGIN
1070
    73
1070
     1
1070
    44
1040
1.0
1070
    74
1070
     0
1000
MTEXTEND
  0
POINT
  5
4872
330
3E82
100
AcDbEntity
  8
Defpoints
  6
Continuous
 62
     0
100
AcDbPoint
 10
227.3937097878775
 20
-92.59362792969012
 30
0.0
  0
POINT
  5
4873
330
3E82
100
AcDbEntity
  8
Defpoints
  6
Continuous
 62
     0
100
AcDbPoint
 10
230.3937097878776
 20
-71.39361572266011
 30
0.0
  0
POINT
  5
4874
330
3E82
100
AcDbEntity
  8
Defpoints
  6
Continuous
 62
     0
100
AcDbPoint
 10
230.3937097878776
 20
-110.2811182372859
 30
0.0
  0
ENDBLK
  5
3E8E
330
3E82
100
AcDbEntity
  8
0
 62
     2
100
AcDbBlockEnd
  0
BLOCK
  5
4234
330
422A
100
AcDbEntity
  8
0
 62
     2
100
AcDbBlockBegin
  2
*D20
 70
     1
 10
0.0
 20
0.0
 30
0.0
  3
*D20
  1

  0
LINE
  5
4859
330
422A
100
AcDbEntity
  8
30
  6
Continuous
 62
     0
370
    -2
100
AcDbLine
 10
-25.0
 20
-83.0
 30
0.0
 11
-25.0
 21
-107.0749891646282
 31
0.0
  0
LINE
  5
485A
330
422A
100
AcDbEntity
  8
30
  6
Continuous
 62
     0
370
    -2
100
AcDbLine
 10
-0.0000000000000001
 20
-69.69789102999789
 30
0.0
 11
-0.0000000000000023
 21
-107.0749891646282
 31
0.0
  0
LINE
  5
485B
330
422A
100
AcDbEntity
  8
30
  6
Continuous
 62
     0
370
    -2
100
AcDbLine
 10
-23.0
 20
-106.5749891646282
 30
0.0
 11
-2.000000000000002
 21
-106.5749891646282
 31
0.0
  0
INSERT
  5
485C
330
422A
100
AcDbEntity
  8
30
  6
Continuous
 62
     0
370
    -2
100
AcDbBlockReference
  2
_Open
 10
-25.0
 20
-106.5749891646282
 30
0.0
 41
2.0
 42
2.0
 43
2.0
 50
180.0
  0
INSERT
  5
485D
330
422A
100
AcDbEntity
  8
30
  6
Continuous
 62
     0
370
    -2
100
AcDbBlockReference
  2
_Open
 10
-0.0000000000000023
 20
-106.5749891646282
 30
0.0
 41
2.0
 42
2.0
 43
2.0
  0
MTEXT
  5
485E
330
422A
100
AcDbEntity
  8
30
  6
Continuous
 62
     0
100
AcDbMText
 10
-11.01462148334076
 20
-103.5749891646282
 30
0.0
 40
4.0
 41
0.0
 71
     5
 72
     1
  1
\A1;25
 73
     1
 44
1.0
1001
ACAD
1000
MTEXTBEGIN
1070
    73
1070
     1
1070
    44
1040
1.0
1070
    74
1070
     0
1000
MTEXTEND
1000
MTEXTBEGIN
1070
    73
1070
     1
1070
    44
1040
1.0
1070
    74
1070
     0
1000
MTEXTEND
1000
MTEXTBEGIN
1070
    73
1070
     1
1070
    44
1040
1.0
1070
    74
1070
     0
1000
MTEXTEND
1000
MTEXTBEGIN
1070
    73
1070
     1
1070
    44
1040
1.0
1070
    74
1070
     0
1000
MTEXTEND
1000
MTEXTBEGIN
1070
    73
1070
     1
1070
    44
1040
1.0
1070
    74
1070
     0
1000
MTEXTEND
1000
MTEXTBEGIN
1070
    73
1070
     1
1070
    44
1040
1.0
1070
    74
1070
     0
1000
MTEXTEND
1000
MTEXTBEGIN
1070
    73
1070
     1
1070
    44
1040
1.0
1070
    74
1070
     0
1000
MTEXTEND
1000
MTEXTBEGIN
1070
    73
1070
     1
1070
    44
1040
1.0
1070
    74
1070
     0
1000
MTEXTEND
1000
MTEXTBEGIN
1070
    73
1070
     1
1070
    44
1040
1.0
1070
    74
1070
     0
1000
MTEXTEND
1000
MTEXTBEGIN
1070
    73
1070
     1
1070
    44
1040
1.0
1070
    74
1070
     0
1000
MTEXTEND
1000
MTEXTBEGIN
1070
    73
1070
     1
1070
    44
1040
1.0
1070
    74
1070
     0
1000
MTEXTEND
1000
MTEXTBEGIN
1070
    73
1070
     1
1070
    44
1040
1.0
1070
    74
1070
     0
1000
MTEXTEND
1000
MTEXTBEGIN
1070
    73
1070
     1
1070
    44
1040
1.0
1070
    74
1070
     0
1000
MTEXTEND
  0
POINT
  5
485F
330
422A
100
AcDbEntity
  8
Defpoints
  6
Continuous
 62
     0
100
AcDbPoint
 10
-25.0
 20
-82.0
 30
0.0
  0
POINT
  5
4860
330
422A
100
AcDbEntity
  8
Defpoints
  6
Continuous
 62
     0
100
AcDbPoint
 10
0.0
 20
-68.69789102999789
 30
0.0
  0
POINT
  5
4861
330
422A
100
AcDbEntity
  8
Defpoints
  6
Continuous
 62
     0
100
AcDbPoint
 10
-0.0000000000000023
 20
-106.5749891646282
 30
0.0
  0
ENDBLK
  5
4235
330
422A
100
AcDbEntity
  8
0
 62
     2
100
AcDbBlockEnd
  0
BLOCK
  5
4240
330
4236
100
AcDbEntity
  8
0
 62
     2
100
AcDbBlockBegin
  2
*D21
 70
     1
 10
0.0
 20
0.0
 30
0.0
  3
*D21
  1

  0
LINE
  5
4862
330
4236
100
AcDbEntity
  8
30
  6
Continuous
 62
     0
370
    -2
100
AcDbLine
 10
-37.5
 20
-90.20000000000004
 30
0.0
 11
-37.5
 21
-117.2748184348536
 31
0.0
  0
LINE
  5
4863
330
4236
100
AcDbEntity
  8
30
  6
Continuous
 62
     0
370
    -2
100
AcDbLine
 10
37.5
 20
-93.49999999999999
 30
0.0
 11
37.5
 21
-117.2748184348536
 31
0.0
  0
LINE
  5
4864
330
4236
100
AcDbEntity
  8
30
  6
Continuous
 62
     0
370
    -2
100
AcDbLine
 10
-35.5
 20
-116.7748184348536
 30
0.0
 11
35.5
 21
-116.7748184348536
 31
0.0
  0
INSERT
  5
4865
330
4236
100
AcDbEntity
  8
30
  6
Continuous
 62
     0
370
    -2
100
AcDbBlockReference
  2
_Open
 10
-37.5
 20
-116.7748184348536
 30
0.0
 41
2.0
 42
2.0
 43
2.0
 50
180.0
  0
INSERT
  5
4866
330
4236
100
AcDbEntity
  8
30
  6
Continuous
 62
     0
370
    -2
100
AcDbBlockReference
  2
_Open
 10
37.5
 20
-116.7748184348536
 30
0.0
 41
2.0
 42
2.0
 43
2.0
  0
MTEXT
  5
4867
330
4236
100
AcDbEntity
  8
30
  6
Continuous
 62
     0
100
AcDbMText
 10
0.0000000000000002
 20
-113.7748184348536
 30
0.0
 40
4.0
 41
0.0
 71
     5
 72
     1
  1
\A1;75
 73
     1
 44
1.0
1001
ACAD
1000
MTEXTBEGIN
1070
    73
1070
     1
1070
    44
1040
1.0
1070
    74
1070
     0
1000
MTEXTEND
1000
MTEXTBEGIN
1070
    73
1070
     1
1070
    44
1040
1.0
1070
    74
1070
     0
1000
MTEXTEND
1000
MTEXTBEGIN
1070
    73
1070
     1
1070
    44
1040
1.0
1070
    74
1070
     0
1000
MTEXTEND
1000
MTEXTBEGIN
1070
    73
1070
     1
1070
    44
1040
1.0
1070
    74
1070
     0
1000
MTEXTEND
1000
MTEXTBEGIN
1070
    73
1070
     1
1070
    44
1040
1.0
1070
    74
1070
     0
1000
MTEXTEND
1000
MTEXTBEGIN
1070
    73
1070
     1
1070
    44
1040
1.0
1070
    74
1070
     0
1000
MTEXTEND
1000
MTEXTBEGIN
1070
    73
1070
     1
1070
    44
1040
1.0
1070
    74
1070
     0
1000
MTEXTEND
1000
MTEXTBEGIN
1070
    73
1070
     1
1070
    44
1040
1.0
1070
    74
1070
     0
1000
MTEXTEND
1000
MTEXTBEGIN
1070
    73
1070
     1
1070
    44
1040
1.0
1070
    74
1070
     0
1000
MTEXTEND
1000
MTEXTBEGIN
1070
    73
1070
     1
1070
    44
1040
1.0
1070
    74
1070
     0
1000
MTEXTEND
1000
MTEXTBEGIN
1070
    73
1070
     1
1070
    44
1040
1.0
1070
    74
1070
     0
1000
MTEXTEND
1000
MTEXTBEGIN
1070
    73
1070
     1
1070
    44
1040
1.0
1070
    74
1070
     0
1000
MTEXTEND
1000
MTEXTBEGIN
1070
    73
1070
     1
1070
    44
1040
1.0
1070
    74
1070
     0
1000
MTEXTEND
  0
POINT
  5
4868
330
4236
100
AcDbEntity
  8
Defpoints
  6
Continuous
 62
     0
100
AcDbPoint
 10
-37.5
 20
-89.20000000000005
 30
0.0
  0
POINT
  5
4869
330
4236
100
AcDbEntity
  8
Defpoints
  6
Continuous
 62
     0
100
AcDbPoint
 10
37.5
 20
-92.5
 30
0.0
  0
POINT
  5
486A
330
4236
100
AcDbEntity
  8
Defpoints
  6
Continuous
 62
     0
100
AcDbPoint
 10
37.5
 20
-116.7748184348536
 30
0.0
  0
ENDBLK
  5
4241
330
4236
100
AcDbEntity
  8
0
 62
     2
100
AcDbBlockEnd
  0
BLOCK
  5
4283
330
4279
100
AcDbEntity
  8
0
 62
     2
100
AcDbBlockBegin
  2
*D22
 70
     1
 10
0.0
 20
0.0
 30
0.0
  3
*D22
  1

  0
LINE
  5
4850
330
4279
100
AcDbEntity
  8
30
  6
Continuous
 62
     0
370
    -2
100
AcDbLine
 10
-0.0000000000000001
 20
-70.69789102999789
 30
0.0
 11
-0.0000000000000023
 21
-107.0749891646282
 31
0.0
  0
LINE
  5
4851
330
4279
100
AcDbEntity
  8
30
  6
Continuous
 62
     0
370
    -2
100
AcDbLine
 10
25.0
 20
-71.0
 30
0.0
 11
25.0
 21
-107.0749891646282
 31
0.0
  0
LINE
  5
4852
330
4279
100
AcDbEntity
  8
30
  6
Continuous
 62
     0
370
    -2
100
AcDbLine
 10
1.999999999999997
 20
-106.5749891646282
 30
0.0
 11
22.99999999999999
 21
-106.5749891646282
 31
0.0
  0
INSERT
  5
4853
330
4279
100
AcDbEntity
  8
30
  6
Continuous
 62
     0
370
    -2
100
AcDbBlockReference
  2
_Open
 10
-0.0000000000000023
 20
-106.5749891646282
 30
0.0
 41
2.0
 42
2.0
 43
2.0
 50
180.0
  0
INSERT
  5
4854
330
4279
100
AcDbEntity
  8
30
  6
Continuous
 62
     0
370
    -2
100
AcDbBlockReference
  2
_Open
 10
25.0
 20
-106.5749891646282
 30
0.0
 41
2.0
 42
2.0
 43
2.0
  0
MTEXT
  5
4855
330
4279
100
AcDbEntity
  8
30
  6
Continuous
 62
     0
100
AcDbMText
 10
12.49999999999999
 20
-103.5749891646282
 30
0.0
 40
4.0
 41
0.0
 71
     5
 72
     1
  1
\A1;25
 73
     1
 44
1.0
1001
ACAD
1000
MTEXTBEGIN
1070
    73
1070
     1
1070
    44
1040
1.0
1070
    74
1070
     0
1000
MTEXTEND
1000
MTEXTBEGIN
1070
    73
1070
     1
1070
    44
1040
1.0
1070
    74
1070
     0
1000
MTEXTEND
1000
MTEXTBEGIN
1070
    73
1070
     1
1070
    44
1040
1.0
1070
    74
1070
     0
1000
MTEXTEND
1000
MTEXTBEGIN
1070
    73
1070
     1
1070
    44
1040
1.0
1070
    74
1070
     0
1000
MTEXTEND
1000
MTEXTBEGIN
1070
    73
1070
     1
1070
    44
1040
1.0
1070
    74
1070
     0
1000
MTEXTEND
1000
MTEXTBEGIN
1070
    73
1070
     1
1070
    44
1040
1.0
1070
    74
1070
     0
1000
MTEXTEND
1000
MTEXTBEGIN
1070
    73
1070
     1
1070
    44
1040
1.0
1070
    74
1070
     0
1000
MTEXTEND
1000
MTEXTBEGIN
1070
    73
1070
     1
1070
    44
1040
1.0
1070
    74
1070
     0
1000
MTEXTEND
1000
MTEXTBEGIN
1070
    73
1070
     1
1070
    44
1040
1.0
1070
    74
1070
     0
1000
MTEXTEND
1000
MTEXTBEGIN
1070
    73
1070
     1
1070
    44
1040
1.0
1070
    74
1070
     0
1000
MTEXTEND
1000
MTEXTBEGIN
1070
    73
1070
     1
1070
    44
1040
1.0
1070
    74
1070
     0
1000
MTEXTEND
1000
MTEXTBEGIN
1070
    73
1070
     1
1070
    44
1040
1.0
1070
    74
1070
     0
1000
MTEXTEND
1000
MTEXTBEGIN
1070
    73
1070
     1
1070
    44
1040
1.0
1070
    74
1070
     0
1000
MTEXTEND
  0
POINT
  5
4856
330
4279
100
AcDbEntity
  8
Defpoints
  6
Continuous
 62
     0
100
AcDbPoint
 10
-0.0000000000000001
 20
-69.69789102999789
 30
0.0
  0
POINT
  5
4857
330
4279
100
AcDbEntity
  8
Defpoints
  6
Continuous
 62
     0
100
AcDbPoint
 10
25.0
 20
-70.0
 30
0.0
  0
POINT
  5
4858
330
4279
100
AcDbEntity
  8
Defpoints
  6
Continuous
 62
     0
100
AcDbPoint
 10
25.0
 20
-106.5749891646282
 30
0.0
  0
ENDBLK
  5
4284
330
4279
100
AcDbEntity
  8
0
 62
     2
100
AcDbBlockEnd
  0
BLOCK
  5
44ED
330
44E3
100
AcDbEntity
  8
0
 62
     2
100
AcDbBlockBegin
  2
*D23
 70
     1
 10
0.0
 20
0.0
 30
0.0
  3
*D23
  1

  0
LINE
  5
4963
330
44E3
100
AcDbEntity
  8
30
  6
Continuous
 62
     0
370
    -2
100
AcDbLine
 10
24.5
 20
-276.0
 30
0.0
 11
96.58235032423304
 21
-276.0
 31
0.0
  0
LINE
  5
4964
330
44E3
100
AcDbEntity
  8
30
  6
Continuous
 62
     0
370
    -2
100
AcDbLine
 10
71.39350585940019
 20
-290.0
 30
0.0
 11
96.58235032423302
 21
-290.0
 31
0.0
  0
LINE
  5
4965
330
44E3
100
AcDbEntity
  8
30
  6
Continuous
 62
     0
370
    -2
100
AcDbLine
 10
96.08235032423303
 20
-278.0
 30
0.0
 11
96.08235032423303
 21
-288.0
 31
0.0
  0
LINE
  5
4966
330
44E3
100
AcDbEntity
  8
30
  6
Continuous
 62
     0
370
    -2
100
AcDbLine
 10
96.08235032423301
 20
-290.0
 30
0.0
 11
96.08235032423301
 21
-303.6561219818573
 31
0.0
  0
INSERT
  5
4967
330
44E3
100
AcDbEntity
  8
30
  6
Continuous
 62
     0
370
    -2
100
AcDbBlockReference
  2
_Open
 10
96.08235032423303
 20
-276.0
 30
0.0
 41
2.0
 42
2.0
 43
2.0
 50
90.0
  0
INSERT
  5
4968
330
44E3
100
AcDbEntity
  8
30
  6
Continuous
 62
     0
370
    -2
100
AcDbBlockReference
  2
_Open
 10
96.08235032423301
 20
-290.0
 30
0.0
 41
2.0
 42
2.0
 43
2.0
 50
270.0
  0
MTEXT
  5
4969
330
44E3
100
AcDbEntity
  8
30
  6
Continuous
 62
     0
100
AcDbMText
 10
93.08235032423308
 20
-299.9894553151907
 30
0.0
 40
4.0
 41
0.0
 71
     5
 72
     1
  1
\A1;14
 11
0.0000000000000001
 21
1.0
 31
0.0
 73
     1
 44
1.0
1001
ACAD
1000
MTEXTBEGIN
1070
    73
1070
     1
1070
    44
1040
1.0
1070
    74
1070
     0
1000
MTEXTEND
1000
MTEXTBEGIN
1070
    73
1070
     1
1070
    44
1040
1.0
1070
    74
1070
     0
1000
MTEXTEND
1000
MTEXTBEGIN
1070
    73
1070
     1
1070
    44
1040
1.0
1070
    74
1070
     0
1000
MTEXTEND
1000
MTEXTBEGIN
1070
    73
1070
     1
1070
    44
1040
1.0
1070
    74
1070
     0
1000
MTEXTEND
1000
MTEXTBEGIN
1070
    73
1070
     1
1070
    44
1040
1.0
1070
    74
1070
     0
1000
MTEXTEND
1000
MTEXTBEGIN
1070
    73
1070
     1
1070
    44
1040
1.0
1070
    74
1070
     0
1000
MTEXTEND
1000
MTEXTBEGIN
1070
    73
1070
     1
1070
    44
1040
1.0
1070
    74
1070
     0
1000
MTEXTEND
1000
MTEXTBEGIN
1070
    73
1070
     1
1070
    44
1040
1.0
1070
    74
1070
     0
1000
MTEXTEND
1000
MTEXTBEGIN
1070
    73
1070
     1
1070
    44
1040
1.0
1070
    74
1070
     0
1000
MTEXTEND
1000
MTEXTBEGIN
1070
    73
1070
     1
1070
    44
1040
1.0
1070
    74
1070
     0
1000
MTEXTEND
1000
MTEXTBEGIN
1070
    73
1070
     1
1070
    44
1040
1.0
1070
    74
1070
     0
1000
MTEXTEND
1000
MTEXTBEGIN
1070
    73
1070
     1
1070
    44
1040
1.0
1070
    74
1070
     0
1000
MTEXTEND
1000
MTEXTBEGIN
1070
    73
1070
     1
1070
    44
1040
1.0
1070
    74
1070
     0
1000
MTEXTEND
  0
POINT
  5
496A
330
44E3
100
AcDbEntity
  8
Defpoints
  6
Continuous
 62
     0
100
AcDbPoint
 10
23.5
 20
-276.0
 30
0.0
  0
POINT
  5
496B
330
44E3
100
AcDbEntity
  8
Defpoints
  6
Continuous
 62
     0
100
AcDbPoint
 10
70.39350585940019
 20
-290.0
 30
0.0
  0
POINT
  5
496C
330
44E3
100
AcDbEntity
  8
Defpoints
  6
Continuous
 62
     0
100
AcDbPoint
 10
96.08235032423301
 20
-290.0
 30
0.0
  0
ENDBLK
  5
44EE
330
44E3
100
AcDbEntity
  8
0
 62
     2
100
AcDbBlockEnd
  0
BLOCK
  5
44F9
330
44EF
100
AcDbEntity
  8
0
 62
     2
100
AcDbBlockBegin
  2
*D24
 70
     1
 10
0.0
 20
0.0
 30
0.0
  3
*D24
  1

  0
LINE
  5
498C
330
44EF
100
AcDbEntity
  8
30
  6
Continuous
 62
     0
370
    -2
100
AcDbLine
 10
-12.5
 20
-286.9999999999598
 30
0.0
 11
-12.5
 21
-331.2401880529562
 31
0.0
  0
LINE
  5
498D
330
44EF
100
AcDbEntity
  8
30
  6
Continuous
 62
     0
370
    -2
100
AcDbLine
 10
12.5
 20
-286.9999999999598
 30
0.0
 11
12.49999999999999
 21
-331.2401880529562
 31
0.0
  0
LINE
  5
498E
330
44EF
100
AcDbEntity
  8
30
  6
Continuous
 62
     0
370
    -2
100
AcDbLine
 10
-10.5
 20
-330.7401880529562
 30
0.0
 11
10.49999999999999
 21
-330.7401880529562
 31
0.0
  0
INSERT
  5
498F
330
44EF
100
AcDbEntity
  8
30
  6
Continuous
 62
     0
370
    -2
100
AcDbBlockReference
  2
_Open
 10
-12.5
 20
-330.7401880529562
 30
0.0
 41
2.0
 42
2.0
 43
2.0
 50
180.0
  0
INSERT
  5
4990
330
44EF
100
AcDbEntity
  8
30
  6
Continuous
 62
     0
370
    -2
100
AcDbBlockReference
  2
_Open
 10
12.49999999999999
 20
-330.7401880529562
 30
0.0
 41
2.0
 42
2.0
 43
2.0
  0
MTEXT
  5
4991
330
44EF
100
AcDbEntity
  8
30
  6
Continuous
 62
     0
100
AcDbMText
 10
2.730331121977997
 20
-327.7401880529562
 30
0.0
 40
4.0
 41
0.0
 71
     5
 72
     1
  1
\A1;25
 73
     1
 44
1.0
1001
ACAD
1000
MTEXTBEGIN
1070
    73
1070
     1
1070
    44
1040
1.0
1070
    74
1070
     0
1000
MTEXTEND
1000
MTEXTBEGIN
1070
    73
1070
     1
1070
    44
1040
1.0
1070
    74
1070
     0
1000
MTEXTEND
1000
MTEXTBEGIN
1070
    73
1070
     1
1070
    44
1040
1.0
1070
    74
1070
     0
1000
MTEXTEND
1000
MTEXTBEGIN
1070
    73
1070
     1
1070
    44
1040
1.0
1070
    74
1070
     0
1000
MTEXTEND
1000
MTEXTBEGIN
1070
    73
1070
     1
1070
    44
1040
1.0
1070
    74
1070
     0
1000
MTEXTEND
1000
MTEXTBEGIN
1070
    73
1070
     1
1070
    44
1040
1.0
1070
    74
1070
     0
1000
MTEXTEND
1000
MTEXTBEGIN
1070
    73
1070
     1
1070
    44
1040
1.0
1070
    74
1070
     0
1000
MTEXTEND
1000
MTEXTBEGIN
1070
    73
1070
     1
1070
    44
1040
1.0
1070
    74
1070
     0
1000
MTEXTEND
1000
MTEXTBEGIN
1070
    73
1070
     1
1070
    44
1040
1.0
1070
    74
1070
     0
1000
MTEXTEND
1000
MTEXTBEGIN
1070
    73
1070
     1
1070
    44
1040
1.0
1070
    74
1070
     0
1000
MTEXTEND
1000
MTEXTBEGIN
1070
    73
1070
     1
1070
    44
1040
1.0
1070
    74
1070
     0
1000
MTEXTEND
1000
MTEXTBEGIN
1070
    73
1070
     1
1070
    44
1040
1.0
1070
    74
1070
     0
1000
MTEXTEND
1000
MTEXTBEGIN
1070
    73
1070
     1
1070
    44
1040
1.0
1070
    74
1070
     0
1000
MTEXTEND
  0
POINT
  5
4992
330
44EF
100
AcDbEntity
  8
Defpoints
  6
Continuous
 62
     0
100
AcDbPoint
 10
-12.5
 20
-285.9999999999598
 30
0.0
  0
POINT
  5
4993
330
44EF
100
AcDbEntity
  8
Defpoints
  6
Continuous
 62
     0
100
AcDbPoint
 10
12.5
 20
-285.9999999999598
 30
0.0
  0
POINT
  5
4994
330
44EF
100
AcDbEntity
  8
Defpoints
  6
Continuous
 62
     0
100
AcDbPoint
 10
12.49999999999999
 20
-330.7401880529562
 30
0.0
  0
ENDBLK
  5
44FA
330
44EF
100
AcDbEntity
  8
0
 62
     2
100
AcDbBlockEnd
  0
BLOCK
  5
4505
330
44FB
100
AcDbEntity
  8
0
 62
     2
100
AcDbBlockBegin
  2
*D25
 70
     1
 10
0.0
 20
0.0
 30
0.0
  3
*D25
  1

  0
LINE
  5
494F
330
44FB
100
AcDbEntity
  8
30
  6
Continuous
 62
     0
370
    -2
100
AcDbLine
 10
46.5406448987278
 20
-224.0000000000401
 30
0.0
 11
97.58235032423302
 21
-224.0000000000401
 31
0.0
  0
LINE
  5
4950
330
44FB
100
AcDbEntity
  8
30
  6
Continuous
 62
     0
370
    -2
100
AcDbLine
 10
71.39350585940019
 20
-210.0000000000401
 30
0.0
 11
97.58235032423304
 21
-210.0000000000401
 31
0.0
  0
LINE
  5
4951
330
44FB
100
AcDbEntity
  8
30
  6
Continuous
 62
     0
370
    -2
100
AcDbLine
 10
97.08235032423303
 20
-222.0000000000401
 30
0.0
 11
97.08235032423303
 21
-212.0000000000401
 31
0.0
  0
LINE
  5
4952
330
44FB
100
AcDbEntity
  8
30
  6
Continuous
 62
     0
370
    -2
100
AcDbLine
 10
97.08235032423303
 20
-210.0000000000401
 30
0.0
 11
97.08235032423303
 21
-196.2058733374425
 31
0.0
  0
INSERT
  5
4953
330
44FB
100
AcDbEntity
  8
30
  6
Continuous
 62
     0
370
    -2
100
AcDbBlockReference
  2
_Open
 10
97.08235032423303
 20
-224.0000000000401
 30
0.0
 41
2.0
 42
2.0
 43
2.0
 50
270.0
  0
INSERT
  5
4954
330
44FB
100
AcDbEntity
  8
30
  6
Continuous
 62
     0
370
    -2
100
AcDbBlockReference
  2
_Open
 10
97.08235032423303
 20
-210.0000000000401
 30
0.0
 41
2.0
 42
2.0
 43
2.0
 50
90.0
  0
MTEXT
  5
4955
330
44FB
100
AcDbEntity
  8
30
  6
Continuous
 62
     0
100
AcDbMText
 10
94.08235032423306
 20
-199.8725400041092
 30
0.0
 40
4.0
 41
0.0
 71
     5
 72
     1
  1
\A1;14
 11
0.0000000000000001
 21
1.0
 31
0.0
 73
     1
 44
1.0
1001
ACAD
1000
MTEXTBEGIN
1070
    73
1070
     1
1070
    44
1040
1.0
1070
    74
1070
     0
1000
MTEXTEND
1000
MTEXTBEGIN
1070
    73
1070
     1
1070
    44
1040
1.0
1070
    74
1070
     0
1000
MTEXTEND
1000
MTEXTBEGIN
1070
    73
1070
     1
1070
    44
1040
1.0
1070
    74
1070
     0
1000
MTEXTEND
1000
MTEXTBEGIN
1070
    73
1070
     1
1070
    44
1040
1.0
1070
    74
1070
     0
1000
MTEXTEND
1000
MTEXTBEGIN
1070
    73
1070
     1
1070
    44
1040
1.0
1070
    74
1070
     0
1000
MTEXTEND
1000
MTEXTBEGIN
1070
    73
1070
     1
1070
    44
1040
1.0
1070
    74
1070
     0
1000
MTEXTEND
1000
MTEXTBEGIN
1070
    73
1070
     1
1070
    44
1040
1.0
1070
    74
1070
     0
1000
MTEXTEND
1000
MTEXTBEGIN
1070
    73
1070
     1
1070
    44
1040
1.0
1070
    74
1070
     0
1000
MTEXTEND
1000
MTEXTBEGIN
1070
    73
1070
     1
1070
    44
1040
1.0
1070
    74
1070
     0
1000
MTEXTEND
1000
MTEXTBEGIN
1070
    73
1070
     1
1070
    44
1040
1.0
1070
    74
1070
     0
1000
MTEXTEND
1000
MTEXTBEGIN
1070
    73
1070
     1
1070
    44
1040
1.0
1070
    74
1070
     0
1000
MTEXTEND
1000
MTEXTBEGIN
1070
    73
1070
     1
1070
    44
1040
1.0
1070
    74
1070
     0
1000
MTEXTEND
1000
MTEXTBEGIN
1070
    73
1070
     1
1070
    44
1040
1.0
1070
    74
1070
     0
1000
MTEXTEND
  0
POINT
  5
4956
330
44FB
100
AcDbEntity
  8
Defpoints
  6
Continuous
 62
     0
100
AcDbPoint
 10
45.5406448987278
 20
-224.0000000000401
 30
0.0
  0
POINT
  5
4957
330
44FB
100
AcDbEntity
  8
Defpoints
  6
Continuous
 62
     0
100
AcDbPoint
 10
70.39350585940019
 20
-210.0000000000401
 30
0.0
  0
POINT
  5
4958
330
44FB
100
AcDbEntity
  8
Defpoints
  6
Continuous
 62
     0
100
AcDbPoint
 10
97.08235032423303
 20
-210.0000000000401
 30
0.0
  0
ENDBLK
  5
4506
330
44FB
100
AcDbEntity
  8
0
 62
     2
100
AcDbBlockEnd
  0
BLOCK
  5
4511
330
4507
100
AcDbEntity
  8
0
 62
     2
100
AcDbBlockBegin
  2
*D26
 70
     1
 10
0.0
 20
0.0
 30
0.0
  3
*D26
  1

  0
LINE
  5
4946
330
4507
100
AcDbEntity
  8
30
  6
Continuous
 62
     0
370
    -2
100
AcDbLine
 10
23.5
 20
-224.0000000000401
 30
0.0
 11
97.08235032423303
 21
-224.0000000000401
 31
0.0
  0
LINE
  5
4947
330
4507
100
AcDbEntity
  8
30
  6
Continuous
 62
     0
370
    -2
100
AcDbLine
 10
23.5
 20
-276.0
 30
0.0
 11
97.08235032423303
 21
-276.0
 31
0.0
  0
LINE
  5
4948
330
4507
100
AcDbEntity
  8
30
  6
Continuous
 62
     0
370
    -2
100
AcDbLine
 10
96.58235032423302
 20
-226.0000000000401
 30
0.0
 11
96.58235032423302
 21
-274.0
 31
0.0
  0
INSERT
  5
4949
330
4507
100
AcDbEntity
  8
30
  6
Continuous
 62
     0
370
    -2
100
AcDbBlockReference
  2
_Open
 10
96.58235032423302
 20
-224.0000000000401
 30
0.0
 41
2.0
 42
2.0
 43
2.0
 50
90.0
  0
INSERT
  5
494A
330
4507
100
AcDbEntity
  8
30
  6
Continuous
 62
     0
370
    -2
100
AcDbBlockReference
  2
_Open
 10
96.58235032423302
 20
-276.0
 30
0.0
 41
2.0
 42
2.0
 43
2.0
 50
270.0
  0
MTEXT
  5
494B
330
4507
100
AcDbEntity
  8
30
  6
Continuous
 62
     0
100
AcDbMText
 10
93.58235032423307
 20
-250.5882119486707
 30
0.0
 40
4.0
 41
0.0
 71
     5
 72
     1
  1
\A1;52
 11
0.0000000000000001
 21
1.0
 31
0.0
 73
     1
 44
1.0
1001
ACAD
1000
MTEXTBEGIN
1070
    73
1070
     1
1070
    44
1040
1.0
1070
    74
1070
     0
1000
MTEXTEND
1000
MTEXTBEGIN
1070
    73
1070
     1
1070
    44
1040
1.0
1070
    74
1070
     0
1000
MTEXTEND
1000
MTEXTBEGIN
1070
    73
1070
     1
1070
    44
1040
1.0
1070
    74
1070
     0
1000
MTEXTEND
1000
MTEXTBEGIN
1070
    73
1070
     1
1070
    44
1040
1.0
1070
    74
1070
     0
1000
MTEXTEND
1000
MTEXTBEGIN
1070
    73
1070
     1
1070
    44
1040
1.0
1070
    74
1070
     0
1000
MTEXTEND
1000
MTEXTBEGIN
1070
    73
1070
     1
1070
    44
1040
1.0
1070
    74
1070
     0
1000
MTEXTEND
1000
MTEXTBEGIN
1070
    73
1070
     1
1070
    44
1040
1.0
1070
    74
1070
     0
1000
MTEXTEND
1000
MTEXTBEGIN
1070
    73
1070
     1
1070
    44
1040
1.0
1070
    74
1070
     0
1000
MTEXTEND
1000
MTEXTBEGIN
1070
    73
1070
     1
1070
    44
1040
1.0
1070
    74
1070
     0
1000
MTEXTEND
1000
MTEXTBEGIN
1070
    73
1070
     1
1070
    44
1040
1.0
1070
    74
1070
     0
1000
MTEXTEND
1000
MTEXTBEGIN
1070
    73
1070
     1
1070
    44
1040
1.0
1070
    74
1070
     0
1000
MTEXTEND
1000
MTEXTBEGIN
1070
    73
1070
     1
1070
    44
1040
1.0
1070
    74
1070
     0
1000
MTEXTEND
1000
MTEXTBEGIN
1070
    73
1070
     1
1070
    44
1040
1.0
1070
    74
1070
     0
1000
MTEXTEND
  0
POINT
  5
494C
330
4507
100
AcDbEntity
  8
Defpoints
  6
Continuous
 62
     0
100
AcDbPoint
 10
22.5
 20
-224.0000000000401
 30
0.0
  0
POINT
  5
494D
330
4507
100
AcDbEntity
  8
Defpoints
  6
Continuous
 62
     0
100
AcDbPoint
 10
22.5
 20
-276.0
 30
0.0
  0
POINT
  5
494E
330
4507
100
AcDbEntity
  8
Defpoints
  6
Continuous
 62
     0
100
AcDbPoint
 10
96.58235032423302
 20
-276.0
 30
0.0
  0
ENDBLK
  5
4512
330
4507
100
AcDbEntity
  8
0
 62
     2
100
AcDbBlockEnd
  0
BLOCK
  5
4529
330
451F
100
AcDbEntity
  8
0
 62
     2
100
AcDbBlockBegin
  2
*D27
 70
     1
 10
0.0
 20
0.0
 30
0.0
  3
*D27
  1

  0
LINE
  5
49EE
330
451F
100
AcDbEntity
  8
30
  6
Continuous
 62
     0
370
    -2
100
AcDbLine
 10
146.1316216803829
 20
-210.0000000000401
 30
0.0
 11
170.2072853680455
 21
-210.0000000000401
 31
0.0
  0
LINE
  5
49EF
330
451F
100
AcDbEntity
  8
30
  6
Continuous
 62
     0
370
    -2
100
AcDbLine
 10
146.1316216803829
 20
-290.0
 30
0.0
 11
170.2072853680455
 21
-290.0
 31
0.0
  0
LINE
  5
49F0
330
451F
100
AcDbEntity
  8
30
  6
Continuous
 62
     0
370
    -2
100
AcDbLine
 10
169.7072853680454
 20
-212.0000000000401
 30
0.0
 11
169.7072853680454
 21
-288.0
 31
0.0
  0
INSERT
  5
49F1
330
451F
100
AcDbEntity
  8
30
  6
Continuous
 62
     0
370
    -2
100
AcDbBlockReference
  2
_Open
 10
169.7072853680454
 20
-210.0000000000401
 30
0.0
 41
2.0
 42
2.0
 43
2.0
 50
90.0
  0
INSERT
  5
49F2
330
451F
100
AcDbEntity
  8
30
  6
Continuous
 62
     0
370
    -2
100
AcDbBlockReference
  2
_Open
 10
169.7072853680454
 20
-290.0
 30
0.0
 41
2.0
 42
2.0
 43
2.0
 50
270.0
  0
MTEXT
  5
49F3
330
451F
100
AcDbEntity
  8
30
  6
Continuous
 62
     0
100
AcDbMText
 10
166.7072853680455
 20
-251.1189196997573
 30
0.0
 40
4.0
 41
0.0
 71
     5
 72
     1
  1
\A1;80
 11
0.0000000000000001
 21
1.0
 31
0.0
 73
     1
 44
1.0
1001
ACAD
1000
MTEXTBEGIN
1070
    73
1070
     1
1070
    44
1040
1.0
1070
    74
1070
     0
1000
MTEXTEND
1000
MTEXTBEGIN
1070
    73
1070
     1
1070
    44
1040
1.0
1070
    74
1070
     0
1000
MTEXTEND
1000
MTEXTBEGIN
1070
    73
1070
     1
1070
    44
1040
1.0
1070
    74
1070
     0
1000
MTEXTEND
1000
MTEXTBEGIN
1070
    73
1070
     1
1070
    44
1040
1.0
1070
    74
1070
     0
1000
MTEXTEND
1000
MTEXTBEGIN
1070
    73
1070
     1
1070
    44
1040
1.0
1070
    74
1070
     0
1000
MTEXTEND
1000
MTEXTBEGIN
1070
    73
1070
     1
1070
    44
1040
1.0
1070
    74
1070
     0
1000
MTEXTEND
1000
MTEXTBEGIN
1070
    73
1070
     1
1070
    44
1040
1.0
1070
    74
1070
     0
1000
MTEXTEND
1000
MTEXTBEGIN
1070
    73
1070
     1
1070
    44
1040
1.0
1070
    74
1070
     0
1000
MTEXTEND
1000
MTEXTBEGIN
1070
    73
1070
     1
1070
    44
1040
1.0
1070
    74
1070
     0
1000
MTEXTEND
1000
MTEXTBEGIN
1070
    73
1070
     1
1070
    44
1040
1.0
1070
    74
1070
     0
1000
MTEXTEND
1000
MTEXTBEGIN
1070
    73
1070
     1
1070
    44
1040
1.0
1070
    74
1070
     0
1000
MTEXTEND
1000
MTEXTBEGIN
1070
    73
1070
     1
1070
    44
1040
1.0
1070
    74
1070
     0
1000
MTEXTEND
1000
MTEXTBEGIN
1070
    73
1070
     1
1070
    44
1040
1.0
1070
    74
1070
     0
1000
MTEXTEND
  0
POINT
  5
49F4
330
451F
100
AcDbEntity
  8
Defpoints
  6
Continuous
 62
     0
100
AcDbPoint
 10
145.1316216803829
 20
-210.0000000000401
 30
0.0
  0
POINT
  5
49F5
330
451F
100
AcDbEntity
  8
Defpoints
  6
Continuous
 62
     0
100
AcDbPoint
 10
145.1316216803829
 20
-290.0
 30
0.0
  0
POINT
  5
49F6
330
451F
100
AcDbEntity
  8
Defpoints
  6
Continuous
 62
     0
100
AcDbPoint
 10
169.7072853680454
 20
-290.0
 30
0.0
  0
ENDBLK
  5
452A
330
451F
100
AcDbEntity
  8
0
 62
     2
100
AcDbBlockEnd
  0
BLOCK
  5
4535
330
452B
100
AcDbEntity
  8
0
 62
     2
100
AcDbBlockBegin
  2
*D28
 70
     1
 10
0.0
 20
0.0
 30
0.0
  3
*D28
  1

  0
LINE
  5
49E5
330
452B
100
AcDbEntity
  8
30
  6
Continuous
 62
     0
370
    -2
100
AcDbLine
 10
137.2381158209827
 20
-208.9063720703401
 30
0.0
 11
137.2381158209827
 21
-202.2754462045248
 31
0.0
  0
LINE
  5
49E6
330
452B
100
AcDbEntity
  8
30
  6
Continuous
 62
     0
370
    -2
100
AcDbLine
 10
152.2381158209827
 20
-208.9063720703401
 30
0.0
 11
152.2381158209827
 21
-202.2754462045248
 31
0.0
  0
LINE
  5
49E7
330
452B
100
AcDbEntity
  8
30
  6
Continuous
 62
     0
370
    -2
100
AcDbLine
 10
139.2381158209827
 20
-202.7754462045249
 30
0.0
 11
150.2381158209827
 21
-202.7754462045249
 31
0.0
  0
INSERT
  5
49E8
330
452B
100
AcDbEntity
  8
30
  6
Continuous
 62
     0
370
    -2
100
AcDbBlockReference
  2
_Open
 10
137.2381158209827
 20
-202.7754462045249
 30
0.0
 41
2.0
 42
2.0
 43
2.0
 50
180.0
  0
INSERT
  5
49E9
330
452B
100
AcDbEntity
  8
30
  6
Continuous
 62
     0
370
    -2
100
AcDbBlockReference
  2
_Open
 10
152.2381158209827
 20
-202.7754462045249
 30
0.0
 41
2.0
 42
2.0
 43
2.0
  0
MTEXT
  5
49EA
330
452B
100
AcDbEntity
  8
30
  6
Continuous
 62
     0
100
AcDbMText
 10
142.9867642788308
 20
-199.7754462045248
 30
0.0
 40
4.0
 41
0.0
 71
     5
 72
     1
  1
\A1;15
 73
     1
 44
1.0
1001
ACAD
1000
MTEXTBEGIN
1070
    73
1070
     1
1070
    44
1040
1.0
1070
    74
1070
     0
1000
MTEXTEND
1000
MTEXTBEGIN
1070
    73
1070
     1
1070
    44
1040
1.0
1070
    74
1070
     0
1000
MTEXTEND
1000
MTEXTBEGIN
1070
    73
1070
     1
1070
    44
1040
1.0
1070
    74
1070
     0
1000
MTEXTEND
1000
MTEXTBEGIN
1070
    73
1070
     1
1070
    44
1040
1.0
1070
    74
1070
     0
1000
MTEXTEND
1000
MTEXTBEGIN
1070
    73
1070
     1
1070
    44
1040
1.0
1070
    74
1070
     0
1000
MTEXTEND
1000
MTEXTBEGIN
1070
    73
1070
     1
1070
    44
1040
1.0
1070
    74
1070
     0
1000
MTEXTEND
1000
MTEXTBEGIN
1070
    73
1070
     1
1070
    44
1040
1.0
1070
    74
1070
     0
1000
MTEXTEND
1000
MTEXTBEGIN
1070
    73
1070
     1
1070
    44
1040
1.0
1070
    74
1070
     0
1000
MTEXTEND
1000
MTEXTBEGIN
1070
    73
1070
     1
1070
    44
1040
1.0
1070
    74
1070
     0
1000
MTEXTEND
1000
MTEXTBEGIN
1070
    73
1070
     1
1070
    44
1040
1.0
1070
    74
1070
     0
1000
MTEXTEND
1000
MTEXTBEGIN
1070
    73
1070
     1
1070
    44
1040
1.0
1070
    74
1070
     0
1000
MTEXTEND
1000
MTEXTBEGIN
1070
    73
1070
     1
1070
    44
1040
1.0
1070
    74
1070
     0
1000
MTEXTEND
1000
MTEXTBEGIN
1070
    73
1070
     1
1070
    44
1040
1.0
1070
    74
1070
     0
1000
MTEXTEND
  0
POINT
  5
49EB
330
452B
100
AcDbEntity
  8
Defpoints
  6
Continuous
 62
     0
100
AcDbPoint
 10
137.2381158209827
 20
-209.9063720703401
 30
0.0
  0
POINT
  5
49EC
330
452B
100
AcDbEntity
  8
Defpoints
  6
Continuous
 62
     0
100
AcDbPoint
 10
152.2381158209827
 20
-209.9063720703401
 30
0.0
  0
POINT
  5
49ED
330
452B
100
AcDbEntity
  8
Defpoints
  6
Continuous
 62
     0
100
AcDbPoint
 10
152.2381158209827
 20
-202.7754462045249
 30
0.0
  0
ENDBLK
  5
4536
330
452B
100
AcDbEntity
  8
0
 62
     2
100
AcDbBlockEnd
  0
BLOCK
  5
49A0
330
4996
100
AcDbEntity
  8
0
 62
     2
100
AcDbBlockBegin
  2
*D29
 70
     1
 10
0.0
 20
0.0
 30
0.0
  3
*D29
  1

  0
LINE
  5
49A2
330
4996
100
AcDbEntity
  8
30
  6
Continuous
 62
     0
370
    -2
100
AcDbLine
 10
-38.5
 20
-250.0
 30
0.0
 11
-48.09327709026638
 21
-250.0
 31
0.0
  0
LINE
  5
49A3
330
4996
100
AcDbEntity
  8
30
  6
Continuous
 62
     0
370
    -2
100
AcDbLine
 10
-38.5
 20
-268.0
 30
0.0
 11
-48.09327709026638
 21
-268.0
 31
0.0
  0
LINE
  5
49A4
330
4996
100
AcDbEntity
  8
30
  6
Continuous
 62
     0
370
    -2
100
AcDbLine
 10
-47.59327709026638
 20
-252.0
 30
0.0
 11
-47.59327709026638
 21
-266.0
 31
0.0
  0
INSERT
  5
49A5
330
4996
100
AcDbEntity
  8
30
  6
Continuous
 62
     0
370
    -2
100
AcDbBlockReference
  2
_Open
 10
-47.59327709026638
 20
-250.0
 30
0.0
 41
2.0
 42
2.0
 43
2.0
 50
90.0
  0
INSERT
  5
49A6
330
4996
100
AcDbEntity
  8
30
  6
Continuous
 62
     0
370
    -2
100
AcDbBlockReference
  2
_Open
 10
-47.59327709026638
 20
-268.0
 30
0.0
 41
2.0
 42
2.0
 43
2.0
 50
270.0
  0
MTEXT
  5
49A7
330
4996
100
AcDbEntity
  8
30
  6
Continuous
 62
     0
100
AcDbMText
 10
-50.59327709026634
 20
-259.0
 30
0.0
 40
4.0
 41
0.0
 71
     5
 72
     1
  1
\A1;18
 11
0.0000000000000001
 21
1.0
 31
0.0
 73
     1
 44
1.0
1001
ACAD
1000
MTEXTBEGIN
1070
    73
1070
     1
1070
    44
1040
1.0
1070
    74
1070
     0
1000
MTEXTEND
1000
MTEXTBEGIN
1070
    73
1070
     1
1070
    44
1040
1.0
1070
    74
1070
     0
1000
MTEXTEND
1000
MTEXTBEGIN
1070
    73
1070
     1
1070
    44
1040
1.0
1070
    74
1070
     0
1000
MTEXTEND
1000
MTEXTBEGIN
1070
    73
1070
     1
1070
    44
1040
1.0
1070
    74
1070
     0
1000
MTEXTEND
1000
MTEXTBEGIN
1070
    73
1070
     1
1070
    44
1040
1.0
1070
    74
1070
     0
1000
MTEXTEND
1000
MTEXTBEGIN
1070
    73
1070
     1
1070
    44
1040
1.0
1070
    74
1070
     0
1000
MTEXTEND
1000
MTEXTBEGIN
1070
    73
1070
     1
1070
    44
1040
1.0
1070
    74
1070
     0
1000
MTEXTEND
1000
MTEXTBEGIN
1070
    73
1070
     1
1070
    44
1040
1.0
1070
    74
1070
     0
1000
MTEXTEND
1000
MTEXTBEGIN
1070
    73
1070
     1
1070
    44
1040
1.0
1070
    74
1070
     0
1000
MTEXTEND
1000
MTEXTBEGIN
1070
    73
1070
     1
1070
    44
1040
1.0
1070
    74
1070
     0
1000
MTEXTEND
1000
MTEXTBEGIN
1070
    73
1070
     1
1070
    44
1040
1.0
1070
    74
1070
     0
1000
MTEXTEND
1000
MTEXTBEGIN
1070
    73
1070
     1
1070
    44
1040
1.0
1070
    74
1070
     0
1000
MTEXTEND
1000
MTEXTBEGIN
1070
    73
1070
     1
1070
    44
1040
1.0
1070
    74
1070
     0
1000
MTEXTEND
  0
POINT
  5
49A8
330
4996
100
AcDbEntity
  8
Defpoints
  6
Continuous
 62
     0
100
AcDbPoint
 10
-37.5
 20
-250.0
 30
0.0
  0
POINT
  5
49A9
330
4996
100
AcDbEntity
  8
Defpoints
  6
Continuous
 62
     0
100
AcDbPoint
 10
-37.5
 20
-268.0
 30
0.0
  0
POINT
  5
49AA
330
4996
100
AcDbEntity
  8
Defpoints
  6
Continuous
 62
     0
100
AcDbPoint
 10
-47.59327709026638
 20
-268.0
 30
0.0
  0
ENDBLK
  5
49A1
330
4996
100
AcDbEntity
  8
0
 62
     2
100
AcDbBlockEnd
  0
BLOCK
  5
49B6
330
49AC
100
AcDbEntity
  8
0
 62
     2
100
AcDbBlockBegin
  2
*D30
 70
     1
 10
0.0
 20
0.0
 30
0.0
  3
*D30
  1

  0
LINE
  5
49B8
330
49AC
100
AcDbEntity
  8
30
  6
Continuous
 62
     0
370
    -2
100
AcDbLine
 10
-37.5
 20
-343.5
 30
0.0
 11
-37.5
 21
-358.0026263657791
 31
0.0
  0
LINE
  5
49B9
330
49AC
100
AcDbEntity
  8
30
  6
Continuous
 62
     0
370
    -2
100
AcDbLine
 10
37.5
 20
-343.5
 30
0.0
 11
37.5
 21
-358.0026263657791
 31
0.0
  0
LINE
  5
49BA
330
49AC
100
AcDbEntity
  8
30
  6
Continuous
 62
     0
370
    -2
100
AcDbLine
 10
-35.5
 20
-357.5026263657791
 30
0.0
 11
35.5
 21
-357.5026263657791
 31
0.0
  0
INSERT
  5
49BB
330
49AC
100
AcDbEntity
  8
30
  6
Continuous
 62
     0
370
    -2
100
AcDbBlockReference
  2
_Open
 10
-37.5
 20
-357.5026263657791
 30
0.0
 41
2.0
 42
2.0
 43
2.0
 50
180.0
  0
INSERT
  5
49BC
330
49AC
100
AcDbEntity
  8
30
  6
Continuous
 62
     0
370
    -2
100
AcDbBlockReference
  2
_Open
 10
37.5
 20
-357.5026263657791
 30
0.0
 41
2.0
 42
2.0
 43
2.0
  0
MTEXT
  5
49BD
330
49AC
100
AcDbEntity
  8
30
  6
Continuous
 62
     0
100
AcDbMText
 10
0.0000000000000002
 20
-354.5026263657792
 30
0.0
 40
4.0
 41
0.0
 71
     5
 72
     1
  1
\A1;75
 73
     1
 44
1.0
1001
ACAD
1000
MTEXTBEGIN
1070
    73
1070
     1
1070
    44
1040
1.0
1070
    74
1070
     0
1000
MTEXTEND
1000
MTEXTBEGIN
1070
    73
1070
     1
1070
    44
1040
1.0
1070
    74
1070
     0
1000
MTEXTEND
1000
MTEXTBEGIN
1070
    73
1070
     1
1070
    44
1040
1.0
1070
    74
1070
     0
1000
MTEXTEND
1000
MTEXTBEGIN
1070
    73
1070
     1
1070
    44
1040
1.0
1070
    74
1070
     0
1000
MTEXTEND
1000
MTEXTBEGIN
1070
    73
1070
     1
1070
    44
1040
1.0
1070
    74
1070
     0
1000
MTEXTEND
1000
MTEXTBEGIN
1070
    73
1070
     1
1070
    44
1040
1.0
1070
    74
1070
     0
1000
MTEXTEND
1000
MTEXTBEGIN
1070
    73
1070
     1
1070
    44
1040
1.0
1070
    74
1070
     0
1000
MTEXTEND
1000
MTEXTBEGIN
1070
    73
1070
     1
1070
    44
1040
1.0
1070
    74
1070
     0
1000
MTEXTEND
1000
MTEXTBEGIN
1070
    73
1070
     1
1070
    44
1040
1.0
1070
    74
1070
     0
1000
MTEXTEND
1000
MTEXTBEGIN
1070
    73
1070
     1
1070
    44
1040
1.0
1070
    74
1070
     0
1000
MTEXTEND
1000
MTEXTBEGIN
1070
    73
1070
     1
1070
    44
1040
1.0
1070
    74
1070
     0
1000
MTEXTEND
1000
MTEXTBEGIN
1070
    73
1070
     1
1070
    44
1040
1.0
1070
    74
1070
     0
1000
MTEXTEND
1000
MTEXTBEGIN
1070
    73
1070
     1
1070
    44
1040
1.0
1070
    74
1070
     0
1000
MTEXTEND
  0
POINT
  5
49BE
330
49AC
100
AcDbEntity
  8
Defpoints
  6
Continuous
 62
     0
100
AcDbPoint
 10
-37.5
 20
-342.5
 30
0.0
  0
POINT
  5
49BF
330
49AC
100
AcDbEntity
  8
Defpoints
  6
Continuous
 62
     0
100
AcDbPoint
 10
37.5
 20
-342.5
 30
0.0
  0
POINT
  5
49C0
330
49AC
100
AcDbEntity
  8
Defpoints
  6
Continuous
 62
     0
100
AcDbPoint
 10
37.5
 20
-357.5026263657791
 30
0.0
  0
ENDBLK
  5
49B7
330
49AC
100
AcDbEntity
  8
0
 62
     2
100
AcDbBlockEnd
  0
BLOCK
  5
4C01
330
4BF7
100
AcDbEntity
  8
0
 62
     2
100
AcDbBlockBegin
  2
*D31
 70
     1
 10
0.0
 20
0.0
 30
0.0
  3
*D31
  1

  0
LINE
  5
4C27
330
4BF7
100
AcDbEntity
  8
30
  6
Continuous
 62
     0
370
    -2
100
AcDbLine
 10
227.3937097878775
 20
-64.0
 30
0.0
 11
227.3937097878775
 21
-80.58472578719761
 31
0.0
  0
LINE
  5
4C28
330
4BF7
100
AcDbEntity
  8
30
  6
Continuous
 62
     0
370
    -2
100
AcDbLine
 10
251.3937097878776
 20
-64.0
 30
0.0
 11
251.3937097878776
 21
-80.58472578719761
 31
0.0
  0
LINE
  5
4C29
330
4BF7
100
AcDbEntity
  8
30
  6
Continuous
 62
     0
370
    -2
100
AcDbLine
 10
229.3937097878775
 20
-80.08472578719761
 30
0.0
 11
249.3937097878776
 21
-80.08472578719761
 31
0.0
  0
INSERT
  5
4C2A
330
4BF7
100
AcDbEntity
  8
30
  6
Continuous
 62
     0
370
    -2
100
AcDbBlockReference
  2
_Open
 10
227.3937097878775
 20
-80.08472578719761
 30
0.0
 41
2.0
 42
2.0
 43
2.0
 50
180.0
  0
INSERT
  5
4C2B
330
4BF7
100
AcDbEntity
  8
30
  6
Continuous
 62
     0
370
    -2
100
AcDbBlockReference
  2
_Open
 10
251.3937097878776
 20
-80.08472578719761
 30
0.0
 41
2.0
 42
2.0
 43
2.0
  0
MTEXT
  5
4C2C
330
4BF7
100
AcDbEntity
  8
30
  6
Continuous
 62
     0
100
AcDbMText
 10
239.3937097878775
 20
-77.08472578719761
 30
0.0
 40
4.0
 41
0.0
 71
     5
 72
     1
  1
\A1;24
 73
     1
 44
1.0
1001
ACAD
1000
MTEXTBEGIN
1070
    73
1070
     1
1070
    44
1040
1.0
1070
    74
1070
     0
1000
MTEXTEND
1000
MTEXTBEGIN
1070
    73
1070
     1
1070
    44
1040
1.0
1070
    74
1070
     0
1000
MTEXTEND
1000
MTEXTBEGIN
1070
    73
1070
     1
1070
    44
1040
1.0
1070
    74
1070
     0
1000
MTEXTEND
1000
MTEXTBEGIN
1070
    73
1070
     1
1070
    44
1040
1.0
1070
    74
1070
     0
1000
MTEXTEND
1000
MTEXTBEGIN
1070
    73
1070
     1
1070
    44
1040
1.0
1070
    74
1070
     0
1000
MTEXTEND
1000
MTEXTBEGIN
1070
    73
1070
     1
1070
    44
1040
1.0
1070
    74
1070
     0
1000
MTEXTEND
1000
MTEXTBEGIN
1070
    73
1070
     1
1070
    44
1040
1.0
1070
    74
1070
     0
1000
MTEXTEND
1000
MTEXTBEGIN
1070
    73
1070
     1
1070
    44
1040
1.0
1070
    74
1070
     0
1000
MTEXTEND
1000
MTEXTBEGIN
1070
    73
1070
     1
1070
    44
1040
1.0
1070
    74
1070
     0
1000
MTEXTEND
  0
POINT
  5
4C2D
330
4BF7
100
AcDbEntity
  8
Defpoints
  6
Continuous
 62
     0
100
AcDbPoint
 10
227.3937097878775
 20
-63.0
 30
0.0
  0
POINT
  5
4C2E
330
4BF7
100
AcDbEntity
  8
Defpoints
  6
Continuous
 62
     0
100
AcDbPoint
 10
251.3937097878776
 20
-63.0
 30
0.0
  0
POINT
  5
4C2F
330
4BF7
100
AcDbEntity
  8
Defpoints
  6
Continuous
 62
     0
100
AcDbPoint
 10
251.3937097878776
 20
-80.08472578719761
 30
0.0
  0
ENDBLK
  5
4C02
330
4BF7
100
AcDbEntity
  8
0
 62
     2
100
AcDbBlockEnd
  0
ENDSEC
  0
SECTION
  2
ENTITIES
  0
LINE
  5
B4
330
1E
100
AcDbEntity
  8
16
100
AcDbLine
 10
0.0
 20
-68.69789102999789
 30
0.0
 11
0.0
 21
71.25
 31
0.0
  0
LINE
  5
B5
330
1E
100
AcDbEntity
  8
16
100
AcDbLine
 10
48.42412760807778
 20
0.0000000000000071
 30
0.0
 11
-56.60868885537142
 21
0.0
 31
0.0
  0
DIMENSION
  5
BD8
330
1E
100
AcDbEntity
  8
30
  6
Continuous
100
AcDbDimension
  2
*D1
 10
98.52798892013472
 20
146.6332949700004
 30
0.0
 11
98.52798892013471
 21
141.6332949700004
 31
0.0
 70
   160
  1
max10
 71
     5
 42
-1.0
  3
Standard
100
AcDbAlignedDimension
 13
89.42992402192158
 23
136.6332949700004
 33
0.0
 14
90.42992402192158
 24
146.6332949700004
 34
0.0
 50
90.0
100
AcDbRotatedDimension
  0
MTEXT
  5
BF3
330
1E
100
AcDbEntity
  8
24
  6
Continuous
100
AcDbMText
 10
142.1181906098743
 20
177.5
 30
0.0
 40
3.0
 41
0.0
 71
     1
 72
     1
  1
\A1;
 73
     1
 44
1.0
1001
ACAD
1000
MTEXTBEGIN
1070
    73
1070
     1
1070
    44
1040
1.0
1070
    74
1070
     0
1000
MTEXTEND
1000
MTEXTBEGIN
1070
    73
1070
     1
1070
    44
1040
1.0
1070
    74
1070
     0
1000
MTEXTEND
1000
MTEXTBEGIN
1070
    73
1070
     1
1070
    44
1040
1.0
1070
    74
1070
     0
1000
MTEXTEND
1000
MTEXTBEGIN
1070
    73
1070
     1
1070
    44
1040
1.0
1070
    74
1070
     0
1000
MTEXTEND
1000
MTEXTBEGIN
1070
    73
1070
     1
1070
    44
1040
1.0
1070
    74
1070
     0
1000
MTEXTEND
1000
MTEXTBEGIN
1070
    73
1070
     1
1070
    44
1040
1.0
1070
    74
1070
     0
1000
MTEXTEND
1000
MTEXTBEGIN
1070
    73
1070
     1
1070
    44
1040
1.0
1070
    74
1070
     0
1000
MTEXTEND
1000
MTEXTBEGIN
1070
    73
1070
     1
1070
    44
1040
1.0
1070
    74
1070
     0
1000
MTEXTEND
1000
MTEXTBEGIN
1070
    73
1070
     1
1070
    44
1040
1.0
1070
    74
1070
     0
1000
MTEXTEND
1000
MTEXTBEGIN
1070
    73
1070
     1
1070
    44
1040
1.0
1070
    74
1070
     0
1000
MTEXTEND
1000
MTEXTBEGIN
1070
    73
1070
     1
1070
    44
1040
1.0
1070
    74
1070
     0
1000
MTEXTEND
1000
MTEXTBEGIN
1070
    73
1070
     1
1070
    44
1040
1.0
1070
    74
1070
     0
1000
MTEXTEND
1000
MTEXTBEGIN
1070
    73
1070
     1
1070
    44
1040
1.0
1070
    74
1070
     0
1000
MTEXTEND
1000
MTEXTBEGIN
1070
    73
1070
     1
1070
    44
1040
1.0
1070
    74
1070
     0
1000
MTEXTEND
1000
MTEXTBEGIN
1070
    73
1070
     1
1070
    44
1040
1.0
1070
    74
1070
     0
1000
MTEXTEND
1000
MTEXTBEGIN
1070
    73
1070
     1
1070
    44
1040
1.0
1070
    74
1070
     0
1000
MTEXTEND
1000
MTEXTBEGIN
1070
    73
1070
     1
1070
    44
1040
1.0
1070
    74
1070
     0
1000
MTEXTEND
1000
MTEXTBEGIN
1070
    73
1070
     1
1070
    44
1040
1.0
1070
    74
1070
     0
1000
MTEXTEND
1000
MTEXTBEGIN
1070
    73
1070
     1
1070
    44
1040
1.0
1070
    74
1070
     0
1000
MTEXTEND
1000
MTEXTBEGIN
1070
    73
1070
     1
1070
    44
1040
1.0
1070
    74
1070
     0
1000
MTEXTEND
1000
MTEXTBEGIN
1070
    73
1070
     1
1070
    44
1040
1.0
1070
    74
1070
     0
1000
MTEXTEND
1000
MTEXTBEGIN
1070
    73
1070
     1
1070
    44
1040
1.0
1070
    74
1070
     0
1000
MTEXTEND
1000
MTEXTBEGIN
1070
    73
1070
     1
1070
    44
1040
1.0
1070
    74
1070
     0
1000
MTEXTEND
1000
MTEXTBEGIN
1070
    73
1070
     1
1070
    44
1040
1.0
1070
    74
1070
     0
1000
MTEXTEND
1000
MTEXTBEGIN
1070
    73
1070
     1
1070
    44
1040
1.0
1070
    74
1070
     0
1000
MTEXTEND
1000
MTEXTBEGIN
1070
    73
1070
     1
1070
    44
1040
1.0
1070
    74
1070
     0
1000
MTEXTEND
1000
MTEXTBEGIN
1070
    73
1070
     1
1070
    44
1040
1.0
1070
    74
1070
     0
1000
MTEXTEND
1000
MTEXTBEGIN
1070
    73
1070
     1
1070
    44
1040
1.0
1070
    74
1070
     0
1000
MTEXTEND
  0
TEXT
  5
BF4
330
1E
100
AcDbEntity
  8
30
  6
Continuous
100
AcDbText
 10
95.42362839032415
 20
125.1893602808879
 30
0.0
 40
4.0
  1
%%C6.5
100
AcDbText
  0
DIMENSION
  5
BFF
330
1E
100
AcDbEntity
  8
30
  6
Continuous
100
AcDbDimension
  2
*D2
 10
89.42992402192158
 20
129.9831247421683
 30
0.0
 11
63.09659068858825
 21
129.9831247421683
 31
0.0
 70
   160
  1
max\P18
 71
     5
 42
-1.0
  3
Standard
100
AcDbAlignedDimension
 13
71.42992402192158
 23
136.6332949700004
 33
0.0
 14
89.42992402192158
 24
136.6332949700004
 34
0.0
100
AcDbRotatedDimension
  0
LEADER
  5
C4F
330
1E
100
AcDbEntity
  8
30
  6
Continuous
100
AcDbLeader
  3
Standard
 76
     3
 10
80.67992402192158
 20
145.6332949700004
 30
0.0
 10
93.17992402192158
 20
123.6332949700004
 30
0.0
 10
105.1799240219215
 20
123.6332949700004
 30
0.0
1001
ACAD
1000
DSTYLE
1002
{
1070
     5
1000
OPEN
1070
   342
1005
3B2
1002
}
  0
LINE
  5
151E
330
1E
100
AcDbEntity
  8
17
  6
DASHDOT
100
AcDbLine
 10
70.42992402192158
 20
146.6332949700004
 30
0.0
 11
90.42992402192158
 21
146.6332949700004
 31
0.0
  0
LINE
  5
1C9B
330
1E
100
AcDbEntity
  8
16
100
AcDbLine
 10
224.1890316890183
 20
0.0
 30
0.0
 11
116.3937097878775
 21
0.0
 31
0.0
  0
LINE
  5
2260
330
1E
100
AcDbEntity
  8
16
100
AcDbLine
 10
48.42412760807775
 20
-250.0
 30
0.0
 11
-56.60868885537144
 21
-250.0
 31
0.0
  0
LINE
  5
2261
330
1E
100
AcDbEntity
  8
16
100
AcDbLine
 10
0.0
 20
-318.6978910299978
 30
0.0
 11
0.0
 21
-178.75
 31
0.0
  0
DIMENSION
  5
277A
330
1E
100
AcDbEntity
  8
30
  6
Continuous
100
AcDbDimension
  2
*D3
 10
-62.71059092053771
 20
-65.00000000004013
 30
0.0
 11
-62.7105909205377
 21
-2.294738000040183
 31
0.0
 70
   160
 71
     5
 42
-1.0
  3
Standard
100
AcDbAlignedDimension
 13
-37.5
 23
64.99999999995987
 33
0.0
 14
-37.5
 24
-65.00000000004013
 34
0.0
 50
90.0
100
AcDbRotatedDimension
  0
DIMENSION
  5
277B
330
1E
100
AcDbEntity
  8
30
  6
Continuous
100
AcDbDimension
  2
*D4
 10
-53.79999999999985
 20
-55.00000000004012
 30
0.0
 11
-53.79999999999984
 21
-2.047059000039667
 31
0.0
 70
   160
 71
     5
 42
-1.0
  3
Standard
100
AcDbAlignedDimension
 13
-37.5
 23
54.99999999995987
 33
0.0
 14
-37.5
 24
-55.00000000004013
 34
0.0
 50
90.0
100
AcDbRotatedDimension
  0
CIRCLE
  5
33CD
330
1E
100
AcDbEntity
  8
24
  6
Continuous
100
AcDbCircle
 10
80.42992402192158
 20
146.6332949700004
 30
0.0
 40
6.5
  0
LINE
  5
33CE
330
1E
100
AcDbEntity
  8
17
  6
DASHDOT
100
AcDbLine
 10
80.42992402192158
 20
159.2678169700002
 30
0.0
 11
80.42992402192158
 21
132.1972599700002
 31
0.0
  0
LINE
  5
33CF
330
1E
100
AcDbEntity
  8
24
  6
Continuous
100
AcDbLine
 10
89.42992402192158
 20
186.0764308630129
 30
0.0
 11
89.42992402192158
 21
136.6332949700004
 31
0.0
  0
LINE
  5
33D0
330
1E
100
AcDbEntity
  8
24
  6
Continuous
100
AcDbLine
 10
71.42992402192158
 20
186.0764308630129
 30
0.0
 11
71.42992402192158
 21
136.6332949700004
 31
0.0
  0
LINE
  5
33D5
330
1E
100
AcDbEntity
  8
24
  6
Continuous
100
AcDbLine
 10
71.42992402192158
 20
136.6332949700004
 30
0.0
 11
89.42992402192158
 21
136.6332949700004
 31
0.0
  0
LINE
  5
33D6
330
1E
100
AcDbEntity
  8
24
  6
Continuous
100
AcDbLine
 10
89.42992402192158
 20
186.0764308630129
 30
0.0
 11
71.42992402192158
 21
186.0764308630129
 31
0.0
  0
DIMENSION
  5
38EA
330
1E
100
AcDbEntity
  8
30
  6
Continuous
100
AcDbDimension
  2
*D5
 10
-45.99259766323302
 20
-32.00000000004013
 30
0.0
 11
-48.99259766323302
 21
-0.0000000000401354
 31
0.0
 70
    32
 71
     5
 42
-1.0
  3
Standard
100
AcDbAlignedDimension
 13
-37.5
 23
31.99999999995986
 33
0.0
 14
-37.5
 24
-32.00000000004013
 34
0.0
 50
90.0
100
AcDbRotatedDimension
  0
LINE
  5
3B88
330
1E
100
AcDbEntity
  8
10
  6
CONTINOUS
100
AcDbLine
 10
37.5
 20
-92.5
 30
0.0
 11
37.5
 21
87.49999999995987
 31
0.0
  0
LINE
  5
3B89
330
1E
100
AcDbEntity
  8
10
  6
CONTINOUS
100
AcDbLine
 10
-37.5
 20
-92.5
 30
0.0
 11
-37.5
 21
87.49999999995987
 31
0.0
  0
LINE
  5
3B8A
330
1E
100
AcDbEntity
  8
17
  6
DASHDOT
100
AcDbLine
 10
-25.0
 20
-45.0
 30
0.0
 11
-25.0
 21
-70.0
 31
0.0
  0
LINE
  5
3B8B
330
1E
100
AcDbEntity
  8
17
  6
DASHDOT
100
AcDbLine
 10
25.0
 20
-45.0
 30
0.0
 11
25.0
 21
-70.0
 31
0.0
  0
LINE
  5
3B8C
330
1E
100
AcDbEntity
  8
10
  6
CONTINOUS
100
AcDbLine
 10
-14.5
 20
-92.5
 30
0.0
 11
-37.5
 21
-92.5
 31
0.0
  0
LINE
  5
3B8D
330
1E
100
AcDbEntity
  8
10
  6
CONTINOUS
100
AcDbLine
 10
-37.5
 20
-65.0
 30
0.0
 11
37.5
 21
-65.0
 31
0.0
  0
LINE
  5
3B8E
330
1E
100
AcDbEntity
  8
17
  6
DASHDOT
100
AcDbLine
 10
42.5
 20
-55.0
 30
0.0
 11
-42.5
 21
-55.0
 31
0.0
  0
CIRCLE
  5
3B8F
330
1E
100
AcDbEntity
  8
24
  6
CONTINOUS
100
AcDbCircle
 10
-25.0
 20
-55.0
 30
0.0
 40
5.400000095369932
  0
LINE
  5
3B90
330
1E
100
AcDbEntity
  8
10
  6
CONTINOUS
100
AcDbLine
 10
37.5
 20
-92.5
 30
0.0
 11
14.5
 21
-92.5
 31
0.0
  0
CIRCLE
  5
3B91
330
1E
100
AcDbEntity
  8
24
  6
CONTINOUS
100
AcDbCircle
 10
25.0
 20
-55.0
 30
0.0
 40
5.400000095369932
  0
LINE
  5
3B92
330
1E
100
AcDbEntity
  8
10
  6
CONTINOUS
100
AcDbLine
 10
-14.5
 20
-88.49999999999999
 30
0.0
 11
-14.5
 21
-92.5
 31
0.0
  0
LINE
  5
3B93
330
1E
100
AcDbEntity
  8
10
  6
CONTINOUS
100
AcDbLine
 10
-10.5
 20
-88.49999999999999
 30
0.0
 11
-10.5
 21
-92.5
 31
0.0
  0
LINE
  5
3B94
330
1E
100
AcDbEntity
  8
10
  6
CONTINOUS
100
AcDbLine
 10
-14.5
 20
-88.49999999999999
 30
0.0
 11
-10.5
 21
-88.49999999999999
 31
0.0
  0
LINE
  5
3B95
330
1E
100
AcDbEntity
  8
10
  6
CONTINOUS
100
AcDbLine
 10
10.5
 20
-92.5
 30
0.0
 11
-10.5
 21
-92.5
 31
0.0
  0
LINE
  5
3B96
330
1E
100
AcDbEntity
  8
10
  6
CONTINOUS
100
AcDbLine
 10
14.5
 20
-88.49999999999999
 30
0.0
 11
14.5
 21
-92.5
 31
0.0
  0
LINE
  5
3B97
330
1E
100
AcDbEntity
  8
10
  6
CONTINOUS
100
AcDbLine
 10
10.5
 20
-88.49999999999999
 30
0.0
 11
10.5
 21
-92.5
 31
0.0
  0
LINE
  5
3B98
330
1E
100
AcDbEntity
  8
10
  6
CONTINOUS
100
AcDbLine
 10
14.5
 20
-88.49999999999999
 30
0.0
 11
10.5
 21
-88.49999999999999
 31
0.0
  0
CIRCLE
  5
3B99
330
1E
100
AcDbEntity
  8
12
  6
DASHED
100
AcDbCircle
 10
12.5
 20
-55.5
 30
0.0
 40
2.5
  0
CIRCLE
  5
3B9A
330
1E
100
AcDbEntity
  8
24
  6
CONTINOUS
100
AcDbCircle
 10
0.0
 20
-55.0
 30
0.0
 40
5.400000095369932
  0
CIRCLE
  5
3B9B
330
1E
100
AcDbEntity
  8
12
  6
DASHED
100
AcDbCircle
 10
-12.5
 20
-55.5
 30
0.0
 40
2.5
  0
LINE
  5
3B9C
330
1E
100
AcDbEntity
  8
12
  6
DASHED
100
AcDbLine
 10
-12.5
 20
-60.5
 30
0.0
 11
-12.5
 21
-50.5
 31
0.0
  0
LINE
  5
3B9D
330
1E
100
AcDbEntity
  8
12
  6
DASHED
100
AcDbLine
 10
12.5
 20
-60.5
 30
0.0
 11
12.5
 21
-50.5
 31
0.0
  0
LINE
  5
3B9E
330
1E
100
AcDbEntity
  8
10
  6
CONTINOUS
100
AcDbLine
 10
-32.0
 20
72.49999999995987
 30
0.0
 11
-18.0
 21
72.49999999995987
 31
0.0
  0
LINE
  5
3B9F
330
1E
100
AcDbEntity
  8
17
  6
DASHDOT
100
AcDbLine
 10
42.5
 20
55.0001220703599
 30
0.0
 11
-42.5
 21
55.0001220703599
 31
0.0
  0
LINE
  5
3BA0
330
1E
100
AcDbEntity
  8
10
  6
CONTINOUS
100
AcDbLine
 10
-37.5
 20
65.0001220703599
 30
0.0
 11
37.5
 21
65.0001220703599
 31
0.0
  0
LINE
  5
3BA1
330
1E
100
AcDbEntity
  8
10
  6
CONTINOUS
100
AcDbLine
 10
-37.5
 20
31.99999999995986
 30
0.0
 11
37.5
 21
31.99999999995986
 31
0.0
  0
LINE
  5
3BA2
330
1E
100
AcDbEntity
  8
10
  6
CONTINOUS
100
AcDbLine
 10
-37.5
 20
-32.0
 30
0.0
 11
37.5
 21
-32.0
 31
0.0
  0
CIRCLE
  5
3BA4
330
1E
100
AcDbEntity
  8
24
  6
CONTINOUS
100
AcDbCircle
 10
25.0
 20
55.0001220703599
 30
0.0
 40
5.400000095369932
210
0.0
220
0.0
230
-1.0
  0
LINE
  5
3BA5
330
1E
100
AcDbEntity
  8
17
  6
DASHDOT
100
AcDbLine
 10
-25.0
 20
45.0001220703599
 30
0.0
 11
-25.0
 21
70.0001220703599
 31
0.0
  0
LINE
  5
3BA6
330
1E
100
AcDbEntity
  8
10
  6
CONTINOUS
100
AcDbLine
 10
-32.0
 20
87.49999999995987
 30
0.0
 11
-37.5
 21
87.49999999995987
 31
0.0
  0
LINE
  5
3BA7
330
1E
100
AcDbEntity
  8
10
  6
CONTINOUS
100
AcDbLine
 10
-32.0
 20
72.49999999995987
 30
0.0
 11
-32.0
 21
87.49999999995987
 31
0.0
  0
CIRCLE
  5
3BA8
330
1E
100
AcDbEntity
  8
12
  6
DASHED
100
AcDbCircle
 10
12.5
 20
55.5001220703599
 30
0.0
 40
2.5
210
0.0
220
0.0
230
-1.0
  0
LINE
  5
3BA9
330
1E
100
AcDbEntity
  8
12
  6
DASHED
100
AcDbLine
 10
-12.5
 20
50.5001220703599
 30
0.0
 11
-12.5
 21
60.5001220703599
 31
0.0
  0
CIRCLE
  5
3BAA
330
1E
100
AcDbEntity
  8
24
  6
CONTINOUS
100
AcDbCircle
 10
0.0
 20
55.0001220703599
 30
0.0
 40
5.400000095369932
210
0.0
220
0.0
230
-1.0
  0
CIRCLE
  5
3BAB
330
1E
100
AcDbEntity
  8
12
  6
DASHED
100
AcDbCircle
 10
-12.5
 20
55.5001220703599
 30
0.0
 40
2.5
210
0.0
220
0.0
230
-1.0
  0
LINE
  5
3BAC
330
1E
100
AcDbEntity
  8
12
  6
DASHED
100
AcDbLine
 10
12.5
 20
50.5001220703599
 30
0.0
 11
12.5
 21
60.5001220703599
 31
0.0
  0
CIRCLE
  5
3BAD
330
1E
100
AcDbEntity
  8
24
  6
CONTINOUS
100
AcDbCircle
 10
-25.0
 20
55.0001220703599
 30
0.0
 40
5.400000095369932
210
0.0
220
0.0
230
-1.0
  0
LINE
  5
3BAE
330
1E
100
AcDbEntity
  8
12
  6
DASHED
100
AcDbLine
 10
-12.5
 20
50.5001220703599
 30
0.0
 11
-12.5
 21
60.5001220703599
 31
0.0
  0
LINE
  5
3BAF
330
1E
100
AcDbEntity
  8
17
  6
DASHDOT
100
AcDbLine
 10
25.0
 20
45.0001220703599
 30
0.0
 11
25.0
 21
70.0001220703599
 31
0.0
  0
LINE
  5
3BB0
330
1E
100
AcDbEntity
  8
12
  6
DASHED
100
AcDbLine
 10
12.5
 20
50.5001220703599
 30
0.0
 11
12.5
 21
60.5001220703599
 31
0.0
  0
LINE
  5
3BB1
330
1E
100
AcDbEntity
  8
10
  6
CONTINOUS
100
AcDbLine
 10
-6.25
 20
23.99999999995987
 30
0.0
 11
-6.25
 21
-11.39990234375
 31
0.0
  0
LINE
  5
3BB2
330
1E
100
AcDbEntity
  8
10
  6
CONTINOUS
100
AcDbLine
 10
11.0
 20
24.99999999995987
 30
0.0
 11
11.0
 21
-25.0
 31
0.0
  0
LINE
  5
3BB3
330
1E
100
AcDbEntity
  8
10
  6
CONTINOUS
100
AcDbLine
 10
6.25
 20
23.99999999995987
 30
0.0
 11
6.25
 21
-11.39990234375
 31
0.0
  0
LINE
  5
3BB4
330
1E
100
AcDbEntity
  8
10
  6
CONTINOUS
100
AcDbLine
 10
-11.0
 20
24.99999999995987
 30
0.0
 11
-11.0
 21
-25.0
 31
0.0
  0
LINE
  5
3BB5
330
1E
100
AcDbEntity
  8
10
  6
CONTINOUS
100
AcDbLine
 10
11.0
 20
-25.0
 30
0.0
 11
-11.0
 21
-25.0
 31
0.0
  0
LINE
  5
3BB6
330
1E
100
AcDbEntity
  8
10
  6
CONTINOUS
100
AcDbLine
 10
6.25
 20
-15.5
 30
0.0
 11
6.25
 21
-23.0
 31
0.0
  0
LINE
  5
3BB7
330
1E
100
AcDbEntity
  8
10
  6
CONTINOUS
100
AcDbLine
 10
-6.25
 20
-15.5
 30
0.0
 11
-6.25
 21
-23.0
 31
0.0
  0
LINE
  5
3BB8
330
1E
100
AcDbEntity
  8
10
  6
CONTINOUS
100
AcDbLine
 10
6.25
 20
-23.0
 30
0.0
 11
-6.25
 21
-23.0
 31
0.0
  0
LINE
  5
3BB9
330
1E
100
AcDbEntity
  8
10
  6
CONTINOUS
100
AcDbLine
 10
6.25
 20
-11.39990234375
 30
0.0
 11
-6.25
 21
-11.39990234375
 31
0.0
  0
LINE
  5
3BBA
330
1E
100
AcDbEntity
  8
10
  6
CONTINOUS
100
AcDbLine
 10
6.25
 20
-15.5
 30
0.0
 11
-6.25
 21
-15.5
 31
0.0
  0
LINE
  5
3BBB
330
1E
100
AcDbEntity
  8
10
  6
CONTINOUS
100
AcDbLine
 10
11.0
 20
24.99999999995987
 30
0.0
 11
-11.0
 21
24.99999999995987
 31
0.0
  0
LINE
  5
3BBC
330
1E
100
AcDbEntity
  8
10
  6
CONTINOUS
100
AcDbLine
 10
6.25
 20
23.99999999995987
 30
0.0
 11
-6.25
 21
23.99999999995987
 31
0.0
  0
LINE
  5
3BBD
330
1E
100
AcDbEntity
  8
10
  6
CONTINOUS
100
AcDbLine
 10
6.25
 20
19.5
 30
0.0
 11
-6.25
 21
19.5
 31
0.0
  0
LINE
  5
3BBE
330
1E
100
AcDbEntity
  8
10
  6
CONTINOUS
100
AcDbLine
 10
18.0
 20
72.49999999995987
 30
0.0
 11
32.0
 21
72.49999999995987
 31
0.0
  0
LINE
  5
3BBF
330
1E
100
AcDbEntity
  8
10
  6
CONTINOUS
100
AcDbLine
 10
10.5
 20
87.49999999995987
 30
0.0
 11
7.0
 21
87.49999999995987
 31
0.0
  0
LINE
  5
3BC0
330
1E
100
AcDbEntity
  8
10
  6
CONTINOUS
100
AcDbLine
 10
-14.5
 20
87.49999999995987
 30
0.0
 11
-18.0
 21
87.49999999995987
 31
0.0
  0
LINE
  5
3BC1
330
1E
100
AcDbEntity
  8
10
  6
CONTINOUS
100
AcDbLine
 10
-10.5
 20
83.49999999995986
 30
0.0
 11
-14.5
 21
83.49999999995986
 31
0.0
  0
LINE
  5
3BC2
330
1E
100
AcDbEntity
  8
10
  6
CONTINOUS
100
AcDbLine
 10
14.5
 20
83.49999999995986
 30
0.0
 11
10.5
 21
83.49999999995986
 31
0.0
  0
LINE
  5
3BC3
330
1E
100
AcDbEntity
  8
10
  6
CONTINOUS
100
AcDbLine
 10
14.5
 20
87.49999999995987
 30
0.0
 11
14.5
 21
83.49999999995986
 31
0.0
  0
LINE
  5
3BC4
330
1E
100
AcDbEntity
  8
10
  6
CONTINOUS
100
AcDbLine
 10
10.5
 20
87.49999999995987
 30
0.0
 11
10.5
 21
83.49999999995986
 31
0.0
  0
LINE
  5
3BC5
330
1E
100
AcDbEntity
  8
10
  6
CONTINOUS
100
AcDbLine
 10
-10.5
 20
87.49999999995987
 30
0.0
 11
-10.5
 21
83.49999999995986
 31
0.0
  0
LINE
  5
3BC6
330
1E
100
AcDbEntity
  8
10
  6
CONTINOUS
100
AcDbLine
 10
-14.5
 20
87.49999999995987
 30
0.0
 11
-14.5
 21
83.49999999995986
 31
0.0
  0
LINE
  5
3BC7
330
1E
100
AcDbEntity
  8
10
  6
CONTINOUS
100
AcDbLine
 10
-7.0
 20
72.49999999995987
 30
0.0
 11
7.0
 21
72.49999999995987
 31
0.0
  0
LINE
  5
3BC8
330
1E
100
AcDbEntity
  8
10
  6
CONTINOUS
100
AcDbLine
 10
18.0
 20
87.49999999995987
 30
0.0
 11
14.5
 21
87.49999999995987
 31
0.0
  0
LINE
  5
3BC9
330
1E
100
AcDbEntity
  8
10
  6
CONTINOUS
100
AcDbLine
 10
-7.0
 20
87.49999999995987
 30
0.0
 11
-10.5
 21
87.49999999995987
 31
0.0
  0
LINE
  5
3BCA
330
1E
100
AcDbEntity
  8
10
  6
CONTINOUS
100
AcDbLine
 10
18.0
 20
87.49999999995987
 30
0.0
 11
18.0
 21
72.49999999995987
 31
0.0
  0
LINE
  5
3BCB
330
1E
100
AcDbEntity
  8
10
  6
CONTINOUS
100
AcDbLine
 10
7.0
 20
72.49999999995987
 30
0.0
 11
7.0
 21
87.49999999995987
 31
0.0
  0
LINE
  5
3BCC
330
1E
100
AcDbEntity
  8
10
  6
CONTINOUS
100
AcDbLine
 10
-7.0
 20
87.49999999995987
 30
0.0
 11
-7.0
 21
72.49999999995987
 31
0.0
  0
LINE
  5
3BCD
330
1E
100
AcDbEntity
  8
10
  6
CONTINOUS
100
AcDbLine
 10
-18.0
 20
87.49999999995987
 30
0.0
 11
-18.0
 21
72.49999999995987
 31
0.0
  0
LINE
  5
3BCE
330
1E
100
AcDbEntity
  8
10
  6
CONTINOUS
100
AcDbLine
 10
32.0
 20
72.49999999995987
 30
0.0
 11
32.0
 21
87.49999999995987
 31
0.0
  0
LINE
  5
3BCF
330
1E
100
AcDbEntity
  8
10
  6
CONTINOUS
100
AcDbLine
 10
37.5
 20
87.49999999995987
 30
0.0
 11
32.0
 21
87.49999999995987
 31
0.0
  0
DIMENSION
  5
3D5F
330
1E
100
AcDbEntity
  8
30
  6
Continuous
100
AcDbDimension
  2
*D6
 10
330.6811010038999
 20
-0.0000000000200991
 30
0.0
 11
330.6811010038999
 21
-46.98164974408665
 31
0.0
 70
   160
  1
92.5
 71
     5
 42
-1.0
  3
Standard
100
AcDbAlignedDimension
 13
220.2873377175775
 23
-92.5
 33
0.0
 14
313.3637200478079
 24
-0.0000000000200941
 34
0.0
 50
90.0
100
AcDbRotatedDimension
  0
DIMENSION
  5
3D60
330
1E
100
AcDbEntity
  8
30
  6
Continuous
100
AcDbDimension
  2
*D7
 10
330.681101006195
 20
87.49999999995983
 30
0.0
 11
330.681101006195
 21
42.67537254421949
 31
0.0
 70
   160
  1
87.5
 71
     5
 42
-1.0
  3
Standard
100
AcDbAlignedDimension
 13
328.1607903114155
 23
0.0
 33
0.0
 14
220.2873377175775
 24
87.49999999995987
 34
0.0
 50
90.0
100
AcDbRotatedDimension
  0
DIMENSION
  5
3D61
330
1E
100
AcDbEntity
  8
30
  6
Continuous
100
AcDbDimension
  2
*D8
 10
344.1000408010295
 20
-92.50000000000005
 30
0.0
 11
344.1000408010295
 21
-4.394737432214242
 31
0.0
 70
   160
  1
180
 71
     5
 42
-1.0
  3
Standard
100
AcDbAlignedDimension
 13
220.2873377175775
 23
87.49999999995987
 33
0.0
 14
220.2873377175775
 24
-92.5
 34
0.0
 50
270.0
100
AcDbRotatedDimension
  0
DIMENSION
  5
3D63
330
1E
100
AcDbEntity
  8
30
  6
Continuous
100
AcDbDimension
  2
*D9
 10
272.5496649544602
 20
-44.00000000000001
 30
0.0
 11
272.5496649544602
 21
-48.75998817766525
 31
0.0
 70
   160
  1
11
 71
     5
 42
-1.0
  3
Standard
100
AcDbAlignedDimension
 13
293.2269611170678
 23
-55.0
 33
0.0
 14
252.3937097878775
 24
-44.0
 34
0.0
 50
90.0
100
AcDbRotatedDimension
  0
DIMENSION
  5
3D64
330
1E
100
AcDbEntity
  8
30
  6
Continuous
100
AcDbDimension
  2
*D10
 10
313.3637200478079
 20
-41.50000000000002
 30
0.0
 11
313.3637200478079
 21
-52.30410161695022
 31
0.0
 70
   160
  1
22.5
 71
     5
 42
-1.0
  3
Standard
100
AcDbAlignedDimension
 13
252.3937097878775
 23
-64.0
 33
0.0
 14
252.3937097878775
 24
-41.5
 34
0.0
 50
90.0
100
AcDbRotatedDimension
  0
LINE
  5
3D65
330
1E
100
AcDbEntity
  8
18
  6
DIVIDE
100
AcDbLine
 10
230.3937097878776
 20
-46.5
 30
0.0
 11
230.3937097878776
 21
-71.29998779297011
 31
0.0
  0
LINE
  5
3D66
330
1E
100
AcDbEntity
  8
10
  6
CONTINOUS
100
AcDbLine
 10
252.3937097878775
 20
-41.5
 30
0.0
 11
252.3937097878775
 21
-64.0
 31
0.0
  0
LINE
  5
3D67
330
1E
100
AcDbEntity
  8
10
  6
CONTINOUS
100
AcDbLine
 10
227.3937097878775
 20
-44.0
 30
0.0
 11
227.3937097878775
 21
-64.0
 31
0.0
  0
LINE
  5
3D68
330
1E
100
AcDbEntity
  8
18
  6
DIVIDE
100
AcDbLine
 10
232.6937586159775
 20
-46.5
 30
0.0
 11
232.6937586159775
 21
-69.0
 31
0.0
  0
LINE
  5
3D69
330
1E
100
AcDbEntity
  8
10
  6
CONTINOUS
100
AcDbLine
 10
191.3937097878775
 20
-42.23077392578022
 30
0.0
 11
191.3937097878775
 21
-92.5
 31
0.0
  0
LINE
  5
3D6A
330
1E
100
AcDbEntity
  8
10
  6
CONTINOUS
100
AcDbLine
 10
189.3937097878776
 20
-65.0
 30
0.0
 11
189.3937097878776
 21
64.99999999995987
 31
0.0
  0
LINE
  5
3D6B
330
1E
100
AcDbEntity
  8
10
  6
CONTINOUS
100
AcDbLine
 10
123.3937097878775
 20
-32.0
 30
0.0
 11
123.3937097878775
 21
-51.0
 31
0.0
  0
LINE
  5
3D6C
330
1E
100
AcDbEntity
  8
17
  6
DASHDOT
100
AcDbLine
 10
272.5496649544602
 20
-55.0
 30
0.0
 11
222.3937097878776
 21
-55.0
 31
0.0
  0
LINE
  5
3D6D
330
1E
100
AcDbEntity
  8
10
  6
CONTINOUS
100
AcDbLine
 10
232.6937586159775
 20
-64.0
 30
0.0
 11
252.3937097878775
 21
-64.0
 31
0.0
  0
LINE
  5
3D6E
330
1E
100
AcDbEntity
  8
18
  6
DIVIDE
100
AcDbLine
 10
259.3937097878775
 20
-71.29998779297011
 30
0.0
 11
230.3937097878776
 21
-71.29998779297011
 31
0.0
  0
LINE
  5
3D6F
330
1E
100
AcDbEntity
  8
18
  6
DIVIDE
100
AcDbLine
 10
259.3937097878775
 20
-69.0
 30
0.0
 11
232.6937586159775
 21
-69.0
 31
0.0
  0
LINE
  5
3D70
330
1E
100
AcDbEntity
  8
10
  6
CONTINOUS
100
AcDbLine
 10
189.3937097878776
 20
-65.0
 30
0.0
 11
128.3937097878775
 21
-65.0
 31
0.0
  0
LINE
  5
3D71
330
1E
100
AcDbEntity
  8
10
  6
CONTINOUS
100
AcDbLine
 10
128.3937097878775
 20
-51.0
 30
0.0
 11
128.3937097878775
 21
-65.0
 31
0.0
  0
LINE
  5
3D72
330
1E
100
AcDbEntity
  8
10
  6
CONTINOUS
100
AcDbLine
 10
128.3937097878775
 20
-51.0
 30
0.0
 11
123.3937097878775
 21
-51.0
 31
0.0
  0
LINE
  5
3D73
330
1E
100
AcDbEntity
  8
10
  6
CONTINOUS
100
AcDbLine
 10
227.3937097878775
 20
-92.5
 30
0.0
 11
191.3937097878775
 21
-92.5
 31
0.0
  0
LINE
  5
3D74
330
1E
100
AcDbEntity
  8
10
  6
CONTINOUS
100
AcDbLine
 10
191.3937097878775
 20
-50.5
 30
0.0
 11
189.3937097878776
 21
-50.5
 31
0.0
  0
LINE
  5
3D75
330
1E
100
AcDbEntity
  8
10
  6
CONTINOUS
100
AcDbLine
 10
189.3937097878776
 20
-59.5
 30
0.0
 11
191.3937097878775
 21
-59.5
 31
0.0
  0
LINE
  5
3D76
330
1E
100
AcDbEntity
  8
24
  6
CONTINOUS
100
AcDbLine
 10
251.3937097878776
 20
-52.11322021485
 30
0.0
 11
251.3937097878776
 21
-57.88677978516012
 31
0.0
  0
LINE
  5
3D77
330
1E
100
AcDbEntity
  8
10
  6
CONTINOUS
100
AcDbLine
 10
227.3937097878775
 20
-64.0
 30
0.0
 11
227.3937097878775
 21
-92.5
 31
0.0
  0
LINE
  5
3D78
330
1E
100
AcDbEntity
  8
24
  6
CONTINOUS
100
AcDbLine
 10
232.6937586159775
 20
-57.88677978516012
 30
0.0
 11
251.3937097878776
 21
-57.88677978516012
 31
0.0
  0
LINE
  5
3D79
330
1E
100
AcDbEntity
  8
24
  6
CONTINOUS
100
AcDbLine
 10
232.6937586159775
 20
-52.11322021485
 30
0.0
 11
251.3937097878776
 21
-52.11322021485
 31
0.0
  0
LINE
  5
3D7A
330
1E
100
AcDbEntity
  8
24
  6
CONTINOUS
100
AcDbLine
 10
239.9939295144775
 20
-48.90002441406011
 30
0.0
 11
239.9939295144775
 21
-61.09997558594011
 31
0.0
  0
LINE
  5
3D7B
330
1E
100
AcDbEntity
  8
24
  6
CONTINOUS
100
AcDbLine
 10
239.9939295144775
 20
-61.09997558594011
 30
0.0
 11
232.6937586159775
 21
-61.09997558594011
 31
0.0
  0
LINE
  5
3D7C
330
1E
100
AcDbEntity
  8
24
  6
CONTINOUS
100
AcDbLine
 10
239.9939295144775
 20
-48.90002441406011
 30
0.0
 11
232.6937586159775
 21
-48.90002441406011
 31
0.0
  0
LINE
  5
3D7D
330
1E
100
AcDbEntity
  8
10
  6
CONTINOUS
100
AcDbLine
 10
227.3937097878775
 20
-64.0
 30
0.0
 11
230.3937097878776
 21
-64.0
 31
0.0
  0
LINE
  5
3D7E
330
1E
100
AcDbEntity
  8
18
  6
DIVIDE
100
AcDbLine
 10
259.3937097878775
 20
-69.0
 30
0.0
 11
259.3937097878775
 21
-71.29998779297011
 31
0.0
  0
DIMENSION
  5
3D7F
330
1E
100
AcDbEntity
  8
30
  6
Continuous
100
AcDbDimension
  2
*D11
 10
274.4492339383859
 20
43.99999999995986
 30
0.0
 11
274.4492339383859
 21
49.49999999995986
 31
0.0
 70
   160
  1
11
 71
     5
 42
-1.0
  3
Standard
100
AcDbAlignedDimension
 13
292.4514865091012
 23
54.99999999995988
 33
0.0
 14
252.3937097878775
 24
43.99999999995986
 34
0.0
 50
270.0
100
AcDbRotatedDimension
  0
DIMENSION
  5
3D80
330
1E
100
AcDbEntity
  8
30
  6
Continuous
100
AcDbDimension
  2
*D12
 10
313.8637200478079
 20
63.99999999995984
 30
0.0
 11
313.8637200478079
 21
51.56251043994724
 31
0.0
 70
   160
  1
22.5
 71
     5
 42
-1.0
  3
Standard
100
AcDbAlignedDimension
 13
251.4873377175776
 23
41.49999999995986
 33
0.0
 14
252.3937097878775
 24
63.99999999995987
 34
0.0
 50
90.0
100
AcDbRotatedDimension
  0
DIMENSION
  5
3D81
330
1E
100
AcDbEntity
  8
30
  6
Continuous
100
AcDbDimension
  2
*D13
 10
313.3637200478079
 20
-41.50000000000002
 30
0.0
 11
313.3637200478079
 21
-1.118919699757384
 31
0.0
 70
   160
  1
83
 71
     5
 42
-1.0
  3
Standard
100
AcDbAlignedDimension
 13
250.2873377175775
 23
41.49999999995986
 33
0.0
 14
245.2873377175775
 24
-41.5
 34
0.0
 50
270.0
100
AcDbRotatedDimension
  0
LINE
  5
3D82
330
1E
100
AcDbEntity
  8
10
  6
CONTINOUS
100
AcDbLine
 10
252.3937097878775
 20
-44.0
 30
0.0
 11
227.3937097878775
 21
-44.0
 31
0.0
  0
LINE
  5
3D83
330
1E
100
AcDbEntity
  8
10
  6
CONTINOUS
100
AcDbLine
 10
252.3937097878775
 20
43.99999999995986
 30
0.0
 11
227.3937097878775
 21
43.99999999995986
 31
0.0
  0
LINE
  5
3D84
330
1E
100
AcDbEntity
  8
17
  6
DASHDOT
100
AcDbLine
 10
274.4492339383859
 20
54.99999999995987
 30
0.0
 11
222.3937097878776
 21
54.99999999995987
 31
0.0
  0
LINE
  5
3D85
330
1E
100
AcDbEntity
  8
10
  6
CONTINOUS
100
AcDbLine
 10
252.3937097878775
 20
-41.5
 30
0.0
 11
227.3937097878775
 21
-41.5
 31
0.0
  0
LINE
  5
3D86
330
1E
100
AcDbEntity
  8
18
  6
DIVIDE
100
AcDbLine
 10
259.3937097878775
 20
68.99999999995987
 30
0.0
 11
232.6937586159775
 21
68.99999999995987
 31
0.0
  0
LINE
  5
3D87
330
1E
100
AcDbEntity
  8
18
  6
DIVIDE
100
AcDbLine
 10
259.3937097878775
 20
71.3000488281599
 30
0.0
 11
230.3937097878776
 21
71.3000488281599
 31
0.0
  0
LINE
  5
3D88
330
1E
100
AcDbEntity
  8
10
  6
CONTINOUS
100
AcDbLine
 10
252.3937097878775
 20
63.99999999995987
 30
0.0
 11
232.6937586159775
 21
63.99999999995987
 31
0.0
  0
LINE
  5
3D89
330
1E
100
AcDbEntity
  8
10
  6
CONTINOUS
100
AcDbLine
 10
252.3937097878775
 20
41.49999999995986
 30
0.0
 11
227.3937097878775
 21
41.49999999995986
 31
0.0
  0
LINE
  5
3D8A
330
1E
100
AcDbEntity
  8
12
  6
DASHED
100
AcDbLine
 10
208.8937097878775
 20
-26.0
 30
0.0
 11
251.2522302956775
 21
-26.0
 31
0.0
  0
LINE
  5
3D8B
330
1E
100
AcDbEntity
  8
12
  6
DASHED
100
AcDbLine
 10
208.8937097878775
 20
25.99999999995986
 30
0.0
 11
251.2522302956775
 21
25.99999999995986
 31
0.0
  0
LINE
  5
3D8C
330
1E
100
AcDbEntity
  8
10
  6
CONTINOUS
100
AcDbLine
 10
227.3937097878775
 20
63.99999999995987
 30
0.0
 11
227.3937097878775
 21
43.99999999995986
 31
0.0
  0
LINE
  5
3D8D
330
1E
100
AcDbEntity
  8
24
  6
CONTINOUS
100
AcDbLine
 10
251.3937097878776
 20
52.11328124995986
 30
0.0
 11
251.3937097878776
 21
57.88684082035991
 31
0.0
  0
LINE
  5
3D8E
330
1E
100
AcDbEntity
  8
18
  6
DIVIDE
100
AcDbLine
 10
230.3937097878776
 20
46.49999999995986
 30
0.0
 11
230.3937097878776
 21
71.3000488281599
 31
0.0
  0
LINE
  5
3D8F
330
1E
100
AcDbEntity
  8
18
  6
DIVIDE
100
AcDbLine
 10
232.6937586159775
 20
46.49999999995986
 30
0.0
 11
232.6937586159775
 21
68.99999999995987
 31
0.0
  0
LINE
  5
3D90
330
1E
100
AcDbEntity
  8
24
  6
CONTINOUS
100
AcDbLine
 10
239.9939295144775
 20
48.90002441405989
 30
0.0
 11
239.9939295144775
 21
61.09997558595989
 31
0.0
  0
LINE
  5
3D91
330
1E
100
AcDbEntity
  8
10
  6
CONTINOUS
100
AcDbLine
 10
191.3937097878775
 20
87.49999999995987
 30
0.0
 11
191.3937097878775
 21
41.38464355465987
 31
0.0
  0
LINE
  5
3D92
330
1E
100
AcDbEntity
  8
10
  6
CONTINOUS
100
AcDbLine
 10
128.3937097878775
 20
64.99999999995987
 30
0.0
 11
128.3937097878775
 21
50.99999999995986
 31
0.0
  0
LINE
  5
3D93
330
1E
100
AcDbEntity
  8
10
  6
CONTINOUS
100
AcDbLine
 10
121.3937097878775
 20
24.99999999995987
 30
0.0
 11
121.3937097878775
 21
-25.0
 31
0.0
  0
LINE
  5
3D94
330
1E
100
AcDbEntity
  8
10
  6
CONTINOUS
100
AcDbLine
 10
116.3937097878775
 20
24.99999999995987
 30
0.0
 11
116.3937097878775
 21
-25.0
 31
0.0
  0
LINE
  5
3D95
330
1E
100
AcDbEntity
  8
10
  6
CONTINOUS
100
AcDbLine
 10
121.3937097878775
 20
-25.0
 30
0.0
 11
121.3937097878775
 21
-32.0
 31
0.0
  0
LINE
  5
3D96
330
1E
100
AcDbEntity
  8
10
  6
CONTINOUS
100
AcDbLine
 10
121.3937097878775
 20
-25.0
 30
0.0
 11
116.3937097878775
 21
-25.0
 31
0.0
  0
LINE
  5
3D97
330
1E
100
AcDbEntity
  8
10
  6
CONTINOUS
100
AcDbLine
 10
123.3937097878775
 20
-32.0
 30
0.0
 11
121.3937097878775
 21
-32.0
 31
0.0
  0
LINE
  5
3D98
330
1E
100
AcDbEntity
  8
10
  6
CONTINOUS
100
AcDbLine
 10
105.6666590066775
 20
18.80560302733988
 30
0.0
 11
116.3937097878775
 21
15.86303710936977
 31
0.0
  0
LINE
  5
3D99
330
1E
100
AcDbEntity
  8
10
  6
CONTINOUS
100
AcDbLine
 10
103.8573328347776
 20
12.88751220702988
 30
0.0
 11
116.3937097878775
 21
8.65405273436977
 31
0.0
  0
LINE
  5
3D9A
330
1E
100
AcDbEntity
  8
10
  6
CONTINOUS
100
AcDbLine
 10
105.6666590066775
 20
18.80560302733988
 30
0.0
 11
103.8573328347776
 21
12.88751220702988
 31
0.0
  0
LINE
  5
3D9B
330
1E
100
AcDbEntity
  8
10
  6
CONTINOUS
100
AcDbLine
 10
121.3937097878775
 20
24.99999999995987
 30
0.0
 11
116.3937097878775
 21
24.99999999995987
 31
0.0
  0
LINE
  5
3D9C
330
1E
100
AcDbEntity
  8
10
  6
CONTINOUS
100
AcDbLine
 10
123.3937097878775
 20
31.99999999995986
 30
0.0
 11
121.3937097878775
 21
31.99999999995986
 31
0.0
  0
LINE
  5
3D9D
330
1E
100
AcDbEntity
  8
10
  6
CONTINOUS
100
AcDbLine
 10
128.3937097878775
 20
50.99999999995986
 30
0.0
 11
123.3937097878775
 21
50.99999999995986
 31
0.0
  0
LINE
  5
3D9E
330
1E
100
AcDbEntity
  8
10
  6
CONTINOUS
100
AcDbLine
 10
121.3937097878775
 20
31.99999999995986
 30
0.0
 11
121.3937097878775
 21
24.99999999995987
 31
0.0
  0
LINE
  5
3D9F
330
1E
100
AcDbEntity
  8
10
  6
CONTINOUS
100
AcDbLine
 10
123.3937097878775
 20
50.99999999995986
 30
0.0
 11
123.3937097878775
 21
31.99999999995986
 31
0.0
  0
LINE
  5
3DA0
330
1E
100
AcDbEntity
  8
10
  6
CONTINOUS
100
AcDbLine
 10
227.3937097878775
 20
41.49999999995986
 30
0.0
 11
227.3937097878775
 21
-41.5
 31
0.0
  0
LINE
  5
3DA1
330
1E
100
AcDbEntity
  8
18
  6
DIVIDE
100
AcDbLine
 10
229.6937586159775
 20
39.20001220705989
 30
0.0
 11
229.6937586159775
 21
-39.20001220703023
 31
0.0
  0
LINE
  5
3DA2
330
1E
100
AcDbEntity
  8
10
  6
CONTINOUS
100
AcDbLine
 10
202.3937097878775
 20
37.99999999995987
 30
0.0
 11
202.3937097878775
 21
-38.0
 31
0.0
  0
LINE
  5
3DA3
330
1E
100
AcDbEntity
  8
10
  6
DASHED
100
AcDbLine
 10
202.3937097878775
 20
-30.61877441406011
 30
0.0
 11
217.3937097878775
 21
-30.61877441406011
 31
0.0
  0
LINE
  5
3DA4
330
1E
100
AcDbEntity
  8
10
  6
DASHED
100
AcDbLine
 10
202.3937097878775
 20
-21.38122558594011
 30
0.0
 11
217.3937097878775
 21
-21.38122558594011
 31
0.0
  0
LINE
  5
3DA5
330
1E
100
AcDbEntity
  8
10
  6
CONTINOUS
100
AcDbLine
 10
202.3937097878775
 20
-38.0
 30
0.0
 11
191.3937097878775
 21
-42.23077392578022
 31
0.0
  0
LINE
  5
3DA6
330
1E
100
AcDbEntity
  8
12
  6
DASHED
100
AcDbLine
 10
213.8937097878776
 20
-30.61877441406011
 30
0.0
 11
213.8937097878776
 21
-21.38122558594011
 31
0.0
  0
LINE
  5
3DA7
330
1E
100
AcDbEntity
  8
10
  6
CONTINOUS
100
AcDbLine
 10
227.3937097878775
 20
-6.0
 30
0.0
 11
227.3937097878775
 21
-41.5
 31
0.0
  0
LINE
  5
3DA8
330
1E
100
AcDbEntity
  8
18
  6
DIVIDE
100
AcDbLine
 10
230.3937097878776
 20
-46.5
 30
0.0
 11
232.6937586159775
 21
-46.5
 31
0.0
  0
LINE
  5
3DA9
330
1E
100
AcDbEntity
  8
12
  6
DASHED
100
AcDbLine
 10
217.3937097878775
 20
-21.38122558594011
 30
0.0
 11
217.3937097878775
 21
-30.61877441406011
 31
0.0
  0
LINE
  5
3DAA
330
1E
100
AcDbEntity
  8
12
  6
DASHED
100
AcDbLine
 10
217.3937097878775
 20
-23.5
 30
0.0
 11
227.3937097878775
 21
-23.5
 31
0.0
  0
LINE
  5
3DAB
330
1E
100
AcDbEntity
  8
12
  6
DASHED
100
AcDbLine
 10
227.3937097878775
 20
-28.5
 30
0.0
 11
217.3937097878775
 21
-28.5
 31
0.0
  0
LINE
  5
3DAC
330
1E
100
AcDbEntity
  8
12
  6
DASHED
100
AcDbLine
 10
227.3937097878775
 20
-28.06701660156011
 30
0.0
 11
227.3937097878775
 21
-23.93298339844011
 31
0.0
  0
LINE
  5
3DAD
330
1E
100
AcDbEntity
  8
18
  6
DIVIDE
100
AcDbLine
 10
237.3937097878775
 20
-39.20001220703023
 30
0.0
 11
229.6937586159775
 21
-39.20001220703023
 31
0.0
  0
LINE
  5
3DAE
330
1E
100
AcDbEntity
  8
18
  6
DIVIDE
100
AcDbLine
 10
237.3937097878775
 20
-39.20001220703023
 30
0.0
 11
237.3937097878775
 21
-41.5
 31
0.0
  0
LINE
  5
3DAF
330
1E
100
AcDbEntity
  8
12
  6
DASHED
100
AcDbLine
 10
241.6937586159775
 20
-23.69061279297011
 30
0.0
 11
241.6937586159775
 21
-28.30938720703022
 31
0.0
  0
LINE
  5
3DB0
330
1E
100
AcDbEntity
  8
12
  6
DASHED
100
AcDbLine
 10
229.6937586159775
 20
-23.69061279297011
 30
0.0
 11
241.6937586159775
 21
-23.69061279297011
 31
0.0
  0
LINE
  5
3DB1
330
1E
100
AcDbEntity
  8
12
  6
DASHED
100
AcDbLine
 10
229.6937586159775
 20
-28.30938720703022
 30
0.0
 11
241.6937586159775
 21
-28.30938720703022
 31
0.0
  0
LINE
  5
3DB2
330
1E
100
AcDbEntity
  8
12
  6
DASHED
100
AcDbLine
 10
233.6937586159775
 20
-30.61877441406011
 30
0.0
 11
233.6937586159775
 21
-21.38122558594011
 31
0.0
  0
LINE
  5
3DB3
330
1E
100
AcDbEntity
  8
12
  6
DASHED
100
AcDbLine
 10
229.6937586159775
 20
-21.38122558594011
 30
0.0
 11
233.6937586159775
 21
-21.38122558594011
 31
0.0
  0
LINE
  5
3DB4
330
1E
100
AcDbEntity
  8
12
  6
DASHED
100
AcDbLine
 10
229.6937586159775
 20
-30.61877441406011
 30
0.0
 11
233.6937586159775
 21
-30.61877441406011
 31
0.0
  0
LINE
  5
3DB5
330
1E
100
AcDbEntity
  8
10
  6
DASHED
100
AcDbLine
 10
202.3937097878775
 20
30.61877441405988
 30
0.0
 11
217.3937097878775
 21
30.61877441405988
 31
0.0
  0
LINE
  5
3DB6
330
1E
100
AcDbEntity
  8
10
  6
DASHED
100
AcDbLine
 10
202.3937097878775
 20
21.38122558595989
 30
0.0
 11
217.3937097878775
 21
21.38122558595989
 31
0.0
  0
LINE
  5
3DB7
330
1E
100
AcDbEntity
  8
10
  6
CONTINOUS
100
AcDbLine
 10
191.3937097878775
 20
50.49999999995987
 30
0.0
 11
189.3937097878776
 21
50.49999999995987
 31
0.0
  0
LINE
  5
3DB8
330
1E
100
AcDbEntity
  8
10
  6
CONTINOUS
100
AcDbLine
 10
202.3937097878775
 20
37.99999999995987
 30
0.0
 11
191.3937097878775
 21
41.38464355465987
 31
0.0
  0
LINE
  5
3DB9
330
1E
100
AcDbEntity
  8
24
  6
CONTINOUS
100
AcDbLine
 10
239.9939295144775
 20
48.90002441405989
 30
0.0
 11
232.6937586159775
 21
48.90002441405989
 31
0.0
  0
LINE
  5
3DBA
330
1E
100
AcDbEntity
  8
24
  6
CONTINOUS
100
AcDbLine
 10
232.6937586159775
 20
52.11328124995986
 30
0.0
 11
251.3937097878776
 21
52.11328124995986
 31
0.0
  0
LINE
  5
3DBB
330
1E
100
AcDbEntity
  8
18
  6
DIVIDE
100
AcDbLine
 10
230.3937097878776
 20
46.49999999995986
 30
0.0
 11
232.6937586159775
 21
46.49999999995986
 31
0.0
  0
LINE
  5
3DBC
330
1E
100
AcDbEntity
  8
12
  6
DASHED
100
AcDbLine
 10
227.3937097878775
 20
23.49999999995986
 30
0.0
 11
217.3937097878775
 21
23.49999999995986
 31
0.0
  0
LINE
  5
3DBD
330
1E
100
AcDbEntity
  8
12
  6
DASHED
100
AcDbLine
 10
213.8937097878776
 20
21.38122558595989
 30
0.0
 11
213.8937097878776
 21
30.61877441405988
 31
0.0
  0
LINE
  5
3DBE
330
1E
100
AcDbEntity
  8
12
  6
DASHED
100
AcDbLine
 10
217.3937097878775
 20
28.49999999995986
 30
0.0
 11
227.3937097878775
 21
28.49999999995986
 31
0.0
  0
LINE
  5
3DBF
330
1E
100
AcDbEntity
  8
12
  6
DASHED
100
AcDbLine
 10
217.3937097878775
 20
30.61877441405988
 30
0.0
 11
217.3937097878775
 21
21.38122558595989
 31
0.0
  0
LINE
  5
3DC0
330
1E
100
AcDbEntity
  8
18
  6
DIVIDE
100
AcDbLine
 10
237.3937097878775
 20
39.20001220705989
 30
0.0
 11
229.6937586159775
 21
39.20001220705989
 31
0.0
  0
LINE
  5
3DC1
330
1E
100
AcDbEntity
  8
18
  6
DIVIDE
100
AcDbLine
 10
237.3937097878775
 20
39.20001220705989
 30
0.0
 11
237.3937097878775
 21
41.49999999995986
 31
0.0
  0
LINE
  5
3DC2
330
1E
100
AcDbEntity
  8
12
  6
DASHED
100
AcDbLine
 10
241.6937586159775
 20
28.3093872070599
 30
0.0
 11
241.6937586159775
 21
23.69061279295988
 31
0.0
  0
LINE
  5
3DC3
330
1E
100
AcDbEntity
  8
12
  6
DASHED
100
AcDbLine
 10
229.6937586159775
 20
23.69061279295988
 30
0.0
 11
241.6937586159775
 21
23.69061279295988
 31
0.0
  0
LINE
  5
3DC4
330
1E
100
AcDbEntity
  8
12
  6
DASHED
100
AcDbLine
 10
229.6937586159775
 20
28.3093872070599
 30
0.0
 11
241.6937586159775
 21
28.3093872070599
 31
0.0
  0
LINE
  5
3DC5
330
1E
100
AcDbEntity
  8
12
  6
DASHED
100
AcDbLine
 10
233.6937586159775
 20
30.61877441405988
 30
0.0
 11
233.6937586159775
 21
21.38122558595989
 31
0.0
  0
LINE
  5
3DC6
330
1E
100
AcDbEntity
  8
12
  6
DASHED
100
AcDbLine
 10
229.6937586159775
 20
21.38122558595989
 30
0.0
 11
233.6937586159775
 21
21.38122558595989
 31
0.0
  0
LINE
  5
3DC7
330
1E
100
AcDbEntity
  8
12
  6
DASHED
100
AcDbLine
 10
229.6937586159775
 20
30.61877441405988
 30
0.0
 11
233.6937586159775
 21
30.61877441405988
 31
0.0
  0
LINE
  5
3DC8
330
1E
100
AcDbEntity
  8
10
  6
CONTINOUS
100
AcDbLine
 10
189.3937097878776
 20
64.99999999995987
 30
0.0
 11
128.3937097878775
 21
64.99999999995987
 31
0.0
  0
LINE
  5
3DC9
330
1E
100
AcDbEntity
  8
10
  6
CONTINOUS
100
AcDbLine
 10
227.3937097878775
 20
87.49999999995987
 30
0.0
 11
191.3937097878775
 21
87.49999999995987
 31
0.0
  0
LINE
  5
3DCA
330
1E
100
AcDbEntity
  8
10
  6
CONTINOUS
100
AcDbLine
 10
191.3937097878775
 20
59.49999999995987
 30
0.0
 11
189.3937097878776
 21
59.49999999995987
 31
0.0
  0
LINE
  5
3DCB
330
1E
100
AcDbEntity
  8
10
  6
CONTINOUS
100
AcDbLine
 10
230.3937097878776
 20
63.99999999995987
 30
0.0
 11
227.3937097878775
 21
63.99999999995987
 31
0.0
  0
LINE
  5
3DCC
330
1E
100
AcDbEntity
  8
24
  6
CONTINOUS
100
AcDbLine
 10
232.6937586159775
 20
61.09997558595989
 30
0.0
 11
239.9939295144775
 21
61.09997558595989
 31
0.0
  0
LINE
  5
3DCD
330
1E
100
AcDbEntity
  8
24
  6
CONTINOUS
100
AcDbLine
 10
232.6937586159775
 20
57.88684082035991
 30
0.0
 11
251.3937097878776
 21
57.88684082035991
 31
0.0
  0
LINE
  5
3DCE
330
1E
100
AcDbEntity
  8
10
  6
CONTINOUS
100
AcDbLine
 10
227.3937097878775
 20
87.49999999995987
 30
0.0
 11
227.3937097878775
 21
63.99999999995987
 31
0.0
  0
LINE
  5
3DCF
330
1E
100
AcDbEntity
  8
10
  6
CONTINOUS
100
AcDbLine
 10
252.3937097878775
 20
63.99999999995987
 30
0.0
 11
252.3937097878775
 21
41.49999999995986
 31
0.0
  0
LINE
  5
3DD0
330
1E
100
AcDbEntity
  8
18
  6
DIVIDE
100
AcDbLine
 10
259.3937097878775
 20
68.99999999995987
 30
0.0
 11
259.3937097878775
 21
71.3000488281599
 31
0.0
  0
DIMENSION
  5
3DD2
330
1E
100
AcDbEntity
  8
30
  6
Continuous
100
AcDbDimension
  2
*D14
 10
217.3937097878775
 20
-110.2811182372859
 30
0.0
 11
212.0603764545442
 21
-110.2811182372859
 31
0.0
 70
   160
  1
10
 71
     5
 42
-1.0
  3
Standard
100
AcDbAlignedDimension
 13
227.3937097878775
 23
-92.59362792969012
 33
0.0
 14
217.3937097878775
 24
-30.71240234375
 34
0.0
100
AcDbRotatedDimension
  0
DIMENSION
  5
3DD3
330
1E
100
AcDbEntity
  8
30
  6
Continuous
100
AcDbDimension
  2
*D15
 10
189.3937097878776
 20
-120.060501093749
 30
0.0
 11
155.9357532521863
 21
-120.060501093749
 31
0.0
 70
   160
  1
68
 71
     5
 42
-1.0
  3
Standard
100
AcDbAlignedDimension
 13
121.3937097878775
 23
-32.09362792969011
 33
0.0
 14
189.3937097878776
 24
-65.09362792969011
 34
0.0
100
AcDbRotatedDimension
  0
DIMENSION
  5
3DD4
330
1E
100
AcDbEntity
  8
30
  6
Continuous
100
AcDbDimension
  2
*D16
 10
252.3937097878775
 20
-120.060501093749
 30
0.0
 11
242.4273850992274
 21
-120.060501093749
 31
0.0
 70
   160
  1
25
 71
     5
 42
-1.0
  3
Standard
100
AcDbAlignedDimension
 13
227.3937097878775
 23
-92.59362792969012
 33
0.0
 14
252.3937097878775
 24
-64.09362792969012
 34
0.0
100
AcDbRotatedDimension
  0
DIMENSION
  5
3DD5
330
1E
100
AcDbEntity
  8
30
  6
Continuous
100
AcDbDimension
  2
*D17
 10
191.3937097878775
 20
-110.6229849843737
 30
0.0
 11
190.3937097878776
 21
-110.6229849843737
 31
0.0
 70
   160
  1
2
 71
     5
 42
-1.0
  3
Standard
100
AcDbAlignedDimension
 13
189.3937097878776
 23
-65.09362792969011
 33
0.0
 14
191.3937097878775
 24
-92.59362792969012
 34
0.0
100
AcDbRotatedDimension
  0
DIMENSION
  5
3DD7
330
1E
100
AcDbEntity
  8
30
  6
Continuous
100
AcDbDimension
  2
*D18
 10
227.3937097878775
 20
-120.060501093749
 30
0.0
 11
209.6787213422591
 21
-120.060501093749
 31
0.0
 70
   160
  1
38
 71
     5
 42
-1.0
  3
Standard
100
AcDbAlignedDimension
 13
189.3937097878776
 23
-65.09362792969011
 33
0.0
 14
227.3937097878775
 24
-92.59362792969012
 34
0.0
100
AcDbRotatedDimension
  0
DIMENSION
  5
3DD8
330
1E
100
AcDbEntity
  8
30
  6
Continuous
100
AcDbDimension
  2
*D19
 10
230.3937097878776
 20
-110.2811182372859
 30
0.0
 11
243.205183918558
 21
-110.2811182372859
 31
0.0
 70
   160
  1
3
 71
     5
 42
-1.0
  3
Standard
100
AcDbAlignedDimension
 13
227.3937097878775
 23
-92.59362792969012
 33
0.0
 14
230.3937097878776
 24
-71.39361572266011
 34
0.0
100
AcDbRotatedDimension
  0
DIMENSION
  5
4228
330
1E
100
AcDbEntity
  8
30
  6
Continuous
100
AcDbDimension
  2
*D21
 10
37.5
 20
-116.7748184348536
 30
0.0
 11
0.0
 21
-116.7748184348536
 31
0.0
 70
   160
 71
     5
 42
-1.0
  3
Standard
100
AcDbAlignedDimension
 13
-37.5
 23
-89.20000000000005
 33
0.0
 14
37.5
 24
-92.5
 34
0.0
 50
180.0
100
AcDbRotatedDimension
  0
DIMENSION
  5
4229
330
1E
100
AcDbEntity
  8
30
  6
Continuous
100
AcDbDimension
  2
*D20
 10
-0.0000000000000023
 20
-106.5749891646282
 30
0.0
 11
-11.01462148334076
 21
-106.5749891646282
 31
0.0
 70
   160
 71
     5
 42
-1.0
  3
Standard
100
AcDbAlignedDimension
 13
-25.0
 23
-82.0
 33
0.0
 14
0.0
 24
-68.69789102999789
 34
0.0
 50
180.0
100
AcDbRotatedDimension
  0
DIMENSION
  5
4278
330
1E
100
AcDbEntity
  8
30
  6
Continuous
100
AcDbDimension
  2
*D22
 10
25.0
 20
-106.5749891646282
 30
0.0
 11
12.49999999999999
 21
-103.5749891646282
 31
0.0
 70
    32
 71
     5
 42
-1.0
  3
Standard
100
AcDbAlignedDimension
 13
-0.0000000000000001
 23
-69.69789102999789
 33
0.0
 14
25.0
 24
-70.0
 34
0.0
100
AcDbRotatedDimension
  0
DIMENSION
  5
44AD
330
1E
100
AcDbEntity
  8
30
  6
Continuous
100
AcDbDimension
  2
*D23
 10
96.08235032423301
 20
-290.0
 30
0.0
 11
96.08235032423309
 21
-299.9894553151907
 31
0.0
 70
   160
  1
14
 71
     5
 42
-1.0
  3
Standard
100
AcDbAlignedDimension
 13
23.5
 23
-276.0
 33
0.0
 14
70.39350585940019
 24
-290.0
 34
0.0
 50
270.0
100
AcDbRotatedDimension
  0
LINE
  5
44B0
330
1E
100
AcDbEntity
  8
18
 48
2.0
100
AcDbLine
 10
-37.5
 20
-268.0
 30
0.0
 11
-37.5
 21
-342.5
 31
0.0
  0
LINE
  5
44B1
330
1E
100
AcDbEntity
  8
18
 48
2.0
100
AcDbLine
 10
37.5
 20
-268.0
 30
0.0
 11
37.5
 21
-342.5
 31
0.0
  0
LINE
  5
44B3
330
1E
100
AcDbEntity
  8
18
 48
2.0
100
AcDbLine
 10
37.5
 20
-342.5
 30
0.0
 11
-37.5
 21
-342.5
 31
0.0
  0
DIMENSION
  5
44B4
330
1E
100
AcDbEntity
  8
30
  6
Continuous
100
AcDbDimension
  2
*D24
 10
12.49999999999999
 20
-330.7401880529562
 30
0.0
 11
2.730331121977997
 21
-330.7401880529562
 31
0.0
 70
   160
  1
25
 71
     5
 42
-1.0
  3
Standard
100
AcDbAlignedDimension
 13
-12.5
 23
-285.9999999999598
 33
0.0
 14
12.5
 24
-285.9999999999598
 34
0.0
100
AcDbRotatedDimension
  0
DIMENSION
  5
44B5
330
1E
100
AcDbEntity
  8
30
  6
Continuous
100
AcDbDimension
  2
*D25
 10
97.08235032423303
 20
-210.0000000000401
 30
0.0
 11
97.08235032423306
 21
-199.8725400041092
 31
0.0
 70
   160
  1
14
 71
     5
 42
-1.0
  3
Standard
100
AcDbAlignedDimension
 13
45.5406448987278
 23
-224.0000000000401
 33
0.0
 14
70.39350585940019
 24
-210.0000000000401
 34
0.0
 50
90.0
100
AcDbRotatedDimension
  0
DIMENSION
  5
44B6
330
1E
100
AcDbEntity
  8
30
  6
Continuous
100
AcDbDimension
  2
*D26
 10
96.58235032423302
 20
-276.0
 30
0.0
 11
96.58235032423306
 21
-250.5882119486707
 31
0.0
 70
   160
  1
52
 71
     5
 42
-1.0
  3
Standard
100
AcDbAlignedDimension
 13
22.5
 23
-224.0000000000401
 33
0.0
 14
22.5
 24
-276.0
 34
0.0
 50
270.0
100
AcDbRotatedDimension
  0
LINE
  5
44B9
330
1E
100
AcDbEntity
  8
18
 48
2.0
100
AcDbLine
 10
77.5
 20
-290.0
 30
0.0
 11
-77.5
 21
-290.0
 31
0.0
  0
LINE
  5
44BA
330
1E
100
AcDbEntity
  8
18
 48
2.0
100
AcDbLine
 10
77.5
 20
-210.0000000000401
 30
0.0
 11
-77.5
 21
-210.0000000000401
 31
0.0
  0
LINE
  5
44BB
330
1E
100
AcDbEntity
  8
18
  6
DASHED
 48
2.0
100
AcDbLine
 10
-76.75
 20
-213.0000000000401
 30
0.0
 11
76.75
 21
-213.0000000000401
 31
0.0
  0
LINE
  5
44BC
330
1E
100
AcDbEntity
  8
18
  6
DASHED
 48
2.0
100
AcDbLine
 10
76.75
 20
-287.0
 30
0.0
 11
-76.75
 21
-287.0
 31
0.0
  0
LINE
  5
44BE
330
1E
100
AcDbEntity
  8
18
 48
2.0
100
AcDbLine
 10
-72.5
 20
-230.0000000000401
 30
0.0
 11
-77.5
 21
-250.0
 31
0.0
  0
LINE
  5
44BF
330
1E
100
AcDbEntity
  8
18
 48
2.0
100
AcDbLine
 10
-72.5
 20
-270.0
 30
0.0
 11
-77.5
 21
-290.0
 31
0.0
  0
LINE
  5
44C0
330
1E
100
AcDbEntity
  8
18
 48
2.0
100
AcDbLine
 10
-77.5
 20
-250.0
 30
0.0
 11
-72.5
 21
-270.0
 31
0.0
  0
LINE
  5
44C1
330
1E
100
AcDbEntity
  8
18
 48
2.0
100
AcDbLine
 10
-77.5
 20
-210.0000000000401
 30
0.0
 11
-72.5
 21
-230.0000000000401
 31
0.0
  0
LINE
  5
44C2
330
1E
100
AcDbEntity
  8
18
 48
2.0
100
AcDbLine
 10
37.5
 20
-162.5000000000401
 30
0.0
 11
37.5
 21
-250.0
 31
0.0
  0
LINE
  5
44C3
330
1E
100
AcDbEntity
  8
18
 48
2.0
100
AcDbLine
 10
-37.5
 20
-162.5000000000401
 30
0.0
 11
-37.5
 21
-250.0
 31
0.0
  0
LINE
  5
44C4
330
1E
100
AcDbEntity
  8
11
  6
CONTINOUS
100
AcDbLine
 10
37.5
 20
-250.0
 30
0.0
 11
-37.5
 21
-250.0
 31
0.0
  0
LINE
  5
44C5
330
1E
100
AcDbEntity
  8
11
  6
CONTINOUS
100
AcDbLine
 10
-37.5
 20
-268.0
 30
0.0
 11
37.5
 21
-268.0
 31
0.0
  0
LINE
  5
44C6
330
1E
100
AcDbEntity
  8
12
  6
Continuous
 62
     3
100
AcDbLine
 10
-2.5
 20
-276.0
 30
0.0
 11
-22.5
 21
-276.0
 31
0.0
  0
LINE
  5
44C7
330
1E
100
AcDbEntity
  8
11
  6
CONTINOUS
100
AcDbLine
 10
-37.5
 20
-250.0
 30
0.0
 11
-37.5
 21
-268.0
 31
0.0
  0
CIRCLE
  5
44C8
330
1E
100
AcDbEntity
  8
12
  6
Continuous
 62
     3
100
AcDbCircle
 10
-12.5
 20
-276.0
 30
0.0
 40
3.0
  0
CIRCLE
  5
44C9
330
1E
100
AcDbEntity
  8
12
  6
Continuous
 62
     3
100
AcDbCircle
 10
12.5
 20
-276.0
 30
0.0
 40
3.0
  0
LINE
  5
44CA
330
1E
100
AcDbEntity
  8
12
  6
Continuous
 62
     3
100
AcDbLine
 10
-2.5
 20
-224.0000000000401
 30
0.0
 11
-22.5
 21
-224.0000000000401
 31
0.0
  0
CIRCLE
  5
44CB
330
1E
100
AcDbEntity
  8
12
  6
Continuous
 62
     3
100
AcDbCircle
 10
-12.5
 20
-224.0000000000401
 30
0.0
 40
3.0
  0
LINE
  5
44CC
330
1E
100
AcDbEntity
  8
12
  6
Continuous
 62
     3
100
AcDbLine
 10
-12.5
 20
-214.0000000000401
 30
0.0
 11
-12.5
 21
-234.0
 31
0.0
  0
CIRCLE
  5
44CD
330
1E
100
AcDbEntity
  8
12
  6
Continuous
 62
     3
100
AcDbCircle
 10
12.5
 20
-224.0000000000401
 30
0.0
 40
3.0
  0
LINE
  5
44CE
330
1E
100
AcDbEntity
  8
12
  6
Continuous
 62
     3
100
AcDbLine
 10
12.5
 20
-214.0000000000401
 30
0.0
 11
12.5
 21
-234.0
 31
0.0
  0
LINE
  5
44CF
330
1E
100
AcDbEntity
  8
18
 48
2.0
100
AcDbLine
 10
72.5
 20
-230.0000000000401
 30
0.0
 11
77.5
 21
-250.0
 31
0.0
  0
LINE
  5
44D1
330
1E
100
AcDbEntity
  8
11
  6
CONTINOUS
100
AcDbLine
 10
37.5
 20
-250.0
 30
0.0
 11
37.5
 21
-268.0
 31
0.0
  0
LINE
  5
44D2
330
1E
100
AcDbEntity
  8
10
  6
DIVIDE
 48
2.0
100
AcDbLine
 10
72.5
 20
-270.0
 30
0.0
 11
77.5
 21
-290.0
 31
0.0
  0
LINE
  5
44D3
330
1E
100
AcDbEntity
  8
18
 48
2.0
100
AcDbLine
 10
77.5
 20
-250.0
 30
0.0
 11
72.5
 21
-270.0
 31
0.0
  0
LINE
  5
44D4
330
1E
100
AcDbEntity
  8
18
 48
2.0
100
AcDbLine
 10
77.5
 20
-210.0000000000401
 30
0.0
 11
72.5
 21
-230.0000000000401
 31
0.0
  0
LINE
  5
44D6
330
1E
100
AcDbEntity
  8
18
 48
2.0
100
AcDbLine
 10
37.5
 20
-162.5000000000401
 30
0.0
 11
-37.5
 21
-162.5000000000401
 31
0.0
  0
DIMENSION
  5
44D7
330
1E
100
AcDbEntity
  8
30
  6
Continuous
100
AcDbDimension
  2
*D27
 10
169.7072853680454
 20
-290.0
 30
0.0
 11
169.7072853680455
 21
-251.1189196997573
 31
0.0
 70
   160
  1
80
 71
     5
 42
-1.0
  3
Standard
100
AcDbAlignedDimension
 13
145.1316216803829
 23
-210.0000000000401
 33
0.0
 14
145.1316216803829
 24
-290.0
 34
0.0
 50
270.0
100
AcDbRotatedDimension
  0
DIMENSION
  5
44D8
330
1E
100
AcDbEntity
  8
30
  6
Continuous
100
AcDbDimension
  2
*D28
 10
152.2381158209827
 20
-202.7754462045249
 30
0.0
 11
142.9867642788308
 21
-202.7754462045249
 31
0.0
 70
   160
  1
15
 71
     5
 42
-1.0
  3
Standard
100
AcDbAlignedDimension
 13
137.2381158209827
 23
-209.9063720703401
 33
0.0
 14
152.2381158209827
 24
-209.9063720703401
 34
0.0
100
AcDbRotatedDimension
  0
LINE
  5
44D9
330
1E
100
AcDbEntity
  8
18
 48
2.0
100
AcDbLine
 10
137.2381158209827
 20
-210.0000000000401
 30
0.0
 11
137.2381158209827
 21
-290.0
 31
0.0
  0
LINE
  5
44DA
330
1E
100
AcDbEntity
  8
18
 48
2.0
100
AcDbLine
 10
140.2381158209827
 20
-213.0000000000401
 30
0.0
 11
140.2381158209827
 21
-287.0
 31
0.0
  0
LINE
  5
44DB
330
1E
100
AcDbEntity
  8
18
 48
2.0
100
AcDbLine
 10
152.2381158209827
 20
-290.0
 30
0.0
 11
137.2381158209827
 21
-290.0
 31
0.0
  0
LINE
  5
44DC
330
1E
100
AcDbEntity
  8
12
  6
Continuous
 62
     3
100
AcDbLine
 10
145.2381158209827
 20
-276.0
 30
0.0
 11
132.2381158209827
 21
-276.0
 31
0.0
  0
LINE
  5
44DD
330
1E
100
AcDbEntity
  8
18
 48
2.0
100
AcDbLine
 10
152.2381158209827
 20
-287.0
 30
0.0
 11
152.2381158209827
 21
-290.0
 31
0.0
  0
LINE
  5
44DE
330
1E
100
AcDbEntity
  8
18
 48
2.0
100
AcDbLine
 10
140.2381158209827
 20
-287.0
 30
0.0
 11
152.2381158209827
 21
-287.0
 31
0.0
  0
LINE
  5
44DF
330
1E
100
AcDbEntity
  8
18
 48
2.0
100
AcDbLine
 10
152.2381158209827
 20
-210.0000000000401
 30
0.0
 11
137.2381158209827
 21
-210.0000000000401
 31
0.0
  0
LINE
  5
44E0
330
1E
100
AcDbEntity
  8
12
  6
Continuous
 62
     3
100
AcDbLine
 10
145.2381158209827
 20
-224.0000000000401
 30
0.0
 11
132.2381158209827
 21
-224.0000000000401
 31
0.0
  0
LINE
  5
44E1
330
1E
100
AcDbEntity
  8
18
 48
2.0
100
AcDbLine
 10
152.2381158209827
 20
-210.0000000000401
 30
0.0
 11
152.2381158209827
 21
-213.0000000000401
 31
0.0
  0
LINE
  5
44E2
330
1E
100
AcDbEntity
  8
18
 48
2.0
100
AcDbLine
 10
152.2381158209827
 20
-213.0000000000401
 30
0.0
 11
140.2381158209827
 21
-213.0000000000401
 31
0.0
  0
LINE
  5
46B2
330
1E
100
AcDbEntity
  8
12
  6
Continuous
 62
     3
100
AcDbLine
 10
22.5
 20
-224.0000000000401
 30
0.0
 11
2.5
 21
-224.0000000000401
 31
0.0
  0
LINE
  5
46CE
330
1E
100
AcDbEntity
  8
12
  6
Continuous
 62
     3
100
AcDbLine
 10
22.5
 20
-276.0
 30
0.0
 11
2.5
 21
-276.0
 31
0.0
  0
TEXT
  5
4977
330
1E
100
AcDbEntity
  8
30
  6
Continuous
100
AcDbText
 10
26.26638928885148
 20
-296.7146523647579
 30
0.0
 40
5.0
  1
%%c6
100
AcDbText
  0
LINE
  5
4978
330
1E
100
AcDbEntity
  8
12
  6
Continuous
 62
     3
100
AcDbLine
 10
12.5
 20
-266.0
 30
0.0
 11
12.5
 21
-285.9999999999598
 31
0.0
  0
LINE
  5
4979
330
1E
100
AcDbEntity
  8
12
  6
Continuous
 62
     3
100
AcDbLine
 10
-12.5
 20
-266.0
 30
0.0
 11
-12.5
 21
-285.9999999999598
 31
0.0
  0
DIMENSION
  5
4995
330
1E
100
AcDbEntity
  8
30
  6
Continuous
100
AcDbDimension
  2
*D29
 10
-47.59327709026638
 20
-268.0
 30
0.0
 11
-50.59327709026634
 21
-259.0
 31
0.0
 70
    32
 71
     5
 42
-1.0
  3
Standard
100
AcDbAlignedDimension
 13
-37.5
 23
-250.0
 33
0.0
 14
-37.5
 24
-268.0
 34
0.0
 50
90.0
100
AcDbRotatedDimension
  0
DIMENSION
  5
49AB
330
1E
100
AcDbEntity
  8
30
  6
Continuous
100
AcDbDimension
  2
*D30
 10
37.5
 20
-357.5026263657791
 30
0.0
 11
0.0000000000000002
 21
-354.5026263657792
 31
0.0
 70
    32
 71
     5
 42
-1.0
  3
Standard
100
AcDbAlignedDimension
 13
-37.5
 23
-342.5
 33
0.0
 14
37.5
 24
-342.5
 34
0.0
100
AcDbRotatedDimension
  0
MTEXT
  5
4A91
330
1E
100
AcDbEntity
  8
30
  6
Continuous
 62
     2
100
AcDbMText
 10
279.135323139737
 20
-2.548501850371621
 30
0.0
 40
4.0
 41
0.0
 71
     1
 72
     1
  1
 
 73
     1
 44
1.0
1001
ACAD
1000
MTEXTBEGIN
1070
    73
1070
     1
1070
    44
1040
1.0
1070
    74
1070
     0
1000
MTEXTEND
1000
MTEXTBEGIN
1070
    73
1070
     1
1070
    44
1040
1.0
1070
    74
1070
     0
1000
MTEXTEND
1000
MTEXTBEGIN
1070
    73
1070
     1
1070
    44
1040
1.0
1070
    74
1070
     0
1000
MTEXTEND
1000
MTEXTBEGIN
1070
    73
1070
     1
1070
    44
1040
1.0
1070
    74
1070
     0
1000
MTEXTEND
1000
MTEXTBEGIN
1070
    73
1070
     1
1070
    44
1040
1.0
1070
    74
1070
     0
1000
MTEXTEND
1000
MTEXTBEGIN
1070
    73
1070
     1
1070
    44
1040
1.0
1070
    74
1070
     0
1000
MTEXTEND
1000
MTEXTBEGIN
1070
    73
1070
     1
1070
    44
1040
1.0
1070
    74
1070
     0
1000
MTEXTEND
1000
MTEXTBEGIN
1070
    73
1070
     1
1070
    44
1040
1.0
1070
    74
1070
     0
1000
MTEXTEND
1000
MTEXTBEGIN
1070
    73
1070
     1
1070
    44
1040
1.0
1070
    74
1070
     0
1000
MTEXTEND
1000
MTEXTBEGIN
1070
    73
1070
     1
1070
    44
1040
1.0
1070
    74
1070
     0
1000
MTEXTEND
1000
MTEXTBEGIN
1070
    73
1070
     1
1070
    44
1040
1.0
1070
    74
1070
     0
1000
MTEXTEND
1000
MTEXTBEGIN
1070
    73
1070
     1
1070
    44
1040
1.0
1070
    74
1070
     0
1000
MTEXTEND
  0
TEXT
  5
4A92
330
1E
100
AcDbEntity
  8
30
  6
Continuous
100
AcDbText
 10
251.5389314210015
 20
-11.96285836220613
 30
0.0
 40
4.0
  1
M5x0.8
  7
STANDARD1
100
AcDbText
  0
TEXT
  5
4B89
330
1E
100
AcDbEntity
  8
30
  6
Continuous
100
AcDbText
 10
251.5389314210015
 20
-31.42265579452714
 30
0.0
 40
4.0
  1
M6
  7
STANDARD1
100
AcDbText
  0
DIMENSION
  5
4BF6
330
1E
100
AcDbEntity
  8
30
  6
Continuous
100
AcDbDimension
  2
*D31
 10
251.3937097878776
 20
-80.08472578719761
 30
0.0
 11
239.3937097878775
 21
-77.08472578719761
 31
0.0
 70
    32
 71
     5
 42
-1.0
  3
Standard
100
AcDbAlignedDimension
 13
227.3937097878775
 23
-63.0
 33
0.0
 14
251.3937097878776
 24
-63.0
 34
0.0
100
AcDbRotatedDimension
  0
TEXT
  5
4C9E
330
1E
100
AcDbEntity
  8
19
  6
Continuous
100
AcDbText
 10
175.4915000234568
 20
163.5420370933645
 30
0.0
 40
5.0
  1
XE100NS 3P PM
  7
STANDARD1
100
AcDbText
  0
LEADER
  5
4F80
330
1E
100
AcDbEntity
  8
30
  6
Continuous
100
AcDbLeader
  3
Standard
 76
     3
 10
240.2658410149665
 20
-23.83816027328975
 30
0.0
 10
248.1783121910234
 20
-13.73952004378975
 30
0.0
 10
275.8719597288609
 20
-13.73952004378975
 30
0.0
1001
ACAD
1000
DSTYLE
1002
{
1070
     5
1000
OPEN
1070
    77
1070
     0
1070
   147
1040
1.0
1002
}
  0
LEADER
  5
4F81
330
1E
100
AcDbEntity
  8
30
  6
Continuous
100
AcDbLeader
  3
Standard
 76
     3
 10
241.5845867370963
 20
-50.62151056583002
 30
0.0
 10
249.2772648549839
 20
-32.61958626318869
 30
0.0
 10
263.1240886239024
 20
-32.61958626318869
 30
0.0
1001
ACAD
1000
DSTYLE
1002
{
1070
     5
1000
OPEN
1070
    77
1070
     0
1002
}
  0
LEADER
  5
4F82
330
1E
100
AcDbEntity
  8
30
  6
Continuous
100
AcDbLeader
  3
Standard
 76
     3
 10
15.0035763442388
 20
-279.2364106489808
 30
0.0
 10
24.23479324242544
 20
-297.8969427536546
 30
0.0
 10
35.00454576418906
 20
-297.8969427536546
 30
0.0
1001
ACAD
1000
DSTYLE
1002
{
1070
     5
1000
OPEN
1070
    77
1070
     0
1070
   147
1040
1.0
1002
}
  0
VIEWPORT
  5
9AC
330
1A
100
AcDbEntity
 67
     1
  8
0
  6
Continuous
100
AcDbViewport
 10
171.9995348790992
 20
144.1384735538403
 30
0.0
 40
488.8676857773514
 41
292.3514905034161
 68
     1
 69
     1
 12
171.9995348790992
 22
144.1384735538403
 13
0.0
 23
0.0
 14
10.0
 24
10.0
 15
10.0
 25
10.0
 16
0.0
 26
0.0
 36
1.0
 17
0.0
 27
0.0
 37
0.0
 42
50.0
 43
0.0
 44
0.0
 45
292.3514905034161
 50
0.0
 51
0.0
 72
   100
 90
    32800
  1

281
     0
 71
     1
 74
     0
110
0.0
120
0.0
130
0.0
111
1.0
121
0.0
131
0.0
112
0.0
122
1.0
132
0.0
 79
     0
146
0.0
  0
ENDSEC
  0
SECTION
  2
OBJECTS
  0
DICTIONARY
  5
C
330
0
100
AcDbDictionary
281
     1
  3
ACAD_GROUP
350
D
  3
ACAD_LAYOUT
350
19
  3
ACAD_MLINESTYLE
350
16
  3
ACAD_PLOTSETTINGS
350
18
  3
ACAD_PLOTSTYLENAME
350
E
  0
DICTIONARY
  5
178
330
1E
100
AcDbDictionary
280
     1
281
     1
  3
ACAD_LAYOUTSELFREF
360
4FBC
  0
DICTIONARY
  5
17A
330
1A
100
AcDbDictionary
280
     1
281
     1
  3
ACAD_LAYOUTSELFREF
360
4FBB
  0
DICTIONARY
  5
D
102
{ACAD_REACTORS
330
C
102
}
330
C
100
AcDbDictionary
281
     1
  0
DICTIONARY
  5
19
102
{ACAD_REACTORS
330
C
102
}
330
C
100
AcDbDictionary
281
     1
  3
Model
350
21
  3
ﾚｲｱｳﾄ1
350
1D
  0
DICTIONARY
  5
16
102
{ACAD_REACTORS
330
C
102
}
330
C
100
AcDbDictionary
281
     1
  3
Standard
350
17
  0
DICTIONARY
  5
18
102
{ACAD_REACTORS
330
C
102
}
330
C
100
AcDbDictionary
281
     1
  0
ACDBDICTIONARYWDFLT
  5
E
102
{ACAD_REACTORS
330
C
102
}
330
C
100
AcDbDictionary
281
     1
  3
Normal
350
F
100
AcDbDictionaryWithDefault
340
F
  0
XRECORD
  5
4FBC
102
{ACAD_REACTORS
330
178
102
}
330
178
100
AcDbXrecord
280
     1
340
1E
  0
XRECORD
  5
4FBB
102
{ACAD_REACTORS
330
17A
102
}
330
17A
100
AcDbXrecord
280
     1
340
1A
  0
LAYOUT
  5
21
102
{ACAD_REACTORS
330
19
102
}
330
19
100
AcDbPlotSettings
  1

  2
EPSON LP-8300
  4
A4
  6
OLE1
 40
5.87375
 41
5.873747999999999
 42
5.873749
 43
5.873749
 44
209.973328
 45
297.0106509999999
 46
0.0
 47
14.88
 48
0.0
 49
0.0
140
0.0
141
0.0
142
1.0
143
2.129465438210454
 70
 11956
 72
     1
 73
     0
 74
     1
  7
KIKI.ctb
 75
     0
147
0.4696014229939197
148
77.50836223182443
149
358.01146065428
100
AcDbLayout
  1
Model
 70
     1
 71
     0
 10
0.0
 20
0.0
 11
12.0
 21
9.0
 12
0.0
 22
0.0
 32
0.0
 14
0.0
 24
0.0
 34
0.0
 15
0.0
 25
0.0
 35
0.0
146
0.0
 13
0.0
 23
0.0
 33
0.0
 16
1.0
 26
0.0
 36
0.0
 17
0.0
 27
1.0
 37
0.0
 76
     0
330
1E
  0
LAYOUT
  5
1D
102
{ACAD_REACTORS
330
19
102
}
330
19
100
AcDbPlotSettings
  1

  2
EPSON LP-8300
  4
A4
  6

 40
5.873749732971191
 41
5.873747825622558
 42
5.873748779296875
 43
5.873748779296875
 44
297.0106506347656
 45
209.9733276367187
 46
0.0
 47
0.0
 48
0.0
 49
0.0
140
0.0
141
0.0
142
1.0
143
1.0
 70
   672
 72
     1
 73
     1
 74
     5
  7
MCCB.ctb
 75
     0
147
1.0
148
0.0
149
0.0
100
AcDbLayout
  1
ﾚｲｱｳﾄ1
 70
     1
 71
     1
 10
-5.873748779296875
 20
-5.873749732971191
 11
204.0995788574218
 21
291.1369009017944
 12
0.0
 22
0.0
 32
0.0
 14
4.273573370203962
 24
5.205246163471485
 34
0.0
 15
194.6100952986349
 25
283.0697008572913
 35
0.0
146
0.0
 13
0.0
 23
0.0
 33
0.0
 16
1.0
 26
0.0
 36
0.0
 17
0.0
 27
1.0
 37
0.0
 76
     0
330
1A
331
9AC
  0
MLINESTYLE
  5
17
102
{ACAD_REACTORS
330
16
102
}
330
16
100
AcDbMlineStyle
  2
STANDARD
 70
     0
  3

 62
   256
 51
90.0
 52
90.0
 71
     2
 49
0.5
 62
   256
  6
BYLAYER
 49
-0.5
 62
   256
  6
BYLAYER
  0
ACDBPLACEHOLDER
  5
F
102
{ACAD_REACTORS
330
E
102
}
330
E
  0
ENDSEC
  0
EOF
