  0
SECTION
  2
HEADER
  9
$ACADVER
  1
AC1015
  9
$ACADMAINTVER
 70
    10
  9
$DWGCODEPAGE
  3
ANSI_932
  9
$INSBASE
 10
0.0
 20
0.0
 30
0.0
  9
$EXTMIN
 10
-87.39947200000001
 20
-350.8366309999999
 30
0.0
  9
$EXTMAX
 10
289.460464
 20
305.859649
 30
0.0
  9
$LIMMIN
 10
-111.6607629999999
 20
-393.684665
  9
$LIMMAX
 10
267.000149
 20
364.8672609999999
  9
$ORTHOMODE
 70
     1
  9
$REGENMODE
 70
     1
  9
$FILLMODE
 70
     1
  9
$QTEXTMODE
 70
     0
  9
$MIRRTEXT
 70
     1
  9
$LTSCALE
 40
10.0
  9
$ATTMODE
 70
     1
  9
$TEXTSIZE
 40
5.0
  9
$TRACEWID
 40
0.05
  9
$TEXTSTYLE
  7
STANDARD1
  9
$CLAYER
  8
30
  9
$CELTYPE
  6
CONTINUOUS
  9
$CECOLOR
 62
   256
  9
$CELTSCALE
 40
1.0
  9
$DISPSILH
 70
     0
  9
$DIMSCALE
 40
1.0
  9
$DIMASZ
 40
2.0
  9
$DIMEXO
 40
1.0
  9
$DIMDLI
 40
0.5
  9
$DIMRND
 40
0.0
  9
$DIMDLE
 40
0.0
  9
$DIMEXE
 40
0.5
  9
$DIMTP
 40
0.0
  9
$DIMTM
 40
0.0
  9
$DIMTXT
 40
4.0
  9
$DIMCEN
 40
0.09
  9
$DIMTSZ
 40
0.0
  9
$DIMTOL
 70
     0
  9
$DIMLIM
 70
     0
  9
$DIMTIH
 70
     0
  9
$DIMTOH
 70
     1
  9
$DIMSE1
 70
     0
  9
$DIMSE2
 70
     0
  9
$DIMTAD
 70
     3
  9
$DIMZIN
 70
    12
  9
$DIMBLK
  1
OPEN
  9
$DIMASO
 70
     1
  9
$DIMSHO
 70
     1
  9
$DIMPOST
  1

  9
$DIMAPOST
  1

  9
$DIMALT
 70
     0
  9
$DIMALTD
 70
     2
  9
$DIMALTF
 40
25.4
  9
$DIMLFAC
 40
1.0
  9
$DIMTOFL
 70
     0
  9
$DIMTVP
 40
0.0
  9
$DIMTIX
 70
     0
  9
$DIMSOXD
 70
     0
  9
$DIMSAH
 70
     0
  9
$DIMBLK1
  1

  9
$DIMBLK2
  1

  9
$DIMSTYLE
  2
STANDARD
  9
$DIMCLRD
 70
     0
  9
$DIMCLRE
 70
     0
  9
$DIMCLRT
 70
     0
  9
$DIMTFAC
 40
1.0
  9
$DIMGAP
 40
1.0
  9
$DIMJUST
 70
     0
  9
$DIMSD1
 70
     0
  9
$DIMSD2
 70
     0
  9
$DIMTOLJ
 70
     1
  9
$DIMTZIN
 70
     0
  9
$DIMALTZ
 70
     0
  9
$DIMALTTZ
 70
     0
  9
$DIMUPT
 70
     0
  9
$DIMDEC
 70
     1
  9
$DIMTDEC
 70
     1
  9
$DIMALTU
 70
     2
  9
$DIMALTTD
 70
     2
  9
$DIMTXSTY
  7
STANDARD
  9
$DIMAUNIT
 70
     0
  9
$DIMADEC
 70
     0
  9
$DIMALTRND
 40
0.0
  9
$DIMAZIN
 70
     3
  9
$DIMDSEP
 70
    46
  9
$DIMATFIT
 70
     3
  9
$DIMFRAC
 70
     0
  9
$DIMLDRBLK
  1
OPEN
  9
$DIMLUNIT
 70
     2
  9
$DIMLWD
 70
    -2
  9
$DIMLWE
 70
    -2
  9
$DIMTMOVE
 70
     0
  9
$LUNITS
 70
     2
  9
$LUPREC
 70
     4
  9
$SKETCHINC
 40
0.1
  9
$FILLETRAD
 40
0.0
  9
$AUNITS
 70
     0
  9
$AUPREC
 70
     0
  9
$MENU
  1
.
  9
$ELEVATION
 40
0.0
  9
$PELEVATION
 40
0.0
  9
$THICKNESS
 40
0.0
  9
$LIMCHECK
 70
     0
  9
$CHAMFERA
 40
0.0
  9
$CHAMFERB
 40
0.0
  9
$CHAMFERC
 40
0.0
  9
$CHAMFERD
 40
0.0
  9
$SKPOLY
 70
     0
  9
$TDCREATE
 40
2452286.555658657
  9
$TDUCREATE
 40
2452286.180658657
  9
$TDUPDATE
 40
2454856.472361643
  9
$TDUUPDATE
 40
2454856.097361643
  9
$TDINDWG
 40
1.1167312616
  9
$TDUSRTIMER
 40
1.1167310764
  9
$USRTIMER
 70
     1
  9
$ANGBASE
 50
0.0
  9
$ANGDIR
 70
     0
  9
$PDMODE
 70
     0
  9
$PDSIZE
 40
0.0
  9
$PLINEWID
 40
0.0
  9
$SPLFRAME
 70
     0
  9
$SPLINETYPE
 70
     6
  9
$SPLINESEGS
 70
     8
  9
$HANDSEED
  5
4F4A
  9
$SURFTAB1
 70
     6
  9
$SURFTAB2
 70
     6
  9
$SURFTYPE
 70
     6
  9
$SURFU
 70
     6
  9
$SURFV
 70
     6
  9
$UCSBASE
  2

  9
$UCSNAME
  2

  9
$UCSORG
 10
0.0
 20
0.0
 30
0.0
  9
$UCSXDIR
 10
1.0
 20
0.0
 30
0.0
  9
$UCSYDIR
 10
0.0
 20
1.0
 30
0.0
  9
$UCSORTHOREF
  2

  9
$UCSORTHOVIEW
 70
     0
  9
$UCSORGTOP
 10
0.0
 20
0.0
 30
0.0
  9
$UCSORGBOTTOM
 10
0.0
 20
0.0
 30
0.0
  9
$UCSORGLEFT
 10
0.0
 20
0.0
 30
0.0
  9
$UCSORGRIGHT
 10
0.0
 20
0.0
 30
0.0
  9
$UCSORGFRONT
 10
0.0
 20
0.0
 30
0.0
  9
$UCSORGBACK
 10
0.0
 20
0.0
 30
0.0
  9
$PUCSBASE
  2

  9
$PUCSNAME
  2

  9
$PUCSORG
 10
0.0
 20
0.0
 30
0.0
  9
$PUCSXDIR
 10
1.0
 20
0.0
 30
0.0
  9
$PUCSYDIR
 10
0.0
 20
1.0
 30
0.0
  9
$PUCSORTHOREF
  2

  9
$PUCSORTHOVIEW
 70
     0
  9
$PUCSORGTOP
 10
0.0
 20
0.0
 30
0.0
  9
$PUCSORGBOTTOM
 10
0.0
 20
0.0
 30
0.0
  9
$PUCSORGLEFT
 10
0.0
 20
0.0
 30
0.0
  9
$PUCSORGRIGHT
 10
0.0
 20
0.0
 30
0.0
  9
$PUCSORGFRONT
 10
0.0
 20
0.0
 30
0.0
  9
$PUCSORGBACK
 10
0.0
 20
0.0
 30
0.0
  9
$USERI1
 70
     0
  9
$USERI2
 70
     0
  9
$USERI3
 70
     0
  9
$USERI4
 70
     0
  9
$USERI5
 70
     0
  9
$USERR1
 40
0.0
  9
$USERR2
 40
0.0
  9
$USERR3
 40
0.0
  9
$USERR4
 40
0.0
  9
$USERR5
 40
0.0
  9
$WORLDVIEW
 70
     1
  9
$SHADEDGE
 70
     3
  9
$SHADEDIF
 70
    70
  9
$TILEMODE
 70
     1
  9
$MAXACTVP
 70
    48
  9
$PINSBASE
 10
0.0
 20
0.0
 30
0.0
  9
$PLIMCHECK
 70
     0
  9
$PEXTMIN
 10
4.273573
 20
5.205245999999999
 30
0.0
  9
$PEXTMAX
 10
194.610095
 20
283.0697009999999
 30
0.0
  9
$PLIMMIN
 10
-5.873749
 20
-5.87375
  9
$PLIMMAX
 10
204.099579
 20
291.1369009999999
  9
$UNITMODE
 70
     0
  9
$VISRETAIN
 70
     1
  9
$PLINEGEN
 70
     0
  9
$PSLTSCALE
 70
     1
  9
$TREEDEPTH
 70
  3020
  9
$CMLSTYLE
  2
STANDARD
  9
$CMLJUST
 70
     0
  9
$CMLSCALE
 40
1.0
  9
$PROXYGRAPHICS
 70
     1
  9
$MEASUREMENT
 70
     0
  9
$CELWEIGHT
370
    -1
  9
$ENDCAPS
280
     0
  9
$JOINSTYLE
280
     0
  9
$LWDISPLAY
290
     0
  9
$INSUNITS
 70
     0
  9
$HYPERLINKBASE
  1

  9
$STYLESHEET
  1
KIKI.ctb
  9
$XEDIT
290
     1
  9
$CEPSNTYPE
380
     0
  9
$PSTYLEMODE
290
     1
  9
$FINGERPRINTGUID
  2

  9
$VERSIONGUID
  2
{EF743940-9448-4F56-8DEC-FD35412CB61F}
  9
$EXTNAMES
290
     1
  9
$PSVPSCALE
 40
0.0
  9
$OLESTARTUP
290
     0
  0
ENDSEC
  0
SECTION
  2
CLASSES
  0
CLASS
  1
ACDBDICTIONARYWDFLT
  2
AcDbDictionaryWithDefault
  3
AutoCAD 2000
 90
        0
280
     0
281
     0
  0
CLASS
  1
ACDBPLACEHOLDER
  2
AcDbPlaceHolder
  3
AutoCAD 2000
 90
        0
280
     0
281
     0
  0
CLASS
  1
LAYOUT
  2
AcDbLayout
  3
AutoCAD 2000
 90
        0
280
     0
281
     0
  0
CLASS
  1
LONG_TRANSACTION
  2
AcDbLongTransaction
  3
AutoCAD 2000
 90
    32768
280
     0
281
     0
  0
CLASS
  1
LWPOLYLINE
  2
AcDbPolyline
  3
AutoCAD 2000
 90
    32768
280
     0
281
     1
  0
CLASS
  1
HATCH
  2
AcDbHatch
  3
AutoCAD 2000
 90
    32768
280
     0
281
     1
  0
CLASS
  1
XRECORD
  2
AcDbXrecord
  3
AutoCAD 2000
 90
    32768
280
     0
281
     0
  0
CLASS
  1
LONG_TRANSACTION
  2
AcDbLongTransaction
  3
AutoCAD 2000
 90
    32768
280
     0
281
     0
  0
CLASS
  1
LWPOLYLINE
  2
AcDbPolyline
  3
AutoCAD 2000
 90
    32768
280
     0
281
     1
  0
CLASS
  1
HATCH
  2
AcDbHatch
  3
AutoCAD 2000
 90
    32768
280
     0
281
     1
  0
CLASS
  1
XRECORD
  2
AcDbXrecord
  3
AutoCAD 2000
 90
    32768
280
     0
281
     0
  0
CLASS
  1
LONG_TRANSACTION
  2
AcDbLongTransaction
  3
AutoCAD 2000
 90
    32768
280
     0
281
     0
  0
CLASS
  1
LWPOLYLINE
  2
AcDbPolyline
  3
AutoCAD 2000
 90
    32768
280
     0
281
     1
  0
CLASS
  1
HATCH
  2
AcDbHatch
  3
AutoCAD 2000
 90
    32768
280
     0
281
     1
  0
CLASS
  1
XRECORD
  2
AcDbXrecord
  3
AutoCAD 2000
 90
    32768
280
     0
281
     0
  0
CLASS
  1
LONG_TRANSACTION
  2
AcDbLongTransaction
  3
AutoCAD 2000
 90
    32768
280
     0
281
     0
  0
CLASS
  1
LWPOLYLINE
  2
AcDbPolyline
  3
AutoCAD 2000
 90
    32768
280
     0
281
     1
  0
CLASS
  1
HATCH
  2
AcDbHatch
  3
AutoCAD 2000
 90
    32768
280
     0
281
     1
  0
CLASS
  1
XRECORD
  2
AcDbXrecord
  3
AutoCAD 2000
 90
    32768
280
     0
281
     0
  0
CLASS
  1
LONG_TRANSACTION
  2
AcDbLongTransaction
  3
AutoCAD 2000
 90
    32768
280
     0
281
     0
  0
CLASS
  1
LWPOLYLINE
  2
AcDbPolyline
  3
AutoCAD 2000
 90
    32768
280
     0
281
     1
  0
CLASS
  1
HATCH
  2
AcDbHatch
  3
AutoCAD 2000
 90
    32768
280
     0
281
     1
  0
CLASS
  1
XRECORD
  2
AcDbXrecord
  3
AutoCAD 2000
 90
    32768
280
     0
281
     0
  0
CLASS
  1
LONG_TRANSACTION
  2
AcDbLongTransaction
  3
AutoCAD 2000
 90
    32768
280
     0
281
     0
  0
CLASS
  1
LWPOLYLINE
  2
AcDbPolyline
  3
AutoCAD 2000
 90
    32768
280
     0
281
     1
  0
CLASS
  1
HATCH
  2
AcDbHatch
  3
AutoCAD 2000
 90
    32768
280
     0
281
     1
  0
CLASS
  1
XRECORD
  2
AcDbXrecord
  3
AutoCAD 2000
 90
    32768
280
     0
281
     0
  0
CLASS
  1
LONG_TRANSACTION
  2
AcDbLongTransaction
  3
AutoCAD 2000
 90
    32768
280
     0
281
     0
  0
CLASS
  1
LWPOLYLINE
  2
AcDbPolyline
  3
AutoCAD 2000
 90
    32768
280
     0
281
     1
  0
CLASS
  1
HATCH
  2
AcDbHatch
  3
AutoCAD 2000
 90
    32768
280
     0
281
     1
  0
CLASS
  1
XRECORD
  2
AcDbXrecord
  3
AutoCAD 2000
 90
    32768
280
     0
281
     0
  0
CLASS
  1
LONG_TRANSACTION
  2
AcDbLongTransaction
  3
AutoCAD 2000
 90
    32768
280
     0
281
     0
  0
CLASS
  1
LWPOLYLINE
  2
AcDbPolyline
  3
AutoCAD 2000
 90
    32768
280
     0
281
     1
  0
CLASS
  1
HATCH
  2
AcDbHatch
  3
AutoCAD 2000
 90
    32768
280
     0
281
     1
  0
CLASS
  1
XRECORD
  2
AcDbXrecord
  3
AutoCAD 2000
 90
    32768
280
     0
281
     0
  0
CLASS
  1
LONG_TRANSACTION
  2
AcDbLongTransaction
  3
AutoCAD 2000
 90
    32768
280
     0
281
     0
  0
CLASS
  1
LWPOLYLINE
  2
AcDbPolyline
  3
AutoCAD 2000
 90
    32768
280
     0
281
     1
  0
CLASS
  1
HATCH
  2
AcDbHatch
  3
AutoCAD 2000
 90
    32768
280
     0
281
     1
  0
CLASS
  1
XRECORD
  2
AcDbXrecord
  3
AutoCAD 2000
 90
    32768
280
     0
281
     0
  0
CLASS
  1
LONG_TRANSACTION
  2
AcDbLongTransaction
  3
AutoCAD 2000
 90
    32768
280
     0
281
     0
  0
CLASS
  1
LWPOLYLINE
  2
AcDbPolyline
  3
AutoCAD 2000
 90
    32768
280
     0
281
     1
  0
CLASS
  1
HATCH
  2
AcDbHatch
  3
AutoCAD 2000
 90
    32768
280
     0
281
     1
  0
CLASS
  1
XRECORD
  2
AcDbXrecord
  3
AutoCAD 2000
 90
    32768
280
     0
281
     0
  0
CLASS
  1
LONG_TRANSACTION
  2
AcDbLongTransaction
  3
AutoCAD 2000
 90
    32768
280
     0
281
     0
  0
CLASS
  1
LWPOLYLINE
  2
AcDbPolyline
  3
AutoCAD 2000
 90
    32768
280
     0
281
     1
  0
CLASS
  1
HATCH
  2
AcDbHatch
  3
AutoCAD 2000
 90
    32768
280
     0
281
     1
  0
CLASS
  1
XRECORD
  2
AcDbXrecord
  3
AutoCAD 2000
 90
    32768
280
     0
281
     0
  0
CLASS
  1
LONG_TRANSACTION
  2
AcDbLongTransaction
  3
AutoCAD 2000
 90
    32768
280
     0
281
     0
  0
CLASS
  1
LWPOLYLINE
  2
AcDbPolyline
  3
AutoCAD 2000
 90
    32768
280
     0
281
     1
  0
CLASS
  1
HATCH
  2
AcDbHatch
  3
AutoCAD 2000
 90
    32768
280
     0
281
     1
  0
CLASS
  1
XRECORD
  2
AcDbXrecord
  3
AutoCAD 2000
 90
    32768
280
     0
281
     0
  0
CLASS
  1
LONG_TRANSACTION
  2
AcDbLongTransaction
  3
AutoCAD 2000
 90
    32768
280
     0
281
     0
  0
CLASS
  1
LWPOLYLINE
  2
AcDbPolyline
  3
AutoCAD 2000
 90
    32768
280
     0
281
     1
  0
CLASS
  1
HATCH
  2
AcDbHatch
  3
AutoCAD 2000
 90
    32768
280
     0
281
     1
  0
CLASS
  1
XRECORD
  2
AcDbXrecord
  3
AutoCAD 2000
 90
    32768
280
     0
281
     0
  0
CLASS
  1
LONG_TRANSACTION
  2
AcDbLongTransaction
  3
AutoCAD 2000
 90
    32768
280
     0
281
     0
  0
CLASS
  1
LWPOLYLINE
  2
AcDbPolyline
  3
AutoCAD 2000
 90
    32768
280
     0
281
     1
  0
CLASS
  1
HATCH
  2
AcDbHatch
  3
AutoCAD 2000
 90
    32768
280
     0
281
     1
  0
CLASS
  1
XRECORD
  2
AcDbXrecord
  3
AutoCAD 2000
 90
    32768
280
     0
281
     0
  0
CLASS
  1
LONG_TRANSACTION
  2
AcDbLongTransaction
  3
AutoCAD 2000
 90
    32768
280
     0
281
     0
  0
CLASS
  1
LWPOLYLINE
  2
AcDbPolyline
  3
AutoCAD 2000
 90
    32768
280
     0
281
     1
  0
CLASS
  1
HATCH
  2
AcDbHatch
  3
AutoCAD 2000
 90
    32768
280
     0
281
     1
  0
CLASS
  1
XRECORD
  2
AcDbXrecord
  3
AutoCAD 2000
 90
    32768
280
     0
281
     0
  0
CLASS
  1
LONG_TRANSACTION
  2
AcDbLongTransaction
  3
AutoCAD 2000
 90
    32768
280
     0
281
     0
  0
CLASS
  1
LWPOLYLINE
  2
AcDbPolyline
  3
AutoCAD 2000
 90
    32768
280
     0
281
     1
  0
CLASS
  1
HATCH
  2
AcDbHatch
  3
AutoCAD 2000
 90
    32768
280
     0
281
     1
  0
CLASS
  1
XRECORD
  2
AcDbXrecord
  3
AutoCAD 2000
 90
    32768
280
     0
281
     0
  0
CLASS
  1
LONG_TRANSACTION
  2
AcDbLongTransaction
  3
AutoCAD 2000
 90
    32768
280
     0
281
     0
  0
CLASS
  1
LWPOLYLINE
  2
AcDbPolyline
  3
AutoCAD 2000
 90
    32768
280
     0
281
     1
  0
CLASS
  1
HATCH
  2
AcDbHatch
  3
AutoCAD 2000
 90
    32768
280
     0
281
     1
  0
CLASS
  1
XRECORD
  2
AcDbXrecord
  3
AutoCAD 2000
 90
    32768
280
     0
281
     0
  0
CLASS
  1
LONG_TRANSACTION
  2
AcDbLongTransaction
  3
AutoCAD 2000
 90
    32768
280
     0
281
     0
  0
CLASS
  1
LWPOLYLINE
  2
AcDbPolyline
  3
AutoCAD 2000
 90
    32768
280
     0
281
     1
  0
CLASS
  1
HATCH
  2
AcDbHatch
  3
AutoCAD 2000
 90
    32768
280
     0
281
     1
  0
CLASS
  1
XRECORD
  2
AcDbXrecord
  3
AutoCAD 2000
 90
    32768
280
     0
281
     0
  0
CLASS
  1
LONG_TRANSACTION
  2
AcDbLongTransaction
  3
AutoCAD 2000
 90
    32768
280
     0
281
     0
  0
CLASS
  1
LWPOLYLINE
  2
AcDbPolyline
  3
AutoCAD 2000
 90
    32768
280
     0
281
     1
  0
CLASS
  1
HATCH
  2
AcDbHatch
  3
AutoCAD 2000
 90
    32768
280
     0
281
     1
  0
CLASS
  1
XRECORD
  2
AcDbXrecord
  3
AutoCAD 2000
 90
    32768
280
     0
281
     0
  0
CLASS
  1
LONG_TRANSACTION
  2
AcDbLongTransaction
  3
AutoCAD 2000
 90
    32768
280
     0
281
     0
  0
CLASS
  1
LWPOLYLINE
  2
AcDbPolyline
  3
AutoCAD 2000
 90
    32768
280
     0
281
     1
  0
CLASS
  1
HATCH
  2
AcDbHatch
  3
AutoCAD 2000
 90
    32768
280
     0
281
     1
  0
CLASS
  1
XRECORD
  2
AcDbXrecord
  3
AutoCAD 2000
 90
    32768
280
     0
281
     0
  0
CLASS
  1
LONG_TRANSACTION
  2
AcDbLongTransaction
  3
AutoCAD 2000
 90
    32768
280
     0
281
     0
  0
CLASS
  1
LWPOLYLINE
  2
AcDbPolyline
  3
AutoCAD 2000
 90
    32768
280
     0
281
     1
  0
CLASS
  1
HATCH
  2
AcDbHatch
  3
AutoCAD 2000
 90
    32768
280
     0
281
     1
  0
CLASS
  1
XRECORD
  2
AcDbXrecord
  3
AutoCAD 2000
 90
    32768
280
     0
281
     0
  0
CLASS
  1
LONG_TRANSACTION
  2
AcDbLongTransaction
  3
AutoCAD 2000
 90
    32768
280
     0
281
     0
  0
CLASS
  1
LWPOLYLINE
  2
AcDbPolyline
  3
AutoCAD 2000
 90
    32768
280
     0
281
     1
  0
CLASS
  1
HATCH
  2
AcDbHatch
  3
AutoCAD 2000
 90
    32768
280
     0
281
     1
  0
CLASS
  1
XRECORD
  2
AcDbXrecord
  3
AutoCAD 2000
 90
    32768
280
     0
281
     0
  0
CLASS
  1
LONG_TRANSACTION
  2
AcDbLongTransaction
  3
AutoCAD 2000
 90
    32768
280
     0
281
     0
  0
CLASS
  1
LWPOLYLINE
  2
AcDbPolyline
  3
AutoCAD 2000
 90
    32768
280
     0
281
     1
  0
CLASS
  1
HATCH
  2
AcDbHatch
  3
AutoCAD 2000
 90
    32768
280
     0
281
     1
  0
CLASS
  1
XRECORD
  2
AcDbXrecord
  3
AutoCAD 2000
 90
    32768
280
     0
281
     0
  0
CLASS
  1
LONG_TRANSACTION
  2
AcDbLongTransaction
  3
AutoCAD 2000
 90
    32768
280
     0
281
     0
  0
CLASS
  1
LWPOLYLINE
  2
AcDbPolyline
  3
AutoCAD 2000
 90
    32768
280
     0
281
     1
  0
CLASS
  1
HATCH
  2
AcDbHatch
  3
AutoCAD 2000
 90
    32768
280
     0
281
     1
  0
CLASS
  1
XRECORD
  2
AcDbXrecord
  3
AutoCAD 2000
 90
    32768
280
     0
281
     0
  0
CLASS
  1
LONG_TRANSACTION
  2
AcDbLongTransaction
  3
AutoCAD 2000
 90
    32768
280
     0
281
     0
  0
CLASS
  1
LWPOLYLINE
  2
AcDbPolyline
  3
AutoCAD 2000
 90
    32768
280
     0
281
     1
  0
CLASS
  1
HATCH
  2
AcDbHatch
  3
AutoCAD 2000
 90
    32768
280
     0
281
     1
  0
CLASS
  1
XRECORD
  2
AcDbXrecord
  3
AutoCAD 2000
 90
    32768
280
     0
281
     0
  0
CLASS
  1
LONG_TRANSACTION
  2
AcDbLongTransaction
  3
AutoCAD 2000
 90
    32768
280
     0
281
     0
  0
CLASS
  1
LWPOLYLINE
  2
AcDbPolyline
  3
AutoCAD 2000
 90
    32768
280
     0
281
     1
  0
CLASS
  1
HATCH
  2
AcDbHatch
  3
AutoCAD 2000
 90
    32768
280
     0
281
     1
  0
CLASS
  1
XRECORD
  2
AcDbXrecord
  3
AutoCAD 2000
 90
    32768
280
     0
281
     0
  0
CLASS
  1
LONG_TRANSACTION
  2
AcDbLongTransaction
  3
AutoCAD 2000
 90
    32768
280
     0
281
     0
  0
CLASS
  1
LWPOLYLINE
  2
AcDbPolyline
  3
AutoCAD 2000
 90
    32768
280
     0
281
     1
  0
CLASS
  1
HATCH
  2
AcDbHatch
  3
AutoCAD 2000
 90
    32768
280
     0
281
     1
  0
CLASS
  1
XRECORD
  2
AcDbXrecord
  3
AutoCAD 2000
 90
    32768
280
     0
281
     0
  0
CLASS
  1
LONG_TRANSACTION
  2
AcDbLongTransaction
  3
AutoCAD 2000
 90
    32768
280
     0
281
     0
  0
CLASS
  1
LWPOLYLINE
  2
AcDbPolyline
  3
AutoCAD 2000
 90
    32768
280
     0
281
     1
  0
CLASS
  1
HATCH
  2
AcDbHatch
  3
AutoCAD 2000
 90
    32768
280
     0
281
     1
  0
CLASS
  1
XRECORD
  2
AcDbXrecord
  3
AutoCAD 2000
 90
    32768
280
     0
281
     0
  0
CLASS
  1
LONG_TRANSACTION
  2
AcDbLongTransaction
  3
AutoCAD 2000
 90
    32768
280
     0
281
     0
  0
CLASS
  1
LWPOLYLINE
  2
AcDbPolyline
  3
AutoCAD 2000
 90
    32768
280
     0
281
     1
  0
CLASS
  1
HATCH
  2
AcDbHatch
  3
AutoCAD 2000
 90
    32768
280
     0
281
     1
  0
CLASS
  1
XRECORD
  2
AcDbXrecord
  3
AutoCAD 2000
 90
    32768
280
     0
281
     0
  0
CLASS
  1
LONG_TRANSACTION
  2
AcDbLongTransaction
  3
AutoCAD 2000
 90
    32768
280
     0
281
     0
  0
CLASS
  1
LWPOLYLINE
  2
AcDbPolyline
  3
AutoCAD 2000
 90
    32768
280
     0
281
     1
  0
CLASS
  1
HATCH
  2
AcDbHatch
  3
AutoCAD 2000
 90
    32768
280
     0
281
     1
  0
CLASS
  1
XRECORD
  2
AcDbXrecord
  3
AutoCAD 2000
 90
    32768
280
     0
281
     0
  0
CLASS
  1
LONG_TRANSACTION
  2
AcDbLongTransaction
  3
AutoCAD 2000
 90
    32768
280
     0
281
     0
  0
CLASS
  1
LWPOLYLINE
  2
AcDbPolyline
  3
AutoCAD 2000
 90
    32768
280
     0
281
     1
  0
CLASS
  1
HATCH
  2
AcDbHatch
  3
AutoCAD 2000
 90
    32768
280
     0
281
     1
  0
CLASS
  1
XRECORD
  2
AcDbXrecord
  3
AutoCAD 2000
 90
    32768
280
     0
281
     0
  0
CLASS
  1
LONG_TRANSACTION
  2
AcDbLongTransaction
  3
AutoCAD 2000
 90
    32768
280
     0
281
     0
  0
CLASS
  1
LWPOLYLINE
  2
AcDbPolyline
  3
AutoCAD 2000
 90
    32768
280
     0
281
     1
  0
CLASS
  1
HATCH
  2
AcDbHatch
  3
AutoCAD 2000
 90
    32768
280
     0
281
     1
  0
CLASS
  1
XRECORD
  2
AcDbXrecord
  3
AutoCAD 2000
 90
    32768
280
     0
281
     0
  0
CLASS
  1
LONG_TRANSACTION
  2
AcDbLongTransaction
  3
AutoCAD 2000
 90
    32768
280
     0
281
     0
  0
CLASS
  1
LWPOLYLINE
  2
AcDbPolyline
  3
AutoCAD 2000
 90
    32768
280
     0
281
     1
  0
CLASS
  1
HATCH
  2
AcDbHatch
  3
AutoCAD 2000
 90
    32768
280
     0
281
     1
  0
CLASS
  1
XRECORD
  2
AcDbXrecord
  3
AutoCAD 2000
 90
    32768
280
     0
281
     0
  0
ENDSEC
  0
SECTION
  2
TABLES
  0
TABLE
  2
VPORT
  5
8
330
0
100
AcDbSymbolTable
 70
     2
  0
VPORT
  5
4F49
330
8
100
AcDbSymbolTableRecord
100
AcDbViewportTableRecord
  2
*Active
 70
     0
 10
0.0
 20
0.0
 11
1.0
 21
1.0
 12
189.8033717494533
 22
184.4242761516588
 13
0.0
 23
0.0
 14
1.0
 24
1.0
 15
10.0
 25
10.0
 16
0.0
 26
0.0
 36
1.0
 17
0.0
 27
0.0
 37
0.0
 40
173.8395089431932
 41
1.750922509225092
 42
50.0
 43
0.0
 44
0.0
 50
0.0
 51
0.0
 71
     0
 72
   100
 73
     1
 74
     1
 75
     0
 76
     0
 77
     0
 78
     0
281
     0
 65
     1
110
0.0
120
0.0
130
0.0
111
1.0
121
0.0
131
0.0
112
0.0
122
1.0
132
0.0
 79
     0
146
0.0
  0
ENDTAB
  0
TABLE
  2
LTYPE
  5
5
330
0
100
AcDbSymbolTable
 70
     5
  0
LTYPE
  5
13
330
5
100
AcDbSymbolTableRecord
100
AcDbLinetypeTableRecord
  2
BYBLOCK
 70
     0
  3

 72
    65
 73
     0
 40
0.0
  0
LTYPE
  5
14
330
5
100
AcDbSymbolTableRecord
100
AcDbLinetypeTableRecord
  2
BYLAYER
 70
     0
  3

 72
    65
 73
     0
 40
0.0
  0
LTYPE
  5
15
330
5
100
AcDbSymbolTableRecord
100
AcDbLinetypeTableRecord
  2
CONTINUOUS
 70
     0
  3
Solid line
 72
    65
 73
     0
 40
0.0
  0
LTYPE
  5
22
330
5
100
AcDbSymbolTableRecord
100
AcDbLinetypeTableRecord
  2
CONTINOUS
 70
     0
  3
Solid line
 72
    65
 73
     0
 40
0.0
  0
LTYPE
  5
23
330
5
100
AcDbSymbolTableRecord
100
AcDbLinetypeTableRecord
  2
DASHED
 70
     0
  3
__ __ __ __ __ __ __ __ __ __ __ __ __ __ __
 72
    65
 73
     2
 40
0.75
 49
0.5
 74
     0
 49
-0.25
 74
     0
  0
LTYPE
  5
24
330
5
100
AcDbSymbolTableRecord
100
AcDbLinetypeTableRecord
  2
DASHDOT
 70
     0
  3
__ . __ . __ . __ . __ . __ . __ . __ . __ . __
 72
    65
 73
     4
 40
1.0
 49
0.5
 74
     0
 49
-0.25
 74
     0
 49
0.0
 74
     0
 49
-0.25
 74
     0
  0
LTYPE
  5
4C47
330
5
100
AcDbSymbolTableRecord
100
AcDbLinetypeTableRecord
  2
DIVIDE
 70
     0
  3
Divide ____ . . ____ . . ____ . . ____ . . ____
 72
    65
 73
     6
 40
1.25
 49
0.5
 74
     0
 49
-0.25
 74
     0
 49
0.0
 74
     0
 49
-0.25
 74
     0
 49
0.0
 74
     0
 49
-0.25
 74
     0
  0
ENDTAB
  0
TABLE
  2
LAYER
  5
2
330
0
100
AcDbSymbolTable
 70
    11
  0
LAYER
  5
10
330
2
100
AcDbSymbolTableRecord
100
AcDbLayerTableRecord
  2
0
 70
     0
 62
     7
  6
CONTINOUS
370
    -3
390
F
  0
LAYER
  5
2F
330
2
100
AcDbSymbolTableRecord
100
AcDbLayerTableRecord
  2
10
 70
     0
 62
     4
  6
CONTINOUS
370
    -3
390
F
  0
LAYER
  5
31
330
2
100
AcDbSymbolTableRecord
100
AcDbLayerTableRecord
  2
12
 70
     0
 62
     3
  6
CONTINOUS
370
    -3
390
F
  0
LAYER
  5
35
330
2
100
AcDbSymbolTableRecord
100
AcDbLayerTableRecord
  2
16
 70
     0
 62
     6
  6
DASHDOT
370
    -3
390
F
  0
LAYER
  5
38
330
2
100
AcDbSymbolTableRecord
100
AcDbLayerTableRecord
  2
19
 70
     0
 62
     7
  6
CONTINOUS
370
    -3
390
F
  0
LAYER
  5
3C
330
2
100
AcDbSymbolTableRecord
100
AcDbLayerTableRecord
  2
11
 70
     0
 62
     1
  6
CONTINOUS
370
    -3
390
F
  0
LAYER
  5
3D
330
2
100
AcDbSymbolTableRecord
100
AcDbLayerTableRecord
  2
24
 70
     0
 62
     2
  6
CONTINOUS
370
    -3
390
F
  0
LAYER
  5
3A2
330
2
100
AcDbSymbolTableRecord
100
AcDbLayerTableRecord
  2
30
 70
     0
 62
     9
  6
CONTINUOUS
370
    -3
390
F
  0
LAYER
  5
3A4
330
2
100
AcDbSymbolTableRecord
100
AcDbLayerTableRecord
  2
DEFPOINTS
 70
     0
 62
     7
  6
CONTINUOUS
290
     0
370
    -3
390
F
  0
LAYER
  5
3BBA
330
2
100
AcDbSymbolTableRecord
100
AcDbLayerTableRecord
  2
18
 70
     0
 62
     5
  6
DIVIDE
370
    -3
390
F
  0
LAYER
  5
3BBB
330
2
100
AcDbSymbolTableRecord
100
AcDbLayerTableRecord
  2
21
 70
     0
 62
     7
  6
CONTINUOUS
370
    -3
390
F
  0
ENDTAB
  0
TABLE
  2
STYLE
  5
3
330
0
100
AcDbSymbolTable
 70
     3
  0
STYLE
  5
11
330
3
100
AcDbSymbolTableRecord
100
AcDbTextStyleTableRecord
  2
STANDARD
 70
     0
 40
0.0
 41
1.0
 50
0.0
 71
     0
 42
2.0
  3
txt.shx
  4
bigfont.shx
  0
STYLE
  5
42
330
3
100
AcDbSymbolTableRecord
100
AcDbTextStyleTableRecord
  2
STANDARD1
 70
     0
 40
0.0
 41
1.0
 50
0.0
 71
     0
 42
5.0
  3
MONOTXT
  4
BIGFONT
  0
STYLE
  5
4C46
330
3
100
AcDbSymbolTableRecord
100
AcDbTextStyleTableRecord
  2

 70
     1
 40
0.0
 41
1.0
 50
0.0
 71
     0
 42
5.0
  3
ltypeshp.shx
  4

  0
ENDTAB
  0
TABLE
  2
VIEW
  5
6
330
0
100
AcDbSymbolTable
 70
     3
  0
VIEW
  5
230C
330
6
100
AcDbSymbolTableRecord
100
AcDbViewTableRecord
  2
OLE1
 70
     0
 40
148.912488
 10
429.497628
 20
2.560627
 41
103.145806
 11
0.0
 21
0.0
 31
1.0
 12
0.0
 22
0.0
 32
0.0
 42
50.0
 43
0.0
 44
0.0
 50
0.0
 71
     0
281
     0
 72
     0
  0
VIEW
  5
230E
330
6
100
AcDbSymbolTableRecord
100
AcDbViewTableRecord
  2
OLE2
 70
     0
 40
170.778692
 10
322.66497
 20
-5.978304
 41
102.467215
 11
0.0
 21
0.0
 31
1.0
 12
0.0
 22
0.0
 32
0.0
 42
50.0
 43
0.0
 44
0.0
 50
0.0
 71
     0
281
     0
 72
     0
  0
VIEW
  5
23AA
330
6
100
AcDbSymbolTableRecord
100
AcDbViewTableRecord
  2
OLE3
 70
     0
 40
591.7897389999999
 10
84.79698199999999
 20
-46.09335999999999
 41
388.792096
 11
0.0
 21
0.0
 31
1.0
 12
0.0
 22
0.0
 32
0.0
 42
50.0
 43
0.0
 44
0.0
 50
0.0
 71
     0
281
     0
 72
     0
  0
ENDTAB
  0
TABLE
  2
UCS
  5
7
330
0
100
AcDbSymbolTable
 70
     0
  0
ENDTAB
  0
TABLE
  2
APPID
  5
9
330
0
100
AcDbSymbolTable
 70
     2
  0
APPID
  5
12
330
9
100
AcDbSymbolTableRecord
100
AcDbRegAppTableRecord
  2
ACAD
 70
     0
  0
APPID
  5
ECD
330
9
100
AcDbSymbolTableRecord
100
AcDbRegAppTableRecord
  2
CONTENTBLOCKICON
 70
     0
  0
ENDTAB
  0
TABLE
  2
DIMSTYLE
  5
A
330
0
100
AcDbSymbolTable
 70
     1
100
AcDbDimStyleTable
 71
     0
  0
DIMSTYLE
105
175
102
{ACAD_REACTORS
330
C52
330
409D
330
40AA
330
43E5
330
43F2
330
4513
330
450C
330
4698
330
46A5
330
46CD
330
46DA
330
46F2
330
47AA
330
487A
330
48B7
330
48C4
330
4C79
102
}
330
A
100
AcDbSymbolTableRecord
100
AcDbDimStyleTableRecord
  2
STANDARD
 70
     0
 41
2.0
 42
1.0
 43
0.5
 44
0.5
 73
     0
 77
     3
 78
    12
140
4.0
147
1.0
271
     1
272
     1
340
11
341
3B2
342
3B2
  0
ENDTAB
  0
TABLE
  2
BLOCK_RECORD
  5
1
330
0
100
AcDbSymbolTable
 70
    17
  0
BLOCK_RECORD
  5
1E
102
{ACAD_XDICTIONARY
360
178
102
}
330
1
100
AcDbSymbolTableRecord
100
AcDbBlockTableRecord
  2
*MODEL_SPACE
340
21
  0
BLOCK_RECORD
  5
1A
102
{ACAD_XDICTIONARY
360
17A
102
}
330
1
100
AcDbSymbolTableRecord
100
AcDbBlockTableRecord
  2
*PAPER_SPACE
340
1D
  0
BLOCK_RECORD
  5
3B2
330
1
100
AcDbSymbolTableRecord
100
AcDbBlockTableRecord
  2
_OPEN
340
0
102
{BLKREFS
331
4A7F
331
4A80
331
4F33
331
4F34
331
43EA
331
43EB
331
43F7
331
43F8
331
4663
331
4664
331
46EC
331
46ED
331
46BE
331
46BF
331
46C7
331
46C8
331
46D2
331
46D3
331
46DF
331
46E0
331
46F7
331
46F8
331
489E
331
489F
331
487F
331
4880
331
4C6A
331
4C6B
331
4C9A
331
4C9B
331
4C7E
102
}
  0
BLOCK_RECORD
  5
409E
330
1
100
AcDbSymbolTableRecord
100
AcDbBlockTableRecord
  2
*D1
340
0
  0
BLOCK_RECORD
  5
40AB
330
1
100
AcDbSymbolTableRecord
100
AcDbBlockTableRecord
  2
*D2
340
0
  0
BLOCK_RECORD
  5
43E6
330
1
100
AcDbSymbolTableRecord
100
AcDbBlockTableRecord
  2
*D3
340
0
  0
BLOCK_RECORD
  5
43F3
330
1
100
AcDbSymbolTableRecord
100
AcDbBlockTableRecord
  2
*D4
340
0
  0
BLOCK_RECORD
  5
4596
330
1
100
AcDbSymbolTableRecord
100
AcDbBlockTableRecord
  2
*D5
340
0
  0
BLOCK_RECORD
  5
45A3
330
1
100
AcDbSymbolTableRecord
100
AcDbBlockTableRecord
  2
*D6
340
0
  0
BLOCK_RECORD
  5
4699
330
1
100
AcDbSymbolTableRecord
100
AcDbBlockTableRecord
  2
*D7
340
0
  0
BLOCK_RECORD
  5
46A6
330
1
100
AcDbSymbolTableRecord
100
AcDbBlockTableRecord
  2
*D8
340
0
  0
BLOCK_RECORD
  5
46CE
330
1
100
AcDbSymbolTableRecord
100
AcDbBlockTableRecord
  2
*D9
340
0
  0
BLOCK_RECORD
  5
46DB
330
1
100
AcDbSymbolTableRecord
100
AcDbBlockTableRecord
  2
*D10
340
0
  0
BLOCK_RECORD
  5
46F3
330
1
100
AcDbSymbolTableRecord
100
AcDbBlockTableRecord
  2
*D11
340
0
  0
BLOCK_RECORD
  5
47D2
330
1
100
AcDbSymbolTableRecord
100
AcDbBlockTableRecord
  2
*D12
340
0
  0
BLOCK_RECORD
  5
487B
330
1
100
AcDbSymbolTableRecord
100
AcDbBlockTableRecord
  2
*D13
340
0
  0
BLOCK_RECORD
  5
48B8
330
1
100
AcDbSymbolTableRecord
100
AcDbBlockTableRecord
  2
*D14
340
0
  0
BLOCK_RECORD
  5
48C5
330
1
100
AcDbSymbolTableRecord
100
AcDbBlockTableRecord
  2
*D15
340
0
  0
BLOCK_RECORD
  5
4C7A
330
1
100
AcDbSymbolTableRecord
100
AcDbBlockTableRecord
  2
*D16
340
0
  0
ENDTAB
  0
ENDSEC
  0
SECTION
  2
BLOCKS
  0
BLOCK
  5
1F
330
1E
100
AcDbEntity
  8
0
100
AcDbBlockBegin
  2
*MODEL_SPACE
 70
     0
 10
0.0
 20
0.0
 30
0.0
  3
*MODEL_SPACE
  1

  0
ENDBLK
  5
20
330
1E
100
AcDbEntity
  8
0
100
AcDbBlockEnd
  0
BLOCK
  5
1B
330
1A
100
AcDbEntity
 67
     1
  8
0
100
AcDbBlockBegin
  2
*PAPER_SPACE
 70
     0
 10
0.0
 20
0.0
 30
0.0
  3
*PAPER_SPACE
  1

  0
ENDBLK
  5
1C
330
1A
100
AcDbEntity
 67
     1
  8
0
100
AcDbBlockEnd
  0
BLOCK
  5
3B6
330
3B2
100
AcDbEntity
  8
0
100
AcDbBlockBegin
  2
_OPEN
 70
     0
 10
0.0
 20
0.0
 30
0.0
  3
_OPEN
  1

  0
LINE
  5
3B3
330
3B2
100
AcDbEntity
  8
30
  6
Continuous
 62
     0
100
AcDbLine
 10
-1.0
 20
0.166667
 30
0.0
 11
0.0
 21
0.0
 31
0.0
1001
ACAD
1000
RTLwPs
1070
   158
  0
LINE
  5
3B4
330
3B2
100
AcDbEntity
  8
30
  6
Continuous
 62
     0
100
AcDbLine
 10
-1.0
 20
-0.166667
 30
0.0
 11
0.0
 21
0.0
 31
0.0
1001
ACAD
1000
RTLwPs
1070
   158
  0
LINE
  5
3B5
330
3B2
100
AcDbEntity
  8
30
  6
Continuous
 62
     0
100
AcDbLine
 10
0.0
 20
0.0
 30
0.0
 11
-1.0
 21
0.0
 31
0.0
1001
ACAD
1000
RTLwPs
1070
   158
  0
ENDBLK
  5
3B7
330
3B2
100
AcDbEntity
  8
0
100
AcDbBlockEnd
  0
BLOCK
  5
40A8
330
409E
100
AcDbEntity
  8
0
100
AcDbBlockBegin
  2
*D1
 70
     1
 10
0.0
 20
0.0
 30
0.0
  3
*D1
  1

  0
LINE
  5
4A7C
330
409E
100
AcDbEntity
  8
30
  6
Continuous
 62
     0
100
AcDbLine
 10
-24.881809
 20
258.0998539999999
 30
0.0
 11
-24.881809
 21
301.359649
 31
0.0
1001
ACAD
1000
RTLwPs
1070
   158
  0
LINE
  5
4A7D
330
409E
100
AcDbEntity
  8
30
  6
Continuous
 62
     0
100
AcDbLine
 10
0.118191
 20
293.099854
 30
0.0
 11
0.118191
 21
301.359649
 31
0.0
1001
ACAD
1000
RTLwPs
1070
   158
  0
LINE
  5
4A7E
330
409E
100
AcDbEntity
  8
30
  6
Continuous
 62
     0
100
AcDbLine
 10
-22.88180899999999
 20
300.859649
 30
0.0
 11
-1.881809
 21
300.859649
 31
0.0
1001
ACAD
1000
RTLwPs
1070
   158
  0
INSERT
  5
4A7F
330
409E
100
AcDbEntity
  8
30
  6
Continuous
 62
     0
100
AcDbBlockReference
  2
_OPEN
 10
-24.881809
 20
300.859649
 30
0.0
 41
2.0
 42
2.0
 43
2.0
 50
180.0
1001
ACAD
1000
RTLwPs
1070
   158
  0
INSERT
  5
4A80
330
409E
100
AcDbEntity
  8
30
  6
Continuous
 62
     0
100
AcDbBlockReference
  2
_OPEN
 10
0.118191
 20
300.859649
 30
0.0
 41
2.0
 42
2.0
 43
2.0
1001
ACAD
1000
RTLwPs
1070
   158
  0
MTEXT
  5
4A81
330
409E
100
AcDbEntity
  8
30
  6
Continuous
 62
     0
100
AcDbMText
 10
-12.381809
 20
303.859649
 30
0.0
 40
4.0
 41
0.0
 71
     5
 72
     1
  1
\A1;25
 73
     1
 44
1.0
1001
ACAD
1000
MTEXTBEGIN
1070
    73
1070
     1
1070
    44
1040
1.0
1070
    74
1070
     0
1000
MTEXTEND
1000
MTEXTBEGIN
1070
    73
1070
     1
1070
    44
1040
1.0
1070
    74
1070
     0
1000
MTEXTEND
1000
MTEXTBEGIN
1070
    73
1070
     1
1070
    44
1040
1.0
1070
    74
1070
     0
1000
MTEXTEND
1000
MTEXTBEGIN
1070
    73
1070
     1
1070
    44
1040
1.0
1070
    74
1070
     0
1000
MTEXTEND
1000
MTEXTBEGIN
1070
    73
1070
     1
1070
    44
1040
1.0
1070
    74
1070
     0
1000
MTEXTEND
1000
MTEXTBEGIN
1070
    73
1070
     1
1070
    44
1040
1.0
1070
    74
1070
     0
1000
MTEXTEND
1000
MTEXTBEGIN
1070
    73
1070
     1
1070
    44
1040
1.0
1070
    74
1070
     0
1000
MTEXTEND
1000
MTEXTBEGIN
1070
    73
1070
     1
1070
    44
1040
1.0
1070
    74
1070
     0
1000
MTEXTEND
  0
POINT
  5
4A82
330
409E
100
AcDbEntity
  8
DEFPOINTS
  6
Continuous
 62
     0
100
AcDbPoint
 10
-24.881809
 20
257.099854
 30
0.0
  0
POINT
  5
4A83
330
409E
100
AcDbEntity
  8
DEFPOINTS
  6
Continuous
 62
     0
100
AcDbPoint
 10
0.118191
 20
292.0998539999999
 30
0.0
  0
POINT
  5
4A84
330
409E
100
AcDbEntity
  8
DEFPOINTS
  6
Continuous
 62
     0
100
AcDbPoint
 10
0.118191
 20
300.859649
 30
0.0
  0
ENDBLK
  5
40A9
330
409E
100
AcDbEntity
  8
0
100
AcDbBlockEnd
  0
BLOCK
  5
40B5
330
40AB
100
AcDbEntity
  8
0
100
AcDbBlockBegin
  2
*D2
 70
     1
 10
0.0
 20
0.0
 30
0.0
  3
*D2
  1

  0
LINE
  5
4F30
330
40AB
100
AcDbEntity
  8
30
  6
Continuous
 62
     0
100
AcDbLine
 10
0.118191
 20
293.099854
 30
0.0
 11
0.118191
 21
301.359649
 31
0.0
  0
LINE
  5
4F31
330
40AB
100
AcDbEntity
  8
30
  6
Continuous
 62
     0
100
AcDbLine
 10
25.118191
 20
258.0998539999999
 30
0.0
 11
25.118191
 21
301.359649
 31
0.0
  0
LINE
  5
4F32
330
40AB
100
AcDbEntity
  8
30
  6
Continuous
 62
     0
100
AcDbLine
 10
2.118190999999999
 20
300.859649
 30
0.0
 11
23.118191
 21
300.859649
 31
0.0
  0
INSERT
  5
4F33
330
40AB
100
AcDbEntity
  8
30
  6
Continuous
 62
     0
100
AcDbBlockReference
  2
_OPEN
 10
0.118191
 20
300.859649
 30
0.0
 41
2.0
 42
2.0
 43
2.0
 50
180.0
  0
INSERT
  5
4F34
330
40AB
100
AcDbEntity
  8
30
  6
Continuous
 62
     0
100
AcDbBlockReference
  2
_OPEN
 10
25.118191
 20
300.859649
 30
0.0
 41
2.0
 42
2.0
 43
2.0
  0
MTEXT
  5
4F35
330
40AB
100
AcDbEntity
  8
30
  6
Continuous
 62
     0
100
AcDbMText
 10
12.618191
 20
303.859649
 30
0.0
 40
4.0
 41
0.0
 71
     5
 72
     1
  1
\A1;25
 73
     1
 44
1.0
  0
POINT
  5
4F36
330
40AB
100
AcDbEntity
  8
DEFPOINTS
  6
Continuous
 62
     0
100
AcDbPoint
 10
0.118191
 20
292.0998539999999
 30
0.0
  0
POINT
  5
4F37
330
40AB
100
AcDbEntity
  8
DEFPOINTS
  6
Continuous
 62
     0
100
AcDbPoint
 10
25.118191
 20
257.099854
 30
0.0
  0
POINT
  5
4F38
330
40AB
100
AcDbEntity
  8
DEFPOINTS
  6
Continuous
 62
     0
100
AcDbPoint
 10
25.118191
 20
300.859649
 30
0.0
  0
ENDBLK
  5
40B6
330
40AB
100
AcDbEntity
  8
0
100
AcDbBlockEnd
  0
BLOCK
  5
43F0
330
43E6
100
AcDbEntity
  8
0
100
AcDbBlockBegin
  2
*D3
 70
     1
 10
0.0
 20
0.0
 30
0.0
  3
*D3
  1

  0
LINE
  5
43E7
330
43E6
100
AcDbEntity
  8
30
  6
Continuous
 62
     0
100
AcDbLine
 10
-60.0
 20
80.0
 30
0.0
 11
-80.04001499999999
 21
80.0
 31
0.0
1001
ACAD
1000
RTLwPs
1070
   158
  0
LINE
  5
43E8
330
43E6
100
AcDbEntity
  8
30
  6
Continuous
 62
     0
100
AcDbLine
 10
-60.0
 20
-80.0
 30
0.0
 11
-80.04001499999999
 21
-80.0
 31
0.0
1001
ACAD
1000
RTLwPs
1070
   158
  0
LINE
  5
43E9
330
43E6
100
AcDbEntity
  8
30
  6
Continuous
 62
     0
100
AcDbLine
 10
-79.540015
 20
78.0
 30
0.0
 11
-79.540015
 21
-78.0
 31
0.0
1001
ACAD
1000
RTLwPs
1070
   158
  0
INSERT
  5
43EA
330
43E6
100
AcDbEntity
  8
30
  6
Continuous
 62
     0
100
AcDbBlockReference
  2
_OPEN
 10
-79.540015
 20
80.0
 30
0.0
 41
2.0
 42
2.0
 43
2.0
 50
90.0
1001
ACAD
1000
RTLwPs
1070
   158
  0
INSERT
  5
43EB
330
43E6
100
AcDbEntity
  8
30
  6
Continuous
 62
     0
100
AcDbBlockReference
  2
_OPEN
 10
-79.540015
 20
-80.0
 30
0.0
 41
2.0
 42
2.0
 43
2.0
 50
270.0
1001
ACAD
1000
RTLwPs
1070
   158
  0
MTEXT
  5
43EC
330
43E6
100
AcDbEntity
  8
30
  6
Continuous
 62
     0
100
AcDbMText
 10
-82.54001499999999
 20
0.0
 30
0.0
 40
4.0
 41
0.0
 71
     5
 72
     1
  1
\A1;160
 11
0.0
 21
1.0
 31
0.0
 73
     1
 44
1.0
1001
ACAD
1000
MTEXTBEGIN
1070
    73
1070
     1
1070
    44
1040
1.0
1070
    74
1070
     0
1000
MTEXTEND
1000
MTEXTBEGIN
1070
    73
1070
     1
1070
    44
1040
1.0
1070
    74
1070
     0
1000
MTEXTEND
1000
MTEXTBEGIN
1070
    73
1070
     1
1070
    44
1040
1.0
1070
    74
1070
     0
1000
MTEXTEND
1000
MTEXTBEGIN
1070
    73
1070
     1
1070
    44
1040
1.0
1070
    74
1070
     0
1000
MTEXTEND
1000
MTEXTBEGIN
1070
    73
1070
     1
1070
    44
1040
1.0
1070
    74
1070
     0
1000
MTEXTEND
1000
MTEXTBEGIN
1070
    73
1070
     1
1070
    44
1040
1.0
1070
    74
1070
     0
1000
MTEXTEND
1000
MTEXTBEGIN
1070
    73
1070
     1
1070
    44
1040
1.0
1070
    74
1070
     0
1000
MTEXTEND
1000
MTEXTBEGIN
1070
    73
1070
     1
1070
    44
1040
1.0
1070
    74
1070
     0
1000
MTEXTEND
  0
POINT
  5
43ED
330
43E6
100
AcDbEntity
  8
DEFPOINTS
  6
Continuous
 62
     0
100
AcDbPoint
 10
-59.0
 20
80.0
 30
0.0
  0
POINT
  5
43EE
330
43E6
100
AcDbEntity
  8
DEFPOINTS
  6
Continuous
 62
     0
100
AcDbPoint
 10
-59.0
 20
-80.0
 30
0.0
  0
POINT
  5
43EF
330
43E6
100
AcDbEntity
  8
DEFPOINTS
  6
Continuous
 62
     0
100
AcDbPoint
 10
-79.540015
 20
-80.0
 30
0.0
  0
ENDBLK
  5
43F1
330
43E6
100
AcDbEntity
  8
0
100
AcDbBlockEnd
  0
BLOCK
  5
43FD
330
43F3
100
AcDbEntity
  8
0
100
AcDbBlockBegin
  2
*D4
 70
     1
 10
0.0
 20
0.0
 30
0.0
  3
*D4
  1

  0
LINE
  5
43F4
330
43F3
100
AcDbEntity
  8
30
  6
Continuous
 62
     0
100
AcDbLine
 10
-59.0
 20
-81.0
 30
0.0
 11
-59.0
 21
-100.269051
 31
0.0
1001
ACAD
1000
RTLwPs
1070
   158
  0
LINE
  5
43F5
330
43F3
100
AcDbEntity
  8
30
  6
Continuous
 62
     0
100
AcDbLine
 10
59.0
 20
-81.0
 30
0.0
 11
59.0
 21
-100.269051
 31
0.0
1001
ACAD
1000
RTLwPs
1070
   158
  0
LINE
  5
43F6
330
43F3
100
AcDbEntity
  8
30
  6
Continuous
 62
     0
100
AcDbLine
 10
-57.0
 20
-99.76905100000001
 30
0.0
 11
57.0
 21
-99.76905100000001
 31
0.0
1001
ACAD
1000
RTLwPs
1070
   158
  0
INSERT
  5
43F7
330
43F3
100
AcDbEntity
  8
30
  6
Continuous
 62
     0
100
AcDbBlockReference
  2
_OPEN
 10
-59.0
 20
-99.76905100000001
 30
0.0
 41
2.0
 42
2.0
 43
2.0
 50
180.0
1001
ACAD
1000
RTLwPs
1070
   158
  0
INSERT
  5
43F8
330
43F3
100
AcDbEntity
  8
30
  6
Continuous
 62
     0
100
AcDbBlockReference
  2
_OPEN
 10
59.0
 20
-99.76905100000001
 30
0.0
 41
2.0
 42
2.0
 43
2.0
1001
ACAD
1000
RTLwPs
1070
   158
  0
MTEXT
  5
43F9
330
43F3
100
AcDbEntity
  8
30
  6
Continuous
 62
     0
100
AcDbMText
 10
0.0
 20
-96.769051
 30
0.0
 40
4.0
 41
0.0
 71
     5
 72
     1
  1
\A1;118
 73
     1
 44
1.0
1001
ACAD
1000
MTEXTBEGIN
1070
    73
1070
     1
1070
    44
1040
1.0
1070
    74
1070
     0
1000
MTEXTEND
1000
MTEXTBEGIN
1070
    73
1070
     1
1070
    44
1040
1.0
1070
    74
1070
     0
1000
MTEXTEND
1000
MTEXTBEGIN
1070
    73
1070
     1
1070
    44
1040
1.0
1070
    74
1070
     0
1000
MTEXTEND
1000
MTEXTBEGIN
1070
    73
1070
     1
1070
    44
1040
1.0
1070
    74
1070
     0
1000
MTEXTEND
1000
MTEXTBEGIN
1070
    73
1070
     1
1070
    44
1040
1.0
1070
    74
1070
     0
1000
MTEXTEND
1000
MTEXTBEGIN
1070
    73
1070
     1
1070
    44
1040
1.0
1070
    74
1070
     0
1000
MTEXTEND
1000
MTEXTBEGIN
1070
    73
1070
     1
1070
    44
1040
1.0
1070
    74
1070
     0
1000
MTEXTEND
1000
MTEXTBEGIN
1070
    73
1070
     1
1070
    44
1040
1.0
1070
    74
1070
     0
1000
MTEXTEND
  0
POINT
  5
43FA
330
43F3
100
AcDbEntity
  8
DEFPOINTS
  6
Continuous
 62
     0
100
AcDbPoint
 10
-59.0
 20
-80.0
 30
0.0
  0
POINT
  5
43FB
330
43F3
100
AcDbEntity
  8
DEFPOINTS
  6
Continuous
 62
     0
100
AcDbPoint
 10
59.0
 20
-80.0
 30
0.0
  0
POINT
  5
43FC
330
43F3
100
AcDbEntity
  8
DEFPOINTS
  6
Continuous
 62
     0
100
AcDbPoint
 10
59.0
 20
-99.76905100000001
 30
0.0
  0
ENDBLK
  5
43FE
330
43F3
100
AcDbEntity
  8
0
100
AcDbBlockEnd
  0
BLOCK
  5
45A1
330
4596
100
AcDbEntity
  8
0
100
AcDbBlockBegin
  2
*D5
 70
     1
 10
0.0
 20
0.0
 30
0.0
  3
*D5
  1

  0
LINE
  5
4660
330
4596
100
AcDbEntity
  8
30
  6
Continuous
 62
     0
100
AcDbLine
 10
98.193759
 20
-3.093596999999999
 30
0.0
 11
98.193759
 21
-139.923286
 31
0.0
1001
ACAD
1000
RTLwPs
1070
   158
  0
LINE
  5
4661
330
4596
100
AcDbEntity
  8
30
  6
Continuous
 62
     0
100
AcDbLine
 10
131.3937099999999
 20
-116.093597
 30
0.0
 11
131.3937099999999
 21
-139.923286
 31
0.0
1001
ACAD
1000
RTLwPs
1070
   158
  0
LINE
  5
4662
330
4596
100
AcDbEntity
  8
30
  6
Continuous
 62
     0
100
AcDbLine
 10
100.193759
 20
-139.423286
 30
0.0
 11
129.3937099999999
 21
-139.423286
 31
0.0
1001
ACAD
1000
RTLwPs
1070
   158
  0
INSERT
  5
4663
330
4596
100
AcDbEntity
  8
30
  6
Continuous
 62
     0
100
AcDbBlockReference
  2
_OPEN
 10
98.193759
 20
-139.423286
 30
0.0
 41
2.0
 42
2.0
 43
2.0
 50
180.0
1001
ACAD
1000
RTLwPs
1070
   158
  0
INSERT
  5
4664
330
4596
100
AcDbEntity
  8
30
  6
Continuous
 62
     0
100
AcDbBlockReference
  2
_OPEN
 10
131.3937099999999
 20
-139.423286
 30
0.0
 41
2.0
 42
2.0
 43
2.0
1001
ACAD
1000
RTLwPs
1070
   158
  0
MTEXT
  5
4665
330
4596
100
AcDbEntity
  8
30
  6
Continuous
 62
     0
100
AcDbMText
 10
112.841276
 20
-136.423286
 30
0.0
 40
4.0
 41
0.0
 71
     5
 72
     1
  1
\A1;33.2
 73
     1
 44
1.0
1001
ACAD
1000
MTEXTBEGIN
1070
    73
1070
     1
1070
    44
1040
1.0
1070
    74
1070
     0
1000
MTEXTEND
1000
MTEXTBEGIN
1070
    73
1070
     1
1070
    44
1040
1.0
1070
    74
1070
     0
1000
MTEXTEND
1000
MTEXTBEGIN
1070
    73
1070
     1
1070
    44
1040
1.0
1070
    74
1070
     0
1000
MTEXTEND
1000
MTEXTBEGIN
1070
    73
1070
     1
1070
    44
1040
1.0
1070
    74
1070
     0
1000
MTEXTEND
1000
MTEXTBEGIN
1070
    73
1070
     1
1070
    44
1040
1.0
1070
    74
1070
     0
1000
MTEXTEND
1000
MTEXTBEGIN
1070
    73
1070
     1
1070
    44
1040
1.0
1070
    74
1070
     0
1000
MTEXTEND
1000
MTEXTBEGIN
1070
    73
1070
     1
1070
    44
1040
1.0
1070
    74
1070
     0
1000
MTEXTEND
1000
MTEXTBEGIN
1070
    73
1070
     1
1070
    44
1040
1.0
1070
    74
1070
     0
1000
MTEXTEND
  0
POINT
  5
4666
330
4596
100
AcDbEntity
  8
DEFPOINTS
  6
Continuous
 62
     0
100
AcDbPoint
 10
98.193759
 20
-2.093596999999999
 30
0.0
  0
POINT
  5
4667
330
4596
100
AcDbEntity
  8
DEFPOINTS
  6
Continuous
 62
     0
100
AcDbPoint
 10
131.3937099999999
 20
-115.093597
 30
0.0
  0
POINT
  5
4668
330
4596
100
AcDbEntity
  8
DEFPOINTS
  6
Continuous
 62
     0
100
AcDbPoint
 10
131.3937099999999
 20
-139.423286
 30
0.0
  0
ENDBLK
  5
45A2
330
4596
100
AcDbEntity
  8
0
100
AcDbBlockEnd
  0
BLOCK
  5
45AE
330
45A3
100
AcDbEntity
  8
0
100
AcDbBlockBegin
  2
*D6
 70
     1
 10
0.0
 20
0.0
 30
0.0
  3
*D6
  1

  0
LINE
  5
46E9
330
45A3
100
AcDbEntity
  8
30
  6
Continuous
 62
     0
100
AcDbLine
 10
131.3937099999999
 20
-116.093597
 30
0.0
 11
131.3937099999999
 21
-129.992056
 31
0.0
1001
ACAD
1000
RTLwPs
1070
   158
  0
LINE
  5
46EA
330
45A3
100
AcDbEntity
  8
30
  6
Continuous
 62
     0
100
AcDbLine
 10
116.39371
 20
-81.093597
 30
0.0
 11
116.39371
 21
-129.992056
 31
0.0
1001
ACAD
1000
RTLwPs
1070
   158
  0
LINE
  5
46EB
330
45A3
100
AcDbEntity
  8
30
  6
Continuous
 62
     0
100
AcDbLine
 10
129.3937099999999
 20
-129.492056
 30
0.0
 11
118.39371
 21
-129.492056
 31
0.0
1001
ACAD
1000
RTLwPs
1070
   158
  0
INSERT
  5
46EC
330
45A3
100
AcDbEntity
  8
30
  6
Continuous
 62
     0
100
AcDbBlockReference
  2
_OPEN
 10
131.3937099999999
 20
-129.492056
 30
0.0
 41
2.0
 42
2.0
 43
2.0
1001
ACAD
1000
RTLwPs
1070
   158
  0
INSERT
  5
46ED
330
45A3
100
AcDbEntity
  8
30
  6
Continuous
 62
     0
100
AcDbBlockReference
  2
_OPEN
 10
116.39371
 20
-129.492056
 30
0.0
 41
2.0
 42
2.0
 43
2.0
 50
180.0
1001
ACAD
1000
RTLwPs
1070
   158
  0
MTEXT
  5
46EE
330
45A3
100
AcDbEntity
  8
30
  6
Continuous
 62
     0
100
AcDbMText
 10
123.719677
 20
-126.4920559999999
 30
0.0
 40
4.0
 41
0.0
 71
     5
 72
     1
  1
\A1;15
 73
     1
 44
1.0
1001
ACAD
1000
MTEXTBEGIN
1070
    73
1070
     1
1070
    44
1040
1.0
1070
    74
1070
     0
1000
MTEXTEND
1000
MTEXTBEGIN
1070
    73
1070
     1
1070
    44
1040
1.0
1070
    74
1070
     0
1000
MTEXTEND
1000
MTEXTBEGIN
1070
    73
1070
     1
1070
    44
1040
1.0
1070
    74
1070
     0
1000
MTEXTEND
1000
MTEXTBEGIN
1070
    73
1070
     1
1070
    44
1040
1.0
1070
    74
1070
     0
1000
MTEXTEND
1000
MTEXTBEGIN
1070
    73
1070
     1
1070
    44
1040
1.0
1070
    74
1070
     0
1000
MTEXTEND
1000
MTEXTBEGIN
1070
    73
1070
     1
1070
    44
1040
1.0
1070
    74
1070
     0
1000
MTEXTEND
1000
MTEXTBEGIN
1070
    73
1070
     1
1070
    44
1040
1.0
1070
    74
1070
     0
1000
MTEXTEND
1000
MTEXTBEGIN
1070
    73
1070
     1
1070
    44
1040
1.0
1070
    74
1070
     0
1000
MTEXTEND
  0
POINT
  5
46EF
330
45A3
100
AcDbEntity
  8
DEFPOINTS
  6
Continuous
 62
     0
100
AcDbPoint
 10
131.3937099999999
 20
-115.093597
 30
0.0
  0
POINT
  5
46F0
330
45A3
100
AcDbEntity
  8
DEFPOINTS
  6
Continuous
 62
     0
100
AcDbPoint
 10
116.39371
 20
-80.093597
 30
0.0
  0
POINT
  5
46F1
330
45A3
100
AcDbEntity
  8
DEFPOINTS
  6
Continuous
 62
     0
100
AcDbPoint
 10
116.39371
 20
-129.492056
 30
0.0
  0
ENDBLK
  5
45AF
330
45A3
100
AcDbEntity
  8
0
100
AcDbBlockEnd
  0
BLOCK
  5
46A3
330
4699
100
AcDbEntity
  8
0
100
AcDbBlockBegin
  2
*D7
 70
     1
 10
0.0
 20
0.0
 30
0.0
  3
*D7
  1

  0
LINE
  5
46BB
330
4699
100
AcDbEntity
  8
30
  6
Continuous
 62
     0
100
AcDbLine
 10
131.3937099999999
 20
-114.0
 30
0.0
 11
131.3937099999999
 21
-109.439233
 31
0.0
1001
ACAD
1000
RTLwPs
1070
   158
  0
LINE
  5
46BC
330
4699
100
AcDbEntity
  8
30
  6
Continuous
 62
     0
100
AcDbLine
 10
217.293735
 20
-63.5
 30
0.0
 11
217.293735
 21
-110.439233
 31
0.0
1001
ACAD
1000
RTLwPs
1070
   158
  0
LINE
  5
46BD
330
4699
100
AcDbEntity
  8
30
  6
Continuous
 62
     0
100
AcDbLine
 10
133.3937099999999
 20
-109.939233
 30
0.0
 11
215.293735
 21
-109.939233
 31
0.0
1001
ACAD
1000
RTLwPs
1070
   158
  0
INSERT
  5
46BE
330
4699
100
AcDbEntity
  8
30
  6
Continuous
 62
     0
100
AcDbBlockReference
  2
_OPEN
 10
131.3937099999999
 20
-109.939233
 30
0.0
 41
2.0
 42
2.0
 43
2.0
 50
180.0
1001
ACAD
1000
RTLwPs
1070
   158
  0
INSERT
  5
46BF
330
4699
100
AcDbEntity
  8
30
  6
Continuous
 62
     0
100
AcDbBlockReference
  2
_OPEN
 10
217.293735
 20
-109.939233
 30
0.0
 41
2.0
 42
2.0
 43
2.0
1001
ACAD
1000
RTLwPs
1070
   158
  0
MTEXT
  5
46C0
330
4699
100
AcDbEntity
  8
30
  6
Continuous
 62
     0
100
AcDbMText
 10
174.3437219999999
 20
-106.939233
 30
0.0
 40
4.0
 41
0.0
 71
     5
 72
     1
  1
\A1;85.9
 73
     1
 44
1.0
1001
ACAD
1000
MTEXTBEGIN
1070
    73
1070
     1
1070
    44
1040
1.0
1070
    74
1070
     0
1000
MTEXTEND
1000
MTEXTBEGIN
1070
    73
1070
     1
1070
    44
1040
1.0
1070
    74
1070
     0
1000
MTEXTEND
1000
MTEXTBEGIN
1070
    73
1070
     1
1070
    44
1040
1.0
1070
    74
1070
     0
1000
MTEXTEND
1000
MTEXTBEGIN
1070
    73
1070
     1
1070
    44
1040
1.0
1070
    74
1070
     0
1000
MTEXTEND
1000
MTEXTBEGIN
1070
    73
1070
     1
1070
    44
1040
1.0
1070
    74
1070
     0
1000
MTEXTEND
1000
MTEXTBEGIN
1070
    73
1070
     1
1070
    44
1040
1.0
1070
    74
1070
     0
1000
MTEXTEND
1000
MTEXTBEGIN
1070
    73
1070
     1
1070
    44
1040
1.0
1070
    74
1070
     0
1000
MTEXTEND
1000
MTEXTBEGIN
1070
    73
1070
     1
1070
    44
1040
1.0
1070
    74
1070
     0
1000
MTEXTEND
  0
POINT
  5
46C1
330
4699
100
AcDbEntity
  8
DEFPOINTS
  6
Continuous
 62
     0
100
AcDbPoint
 10
131.3937099999999
 20
-115.0
 30
0.0
  0
POINT
  5
46C2
330
4699
100
AcDbEntity
  8
DEFPOINTS
  6
Continuous
 62
     0
100
AcDbPoint
 10
217.293735
 20
-62.5
 30
0.0
  0
POINT
  5
46C3
330
4699
100
AcDbEntity
  8
DEFPOINTS
  6
Continuous
 62
     0
100
AcDbPoint
 10
217.293735
 20
-109.939233
 30
0.0
  0
ENDBLK
  5
46A4
330
4699
100
AcDbEntity
  8
0
100
AcDbBlockEnd
  0
BLOCK
  5
46B0
330
46A6
100
AcDbEntity
  8
0
100
AcDbBlockBegin
  2
*D8
 70
     1
 10
0.0
 20
0.0
 30
0.0
  3
*D8
  1

  0
LINE
  5
46C4
330
46A6
100
AcDbEntity
  8
30
  6
Continuous
 62
     0
100
AcDbLine
 10
131.3937099999999
 20
-138.423286
 30
0.0
 11
131.3937099999999
 21
-119.525883
 31
0.0
1001
ACAD
1000
RTLwPs
1070
   158
  0
LINE
  5
46C5
330
46A6
100
AcDbEntity
  8
30
  6
Continuous
 62
     0
100
AcDbLine
 10
237.2937349999999
 20
-60.0
 30
0.0
 11
237.2937349999999
 21
-120.525883
 31
0.0
1001
ACAD
1000
RTLwPs
1070
   158
  0
LINE
  5
46C6
330
46A6
100
AcDbEntity
  8
30
  6
Continuous
 62
     0
100
AcDbLine
 10
133.3937099999999
 20
-120.025883
 30
0.0
 11
235.2937349999999
 21
-120.025883
 31
0.0
1001
ACAD
1000
RTLwPs
1070
   158
  0
INSERT
  5
46C7
330
46A6
100
AcDbEntity
  8
30
  6
Continuous
 62
     0
100
AcDbBlockReference
  2
_OPEN
 10
131.3937099999999
 20
-120.025883
 30
0.0
 41
2.0
 42
2.0
 43
2.0
 50
180.0
1001
ACAD
1000
RTLwPs
1070
   158
  0
INSERT
  5
46C8
330
46A6
100
AcDbEntity
  8
30
  6
Continuous
 62
     0
100
AcDbBlockReference
  2
_OPEN
 10
237.2937349999999
 20
-120.025883
 30
0.0
 41
2.0
 42
2.0
 43
2.0
1001
ACAD
1000
RTLwPs
1070
   158
  0
MTEXT
  5
46C9
330
46A6
100
AcDbEntity
  8
30
  6
Continuous
 62
     0
100
AcDbMText
 10
184.343722
 20
-117.025883
 30
0.0
 40
4.0
 41
0.0
 71
     5
 72
     1
  1
\A1;105.9
 73
     1
 44
1.0
1001
ACAD
1000
MTEXTBEGIN
1070
    73
1070
     1
1070
    44
1040
1.0
1070
    74
1070
     0
1000
MTEXTEND
1000
MTEXTBEGIN
1070
    73
1070
     1
1070
    44
1040
1.0
1070
    74
1070
     0
1000
MTEXTEND
1000
MTEXTBEGIN
1070
    73
1070
     1
1070
    44
1040
1.0
1070
    74
1070
     0
1000
MTEXTEND
1000
MTEXTBEGIN
1070
    73
1070
     1
1070
    44
1040
1.0
1070
    74
1070
     0
1000
MTEXTEND
1000
MTEXTBEGIN
1070
    73
1070
     1
1070
    44
1040
1.0
1070
    74
1070
     0
1000
MTEXTEND
1000
MTEXTBEGIN
1070
    73
1070
     1
1070
    44
1040
1.0
1070
    74
1070
     0
1000
MTEXTEND
1000
MTEXTBEGIN
1070
    73
1070
     1
1070
    44
1040
1.0
1070
    74
1070
     0
1000
MTEXTEND
1000
MTEXTBEGIN
1070
    73
1070
     1
1070
    44
1040
1.0
1070
    74
1070
     0
1000
MTEXTEND
  0
POINT
  5
46CA
330
46A6
100
AcDbEntity
  8
DEFPOINTS
  6
Continuous
 62
     0
100
AcDbPoint
 10
131.3937099999999
 20
-139.423286
 30
0.0
  0
POINT
  5
46CB
330
46A6
100
AcDbEntity
  8
DEFPOINTS
  6
Continuous
 62
     0
100
AcDbPoint
 10
237.2937349999999
 20
-59.0
 30
0.0
  0
POINT
  5
46CC
330
46A6
100
AcDbEntity
  8
DEFPOINTS
  6
Continuous
 62
     0
100
AcDbPoint
 10
237.2937349999999
 20
-120.025883
 30
0.0
  0
ENDBLK
  5
46B1
330
46A6
100
AcDbEntity
  8
0
100
AcDbBlockEnd
  0
BLOCK
  5
46D8
330
46CE
100
AcDbEntity
  8
0
100
AcDbBlockBegin
  2
*D9
 70
     1
 10
0.0
 20
0.0
 30
0.0
  3
*D9
  1

  0
LINE
  5
46CF
330
46CE
100
AcDbEntity
  8
30
  6
Continuous
 62
     0
100
AcDbLine
 10
252.2937349999999
 20
-63.5
 30
0.0
 11
252.2937349999999
 21
-130.612532
 31
0.0
1001
ACAD
1000
RTLwPs
1070
   158
  0
LINE
  5
46D0
330
46CE
100
AcDbEntity
  8
30
  6
Continuous
 62
     0
100
AcDbLine
 10
131.3937099999999
 20
-130.492056
 30
0.0
 11
131.3937099999999
 21
-130.612532
 31
0.0
1001
ACAD
1000
RTLwPs
1070
   158
  0
LINE
  5
46D1
330
46CE
100
AcDbEntity
  8
30
  6
Continuous
 62
     0
100
AcDbLine
 10
250.2937349999999
 20
-130.112532
 30
0.0
 11
133.3937099999999
 21
-130.112532
 31
0.0
1001
ACAD
1000
RTLwPs
1070
   158
  0
INSERT
  5
46D2
330
46CE
100
AcDbEntity
  8
30
  6
Continuous
 62
     0
100
AcDbBlockReference
  2
_OPEN
 10
252.2937349999999
 20
-130.112532
 30
0.0
 41
2.0
 42
2.0
 43
2.0
1001
ACAD
1000
RTLwPs
1070
   158
  0
INSERT
  5
46D3
330
46CE
100
AcDbEntity
  8
30
  6
Continuous
 62
     0
100
AcDbBlockReference
  2
_OPEN
 10
131.3937099999999
 20
-130.112532
 30
0.0
 41
2.0
 42
2.0
 43
2.0
 50
180.0
1001
ACAD
1000
RTLwPs
1070
   158
  0
MTEXT
  5
46D4
330
46CE
100
AcDbEntity
  8
30
  6
Continuous
 62
     0
100
AcDbMText
 10
191.8437219999999
 20
-127.112532
 30
0.0
 40
4.0
 41
0.0
 71
     5
 72
     1
  1
\A1;120.9
 73
     1
 44
1.0
1001
ACAD
1000
MTEXTBEGIN
1070
    73
1070
     1
1070
    44
1040
1.0
1070
    74
1070
     0
1000
MTEXTEND
1000
MTEXTBEGIN
1070
    73
1070
     1
1070
    44
1040
1.0
1070
    74
1070
     0
1000
MTEXTEND
1000
MTEXTBEGIN
1070
    73
1070
     1
1070
    44
1040
1.0
1070
    74
1070
     0
1000
MTEXTEND
1000
MTEXTBEGIN
1070
    73
1070
     1
1070
    44
1040
1.0
1070
    74
1070
     0
1000
MTEXTEND
1000
MTEXTBEGIN
1070
    73
1070
     1
1070
    44
1040
1.0
1070
    74
1070
     0
1000
MTEXTEND
1000
MTEXTBEGIN
1070
    73
1070
     1
1070
    44
1040
1.0
1070
    74
1070
     0
1000
MTEXTEND
1000
MTEXTBEGIN
1070
    73
1070
     1
1070
    44
1040
1.0
1070
    74
1070
     0
1000
MTEXTEND
1000
MTEXTBEGIN
1070
    73
1070
     1
1070
    44
1040
1.0
1070
    74
1070
     0
1000
MTEXTEND
  0
POINT
  5
46D5
330
46CE
100
AcDbEntity
  8
DEFPOINTS
  6
Continuous
 62
     0
100
AcDbPoint
 10
252.2937349999999
 20
-62.5
 30
0.0
  0
POINT
  5
46D6
330
46CE
100
AcDbEntity
  8
DEFPOINTS
  6
Continuous
 62
     0
100
AcDbPoint
 10
131.3937099999999
 20
-129.492056
 30
0.0
  0
POINT
  5
46D7
330
46CE
100
AcDbEntity
  8
DEFPOINTS
  6
Continuous
 62
     0
100
AcDbPoint
 10
131.3937099999999
 20
-130.112532
 30
0.0
  0
ENDBLK
  5
46D9
330
46CE
100
AcDbEntity
  8
0
100
AcDbBlockEnd
  0
BLOCK
  5
46E5
330
46DB
100
AcDbEntity
  8
0
100
AcDbBlockBegin
  2
*D10
 70
     1
 10
0.0
 20
0.0
 30
0.0
  3
*D10
  1

  0
LINE
  5
46DC
330
46DB
100
AcDbEntity
  8
30
  6
Continuous
 62
     0
100
AcDbLine
 10
272.293735
 20
-60.0
 30
0.0
 11
272.293735
 21
-140.311233
 31
0.0
1001
ACAD
1000
RTLwPs
1070
   158
  0
LINE
  5
46DD
330
46DB
100
AcDbEntity
  8
30
  6
Continuous
 62
     0
100
AcDbLine
 10
131.3937099999999
 20
-140.423286
 30
0.0
 11
131.3937099999999
 21
-140.311233
 31
0.0
1001
ACAD
1000
RTLwPs
1070
   158
  0
LINE
  5
46DE
330
46DB
100
AcDbEntity
  8
30
  6
Continuous
 62
     0
100
AcDbLine
 10
270.293735
 20
-139.811233
 30
0.0
 11
133.3937099999999
 21
-139.811233
 31
0.0
1001
ACAD
1000
RTLwPs
1070
   158
  0
INSERT
  5
46DF
330
46DB
100
AcDbEntity
  8
30
  6
Continuous
 62
     0
100
AcDbBlockReference
  2
_OPEN
 10
272.293735
 20
-139.811233
 30
0.0
 41
2.0
 42
2.0
 43
2.0
1001
ACAD
1000
RTLwPs
1070
   158
  0
INSERT
  5
46E0
330
46DB
100
AcDbEntity
  8
30
  6
Continuous
 62
     0
100
AcDbBlockReference
  2
_OPEN
 10
131.3937099999999
 20
-139.811233
 30
0.0
 41
2.0
 42
2.0
 43
2.0
 50
180.0
1001
ACAD
1000
RTLwPs
1070
   158
  0
MTEXT
  5
46E1
330
46DB
100
AcDbEntity
  8
30
  6
Continuous
 62
     0
100
AcDbMText
 10
201.843722
 20
-136.811233
 30
0.0
 40
4.0
 41
0.0
 71
     5
 72
     1
  1
\A1;140.9
 73
     1
 44
1.0
1001
ACAD
1000
MTEXTBEGIN
1070
    73
1070
     1
1070
    44
1040
1.0
1070
    74
1070
     0
1000
MTEXTEND
1000
MTEXTBEGIN
1070
    73
1070
     1
1070
    44
1040
1.0
1070
    74
1070
     0
1000
MTEXTEND
1000
MTEXTBEGIN
1070
    73
1070
     1
1070
    44
1040
1.0
1070
    74
1070
     0
1000
MTEXTEND
1000
MTEXTBEGIN
1070
    73
1070
     1
1070
    44
1040
1.0
1070
    74
1070
     0
1000
MTEXTEND
1000
MTEXTBEGIN
1070
    73
1070
     1
1070
    44
1040
1.0
1070
    74
1070
     0
1000
MTEXTEND
1000
MTEXTBEGIN
1070
    73
1070
     1
1070
    44
1040
1.0
1070
    74
1070
     0
1000
MTEXTEND
1000
MTEXTBEGIN
1070
    73
1070
     1
1070
    44
1040
1.0
1070
    74
1070
     0
1000
MTEXTEND
1000
MTEXTBEGIN
1070
    73
1070
     1
1070
    44
1040
1.0
1070
    74
1070
     0
1000
MTEXTEND
  0
POINT
  5
46E2
330
46DB
100
AcDbEntity
  8
DEFPOINTS
  6
Continuous
 62
     0
100
AcDbPoint
 10
272.293735
 20
-59.0
 30
0.0
  0
POINT
  5
46E3
330
46DB
100
AcDbEntity
  8
DEFPOINTS
  6
Continuous
 62
     0
100
AcDbPoint
 10
131.3937099999999
 20
-139.423286
 30
0.0
  0
POINT
  5
46E4
330
46DB
100
AcDbEntity
  8
DEFPOINTS
  6
Continuous
 62
     0
100
AcDbPoint
 10
131.3937099999999
 20
-139.811233
 30
0.0
  0
ENDBLK
  5
46E6
330
46DB
100
AcDbEntity
  8
0
100
AcDbBlockEnd
  0
BLOCK
  5
46FD
330
46F3
100
AcDbEntity
  8
0
100
AcDbBlockBegin
  2
*D11
 70
     1
 10
0.0
 20
0.0
 30
0.0
  3
*D11
  1

  0
LINE
  5
46F4
330
46F3
100
AcDbEntity
  8
30
  6
Continuous
 62
     0
100
AcDbLine
 10
273.293735
 20
55.0
 30
0.0
 11
289.460464
 21
55.0
 31
0.0
1001
ACAD
1000
RTLwPs
1070
   158
  0
LINE
  5
46F5
330
46F3
100
AcDbEntity
  8
30
  6
Continuous
 62
     0
100
AcDbLine
 10
273.293735
 20
-55.0
 30
0.0
 11
289.460464
 21
-55.0
 31
0.0
1001
ACAD
1000
RTLwPs
1070
   158
  0
LINE
  5
46F6
330
46F3
100
AcDbEntity
  8
30
  6
Continuous
 62
     0
100
AcDbLine
 10
288.9604639999999
 20
53.0
 30
0.0
 11
288.9604639999999
 21
-53.0
 31
0.0
1001
ACAD
1000
RTLwPs
1070
   158
  0
INSERT
  5
46F7
330
46F3
100
AcDbEntity
  8
30
  6
Continuous
 62
     0
100
AcDbBlockReference
  2
_OPEN
 10
288.9604639999999
 20
55.0
 30
0.0
 41
2.0
 42
2.0
 43
2.0
 50
90.0
1001
ACAD
1000
RTLwPs
1070
   158
  0
INSERT
  5
46F8
330
46F3
100
AcDbEntity
  8
30
  6
Continuous
 62
     0
100
AcDbBlockReference
  2
_OPEN
 10
288.9604639999999
 20
-55.0
 30
0.0
 41
2.0
 42
2.0
 43
2.0
 50
270.0
1001
ACAD
1000
RTLwPs
1070
   158
  0
MTEXT
  5
46F9
330
46F3
100
AcDbEntity
  8
30
  6
Continuous
 62
     0
100
AcDbMText
 10
285.960464
 20
0.0
 30
0.0
 40
4.0
 41
0.0
 71
     5
 72
     1
  1
\A1;110
 11
0.0
 21
1.0
 31
0.0
 73
     1
 44
1.0
1001
ACAD
1000
MTEXTBEGIN
1070
    73
1070
     1
1070
    44
1040
1.0
1070
    74
1070
     0
1000
MTEXTEND
1000
MTEXTBEGIN
1070
    73
1070
     1
1070
    44
1040
1.0
1070
    74
1070
     0
1000
MTEXTEND
1000
MTEXTBEGIN
1070
    73
1070
     1
1070
    44
1040
1.0
1070
    74
1070
     0
1000
MTEXTEND
1000
MTEXTBEGIN
1070
    73
1070
     1
1070
    44
1040
1.0
1070
    74
1070
     0
1000
MTEXTEND
1000
MTEXTBEGIN
1070
    73
1070
     1
1070
    44
1040
1.0
1070
    74
1070
     0
1000
MTEXTEND
1000
MTEXTBEGIN
1070
    73
1070
     1
1070
    44
1040
1.0
1070
    74
1070
     0
1000
MTEXTEND
1000
MTEXTBEGIN
1070
    73
1070
     1
1070
    44
1040
1.0
1070
    74
1070
     0
1000
MTEXTEND
1000
MTEXTBEGIN
1070
    73
1070
     1
1070
    44
1040
1.0
1070
    74
1070
     0
1000
MTEXTEND
  0
POINT
  5
46FA
330
46F3
100
AcDbEntity
  8
DEFPOINTS
  6
Continuous
 62
     0
100
AcDbPoint
 10
272.293735
 20
55.0
 30
0.0
  0
POINT
  5
46FB
330
46F3
100
AcDbEntity
  8
DEFPOINTS
  6
Continuous
 62
     0
100
AcDbPoint
 10
272.293735
 20
-55.0
 30
0.0
  0
POINT
  5
46FC
330
46F3
100
AcDbEntity
  8
DEFPOINTS
  6
Continuous
 62
     0
100
AcDbPoint
 10
288.9604639999999
 20
-55.0
 30
0.0
  0
ENDBLK
  5
46FE
330
46F3
100
AcDbEntity
  8
0
100
AcDbBlockEnd
  0
BLOCK
  5
47DC
330
47D2
100
AcDbEntity
  8
0
100
AcDbBlockBegin
  2
*D12
 70
     1
 10
0.0
 20
0.0
 30
0.0
  3
*D12
  1

  0
LINE
  5
489B
330
47D2
100
AcDbEntity
  8
30
  6
Continuous
 62
     0
100
AcDbLine
 10
-51.5
 20
-284.093597
 30
0.0
 11
-51.5
 21
-350.8366309999999
 31
0.0
1001
ACAD
1000
RTLwPs
1070
   158
  0
LINE
  5
489C
330
47D2
100
AcDbEntity
  8
30
  6
Continuous
 62
     0
100
AcDbLine
 10
51.5
 20
-284.093597
 30
0.0
 11
51.5
 21
-350.8366309999999
 31
0.0
1001
ACAD
1000
RTLwPs
1070
   158
  0
LINE
  5
489D
330
47D2
100
AcDbEntity
  8
30
  6
Continuous
 62
     0
100
AcDbLine
 10
-49.5
 20
-350.336631
 30
0.0
 11
49.5
 21
-350.336631
 31
0.0
1001
ACAD
1000
RTLwPs
1070
   158
  0
INSERT
  5
489E
330
47D2
100
AcDbEntity
  8
30
  6
Continuous
 62
     0
100
AcDbBlockReference
  2
_OPEN
 10
-51.5
 20
-350.336631
 30
0.0
 41
2.0
 42
2.0
 43
2.0
 50
180.0
1001
ACAD
1000
RTLwPs
1070
   158
  0
INSERT
  5
489F
330
47D2
100
AcDbEntity
  8
30
  6
Continuous
 62
     0
100
AcDbBlockReference
  2
_OPEN
 10
51.5
 20
-350.336631
 30
0.0
 41
2.0
 42
2.0
 43
2.0
1001
ACAD
1000
RTLwPs
1070
   158
  0
MTEXT
  5
48A0
330
47D2
100
AcDbEntity
  8
30
  6
Continuous
 62
     0
100
AcDbMText
 10
1.891531999999999
 20
-347.336631
 30
0.0
 40
4.0
 41
0.0
 71
     5
 72
     1
  1
\A1;103
 73
     1
 44
1.0
1001
ACAD
1000
MTEXTBEGIN
1070
    73
1070
     1
1070
    44
1040
1.0
1070
    74
1070
     0
1000
MTEXTEND
1000
MTEXTBEGIN
1070
    73
1070
     1
1070
    44
1040
1.0
1070
    74
1070
     0
1000
MTEXTEND
1000
MTEXTBEGIN
1070
    73
1070
     1
1070
    44
1040
1.0
1070
    74
1070
     0
1000
MTEXTEND
1000
MTEXTBEGIN
1070
    73
1070
     1
1070
    44
1040
1.0
1070
    74
1070
     0
1000
MTEXTEND
1000
MTEXTBEGIN
1070
    73
1070
     1
1070
    44
1040
1.0
1070
    74
1070
     0
1000
MTEXTEND
1000
MTEXTBEGIN
1070
    73
1070
     1
1070
    44
1040
1.0
1070
    74
1070
     0
1000
MTEXTEND
1000
MTEXTBEGIN
1070
    73
1070
     1
1070
    44
1040
1.0
1070
    74
1070
     0
1000
MTEXTEND
1000
MTEXTBEGIN
1070
    73
1070
     1
1070
    44
1040
1.0
1070
    74
1070
     0
1000
MTEXTEND
  0
POINT
  5
48A1
330
47D2
100
AcDbEntity
  8
DEFPOINTS
  6
Continuous
 62
     0
100
AcDbPoint
 10
-51.5
 20
-283.093597
 30
0.0
  0
POINT
  5
48A2
330
47D2
100
AcDbEntity
  8
DEFPOINTS
  6
Continuous
 62
     0
100
AcDbPoint
 10
51.5
 20
-283.093597
 30
0.0
  0
POINT
  5
48A3
330
47D2
100
AcDbEntity
  8
DEFPOINTS
  6
Continuous
 62
     0
100
AcDbPoint
 10
51.5
 20
-350.336631
 30
0.0
  0
ENDBLK
  5
47DD
330
47D2
100
AcDbEntity
  8
0
100
AcDbBlockEnd
  0
BLOCK
  5
4885
330
487B
100
AcDbEntity
  8
0
100
AcDbBlockBegin
  2
*D13
 70
     1
 10
0.0
 20
0.0
 30
0.0
  3
*D13
  1

  0
LINE
  5
487C
330
487B
100
AcDbEntity
  8
30
  6
Continuous
 62
     0
100
AcDbLine
 10
-60.0
 20
-217.0
 30
0.0
 11
-71.650362
 21
-217.0
 31
0.0
1001
ACAD
1000
RTLwPs
1070
   158
  0
LINE
  5
487D
330
487B
100
AcDbEntity
  8
30
  6
Continuous
 62
     0
100
AcDbLine
 10
-62.5
 20
-283.0
 30
0.0
 11
-71.650362
 21
-283.0
 31
0.0
1001
ACAD
1000
RTLwPs
1070
   158
  0
LINE
  5
487E
330
487B
100
AcDbEntity
  8
30
  6
Continuous
 62
     0
100
AcDbLine
 10
-71.150362
 20
-219.0
 30
0.0
 11
-71.150362
 21
-281.0
 31
0.0
1001
ACAD
1000
RTLwPs
1070
   158
  0
INSERT
  5
487F
330
487B
100
AcDbEntity
  8
30
  6
Continuous
 62
     0
100
AcDbBlockReference
  2
_OPEN
 10
-71.150362
 20
-217.0
 30
0.0
 41
2.0
 42
2.0
 43
2.0
 50
90.0
1001
ACAD
1000
RTLwPs
1070
   158
  0
INSERT
  5
4880
330
487B
100
AcDbEntity
  8
30
  6
Continuous
 62
     0
100
AcDbBlockReference
  2
_OPEN
 10
-71.150362
 20
-283.0
 30
0.0
 41
2.0
 42
2.0
 43
2.0
 50
270.0
1001
ACAD
1000
RTLwPs
1070
   158
  0
MTEXT
  5
4881
330
487B
100
AcDbEntity
  8
30
  6
Continuous
 62
     0
100
AcDbMText
 10
-74.150362
 20
-250.0
 30
0.0
 40
4.0
 41
0.0
 71
     5
 72
     1
  1
\A1;66
 11
0.0
 21
1.0
 31
0.0
 73
     1
 44
1.0
1001
ACAD
1000
MTEXTBEGIN
1070
    73
1070
     1
1070
    44
1040
1.0
1070
    74
1070
     0
1000
MTEXTEND
1000
MTEXTBEGIN
1070
    73
1070
     1
1070
    44
1040
1.0
1070
    74
1070
     0
1000
MTEXTEND
1000
MTEXTBEGIN
1070
    73
1070
     1
1070
    44
1040
1.0
1070
    74
1070
     0
1000
MTEXTEND
1000
MTEXTBEGIN
1070
    73
1070
     1
1070
    44
1040
1.0
1070
    74
1070
     0
1000
MTEXTEND
1000
MTEXTBEGIN
1070
    73
1070
     1
1070
    44
1040
1.0
1070
    74
1070
     0
1000
MTEXTEND
1000
MTEXTBEGIN
1070
    73
1070
     1
1070
    44
1040
1.0
1070
    74
1070
     0
1000
MTEXTEND
1000
MTEXTBEGIN
1070
    73
1070
     1
1070
    44
1040
1.0
1070
    74
1070
     0
1000
MTEXTEND
1000
MTEXTBEGIN
1070
    73
1070
     1
1070
    44
1040
1.0
1070
    74
1070
     0
1000
MTEXTEND
  0
POINT
  5
4882
330
487B
100
AcDbEntity
  8
DEFPOINTS
  6
Continuous
 62
     0
100
AcDbPoint
 10
-59.0
 20
-217.0
 30
0.0
  0
POINT
  5
4883
330
487B
100
AcDbEntity
  8
DEFPOINTS
  6
Continuous
 62
     0
100
AcDbPoint
 10
-61.5
 20
-283.0
 30
0.0
  0
POINT
  5
4884
330
487B
100
AcDbEntity
  8
DEFPOINTS
  6
Continuous
 62
     0
100
AcDbPoint
 10
-71.150362
 20
-283.0
 30
0.0
  0
ENDBLK
  5
4886
330
487B
100
AcDbEntity
  8
0
100
AcDbBlockEnd
  0
BLOCK
  5
48C2
330
48B8
100
AcDbEntity
  8
0
100
AcDbBlockBegin
  2
*D14
 70
     1
 10
0.0
 20
0.0
 30
0.0
  3
*D14
  1

  0
LINE
  5
4C67
330
48B8
100
AcDbEntity
  8
30
  6
Continuous
 62
     0
100
AcDbLine
 10
47.5
 20
-180.0
 30
0.0
 11
70.90834100000001
 21
-180.0
 31
0.0
1001
ACAD
1000
RTLwPs
1070
   158
  0
LINE
  5
4C68
330
48B8
100
AcDbEntity
  8
30
  6
Continuous
 62
     0
100
AcDbLine
 10
47.5
 20
-320.000015
 30
0.0
 11
70.90834100000001
 21
-320.000015
 31
0.0
1001
ACAD
1000
RTLwPs
1070
   158
  0
LINE
  5
4C69
330
48B8
100
AcDbEntity
  8
30
  6
Continuous
 62
     0
100
AcDbLine
 10
70.40834100000001
 20
-182.0
 30
0.0
 11
70.40834100000001
 21
-318.000015
 31
0.0
1001
ACAD
1000
RTLwPs
1070
   158
  0
INSERT
  5
4C6A
330
48B8
100
AcDbEntity
  8
30
  6
Continuous
 62
     0
100
AcDbBlockReference
  2
_OPEN
 10
70.40834100000001
 20
-180.0
 30
0.0
 41
2.0
 42
2.0
 43
2.0
 50
90.0
1001
ACAD
1000
RTLwPs
1070
   158
  0
INSERT
  5
4C6B
330
48B8
100
AcDbEntity
  8
30
  6
Continuous
 62
     0
100
AcDbBlockReference
  2
_OPEN
 10
70.40834100000001
 20
-320.000015
 30
0.0
 41
2.0
 42
2.0
 43
2.0
 50
270.0
1001
ACAD
1000
RTLwPs
1070
   158
  0
MTEXT
  5
4C6C
330
48B8
100
AcDbEntity
  8
30
  6
Continuous
 62
     0
100
AcDbMText
 10
67.408341
 20
-250.0000079999999
 30
0.0
 40
4.0
 41
0.0
 71
     5
 72
     1
  1
\A1;140
 11
0.0
 21
1.0
 31
0.0
 73
     1
 44
1.0
1001
ACAD
1000
MTEXTBEGIN
1070
    73
1070
     1
1070
    44
1040
1.0
1070
    74
1070
     0
1000
MTEXTEND
1000
MTEXTBEGIN
1070
    73
1070
     1
1070
    44
1040
1.0
1070
    74
1070
     0
1000
MTEXTEND
1000
MTEXTBEGIN
1070
    73
1070
     1
1070
    44
1040
1.0
1070
    74
1070
     0
1000
MTEXTEND
1000
MTEXTBEGIN
1070
    73
1070
     1
1070
    44
1040
1.0
1070
    74
1070
     0
1000
MTEXTEND
1000
MTEXTBEGIN
1070
    73
1070
     1
1070
    44
1040
1.0
1070
    74
1070
     0
1000
MTEXTEND
  0
POINT
  5
4C6D
330
48B8
100
AcDbEntity
  8
DEFPOINTS
  6
Continuous
 62
     0
100
AcDbPoint
 10
46.5
 20
-180.0
 30
0.0
  0
POINT
  5
4C6E
330
48B8
100
AcDbEntity
  8
DEFPOINTS
  6
Continuous
 62
     0
100
AcDbPoint
 10
46.5
 20
-320.000015
 30
0.0
  0
POINT
  5
4C6F
330
48B8
100
AcDbEntity
  8
DEFPOINTS
  6
Continuous
 62
     0
100
AcDbPoint
 10
70.40834100000001
 20
-320.000015
 30
0.0
  0
ENDBLK
  5
48C3
330
48B8
100
AcDbEntity
  8
0
100
AcDbBlockEnd
  0
BLOCK
  5
48CF
330
48C5
100
AcDbEntity
  8
0
100
AcDbBlockBegin
  2
*D15
 70
     1
 10
0.0
 20
0.0
 30
0.0
  3
*D15
  1

  0
LINE
  5
4C97
330
48C5
100
AcDbEntity
  8
30
  6
Continuous
 62
     0
100
AcDbLine
 10
-46.5
 20
-321.000015
 30
0.0
 11
-46.5
 21
-340.301571
 31
0.0
1001
ACAD
1000
RTLwPs
1070
   158
  0
LINE
  5
4C98
330
48C5
100
AcDbEntity
  8
30
  6
Continuous
 62
     0
100
AcDbLine
 10
46.5
 20
-321.000015
 30
0.0
 11
46.5
 21
-340.301571
 31
0.0
1001
ACAD
1000
RTLwPs
1070
   158
  0
LINE
  5
4C99
330
48C5
100
AcDbEntity
  8
30
  6
Continuous
 62
     0
100
AcDbLine
 10
-44.5
 20
-339.801571
 30
0.0
 11
44.5
 21
-339.801571
 31
0.0
1001
ACAD
1000
RTLwPs
1070
   158
  0
INSERT
  5
4C9A
330
48C5
100
AcDbEntity
  8
30
  6
Continuous
 62
     0
100
AcDbBlockReference
  2
_OPEN
 10
-46.5
 20
-339.801571
 30
0.0
 41
2.0
 42
2.0
 43
2.0
 50
180.0
1001
ACAD
1000
RTLwPs
1070
   158
  0
INSERT
  5
4C9B
330
48C5
100
AcDbEntity
  8
30
  6
Continuous
 62
     0
100
AcDbBlockReference
  2
_OPEN
 10
46.5
 20
-339.801571
 30
0.0
 41
2.0
 42
2.0
 43
2.0
1001
ACAD
1000
RTLwPs
1070
   158
  0
MTEXT
  5
4C9C
330
48C5
100
AcDbEntity
  8
30
  6
Continuous
 62
     0
100
AcDbMText
 10
0.0
 20
-336.801571
 30
0.0
 40
4.0
 41
0.0
 71
     5
 72
     1
  1
\A1;93
 73
     1
 44
1.0
1001
ACAD
1000
MTEXTBEGIN
1070
    73
1070
     1
1070
    44
1040
1.0
1070
    74
1070
     0
1000
MTEXTEND
1000
MTEXTBEGIN
1070
    73
1070
     1
1070
    44
1040
1.0
1070
    74
1070
     0
1000
MTEXTEND
1000
MTEXTBEGIN
1070
    73
1070
     1
1070
    44
1040
1.0
1070
    74
1070
     0
1000
MTEXTEND
1000
MTEXTBEGIN
1070
    73
1070
     1
1070
    44
1040
1.0
1070
    74
1070
     0
1000
MTEXTEND
1000
MTEXTBEGIN
1070
    73
1070
     1
1070
    44
1040
1.0
1070
    74
1070
     0
1000
MTEXTEND
  0
POINT
  5
4C9D
330
48C5
100
AcDbEntity
  8
DEFPOINTS
  6
Continuous
 62
     0
100
AcDbPoint
 10
-46.5
 20
-320.000015
 30
0.0
  0
POINT
  5
4C9E
330
48C5
100
AcDbEntity
  8
DEFPOINTS
  6
Continuous
 62
     0
100
AcDbPoint
 10
46.5
 20
-320.000015
 30
0.0
  0
POINT
  5
4C9F
330
48C5
100
AcDbEntity
  8
DEFPOINTS
  6
Continuous
 62
     0
100
AcDbPoint
 10
46.5
 20
-339.801571
 30
0.0
  0
ENDBLK
  5
48D0
330
48C5
100
AcDbEntity
  8
0
100
AcDbBlockEnd
  0
BLOCK
  5
4C83
330
4C7A
100
AcDbEntity
  8
0
100
AcDbBlockBegin
  2
*D16
 70
     1
 10
0.0
 20
0.0
 30
0.0
  3
*D16
  1

  0
LINE
  5
4C7B
330
4C7A
100
AcDbEntity
  8
30
  6
Continuous
 62
     0
100
AcDbLine
 10
86.263442
 20
-203.720799
 30
0.0
 11
78.59677600000001
 21
-203.720799
 31
0.0
1001
ACAD
1000
RTLwPs
1070
   158
  0
LINE
  5
4C7C
330
4C7A
100
AcDbEntity
  8
30
  6
Continuous
 62
     0
100
AcDbLine
 10
78.59677600000001
 20
-203.720799
 30
0.0
 11
55.989835
 21
-214.7996859999999
 31
0.0
1001
ACAD
1000
RTLwPs
1070
   158
  0
MTEXT
  5
4C7D
330
4C7A
100
AcDbEntity
  8
30
  6
Continuous
 62
     0
100
AcDbMText
 10
82.930109
 20
-200.7207989999999
 30
0.0
 40
4.0
 41
0.0
 71
     5
 72
     1
  1
\A1;\U+22056
 73
     1
 44
1.0
1001
ACAD
1000
MTEXTBEGIN
1070
    73
1070
     1
1070
    44
1040
1.0
1070
    74
1070
     0
1000
MTEXTEND
1000
MTEXTBEGIN
1070
    73
1070
     1
1070
    44
1040
1.0
1070
    74
1070
     0
1000
MTEXTEND
1000
MTEXTBEGIN
1070
    73
1070
     1
1070
    44
1040
1.0
1070
    74
1070
     0
1000
MTEXTEND
1000
MTEXTBEGIN
1070
    73
1070
     1
1070
    44
1040
1.0
1070
    74
1070
     0
1000
MTEXTEND
1000
MTEXTBEGIN
1070
    73
1070
     1
1070
    44
1040
1.0
1070
    74
1070
     0
1000
MTEXTEND
  0
INSERT
  5
4C7E
330
4C7A
100
AcDbEntity
  8
30
  6
Continuous
 62
     0
100
AcDbBlockReference
  2
_OPEN
 10
54.19390100000001
 20
-215.6798109999999
 30
0.0
 41
2.0
 42
2.0
 43
2.0
 50
206.10789
1001
ACAD
1000
RTLwPs
1070
   158
  0
LINE
  5
4C7F
330
4C7A
100
AcDbEntity
  8
30
  6
Continuous
 62
     0
100
AcDbLine
 10
51.41
 20
-217.0
 30
0.0
 11
51.59
 21
-217.0
 31
0.0
1001
ACAD
1000
RTLwPs
1070
   158
  0
LINE
  5
4C80
330
4C7A
100
AcDbEntity
  8
30
  6
Continuous
 62
     0
100
AcDbLine
 10
51.5
 20
-217.09
 30
0.0
 11
51.5
 21
-216.9099999999999
 31
0.0
1001
ACAD
1000
RTLwPs
1070
   158
  0
POINT
  5
4C81
330
4C7A
100
AcDbEntity
  8
DEFPOINTS
  6
Continuous
 62
     0
100
AcDbPoint
 10
54.19390100000001
 20
-215.6798109999999
 30
0.0
  0
POINT
  5
4C82
330
4C7A
100
AcDbEntity
  8
DEFPOINTS
  6
Continuous
 62
     0
100
AcDbPoint
 10
48.80609899999999
 20
-218.3201889999999
 30
0.0
  0
ENDBLK
  5
4C84
330
4C7A
100
AcDbEntity
  8
0
100
AcDbBlockEnd
  0
ENDSEC
  0
SECTION
  2
ENTITIES
  0
LINE
  5
B4
330
1E
100
AcDbEntity
  8
16
100
AcDbLine
 10
0.0
 20
-68.697891
 30
0.0
 11
0.0
 21
71.25
 31
0.0
  0
LINE
  5
B5
330
1E
100
AcDbEntity
  8
16
100
AcDbLine
 10
48.424128
 20
0.0
 30
0.0
 11
-56.608689
 21
0.0
 31
0.0
  0
MTEXT
  5
BF3
330
1E
100
AcDbEntity
  8
24
  6
Continuous
100
AcDbMText
 10
142.118191
 20
177.5
 30
0.0
 40
3.0
 41
0.0
 71
     1
 72
     1
  1
\A1;
 73
     1
 44
1.0
1001
ACAD
1000
MTEXTBEGIN
1070
    73
1070
     1
1070
    44
1040
1.0
1070
    74
1070
     0
1000
MTEXTEND
1000
MTEXTBEGIN
1070
    73
1070
     1
1070
    44
1040
1.0
1070
    74
1070
     0
1000
MTEXTEND
1000
MTEXTBEGIN
1070
    73
1070
     1
1070
    44
1040
1.0
1070
    74
1070
     0
1000
MTEXTEND
1000
MTEXTBEGIN
1070
    73
1070
     1
1070
    44
1040
1.0
1070
    74
1070
     0
1000
MTEXTEND
1000
MTEXTBEGIN
1070
    73
1070
     1
1070
    44
1040
1.0
1070
    74
1070
     0
1000
MTEXTEND
1000
MTEXTBEGIN
1070
    73
1070
     1
1070
    44
1040
1.0
1070
    74
1070
     0
1000
MTEXTEND
1000
MTEXTBEGIN
1070
    73
1070
     1
1070
    44
1040
1.0
1070
    74
1070
     0
1000
MTEXTEND
1000
MTEXTBEGIN
1070
    73
1070
     1
1070
    44
1040
1.0
1070
    74
1070
     0
1000
MTEXTEND
1000
MTEXTBEGIN
1070
    73
1070
     1
1070
    44
1040
1.0
1070
    74
1070
     0
1000
MTEXTEND
1000
MTEXTBEGIN
1070
    73
1070
     1
1070
    44
1040
1.0
1070
    74
1070
     0
1000
MTEXTEND
1000
MTEXTBEGIN
1070
    73
1070
     1
1070
    44
1040
1.0
1070
    74
1070
     0
1000
MTEXTEND
1000
MTEXTBEGIN
1070
    73
1070
     1
1070
    44
1040
1.0
1070
    74
1070
     0
1000
MTEXTEND
1000
MTEXTBEGIN
1070
    73
1070
     1
1070
    44
1040
1.0
1070
    74
1070
     0
1000
MTEXTEND
1000
MTEXTBEGIN
1070
    73
1070
     1
1070
    44
1040
1.0
1070
    74
1070
     0
1000
MTEXTEND
1000
MTEXTBEGIN
1070
    73
1070
     1
1070
    44
1040
1.0
1070
    74
1070
     0
1000
MTEXTEND
1000
MTEXTBEGIN
1070
    73
1070
     1
1070
    44
1040
1.0
1070
    74
1070
     0
1000
MTEXTEND
1000
MTEXTBEGIN
1070
    73
1070
     1
1070
    44
1040
1.0
1070
    74
1070
     0
1000
MTEXTEND
1000
MTEXTBEGIN
1070
    73
1070
     1
1070
    44
1040
1.0
1070
    74
1070
     0
1000
MTEXTEND
1000
MTEXTBEGIN
1070
    73
1070
     1
1070
    44
1040
1.0
1070
    74
1070
     0
1000
MTEXTEND
1000
MTEXTBEGIN
1070
    73
1070
     1
1070
    44
1040
1.0
1070
    74
1070
     0
1000
MTEXTEND
1000
MTEXTBEGIN
1070
    73
1070
     1
1070
    44
1040
1.0
1070
    74
1070
     0
1000
MTEXTEND
1000
MTEXTBEGIN
1070
    73
1070
     1
1070
    44
1040
1.0
1070
    74
1070
     0
1000
MTEXTEND
1000
MTEXTBEGIN
1070
    73
1070
     1
1070
    44
1040
1.0
1070
    74
1070
     0
1000
MTEXTEND
  0
LEADER
  5
C52
330
1E
100
AcDbEntity
  8
30
  6
Continuous
100
AcDbLeader
  3
STANDARD
 76
     3
 10
269.388914
 20
-47.93937
 30
0.0
 10
281.2435889999999
 20
-26.940144
 30
0.0
 10
264.8988109999999
 20
-26.940144
 30
0.0
211
-1.0
221
0.0
231
0.0
210
0.0
220
0.0
230
-1.0
1001
ACAD
1000
DSTYLE
1002
{
1070
     5
1000
OPEN
1070
   342
1005
3B2
1002
}
  0
TEXT
  5
C53
330
1E
100
AcDbEntity
  8
30
  6
Continuous
100
AcDbText
 10
266.448047
 20
-24.51905299999999
 30
0.0
 40
4.0
  1
M8
100
AcDbText
  0
LINE
  5
1C9A
330
1E
100
AcDbEntity
  8
16
100
AcDbLine
 10
0.118191
 20
82.65937199999999
 30
0.0
 11
0.118191
 21
225.159372
 31
0.0
  0
LINE
  5
1C9B
330
1E
100
AcDbEntity
  8
16
100
AcDbLine
 10
224.1890319999999
 20
0.0
 30
0.0
 11
116.39371
 21
0.0
 31
0.0
  0
LINE
  5
2260
330
1E
100
AcDbEntity
  8
16
100
AcDbLine
 10
48.424128
 20
-250.0
 30
0.0
 11
-56.608689
 21
-250.0
 31
0.0
  0
LINE
  5
2261
330
1E
100
AcDbEntity
  8
16
100
AcDbLine
 10
0.0
 20
-318.697891
 30
0.0
 11
0.0
 21
-178.75
 31
0.0
  0
TEXT
  5
24CC
330
1E
100
AcDbEntity
  8
19
  6
Continuous
100
AcDbText
 10
136.525794
 20
209.492089
 30
0.0
 40
5.0
  1
XE100CB 3P FP
  7
STANDARD1
100
AcDbText
  0
TEXT
  5
3821
330
1E
100
AcDbEntity
  8
19
  6
Continuous
100
AcDbText
 10
136.525794
 20
200.6626579999999
 30
0.0
 40
5.0
  1
(60-100A)
  7
STANDARD1
100
AcDbText
  0
LINE
  5
3EAB
330
1E
100
AcDbEntity
  8
10
  6
CONTINOUS
100
AcDbLine
 10
-37.5
 20
144.2437699999999
 30
0.0
 11
-37.5
 21
204.999878
 31
0.0
  0
LINE
  5
3EAE
330
1E
100
AcDbEntity
  8
10
  6
CONTINOUS
100
AcDbLine
 10
37.5
 20
145.0
 30
0.0
 11
37.5
 21
204.999878
 31
0.0
  0
LINE
  5
3EB1
330
1E
100
AcDbEntity
  8
10
  6
CONTINOUS
100
AcDbLine
 10
-37.381809
 20
130.0
 30
0.0
 11
37.61819099999999
 21
130.0
 31
0.0
  0
LINE
  5
3EB2
330
1E
100
AcDbEntity
  8
10
  6
CONTINOUS
100
AcDbLine
 10
5.118191
 20
111.0
 30
0.0
 11
5.618191
 21
125.0
 31
0.0
  0
LINE
  5
3EB3
330
1E
100
AcDbEntity
  8
10
  6
CONTINOUS
100
AcDbLine
 10
-4.881808999999999
 20
111.0
 30
0.0
 11
-5.381808999999999
 21
125.0
 31
0.0
  0
LINE
  5
3EB4
330
1E
100
AcDbEntity
  8
10
  6
CONTINOUS
100
AcDbLine
 10
-10.881809
 20
125.0
 30
0.0
 11
11.11819099999999
 21
125.0
 31
0.0
  0
LINE
  5
3EB5
330
1E
100
AcDbEntity
  8
10
  6
CONTINOUS
100
AcDbLine
 10
-10.881809
 20
125.0
 30
0.0
 11
-10.881809
 21
130.0
 31
0.0
  0
LINE
  5
3EB6
330
1E
100
AcDbEntity
  8
10
  6
CONTINOUS
100
AcDbLine
 10
11.11819099999999
 20
125.0
 30
0.0
 11
11.11819099999999
 21
130.0
 31
0.0
  0
LINE
  5
3EB7
330
1E
100
AcDbEntity
  8
10
  6
CONTINOUS
100
AcDbLine
 10
-4.881808999999999
 20
111.0
 30
0.0
 11
5.118191
 21
111.0
 31
0.0
  0
LINE
  5
3EBE
330
1E
100
AcDbEntity
  8
18
100
AcDbLine
 10
87.61819100000002
 20
147.3000489999999
 30
0.0
 11
-87.38180899999999
 21
147.3000489999999
 31
0.0
  0
LINE
  5
3F0A
330
1E
100
AcDbEntity
  8
18
100
AcDbLine
 10
-87.39947200000001
 20
145.0
 30
0.0
 11
87.61819100000002
 21
145.0
 31
0.0
  0
LINE
  5
3F0B
330
1E
100
AcDbEntity
  8
10
  6
CONTINOUS
100
AcDbLine
 10
-37.5
 20
204.999878
 30
0.0
 11
37.5
 21
204.999878
 31
0.0
  0
DIMENSION
  5
409D
330
1E
100
AcDbEntity
  8
30
  6
Continuous
100
AcDbDimension
  2
*D1
 10
0.118191
 20
300.859649
 30
0.0
 11
-12.381809
 21
303.859649
 31
0.0
 70
    32
 71
     5
 42
-1.0
  3
STANDARD
100
AcDbAlignedDimension
 13
-24.881809
 23
257.099854
 33
0.0
 14
0.118191
 24
292.0998539999999
 34
0.0
100
AcDbRotatedDimension
  0
DIMENSION
  5
40AA
330
1E
100
AcDbEntity
  8
30
  6
Continuous
100
AcDbDimension
  2
*D2
 10
25.118191
 20
300.859649
 30
0.0
 11
12.618191
 21
303.859649
 31
0.0
 70
    32
 71
     5
 42
-1.0
  3
STANDARD
100
AcDbAlignedDimension
 13
0.118191
 23
292.0998539999999
 33
0.0
 14
25.118191
 24
257.099854
 34
0.0
100
AcDbRotatedDimension
1001
ACAD
1000
DSTYLE
1002
{
1070
   287
1070
     4
1070
   287
1070
     4
1070
   287
1070
     4
1070
   287
1070
     4
1070
   287
1070
     4
1070
   287
1070
     4
1070
   287
1070
     4
1070
   287
1070
     4
1070
   287
1070
     4
1070
   279
1070
     1
1002
}
  0
LINE
  5
4391
330
1E
100
AcDbEntity
  8
10
  6
DASHED
100
AcDbLine
 10
37.5
 20
-65.0
 30
0.0
 11
-37.5
 21
-65.0
 31
0.0
  0
LINE
  5
4392
330
1E
100
AcDbEntity
  8
10
  6
DASHED
100
AcDbLine
 10
37.5
 20
65.0
 30
0.0
 11
-37.5
 21
65.0
 31
0.0
  0
LINE
  5
4395
330
1E
100
AcDbEntity
  8
10
  6
CONTINOUS
100
AcDbLine
 10
-59.0
 20
-80.0
 30
0.0
 11
59.0
 21
-80.0
 31
0.0
  0
LINE
  5
4396
330
1E
100
AcDbEntity
  8
10
  6
CONTINOUS
100
AcDbLine
 10
-59.0
 20
80.0
 30
0.0
 11
59.0
 21
80.0
 31
0.0
  0
LINE
  5
4397
330
1E
100
AcDbEntity
  8
10
  6
CONTINOUS
100
AcDbLine
 10
11.0
 20
25.0
 30
0.0
 11
11.0
 21
-25.0
 31
0.0
  0
LINE
  5
4398
330
1E
100
AcDbEntity
  8
10
  6
CONTINOUS
100
AcDbLine
 10
-11.0
 20
25.0
 30
0.0
 11
-11.0
 21
-25.0
 31
0.0
  0
LINE
  5
4399
330
1E
100
AcDbEntity
  8
10
  6
CONTINOUS
100
AcDbLine
 10
6.25
 20
-15.5
 30
0.0
 11
6.25
 21
-23.0
 31
0.0
  0
LINE
  5
439A
330
1E
100
AcDbEntity
  8
10
  6
CONTINOUS
100
AcDbLine
 10
-6.25
 20
-15.5
 30
0.0
 11
-6.25
 21
-23.0
 31
0.0
  0
LINE
  5
439B
330
1E
100
AcDbEntity
  8
10
  6
DASHED
100
AcDbLine
 10
-37.5
 20
65.0
 30
0.0
 11
-37.5
 21
-65.0
 31
0.0
  0
LINE
  5
439D
330
1E
100
AcDbEntity
  8
10
  6
CONTINOUS
100
AcDbLine
 10
-59.0
 20
-80.0
 30
0.0
 11
-59.0
 21
80.0
 31
0.0
  0
LINE
  5
43A2
330
1E
100
AcDbEntity
  8
10
  6
CONTINOUS
100
AcDbLine
 10
11.0
 20
-25.0
 30
0.0
 11
-11.0
 21
-25.0
 31
0.0
  0
LINE
  5
43A3
330
1E
100
AcDbEntity
  8
10
  6
CONTINOUS
100
AcDbLine
 10
6.25
 20
-23.0
 30
0.0
 11
-6.25
 21
-23.0
 31
0.0
  0
LINE
  5
43A8
330
1E
100
AcDbEntity
  8
10
  6
CONTINOUS
100
AcDbLine
 10
11.0
 20
25.0
 30
0.0
 11
-11.0
 21
25.0
 31
0.0
  0
LINE
  5
43A9
330
1E
100
AcDbEntity
  8
10
  6
CONTINOUS
100
AcDbLine
 10
6.25
 20
19.5
 30
0.0
 11
-6.25
 21
19.5
 31
0.0
  0
LINE
  5
43AA
330
1E
100
AcDbEntity
  8
10
  6
CONTINOUS
100
AcDbLine
 10
-6.25
 20
24.0
 30
0.0
 11
-6.25
 21
-11.399902
 31
0.0
  0
LINE
  5
43AB
330
1E
100
AcDbEntity
  8
10
  6
CONTINOUS
100
AcDbLine
 10
6.25
 20
24.0
 30
0.0
 11
-6.25
 21
24.0
 31
0.0
  0
LINE
  5
43AC
330
1E
100
AcDbEntity
  8
10
  6
CONTINOUS
100
AcDbLine
 10
6.25
 20
24.0
 30
0.0
 11
6.25
 21
-11.399902
 31
0.0
  0
LINE
  5
43AD
330
1E
100
AcDbEntity
  8
10
  6
CONTINOUS
100
AcDbLine
 10
6.25
 20
-11.399902
 30
0.0
 11
-6.25
 21
-11.399902
 31
0.0
  0
LINE
  5
43AE
330
1E
100
AcDbEntity
  8
10
  6
CONTINOUS
100
AcDbLine
 10
6.25
 20
19.5
 30
0.0
 11
-6.25
 21
19.5
 31
0.0
  0
LINE
  5
43AF
330
1E
100
AcDbEntity
  8
10
  6
CONTINOUS
100
AcDbLine
 10
6.25
 20
-15.5
 30
0.0
 11
-6.25
 21
-15.5
 31
0.0
  0
LINE
  5
43B0
330
1E
100
AcDbEntity
  8
10
  6
DASHED
100
AcDbLine
 10
37.5
 20
65.0
 30
0.0
 11
37.5
 21
-65.0
 31
0.0
  0
LINE
  5
43B2
330
1E
100
AcDbEntity
  8
10
  6
CONTINOUS
100
AcDbLine
 10
59.0
 20
-80.0
 30
0.0
 11
59.0
 21
80.0
 31
0.0
  0
DIMENSION
  5
43E5
330
1E
100
AcDbEntity
  8
30
  6
Continuous
100
AcDbDimension
  2
*D3
 10
-79.540015
 20
-80.0
 30
0.0
 11
-82.54001499999999
 21
0.0
 31
0.0
 70
    32
 71
     5
 42
-1.0
  3
STANDARD
100
AcDbAlignedDimension
 13
-59.0
 23
80.0
 33
0.0
 14
-59.0
 24
-80.0
 34
0.0
 50
90.0
100
AcDbRotatedDimension
  0
DIMENSION
  5
43F2
330
1E
100
AcDbEntity
  8
30
  6
Continuous
100
AcDbDimension
  2
*D4
 10
59.0
 20
-99.76905100000001
 30
0.0
 11
0.0
 21
-96.769051
 31
0.0
 70
    32
 71
     5
 42
-1.0
  3
STANDARD
100
AcDbAlignedDimension
 13
-59.0
 23
-80.0
 33
0.0
 14
59.0
 24
-80.0
 34
0.0
100
AcDbRotatedDimension
  0
DIMENSION
  5
450C
330
1E
100
AcDbEntity
  8
30
  6
Continuous
100
AcDbDimension
  2
*D5
 10
131.3937099999999
 20
-139.423286
 30
0.0
 11
112.841276
 21
-139.423286
 31
0.0
 70
   160
  1
33.2
 71
     5
 42
-1.0
  3
STANDARD
100
AcDbAlignedDimension
 13
98.193759
 23
-2.093596999999999
 33
0.0
 14
131.3937099999999
 24
-115.093597
 34
0.0
100
AcDbRotatedDimension
  0
LINE
  5
450D
330
1E
100
AcDbEntity
  8
18
100
AcDbLine
 10
135.39371
 20
115.0
 30
0.0
 11
135.39371
 21
-115.0
 31
0.0
  0
LINE
  5
450E
330
1E
100
AcDbEntity
  8
10
  6
CONTINOUS
100
AcDbLine
 10
131.3937099999999
 20
80.0
 30
0.0
 11
131.3937099999999
 21
-80.0
 31
0.0
  0
LINE
  5
450F
330
1E
100
AcDbEntity
  8
10
  6
CONTINOUS
100
AcDbLine
 10
112.193759
 20
25.0
 30
0.0
 11
112.193759
 21
-25.0
 31
0.0
  0
LINE
  5
4510
330
1E
100
AcDbEntity
  8
10
  6
CONTINOUS
100
AcDbLine
 10
191.393588
 20
65.0
 30
0.0
 11
191.393588
 21
-65.0
 31
0.0
  0
LINE
  5
4511
330
1E
100
AcDbEntity
  8
10
  6
CONTINOUS
100
AcDbLine
 10
116.39371
 20
80.0
 30
0.0
 11
116.39371
 21
-80.0
 31
0.0
  0
LINE
  5
4512
330
1E
100
AcDbEntity
  8
10
  6
CONTINOUS
100
AcDbLine
 10
131.3937099999999
 20
-80.0
 30
0.0
 11
116.39371
 21
-80.0
 31
0.0
  0
DIMENSION
  5
4513
330
1E
100
AcDbEntity
  8
30
  6
Continuous
100
AcDbDimension
  2
*D6
 10
116.39371
 20
-129.492056
 30
0.0
 11
123.719677
 21
-129.492056
 31
0.0
 70
   160
  1
15
 71
     5
 42
-1.0
  3
STANDARD
100
AcDbAlignedDimension
 13
131.3937099999999
 23
-115.093597
 33
0.0
 14
116.39371
 24
-80.093597
 34
0.0
 50
180.0
100
AcDbRotatedDimension
  0
LINE
  5
4514
330
1E
100
AcDbEntity
  8
10
  6
CONTINOUS
100
AcDbLine
 10
112.193759
 20
-25.0
 30
0.0
 11
116.39371
 21
-25.0
 31
0.0
  0
LINE
  5
4516
330
1E
100
AcDbEntity
  8
21
  6
Continuous
100
AcDbLine
 10
191.393588
 20
-47.5
 30
0.0
 11
211.293735
 21
-47.5
 31
0.0
  0
LINE
  5
4517
330
1E
100
AcDbEntity
  8
21
  6
Continuous
100
AcDbLine
 10
191.39371
 20
-62.5
 30
0.0
 11
211.293735
 21
-62.5
 31
0.0
  0
LINE
  5
4518
330
1E
100
AcDbEntity
  8
18
100
AcDbLine
 10
135.39371
 20
-115.0
 30
0.0
 11
131.3937099999999
 21
-115.0
 31
0.0
  0
LINE
  5
4519
330
1E
100
AcDbEntity
  8
18
100
AcDbLine
 10
131.3937099999999
 20
-115.0
 30
0.0
 11
131.3937099999999
 21
-80.0
 31
0.0
  0
LINE
  5
451A
330
1E
100
AcDbEntity
  8
10
  6
CONTINOUS
100
AcDbLine
 10
191.393588
 20
-65.0
 30
0.0
 11
131.3937099999999
 21
-65.0
 31
0.0
  0
LINE
  5
451D
330
1E
100
AcDbEntity
  8
21
  6
Continuous
100
AcDbLine
 10
246.293735
 20
-60.0
 30
0.0
 11
247.293735
 21
-60.0
 31
0.0
  0
LINE
  5
451E
330
1E
100
AcDbEntity
  8
21
  6
Continuous
100
AcDbLine
 10
246.293735
 20
-50.0
 30
0.0
 11
247.293735
 21
-50.0
 31
0.0
  0
LINE
  5
451F
330
1E
100
AcDbEntity
  8
21
  6
Continuous
100
AcDbLine
 10
234.404697
 20
-47.5
 30
0.0
 11
246.293735
 21
-47.5
 31
0.0
  0
LINE
  5
4520
330
1E
100
AcDbEntity
  8
21
  6
Continuous
100
AcDbLine
 10
246.293735
 20
-62.5
 30
0.0
 11
234.404697
 21
-62.5
 31
0.0
  0
LINE
  5
4521
330
1E
100
AcDbEntity
  8
21
  6
Continuous
100
AcDbLine
 10
246.293735
 20
-62.5
 30
0.0
 11
246.293735
 21
-47.5
 31
0.0
  0
LINE
  5
4522
330
1E
100
AcDbEntity
  8
18
100
AcDbLine
 10
219.293735
 20
-40.03051699999999
 30
0.0
 11
219.293735
 21
-70.312988
 31
0.0
  0
LINE
  5
4523
330
1E
100
AcDbEntity
  8
18
100
AcDbLine
 10
217.293735
 20
-40.03051699999999
 30
0.0
 11
217.293735
 21
-70.312988
 31
0.0
  0
LINE
  5
4524
330
1E
100
AcDbEntity
  8
21
  6
Continuous
100
AcDbLine
 10
217.293735
 20
-51.0
 30
0.0
 11
212.2937349999999
 21
-51.0
 31
0.0
  0
LINE
  5
4525
330
1E
100
AcDbEntity
  8
21
  6
Continuous
100
AcDbLine
 10
220.8937099999999
 20
-58.752807
 30
0.0
 11
229.3937099999999
 21
-58.752807
 31
0.0
  0
LINE
  5
4526
330
1E
100
AcDbEntity
  8
21
  6
Continuous
100
AcDbLine
 10
220.8937099999999
 20
-51.247192
 30
0.0
 11
229.3937099999999
 21
-51.247192
 31
0.0
  0
LINE
  5
4527
330
1E
100
AcDbEntity
  8
21
  6
Continuous
100
AcDbLine
 10
229.3937099999999
 20
-47.494506
 30
0.0
 11
220.8937099999999
 21
-47.494506
 31
0.0
  0
LINE
  5
4528
330
1E
100
AcDbEntity
  8
21
  6
Continuous
100
AcDbLine
 10
229.3937099999999
 20
-62.50549300000001
 30
0.0
 11
229.3937099999999
 21
-47.494506
 31
0.0
  0
LINE
  5
4529
330
1E
100
AcDbEntity
  8
21
  6
Continuous
100
AcDbLine
 10
220.8937099999999
 20
-62.50549300000001
 30
0.0
 11
229.3937099999999
 21
-62.50549300000001
 31
0.0
  0
LINE
  5
452A
330
1E
100
AcDbEntity
  8
21
  6
Continuous
100
AcDbLine
 10
237.2937349999999
 20
-51.0
 30
0.0
 11
229.3937099999999
 21
-51.0
 31
0.0
  0
LINE
  5
452B
330
1E
100
AcDbEntity
  8
21
  6
Continuous
100
AcDbLine
 10
217.293735
 20
-59.0
 30
0.0
 11
212.2937349999999
 21
-59.0
 31
0.0
  0
LINE
  5
452C
330
1E
100
AcDbEntity
  8
21
  6
Continuous
100
AcDbLine
 10
237.2937349999999
 20
-59.0
 30
0.0
 11
229.3937099999999
 21
-59.0
 31
0.0
  0
LINE
  5
452D
330
1E
100
AcDbEntity
  8
21
  6
Continuous
100
AcDbLine
 10
212.2937349999999
 20
-62.5
 30
0.0
 11
212.2937349999999
 21
-47.5
 31
0.0
  0
LINE
  5
452E
330
1E
100
AcDbEntity
  8
21
  6
Continuous
100
AcDbLine
 10
217.293735
 20
-47.5
 30
0.0
 11
212.2937349999999
 21
-47.5
 31
0.0
  0
LINE
  5
452F
330
1E
100
AcDbEntity
  8
21
  6
Continuous
100
AcDbLine
 10
217.293735
 20
-62.5
 30
0.0
 11
212.2937349999999
 21
-62.5
 31
0.0
  0
LINE
  5
4530
330
1E
100
AcDbEntity
  8
21
  6
Continuous
100
AcDbLine
 10
220.8937099999999
 20
-64.0
 30
0.0
 11
220.8937099999999
 21
-46.0
 31
0.0
  0
LINE
  5
4531
330
1E
100
AcDbEntity
  8
21
  6
Continuous
100
AcDbLine
 10
219.293735
 20
-46.0
 30
0.0
 11
220.8937099999999
 21
-46.0
 31
0.0
  0
LINE
  5
4532
330
1E
100
AcDbEntity
  8
21
  6
Continuous
100
AcDbLine
 10
219.293735
 20
-64.0
 30
0.0
 11
220.8937099999999
 21
-64.0
 31
0.0
  0
LINE
  5
4533
330
1E
100
AcDbEntity
  8
21
  6
Continuous
100
AcDbLine
 10
211.293735
 20
-60.0
 30
0.0
 11
212.2937349999999
 21
-60.0
 31
0.0
  0
LINE
  5
4534
330
1E
100
AcDbEntity
  8
21
  6
Continuous
100
AcDbLine
 10
211.293735
 20
-50.0
 30
0.0
 11
212.2937349999999
 21
-50.0
 31
0.0
  0
LINE
  5
4535
330
1E
100
AcDbEntity
  8
21
  6
Continuous
100
AcDbLine
 10
237.2937349999999
 20
-59.0
 30
0.0
 11
237.2937349999999
 21
-51.0
 31
0.0
  0
LINE
  5
4536
330
1E
100
AcDbEntity
  8
21
  6
Continuous
100
AcDbLine
 10
211.293735
 20
-62.5
 30
0.0
 11
211.293735
 21
-47.5
 31
0.0
  0
LINE
  5
4537
330
1E
100
AcDbEntity
  8
18
100
AcDbLine
 10
217.293735
 20
-40.03051699999999
 30
0.0
 11
219.293735
 21
-40.03051699999999
 31
0.0
  0
LINE
  5
4538
330
1E
100
AcDbEntity
  8
18
100
AcDbLine
 10
252.2937349999999
 20
-40.03051699999999
 30
0.0
 11
252.2937349999999
 21
-70.312988
 31
0.0
  0
LINE
  5
4539
330
1E
100
AcDbEntity
  8
21
  6
Continuous
100
AcDbLine
 10
272.293735
 20
-59.0
 30
0.0
 11
272.293735
 21
-51.0
 31
0.0
  0
LINE
  5
453A
330
1E
100
AcDbEntity
  8
18
100
AcDbLine
 10
254.2937349999999
 20
-40.03051699999999
 30
0.0
 11
254.2937349999999
 21
-70.312988
 31
0.0
  0
LINE
  5
453B
330
1E
100
AcDbEntity
  8
21
  6
Continuous
100
AcDbLine
 10
255.89371
 20
-51.247192
 30
0.0
 11
264.39371
 21
-51.247192
 31
0.0
  0
LINE
  5
453C
330
1E
100
AcDbEntity
  8
21
  6
Continuous
100
AcDbLine
 10
255.89371
 20
-58.752807
 30
0.0
 11
264.39371
 21
-58.752807
 31
0.0
  0
LINE
  5
453D
330
1E
100
AcDbEntity
  8
21
  6
Continuous
100
AcDbLine
 10
264.39371
 20
-62.50549300000001
 30
0.0
 11
264.39371
 21
-47.494506
 31
0.0
  0
LINE
  5
453E
330
1E
100
AcDbEntity
  8
21
  6
Continuous
100
AcDbLine
 10
264.39371
 20
-47.494506
 30
0.0
 11
255.89371
 21
-47.494506
 31
0.0
  0
LINE
  5
453F
330
1E
100
AcDbEntity
  8
21
  6
Continuous
100
AcDbLine
 10
255.89371
 20
-62.50549300000001
 30
0.0
 11
264.39371
 21
-62.50549300000001
 31
0.0
  0
LINE
  5
4540
330
1E
100
AcDbEntity
  8
21
  6
Continuous
100
AcDbLine
 10
255.89371
 20
-64.0
 30
0.0
 11
255.89371
 21
-46.0
 31
0.0
  0
LINE
  5
4541
330
1E
100
AcDbEntity
  8
21
  6
Continuous
100
AcDbLine
 10
254.2937349999999
 20
-46.0
 30
0.0
 11
255.89371
 21
-46.0
 31
0.0
  0
LINE
  5
4542
330
1E
100
AcDbEntity
  8
21
  6
Continuous
100
AcDbLine
 10
254.2937349999999
 20
-64.0
 30
0.0
 11
255.89371
 21
-64.0
 31
0.0
  0
LINE
  5
4543
330
1E
100
AcDbEntity
  8
21
  6
Continuous
100
AcDbLine
 10
252.2937349999999
 20
-51.0
 30
0.0
 11
247.293735
 21
-51.0
 31
0.0
  0
LINE
  5
4544
330
1E
100
AcDbEntity
  8
21
  6
Continuous
100
AcDbLine
 10
252.2937349999999
 20
-59.0
 30
0.0
 11
247.293735
 21
-59.0
 31
0.0
  0
LINE
  5
4545
330
1E
100
AcDbEntity
  8
21
  6
Continuous
100
AcDbLine
 10
247.293735
 20
-62.5
 30
0.0
 11
247.293735
 21
-47.5
 31
0.0
  0
LINE
  5
4546
330
1E
100
AcDbEntity
  8
21
  6
Continuous
100
AcDbLine
 10
252.2937349999999
 20
-62.5
 30
0.0
 11
247.293735
 21
-62.5
 31
0.0
  0
LINE
  5
4547
330
1E
100
AcDbEntity
  8
21
  6
Continuous
100
AcDbLine
 10
252.2937349999999
 20
-47.5
 30
0.0
 11
247.293735
 21
-47.5
 31
0.0
  0
LINE
  5
4548
330
1E
100
AcDbEntity
  8
21
  6
Continuous
100
AcDbLine
 10
272.293735
 20
-59.0
 30
0.0
 11
264.39371
 21
-59.0
 31
0.0
  0
LINE
  5
4549
330
1E
100
AcDbEntity
  8
21
  6
Continuous
100
AcDbLine
 10
272.293735
 20
-51.0
 30
0.0
 11
264.39371
 21
-51.0
 31
0.0
  0
LINE
  5
454A
330
1E
100
AcDbEntity
  8
18
100
AcDbLine
 10
252.2937349999999
 20
-40.03051699999999
 30
0.0
 11
254.2937349999999
 21
-40.03051699999999
 31
0.0
  0
LINE
  5
454B
330
1E
100
AcDbEntity
  8
10
  6
CONTINOUS
100
AcDbLine
 10
131.3937099999999
 20
80.0
 30
0.0
 11
116.39371
 21
80.0
 31
0.0
  0
LINE
  5
454F
330
1E
100
AcDbEntity
  8
10
  6
CONTINOUS
100
AcDbLine
 10
103.04288
 20
18.64758299999999
 30
0.0
 11
112.193759
 21
16.13736
 31
0.0
  0
LINE
  5
4550
330
1E
100
AcDbEntity
  8
10
  6
CONTINOUS
100
AcDbLine
 10
112.193759
 20
8.991761
 30
0.0
 11
101.0526459999999
 21
12.75399799999999
 31
0.0
  0
LINE
  5
4551
330
1E
100
AcDbEntity
  8
10
  6
CONTINOUS
100
AcDbLine
 10
112.193759
 20
25.0
 30
0.0
 11
116.39371
 21
25.0
 31
0.0
  0
ARC
  5
4552
330
1E
100
AcDbEntity
  8
30
  6
CONTINOUS
100
AcDbCircle
 10
137.693637
 20
-2.0
 30
0.0
 40
39.499878
100
AcDbArc
 50
158.067134
 51
180.0
  0
LINE
  5
4553
330
1E
100
AcDbEntity
  8
10
  6
CONTINOUS
100
AcDbLine
 10
101.0526459999999
 20
12.75399799999999
 30
0.0
 11
103.0317719999999
 21
18.614808
 31
0.0
  0
LINE
  5
4554
330
1E
100
AcDbEntity
  8
18
100
AcDbLine
 10
131.3937099999999
 20
115.0
 30
0.0
 11
131.3937099999999
 21
80.0
 31
0.0
  0
LINE
  5
4555
330
1E
100
AcDbEntity
  8
21
  6
Continuous
100
AcDbLine
 10
191.393588
 20
47.5
 30
0.0
 11
211.293735
 21
47.5
 31
0.0
  0
LINE
  5
4556
330
1E
100
AcDbEntity
  8
21
  6
Continuous
100
AcDbLine
 10
191.393588
 20
62.5
 30
0.0
 11
211.293735
 21
62.5
 31
0.0
  0
LINE
  5
4557
330
1E
100
AcDbEntity
  8
10
  6
CONTINOUS
100
AcDbLine
 10
191.393588
 20
65.0
 30
0.0
 11
131.3937099999999
 21
65.0
 31
0.0
  0
LINE
  5
455A
330
1E
100
AcDbEntity
  8
21
  6
Continuous
100
AcDbLine
 10
246.293735
 20
50.0
 30
0.0
 11
247.293735
 21
50.0
 31
0.0
  0
LINE
  5
455B
330
1E
100
AcDbEntity
  8
21
  6
Continuous
100
AcDbLine
 10
246.293735
 20
60.0
 30
0.0
 11
247.293735
 21
60.0
 31
0.0
  0
LINE
  5
455C
330
1E
100
AcDbEntity
  8
18
100
AcDbLine
 10
217.293735
 20
40.030518
 30
0.0
 11
217.293735
 21
70.312989
 31
0.0
  0
LINE
  5
455D
330
1E
100
AcDbEntity
  8
21
  6
Continuous
100
AcDbLine
 10
237.2937349999999
 20
59.0
 30
0.0
 11
229.3937099999999
 21
59.0
 31
0.0
  0
LINE
  5
455E
330
1E
100
AcDbEntity
  8
21
  6
Continuous
100
AcDbLine
 10
246.293735
 20
62.5
 30
0.0
 11
246.293735
 21
47.5
 31
0.0
  0
LINE
  5
455F
330
1E
100
AcDbEntity
  8
21
  6
Continuous
100
AcDbLine
 10
234.404697
 20
47.5
 30
0.0
 11
246.293735
 21
47.5
 31
0.0
  0
LINE
  5
4560
330
1E
100
AcDbEntity
  8
21
  6
Continuous
100
AcDbLine
 10
246.293735
 20
62.5
 30
0.0
 11
234.404697
 21
62.5
 31
0.0
  0
LINE
  5
4561
330
1E
100
AcDbEntity
  8
21
  6
Continuous
100
AcDbLine
 10
211.293735
 20
50.0
 30
0.0
 11
212.2937349999999
 21
50.0
 31
0.0
  0
LINE
  5
4562
330
1E
100
AcDbEntity
  8
21
  6
Continuous
100
AcDbLine
 10
211.293735
 20
60.0
 30
0.0
 11
212.2937349999999
 21
60.0
 31
0.0
  0
LINE
  5
4563
330
1E
100
AcDbEntity
  8
21
  6
Continuous
100
AcDbLine
 10
237.2937349999999
 20
51.0
 30
0.0
 11
229.3937099999999
 21
51.0
 31
0.0
  0
LINE
  5
4564
330
1E
100
AcDbEntity
  8
21
  6
Continuous
100
AcDbLine
 10
237.2937349999999
 20
59.0
 30
0.0
 11
237.2937349999999
 21
51.0
 31
0.0
  0
LINE
  5
4565
330
1E
100
AcDbEntity
  8
21
  6
Continuous
100
AcDbLine
 10
211.293735
 20
62.5
 30
0.0
 11
211.293735
 21
47.5
 31
0.0
  0
LINE
  5
4566
330
1E
100
AcDbEntity
  8
18
100
AcDbLine
 10
217.293735
 20
40.030518
 30
0.0
 11
219.293735
 21
40.030518
 31
0.0
  0
LINE
  5
4567
330
1E
100
AcDbEntity
  8
21
  6
Continuous
100
AcDbLine
 10
217.293735
 20
47.5
 30
0.0
 11
212.2937349999999
 21
47.5
 31
0.0
  0
LINE
  5
4568
330
1E
100
AcDbEntity
  8
21
  6
Continuous
100
AcDbLine
 10
217.293735
 20
62.5
 30
0.0
 11
212.2937349999999
 21
62.5
 31
0.0
  0
LINE
  5
4569
330
1E
100
AcDbEntity
  8
21
  6
Continuous
100
AcDbLine
 10
212.2937349999999
 20
62.5
 30
0.0
 11
212.2937349999999
 21
47.5
 31
0.0
  0
LINE
  5
456A
330
1E
100
AcDbEntity
  8
21
  6
Continuous
100
AcDbLine
 10
217.293735
 20
59.0
 30
0.0
 11
212.2937349999999
 21
59.0
 31
0.0
  0
LINE
  5
456B
330
1E
100
AcDbEntity
  8
21
  6
Continuous
100
AcDbLine
 10
217.293735
 20
51.0
 30
0.0
 11
212.2937349999999
 21
51.0
 31
0.0
  0
LINE
  5
456C
330
1E
100
AcDbEntity
  8
21
  6
Continuous
100
AcDbLine
 10
219.293735
 20
64.0
 30
0.0
 11
220.8937099999999
 21
64.0
 31
0.0
  0
LINE
  5
456D
330
1E
100
AcDbEntity
  8
21
  6
Continuous
100
AcDbLine
 10
219.293735
 20
46.0
 30
0.0
 11
220.8937099999999
 21
46.0
 31
0.0
  0
LINE
  5
456E
330
1E
100
AcDbEntity
  8
21
  6
Continuous
100
AcDbLine
 10
220.8937099999999
 20
64.0
 30
0.0
 11
220.8937099999999
 21
46.0
 31
0.0
  0
LINE
  5
456F
330
1E
100
AcDbEntity
  8
21
  6
Continuous
100
AcDbLine
 10
220.8937099999999
 20
62.50549399999999
 30
0.0
 11
229.3937099999999
 21
62.50549399999999
 31
0.0
  0
LINE
  5
4570
330
1E
100
AcDbEntity
  8
21
  6
Continuous
100
AcDbLine
 10
229.3937099999999
 20
47.49450699999999
 30
0.0
 11
220.8937099999999
 21
47.49450699999999
 31
0.0
  0
LINE
  5
4571
330
1E
100
AcDbEntity
  8
21
  6
Continuous
100
AcDbLine
 10
229.3937099999999
 20
62.50549399999999
 30
0.0
 11
229.3937099999999
 21
47.49450699999999
 31
0.0
  0
LINE
  5
4572
330
1E
100
AcDbEntity
  8
21
  6
Continuous
100
AcDbLine
 10
220.8937099999999
 20
58.75280799999999
 30
0.0
 11
229.3937099999999
 21
58.75280799999999
 31
0.0
  0
LINE
  5
4573
330
1E
100
AcDbEntity
  8
21
  6
Continuous
100
AcDbLine
 10
220.8937099999999
 20
51.24719299999999
 30
0.0
 11
229.3937099999999
 21
51.24719299999999
 31
0.0
  0
LINE
  5
4574
330
1E
100
AcDbEntity
  8
18
100
AcDbLine
 10
219.293735
 20
40.030518
 30
0.0
 11
219.293735
 21
70.312989
 31
0.0
  0
LINE
  5
4575
330
1E
100
AcDbEntity
  8
21
  6
Continuous
100
AcDbLine
 10
272.293735
 20
51.0
 30
0.0
 11
264.39371
 21
51.0
 31
0.0
  0
LINE
  5
4576
330
1E
100
AcDbEntity
  8
21
  6
Continuous
100
AcDbLine
 10
272.293735
 20
59.0
 30
0.0
 11
264.39371
 21
59.0
 31
0.0
  0
LINE
  5
4577
330
1E
100
AcDbEntity
  8
21
  6
Continuous
100
AcDbLine
 10
272.293735
 20
59.0
 30
0.0
 11
272.293735
 21
51.0
 31
0.0
  0
LINE
  5
4578
330
1E
100
AcDbEntity
  8
21
  6
Continuous
100
AcDbLine
 10
252.2937349999999
 20
47.5
 30
0.0
 11
247.293735
 21
47.5
 31
0.0
  0
LINE
  5
4579
330
1E
100
AcDbEntity
  8
21
  6
Continuous
100
AcDbLine
 10
252.2937349999999
 20
62.5
 30
0.0
 11
247.293735
 21
62.5
 31
0.0
  0
LINE
  5
457A
330
1E
100
AcDbEntity
  8
21
  6
Continuous
100
AcDbLine
 10
247.293735
 20
62.5
 30
0.0
 11
247.293735
 21
47.5
 31
0.0
  0
LINE
  5
457B
330
1E
100
AcDbEntity
  8
21
  6
Continuous
100
AcDbLine
 10
252.2937349999999
 20
59.0
 30
0.0
 11
247.293735
 21
59.0
 31
0.0
  0
LINE
  5
457C
330
1E
100
AcDbEntity
  8
21
  6
Continuous
100
AcDbLine
 10
252.2937349999999
 20
51.0
 30
0.0
 11
247.293735
 21
51.0
 31
0.0
  0
LINE
  5
457D
330
1E
100
AcDbEntity
  8
21
  6
Continuous
100
AcDbLine
 10
254.2937349999999
 20
64.0
 30
0.0
 11
255.89371
 21
64.0
 31
0.0
  0
LINE
  5
457E
330
1E
100
AcDbEntity
  8
21
  6
Continuous
100
AcDbLine
 10
254.2937349999999
 20
46.0
 30
0.0
 11
255.89371
 21
46.0
 31
0.0
  0
LINE
  5
457F
330
1E
100
AcDbEntity
  8
21
  6
Continuous
100
AcDbLine
 10
255.89371
 20
64.0
 30
0.0
 11
255.89371
 21
46.0
 31
0.0
  0
LINE
  5
4580
330
1E
100
AcDbEntity
  8
18
100
AcDbLine
 10
252.2937349999999
 20
40.030518
 30
0.0
 11
252.2937349999999
 21
70.312989
 31
0.0
  0
LINE
  5
4581
330
1E
100
AcDbEntity
  8
21
  6
Continuous
100
AcDbLine
 10
255.89371
 20
62.50549399999999
 30
0.0
 11
264.39371
 21
62.50549399999999
 31
0.0
  0
LINE
  5
4582
330
1E
100
AcDbEntity
  8
21
  6
Continuous
100
AcDbLine
 10
264.39371
 20
47.49450699999999
 30
0.0
 11
255.89371
 21
47.49450699999999
 31
0.0
  0
LINE
  5
4583
330
1E
100
AcDbEntity
  8
21
  6
Continuous
100
AcDbLine
 10
264.39371
 20
62.50549399999999
 30
0.0
 11
264.39371
 21
47.49450699999999
 31
0.0
  0
LINE
  5
4584
330
1E
100
AcDbEntity
  8
21
  6
Continuous
100
AcDbLine
 10
255.89371
 20
58.75280799999999
 30
0.0
 11
264.39371
 21
58.75280799999999
 31
0.0
  0
LINE
  5
4585
330
1E
100
AcDbEntity
  8
21
  6
Continuous
100
AcDbLine
 10
255.89371
 20
51.24719299999999
 30
0.0
 11
264.39371
 21
51.24719299999999
 31
0.0
  0
LINE
  5
4586
330
1E
100
AcDbEntity
  8
18
100
AcDbLine
 10
254.2937349999999
 20
40.030518
 30
0.0
 11
254.2937349999999
 21
70.312989
 31
0.0
  0
LINE
  5
4587
330
1E
100
AcDbEntity
  8
18
100
AcDbLine
 10
252.2937349999999
 20
40.030518
 30
0.0
 11
254.2937349999999
 21
40.030518
 31
0.0
  0
LINE
  5
4588
330
1E
100
AcDbEntity
  8
18
100
AcDbLine
 10
135.39371
 20
115.0
 30
0.0
 11
131.3937099999999
 21
115.0
 31
0.0
  0
DIMENSION
  5
4698
330
1E
100
AcDbEntity
  8
30
  6
Continuous
100
AcDbDimension
  2
*D7
 10
217.293735
 20
-109.939233
 30
0.0
 11
174.3437219999999
 21
-106.939233
 31
0.0
 70
    32
 71
     5
 42
-1.0
  3
STANDARD
100
AcDbAlignedDimension
 13
131.3937099999999
 23
-115.0
 33
0.0
 14
217.293735
 24
-62.5
 34
0.0
100
AcDbRotatedDimension
  0
DIMENSION
  5
46A5
330
1E
100
AcDbEntity
  8
30
  6
Continuous
100
AcDbDimension
  2
*D8
 10
237.2937349999999
 20
-120.025883
 30
0.0
 11
184.343722
 21
-117.025883
 31
0.0
 70
    32
 71
     5
 42
-1.0
  3
STANDARD
100
AcDbAlignedDimension
 13
131.3937099999999
 23
-139.423286
 33
0.0
 14
237.2937349999999
 24
-59.0
 34
0.0
100
AcDbRotatedDimension
  0
DIMENSION
  5
46CD
330
1E
100
AcDbEntity
  8
30
  6
Continuous
100
AcDbDimension
  2
*D9
 10
131.3937099999999
 20
-130.112532
 30
0.0
 11
191.8437219999999
 21
-127.112532
 31
0.0
 70
    32
 71
     5
 42
-1.0
  3
STANDARD
100
AcDbAlignedDimension
 13
252.2937349999999
 23
-62.5
 33
0.0
 14
131.3937099999999
 24
-129.492056
 34
0.0
100
AcDbRotatedDimension
  0
DIMENSION
  5
46DA
330
1E
100
AcDbEntity
  8
30
  6
Continuous
100
AcDbDimension
  2
*D10
 10
131.3937099999999
 20
-139.811233
 30
0.0
 11
201.843722
 21
-136.811233
 31
0.0
 70
    32
 71
     5
 42
-1.0
  3
STANDARD
100
AcDbAlignedDimension
 13
272.293735
 23
-59.0
 33
0.0
 14
131.3937099999999
 24
-139.423286
 34
0.0
100
AcDbRotatedDimension
  0
DIMENSION
  5
46F2
330
1E
100
AcDbEntity
  8
30
  6
Continuous
100
AcDbDimension
  2
*D11
 10
288.9604639999999
 20
-55.0
 30
0.0
 11
285.960464
 21
0.0
 31
0.0
 70
    32
 71
     5
 42
-1.0
  3
STANDARD
100
AcDbAlignedDimension
 13
272.293735
 23
55.0
 33
0.0
 14
272.293735
 24
-55.0
 34
0.0
 50
90.0
100
AcDbRotatedDimension
  0
LINE
  5
479F
330
1E
100
AcDbEntity
  8
18
  6
DIVIDE
100
AcDbLine
 10
-59.0
 20
-330.000015
 30
0.0
 11
-59.0
 21
-170.0
 31
0.0
  0
LINE
  5
47A0
330
1E
100
AcDbEntity
  8
18
  6
DIVIDE
100
AcDbLine
 10
59.0
 20
-330.000015
 30
0.0
 11
59.0
 21
-170.0
 31
0.0
  0
DIMENSION
  5
47AA
330
1E
100
AcDbEntity
  8
30
  6
Continuous
100
AcDbDimension
  2
*D12
 10
51.5
 20
-350.336631
 30
0.0
 11
1.891531999999999
 21
-350.336631
 31
0.0
 70
   160
  1
103
 71
     5
 42
-1.0
  3
STANDARD
100
AcDbAlignedDimension
 13
-51.5
 23
-283.093597
 33
0.0
 14
51.5
 24
-283.093597
 34
0.0
100
AcDbRotatedDimension
  0
LINE
  5
47AB
330
1E
100
AcDbEntity
  8
18
  6
DIVIDE
100
AcDbLine
 10
-59.0
 20
-330.000015
 30
0.0
 11
59.0
 21
-330.000015
 31
0.0
  0
LINE
  5
47AE
330
1E
100
AcDbEntity
  8
12
  6
Continuous
 62
     3
100
AcDbLine
 10
-41.5
 20
-283.0
 30
0.0
 11
-61.5
 21
-283.0
 31
0.0
  0
CIRCLE
  5
47AF
330
1E
100
AcDbEntity
  8
12
  6
Continuous
100
AcDbCircle
 10
-51.5
 20
-283.0
 30
0.0
 40
3.0
  0
CIRCLE
  5
47B0
330
1E
100
AcDbEntity
  8
12
  6
Continuous
100
AcDbCircle
 10
51.5
 20
-283.0
 30
0.0
 40
3.0
  0
LINE
  5
47B3
330
1E
100
AcDbEntity
  8
18
  6
DIVIDE
100
AcDbLine
 10
-59.0
 20
-170.0
 30
0.0
 11
59.0
 21
-170.0
 31
0.0
  0
LINE
  5
47B5
330
1E
100
AcDbEntity
  8
12
  6
Continuous
 62
     3
100
AcDbLine
 10
-51.5
 20
-207.0
 30
0.0
 11
-51.5
 21
-227.0
 31
0.0
  0
CIRCLE
  5
47B6
330
1E
100
AcDbEntity
  8
12
  6
Continuous
100
AcDbCircle
 10
-51.5
 20
-217.0
 30
0.0
 40
3.0
  0
LINE
  5
47B7
330
1E
100
AcDbEntity
  8
12
  6
Continuous
 62
     3
100
AcDbLine
 10
-41.5
 20
-217.0
 30
0.0
 11
-61.5
 21
-217.0
 31
0.0
  0
LINE
  5
47B8
330
1E
100
AcDbEntity
  8
12
  6
Continuous
 62
     3
100
AcDbLine
 10
51.5
 20
-207.0
 30
0.0
 11
51.5
 21
-227.0
 31
0.0
  0
CIRCLE
  5
47B9
330
1E
100
AcDbEntity
  8
12
  6
Continuous
100
AcDbCircle
 10
51.5
 20
-217.0
 30
0.0
 40
3.0
  0
DIMENSION
  5
487A
330
1E
100
AcDbEntity
  8
30
  6
Continuous
100
AcDbDimension
  2
*D13
 10
-71.150362
 20
-283.0
 30
0.0
 11
-74.150362
 21
-250.0
 31
0.0
 70
    32
 71
     5
 42
-1.0
  3
STANDARD
100
AcDbAlignedDimension
 13
-59.0
 23
-217.0
 33
0.0
 14
-61.5
 24
-283.0
 34
0.0
 50
90.0
100
AcDbRotatedDimension
  0
LINE
  5
4887
330
1E
100
AcDbEntity
  8
12
  6
Continuous
 62
     3
100
AcDbLine
 10
61.5
 20
-217.0
 30
0.0
 11
41.5
 21
-217.0
 31
0.0
  0
LINE
  5
4888
330
1E
100
AcDbEntity
  8
12
  6
Continuous
 62
     3
100
AcDbLine
 10
61.5
 20
-283.0
 30
0.0
 11
41.5
 21
-283.0
 31
0.0
  0
LINE
  5
48AD
330
1E
100
AcDbEntity
  8
12
  6
Continuous
 62
     3
100
AcDbLine
 10
51.5
 20
-273.0
 30
0.0
 11
51.5
 21
-293.0
 31
0.0
  0
LINE
  5
48AE
330
1E
100
AcDbEntity
  8
12
  6
Continuous
 62
     3
100
AcDbLine
 10
-51.5
 20
-273.0
 30
0.0
 11
-51.5
 21
-293.0
 31
0.0
  0
LINE
  5
48AF
330
1E
100
AcDbEntity
  8
11
 48
2.0
100
AcDbLine
 10
46.5
 20
-180.0
 30
0.0
 11
-46.5
 21
-180.0
 31
0.0
  0
LINE
  5
48B1
330
1E
100
AcDbEntity
  8
11
 48
2.0
100
AcDbLine
 10
46.5
 20
-180.0
 30
0.0
 11
46.5
 21
-320.000015
 31
0.0
  0
LINE
  5
48B3
330
1E
100
AcDbEntity
  8
11
 48
2.0
100
AcDbLine
 10
46.5
 20
-320.000015
 30
0.0
 11
-46.5
 21
-320.000015
 31
0.0
  0
LINE
  5
48B5
330
1E
100
AcDbEntity
  8
11
 48
2.0
100
AcDbLine
 10
-46.5
 20
-180.0
 30
0.0
 11
-46.5
 21
-320.000015
 31
0.0
  0
DIMENSION
  5
48B7
330
1E
100
AcDbEntity
  8
30
  6
Continuous
100
AcDbDimension
  2
*D14
 10
70.40834100000001
 20
-320.000015
 30
0.0
 11
67.408341
 21
-250.0000079999999
 31
0.0
 70
    32
 71
     5
 42
-1.0
  3
STANDARD
100
AcDbAlignedDimension
 13
46.5
 23
-180.0
 33
0.0
 14
46.5
 24
-320.000015
 34
0.0
 50
90.0
100
AcDbRotatedDimension
  0
DIMENSION
  5
48C4
330
1E
100
AcDbEntity
  8
30
  6
Continuous
100
AcDbDimension
  2
*D15
 10
46.5
 20
-339.801571
 30
0.0
 11
0.0
 21
-336.801571
 31
0.0
 70
    32
 71
     5
 42
-1.0
  3
STANDARD
100
AcDbAlignedDimension
 13
-46.5
 23
-320.000015
 33
0.0
 14
46.5
 24
-320.000015
 34
0.0
100
AcDbRotatedDimension
  0
LINE
  5
48DC
330
1E
100
AcDbEntity
  8
21
  6
Continuous
100
AcDbLine
 10
-17.381809
 20
205.0
 30
0.0
 11
-17.381809
 21
224.9000249999999
 31
0.0
  0
LINE
  5
48DD
330
1E
100
AcDbEntity
  8
21
  6
Continuous
100
AcDbLine
 10
-32.381809
 20
204.999878
 30
0.0
 11
-32.381809
 21
224.9000249999999
 31
0.0
  0
LINE
  5
48E5
330
1E
100
AcDbEntity
  8
21
  6
Continuous
100
AcDbLine
 10
7.623683999999999
 20
269.4999999999999
 30
0.0
 11
7.623683999999999
 21
278.0
 31
0.0
  0
LINE
  5
48E6
330
1E
100
AcDbEntity
  8
21
  6
Continuous
100
AcDbLine
 10
-7.387303
 20
278.0
 30
0.0
 11
-7.387303
 21
269.4999999999999
 31
0.0
  0
LINE
  5
48E7
330
1E
100
AcDbEntity
  8
21
  6
Continuous
100
AcDbLine
 10
3.870998
 20
269.4999999999999
 30
0.0
 11
3.870998
 21
278.0
 31
0.0
  0
LINE
  5
48E8
330
1E
100
AcDbEntity
  8
21
  6
Continuous
100
AcDbLine
 10
-3.634616999999999
 20
269.4999999999999
 30
0.0
 11
-3.634616999999999
 21
278.0
 31
0.0
  0
LINE
  5
48E9
330
1E
100
AcDbEntity
  8
21
  6
Continuous
100
AcDbLine
 10
-20.881809
 20
250.900025
 30
0.0
 11
-20.881809
 21
243.0
 31
0.0
  0
LINE
  5
48EA
330
1E
100
AcDbEntity
  8
21
  6
Continuous
100
AcDbLine
 10
-28.881809
 20
250.900025
 30
0.0
 11
-28.881809
 21
243.0
 31
0.0
  0
LINE
  5
48EB
330
1E
100
AcDbEntity
  8
18
100
AcDbLine
 10
-39.851292
 20
230.9000249999999
 30
0.0
 11
-39.851292
 21
232.9000249999999
 31
0.0
  0
LINE
  5
48EC
330
1E
100
AcDbEntity
  8
18
100
AcDbLine
 10
-39.851292
 20
230.9000249999999
 30
0.0
 11
-9.568820999999999
 21
230.9000249999999
 31
0.0
  0
LINE
  5
48ED
330
1E
100
AcDbEntity
  8
21
  6
Continuous
100
AcDbLine
 10
-17.381809
 20
224.9000249999999
 30
0.0
 11
-32.381809
 21
224.9000249999999
 31
0.0
  0
LINE
  5
48EE
330
1E
100
AcDbEntity
  8
21
  6
Continuous
100
AcDbLine
 10
-17.381809
 20
225.900025
 30
0.0
 11
-32.381809
 21
225.900025
 31
0.0
  0
LINE
  5
48EF
330
1E
100
AcDbEntity
  8
21
  6
Continuous
100
AcDbLine
 10
-17.381809
 20
230.9000249999999
 30
0.0
 11
-17.381809
 21
225.900025
 31
0.0
  0
LINE
  5
48F0
330
1E
100
AcDbEntity
  8
21
  6
Continuous
100
AcDbLine
 10
-20.881809
 20
230.9000249999999
 30
0.0
 11
-20.881809
 21
225.900025
 31
0.0
  0
LINE
  5
48F1
330
1E
100
AcDbEntity
  8
21
  6
Continuous
100
AcDbLine
 10
-19.881809
 20
224.9000249999999
 30
0.0
 11
-19.881809
 21
225.900025
 31
0.0
  0
LINE
  5
48F2
330
1E
100
AcDbEntity
  8
21
  6
Continuous
100
AcDbLine
 10
-32.381809
 20
230.9000249999999
 30
0.0
 11
-32.381809
 21
225.900025
 31
0.0
  0
LINE
  5
48F3
330
1E
100
AcDbEntity
  8
21
  6
Continuous
100
AcDbLine
 10
-28.881809
 20
230.9000249999999
 30
0.0
 11
-28.881809
 21
225.900025
 31
0.0
  0
LINE
  5
48F4
330
1E
100
AcDbEntity
  8
21
  6
Continuous
100
AcDbLine
 10
-29.881809
 20
224.9000249999999
 30
0.0
 11
-29.881809
 21
225.900025
 31
0.0
  0
LINE
  5
48F5
330
1E
100
AcDbEntity
  8
18
100
AcDbLine
 10
-39.851292
 20
232.9000249999999
 30
0.0
 11
-9.568820999999999
 21
232.9000249999999
 31
0.0
  0
LINE
  5
48F6
330
1E
100
AcDbEntity
  8
21
  6
Continuous
100
AcDbLine
 10
-17.376316
 20
234.5
 30
0.0
 11
-17.376316
 21
243.0
 31
0.0
  0
LINE
  5
48F7
330
1E
100
AcDbEntity
  8
21
  6
Continuous
100
AcDbLine
 10
-32.387303
 20
243.0
 30
0.0
 11
-32.387303
 21
234.5
 31
0.0
  0
LINE
  5
48F8
330
1E
100
AcDbEntity
  8
21
  6
Continuous
100
AcDbLine
 10
-28.634617
 20
234.5
 30
0.0
 11
-28.634617
 21
243.0
 31
0.0
  0
LINE
  5
48F9
330
1E
100
AcDbEntity
  8
21
  6
Continuous
100
AcDbLine
 10
-21.12900199999999
 20
234.5
 30
0.0
 11
-21.12900199999999
 21
243.0
 31
0.0
  0
LINE
  5
48FA
330
1E
100
AcDbEntity
  8
21
  6
Continuous
100
AcDbLine
 10
-15.881809
 20
234.5
 30
0.0
 11
-33.881809
 21
234.5
 31
0.0
  0
LINE
  5
48FB
330
1E
100
AcDbEntity
  8
21
  6
Continuous
100
AcDbLine
 10
-15.881809
 20
232.9000249999999
 30
0.0
 11
-15.881809
 21
234.5
 31
0.0
  0
LINE
  5
48FC
330
1E
100
AcDbEntity
  8
21
  6
Continuous
100
AcDbLine
 10
-33.881809
 20
232.9000249999999
 30
0.0
 11
-33.881809
 21
234.5
 31
0.0
  0
LINE
  5
48FD
330
1E
100
AcDbEntity
  8
21
  6
Continuous
100
AcDbLine
 10
-17.376316
 20
243.0
 30
0.0
 11
-32.387303
 21
243.0
 31
0.0
  0
LINE
  5
48FE
330
1E
100
AcDbEntity
  8
21
  6
Continuous
100
AcDbLine
 10
-7.381808999999999
 20
265.900025
 30
0.0
 11
-7.381808999999999
 21
260.900025
 31
0.0
  0
LINE
  5
48FF
330
1E
100
AcDbEntity
  8
21
  6
Continuous
100
AcDbLine
 10
7.618191
 20
265.900025
 30
0.0
 11
7.618191
 21
260.900025
 31
0.0
  0
LINE
  5
4900
330
1E
100
AcDbEntity
  8
21
  6
Continuous
100
AcDbLine
 10
4.118191
 20
265.900025
 30
0.0
 11
4.118191
 21
260.900025
 31
0.0
  0
LINE
  5
4901
330
1E
100
AcDbEntity
  8
21
  6
Continuous
100
AcDbLine
 10
-3.881808999999999
 20
265.900025
 30
0.0
 11
-3.881808999999999
 21
260.900025
 31
0.0
  0
LINE
  5
4902
330
1E
100
AcDbEntity
  8
21
  6
Continuous
100
AcDbLine
 10
7.618191
 20
259.900025
 30
0.0
 11
7.618191
 21
204.999878
 31
0.0
  0
LINE
  5
4903
330
1E
100
AcDbEntity
  8
21
  6
Continuous
100
AcDbLine
 10
-7.381808999999999
 20
204.999878
 30
0.0
 11
-7.381808999999999
 21
259.900025
 31
0.0
  0
LINE
  5
4904
330
1E
100
AcDbEntity
  8
21
  6
Continuous
100
AcDbLine
 10
-20.881809
 20
250.900025
 30
0.0
 11
-28.881809
 21
250.900025
 31
0.0
  0
LINE
  5
4905
330
1E
100
AcDbEntity
  8
21
  6
Continuous
100
AcDbLine
 10
7.618191
 20
260.900025
 30
0.0
 11
-7.381808999999999
 21
260.900025
 31
0.0
  0
LINE
  5
4906
330
1E
100
AcDbEntity
  8
21
  6
Continuous
100
AcDbLine
 10
7.618191
 20
259.900025
 30
0.0
 11
-7.381808999999999
 21
259.900025
 31
0.0
  0
LINE
  5
4907
330
1E
100
AcDbEntity
  8
21
  6
Continuous
100
AcDbLine
 10
5.118191
 20
259.900025
 30
0.0
 11
5.118191
 21
260.900025
 31
0.0
  0
LINE
  5
4908
330
1E
100
AcDbEntity
  8
21
  6
Continuous
100
AcDbLine
 10
-4.881808999999999
 20
259.900025
 30
0.0
 11
-4.881808999999999
 21
260.900025
 31
0.0
  0
LINE
  5
4909
330
1E
100
AcDbEntity
  8
18
100
AcDbLine
 10
-14.851292
 20
267.900025
 30
0.0
 11
15.431179
 21
267.900025
 31
0.0
  0
LINE
  5
490A
330
1E
100
AcDbEntity
  8
18
100
AcDbLine
 10
-14.851292
 20
265.900025
 30
0.0
 11
15.431179
 21
265.900025
 31
0.0
  0
LINE
  5
490B
330
1E
100
AcDbEntity
  8
21
  6
Continuous
100
AcDbLine
 10
9.118190999999999
 20
267.900025
 30
0.0
 11
9.118190999999999
 21
269.4999999999999
 31
0.0
  0
LINE
  5
490C
330
1E
100
AcDbEntity
  8
21
  6
Continuous
100
AcDbLine
 10
-8.881809
 20
267.900025
 30
0.0
 11
-8.881809
 21
269.4999999999999
 31
0.0
  0
LINE
  5
490D
330
1E
100
AcDbEntity
  8
21
  6
Continuous
100
AcDbLine
 10
9.118190999999999
 20
269.4999999999999
 30
0.0
 11
-8.881809
 21
269.4999999999999
 31
0.0
  0
LINE
  5
490E
330
1E
100
AcDbEntity
  8
18
100
AcDbLine
 10
-14.851292
 20
265.900025
 30
0.0
 11
-14.851292
 21
267.900025
 31
0.0
  0
LINE
  5
4910
330
1E
100
AcDbEntity
  8
21
  6
Continuous
100
AcDbLine
 10
-3.881808999999999
 20
285.900025
 30
0.0
 11
-3.881808999999999
 21
278.0
 31
0.0
  0
LINE
  5
4911
330
1E
100
AcDbEntity
  8
21
  6
Continuous
100
AcDbLine
 10
4.118191
 20
285.900025
 30
0.0
 11
4.118191
 21
278.0
 31
0.0
  0
LINE
  5
4912
330
1E
100
AcDbEntity
  8
21
  6
Continuous
100
AcDbLine
 10
7.623683999999999
 20
278.0
 30
0.0
 11
-7.387303
 21
278.0
 31
0.0
  0
LINE
  5
4913
330
1E
100
AcDbEntity
  8
21
  6
Continuous
100
AcDbLine
 10
4.118191
 20
285.900025
 30
0.0
 11
-3.881808999999999
 21
285.900025
 31
0.0
  0
LINE
  5
4915
330
1E
100
AcDbEntity
  8
21
  6
Continuous
100
AcDbLine
 10
32.61819099999999
 20
204.999878
 30
0.0
 11
32.61819099999999
 21
224.9000249999999
 31
0.0
  0
LINE
  5
4916
330
1E
100
AcDbEntity
  8
21
  6
Continuous
100
AcDbLine
 10
17.618191
 20
204.999878
 30
0.0
 11
17.618191
 21
224.9000249999999
 31
0.0
  0
LINE
  5
4924
330
1E
100
AcDbEntity
  8
21
  6
Continuous
100
AcDbLine
 10
29.11819099999999
 20
250.900025
 30
0.0
 11
29.11819099999999
 21
243.0
 31
0.0
  0
LINE
  5
4925
330
1E
100
AcDbEntity
  8
21
  6
Continuous
100
AcDbLine
 10
21.11819099999999
 20
250.900025
 30
0.0
 11
21.11819099999999
 21
243.0
 31
0.0
  0
LINE
  5
4926
330
1E
100
AcDbEntity
  8
18
100
AcDbLine
 10
40.08767299999999
 20
232.9000249999999
 30
0.0
 11
9.805201999999999
 21
232.9000249999999
 31
0.0
  0
LINE
  5
4927
330
1E
100
AcDbEntity
  8
18
100
AcDbLine
 10
40.08767299999999
 20
230.9000249999999
 30
0.0
 11
9.805201999999999
 21
230.9000249999999
 31
0.0
  0
LINE
  5
4928
330
1E
100
AcDbEntity
  8
18
100
AcDbLine
 10
40.08767299999999
 20
230.9000249999999
 30
0.0
 11
40.08767299999999
 21
232.9000249999999
 31
0.0
  0
LINE
  5
4929
330
1E
100
AcDbEntity
  8
21
  6
Continuous
100
AcDbLine
 10
17.618191
 20
225.900025
 30
0.0
 11
32.61819099999999
 21
225.900025
 31
0.0
  0
LINE
  5
492A
330
1E
100
AcDbEntity
  8
21
  6
Continuous
100
AcDbLine
 10
17.618191
 20
224.9000249999999
 30
0.0
 11
32.61819099999999
 21
224.9000249999999
 31
0.0
  0
LINE
  5
492B
330
1E
100
AcDbEntity
  8
21
  6
Continuous
100
AcDbLine
 10
29.11819099999999
 20
230.9000249999999
 30
0.0
 11
29.11819099999999
 21
225.900025
 31
0.0
  0
LINE
  5
492C
330
1E
100
AcDbEntity
  8
21
  6
Continuous
100
AcDbLine
 10
21.11819099999999
 20
230.9000249999999
 30
0.0
 11
21.11819099999999
 21
225.900025
 31
0.0
  0
LINE
  5
492D
330
1E
100
AcDbEntity
  8
21
  6
Continuous
100
AcDbLine
 10
32.61819099999999
 20
230.9000249999999
 30
0.0
 11
32.61819099999999
 21
225.900025
 31
0.0
  0
LINE
  5
492E
330
1E
100
AcDbEntity
  8
21
  6
Continuous
100
AcDbLine
 10
30.11819099999999
 20
224.9000249999999
 30
0.0
 11
30.11819099999999
 21
225.900025
 31
0.0
  0
LINE
  5
492F
330
1E
100
AcDbEntity
  8
21
  6
Continuous
100
AcDbLine
 10
17.618191
 20
230.9000249999999
 30
0.0
 11
17.618191
 21
225.900025
 31
0.0
  0
LINE
  5
4930
330
1E
100
AcDbEntity
  8
21
  6
Continuous
100
AcDbLine
 10
20.11819099999999
 20
224.9000249999999
 30
0.0
 11
20.11819099999999
 21
225.900025
 31
0.0
  0
LINE
  5
4931
330
1E
100
AcDbEntity
  8
21
  6
Continuous
100
AcDbLine
 10
28.87099799999999
 20
234.5
 30
0.0
 11
28.87099799999999
 21
243.0
 31
0.0
  0
LINE
  5
4932
330
1E
100
AcDbEntity
  8
21
  6
Continuous
100
AcDbLine
 10
21.36538299999999
 20
234.5
 30
0.0
 11
21.36538299999999
 21
243.0
 31
0.0
  0
LINE
  5
4933
330
1E
100
AcDbEntity
  8
21
  6
Continuous
100
AcDbLine
 10
32.623684
 20
243.0
 30
0.0
 11
32.623684
 21
234.5
 31
0.0
  0
LINE
  5
4934
330
1E
100
AcDbEntity
  8
21
  6
Continuous
100
AcDbLine
 10
17.612697
 20
234.5
 30
0.0
 11
17.612697
 21
243.0
 31
0.0
  0
LINE
  5
4935
330
1E
100
AcDbEntity
  8
21
  6
Continuous
100
AcDbLine
 10
16.11819099999999
 20
234.5
 30
0.0
 11
34.11819099999999
 21
234.5
 31
0.0
  0
LINE
  5
4936
330
1E
100
AcDbEntity
  8
21
  6
Continuous
100
AcDbLine
 10
34.11819099999999
 20
232.9000249999999
 30
0.0
 11
34.11819099999999
 21
234.5
 31
0.0
  0
LINE
  5
4937
330
1E
100
AcDbEntity
  8
21
  6
Continuous
100
AcDbLine
 10
16.11819099999999
 20
232.9000249999999
 30
0.0
 11
16.11819099999999
 21
234.5
 31
0.0
  0
LINE
  5
4938
330
1E
100
AcDbEntity
  8
21
  6
Continuous
100
AcDbLine
 10
17.612697
 20
243.0
 30
0.0
 11
32.623684
 21
243.0
 31
0.0
  0
LINE
  5
4942
330
1E
100
AcDbEntity
  8
21
  6
Continuous
100
AcDbLine
 10
21.11819099999999
 20
250.900025
 30
0.0
 11
29.11819099999999
 21
250.900025
 31
0.0
  0
LWPOLYLINE
  5
4A64
330
1E
100
AcDbEntity
  8
10
  6
CONTINOUS
100
AcDbPolyline
 90
        4
 70
     1
 43
0.0
 10
-59.0
 20
145.0
 10
59.0
 20
145.0
 10
59.0
 20
130.0
 10
-59.0
 20
130.0
  0
LINE
  5
4C5A
330
1E
100
AcDbEntity
  8
16
100
AcDbLine
 10
48.424128
 20
0.0
 30
0.0
 11
-56.608689
 21
0.0
 31
0.0
  0
CIRCLE
  5
4C5B
330
1E
100
AcDbEntity
  8
12
  6
DASHED
100
AcDbCircle
 10
-51.5
 20
-33.0
 30
0.0
 40
3.0
  0
LINE
  5
4C5C
330
1E
100
AcDbEntity
  8
12
  6
DASHDOT
 62
     3
100
AcDbLine
 10
-41.5
 20
-33.0
 30
0.0
 11
-61.5
 21
-33.0
 31
0.0
  0
LINE
  5
4C5D
330
1E
100
AcDbEntity
  8
12
  6
DASHDOT
 62
     3
100
AcDbLine
 10
-51.5
 20
-23.0
 30
0.0
 11
-51.5
 21
-43.0
 31
0.0
  0
LINE
  5
4C5E
330
1E
100
AcDbEntity
  8
12
  6
DASHDOT
 62
     3
100
AcDbLine
 10
-41.5
 20
33.0
 30
0.0
 11
-61.5
 21
33.0
 31
0.0
  0
CIRCLE
  5
4C5F
330
1E
100
AcDbEntity
  8
12
  6
DASHED
100
AcDbCircle
 10
-51.5
 20
33.0
 30
0.0
 40
3.0
  0
LINE
  5
4C60
330
1E
100
AcDbEntity
  8
12
  6
DASHDOT
 62
     3
100
AcDbLine
 10
-51.5
 20
43.0
 30
0.0
 11
-51.5
 21
23.0
 31
0.0
  0
LINE
  5
4C61
330
1E
100
AcDbEntity
  8
12
  6
DASHDOT
 62
     3
100
AcDbLine
 10
61.5
 20
-33.0
 30
0.0
 11
41.5
 21
-33.0
 31
0.0
  0
LINE
  5
4C62
330
1E
100
AcDbEntity
  8
12
  6
DASHDOT
 62
     3
100
AcDbLine
 10
51.5
 20
-23.0
 30
0.0
 11
51.5
 21
-43.0
 31
0.0
  0
CIRCLE
  5
4C63
330
1E
100
AcDbEntity
  8
12
  6
DASHED
100
AcDbCircle
 10
51.5
 20
-33.0
 30
0.0
 40
3.0
  0
LINE
  5
4C64
330
1E
100
AcDbEntity
  8
12
  6
DASHDOT
 62
     3
100
AcDbLine
 10
61.5
 20
33.0
 30
0.0
 11
41.5
 21
33.0
 31
0.0
  0
LINE
  5
4C65
330
1E
100
AcDbEntity
  8
12
  6
DASHDOT
 62
     3
100
AcDbLine
 10
51.5
 20
43.0
 30
0.0
 11
51.5
 21
23.0
 31
0.0
  0
CIRCLE
  5
4C66
330
1E
100
AcDbEntity
  8
12
  6
DASHED
100
AcDbCircle
 10
51.5
 20
33.0
 30
0.0
 40
3.0
  0
DIMENSION
  5
4C79
330
1E
100
AcDbEntity
  8
30
  6
Continuous
100
AcDbDimension
  2
*D16
 10
48.80609899999999
 20
-218.3201889999999
 30
0.0
 11
82.930109
 21
-203.720799
 31
0.0
 70
   163
 71
     5
 42
-1.0
  3
STANDARD
100
AcDbDiametricDimension
 15
54.19390100000001
 25
-215.6798109999999
 35
0.0
 40
0.0
1001
ACAD
1000
DSTYLE
1002
{
1070
   288
1070
     1
1002
}
  0
TEXT
  5
4D9C
330
1E
100
AcDbEntity
  8
19
  6
Continuous
100
AcDbText
 10
136.525794
 20
218.784572
 30
0.0
 40
5.0
  1
(60-100A)
  7
STANDARD1
100
AcDbText
  0
TEXT
  5
4D9D
330
1E
100
AcDbEntity
  8
19
  6
Continuous
100
AcDbText
 10
136.525794
 20
227.188687
 30
0.0
 40
5.0
  1
XE100NS 3P FP
  7
STANDARD1
100
AcDbText
  0
TEXT
  5
4EA2
330
1E
100
AcDbEntity
  8
19
  6
Continuous
100
AcDbText
 10
136.525794
 20
182.6971819999999
 30
0.0
 40
5.0
  1
XM100CS 3P FP
  7
STANDARD1
100
AcDbText
  0
VIEWPORT
  5
9AC
330
1A
100
AcDbEntity
 67
     1
  8
0
  6
Continuous
100
AcDbViewport
 10
171.999535
 20
144.1384739999999
 30
0.0
 40
488.867686
 41
292.351491
 68
    -1
 69
     1
 12
171.999535
 22
144.1384739999999
 13
0.0
 23
0.0
 14
10.0
 24
10.0
 15
10.0
 25
10.0
 16
0.0
 26
0.0
 36
1.0
 17
0.0
 27
0.0
 37
0.0
 42
50.0
 43
0.0
 44
0.0
 45
292.351491
 50
0.0
 51
0.0
 72
   100
 90
    32800
  1

281
     0
 71
     1
 74
     0
110
0.0
120
0.0
130
0.0
111
1.0
121
0.0
131
0.0
112
0.0
122
1.0
132
0.0
 79
     0
146
0.0
  0
ENDSEC
  0
SECTION
  2
OBJECTS
  0
DICTIONARY
  5
C
330
0
100
AcDbDictionary
281
     1
  3
ACAD_GROUP
350
D
  3
ACAD_LAYOUT
350
19
  3
ACAD_MLINESTYLE
350
16
  3
ACAD_PLOTSETTINGS
350
18
  3
ACAD_PLOTSTYLENAME
350
E
  0
DICTIONARY
  5
178
330
1E
100
AcDbDictionary
280
     1
281
     1
  3
ACAD_LAYOUTSELFREF
360
4F27
  0
DICTIONARY
  5
17A
330
1A
100
AcDbDictionary
280
     1
281
     1
  3
ACAD_LAYOUTSELFREF
360
4F26
  0
DICTIONARY
  5
D
102
{ACAD_REACTORS
330
C
102
}
330
C
100
AcDbDictionary
281
     1
  0
DICTIONARY
  5
19
102
{ACAD_REACTORS
330
C
102
}
330
C
100
AcDbDictionary
281
     1
  3
MODEL
350
21
  3
ﾚｲｱｳﾄ1
350
1D
  0
DICTIONARY
  5
16
102
{ACAD_REACTORS
330
C
102
}
330
C
100
AcDbDictionary
281
     1
  3
STANDARD
350
17
  0
DICTIONARY
  5
18
102
{ACAD_REACTORS
330
C
102
}
330
C
100
AcDbDictionary
281
     1
  0
ACDBDICTIONARYWDFLT
  5
E
102
{ACAD_REACTORS
330
C
102
}
330
C
100
AcDbDictionary
281
     1
  3
Normal
350
F
100
AcDbDictionaryWithDefault
340
F
  0
XRECORD
  5
4F27
102
{ACAD_REACTORS
330
178
102
}
330
178
100
AcDbXrecord
280
     1
340
1E
  0
XRECORD
  5
4F26
102
{ACAD_REACTORS
330
17A
102
}
330
17A
100
AcDbXrecord
280
     1
340
1A
  0
LAYOUT
  5
21
102
{ACAD_REACTORS
330
19
102
}
330
19
100
AcDbPlotSettings
  1

  2
EPSON LP-8300
  4
A4
  6
OLE1
 40
5.873749732971191
 41
5.873747825622558
 42
5.873748779296875
 43
5.873748779296875
 44
209.9733276367187
 45
297.0106506347656
 46
17.26
 47
0.0
 48
0.0
 49
0.0
140
0.0
141
0.0
142
1.0
143
2.30223173555368
 70
 11956
 72
     1
 73
     0
 74
     1
  7
KIKI.ctb
 75
     0
147
0.4343611394790816
148
87.40472821260448
149
350.8818522858703
100
AcDbLayout
  1
Model
 70
     1
 71
     0
 10
0.0
 20
0.0
 11
12.0
 21
9.0
 12
0.0
 22
0.0
 32
0.0
 14
0.0
 24
0.0
 34
0.0
 15
0.0
 25
0.0
 35
0.0
146
0.0
 13
0.0
 23
0.0
 33
0.0
 16
1.0
 26
0.0
 36
0.0
 17
0.0
 27
1.0
 37
0.0
 76
     0
330
1E
  0
LAYOUT
  5
1D
102
{ACAD_REACTORS
330
19
102
}
330
19
100
AcDbPlotSettings
  1

  2
EPSON LP-8300
  4
A4
  6

 40
5.873749732971191
 41
5.873747825622558
 42
5.873748779296875
 43
5.873748779296875
 44
297.0106506347656
 45
209.9733276367187
 46
0.0
 47
0.0
 48
0.0
 49
0.0
140
0.0
141
0.0
142
1.0
143
1.0
 70
   672
 72
     1
 73
     1
 74
     5
  7
MCCB.ctb
 75
     0
147
1.0
148
0.0
149
0.0
100
AcDbLayout
  1
ﾚｲｱｳﾄ1
 70
     1
 71
     1
 10
-5.873749
 20
-5.87375
 11
204.099579
 21
291.1369009999999
 12
0.0
 22
0.0
 32
0.0
 14
4.273573
 24
5.205245999999999
 34
0.0
 15
194.610095
 25
283.0697009999999
 35
0.0
146
0.0
 13
0.0
 23
0.0
 33
0.0
 16
1.0
 26
0.0
 36
0.0
 17
0.0
 27
1.0
 37
0.0
 76
     0
330
1A
331
9AC
  0
MLINESTYLE
  5
17
102
{ACAD_REACTORS
330
16
102
}
330
16
100
AcDbMlineStyle
  2
STANDARD
 70
     0
  3

 62
   256
 51
90.0
 52
90.0
 71
     2
 49
0.5
 62
   256
  6
BYLAYER
 49
-0.5
 62
   256
  6
BYLAYER
  0
ACDBPLACEHOLDER
  5
F
102
{ACAD_REACTORS
330
E
102
}
330
E
  0
ENDSEC
  0
EOF
