  0
SECTION
  2
HEADER
  9
$ACADVER
  1
AC1015
  9
$ACADMAINTVER
 70
    10
  9
$DWGCODEPAGE
  3
ANSI_932
  9
$INSBASE
 10
0.0
 20
0.0
 30
0.0
  9
$EXTMIN
 10
-67.71059100000001
 20
-331.4999999999999
 30
0.0
  9
$EXTMAX
 10
224.1890319999999
 20
241.711049
 30
0.0
  9
$LIMMIN
 10
-90.98839400000001
 20
-332.230369
  9
$LIMMAX
 10
235.181445
 20
221.297206
  9
$ORTHOMODE
 70
     0
  9
$REGENMODE
 70
     1
  9
$FILLMODE
 70
     1
  9
$QTEXTMODE
 70
     0
  9
$MIRRTEXT
 70
     1
  9
$LTSCALE
 40
10.0
  9
$ATTMODE
 70
     1
  9
$TEXTSIZE
 40
5.0
  9
$TRACEWID
 40
0.05
  9
$TEXTSTYLE
  7
STANDARD1
  9
$CLAYER
  8
30
  9
$CELTYPE
  6
CONTINUOUS
  9
$CECOLOR
 62
     2
  9
$CELTSCALE
 40
1.0
  9
$DISPSILH
 70
     0
  9
$DIMSCALE
 40
1.0
  9
$DIMASZ
 40
2.0
  9
$DIMEXO
 40
1.0
  9
$DIMDLI
 40
0.5
  9
$DIMRND
 40
0.0
  9
$DIMDLE
 40
0.0
  9
$DIMEXE
 40
0.5
  9
$DIMTP
 40
0.0
  9
$DIMTM
 40
0.0
  9
$DIMTXT
 40
4.0
  9
$DIMCEN
 40
0.09
  9
$DIMTSZ
 40
0.0
  9
$DIMTOL
 70
     0
  9
$DIMLIM
 70
     0
  9
$DIMTIH
 70
     0
  9
$DIMTOH
 70
     1
  9
$DIMSE1
 70
     0
  9
$DIMSE2
 70
     0
  9
$DIMTAD
 70
     3
  9
$DIMZIN
 70
    12
  9
$DIMBLK
  1
OPEN
  9
$DIMASO
 70
     1
  9
$DIMSHO
 70
     1
  9
$DIMPOST
  1

  9
$DIMAPOST
  1

  9
$DIMALT
 70
     0
  9
$DIMALTD
 70
     2
  9
$DIMALTF
 40
25.4
  9
$DIMLFAC
 40
1.0
  9
$DIMTOFL
 70
     0
  9
$DIMTVP
 40
0.0
  9
$DIMTIX
 70
     0
  9
$DIMSOXD
 70
     0
  9
$DIMSAH
 70
     0
  9
$DIMBLK1
  1

  9
$DIMBLK2
  1

  9
$DIMSTYLE
  2
STANDARD
  9
$DIMCLRD
 70
     0
  9
$DIMCLRE
 70
     0
  9
$DIMCLRT
 70
     0
  9
$DIMTFAC
 40
1.0
  9
$DIMGAP
 40
1.0
  9
$DIMJUST
 70
     0
  9
$DIMSD1
 70
     0
  9
$DIMSD2
 70
     0
  9
$DIMTOLJ
 70
     1
  9
$DIMTZIN
 70
     0
  9
$DIMALTZ
 70
     0
  9
$DIMALTTZ
 70
     0
  9
$DIMUPT
 70
     0
  9
$DIMDEC
 70
     1
  9
$DIMTDEC
 70
     1
  9
$DIMALTU
 70
     2
  9
$DIMALTTD
 70
     2
  9
$DIMTXSTY
  7
STANDARD
  9
$DIMAUNIT
 70
     0
  9
$DIMADEC
 70
     0
  9
$DIMALTRND
 40
0.0
  9
$DIMAZIN
 70
     3
  9
$DIMDSEP
 70
    46
  9
$DIMATFIT
 70
     3
  9
$DIMFRAC
 70
     0
  9
$DIMLDRBLK
  1
OPEN
  9
$DIMLUNIT
 70
     2
  9
$DIMLWD
 70
    -2
  9
$DIMLWE
 70
    -2
  9
$DIMTMOVE
 70
     0
  9
$LUNITS
 70
     2
  9
$LUPREC
 70
     4
  9
$SKETCHINC
 40
0.1
  9
$FILLETRAD
 40
1.0
  9
$AUNITS
 70
     0
  9
$AUPREC
 70
     0
  9
$MENU
  1
.
  9
$ELEVATION
 40
0.0
  9
$PELEVATION
 40
0.0
  9
$THICKNESS
 40
0.0
  9
$LIMCHECK
 70
     0
  9
$CHAMFERA
 40
0.0
  9
$CHAMFERB
 40
0.0
  9
$CHAMFERC
 40
0.0
  9
$CHAMFERD
 40
0.0
  9
$SKPOLY
 70
     0
  9
$TDCREATE
 40
2452286.555658657
  9
$TDUCREATE
 40
2452286.180658657
  9
$TDUPDATE
 40
2454856.469379155
  9
$TDUUPDATE
 40
2454856.094379155
  9
$TDINDWG
 40
1.0653206019
  9
$TDUSRTIMER
 40
1.0653206019
  9
$USRTIMER
 70
     1
  9
$ANGBASE
 50
0.0
  9
$ANGDIR
 70
     0
  9
$PDMODE
 70
     0
  9
$PDSIZE
 40
0.0
  9
$PLINEWID
 40
0.0
  9
$SPLFRAME
 70
     0
  9
$SPLINETYPE
 70
     6
  9
$SPLINESEGS
 70
     8
  9
$HANDSEED
  5
3C4C
  9
$SURFTAB1
 70
     6
  9
$SURFTAB2
 70
     6
  9
$SURFTYPE
 70
     6
  9
$SURFU
 70
     6
  9
$SURFV
 70
     6
  9
$UCSBASE
  2

  9
$UCSNAME
  2

  9
$UCSORG
 10
0.0
 20
0.0
 30
0.0
  9
$UCSXDIR
 10
1.0
 20
0.0
 30
0.0
  9
$UCSYDIR
 10
0.0
 20
1.0
 30
0.0
  9
$UCSORTHOREF
  2

  9
$UCSORTHOVIEW
 70
     0
  9
$UCSORGTOP
 10
0.0
 20
0.0
 30
0.0
  9
$UCSORGBOTTOM
 10
0.0
 20
0.0
 30
0.0
  9
$UCSORGLEFT
 10
0.0
 20
0.0
 30
0.0
  9
$UCSORGRIGHT
 10
0.0
 20
0.0
 30
0.0
  9
$UCSORGFRONT
 10
0.0
 20
0.0
 30
0.0
  9
$UCSORGBACK
 10
0.0
 20
0.0
 30
0.0
  9
$PUCSBASE
  2

  9
$PUCSNAME
  2

  9
$PUCSORG
 10
0.0
 20
0.0
 30
0.0
  9
$PUCSXDIR
 10
1.0
 20
0.0
 30
0.0
  9
$PUCSYDIR
 10
0.0
 20
1.0
 30
0.0
  9
$PUCSORTHOREF
  2

  9
$PUCSORTHOVIEW
 70
     0
  9
$PUCSORGTOP
 10
0.0
 20
0.0
 30
0.0
  9
$PUCSORGBOTTOM
 10
0.0
 20
0.0
 30
0.0
  9
$PUCSORGLEFT
 10
0.0
 20
0.0
 30
0.0
  9
$PUCSORGRIGHT
 10
0.0
 20
0.0
 30
0.0
  9
$PUCSORGFRONT
 10
0.0
 20
0.0
 30
0.0
  9
$PUCSORGBACK
 10
0.0
 20
0.0
 30
0.0
  9
$USERI1
 70
     0
  9
$USERI2
 70
     0
  9
$USERI3
 70
     0
  9
$USERI4
 70
     0
  9
$USERI5
 70
     0
  9
$USERR1
 40
0.0
  9
$USERR2
 40
0.0
  9
$USERR3
 40
0.0
  9
$USERR4
 40
0.0
  9
$USERR5
 40
0.0
  9
$WORLDVIEW
 70
     1
  9
$SHADEDGE
 70
     3
  9
$SHADEDIF
 70
    70
  9
$TILEMODE
 70
     1
  9
$MAXACTVP
 70
    48
  9
$PINSBASE
 10
0.0
 20
0.0
 30
0.0
  9
$PLIMCHECK
 70
     0
  9
$PEXTMIN
 10
4.273573
 20
5.205245999999999
 30
0.0
  9
$PEXTMAX
 10
194.610095
 20
283.0697009999999
 30
0.0
  9
$PLIMMIN
 10
-5.873749
 20
-5.87375
  9
$PLIMMAX
 10
204.099579
 20
291.1369009999999
  9
$UNITMODE
 70
     0
  9
$VISRETAIN
 70
     1
  9
$PLINEGEN
 70
     0
  9
$PSLTSCALE
 70
     1
  9
$TREEDEPTH
 70
  3020
  9
$CMLSTYLE
  2
STANDARD
  9
$CMLJUST
 70
     0
  9
$CMLSCALE
 40
1.0
  9
$PROXYGRAPHICS
 70
     1
  9
$MEASUREMENT
 70
     0
  9
$CELWEIGHT
370
    -1
  9
$ENDCAPS
280
     0
  9
$JOINSTYLE
280
     0
  9
$LWDISPLAY
290
     0
  9
$INSUNITS
 70
     0
  9
$HYPERLINKBASE
  1

  9
$STYLESHEET
  1
KIKI.ctb
  9
$XEDIT
290
     1
  9
$CEPSNTYPE
380
     0
  9
$PSTYLEMODE
290
     1
  9
$FINGERPRINTGUID
  2

  9
$VERSIONGUID
  2
{97FC45C8-1028-4098-B64B-11EA3EE3B9AC}
  9
$EXTNAMES
290
     1
  9
$PSVPSCALE
 40
0.0
  9
$OLESTARTUP
290
     0
  0
ENDSEC
  0
SECTION
  2
CLASSES
  0
CLASS
  1
ACDBDICTIONARYWDFLT
  2
AcDbDictionaryWithDefault
  3
AutoCAD 2000
 90
        0
280
     0
281
     0
  0
CLASS
  1
ACDBPLACEHOLDER
  2
AcDbPlaceHolder
  3
AutoCAD 2000
 90
        0
280
     0
281
     0
  0
CLASS
  1
LAYOUT
  2
AcDbLayout
  3
AutoCAD 2000
 90
        0
280
     0
281
     0
  0
CLASS
  1
LONG_TRANSACTION
  2
AcDbLongTransaction
  3
AutoCAD 2000
 90
    32768
280
     0
281
     0
  0
CLASS
  1
LWPOLYLINE
  2
AcDbPolyline
  3
AutoCAD 2000
 90
    32768
280
     0
281
     1
  0
CLASS
  1
HATCH
  2
AcDbHatch
  3
AutoCAD 2000
 90
    32768
280
     0
281
     1
  0
CLASS
  1
XRECORD
  2
AcDbXrecord
  3
AutoCAD 2000
 90
    32768
280
     0
281
     0
  0
CLASS
  1
LONG_TRANSACTION
  2
AcDbLongTransaction
  3
AutoCAD 2000
 90
    32768
280
     0
281
     0
  0
CLASS
  1
LWPOLYLINE
  2
AcDbPolyline
  3
AutoCAD 2000
 90
    32768
280
     0
281
     1
  0
CLASS
  1
HATCH
  2
AcDbHatch
  3
AutoCAD 2000
 90
    32768
280
     0
281
     1
  0
CLASS
  1
XRECORD
  2
AcDbXrecord
  3
AutoCAD 2000
 90
    32768
280
     0
281
     0
  0
CLASS
  1
LONG_TRANSACTION
  2
AcDbLongTransaction
  3
AutoCAD 2000
 90
    32768
280
     0
281
     0
  0
CLASS
  1
LWPOLYLINE
  2
AcDbPolyline
  3
AutoCAD 2000
 90
    32768
280
     0
281
     1
  0
CLASS
  1
HATCH
  2
AcDbHatch
  3
AutoCAD 2000
 90
    32768
280
     0
281
     1
  0
CLASS
  1
XRECORD
  2
AcDbXrecord
  3
AutoCAD 2000
 90
    32768
280
     0
281
     0
  0
CLASS
  1
LONG_TRANSACTION
  2
AcDbLongTransaction
  3
AutoCAD 2000
 90
    32768
280
     0
281
     0
  0
CLASS
  1
LWPOLYLINE
  2
AcDbPolyline
  3
AutoCAD 2000
 90
    32768
280
     0
281
     1
  0
CLASS
  1
HATCH
  2
AcDbHatch
  3
AutoCAD 2000
 90
    32768
280
     0
281
     1
  0
CLASS
  1
XRECORD
  2
AcDbXrecord
  3
AutoCAD 2000
 90
    32768
280
     0
281
     0
  0
CLASS
  1
LONG_TRANSACTION
  2
AcDbLongTransaction
  3
AutoCAD 2000
 90
    32768
280
     0
281
     0
  0
CLASS
  1
LWPOLYLINE
  2
AcDbPolyline
  3
AutoCAD 2000
 90
    32768
280
     0
281
     1
  0
CLASS
  1
HATCH
  2
AcDbHatch
  3
AutoCAD 2000
 90
    32768
280
     0
281
     1
  0
CLASS
  1
XRECORD
  2
AcDbXrecord
  3
AutoCAD 2000
 90
    32768
280
     0
281
     0
  0
CLASS
  1
LONG_TRANSACTION
  2
AcDbLongTransaction
  3
AutoCAD 2000
 90
    32768
280
     0
281
     0
  0
CLASS
  1
LWPOLYLINE
  2
AcDbPolyline
  3
AutoCAD 2000
 90
    32768
280
     0
281
     1
  0
CLASS
  1
HATCH
  2
AcDbHatch
  3
AutoCAD 2000
 90
    32768
280
     0
281
     1
  0
CLASS
  1
XRECORD
  2
AcDbXrecord
  3
AutoCAD 2000
 90
    32768
280
     0
281
     0
  0
CLASS
  1
LONG_TRANSACTION
  2
AcDbLongTransaction
  3
AutoCAD 2000
 90
    32768
280
     0
281
     0
  0
CLASS
  1
LWPOLYLINE
  2
AcDbPolyline
  3
AutoCAD 2000
 90
    32768
280
     0
281
     1
  0
CLASS
  1
HATCH
  2
AcDbHatch
  3
AutoCAD 2000
 90
    32768
280
     0
281
     1
  0
CLASS
  1
XRECORD
  2
AcDbXrecord
  3
AutoCAD 2000
 90
    32768
280
     0
281
     0
  0
CLASS
  1
LONG_TRANSACTION
  2
AcDbLongTransaction
  3
AutoCAD 2000
 90
    32768
280
     0
281
     0
  0
CLASS
  1
LWPOLYLINE
  2
AcDbPolyline
  3
AutoCAD 2000
 90
    32768
280
     0
281
     1
  0
CLASS
  1
HATCH
  2
AcDbHatch
  3
AutoCAD 2000
 90
    32768
280
     0
281
     1
  0
CLASS
  1
XRECORD
  2
AcDbXrecord
  3
AutoCAD 2000
 90
    32768
280
     0
281
     0
  0
CLASS
  1
LONG_TRANSACTION
  2
AcDbLongTransaction
  3
AutoCAD 2000
 90
    32768
280
     0
281
     0
  0
CLASS
  1
LWPOLYLINE
  2
AcDbPolyline
  3
AutoCAD 2000
 90
    32768
280
     0
281
     1
  0
CLASS
  1
HATCH
  2
AcDbHatch
  3
AutoCAD 2000
 90
    32768
280
     0
281
     1
  0
CLASS
  1
XRECORD
  2
AcDbXrecord
  3
AutoCAD 2000
 90
    32768
280
     0
281
     0
  0
CLASS
  1
LONG_TRANSACTION
  2
AcDbLongTransaction
  3
AutoCAD 2000
 90
    32768
280
     0
281
     0
  0
CLASS
  1
LWPOLYLINE
  2
AcDbPolyline
  3
AutoCAD 2000
 90
    32768
280
     0
281
     1
  0
CLASS
  1
HATCH
  2
AcDbHatch
  3
AutoCAD 2000
 90
    32768
280
     0
281
     1
  0
CLASS
  1
XRECORD
  2
AcDbXrecord
  3
AutoCAD 2000
 90
    32768
280
     0
281
     0
  0
CLASS
  1
LONG_TRANSACTION
  2
AcDbLongTransaction
  3
AutoCAD 2000
 90
    32768
280
     0
281
     0
  0
CLASS
  1
LWPOLYLINE
  2
AcDbPolyline
  3
AutoCAD 2000
 90
    32768
280
     0
281
     1
  0
CLASS
  1
HATCH
  2
AcDbHatch
  3
AutoCAD 2000
 90
    32768
280
     0
281
     1
  0
CLASS
  1
XRECORD
  2
AcDbXrecord
  3
AutoCAD 2000
 90
    32768
280
     0
281
     0
  0
CLASS
  1
LONG_TRANSACTION
  2
AcDbLongTransaction
  3
AutoCAD 2000
 90
    32768
280
     0
281
     0
  0
CLASS
  1
LWPOLYLINE
  2
AcDbPolyline
  3
AutoCAD 2000
 90
    32768
280
     0
281
     1
  0
CLASS
  1
HATCH
  2
AcDbHatch
  3
AutoCAD 2000
 90
    32768
280
     0
281
     1
  0
CLASS
  1
XRECORD
  2
AcDbXrecord
  3
AutoCAD 2000
 90
    32768
280
     0
281
     0
  0
CLASS
  1
LONG_TRANSACTION
  2
AcDbLongTransaction
  3
AutoCAD 2000
 90
    32768
280
     0
281
     0
  0
CLASS
  1
LWPOLYLINE
  2
AcDbPolyline
  3
AutoCAD 2000
 90
    32768
280
     0
281
     1
  0
CLASS
  1
HATCH
  2
AcDbHatch
  3
AutoCAD 2000
 90
    32768
280
     0
281
     1
  0
CLASS
  1
XRECORD
  2
AcDbXrecord
  3
AutoCAD 2000
 90
    32768
280
     0
281
     0
  0
CLASS
  1
LONG_TRANSACTION
  2
AcDbLongTransaction
  3
AutoCAD 2000
 90
    32768
280
     0
281
     0
  0
CLASS
  1
LWPOLYLINE
  2
AcDbPolyline
  3
AutoCAD 2000
 90
    32768
280
     0
281
     1
  0
CLASS
  1
HATCH
  2
AcDbHatch
  3
AutoCAD 2000
 90
    32768
280
     0
281
     1
  0
CLASS
  1
XRECORD
  2
AcDbXrecord
  3
AutoCAD 2000
 90
    32768
280
     0
281
     0
  0
CLASS
  1
LONG_TRANSACTION
  2
AcDbLongTransaction
  3
AutoCAD 2000
 90
    32768
280
     0
281
     0
  0
CLASS
  1
LWPOLYLINE
  2
AcDbPolyline
  3
AutoCAD 2000
 90
    32768
280
     0
281
     1
  0
CLASS
  1
HATCH
  2
AcDbHatch
  3
AutoCAD 2000
 90
    32768
280
     0
281
     1
  0
CLASS
  1
XRECORD
  2
AcDbXrecord
  3
AutoCAD 2000
 90
    32768
280
     0
281
     0
  0
CLASS
  1
LONG_TRANSACTION
  2
AcDbLongTransaction
  3
AutoCAD 2000
 90
    32768
280
     0
281
     0
  0
CLASS
  1
LWPOLYLINE
  2
AcDbPolyline
  3
AutoCAD 2000
 90
    32768
280
     0
281
     1
  0
CLASS
  1
HATCH
  2
AcDbHatch
  3
AutoCAD 2000
 90
    32768
280
     0
281
     1
  0
CLASS
  1
XRECORD
  2
AcDbXrecord
  3
AutoCAD 2000
 90
    32768
280
     0
281
     0
  0
CLASS
  1
LONG_TRANSACTION
  2
AcDbLongTransaction
  3
AutoCAD 2000
 90
    32768
280
     0
281
     0
  0
CLASS
  1
LWPOLYLINE
  2
AcDbPolyline
  3
AutoCAD 2000
 90
    32768
280
     0
281
     1
  0
CLASS
  1
HATCH
  2
AcDbHatch
  3
AutoCAD 2000
 90
    32768
280
     0
281
     1
  0
CLASS
  1
XRECORD
  2
AcDbXrecord
  3
AutoCAD 2000
 90
    32768
280
     0
281
     0
  0
CLASS
  1
LONG_TRANSACTION
  2
AcDbLongTransaction
  3
AutoCAD 2000
 90
    32768
280
     0
281
     0
  0
CLASS
  1
LWPOLYLINE
  2
AcDbPolyline
  3
AutoCAD 2000
 90
    32768
280
     0
281
     1
  0
CLASS
  1
HATCH
  2
AcDbHatch
  3
AutoCAD 2000
 90
    32768
280
     0
281
     1
  0
CLASS
  1
XRECORD
  2
AcDbXrecord
  3
AutoCAD 2000
 90
    32768
280
     0
281
     0
  0
CLASS
  1
LONG_TRANSACTION
  2
AcDbLongTransaction
  3
AutoCAD 2000
 90
    32768
280
     0
281
     0
  0
CLASS
  1
LWPOLYLINE
  2
AcDbPolyline
  3
AutoCAD 2000
 90
    32768
280
     0
281
     1
  0
CLASS
  1
HATCH
  2
AcDbHatch
  3
AutoCAD 2000
 90
    32768
280
     0
281
     1
  0
CLASS
  1
XRECORD
  2
AcDbXrecord
  3
AutoCAD 2000
 90
    32768
280
     0
281
     0
  0
CLASS
  1
LONG_TRANSACTION
  2
AcDbLongTransaction
  3
AutoCAD 2000
 90
    32768
280
     0
281
     0
  0
CLASS
  1
LWPOLYLINE
  2
AcDbPolyline
  3
AutoCAD 2000
 90
    32768
280
     0
281
     1
  0
CLASS
  1
HATCH
  2
AcDbHatch
  3
AutoCAD 2000
 90
    32768
280
     0
281
     1
  0
CLASS
  1
XRECORD
  2
AcDbXrecord
  3
AutoCAD 2000
 90
    32768
280
     0
281
     0
  0
CLASS
  1
LONG_TRANSACTION
  2
AcDbLongTransaction
  3
AutoCAD 2000
 90
    32768
280
     0
281
     0
  0
CLASS
  1
LWPOLYLINE
  2
AcDbPolyline
  3
AutoCAD 2000
 90
    32768
280
     0
281
     1
  0
CLASS
  1
HATCH
  2
AcDbHatch
  3
AutoCAD 2000
 90
    32768
280
     0
281
     1
  0
CLASS
  1
XRECORD
  2
AcDbXrecord
  3
AutoCAD 2000
 90
    32768
280
     0
281
     0
  0
CLASS
  1
LONG_TRANSACTION
  2
AcDbLongTransaction
  3
AutoCAD 2000
 90
    32768
280
     0
281
     0
  0
CLASS
  1
LWPOLYLINE
  2
AcDbPolyline
  3
AutoCAD 2000
 90
    32768
280
     0
281
     1
  0
CLASS
  1
HATCH
  2
AcDbHatch
  3
AutoCAD 2000
 90
    32768
280
     0
281
     1
  0
CLASS
  1
XRECORD
  2
AcDbXrecord
  3
AutoCAD 2000
 90
    32768
280
     0
281
     0
  0
CLASS
  1
LONG_TRANSACTION
  2
AcDbLongTransaction
  3
AutoCAD 2000
 90
    32768
280
     0
281
     0
  0
CLASS
  1
LWPOLYLINE
  2
AcDbPolyline
  3
AutoCAD 2000
 90
    32768
280
     0
281
     1
  0
CLASS
  1
HATCH
  2
AcDbHatch
  3
AutoCAD 2000
 90
    32768
280
     0
281
     1
  0
CLASS
  1
XRECORD
  2
AcDbXrecord
  3
AutoCAD 2000
 90
    32768
280
     0
281
     0
  0
CLASS
  1
LONG_TRANSACTION
  2
AcDbLongTransaction
  3
AutoCAD 2000
 90
    32768
280
     0
281
     0
  0
CLASS
  1
LWPOLYLINE
  2
AcDbPolyline
  3
AutoCAD 2000
 90
    32768
280
     0
281
     1
  0
CLASS
  1
HATCH
  2
AcDbHatch
  3
AutoCAD 2000
 90
    32768
280
     0
281
     1
  0
CLASS
  1
XRECORD
  2
AcDbXrecord
  3
AutoCAD 2000
 90
    32768
280
     0
281
     0
  0
CLASS
  1
LONG_TRANSACTION
  2
AcDbLongTransaction
  3
AutoCAD 2000
 90
    32768
280
     0
281
     0
  0
CLASS
  1
LWPOLYLINE
  2
AcDbPolyline
  3
AutoCAD 2000
 90
    32768
280
     0
281
     1
  0
CLASS
  1
HATCH
  2
AcDbHatch
  3
AutoCAD 2000
 90
    32768
280
     0
281
     1
  0
CLASS
  1
XRECORD
  2
AcDbXrecord
  3
AutoCAD 2000
 90
    32768
280
     0
281
     0
  0
CLASS
  1
LONG_TRANSACTION
  2
AcDbLongTransaction
  3
AutoCAD 2000
 90
    32768
280
     0
281
     0
  0
CLASS
  1
LWPOLYLINE
  2
AcDbPolyline
  3
AutoCAD 2000
 90
    32768
280
     0
281
     1
  0
CLASS
  1
HATCH
  2
AcDbHatch
  3
AutoCAD 2000
 90
    32768
280
     0
281
     1
  0
CLASS
  1
XRECORD
  2
AcDbXrecord
  3
AutoCAD 2000
 90
    32768
280
     0
281
     0
  0
CLASS
  1
LONG_TRANSACTION
  2
AcDbLongTransaction
  3
AutoCAD 2000
 90
    32768
280
     0
281
     0
  0
CLASS
  1
LWPOLYLINE
  2
AcDbPolyline
  3
AutoCAD 2000
 90
    32768
280
     0
281
     1
  0
CLASS
  1
HATCH
  2
AcDbHatch
  3
AutoCAD 2000
 90
    32768
280
     0
281
     1
  0
CLASS
  1
XRECORD
  2
AcDbXrecord
  3
AutoCAD 2000
 90
    32768
280
     0
281
     0
  0
CLASS
  1
LONG_TRANSACTION
  2
AcDbLongTransaction
  3
AutoCAD 2000
 90
    32768
280
     0
281
     0
  0
CLASS
  1
LWPOLYLINE
  2
AcDbPolyline
  3
AutoCAD 2000
 90
    32768
280
     0
281
     1
  0
CLASS
  1
HATCH
  2
AcDbHatch
  3
AutoCAD 2000
 90
    32768
280
     0
281
     1
  0
CLASS
  1
XRECORD
  2
AcDbXrecord
  3
AutoCAD 2000
 90
    32768
280
     0
281
     0
  0
CLASS
  1
LONG_TRANSACTION
  2
AcDbLongTransaction
  3
AutoCAD 2000
 90
    32768
280
     0
281
     0
  0
CLASS
  1
LWPOLYLINE
  2
AcDbPolyline
  3
AutoCAD 2000
 90
    32768
280
     0
281
     1
  0
CLASS
  1
HATCH
  2
AcDbHatch
  3
AutoCAD 2000
 90
    32768
280
     0
281
     1
  0
CLASS
  1
XRECORD
  2
AcDbXrecord
  3
AutoCAD 2000
 90
    32768
280
     0
281
     0
  0
CLASS
  1
LONG_TRANSACTION
  2
AcDbLongTransaction
  3
AutoCAD 2000
 90
    32768
280
     0
281
     0
  0
CLASS
  1
LWPOLYLINE
  2
AcDbPolyline
  3
AutoCAD 2000
 90
    32768
280
     0
281
     1
  0
CLASS
  1
HATCH
  2
AcDbHatch
  3
AutoCAD 2000
 90
    32768
280
     0
281
     1
  0
CLASS
  1
XRECORD
  2
AcDbXrecord
  3
AutoCAD 2000
 90
    32768
280
     0
281
     0
  0
ENDSEC
  0
SECTION
  2
TABLES
  0
TABLE
  2
VPORT
  5
8
330
0
100
AcDbSymbolTable
 70
     2
  0
VPORT
  5
3C4B
330
8
100
AcDbSymbolTableRecord
100
AcDbViewportTableRecord
  2
*Active
 70
     0
 10
0.0
 20
0.0
 11
1.0
 21
1.0
 12
166.3973165757845
 22
183.2631472335908
 13
0.0
 23
0.0
 14
1.0
 24
1.0
 15
10.0
 25
10.0
 16
0.0
 26
0.0
 36
1.0
 17
0.0
 27
0.0
 37
0.0
 40
159.656362709319
 41
1.750922509225092
 42
50.0
 43
0.0
 44
0.0
 50
0.0
 51
0.0
 71
     0
 72
   100
 73
     1
 74
     1
 75
     0
 76
     0
 77
     0
 78
     0
281
     0
 65
     1
110
0.0
120
0.0
130
0.0
111
1.0
121
0.0
131
0.0
112
0.0
122
1.0
132
0.0
 79
     0
146
0.0
  0
ENDTAB
  0
TABLE
  2
LTYPE
  5
5
330
0
100
AcDbSymbolTable
 70
     5
  0
LTYPE
  5
13
330
5
100
AcDbSymbolTableRecord
100
AcDbLinetypeTableRecord
  2
BYBLOCK
 70
     0
  3

 72
    65
 73
     0
 40
0.0
  0
LTYPE
  5
14
330
5
100
AcDbSymbolTableRecord
100
AcDbLinetypeTableRecord
  2
BYLAYER
 70
     0
  3

 72
    65
 73
     0
 40
0.0
  0
LTYPE
  5
15
330
5
100
AcDbSymbolTableRecord
100
AcDbLinetypeTableRecord
  2
CONTINUOUS
 70
     0
  3
Solid line
 72
    65
 73
     0
 40
0.0
  0
LTYPE
  5
22
330
5
100
AcDbSymbolTableRecord
100
AcDbLinetypeTableRecord
  2
CONTINOUS
 70
     0
  3
Solid line
 72
    65
 73
     0
 40
0.0
  0
LTYPE
  5
23
330
5
100
AcDbSymbolTableRecord
100
AcDbLinetypeTableRecord
  2
DASHED
 70
     0
  3
__ __ __ __ __ __ __ __ __ __ __ __ __ __ __
 72
    65
 73
     2
 40
0.75
 49
0.5
 74
     0
 49
-0.25
 74
     0
  0
LTYPE
  5
24
330
5
100
AcDbSymbolTableRecord
100
AcDbLinetypeTableRecord
  2
DASHDOT
 70
     0
  3
__ . __ . __ . __ . __ . __ . __ . __ . __ . __
 72
    65
 73
     4
 40
1.0
 49
0.5
 74
     0
 49
-0.25
 74
     0
 49
0.0
 74
     0
 49
-0.25
 74
     0
  0
LTYPE
  5
392A
330
5
100
AcDbSymbolTableRecord
100
AcDbLinetypeTableRecord
  2
DIVIDE
 70
     0
  3
Divide ____ . . ____ . . ____ . . ____ . . ____
 72
    65
 73
     6
 40
1.25
 49
0.5
 74
     0
 49
-0.25
 74
     0
 49
0.0
 74
     0
 49
-0.25
 74
     0
 49
0.0
 74
     0
 49
-0.25
 74
     0
  0
ENDTAB
  0
TABLE
  2
LAYER
  5
2
330
0
100
AcDbSymbolTable
 70
    11
  0
LAYER
  5
10
330
2
100
AcDbSymbolTableRecord
100
AcDbLayerTableRecord
  2
0
 70
     0
 62
     7
  6
CONTINOUS
370
    -3
390
F
  0
LAYER
  5
2F
330
2
100
AcDbSymbolTableRecord
100
AcDbLayerTableRecord
  2
10
 70
     0
 62
     4
  6
CONTINOUS
370
    -3
390
F
  0
LAYER
  5
31
330
2
100
AcDbSymbolTableRecord
100
AcDbLayerTableRecord
  2
12
 70
     0
 62
     3
  6
CONTINOUS
370
    -3
390
F
  0
LAYER
  5
35
330
2
100
AcDbSymbolTableRecord
100
AcDbLayerTableRecord
  2
16
 70
     4
 62
     6
  6
DASHDOT
370
    -3
390
F
  0
LAYER
  5
36
330
2
100
AcDbSymbolTableRecord
100
AcDbLayerTableRecord
  2
17
 70
     0
 62
     2
  6
DASHDOT
370
    -3
390
F
  0
LAYER
  5
38
330
2
100
AcDbSymbolTableRecord
100
AcDbLayerTableRecord
  2
19
 70
     0
 62
     7
  6
CONTINOUS
370
    -3
390
F
  0
LAYER
  5
3C
330
2
100
AcDbSymbolTableRecord
100
AcDbLayerTableRecord
  2
11
 70
     0
 62
     1
  6
CONTINOUS
370
    -3
390
F
  0
LAYER
  5
3D
330
2
100
AcDbSymbolTableRecord
100
AcDbLayerTableRecord
  2
24
 70
     0
 62
     2
  6
CONTINOUS
370
    -3
390
F
  0
LAYER
  5
3A2
330
2
100
AcDbSymbolTableRecord
100
AcDbLayerTableRecord
  2
30
 70
     0
 62
     9
  6
CONTINUOUS
370
    -3
390
F
  0
LAYER
  5
3A4
330
2
100
AcDbSymbolTableRecord
100
AcDbLayerTableRecord
  2
DEFPOINTS
 70
     0
 62
     7
  6
CONTINUOUS
290
     0
370
    -3
390
F
  0
LAYER
  5
3A68
330
2
100
AcDbSymbolTableRecord
100
AcDbLayerTableRecord
  2
18
 70
     0
 62
     5
  6
DIVIDE
370
    -3
390
F
  0
ENDTAB
  0
TABLE
  2
STYLE
  5
3
330
0
100
AcDbSymbolTable
 70
     3
  0
STYLE
  5
11
330
3
100
AcDbSymbolTableRecord
100
AcDbTextStyleTableRecord
  2
STANDARD
 70
     0
 40
0.0
 41
1.0
 50
0.0
 71
     0
 42
2.0
  3
txt.shx
  4
bigfont.shx
  0
STYLE
  5
42
330
3
100
AcDbSymbolTableRecord
100
AcDbTextStyleTableRecord
  2
STANDARD1
 70
     0
 40
0.0
 41
1.0
 50
0.0
 71
     0
 42
5.0
  3
MONOTXT
  4
BIGFONT
  0
STYLE
  5
3929
330
3
100
AcDbSymbolTableRecord
100
AcDbTextStyleTableRecord
  2

 70
     1
 40
0.0
 41
1.0
 50
0.0
 71
     0
 42
5.0
  3
ltypeshp.shx
  4

  0
ENDTAB
  0
TABLE
  2
VIEW
  5
6
330
0
100
AcDbSymbolTable
 70
     3
  0
VIEW
  5
230C
330
6
100
AcDbSymbolTableRecord
100
AcDbViewTableRecord
  2
OLE1
 70
     0
 40
148.912488
 10
429.497628
 20
2.560627
 41
103.145806
 11
0.0
 21
0.0
 31
1.0
 12
0.0
 22
0.0
 32
0.0
 42
50.0
 43
0.0
 44
0.0
 50
0.0
 71
     0
281
     0
 72
     0
  0
VIEW
  5
230E
330
6
100
AcDbSymbolTableRecord
100
AcDbViewTableRecord
  2
OLE2
 70
     0
 40
170.778692
 10
322.66497
 20
-5.978304
 41
102.467215
 11
0.0
 21
0.0
 31
1.0
 12
0.0
 22
0.0
 32
0.0
 42
50.0
 43
0.0
 44
0.0
 50
0.0
 71
     0
281
     0
 72
     0
  0
VIEW
  5
23AA
330
6
100
AcDbSymbolTableRecord
100
AcDbViewTableRecord
  2
OLE3
 70
     0
 40
591.7897389999999
 10
84.79698199999999
 20
-46.09335999999999
 41
388.792096
 11
0.0
 21
0.0
 31
1.0
 12
0.0
 22
0.0
 32
0.0
 42
50.0
 43
0.0
 44
0.0
 50
0.0
 71
     0
281
     0
 72
     0
  0
ENDTAB
  0
TABLE
  2
UCS
  5
7
330
0
100
AcDbSymbolTable
 70
     0
  0
ENDTAB
  0
TABLE
  2
APPID
  5
9
330
0
100
AcDbSymbolTable
 70
     2
  0
APPID
  5
12
330
9
100
AcDbSymbolTableRecord
100
AcDbRegAppTableRecord
  2
ACAD
 70
     0
  0
APPID
  5
ECD
330
9
100
AcDbSymbolTableRecord
100
AcDbRegAppTableRecord
  2
CONTENTBLOCKICON
 70
     0
  0
ENDTAB
  0
TABLE
  2
DIMSTYLE
  5
A
330
0
100
AcDbSymbolTable
 70
     1
100
AcDbDimStyleTable
 71
     0
  0
DIMSTYLE
105
175
102
{ACAD_REACTORS
330
BD8
330
BFF
330
C4F
330
C52
330
225F
330
277B
330
277A
330
2777
330
2776
330
288F
330
2A51
330
2B68
330
2B69
330
2B6A
330
2B6D
330
2C47
330
2D21
330
2D25
330
2D20
330
2B6C
330
3321
330
3500
330
3522
330
3613
330
36D9
330
38EA
102
}
330
A
100
AcDbSymbolTableRecord
100
AcDbDimStyleTableRecord
  2
STANDARD
 70
     0
 41
2.0
 42
1.0
 43
0.5
 44
0.5
 73
     0
 77
     3
 78
    12
140
4.0
147
1.0
271
     1
272
     1
340
11
341
3B2
342
3B2
  0
ENDTAB
  0
TABLE
  2
BLOCK_RECORD
  5
1
330
0
100
AcDbSymbolTable
 70
    24
  0
BLOCK_RECORD
  5
1E
102
{ACAD_XDICTIONARY
360
178
102
}
330
1
100
AcDbSymbolTableRecord
100
AcDbBlockTableRecord
  2
*MODEL_SPACE
340
21
  0
BLOCK_RECORD
  5
1A
102
{ACAD_XDICTIONARY
360
17A
102
}
330
1
100
AcDbSymbolTableRecord
100
AcDbBlockTableRecord
  2
*PAPER_SPACE
340
1D
  0
BLOCK_RECORD
  5
3B2
330
1
100
AcDbSymbolTableRecord
100
AcDbBlockTableRecord
  2
_OPEN
340
0
102
{BLKREFS
331
3C1C
331
3C1D
331
3918
331
3919
331
3033
331
3034
331
31B7
331
31B8
331
31C0
331
31C1
331
31D2
331
31D3
331
3544
331
3545
331
31C9
331
31CA
331
3367
331
3368
331
32EC
331
32ED
331
32F5
331
32F6
331
3C2C
331
3C2D
331
390E
331
390F
331
3639
331
363A
331
3937
331
3938
331
302A
331
302B
331
2DB8
331
3021
331
3022
331
335E
331
335F
331
3C36
331
3C37
331
364E
331
364F
331
3922
331
3923
331
38FA
331
38FB
102
}
  0
BLOCK_RECORD
  5
BD9
330
1
100
AcDbSymbolTableRecord
100
AcDbBlockTableRecord
  2
*D1
340
0
  0
BLOCK_RECORD
  5
C00
330
1
100
AcDbSymbolTableRecord
100
AcDbBlockTableRecord
  2
*D2
340
0
  0
BLOCK_RECORD
  5
2262
330
1
100
AcDbSymbolTableRecord
100
AcDbBlockTableRecord
  2
*D3
340
0
  0
BLOCK_RECORD
  5
27A1
330
1
100
AcDbSymbolTableRecord
100
AcDbBlockTableRecord
  2
*D4
340
0
  0
BLOCK_RECORD
  5
27AD
330
1
100
AcDbSymbolTableRecord
100
AcDbBlockTableRecord
  2
*D5
340
0
  0
BLOCK_RECORD
  5
27B9
330
1
100
AcDbSymbolTableRecord
100
AcDbBlockTableRecord
  2
*D6
340
0
  0
BLOCK_RECORD
  5
27C5
330
1
100
AcDbSymbolTableRecord
100
AcDbBlockTableRecord
  2
*D7
340
0
  0
BLOCK_RECORD
  5
2890
330
1
100
AcDbSymbolTableRecord
100
AcDbBlockTableRecord
  2
*D8
340
0
  0
BLOCK_RECORD
  5
2AAB
330
1
100
AcDbSymbolTableRecord
100
AcDbBlockTableRecord
  2
*D9
340
0
  0
BLOCK_RECORD
  5
2B6E
330
1
100
AcDbSymbolTableRecord
100
AcDbBlockTableRecord
  2
*D10
340
0
  0
BLOCK_RECORD
  5
2B7A
330
1
100
AcDbSymbolTableRecord
100
AcDbBlockTableRecord
  2
*D11
340
0
  0
BLOCK_RECORD
  5
2B86
330
1
100
AcDbSymbolTableRecord
100
AcDbBlockTableRecord
  2
*D12
340
0
  0
BLOCK_RECORD
  5
2BA0
330
1
100
AcDbSymbolTableRecord
100
AcDbBlockTableRecord
  2
*D13
340
0
  0
BLOCK_RECORD
  5
2BAC
330
1
100
AcDbSymbolTableRecord
100
AcDbBlockTableRecord
  2
*D14
340
0
  0
BLOCK_RECORD
  5
2C54
330
1
100
AcDbSymbolTableRecord
100
AcDbBlockTableRecord
  2
*D15
340
0
  0
BLOCK_RECORD
  5
2D33
330
1
100
AcDbSymbolTableRecord
100
AcDbBlockTableRecord
  2
*D16
340
0
  0
BLOCK_RECORD
  5
2D3F
330
1
100
AcDbSymbolTableRecord
100
AcDbBlockTableRecord
  2
*D17
340
0
  0
BLOCK_RECORD
  5
2D4A
330
1
100
AcDbSymbolTableRecord
100
AcDbBlockTableRecord
  2
*D18
340
0
  0
BLOCK_RECORD
  5
3322
330
1
100
AcDbSymbolTableRecord
100
AcDbBlockTableRecord
  2
*D19
340
0
  0
BLOCK_RECORD
  5
3504
330
1
100
AcDbSymbolTableRecord
100
AcDbBlockTableRecord
  2
*D20
340
0
  0
BLOCK_RECORD
  5
3614
330
1
100
AcDbSymbolTableRecord
100
AcDbBlockTableRecord
  2
*D21
340
0
  0
BLOCK_RECORD
  5
36DA
330
1
100
AcDbSymbolTableRecord
100
AcDbBlockTableRecord
  2
*D22
340
0
  0
BLOCK_RECORD
  5
38EB
330
1
100
AcDbSymbolTableRecord
100
AcDbBlockTableRecord
  2
*D23
340
0
  0
ENDTAB
  0
ENDSEC
  0
SECTION
  2
BLOCKS
  0
BLOCK
  5
1F
330
1E
100
AcDbEntity
  8
0
100
AcDbBlockBegin
  2
*MODEL_SPACE
 70
     0
 10
0.0
 20
0.0
 30
0.0
  3
*MODEL_SPACE
  1

  0
ENDBLK
  5
20
330
1E
100
AcDbEntity
  8
0
100
AcDbBlockEnd
  0
BLOCK
  5
1B
330
1A
100
AcDbEntity
 67
     1
  8
0
100
AcDbBlockBegin
  2
*PAPER_SPACE
 70
     0
 10
0.0
 20
0.0
 30
0.0
  3
*PAPER_SPACE
  1

  0
ENDBLK
  5
1C
330
1A
100
AcDbEntity
 67
     1
  8
0
100
AcDbBlockEnd
  0
BLOCK
  5
3B6
330
3B2
100
AcDbEntity
  8
0
100
AcDbBlockBegin
  2
_OPEN
 70
     0
 10
0.0
 20
0.0
 30
0.0
  3
_OPEN
  1

  0
LINE
  5
3B3
330
3B2
100
AcDbEntity
  8
30
  6
Continuous
 62
     0
100
AcDbLine
 10
-1.0
 20
0.166667
 30
0.0
 11
0.0
 21
0.0
 31
0.0
1001
ACAD
1000
RTLwPs
1070
   158
  0
LINE
  5
3B4
330
3B2
100
AcDbEntity
  8
30
  6
Continuous
 62
     0
100
AcDbLine
 10
-1.0
 20
-0.166667
 30
0.0
 11
0.0
 21
0.0
 31
0.0
1001
ACAD
1000
RTLwPs
1070
   158
  0
LINE
  5
3B5
330
3B2
100
AcDbEntity
  8
30
  6
Continuous
 62
     0
100
AcDbLine
 10
0.0
 20
0.0
 30
0.0
 11
-1.0
 21
0.0
 31
0.0
1001
ACAD
1000
RTLwPs
1070
   158
  0
ENDBLK
  5
3B7
330
3B2
100
AcDbEntity
  8
0
100
AcDbBlockEnd
  0
BLOCK
  5
BE3
330
BD9
100
AcDbEntity
  8
0
100
AcDbBlockBegin
  2
*D1
 70
     1
 10
0.0
 20
0.0
 30
0.0
  3
*D1
  1

  0
LINE
  5
3C18
330
BD9
100
AcDbEntity
  8
30
  6
Continuous
 62
     0
100
AcDbLine
 10
134.5660649999999
 20
136.633295
 30
0.0
 11
154.2892099999999
 21
136.633295
 31
0.0
  0
LINE
  5
3C19
330
BD9
100
AcDbEntity
  8
30
  6
Continuous
 62
     0
100
AcDbLine
 10
135.5660649999999
 20
144.633295
 30
0.0
 11
154.2892099999999
 21
144.633295
 31
0.0
  0
LINE
  5
3C1A
330
BD9
100
AcDbEntity
  8
30
  6
Continuous
 62
     0
100
AcDbLine
 10
153.78921
 20
138.633295
 30
0.0
 11
153.78921
 21
142.633295
 31
0.0
  0
MTEXT
  5
3C1B
330
BD9
100
AcDbEntity
  8
30
  6
Continuous
 62
     0
100
AcDbMText
 10
142.66413
 20
140.833687
 30
0.0
 40
4.0
 41
0.0
 71
     5
 72
     1
  1
\A1;max8
 73
     1
 44
1.0
  0
INSERT
  5
3C1C
330
BD9
100
AcDbEntity
  8
30
  6
Continuous
 62
     0
100
AcDbBlockReference
  2
_OPEN
 10
153.78921
 20
136.633295
 30
0.0
 41
2.0
 42
2.0
 43
2.0
 50
270.0
  0
INSERT
  5
3C1D
330
BD9
100
AcDbEntity
  8
30
  6
Continuous
 62
     0
100
AcDbBlockReference
  2
_OPEN
 10
153.78921
 20
144.633295
 30
0.0
 41
2.0
 42
2.0
 43
2.0
 50
90.0
  0
POINT
  5
3C1E
330
BD9
100
AcDbEntity
  8
DEFPOINTS
  6
Continuous
 62
     0
100
AcDbPoint
 10
133.5660649999999
 20
136.633295
 30
0.0
  0
POINT
  5
3C1F
330
BD9
100
AcDbEntity
  8
DEFPOINTS
  6
Continuous
 62
     0
100
AcDbPoint
 10
134.5660649999999
 20
144.633295
 30
0.0
  0
POINT
  5
3C20
330
BD9
100
AcDbEntity
  8
DEFPOINTS
  6
Continuous
 62
     0
100
AcDbPoint
 10
153.78921
 20
144.633295
 30
0.0
  0
ENDBLK
  5
BE4
330
BD9
100
AcDbEntity
  8
0
100
AcDbBlockEnd
  0
BLOCK
  5
C0A
330
C00
100
AcDbEntity
  8
0
100
AcDbBlockBegin
  2
*D2
 70
     1
 10
0.0
 20
0.0
 30
0.0
  3
*D2
  1

  0
LINE
  5
3914
330
C00
100
AcDbEntity
  8
30
  6
Continuous
 62
     0
100
AcDbLine
 10
118.5660649999999
 20
135.633295
 30
0.0
 11
118.5660649999999
 21
129.483125
 31
0.0
1001
ACAD
1000
RTLwPs
1070
   158
  0
LINE
  5
3915
330
C00
100
AcDbEntity
  8
30
  6
Continuous
 62
     0
100
AcDbLine
 10
133.5660649999999
 20
135.633295
 30
0.0
 11
133.5660649999999
 21
129.483125
 31
0.0
1001
ACAD
1000
RTLwPs
1070
   158
  0
LINE
  5
3916
330
C00
100
AcDbEntity
  8
30
  6
Continuous
 62
     0
100
AcDbLine
 10
131.5660649999999
 20
129.9831249999999
 30
0.0
 11
120.566065
 21
129.9831249999999
 31
0.0
1001
ACAD
1000
RTLwPs
1070
   158
  0
LINE
  5
3917
330
C00
100
AcDbEntity
  8
30
  6
Continuous
 62
     0
100
AcDbLine
 10
118.5660649999999
 20
129.9831249999999
 30
0.0
 11
102.310573
 21
129.9831249999999
 31
0.0
1001
ACAD
1000
RTLwPs
1070
   158
  0
INSERT
  5
3918
330
C00
100
AcDbEntity
  8
30
  6
Continuous
 62
     0
100
AcDbBlockReference
  2
_OPEN
 10
133.5660649999999
 20
129.9831249999999
 30
0.0
 41
2.0
 42
2.0
 43
2.0
1001
ACAD
1000
RTLwPs
1070
   158
  0
INSERT
  5
3919
330
C00
100
AcDbEntity
  8
30
  6
Continuous
 62
     0
100
AcDbBlockReference
  2
_OPEN
 10
118.5660649999999
 20
129.9831249999999
 30
0.0
 41
2.0
 42
2.0
 43
2.0
 50
180.0
1001
ACAD
1000
RTLwPs
1070
   158
  0
MTEXT
  5
391A
330
C00
100
AcDbEntity
  8
30
  6
Continuous
 62
     0
100
AcDbMText
 10
108.643906
 20
136.316458
 30
0.0
 40
4.0
 41
0.0
 71
     5
 72
     1
  1
\A1;max\P15
 73
     1
 44
1.0
1001
ACAD
1000
MTEXTBEGIN
1070
    73
1070
     1
1070
    44
1040
1.0
1070
    74
1070
     0
1000
MTEXTEND
1000
MTEXTBEGIN
1070
    73
1070
     1
1070
    44
1040
1.0
1070
    74
1070
     0
1000
MTEXTEND
1000
MTEXTBEGIN
1070
    73
1070
     1
1070
    44
1040
1.0
1070
    74
1070
     0
1000
MTEXTEND
1000
MTEXTBEGIN
1070
    73
1070
     1
1070
    44
1040
1.0
1070
    74
1070
     0
1000
MTEXTEND
1000
MTEXTBEGIN
1070
    73
1070
     1
1070
    44
1040
1.0
1070
    74
1070
     0
1000
MTEXTEND
  0
POINT
  5
391B
330
C00
100
AcDbEntity
  8
DEFPOINTS
  6
Continuous
 62
     0
100
AcDbPoint
 10
118.5660649999999
 20
136.633295
 30
0.0
  0
POINT
  5
391C
330
C00
100
AcDbEntity
  8
DEFPOINTS
  6
Continuous
 62
     0
100
AcDbPoint
 10
133.5660649999999
 20
136.633295
 30
0.0
  0
POINT
  5
391D
330
C00
100
AcDbEntity
  8
DEFPOINTS
  6
Continuous
 62
     0
100
AcDbPoint
 10
133.5660649999999
 20
129.9831249999999
 30
0.0
  0
ENDBLK
  5
C0B
330
C00
100
AcDbEntity
  8
0
100
AcDbBlockEnd
  0
BLOCK
  5
226C
330
2262
100
AcDbEntity
  8
0
 62
     2
100
AcDbBlockBegin
  2
*D3
 70
     1
 10
0.0
 20
0.0
 30
0.0
  3
*D3
  1

  0
LINE
  5
3030
330
2262
100
AcDbEntity
  8
30
  6
Continuous
 62
     0
100
AcDbLine
 10
-12.5
 20
-198.75
 30
0.0
 11
-12.5
 21
-330.5
 31
0.0
1001
ACAD
1000
RTLwPs
1070
   158
  0
LINE
  5
3031
330
2262
100
AcDbEntity
  8
30
  6
Continuous
 62
     0
100
AcDbLine
 10
12.5
 20
-309.75
 30
0.0
 11
12.5
 21
-330.5
 31
0.0
1001
ACAD
1000
RTLwPs
1070
   158
  0
LINE
  5
3032
330
2262
100
AcDbEntity
  8
30
  6
Continuous
 62
     0
100
AcDbLine
 10
-10.5
 20
-330.0
 30
0.0
 11
10.5
 21
-330.0
 31
0.0
1001
ACAD
1000
RTLwPs
1070
   158
  0
INSERT
  5
3033
330
2262
100
AcDbEntity
  8
30
  6
Continuous
 62
     0
100
AcDbBlockReference
  2
_OPEN
 10
-12.5
 20
-330.0
 30
0.0
 41
2.0
 42
2.0
 43
2.0
 50
180.0
1001
ACAD
1000
RTLwPs
1070
   158
  0
INSERT
  5
3034
330
2262
100
AcDbEntity
  8
30
  6
Continuous
 62
     0
100
AcDbBlockReference
  2
_OPEN
 10
12.5
 20
-330.0
 30
0.0
 41
2.0
 42
2.0
 43
2.0
1001
ACAD
1000
RTLwPs
1070
   158
  0
MTEXT
  5
3035
330
2262
100
AcDbEntity
  8
30
  6
Continuous
 62
     0
100
AcDbMText
 10
0.0
 20
-327.0
 30
0.0
 40
4.0
 41
0.0
 71
     5
 72
     1
  1
\A1;25
 73
     1
 44
1.0
1001
ACAD
1000
MTEXTBEGIN
1070
    73
1070
     1
1070
    44
1040
1.0
1070
    74
1070
     0
1000
MTEXTEND
1000
MTEXTBEGIN
1070
    73
1070
     1
1070
    44
1040
1.0
1070
    74
1070
     0
1000
MTEXTEND
1000
MTEXTBEGIN
1070
    73
1070
     1
1070
    44
1040
1.0
1070
    74
1070
     0
1000
MTEXTEND
1000
MTEXTBEGIN
1070
    73
1070
     1
1070
    44
1040
1.0
1070
    74
1070
     0
1000
MTEXTEND
1000
MTEXTBEGIN
1070
    73
1070
     1
1070
    44
1040
1.0
1070
    74
1070
     0
1000
MTEXTEND
1000
MTEXTBEGIN
1070
    73
1070
     1
1070
    44
1040
1.0
1070
    74
1070
     0
1000
MTEXTEND
1000
MTEXTBEGIN
1070
    73
1070
     1
1070
    44
1040
1.0
1070
    74
1070
     0
1000
MTEXTEND
1000
MTEXTBEGIN
1070
    73
1070
     1
1070
    44
1040
1.0
1070
    74
1070
     0
1000
MTEXTEND
1000
MTEXTBEGIN
1070
    73
1070
     1
1070
    44
1040
1.0
1070
    74
1070
     0
1000
MTEXTEND
  0
POINT
  5
3036
330
2262
100
AcDbEntity
  8
DEFPOINTS
  6
Continuous
 62
     0
100
AcDbPoint
 10
-12.5
 20
-197.75
 30
0.0
  0
POINT
  5
3037
330
2262
100
AcDbEntity
  8
DEFPOINTS
  6
Continuous
 62
     0
100
AcDbPoint
 10
12.5
 20
-308.7499999999999
 30
0.0
  0
POINT
  5
3038
330
2262
100
AcDbEntity
  8
DEFPOINTS
  6
Continuous
 62
     0
100
AcDbPoint
 10
12.5
 20
-330.0
 30
0.0
  0
ENDBLK
  5
226D
330
2262
100
AcDbEntity
  8
0
 62
     2
100
AcDbBlockEnd
  0
BLOCK
  5
27AB
330
27A1
100
AcDbEntity
  8
0
 62
     2
100
AcDbBlockBegin
  2
*D4
 70
     1
 10
0.0
 20
0.0
 30
0.0
  3
*D4
  1

  0
LINE
  5
31B4
330
27A1
100
AcDbEntity
  8
30
  6
Continuous
 62
     0
100
AcDbLine
 10
-25.0
 20
-55.5
 30
0.0
 11
-25.0
 21
-79.574989
 31
0.0
1001
ACAD
1000
RTLwPs
1070
   158
  0
LINE
  5
31B5
330
27A1
100
AcDbEntity
  8
30
  6
Continuous
 62
     0
100
AcDbLine
 10
0.0
 20
-65.0
 30
0.0
 11
0.0
 21
-79.574989
 31
0.0
1001
ACAD
1000
RTLwPs
1070
   158
  0
LINE
  5
31B6
330
27A1
100
AcDbEntity
  8
30
  6
Continuous
 62
     0
100
AcDbLine
 10
-23.0
 20
-79.074989
 30
0.0
 11
-2.0
 21
-79.074989
 31
0.0
1001
ACAD
1000
RTLwPs
1070
   158
  0
INSERT
  5
31B7
330
27A1
100
AcDbEntity
  8
30
  6
Continuous
 62
     0
100
AcDbBlockReference
  2
_OPEN
 10
-25.0
 20
-79.074989
 30
0.0
 41
2.0
 42
2.0
 43
2.0
 50
180.0
1001
ACAD
1000
RTLwPs
1070
   158
  0
INSERT
  5
31B8
330
27A1
100
AcDbEntity
  8
30
  6
Continuous
 62
     0
100
AcDbBlockReference
  2
_OPEN
 10
0.0
 20
-79.074989
 30
0.0
 41
2.0
 42
2.0
 43
2.0
1001
ACAD
1000
RTLwPs
1070
   158
  0
MTEXT
  5
31B9
330
27A1
100
AcDbEntity
  8
30
  6
Continuous
 62
     0
100
AcDbMText
 10
-11.01462099999999
 20
-76.074989
 30
0.0
 40
4.0
 41
0.0
 71
     5
 72
     1
  1
\A1;25
 73
     1
 44
1.0
1001
ACAD
1000
MTEXTBEGIN
1070
    73
1070
     1
1070
    44
1040
1.0
1070
    74
1070
     0
1000
MTEXTEND
1000
MTEXTBEGIN
1070
    73
1070
     1
1070
    44
1040
1.0
1070
    74
1070
     0
1000
MTEXTEND
1000
MTEXTBEGIN
1070
    73
1070
     1
1070
    44
1040
1.0
1070
    74
1070
     0
1000
MTEXTEND
1000
MTEXTBEGIN
1070
    73
1070
     1
1070
    44
1040
1.0
1070
    74
1070
     0
1000
MTEXTEND
1000
MTEXTBEGIN
1070
    73
1070
     1
1070
    44
1040
1.0
1070
    74
1070
     0
1000
MTEXTEND
1000
MTEXTBEGIN
1070
    73
1070
     1
1070
    44
1040
1.0
1070
    74
1070
     0
1000
MTEXTEND
1000
MTEXTBEGIN
1070
    73
1070
     1
1070
    44
1040
1.0
1070
    74
1070
     0
1000
MTEXTEND
1000
MTEXTBEGIN
1070
    73
1070
     1
1070
    44
1040
1.0
1070
    74
1070
     0
1000
MTEXTEND
  0
POINT
  5
31BA
330
27A1
100
AcDbEntity
  8
DEFPOINTS
  6
Continuous
 62
     0
100
AcDbPoint
 10
-25.0
 20
-54.5
 30
0.0
  0
POINT
  5
31BB
330
27A1
100
AcDbEntity
  8
DEFPOINTS
  6
Continuous
 62
     0
100
AcDbPoint
 10
0.0
 20
-64.0
 30
0.0
  0
POINT
  5
31BC
330
27A1
100
AcDbEntity
  8
DEFPOINTS
  6
Continuous
 62
     0
100
AcDbPoint
 10
0.0
 20
-79.074989
 30
0.0
  0
ENDBLK
  5
27AC
330
27A1
100
AcDbEntity
  8
0
 62
     2
100
AcDbBlockEnd
  0
BLOCK
  5
27B7
330
27AD
100
AcDbEntity
  8
0
 62
     2
100
AcDbBlockBegin
  2
*D5
 70
     1
 10
0.0
 20
0.0
 30
0.0
  3
*D5
  1

  0
LINE
  5
31BD
330
27AD
100
AcDbEntity
  8
30
  6
Continuous
 62
     0
100
AcDbLine
 10
-37.5
 20
-62.7
 30
0.0
 11
-37.5
 21
-89.77481800000001
 31
0.0
1001
ACAD
1000
RTLwPs
1070
   158
  0
LINE
  5
31BE
330
27AD
100
AcDbEntity
  8
30
  6
Continuous
 62
     0
100
AcDbLine
 10
37.5
 20
-62.7
 30
0.0
 11
37.5
 21
-89.77481800000001
 31
0.0
1001
ACAD
1000
RTLwPs
1070
   158
  0
LINE
  5
31BF
330
27AD
100
AcDbEntity
  8
30
  6
Continuous
 62
     0
100
AcDbLine
 10
-35.5
 20
-89.274818
 30
0.0
 11
35.5
 21
-89.274818
 31
0.0
1001
ACAD
1000
RTLwPs
1070
   158
  0
INSERT
  5
31C0
330
27AD
100
AcDbEntity
  8
30
  6
Continuous
 62
     0
100
AcDbBlockReference
  2
_OPEN
 10
-37.5
 20
-89.274818
 30
0.0
 41
2.0
 42
2.0
 43
2.0
 50
180.0
1001
ACAD
1000
RTLwPs
1070
   158
  0
INSERT
  5
31C1
330
27AD
100
AcDbEntity
  8
30
  6
Continuous
 62
     0
100
AcDbBlockReference
  2
_OPEN
 10
37.5
 20
-89.274818
 30
0.0
 41
2.0
 42
2.0
 43
2.0
1001
ACAD
1000
RTLwPs
1070
   158
  0
MTEXT
  5
31C2
330
27AD
100
AcDbEntity
  8
30
  6
Continuous
 62
     0
100
AcDbMText
 10
-1.816216
 20
-86.27481800000001
 30
0.0
 40
4.0
 41
0.0
 71
     5
 72
     1
  1
\A1;75
 73
     1
 44
1.0
1001
ACAD
1000
MTEXTBEGIN
1070
    73
1070
     1
1070
    44
1040
1.0
1070
    74
1070
     0
1000
MTEXTEND
1000
MTEXTBEGIN
1070
    73
1070
     1
1070
    44
1040
1.0
1070
    74
1070
     0
1000
MTEXTEND
1000
MTEXTBEGIN
1070
    73
1070
     1
1070
    44
1040
1.0
1070
    74
1070
     0
1000
MTEXTEND
1000
MTEXTBEGIN
1070
    73
1070
     1
1070
    44
1040
1.0
1070
    74
1070
     0
1000
MTEXTEND
1000
MTEXTBEGIN
1070
    73
1070
     1
1070
    44
1040
1.0
1070
    74
1070
     0
1000
MTEXTEND
1000
MTEXTBEGIN
1070
    73
1070
     1
1070
    44
1040
1.0
1070
    74
1070
     0
1000
MTEXTEND
1000
MTEXTBEGIN
1070
    73
1070
     1
1070
    44
1040
1.0
1070
    74
1070
     0
1000
MTEXTEND
1000
MTEXTBEGIN
1070
    73
1070
     1
1070
    44
1040
1.0
1070
    74
1070
     0
1000
MTEXTEND
  0
POINT
  5
31C3
330
27AD
100
AcDbEntity
  8
DEFPOINTS
  6
Continuous
 62
     0
100
AcDbPoint
 10
-37.5
 20
-61.7
 30
0.0
  0
POINT
  5
31C4
330
27AD
100
AcDbEntity
  8
DEFPOINTS
  6
Continuous
 62
     0
100
AcDbPoint
 10
37.5
 20
-61.7
 30
0.0
  0
POINT
  5
31C5
330
27AD
100
AcDbEntity
  8
DEFPOINTS
  6
Continuous
 62
     0
100
AcDbPoint
 10
37.5
 20
-89.274818
 30
0.0
  0
ENDBLK
  5
27B8
330
27AD
100
AcDbEntity
  8
0
 62
     2
100
AcDbBlockEnd
  0
BLOCK
  5
27C3
330
27B9
100
AcDbEntity
  8
0
 62
     2
100
AcDbBlockBegin
  2
*D6
 70
     1
 10
0.0
 20
0.0
 30
0.0
  3
*D6
  1

  0
LINE
  5
31CF
330
27B9
100
AcDbEntity
  8
30
  6
Continuous
 62
     0
100
AcDbLine
 10
-38.5
 20
65.0
 30
0.0
 11
-63.210591
 21
65.0
 31
0.0
1001
ACAD
1000
RTLwPs
1070
   158
  0
LINE
  5
31D0
330
27B9
100
AcDbEntity
  8
30
  6
Continuous
 62
     0
100
AcDbLine
 10
-38.5
 20
-65.0
 30
0.0
 11
-63.210591
 21
-65.0
 31
0.0
1001
ACAD
1000
RTLwPs
1070
   158
  0
LINE
  5
31D1
330
27B9
100
AcDbEntity
  8
30
  6
Continuous
 62
     0
100
AcDbLine
 10
-62.710591
 20
63.0
 30
0.0
 11
-62.710591
 21
-63.0
 31
0.0
1001
ACAD
1000
RTLwPs
1070
   158
  0
INSERT
  5
31D2
330
27B9
100
AcDbEntity
  8
30
  6
Continuous
 62
     0
100
AcDbBlockReference
  2
_OPEN
 10
-62.710591
 20
65.0
 30
0.0
 41
2.0
 42
2.0
 43
2.0
 50
90.0
1001
ACAD
1000
RTLwPs
1070
   158
  0
INSERT
  5
31D3
330
27B9
100
AcDbEntity
  8
30
  6
Continuous
 62
     0
100
AcDbBlockReference
  2
_OPEN
 10
-62.710591
 20
-65.0
 30
0.0
 41
2.0
 42
2.0
 43
2.0
 50
270.0
1001
ACAD
1000
RTLwPs
1070
   158
  0
MTEXT
  5
31D4
330
27B9
100
AcDbEntity
  8
30
  6
Continuous
 62
     0
100
AcDbMText
 10
-65.71059100000001
 20
-2.294738
 30
0.0
 40
4.0
 41
0.0
 71
     5
 72
     1
  1
\A1;130
 11
0.0
 21
1.0
 31
0.0
 73
     1
 44
1.0
1001
ACAD
1000
MTEXTBEGIN
1070
    73
1070
     1
1070
    44
1040
1.0
1070
    74
1070
     0
1000
MTEXTEND
1000
MTEXTBEGIN
1070
    73
1070
     1
1070
    44
1040
1.0
1070
    74
1070
     0
1000
MTEXTEND
1000
MTEXTBEGIN
1070
    73
1070
     1
1070
    44
1040
1.0
1070
    74
1070
     0
1000
MTEXTEND
1000
MTEXTBEGIN
1070
    73
1070
     1
1070
    44
1040
1.0
1070
    74
1070
     0
1000
MTEXTEND
1000
MTEXTBEGIN
1070
    73
1070
     1
1070
    44
1040
1.0
1070
    74
1070
     0
1000
MTEXTEND
1000
MTEXTBEGIN
1070
    73
1070
     1
1070
    44
1040
1.0
1070
    74
1070
     0
1000
MTEXTEND
1000
MTEXTBEGIN
1070
    73
1070
     1
1070
    44
1040
1.0
1070
    74
1070
     0
1000
MTEXTEND
1000
MTEXTBEGIN
1070
    73
1070
     1
1070
    44
1040
1.0
1070
    74
1070
     0
1000
MTEXTEND
  0
POINT
  5
31D5
330
27B9
100
AcDbEntity
  8
DEFPOINTS
  6
Continuous
 62
     0
100
AcDbPoint
 10
-37.5
 20
65.0
 30
0.0
  0
POINT
  5
31D6
330
27B9
100
AcDbEntity
  8
DEFPOINTS
  6
Continuous
 62
     0
100
AcDbPoint
 10
-37.5
 20
-65.0
 30
0.0
  0
POINT
  5
31D7
330
27B9
100
AcDbEntity
  8
DEFPOINTS
  6
Continuous
 62
     0
100
AcDbPoint
 10
-62.710591
 20
-65.0
 30
0.0
  0
ENDBLK
  5
27C4
330
27B9
100
AcDbEntity
  8
0
 62
     2
100
AcDbBlockEnd
  0
BLOCK
  5
27CF
330
27C5
100
AcDbEntity
  8
0
 62
     2
100
AcDbBlockBegin
  2
*D7
 70
     1
 10
0.0
 20
0.0
 30
0.0
  3
*D7
  1

  0
LINE
  5
3541
330
27C5
100
AcDbEntity
  8
30
  6
Continuous
 62
     0
100
AcDbLine
 10
-38.5
 20
55.0
 30
0.0
 11
-54.29999999999999
 21
55.0
 31
0.0
1001
ACAD
1000
RTLwPs
1070
   158
  0
LINE
  5
3542
330
27C5
100
AcDbEntity
  8
30
  6
Continuous
 62
     0
100
AcDbLine
 10
-38.5
 20
-55.0
 30
0.0
 11
-54.29999999999999
 21
-55.0
 31
0.0
1001
ACAD
1000
RTLwPs
1070
   158
  0
LINE
  5
3543
330
27C5
100
AcDbEntity
  8
30
  6
Continuous
 62
     0
100
AcDbLine
 10
-53.79999999999999
 20
53.0
 30
0.0
 11
-53.79999999999999
 21
-53.0
 31
0.0
1001
ACAD
1000
RTLwPs
1070
   158
  0
INSERT
  5
3544
330
27C5
100
AcDbEntity
  8
30
  6
Continuous
 62
     0
100
AcDbBlockReference
  2
_OPEN
 10
-53.79999999999999
 20
55.0
 30
0.0
 41
2.0
 42
2.0
 43
2.0
 50
90.0
1001
ACAD
1000
RTLwPs
1070
   158
  0
INSERT
  5
3545
330
27C5
100
AcDbEntity
  8
30
  6
Continuous
 62
     0
100
AcDbBlockReference
  2
_OPEN
 10
-53.79999999999999
 20
-55.0
 30
0.0
 41
2.0
 42
2.0
 43
2.0
 50
270.0
1001
ACAD
1000
RTLwPs
1070
   158
  0
MTEXT
  5
3546
330
27C5
100
AcDbEntity
  8
30
  6
Continuous
 62
     0
100
AcDbMText
 10
-56.79999999999999
 20
-2.047058999999999
 30
0.0
 40
4.0
 41
0.0
 71
     5
 72
     1
  1
\A1;110
 11
0.0
 21
1.0
 31
0.0
 73
     1
 44
1.0
1001
ACAD
1000
MTEXTBEGIN
1070
    73
1070
     1
1070
    44
1040
1.0
1070
    74
1070
     0
1000
MTEXTEND
1000
MTEXTBEGIN
1070
    73
1070
     1
1070
    44
1040
1.0
1070
    74
1070
     0
1000
MTEXTEND
1000
MTEXTBEGIN
1070
    73
1070
     1
1070
    44
1040
1.0
1070
    74
1070
     0
1000
MTEXTEND
1000
MTEXTBEGIN
1070
    73
1070
     1
1070
    44
1040
1.0
1070
    74
1070
     0
1000
MTEXTEND
1000
MTEXTBEGIN
1070
    73
1070
     1
1070
    44
1040
1.0
1070
    74
1070
     0
1000
MTEXTEND
1000
MTEXTBEGIN
1070
    73
1070
     1
1070
    44
1040
1.0
1070
    74
1070
     0
1000
MTEXTEND
1000
MTEXTBEGIN
1070
    73
1070
     1
1070
    44
1040
1.0
1070
    74
1070
     0
1000
MTEXTEND
1000
MTEXTBEGIN
1070
    73
1070
     1
1070
    44
1040
1.0
1070
    74
1070
     0
1000
MTEXTEND
  0
POINT
  5
3547
330
27C5
100
AcDbEntity
  8
DEFPOINTS
  6
Continuous
 62
     0
100
AcDbPoint
 10
-37.5
 20
55.0
 30
0.0
  0
POINT
  5
3548
330
27C5
100
AcDbEntity
  8
DEFPOINTS
  6
Continuous
 62
     0
100
AcDbPoint
 10
-37.5
 20
-55.0
 30
0.0
  0
POINT
  5
3549
330
27C5
100
AcDbEntity
  8
DEFPOINTS
  6
Continuous
 62
     0
100
AcDbPoint
 10
-53.79999999999999
 20
-55.0
 30
0.0
  0
ENDBLK
  5
27D0
330
27C5
100
AcDbEntity
  8
0
 62
     2
100
AcDbBlockEnd
  0
BLOCK
  5
289A
330
2890
100
AcDbEntity
  8
0
 62
     2
100
AcDbBlockBegin
  2
*D8
 70
     1
 10
0.0
 20
0.0
 30
0.0
  3
*D8
  1

  0
LINE
  5
31C6
330
2890
100
AcDbEntity
  8
30
  6
Continuous
 62
     0
100
AcDbLine
 10
0.0
 20
-65.0
 30
0.0
 11
0.0
 21
-79.574989
 31
0.0
1001
ACAD
1000
RTLwPs
1070
   158
  0
LINE
  5
31C7
330
2890
100
AcDbEntity
  8
30
  6
Continuous
 62
     0
100
AcDbLine
 10
25.0
 20
-55.5
 30
0.0
 11
25.0
 21
-79.574989
 31
0.0
1001
ACAD
1000
RTLwPs
1070
   158
  0
LINE
  5
31C8
330
2890
100
AcDbEntity
  8
30
  6
Continuous
 62
     0
100
AcDbLine
 10
2.0
 20
-79.074989
 30
0.0
 11
23.0
 21
-79.074989
 31
0.0
1001
ACAD
1000
RTLwPs
1070
   158
  0
INSERT
  5
31C9
330
2890
100
AcDbEntity
  8
30
  6
Continuous
 62
     0
100
AcDbBlockReference
  2
_OPEN
 10
0.0
 20
-79.074989
 30
0.0
 41
2.0
 42
2.0
 43
2.0
 50
180.0
1001
ACAD
1000
RTLwPs
1070
   158
  0
INSERT
  5
31CA
330
2890
100
AcDbEntity
  8
30
  6
Continuous
 62
     0
100
AcDbBlockReference
  2
_OPEN
 10
25.0
 20
-79.074989
 30
0.0
 41
2.0
 42
2.0
 43
2.0
1001
ACAD
1000
RTLwPs
1070
   158
  0
MTEXT
  5
31CB
330
2890
100
AcDbEntity
  8
30
  6
Continuous
 62
     0
100
AcDbMText
 10
13.985379
 20
-76.074989
 30
0.0
 40
4.0
 41
0.0
 71
     5
 72
     1
  1
\A1;25
 73
     1
 44
1.0
1001
ACAD
1000
MTEXTBEGIN
1070
    73
1070
     1
1070
    44
1040
1.0
1070
    74
1070
     0
1000
MTEXTEND
1000
MTEXTBEGIN
1070
    73
1070
     1
1070
    44
1040
1.0
1070
    74
1070
     0
1000
MTEXTEND
1000
MTEXTBEGIN
1070
    73
1070
     1
1070
    44
1040
1.0
1070
    74
1070
     0
1000
MTEXTEND
1000
MTEXTBEGIN
1070
    73
1070
     1
1070
    44
1040
1.0
1070
    74
1070
     0
1000
MTEXTEND
1000
MTEXTBEGIN
1070
    73
1070
     1
1070
    44
1040
1.0
1070
    74
1070
     0
1000
MTEXTEND
1000
MTEXTBEGIN
1070
    73
1070
     1
1070
    44
1040
1.0
1070
    74
1070
     0
1000
MTEXTEND
1000
MTEXTBEGIN
1070
    73
1070
     1
1070
    44
1040
1.0
1070
    74
1070
     0
1000
MTEXTEND
1000
MTEXTBEGIN
1070
    73
1070
     1
1070
    44
1040
1.0
1070
    74
1070
     0
1000
MTEXTEND
  0
POINT
  5
31CC
330
2890
100
AcDbEntity
  8
DEFPOINTS
  6
Continuous
 62
     0
100
AcDbPoint
 10
0.0
 20
-64.0
 30
0.0
  0
POINT
  5
31CD
330
2890
100
AcDbEntity
  8
DEFPOINTS
  6
Continuous
 62
     0
100
AcDbPoint
 10
25.0
 20
-54.5
 30
0.0
  0
POINT
  5
31CE
330
2890
100
AcDbEntity
  8
DEFPOINTS
  6
Continuous
 62
     0
100
AcDbPoint
 10
25.0
 20
-79.074989
 30
0.0
  0
ENDBLK
  5
289B
330
2890
100
AcDbEntity
  8
0
 62
     2
100
AcDbBlockEnd
  0
BLOCK
  5
2AB5
330
2AAB
100
AcDbEntity
  8
0
 62
     2
100
AcDbBlockBegin
  2
*D9
 70
     1
 10
0.0
 20
0.0
 30
0.0
  3
*D9
  1

  0
LINE
  5
3364
330
2AAB
100
AcDbEntity
  8
30
  6
Continuous
 62
     0
100
AcDbLine
 10
202.0924899999999
 20
65.0
 30
0.0
 11
202.0924899999999
 21
77.723268
 31
0.0
1001
ACAD
1000
RTLwPs
1070
   158
  0
LINE
  5
3365
330
2AAB
100
AcDbEntity
  8
30
  6
Continuous
 62
     0
100
AcDbLine
 10
178.09249
 20
62.0
 30
0.0
 11
178.09249
 21
77.723268
 31
0.0
1001
ACAD
1000
RTLwPs
1070
   158
  0
LINE
  5
3366
330
2AAB
100
AcDbEntity
  8
30
  6
Continuous
 62
     0
100
AcDbLine
 10
200.09249
 20
77.22326800000001
 30
0.0
 11
180.09249
 21
77.22326800000001
 31
0.0
1001
ACAD
1000
RTLwPs
1070
   158
  0
INSERT
  5
3367
330
2AAB
100
AcDbEntity
  8
30
  6
Continuous
 62
     0
100
AcDbBlockReference
  2
_OPEN
 10
202.0924899999999
 20
77.22326800000001
 30
0.0
 41
2.0
 42
2.0
 43
2.0
1001
ACAD
1000
RTLwPs
1070
   158
  0
INSERT
  5
3368
330
2AAB
100
AcDbEntity
  8
30
  6
Continuous
 62
     0
100
AcDbBlockReference
  2
_OPEN
 10
178.09249
 20
77.22326800000001
 30
0.0
 41
2.0
 42
2.0
 43
2.0
 50
180.0
1001
ACAD
1000
RTLwPs
1070
   158
  0
MTEXT
  5
3369
330
2AAB
100
AcDbEntity
  8
30
  6
Continuous
 62
     0
100
AcDbMText
 10
188.324069
 20
80.223268
 30
0.0
 40
4.0
 41
0.0
 71
     5
 72
     1
  1
\A1;24
 73
     1
 44
1.0
1001
ACAD
1000
MTEXTBEGIN
1070
    73
1070
     1
1070
    44
1040
1.0
1070
    74
1070
     0
1000
MTEXTEND
1000
MTEXTBEGIN
1070
    73
1070
     1
1070
    44
1040
1.0
1070
    74
1070
     0
1000
MTEXTEND
1000
MTEXTBEGIN
1070
    73
1070
     1
1070
    44
1040
1.0
1070
    74
1070
     0
1000
MTEXTEND
1000
MTEXTBEGIN
1070
    73
1070
     1
1070
    44
1040
1.0
1070
    74
1070
     0
1000
MTEXTEND
1000
MTEXTBEGIN
1070
    73
1070
     1
1070
    44
1040
1.0
1070
    74
1070
     0
1000
MTEXTEND
1000
MTEXTBEGIN
1070
    73
1070
     1
1070
    44
1040
1.0
1070
    74
1070
     0
1000
MTEXTEND
1000
MTEXTBEGIN
1070
    73
1070
     1
1070
    44
1040
1.0
1070
    74
1070
     0
1000
MTEXTEND
1000
MTEXTBEGIN
1070
    73
1070
     1
1070
    44
1040
1.0
1070
    74
1070
     0
1000
MTEXTEND
  0
POINT
  5
336A
330
2AAB
100
AcDbEntity
  8
DEFPOINTS
  6
Continuous
 62
     0
100
AcDbPoint
 10
202.0924899999999
 20
64.0
 30
0.0
  0
POINT
  5
336B
330
2AAB
100
AcDbEntity
  8
DEFPOINTS
  6
Continuous
 62
     0
100
AcDbPoint
 10
178.09249
 20
61.0
 30
0.0
  0
POINT
  5
336C
330
2AAB
100
AcDbEntity
  8
DEFPOINTS
  6
Continuous
 62
     0
100
AcDbPoint
 10
178.09249
 20
77.22326800000001
 30
0.0
  0
ENDBLK
  5
2AB6
330
2AAB
100
AcDbEntity
  8
0
 62
     2
100
AcDbBlockEnd
  0
BLOCK
  5
2B78
330
2B6E
100
AcDbEntity
  8
0
 62
     2
100
AcDbBlockBegin
  2
*D10
 70
     1
 10
0.0
 20
0.0
 30
0.0
  3
*D10
  1

  0
LINE
  5
32E9
330
2B6E
100
AcDbEntity
  8
30
  6
Continuous
 62
     0
100
AcDbLine
 10
202.0924899999999
 20
-66.5
 30
0.0
 11
202.0924899999999
 21
-90.62561399999999
 31
0.0
1001
ACAD
1000
RTLwPs
1070
   158
  0
LINE
  5
32EA
330
2B6E
100
AcDbEntity
  8
30
  6
Continuous
 62
     0
100
AcDbLine
 10
134.09249
 20
-43.5
 30
0.0
 11
134.09249
 21
-90.62561399999999
 31
0.0
1001
ACAD
1000
RTLwPs
1070
   158
  0
LINE
  5
32EB
330
2B6E
100
AcDbEntity
  8
30
  6
Continuous
 62
     0
100
AcDbLine
 10
200.09249
 20
-90.125614
 30
0.0
 11
136.09249
 21
-90.125614
 31
0.0
1001
ACAD
1000
RTLwPs
1070
   158
  0
INSERT
  5
32EC
330
2B6E
100
AcDbEntity
  8
30
  6
Continuous
 62
     0
100
AcDbBlockReference
  2
_OPEN
 10
202.0924899999999
 20
-90.125614
 30
0.0
 41
2.0
 42
2.0
 43
2.0
1001
ACAD
1000
RTLwPs
1070
   158
  0
INSERT
  5
32ED
330
2B6E
100
AcDbEntity
  8
30
  6
Continuous
 62
     0
100
AcDbBlockReference
  2
_OPEN
 10
134.09249
 20
-90.125614
 30
0.0
 41
2.0
 42
2.0
 43
2.0
 50
180.0
1001
ACAD
1000
RTLwPs
1070
   158
  0
MTEXT
  5
32EE
330
2B6E
100
AcDbEntity
  8
30
  6
Continuous
 62
     0
100
AcDbMText
 10
168.0924899999999
 20
-87.125614
 30
0.0
 40
4.0
 41
0.0
 71
     5
 72
     1
  1
\A1;68
 73
     1
 44
1.0
1001
ACAD
1000
MTEXTBEGIN
1070
    73
1070
     1
1070
    44
1040
1.0
1070
    74
1070
     0
1000
MTEXTEND
1000
MTEXTBEGIN
1070
    73
1070
     1
1070
    44
1040
1.0
1070
    74
1070
     0
1000
MTEXTEND
1000
MTEXTBEGIN
1070
    73
1070
     1
1070
    44
1040
1.0
1070
    74
1070
     0
1000
MTEXTEND
1000
MTEXTBEGIN
1070
    73
1070
     1
1070
    44
1040
1.0
1070
    74
1070
     0
1000
MTEXTEND
1000
MTEXTBEGIN
1070
    73
1070
     1
1070
    44
1040
1.0
1070
    74
1070
     0
1000
MTEXTEND
1000
MTEXTBEGIN
1070
    73
1070
     1
1070
    44
1040
1.0
1070
    74
1070
     0
1000
MTEXTEND
1000
MTEXTBEGIN
1070
    73
1070
     1
1070
    44
1040
1.0
1070
    74
1070
     0
1000
MTEXTEND
1000
MTEXTBEGIN
1070
    73
1070
     1
1070
    44
1040
1.0
1070
    74
1070
     0
1000
MTEXTEND
  0
POINT
  5
32EF
330
2B6E
100
AcDbEntity
  8
DEFPOINTS
  6
Continuous
 62
     0
100
AcDbPoint
 10
202.0924899999999
 20
-65.5
 30
0.0
  0
POINT
  5
32F0
330
2B6E
100
AcDbEntity
  8
DEFPOINTS
  6
Continuous
 62
     0
100
AcDbPoint
 10
134.09249
 20
-42.5
 30
0.0
  0
POINT
  5
32F1
330
2B6E
100
AcDbEntity
  8
DEFPOINTS
  6
Continuous
 62
     0
100
AcDbPoint
 10
134.09249
 20
-90.125614
 30
0.0
  0
ENDBLK
  5
2B79
330
2B6E
100
AcDbEntity
  8
0
 62
     2
100
AcDbBlockEnd
  0
BLOCK
  5
2B84
330
2B7A
100
AcDbEntity
  8
0
 62
     2
100
AcDbBlockBegin
  2
*D11
 70
     1
 10
0.0
 20
0.0
 30
0.0
  3
*D11
  1

  0
LINE
  5
32F2
330
2B7A
100
AcDbEntity
  8
30
  6
Continuous
 62
     0
100
AcDbLine
 10
202.0924899999999
 20
-91.125614
 30
0.0
 11
202.0924899999999
 21
-100.30581
 31
0.0
1001
ACAD
1000
RTLwPs
1070
   158
  0
LINE
  5
32F3
330
2B7A
100
AcDbEntity
  8
30
  6
Continuous
 62
     0
100
AcDbLine
 10
115.092612
 20
10.831055
 30
0.0
 11
115.092612
 21
-100.30581
 31
0.0
1001
ACAD
1000
RTLwPs
1070
   158
  0
LINE
  5
32F4
330
2B7A
100
AcDbEntity
  8
30
  6
Continuous
 62
     0
100
AcDbLine
 10
200.09249
 20
-99.80581
 30
0.0
 11
117.092612
 21
-99.80581
 31
0.0
1001
ACAD
1000
RTLwPs
1070
   158
  0
INSERT
  5
32F5
330
2B7A
100
AcDbEntity
  8
30
  6
Continuous
 62
     0
100
AcDbBlockReference
  2
_OPEN
 10
202.0924899999999
 20
-99.80581
 30
0.0
 41
2.0
 42
2.0
 43
2.0
1001
ACAD
1000
RTLwPs
1070
   158
  0
INSERT
  5
32F6
330
2B7A
100
AcDbEntity
  8
30
  6
Continuous
 62
     0
100
AcDbBlockReference
  2
_OPEN
 10
115.092612
 20
-99.80581
 30
0.0
 41
2.0
 42
2.0
 43
2.0
 50
180.0
1001
ACAD
1000
RTLwPs
1070
   158
  0
MTEXT
  5
32F7
330
2B7A
100
AcDbEntity
  8
30
  6
Continuous
 62
     0
100
AcDbMText
 10
158.592551
 20
-96.80581
 30
0.0
 40
4.0
 41
0.0
 71
     5
 72
     1
  1
\A1;87
 73
     1
 44
1.0
1001
ACAD
1000
MTEXTBEGIN
1070
    73
1070
     1
1070
    44
1040
1.0
1070
    74
1070
     0
1000
MTEXTEND
1000
MTEXTBEGIN
1070
    73
1070
     1
1070
    44
1040
1.0
1070
    74
1070
     0
1000
MTEXTEND
1000
MTEXTBEGIN
1070
    73
1070
     1
1070
    44
1040
1.0
1070
    74
1070
     0
1000
MTEXTEND
1000
MTEXTBEGIN
1070
    73
1070
     1
1070
    44
1040
1.0
1070
    74
1070
     0
1000
MTEXTEND
1000
MTEXTBEGIN
1070
    73
1070
     1
1070
    44
1040
1.0
1070
    74
1070
     0
1000
MTEXTEND
1000
MTEXTBEGIN
1070
    73
1070
     1
1070
    44
1040
1.0
1070
    74
1070
     0
1000
MTEXTEND
1000
MTEXTBEGIN
1070
    73
1070
     1
1070
    44
1040
1.0
1070
    74
1070
     0
1000
MTEXTEND
1000
MTEXTBEGIN
1070
    73
1070
     1
1070
    44
1040
1.0
1070
    74
1070
     0
1000
MTEXTEND
  0
POINT
  5
32F8
330
2B7A
100
AcDbEntity
  8
DEFPOINTS
  6
Continuous
 62
     0
100
AcDbPoint
 10
202.0924899999999
 20
-90.125614
 30
0.0
  0
POINT
  5
32F9
330
2B7A
100
AcDbEntity
  8
DEFPOINTS
  6
Continuous
 62
     0
100
AcDbPoint
 10
115.092612
 20
11.831055
 30
0.0
  0
POINT
  5
32FA
330
2B7A
100
AcDbEntity
  8
DEFPOINTS
  6
Continuous
 62
     0
100
AcDbPoint
 10
115.092612
 20
-99.80581
 30
0.0
  0
ENDBLK
  5
2B85
330
2B7A
100
AcDbEntity
  8
0
 62
     2
100
AcDbBlockEnd
  0
BLOCK
  5
2B92
330
2B86
100
AcDbEntity
  8
0
 62
     2
100
AcDbBlockBegin
  2
*D12
 70
     1
 10
0.0
 20
0.0
 30
0.0
  3
*D12
  1

  0
LINE
  5
3C27
330
2B86
100
AcDbEntity
  8
30
  6
Continuous
 62
     0
100
AcDbLine
 10
134.092551
 20
-33.0
 30
0.0
 11
134.092551
 21
-90.62561399999999
 31
0.0
  0
LINE
  5
3C28
330
2B86
100
AcDbEntity
  8
30
  6
Continuous
 62
     0
100
AcDbLine
 10
129.092551
 20
-26.0
 30
0.0
 11
129.092551
 21
-90.62561399999999
 31
0.0
  0
LINE
  5
3C29
330
2B86
100
AcDbEntity
  8
30
  6
Continuous
 62
     0
100
AcDbLine
 10
135.592551
 20
-90.125614
 30
0.0
 11
137.092551
 21
-90.125614
 31
0.0
  0
LINE
  5
3C2A
330
2B86
100
AcDbEntity
  8
30
  6
Continuous
 62
     0
100
AcDbLine
 10
127.5925509999999
 20
-90.125614
 30
0.0
 11
126.092551
 21
-90.125614
 31
0.0
  0
LINE
  5
3C2B
330
2B86
100
AcDbEntity
  8
30
  6
Continuous
 62
     0
100
AcDbLine
 10
134.092551
 20
-90.125614
 30
0.0
 11
129.092551
 21
-90.125614
 31
0.0
  0
INSERT
  5
3C2C
330
2B86
100
AcDbEntity
  8
30
  6
Continuous
 62
     0
100
AcDbBlockReference
  2
_OPEN
 10
134.092551
 20
-90.125614
 30
0.0
 41
1.5
 42
1.5
 43
1.5
 50
180.0
  0
INSERT
  5
3C2D
330
2B86
100
AcDbEntity
  8
30
  6
Continuous
 62
     0
100
AcDbBlockReference
  2
_OPEN
 10
129.092551
 20
-90.125614
 30
0.0
 41
1.5
 42
1.5
 43
1.5
  0
MTEXT
  5
3C2E
330
2B86
100
AcDbEntity
  8
30
  6
Continuous
 62
     0
100
AcDbMText
 10
131.592551
 20
-87.125614
 30
0.0
 40
4.0
 41
0.0
 71
     5
 72
     1
  1
\A1;5
 73
     1
 44
1.0
  0
POINT
  5
3C2F
330
2B86
100
AcDbEntity
  8
DEFPOINTS
  6
Continuous
 62
     0
100
AcDbPoint
 10
134.092551
 20
-32.0
 30
0.0
  0
POINT
  5
3C30
330
2B86
100
AcDbEntity
  8
DEFPOINTS
  6
Continuous
 62
     0
100
AcDbPoint
 10
129.092551
 20
-25.0
 30
0.0
  0
POINT
  5
3C31
330
2B86
100
AcDbEntity
  8
DEFPOINTS
  6
Continuous
 62
     0
100
AcDbPoint
 10
129.092551
 20
-90.125614
 30
0.0
  0
ENDBLK
  5
2B93
330
2B86
100
AcDbEntity
  8
0
 62
     2
100
AcDbBlockEnd
  0
BLOCK
  5
2BAA
330
2BA0
100
AcDbEntity
  8
0
 62
     2
100
AcDbBlockBegin
  2
*D13
 70
     1
 10
0.0
 20
0.0
 30
0.0
  3
*D13
  1

  0
LINE
  5
390B
330
2BA0
100
AcDbEntity
  8
30
  6
Continuous
 62
     0
100
AcDbLine
 10
136.092551
 20
-52.0
 30
0.0
 11
136.092551
 21
-79.690217
 31
0.0
1001
ACAD
1000
RTLwPs
1070
   158
  0
LINE
  5
390C
330
2BA0
100
AcDbEntity
  8
30
  6
Continuous
 62
     0
100
AcDbLine
 10
202.0924899999999
 20
-66.5
 30
0.0
 11
202.0924899999999
 21
-79.690217
 31
0.0
1001
ACAD
1000
RTLwPs
1070
   158
  0
LINE
  5
390D
330
2BA0
100
AcDbEntity
  8
30
  6
Continuous
 62
     0
100
AcDbLine
 10
138.092551
 20
-79.190217
 30
0.0
 11
200.09249
 21
-79.190217
 31
0.0
1001
ACAD
1000
RTLwPs
1070
   158
  0
INSERT
  5
390E
330
2BA0
100
AcDbEntity
  8
30
  6
Continuous
 62
     0
100
AcDbBlockReference
  2
_OPEN
 10
136.092551
 20
-79.190217
 30
0.0
 41
2.0
 42
2.0
 43
2.0
 50
180.0
1001
ACAD
1000
RTLwPs
1070
   158
  0
INSERT
  5
390F
330
2BA0
100
AcDbEntity
  8
30
  6
Continuous
 62
     0
100
AcDbBlockReference
  2
_OPEN
 10
202.0924899999999
 20
-79.190217
 30
0.0
 41
2.0
 42
2.0
 43
2.0
1001
ACAD
1000
RTLwPs
1070
   158
  0
MTEXT
  5
3910
330
2BA0
100
AcDbEntity
  8
30
  6
Continuous
 62
     0
100
AcDbMText
 10
169.092521
 20
-76.19021700000001
 30
0.0
 40
4.0
 41
0.0
 71
     5
 72
     1
  1
\A1;66
 73
     1
 44
1.0
1001
ACAD
1000
MTEXTBEGIN
1070
    73
1070
     1
1070
    44
1040
1.0
1070
    74
1070
     0
1000
MTEXTEND
1000
MTEXTBEGIN
1070
    73
1070
     1
1070
    44
1040
1.0
1070
    74
1070
     0
1000
MTEXTEND
1000
MTEXTBEGIN
1070
    73
1070
     1
1070
    44
1040
1.0
1070
    74
1070
     0
1000
MTEXTEND
1000
MTEXTBEGIN
1070
    73
1070
     1
1070
    44
1040
1.0
1070
    74
1070
     0
1000
MTEXTEND
1000
MTEXTBEGIN
1070
    73
1070
     1
1070
    44
1040
1.0
1070
    74
1070
     0
1000
MTEXTEND
  0
POINT
  5
3911
330
2BA0
100
AcDbEntity
  8
DEFPOINTS
  6
Continuous
 62
     0
100
AcDbPoint
 10
136.092551
 20
-51.0
 30
0.0
  0
POINT
  5
3912
330
2BA0
100
AcDbEntity
  8
DEFPOINTS
  6
Continuous
 62
     0
100
AcDbPoint
 10
202.0924899999999
 20
-65.5
 30
0.0
  0
POINT
  5
3913
330
2BA0
100
AcDbEntity
  8
DEFPOINTS
  6
Continuous
 62
     0
100
AcDbPoint
 10
202.0924899999999
 20
-79.190217
 30
0.0
  0
ENDBLK
  5
2BAB
330
2BA0
100
AcDbEntity
  8
0
 62
     2
100
AcDbBlockEnd
  0
BLOCK
  5
2BB6
330
2BAC
100
AcDbEntity
  8
0
 62
     2
100
AcDbBlockBegin
  2
*D14
 70
     1
 10
0.0
 20
0.0
 30
0.0
  3
*D14
  1

  0
LINE
  5
3635
330
2BAC
100
AcDbEntity
  8
30
  6
Continuous
 62
     0
100
AcDbLine
 10
208.59249
 20
-58.020752
 30
0.0
 11
208.59249
 21
-72.53315
 31
0.0
1001
ACAD
1000
RTLwPs
1070
   158
  0
LINE
  5
3636
330
2BAC
100
AcDbEntity
  8
30
  6
Continuous
 62
     0
100
AcDbLine
 10
202.0924899999999
 20
-57.5
 30
0.0
 11
202.0924899999999
 21
-72.53315
 31
0.0
1001
ACAD
1000
RTLwPs
1070
   158
  0
LINE
  5
3637
330
2BAC
100
AcDbEntity
  8
30
  6
Continuous
 62
     0
100
AcDbLine
 10
203.5924899999999
 20
-72.03315
 30
0.0
 11
207.09249
 21
-72.03315
 31
0.0
1001
ACAD
1000
RTLwPs
1070
   158
  0
LINE
  5
3638
330
2BAC
100
AcDbEntity
  8
30
  6
Continuous
 62
     0
100
AcDbLine
 10
208.59249
 20
-72.03315
 30
0.0
 11
220.0924899999999
 21
-72.03315
 31
0.0
1001
ACAD
1000
RTLwPs
1070
   158
  0
INSERT
  5
3639
330
2BAC
100
AcDbEntity
  8
30
  6
Continuous
 62
     0
100
AcDbBlockReference
  2
_OPEN
 10
202.0924899999999
 20
-72.03315
 30
0.0
 41
1.5
 42
1.5
 43
1.5
 50
180.0
1001
ACAD
1000
RTLwPs
1070
   158
  0
INSERT
  5
363A
330
2BAC
100
AcDbEntity
  8
30
  6
Continuous
 62
     0
100
AcDbBlockReference
  2
_OPEN
 10
208.59249
 20
-72.03315
 30
0.0
 41
1.5
 42
1.5
 43
1.5
1001
ACAD
1000
RTLwPs
1070
   158
  0
MTEXT
  5
363B
330
2BAC
100
AcDbEntity
  8
30
  6
Continuous
 62
     0
100
AcDbMText
 10
215.09249
 20
-69.03315
 30
0.0
 40
4.0
 41
0.0
 71
     5
 72
     1
  1
\A1;6.5
 73
     1
 44
1.0
1001
ACAD
1000
MTEXTBEGIN
1070
    73
1070
     1
1070
    44
1040
1.0
1070
    74
1070
     0
1000
MTEXTEND
1000
MTEXTBEGIN
1070
    73
1070
     1
1070
    44
1040
1.0
1070
    74
1070
     0
1000
MTEXTEND
1000
MTEXTBEGIN
1070
    73
1070
     1
1070
    44
1040
1.0
1070
    74
1070
     0
1000
MTEXTEND
1000
MTEXTBEGIN
1070
    73
1070
     1
1070
    44
1040
1.0
1070
    74
1070
     0
1000
MTEXTEND
1000
MTEXTBEGIN
1070
    73
1070
     1
1070
    44
1040
1.0
1070
    74
1070
     0
1000
MTEXTEND
1000
MTEXTBEGIN
1070
    73
1070
     1
1070
    44
1040
1.0
1070
    74
1070
     0
1000
MTEXTEND
1000
MTEXTBEGIN
1070
    73
1070
     1
1070
    44
1040
1.0
1070
    74
1070
     0
1000
MTEXTEND
  0
POINT
  5
363C
330
2BAC
100
AcDbEntity
  8
DEFPOINTS
  6
Continuous
 62
     0
100
AcDbPoint
 10
208.59249
 20
-57.020752
 30
0.0
  0
POINT
  5
363D
330
2BAC
100
AcDbEntity
  8
DEFPOINTS
  6
Continuous
 62
     0
100
AcDbPoint
 10
202.0924899999999
 20
-56.5
 30
0.0
  0
POINT
  5
363E
330
2BAC
100
AcDbEntity
  8
DEFPOINTS
  6
Continuous
 62
     0
100
AcDbPoint
 10
202.0924899999999
 20
-72.03315
 30
0.0
  0
ENDBLK
  5
2BB7
330
2BAC
100
AcDbEntity
  8
0
 62
     2
100
AcDbBlockEnd
  0
BLOCK
  5
2C5E
330
2C54
100
AcDbEntity
  8
0
 62
     2
100
AcDbBlockBegin
  2
*D15
 70
     1
 10
0.0
 20
0.0
 30
0.0
  3
*D15
  1

  0
LINE
  5
3934
330
2C54
100
AcDbEntity
  8
30
  6
Continuous
 62
     0
100
AcDbLine
 10
-17.093736
 20
-194.5
 30
0.0
 11
-50.514959
 21
-194.5
 31
0.0
1001
ACAD
1000
RTLwPs
1070
   158
  0
LINE
  5
3935
330
2C54
100
AcDbEntity
  8
30
  6
Continuous
 62
     0
100
AcDbLine
 10
7.906264
 20
-305.5
 30
0.0
 11
-50.514959
 21
-305.5
 31
0.0
1001
ACAD
1000
RTLwPs
1070
   158
  0
LINE
  5
3936
330
2C54
100
AcDbEntity
  8
30
  6
Continuous
 62
     0
100
AcDbLine
 10
-50.014959
 20
-196.5
 30
0.0
 11
-50.014959
 21
-303.5
 31
0.0
1001
ACAD
1000
RTLwPs
1070
   158
  0
INSERT
  5
3937
330
2C54
100
AcDbEntity
  8
30
  6
Continuous
 62
     0
100
AcDbBlockReference
  2
_OPEN
 10
-50.014959
 20
-194.5
 30
0.0
 41
2.0
 42
2.0
 43
2.0
 50
90.0
1001
ACAD
1000
RTLwPs
1070
   158
  0
INSERT
  5
3938
330
2C54
100
AcDbEntity
  8
30
  6
Continuous
 62
     0
100
AcDbBlockReference
  2
_OPEN
 10
-50.014959
 20
-305.5
 30
0.0
 41
2.0
 42
2.0
 43
2.0
 50
270.0
1001
ACAD
1000
RTLwPs
1070
   158
  0
MTEXT
  5
3939
330
2C54
100
AcDbEntity
  8
30
  6
Continuous
 62
     0
100
AcDbMText
 10
-53.01495899999999
 20
-249.833189
 30
0.0
 40
4.0
 41
0.0
 71
     5
 72
     1
  1
\A1;111
 11
0.0
 21
1.0
 31
0.0
 73
     1
 44
1.0
1001
ACAD
1000
MTEXTBEGIN
1070
    73
1070
     1
1070
    44
1040
1.0
1070
    74
1070
     0
1000
MTEXTEND
1000
MTEXTBEGIN
1070
    73
1070
     1
1070
    44
1040
1.0
1070
    74
1070
     0
1000
MTEXTEND
1000
MTEXTBEGIN
1070
    73
1070
     1
1070
    44
1040
1.0
1070
    74
1070
     0
1000
MTEXTEND
1000
MTEXTBEGIN
1070
    73
1070
     1
1070
    44
1040
1.0
1070
    74
1070
     0
1000
MTEXTEND
1000
MTEXTBEGIN
1070
    73
1070
     1
1070
    44
1040
1.0
1070
    74
1070
     0
1000
MTEXTEND
  0
POINT
  5
393A
330
2C54
100
AcDbEntity
  8
DEFPOINTS
  6
Continuous
 62
     0
100
AcDbPoint
 10
-16.093736
 20
-194.5
 30
0.0
  0
POINT
  5
393B
330
2C54
100
AcDbEntity
  8
DEFPOINTS
  6
Continuous
 62
     0
100
AcDbPoint
 10
8.906264
 20
-305.5
 30
0.0
  0
POINT
  5
393C
330
2C54
100
AcDbEntity
  8
DEFPOINTS
  6
Continuous
 62
     0
100
AcDbPoint
 10
-50.014959
 20
-305.5
 30
0.0
  0
ENDBLK
  5
2C5F
330
2C54
100
AcDbEntity
  8
0
 62
     2
100
AcDbBlockEnd
  0
BLOCK
  5
2D3D
330
2D33
100
AcDbEntity
  8
0
 62
     2
100
AcDbBlockBegin
  2
*D16
 70
     1
 10
0.0
 20
0.0
 30
0.0
  3
*D16
  1

  0
LINE
  5
3027
330
2D33
100
AcDbEntity
  8
30
  6
Continuous
 62
     0
100
AcDbLine
 10
148.0
 20
-281.853581
 30
0.0
 11
148.0
 21
-331.4999999999999
 31
0.0
1001
ACAD
1000
RTLwPs
1070
   158
  0
LINE
  5
3028
330
2D33
100
AcDbEntity
  8
30
  6
Continuous
 62
     0
100
AcDbLine
 10
172.0
 20
-282.383373
 30
0.0
 11
172.0
 21
-331.4999999999999
 31
0.0
1001
ACAD
1000
RTLwPs
1070
   158
  0
LINE
  5
3029
330
2D33
100
AcDbEntity
  8
30
  6
Continuous
 62
     0
100
AcDbLine
 10
150.0
 20
-331.0
 30
0.0
 11
170.0
 21
-331.0
 31
0.0
1001
ACAD
1000
RTLwPs
1070
   158
  0
INSERT
  5
302A
330
2D33
100
AcDbEntity
  8
30
  6
Continuous
 62
     0
100
AcDbBlockReference
  2
_OPEN
 10
148.0
 20
-331.0
 30
0.0
 41
2.0
 42
2.0
 43
2.0
 50
180.0
1001
ACAD
1000
RTLwPs
1070
   158
  0
INSERT
  5
302B
330
2D33
100
AcDbEntity
  8
30
  6
Continuous
 62
     0
100
AcDbBlockReference
  2
_OPEN
 10
172.0
 20
-331.0
 30
0.0
 41
2.0
 42
2.0
 43
2.0
1001
ACAD
1000
RTLwPs
1070
   158
  0
MTEXT
  5
302C
330
2D33
100
AcDbEntity
  8
30
  6
Continuous
 62
     0
100
AcDbMText
 10
158.231579
 20
-328.0
 30
0.0
 40
4.0
 41
0.0
 71
     5
 72
     1
  1
\A1;24
 73
     1
 44
1.0
1001
ACAD
1000
MTEXTBEGIN
1070
    73
1070
     1
1070
    44
1040
1.0
1070
    74
1070
     0
1000
MTEXTEND
1000
MTEXTBEGIN
1070
    73
1070
     1
1070
    44
1040
1.0
1070
    74
1070
     0
1000
MTEXTEND
1000
MTEXTBEGIN
1070
    73
1070
     1
1070
    44
1040
1.0
1070
    74
1070
     0
1000
MTEXTEND
1000
MTEXTBEGIN
1070
    73
1070
     1
1070
    44
1040
1.0
1070
    74
1070
     0
1000
MTEXTEND
1000
MTEXTBEGIN
1070
    73
1070
     1
1070
    44
1040
1.0
1070
    74
1070
     0
1000
MTEXTEND
1000
MTEXTBEGIN
1070
    73
1070
     1
1070
    44
1040
1.0
1070
    74
1070
     0
1000
MTEXTEND
1000
MTEXTBEGIN
1070
    73
1070
     1
1070
    44
1040
1.0
1070
    74
1070
     0
1000
MTEXTEND
1000
MTEXTBEGIN
1070
    73
1070
     1
1070
    44
1040
1.0
1070
    74
1070
     0
1000
MTEXTEND
1000
MTEXTBEGIN
1070
    73
1070
     1
1070
    44
1040
1.0
1070
    74
1070
     0
1000
MTEXTEND
  0
POINT
  5
302D
330
2D33
100
AcDbEntity
  8
DEFPOINTS
  6
Continuous
 62
     0
100
AcDbPoint
 10
148.0
 20
-280.853581
 30
0.0
  0
POINT
  5
302E
330
2D33
100
AcDbEntity
  8
DEFPOINTS
  6
Continuous
 62
     0
100
AcDbPoint
 10
172.0
 20
-281.383373
 30
0.0
  0
POINT
  5
302F
330
2D33
100
AcDbEntity
  8
DEFPOINTS
  6
Continuous
 62
     0
100
AcDbPoint
 10
172.0
 20
-331.0
 30
0.0
  0
ENDBLK
  5
2D3E
330
2D33
100
AcDbEntity
  8
0
 62
     2
100
AcDbBlockEnd
  0
BLOCK
  5
2D48
330
2D3F
100
AcDbEntity
  8
0
 62
     2
100
AcDbBlockBegin
  2
*D17
 70
     1
 10
0.0
 20
0.0
 30
0.0
  3
*D17
  1

  0
LINE
  5
2DB5
330
2D3F
100
AcDbEntity
  8
30
  6
Continuous
 62
     0
100
AcDbLine
 10
126.428472
 20
-288.837001
 30
0.0
 11
135.161805
 21
-288.837001
 31
0.0
1001
ACAD
1000
RTLwPs
1070
   158
  0
LINE
  5
2DB6
330
2D3F
100
AcDbEntity
  8
30
  6
Continuous
 62
     0
100
AcDbLine
 10
135.161805
 20
-288.837001
 30
0.0
 11
146.8785719999999
 21
-277.121245
 31
0.0
1001
ACAD
1000
RTLwPs
1070
   158
  0
MTEXT
  5
2DB7
330
2D3F
100
AcDbEntity
  8
30
  6
Continuous
 62
     0
100
AcDbMText
 10
130.2951389999999
 20
-285.8370009999999
 30
0.0
 40
4.0
 41
0.0
 71
     5
 72
     1
  1
\A1;R 1
 73
     1
 44
1.0
1001
ACAD
1000
MTEXTBEGIN
1070
    73
1070
     1
1070
    44
1040
1.0
1070
    74
1070
     0
1000
MTEXTEND
1000
MTEXTBEGIN
1070
    73
1070
     1
1070
    44
1040
1.0
1070
    74
1070
     0
1000
MTEXTEND
1000
MTEXTBEGIN
1070
    73
1070
     1
1070
    44
1040
1.0
1070
    74
1070
     0
1000
MTEXTEND
1000
MTEXTBEGIN
1070
    73
1070
     1
1070
    44
1040
1.0
1070
    74
1070
     0
1000
MTEXTEND
1000
MTEXTBEGIN
1070
    73
1070
     1
1070
    44
1040
1.0
1070
    74
1070
     0
1000
MTEXTEND
1000
MTEXTBEGIN
1070
    73
1070
     1
1070
    44
1040
1.0
1070
    74
1070
     0
1000
MTEXTEND
1000
MTEXTBEGIN
1070
    73
1070
     1
1070
    44
1040
1.0
1070
    74
1070
     0
1000
MTEXTEND
1000
MTEXTBEGIN
1070
    73
1070
     1
1070
    44
1040
1.0
1070
    74
1070
     0
1000
MTEXTEND
1000
MTEXTBEGIN
1070
    73
1070
     1
1070
    44
1040
1.0
1070
    74
1070
     0
1000
MTEXTEND
1000
MTEXTBEGIN
1070
    73
1070
     1
1070
    44
1040
1.0
1070
    74
1070
     0
1000
MTEXTEND
1000
MTEXTBEGIN
1070
    73
1070
     1
1070
    44
1040
1.0
1070
    74
1070
     0
1000
MTEXTEND
  0
INSERT
  5
2DB8
330
2D3F
100
AcDbEntity
  8
30
  6
Continuous
 62
     0
100
AcDbBlockReference
  2
_OPEN
 10
148.292847
 20
-275.7070919999999
 30
0.0
 41
2.0
 42
2.0
 43
2.0
 50
44.99752899999999
1001
ACAD
1000
RTLwPs
1070
   158
  0
LINE
  5
2DB9
330
2D3F
100
AcDbEntity
  8
30
  6
Continuous
 62
     0
100
AcDbLine
 10
148.91
 20
-275.0
 30
0.0
 11
149.09
 21
-275.0
 31
0.0
1001
ACAD
1000
RTLwPs
1070
   158
  0
LINE
  5
2DBA
330
2D3F
100
AcDbEntity
  8
30
  6
Continuous
 62
     0
100
AcDbLine
 10
149.0
 20
-275.0899999999999
 30
0.0
 11
149.0
 21
-274.91
 31
0.0
1001
ACAD
1000
RTLwPs
1070
   158
  0
POINT
  5
2DBB
330
2D3F
100
AcDbEntity
  8
DEFPOINTS
  6
Continuous
 62
     0
100
AcDbPoint
 10
148.292847
 20
-275.7070919999999
 30
0.0
  0
POINT
  5
2DBC
330
2D3F
100
AcDbEntity
  8
DEFPOINTS
  6
Continuous
 62
     0
100
AcDbPoint
 10
149.0
 20
-275.0
 30
0.0
  0
ENDBLK
  5
2D49
330
2D3F
100
AcDbEntity
  8
0
 62
     2
100
AcDbBlockEnd
  0
BLOCK
  5
2D54
330
2D4A
100
AcDbEntity
  8
0
 62
     2
100
AcDbBlockBegin
  2
*D18
 70
     1
 10
0.0
 20
0.0
 30
0.0
  3
*D18
  1

  0
LINE
  5
301E
330
2D4A
100
AcDbEntity
  8
30
  6
Continuous
 62
     0
100
AcDbLine
 10
141.153601
 20
-224.0
 30
0.0
 11
92.873707
 21
-224.0
 31
0.0
1001
ACAD
1000
RTLwPs
1070
   158
  0
LINE
  5
301F
330
2D4A
100
AcDbEntity
  8
30
  6
Continuous
 62
     0
100
AcDbLine
 10
138.7740949999999
 20
-276.0
 30
0.0
 11
92.873707
 21
-276.0
 31
0.0
1001
ACAD
1000
RTLwPs
1070
   158
  0
LINE
  5
3020
330
2D4A
100
AcDbEntity
  8
30
  6
Continuous
 62
     0
100
AcDbLine
 10
93.37370699999999
 20
-226.0
 30
0.0
 11
93.37370699999999
 21
-274.0
 31
0.0
1001
ACAD
1000
RTLwPs
1070
   158
  0
INSERT
  5
3021
330
2D4A
100
AcDbEntity
  8
30
  6
Continuous
 62
     0
100
AcDbBlockReference
  2
_OPEN
 10
93.37370699999999
 20
-224.0
 30
0.0
 41
2.0
 42
2.0
 43
2.0
 50
90.0
1001
ACAD
1000
RTLwPs
1070
   158
  0
INSERT
  5
3022
330
2D4A
100
AcDbEntity
  8
30
  6
Continuous
 62
     0
100
AcDbBlockReference
  2
_OPEN
 10
93.37370699999999
 20
-276.0
 30
0.0
 41
2.0
 42
2.0
 43
2.0
 50
270.0
1001
ACAD
1000
RTLwPs
1070
   158
  0
MTEXT
  5
3023
330
2D4A
100
AcDbEntity
  8
30
  6
Continuous
 62
     0
100
AcDbMText
 10
90.373707
 20
-251.7837839999999
 30
0.0
 40
4.0
 41
0.0
 71
     5
 72
     1
  1
\A1;52
 11
0.0
 21
1.0
 31
0.0
 73
     1
 44
1.0
1001
ACAD
1000
MTEXTBEGIN
1070
    73
1070
     1
1070
    44
1040
1.0
1070
    74
1070
     0
1000
MTEXTEND
1000
MTEXTBEGIN
1070
    73
1070
     1
1070
    44
1040
1.0
1070
    74
1070
     0
1000
MTEXTEND
1000
MTEXTBEGIN
1070
    73
1070
     1
1070
    44
1040
1.0
1070
    74
1070
     0
1000
MTEXTEND
1000
MTEXTBEGIN
1070
    73
1070
     1
1070
    44
1040
1.0
1070
    74
1070
     0
1000
MTEXTEND
1000
MTEXTBEGIN
1070
    73
1070
     1
1070
    44
1040
1.0
1070
    74
1070
     0
1000
MTEXTEND
1000
MTEXTBEGIN
1070
    73
1070
     1
1070
    44
1040
1.0
1070
    74
1070
     0
1000
MTEXTEND
1000
MTEXTBEGIN
1070
    73
1070
     1
1070
    44
1040
1.0
1070
    74
1070
     0
1000
MTEXTEND
1000
MTEXTBEGIN
1070
    73
1070
     1
1070
    44
1040
1.0
1070
    74
1070
     0
1000
MTEXTEND
1000
MTEXTBEGIN
1070
    73
1070
     1
1070
    44
1040
1.0
1070
    74
1070
     0
1000
MTEXTEND
  0
POINT
  5
3024
330
2D4A
100
AcDbEntity
  8
DEFPOINTS
  6
Continuous
 62
     0
100
AcDbPoint
 10
142.153601
 20
-224.0
 30
0.0
  0
POINT
  5
3025
330
2D4A
100
AcDbEntity
  8
DEFPOINTS
  6
Continuous
 62
     0
100
AcDbPoint
 10
139.7740949999999
 20
-276.0
 30
0.0
  0
POINT
  5
3026
330
2D4A
100
AcDbEntity
  8
DEFPOINTS
  6
Continuous
 62
     0
100
AcDbPoint
 10
93.37370699999999
 20
-276.0
 30
0.0
  0
ENDBLK
  5
2D55
330
2D4A
100
AcDbEntity
  8
0
 62
     2
100
AcDbBlockEnd
  0
BLOCK
  5
332C
330
3322
100
AcDbEntity
  8
0
 62
     2
100
AcDbBlockBegin
  2
*D19
 70
     1
 10
0.0
 20
0.0
 30
0.0
  3
*D19
  1

  0
LINE
  5
335B
330
3322
100
AcDbEntity
  8
30
  6
Continuous
 62
     0
100
AcDbLine
 10
146.092551
 20
-59.800049
 30
0.0
 11
146.092551
 21
-72.53315
 31
0.0
1001
ACAD
1000
RTLwPs
1070
   158
  0
LINE
  5
335C
330
3322
100
AcDbEntity
  8
30
  6
Continuous
 62
     0
100
AcDbLine
 10
202.0924899999999
 20
-67.5
 30
0.0
 11
202.0924899999999
 21
-72.53315
 31
0.0
1001
ACAD
1000
RTLwPs
1070
   158
  0
LINE
  5
335D
330
3322
100
AcDbEntity
  8
30
  6
Continuous
 62
     0
100
AcDbLine
 10
148.092551
 20
-72.03315
 30
0.0
 11
200.09249
 21
-72.03315
 31
0.0
1001
ACAD
1000
RTLwPs
1070
   158
  0
INSERT
  5
335E
330
3322
100
AcDbEntity
  8
30
  6
Continuous
 62
     0
100
AcDbBlockReference
  2
_OPEN
 10
146.092551
 20
-72.03315
 30
0.0
 41
2.0
 42
2.0
 43
2.0
 50
180.0
1001
ACAD
1000
RTLwPs
1070
   158
  0
INSERT
  5
335F
330
3322
100
AcDbEntity
  8
30
  6
Continuous
 62
     0
100
AcDbBlockReference
  2
_OPEN
 10
202.0924899999999
 20
-72.03315
 30
0.0
 41
2.0
 42
2.0
 43
2.0
1001
ACAD
1000
RTLwPs
1070
   158
  0
MTEXT
  5
3360
330
3322
100
AcDbEntity
  8
30
  6
Continuous
 62
     0
100
AcDbMText
 10
174.092521
 20
-69.03315
 30
0.0
 40
4.0
 41
0.0
 71
     5
 72
     1
  1
\A1;56
 73
     1
 44
1.0
1001
ACAD
1000
MTEXTBEGIN
1070
    73
1070
     1
1070
    44
1040
1.0
1070
    74
1070
     0
1000
MTEXTEND
1000
MTEXTBEGIN
1070
    73
1070
     1
1070
    44
1040
1.0
1070
    74
1070
     0
1000
MTEXTEND
1000
MTEXTBEGIN
1070
    73
1070
     1
1070
    44
1040
1.0
1070
    74
1070
     0
1000
MTEXTEND
1000
MTEXTBEGIN
1070
    73
1070
     1
1070
    44
1040
1.0
1070
    74
1070
     0
1000
MTEXTEND
1000
MTEXTBEGIN
1070
    73
1070
     1
1070
    44
1040
1.0
1070
    74
1070
     0
1000
MTEXTEND
1000
MTEXTBEGIN
1070
    73
1070
     1
1070
    44
1040
1.0
1070
    74
1070
     0
1000
MTEXTEND
1000
MTEXTBEGIN
1070
    73
1070
     1
1070
    44
1040
1.0
1070
    74
1070
     0
1000
MTEXTEND
1000
MTEXTBEGIN
1070
    73
1070
     1
1070
    44
1040
1.0
1070
    74
1070
     0
1000
MTEXTEND
  0
POINT
  5
3361
330
3322
100
AcDbEntity
  8
DEFPOINTS
  6
Continuous
 62
     0
100
AcDbPoint
 10
146.092551
 20
-58.800049
 30
0.0
  0
POINT
  5
3362
330
3322
100
AcDbEntity
  8
DEFPOINTS
  6
Continuous
 62
     0
100
AcDbPoint
 10
202.0924899999999
 20
-66.5
 30
0.0
  0
POINT
  5
3363
330
3322
100
AcDbEntity
  8
DEFPOINTS
  6
Continuous
 62
     0
100
AcDbPoint
 10
202.0924899999999
 20
-72.03315
 30
0.0
  0
ENDBLK
  5
332D
330
3322
100
AcDbEntity
  8
0
 62
     2
100
AcDbBlockEnd
  0
BLOCK
  5
350E
330
3504
100
AcDbEntity
  8
0
 62
     2
100
AcDbBlockBegin
  2
*D20
 70
     1
 10
0.0
 20
0.0
 30
0.0
  3
*D20
  1

  0
LINE
  5
3C32
330
3504
100
AcDbEntity
  8
30
  6
Continuous
 62
     0
100
AcDbLine
 10
191.786831
 20
153.9754369999999
 30
0.0
 11
211.5099759999999
 21
153.9754369999999
 31
0.0
  0
LINE
  5
3C33
330
3504
100
AcDbEntity
  8
30
  6
Continuous
 62
     0
100
AcDbLine
 10
192.786831
 20
161.975437
 30
0.0
 11
211.5099759999999
 21
161.975437
 31
0.0
  0
LINE
  5
3C34
330
3504
100
AcDbEntity
  8
30
  6
Continuous
 62
     0
100
AcDbLine
 10
211.0099759999999
 20
155.975437
 30
0.0
 11
211.0099759999999
 21
159.975437
 31
0.0
  0
MTEXT
  5
3C35
330
3504
100
AcDbEntity
  8
30
  6
Continuous
 62
     0
100
AcDbMText
 10
199.884896
 20
158.1758289999999
 30
0.0
 40
4.0
 41
0.0
 71
     5
 72
     1
  1
\A1;max8
 73
     1
 44
1.0
  0
INSERT
  5
3C36
330
3504
100
AcDbEntity
  8
30
  6
Continuous
 62
     0
100
AcDbBlockReference
  2
_OPEN
 10
211.0099759999999
 20
153.9754369999999
 30
0.0
 41
2.0
 42
2.0
 43
2.0
 50
270.0
  0
INSERT
  5
3C37
330
3504
100
AcDbEntity
  8
30
  6
Continuous
 62
     0
100
AcDbBlockReference
  2
_OPEN
 10
211.0099759999999
 20
161.975437
 30
0.0
 41
2.0
 42
2.0
 43
2.0
 50
90.0
  0
POINT
  5
3C38
330
3504
100
AcDbEntity
  8
DEFPOINTS
  6
Continuous
 62
     0
100
AcDbPoint
 10
190.7868309999999
 20
153.9754369999999
 30
0.0
  0
POINT
  5
3C39
330
3504
100
AcDbEntity
  8
DEFPOINTS
  6
Continuous
 62
     0
100
AcDbPoint
 10
191.786831
 20
161.975437
 30
0.0
  0
POINT
  5
3C3A
330
3504
100
AcDbEntity
  8
DEFPOINTS
  6
Continuous
 62
     0
100
AcDbPoint
 10
211.0099759999999
 20
161.975437
 30
0.0
  0
ENDBLK
  5
350F
330
3504
100
AcDbEntity
  8
0
 62
     2
100
AcDbBlockEnd
  0
BLOCK
  5
361F
330
3614
100
AcDbEntity
  8
0
 62
     2
100
AcDbBlockBegin
  2
*D21
 70
     1
 10
0.0
 20
0.0
 30
0.0
  3
*D21
  1

  0
LINE
  5
3649
330
3614
100
AcDbEntity
  8
30
  6
Continuous
 62
     0
100
AcDbLine
 10
146.092551
 20
-59.800049
 30
0.0
 11
146.092551
 21
-72.53315
 31
0.0
1001
ACAD
1000
RTLwPs
1070
   158
  0
LINE
  5
364A
330
3614
100
AcDbEntity
  8
30
  6
Continuous
 62
     0
100
AcDbLine
 10
141.092551
 20
-59.800049
 30
0.0
 11
141.092551
 21
-72.53315
 31
0.0
1001
ACAD
1000
RTLwPs
1070
   158
  0
LINE
  5
364B
330
3614
100
AcDbEntity
  8
30
  6
Continuous
 62
     0
100
AcDbLine
 10
147.592551
 20
-72.03315
 30
0.0
 11
149.092551
 21
-72.03315
 31
0.0
1001
ACAD
1000
RTLwPs
1070
   158
  0
LINE
  5
364C
330
3614
100
AcDbEntity
  8
30
  6
Continuous
 62
     0
100
AcDbLine
 10
139.592551
 20
-72.03315
 30
0.0
 11
138.092551
 21
-72.03315
 31
0.0
1001
ACAD
1000
RTLwPs
1070
   158
  0
LINE
  5
364D
330
3614
100
AcDbEntity
  8
30
  6
Continuous
 62
     0
100
AcDbLine
 10
146.092551
 20
-72.03315
 30
0.0
 11
141.092551
 21
-72.03315
 31
0.0
1001
ACAD
1000
RTLwPs
1070
   158
  0
INSERT
  5
364E
330
3614
100
AcDbEntity
  8
30
  6
Continuous
 62
     0
100
AcDbBlockReference
  2
_OPEN
 10
146.092551
 20
-72.03315
 30
0.0
 41
1.5
 42
1.5
 43
1.5
 50
180.0
1001
ACAD
1000
RTLwPs
1070
   158
  0
INSERT
  5
364F
330
3614
100
AcDbEntity
  8
30
  6
Continuous
 62
     0
100
AcDbBlockReference
  2
_OPEN
 10
141.092551
 20
-72.03315
 30
0.0
 41
1.5
 42
1.5
 43
1.5
1001
ACAD
1000
RTLwPs
1070
   158
  0
MTEXT
  5
3650
330
3614
100
AcDbEntity
  8
30
  6
Continuous
 62
     0
100
AcDbMText
 10
143.592551
 20
-69.03315
 30
0.0
 40
4.0
 41
0.0
 71
     5
 72
     1
  1
\A1;5
 73
     1
 44
1.0
1001
ACAD
1000
MTEXTBEGIN
1070
    73
1070
     1
1070
    44
1040
1.0
1070
    74
1070
     0
1000
MTEXTEND
1000
MTEXTBEGIN
1070
    73
1070
     1
1070
    44
1040
1.0
1070
    74
1070
     0
1000
MTEXTEND
1000
MTEXTBEGIN
1070
    73
1070
     1
1070
    44
1040
1.0
1070
    74
1070
     0
1000
MTEXTEND
1000
MTEXTBEGIN
1070
    73
1070
     1
1070
    44
1040
1.0
1070
    74
1070
     0
1000
MTEXTEND
1000
MTEXTBEGIN
1070
    73
1070
     1
1070
    44
1040
1.0
1070
    74
1070
     0
1000
MTEXTEND
1000
MTEXTBEGIN
1070
    73
1070
     1
1070
    44
1040
1.0
1070
    74
1070
     0
1000
MTEXTEND
1000
MTEXTBEGIN
1070
    73
1070
     1
1070
    44
1040
1.0
1070
    74
1070
     0
1000
MTEXTEND
  0
POINT
  5
3651
330
3614
100
AcDbEntity
  8
DEFPOINTS
  6
Continuous
 62
     0
100
AcDbPoint
 10
146.092551
 20
-58.800049
 30
0.0
  0
POINT
  5
3652
330
3614
100
AcDbEntity
  8
DEFPOINTS
  6
Continuous
 62
     0
100
AcDbPoint
 10
141.092551
 20
-58.800049
 30
0.0
  0
POINT
  5
3653
330
3614
100
AcDbEntity
  8
DEFPOINTS
  6
Continuous
 62
     0
100
AcDbPoint
 10
141.092551
 20
-72.03315
 30
0.0
  0
ENDBLK
  5
3620
330
3614
100
AcDbEntity
  8
0
 62
     2
100
AcDbBlockEnd
  0
BLOCK
  5
36E5
330
36DA
100
AcDbEntity
  8
0
 62
     2
100
AcDbBlockBegin
  2
*D22
 70
     1
 10
0.0
 20
0.0
 30
0.0
  3
*D22
  1

  0
LINE
  5
391E
330
36DA
100
AcDbEntity
  8
30
  6
Continuous
 62
     0
100
AcDbLine
 10
174.786831
 20
130.975437
 30
0.0
 11
174.786831
 21
124.825267
 31
0.0
1001
ACAD
1000
RTLwPs
1070
   158
  0
LINE
  5
391F
330
36DA
100
AcDbEntity
  8
30
  6
Continuous
 62
     0
100
AcDbLine
 10
189.7868309999999
 20
130.975437
 30
0.0
 11
189.7868309999999
 21
124.825267
 31
0.0
1001
ACAD
1000
RTLwPs
1070
   158
  0
LINE
  5
3920
330
36DA
100
AcDbEntity
  8
30
  6
Continuous
 62
     0
100
AcDbLine
 10
187.786831
 20
125.3252669999999
 30
0.0
 11
176.786831
 21
125.3252669999999
 31
0.0
1001
ACAD
1000
RTLwPs
1070
   158
  0
LINE
  5
3921
330
36DA
100
AcDbEntity
  8
30
  6
Continuous
 62
     0
100
AcDbLine
 10
174.786831
 20
125.3252669999999
 30
0.0
 11
158.531339
 21
125.3252669999999
 31
0.0
1001
ACAD
1000
RTLwPs
1070
   158
  0
INSERT
  5
3922
330
36DA
100
AcDbEntity
  8
30
  6
Continuous
 62
     0
100
AcDbBlockReference
  2
_OPEN
 10
189.7868309999999
 20
125.3252669999999
 30
0.0
 41
2.0
 42
2.0
 43
2.0
1001
ACAD
1000
RTLwPs
1070
   158
  0
INSERT
  5
3923
330
36DA
100
AcDbEntity
  8
30
  6
Continuous
 62
     0
100
AcDbBlockReference
  2
_OPEN
 10
174.786831
 20
125.3252669999999
 30
0.0
 41
2.0
 42
2.0
 43
2.0
 50
180.0
1001
ACAD
1000
RTLwPs
1070
   158
  0
MTEXT
  5
3924
330
36DA
100
AcDbEntity
  8
30
  6
Continuous
 62
     0
100
AcDbMText
 10
164.8646719999999
 20
131.6586
 30
0.0
 40
4.0
 41
0.0
 71
     5
 72
     1
  1
\A1;max\P15
 73
     1
 44
1.0
1001
ACAD
1000
MTEXTBEGIN
1070
    73
1070
     1
1070
    44
1040
1.0
1070
    74
1070
     0
1000
MTEXTEND
1000
MTEXTBEGIN
1070
    73
1070
     1
1070
    44
1040
1.0
1070
    74
1070
     0
1000
MTEXTEND
1000
MTEXTBEGIN
1070
    73
1070
     1
1070
    44
1040
1.0
1070
    74
1070
     0
1000
MTEXTEND
1000
MTEXTBEGIN
1070
    73
1070
     1
1070
    44
1040
1.0
1070
    74
1070
     0
1000
MTEXTEND
1000
MTEXTBEGIN
1070
    73
1070
     1
1070
    44
1040
1.0
1070
    74
1070
     0
1000
MTEXTEND
  0
POINT
  5
3925
330
36DA
100
AcDbEntity
  8
DEFPOINTS
  6
Continuous
 62
     0
100
AcDbPoint
 10
174.786831
 20
131.975437
 30
0.0
  0
POINT
  5
3926
330
36DA
100
AcDbEntity
  8
DEFPOINTS
  6
Continuous
 62
     0
100
AcDbPoint
 10
189.7868309999999
 20
131.975437
 30
0.0
  0
POINT
  5
3927
330
36DA
100
AcDbEntity
  8
DEFPOINTS
  6
Continuous
 62
     0
100
AcDbPoint
 10
189.7868309999999
 20
125.3252669999999
 30
0.0
  0
ENDBLK
  5
36E6
330
36DA
100
AcDbEntity
  8
0
 62
     2
100
AcDbBlockEnd
  0
BLOCK
  5
38F5
330
38EB
100
AcDbEntity
  8
0
 62
     2
100
AcDbBlockBegin
  2
*D23
 70
     1
 10
0.0
 20
0.0
 30
0.0
  3
*D23
  1

  0
LINE
  5
38F7
330
38EB
100
AcDbEntity
  8
30
  6
Continuous
 62
     0
100
AcDbLine
 10
-38.5
 20
32.0
 30
0.0
 11
-46.492598
 21
32.0
 31
0.0
1001
ACAD
1000
RTLwPs
1070
   158
  0
LINE
  5
38F8
330
38EB
100
AcDbEntity
  8
30
  6
Continuous
 62
     0
100
AcDbLine
 10
-38.5
 20
-32.0
 30
0.0
 11
-46.492598
 21
-32.0
 31
0.0
1001
ACAD
1000
RTLwPs
1070
   158
  0
LINE
  5
38F9
330
38EB
100
AcDbEntity
  8
30
  6
Continuous
 62
     0
100
AcDbLine
 10
-45.992598
 20
30.0
 30
0.0
 11
-45.992598
 21
-30.0
 31
0.0
1001
ACAD
1000
RTLwPs
1070
   158
  0
INSERT
  5
38FA
330
38EB
100
AcDbEntity
  8
30
  6
Continuous
 62
     0
100
AcDbBlockReference
  2
_OPEN
 10
-45.992598
 20
32.0
 30
0.0
 41
2.0
 42
2.0
 43
2.0
 50
90.0
1001
ACAD
1000
RTLwPs
1070
   158
  0
INSERT
  5
38FB
330
38EB
100
AcDbEntity
  8
30
  6
Continuous
 62
     0
100
AcDbBlockReference
  2
_OPEN
 10
-45.992598
 20
-32.0
 30
0.0
 41
2.0
 42
2.0
 43
2.0
 50
270.0
1001
ACAD
1000
RTLwPs
1070
   158
  0
MTEXT
  5
38FC
330
38EB
100
AcDbEntity
  8
30
  6
Continuous
 62
     0
100
AcDbMText
 10
-48.992598
 20
0.0
 30
0.0
 40
4.0
 41
0.0
 71
     5
 72
     1
  1
\A1;64
 11
0.0
 21
1.0
 31
0.0
 73
     1
 44
1.0
1001
ACAD
1000
MTEXTBEGIN
1070
    73
1070
     1
1070
    44
1040
1.0
1070
    74
1070
     0
1000
MTEXTEND
1000
MTEXTBEGIN
1070
    73
1070
     1
1070
    44
1040
1.0
1070
    74
1070
     0
1000
MTEXTEND
1000
MTEXTBEGIN
1070
    73
1070
     1
1070
    44
1040
1.0
1070
    74
1070
     0
1000
MTEXTEND
1000
MTEXTBEGIN
1070
    73
1070
     1
1070
    44
1040
1.0
1070
    74
1070
     0
1000
MTEXTEND
1000
MTEXTBEGIN
1070
    73
1070
     1
1070
    44
1040
1.0
1070
    74
1070
     0
1000
MTEXTEND
  0
POINT
  5
38FD
330
38EB
100
AcDbEntity
  8
DEFPOINTS
  6
Continuous
 62
     0
100
AcDbPoint
 10
-37.5
 20
32.0
 30
0.0
  0
POINT
  5
38FE
330
38EB
100
AcDbEntity
  8
DEFPOINTS
  6
Continuous
 62
     0
100
AcDbPoint
 10
-37.5
 20
-32.0
 30
0.0
  0
POINT
  5
38FF
330
38EB
100
AcDbEntity
  8
DEFPOINTS
  6
Continuous
 62
     0
100
AcDbPoint
 10
-45.992598
 20
-32.0
 30
0.0
  0
ENDBLK
  5
38F6
330
38EB
100
AcDbEntity
  8
0
 62
     2
100
AcDbBlockEnd
  0
ENDSEC
  0
SECTION
  2
ENTITIES
  0
LINE
  5
B4
330
1E
100
AcDbEntity
  8
16
100
AcDbLine
 10
0.0
 20
-68.697891
 30
0.0
 11
0.0
 21
71.25
 31
0.0
  0
LINE
  5
B5
330
1E
100
AcDbEntity
  8
16
100
AcDbLine
 10
48.424128
 20
0.0
 30
0.0
 11
-56.608689
 21
0.0
 31
0.0
  0
LINE
  5
BA
330
1E
100
AcDbEntity
  8
17
  6
DASHDOT
100
AcDbLine
 10
6.618191
 20
174.0
 30
0.0
 11
-6.381808999999999
 21
174.0
 31
0.0
  0
LINE
  5
BB
330
1E
100
AcDbEntity
  8
17
  6
DASHDOT
100
AcDbLine
 10
0.118191
 20
180.4999999999999
 30
0.0
 11
0.118191
 21
167.5
 31
0.0
  0
LINE
  5
2A0
330
1E
100
AcDbEntity
  8
17
  6
DASHDOT
100
AcDbLine
 10
31.61819099999999
 20
174.0
 30
0.0
 11
18.61819099999999
 21
174.0
 31
0.0
  0
LINE
  5
2A3
330
1E
100
AcDbEntity
  8
17
  6
DASHDOT
100
AcDbLine
 10
25.118191
 20
180.4999999999999
 30
0.0
 11
25.118191
 21
167.5
 31
0.0
  0
LINE
  5
2A8
330
1E
100
AcDbEntity
  8
17
  6
DASHDOT
100
AcDbLine
 10
-18.381809
 20
174.0
 30
0.0
 11
-31.381809
 21
174.0
 31
0.0
  0
LINE
  5
2AC
330
1E
100
AcDbEntity
  8
17
  6
DASHDOT
100
AcDbLine
 10
-24.881809
 20
180.4999999999999
 30
0.0
 11
-24.881809
 21
167.5
 31
0.0
  0
DIMENSION
  5
BD8
330
1E
100
AcDbEntity
  8
30
  6
Continuous
100
AcDbDimension
  2
*D1
 10
153.78921
 20
144.633295
 30
0.0
 11
142.66413
 21
140.833687
 31
0.0
 70
   160
  1
max8
 71
     5
 42
-1.0
  3
STANDARD
100
AcDbAlignedDimension
 13
133.5660649999999
 23
136.633295
 33
0.0
 14
134.5660649999999
 24
144.633295
 34
0.0
 50
90.0
100
AcDbRotatedDimension
1001
ACAD
1000
DSTYLE
1002
{
1070
   287
1070
     5
1070
   287
1070
     5
1070
   287
1070
     5
1070
   287
1070
     5
1070
   287
1070
     5
1070
   287
1070
     5
1070
   287
1070
     5
1070
   287
1070
     5
1070
   287
1070
     5
1070
   287
1070
     5
1070
   287
1070
     5
1070
   287
1070
     5
1070
   287
1070
     5
1070
   287
1070
     5
1070
   279
1070
     2
1002
}
  0
MTEXT
  5
BF3
330
1E
100
AcDbEntity
  8
24
  6
Continuous
100
AcDbMText
 10
142.118191
 20
177.5
 30
0.0
 40
3.0
 41
0.0
 71
     1
 72
     1
  1
\A1;
 73
     1
 44
1.0
1001
ACAD
1000
MTEXTBEGIN
1070
    73
1070
     1
1070
    44
1040
1.0
1070
    74
1070
     0
1000
MTEXTEND
1000
MTEXTBEGIN
1070
    73
1070
     1
1070
    44
1040
1.0
1070
    74
1070
     0
1000
MTEXTEND
1000
MTEXTBEGIN
1070
    73
1070
     1
1070
    44
1040
1.0
1070
    74
1070
     0
1000
MTEXTEND
1000
MTEXTBEGIN
1070
    73
1070
     1
1070
    44
1040
1.0
1070
    74
1070
     0
1000
MTEXTEND
1000
MTEXTBEGIN
1070
    73
1070
     1
1070
    44
1040
1.0
1070
    74
1070
     0
1000
MTEXTEND
1000
MTEXTBEGIN
1070
    73
1070
     1
1070
    44
1040
1.0
1070
    74
1070
     0
1000
MTEXTEND
1000
MTEXTBEGIN
1070
    73
1070
     1
1070
    44
1040
1.0
1070
    74
1070
     0
1000
MTEXTEND
1000
MTEXTBEGIN
1070
    73
1070
     1
1070
    44
1040
1.0
1070
    74
1070
     0
1000
MTEXTEND
1000
MTEXTBEGIN
1070
    73
1070
     1
1070
    44
1040
1.0
1070
    74
1070
     0
1000
MTEXTEND
1000
MTEXTBEGIN
1070
    73
1070
     1
1070
    44
1040
1.0
1070
    74
1070
     0
1000
MTEXTEND
1000
MTEXTBEGIN
1070
    73
1070
     1
1070
    44
1040
1.0
1070
    74
1070
     0
1000
MTEXTEND
1000
MTEXTBEGIN
1070
    73
1070
     1
1070
    44
1040
1.0
1070
    74
1070
     0
1000
MTEXTEND
1000
MTEXTBEGIN
1070
    73
1070
     1
1070
    44
1040
1.0
1070
    74
1070
     0
1000
MTEXTEND
1000
MTEXTBEGIN
1070
    73
1070
     1
1070
    44
1040
1.0
1070
    74
1070
     0
1000
MTEXTEND
1000
MTEXTBEGIN
1070
    73
1070
     1
1070
    44
1040
1.0
1070
    74
1070
     0
1000
MTEXTEND
1000
MTEXTBEGIN
1070
    73
1070
     1
1070
    44
1040
1.0
1070
    74
1070
     0
1000
MTEXTEND
1000
MTEXTBEGIN
1070
    73
1070
     1
1070
    44
1040
1.0
1070
    74
1070
     0
1000
MTEXTEND
1000
MTEXTBEGIN
1070
    73
1070
     1
1070
    44
1040
1.0
1070
    74
1070
     0
1000
MTEXTEND
1000
MTEXTBEGIN
1070
    73
1070
     1
1070
    44
1040
1.0
1070
    74
1070
     0
1000
MTEXTEND
1000
MTEXTBEGIN
1070
    73
1070
     1
1070
    44
1040
1.0
1070
    74
1070
     0
1000
MTEXTEND
  0
TEXT
  5
BF4
330
1E
100
AcDbEntity
  8
30
  6
Continuous
100
AcDbText
 10
139.5597689999999
 20
125.18936
 30
0.0
 40
4.0
  1
%%C9
100
AcDbText
  0
DIMENSION
  5
BFF
330
1E
100
AcDbEntity
  8
30
  6
Continuous
100
AcDbDimension
  2
*D2
 10
133.5660649999999
 20
129.9831249999999
 30
0.0
 11
108.643906
 21
129.9831249999999
 31
0.0
 70
   160
  1
max\P15
 71
     5
 42
-1.0
  3
STANDARD
100
AcDbAlignedDimension
 13
118.5660649999999
 23
136.633295
 33
0.0
 14
133.5660649999999
 24
136.633295
 34
0.0
100
AcDbRotatedDimension
  0
LEADER
  5
C4F
330
1E
100
AcDbEntity
  8
30
  6
Continuous
100
AcDbLeader
  3
STANDARD
 76
     3
 10
127.816065
 20
143.633295
 30
0.0
 10
137.3160649999999
 20
123.6332949999999
 30
0.0
 10
149.3160649999999
 20
123.6332949999999
 30
0.0
1001
ACAD
1000
DSTYLE
1002
{
1070
     5
1000
OPEN
1070
   342
1005
3B2
1002
}
  0
LEADER
  5
C52
330
1E
100
AcDbEntity
  8
30
  6
Continuous
100
AcDbLeader
  3
STANDARD
 76
     3
 10
176.596328
 20
60.34936899999999
 30
0.0
 10
162.205151
 20
70.926411
 30
0.0
 10
145.860373
 20
70.926411
 30
0.0
211
-1.0
221
0.0
231
0.0
210
0.0
220
0.0
230
-1.0
1001
ACAD
1000
DSTYLE
1002
{
1070
     5
1000
OPEN
1070
   342
1005
3B2
1002
}
  0
TEXT
  5
C53
330
1E
100
AcDbEntity
  8
30
  6
Continuous
100
AcDbText
 10
147.409609
 20
71.86733000000001
 30
0.0
 40
3.0
  1
M8
100
AcDbText
  0
LINE
  5
151E
330
1E
100
AcDbEntity
  8
17
  6
DASHDOT
100
AcDbLine
 10
117.5660649999999
 20
144.633295
 30
0.0
 11
134.5660649999999
 21
144.633295
 31
0.0
  0
LINE
  5
1A27
330
1E
100
AcDbEntity
  8
17
  6
DASHDOT
100
AcDbLine
 10
25.118191
 20
168.5
 30
0.0
 11
25.118191
 21
177.4375
 31
0.0
  0
LINE
  5
1A28
330
1E
100
AcDbEntity
  8
24
  6
CONTINOUS
100
AcDbLine
 10
27.634441
 20
172.475
 30
0.0
 11
22.601941
 21
172.475
 31
0.0
  0
LINE
  5
1A29
330
1E
100
AcDbEntity
  8
24
  6
Continuous
100
AcDbLine
 10
22.37426699999999
 20
174.0
 30
0.0
 11
27.374267
 21
174.0
 31
0.0
  0
LINE
  5
1A2A
330
1E
100
AcDbEntity
  8
24
  6
CONTINOUS
100
AcDbLine
 10
28.85444099999999
 20
174.0
 30
0.0
 11
21.381941
 21
174.0
 31
0.0
  0
LINE
  5
1A2B
330
1E
100
AcDbEntity
  8
17
  6
DASHDOT
100
AcDbLine
 10
31.311767
 20
174.0
 30
0.0
 11
18.59301699999999
 21
174.0
 31
0.0
  0
LINE
  5
1A2C
330
1E
100
AcDbEntity
  8
24
  6
CONTINOUS
100
AcDbLine
 10
22.601941
 20
174.0
 30
0.0
 11
22.601941
 21
172.475
 31
0.0
  0
LINE
  5
1A2D
330
1E
100
AcDbEntity
  8
24
  6
DASHED
100
AcDbLine
 10
23.82194099999999
 20
174.0
 30
0.0
 11
23.82194099999999
 21
172.475
 31
0.0
  0
LINE
  5
1A2E
330
1E
100
AcDbEntity
  8
24
  6
DASHED
100
AcDbLine
 10
26.41444099999999
 20
174.0
 30
0.0
 11
26.41444099999999
 21
172.475
 31
0.0
  0
LINE
  5
1A2F
330
1E
100
AcDbEntity
  8
24
  6
CONTINOUS
100
AcDbLine
 10
27.634441
 20
174.0
 30
0.0
 11
27.634441
 21
172.475
 31
0.0
  0
LINE
  5
1A46
330
1E
100
AcDbEntity
  8
17
  6
DASHDOT
100
AcDbLine
 10
6.311766999999999
 20
174.0
 30
0.0
 11
-6.406983
 21
174.0
 31
0.0
  0
LINE
  5
1A47
330
1E
100
AcDbEntity
  8
24
  6
CONTINOUS
100
AcDbLine
 10
3.854441
 20
174.0
 30
0.0
 11
-3.618058999999999
 21
174.0
 31
0.0
  0
LINE
  5
1A48
330
1E
100
AcDbEntity
  8
24
  6
Continuous
100
AcDbLine
 10
-2.625733
 20
174.0
 30
0.0
 11
2.374266999999999
 21
174.0
 31
0.0
  0
LINE
  5
1A49
330
1E
100
AcDbEntity
  8
24
  6
CONTINOUS
100
AcDbLine
 10
2.634440999999999
 20
172.475
 30
0.0
 11
-2.398058999999999
 21
172.475
 31
0.0
  0
LINE
  5
1A4C
330
1E
100
AcDbEntity
  8
24
  6
CONTINOUS
100
AcDbLine
 10
-2.398058999999999
 20
174.0
 30
0.0
 11
-2.398058999999999
 21
172.475
 31
0.0
  0
LINE
  5
1A4D
330
1E
100
AcDbEntity
  8
24
  6
DASHED
100
AcDbLine
 10
1.414441
 20
174.0
 30
0.0
 11
1.414441
 21
172.475
 31
0.0
  0
LINE
  5
1A4E
330
1E
100
AcDbEntity
  8
24
  6
DASHED
100
AcDbLine
 10
-1.178058999999999
 20
174.0
 30
0.0
 11
-1.178058999999999
 21
172.475
 31
0.0
  0
LINE
  5
1A4F
330
1E
100
AcDbEntity
  8
17
  6
DASHDOT
100
AcDbLine
 10
0.118191
 20
168.5
 30
0.0
 11
0.118191
 21
177.4375
 31
0.0
  0
LINE
  5
1A50
330
1E
100
AcDbEntity
  8
24
  6
CONTINOUS
100
AcDbLine
 10
2.634440999999999
 20
174.0
 30
0.0
 11
2.634440999999999
 21
172.475
 31
0.0
  0
LINE
  5
1A51
330
1E
100
AcDbEntity
  8
17
  6
DASHDOT
100
AcDbLine
 10
-18.688233
 20
174.0
 30
0.0
 11
-31.406983
 21
174.0
 31
0.0
  0
LINE
  5
1A52
330
1E
100
AcDbEntity
  8
24
  6
CONTINOUS
100
AcDbLine
 10
-21.145559
 20
174.0
 30
0.0
 11
-28.618059
 21
174.0
 31
0.0
  0
LINE
  5
1A53
330
1E
100
AcDbEntity
  8
24
  6
Continuous
100
AcDbLine
 10
-27.625733
 20
174.0
 30
0.0
 11
-22.625733
 21
174.0
 31
0.0
  0
LINE
  5
1A54
330
1E
100
AcDbEntity
  8
24
  6
CONTINOUS
100
AcDbLine
 10
-22.365559
 20
172.475
 30
0.0
 11
-27.398059
 21
172.475
 31
0.0
  0
LINE
  5
1A57
330
1E
100
AcDbEntity
  8
24
  6
CONTINOUS
100
AcDbLine
 10
-27.398059
 20
174.0
 30
0.0
 11
-27.398059
 21
172.475
 31
0.0
  0
LINE
  5
1A58
330
1E
100
AcDbEntity
  8
24
  6
DASHED
100
AcDbLine
 10
-23.585559
 20
174.0
 30
0.0
 11
-23.585559
 21
172.475
 31
0.0
  0
LINE
  5
1A59
330
1E
100
AcDbEntity
  8
24
  6
DASHED
100
AcDbLine
 10
-26.178059
 20
174.0
 30
0.0
 11
-26.178059
 21
172.475
 31
0.0
  0
LINE
  5
1A5A
330
1E
100
AcDbEntity
  8
17
  6
DASHDOT
100
AcDbLine
 10
-24.881809
 20
168.5
 30
0.0
 11
-24.881809
 21
177.4375
 31
0.0
  0
LINE
  5
1A5B
330
1E
100
AcDbEntity
  8
24
  6
CONTINOUS
100
AcDbLine
 10
-22.365559
 20
174.0
 30
0.0
 11
-22.365559
 21
172.475
 31
0.0
  0
LINE
  5
1C9A
330
1E
100
AcDbEntity
  8
16
100
AcDbLine
 10
0.118191
 20
82.65937199999999
 30
0.0
 11
0.118191
 21
225.159372
 31
0.0
  0
LINE
  5
1C9B
330
1E
100
AcDbEntity
  8
16
100
AcDbLine
 10
224.1890319999999
 20
0.0
 30
0.0
 11
116.39371
 21
0.0
 31
0.0
  0
LINE
  5
2233
330
1E
100
AcDbEntity
  8
16
100
AcDbLine
 10
160.0
 20
-318.697891
 30
0.0
 11
160.0
 21
-178.75
 31
0.0
  0
LINE
  5
2234
330
1E
100
AcDbEntity
  8
16
100
AcDbLine
 10
208.424128
 20
-250.0
 30
0.0
 11
103.391311
 21
-250.0
 31
0.0
  0
LINE
  5
2254
330
1E
100
AcDbEntity
  8
12
  6
DASHDOT
100
AcDbLine
 10
-16.093736
 20
-194.5
 30
0.0
 11
-8.884752
 21
-194.5
 31
0.0
  0
CIRCLE
  5
2255
330
1E
100
AcDbEntity
  8
12
  6
CONTINOUS
100
AcDbCircle
 10
-12.5
 20
-194.5
 30
0.0
 40
2.0
  0
LINE
  5
2256
330
1E
100
AcDbEntity
  8
12
  6
DASHDOT
100
AcDbLine
 10
-12.5
 20
-191.25
 30
0.0
 11
-12.5
 21
-197.75
 31
0.0
  0
CIRCLE
  5
225B
330
1E
100
AcDbEntity
  8
12
  6
CONTINOUS
100
AcDbCircle
 10
12.5
 20
-305.5
 30
0.0
 40
2.0
  0
LINE
  5
225C
330
1E
100
AcDbEntity
  8
12
  6
DASHDOT
100
AcDbLine
 10
12.5
 20
-302.2499999999999
 30
0.0
 11
12.5
 21
-308.7499999999999
 31
0.0
  0
LEADER
  5
225D
330
1E
100
AcDbEntity
  8
30
  6
Continuous
100
AcDbLeader
  3
STANDARD
 76
     3
 10
13.51201
 20
-300.40527
 30
0.0
 10
16.881809
 20
-289.0
 30
0.0
 10
43.94082
 20
-288.637178
 30
0.0
1001
ACAD
1000
DSTYLE
1002
{
1070
     5
1000
OPEN
1070
   342
1005
3B2
1002
}
  0
TEXT
  5
225E
330
1E
100
AcDbEntity
  8
30
  6
Continuous
100
AcDbText
 10
15.881809
 20
-286.0
 30
0.0
 40
5.0
  1
M4x0.7
100
AcDbText
  0
DIMENSION
  5
225F
330
1E
100
AcDbEntity
  8
30
  6
Continuous
100
AcDbDimension
  2
*D3
 10
12.5
 20
-330.0
 30
0.0
 11
0.0
 21
-327.0
 31
0.0
 70
    32
 71
     5
 42
-1.0
  3
STANDARD
100
AcDbAlignedDimension
 13
-12.5
 23
-197.75
 33
0.0
 14
12.5
 24
-308.7499999999999
 34
0.0
100
AcDbRotatedDimension
  0
LINE
  5
2260
330
1E
100
AcDbEntity
  8
16
100
AcDbLine
 10
48.424128
 20
-250.0
 30
0.0
 11
-56.608689
 21
-250.0
 31
0.0
  0
LINE
  5
2261
330
1E
100
AcDbEntity
  8
16
100
AcDbLine
 10
0.0
 20
-318.697891
 30
0.0
 11
0.0
 21
-178.75
 31
0.0
  0
LINE
  5
22F6
330
1E
100
AcDbEntity
  8
12
  6
DASHDOT
100
AcDbLine
 10
8.906264
 20
-305.5
 30
0.0
 11
16.115248
 21
-305.5
 31
0.0
  0
TEXT
  5
24CC
330
1E
100
AcDbEntity
  8
19
  6
Continuous
100
AcDbText
 10
120.902697
 20
218.509212
 30
0.0
 40
5.0
  1
XE100CB 3P FC
  7
STANDARD1
100
AcDbText
  0
LWPOLYLINE
  5
25B3
330
1E
100
AcDbEntity
  8
10
  6
CONTINOUS
100
AcDbPolyline
 90
        2
 70
     0
 43
0.001
 10
-37.381809
 20
130.0
 10
-37.381809
 20
198.0
  0
LWPOLYLINE
  5
25B5
330
1E
100
AcDbEntity
  8
10
  6
CONTINOUS
100
AcDbPolyline
 90
        2
 70
     0
 43
0.001
 10
37.61819099999999
 20
130.0
 10
37.61819099999999
 20
198.0
  0
LWPOLYLINE
  5
25B6
330
1E
100
AcDbEntity
  8
10
  6
CONTINOUS
100
AcDbPolyline
 90
        2
 70
     0
 43
0.001
 10
-37.381809
 20
130.0
 10
37.61819099999999
 20
130.0
  0
LWPOLYLINE
  5
25B7
330
1E
100
AcDbEntity
  8
10
  6
CONTINOUS
100
AcDbPolyline
 90
        2
 70
     0
 43
0.001
 10
-10.881809
 20
125.0
 10
11.11819099999999
 20
125.0
  0
LWPOLYLINE
  5
25B8
330
1E
100
AcDbEntity
  8
10
  6
CONTINOUS
100
AcDbPolyline
 90
        2
 70
     0
 43
0.001
 10
-4.881808999999999
 20
111.0
 10
5.118191
 20
111.0
  0
LWPOLYLINE
  5
25B9
330
1E
100
AcDbEntity
  8
10
  6
CONTINOUS
100
AcDbPolyline
 90
        2
 70
     0
 43
0.001
 10
-4.881808999999999
 20
111.0
 10
-5.333408
 20
125.0
  0
LWPOLYLINE
  5
25BA
330
1E
100
AcDbEntity
  8
10
  6
CONTINOUS
100
AcDbPolyline
 90
        2
 70
     0
 43
0.001
 10
-10.881809
 20
125.0
 10
-10.881809
 20
130.0
  0
LWPOLYLINE
  5
25BB
330
1E
100
AcDbEntity
  8
10
  6
CONTINOUS
100
AcDbPolyline
 90
        2
 70
     0
 43
0.001
 10
5.118191
 20
111.0
 10
5.56979
 20
125.0
  0
LWPOLYLINE
  5
25BC
330
1E
100
AcDbEntity
  8
10
  6
CONTINOUS
100
AcDbPolyline
 90
        2
 70
     0
 43
0.001
 10
11.11819099999999
 20
125.0
 10
11.11819099999999
 20
130.0
  0
LWPOLYLINE
  5
25BD
330
1E
100
AcDbEntity
  8
10
  6
CONTINOUS
100
AcDbPolyline
 90
        2
 70
     0
 43
0.001
 10
-37.381809
 20
198.0
 10
37.61819099999999
 20
198.0
  0
DIMENSION
  5
2776
330
1E
100
AcDbEntity
  8
30
  6
Continuous
100
AcDbDimension
  2
*D4
 10
0.0
 20
-79.074989
 30
0.0
 11
-11.01462099999999
 21
-79.074989
 31
0.0
 70
   160
 71
     5
 42
-1.0
  3
STANDARD
100
AcDbAlignedDimension
 13
-25.0
 23
-54.5
 33
0.0
 14
0.0
 24
-64.0
 34
0.0
 50
180.0
100
AcDbRotatedDimension
  0
DIMENSION
  5
2777
330
1E
100
AcDbEntity
  8
30
  6
Continuous
100
AcDbDimension
  2
*D5
 10
37.5
 20
-89.274818
 30
0.0
 11
-1.816216
 21
-89.274818
 31
0.0
 70
   160
 71
     5
 42
-1.0
  3
STANDARD
100
AcDbAlignedDimension
 13
-37.5
 23
-61.7
 33
0.0
 14
37.5
 24
-61.7
 34
0.0
 50
180.0
100
AcDbRotatedDimension
  0
DIMENSION
  5
277A
330
1E
100
AcDbEntity
  8
30
  6
Continuous
100
AcDbDimension
  2
*D6
 10
-62.710591
 20
-65.0
 30
0.0
 11
-62.710591
 21
-2.294738
 31
0.0
 70
   160
 71
     5
 42
-1.0
  3
STANDARD
100
AcDbAlignedDimension
 13
-37.5
 23
65.0
 33
0.0
 14
-37.5
 24
-65.0
 34
0.0
 50
90.0
100
AcDbRotatedDimension
  0
DIMENSION
  5
277B
330
1E
100
AcDbEntity
  8
30
  6
Continuous
100
AcDbDimension
  2
*D7
 10
-53.79999999999999
 20
-55.0
 30
0.0
 11
-53.79999999999999
 21
-2.047058999999999
 31
0.0
 70
   160
 71
     5
 42
-1.0
  3
STANDARD
100
AcDbAlignedDimension
 13
-37.5
 23
55.0
 33
0.0
 14
-37.5
 24
-55.0
 34
0.0
 50
90.0
100
AcDbRotatedDimension
  0
DIMENSION
  5
288F
330
1E
100
AcDbEntity
  8
30
  6
Continuous
100
AcDbDimension
  2
*D8
 10
25.0
 20
-79.074989
 30
0.0
 11
13.985379
 21
-79.074989
 31
0.0
 70
   160
 71
     5
 42
-1.0
  3
STANDARD
100
AcDbAlignedDimension
 13
0.0
 23
-64.0
 33
0.0
 14
25.0
 24
-54.5
 34
0.0
 50
180.0
100
AcDbRotatedDimension
  0
DIMENSION
  5
2A51
330
1E
100
AcDbEntity
  8
30
  6
Continuous
100
AcDbDimension
  2
*D9
 10
178.09249
 20
77.22326800000001
 30
0.0
 11
188.324069
 21
77.22326800000001
 31
0.0
 70
   160
 71
     5
 42
-1.0
  3
STANDARD
100
AcDbAlignedDimension
 13
202.0924899999999
 23
64.0
 33
0.0
 14
178.09249
 24
61.0
 34
0.0
100
AcDbRotatedDimension
  0
DIMENSION
  5
2B68
330
1E
100
AcDbEntity
  8
30
  6
Continuous
100
AcDbDimension
  2
*D10
 10
134.09249
 20
-90.125614
 30
0.0
 11
168.0924899999999
 21
-87.125614
 31
0.0
 70
    32
 71
     5
 42
-1.0
  3
STANDARD
100
AcDbAlignedDimension
 13
202.0924899999999
 23
-65.5
 33
0.0
 14
134.09249
 24
-42.5
 34
0.0
100
AcDbRotatedDimension
  0
DIMENSION
  5
2B69
330
1E
100
AcDbEntity
  8
30
  6
Continuous
100
AcDbDimension
  2
*D11
 10
115.092612
 20
-99.80581
 30
0.0
 11
158.592551
 21
-96.80581
 31
0.0
 70
    32
 71
     5
 42
-1.0
  3
STANDARD
100
AcDbAlignedDimension
 13
202.0924899999999
 23
-90.125614
 33
0.0
 14
115.092612
 24
11.831055
 34
0.0
100
AcDbRotatedDimension
  0
DIMENSION
  5
2B6A
330
1E
100
AcDbEntity
  8
30
  6
Continuous
100
AcDbDimension
  2
*D12
 10
129.092551
 20
-90.125614
 30
0.0
 11
131.592551
 21
-87.125614
 31
0.0
 70
    32
 71
     5
 42
-1.0
  3
STANDARD
100
AcDbAlignedDimension
 13
134.092551
 23
-32.0
 33
0.0
 14
129.092551
 24
-25.0
 34
0.0
100
AcDbRotatedDimension
1001
ACAD
1000
DSTYLE
1002
{
1070
   287
1070
     4
1070
   287
1070
     4
1070
   287
1070
     4
1070
   287
1070
     4
1070
   287
1070
     4
1070
   287
1070
     4
1070
   287
1070
     4
1070
   287
1070
     4
1070
   287
1070
     4
1070
   287
1070
     4
1070
   287
1070
     4
1070
   287
1070
     4
1070
   287
1070
     4
1070
   287
1070
     4
1070
   287
1070
     4
1070
   287
1070
     4
1070
   287
1070
     4
1070
   287
1070
     4
1070
   287
1070
     4
1070
   287
1070
     4
1070
   287
1070
     4
1070
   287
1070
     4
1070
   287
1070
     4
1070
   287
1070
     4
1070
   287
1070
     4
1070
   287
1070
     4
1070
   287
1070
     4
1070
   172
1070
     1
1070
   174
1070
     1
1070
    41
1040
1.5
1070
   279
1070
     1
1002
}
  0
DIMENSION
  5
2B6C
330
1E
100
AcDbEntity
  8
30
  6
Continuous
100
AcDbDimension
  2
*D13
 10
202.0924899999999
 20
-79.190217
 30
0.0
 11
169.092521
 21
-76.19021700000001
 31
0.0
 70
    32
 71
     5
 42
-1.0
  3
STANDARD
100
AcDbAlignedDimension
 13
136.092551
 23
-51.0
 33
0.0
 14
202.0924899999999
 24
-65.5
 34
0.0
100
AcDbRotatedDimension
  0
DIMENSION
  5
2B6D
330
1E
100
AcDbEntity
  8
30
  6
Continuous
100
AcDbDimension
  2
*D14
 10
202.0924899999999
 20
-72.03315
 30
0.0
 11
215.09249
 21
-72.03315
 31
0.0
 70
   160
 71
     5
 42
-1.0
  3
STANDARD
100
AcDbAlignedDimension
 13
208.59249
 23
-57.020752
 33
0.0
 14
202.0924899999999
 24
-56.5
 34
0.0
100
AcDbRotatedDimension
1001
ACAD
1000
DSTYLE
1002
{
1070
    41
1040
1.5
1002
}
  0
LWPOLYLINE
  5
2C38
330
1E
100
AcDbEntity
  8
18
  6
DIVIDE
 48
2.0
100
AcDbPolyline
 90
        2
 70
     0
 43
0.001
 10
37.5
 20
-185.0
 10
37.5
 20
-315.0
  0
LWPOLYLINE
  5
2C39
330
1E
100
AcDbEntity
  8
18
  6
DIVIDE
 48
2.0
100
AcDbPolyline
 90
        2
 70
     0
 43
0.001
 10
-37.5
 20
-315.0
 10
-37.5
 20
-185.0
  0
LWPOLYLINE
  5
2C3B
330
1E
100
AcDbEntity
  8
18
  6
DIVIDE
 48
2.0
100
AcDbPolyline
 90
        2
 70
     0
 43
0.001
 10
-37.5
 20
-315.0
 10
37.5
 20
-315.0
  0
LWPOLYLINE
  5
2C42
330
1E
100
AcDbEntity
  8
18
  6
DIVIDE
 48
2.0
100
AcDbPolyline
 90
        2
 70
     0
 43
0.001
 10
-37.5
 20
-185.0
 10
37.5
 20
-185.0
  0
DIMENSION
  5
2C47
330
1E
100
AcDbEntity
  8
30
  6
Continuous
100
AcDbDimension
  2
*D15
 10
-50.014959
 20
-305.5
 30
0.0
 11
-50.014959
 21
-249.833189
 31
0.0
 70
   160
 71
     5
 42
-1.0
  3
STANDARD
100
AcDbAlignedDimension
 13
-16.093736
 23
-194.5
 33
0.0
 14
8.906264
 24
-305.5
 34
0.0
 50
90.0
100
AcDbRotatedDimension
  0
LWPOLYLINE
  5
2D1C
330
1E
100
AcDbEntity
  8
18
  6
DIVIDE
 48
2.0
100
AcDbPolyline
 90
        2
 70
     0
 43
0.001
 10
197.5
 20
-315.0
 10
197.5
 20
-185.0
  0
LWPOLYLINE
  5
2D1E
330
1E
100
AcDbEntity
  8
18
  6
DIVIDE
 48
2.0
100
AcDbPolyline
 90
        2
 70
     0
 43
0.001
 10
122.499878
 20
-315.0
 10
122.499878
 20
-185.0
  0
DIMENSION
  5
2D20
330
1E
100
AcDbEntity
  8
30
  6
Continuous
100
AcDbDimension
  2
*D16
 10
172.0
 20
-331.0
 30
0.0
 11
158.231579
 21
-331.0
 31
0.0
 70
   160
 71
     5
 42
-1.0
  3
STANDARD
100
AcDbAlignedDimension
 13
148.0
 23
-280.853581
 33
0.0
 14
172.0
 24
-281.383373
 34
0.0
 50
180.0
100
AcDbRotatedDimension
  0
DIMENSION
  5
2D21
330
1E
100
AcDbEntity
  8
30
  6
Continuous
100
AcDbDimension
  2
*D17
 10
149.0
 20
-275.0
 30
0.0
 11
130.2951389999999
 21
-288.837001
 31
0.0
 70
   164
  1
R 1
 71
     5
 42
-1.0
  3
STANDARD
100
AcDbRadialDimension
 15
148.292847
 25
-275.7070919999999
 35
0.0
 40
0.0
  0
LWPOLYLINE
  5
2D22
330
1E
100
AcDbEntity
  8
18
  6
DIVIDE
 48
2.0
100
AcDbPolyline
 90
        2
 70
     0
 43
0.001
 10
122.499878
 20
-315.0
 10
197.5
 20
-315.0
  0
DIMENSION
  5
2D25
330
1E
100
AcDbEntity
  8
30
  6
Continuous
100
AcDbDimension
  2
*D18
 10
93.37370699999999
 20
-276.0
 30
0.0
 11
93.37370699999999
 21
-251.7837839999999
 31
0.0
 70
   160
 71
     5
 42
-1.0
  3
STANDARD
100
AcDbAlignedDimension
 13
142.153601
 23
-224.0
 33
0.0
 14
139.7740949999999
 24
-276.0
 34
0.0
 50
90.0
100
AcDbRotatedDimension
  0
LWPOLYLINE
  5
2D26
330
1E
100
AcDbEntity
  8
11
  6
CONTINOUS
100
AcDbPolyline
 90
        2
 70
     0
 43
0.001
 10
172.0
 20
-225.0
 10
172.0
 20
-275.0
  0
LWPOLYLINE
  5
2D27
330
1E
100
AcDbEntity
  8
11
  6
CONTINOUS
100
AcDbPolyline
 90
        2
 70
     0
 43
0.001
 10
148.0
 20
-225.0
 10
148.0
 20
-275.0
  0
LWPOLYLINE
  5
2D28
330
1E
100
AcDbEntity
  8
11
  6
CONTINOUS
100
AcDbPolyline
 90
        2
 70
     0
 43
0.001
 10
171.0
 20
-276.0
 10
149.0
 20
-276.0
  0
LWPOLYLINE
  5
2D29
330
1E
100
AcDbEntity
  8
11
  6
CONTINOUS
100
AcDbPolyline
 90
        2
 70
     0
 43
0.001
 10
148.0
 20
-275.0
 42
0.4142140000000001
 10
149.0
 20
-276.0
 42
0.4142140000000001
  0
LWPOLYLINE
  5
2D2A
330
1E
100
AcDbEntity
  8
11
  6
CONTINOUS
100
AcDbPolyline
 90
        2
 70
     0
 43
0.001
 10
171.0
 20
-276.0
 42
0.4142140000000001
 10
172.0
 20
-275.0
 42
0.4142140000000001
  0
LWPOLYLINE
  5
2D2B
330
1E
100
AcDbEntity
  8
11
  6
CONTINOUS
100
AcDbPolyline
 90
        2
 70
     0
 43
0.001
 10
171.0
 20
-224.0
 10
149.0
 20
-224.0
  0
LWPOLYLINE
  5
2D2C
330
1E
100
AcDbEntity
  8
11
  6
CONTINOUS
100
AcDbPolyline
 90
        2
 70
     0
 43
0.001
 10
149.0
 20
-224.0
 42
0.4142140000000001
 10
148.0
 20
-225.0
 42
0.4142140000000001
  0
LWPOLYLINE
  5
2D2D
330
1E
100
AcDbEntity
  8
11
  6
CONTINOUS
100
AcDbPolyline
 90
        2
 70
     0
 43
0.001
 10
172.0
 20
-225.0
 42
0.414213
 10
171.0
 20
-224.0
 42
0.414213
  0
LWPOLYLINE
  5
2D2F
330
1E
100
AcDbEntity
  8
18
  6
DIVIDE
 48
2.0
100
AcDbPolyline
 90
        2
 70
     0
 43
0.001
 10
122.499878
 20
-185.0
 10
197.5
 20
-185.0
  0
LINE
  5
3136
330
1E
100
AcDbEntity
  8
10
  6
CONTINOUS
100
AcDbLine
 10
-37.5
 20
65.0
 30
0.0
 11
37.5
 21
65.0
 31
0.0
  0
LINE
  5
3139
330
1E
100
AcDbEntity
  8
10
  6
CONTINOUS
100
AcDbLine
 10
-37.5
 20
-65.0
 30
0.0
 11
37.5
 21
-65.0
 31
0.0
  0
LINE
  5
313A
330
1E
100
AcDbEntity
  8
10
  6
CONTINOUS
100
AcDbLine
 10
-37.5
 20
32.0
 30
0.0
 11
37.5
 21
32.0
 31
0.0
  0
LINE
  5
313B
330
1E
100
AcDbEntity
  8
10
  6
CONTINOUS
100
AcDbLine
 10
-37.5
 20
-32.0
 30
0.0
 11
37.5
 21
-32.0
 31
0.0
  0
LINE
  5
313D
330
1E
100
AcDbEntity
  8
10
  6
CONTINOUS
100
AcDbLine
 10
-37.5
 20
-65.0
 30
0.0
 11
-37.5
 21
65.0
 31
0.0
  0
CIRCLE
  5
313E
330
1E
100
AcDbEntity
  8
24
  6
CONTINOUS
100
AcDbCircle
 10
-25.0
 20
-55.0
 30
0.0
 40
5.4
  0
CIRCLE
  5
313F
330
1E
100
AcDbEntity
  8
24
  6
CONTINOUS
100
AcDbCircle
 10
25.0
 20
55.0
 30
0.0
 40
5.4
210
0.0
220
0.0
230
-1.0
  0
LINE
  5
3140
330
1E
100
AcDbEntity
  8
17
  6
CONTINOUS
100
AcDbLine
 10
-25.0
 20
45.0
 30
0.0
 11
-25.0
 21
70.0
 31
0.0
  0
LINE
  5
3143
330
1E
100
AcDbEntity
  8
10
  6
CONTINOUS
100
AcDbLine
 10
37.5
 20
-65.0
 30
0.0
 11
37.5
 21
65.0
 31
0.0
  0
LINE
  5
3144
330
1E
100
AcDbEntity
  8
10
  6
CONTINOUS
100
AcDbLine
 10
-11.0
 20
25.0
 30
0.0
 11
-11.0
 21
-25.0
 31
0.0
  0
LINE
  5
3145
330
1E
100
AcDbEntity
  8
10
  6
CONTINOUS
100
AcDbLine
 10
11.0
 20
25.0
 30
0.0
 11
11.0
 21
-25.0
 31
0.0
  0
LINE
  5
3146
330
1E
100
AcDbEntity
  8
10
  6
CONTINOUS
100
AcDbLine
 10
6.25
 20
-15.5
 30
0.0
 11
6.25
 21
-23.0
 31
0.0
  0
LINE
  5
3147
330
1E
100
AcDbEntity
  8
10
  6
CONTINOUS
100
AcDbLine
 10
-6.25
 20
-15.5
 30
0.0
 11
-6.25
 21
-23.0
 31
0.0
  0
CIRCLE
  5
3148
330
1E
100
AcDbEntity
  8
24
  6
CONTINOUS
100
AcDbCircle
 10
25.0
 20
-55.0
 30
0.0
 40
5.4
  0
CIRCLE
  5
314A
330
1E
100
AcDbEntity
  8
24
  6
CONTINOUS
100
AcDbCircle
 10
0.0
 20
-55.0
 30
0.0
 40
5.4
  0
LINE
  5
314C
330
1E
100
AcDbEntity
  8
10
  6
CONTINOUS
100
AcDbLine
 10
11.0
 20
-25.0
 30
0.0
 11
-11.0
 21
-25.0
 31
0.0
  0
LINE
  5
314D
330
1E
100
AcDbEntity
  8
10
  6
CONTINOUS
100
AcDbLine
 10
6.25
 20
-23.0
 30
0.0
 11
-6.25
 21
-23.0
 31
0.0
  0
LINE
  5
3150
330
1E
100
AcDbEntity
  8
10
  6
CONTINOUS
100
AcDbLine
 10
11.0
 20
25.0
 30
0.0
 11
-11.0
 21
25.0
 31
0.0
  0
LINE
  5
3151
330
1E
100
AcDbEntity
  8
10
  6
CONTINOUS
100
AcDbLine
 10
-6.25
 20
24.0
 30
0.0
 11
-6.25
 21
-11.399903
 31
0.0
  0
LINE
  5
3152
330
1E
100
AcDbEntity
  8
10
  6
CONTINOUS
100
AcDbLine
 10
6.25
 20
24.0
 30
0.0
 11
-6.25
 21
24.0
 31
0.0
  0
LINE
  5
3153
330
1E
100
AcDbEntity
  8
10
  6
CONTINOUS
100
AcDbLine
 10
6.25
 20
24.0
 30
0.0
 11
6.25
 21
-11.399903
 31
0.0
  0
LINE
  5
3154
330
1E
100
AcDbEntity
  8
10
  6
CONTINOUS
100
AcDbLine
 10
6.25
 20
-11.399903
 30
0.0
 11
-6.25
 21
-11.399903
 31
0.0
  0
LINE
  5
3155
330
1E
100
AcDbEntity
  8
10
  6
CONTINOUS
100
AcDbLine
 10
6.25
 20
19.5
 30
0.0
 11
-6.25
 21
19.5
 31
0.0
  0
LINE
  5
3156
330
1E
100
AcDbEntity
  8
10
  6
CONTINOUS
100
AcDbLine
 10
6.25
 20
-15.5
 30
0.0
 11
-6.25
 21
-15.5
 31
0.0
  0
CIRCLE
  5
3157
330
1E
100
AcDbEntity
  8
24
  6
CONTINOUS
100
AcDbCircle
 10
-25.0
 20
55.0
 30
0.0
 40
5.4
210
0.0
220
0.0
230
-1.0
  0
CIRCLE
  5
315A
330
1E
100
AcDbEntity
  8
24
  6
CONTINOUS
100
AcDbCircle
 10
0.0
 20
55.0
 30
0.0
 40
5.4
210
0.0
220
0.0
230
-1.0
  0
LINE
  5
3249
330
1E
100
AcDbEntity
  8
17
  6
CONTINOUS
100
AcDbLine
 10
0.0
 20
45.0
 30
0.0
 11
0.0
 21
70.0
 31
0.0
  0
LINE
  5
32BF
330
1E
100
AcDbEntity
  8
10
  6
CONTINOUS
100
AcDbLine
 10
202.0924899999999
 20
-65.0
 30
0.0
 11
141.092551
 21
-65.0
 31
0.0
  0
LINE
  5
32C0
330
1E
100
AcDbEntity
  8
10
  6
CONTINOUS
100
AcDbLine
 10
202.0924899999999
 20
65.0
 30
0.0
 11
141.092551
 21
65.0
 31
0.0
  0
LINE
  5
32C1
330
1E
100
AcDbEntity
  8
12
  6
DASHED
100
AcDbLine
 10
197.3925389999999
 20
-52.979248
 30
0.0
 11
146.092551
 21
-52.979248
 31
0.0
  0
LINE
  5
32C2
330
1E
100
AcDbEntity
  8
12
  6
DASHED
100
AcDbLine
 10
146.092551
 20
-57.020752
 30
0.0
 11
197.3925389999999
 21
-57.020752
 31
0.0
  0
LINE
  5
32C3
330
1E
100
AcDbEntity
  8
12
  6
DASHED
100
AcDbLine
 10
215.2670509999999
 20
-55.0
 30
0.0
 11
135.8883889999999
 21
-55.0
 31
0.0
  0
LINE
  5
32C4
330
1E
100
AcDbEntity
  8
17
  6
DASHDOT
100
AcDbLine
 10
201.4925149999999
 20
55.0
 30
0.0
 11
173.0924899999999
 21
55.0
 31
0.0
  0
LINE
  5
32C6
330
1E
100
AcDbEntity
  8
10
  6
CONTINOUS
100
AcDbLine
 10
136.092551
 20
51.0
 30
0.0
 11
136.092551
 21
32.0
 31
0.0
  0
LINE
  5
32C7
330
1E
100
AcDbEntity
  8
10
  6
CONTINOUS
100
AcDbLine
 10
129.092551
 20
25.0
 30
0.0
 11
129.092551
 21
-25.0
 31
0.0
  0
LINE
  5
32C8
330
1E
100
AcDbEntity
  8
10
  6
CONTINOUS
100
AcDbLine
 10
134.092551
 20
25.0
 30
0.0
 11
134.092551
 21
-25.0
 31
0.0
  0
LINE
  5
32C9
330
1E
100
AcDbEntity
  8
10
  6
CONTINOUS
100
AcDbLine
 10
134.092551
 20
-25.0
 30
0.0
 11
134.092551
 21
-32.0
 31
0.0
  0
LINE
  5
32CA
330
1E
100
AcDbEntity
  8
10
  6
CONTINOUS
100
AcDbLine
 10
136.092551
 20
-32.0
 30
0.0
 11
136.092551
 21
-51.0
 31
0.0
  0
LINE
  5
32CB
330
1E
100
AcDbEntity
  8
10
  6
CONTINOUS
100
AcDbLine
 10
141.092551
 20
-51.0
 30
0.0
 11
141.092551
 21
-65.0
 31
0.0
  0
LINE
  5
32CC
330
1E
100
AcDbEntity
  8
12
  6
DASHED
100
AcDbLine
 10
146.092551
 20
-58.800049
 30
0.0
 11
141.092551
 21
-58.800049
 31
0.0
  0
LINE
  5
32CD
330
1E
100
AcDbEntity
  8
12
  6
DASHED
100
AcDbLine
 10
141.092551
 20
-51.199952
 30
0.0
 11
146.092551
 21
-51.199952
 31
0.0
  0
LINE
  5
32CE
330
1E
100
AcDbEntity
  8
12
  6
DASHED
100
AcDbLine
 10
146.092551
 20
-58.800049
 30
0.0
 11
146.092551
 21
-51.199952
 31
0.0
  0
LINE
  5
32CF
330
1E
100
AcDbEntity
  8
10
  6
CONTINOUS
100
AcDbLine
 10
134.092551
 20
-25.0
 30
0.0
 11
129.092551
 21
-25.0
 31
0.0
  0
LINE
  5
32D0
330
1E
100
AcDbEntity
  8
10
  6
CONTINOUS
100
AcDbLine
 10
136.092551
 20
-32.0
 30
0.0
 11
134.092551
 21
-32.0
 31
0.0
  0
LINE
  5
32D1
330
1E
100
AcDbEntity
  8
10
  6
CONTINOUS
100
AcDbLine
 10
141.092551
 20
-51.0
 30
0.0
 11
136.092551
 21
-51.0
 31
0.0
  0
LINE
  5
32D2
330
1E
100
AcDbEntity
  8
10
  6
CONTINOUS
100
AcDbLine
 10
134.092551
 20
32.0
 30
0.0
 11
134.092551
 21
25.0
 31
0.0
  0
LINE
  5
32D4
330
1E
100
AcDbEntity
  8
10
  6
CONTINOUS
100
AcDbLine
 10
118.365439
 20
18.805664
 30
0.0
 11
129.092551
 21
15.863037
 31
0.0
  0
LINE
  5
32D5
330
1E
100
AcDbEntity
  8
10
  6
CONTINOUS
100
AcDbLine
 10
116.5561129999999
 20
12.88745099999999
 30
0.0
 11
129.092551
 21
8.654052
 31
0.0
  0
LINE
  5
32D6
330
1E
100
AcDbEntity
  8
10
  6
CONTINOUS
100
AcDbLine
 10
118.365439
 20
18.805664
 30
0.0
 11
116.5561129999999
 21
12.88745099999999
 31
0.0
  0
LINE
  5
32D7
330
1E
100
AcDbEntity
  8
10
  6
CONTINOUS
100
AcDbLine
 10
134.092551
 20
25.0
 30
0.0
 11
129.092551
 21
25.0
 31
0.0
  0
LINE
  5
32D8
330
1E
100
AcDbEntity
  8
10
  6
CONTINOUS
100
AcDbLine
 10
136.092551
 20
32.0
 30
0.0
 11
134.092551
 21
32.0
 31
0.0
  0
LINE
  5
32D9
330
1E
100
AcDbEntity
  8
10
  6
CONTINOUS
100
AcDbLine
 10
141.092551
 20
65.0
 30
0.0
 11
141.092551
 21
51.0
 31
0.0
  0
LINE
  5
32DA
330
1E
100
AcDbEntity
  8
10
  6
CONTINOUS
100
AcDbLine
 10
141.092551
 20
51.0
 30
0.0
 11
136.092551
 21
51.0
 31
0.0
  0
LINE
  5
32DB
330
1E
100
AcDbEntity
  8
24
  6
CONTINOUS
100
AcDbLine
 10
178.09249
 20
63.0
 30
0.0
 11
178.09249
 21
47.0
 31
0.0
  0
LINE
  5
32DC
330
1E
100
AcDbEntity
  8
24
  6
CONTINOUS
100
AcDbLine
 10
180.392539
 20
63.0
 30
0.0
 11
180.392539
 21
47.0
 31
0.0
  0
LINE
  5
32DD
330
1E
100
AcDbEntity
  8
24
  6
CONTINOUS
100
AcDbLine
 10
178.09249
 20
52.69067299999999
 30
0.0
 11
174.0924899999999
 21
52.69067299999999
 31
0.0
  0
LINE
  5
32DE
330
1E
100
AcDbEntity
  8
24
  6
CONTINOUS
100
AcDbLine
 10
178.09249
 20
57.309326
 30
0.0
 11
174.0924899999999
 21
57.309326
 31
0.0
  0
LINE
  5
32DF
330
1E
100
AcDbEntity
  8
24
  6
CONTINOUS
100
AcDbLine
 10
174.0924899999999
 20
59.618896
 30
0.0
 11
174.0924899999999
 21
50.381103
 31
0.0
  0
LINE
  5
32E0
330
1E
100
AcDbEntity
  8
24
  6
CONTINOUS
100
AcDbLine
 10
178.09249
 20
50.381103
 30
0.0
 11
174.0924899999999
 21
50.381103
 31
0.0
  0
LINE
  5
32E1
330
1E
100
AcDbEntity
  8
24
  6
CONTINOUS
100
AcDbLine
 10
178.09249
 20
59.618896
 30
0.0
 11
174.0924899999999
 21
59.618896
 31
0.0
  0
LINE
  5
32E2
330
1E
100
AcDbEntity
  8
10
  6
CONTINOUS
100
AcDbLine
 10
202.0924899999999
 20
65.0
 30
0.0
 11
202.0924899999999
 21
-65.0
 31
0.0
  0
LINE
  5
32E3
330
1E
100
AcDbEntity
  8
12
  6
DASHED
100
AcDbLine
 10
197.3925389999999
 20
-57.020752
 30
0.0
 11
208.59249
 21
-57.020752
 31
0.0
  0
LINE
  5
32E4
330
1E
100
AcDbEntity
  8
12
  6
DASHED
100
AcDbLine
 10
197.3925389999999
 20
-50.95849699999999
 30
0.0
 11
197.3925389999999
 21
-59.041504
 31
0.0
  0
LINE
  5
32E5
330
1E
100
AcDbEntity
  8
12
  6
DASHED
100
AcDbLine
 10
197.3925389999999
 20
-59.041504
 30
0.0
 11
202.0924899999999
 21
-59.041504
 31
0.0
  0
LINE
  5
32E6
330
1E
100
AcDbEntity
  8
12
  6
DASHED
100
AcDbLine
 10
197.3925389999999
 20
-50.95849699999999
 30
0.0
 11
202.0924899999999
 21
-50.95849699999999
 31
0.0
  0
LINE
  5
32E7
330
1E
100
AcDbEntity
  8
12
  6
DASHED
100
AcDbLine
 10
208.59249
 20
-52.979248
 30
0.0
 11
208.59249
 21
-57.020752
 31
0.0
  0
LINE
  5
32E8
330
1E
100
AcDbEntity
  8
12
  6
DASHED
100
AcDbLine
 10
208.59249
 20
-52.979248
 30
0.0
 11
197.3925389999999
 21
-52.979248
 31
0.0
  0
DIMENSION
  5
3321
330
1E
100
AcDbEntity
  8
30
  6
Continuous
100
AcDbDimension
  2
*D19
 10
202.0924899999999
 20
-72.03315
 30
0.0
 11
174.092521
 21
-69.03315
 31
0.0
 70
    32
 71
     5
 42
-1.0
  3
STANDARD
100
AcDbAlignedDimension
 13
146.092551
 23
-58.800049
 33
0.0
 14
202.0924899999999
 24
-66.5
 34
0.0
100
AcDbRotatedDimension
  0
CIRCLE
  5
33CD
330
1E
100
AcDbEntity
  8
24
  6
Continuous
100
AcDbCircle
 10
126.0660649999999
 20
144.633295
 30
0.0
 40
4.5
  0
LINE
  5
33CE
330
1E
100
AcDbEntity
  8
17
  6
DASHDOT
100
AcDbLine
 10
126.0660649999999
 20
157.2678169999999
 30
0.0
 11
126.0660649999999
 21
132.19726
 31
0.0
  0
LINE
  5
33CF
330
1E
100
AcDbEntity
  8
24
  6
Continuous
100
AcDbLine
 10
133.5660649999999
 20
166.633295
 30
0.0
 11
133.5660649999999
 21
136.633295
 31
0.0
  0
LINE
  5
33D0
330
1E
100
AcDbEntity
  8
24
  6
Continuous
100
AcDbLine
 10
118.5660649999999
 20
166.633295
 30
0.0
 11
118.5660649999999
 21
136.633295
 31
0.0
  0
LINE
  5
33D5
330
1E
100
AcDbEntity
  8
24
  6
Continuous
100
AcDbLine
 10
118.5660649999999
 20
136.633295
 30
0.0
 11
133.5660649999999
 21
136.633295
 31
0.0
  0
LINE
  5
33D6
330
1E
100
AcDbEntity
  8
24
  6
Continuous
100
AcDbLine
 10
133.5660649999999
 20
166.633295
 30
0.0
 11
118.5660649999999
 21
166.633295
 31
0.0
  0
TEXT
  5
3462
330
1E
100
AcDbEntity
  8
19
  6
Continuous
100
AcDbText
 10
113.0560699999999
 20
177.2010689999999
 30
0.0
 40
4.0
  1
ON SIDE
  7
STANDARD1
100
AcDbText
  0
TEXT
  5
34AE
330
1E
100
AcDbEntity
  8
30
  6
Continuous
100
AcDbText
 10
170.213601
 20
172.166783
 30
0.0
 40
4.0
  1
C4.5
 50
314.4151339279541
 41
0.7875494476249357
 72
     5
 11
176.8276179999999
 21
165.4163389999999
 31
0.0
100
AcDbText
 73
     2
  0
CIRCLE
  5
34B8
330
1E
100
AcDbEntity
  8
24
  6
Continuous
100
AcDbCircle
 10
182.286831
 20
153.9754369999999
 30
0.0
 40
4.5
  0
LINE
  5
34B9
330
1E
100
AcDbEntity
  8
24
  6
Continuous
100
AcDbLine
 10
189.7868309999999
 20
157.4754369999999
 30
0.0
 11
185.786831
 21
161.975437
 31
0.0
  0
LINE
  5
34BA
330
1E
100
AcDbEntity
  8
24
  6
Continuous
100
AcDbLine
 10
189.7868309999999
 20
131.975437
 30
0.0
 11
174.786831
 21
131.975437
 31
0.0
  0
LINE
  5
34BB
330
1E
100
AcDbEntity
  8
24
  6
Continuous
100
AcDbLine
 10
189.7868309999999
 20
131.975437
 30
0.0
 11
189.7868309999999
 21
157.4754369999999
 31
0.0
  0
LINE
  5
34BC
330
1E
100
AcDbEntity
  8
24
  6
Continuous
100
AcDbLine
 10
174.786831
 20
131.975437
 30
0.0
 11
174.786831
 21
157.4754369999999
 31
0.0
  0
LINE
  5
34BD
330
1E
100
AcDbEntity
  8
24
  6
Continuous
100
AcDbLine
 10
178.786831
 20
161.975437
 30
0.0
 11
185.786831
 21
161.975437
 31
0.0
  0
LINE
  5
34BE
330
1E
100
AcDbEntity
  8
24
  6
Continuous
100
AcDbLine
 10
174.786831
 20
157.4754369999999
 30
0.0
 11
178.786831
 21
161.975437
 31
0.0
  0
LEADER
  5
34FF
330
1E
100
AcDbEntity
  8
30
  6
Continuous
100
AcDbLeader
  3
STANDARD
 76
     3
 10
184.036831
 20
152.975437
 30
0.0
 10
193.536831
 20
132.975437
 30
0.0
 10
205.5368309999999
 20
132.975437
 30
0.0
1001
ACAD
1000
DSTYLE
1002
{
1070
     5
1000
OPEN
1070
   342
1005
3B2
1002
}
  0
DIMENSION
  5
3500
330
1E
100
AcDbEntity
  8
30
  6
Continuous
100
AcDbDimension
  2
*D20
 10
211.0099759999999
 20
161.975437
 30
0.0
 11
199.884896
 21
158.1758289999999
 31
0.0
 70
   160
  1
max8
 71
     5
 42
-1.0
  3
STANDARD
100
AcDbAlignedDimension
 13
190.7868309999999
 23
153.9754369999999
 33
0.0
 14
191.786831
 24
161.975437
 34
0.0
 50
90.0
100
AcDbRotatedDimension
1001
ACAD
1000
DSTYLE
1002
{
1070
   287
1070
     5
1070
   287
1070
     5
1070
   287
1070
     5
1070
   287
1070
     5
1070
   287
1070
     5
1070
   287
1070
     5
1070
   287
1070
     5
1070
   287
1070
     5
1070
   287
1070
     5
1070
   287
1070
     5
1070
   287
1070
     5
1070
   287
1070
     5
1070
   287
1070
     5
1070
   287
1070
     5
1070
   279
1070
     2
1002
}
  0
TEXT
  5
3501
330
1E
100
AcDbEntity
  8
30
  6
Continuous
100
AcDbText
 10
195.780535
 20
134.5315019999999
 30
0.0
 40
4.0
  1
%%C9
100
AcDbText
  0
LINE
  5
3502
330
1E
100
AcDbEntity
  8
17
  6
DASHDOT
100
AcDbLine
 10
182.286831
 20
166.6099589999999
 30
0.0
 11
182.286831
 21
141.5394019999999
 31
0.0
  0
LINE
  5
3503
330
1E
100
AcDbEntity
  8
17
  6
DASHDOT
100
AcDbLine
 10
173.786831
 20
153.9754369999999
 30
0.0
 11
190.7868309999999
 21
153.9754369999999
 31
0.0
  0
LEADER
  5
3522
330
1E
100
AcDbEntity
  8
30
  6
Continuous
100
AcDbLeader
  3
STANDARD
 76
     2
 10
176.633754
 20
159.5532249999999
 30
0.0
 10
162.8651219999999
 20
175.02036
 30
0.0
1001
ACAD
1000
DSTYLE
1002
{
1070
     5
1000
OPEN
1070
   279
1070
     2
1070
   342
1005
3B2
1002
}
  0
TEXT
  5
352C
330
1E
100
AcDbEntity
  8
19
  6
Continuous
100
AcDbText
 10
171.027421
 20
178.42403
 30
0.0
 40
4.0
  1
OFF SIDE
  7
STANDARD1
100
AcDbText
  0
LINE
  5
354A
330
1E
100
AcDbEntity
  8
17
  6
Continuous
 62
     2
100
AcDbLine
 10
-33.98875
 20
55.0
 30
0.0
 11
32.470983
 21
55.0
 31
0.0
  0
LINE
  5
354B
330
1E
100
AcDbEntity
  8
17
  6
Continuous
 62
     2
100
AcDbLine
 10
-33.98875
 20
-55.0
 30
0.0
 11
32.470983
 21
-55.0
 31
0.0
  0
LINE
  5
354C
330
1E
100
AcDbEntity
  8
17
  6
CONTINOUS
100
AcDbLine
 10
25.0
 20
45.0
 30
0.0
 11
25.0
 21
70.0
 31
0.0
  0
LINE
  5
354D
330
1E
100
AcDbEntity
  8
17
  6
CONTINOUS
100
AcDbLine
 10
25.0
 20
-65.0
 30
0.0
 11
25.0
 21
-40.0
 31
0.0
  0
LINE
  5
354E
330
1E
100
AcDbEntity
  8
17
  6
CONTINOUS
100
AcDbLine
 10
-25.0
 20
-65.5
 30
0.0
 11
-25.0
 21
-40.49999999999999
 31
0.0
  0
LINE
  5
354F
330
1E
100
AcDbEntity
  8
17
  6
CONTINOUS
100
AcDbLine
 10
0.0
 20
-65.0
 30
0.0
 11
0.0
 21
-40.0
 31
0.0
  0
DIMENSION
  5
3613
330
1E
100
AcDbEntity
  8
30
  6
Continuous
100
AcDbDimension
  2
*D21
 10
141.092551
 20
-72.03315
 30
0.0
 11
143.592551
 21
-69.03315
 31
0.0
 70
    32
 71
     5
 42
-1.0
  3
STANDARD
100
AcDbAlignedDimension
 13
146.092551
 23
-58.800049
 33
0.0
 14
141.092551
 24
-58.800049
 34
0.0
100
AcDbRotatedDimension
1001
ACAD
1000
DSTYLE
1002
{
1070
   172
1070
     1
1070
    41
1040
1.5
1002
}
  0
DIMENSION
  5
36D9
330
1E
100
AcDbEntity
  8
30
  6
Continuous
100
AcDbDimension
  2
*D22
 10
189.7868309999999
 20
125.3252669999999
 30
0.0
 11
164.8646719999999
 21
125.3252669999999
 31
0.0
 70
   160
  1
max\P15
 71
     5
 42
-1.0
  3
STANDARD
100
AcDbAlignedDimension
 13
174.786831
 23
131.975437
 33
0.0
 14
189.7868309999999
 24
131.975437
 34
0.0
100
AcDbRotatedDimension
  0
TEXT
  5
3821
330
1E
100
AcDbEntity
  8
19
  6
Continuous
100
AcDbText
 10
120.458032
 20
209.828831
 30
0.0
 40
5.0
  1
(60-100A)
  7
STANDARD1
100
AcDbText
  0
DIMENSION
  5
38EA
330
1E
100
AcDbEntity
  8
30
  6
Continuous
100
AcDbDimension
  2
*D23
 10
-45.992598
 20
-32.0
 30
0.0
 11
-48.992598
 21
0.0
 31
0.0
 70
    32
 71
     5
 42
-1.0
  3
STANDARD
100
AcDbAlignedDimension
 13
-37.5
 23
32.0
 33
0.0
 14
-37.5
 24
-32.0
 34
0.0
 50
90.0
100
AcDbRotatedDimension
  0
TEXT
  5
3A66
330
1E
100
AcDbEntity
  8
19
  6
Continuous
100
AcDbText
 10
120.458032
 20
236.711049
 30
0.0
 40
5.0
  1
XE100NS 3P FC
  7
STANDARD1
100
AcDbText
  0
TEXT
  5
3A67
330
1E
100
AcDbEntity
  8
19
  6
Continuous
100
AcDbText
 10
120.0133669999999
 20
228.0306689999999
 30
0.0
 40
5.0
  1
(60-100A)
  7
STANDARD1
100
AcDbText
  0
TEXT
  5
3B7B
330
1E
100
AcDbEntity
  8
19
  6
Continuous
100
AcDbText
 10
120.902697
 20
201.8080239999999
 30
0.0
 40
5.0
  1
XM100CS 3P FC
  7
STANDARD1
100
AcDbText
  0
VIEWPORT
  5
9AC
330
1A
100
AcDbEntity
 67
     1
  8
0
  6
Continuous
100
AcDbViewport
 10
171.999535
 20
144.1384739999999
 30
0.0
 40
488.867686
 41
292.351491
 68
    -1
 69
     1
 12
171.999535
 22
144.1384739999999
 13
0.0
 23
0.0
 14
10.0
 24
10.0
 15
10.0
 25
10.0
 16
0.0
 26
0.0
 36
1.0
 17
0.0
 27
0.0
 37
0.0
 42
50.0
 43
0.0
 44
0.0
 45
292.351491
 50
0.0
 51
0.0
 72
   100
 90
    32800
  1

281
     0
 71
     1
 74
     0
110
0.0
120
0.0
130
0.0
111
1.0
121
0.0
131
0.0
112
0.0
122
1.0
132
0.0
 79
     0
146
0.0
  0
ENDSEC
  0
SECTION
  2
OBJECTS
  0
DICTIONARY
  5
C
330
0
100
AcDbDictionary
281
     1
  3
ACAD_GROUP
350
D
  3
ACAD_LAYOUT
350
19
  3
ACAD_MLINESTYLE
350
16
  3
ACAD_PLOTSETTINGS
350
18
  3
ACAD_PLOTSTYLENAME
350
E
  0
DICTIONARY
  5
178
330
1E
100
AcDbDictionary
280
     1
281
     1
  3
ACAD_LAYOUTSELFREF
360
3C15
  0
DICTIONARY
  5
17A
330
1A
100
AcDbDictionary
280
     1
281
     1
  3
ACAD_LAYOUTSELFREF
360
3C14
  0
DICTIONARY
  5
D
102
{ACAD_REACTORS
330
C
102
}
330
C
100
AcDbDictionary
281
     1
  0
DICTIONARY
  5
19
102
{ACAD_REACTORS
330
C
102
}
330
C
100
AcDbDictionary
281
     1
  3
MODEL
350
21
  3
ﾚｲｱｳﾄ1
350
1D
  0
DICTIONARY
  5
16
102
{ACAD_REACTORS
330
C
102
}
330
C
100
AcDbDictionary
281
     1
  3
STANDARD
350
17
  0
DICTIONARY
  5
18
102
{ACAD_REACTORS
330
C
102
}
330
C
100
AcDbDictionary
281
     1
  0
ACDBDICTIONARYWDFLT
  5
E
102
{ACAD_REACTORS
330
C
102
}
330
C
100
AcDbDictionary
281
     1
  3
Normal
350
F
100
AcDbDictionaryWithDefault
340
F
  0
XRECORD
  5
3C15
102
{ACAD_REACTORS
330
178
102
}
330
178
100
AcDbXrecord
280
     1
340
1E
  0
XRECORD
  5
3C14
102
{ACAD_REACTORS
330
17A
102
}
330
17A
100
AcDbXrecord
280
     1
340
1A
  0
LAYOUT
  5
21
102
{ACAD_REACTORS
330
19
102
}
330
19
100
AcDbPlotSettings
  1

  2
EPSON LP-8300
  4
A4
  6
OLE1
 40
5.873749732971191
 41
5.873747825622558
 42
5.873748779296875
 43
5.873748779296875
 44
209.9733276367187
 45
297.0106506347656
 46
26.48
 47
0.0
 48
0.0
 49
0.0
140
0.0
141
0.0
142
1.0
143
2.00961671442482
 70
 11956
 72
     1
 73
     0
 74
     1
  7
KIKI.ctb
 75
     0
147
0.4976073262240028
148
67.73107381677561
149
331.5235209202467
100
AcDbLayout
  1
Model
 70
     1
 71
     0
 10
0.0
 20
0.0
 11
12.0
 21
9.0
 12
0.0
 22
0.0
 32
0.0
 14
0.0
 24
0.0
 34
0.0
 15
0.0
 25
0.0
 35
0.0
146
0.0
 13
0.0
 23
0.0
 33
0.0
 16
1.0
 26
0.0
 36
0.0
 17
0.0
 27
1.0
 37
0.0
 76
     0
330
1E
  0
LAYOUT
  5
1D
102
{ACAD_REACTORS
330
19
102
}
330
19
100
AcDbPlotSettings
  1

  2
EPSON LP-8300
  4
A4
  6

 40
5.873749732971191
 41
5.873747825622558
 42
5.873748779296875
 43
5.873748779296875
 44
297.0106506347656
 45
209.9733276367187
 46
0.0
 47
0.0
 48
0.0
 49
0.0
140
0.0
141
0.0
142
1.0
143
1.0
 70
   672
 72
     1
 73
     1
 74
     5
  7
MCCB.ctb
 75
     0
147
1.0
148
0.0
149
0.0
100
AcDbLayout
  1
ﾚｲｱｳﾄ1
 70
     1
 71
     1
 10
-5.873749
 20
-5.87375
 11
204.099579
 21
291.1369009999999
 12
0.0
 22
0.0
 32
0.0
 14
4.273573
 24
5.205245999999999
 34
0.0
 15
194.610095
 25
283.0697009999999
 35
0.0
146
0.0
 13
0.0
 23
0.0
 33
0.0
 16
1.0
 26
0.0
 36
0.0
 17
0.0
 27
1.0
 37
0.0
 76
     0
330
1A
331
9AC
  0
MLINESTYLE
  5
17
102
{ACAD_REACTORS
330
16
102
}
330
16
100
AcDbMlineStyle
  2
STANDARD
 70
     0
  3

 62
   256
 51
90.0
 52
90.0
 71
     2
 49
0.5
 62
   256
  6
BYLAYER
 49
-0.5
 62
   256
  6
BYLAYER
  0
ACDBPLACEHOLDER
  5
F
102
{ACAD_REACTORS
330
E
102
}
330
E
  0
ENDSEC
  0
EOF
