  0
SECTION
  2
HEADER
  9
$ACADVER
  1
AC1027
  9
$ACADMAINTVER
 70
    55
  9
$DWGCODEPAGE
  3
ANSI_932
  9
$LASTSAVEDBY
  1
marketing
  9
$REQUIREDVERSIONS
160
                 0
  9
$INSBASE
 10
0.0
 20
0.0
 30
0.0
  9
$EXTMIN
 10
-91.05049717436669
 20
-404.0864268808664
 30
-0.0015258207003583
  9
$EXTMAX
 10
438.2530556281958
 20
343.5046826906717
 30
0.0000000349246037
  9
$LIMMIN
 10
-296.316999476111
 20
-370.7034300441653
  9
$LIMMAX
 10
623.3128432133979
 20
328.6261559379898
  9
$ORTHOMODE
 70
     1
  9
$REGENMODE
 70
     1
  9
$FILLMODE
 70
     1
  9
$QTEXTMODE
 70
     0
  9
$MIRRTEXT
 70
     1
  9
$LTSCALE
 40
10.0
  9
$ATTMODE
 70
     1
  9
$TEXTSIZE
 40
5.0
  9
$TRACEWID
 40
0.05
  9
$TEXTSTYLE
  7
STANDARD1
  9
$CLAYER
  8
30
  9
$CELTYPE
  6
CONTINUOUS
  9
$CECOLOR
 62
   256
  9
$CELTSCALE
 40
1.0
  9
$DISPSILH
 70
     0
  9
$DIMSCALE
 40
1.0
  9
$DIMASZ
 40
2.0
  9
$DIMEXO
 40
1.0
  9
$DIMDLI
 40
0.5
  9
$DIMRND
 40
0.0
  9
$DIMDLE
 40
0.0
  9
$DIMEXE
 40
0.5
  9
$DIMTP
 40
0.0
  9
$DIMTM
 40
0.0
  9
$DIMTXT
 40
4.0
  9
$DIMCEN
 40
0.09
  9
$DIMTSZ
 40
0.0
  9
$DIMTOL
 70
     0
  9
$DIMLIM
 70
     0
  9
$DIMTIH
 70
     0
  9
$DIMTOH
 70
     1
  9
$DIMSE1
 70
     0
  9
$DIMSE2
 70
     0
  9
$DIMTAD
 70
     3
  9
$DIMZIN
 70
    12
  9
$DIMBLK
  1
OPEN
  9
$DIMASO
 70
     1
  9
$DIMSHO
 70
     1
  9
$DIMPOST
  1

  9
$DIMAPOST
  1

  9
$DIMALT
 70
     0
  9
$DIMALTD
 70
     2
  9
$DIMALTF
 40
25.4
  9
$DIMLFAC
 40
1.0
  9
$DIMTOFL
 70
     0
  9
$DIMTVP
 40
0.0
  9
$DIMTIX
 70
     0
  9
$DIMSOXD
 70
     0
  9
$DIMSAH
 70
     0
  9
$DIMBLK1
  1

  9
$DIMBLK2
  1

  9
$DIMSTYLE
  2
STANDARD
  9
$DIMCLRD
 70
     0
  9
$DIMCLRE
 70
     0
  9
$DIMCLRT
 70
     0
  9
$DIMTFAC
 40
1.0
  9
$DIMGAP
 40
1.0
  9
$DIMJUST
 70
     0
  9
$DIMSD1
 70
     0
  9
$DIMSD2
 70
     0
  9
$DIMTOLJ
 70
     1
  9
$DIMTZIN
 70
     0
  9
$DIMALTZ
 70
     0
  9
$DIMALTTZ
 70
     0
  9
$DIMUPT
 70
     0
  9
$DIMDEC
 70
     1
  9
$DIMTDEC
 70
     1
  9
$DIMALTU
 70
     2
  9
$DIMALTTD
 70
     2
  9
$DIMTXSTY
  7
STANDARD
  9
$DIMAUNIT
 70
     0
  9
$DIMADEC
 70
     0
  9
$DIMALTRND
 40
0.0
  9
$DIMAZIN
 70
     3
  9
$DIMDSEP
 70
    46
  9
$DIMATFIT
 70
     3
  9
$DIMFRAC
 70
     0
  9
$DIMLDRBLK
  1
OPEN
  9
$DIMLUNIT
 70
     2
  9
$DIMLWD
 70
    -2
  9
$DIMLWE
 70
    -2
  9
$DIMTMOVE
 70
     0
  9
$DIMFXL
 40
1.0
  9
$DIMFXLON
 70
     0
  9
$DIMJOGANG
 40
0.7853981633974483
  9
$DIMTFILL
 70
     0
  9
$DIMTFILLCLR
 70
     0
  9
$DIMARCSYM
 70
     0
  9
$DIMLTYPE
  6

  9
$DIMLTEX1
  6

  9
$DIMLTEX2
  6

  9
$DIMTXTDIRECTION
 70
     0
  9
$LUNITS
 70
     2
  9
$LUPREC
 70
     3
  9
$SKETCHINC
 40
0.1
  9
$FILLETRAD
 40
0.0
  9
$AUNITS
 70
     0
  9
$AUPREC
 70
     0
  9
$MENU
  1
.
  9
$ELEVATION
 40
0.0
  9
$PELEVATION
 40
0.0
  9
$THICKNESS
 40
0.0
  9
$LIMCHECK
 70
     0
  9
$CHAMFERA
 40
0.0
  9
$CHAMFERB
 40
0.0
  9
$CHAMFERC
 40
0.0
  9
$CHAMFERD
 40
0.0
  9
$SKPOLY
 70
     0
  9
$TDCREATE
 40
2452286.555658658
  9
$TDUCREATE
 40
2452286.180658658
  9
$TDUPDATE
 40
2459278.609409294
  9
$TDUUPDATE
 40
2459278.234409294
  9
$TDINDWG
 40
1.3321273148
  9
$TDUSRTIMER
 40
1.3321260880
  9
$USRTIMER
 70
     1
  9
$ANGBASE
 50
0.0
  9
$ANGDIR
 70
     0
  9
$PDMODE
 70
     0
  9
$PDSIZE
 40
0.0
  9
$PLINEWID
 40
0.0
  9
$SPLFRAME
 70
     0
  9
$SPLINETYPE
 70
     6
  9
$SPLINESEGS
 70
     8
  9
$HANDSEED
  5
5FC8
  9
$SURFTAB1
 70
     6
  9
$SURFTAB2
 70
     6
  9
$SURFTYPE
 70
     6
  9
$SURFU
 70
     6
  9
$SURFV
 70
     6
  9
$UCSBASE
  2

  9
$UCSNAME
  2

  9
$UCSORG
 10
0.0
 20
0.0
 30
0.0
  9
$UCSXDIR
 10
1.0
 20
0.0
 30
0.0
  9
$UCSYDIR
 10
0.0
 20
1.0
 30
0.0
  9
$UCSORTHOREF
  2

  9
$UCSORTHOVIEW
 70
     0
  9
$UCSORGTOP
 10
0.0
 20
0.0
 30
0.0
  9
$UCSORGBOTTOM
 10
0.0
 20
0.0
 30
0.0
  9
$UCSORGLEFT
 10
0.0
 20
0.0
 30
0.0
  9
$UCSORGRIGHT
 10
0.0
 20
0.0
 30
0.0
  9
$UCSORGFRONT
 10
0.0
 20
0.0
 30
0.0
  9
$UCSORGBACK
 10
0.0
 20
0.0
 30
0.0
  9
$PUCSBASE
  2

  9
$PUCSNAME
  2

  9
$PUCSORG
 10
0.0
 20
0.0
 30
0.0
  9
$PUCSXDIR
 10
1.0
 20
0.0
 30
0.0
  9
$PUCSYDIR
 10
0.0
 20
1.0
 30
0.0
  9
$PUCSORTHOREF
  2

  9
$PUCSORTHOVIEW
 70
     0
  9
$PUCSORGTOP
 10
0.0
 20
0.0
 30
0.0
  9
$PUCSORGBOTTOM
 10
0.0
 20
0.0
 30
0.0
  9
$PUCSORGLEFT
 10
0.0
 20
0.0
 30
0.0
  9
$PUCSORGRIGHT
 10
0.0
 20
0.0
 30
0.0
  9
$PUCSORGFRONT
 10
0.0
 20
0.0
 30
0.0
  9
$PUCSORGBACK
 10
0.0
 20
0.0
 30
0.0
  9
$USERI1
 70
     0
  9
$USERI2
 70
     0
  9
$USERI3
 70
     0
  9
$USERI4
 70
     0
  9
$USERI5
 70
     0
  9
$USERR1
 40
0.0
  9
$USERR2
 40
0.0
  9
$USERR3
 40
0.0
  9
$USERR4
 40
0.0
  9
$USERR5
 40
0.0
  9
$WORLDVIEW
 70
     1
  9
$SHADEDGE
 70
     3
  9
$SHADEDIF
 70
    70
  9
$TILEMODE
 70
     1
  9
$MAXACTVP
 70
    48
  9
$PINSBASE
 10
0.0
 20
0.0
 30
0.0
  9
$PLIMCHECK
 70
     0
  9
$PEXTMIN
 10
4.273573
 20
5.205245999999998
 30
0.0
  9
$PEXTMAX
 10
194.610095
 20
283.0697009999996
 30
0.0
  9
$PLIMMIN
 10
-5.873749
 20
-5.87375
  9
$PLIMMAX
 10
204.099579
 20
291.1369009999999
  9
$UNITMODE
 70
     0
  9
$VISRETAIN
 70
     1
  9
$PLINEGEN
 70
     0
  9
$PSLTSCALE
 70
     1
  9
$TREEDEPTH
 70
  3020
  9
$CMLSTYLE
  2
STANDARD
  9
$CMLJUST
 70
     0
  9
$CMLSCALE
 40
1.0
  9
$PROXYGRAPHICS
 70
     1
  9
$MEASUREMENT
 70
     0
  9
$CELWEIGHT
370
    -1
  9
$ENDCAPS
280
     0
  9
$JOINSTYLE
280
     0
  9
$LWDISPLAY
290
     0
  9
$INSUNITS
 70
     0
  9
$HYPERLINKBASE
  1

  9
$STYLESHEET
  1
KIKI.CTB
  9
$XEDIT
290
     1
  9
$CEPSNTYPE
380
     0
  9
$PSTYLEMODE
290
     1
  9
$FINGERPRINTGUID
  2

  9
$VERSIONGUID
  2
{57AC83B1-CB09-48C1-B92D-8B7F90D38E35}
  9
$EXTNAMES
290
     1
  9
$PSVPSCALE
 40
0.0
  9
$OLESTARTUP
290
     0
  9
$SORTENTS
280
   127
  9
$INDEXCTL
280
     0
  9
$HIDETEXT
280
     0
  9
$XCLIPFRAME
280
     2
  9
$HALOGAP
280
     0
  9
$OBSCOLOR
 70
   257
  9
$OBSLTYPE
280
     0
  9
$INTERSECTIONDISPLAY
280
     0
  9
$INTERSECTIONCOLOR
 70
   257
  9
$DIMASSOC
280
     1
  9
$PROJECTNAME
  1

  9
$CAMERADISPLAY
290
     0
  9
$LENSLENGTH
 40
50.0
  9
$CAMERAHEIGHT
 40
0.0
  9
$STEPSPERSEC
 40
2.0
  9
$STEPSIZE
 40
6.0
  9
$3DDWFPREC
 40
2.0
  9
$PSOLWIDTH
 40
0.25
  9
$PSOLHEIGHT
 40
4.0
  9
$LOFTANG1
 40
1.570796326794896
  9
$LOFTANG2
 40
1.570796326794896
  9
$LOFTMAG1
 40
0.0
  9
$LOFTMAG2
 40
0.0
  9
$LOFTPARAM
 70
     7
  9
$LOFTNORMALS
280
     1
  9
$LATITUDE
 40
37.795
  9
$LONGITUDE
 40
-122.394
  9
$NORTHDIRECTION
 40
0.0
  9
$TIMEZONE
 70
 -8000
  9
$LIGHTGLYPHDISPLAY
280
     1
  9
$TILEMODELIGHTSYNCH
280
     1
  9
$CMATERIAL
347
5B24
  9
$SOLIDHIST
280
     0
  9
$SHOWHIST
280
     1
  9
$DWFFRAME
280
     2
  9
$DGNFRAME
280
     0
  9
$REALWORLDSCALE
290
     1
  9
$INTERFERECOLOR
 62
     1
  9
$INTERFEREOBJVS
345
5B46
  9
$INTERFEREVPVS
346
5B43
  9
$CSHADOW
280
     0
  9
$SHADOWPLANELOCATION
 40
0.0
  0
ENDSEC
  0
SECTION
  2
CLASSES
  0
CLASS
  1
ACDBDICTIONARYWDFLT
  2
AcDbDictionaryWithDefault
  3
ObjectDBX Classes
 90
        0
 91
        1
280
     0
281
     0
  0
CLASS
  1
DICTIONARYVAR
  2
AcDbDictionaryVar
  3
ObjectDBX Classes
 90
        0
 91
       13
280
     0
281
     0
  0
CLASS
  1
MATERIAL
  2
AcDbMaterial
  3
ObjectDBX Classes
 90
     1153
 91
        3
280
     0
281
     0
  0
CLASS
  1
VISUALSTYLE
  2
AcDbVisualStyle
  3
ObjectDBX Classes
 90
     4095
 91
       24
280
     0
281
     0
  0
CLASS
  1
TABLESTYLE
  2
AcDbTableStyle
  3
ObjectDBX Classes
 90
     4095
 91
        1
280
     0
281
     0
  0
CLASS
  1
SCALE
  2
AcDbScale
  3
ObjectDBX Classes
 90
     1153
 91
       17
280
     0
281
     0
  0
CLASS
  1
MLEADERSTYLE
  2
AcDbMLeaderStyle
  3
ACDB_MLEADERSTYLE_CLASS
 90
     4095
 91
        1
280
     0
281
     0
  0
CLASS
  1
ACDBSECTIONVIEWSTYLE
  2
AcDbSectionViewStyle
  3
ObjectDBX Classes
 90
     1025
 91
        1
280
     0
281
     0
  0
CLASS
  1
ACDBDETAILVIEWSTYLE
  2
AcDbDetailViewStyle
  3
ObjectDBX Classes
 90
     1025
 91
        1
280
     0
281
     0
  0
CLASS
  1
CELLSTYLEMAP
  2
AcDbCellStyleMap
  3
ObjectDBX Classes
 90
     1152
 91
        2
280
     0
281
     0
  0
ENDSEC
  0
SECTION
  2
TABLES
  0
TABLE
  2
VPORT
  5
8
330
0
100
AcDbSymbolTable
 70
     1
  0
VPORT
  5
5AFB
330
8
100
AcDbSymbolTableRecord
100
AcDbViewportTableRecord
  2
*Active
 70
     0
 10
0.0
 20
0.0
 11
1.0
 21
1.0
 12
173.6012792269146
 22
-30.29087209509737
 13
0.0
 23
0.0
 14
1.0
 24
1.0
 15
10.0
 25
10.0
 16
0.0
 26
0.0
 36
1.0
 17
0.0
 27
0.0
 37
0.0
 40
752.995382652778
 41
2.289505428226779
 42
50.0
 43
0.0
 44
0.0
 50
0.0
 51
0.0
 71
     0
 72
   100
 73
     1
 74
     1
 75
     0
 76
     0
 77
     0
 78
     0
281
     0
 65
     1
110
0.0
120
0.0
130
0.0
111
1.0
121
0.0
131
0.0
112
0.0
122
1.0
132
0.0
 79
     0
146
0.0
348
5B42
 60
     3
 61
     5
292
     1
282
     1
141
0.0
142
0.0
 63
   250
421
  3355443
1001
ACAD_NAV_VCDISPLAY
1070
     3
  0
ENDTAB
  0
TABLE
  2
LTYPE
  5
5
330
0
100
AcDbSymbolTable
 70
     7
  0
LTYPE
  5
13
330
5
100
AcDbSymbolTableRecord
100
AcDbLinetypeTableRecord
  2
BYBLOCK
 70
     0
  3

 72
    65
 73
     0
 40
0.0
  0
LTYPE
  5
14
330
5
100
AcDbSymbolTableRecord
100
AcDbLinetypeTableRecord
  2
BYLAYER
 70
     0
  3

 72
    65
 73
     0
 40
0.0
  0
LTYPE
  5
15
330
5
100
AcDbSymbolTableRecord
100
AcDbLinetypeTableRecord
  2
CONTINUOUS
 70
     0
  3
Solid line
 72
    65
 73
     0
 40
0.0
  0
LTYPE
  5
22
330
5
100
AcDbSymbolTableRecord
100
AcDbLinetypeTableRecord
  2
CONTINOUS
 70
     0
  3
Solid line
 72
    65
 73
     0
 40
0.0
  0
LTYPE
  5
23
330
5
100
AcDbSymbolTableRecord
100
AcDbLinetypeTableRecord
  2
DASHED
 70
     0
  3
__ __ __ __ __ __ __ __ __ __ __ __ __ __ __
 72
    65
 73
     2
 40
0.75
 49
0.5
 74
     0
 49
-0.25
 74
     0
  0
LTYPE
  5
24
330
5
100
AcDbSymbolTableRecord
100
AcDbLinetypeTableRecord
  2
DASHDOT
 70
     0
  3
__ . __ . __ . __ . __ . __ . __ . __ . __ . __
 72
    65
 73
     4
 40
1.0
 49
0.5
 74
     0
 49
-0.25
 74
     0
 49
0.0
 74
     0
 49
-0.25
 74
     0
  0
LTYPE
  5
4C47
330
5
100
AcDbSymbolTableRecord
100
AcDbLinetypeTableRecord
  2
DIVIDE
 70
     0
  3
Divide ____ . . ____ . . ____ . . ____ . . ____
 72
    65
 73
     6
 40
1.25
 49
0.5
 74
     0
 49
-0.25
 74
     0
 49
0.0
 74
     0
 49
-0.25
 74
     0
 49
0.0
 74
     0
 49
-0.25
 74
     0
  0
LTYPE
  5
5115
330
5
100
AcDbSymbolTableRecord
100
AcDbLinetypeTableRecord
  2
PHANTOM
 70
     0
  3
_____ _ _ _____ _ _ _____ _ _ _____ _ _ ____
 72
    65
 73
     6
 40
2.5
 49
1.25
 74
     0
 49
-0.25
 74
     0
 49
0.25
 74
     0
 49
-0.25
 74
     0
 49
0.25
 74
     0
 49
-0.25
 74
     0
  0
ENDTAB
  0
TABLE
  2
LAYER
  5
2
330
0
100
AcDbSymbolTable
 70
    13
  0
LAYER
  5
10
102
{ACAD_XDICTIONARY
360
5F50
102
}
330
2
100
AcDbSymbolTableRecord
100
AcDbLayerTableRecord
  2
0
 70
     0
 62
     7
  6
CONTINOUS
370
    -3
390
F
347
5B34
348
0
  0
LAYER
  5
2F
102
{ACAD_XDICTIONARY
360
5F52
102
}
330
2
100
AcDbSymbolTableRecord
100
AcDbLayerTableRecord
  2
10
 70
     0
 62
     4
  6
CONTINOUS
370
    -3
390
F
347
5B34
348
0
  0
LAYER
  5
31
102
{ACAD_XDICTIONARY
360
5F54
102
}
330
2
100
AcDbSymbolTableRecord
100
AcDbLayerTableRecord
  2
12
 70
     0
 62
     3
  6
CONTINOUS
370
    -3
390
F
347
5B34
348
0
  0
LAYER
  5
35
102
{ACAD_XDICTIONARY
360
5F56
102
}
330
2
100
AcDbSymbolTableRecord
100
AcDbLayerTableRecord
  2
16
 70
     0
 62
     6
  6
DASHDOT
370
    -3
390
F
347
5B34
348
0
  0
LAYER
  5
38
102
{ACAD_XDICTIONARY
360
5F58
102
}
330
2
100
AcDbSymbolTableRecord
100
AcDbLayerTableRecord
  2
19
 70
     0
 62
     7
  6
CONTINOUS
370
    -3
390
F
347
5B34
348
0
  0
LAYER
  5
3C
102
{ACAD_XDICTIONARY
360
5F5A
102
}
330
2
100
AcDbSymbolTableRecord
100
AcDbLayerTableRecord
  2
11
 70
     0
 62
     1
  6
CONTINOUS
370
    -3
390
F
347
5B34
348
0
  0
LAYER
  5
3D
102
{ACAD_XDICTIONARY
360
5F5C
102
}
330
2
100
AcDbSymbolTableRecord
100
AcDbLayerTableRecord
  2
24
 70
     0
 62
     2
  6
CONTINOUS
370
    -3
390
F
347
5B34
348
0
  0
LAYER
  5
3A2
102
{ACAD_XDICTIONARY
360
5F5E
102
}
330
2
100
AcDbSymbolTableRecord
100
AcDbLayerTableRecord
  2
30
 70
     0
 62
     9
  6
CONTINUOUS
370
    -3
390
F
347
5B34
348
0
  0
LAYER
  5
3A4
330
2
100
AcDbSymbolTableRecord
100
AcDbLayerTableRecord
  2
DEFPOINTS
 70
     0
 62
     7
  6
CONTINUOUS
290
     0
370
    -3
390
F
347
5B34
348
0
  0
LAYER
  5
3BBA
102
{ACAD_XDICTIONARY
360
5F60
102
}
330
2
100
AcDbSymbolTableRecord
100
AcDbLayerTableRecord
  2
18
 70
     0
 62
     5
  6
DIVIDE
370
    -3
390
F
347
5B34
348
0
  0
LAYER
  5
3BBB
102
{ACAD_XDICTIONARY
360
5F62
102
}
330
2
100
AcDbSymbolTableRecord
100
AcDbLayerTableRecord
  2
21
 70
     0
 62
     7
  6
CONTINUOUS
370
    -3
390
F
347
5B34
348
0
  0
LAYER
  5
5116
102
{ACAD_XDICTIONARY
360
5F64
102
}
330
2
100
AcDbSymbolTableRecord
100
AcDbLayerTableRecord
  2
1
 70
     0
 62
     7
  6
CONTINUOUS
370
    -3
390
F
347
5B34
348
0
  0
LAYER
  5
5117
102
{ACAD_XDICTIONARY
360
5F66
102
}
330
2
100
AcDbSymbolTableRecord
100
AcDbLayerTableRecord
  2
TOP
 70
     0
 62
     7
  6
CONTINUOUS
370
    -3
390
F
347
5B34
348
0
  0
ENDTAB
  0
TABLE
  2
STYLE
  5
3
330
0
100
AcDbSymbolTable
 70
     3
  0
STYLE
  5
11
330
3
100
AcDbSymbolTableRecord
100
AcDbTextStyleTableRecord
  2
STANDARD
 70
     0
 40
0.0
 41
1.0
 50
0.0
 71
     0
 42
2.0
  3
txt.shx
  4
bigfont.shx
  0
STYLE
  5
42
330
3
100
AcDbSymbolTableRecord
100
AcDbTextStyleTableRecord
  2
STANDARD1
 70
     0
 40
0.0
 41
1.0
 50
0.0
 71
     0
 42
5.0
  3
MONOTXT
  4
BIGFONT
  0
STYLE
  5
5016
330
3
100
AcDbSymbolTableRecord
100
AcDbTextStyleTableRecord
  2
UGMTXT
 70
     0
 40
0.0
 41
1.0
 50
0.0
 71
     0
 42
0.2
  3
ugmtxt
  4
bigfont
  0
ENDTAB
  0
TABLE
  2
VIEW
  5
6
330
0
100
AcDbSymbolTable
 70
     3
  0
VIEW
  5
230C
330
6
100
AcDbSymbolTableRecord
100
AcDbViewTableRecord
  2
OLE1
 70
     0
 40
148.912488
 10
429.497628
 20
2.560627
 41
103.145806
 11
0.0
 21
0.0
 31
1.0
 12
0.0
 22
0.0
 32
0.0
 42
50.0
 43
0.0
 44
0.0
 50
0.0
 71
     0
281
     0
 72
     0
 73
     0
348
5B42
  0
VIEW
  5
230E
330
6
100
AcDbSymbolTableRecord
100
AcDbViewTableRecord
  2
OLE2
 70
     0
 40
170.778692
 10
322.66497
 20
-5.978304
 41
102.467215
 11
0.0
 21
0.0
 31
1.0
 12
0.0
 22
0.0
 32
0.0
 42
50.0
 43
0.0
 44
0.0
 50
0.0
 71
     0
281
     0
 72
     0
 73
     0
348
5B42
  0
VIEW
  5
23AA
330
6
100
AcDbSymbolTableRecord
100
AcDbViewTableRecord
  2
OLE3
 70
     0
 40
591.7897389999998
 10
84.79698199999999
 20
-46.09335999999998
 41
388.792096
 11
0.0
 21
0.0
 31
1.0
 12
0.0
 22
0.0
 32
0.0
 42
50.0
 43
0.0
 44
0.0
 50
0.0
 71
     0
281
     0
 72
     0
 73
     0
348
5B42
  0
ENDTAB
  0
TABLE
  2
UCS
  5
7
330
0
100
AcDbSymbolTable
 70
     0
  0
ENDTAB
  0
TABLE
  2
APPID
  5
9
330
0
100
AcDbSymbolTable
 70
     5
  0
APPID
  5
12
330
9
100
AcDbSymbolTableRecord
100
AcDbRegAppTableRecord
  2
ACAD
 70
     0
  0
APPID
  5
ECD
330
9
100
AcDbSymbolTableRecord
100
AcDbRegAppTableRecord
  2
CONTENTBLOCKICON
 70
     0
  0
APPID
  5
5B73
330
9
100
AcDbSymbolTableRecord
100
AcDbRegAppTableRecord
  2
ACAD_EXEMPT_FROM_CAD_STANDARDS
 70
     0
  0
APPID
  5
5BFE
330
9
100
AcDbSymbolTableRecord
100
AcDbRegAppTableRecord
  2
ACAD_NAV_VCDISPLAY
 70
     0
  0
APPID
  5
5FB0
330
9
100
AcDbSymbolTableRecord
100
AcDbRegAppTableRecord
  2
ACAD_MLEADERVER
 70
     0
  0
ENDTAB
  0
TABLE
  2
DIMSTYLE
  5
A
330
0
100
AcDbSymbolTable
 70
     1
100
AcDbDimStyleTable
 71
     1
340
175
  0
DIMSTYLE
105
175
102
{ACAD_REACTORS
330
53E3
330
53E2
330
54D8
330
5A7D
330
5A91
330
5CCE
330
5CD2
330
5C8C
330
5C98
330
5C99
330
5C9B
330
5C9F
330
5CAB
330
5CAC
330
5CBA
330
5F0B
330
5F0C
330
5F0D
102
}
330
A
100
AcDbSymbolTableRecord
100
AcDbDimStyleTableRecord
  2
STANDARD
 70
     0
 41
2.0
 42
1.0
 43
0.5
 44
0.5
 73
     0
 77
     3
 78
    12
140
4.0
147
1.0
271
     1
272
     1
340
11
341
3B2
342
3B2
  0
ENDTAB
  0
TABLE
  2
BLOCK_RECORD
  5
1
330
0
100
AcDbSymbolTable
 70
    49
  0
BLOCK_RECORD
  5
1E
102
{ACAD_XDICTIONARY
360
178
102
}
330
1
100
AcDbSymbolTableRecord
100
AcDbBlockTableRecord
  2
*MODEL_SPACE
340
5AED
 70
     0
280
     1
281
     0
  0
BLOCK_RECORD
  5
1A
102
{ACAD_XDICTIONARY
360
17A
102
}
330
1
100
AcDbSymbolTableRecord
100
AcDbBlockTableRecord
  2
*PAPER_SPACE
340
5AEE
 70
     0
280
     1
281
     0
  0
BLOCK_RECORD
  5
3B2
330
1
100
AcDbSymbolTableRecord
100
AcDbBlockTableRecord
  2
_OPEN
340
0
102
{BLKREFS
331
5DD0
331
5DD8
331
5DD9
331
5DE1
331
5DE2
331
5DEF
331
5DF0
331
5DFB
331
5DFC
331
5E07
331
5E08
331
5F38
331
5F39
331
5F41
331
5F42
331
5F4A
331
5F4B
331
5A77
331
5883
331
5884
331
5B89
331
5B8A
331
5B95
331
5B96
331
5BA1
331
5BA2
331
5BAD
331
5BAE
331
5BB9
331
5BBA
331
5BC5
331
5BC6
331
5D90
331
5D91
331
5D99
331
5D9A
331
5DA2
331
5DA3
331
5DAB
331
5DAC
331
5DB4
331
5DB5
331
5DBD
331
5DBE
331
5DC6
331
5DC7
331
5DCF
331
59A4
331
59A5
331
5ABC
331
5ABD
331
5AAA
331
5AAB
331
5834
331
5835
331
5A78
331
5BF8
331
5A6F
331
595A
331
595B
331
58BA
331
58BB
331
5A82
331
5A83
331
5AA1
331
5AA2
331
5963
331
5964
331
597E
331
597F
331
5987
331
5988
331
5951
331
5952
331
5990
331
5991
331
5975
331
5976
331
5999
331
599A
331
596C
331
596D
331
582B
331
582C
331
5BD1
331
5BD2
331
5BDD
331
5BDE
331
5BEB
331
5BEC
331
5BF7
102
}
 70
     0
280
     1
281
     0
  0
BLOCK_RECORD
  5
507D
330
1
100
AcDbSymbolTableRecord
100
AcDbBlockTableRecord
  2
*U1
340
0
 70
     0
280
     1
281
     0
  0
BLOCK_RECORD
  5
5209
330
1
100
AcDbSymbolTableRecord
100
AcDbBlockTableRecord
  2
*D2
340
0
 70
     0
280
     1
281
     0
  0
BLOCK_RECORD
  5
5221
330
1
100
AcDbSymbolTableRecord
100
AcDbBlockTableRecord
  2
*D3
340
0
 70
     0
280
     1
281
     0
  0
BLOCK_RECORD
  5
522D
330
1
100
AcDbSymbolTableRecord
100
AcDbBlockTableRecord
  2
*D4
340
0
 70
     0
280
     1
281
     0
  0
BLOCK_RECORD
  5
5239
330
1
100
AcDbSymbolTableRecord
100
AcDbBlockTableRecord
  2
*D5
340
0
 70
     0
280
     1
281
     0
  0
BLOCK_RECORD
  5
5245
330
1
100
AcDbSymbolTableRecord
100
AcDbBlockTableRecord
  2
*D6
340
0
 70
     0
280
     1
281
     0
  0
BLOCK_RECORD
  5
5251
330
1
100
AcDbSymbolTableRecord
100
AcDbBlockTableRecord
  2
*D7
340
0
 70
     0
280
     1
281
     0
  0
BLOCK_RECORD
  5
525D
330
1
100
AcDbSymbolTableRecord
100
AcDbBlockTableRecord
  2
*D8
340
0
 70
     0
280
     1
281
     0
  0
BLOCK_RECORD
  5
5269
330
1
100
AcDbSymbolTableRecord
100
AcDbBlockTableRecord
  2
*D9
340
0
 70
     0
280
     1
281
     0
  0
BLOCK_RECORD
  5
5275
330
1
100
AcDbSymbolTableRecord
100
AcDbBlockTableRecord
  2
*D10
340
0
 70
     0
280
     1
281
     0
  0
BLOCK_RECORD
  5
5407
330
1
100
AcDbSymbolTableRecord
100
AcDbBlockTableRecord
  2
*D11
340
0
 70
     0
280
     1
281
     0
  0
BLOCK_RECORD
  5
5413
330
1
100
AcDbSymbolTableRecord
100
AcDbBlockTableRecord
  2
*D12
340
0
 70
     0
280
     1
281
     0
  0
BLOCK_RECORD
  5
5432
330
1
100
AcDbSymbolTableRecord
100
AcDbBlockTableRecord
  2
*D13
340
0
 70
     0
280
     1
281
     0
  0
BLOCK_RECORD
  5
543F
330
1
100
AcDbSymbolTableRecord
100
AcDbBlockTableRecord
  2
*D14
340
0
 70
     0
280
     1
281
     0
  0
BLOCK_RECORD
  5
5477
330
1
100
AcDbSymbolTableRecord
100
AcDbBlockTableRecord
  2
*D15
340
0
 70
     0
280
     1
281
     0
  0
BLOCK_RECORD
  5
5484
330
1
100
AcDbSymbolTableRecord
100
AcDbBlockTableRecord
  2
*D16
340
0
 70
     0
280
     1
281
     0
  0
BLOCK_RECORD
  5
54D9
330
1
100
AcDbSymbolTableRecord
100
AcDbBlockTableRecord
  2
*D17
340
0
 70
     0
280
     1
281
     0
  0
BLOCK_RECORD
  5
55FF
330
1
100
AcDbSymbolTableRecord
100
AcDbBlockTableRecord
  2
*D18
340
0
 70
     0
280
     1
281
     0
  0
BLOCK_RECORD
  5
58B6
330
1
100
AcDbSymbolTableRecord
100
AcDbBlockTableRecord
  2
*D19
340
0
 70
     0
280
     1
281
     0
  0
BLOCK_RECORD
  5
5A7E
330
1
100
AcDbSymbolTableRecord
100
AcDbBlockTableRecord
  2
*D20
340
0
 70
     0
280
     1
281
     0
  0
BLOCK_RECORD
  5
5A92
330
1
100
AcDbSymbolTableRecord
100
AcDbBlockTableRecord
  2
*D21
340
0
 70
     0
280
     1
281
     0
  0
BLOCK_RECORD
  5
5B7C
330
1
100
AcDbSymbolTableRecord
100
AcDbBlockTableRecord
  2
*U22
340
0
102
{BLKREFS
331
5C9A
102
}
 70
     0
280
     1
281
     0
  0
BLOCK_RECORD
  5
5B84
330
1
100
AcDbSymbolTableRecord
100
AcDbBlockTableRecord
  2
*D23
340
0
 70
     0
280
     1
281
     0
  0
BLOCK_RECORD
  5
5B90
330
1
100
AcDbSymbolTableRecord
100
AcDbBlockTableRecord
  2
*D24
340
0
 70
     0
280
     1
281
     0
  0
BLOCK_RECORD
  5
5B9C
330
1
100
AcDbSymbolTableRecord
100
AcDbBlockTableRecord
  2
*D25
340
0
 70
     0
280
     1
281
     0
  0
BLOCK_RECORD
  5
5BA8
330
1
100
AcDbSymbolTableRecord
100
AcDbBlockTableRecord
  2
*D26
340
0
 70
     0
280
     1
281
     0
  0
BLOCK_RECORD
  5
5BB4
330
1
100
AcDbSymbolTableRecord
100
AcDbBlockTableRecord
  2
*D27
340
0
 70
     0
280
     1
281
     0
  0
BLOCK_RECORD
  5
5BC0
330
1
100
AcDbSymbolTableRecord
100
AcDbBlockTableRecord
  2
*D28
340
0
 70
     0
280
     1
281
     0
  0
BLOCK_RECORD
  5
5BCC
330
1
100
AcDbSymbolTableRecord
100
AcDbBlockTableRecord
  2
*D29
340
0
 70
     0
280
     1
281
     0
  0
BLOCK_RECORD
  5
5BD8
330
1
100
AcDbSymbolTableRecord
100
AcDbBlockTableRecord
  2
*D30
340
0
 70
     0
280
     1
281
     0
  0
BLOCK_RECORD
  5
5BE4
330
1
100
AcDbSymbolTableRecord
100
AcDbBlockTableRecord
  2
*D31
340
0
 70
     0
280
     1
281
     0
  0
BLOCK_RECORD
  5
5BF2
330
1
100
AcDbSymbolTableRecord
100
AcDbBlockTableRecord
  2
*D32
340
0
 70
     0
280
     1
281
     0
  0
BLOCK_RECORD
  5
5D11
330
1
100
AcDbSymbolTableRecord
100
AcDbBlockTableRecord
  2
*D33
340
0
 70
     0
280
     1
281
     0
  0
BLOCK_RECORD
  5
5D1F
330
1
100
AcDbSymbolTableRecord
100
AcDbBlockTableRecord
  2
*D34
340
0
 70
     0
280
     1
281
     0
  0
BLOCK_RECORD
  5
5D2B
330
1
100
AcDbSymbolTableRecord
100
AcDbBlockTableRecord
  2
*D35
340
0
 70
     0
280
     1
281
     0
  0
BLOCK_RECORD
  5
5D37
330
1
100
AcDbSymbolTableRecord
100
AcDbBlockTableRecord
  2
*D36
340
0
 70
     0
280
     1
281
     0
  0
BLOCK_RECORD
  5
5D43
330
1
100
AcDbSymbolTableRecord
100
AcDbBlockTableRecord
  2
*D37
340
0
 70
     0
280
     1
281
     0
  0
BLOCK_RECORD
  5
5D4F
330
1
100
AcDbSymbolTableRecord
100
AcDbBlockTableRecord
  2
*D38
340
0
 70
     0
280
     1
281
     0
  0
BLOCK_RECORD
  5
5D5B
330
1
100
AcDbSymbolTableRecord
100
AcDbBlockTableRecord
  2
*D39
340
0
 70
     0
280
     1
281
     0
  0
BLOCK_RECORD
  5
5D67
330
1
100
AcDbSymbolTableRecord
100
AcDbBlockTableRecord
  2
*D40
340
0
 70
     0
280
     1
281
     0
  0
BLOCK_RECORD
  5
5D73
330
1
100
AcDbSymbolTableRecord
100
AcDbBlockTableRecord
  2
*D41
340
0
 70
     0
280
     1
281
     0
  0
BLOCK_RECORD
  5
5D7F
330
1
100
AcDbSymbolTableRecord
100
AcDbBlockTableRecord
  2
*D42
340
0
 70
     0
280
     1
281
     0
  0
BLOCK_RECORD
  5
5DEA
330
1
100
AcDbSymbolTableRecord
100
AcDbBlockTableRecord
  2
*D43
340
0
 70
     0
280
     1
281
     0
  0
BLOCK_RECORD
  5
5DF6
330
1
100
AcDbSymbolTableRecord
100
AcDbBlockTableRecord
  2
*D44
340
0
 70
     0
280
     1
281
     0
  0
BLOCK_RECORD
  5
5E02
330
1
100
AcDbSymbolTableRecord
100
AcDbBlockTableRecord
  2
*D45
340
0
 70
     0
280
     1
281
     0
  0
BLOCK_RECORD
  5
5F11
330
1
100
AcDbSymbolTableRecord
100
AcDbBlockTableRecord
  2
*D46
340
0
 70
     0
280
     1
281
     0
  0
BLOCK_RECORD
  5
5F1D
330
1
100
AcDbSymbolTableRecord
100
AcDbBlockTableRecord
  2
*D47
340
0
 70
     0
280
     1
281
     0
  0
BLOCK_RECORD
  5
5F29
330
1
100
AcDbSymbolTableRecord
100
AcDbBlockTableRecord
  2
*D48
340
0
 70
     0
280
     1
281
     0
  0
ENDTAB
  0
ENDSEC
  0
SECTION
  2
BLOCKS
  0
BLOCK
  5
1F
330
1E
100
AcDbEntity
  8
0
100
AcDbBlockBegin
  2
*MODEL_SPACE
 70
     0
 10
0.0
 20
0.0
 30
0.0
  3
*MODEL_SPACE
  1

  0
ENDBLK
  5
20
330
1E
100
AcDbEntity
  8
0
100
AcDbBlockEnd
  0
BLOCK
  5
1B
330
1A
100
AcDbEntity
 67
     1
  8
0
100
AcDbBlockBegin
  2
*PAPER_SPACE
 70
     0
 10
0.0
 20
0.0
 30
0.0
  3
*PAPER_SPACE
  1

  0
ENDBLK
  5
1C
330
1A
100
AcDbEntity
 67
     1
  8
0
100
AcDbBlockEnd
  0
BLOCK
  5
3B6
330
3B2
100
AcDbEntity
  8
0
100
AcDbBlockBegin
  2
_OPEN
 70
     0
 10
0.0
 20
0.0
 30
0.0
  3
_OPEN
  1

  0
LINE
  5
3B3
330
3B2
100
AcDbEntity
  8
30
  6
Continuous
 62
     0
100
AcDbLine
 10
-1.0
 20
0.166667
 30
0.0
 11
0.0
 21
0.0
 31
0.0
  0
LINE
  5
3B4
330
3B2
100
AcDbEntity
  8
30
  6
Continuous
 62
     0
100
AcDbLine
 10
-1.0
 20
-0.166667
 30
0.0
 11
0.0
 21
0.0
 31
0.0
  0
LINE
  5
3B5
330
3B2
100
AcDbEntity
  8
30
  6
Continuous
 62
     0
100
AcDbLine
 10
0.0
 20
0.0
 30
0.0
 11
-1.0
 21
0.0
 31
0.0
  0
ENDBLK
  5
3B7
330
3B2
100
AcDbEntity
  8
0
100
AcDbBlockEnd
  0
BLOCK
  5
5083
330
507D
100
AcDbEntity
  8
TOP
  6
Continuous
 62
     4
100
AcDbBlockBegin
  2
*U1
 70
     1
 10
0.0
 20
0.0
 30
0.0
  3
*U1
  1

  0
LINE
  5
507E
330
507D
100
AcDbEntity
  8
1
  6
ByBlock
 62
     0
100
AcDbLine
 10
287.2057572385031
 20
73.79512687471603
 30
0.0
 11
276.2057572385031
 21
73.79512687471603
 31
0.0
  0
LINE
  5
507F
330
507D
100
AcDbEntity
  8
1
  6
ByBlock
 62
     0
100
AcDbLine
 10
296.8913158503363
 20
94.37207082491942
 30
0.0
 11
287.2057572385031
 21
73.79512687471603
 31
0.0
  0
SOLID
  5
5080
330
507D
100
AcDbEntity
  8
1
  6
ByBlock
 62
     0
100
AcDbTrace
 10
296.8913158503363
 20
94.37207082491942
 30
0.0
 11
296.3411501381206
 21
92.42055119794148
 31
0.0
 12
295.7379635408423
 22
92.7044708682264
 32
0.0
 13
295.7379635408423
 23
92.7044708682264
 33
0.0
  0
TEXT
  5
5081
330
507D
100
AcDbEntity
  8
TOP
  6
ByBlock
 62
     0
100
AcDbText
 10
274.4739864025374
 20
72.54512687281603
 30
0.0
 40
2.500000003799998
  1
 
 41
1.189062499999995
  7
UGMTXT
100
AcDbText
  0
TEXT
  5
5082
330
507D
100
AcDbEntity
  8
TOP
  6
ByBlock
 62
     0
100
AcDbText
 10
272.742215566572
 20
72.54512687281603
 30
0.0
 40
2.500000003799998
  1
 
 41
1.189062499999995
  7
UGMTXT
100
AcDbText
  0
ENDBLK
  5
5084
330
507D
100
AcDbEntity
  8
0
100
AcDbBlockEnd
  0
BLOCK
  5
5213
330
5209
100
AcDbEntity
  8
0
100
AcDbBlockBegin
  2
*D2
 70
     1
 10
0.0
 20
0.0
 30
0.0
  3
*D2
  1

  0
LINE
  5
5960
330
5209
100
AcDbEntity
  8
30
  6
Continuous
 62
     0
100
AcDbLine
 10
208.0001089354261
 20
-3.499987637474178
 30
0.0
 11
208.0001089354261
 21
-172.8996379392699
 31
0.0
  0
LINE
  5
5961
330
5209
100
AcDbEntity
  8
30
  6
Continuous
 62
     0
100
AcDbLine
 10
244.9999257258451
 20
-106.9994751293082
 30
0.0
 11
244.9999257258451
 21
-172.8996379392699
 31
0.0
  0
LINE
  5
5962
330
5209
100
AcDbEntity
  8
30
  6
Continuous
 62
     0
100
AcDbLine
 10
210.0001089354261
 20
-172.3996379392698
 30
0.0
 11
242.9999257258451
 21
-172.3996379392698
 31
0.0
  0
INSERT
  5
5963
330
5209
100
AcDbEntity
  8
30
  6
Continuous
 62
     0
100
AcDbBlockReference
  2
_OPEN
 10
208.0001089354261
 20
-172.3996379392698
 30
0.0
 41
2.0
 42
2.0
 43
2.0
 50
180.0
  0
INSERT
  5
5964
330
5209
100
AcDbEntity
  8
30
  6
Continuous
 62
     0
100
AcDbBlockReference
  2
_OPEN
 10
244.9999257258451
 20
-172.3996379392698
 30
0.0
 41
2.0
 42
2.0
 43
2.0
  0
MTEXT
  5
5965
330
5209
100
AcDbEntity
  8
30
  6
Continuous
 62
     0
100
AcDbMText
 10
226.5000173306356
 20
-169.39963793927
 30
0.0
 40
4.0
 41
0.0
 46
0.0
 71
     5
 72
     1
  1
\A1;37
 73
     1
 44
1.0
1001
ACAD
1000
MTEXTBEGIN
1070
    73
1070
     1
1070
    44
1040
1.0
1070
    74
1070
     0
1000
MTEXTEND
  0
POINT
  5
5966
330
5209
100
AcDbEntity
  8
DEFPOINTS
  6
Continuous
 62
     0
100
AcDbPoint
 10
208.0001089354261
 20
-2.499987637474178
 30
0.0
  0
POINT
  5
5967
330
5209
100
AcDbEntity
  8
DEFPOINTS
  6
Continuous
 62
     0
100
AcDbPoint
 10
244.9999257258451
 20
-105.9994751293082
 30
0.0
  0
POINT
  5
5968
330
5209
100
AcDbEntity
  8
DEFPOINTS
  6
Continuous
 62
     0
100
AcDbPoint
 10
244.9999257258451
 20
-172.3996379392698
 30
0.0
  0
ENDBLK
  5
5214
330
5209
100
AcDbEntity
  8
0
100
AcDbBlockEnd
  0
BLOCK
  5
522B
330
5221
100
AcDbEntity
  8
0
100
AcDbBlockBegin
  2
*D3
 70
     1
 10
0.0
 20
0.0
 30
0.0
  3
*D3
  1

  0
LINE
  5
597B
330
5221
100
AcDbEntity
  8
30
  6
Continuous
 62
     0
100
AcDbLine
 10
244.9999257258451
 20
-106.9994751293082
 30
0.0
 11
244.9999257258451
 21
-172.8996379392699
 31
0.0
  0
LINE
  5
597C
330
5221
100
AcDbEntity
  8
30
  6
Continuous
 62
     0
100
AcDbLine
 10
401.9991483230286
 20
-67.99966824211003
 30
0.0
 11
401.9991483230286
 21
-172.8996379392699
 31
0.0
  0
LINE
  5
597D
330
5221
100
AcDbEntity
  8
30
  6
Continuous
 62
     0
100
AcDbLine
 10
246.9999257258451
 20
-172.3996379392698
 30
0.0
 11
399.9991483230287
 21
-172.3996379392698
 31
0.0
  0
INSERT
  5
597E
330
5221
100
AcDbEntity
  8
30
  6
Continuous
 62
     0
100
AcDbBlockReference
  2
_OPEN
 10
244.9999257258451
 20
-172.3996379392698
 30
0.0
 41
2.0
 42
2.0
 43
2.0
 50
180.0
  0
INSERT
  5
597F
330
5221
100
AcDbEntity
  8
30
  6
Continuous
 62
     0
100
AcDbBlockReference
  2
_OPEN
 10
401.9991483230286
 20
-172.3996379392698
 30
0.0
 41
2.0
 42
2.0
 43
2.0
  0
MTEXT
  5
5980
330
5221
100
AcDbEntity
  8
30
  6
Continuous
 62
     0
100
AcDbMText
 10
323.4995370244368
 20
-169.39963793927
 30
0.0
 40
4.0
 41
0.0
 46
0.0
 71
     5
 72
     1
  1
\A1;157
 73
     1
 44
1.0
1001
ACAD
1000
MTEXTBEGIN
1070
    73
1070
     1
1070
    44
1040
1.0
1070
    74
1070
     0
1000
MTEXTEND
  0
POINT
  5
5981
330
5221
100
AcDbEntity
  8
DEFPOINTS
  6
Continuous
 62
     0
100
AcDbPoint
 10
244.9999257258451
 20
-105.9994751293082
 30
0.0
  0
POINT
  5
5982
330
5221
100
AcDbEntity
  8
DEFPOINTS
  6
Continuous
 62
     0
100
AcDbPoint
 10
401.9991483230286
 20
-66.99966824211003
 30
0.0
  0
POINT
  5
5983
330
5221
100
AcDbEntity
  8
DEFPOINTS
  6
Continuous
 62
     0
100
AcDbPoint
 10
401.9991483230286
 20
-172.3996379392698
 30
0.0
  0
ENDBLK
  5
522C
330
5221
100
AcDbEntity
  8
0
100
AcDbBlockEnd
  0
BLOCK
  5
5237
330
522D
100
AcDbEntity
  8
0
100
AcDbBlockBegin
  2
*D4
 70
     1
 10
0.0
 20
0.0
 30
0.0
  3
*D4
  1

  0
LINE
  5
5984
330
522D
100
AcDbEntity
  8
30
  6
Continuous
 62
     0
100
AcDbLine
 10
244.9999257258451
 20
-106.9994751293082
 30
0.0
 11
244.9999257258451
 21
-147.8997617295273
 31
0.0
  0
LINE
  5
5985
330
522D
100
AcDbEntity
  8
30
  6
Continuous
 62
     0
100
AcDbLine
 10
351.9993959035433
 20
-67.99966824211003
 30
0.0
 11
351.9993959035433
 21
-147.8997617295273
 31
0.0
  0
LINE
  5
5986
330
522D
100
AcDbEntity
  8
30
  6
Continuous
 62
     0
100
AcDbLine
 10
246.9999257258451
 20
-147.3997617295276
 30
0.0
 11
349.9993959035433
 21
-147.3997617295276
 31
0.0
  0
INSERT
  5
5987
330
522D
100
AcDbEntity
  8
30
  6
Continuous
 62
     0
100
AcDbBlockReference
  2
_OPEN
 10
244.9999257258451
 20
-147.3997617295276
 30
0.0
 41
2.0
 42
2.0
 43
2.0
 50
180.0
  0
INSERT
  5
5988
330
522D
100
AcDbEntity
  8
30
  6
Continuous
 62
     0
100
AcDbBlockReference
  2
_OPEN
 10
351.9993959035433
 20
-147.3997617295276
 30
0.0
 41
2.0
 42
2.0
 43
2.0
  0
MTEXT
  5
5989
330
522D
100
AcDbEntity
  8
30
  6
Continuous
 62
     0
100
AcDbMText
 10
298.4996608146941
 20
-144.3997617295273
 30
0.0
 40
4.0
 41
0.0
 46
0.0
 71
     5
 72
     1
  1
\A1;107
 73
     1
 44
1.0
1001
ACAD
1000
MTEXTBEGIN
1070
    73
1070
     1
1070
    44
1040
1.0
1070
    74
1070
     0
1000
MTEXTEND
  0
POINT
  5
598A
330
522D
100
AcDbEntity
  8
DEFPOINTS
  6
Continuous
 62
     0
100
AcDbPoint
 10
244.9999257258451
 20
-105.9994751293082
 30
0.0
  0
POINT
  5
598B
330
522D
100
AcDbEntity
  8
DEFPOINTS
  6
Continuous
 62
     0
100
AcDbPoint
 10
351.9993959035433
 20
-66.99966824211003
 30
0.0
  0
POINT
  5
598C
330
522D
100
AcDbEntity
  8
DEFPOINTS
  6
Continuous
 62
     0
100
AcDbPoint
 10
351.9993959035433
 20
-147.3997617295276
 30
0.0
  0
ENDBLK
  5
5238
330
522D
100
AcDbEntity
  8
0
100
AcDbBlockEnd
  0
BLOCK
  5
5243
330
5239
100
AcDbEntity
  8
0
100
AcDbBlockBegin
  2
*D5
 70
     1
 10
0.0
 20
0.0
 30
0.0
  3
*D5
  1

  0
LINE
  5
594E
330
5239
100
AcDbEntity
  8
30
  6
Continuous
 62
     0
100
AcDbLine
 10
321.9995444518525
 20
-58.99970288688222
 30
0.0
 11
321.9995444518525
 21
-34.40031878568621
 31
0.0
  0
LINE
  5
594F
330
5239
100
AcDbEntity
  8
30
  6
Continuous
 62
     0
100
AcDbLine
 10
336.9994701776982
 20
-63.49968060463591
 30
0.0
 11
336.9994701776982
 21
-34.40031878568621
 31
0.0
  0
LINE
  5
5950
330
5239
100
AcDbEntity
  8
30
  6
Continuous
 62
     0
100
AcDbLine
 10
323.9995444518525
 20
-34.90031878568621
 30
0.0
 11
334.9994701776981
 21
-34.90031878568621
 31
0.0
  0
INSERT
  5
5951
330
5239
100
AcDbEntity
  8
30
  6
Continuous
 62
     0
100
AcDbBlockReference
  2
_OPEN
 10
321.9995444518525
 20
-34.90031878568621
 30
0.0
 41
2.0
 42
2.0
 43
2.0
 50
180.0
  0
INSERT
  5
5952
330
5239
100
AcDbEntity
  8
30
  6
Continuous
 62
     0
100
AcDbBlockReference
  2
_OPEN
 10
336.9994701776982
 20
-34.90031878568621
 30
0.0
 41
2.0
 42
2.0
 43
2.0
  0
MTEXT
  5
5953
330
5239
100
AcDbEntity
  8
30
  6
Continuous
 62
     0
100
AcDbMText
 10
329.4995073147753
 20
-31.90031878568621
 30
0.0
 40
4.0
 41
0.0
 46
0.0
 71
     5
 72
     1
  1
\A1;15
 73
     1
 44
1.0
1001
ACAD
1000
MTEXTBEGIN
1070
    73
1070
     1
1070
    44
1040
1.0
1070
    74
1070
     0
1000
MTEXTEND
  0
POINT
  5
5954
330
5239
100
AcDbEntity
  8
DEFPOINTS
  6
Continuous
 62
     0
100
AcDbPoint
 10
321.9995444518525
 20
-59.99970288688222
 30
0.0
  0
POINT
  5
5955
330
5239
100
AcDbEntity
  8
DEFPOINTS
  6
Continuous
 62
     0
100
AcDbPoint
 10
336.9994701776982
 20
-64.49968060463591
 30
0.0
  0
POINT
  5
5956
330
5239
100
AcDbEntity
  8
DEFPOINTS
  6
Continuous
 62
     0
100
AcDbPoint
 10
336.9994701776982
 20
-34.90031878568621
 30
0.0
  0
ENDBLK
  5
5244
330
5239
100
AcDbEntity
  8
0
100
AcDbBlockEnd
  0
BLOCK
  5
524F
330
5245
100
AcDbEntity
  8
0
100
AcDbBlockBegin
  2
*D6
 70
     1
 10
0.0
 20
0.0
 30
0.0
  3
*D6
  1

  0
LINE
  5
598D
330
5245
100
AcDbEntity
  8
30
  6
Continuous
 62
     0
100
AcDbLine
 10
230.0
 20
-96.99952464541125
 30
0.0
 11
230.0
 21
-147.8997617295273
 31
0.0
  0
LINE
  5
598E
330
5245
100
AcDbEntity
  8
30
  6
Continuous
 62
     0
100
AcDbLine
 10
244.9999257258451
 20
-106.9994751293082
 30
0.0
 11
244.9999257258451
 21
-147.8997617295273
 31
0.0
  0
LINE
  5
598F
330
5245
100
AcDbEntity
  8
30
  6
Continuous
 62
     0
100
AcDbLine
 10
232.0
 20
-147.3997617295276
 30
0.0
 11
242.9999257258451
 21
-147.3997617295276
 31
0.0
  0
INSERT
  5
5990
330
5245
100
AcDbEntity
  8
30
  6
Continuous
 62
     0
100
AcDbBlockReference
  2
_OPEN
 10
230.0
 20
-147.3997617295276
 30
0.0
 41
2.0
 42
2.0
 43
2.0
 50
180.0
  0
INSERT
  5
5991
330
5245
100
AcDbEntity
  8
30
  6
Continuous
 62
     0
100
AcDbBlockReference
  2
_OPEN
 10
244.9999257258451
 20
-147.3997617295276
 30
0.0
 41
2.0
 42
2.0
 43
2.0
  0
MTEXT
  5
5992
330
5245
100
AcDbEntity
  8
30
  6
Continuous
 62
     0
100
AcDbMText
 10
237.4999628629225
 20
-144.3997617295273
 30
0.0
 40
4.0
 41
0.0
 46
0.0
 71
     5
 72
     1
  1
\A1;15
 73
     1
 44
1.0
1001
ACAD
1000
MTEXTBEGIN
1070
    73
1070
     1
1070
    44
1040
1.0
1070
    74
1070
     0
1000
MTEXTEND
  0
POINT
  5
5993
330
5245
100
AcDbEntity
  8
DEFPOINTS
  6
Continuous
 62
     0
100
AcDbPoint
 10
230.0
 20
-95.99952464541123
 30
0.0
  0
POINT
  5
5994
330
5245
100
AcDbEntity
  8
DEFPOINTS
  6
Continuous
 62
     0
100
AcDbPoint
 10
244.9999257258451
 20
-105.9994751293082
 30
0.0
  0
POINT
  5
5995
330
5245
100
AcDbEntity
  8
DEFPOINTS
  6
Continuous
 62
     0
100
AcDbPoint
 10
244.9999257258451
 20
-147.3997617295276
 30
0.0
  0
ENDBLK
  5
5250
330
5245
100
AcDbEntity
  8
0
100
AcDbBlockEnd
  0
BLOCK
  5
525B
330
5251
100
AcDbEntity
  8
0
100
AcDbBlockBegin
  2
*D7
 70
     1
 10
0.0
 20
0.0
 30
0.0
  3
*D7
  1

  0
LINE
  5
5972
330
5251
100
AcDbEntity
  8
30
  6
Continuous
 62
     0
100
AcDbLine
 10
386.9992225971832
 20
-70.49965587958421
 30
0.0
 11
386.9992225971832
 21
-122.8998855197852
 31
0.0
  0
LINE
  5
5973
330
5251
100
AcDbEntity
  8
30
  6
Continuous
 62
     0
100
AcDbLine
 10
401.9991483230286
 20
-77.28671009944187
 30
0.0
 11
401.9991483230286
 21
-122.8998855197852
 31
0.0
  0
LINE
  5
5974
330
5251
100
AcDbEntity
  8
30
  6
Continuous
 62
     0
100
AcDbLine
 10
388.9992225971832
 20
-122.3998855197852
 30
0.0
 11
399.9991483230287
 21
-122.3998855197852
 31
0.0
  0
INSERT
  5
5975
330
5251
100
AcDbEntity
  8
30
  6
Continuous
 62
     0
100
AcDbBlockReference
  2
_OPEN
 10
386.9992225971832
 20
-122.3998855197852
 30
0.0
 41
2.0
 42
2.0
 43
2.0
 50
180.0
  0
INSERT
  5
5976
330
5251
100
AcDbEntity
  8
30
  6
Continuous
 62
     0
100
AcDbBlockReference
  2
_OPEN
 10
401.9991483230286
 20
-122.3998855197852
 30
0.0
 41
2.0
 42
2.0
 43
2.0
  0
MTEXT
  5
5977
330
5251
100
AcDbEntity
  8
30
  6
Continuous
 62
     0
100
AcDbMText
 10
394.4991854601058
 20
-119.3998855197851
 30
0.0
 40
4.0
 41
0.0
 46
0.0
 71
     5
 72
     1
  1
\A1;15
 73
     1
 44
1.0
1001
ACAD
1000
MTEXTBEGIN
1070
    73
1070
     1
1070
    44
1040
1.0
1070
    74
1070
     0
1000
MTEXTEND
  0
POINT
  5
5978
330
5251
100
AcDbEntity
  8
DEFPOINTS
  6
Continuous
 62
     0
100
AcDbPoint
 10
386.9992225971832
 20
-69.49965587958423
 30
0.0
  0
POINT
  5
5979
330
5251
100
AcDbEntity
  8
DEFPOINTS
  6
Continuous
 62
     0
100
AcDbPoint
 10
401.9991483230286
 20
-76.28671009944188
 30
0.0
  0
POINT
  5
597A
330
5251
100
AcDbEntity
  8
DEFPOINTS
  6
Continuous
 62
     0
100
AcDbPoint
 10
401.9991483230286
 20
-122.3998855197852
 30
0.0
  0
ENDBLK
  5
525C
330
5251
100
AcDbEntity
  8
0
100
AcDbBlockEnd
  0
BLOCK
  5
5267
330
525D
100
AcDbEntity
  8
0
100
AcDbBlockBegin
  2
*D8
 70
     1
 10
0.0
 20
0.0
 30
0.0
  3
*D8
  1

  0
LINE
  5
5996
330
525D
100
AcDbEntity
  8
30
  6
Continuous
 62
     0
100
AcDbLine
 10
336.9994701776982
 20
-70.49965587958421
 30
0.0
 11
336.9994701776982
 21
-122.8998855197852
 31
0.0
  0
LINE
  5
5997
330
525D
100
AcDbEntity
  8
30
  6
Continuous
 62
     0
100
AcDbLine
 10
351.9993959035433
 20
-77.28671009944187
 30
0.0
 11
351.9993959035433
 21
-122.8998855197852
 31
0.0
  0
LINE
  5
5998
330
525D
100
AcDbEntity
  8
30
  6
Continuous
 62
     0
100
AcDbLine
 10
338.9994701776981
 20
-122.3998855197852
 30
0.0
 11
349.9993959035433
 21
-122.3998855197852
 31
0.0
  0
INSERT
  5
5999
330
525D
100
AcDbEntity
  8
30
  6
Continuous
 62
     0
100
AcDbBlockReference
  2
_OPEN
 10
336.9994701776982
 20
-122.3998855197852
 30
0.0
 41
2.0
 42
2.0
 43
2.0
 50
180.0
  0
INSERT
  5
599A
330
525D
100
AcDbEntity
  8
30
  6
Continuous
 62
     0
100
AcDbBlockReference
  2
_OPEN
 10
351.9993959035433
 20
-122.3998855197852
 30
0.0
 41
2.0
 42
2.0
 43
2.0
  0
MTEXT
  5
599B
330
525D
100
AcDbEntity
  8
30
  6
Continuous
 62
     0
100
AcDbMText
 10
344.4994330406207
 20
-119.3998855197851
 30
0.0
 40
4.0
 41
0.0
 46
0.0
 71
     5
 72
     1
  1
\A1;15
 73
     1
 44
1.0
1001
ACAD
1000
MTEXTBEGIN
1070
    73
1070
     1
1070
    44
1040
1.0
1070
    74
1070
     0
1000
MTEXTEND
  0
POINT
  5
599C
330
525D
100
AcDbEntity
  8
DEFPOINTS
  6
Continuous
 62
     0
100
AcDbPoint
 10
336.9994701776982
 20
-69.49965587958423
 30
0.0
  0
POINT
  5
599D
330
525D
100
AcDbEntity
  8
DEFPOINTS
  6
Continuous
 62
     0
100
AcDbPoint
 10
351.9993959035433
 20
-76.28671009944188
 30
0.0
  0
POINT
  5
599E
330
525D
100
AcDbEntity
  8
DEFPOINTS
  6
Continuous
 62
     0
100
AcDbPoint
 10
351.9993959035433
 20
-122.3998855197852
 30
0.0
  0
ENDBLK
  5
5268
330
525D
100
AcDbEntity
  8
0
100
AcDbBlockEnd
  0
BLOCK
  5
5273
330
5269
100
AcDbEntity
  8
0
100
AcDbBlockBegin
  2
*D9
 70
     1
 10
0.0
 20
0.0
 30
0.0
  3
*D9
  1

  0
LINE
  5
5969
330
5269
100
AcDbEntity
  8
30
  6
Continuous
 62
     0
100
AcDbLine
 10
400.8555653978196
 20
-74.99962862922766
 30
0.0
 11
426.5857515477539
 21
-74.99962862922767
 31
0.0
  0
LINE
  5
596A
330
5269
100
AcDbEntity
  8
30
  6
Continuous
 62
     0
100
AcDbLine
 10
400.8555653978196
 20
-58.99970785499242
 30
0.0
 11
426.5857515477539
 21
-58.99970785499242
 31
0.0
  0
LINE
  5
596B
330
5269
100
AcDbEntity
  8
30
  6
Continuous
 62
     0
100
AcDbLine
 10
426.0857515477538
 20
-72.99962862922767
 30
0.0
 11
426.0857515477538
 21
-60.99970785499241
 31
0.0
  0
INSERT
  5
596C
330
5269
100
AcDbEntity
  8
30
  6
Continuous
 62
     0
100
AcDbBlockReference
  2
_OPEN
 10
426.0857515477538
 20
-74.99962862922767
 30
0.0
 41
2.0
 42
2.0
 43
2.0
 50
270.0
  0
INSERT
  5
596D
330
5269
100
AcDbEntity
  8
30
  6
Continuous
 62
     0
100
AcDbBlockReference
  2
_OPEN
 10
426.0857515477538
 20
-58.99970785499242
 30
0.0
 41
2.0
 42
2.0
 43
2.0
 50
90.0
  0
MTEXT
  5
596E
330
5269
100
AcDbEntity
  8
30
  6
Continuous
 62
     0
100
AcDbMText
 10
423.0857515477539
 20
-66.99966824210996
 30
0.0
 40
4.0
 41
0.0
 46
0.0
 71
     5
 72
     1
  1
\A1;16
 11
0.0000000000000001
 21
1.0
 31
0.0
 73
     1
 44
1.0
1001
ACAD
1000
MTEXTBEGIN
1070
    73
1070
     1
1070
    44
1040
1.0
1070
    74
1070
     0
1000
MTEXTEND
  0
POINT
  5
596F
330
5269
100
AcDbEntity
  8
DEFPOINTS
  6
Continuous
 62
     0
100
AcDbPoint
 10
399.8555653978196
 20
-74.99962862922766
 30
0.0
  0
POINT
  5
5970
330
5269
100
AcDbEntity
  8
DEFPOINTS
  6
Continuous
 62
     0
100
AcDbPoint
 10
399.8555653978196
 20
-58.99970785499242
 30
0.0
  0
POINT
  5
5971
330
5269
100
AcDbEntity
  8
DEFPOINTS
  6
Continuous
 62
     0
100
AcDbPoint
 10
426.0857515477538
 20
-58.99970785499242
 30
0.0
  0
ENDBLK
  5
5274
330
5269
100
AcDbEntity
  8
0
100
AcDbBlockEnd
  0
BLOCK
  5
5281
330
5275
100
AcDbEntity
  8
0
100
AcDbBlockBegin
  2
*D10
 70
     1
 10
0.0
 20
0.0
 30
0.0
  3
*D10
  1

  0
LINE
  5
599F
330
5275
100
AcDbEntity
  8
30
  6
Continuous
 62
     0
100
AcDbLine
 10
402.9991483230286
 20
64.49968062113575
 30
0.0
 11
424.2524182144205
 21
64.49968062113573
 31
0.0
  0
LINE
  5
59A0
330
5275
100
AcDbEntity
  8
30
  6
Continuous
 62
     0
100
AcDbLine
 10
402.9991483230286
 20
69.49965586308424
 30
0.0
 11
424.2524182144205
 21
69.49965586308421
 31
0.0
  0
LINE
  5
59A1
330
5275
100
AcDbEntity
  8
30
  6
Continuous
 62
     0
100
AcDbLine
 10
423.7524182144206
 20
62.49968062113573
 30
0.0
 11
423.7524182144206
 21
60.49968062113574
 31
0.0
  0
LINE
  5
59A2
330
5275
100
AcDbEntity
  8
30
  6
Continuous
 62
     0
100
AcDbLine
 10
423.7524182144206
 20
71.49965586308423
 30
0.0
 11
423.7524182144206
 21
73.49965586308425
 31
0.0
  0
LINE
  5
59A3
330
5275
100
AcDbEntity
  8
30
  6
Continuous
 62
     0
100
AcDbLine
 10
423.7524182144206
 20
73.49965586308425
 30
0.0
 11
427.4190848810873
 21
73.49965586308425
 31
0.0
  0
INSERT
  5
59A4
330
5275
100
AcDbEntity
  8
30
  6
Continuous
 62
     0
100
AcDbBlockReference
  2
_OPEN
 10
423.7524182144206
 20
64.49968062113573
 30
0.0
 41
2.0
 42
2.0
 43
2.0
 50
90.0
  0
INSERT
  5
59A5
330
5275
100
AcDbEntity
  8
30
  6
Continuous
 62
     0
100
AcDbBlockReference
  2
_OPEN
 10
423.7524182144206
 20
69.49965586308421
 30
0.0
 41
2.0
 42
2.0
 43
2.0
 50
270.0
  0
MTEXT
  5
59A6
330
5275
100
AcDbEntity
  8
30
  6
Continuous
 62
     0
100
AcDbMText
 10
426.0857515477538
 20
76.49965586308431
 30
0.0
 40
4.0
 41
0.0
 46
0.0
 71
     5
 72
     1
  1
\A1;5
 73
     1
 44
1.0
1001
ACAD
1000
MTEXTBEGIN
1070
    73
1070
     1
1070
    44
1040
1.0
1070
    74
1070
     0
1000
MTEXTEND
  0
POINT
  5
59A7
330
5275
100
AcDbEntity
  8
DEFPOINTS
  6
Continuous
 62
     0
100
AcDbPoint
 10
401.9991483230286
 20
64.49968062113575
 30
0.0
  0
POINT
  5
59A8
330
5275
100
AcDbEntity
  8
DEFPOINTS
  6
Continuous
 62
     0
100
AcDbPoint
 10
401.9991483230286
 20
69.49965586308424
 30
0.0
  0
POINT
  5
59A9
330
5275
100
AcDbEntity
  8
DEFPOINTS
  6
Continuous
 62
     0
100
AcDbPoint
 10
423.7524182144206
 20
69.49965586308421
 30
0.0
  0
ENDBLK
  5
5282
330
5275
100
AcDbEntity
  8
0
100
AcDbBlockEnd
  0
BLOCK
  5
5411
330
5407
100
AcDbEntity
  8
0
100
AcDbBlockBegin
  2
*D11
 70
     1
 10
0.0
 20
0.0
 30
0.0
  3
*D11
  1

  0
LINE
  5
5AB9
330
5407
100
AcDbEntity
  8
30
  6
Continuous
 62
     0
440
 16777216
100
AcDbLine
 10
-70.49999999999966
 20
-291.6631237443559
 30
0.0
 11
-70.49999999999966
 21
-404.0636153436746
 31
0.0
  0
LINE
  5
5ABA
330
5407
100
AcDbEntity
  8
30
  6
Continuous
 62
     0
440
 16777216
100
AcDbLine
 10
100.5
 20
-291.6631237443559
 30
0.0
 11
100.5
 21
-404.0636153436746
 31
0.0
  0
LINE
  5
5ABB
330
5407
100
AcDbEntity
  8
30
  6
Continuous
 62
     0
440
 16777216
100
AcDbLine
 10
-68.49999999999965
 20
-403.5636153436747
 30
0.0
 11
98.50000000000001
 21
-403.5636153436747
 31
0.0
  0
INSERT
  5
5ABC
330
5407
100
AcDbEntity
  8
30
  6
Continuous
 62
     0
440
 16777216
100
AcDbBlockReference
  2
_OPEN
 10
-70.49999999999966
 20
-403.5636153436747
 30
0.0
 41
2.0
 42
2.0
 43
2.0
 50
180.0
  0
INSERT
  5
5ABD
330
5407
100
AcDbEntity
  8
30
  6
Continuous
 62
     0
440
 16777216
100
AcDbBlockReference
  2
_OPEN
 10
100.5
 20
-403.5636153436747
 30
0.0
 41
2.0
 42
2.0
 43
2.0
  0
MTEXT
  5
5ABE
330
5407
100
AcDbEntity
  8
30
  6
Continuous
 62
     0
440
 16777216
100
AcDbMText
 10
15.00000000000015
 20
-400.5636153436745
 30
0.0
 40
4.0
 41
0.0
 46
0.0
 71
     5
 72
     1
  1
\A1;171
 73
     1
 44
1.0
1001
ACAD
1000
MTEXTBEGIN
1070
    73
1070
     1
1070
    44
1040
1.0
1070
    74
1070
     0
1000
MTEXTEND
  0
POINT
  5
5ABF
330
5407
100
AcDbEntity
  8
DEFPOINTS
  6
Continuous
 62
     0
440
 16777216
100
AcDbPoint
 10
-70.49999999999966
 20
-290.6631237443559
 30
0.0
  0
POINT
  5
5AC0
330
5407
100
AcDbEntity
  8
DEFPOINTS
  6
Continuous
 62
     0
440
 16777216
100
AcDbPoint
 10
100.5
 20
-290.6631237443559
 30
0.0
  0
POINT
  5
5AC1
330
5407
100
AcDbEntity
  8
DEFPOINTS
  6
Continuous
 62
     0
440
 16777216
100
AcDbPoint
 10
100.5
 20
-403.5636153436747
 30
0.0
  0
ENDBLK
  5
5412
330
5407
100
AcDbEntity
  8
0
100
AcDbBlockEnd
  0
BLOCK
  5
541D
330
5413
100
AcDbEntity
  8
0
100
AcDbBlockBegin
  2
*D12
 70
     1
 10
0.0
 20
0.0
 30
0.0
  3
*D12
  1

  0
LINE
  5
5AA7
330
5413
100
AcDbEntity
  8
30
  6
Continuous
 62
     0
440
 16777216
100
AcDbLine
 10
-65.49999999999946
 20
-343.1631237443548
 30
0.0
 11
-65.49999999999946
 21
-378.0636153436747
 31
0.0
  0
LINE
  5
5AA8
330
5413
100
AcDbEntity
  8
30
  6
Continuous
 62
     0
440
 16777216
100
AcDbLine
 10
95.50000000000052
 20
-343.1631237443548
 30
0.0
 11
95.50000000000052
 21
-378.0636153436747
 31
0.0
  0
LINE
  5
5AA9
330
5413
100
AcDbEntity
  8
30
  6
Continuous
 62
     0
440
 16777216
100
AcDbLine
 10
-63.49999999999945
 20
-377.5636153436747
 30
0.0
 11
93.50000000000051
 21
-377.5636153436747
 31
0.0
  0
INSERT
  5
5AAA
330
5413
100
AcDbEntity
  8
30
  6
Continuous
 62
     0
440
 16777216
100
AcDbBlockReference
  2
_OPEN
 10
-65.49999999999946
 20
-377.5636153436747
 30
0.0
 41
2.0
 42
2.0
 43
2.0
 50
180.0
  0
INSERT
  5
5AAB
330
5413
100
AcDbEntity
  8
30
  6
Continuous
 62
     0
440
 16777216
100
AcDbBlockReference
  2
_OPEN
 10
95.50000000000052
 20
-377.5636153436747
 30
0.0
 41
2.0
 42
2.0
 43
2.0
  0
MTEXT
  5
5AAC
330
5413
100
AcDbEntity
  8
30
  6
Continuous
 62
     0
440
 16777216
100
AcDbMText
 10
15.00000000000052
 20
-374.5636153436747
 30
0.0
 40
4.0
 41
0.0
 46
0.0
 71
     5
 72
     1
  1
\A1;161
 73
     1
 44
1.0
1001
ACAD
1000
MTEXTBEGIN
1070
    73
1070
     1
1070
    44
1040
1.0
1070
    74
1070
     0
1000
MTEXTEND
  0
POINT
  5
5AAD
330
5413
100
AcDbEntity
  8
DEFPOINTS
  6
Continuous
 62
     0
440
 16777216
100
AcDbPoint
 10
-65.49999999999946
 20
-342.1631237443548
 30
0.0
  0
POINT
  5
5AAE
330
5413
100
AcDbEntity
  8
DEFPOINTS
  6
Continuous
 62
     0
440
 16777216
100
AcDbPoint
 10
95.50000000000052
 20
-342.1631237443548
 30
0.0
  0
POINT
  5
5AAF
330
5413
100
AcDbEntity
  8
DEFPOINTS
  6
Continuous
 62
     0
440
 16777216
100
AcDbPoint
 10
95.50000000000052
 20
-377.5636153436747
 30
0.0
  0
ENDBLK
  5
541E
330
5413
100
AcDbEntity
  8
0
100
AcDbBlockEnd
  0
BLOCK
  5
543C
330
5432
100
AcDbEntity
  8
0
100
AcDbBlockBegin
  2
*D13
 70
     1
 10
0.0
 20
0.0
 30
0.0
  3
*D13
  1

  0
LINE
  5
5831
330
5432
100
AcDbEntity
  8
30
  6
Continuous
 62
     0
100
AcDbLine
 10
-29.96000000000011
 20
271.3553751724501
 30
0.0
 11
-29.96000000000011
 21
326.6448107631839
 31
0.0
  0
LINE
  5
5832
330
5432
100
AcDbEntity
  8
30
  6
Continuous
 62
     0
100
AcDbLine
 10
0.0000000000000001
 20
322.3953751724502
 30
0.0
 11
0.0000000000000003
 21
326.6448107631839
 31
0.0
  0
LINE
  5
5833
330
5432
100
AcDbEntity
  8
30
  6
Continuous
 62
     0
100
AcDbLine
 10
-27.96000000000011
 20
326.1448107631839
 30
0.0
 11
-1.999999999999999
 21
326.1448107631839
 31
0.0
  0
INSERT
  5
5834
330
5432
100
AcDbEntity
  8
30
  6
Continuous
 62
     0
100
AcDbBlockReference
  2
_OPEN
 10
-29.96000000000011
 20
326.1448107631839
 30
0.0
 41
2.0
 42
2.0
 43
2.0
 50
180.0
  0
INSERT
  5
5835
330
5432
100
AcDbEntity
  8
30
  6
Continuous
 62
     0
100
AcDbBlockReference
  2
_OPEN
 10
0.0000000000000003
 20
326.1448107631839
 30
0.0
 41
2.0
 42
2.0
 43
2.0
  0
MTEXT
  5
5836
330
5432
100
AcDbEntity
  8
30
  6
Continuous
 62
     0
100
AcDbMText
 10
-14.98000000000005
 20
329.1448107631838
 30
0.0
 40
4.0
 41
0.0
 46
0.0
 71
     5
 72
     1
  1
\A1;30
 73
     1
 44
1.0
1001
ACAD
1000
MTEXTBEGIN
1070
    73
1070
     1
1070
    44
1040
1.0
1070
    74
1070
     0
1000
MTEXTEND
  0
POINT
  5
5837
330
5432
100
AcDbEntity
  8
DEFPOINTS
  6
Continuous
 62
     0
100
AcDbPoint
 10
-29.96000000000011
 20
270.3553751724502
 30
0.0
  0
POINT
  5
5838
330
5432
100
AcDbEntity
  8
DEFPOINTS
  6
Continuous
 62
     0
100
AcDbPoint
 10
0.0
 20
321.3953751724502
 30
0.0
  0
POINT
  5
5839
330
5432
100
AcDbEntity
  8
DEFPOINTS
  6
Continuous
 62
     0
100
AcDbPoint
 10
0.0000000000000003
 20
326.1448107631839
 30
0.0
  0
ENDBLK
  5
543D
330
5432
100
AcDbEntity
  8
0
100
AcDbBlockEnd
  0
BLOCK
  5
5448
330
543F
100
AcDbEntity
  8
0
100
AcDbBlockBegin
  2
*D14
 70
     1
 10
0.0
 20
0.0
 30
0.0
  3
*D14
  1

  0
LINE
  5
5829
330
543F
100
AcDbEntity
  8
30
  6
Continuous
 62
     0
100
AcDbLine
 10
29.95999999999989
 20
271.7953751724501
 30
0.0
 11
29.9599999999999
 21
326.6448107631839
 31
0.0
  0
LINE
  5
582A
330
543F
100
AcDbEntity
  8
30
  6
Continuous
 62
     0
100
AcDbLine
 10
2.0
 20
326.1448107631839
 30
0.0
 11
27.9599999999999
 21
326.1448107631839
 31
0.0
  0
INSERT
  5
582B
330
543F
100
AcDbEntity
  8
30
  6
Continuous
 62
     0
100
AcDbBlockReference
  2
_OPEN
 10
0.0
 20
326.1448107631839
 30
0.0
 41
2.0
 42
2.0
 43
2.0
 50
180.0
  0
INSERT
  5
582C
330
543F
100
AcDbEntity
  8
30
  6
Continuous
 62
     0
100
AcDbBlockReference
  2
_OPEN
 10
29.9599999999999
 20
326.1448107631839
 30
0.0
 41
2.0
 42
2.0
 43
2.0
  0
MTEXT
  5
582D
330
543F
100
AcDbEntity
  8
30
  6
Continuous
 62
     0
100
AcDbMText
 10
14.97999999999995
 20
329.1448107631838
 30
0.0
 40
4.0
 41
0.0
 46
0.0
 71
     5
 72
     1
  1
\A1;30
 73
     1
 44
1.0
1001
ACAD
1000
MTEXTBEGIN
1070
    73
1070
     1
1070
    44
1040
1.0
1070
    74
1070
     0
1000
MTEXTEND
  0
POINT
  5
582E
330
543F
100
AcDbEntity
  8
DEFPOINTS
  6
Continuous
 62
     0
100
AcDbPoint
 10
0.0
 20
326.6448107631839
 30
0.0
  0
POINT
  5
582F
330
543F
100
AcDbEntity
  8
DEFPOINTS
  6
Continuous
 62
     0
100
AcDbPoint
 10
29.95999999999989
 20
270.7953751724502
 30
0.0
  0
POINT
  5
5830
330
543F
100
AcDbEntity
  8
DEFPOINTS
  6
Continuous
 62
     0
100
AcDbPoint
 10
29.9599999999999
 20
326.1448107631839
 30
0.0
  0
ENDBLK
  5
5449
330
543F
100
AcDbEntity
  8
0
100
AcDbBlockEnd
  0
BLOCK
  5
5481
330
5477
100
AcDbEntity
  8
0
100
AcDbBlockBegin
  2
*D15
 70
     1
 10
0.0
 20
0.0
 30
0.0
  3
*D15
  1

  0
LINE
  5
5A74
330
5477
100
AcDbEntity
  8
30
  6
Continuous
 62
     0
100
AcDbLine
 10
-81.26884368350991
 20
-91.26473820578478
 30
0.0
 11
-81.26884368350991
 21
-119.7815555266434
 31
0.0
  0
LINE
  5
5A75
330
5477
100
AcDbEntity
  8
30
  6
Continuous
 62
     0
100
AcDbLine
 10
110.7306365072129
 20
-91.26473820578478
 30
0.0
 11
110.7306365072129
 21
-119.7815555266434
 31
0.0
  0
LINE
  5
5A76
330
5477
100
AcDbEntity
  8
30
  6
Continuous
 62
     0
100
AcDbLine
 10
-79.26884368350989
 20
-119.2815555266434
 30
0.0
 11
108.7306365072129
 21
-119.2815555266434
 31
0.0
  0
INSERT
  5
5A77
330
5477
100
AcDbEntity
  8
30
  6
Continuous
 62
     0
100
AcDbBlockReference
  2
_OPEN
 10
-81.26884368350991
 20
-119.2815555266434
 30
0.0
 41
2.0
 42
2.0
 43
2.0
 50
180.0
  0
INSERT
  5
5A78
330
5477
100
AcDbEntity
  8
30
  6
Continuous
 62
     0
100
AcDbBlockReference
  2
_OPEN
 10
110.7306365072129
 20
-119.2815555266434
 30
0.0
 41
2.0
 42
2.0
 43
2.0
  0
MTEXT
  5
5A79
330
5477
100
AcDbEntity
  8
30
  6
Continuous
 62
     0
100
AcDbMText
 10
14.73089641185151
 20
-116.2815555266434
 30
0.0
 40
4.0
 41
0.0
 46
0.0
 71
     5
 72
     1
  1
\A1;192
 73
     1
 44
1.0
1001
ACAD
1000
MTEXTBEGIN
1070
    73
1070
     1
1070
    44
1040
1.0
1070
    74
1070
     0
1000
MTEXTEND
  0
POINT
  5
5A7A
330
5477
100
AcDbEntity
  8
DEFPOINTS
  6
Continuous
 62
     0
100
AcDbPoint
 10
-81.26884368350991
 20
-90.26473820578479
 30
0.0
  0
POINT
  5
5A7B
330
5477
100
AcDbEntity
  8
DEFPOINTS
  6
Continuous
 62
     0
100
AcDbPoint
 10
110.7306365072129
 20
-90.26473820578479
 30
0.0
  0
POINT
  5
5A7C
330
5477
100
AcDbEntity
  8
DEFPOINTS
  6
Continuous
 62
     0
100
AcDbPoint
 10
110.7306365072129
 20
-119.2815555266434
 30
0.0
  0
ENDBLK
  5
5482
330
5477
100
AcDbEntity
  8
0
100
AcDbBlockEnd
  0
BLOCK
  5
548E
330
5484
100
AcDbEntity
  8
0
100
AcDbBlockBegin
  2
*D16
 70
     1
 10
0.0
 20
0.0
 30
0.0
  3
*D16
  1

  0
LINE
  5
5880
330
5484
100
AcDbEntity
  8
30
  6
Continuous
 62
     0
100
AcDbLine
 10
113.7691035881486
 20
95.99968215483697
 30
0.0
 11
133.9233944661968
 21
95.99968215483697
 31
0.0
  0
LINE
  5
5881
330
5484
100
AcDbEntity
  8
30
  6
Continuous
 62
     0
100
AcDbLine
 10
113.7691035881486
 20
-95.9996821548369
 30
0.0
 11
133.9233944661968
 21
-95.9996821548369
 31
0.0
  0
LINE
  5
5882
330
5484
100
AcDbEntity
  8
30
  6
Continuous
 62
     0
100
AcDbLine
 10
133.4233944661969
 20
93.99968215483696
 30
0.0
 11
133.4233944661969
 21
-93.9996821548369
 31
0.0
  0
INSERT
  5
5883
330
5484
100
AcDbEntity
  8
30
  6
Continuous
 62
     0
100
AcDbBlockReference
  2
_OPEN
 10
133.4233944661969
 20
95.99968215483697
 30
0.0
 41
2.0
 42
2.0
 43
2.0
 50
90.0
  0
INSERT
  5
5884
330
5484
100
AcDbEntity
  8
30
  6
Continuous
 62
     0
100
AcDbBlockReference
  2
_OPEN
 10
133.4233944661969
 20
-95.9996821548369
 30
0.0
 41
2.0
 42
2.0
 43
2.0
 50
270.0
  0
MTEXT
  5
5885
330
5484
100
AcDbEntity
  8
30
  6
Continuous
 62
     0
100
AcDbMText
 10
130.4233944661969
 20
0.000000000000049
 30
0.0
 40
4.0
 41
0.0
 46
0.0
 71
     5
 72
     1
  1
\A1;192
 11
0.0000000000000001
 21
1.0
 31
0.0
 73
     1
 44
1.0
1001
ACAD
1000
MTEXTBEGIN
1070
    73
1070
     1
1070
    44
1040
1.0
1070
    74
1070
     0
1000
MTEXTEND
  0
POINT
  5
5886
330
5484
100
AcDbEntity
  8
DEFPOINTS
  6
Continuous
 62
     0
100
AcDbPoint
 10
112.7691035881486
 20
95.99968215483697
 30
0.0
  0
POINT
  5
5887
330
5484
100
AcDbEntity
  8
DEFPOINTS
  6
Continuous
 62
     0
100
AcDbPoint
 10
112.7691035881486
 20
-95.9996821548369
 30
0.0
  0
POINT
  5
5888
330
5484
100
AcDbEntity
  8
DEFPOINTS
  6
Continuous
 62
     0
100
AcDbPoint
 10
133.4233944661969
 20
-95.9996821548369
 30
0.0
  0
ENDBLK
  5
548F
330
5484
100
AcDbEntity
  8
0
100
AcDbBlockEnd
  0
BLOCK
  5
54E2
330
54D9
100
AcDbEntity
  8
0
100
AcDbBlockBegin
  2
*D17
 70
     1
 10
0.0
 20
0.0
 30
0.0
  3
*D17
  1

  0
LINE
  5
5A6C
330
54D9
100
AcDbEntity
  8
30
  6
Continuous
 62
     0
440
 16777216
100
AcDbLine
 10
133.5311491872799
 20
-204.873116845163
 30
0.0
 11
125.8644731905089
 21
-204.873116845163
 31
0.0
  0
LINE
  5
5A6D
330
54D9
100
AcDbEntity
  8
30
  6
Continuous
 62
     0
440
 16777216
100
AcDbLine
 10
125.8644731905089
 20
-204.873116845163
 30
0.0
 11
103.2575416949542
 21
-215.9520029230796
 31
0.0
  0
MTEXT
  5
5A6E
102
{ACAD_XDICTIONARY
360
5F76
102
}
330
54D9
100
AcDbEntity
  8
30
  6
Continuous
 62
     0
440
 16777216
100
AcDbMText
 10
130.1978158539465
 20
-201.8731168451628
 30
0.0
 40
4.0
 41
0.0
 46
0.0
 71
     5
 72
     1
  1
\A1;∅6
 73
     1
 44
1.0
1001
ACAD
1000
MTEXTBEGIN
1070
    73
1070
     1
1070
    44
1040
1.0
1070
    74
1070
     0
1000
MTEXTEND
  0
INSERT
  5
5A6F
330
54D9
100
AcDbEntity
  8
30
  6
Continuous
 62
     0
440
 16777216
100
AcDbBlockReference
  2
_OPEN
 10
101.4616078539466
 20
-216.8321288451628
 30
0.0
 41
2.0
 42
2.0
 43
2.0
 50
206.1078983677162
  0
LINE
  5
5A70
330
54D9
100
AcDbEntity
  8
30
  6
Continuous
 62
     0
440
 16777216
100
AcDbLine
 10
98.6777068539466
 20
-218.152317845163
 30
0.0
 11
98.8577068539466
 21
-218.152317845163
 31
0.0
  0
LINE
  5
5A71
330
54D9
100
AcDbEntity
  8
30
  6
Continuous
 62
     0
440
 16777216
100
AcDbLine
 10
98.7677068539466
 20
-218.2423178451629
 30
0.0
 11
98.7677068539466
 21
-218.0623178451631
 31
0.0
  0
POINT
  5
5A72
330
54D9
100
AcDbEntity
  8
DEFPOINTS
  6
Continuous
 62
     0
440
 16777216
100
AcDbPoint
 10
101.4616078539466
 20
-216.8321288451628
 30
0.0
  0
POINT
  5
5A73
330
54D9
100
AcDbEntity
  8
DEFPOINTS
  6
Continuous
 62
     0
440
 16777216
100
AcDbPoint
 10
96.07380585394658
 20
-219.4725068451631
 30
0.0
  0
ENDBLK
  5
54E3
330
54D9
100
AcDbEntity
  8
0
100
AcDbBlockEnd
  0
BLOCK
  5
5609
330
55FF
100
AcDbEntity
  8
0
100
AcDbBlockBegin
  2
*D18
 70
     1
 10
0.0
 20
0.0
 30
0.0
  3
*D18
  1

  0
LINE
  5
5957
330
55FF
100
AcDbEntity
  8
30
  6
Continuous
 62
     0
100
AcDbLine
 10
412.9990988069256
 20
66.99966824210996
 30
0.0
 11
438.2367141808032
 21
66.99966824210996
 31
0.0
  0
LINE
  5
5958
330
55FF
100
AcDbEntity
  8
30
  6
Continuous
 62
     0
100
AcDbLine
 10
427.0857515477539
 20
-66.99966824211003
 30
0.0
 11
438.2367141808032
 21
-66.99966824211003
 31
0.0
  0
LINE
  5
5959
330
55FF
100
AcDbEntity
  8
30
  6
Continuous
 62
     0
100
AcDbLine
 10
437.7367141808032
 20
64.99966824210996
 30
0.0
 11
437.7367141808032
 21
-64.99966824211004
 31
0.0
  0
INSERT
  5
595A
330
55FF
100
AcDbEntity
  8
30
  6
Continuous
 62
     0
100
AcDbBlockReference
  2
_OPEN
 10
437.7367141808032
 20
66.99966824210996
 30
0.0
 41
2.0
 42
2.0
 43
2.0
 50
90.0
  0
INSERT
  5
595B
330
55FF
100
AcDbEntity
  8
30
  6
Continuous
 62
     0
100
AcDbBlockReference
  2
_OPEN
 10
437.7367141808032
 20
-66.99966824211003
 30
0.0
 41
2.0
 42
2.0
 43
2.0
 50
270.0
  0
MTEXT
  5
595C
330
55FF
100
AcDbEntity
  8
30
  6
Continuous
 62
     0
100
AcDbMText
 10
434.7367141808032
 20
0.0000000000000304
 30
0.0
 40
4.0
 41
0.0
 46
0.0
 71
     5
 72
     1
  1
\A1;134
 11
0.0000000000000001
 21
1.0
 31
0.0
 73
     1
 44
1.0
1001
ACAD
1000
MTEXTBEGIN
1070
    73
1070
     1
1070
    44
1040
1.0
1070
    74
1070
     0
1000
MTEXTEND
  0
POINT
  5
595D
330
55FF
100
AcDbEntity
  8
DEFPOINTS
  6
Continuous
 62
     0
100
AcDbPoint
 10
411.9990988069256
 20
66.99966824210996
 30
0.0
  0
POINT
  5
595E
330
55FF
100
AcDbEntity
  8
DEFPOINTS
  6
Continuous
 62
     0
100
AcDbPoint
 10
426.0857515477538
 20
-66.99966824211003
 30
0.0
  0
POINT
  5
595F
330
55FF
100
AcDbEntity
  8
DEFPOINTS
  6
Continuous
 62
     0
100
AcDbPoint
 10
437.7367141808032
 20
-66.99966824211003
 30
0.0
  0
ENDBLK
  5
560A
330
55FF
100
AcDbEntity
  8
0
100
AcDbBlockEnd
  0
BLOCK
  5
58C0
330
58B6
100
AcDbEntity
  8
0
100
AcDbBlockBegin
  2
*D19
 70
     1
 10
0.0
 20
0.0
 30
0.0
  3
*D19
  1

  0
LINE
  5
58B7
330
58B6
100
AcDbEntity
  8
30
  6
Continuous
 62
     0
100
AcDbLine
 10
29.95999999999989
 20
272.7953751724502
 30
0.0
 11
29.9599999999999
 21
326.6448107631839
 31
0.0
  0
LINE
  5
58B8
330
58B6
100
AcDbEntity
  8
30
  6
Continuous
 62
     0
100
AcDbLine
 10
60.0
 20
322.3953751724502
 30
0.0
 11
60.0
 21
326.6448107631839
 31
0.0
  0
LINE
  5
58B9
330
58B6
100
AcDbEntity
  8
30
  6
Continuous
 62
     0
100
AcDbLine
 10
31.9599999999999
 20
326.1448107631839
 30
0.0
 11
58.0
 21
326.1448107631839
 31
0.0
  0
INSERT
  5
58BA
330
58B6
100
AcDbEntity
  8
30
  6
Continuous
 62
     0
100
AcDbBlockReference
  2
_OPEN
 10
29.9599999999999
 20
326.1448107631839
 30
0.0
 41
2.0
 42
2.0
 43
2.0
 50
180.0
  0
INSERT
  5
58BB
330
58B6
100
AcDbEntity
  8
30
  6
Continuous
 62
     0
100
AcDbBlockReference
  2
_OPEN
 10
60.0
 20
326.1448107631839
 30
0.0
 41
2.0
 42
2.0
 43
2.0
  0
MTEXT
  5
58BC
330
58B6
100
AcDbEntity
  8
30
  6
Continuous
 62
     0
100
AcDbMText
 10
44.97999999999993
 20
329.1448107631838
 30
0.0
 40
4.0
 41
0.0
 46
0.0
 71
     5
 72
     1
  1
\A1;30
 73
     1
 44
1.0
1001
ACAD
1000
MTEXTBEGIN
1070
    73
1070
     1
1070
    44
1040
1.0
1070
    74
1070
     0
1000
MTEXTEND
  0
POINT
  5
58BD
330
58B6
100
AcDbEntity
  8
DEFPOINTS
  6
Continuous
 62
     0
100
AcDbPoint
 10
29.95999999999989
 20
271.7953751724501
 30
0.0
  0
POINT
  5
58BE
330
58B6
100
AcDbEntity
  8
DEFPOINTS
  6
Continuous
 62
     0
100
AcDbPoint
 10
60.0
 20
321.3953751724502
 30
0.0
  0
POINT
  5
58BF
330
58B6
100
AcDbEntity
  8
DEFPOINTS
  6
Continuous
 62
     0
100
AcDbPoint
 10
60.0
 20
326.1448107631839
 30
0.0
  0
ENDBLK
  5
58C1
330
58B6
100
AcDbEntity
  8
0
100
AcDbBlockEnd
  0
BLOCK
  5
5A88
330
5A7E
100
AcDbEntity
  8
0
100
AcDbBlockBegin
  2
*D20
 70
     1
 10
0.0
 20
0.0
 30
0.0
  3
*D20
  1

  0
LINE
  5
5A7F
330
5A7E
100
AcDbEntity
  8
30
  6
Continuous
 62
     0
440
 16777216
100
AcDbLine
 10
-80.99948019072273
 20
-91.99969870927247
 30
0.0
 11
-80.99948019072273
 21
-117.4355545148246
 31
0.0
  0
LINE
  5
5A80
330
5A7E
100
AcDbEntity
  8
30
  6
Continuous
 62
     0
440
 16777216
100
AcDbLine
 10
111.0
 20
-91.99969870927247
 30
0.0
 11
111.0
 21
-117.4355545148246
 31
0.0
  0
LINE
  5
5A81
330
5A7E
100
AcDbEntity
  8
30
  6
Continuous
 62
     0
440
 16777216
100
AcDbLine
 10
-78.99948019072273
 20
-116.9355545148246
 30
0.0
 11
109.0
 21
-116.9355545148246
 31
0.0
  0
INSERT
  5
5A82
330
5A7E
100
AcDbEntity
  8
30
  6
Continuous
 62
     0
440
 16777216
100
AcDbBlockReference
  2
_OPEN
 10
-80.99948019072273
 20
-116.9355545148246
 30
0.0
 41
2.0
 42
2.0
 43
2.0
 50
180.0
  0
INSERT
  5
5A83
330
5A7E
100
AcDbEntity
  8
30
  6
Continuous
 62
     0
440
 16777216
100
AcDbBlockReference
  2
_OPEN
 10
111.0
 20
-116.9355545148246
 30
0.0
 41
2.0
 42
2.0
 43
2.0
  0
MTEXT
  5
5A84
330
5A7E
100
AcDbEntity
  8
30
  6
Continuous
 62
     0
440
 16777216
100
AcDbMText
 10
15.00025990463869
 20
-113.9355545148245
 30
0.0
 40
4.0
 41
0.0
 46
0.0
 71
     5
 72
     1
  1
\A1;192
 73
     1
 44
1.0
1001
ACAD
1000
MTEXTBEGIN
1070
    73
1070
     1
1070
    44
1040
1.0
1070
    74
1070
     0
1000
MTEXTEND
  0
POINT
  5
5A85
330
5A7E
100
AcDbEntity
  8
DEFPOINTS
  6
Continuous
 62
     0
440
 16777216
100
AcDbPoint
 10
-80.99948019072273
 20
-90.99969870927248
 30
0.0
  0
POINT
  5
5A86
330
5A7E
100
AcDbEntity
  8
DEFPOINTS
  6
Continuous
 62
     0
440
 16777216
100
AcDbPoint
 10
111.0
 20
-90.99969870927248
 30
0.0
  0
POINT
  5
5A87
330
5A7E
100
AcDbEntity
  8
DEFPOINTS
  6
Continuous
 62
     0
440
 16777216
100
AcDbPoint
 10
111.0
 20
-116.9355545148246
 30
0.0
  0
ENDBLK
  5
5A89
330
5A7E
100
AcDbEntity
  8
0
100
AcDbBlockEnd
  0
BLOCK
  5
5A9C
330
5A92
100
AcDbEntity
  8
0
100
AcDbBlockBegin
  2
*D21
 70
     1
 10
0.0
 20
0.0
 30
0.0
  3
*D21
  1

  0
LINE
  5
5A9E
330
5A92
100
AcDbEntity
  8
30
  6
Continuous
 62
     0
440
 16777216
100
AcDbLine
 10
110.3886670571349
 20
95.99968215483697
 30
0.0
 11
130.5833682717926
 21
95.99968215483697
 31
0.0
  0
LINE
  5
5A9F
330
5A92
100
AcDbEntity
  8
30
  6
Continuous
 62
     0
440
 16777216
100
AcDbLine
 10
110.3886670571349
 20
-95.9996821548369
 30
0.0
 11
130.5833682717924
 21
-95.9996821548369
 31
0.0
  0
LINE
  5
5AA0
330
5A92
100
AcDbEntity
  8
30
  6
Continuous
 62
     0
440
 16777216
100
AcDbLine
 10
130.0833682717926
 20
93.99968215483696
 30
0.0
 11
130.0833682717924
 21
-93.9996821548369
 31
0.0
  0
INSERT
  5
5AA1
330
5A92
100
AcDbEntity
  8
30
  6
Continuous
 62
     0
440
 16777216
100
AcDbBlockReference
  2
_OPEN
 10
130.0833682717926
 20
95.99968215483697
 30
0.0
 41
2.0
 42
2.0
 43
2.0
 50
90.0
  0
INSERT
  5
5AA2
330
5A92
100
AcDbEntity
  8
30
  6
Continuous
 62
     0
440
 16777216
100
AcDbBlockReference
  2
_OPEN
 10
130.0833682717924
 20
-95.9996821548369
 30
0.0
 41
2.0
 42
2.0
 43
2.0
 50
270.0
  0
MTEXT
  5
5AA3
330
5A92
100
AcDbEntity
  8
30
  6
Continuous
 62
     0
440
 16777216
100
AcDbMText
 10
127.0833682717925
 20
0.0000000000000492
 30
0.0
 40
4.0
 41
0.0
 46
0.0
 71
     5
 72
     1
  1
\A1;192
 11
0.0000000000000001
 21
1.0
 31
0.0
 73
     1
 44
1.0
1001
ACAD
1000
MTEXTBEGIN
1070
    73
1070
     1
1070
    44
1040
1.0
1070
    74
1070
     0
1000
MTEXTEND
  0
POINT
  5
5AA4
330
5A92
100
AcDbEntity
  8
DEFPOINTS
  6
Continuous
 62
     0
440
 16777216
100
AcDbPoint
 10
109.3886670571349
 20
95.99968215483697
 30
0.0
  0
POINT
  5
5AA5
330
5A92
100
AcDbEntity
  8
DEFPOINTS
  6
Continuous
 62
     0
440
 16777216
100
AcDbPoint
 10
109.3886670571349
 20
-95.9996821548369
 30
0.0
  0
POINT
  5
5AA6
330
5A92
100
AcDbEntity
  8
DEFPOINTS
  6
Continuous
 62
     0
440
 16777216
100
AcDbPoint
 10
130.0833682717924
 20
-95.9996821548369
 30
0.0
  0
ENDBLK
  5
5A9D
330
5A92
100
AcDbEntity
  8
0
100
AcDbBlockEnd
  0
BLOCK
  5
5B7D
330
5B7C
100
AcDbEntity
  8
TOP
  6
Continuous
 62
     4
100
AcDbBlockBegin
  2
*U22
 70
     1
 10
0.0
 20
0.0
 30
0.0
  3
*U22
  1

  0
LINE
  5
5B7E
330
5B7C
100
AcDbEntity
  8
1
  6
ByBlock
 62
     0
100
AcDbLine
 10
287.2057572385031
 20
73.79512687471603
 30
0.0
 11
276.2057572385031
 21
73.79512687471603
 31
0.0
  0
LINE
  5
5B7F
330
5B7C
100
AcDbEntity
  8
1
  6
ByBlock
 62
     0
100
AcDbLine
 10
296.8913158503363
 20
94.37207082491942
 30
0.0
 11
287.2057572385031
 21
73.79512687471603
 31
0.0
  0
SOLID
  5
5B80
330
5B7C
100
AcDbEntity
  8
1
  6
ByBlock
 62
     0
100
AcDbTrace
 10
296.8913158503363
 20
94.37207082491942
 30
0.0
 11
296.3411501381206
 21
92.42055119794148
 31
0.0
 12
295.7379635408423
 22
92.7044708682264
 32
0.0
 13
295.7379635408423
 23
92.7044708682264
 33
0.0
  0
TEXT
  5
5B81
330
5B7C
100
AcDbEntity
  8
TOP
  6
ByBlock
 62
     0
100
AcDbText
 10
274.4739864025374
 20
72.54512687281603
 30
0.0
 40
2.500000003799998
  1
 
 41
1.189062499999995
  7
UGMTXT
100
AcDbText
  0
TEXT
  5
5B82
330
5B7C
100
AcDbEntity
  8
TOP
  6
ByBlock
 62
     0
100
AcDbText
 10
272.742215566572
 20
72.54512687281603
 30
0.0
 40
2.500000003799998
  1
 
 41
1.189062499999995
  7
UGMTXT
100
AcDbText
  0
ENDBLK
  5
5B83
330
5B7C
100
AcDbEntity
  8
0
100
AcDbBlockEnd
  0
BLOCK
  5
5B85
330
5B84
100
AcDbEntity
  8
0
100
AcDbBlockBegin
  2
*D23
 70
     1
 10
0.0
 20
0.0
 30
0.0
  3
*D23
  1

  0
LINE
  5
5B86
330
5B84
100
AcDbEntity
  8
30
  6
Continuous
 62
     0
370
    -2
100
AcDbLine
 10
178.0001089354263
 20
-3.499987637474178
 30
0.0
 11
178.0001089354263
 21
-172.8996379392698
 31
0.0
  0
LINE
  5
5B87
330
5B84
100
AcDbEntity
  8
30
  6
Continuous
 62
     0
370
    -2
100
AcDbLine
 10
214.9999257258451
 20
-106.9994751293082
 30
0.0
 11
214.9999257258451
 21
-172.8996379392698
 31
0.0
  0
LINE
  5
5B88
330
5B84
100
AcDbEntity
  8
30
  6
Continuous
 62
     0
370
    -2
100
AcDbLine
 10
180.0001089354263
 20
-172.3996379392698
 30
0.0
 11
212.9999257258451
 21
-172.3996379392698
 31
0.0
  0
INSERT
  5
5B89
330
5B84
100
AcDbEntity
  8
30
  6
Continuous
 62
     0
370
    -2
100
AcDbBlockReference
  2
_OPEN
 10
178.0001089354263
 20
-172.3996379392698
 30
0.0
 41
2.0
 42
2.0
 43
2.0
 50
180.0
  0
INSERT
  5
5B8A
330
5B84
100
AcDbEntity
  8
30
  6
Continuous
 62
     0
370
    -2
100
AcDbBlockReference
  2
_OPEN
 10
214.9999257258451
 20
-172.3996379392698
 30
0.0
 41
2.0
 42
2.0
 43
2.0
  0
MTEXT
  5
5B8B
330
5B84
100
AcDbEntity
  8
30
  6
Continuous
 62
     0
100
AcDbMText
 10
196.5000173306356
 20
-169.3996379392698
 30
0.0
 40
4.0
 41
0.0
 46
0.0
 71
     5
 72
     1
  1
\A1;37
 73
     1
 44
1.0
1001
ACAD
1000
MTEXTBEGIN
1070
    73
1070
     1
1070
    44
1040
1.0
1070
    74
1070
     0
1000
MTEXTEND
  0
POINT
  5
5B8C
330
5B84
100
AcDbEntity
  8
DEFPOINTS
  6
Continuous
 62
     0
100
AcDbPoint
 10
178.0001089354263
 20
-2.499987637474178
 30
0.0
  0
POINT
  5
5B8D
330
5B84
100
AcDbEntity
  8
DEFPOINTS
  6
Continuous
 62
     0
100
AcDbPoint
 10
214.9999257258451
 20
-105.9994751293082
 30
0.0
  0
POINT
  5
5B8E
330
5B84
100
AcDbEntity
  8
DEFPOINTS
  6
Continuous
 62
     0
100
AcDbPoint
 10
214.9999257258451
 20
-172.3996379392698
 30
0.0
  0
ENDBLK
  5
5B8F
330
5B84
100
AcDbEntity
  8
0
100
AcDbBlockEnd
  0
BLOCK
  5
5B91
330
5B90
100
AcDbEntity
  8
0
100
AcDbBlockBegin
  2
*D24
 70
     1
 10
0.0
 20
0.0
 30
0.0
  3
*D24
  1

  0
LINE
  5
5B92
330
5B90
100
AcDbEntity
  8
30
  6
Continuous
 62
     0
370
    -2
100
AcDbLine
 10
214.9999257258451
 20
-106.9994751293082
 30
0.0
 11
214.9999257258451
 21
-172.8996379392698
 31
0.0
  0
LINE
  5
5B93
330
5B90
100
AcDbEntity
  8
30
  6
Continuous
 62
     0
370
    -2
100
AcDbLine
 10
371.9991483230286
 20
-67.99966824211003
 30
0.0
 11
371.9991483230286
 21
-172.8996379392698
 31
0.0
  0
LINE
  5
5B94
330
5B90
100
AcDbEntity
  8
30
  6
Continuous
 62
     0
370
    -2
100
AcDbLine
 10
216.9999257258451
 20
-172.3996379392698
 30
0.0
 11
369.9991483230286
 21
-172.3996379392698
 31
0.0
  0
INSERT
  5
5B95
330
5B90
100
AcDbEntity
  8
30
  6
Continuous
 62
     0
370
    -2
100
AcDbBlockReference
  2
_OPEN
 10
214.9999257258451
 20
-172.3996379392698
 30
0.0
 41
2.0
 42
2.0
 43
2.0
 50
180.0
  0
INSERT
  5
5B96
330
5B90
100
AcDbEntity
  8
30
  6
Continuous
 62
     0
370
    -2
100
AcDbBlockReference
  2
_OPEN
 10
371.9991483230286
 20
-172.3996379392698
 30
0.0
 41
2.0
 42
2.0
 43
2.0
  0
MTEXT
  5
5B97
330
5B90
100
AcDbEntity
  8
30
  6
Continuous
 62
     0
100
AcDbMText
 10
293.4995370244369
 20
-169.3996379392698
 30
0.0
 40
4.0
 41
0.0
 46
0.0
 71
     5
 72
     1
  1
\A1;157
 73
     1
 44
1.0
1001
ACAD
1000
MTEXTBEGIN
1070
    73
1070
     1
1070
    44
1040
1.0
1070
    74
1070
     0
1000
MTEXTEND
  0
POINT
  5
5B98
330
5B90
100
AcDbEntity
  8
DEFPOINTS
  6
Continuous
 62
     0
100
AcDbPoint
 10
214.9999257258451
 20
-105.9994751293082
 30
0.0
  0
POINT
  5
5B99
330
5B90
100
AcDbEntity
  8
DEFPOINTS
  6
Continuous
 62
     0
100
AcDbPoint
 10
371.9991483230286
 20
-66.99966824211003
 30
0.0
  0
POINT
  5
5B9A
330
5B90
100
AcDbEntity
  8
DEFPOINTS
  6
Continuous
 62
     0
100
AcDbPoint
 10
371.9991483230286
 20
-172.3996379392698
 30
0.0
  0
ENDBLK
  5
5B9B
330
5B90
100
AcDbEntity
  8
0
100
AcDbBlockEnd
  0
BLOCK
  5
5B9D
330
5B9C
100
AcDbEntity
  8
0
100
AcDbBlockBegin
  2
*D25
 70
     1
 10
0.0
 20
0.0
 30
0.0
  3
*D25
  1

  0
LINE
  5
5B9E
330
5B9C
100
AcDbEntity
  8
30
  6
Continuous
 62
     0
370
    -2
100
AcDbLine
 10
214.9999257258451
 20
-106.9994751293082
 30
0.0
 11
214.9999257258451
 21
-147.8997617295276
 31
0.0
  0
LINE
  5
5B9F
330
5B9C
100
AcDbEntity
  8
30
  6
Continuous
 62
     0
370
    -2
100
AcDbLine
 10
321.9993959035433
 20
-67.99966824211003
 30
0.0
 11
321.9993959035433
 21
-147.8997617295276
 31
0.0
  0
LINE
  5
5BA0
330
5B9C
100
AcDbEntity
  8
30
  6
Continuous
 62
     0
370
    -2
100
AcDbLine
 10
216.9999257258451
 20
-147.3997617295276
 30
0.0
 11
319.9993959035433
 21
-147.3997617295276
 31
0.0
  0
INSERT
  5
5BA1
330
5B9C
100
AcDbEntity
  8
30
  6
Continuous
 62
     0
370
    -2
100
AcDbBlockReference
  2
_OPEN
 10
214.9999257258451
 20
-147.3997617295276
 30
0.0
 41
2.0
 42
2.0
 43
2.0
 50
180.0
  0
INSERT
  5
5BA2
330
5B9C
100
AcDbEntity
  8
30
  6
Continuous
 62
     0
370
    -2
100
AcDbBlockReference
  2
_OPEN
 10
321.9993959035433
 20
-147.3997617295276
 30
0.0
 41
2.0
 42
2.0
 43
2.0
  0
MTEXT
  5
5BA3
330
5B9C
100
AcDbEntity
  8
30
  6
Continuous
 62
     0
100
AcDbMText
 10
268.4996608146942
 20
-144.3997617295276
 30
0.0
 40
4.0
 41
0.0
 46
0.0
 71
     5
 72
     1
  1
\A1;107
 73
     1
 44
1.0
1001
ACAD
1000
MTEXTBEGIN
1070
    73
1070
     1
1070
    44
1040
1.0
1070
    74
1070
     0
1000
MTEXTEND
  0
POINT
  5
5BA4
330
5B9C
100
AcDbEntity
  8
DEFPOINTS
  6
Continuous
 62
     0
100
AcDbPoint
 10
214.9999257258451
 20
-105.9994751293082
 30
0.0
  0
POINT
  5
5BA5
330
5B9C
100
AcDbEntity
  8
DEFPOINTS
  6
Continuous
 62
     0
100
AcDbPoint
 10
321.9993959035433
 20
-66.99966824211003
 30
0.0
  0
POINT
  5
5BA6
330
5B9C
100
AcDbEntity
  8
DEFPOINTS
  6
Continuous
 62
     0
100
AcDbPoint
 10
321.9993959035433
 20
-147.3997617295276
 30
0.0
  0
ENDBLK
  5
5BA7
330
5B9C
100
AcDbEntity
  8
0
100
AcDbBlockEnd
  0
BLOCK
  5
5BA9
330
5BA8
100
AcDbEntity
  8
0
100
AcDbBlockBegin
  2
*D26
 70
     1
 10
0.0
 20
0.0
 30
0.0
  3
*D26
  1

  0
LINE
  5
5BAA
330
5BA8
100
AcDbEntity
  8
30
  6
Continuous
 62
     0
370
    -2
100
AcDbLine
 10
291.9995444518525
 20
-58.99970288688222
 30
0.0
 11
291.9995444518525
 21
-34.40031878568621
 31
0.0
  0
LINE
  5
5BAB
330
5BA8
100
AcDbEntity
  8
30
  6
Continuous
 62
     0
370
    -2
100
AcDbLine
 10
306.9994701776981
 20
-63.49968060463591
 30
0.0
 11
306.9994701776981
 21
-34.40031878568621
 31
0.0
  0
LINE
  5
5BAC
330
5BA8
100
AcDbEntity
  8
30
  6
Continuous
 62
     0
370
    -2
100
AcDbLine
 10
293.9995444518525
 20
-34.90031878568621
 30
0.0
 11
304.9994701776981
 21
-34.90031878568621
 31
0.0
  0
INSERT
  5
5BAD
330
5BA8
100
AcDbEntity
  8
30
  6
Continuous
 62
     0
370
    -2
100
AcDbBlockReference
  2
_OPEN
 10
291.9995444518525
 20
-34.90031878568621
 30
0.0
 41
2.0
 42
2.0
 43
2.0
 50
180.0
  0
INSERT
  5
5BAE
330
5BA8
100
AcDbEntity
  8
30
  6
Continuous
 62
     0
370
    -2
100
AcDbBlockReference
  2
_OPEN
 10
306.9994701776981
 20
-34.90031878568621
 30
0.0
 41
2.0
 42
2.0
 43
2.0
  0
MTEXT
  5
5BAF
330
5BA8
100
AcDbEntity
  8
30
  6
Continuous
 62
     0
100
AcDbMText
 10
299.4995073147753
 20
-31.90031878568621
 30
0.0
 40
4.0
 41
0.0
 46
0.0
 71
     5
 72
     1
  1
\A1;15
 73
     1
 44
1.0
1001
ACAD
1000
MTEXTBEGIN
1070
    73
1070
     1
1070
    44
1040
1.0
1070
    74
1070
     0
1000
MTEXTEND
  0
POINT
  5
5BB0
330
5BA8
100
AcDbEntity
  8
DEFPOINTS
  6
Continuous
 62
     0
100
AcDbPoint
 10
291.9995444518525
 20
-59.99970288688222
 30
0.0
  0
POINT
  5
5BB1
330
5BA8
100
AcDbEntity
  8
DEFPOINTS
  6
Continuous
 62
     0
100
AcDbPoint
 10
306.9994701776981
 20
-64.49968060463591
 30
0.0
  0
POINT
  5
5BB2
330
5BA8
100
AcDbEntity
  8
DEFPOINTS
  6
Continuous
 62
     0
100
AcDbPoint
 10
306.9994701776981
 20
-34.90031878568621
 30
0.0
  0
ENDBLK
  5
5BB3
330
5BA8
100
AcDbEntity
  8
0
100
AcDbBlockEnd
  0
BLOCK
  5
5BB5
330
5BB4
100
AcDbEntity
  8
0
100
AcDbBlockBegin
  2
*D27
 70
     1
 10
0.0
 20
0.0
 30
0.0
  3
*D27
  1

  0
LINE
  5
5BB6
330
5BB4
100
AcDbEntity
  8
30
  6
Continuous
 62
     0
370
    -2
100
AcDbLine
 10
200.0
 20
-96.99952464541125
 30
0.0
 11
200.0
 21
-147.8997617295276
 31
0.0
  0
LINE
  5
5BB7
330
5BB4
100
AcDbEntity
  8
30
  6
Continuous
 62
     0
370
    -2
100
AcDbLine
 10
214.9999257258451
 20
-106.9994751293082
 30
0.0
 11
214.9999257258451
 21
-147.8997617295276
 31
0.0
  0
LINE
  5
5BB8
330
5BB4
100
AcDbEntity
  8
30
  6
Continuous
 62
     0
370
    -2
100
AcDbLine
 10
202.0
 20
-147.3997617295276
 30
0.0
 11
212.9999257258451
 21
-147.3997617295276
 31
0.0
  0
INSERT
  5
5BB9
330
5BB4
100
AcDbEntity
  8
30
  6
Continuous
 62
     0
370
    -2
100
AcDbBlockReference
  2
_OPEN
 10
200.0
 20
-147.3997617295276
 30
0.0
 41
2.0
 42
2.0
 43
2.0
 50
180.0
  0
INSERT
  5
5BBA
330
5BB4
100
AcDbEntity
  8
30
  6
Continuous
 62
     0
370
    -2
100
AcDbBlockReference
  2
_OPEN
 10
214.9999257258451
 20
-147.3997617295276
 30
0.0
 41
2.0
 42
2.0
 43
2.0
  0
MTEXT
  5
5BBB
330
5BB4
100
AcDbEntity
  8
30
  6
Continuous
 62
     0
100
AcDbMText
 10
207.4999628629226
 20
-144.3997617295276
 30
0.0
 40
4.0
 41
0.0
 46
0.0
 71
     5
 72
     1
  1
\A1;15
 73
     1
 44
1.0
1001
ACAD
1000
MTEXTBEGIN
1070
    73
1070
     1
1070
    44
1040
1.0
1070
    74
1070
     0
1000
MTEXTEND
  0
POINT
  5
5BBC
330
5BB4
100
AcDbEntity
  8
DEFPOINTS
  6
Continuous
 62
     0
100
AcDbPoint
 10
200.0
 20
-95.99952464541123
 30
0.0
  0
POINT
  5
5BBD
330
5BB4
100
AcDbEntity
  8
DEFPOINTS
  6
Continuous
 62
     0
100
AcDbPoint
 10
214.9999257258451
 20
-105.9994751293082
 30
0.0
  0
POINT
  5
5BBE
330
5BB4
100
AcDbEntity
  8
DEFPOINTS
  6
Continuous
 62
     0
100
AcDbPoint
 10
214.9999257258451
 20
-147.3997617295276
 30
0.0
  0
ENDBLK
  5
5BBF
330
5BB4
100
AcDbEntity
  8
0
100
AcDbBlockEnd
  0
BLOCK
  5
5BC1
330
5BC0
100
AcDbEntity
  8
0
100
AcDbBlockBegin
  2
*D28
 70
     1
 10
0.0
 20
0.0
 30
0.0
  3
*D28
  1

  0
LINE
  5
5BC2
330
5BC0
100
AcDbEntity
  8
30
  6
Continuous
 62
     0
370
    -2
100
AcDbLine
 10
356.9992225971832
 20
-70.49965587958421
 30
0.0
 11
356.9992225971832
 21
-122.8998855197852
 31
0.0
  0
LINE
  5
5BC3
330
5BC0
100
AcDbEntity
  8
30
  6
Continuous
 62
     0
370
    -2
100
AcDbLine
 10
371.9991483230286
 20
-77.28671009944187
 30
0.0
 11
371.9991483230286
 21
-122.8998855197852
 31
0.0
  0
LINE
  5
5BC4
330
5BC0
100
AcDbEntity
  8
30
  6
Continuous
 62
     0
370
    -2
100
AcDbLine
 10
358.9992225971832
 20
-122.3998855197852
 30
0.0
 11
369.9991483230286
 21
-122.3998855197852
 31
0.0
  0
INSERT
  5
5BC5
330
5BC0
100
AcDbEntity
  8
30
  6
Continuous
 62
     0
370
    -2
100
AcDbBlockReference
  2
_OPEN
 10
356.9992225971832
 20
-122.3998855197852
 30
0.0
 41
2.0
 42
2.0
 43
2.0
 50
180.0
  0
INSERT
  5
5BC6
330
5BC0
100
AcDbEntity
  8
30
  6
Continuous
 62
     0
370
    -2
100
AcDbBlockReference
  2
_OPEN
 10
371.9991483230286
 20
-122.3998855197852
 30
0.0
 41
2.0
 42
2.0
 43
2.0
  0
MTEXT
  5
5BC7
330
5BC0
100
AcDbEntity
  8
30
  6
Continuous
 62
     0
100
AcDbMText
 10
364.4991854601059
 20
-119.3998855197852
 30
0.0
 40
4.0
 41
0.0
 46
0.0
 71
     5
 72
     1
  1
\A1;15
 73
     1
 44
1.0
1001
ACAD
1000
MTEXTBEGIN
1070
    73
1070
     1
1070
    44
1040
1.0
1070
    74
1070
     0
1000
MTEXTEND
  0
POINT
  5
5BC8
330
5BC0
100
AcDbEntity
  8
DEFPOINTS
  6
Continuous
 62
     0
100
AcDbPoint
 10
356.9992225971832
 20
-69.49965587958423
 30
0.0
  0
POINT
  5
5BC9
330
5BC0
100
AcDbEntity
  8
DEFPOINTS
  6
Continuous
 62
     0
100
AcDbPoint
 10
371.9991483230286
 20
-76.28671009944188
 30
0.0
  0
POINT
  5
5BCA
330
5BC0
100
AcDbEntity
  8
DEFPOINTS
  6
Continuous
 62
     0
100
AcDbPoint
 10
371.9991483230286
 20
-122.3998855197852
 30
0.0
  0
ENDBLK
  5
5BCB
330
5BC0
100
AcDbEntity
  8
0
100
AcDbBlockEnd
  0
BLOCK
  5
5BCD
330
5BCC
100
AcDbEntity
  8
0
100
AcDbBlockBegin
  2
*D29
 70
     1
 10
0.0
 20
0.0
 30
0.0
  3
*D29
  1

  0
LINE
  5
5BCE
330
5BCC
100
AcDbEntity
  8
30
  6
Continuous
 62
     0
370
    -2
100
AcDbLine
 10
306.9994701776981
 20
-70.49965587958421
 30
0.0
 11
306.9994701776981
 21
-122.8998855197852
 31
0.0
  0
LINE
  5
5BCF
330
5BCC
100
AcDbEntity
  8
30
  6
Continuous
 62
     0
370
    -2
100
AcDbLine
 10
321.9993959035433
 20
-77.28671009944187
 30
0.0
 11
321.9993959035433
 21
-122.8998855197852
 31
0.0
  0
LINE
  5
5BD0
330
5BCC
100
AcDbEntity
  8
30
  6
Continuous
 62
     0
370
    -2
100
AcDbLine
 10
308.9994701776981
 20
-122.3998855197852
 30
0.0
 11
319.9993959035433
 21
-122.3998855197852
 31
0.0
  0
INSERT
  5
5BD1
330
5BCC
100
AcDbEntity
  8
30
  6
Continuous
 62
     0
370
    -2
100
AcDbBlockReference
  2
_OPEN
 10
306.9994701776981
 20
-122.3998855197852
 30
0.0
 41
2.0
 42
2.0
 43
2.0
 50
180.0
  0
INSERT
  5
5BD2
330
5BCC
100
AcDbEntity
  8
30
  6
Continuous
 62
     0
370
    -2
100
AcDbBlockReference
  2
_OPEN
 10
321.9993959035433
 20
-122.3998855197852
 30
0.0
 41
2.0
 42
2.0
 43
2.0
  0
MTEXT
  5
5BD3
330
5BCC
100
AcDbEntity
  8
30
  6
Continuous
 62
     0
100
AcDbMText
 10
314.4994330406207
 20
-119.3998855197852
 30
0.0
 40
4.0
 41
0.0
 46
0.0
 71
     5
 72
     1
  1
\A1;15
 73
     1
 44
1.0
1001
ACAD
1000
MTEXTBEGIN
1070
    73
1070
     1
1070
    44
1040
1.0
1070
    74
1070
     0
1000
MTEXTEND
  0
POINT
  5
5BD4
330
5BCC
100
AcDbEntity
  8
DEFPOINTS
  6
Continuous
 62
     0
100
AcDbPoint
 10
306.9994701776981
 20
-69.49965587958423
 30
0.0
  0
POINT
  5
5BD5
330
5BCC
100
AcDbEntity
  8
DEFPOINTS
  6
Continuous
 62
     0
100
AcDbPoint
 10
321.9993959035433
 20
-76.28671009944188
 30
0.0
  0
POINT
  5
5BD6
330
5BCC
100
AcDbEntity
  8
DEFPOINTS
  6
Continuous
 62
     0
100
AcDbPoint
 10
321.9993959035433
 20
-122.3998855197852
 30
0.0
  0
ENDBLK
  5
5BD7
330
5BCC
100
AcDbEntity
  8
0
100
AcDbBlockEnd
  0
BLOCK
  5
5BD9
330
5BD8
100
AcDbEntity
  8
0
100
AcDbBlockBegin
  2
*D30
 70
     1
 10
0.0
 20
0.0
 30
0.0
  3
*D30
  1

  0
LINE
  5
5BDA
330
5BD8
100
AcDbEntity
  8
30
  6
Continuous
 62
     0
370
    -2
100
AcDbLine
 10
370.8555653978196
 20
-74.99962862922766
 30
0.0
 11
396.5857515477538
 21
-74.99962862922766
 31
0.0
  0
LINE
  5
5BDB
330
5BD8
100
AcDbEntity
  8
30
  6
Continuous
 62
     0
370
    -2
100
AcDbLine
 10
370.8555653978196
 20
-58.99970785499242
 30
0.0
 11
396.5857515477538
 21
-58.99970785499242
 31
0.0
  0
LINE
  5
5BDC
330
5BD8
100
AcDbEntity
  8
30
  6
Continuous
 62
     0
370
    -2
100
AcDbLine
 10
396.0857515477538
 20
-72.99962862922765
 30
0.0
 11
396.0857515477538
 21
-60.99970785499241
 31
0.0
  0
INSERT
  5
5BDD
330
5BD8
100
AcDbEntity
  8
30
  6
Continuous
 62
     0
370
    -2
100
AcDbBlockReference
  2
_OPEN
 10
396.0857515477538
 20
-74.99962862922766
 30
0.0
 41
2.0
 42
2.0
 43
2.0
 50
270.0
  0
INSERT
  5
5BDE
330
5BD8
100
AcDbEntity
  8
30
  6
Continuous
 62
     0
370
    -2
100
AcDbBlockReference
  2
_OPEN
 10
396.0857515477538
 20
-58.99970785499242
 30
0.0
 41
2.0
 42
2.0
 43
2.0
 50
90.0
  0
MTEXT
  5
5BDF
330
5BD8
100
AcDbEntity
  8
30
  6
Continuous
 62
     0
100
AcDbMText
 10
393.0857515477539
 20
-66.99966824210996
 30
0.0
 40
4.0
 41
0.0
 46
0.0
 71
     5
 72
     1
  1
\A1;16
 11
0.0000000000000001
 21
1.0
 31
0.0
 73
     1
 44
1.0
1001
ACAD
1000
MTEXTBEGIN
1070
    73
1070
     1
1070
    44
1040
1.0
1070
    74
1070
     0
1000
MTEXTEND
  0
POINT
  5
5BE0
330
5BD8
100
AcDbEntity
  8
DEFPOINTS
  6
Continuous
 62
     0
100
AcDbPoint
 10
369.8555653978196
 20
-74.99962862922766
 30
0.0
  0
POINT
  5
5BE1
330
5BD8
100
AcDbEntity
  8
DEFPOINTS
  6
Continuous
 62
     0
100
AcDbPoint
 10
369.8555653978196
 20
-58.99970785499242
 30
0.0
  0
POINT
  5
5BE2
330
5BD8
100
AcDbEntity
  8
DEFPOINTS
  6
Continuous
 62
     0
100
AcDbPoint
 10
396.0857515477538
 20
-58.99970785499242
 30
0.0
  0
ENDBLK
  5
5BE3
330
5BD8
100
AcDbEntity
  8
0
100
AcDbBlockEnd
  0
BLOCK
  5
5BE5
330
5BE4
100
AcDbEntity
  8
0
100
AcDbBlockBegin
  2
*D31
 70
     1
 10
0.0
 20
0.0
 30
0.0
  3
*D31
  1

  0
LINE
  5
5BE6
330
5BE4
100
AcDbEntity
  8
30
  6
Continuous
 62
     0
370
    -2
100
AcDbLine
 10
372.9991483230286
 20
64.49968062113575
 30
0.0
 11
394.2524182144205
 21
64.49968062113575
 31
0.0
  0
LINE
  5
5BE7
330
5BE4
100
AcDbEntity
  8
30
  6
Continuous
 62
     0
370
    -2
100
AcDbLine
 10
372.9991483230286
 20
69.49965586308424
 30
0.0
 11
394.2524182144205
 21
69.49965586308424
 31
0.0
  0
LINE
  5
5BE8
330
5BE4
100
AcDbEntity
  8
30
  6
Continuous
 62
     0
370
    -2
100
AcDbLine
 10
393.7524182144205
 20
62.49968062113575
 30
0.0
 11
393.7524182144205
 21
60.49968062113575
 31
0.0
  0
LINE
  5
5BE9
330
5BE4
100
AcDbEntity
  8
30
  6
Continuous
 62
     0
370
    -2
100
AcDbLine
 10
393.7524182144205
 20
71.49965586308423
 30
0.0
 11
393.7524182144205
 21
73.49965586308425
 31
0.0
  0
LINE
  5
5BEA
330
5BE4
100
AcDbEntity
  8
30
  6
Continuous
 62
     0
370
    -2
100
AcDbLine
 10
393.7524182144205
 20
73.49965586308425
 30
0.0
 11
397.4190848810872
 21
73.49965586308425
 31
0.0
  0
INSERT
  5
5BEB
330
5BE4
100
AcDbEntity
  8
30
  6
Continuous
 62
     0
370
    -2
100
AcDbBlockReference
  2
_OPEN
 10
393.7524182144205
 20
64.49968062113575
 30
0.0
 41
2.0
 42
2.0
 43
2.0
 50
90.0
  0
INSERT
  5
5BEC
330
5BE4
100
AcDbEntity
  8
30
  6
Continuous
 62
     0
370
    -2
100
AcDbBlockReference
  2
_OPEN
 10
393.7524182144205
 20
69.49965586308424
 30
0.0
 41
2.0
 42
2.0
 43
2.0
 50
270.0
  0
MTEXT
  5
5BED
330
5BE4
100
AcDbEntity
  8
30
  6
Continuous
 62
     0
100
AcDbMText
 10
396.0857515477538
 20
76.4996558630843
 30
0.0
 40
4.0
 41
0.0
 46
0.0
 71
     5
 72
     1
  1
\A1;5
 73
     1
 44
1.0
1001
ACAD
1000
MTEXTBEGIN
1070
    73
1070
     1
1070
    44
1040
1.0
1070
    74
1070
     0
1000
MTEXTEND
  0
POINT
  5
5BEE
330
5BE4
100
AcDbEntity
  8
DEFPOINTS
  6
Continuous
 62
     0
100
AcDbPoint
 10
371.9991483230286
 20
64.49968062113575
 30
0.0
  0
POINT
  5
5BEF
330
5BE4
100
AcDbEntity
  8
DEFPOINTS
  6
Continuous
 62
     0
100
AcDbPoint
 10
371.9991483230286
 20
69.49965586308424
 30
0.0
  0
POINT
  5
5BF0
330
5BE4
100
AcDbEntity
  8
DEFPOINTS
  6
Continuous
 62
     0
100
AcDbPoint
 10
393.7524182144205
 20
69.49965586308424
 30
0.0
  0
ENDBLK
  5
5BF1
330
5BE4
100
AcDbEntity
  8
0
100
AcDbBlockEnd
  0
BLOCK
  5
5BF3
330
5BF2
100
AcDbEntity
  8
0
100
AcDbBlockBegin
  2
*D32
 70
     1
 10
0.0
 20
0.0
 30
0.0
  3
*D32
  1

  0
LINE
  5
5BF4
330
5BF2
100
AcDbEntity
  8
30
  6
Continuous
 62
     0
370
    -2
100
AcDbLine
 10
382.9990988069257
 20
66.99966824210996
 30
0.0
 11
408.2367141808032
 21
66.99966824210996
 31
0.0
  0
LINE
  5
5BF5
330
5BF2
100
AcDbEntity
  8
30
  6
Continuous
 62
     0
370
    -2
100
AcDbLine
 10
397.0857515477538
 20
-66.99966824211003
 30
0.0
 11
408.2367141808032
 21
-66.99966824211003
 31
0.0
  0
LINE
  5
5BF6
330
5BF2
100
AcDbEntity
  8
30
  6
Continuous
 62
     0
370
    -2
100
AcDbLine
 10
407.7367141808032
 20
64.99966824210996
 30
0.0
 11
407.7367141808032
 21
-64.99966824211004
 31
0.0
  0
INSERT
  5
5BF7
330
5BF2
100
AcDbEntity
  8
30
  6
Continuous
 62
     0
370
    -2
100
AcDbBlockReference
  2
_OPEN
 10
407.7367141808032
 20
66.99966824210996
 30
0.0
 41
2.0
 42
2.0
 43
2.0
 50
90.0
  0
INSERT
  5
5BF8
330
5BF2
100
AcDbEntity
  8
30
  6
Continuous
 62
     0
370
    -2
100
AcDbBlockReference
  2
_OPEN
 10
407.7367141808032
 20
-66.99966824211003
 30
0.0
 41
2.0
 42
2.0
 43
2.0
 50
270.0
  0
MTEXT
  5
5BF9
330
5BF2
100
AcDbEntity
  8
30
  6
Continuous
 62
     0
100
AcDbMText
 10
404.7367141808032
 20
0.0000000000000251
 30
0.0
 40
4.0
 41
0.0
 46
0.0
 71
     5
 72
     1
  1
\A1;134
 11
0.0000000000000001
 21
1.0
 31
0.0
 73
     1
 44
1.0
1001
ACAD
1000
MTEXTBEGIN
1070
    73
1070
     1
1070
    44
1040
1.0
1070
    74
1070
     0
1000
MTEXTEND
  0
POINT
  5
5BFA
330
5BF2
100
AcDbEntity
  8
DEFPOINTS
  6
Continuous
 62
     0
100
AcDbPoint
 10
381.9990988069256
 20
66.99966824210996
 30
0.0
  0
POINT
  5
5BFB
330
5BF2
100
AcDbEntity
  8
DEFPOINTS
  6
Continuous
 62
     0
100
AcDbPoint
 10
396.0857515477538
 20
-66.99966824211003
 30
0.0
  0
POINT
  5
5BFC
330
5BF2
100
AcDbEntity
  8
DEFPOINTS
  6
Continuous
 62
     0
100
AcDbPoint
 10
407.7367141808032
 20
-66.99966824211003
 30
0.0
  0
ENDBLK
  5
5BFD
330
5BF2
100
AcDbEntity
  8
0
100
AcDbBlockEnd
  0
BLOCK
  5
5D12
330
5D11
100
AcDbEntity
  8
0
100
AcDbBlockBegin
  2
*D33
 70
     1
 10
0.0
 20
0.0
 30
0.0
  3
*D33
  1

  0
LINE
  5
5D8B
330
5D11
100
AcDbEntity
  8
30
  6
Continuous
 62
     0
440
 16777216
370
    -2
100
AcDbLine
 10
402.9991483230286
 20
64.49968062113575
 30
0.0
 11
424.2524182144205
 21
64.49968062113573
 31
0.0
  0
LINE
  5
5D8C
330
5D11
100
AcDbEntity
  8
30
  6
Continuous
 62
     0
440
 16777216
370
    -2
100
AcDbLine
 10
402.9991483230286
 20
69.49965586308424
 30
0.0
 11
424.2524182144205
 21
69.49965586308421
 31
0.0
  0
LINE
  5
5D8D
330
5D11
100
AcDbEntity
  8
30
  6
Continuous
 62
     0
440
 16777216
370
    -2
100
AcDbLine
 10
423.7524182144204
 20
62.49968062113573
 30
0.0
 11
423.7524182144204
 21
60.49968062113574
 31
0.0
  0
LINE
  5
5D8E
330
5D11
100
AcDbEntity
  8
30
  6
Continuous
 62
     0
440
 16777216
370
    -2
100
AcDbLine
 10
423.7524182144204
 20
71.49965586308423
 30
0.0
 11
423.7524182144204
 21
73.49965586308423
 31
0.0
  0
LINE
  5
5D8F
330
5D11
100
AcDbEntity
  8
30
  6
Continuous
 62
     0
440
 16777216
370
    -2
100
AcDbLine
 10
423.7524182144204
 20
73.49965586308423
 30
0.0
 11
427.4190848810872
 21
73.49965586308423
 31
0.0
  0
INSERT
  5
5D90
330
5D11
100
AcDbEntity
  8
30
  6
Continuous
 62
     0
440
 16777216
370
    -2
100
AcDbBlockReference
  2
_OPEN
 10
423.7524182144204
 20
64.49968062113573
 30
0.0
 41
2.0
 42
2.0
 43
2.0
 50
90.0
  0
INSERT
  5
5D91
330
5D11
100
AcDbEntity
  8
30
  6
Continuous
 62
     0
440
 16777216
370
    -2
100
AcDbBlockReference
  2
_OPEN
 10
423.7524182144204
 20
69.49965586308421
 30
0.0
 41
2.0
 42
2.0
 43
2.0
 50
270.0
  0
MTEXT
  5
5D92
330
5D11
100
AcDbEntity
  8
30
  6
Continuous
 62
     0
440
 16777216
100
AcDbMText
 10
426.0857515477538
 20
76.4996558630843
 30
0.0
 40
4.0
 41
0.0
 46
0.0
 71
     5
 72
     1
  1
\A1;5
 73
     1
 44
1.0
1001
ACAD
1000
MTEXTBEGIN
1070
    73
1070
     1
1070
    44
1040
1.0
1070
    74
1070
     0
1000
MTEXTEND
  0
POINT
  5
5D93
330
5D11
100
AcDbEntity
  8
DEFPOINTS
  6
Continuous
 62
     0
440
 16777216
100
AcDbPoint
 10
401.9991483230286
 20
64.49968062113575
 30
0.0
  0
POINT
  5
5D94
330
5D11
100
AcDbEntity
  8
DEFPOINTS
  6
Continuous
 62
     0
440
 16777216
100
AcDbPoint
 10
401.9991483230286
 20
69.49965586308424
 30
0.0
  0
POINT
  5
5D95
330
5D11
100
AcDbEntity
  8
DEFPOINTS
  6
Continuous
 62
     0
440
 16777216
100
AcDbPoint
 10
423.7524182144204
 20
69.49965586308421
 30
0.0
  0
ENDBLK
  5
5D13
330
5D11
100
AcDbEntity
  8
0
100
AcDbBlockEnd
  0
BLOCK
  5
5D20
330
5D1F
100
AcDbEntity
  8
0
100
AcDbBlockBegin
  2
*D34
 70
     1
 10
0.0
 20
0.0
 30
0.0
  3
*D34
  1

  0
LINE
  5
5D96
330
5D1F
100
AcDbEntity
  8
30
  6
Continuous
 62
     0
440
 16777216
370
    -2
100
AcDbLine
 10
412.9990988069256
 20
66.99966824210996
 30
0.0
 11
438.2367141808032
 21
66.99966824210996
 31
0.0
  0
LINE
  5
5D97
330
5D1F
100
AcDbEntity
  8
30
  6
Continuous
 62
     0
440
 16777216
370
    -2
100
AcDbLine
 10
427.0857515477538
 20
-66.99966824211003
 30
0.0
 11
438.2367141808032
 21
-66.99966824211003
 31
0.0
  0
LINE
  5
5D98
330
5D1F
100
AcDbEntity
  8
30
  6
Continuous
 62
     0
440
 16777216
370
    -2
100
AcDbLine
 10
437.7367141808032
 20
64.99966824210996
 30
0.0
 11
437.7367141808032
 21
-64.99966824211004
 31
0.0
  0
INSERT
  5
5D99
330
5D1F
100
AcDbEntity
  8
30
  6
Continuous
 62
     0
440
 16777216
370
    -2
100
AcDbBlockReference
  2
_OPEN
 10
437.7367141808032
 20
66.99966824210996
 30
0.0
 41
2.0
 42
2.0
 43
2.0
 50
90.0
  0
INSERT
  5
5D9A
330
5D1F
100
AcDbEntity
  8
30
  6
Continuous
 62
     0
440
 16777216
370
    -2
100
AcDbBlockReference
  2
_OPEN
 10
437.7367141808032
 20
-66.99966824211003
 30
0.0
 41
2.0
 42
2.0
 43
2.0
 50
270.0
  0
MTEXT
  5
5D9B
330
5D1F
100
AcDbEntity
  8
30
  6
Continuous
 62
     0
440
 16777216
100
AcDbMText
 10
434.7367141808032
 20
0.0000000000000304
 30
0.0
 40
4.0
 41
0.0
 46
0.0
 71
     5
 72
     1
  1
\A1;134
 11
0.0000000000000001
 21
1.0
 31
0.0
 73
     1
 44
1.0
1001
ACAD
1000
MTEXTBEGIN
1070
    73
1070
     1
1070
    44
1040
1.0
1070
    74
1070
     0
1000
MTEXTEND
  0
POINT
  5
5D9C
330
5D1F
100
AcDbEntity
  8
DEFPOINTS
  6
Continuous
 62
     0
440
 16777216
100
AcDbPoint
 10
411.9990988069256
 20
66.99966824210996
 30
0.0
  0
POINT
  5
5D9D
330
5D1F
100
AcDbEntity
  8
DEFPOINTS
  6
Continuous
 62
     0
440
 16777216
100
AcDbPoint
 10
426.0857515477538
 20
-66.99966824211003
 30
0.0
  0
POINT
  5
5D9E
330
5D1F
100
AcDbEntity
  8
DEFPOINTS
  6
Continuous
 62
     0
440
 16777216
100
AcDbPoint
 10
437.7367141808032
 20
-66.99966824211003
 30
0.0
  0
ENDBLK
  5
5D21
330
5D1F
100
AcDbEntity
  8
0
100
AcDbBlockEnd
  0
BLOCK
  5
5D2C
330
5D2B
100
AcDbEntity
  8
0
100
AcDbBlockBegin
  2
*D35
 70
     1
 10
0.0
 20
0.0
 30
0.0
  3
*D35
  1

  0
LINE
  5
5D9F
330
5D2B
100
AcDbEntity
  8
30
  6
Continuous
 62
     0
440
 16777216
370
    -2
100
AcDbLine
 10
208.0001089354263
 20
-3.499987637474176
 30
0.0
 11
208.0001089354263
 21
-172.8996379392698
 31
0.0
  0
LINE
  5
5DA0
330
5D2B
100
AcDbEntity
  8
30
  6
Continuous
 62
     0
440
 16777216
370
    -2
100
AcDbLine
 10
244.9999257258451
 20
-106.9994751293082
 30
0.0
 11
244.9999257258451
 21
-172.8996379392698
 31
0.0
  0
LINE
  5
5DA1
330
5D2B
100
AcDbEntity
  8
30
  6
Continuous
 62
     0
440
 16777216
370
    -2
100
AcDbLine
 10
210.0001089354263
 20
-172.3996379392698
 30
0.0
 11
242.9999257258451
 21
-172.3996379392698
 31
0.0
  0
INSERT
  5
5DA2
330
5D2B
100
AcDbEntity
  8
30
  6
Continuous
 62
     0
440
 16777216
370
    -2
100
AcDbBlockReference
  2
_OPEN
 10
208.0001089354263
 20
-172.3996379392698
 30
0.0
 41
2.0
 42
2.0
 43
2.0
 50
180.0
  0
INSERT
  5
5DA3
330
5D2B
100
AcDbEntity
  8
30
  6
Continuous
 62
     0
440
 16777216
370
    -2
100
AcDbBlockReference
  2
_OPEN
 10
244.9999257258451
 20
-172.3996379392698
 30
0.0
 41
2.0
 42
2.0
 43
2.0
  0
MTEXT
  5
5DA4
330
5D2B
100
AcDbEntity
  8
30
  6
Continuous
 62
     0
440
 16777216
100
AcDbMText
 10
226.5000173306357
 20
-169.3996379392698
 30
0.0
 40
4.0
 41
0.0
 46
0.0
 71
     5
 72
     1
  1
\A1;37
 73
     1
 44
1.0
1001
ACAD
1000
MTEXTBEGIN
1070
    73
1070
     1
1070
    44
1040
1.0
1070
    74
1070
     0
1000
MTEXTEND
  0
POINT
  5
5DA5
330
5D2B
100
AcDbEntity
  8
DEFPOINTS
  6
Continuous
 62
     0
440
 16777216
100
AcDbPoint
 10
208.0001089354263
 20
-2.499987637474176
 30
0.0
  0
POINT
  5
5DA6
330
5D2B
100
AcDbEntity
  8
DEFPOINTS
  6
Continuous
 62
     0
440
 16777216
100
AcDbPoint
 10
244.9999257258451
 20
-105.9994751293082
 30
0.0
  0
POINT
  5
5DA7
330
5D2B
100
AcDbEntity
  8
DEFPOINTS
  6
Continuous
 62
     0
440
 16777216
100
AcDbPoint
 10
244.9999257258451
 20
-172.3996379392698
 30
0.0
  0
ENDBLK
  5
5D2D
330
5D2B
100
AcDbEntity
  8
0
100
AcDbBlockEnd
  0
BLOCK
  5
5D38
330
5D37
100
AcDbEntity
  8
0
100
AcDbBlockBegin
  2
*D36
 70
     1
 10
0.0
 20
0.0
 30
0.0
  3
*D36
  1

  0
LINE
  5
5DA8
330
5D37
100
AcDbEntity
  8
30
  6
Continuous
 62
     0
440
 16777216
370
    -2
100
AcDbLine
 10
244.9999257258451
 20
-106.9994751293082
 30
0.0
 11
244.9999257258451
 21
-172.8996379392698
 31
0.0
  0
LINE
  5
5DA9
330
5D37
100
AcDbEntity
  8
30
  6
Continuous
 62
     0
440
 16777216
370
    -2
100
AcDbLine
 10
401.9991483230286
 20
-67.99966824211003
 30
0.0
 11
401.9991483230286
 21
-172.8996379392698
 31
0.0
  0
LINE
  5
5DAA
330
5D37
100
AcDbEntity
  8
30
  6
Continuous
 62
     0
440
 16777216
370
    -2
100
AcDbLine
 10
246.9999257258451
 20
-172.3996379392698
 30
0.0
 11
399.9991483230287
 21
-172.3996379392698
 31
0.0
  0
INSERT
  5
5DAB
330
5D37
100
AcDbEntity
  8
30
  6
Continuous
 62
     0
440
 16777216
370
    -2
100
AcDbBlockReference
  2
_OPEN
 10
244.9999257258451
 20
-172.3996379392698
 30
0.0
 41
2.0
 42
2.0
 43
2.0
 50
180.0
  0
INSERT
  5
5DAC
330
5D37
100
AcDbEntity
  8
30
  6
Continuous
 62
     0
440
 16777216
370
    -2
100
AcDbBlockReference
  2
_OPEN
 10
401.9991483230286
 20
-172.3996379392698
 30
0.0
 41
2.0
 42
2.0
 43
2.0
  0
MTEXT
  5
5DAD
330
5D37
100
AcDbEntity
  8
30
  6
Continuous
 62
     0
440
 16777216
100
AcDbMText
 10
323.4995370244369
 20
-169.3996379392698
 30
0.0
 40
4.0
 41
0.0
 46
0.0
 71
     5
 72
     1
  1
\A1;157
 73
     1
 44
1.0
1001
ACAD
1000
MTEXTBEGIN
1070
    73
1070
     1
1070
    44
1040
1.0
1070
    74
1070
     0
1000
MTEXTEND
  0
POINT
  5
5DAE
330
5D37
100
AcDbEntity
  8
DEFPOINTS
  6
Continuous
 62
     0
440
 16777216
100
AcDbPoint
 10
244.9999257258451
 20
-105.9994751293082
 30
0.0
  0
POINT
  5
5DAF
330
5D37
100
AcDbEntity
  8
DEFPOINTS
  6
Continuous
 62
     0
440
 16777216
100
AcDbPoint
 10
401.9991483230286
 20
-66.99966824211003
 30
0.0
  0
POINT
  5
5DB0
330
5D37
100
AcDbEntity
  8
DEFPOINTS
  6
Continuous
 62
     0
440
 16777216
100
AcDbPoint
 10
401.9991483230286
 20
-172.3996379392698
 30
0.0
  0
ENDBLK
  5
5D39
330
5D37
100
AcDbEntity
  8
0
100
AcDbBlockEnd
  0
BLOCK
  5
5D44
330
5D43
100
AcDbEntity
  8
0
100
AcDbBlockBegin
  2
*D37
 70
     1
 10
0.0
 20
0.0
 30
0.0
  3
*D37
  1

  0
LINE
  5
5DB1
330
5D43
100
AcDbEntity
  8
30
  6
Continuous
 62
     0
440
 16777216
370
    -2
100
AcDbLine
 10
244.9999257258451
 20
-106.9994751293082
 30
0.0
 11
244.9999257258451
 21
-147.8997617295276
 31
0.0
  0
LINE
  5
5DB2
330
5D43
100
AcDbEntity
  8
30
  6
Continuous
 62
     0
440
 16777216
370
    -2
100
AcDbLine
 10
351.9993959035433
 20
-67.99966824211003
 30
0.0
 11
351.9993959035433
 21
-147.8997617295276
 31
0.0
  0
LINE
  5
5DB3
330
5D43
100
AcDbEntity
  8
30
  6
Continuous
 62
     0
440
 16777216
370
    -2
100
AcDbLine
 10
246.9999257258451
 20
-147.3997617295276
 30
0.0
 11
349.9993959035433
 21
-147.3997617295276
 31
0.0
  0
INSERT
  5
5DB4
330
5D43
100
AcDbEntity
  8
30
  6
Continuous
 62
     0
440
 16777216
370
    -2
100
AcDbBlockReference
  2
_OPEN
 10
244.9999257258451
 20
-147.3997617295276
 30
0.0
 41
2.0
 42
2.0
 43
2.0
 50
180.0
  0
INSERT
  5
5DB5
330
5D43
100
AcDbEntity
  8
30
  6
Continuous
 62
     0
440
 16777216
370
    -2
100
AcDbBlockReference
  2
_OPEN
 10
351.9993959035433
 20
-147.3997617295276
 30
0.0
 41
2.0
 42
2.0
 43
2.0
  0
MTEXT
  5
5DB6
330
5D43
100
AcDbEntity
  8
30
  6
Continuous
 62
     0
440
 16777216
100
AcDbMText
 10
298.4996608146941
 20
-144.3997617295276
 30
0.0
 40
4.0
 41
0.0
 46
0.0
 71
     5
 72
     1
  1
\A1;107
 73
     1
 44
1.0
1001
ACAD
1000
MTEXTBEGIN
1070
    73
1070
     1
1070
    44
1040
1.0
1070
    74
1070
     0
1000
MTEXTEND
  0
POINT
  5
5DB7
330
5D43
100
AcDbEntity
  8
DEFPOINTS
  6
Continuous
 62
     0
440
 16777216
100
AcDbPoint
 10
244.9999257258451
 20
-105.9994751293082
 30
0.0
  0
POINT
  5
5DB8
330
5D43
100
AcDbEntity
  8
DEFPOINTS
  6
Continuous
 62
     0
440
 16777216
100
AcDbPoint
 10
351.9993959035433
 20
-66.99966824211003
 30
0.0
  0
POINT
  5
5DB9
330
5D43
100
AcDbEntity
  8
DEFPOINTS
  6
Continuous
 62
     0
440
 16777216
100
AcDbPoint
 10
351.9993959035433
 20
-147.3997617295276
 30
0.0
  0
ENDBLK
  5
5D45
330
5D43
100
AcDbEntity
  8
0
100
AcDbBlockEnd
  0
BLOCK
  5
5D50
330
5D4F
100
AcDbEntity
  8
0
100
AcDbBlockBegin
  2
*D38
 70
     1
 10
0.0
 20
0.0
 30
0.0
  3
*D38
  1

  0
LINE
  5
5DBA
330
5D4F
100
AcDbEntity
  8
30
  6
Continuous
 62
     0
440
 16777216
370
    -2
100
AcDbLine
 10
321.9995444518525
 20
-58.99970288688223
 30
0.0
 11
321.9995444518525
 21
-34.40031878568621
 31
0.0
  0
LINE
  5
5DBB
330
5D4F
100
AcDbEntity
  8
30
  6
Continuous
 62
     0
440
 16777216
370
    -2
100
AcDbLine
 10
336.9994701776982
 20
-63.4996806046359
 30
0.0
 11
336.9994701776982
 21
-34.40031878568621
 31
0.0
  0
LINE
  5
5DBC
330
5D4F
100
AcDbEntity
  8
30
  6
Continuous
 62
     0
440
 16777216
370
    -2
100
AcDbLine
 10
323.9995444518525
 20
-34.90031878568621
 30
0.0
 11
334.9994701776981
 21
-34.90031878568621
 31
0.0
  0
INSERT
  5
5DBD
330
5D4F
100
AcDbEntity
  8
30
  6
Continuous
 62
     0
440
 16777216
370
    -2
100
AcDbBlockReference
  2
_OPEN
 10
321.9995444518525
 20
-34.90031878568621
 30
0.0
 41
2.0
 42
2.0
 43
2.0
 50
180.0
  0
INSERT
  5
5DBE
330
5D4F
100
AcDbEntity
  8
30
  6
Continuous
 62
     0
440
 16777216
370
    -2
100
AcDbBlockReference
  2
_OPEN
 10
336.9994701776982
 20
-34.90031878568621
 30
0.0
 41
2.0
 42
2.0
 43
2.0
  0
MTEXT
  5
5DBF
330
5D4F
100
AcDbEntity
  8
30
  6
Continuous
 62
     0
440
 16777216
100
AcDbMText
 10
329.4995073147753
 20
-31.90031878568621
 30
0.0
 40
4.0
 41
0.0
 46
0.0
 71
     5
 72
     1
  1
\A1;15
 73
     1
 44
1.0
1001
ACAD
1000
MTEXTBEGIN
1070
    73
1070
     1
1070
    44
1040
1.0
1070
    74
1070
     0
1000
MTEXTEND
  0
POINT
  5
5DC0
330
5D4F
100
AcDbEntity
  8
DEFPOINTS
  6
Continuous
 62
     0
440
 16777216
100
AcDbPoint
 10
321.9995444518525
 20
-59.99970288688222
 30
0.0
  0
POINT
  5
5DC1
330
5D4F
100
AcDbEntity
  8
DEFPOINTS
  6
Continuous
 62
     0
440
 16777216
100
AcDbPoint
 10
336.9994701776982
 20
-64.49968060463588
 30
0.0
  0
POINT
  5
5DC2
330
5D4F
100
AcDbEntity
  8
DEFPOINTS
  6
Continuous
 62
     0
440
 16777216
100
AcDbPoint
 10
336.9994701776982
 20
-34.90031878568621
 30
0.0
  0
ENDBLK
  5
5D51
330
5D4F
100
AcDbEntity
  8
0
100
AcDbBlockEnd
  0
BLOCK
  5
5D5C
330
5D5B
100
AcDbEntity
  8
0
100
AcDbBlockBegin
  2
*D39
 70
     1
 10
0.0
 20
0.0
 30
0.0
  3
*D39
  1

  0
LINE
  5
5DC3
330
5D5B
100
AcDbEntity
  8
30
  6
Continuous
 62
     0
440
 16777216
370
    -2
100
AcDbLine
 10
230.0
 20
-96.99952464541125
 30
0.0
 11
230.0
 21
-147.8997617295276
 31
0.0
  0
LINE
  5
5DC4
330
5D5B
100
AcDbEntity
  8
30
  6
Continuous
 62
     0
440
 16777216
370
    -2
100
AcDbLine
 10
244.9999257258451
 20
-106.9994751293082
 30
0.0
 11
244.9999257258451
 21
-147.8997617295276
 31
0.0
  0
LINE
  5
5DC5
330
5D5B
100
AcDbEntity
  8
30
  6
Continuous
 62
     0
440
 16777216
370
    -2
100
AcDbLine
 10
232.0
 20
-147.3997617295276
 30
0.0
 11
242.9999257258451
 21
-147.3997617295276
 31
0.0
  0
INSERT
  5
5DC6
330
5D5B
100
AcDbEntity
  8
30
  6
Continuous
 62
     0
440
 16777216
370
    -2
100
AcDbBlockReference
  2
_OPEN
 10
230.0
 20
-147.3997617295276
 30
0.0
 41
2.0
 42
2.0
 43
2.0
 50
180.0
  0
INSERT
  5
5DC7
330
5D5B
100
AcDbEntity
  8
30
  6
Continuous
 62
     0
440
 16777216
370
    -2
100
AcDbBlockReference
  2
_OPEN
 10
244.9999257258451
 20
-147.3997617295276
 30
0.0
 41
2.0
 42
2.0
 43
2.0
  0
MTEXT
  5
5DC8
330
5D5B
100
AcDbEntity
  8
30
  6
Continuous
 62
     0
440
 16777216
100
AcDbMText
 10
237.4999628629225
 20
-144.3997617295276
 30
0.0
 40
4.0
 41
0.0
 46
0.0
 71
     5
 72
     1
  1
\A1;15
 73
     1
 44
1.0
1001
ACAD
1000
MTEXTBEGIN
1070
    73
1070
     1
1070
    44
1040
1.0
1070
    74
1070
     0
1000
MTEXTEND
  0
POINT
  5
5DC9
330
5D5B
100
AcDbEntity
  8
DEFPOINTS
  6
Continuous
 62
     0
440
 16777216
100
AcDbPoint
 10
230.0
 20
-95.99952464541123
 30
0.0
  0
POINT
  5
5DCA
330
5D5B
100
AcDbEntity
  8
DEFPOINTS
  6
Continuous
 62
     0
440
 16777216
100
AcDbPoint
 10
244.9999257258451
 20
-105.9994751293082
 30
0.0
  0
POINT
  5
5DCB
330
5D5B
100
AcDbEntity
  8
DEFPOINTS
  6
Continuous
 62
     0
440
 16777216
100
AcDbPoint
 10
244.9999257258451
 20
-147.3997617295276
 30
0.0
  0
ENDBLK
  5
5D5D
330
5D5B
100
AcDbEntity
  8
0
100
AcDbBlockEnd
  0
BLOCK
  5
5D68
330
5D67
100
AcDbEntity
  8
0
100
AcDbBlockBegin
  2
*D40
 70
     1
 10
0.0
 20
0.0
 30
0.0
  3
*D40
  1

  0
LINE
  5
5DCC
330
5D67
100
AcDbEntity
  8
30
  6
Continuous
 62
     0
440
 16777216
370
    -2
100
AcDbLine
 10
386.9992225971832
 20
-70.49965587958421
 30
0.0
 11
386.9992225971832
 21
-122.8998855197852
 31
0.0
  0
LINE
  5
5DCD
330
5D67
100
AcDbEntity
  8
30
  6
Continuous
 62
     0
440
 16777216
370
    -2
100
AcDbLine
 10
401.9991483230286
 20
-77.28671009944187
 30
0.0
 11
401.9991483230286
 21
-122.8998855197852
 31
0.0
  0
LINE
  5
5DCE
330
5D67
100
AcDbEntity
  8
30
  6
Continuous
 62
     0
440
 16777216
370
    -2
100
AcDbLine
 10
388.9992225971832
 20
-122.3998855197852
 30
0.0
 11
399.9991483230287
 21
-122.3998855197852
 31
0.0
  0
INSERT
  5
5DCF
330
5D67
100
AcDbEntity
  8
30
  6
Continuous
 62
     0
440
 16777216
370
    -2
100
AcDbBlockReference
  2
_OPEN
 10
386.9992225971832
 20
-122.3998855197852
 30
0.0
 41
2.0
 42
2.0
 43
2.0
 50
180.0
  0
INSERT
  5
5DD0
330
5D67
100
AcDbEntity
  8
30
  6
Continuous
 62
     0
440
 16777216
370
    -2
100
AcDbBlockReference
  2
_OPEN
 10
401.9991483230286
 20
-122.3998855197852
 30
0.0
 41
2.0
 42
2.0
 43
2.0
  0
MTEXT
  5
5DD1
330
5D67
100
AcDbEntity
  8
30
  6
Continuous
 62
     0
440
 16777216
100
AcDbMText
 10
394.4991854601059
 20
-119.3998855197852
 30
0.0
 40
4.0
 41
0.0
 46
0.0
 71
     5
 72
     1
  1
\A1;15
 73
     1
 44
1.0
1001
ACAD
1000
MTEXTBEGIN
1070
    73
1070
     1
1070
    44
1040
1.0
1070
    74
1070
     0
1000
MTEXTEND
  0
POINT
  5
5DD2
330
5D67
100
AcDbEntity
  8
DEFPOINTS
  6
Continuous
 62
     0
440
 16777216
100
AcDbPoint
 10
386.9992225971832
 20
-69.49965587958423
 30
0.0
  0
POINT
  5
5DD3
330
5D67
100
AcDbEntity
  8
DEFPOINTS
  6
Continuous
 62
     0
440
 16777216
100
AcDbPoint
 10
401.9991483230286
 20
-76.28671009944188
 30
0.0
  0
POINT
  5
5DD4
330
5D67
100
AcDbEntity
  8
DEFPOINTS
  6
Continuous
 62
     0
440
 16777216
100
AcDbPoint
 10
401.9991483230286
 20
-122.3998855197852
 30
0.0
  0
ENDBLK
  5
5D69
330
5D67
100
AcDbEntity
  8
0
100
AcDbBlockEnd
  0
BLOCK
  5
5D74
330
5D73
100
AcDbEntity
  8
0
100
AcDbBlockBegin
  2
*D41
 70
     1
 10
0.0
 20
0.0
 30
0.0
  3
*D41
  1

  0
LINE
  5
5DD5
330
5D73
100
AcDbEntity
  8
30
  6
Continuous
 62
     0
440
 16777216
370
    -2
100
AcDbLine
 10
336.9994701776982
 20
-70.49965587958421
 30
0.0
 11
336.9994701776982
 21
-122.8998855197852
 31
0.0
  0
LINE
  5
5DD6
330
5D73
100
AcDbEntity
  8
30
  6
Continuous
 62
     0
440
 16777216
370
    -2
100
AcDbLine
 10
351.9993959035433
 20
-77.28671009944187
 30
0.0
 11
351.9993959035433
 21
-122.8998855197852
 31
0.0
  0
LINE
  5
5DD7
330
5D73
100
AcDbEntity
  8
30
  6
Continuous
 62
     0
440
 16777216
370
    -2
100
AcDbLine
 10
338.9994701776981
 20
-122.3998855197852
 30
0.0
 11
349.9993959035433
 21
-122.3998855197852
 31
0.0
  0
INSERT
  5
5DD8
330
5D73
100
AcDbEntity
  8
30
  6
Continuous
 62
     0
440
 16777216
370
    -2
100
AcDbBlockReference
  2
_OPEN
 10
336.9994701776982
 20
-122.3998855197852
 30
0.0
 41
2.0
 42
2.0
 43
2.0
 50
180.0
  0
INSERT
  5
5DD9
330
5D73
100
AcDbEntity
  8
30
  6
Continuous
 62
     0
440
 16777216
370
    -2
100
AcDbBlockReference
  2
_OPEN
 10
351.9993959035433
 20
-122.3998855197852
 30
0.0
 41
2.0
 42
2.0
 43
2.0
  0
MTEXT
  5
5DDA
330
5D73
100
AcDbEntity
  8
30
  6
Continuous
 62
     0
440
 16777216
100
AcDbMText
 10
344.4994330406207
 20
-119.3998855197852
 30
0.0
 40
4.0
 41
0.0
 46
0.0
 71
     5
 72
     1
  1
\A1;15
 73
     1
 44
1.0
1001
ACAD
1000
MTEXTBEGIN
1070
    73
1070
     1
1070
    44
1040
1.0
1070
    74
1070
     0
1000
MTEXTEND
  0
POINT
  5
5DDB
330
5D73
100
AcDbEntity
  8
DEFPOINTS
  6
Continuous
 62
     0
440
 16777216
100
AcDbPoint
 10
336.9994701776982
 20
-69.49965587958423
 30
0.0
  0
POINT
  5
5DDC
330
5D73
100
AcDbEntity
  8
DEFPOINTS
  6
Continuous
 62
     0
440
 16777216
100
AcDbPoint
 10
351.9993959035433
 20
-76.28671009944188
 30
0.0
  0
POINT
  5
5DDD
330
5D73
100
AcDbEntity
  8
DEFPOINTS
  6
Continuous
 62
     0
440
 16777216
100
AcDbPoint
 10
351.9993959035433
 20
-122.3998855197852
 30
0.0
  0
ENDBLK
  5
5D75
330
5D73
100
AcDbEntity
  8
0
100
AcDbBlockEnd
  0
BLOCK
  5
5D80
330
5D7F
100
AcDbEntity
  8
0
100
AcDbBlockBegin
  2
*D42
 70
     1
 10
0.0
 20
0.0
 30
0.0
  3
*D42
  1

  0
LINE
  5
5DDE
330
5D7F
100
AcDbEntity
  8
30
  6
Continuous
 62
     0
440
 16777216
370
    -2
100
AcDbLine
 10
400.8555653978196
 20
-74.99962862922766
 30
0.0
 11
426.5857515477538
 21
-74.99962862922767
 31
0.0
  0
LINE
  5
5DDF
330
5D7F
100
AcDbEntity
  8
30
  6
Continuous
 62
     0
440
 16777216
370
    -2
100
AcDbLine
 10
400.8555653978196
 20
-58.99970785499242
 30
0.0
 11
426.5857515477538
 21
-58.99970785499242
 31
0.0
  0
LINE
  5
5DE0
330
5D7F
100
AcDbEntity
  8
30
  6
Continuous
 62
     0
440
 16777216
370
    -2
100
AcDbLine
 10
426.0857515477538
 20
-72.99962862922767
 30
0.0
 11
426.0857515477538
 21
-60.99970785499241
 31
0.0
  0
INSERT
  5
5DE1
330
5D7F
100
AcDbEntity
  8
30
  6
Continuous
 62
     0
440
 16777216
370
    -2
100
AcDbBlockReference
  2
_OPEN
 10
426.0857515477538
 20
-74.99962862922767
 30
0.0
 41
2.0
 42
2.0
 43
2.0
 50
270.0
  0
INSERT
  5
5DE2
330
5D7F
100
AcDbEntity
  8
30
  6
Continuous
 62
     0
440
 16777216
370
    -2
100
AcDbBlockReference
  2
_OPEN
 10
426.0857515477538
 20
-58.99970785499242
 30
0.0
 41
2.0
 42
2.0
 43
2.0
 50
90.0
  0
MTEXT
  5
5DE3
330
5D7F
100
AcDbEntity
  8
30
  6
Continuous
 62
     0
440
 16777216
100
AcDbMText
 10
423.0857515477538
 20
-66.99966824210996
 30
0.0
 40
4.0
 41
0.0
 46
0.0
 71
     5
 72
     1
  1
\A1;16
 11
0.0000000000000001
 21
1.0
 31
0.0
 73
     1
 44
1.0
1001
ACAD
1000
MTEXTBEGIN
1070
    73
1070
     1
1070
    44
1040
1.0
1070
    74
1070
     0
1000
MTEXTEND
  0
POINT
  5
5DE4
330
5D7F
100
AcDbEntity
  8
DEFPOINTS
  6
Continuous
 62
     0
440
 16777216
100
AcDbPoint
 10
399.8555653978196
 20
-74.99962862922766
 30
0.0
  0
POINT
  5
5DE5
330
5D7F
100
AcDbEntity
  8
DEFPOINTS
  6
Continuous
 62
     0
440
 16777216
100
AcDbPoint
 10
399.8555653978196
 20
-58.99970785499241
 30
0.0
  0
POINT
  5
5DE6
330
5D7F
100
AcDbEntity
  8
DEFPOINTS
  6
Continuous
 62
     0
440
 16777216
100
AcDbPoint
 10
426.0857515477538
 20
-58.99970785499242
 30
0.0
  0
ENDBLK
  5
5D81
330
5D7F
100
AcDbEntity
  8
0
100
AcDbBlockEnd
  0
BLOCK
  5
5DEB
330
5DEA
100
AcDbEntity
  8
0
100
AcDbBlockBegin
  2
*D43
 70
     1
 10
0.0
 20
0.0
 30
0.0
  3
*D43
  1

  0
LINE
  5
5DEC
330
5DEA
100
AcDbEntity
  8
30
  6
Continuous
 62
     0
370
    -2
100
AcDbLine
 10
-30.0
 20
242.4059210493446
 30
0.0
 11
-30.0
 21
344.0564135493445
 31
0.0
  0
LINE
  5
5DED
330
5DEA
100
AcDbEntity
  8
30
  6
Continuous
 62
     0
370
    -2
100
AcDbLine
 10
0.0000000000000001
 20
292.4059210493446
 30
0.0
 11
0.0000000000000032
 21
344.0564135493445
 31
0.0
  0
LINE
  5
5DEE
330
5DEA
100
AcDbEntity
  8
30
  6
Continuous
 62
     0
370
    -2
100
AcDbLine
 10
-27.99999999999999
 20
343.5564135493446
 30
0.0
 11
-1.999999999999995
 21
343.5564135493446
 31
0.0
  0
INSERT
  5
5DEF
330
5DEA
100
AcDbEntity
  8
30
  6
Continuous
 62
     0
370
    -2
100
AcDbBlockReference
  2
_OPEN
 10
-30.0
 20
343.5564135493446
 30
0.0
 41
2.0
 42
2.0
 43
2.0
 50
180.0
  0
INSERT
  5
5DF0
330
5DEA
100
AcDbEntity
  8
30
  6
Continuous
 62
     0
370
    -2
100
AcDbBlockReference
  2
_OPEN
 10
0.0000000000000032
 20
343.5564135493446
 30
0.0
 41
2.0
 42
2.0
 43
2.0
  0
MTEXT
  5
5DF1
330
5DEA
100
AcDbEntity
  8
30
  6
Continuous
 62
     0
100
AcDbMText
 10
-14.99999999999999
 20
346.5564135493445
 30
0.0
 40
4.0
 41
0.0
 46
0.0
 71
     5
 72
     1
  1
\A1; 30 
 73
     1
 44
1.0
1001
ACAD
1000
MTEXTBEGIN
1070
    73
1070
     1
1070
    44
1040
1.0
1070
    74
1070
     0
1000
MTEXTEND
  0
POINT
  5
5DF2
330
5DEA
100
AcDbEntity
  8
DEFPOINTS
  6
Continuous
 62
     0
100
AcDbPoint
 10
-30.0
 20
241.4059210493446
 30
0.0
  0
POINT
  5
5DF3
330
5DEA
100
AcDbEntity
  8
DEFPOINTS
  6
Continuous
 62
     0
100
AcDbPoint
 10
0.0
 20
291.4059210493446
 30
0.0
  0
POINT
  5
5DF4
330
5DEA
100
AcDbEntity
  8
DEFPOINTS
  6
Continuous
 62
     0
100
AcDbPoint
 10
0.0000000000000032
 20
343.5564135493446
 30
0.0
  0
ENDBLK
  5
5DF5
330
5DEA
100
AcDbEntity
  8
0
100
AcDbBlockEnd
  0
BLOCK
  5
5DF7
330
5DF6
100
AcDbEntity
  8
0
100
AcDbBlockBegin
  2
*D44
 70
     1
 10
0.0
 20
0.0
 30
0.0
  3
*D44
  1

  0
LINE
  5
5DF8
330
5DF6
100
AcDbEntity
  8
30
  6
Continuous
 62
     0
370
    -2
100
AcDbLine
 10
0.0000000000000001
 20
292.4059210493446
 30
0.0
 11
0.0000000000000032
 21
344.0564135493445
 31
0.0
  0
LINE
  5
5DF9
330
5DF6
100
AcDbEntity
  8
30
  6
Continuous
 62
     0
370
    -2
100
AcDbLine
 10
30.0
 20
242.4059210493446
 30
0.0
 11
30.00000000000001
 21
344.0564135493445
 31
0.0
  0
LINE
  5
5DFA
330
5DF6
100
AcDbEntity
  8
30
  6
Continuous
 62
     0
370
    -2
100
AcDbLine
 10
2.000000000000003
 20
343.5564135493446
 30
0.0
 11
28.00000000000001
 21
343.5564135493446
 31
0.0
  0
INSERT
  5
5DFB
330
5DF6
100
AcDbEntity
  8
30
  6
Continuous
 62
     0
370
    -2
100
AcDbBlockReference
  2
_OPEN
 10
0.0000000000000032
 20
343.5564135493446
 30
0.0
 41
2.0
 42
2.0
 43
2.0
 50
180.0
  0
INSERT
  5
5DFC
330
5DF6
100
AcDbEntity
  8
30
  6
Continuous
 62
     0
370
    -2
100
AcDbBlockReference
  2
_OPEN
 10
30.00000000000001
 20
343.5564135493446
 30
0.0
 41
2.0
 42
2.0
 43
2.0
  0
MTEXT
  5
5DFD
330
5DF6
100
AcDbEntity
  8
30
  6
Continuous
 62
     0
100
AcDbMText
 10
15.0
 20
346.5564135493445
 30
0.0
 40
4.0
 41
0.0
 46
0.0
 71
     5
 72
     1
  1
\A1; 30 
 73
     1
 44
1.0
1001
ACAD
1000
MTEXTBEGIN
1070
    73
1070
     1
1070
    44
1040
1.0
1070
    74
1070
     0
1000
MTEXTEND
  0
POINT
  5
5DFE
330
5DF6
100
AcDbEntity
  8
DEFPOINTS
  6
Continuous
 62
     0
100
AcDbPoint
 10
0.0
 20
291.4059210493446
 30
0.0
  0
POINT
  5
5DFF
330
5DF6
100
AcDbEntity
  8
DEFPOINTS
  6
Continuous
 62
     0
100
AcDbPoint
 10
30.0
 20
241.4059210493446
 30
0.0
  0
POINT
  5
5E00
330
5DF6
100
AcDbEntity
  8
DEFPOINTS
  6
Continuous
 62
     0
100
AcDbPoint
 10
30.00000000000001
 20
343.5564135493446
 30
0.0
  0
ENDBLK
  5
5E01
330
5DF6
100
AcDbEntity
  8
0
100
AcDbBlockEnd
  0
BLOCK
  5
5E03
330
5E02
100
AcDbEntity
  8
0
100
AcDbBlockBegin
  2
*D45
 70
     1
 10
0.0
 20
0.0
 30
0.0
  3
*D45
  1

  0
LINE
  5
5E04
330
5E02
100
AcDbEntity
  8
30
  6
Continuous
 62
     0
370
    -2
100
AcDbLine
 10
30.0
 20
242.4059210493446
 30
0.0
 11
30.00000000000001
 21
344.0564135493445
 31
0.0
  0
LINE
  5
5E05
330
5E02
100
AcDbEntity
  8
30
  6
Continuous
 62
     0
370
    -2
100
AcDbLine
 10
60.0
 20
292.4059210493446
 30
0.0
 11
60.0
 21
344.0564135493445
 31
0.0
  0
LINE
  5
5E06
330
5E02
100
AcDbEntity
  8
30
  6
Continuous
 62
     0
370
    -2
100
AcDbLine
 10
32.00000000000001
 20
343.5564135493446
 30
0.0
 11
58.0
 21
343.5564135493446
 31
0.0
  0
INSERT
  5
5E07
330
5E02
100
AcDbEntity
  8
30
  6
Continuous
 62
     0
370
    -2
100
AcDbBlockReference
  2
_OPEN
 10
30.00000000000001
 20
343.5564135493446
 30
0.0
 41
2.0
 42
2.0
 43
2.0
 50
180.0
  0
INSERT
  5
5E08
330
5E02
100
AcDbEntity
  8
30
  6
Continuous
 62
     0
370
    -2
100
AcDbBlockReference
  2
_OPEN
 10
60.0
 20
343.5564135493446
 30
0.0
 41
2.0
 42
2.0
 43
2.0
  0
MTEXT
  5
5E09
330
5E02
100
AcDbEntity
  8
30
  6
Continuous
 62
     0
100
AcDbMText
 10
45.0
 20
346.5564135493445
 30
0.0
 40
4.0
 41
0.0
 46
0.0
 71
     5
 72
     1
  1
\A1; 30 
 73
     1
 44
1.0
1001
ACAD
1000
MTEXTBEGIN
1070
    73
1070
     1
1070
    44
1040
1.0
1070
    74
1070
     0
1000
MTEXTEND
  0
POINT
  5
5E0A
330
5E02
100
AcDbEntity
  8
DEFPOINTS
  6
Continuous
 62
     0
100
AcDbPoint
 10
30.0
 20
241.4059210493446
 30
0.0
  0
POINT
  5
5E0B
330
5E02
100
AcDbEntity
  8
DEFPOINTS
  6
Continuous
 62
     0
100
AcDbPoint
 10
60.0
 20
291.4059210493446
 30
0.0
  0
POINT
  5
5E0C
330
5E02
100
AcDbEntity
  8
DEFPOINTS
  6
Continuous
 62
     0
100
AcDbPoint
 10
60.0
 20
343.5564135493446
 30
0.0
  0
ENDBLK
  5
5E0D
330
5E02
100
AcDbEntity
  8
0
100
AcDbBlockEnd
  0
BLOCK
  5
5F12
330
5F11
100
AcDbEntity
  8
0
100
AcDbBlockBegin
  2
*D46
 70
     1
 10
0.0
 20
0.0
 30
0.0
  3
*D46
  1

  0
LINE
  5
5F35
330
5F11
100
AcDbEntity
  8
30
  6
Continuous
 62
     0
440
 16777216
370
    -2
100
AcDbLine
 10
-29.99948019072274
 20
237.33137517245
 30
0.0
 11
-29.99948019072273
 21
338.9818676724502
 31
0.0
  0
LINE
  5
5F36
330
5F11
100
AcDbEntity
  8
30
  6
Continuous
 62
     0
440
 16777216
370
    -2
100
AcDbLine
 10
0.0005198092772645
 20
287.3313751724501
 30
0.0
 11
0.0005198092772677
 21
338.9818676724502
 31
0.0
  0
LINE
  5
5F37
330
5F11
100
AcDbEntity
  8
30
  6
Continuous
 62
     0
440
 16777216
370
    -2
100
AcDbLine
 10
-27.99948019072273
 20
338.4818676724502
 30
0.0
 11
-1.999480190722731
 21
338.4818676724502
 31
0.0
  0
INSERT
  5
5F38
330
5F11
100
AcDbEntity
  8
30
  6
Continuous
 62
     0
440
 16777216
370
    -2
100
AcDbBlockReference
  2
_OPEN
 10
-29.99948019072273
 20
338.4818676724502
 30
0.0
 41
2.0
 42
2.0
 43
2.0
 50
180.0
  0
INSERT
  5
5F39
330
5F11
100
AcDbEntity
  8
30
  6
Continuous
 62
     0
440
 16777216
370
    -2
100
AcDbBlockReference
  2
_OPEN
 10
0.0005198092772677
 20
338.4818676724502
 30
0.0
 41
2.0
 42
2.0
 43
2.0
  0
MTEXT
  5
5F3A
330
5F11
100
AcDbEntity
  8
30
  6
Continuous
 62
     0
440
 16777216
100
AcDbMText
 10
-14.99948019072273
 20
341.4818676724502
 30
0.0
 40
4.0
 41
0.0
 46
0.0
 71
     5
 72
     1
  1
\A1; 30 
 73
     1
 44
1.0
1001
ACAD
1000
MTEXTBEGIN
1070
    73
1070
     1
1070
    44
1040
1.0
1070
    74
1070
     0
1000
MTEXTEND
  0
POINT
  5
5F3B
330
5F11
100
AcDbEntity
  8
DEFPOINTS
  6
Continuous
 62
     0
440
 16777216
100
AcDbPoint
 10
-29.99948019072274
 20
236.33137517245
 30
0.0
  0
POINT
  5
5F3C
330
5F11
100
AcDbEntity
  8
DEFPOINTS
  6
Continuous
 62
     0
440
 16777216
100
AcDbPoint
 10
0.0005198092772645
 20
286.3313751724501
 30
0.0
  0
POINT
  5
5F3D
330
5F11
100
AcDbEntity
  8
DEFPOINTS
  6
Continuous
 62
     0
440
 16777216
100
AcDbPoint
 10
0.0005198092772677
 20
338.4818676724502
 30
0.0
  0
ENDBLK
  5
5F13
330
5F11
100
AcDbEntity
  8
0
100
AcDbBlockEnd
  0
BLOCK
  5
5F1E
330
5F1D
100
AcDbEntity
  8
0
100
AcDbBlockBegin
  2
*D47
 70
     1
 10
0.0
 20
0.0
 30
0.0
  3
*D47
  1

  0
LINE
  5
5F3E
330
5F1D
100
AcDbEntity
  8
30
  6
Continuous
 62
     0
440
 16777216
370
    -2
100
AcDbLine
 10
0.0005198092772645
 20
287.3313751724501
 30
0.0
 11
0.0005198092772677
 21
338.9818676724502
 31
0.0
  0
LINE
  5
5F3F
330
5F1D
100
AcDbEntity
  8
30
  6
Continuous
 62
     0
440
 16777216
370
    -2
100
AcDbLine
 10
30.00051980927727
 20
237.33137517245
 30
0.0
 11
30.00051980927727
 21
338.9818676724502
 31
0.0
  0
LINE
  5
5F40
330
5F1D
100
AcDbEntity
  8
30
  6
Continuous
 62
     0
440
 16777216
370
    -2
100
AcDbLine
 10
2.000519809277266
 20
338.4818676724502
 30
0.0
 11
28.00051980927727
 21
338.4818676724502
 31
0.0
  0
INSERT
  5
5F41
330
5F1D
100
AcDbEntity
  8
30
  6
Continuous
 62
     0
440
 16777216
370
    -2
100
AcDbBlockReference
  2
_OPEN
 10
0.0005198092772677
 20
338.4818676724502
 30
0.0
 41
2.0
 42
2.0
 43
2.0
 50
180.0
  0
INSERT
  5
5F42
330
5F1D
100
AcDbEntity
  8
30
  6
Continuous
 62
     0
440
 16777216
370
    -2
100
AcDbBlockReference
  2
_OPEN
 10
30.00051980927727
 20
338.4818676724502
 30
0.0
 41
2.0
 42
2.0
 43
2.0
  0
MTEXT
  5
5F43
330
5F1D
100
AcDbEntity
  8
30
  6
Continuous
 62
     0
440
 16777216
100
AcDbMText
 10
15.00051980927727
 20
341.4818676724502
 30
0.0
 40
4.0
 41
0.0
 46
0.0
 71
     5
 72
     1
  1
\A1; 30 
 73
     1
 44
1.0
1001
ACAD
1000
MTEXTBEGIN
1070
    73
1070
     1
1070
    44
1040
1.0
1070
    74
1070
     0
1000
MTEXTEND
  0
POINT
  5
5F44
330
5F1D
100
AcDbEntity
  8
DEFPOINTS
  6
Continuous
 62
     0
440
 16777216
100
AcDbPoint
 10
0.0005198092772645
 20
286.3313751724501
 30
0.0
  0
POINT
  5
5F45
330
5F1D
100
AcDbEntity
  8
DEFPOINTS
  6
Continuous
 62
     0
440
 16777216
100
AcDbPoint
 10
30.00051980927727
 20
236.33137517245
 30
0.0
  0
POINT
  5
5F46
330
5F1D
100
AcDbEntity
  8
DEFPOINTS
  6
Continuous
 62
     0
440
 16777216
100
AcDbPoint
 10
30.00051980927727
 20
338.4818676724502
 30
0.0
  0
ENDBLK
  5
5F1F
330
5F1D
100
AcDbEntity
  8
0
100
AcDbBlockEnd
  0
BLOCK
  5
5F2A
330
5F29
100
AcDbEntity
  8
0
100
AcDbBlockBegin
  2
*D48
 70
     1
 10
0.0
 20
0.0
 30
0.0
  3
*D48
  1

  0
LINE
  5
5F47
330
5F29
100
AcDbEntity
  8
30
  6
Continuous
 62
     0
440
 16777216
370
    -2
100
AcDbLine
 10
30.00051980927727
 20
237.33137517245
 30
0.0
 11
30.00051980927727
 21
338.9818676724502
 31
0.0
  0
LINE
  5
5F48
330
5F29
100
AcDbEntity
  8
30
  6
Continuous
 62
     0
440
 16777216
370
    -2
100
AcDbLine
 10
60.00051980927725
 20
287.3313751724501
 30
0.0
 11
60.00051980927725
 21
338.9818676724502
 31
0.0
  0
LINE
  5
5F49
330
5F29
100
AcDbEntity
  8
30
  6
Continuous
 62
     0
440
 16777216
370
    -2
100
AcDbLine
 10
32.00051980927727
 20
338.4818676724502
 30
0.0
 11
58.00051980927726
 21
338.4818676724502
 31
0.0
  0
INSERT
  5
5F4A
330
5F29
100
AcDbEntity
  8
30
  6
Continuous
 62
     0
440
 16777216
370
    -2
100
AcDbBlockReference
  2
_OPEN
 10
30.00051980927727
 20
338.4818676724502
 30
0.0
 41
2.0
 42
2.0
 43
2.0
 50
180.0
  0
INSERT
  5
5F4B
330
5F29
100
AcDbEntity
  8
30
  6
Continuous
 62
     0
440
 16777216
370
    -2
100
AcDbBlockReference
  2
_OPEN
 10
60.00051980927725
 20
338.4818676724502
 30
0.0
 41
2.0
 42
2.0
 43
2.0
  0
MTEXT
  5
5F4C
330
5F29
100
AcDbEntity
  8
30
  6
Continuous
 62
     0
440
 16777216
100
AcDbMText
 10
45.00051980927725
 20
341.4818676724502
 30
0.0
 40
4.0
 41
0.0
 46
0.0
 71
     5
 72
     1
  1
\A1; 30 
 73
     1
 44
1.0
1001
ACAD
1000
MTEXTBEGIN
1070
    73
1070
     1
1070
    44
1040
1.0
1070
    74
1070
     0
1000
MTEXTEND
  0
POINT
  5
5F4D
330
5F29
100
AcDbEntity
  8
DEFPOINTS
  6
Continuous
 62
     0
440
 16777216
100
AcDbPoint
 10
30.00051980927727
 20
236.33137517245
 30
0.0
  0
POINT
  5
5F4E
330
5F29
100
AcDbEntity
  8
DEFPOINTS
  6
Continuous
 62
     0
440
 16777216
100
AcDbPoint
 10
60.00051980927725
 20
286.3313751724501
 30
0.0
  0
POINT
  5
5F4F
330
5F29
100
AcDbEntity
  8
DEFPOINTS
  6
Continuous
 62
     0
440
 16777216
100
AcDbPoint
 10
60.00051980927725
 20
338.4818676724502
 30
0.0
  0
ENDBLK
  5
5F2B
330
5F29
100
AcDbEntity
  8
0
100
AcDbBlockEnd
  0
ENDSEC
  0
SECTION
  2
ENTITIES
  0
LINE
  5
B4
330
1E
100
AcDbEntity
  8
16
100
AcDbLine
 10
0.0
 20
-101.8246001220914
 30
0.0
 11
0.0
 21
105.6073578546832
 31
0.0
  0
LINE
  5
B5
330
1E
100
AcDbEntity
  8
16
100
AcDbLine
 10
106.774655642063
 20
-0.0000000000000007
 30
0.0
 11
-83.90588178115756
 21
-0.0000000000000007
 31
0.0
  0
MTEXT
  5
BF3
330
1E
100
AcDbEntity
  8
24
  6
Continuous
100
AcDbMText
 10
140.9820964648283
 20
176.3476821548369
 30
0.0
 40
3.0
 41
0.0
 46
0.0
 71
     1
 72
     1
  1
\A1;
 73
     1
 44
1.0
1001
ACAD
1000
MTEXTBEGIN
1070
    73
1070
     1
1070
    44
1040
1.0
1070
    74
1070
     0
1000
MTEXTEND
  0
LINE
  5
2260
330
1E
100
AcDbEntity
  8
16
100
AcDbLine
 10
103.903897549407
 20
-252.6631237443548
 30
0.0
 11
-80.54991320158091
 21
-252.6631237443548
 31
0.0
  0
LINE
  5
2261
330
1E
100
AcDbEntity
  8
16
100
AcDbLine
 10
0.0
 20
-350.4150635072006
 30
0.0
 11
0.0
 21
-151.2797245348689
 31
0.0
  0
CIRCLE
  5
5045
330
1E
100
AcDbEntity
  8
12
  6
DASHED
100
AcDbCircle
 10
-70.4995149550375
 20
-32.99989074072519
 30
0.0
 40
2.499991722782211
  0
CIRCLE
  5
5047
330
1E
100
AcDbEntity
  8
12
  6
DASHED
100
AcDbCircle
 10
-70.4995149550375
 20
32.99989074072514
 30
0.0
 40
2.499991722782211
  0
LINE
  5
5048
330
1E
100
AcDbEntity
  8
12
  6
DASHDOT
 62
     3
100
AcDbLine
 10
-73.99950336693258
 20
-32.99989074072519
 30
0.0
 11
-66.99952654314241
 21
-32.99989074072519
 31
0.0
  0
LINE
  5
504A
330
1E
100
AcDbEntity
  8
12
  6
DASHDOT
 62
     3
100
AcDbLine
 10
-73.99950336693258
 20
32.99989074072514
 30
0.0
 11
-66.99952654314241
 21
32.99989074072514
 31
0.0
  0
LINE
  5
504C
330
1E
100
AcDbEntity
  8
10
  6
CONTINOUS
100
AcDbLine
 10
-75.99949674515831
 20
-95.9996821548369
 30
0.0
 11
106.0000165544355
 21
-95.9996821548369
 31
0.0
  0
LINE
  5
504D
330
1E
100
AcDbEntity
  8
10
  6
CONTINOUS
100
AcDbLine
 10
-81.0
 20
90.99969870927251
 30
0.0
 11
-81.0
 21
-90.99969870927248
 31
0.0
  0
ARC
  5
504E
330
1E
100
AcDbEntity
  8
10
  6
CONTINOUS
100
AcDbCircle
 10
-75.99949674515831
 20
-90.99969870927248
 30
0.0
 40
4.999983445564422
100
AcDbArc
 50
180.0
 51
270.0
  0
LINE
  5
504F
330
1E
100
AcDbEntity
  8
12
  6
DASHDOT
 62
     3
100
AcDbLine
 10
-70.49951495503757
 20
-36.49987915262093
 30
0.0
 11
-70.49951495503757
 21
-29.49990232883076
 31
0.0
  0
LINE
  5
5051
330
1E
100
AcDbEntity
  8
12
  6
DASHDOT
 62
     3
100
AcDbLine
 10
-70.49951495503757
 20
29.4999023288294
 30
0.0
 11
-70.49951495503757
 21
36.49987915261965
 31
0.0
  0
ARC
  5
5052
330
1E
100
AcDbEntity
  8
10
  6
CONTINOUS
100
AcDbCircle
 10
-75.99949674515831
 20
90.99969870927251
 30
0.0
 40
4.999983445564422
100
AcDbArc
 50
90.0
 51
180.0
  0
LINE
  5
5053
330
1E
100
AcDbEntity
  8
10
  6
CONTINOUS
100
AcDbLine
 10
-41.99986094274118
 20
24.99991722782211
 30
0.0
 11
-41.99986094274118
 21
-24.99991722782206
 31
0.0
  0
LINE
  5
5054
330
1E
100
AcDbEntity
  8
10
  6
CONTINOUS
100
AcDbLine
 10
41.99986094274112
 20
24.99991722782211
 30
0.0
 11
41.99986094274112
 21
-24.99991722782206
 31
0.0
  0
LINE
  5
5055
330
1E
100
AcDbEntity
  8
10
  6
CONTINOUS
100
AcDbLine
 10
-10.99996358024178
 20
24.99991722782211
 30
0.0
 11
-10.99996358024178
 21
-24.99991722782206
 31
0.0
  0
LINE
  5
5056
330
1E
100
AcDbEntity
  8
10
  6
CONTINOUS
100
AcDbLine
 10
10.99996358024167
 20
24.99991722782211
 30
0.0
 11
10.99996358024167
 21
-24.99991722782206
 31
0.0
  0
LINE
  5
5057
330
1E
100
AcDbEntity
  8
10
  6
DASHED
100
AcDbLine
 10
-45.0
 20
77.5
 30
0.0
 11
-45.0
 21
-77.5
 31
0.0
  0
LINE
  5
5058
330
1E
100
AcDbEntity
  8
10
  6
DASHED
100
AcDbLine
 10
74.99985101007981
 20
-77.49974340624856
 30
0.0
 11
74.99985101007981
 21
77.49974340624856
 31
0.0
  0
LINE
  5
5059
330
1E
100
AcDbEntity
  8
10
  6
CONTINOUS
100
AcDbLine
 10
110.9999999999997
 20
-90.99969870927248
 30
0.0
 11
110.9999999999997
 21
90.99969870927251
 31
0.0
  0
LINE
  5
505A
330
1E
100
AcDbEntity
  8
10
  6
CONTINOUS
100
AcDbLine
 10
-41.99986094274118
 20
-24.99991722782206
 30
0.0
 11
41.99986094274112
 21
-24.99991722782206
 31
0.0
  0
LINE
  5
505B
330
1E
100
AcDbEntity
  8
10
  6
DASHED
100
AcDbLine
 10
-44.99985101007982
 20
-77.49974340624856
 30
0.0
 11
74.99985101007981
 21
-77.49974340624856
 31
0.0
  0
ARC
  5
505C
330
1E
100
AcDbEntity
  8
10
  6
CONTINOUS
100
AcDbCircle
 10
106.0000165544355
 20
-90.99969870927248
 30
0.0
 40
4.999983445564422
100
AcDbArc
 50
270.0
 51
0.0
  0
CIRCLE
  5
505D
330
1E
100
AcDbEntity
  8
12
  6
DASHED
100
AcDbCircle
 10
100.5000347643144
 20
-32.99989074072519
 30
0.0
 40
2.499991722782211
  0
LINE
  5
505E
330
1E
100
AcDbEntity
  8
12
  6
DASHDOT
 62
     3
100
AcDbLine
 10
97.00004635241969
 20
-32.99989074072519
 30
0.0
 11
104.0000231762096
 21
-32.99989074072519
 31
0.0
  0
LINE
  5
505F
330
1E
100
AcDbEntity
  8
12
  6
DASHDOT
 62
     3
100
AcDbLine
 10
100.5000347643144
 20
-36.49987915262093
 30
0.0
 11
100.5000347643144
 21
-29.49990232883076
 31
0.0
  0
LINE
  5
5060
330
1E
100
AcDbEntity
  8
10
  6
CONTINOUS
100
AcDbLine
 10
-41.99986094274118
 20
24.99991722782211
 30
0.0
 11
41.99986094274112
 21
24.99991722782211
 31
0.0
  0
LINE
  5
5061
330
1E
100
AcDbEntity
  8
10
  6
DASHED
100
AcDbLine
 10
74.99985101007981
 20
77.49974340624856
 30
0.0
 11
-44.99985101007982
 21
77.49974340624856
 31
0.0
  0
LINE
  5
5062
330
1E
100
AcDbEntity
  8
10
  6
CONTINOUS
100
AcDbLine
 10
6.999976823790134
 20
-18.49993874858834
 30
0.0
 11
6.999976823790247
 21
20.15480197531517
 31
0.0
  0
LINE
  5
5063
330
1E
100
AcDbEntity
  8
10
  6
CONTINOUS
100
AcDbLine
 10
-6.999976823790191
 20
-18.49993874858834
 30
0.0
 11
-6.999976823790134
 21
20.15480197531517
 31
0.0
  0
LINE
  5
5064
330
1E
100
AcDbEntity
  8
10
  6
CONTINOUS
100
AcDbLine
 10
-6.999976823790191
 20
-18.49993874858834
 30
0.0
 11
6.999976823790134
 21
-18.49993874858834
 31
0.0
  0
LINE
  5
5065
330
1E
100
AcDbEntity
  8
10
  6
CONTINOUS
100
AcDbLine
 10
6.999976823790134
 20
6.840766657780405
 30
0.0
 11
-6.999976823789296
 21
6.840766657780405
 31
0.0
  0
LINE
  5
5066
330
1E
100
AcDbEntity
  8
10
  6
CONTINOUS
100
AcDbLine
 10
6.999976823790134
 20
20.15480197531517
 30
0.0
 11
-6.999976823791143
 21
20.15480197531517
 31
0.0
  0
LINE
  5
5067
330
1E
100
AcDbEntity
  8
10
  6
CONTINOUS
100
AcDbLine
 10
6.999976823790134
 20
15.2399059823013
 30
0.0
 11
-6.999976823790191
 21
15.2399059823013
 31
0.0
  0
CIRCLE
  5
506B
330
1E
100
AcDbEntity
  8
12
  6
DASHED
100
AcDbCircle
 10
100.5000347643144
 20
32.99989074072514
 30
0.0
 40
2.499991722782211
  0
LINE
  5
506C
330
1E
100
AcDbEntity
  8
12
  6
DASHDOT
 62
     3
100
AcDbLine
 10
97.00004635241969
 20
32.99989074072514
 30
0.0
 11
104.0000231762096
 21
32.99989074072514
 31
0.0
  0
LINE
  5
506D
330
1E
100
AcDbEntity
  8
12
  6
DASHDOT
 62
     3
100
AcDbLine
 10
100.5000347643144
 20
29.4999023288294
 30
0.0
 11
100.5000347643144
 21
36.49987915261965
 31
0.0
  0
ARC
  5
506E
330
1E
100
AcDbEntity
  8
10
  6
CONTINOUS
100
AcDbCircle
 10
106.0000165544355
 20
90.99969870927251
 30
0.0
 40
4.999983445564422
100
AcDbArc
 50
0.0
 51
90.0
  0
DIMENSION
  5
53E2
330
1E
100
AcDbEntity
  8
30
  6
Continuous
100
AcDbDimension
280
     0
  2
*D11
 10
100.5
 20
-403.5636153436747
 30
0.0
 11
15.00000000000015
 21
-400.5636153436745
 31
0.0
 70
    32
 71
     5
 42
-1.0
 73
     0
 74
     0
 75
     0
  3
STANDARD
100
AcDbAlignedDimension
 13
-70.49999999999966
 23
-290.6631237443559
 33
0.0
 14
100.5
 24
-290.6631237443559
 34
0.0
 50
180.0
100
AcDbRotatedDimension
  0
DIMENSION
  5
53E3
330
1E
100
AcDbEntity
  8
30
  6
Continuous
100
AcDbDimension
280
     0
  2
*D12
 10
95.50000000000052
 20
-377.5636153436747
 30
0.0
 11
15.00000000000052
 21
-374.5636153436747
 31
0.0
 70
    32
 71
     5
 42
-1.0
 73
     0
 74
     0
 75
     0
  3
STANDARD
100
AcDbAlignedDimension
 13
-65.49999999999946
 23
-342.1631237443548
 33
0.0
 14
95.50000000000052
 24
-342.1631237443548
 34
0.0
 50
180.0
100
AcDbRotatedDimension
  0
LINE
  5
53E4
330
1E
100
AcDbEntity
  8
18
  6
DIVIDE
100
AcDbLine
 10
106.0000000000002
 20
-156.6631237443556
 30
0.0
 11
-75.99999999999956
 21
-156.6631237443556
 31
0.0
  0
LINE
  5
53E5
330
1E
100
AcDbEntity
  8
18
  6
DIVIDE
100
AcDbLine
 10
-75.99999999999956
 20
-348.663123744355
 30
0.0
 11
106.0000000000002
 21
-348.663123744355
 31
0.0
  0
LINE
  5
53E7
330
1E
100
AcDbEntity
  8
11
 48
2.0
100
AcDbLine
 10
95.50000000000055
 20
-162.1631237443549
 30
0.0
 11
-65.49999999999949
 21
-162.1631237443549
 31
0.0
  0
LINE
  5
53E8
330
1E
100
AcDbEntity
  8
11
 48
2.0
100
AcDbLine
 10
-65.49999999999949
 20
-343.1631237443548
 30
0.0
 11
95.50000000000052
 21
-343.1631237443547
 31
0.0
  0
LINE
  5
53E9
330
1E
100
AcDbEntity
  8
18
  6
DIVIDE
100
AcDbLine
 10
-80.99999999999949
 20
-161.6631237443554
 30
0.0
 11
-80.99999999999949
 21
-343.6631237443547
 31
0.0
  0
LINE
  5
53EA
330
1E
100
AcDbEntity
  8
11
 48
2.0
100
AcDbLine
 10
-65.49999999999949
 20
-343.1631237443548
 30
0.0
 11
-65.49999999999949
 21
-162.1631237443549
 31
0.0
  0
ARC
  5
53EB
330
1E
100
AcDbEntity
  8
18
  6
DIVIDE
100
AcDbCircle
 10
-75.99999999999956
 20
-343.6631237443547
 30
0.0
 40
4.999999999999992
100
AcDbArc
 50
180.0
 51
270.0
  0
CIRCLE
  5
53EC
330
1E
100
AcDbEntity
  8
12
  6
Continuous
 62
     3
100
AcDbCircle
 10
-70.49999999999966
 20
-285.6631237443549
 30
0.0
 40
2.999999999999996
  0
LINE
  5
53ED
330
1E
100
AcDbEntity
  8
12
  6
Continuous
 62
     3
100
AcDbLine
 10
-70.49999999999966
 20
-290.6631237443559
 30
0.0
 11
-70.49999999999966
 21
-280.6631237443559
 31
0.0
  0
LINE
  5
53EE
330
1E
100
AcDbEntity
  8
12
  6
Continuous
 62
     3
100
AcDbLine
 10
-75.49999999999958
 20
-285.6631237443549
 30
0.0
 11
-65.49999999999967
 21
-285.6631237443549
 31
0.0
  0
CIRCLE
  5
53F2
330
1E
100
AcDbEntity
  8
12
  6
Continuous
 62
     3
100
AcDbCircle
 10
-70.49999999999966
 20
-219.6631237443551
 30
0.0
 40
2.999999999999996
  0
LINE
  5
53F3
330
1E
100
AcDbEntity
  8
12
  6
Continuous
 62
     3
100
AcDbLine
 10
-75.49999999999958
 20
-219.6631237443551
 30
0.0
 11
-65.49999999999967
 21
-219.6631237443551
 31
0.0
  0
LINE
  5
53F4
330
1E
100
AcDbEntity
  8
12
  6
Continuous
 62
     3
100
AcDbLine
 10
-70.50000000000007
 20
-224.663123744356
 30
0.0
 11
-70.50000000000007
 21
-214.663123744356
 31
0.0
  0
ARC
  5
53F5
330
1E
100
AcDbEntity
  8
18
  6
DIVIDE
100
AcDbCircle
 10
-75.99999999999956
 20
-161.6631237443554
 30
0.0
 40
4.999999999999992
100
AcDbArc
 50
90.0
 51
180.0
  0
LINE
  5
53F6
330
1E
100
AcDbEntity
  8
18
  6
DIVIDE
100
AcDbLine
 10
111.0
 20
-343.6631237443547
 30
0.0
 11
111.0
 21
-161.6631237443554
 31
0.0
  0
LINE
  5
53F8
330
1E
100
AcDbEntity
  8
11
 48
2.0
100
AcDbLine
 10
95.50000000000052
 20
-343.1631237443547
 30
0.0
 11
95.50000000000055
 21
-162.1631237443549
 31
0.0
  0
ARC
  5
53F9
330
1E
100
AcDbEntity
  8
18
  6
DIVIDE
100
AcDbCircle
 10
106.0000000000002
 20
-343.6631237443547
 30
0.0
 40
4.999999999999992
100
AcDbArc
 50
270.0
 51
0.0
  0
CIRCLE
  5
53FA
330
1E
100
AcDbEntity
  8
12
  6
Continuous
 62
     3
100
AcDbCircle
 10
100.5
 20
-285.6631237443549
 30
0.0
 40
2.999999999999996
  0
LINE
  5
53FB
330
1E
100
AcDbEntity
  8
12
  6
Continuous
 62
     3
100
AcDbLine
 10
100.5
 20
-290.6631237443559
 30
0.0
 11
100.5
 21
-280.6631237443559
 31
0.0
  0
LINE
  5
53FC
330
1E
100
AcDbEntity
  8
12
  6
Continuous
 62
     3
100
AcDbLine
 10
95.50000000000007
 20
-285.6631237443549
 30
0.0
 11
105.4999999999999
 21
-285.6631237443549
 31
0.0
  0
LINE
  5
5400
330
1E
100
AcDbEntity
  8
12
  6
Continuous
 62
     3
100
AcDbLine
 10
95.50000000000007
 20
-219.6631237443551
 30
0.0
 11
105.4999999999999
 21
-219.6631237443551
 31
0.0
  0
CIRCLE
  5
5401
330
1E
100
AcDbEntity
  8
12
  6
Continuous
 62
     3
100
AcDbCircle
 10
100.5
 20
-219.6631237443551
 30
0.0
 40
2.999999999999996
  0
LINE
  5
5402
330
1E
100
AcDbEntity
  8
12
  6
Continuous
 62
     3
100
AcDbLine
 10
100.5
 20
-224.663123744356
 30
0.0
 11
100.5
 21
-214.663123744356
 31
0.0
  0
ARC
  5
5403
330
1E
100
AcDbEntity
  8
18
  6
DIVIDE
100
AcDbCircle
 10
106.0000000000002
 20
-161.6631237443554
 30
0.0
 40
4.999999999999992
100
AcDbArc
 50
0.0
 51
90.0
  0
LWPOLYLINE
  5
5475
330
1E
100
AcDbEntity
  8
10
  6
CONTINOUS
100
AcDbPolyline
 90
        2
 70
     0
 43
0.0
 10
106.0000165544355
 20
95.99968215483697
 10
-75.99949674515833
 20
95.99968215483697
  0
DIMENSION
  5
54D8
330
1E
100
AcDbEntity
  8
30
  6
Continuous
100
AcDbDimension
280
     0
  2
*D17
 10
96.07380585394658
 20
-219.4725068451631
 30
0.0
 11
130.1978158539465
 21
-204.873116845163
 31
0.0
 70
   163
 71
     5
 42
-1.0
 73
     0
 74
     0
 75
     0
  3
STANDARD
100
AcDbDiametricDimension
 15
101.4616078539466
 25
-216.8321288451628
 35
0.0
 40
0.0
1001
ACAD
1000
DSTYLE
1002
{
1070
   288
1070
     1
1002
}
  0
CIRCLE
  5
5A23
330
1E
100
AcDbEntity
  8
10
  6
CONTINOUS
100
AcDbCircle
 10
26.19999999999996
 20
5.800000000000013
 30
0.0
 40
3.0
  0
LINE
  5
5A24
330
1E
100
AcDbEntity
  8
10
  6
CONTINOUS
100
AcDbLine
 10
22.69999999999996
 20
-15.5
 30
0.0
 11
30.69999999999996
 21
-15.5
 31
0.0
  0
LINE
  5
5A25
330
1E
100
AcDbEntity
  8
10
  6
CONTINOUS
100
AcDbLine
 10
22.69999999999996
 20
-10.5
 30
0.0
 11
30.69999999999996
 21
-10.5
 31
0.0
  0
LINE
  5
5A26
330
1E
100
AcDbEntity
  8
10
  6
CONTINOUS
100
AcDbLine
 10
22.69999999999996
 20
-12.5
 30
0.0
 11
30.69999999999996
 21
-12.5
 31
0.0
  0
LINE
  5
5A27
330
1E
100
AcDbEntity
  8
10
  6
CONTINOUS
100
AcDbLine
 10
22.69999999999996
 20
-7.5
 30
0.0
 11
30.69999999999996
 21
-7.5
 31
0.0
  0
LINE
  5
5A28
330
1E
100
AcDbEntity
  8
10
  6
CONTINOUS
100
AcDbLine
 10
22.69999999999996
 20
-10.5
 30
0.0
 11
22.69999999999996
 21
-7.5
 31
0.0
  0
LINE
  5
5A29
330
1E
100
AcDbEntity
  8
10
  6
CONTINOUS
100
AcDbLine
 10
22.69999999999996
 20
-15.5
 30
0.0
 11
22.69999999999996
 21
-12.5
 31
0.0
  0
LINE
  5
5A2A
330
1E
100
AcDbEntity
  8
10
  6
CONTINOUS
100
AcDbLine
 10
30.69999999999996
 20
-10.5
 30
0.0
 11
30.69999999999996
 21
-7.5
 31
0.0
  0
LINE
  5
5A2B
330
1E
100
AcDbEntity
  8
10
  6
CONTINOUS
100
AcDbLine
 10
30.69999999999996
 20
-15.5
 30
0.0
 11
30.69999999999996
 21
-12.5
 31
0.0
  0
CIRCLE
  5
5A2C
330
1E
100
AcDbEntity
  8
10
  6
CONTINOUS
100
AcDbCircle
 10
26.19999999999996
 20
-1.900000000000004
 30
0.0
 40
2.6
  0
CIRCLE
  5
5A2D
330
1E
100
AcDbEntity
  8
10
  6
CONTINOUS
100
AcDbCircle
 10
26.19999999999996
 20
-1.900000000000004
 30
0.0
 40
3.6
  0
DIMENSION
  5
5A7D
330
1E
100
AcDbEntity
  8
30
  6
Continuous
100
AcDbDimension
280
     0
  2
*D20
 10
111.0
 20
-116.9355545148246
 30
0.0
 11
15.00025990463869
 21
-113.9355545148245
 31
0.0
 70
    32
 71
     5
 42
-1.0
 73
     0
 74
     0
 75
     0
  3
STANDARD
100
AcDbAlignedDimension
 13
-80.99948019072273
 23
-90.99969870927248
 33
0.0
 14
111.0
 24
-90.99969870927248
 34
0.0
100
AcDbRotatedDimension
1001
ACAD
1000
DSTYLE
1002
{
1070
    79
1070
     3
1002
}
  0
DIMENSION
  5
5A91
330
1E
100
AcDbEntity
  8
30
  6
Continuous
100
AcDbDimension
280
     0
  2
*D21
 10
130.0833682717924
 20
-95.9996821548369
 30
0.0
 11
127.0833682717925
 21
0.0000000000000492
 31
0.0
 70
    32
 71
     5
 42
-1.0
 73
     0
 74
     0
 75
     0
  3
STANDARD
100
AcDbAlignedDimension
 13
109.3886670571349
 23
95.99968215483697
 33
0.0
 14
109.3886670571349
 24
-95.9996821548369
 34
0.0
 50
90.0
100
AcDbRotatedDimension
1001
ACAD
1000
DSTYLE
1002
{
1070
    79
1070
     3
1002
}
  0
MTEXT
  5
5AF0
330
1E
100
AcDbEntity
  8
30
  6
Continuous
100
AcDbMText
 10
232.7432776915351
 20
222.5515753513529
 30
0.0
 40
5.0
 41
76.253
 46
0.0
 71
     1
 72
     5
  1
ZS100-GF 4P FP\PZS125-GF 4P FP
  7
STANDARD1
 73
     1
 44
1.0
1001
ACAD
1000
MTEXTBEGIN
1070
    73
1070
     1
1070
    44
1040
1.0
1070
    74
1070
     0
1000
MTEXTEND
  0
LINE
  5
5C8B
330
1E
100
AcDbEntity
  8
16
100
AcDbLine
 10
323.9068787532455
 20
0.0
 30
0.0
 11
191.7416311410758
 21
0.0
 31
0.0
  0
DIMENSION
  5
5C8C
330
1E
100
AcDbEntity
  8
30
  6
Continuous
100
AcDbDimension
280
     0
  2
*D35
 10
244.9999257258451
 20
-172.3996379392698
 30
0.0
 11
226.5000173306357
 21
-169.3996379392698
 31
0.0
 70
    32
 71
     5
 42
36.99981679041878
 73
     0
 74
     0
 75
     0
  3
STANDARD
100
AcDbAlignedDimension
 13
208.0001089354263
 23
-2.499987637474176
 33
0.0
 14
244.9999257258451
 24
-105.9994751293082
 34
0.0
 50
180.0
100
AcDbRotatedDimension
  0
LINE
  5
5C8D
330
1E
100
AcDbEntity
  8
10
  6
CONTINOUS
100
AcDbLine
 10
224.0000297096619
 20
-24.99987620974255
 30
0.0
 11
230.0
 21
-24.99987620974255
 31
0.0
  0
LINE
  5
5C8E
330
1E
100
AcDbEntity
  8
10
  6
CONTINOUS
100
AcDbLine
 10
224.0000297096619
 20
24.99987620974251
 30
0.0
 11
230.0
 21
24.99987620974251
 31
0.0
  0
LINE
  5
5C8F
330
1E
100
AcDbEntity
  8
10
  6
CONTINOUS
100
AcDbLine
 10
224.0000297096619
 20
24.99987620974251
 30
0.0
 11
224.0000297096619
 21
-24.99987620974255
 31
0.0
  0
ARC
  5
5C90
330
1E
100
AcDbEntity
  8
30
  6
Continuous
100
AcDbCircle
 10
238.9999554355073
 20
0.0
 30
0.0
 40
30.99984650008077
100
AcDbArc
 50
150.5534441956564
 51
180.0
  0
LINE
  5
5C91
330
1E
100
AcDbEntity
  8
10
  6
CONTINOUS
100
AcDbLine
 10
224.0000297096619
 20
6.840755433938483
 30
0.0
 11
212.0048353058886
 21
15.23988097775135
 31
0.0
  0
LINE
  5
5C92
330
1E
100
AcDbEntity
  8
10
  6
CONTINOUS
100
AcDbLine
 10
224.0000297096619
 20
14.16536669770708
 30
0.0
 11
215.4462768832329
 21
20.15476890675518
 31
0.0
  0
LINE
  5
5C93
330
1E
100
AcDbEntity
  8
10
  6
CONTINOUS
100
AcDbLine
 10
212.0048353058886
 20
15.23988097775135
 30
0.0
 11
215.4462768832329
 21
20.15476890675518
 31
0.0
  0
LINE
  5
5C94
330
1E
100
AcDbEntity
  8
10
  6
CONTINOUS
100
AcDbLine
 10
244.9999257258451
 20
95.99952464541166
 30
0.0
 11
244.9999257258451
 21
-95.99952464541123
 31
0.0
  0
LINE
  5
5C95
330
1E
100
AcDbEntity
  8
10
  6
CONTINOUS
100
AcDbLine
 10
228.0000099032204
 20
24.99987620974251
 30
0.0
 11
228.0000099032204
 21
-24.99987620974255
 31
0.0
  0
LINE
  5
5C96
330
1E
100
AcDbEntity
  8
18
100
AcDbLine
 10
248.9999059194044
 20
100.9994998873601
 30
0.0
 11
248.9999059194044
 21
-110.9994503712566
 31
0.0
  0
LINE
  5
5C97
330
1E
100
AcDbEntity
  8
10
  6
CONTINOUS
100
AcDbLine
 10
230.0
 20
95.99952464541166
 30
0.0
 11
230.0
 21
-95.99952464541123
 31
0.0
  0
DIMENSION
  5
5C98
330
1E
100
AcDbEntity
  8
30
  6
Continuous
100
AcDbDimension
280
     0
  2
*D36
 10
401.9991483230286
 20
-172.3996379392698
 30
0.0
 11
323.4995370244369
 21
-169.3996379392698
 31
0.0
 70
    32
 71
     5
 42
156.9992225971835
 73
     0
 74
     0
 75
     0
  3
STANDARD
100
AcDbAlignedDimension
 13
244.9999257258451
 23
-105.9994751293082
 33
0.0
 14
401.9991483230286
 24
-66.99966824211003
 34
0.0
 50
180.0
100
AcDbRotatedDimension
  0
DIMENSION
  5
5C99
330
1E
100
AcDbEntity
  8
30
  6
Continuous
100
AcDbDimension
280
     0
  2
*D37
 10
351.9993959035433
 20
-147.3997617295276
 30
0.0
 11
298.4996608146941
 21
-144.3997617295276
 31
0.0
 70
    32
 71
     5
 42
106.9994701776982
 73
     0
 74
     0
 75
     0
  3
STANDARD
100
AcDbAlignedDimension
 13
244.9999257258451
 23
-105.9994751293082
 33
0.0
 14
351.9993959035433
 24
-66.99966824211003
 34
0.0
 50
180.0
100
AcDbRotatedDimension
  0
INSERT
  5
5C9A
330
1E
100
AcDbEntity
  8
30
  6
Continuous
100
AcDbBlockReference
  2
*U22
 10
-407.0351231466664
 20
-306.7739725618864
 30
0.0
 41
2.499987620974227
 42
2.499987620974227
 43
2.499987620974227
  0
DIMENSION
  5
5C9B
330
1E
100
AcDbEntity
  8
30
  6
Continuous
100
AcDbDimension
280
     0
  2
*D38
 10
336.9994701776982
 20
-34.90031878568621
 30
0.0
 11
329.4995073147753
 21
-31.90031878568621
 31
0.0
 70
    32
 71
     5
 42
14.99992572584563
 73
     0
 74
     0
 75
     0
  3
STANDARD
100
AcDbAlignedDimension
 13
321.9995444518525
 23
-59.99970288688222
 33
0.0
 14
336.9994701776982
 24
-64.49968060463588
 34
0.0
100
AcDbRotatedDimension
  0
LINE
  5
5C9C
330
1E
100
AcDbEntity
  8
0
  6
Continuous
100
AcDbLine
 10
323.5933088038024
 20
-74.99962862922766
 30
0.0
 11
349.8558129783345
 21
-74.99962862922766
 31
0.0
  0
LINE
  5
5C9D
330
1E
100
AcDbEntity
  8
0
  6
Continuous
100
AcDbLine
 10
323.5933088038024
 20
-58.99970785499244
 30
0.0
 11
349.8558129783345
 21
-58.99970785499244
 31
0.0
  0
LINE
  5
5C9E
330
1E
100
AcDbEntity
  8
0
  6
Continuous
100
AcDbLine
 10
294.9996781453305
 20
-66.99966824211003
 30
0.0
 11
411.9990988069256
 21
-66.99966824211003
 31
0.0
  0
DIMENSION
  5
5C9F
330
1E
100
AcDbEntity
  8
30
  6
Continuous
100
AcDbDimension
280
     0
  2
*D39
 10
244.9999257258451
 20
-147.3997617295276
 30
0.0
 11
237.4999628629225
 21
-144.3997617295276
 31
0.0
 70
    32
 71
     5
 42
14.99992572584512
 73
     0
 74
     0
 75
     0
  3
STANDARD
100
AcDbAlignedDimension
 13
230.0
 23
-95.99952464541123
 33
0.0
 14
244.9999257258451
 24
-105.9994751293082
 34
0.0
 50
180.0
100
AcDbRotatedDimension
  0
LINE
  5
5CA0
330
1E
100
AcDbEntity
  8
18
100
AcDbLine
 10
244.9999257258451
 20
-95.99952464541123
 30
0.0
 11
244.9999257258451
 21
-105.999475129308
 31
0.0
  0
LINE
  5
5CA1
330
1E
100
AcDbEntity
  8
18
100
AcDbLine
 10
244.9999257258451
 20
-105.999475129308
 30
0.0
 11
248.9999059194044
 21
-110.9994503712566
 31
0.0
  0
LINE
  5
5CA2
330
1E
100
AcDbEntity
  8
10
  6
CONTINOUS
100
AcDbLine
 10
244.9999257258451
 20
-77.49961625020187
 30
0.0
 11
299.9996533872792
 21
-77.49961625020187
 31
0.0
  0
LINE
  5
5CA3
330
1E
100
AcDbEntity
  8
10
  6
CONTINOUS
100
AcDbLine
 10
230.0
 20
-95.99952464541123
 30
0.0
 11
244.9999257258451
 21
-95.99952464541123
 31
0.0
  0
LINE
  5
5CA4
330
1E
100
AcDbEntity
  8
0
  6
Continuous
100
AcDbLine
 10
316.4995716857089
 20
-59.87470352233344
 30
0.0
 11
316.4995716857089
 21
-74.12463296188668
 31
0.0
  0
LINE
  5
5CA5
330
1E
100
AcDbEntity
  8
0
  6
Continuous
100
AcDbLine
 10
299.9996533872788
 20
-74.12463296188668
 30
0.0
 11
323.1167864807559
 21
-74.12463296188668
 31
0.0
  0
LINE
  5
5CA6
330
1E
100
AcDbEntity
  8
0
  6
Continuous
100
AcDbLine
 10
316.4995716857089
 20
-71.4996459598637
 30
0.0
 11
321.9995444518525
 21
-71.4996459598637
 31
0.0
  0
ARC
  5
5CA7
330
1E
100
AcDbEntity
  8
0
  6
Continuous
100
AcDbCircle
 10
340.9137311150848
 20
-64.99967814533062
 30
0.0
 40
19.99990096779404
100
AcDbArc
 50
198.9655749888479
 51
209.999999999999
  0
LINE
  5
5CA8
330
1E
100
AcDbEntity
  8
0
  6
Continuous
100
AcDbLine
 10
299.9996533872788
 20
-59.87470352233344
 30
0.0
 11
323.1167864807559
 21
-59.87470352233344
 31
0.0
  0
LINE
  5
5CA9
330
1E
100
AcDbEntity
  8
0
  6
Continuous
100
AcDbLine
 10
316.4995716857089
 20
-62.49969052435637
 30
0.0
 11
321.9995444518525
 21
-62.49969052435637
 31
0.0
  0
ARC
  5
5CAA
330
1E
100
AcDbEntity
  8
0
  6
Continuous
100
AcDbCircle
 10
-340.9137311150848
 20
-68.99965833888946
 30
0.0
 40
19.99990096779404
210
0.0
220
0.0
230
-1.0
100
AcDbArc
 50
18.96557498884869
 51
29.99999999999972
  0
DIMENSION
  5
5CAB
330
1E
100
AcDbEntity
  8
30
  6
Continuous
100
AcDbDimension
280
     0
  2
*D40
 10
401.9991483230286
 20
-122.3998855197852
 30
0.0
 11
394.4991854601059
 21
-119.3998855197852
 31
0.0
 70
    32
 71
     5
 42
14.99992572584545
 73
     0
 74
     0
 75
     0
  3
STANDARD
100
AcDbAlignedDimension
 13
386.9992225971832
 23
-69.49965587958423
 33
0.0
 14
401.9991483230286
 24
-76.28671009944188
 34
0.0
 50
180.0
100
AcDbRotatedDimension
  0
DIMENSION
  5
5CAC
330
1E
100
AcDbEntity
  8
30
  6
Continuous
100
AcDbDimension
280
     0
  2
*D41
 10
351.9993959035433
 20
-122.3998855197852
 30
0.0
 11
344.4994330406207
 21
-119.3998855197852
 31
0.0
 70
    32
 71
     5
 42
14.99992572584517
 73
     0
 74
     0
 75
     0
  3
STANDARD
100
AcDbAlignedDimension
 13
336.9994701776982
 23
-69.49965587958423
 33
0.0
 14
351.9993959035433
 24
-76.28671009944188
 34
0.0
 50
180.0
100
AcDbRotatedDimension
  0
CIRCLE
  5
5CAD
330
1E
100
AcDbEntity
  8
0
  6
Continuous
100
AcDbCircle
 10
386.9992225971832
 20
-66.99966824211003
 30
0.0
 40
4.249978955656231
  0
LINE
  5
5CAE
330
1E
100
AcDbEntity
  8
0
  6
Continuous
100
AcDbLine
 10
373.5930612232875
 20
-58.99970785499244
 30
0.0
 11
399.8555653978196
 21
-58.99970785499244
 31
0.0
  0
LINE
  5
5CAF
330
1E
100
AcDbEntity
  8
0
  6
Continuous
100
AcDbLine
 10
373.5930612232875
 20
-74.99962862922766
 30
0.0
 11
399.8555653978196
 21
-74.99962862922766
 31
0.0
  0
ARC
  5
5CB0
330
1E
100
AcDbEntity
  8
0
  6
Continuous
100
AcDbCircle
 10
335.9994751293085
 20
-66.99966824211003
 30
0.0
 40
15.99992077423523
100
AcDbArc
 50
330.0000000000003
 51
29.99999999999972
  0
CIRCLE
  5
5CB1
330
1E
100
AcDbEntity
  8
0
  6
Continuous
100
AcDbCircle
 10
336.9994701776982
 20
-66.99966824211003
 30
0.0
 40
4.249978955656231
  0
LINE
  5
5CB2
330
1E
100
AcDbEntity
  8
0
  6
Continuous
100
AcDbLine
 10
336.9994701776982
 20
-53.99973261304392
 30
0.0
 11
336.9994701776982
 21
-79.99960387117616
 31
0.0
  0
LINE
  5
5CB3
330
1E
100
AcDbEntity
  8
0
  6
Continuous
100
AcDbLine
 10
366.4993241051941
 20
-59.87470352233344
 30
0.0
 11
366.4993241051941
 21
-74.12463296188668
 31
0.0
  0
LINE
  5
5CB4
330
1E
100
AcDbEntity
  8
0
  6
Continuous
100
AcDbLine
 10
350.3254076477777
 20
-74.12463296188668
 30
0.0
 11
366.4993241051943
 21
-74.12463296188668
 31
0.0
  0
LINE
  5
5CB5
330
1E
100
AcDbEntity
  8
0
  6
Continuous
100
AcDbLine
 10
366.4993241051941
 20
-71.4996459598637
 30
0.0
 11
371.9992968713377
 21
-71.4996459598637
 31
0.0
  0
ARC
  5
5CB6
330
1E
100
AcDbEntity
  8
0
  6
Continuous
100
AcDbCircle
 10
390.9134835345702
 20
-64.99967814533062
 30
0.0
 40
19.99990096779404
100
AcDbArc
 50
198.9655749888479
 51
209.999999999999
  0
LINE
  5
5CB7
330
1E
100
AcDbEntity
  8
0
  6
Continuous
100
AcDbLine
 10
350.3254076477777
 20
-59.87470352233344
 30
0.0
 11
366.4993241051943
 21
-59.87470352233344
 31
0.0
  0
LINE
  5
5CB8
330
1E
100
AcDbEntity
  8
0
  6
Continuous
100
AcDbLine
 10
366.4993241051941
 20
-62.49969052435637
 30
0.0
 11
371.9992968713377
 21
-62.49969052435637
 31
0.0
  0
ARC
  5
5CB9
330
1E
100
AcDbEntity
  8
0
  6
Continuous
100
AcDbCircle
 10
-390.9134835345702
 20
-68.99965833888946
 30
0.0
 40
19.99990096779404
210
0.0
220
0.0
230
-1.0
100
AcDbArc
 50
18.96557498884869
 51
29.99999999999972
  0
DIMENSION
  5
5CBA
330
1E
100
AcDbEntity
  8
30
  6
Continuous
100
AcDbDimension
280
     0
  2
*D42
 10
426.0857515477538
 20
-58.99970785499242
 30
0.0
 11
423.0857515477538
 21
-66.99966824210996
 31
0.0
 70
    32
 71
     5
 42
15.99992077423525
 73
     0
 74
     0
 75
     0
  3
STANDARD
100
AcDbAlignedDimension
 13
399.8555653978196
 23
-74.99962862922766
 33
0.0
 14
399.8555653978196
 24
-58.99970785499241
 34
0.0
 50
270.0
100
AcDbRotatedDimension
  0
ARC
  5
5CBB
330
1E
100
AcDbEntity
  8
0
  6
Continuous
100
AcDbCircle
 10
385.9992275487935
 20
-66.99966824211003
 30
0.0
 40
15.99992077423523
100
AcDbArc
 50
330.0000000000003
 51
29.99999999999972
  0
LINE
  5
5CBC
330
1E
100
AcDbEntity
  8
0
  6
Continuous
100
AcDbLine
 10
386.9992225971832
 20
-53.99973261304392
 30
0.0
 11
386.9992225971832
 21
-79.99960387117616
 31
0.0
  0
LINE
  5
5CBD
330
1E
100
AcDbEntity
  8
0
  6
Continuous
100
AcDbLine
 10
316.4995716857089
 20
64.49968062113575
 30
0.0
 11
351.9993959035433
 21
64.49968062113575
 31
0.0
  0
LINE
  5
5CBE
330
1E
100
AcDbEntity
  8
0
  6
Continuous
100
AcDbLine
 10
316.4995716857089
 20
69.49965586308424
 30
0.0
 11
351.9993959035433
 21
69.49965586308424
 31
0.0
  0
LINE
  5
5CBF
330
1E
100
AcDbEntity
  8
0
  6
Continuous
100
AcDbLine
 10
294.9996781453305
 20
66.99966824210996
 30
0.0
 11
411.9990988069256
 21
66.99966824210996
 31
0.0
  0
LINE
  5
5CC0
330
1E
100
AcDbEntity
  8
0
  6
Continuous
100
AcDbLine
 10
299.9996533872788
 20
59.87470352233344
 30
0.0
 11
366.4993241051938
 21
59.87470352233344
 31
0.0
  0
LINE
  5
5CC1
330
1E
100
AcDbEntity
  8
0
  6
Continuous
100
AcDbLine
 10
299.9996533872788
 20
74.12463296188659
 30
0.0
 11
366.4993241051938
 21
74.12463296188659
 31
0.0
  0
LINE
  5
5CC2
330
1E
100
AcDbEntity
  8
10
  6
CONTINOUS
100
AcDbLine
 10
244.9999257258451
 20
77.49961625020205
 30
0.0
 11
299.9996533872792
 21
77.49961625020205
 31
0.0
  0
LINE
  5
5CC3
330
1E
100
AcDbEntity
  8
10
  6
CONTINOUS
100
AcDbLine
 10
230.0
 20
95.99952464541166
 30
0.0
 11
244.9999257258451
 21
95.99952464541166
 31
0.0
  0
LINE
  5
5CC4
330
1E
100
AcDbEntity
  8
18
100
AcDbLine
 10
244.9999257258451
 20
105.9994751293084
 30
0.0
 11
244.9999257258451
 21
95.99952464541166
 31
0.0
  0
LINE
  5
5CC5
330
1E
100
AcDbEntity
  8
18
100
AcDbLine
 10
244.9999257258451
 20
105.9994751293084
 30
0.0
 11
248.9999059194044
 21
100.9994998873601
 31
0.0
  0
LINE
  5
5CC6
330
1E
100
AcDbEntity
  8
0
  6
Continuous
100
AcDbLine
 10
316.4995716857089
 20
74.12463296188659
 30
0.0
 11
316.4995716857089
 21
59.87470352233339
 31
0.0
  0
LINE
  5
5CC7
330
1E
100
AcDbEntity
  8
0
  6
Continuous
100
AcDbLine
 10
321.9995444518525
 20
69.49965586308424
 30
0.0
 11
321.9995444518525
 21
64.49968062113575
 31
0.0
  0
LINE
  5
5CC8
330
1E
100
AcDbEntity
  8
0
  6
Continuous
100
AcDbLine
 10
366.4993241051941
 20
69.49965586308424
 30
0.0
 11
401.9991483230286
 21
69.49965586308424
 31
0.0
  0
LINE
  5
5CC9
330
1E
100
AcDbEntity
  8
0
  6
Continuous
100
AcDbLine
 10
366.4993241051941
 20
64.49968062113575
 30
0.0
 11
401.9991483230286
 21
64.49968062113575
 31
0.0
  0
LINE
  5
5CCA
330
1E
100
AcDbEntity
  8
0
  6
Continuous
100
AcDbLine
 10
336.9994701776982
 20
73.24963729454561
 30
0.0
 11
336.9994701776982
 21
60.74969918967435
 31
0.0
  0
LINE
  5
5CCB
330
1E
100
AcDbEntity
  8
0
  6
Continuous
100
AcDbLine
 10
351.9993959035433
 20
69.49965586308424
 30
0.0
 11
351.9993959035433
 21
64.49968062113575
 31
0.0
  0
LINE
  5
5CCC
330
1E
100
AcDbEntity
  8
0
  6
Continuous
100
AcDbLine
 10
366.4993241051941
 20
74.12463296188659
 30
0.0
 11
366.4993241051941
 21
59.87470352233344
 31
0.0
  0
LINE
  5
5CCD
330
1E
100
AcDbEntity
  8
0
  6
Continuous
100
AcDbLine
 10
371.9992968713377
 20
69.49965586308424
 30
0.0
 11
371.9992968713377
 21
64.49968062113575
 31
0.0
  0
DIMENSION
  5
5CCE
330
1E
100
AcDbEntity
  8
30
  6
Continuous
100
AcDbDimension
280
     0
  2
*D33
 10
423.7524182144204
 20
69.49965586308421
 30
0.0
 11
426.0857515477538
 21
73.4996558630843
 31
0.0
 70
   160
 71
     5
 42
4.999975241948489
 73
     0
 74
     0
 75
     0
  3
STANDARD
100
AcDbAlignedDimension
 13
401.9991483230286
 23
64.49968062113575
 33
0.0
 14
401.9991483230286
 24
69.49965586308424
 34
0.0
 50
270.0
100
AcDbRotatedDimension
1001
ACAD
1000
DSTYLE
1002
{
1070
   340
1005
11
1002
}
  0
LINE
  5
5CCF
330
1E
100
AcDbEntity
  8
0
  6
Continuous
100
AcDbLine
 10
386.9992225971832
 20
73.24963729454561
 30
0.0
 11
386.9992225971832
 21
60.74969918967435
 31
0.0
  0
LINE
  5
5CD0
330
1E
100
AcDbEntity
  8
0
  6
Continuous
100
AcDbLine
 10
401.9991483230286
 20
69.49965586308424
 30
0.0
 11
401.9991483230286
 21
64.49968062113575
 31
0.0
  0
TEXT
  5
5CD1
330
1E
100
AcDbEntity
  8
30
  6
Continuous
100
AcDbText
 10
294.3687489326077
 20
-121.3902071445067
 30
0.0
 40
5.0
  1
%%c8.5
 41
0.8542968749999968
  7
UGMTXT
100
AcDbText
  0
DIMENSION
  5
5CD2
330
1E
100
AcDbEntity
  8
30
  6
Continuous
100
AcDbDimension
280
     0
  2
*D34
 10
437.7367141808032
 20
-66.99966824211003
 30
0.0
 11
434.7367141808032
 21
0.0000000000000304
 31
0.0
 70
    32
 71
     5
 42
133.9993364842199
 73
     0
 74
     0
 75
     0
  3
STANDARD
100
AcDbAlignedDimension
 13
411.9990988069256
 23
66.99966824210996
 33
0.0
 14
426.0857515477538
 24
-66.99966824211003
 34
0.0
 50
90.0
100
AcDbRotatedDimension
1001
ACAD
1000
DSTYLE
1002
{
1070
    79
1070
     3
1002
}
  0
LINE
  5
5CD3
330
1E
100
AcDbEntity
  8
1
  6
Continuous
 62
     3
100
AcDbLine
 10
304.1999257258449
 20
-50.00038374979793
 30
0.0
 11
302.599925725845
 21
-50.00038374979793
 31
0.0
  0
LINE
  5
5CD4
330
1E
100
AcDbEntity
  8
1
  6
Continuous
 62
     3
100
AcDbLine
 10
256.7999257258448
 20
-50.00038374979793
 30
0.0
 11
256.7999257258448
 21
-75.00038374979793
 31
0.0
  0
LINE
  5
5CD5
330
1E
100
AcDbEntity
  8
1
  6
Continuous
 62
     3
100
AcDbLine
 10
302.599925725845
 20
-50.00038374979793
 30
0.0
 11
302.599925725845
 21
-76.50038374979795
 31
0.0
  0
LINE
  5
5CD6
330
1E
100
AcDbEntity
  8
1
  6
Continuous
 62
     3
100
AcDbLine
 10
307.2999257258446
 20
-32.60038374979791
 30
0.0
 11
307.2999257258446
 21
-41.40038374979795
 31
0.0
  0
LINE
  5
5CD7
330
1E
100
AcDbEntity
  8
1
  6
Continuous
 62
     3
100
AcDbLine
 10
309.7499257258446
 20
38.59961625020205
 30
0.0
 11
307.4999257258451
 21
38.59961625020205
 31
0.0
  0
LINE
  5
5CD8
330
1E
100
AcDbEntity
  8
1
  6
Continuous
 62
     3
100
AcDbLine
 10
253.3999257258448
 20
17.99961625020209
 30
0.0
 11
253.3999257258448
 21
-18.00038374979792
 31
0.0
  0
LINE
  5
5CD9
330
1E
100
AcDbEntity
  8
1
  6
Continuous
 62
     3
100
AcDbLine
 10
307.0999257258448
 20
-32.60038374979791
 30
0.0
 11
306.1999257258447
 21
-32.60038374979791
 31
0.0
  0
LINE
  5
5CDA
330
1E
100
AcDbEntity
  8
1
  6
Continuous
 62
     3
100
AcDbLine
 10
299.9999257258451
 20
-76.50038374979795
 30
0.0
 11
302.599925725845
 21
-76.50038374979795
 31
0.0
  0
LINE
  5
5CDB
330
1E
100
AcDbEntity
  8
1
  6
Continuous
 62
     3
100
AcDbLine
 10
256.7999257258448
 20
74.99961625020205
 30
0.0
 11
244.9999257258451
 21
74.99961625020205
 31
0.0
  0
LINE
  5
5CDC
330
1E
100
AcDbEntity
  8
1
  6
Continuous
 62
     3
100
AcDbLine
 10
256.7999257258448
 20
49.99961625020205
 30
0.0
 11
302.599925725845
 21
49.99961625020205
 31
0.0
  0
LINE
  5
5CDD
330
1E
100
AcDbEntity
  8
1
  6
Continuous
 62
     3
100
AcDbLine
 10
290.3999257258447
 20
-18.00038374979792
 30
0.0
 11
290.3999257258447
 21
17.99961625020209
 31
0.0
  0
LINE
  5
5CDE
330
1E
100
AcDbEntity
  8
1
  6
Continuous
 62
     3
100
AcDbLine
 10
305.199925725845
 20
54.49961625020208
 30
0.0
 11
302.599925725845
 21
54.49961625020208
 31
0.0
  0
LINE
  5
5CDF
330
1E
100
AcDbEntity
  8
1
  6
Continuous
 62
     3
100
AcDbLine
 10
306.3999257258447
 20
43.64143875020203
 30
0.0
 11
307.4999257258451
 21
43.54520125020207
 31
0.0
  0
LINE
  5
5CE0
330
1E
100
AcDbEntity
  8
1
  6
Continuous
 62
     3
100
AcDbLine
 10
310.7499257258449
 20
46.39961625020204
 30
0.0
 11
310.7499257258449
 21
39.59961625020206
 31
0.0
  0
LINE
  5
5CE1
330
1E
100
AcDbEntity
  8
1
  6
Continuous
 62
     3
100
AcDbLine
 10
306.3999257258447
 20
38.64961625020207
 30
0.0
 11
306.3999257258447
 21
47.34961625020203
 31
0.0
  0
LINE
  5
5CE2
330
1E
100
AcDbEntity
  8
1
  6
Continuous
 62
     3
100
AcDbLine
 10
305.9999257258447
 20
38.24961625020208
 30
0.0
 11
305.2999257258448
 21
38.24961625020208
 31
0.0
  0
LINE
  5
5CE3
330
1E
100
AcDbEntity
  8
1
  6
Continuous
 62
     3
100
AcDbLine
 10
307.4999257258451
 20
47.19961625020203
 30
0.0
 11
307.4999257258451
 21
38.79961625020208
 31
0.0
  0
LINE
  5
5CE4
330
1E
100
AcDbEntity
  8
1
  6
Continuous
 62
     3
100
AcDbLine
 10
305.7999257258449
 20
-32.25038374979795
 30
0.0
 11
305.099925725845
 21
-32.25038374979795
 31
0.0
  0
LINE
  5
5CE5
330
1E
100
AcDbEntity
  8
1
  6
Continuous
 62
     3
100
AcDbLine
 10
307.4999257258451
 20
42.74405625020206
 30
0.0
 11
306.3999257258447
 21
42.84029375020202
 31
0.0
  0
LINE
  5
5CE6
330
1E
100
AcDbEntity
  8
1
  6
Continuous
 62
     3
100
AcDbLine
 10
288.3999257258447
 20
19.99961625020205
 30
0.0
 11
255.3999257258448
 21
19.99961625020205
 31
0.0
  0
LINE
  5
5CE7
330
1E
100
AcDbEntity
  8
1
  6
Continuous
 62
     3
100
AcDbLine
 10
305.199925725845
 20
-45.50038374979793
 30
0.0
 11
305.199925725845
 21
54.49961625020208
 31
0.0
  0
LINE
  5
5CE8
330
1E
100
AcDbEntity
  8
1
  6
Continuous
 62
     3
100
AcDbLine
 10
307.2999257258446
 20
47.39961625020207
 30
0.0
 11
306.3999257258447
 21
47.39961625020207
 31
0.0
  0
LINE
  5
5CE9
330
1E
100
AcDbEntity
  8
1
  6
Continuous
 62
     3
100
AcDbLine
 10
307.2999257258446
 20
38.59961625020205
 30
0.0
 11
306.3999257258447
 21
38.59961625020205
 31
0.0
  0
LINE
  5
5CEA
330
1E
100
AcDbEntity
  8
1
  6
Continuous
 62
     3
100
AcDbLine
 10
305.9999257258447
 20
47.74961625020203
 30
0.0
 11
305.2999257258448
 21
47.74961625020203
 31
0.0
  0
LINE
  5
5CEB
330
1E
100
AcDbEntity
  8
1
  6
Continuous
 62
     3
100
AcDbLine
 10
309.5499257258448
 20
-41.40038374979795
 30
0.0
 11
307.2999257258446
 21
-41.40038374979795
 31
0.0
  0
LINE
  5
5CEC
330
1E
100
AcDbEntity
  8
1
  6
Continuous
 62
     3
100
AcDbLine
 10
256.7999257258448
 20
74.99961625020205
 30
0.0
 11
256.7999257258448
 21
49.99961625020205
 31
0.0
  0
LINE
  5
5CED
330
1E
100
AcDbEntity
  8
1
  6
Continuous
 62
     3
100
AcDbLine
 10
255.3999257258448
 20
-20.00038374979795
 30
0.0
 11
288.3999257258447
 21
-20.00038374979795
 31
0.0
  0
LINE
  5
5CEE
330
1E
100
AcDbEntity
  8
1
  6
Continuous
 62
     3
100
AcDbLine
 10
304.1999257258449
 20
49.99961625020205
 30
0.0
 11
304.1999257258449
 21
-50.00038374979793
 31
0.0
  0
LINE
  5
5CEF
330
1E
100
AcDbEntity
  8
1
  6
Continuous
 62
     3
100
AcDbLine
 10
302.599925725845
 20
76.49961625020205
 30
0.0
 11
302.599925725845
 21
49.99961625020205
 31
0.0
  0
LINE
  5
5CF0
330
1E
100
AcDbEntity
  8
1
  6
Continuous
 62
     3
100
AcDbLine
 10
309.5499257258448
 20
-32.60038374979791
 30
0.0
 11
307.2999257258446
 21
-32.60038374979791
 31
0.0
  0
LINE
  5
5CF1
330
1E
100
AcDbEntity
  8
1
  6
Continuous
 62
     3
100
AcDbLine
 10
310.5499257258448
 20
-33.60038374979794
 30
0.0
 11
310.5499257258448
 21
-40.40038374979793
 31
0.0
  0
LINE
  5
5CF2
330
1E
100
AcDbEntity
  8
1
  6
Continuous
 62
     3
100
AcDbLine
 10
306.1999257258447
 20
-36.35856124979793
 30
0.0
 11
307.2999257258446
 21
-36.45479874979793
 31
0.0
  0
LINE
  5
5CF3
330
1E
100
AcDbEntity
  8
1
  6
Continuous
 62
     3
100
AcDbLine
 10
244.9999257258451
 20
-75.00038374979793
 30
0.0
 11
256.7999257258448
 21
-75.00038374979793
 31
0.0
  0
LINE
  5
5CF4
330
1E
100
AcDbEntity
  8
1
  6
Continuous
 62
     3
100
AcDbLine
 10
299.9999257258451
 20
76.49961625020205
 30
0.0
 11
302.599925725845
 21
76.49961625020205
 31
0.0
  0
LINE
  5
5CF5
330
1E
100
AcDbEntity
  8
1
  6
Continuous
 62
     3
100
AcDbLine
 10
307.4999257258451
 20
47.39961625020207
 30
0.0
 11
307.4999257258451
 21
38.59961625020205
 31
0.0
  0
LINE
  5
5CF6
330
1E
100
AcDbEntity
  8
1
  6
Continuous
 62
     3
100
AcDbLine
 10
309.7499257258446
 20
47.39961625020207
 30
0.0
 11
307.4999257258451
 21
47.39961625020207
 31
0.0
  0
LINE
  5
5CF7
330
1E
100
AcDbEntity
  8
1
  6
Continuous
 62
     3
100
AcDbLine
 10
307.0999257258448
 20
-41.40038374979795
 30
0.0
 11
306.1999257258447
 21
-41.40038374979795
 31
0.0
  0
LINE
  5
5CF8
330
1E
100
AcDbEntity
  8
1
  6
Continuous
 62
     3
100
AcDbLine
 10
302.599925725845
 20
-50.00038374979793
 30
0.0
 11
256.7999257258448
 21
-50.00038374979793
 31
0.0
  0
LINE
  5
5CF9
330
1E
100
AcDbEntity
  8
1
  6
Continuous
 62
     3
100
AcDbLine
 10
302.599925725845
 20
49.99961625020205
 30
0.0
 11
304.1999257258449
 21
49.99961625020205
 31
0.0
  0
LINE
  5
5CFA
330
1E
100
AcDbEntity
  8
1
  6
Continuous
 62
     3
100
AcDbLine
 10
305.199925725845
 20
-45.50038374979793
 30
0.0
 11
304.1999257258449
 21
-45.50038374979793
 31
0.0
  0
LINE
  5
5CFB
330
1E
100
AcDbEntity
  8
1
  6
Continuous
 62
     3
100
AcDbLine
 10
307.2999257258446
 20
-37.25594374979792
 30
0.0
 11
306.1999257258447
 21
-37.15970624979796
 31
0.0
  0
LINE
  5
5CFC
330
1E
100
AcDbEntity
  8
1
  6
Continuous
 62
     3
100
AcDbLine
 10
305.7999257258449
 20
-41.75038374979793
 30
0.0
 11
305.099925725845
 21
-41.75038374979793
 31
0.0
  0
LINE
  5
5CFD
330
1E
100
AcDbEntity
  8
1
  6
Continuous
 62
     3
100
AcDbLine
 10
307.2999257258446
 20
-32.80038374979793
 30
0.0
 11
307.2999257258446
 21
-41.20038374979793
 31
0.0
  0
LINE
  5
5CFE
330
1E
100
AcDbEntity
  8
1
  6
Continuous
 62
     3
100
AcDbLine
 10
306.1999257258447
 20
-41.3503837497979
 30
0.0
 11
306.1999257258447
 21
-32.65038374979795
 31
0.0
  0
ARC
  5
5CFF
330
1E
100
AcDbEntity
  8
1
  6
Continuous
 62
     3
100
AcDbCircle
 10
309.5499257258448
 20
-33.60038374979794
 30
0.0
 40
1.0
100
AcDbArc
 50
0.0
 51
90.0
  0
ARC
  5
5D00
330
1E
100
AcDbEntity
  8
1
  6
Continuous
 62
     3
100
AcDbCircle
 10
307.2999257258446
 20
47.19961625020203
 30
0.0
 40
0.2
100
AcDbArc
 50
0.0
 51
90.0
  0
ARC
  5
5D01
330
1E
100
AcDbEntity
  8
1
  6
Continuous
 62
     3
100
AcDbCircle
 10
255.3999257258448
 20
-18.00038374979792
 30
0.0
 40
2.0
100
AcDbArc
 50
180.0
 51
270.0
  0
ARC
  5
5D02
330
1E
100
AcDbEntity
  8
1
  6
Continuous
 62
     3
100
AcDbCircle
 10
307.2999257258446
 20
38.79961625020208
 30
0.0
 40
0.2
100
AcDbArc
 50
270.0
 51
0.0
  0
ARC
  5
5D03
330
1E
100
AcDbEntity
  8
1
  6
Continuous
 62
     3
100
AcDbCircle
 10
307.0999257258448
 20
-32.80038374979793
 30
0.0
 40
0.2
100
AcDbArc
 50
0.0
 51
90.0
  0
ARC
  5
5D04
330
1E
100
AcDbEntity
  8
1
  6
Continuous
 62
     3
100
AcDbCircle
 10
255.3999257258448
 20
17.99961625020209
 30
0.0
 40
2.0
100
AcDbArc
 50
90.0
 51
180.0
  0
ARC
  5
5D05
330
1E
100
AcDbEntity
  8
1
  6
Continuous
 62
     3
100
AcDbCircle
 10
305.9999257258447
 20
47.34961625020203
 30
0.0
 40
0.4
100
AcDbArc
 50
0.0
 51
90.0
  0
ARC
  5
5D06
330
1E
100
AcDbEntity
  8
1
  6
Continuous
 62
     3
100
AcDbCircle
 10
288.3999257258447
 20
-18.00038374979792
 30
0.0
 40
2.0
100
AcDbArc
 50
270.0
 51
0.0
  0
ARC
  5
5D07
330
1E
100
AcDbEntity
  8
1
  6
Continuous
 62
     3
100
AcDbCircle
 10
305.9999257258447
 20
38.64961625020207
 30
0.0
 40
0.4
100
AcDbArc
 50
270.0
 51
0.0
  0
ARC
  5
5D08
330
1E
100
AcDbEntity
  8
1
  6
Continuous
 62
     3
100
AcDbCircle
 10
309.7499257258446
 20
46.39961625020204
 30
0.0
 40
1.0
100
AcDbArc
 50
0.0
 51
90.0
  0
ARC
  5
5D09
330
1E
100
AcDbEntity
  8
1
  6
Continuous
 62
     3
100
AcDbCircle
 10
307.0999257258448
 20
-41.20038374979793
 30
0.0
 40
0.2
100
AcDbArc
 50
270.0
 51
0.0
  0
ARC
  5
5D0A
330
1E
100
AcDbEntity
  8
1
  6
Continuous
 62
     3
100
AcDbCircle
 10
309.5499257258448
 20
-40.40038374979793
 30
0.0
 40
1.0
100
AcDbArc
 50
270.0
 51
0.0
  0
ARC
  5
5D0B
330
1E
100
AcDbEntity
  8
1
  6
Continuous
 62
     3
100
AcDbCircle
 10
309.7499257258446
 20
39.59961625020206
 30
0.0
 40
1.0
100
AcDbArc
 50
270.0
 51
0.0
  0
ARC
  5
5D0C
330
1E
100
AcDbEntity
  8
1
  6
Continuous
 62
     3
100
AcDbCircle
 10
305.7999257258449
 20
-41.3503837497979
 30
0.0
 40
0.4
100
AcDbArc
 50
270.0
 51
0.0
  0
ARC
  5
5D0D
330
1E
100
AcDbEntity
  8
1
  6
Continuous
 62
     3
100
AcDbCircle
 10
288.3999257258447
 20
17.99961625020209
 30
0.0
 40
2.0
100
AcDbArc
 50
0.0
 51
90.0
  0
ARC
  5
5D0E
330
1E
100
AcDbEntity
  8
1
  6
Continuous
 62
     3
100
AcDbCircle
 10
305.7999257258449
 20
-32.65038374979795
 30
0.0
 40
0.4
100
AcDbArc
 50
0.0
 51
90.0
  0
LINE
  5
5D0F
330
1E
100
AcDbEntity
  8
10
  6
CONTINOUS
100
AcDbLine
 10
299.9996533872792
 20
-77.49961625020187
 30
0.0
 11
299.9996533872792
 21
-50.00038374979793
 31
0.0
  0
LINE
  5
5D10
330
1E
100
AcDbEntity
  8
10
  6
CONTINOUS
100
AcDbLine
 10
299.9996533872792
 20
77.49961625020205
 30
0.0
 11
299.9996533872792
 21
49.99961625020205
 31
0.0
  0
LINE
  5
5E92
330
1E
100
AcDbEntity
  8
10
  6
CONTINOUS
100
AcDbLine
 10
-80.99948019072273
 20
147.33137517245
 30
0.0
 11
-80.99948019072273
 21
162.33137517245
 31
0.0
  0
LINE
  5
5E93
330
1E
100
AcDbEntity
  8
21
  6
Continuous
100
AcDbLine
 10
57.50051980927725
 20
283.8313751724501
 30
0.0
 11
57.50051980927725
 21
319.3313751724501
 31
0.0
  0
LINE
  5
5E94
330
1E
100
AcDbEntity
  8
10
  6
CONTINOUS
100
AcDbLine
 10
-6.999480190722734
 20
141.33137517245
 30
0.0
 11
-6.999480190722734
 21
129.3361226724499
 31
0.0
  0
LINE
  5
5E95
330
1E
100
AcDbEntity
  8
10
  6
CONTINOUS
100
AcDbLine
 10
-44.99948019072272
 20
162.33137517245
 30
0.0
 11
-44.99948019072272
 21
217.33137517245
 31
0.0
  0
LINE
  5
5E96
330
1E
100
AcDbEntity
  8
18
100
AcDbLine
 10
-80.99948019072273
 20
162.33137517245
 30
0.0
 11
-85.99948019072273
 21
162.33137517245
 31
0.0
  0
LINE
  5
5E97
330
1E
100
AcDbEntity
  8
10
  6
CONTINOUS
100
AcDbLine
 10
7.000519809277263
 20
129.3361226724499
 30
0.0
 11
-6.999480190722734
 21
129.3361226724499
 31
0.0
  0
LINE
  5
5E98
330
1E
100
AcDbEntity
  8
1
  6
Continuous
 62
     3
100
AcDbLine
 10
75.00051980927726
 20
217.33137517245
 30
0.0
 11
-44.99948019072272
 21
217.33137517245
 31
0.0
  0
LINE
  5
5E99
330
1E
100
AcDbEntity
  8
21
  6
Continuous
100
AcDbLine
 10
2.500519809277264
 20
283.8313751724501
 30
0.0
 11
2.500519809277264
 21
319.3313751724501
 31
0.0
  0
LINE
  5
5E9A
330
1E
100
AcDbEntity
  8
1
  6
Continuous
 62
     3
100
AcDbLine
 10
84.91351980927728
 20
216.23137517245
 30
0.0
 11
84.62484480927749
 21
215.73137517245
 31
0.0
  0
LINE
  5
5E9B
330
1E
100
AcDbEntity
  8
1
  6
Continuous
 62
     3
100
AcDbLine
 10
-56.89948019072282
 20
223.53137517245
 30
0.0
 11
-56.89948019072282
 21
222.63137517245
 31
0.0
  0
LINE
  5
5E9C
330
1E
100
AcDbEntity
  8
1
  6
Continuous
 62
     3
100
AcDbLine
 10
-49.09948019072263
 20
226.98137517245
 30
0.0
 11
-55.89948019072283
 21
226.98137517245
 31
0.0
  0
LINE
  5
5E9D
330
1E
100
AcDbEntity
  8
1
  6
Continuous
 62
     3
100
AcDbLine
 10
-60.99948019072272
 20
219.9313751724499
 30
0.0
 11
-60.99948019072272
 21
162.33137517245
 31
0.0
  0
LINE
  5
5E9E
330
1E
100
AcDbEntity
  8
1
  6
Continuous
 62
     3
100
AcDbLine
 10
-39.99948019072274
 20
222.5313751724499
 30
0.0
 11
-37.12448019072275
 21
222.5313751724499
 31
0.0
  0
LINE
  5
5E9F
330
1E
100
AcDbEntity
  8
21
  6
Continuous
100
AcDbLine
 10
7.125519809277263
 20
283.8313751724501
 30
0.0
 11
-7.124480190722734
 21
283.8313751724501
 31
0.0
  0
LINE
  5
5EA0
330
1E
100
AcDbEntity
  8
21
  6
Continuous
100
AcDbLine
 10
-22.87448019072273
 20
233.83137517245
 30
0.0
 11
-37.12448019072275
 21
233.83137517245
 31
0.0
  0
LINE
  5
5EA1
330
1E
100
AcDbEntity
  8
1
  6
Continuous
 62
     3
100
AcDbLine
 10
-50.3751551907225
 20
215.73137517245
 30
0.0
 11
-54.62380519072251
 21
215.73137517245
 31
0.0
  0
LINE
  5
5EA2
330
1E
100
AcDbEntity
  8
1
  6
Continuous
 62
     3
100
AcDbLine
 10
83.14234480927694
 20
222.63137517245
 30
0.0
 11
83.04610730927704
 21
223.73137517245
 31
0.0
  0
LINE
  5
5EA3
330
1E
100
AcDbEntity
  8
1
  6
Continuous
 62
     3
100
AcDbLine
 10
-52.7550401907228
 20
223.73137517245
 30
0.0
 11
-52.65880269072289
 21
222.63137517245
 31
0.0
  0
LINE
  5
5EA4
330
1E
100
AcDbEntity
  8
1
  6
Continuous
 62
     3
100
AcDbLine
 10
91.00051980927728
 20
219.9313751724499
 30
0.0
 11
88.50051980927727
 21
219.9313751724499
 31
0.0
  0
LINE
  5
5EA5
330
1E
100
AcDbEntity
  8
1
  6
Continuous
 62
     3
100
AcDbLine
 10
-58.49948019072272
 20
219.9313751724499
 30
0.0
 11
-37.12448019072275
 21
219.9313751724499
 31
0.0
  0
LINE
  5
5EA6
330
1E
100
AcDbEntity
  8
1
  6
Continuous
 62
     3
100
AcDbLine
 10
10.00051980927726
 20
222.5313751724499
 30
0.0
 11
10.00051980927726
 21
219.9313751724499
 31
0.0
  0
LINE
  5
5EA7
330
1E
100
AcDbEntity
  8
1
  6
Continuous
 62
     3
100
AcDbLine
 10
-22.87448019072273
 20
219.9313751724499
 30
0.0
 11
-7.124480190722734
 21
219.9313751724499
 31
0.0
  0
LINE
  5
5EA8
330
1E
100
AcDbEntity
  8
1
  6
Continuous
 62
     3
100
AcDbLine
 10
-60.99948019072272
 20
219.9313751724499
 30
0.0
 11
-39.62448019072274
 21
219.9313751724499
 31
0.0
  0
LINE
  5
5EA9
330
1E
100
AcDbEntity
  8
1
  6
Continuous
 62
     3
100
AcDbLine
 10
-48.29948019072292
 20
223.73137517245
 30
0.0
 11
-56.69948019072255
 21
223.73137517245
 31
0.0
  0
LINE
  5
5EAA
330
1E
100
AcDbEntity
  8
1
  6
Continuous
 62
     3
100
AcDbLine
 10
-48.09948019072264
 20
225.9813751724501
 30
0.0
 11
-48.09948019072264
 21
223.73137517245
 31
0.0
  0
LINE
  5
5EAB
330
1E
100
AcDbEntity
  8
1
  6
Continuous
 62
     3
100
AcDbLine
 10
87.25051980927727
 20
222.2313751724501
 30
0.0
 11
87.25051980927727
 21
221.53137517245
 31
0.0
  0
LINE
  5
5EAC
330
1E
100
AcDbEntity
  8
1
  6
Continuous
 62
     3
100
AcDbLine
 10
-50.08648019072272
 20
216.23137517245
 30
0.0
 11
-50.3751551907225
 21
215.73137517245
 31
0.0
  0
LINE
  5
5EAD
330
1E
100
AcDbEntity
  8
1
  6
Continuous
 62
     3
100
AcDbLine
 10
84.91351980927728
 20
216.23137517245
 30
0.0
 11
84.91351980927728
 21
217.33137517245
 31
0.0
  0
LINE
  5
5EAE
330
1E
100
AcDbEntity
  8
21
  6
Continuous
100
AcDbLine
 10
-22.87448019072273
 20
217.33137517245
 30
0.0
 11
-22.87448019072273
 21
233.83137517245
 31
0.0
  0
LINE
  5
5EAF
330
1E
100
AcDbEntity
  8
21
  6
Continuous
100
AcDbLine
 10
67.12551980927726
 20
217.33137517245
 30
0.0
 11
67.12551980927726
 21
283.8313751724501
 31
0.0
  0
LINE
  5
5EB0
330
1E
100
AcDbEntity
  8
21
  6
Continuous
100
AcDbLine
 10
37.12551980927726
 20
233.83137517245
 30
0.0
 11
22.87551980927727
 21
233.83137517245
 31
0.0
  0
LINE
  5
5EB1
330
1E
100
AcDbEntity
  8
21
  6
Continuous
100
AcDbLine
 10
37.12551980927726
 20
217.33137517245
 30
0.0
 11
37.12551980927726
 21
233.83137517245
 31
0.0
  0
LINE
  5
5EB2
330
1E
100
AcDbEntity
  8
1
  6
Continuous
 62
     3
100
AcDbLine
 10
88.50051980927727
 20
219.9313751724499
 30
0.0
 11
88.50051980927727
 21
217.33137517245
 31
0.0
  0
LINE
  5
5EB3
330
1E
100
AcDbEntity
  8
1
  6
Continuous
 62
     3
100
AcDbLine
 10
67.12551980927726
 20
219.9313751724499
 30
0.0
 11
88.50051980927727
 21
219.9313751724499
 31
0.0
  0
LINE
  5
5EB4
330
1E
100
AcDbEntity
  8
1
  6
Continuous
 62
     3
100
AcDbLine
 10
92.60051980927718
 20
221.53137517245
 30
0.0
 11
92.60051980927718
 21
162.33137517245
 31
0.0
  0
LINE
  5
5EB5
330
1E
100
AcDbEntity
  8
1
  6
Continuous
 62
     3
100
AcDbLine
 10
78.15051980927734
 20
222.63137517245
 30
0.0
 11
86.85051980927717
 21
222.63137517245
 31
0.0
  0
LINE
  5
5EB6
330
1E
100
AcDbEntity
  8
1
  6
Continuous
 62
     3
100
AcDbLine
 10
86.90051980927734
 20
223.53137517245
 30
0.0
 11
86.90051980927734
 21
222.63137517245
 31
0.0
  0
LINE
  5
5EB7
330
1E
100
AcDbEntity
  8
1
  6
Continuous
 62
     3
100
AcDbLine
 10
86.90051980927734
 20
225.9813751724501
 30
0.0
 11
86.90051980927734
 21
223.73137517245
 31
0.0
  0
LINE
  5
5EB8
330
1E
100
AcDbEntity
  8
1
  6
Continuous
 62
     3
100
AcDbLine
 10
84.62484480927749
 20
215.73137517245
 30
0.0
 11
80.37619480927705
 21
215.73137517245
 31
0.0
  0
LINE
  5
5EB9
330
1E
100
AcDbEntity
  8
21
  6
Continuous
100
AcDbLine
 10
-32.49948019072274
 20
233.83137517245
 30
0.0
 11
-32.49948019072274
 21
269.3313751724501
 31
0.0
  0
LINE
  5
5EBA
330
1E
100
AcDbEntity
  8
21
  6
Continuous
100
AcDbLine
 10
62.50051980927725
 20
319.3313751724501
 30
0.0
 11
57.50051980927725
 21
319.3313751724501
 31
0.0
  0
LINE
  5
5EBB
330
1E
100
AcDbEntity
  8
21
  6
Continuous
100
AcDbLine
 10
7.125519809277263
 20
217.33137517245
 30
0.0
 11
7.125519809277263
 21
283.8313751724501
 31
0.0
  0
LINE
  5
5EBC
330
1E
100
AcDbEntity
  8
21
  6
Continuous
100
AcDbLine
 10
27.50051980927727
 20
233.83137517245
 30
0.0
 11
27.50051980927727
 21
269.3313751724501
 31
0.0
  0
LINE
  5
5EBD
330
1E
100
AcDbEntity
  8
10
  6
CONTINOUS
100
AcDbLine
 10
-10.99948019072273
 20
141.33137517245
 30
0.0
 11
-10.99948019072273
 21
145.3313751724499
 31
0.0
  0
LINE
  5
5EBE
330
1E
100
AcDbEntity
  8
10
  6
CONTINOUS
100
AcDbLine
 10
42.00051980927725
 20
145.3313751724499
 30
0.0
 11
42.00051980927725
 21
147.33137517245
 31
0.0
  0
LINE
  5
5EBF
330
1E
100
AcDbEntity
  8
10
  6
CONTINOUS
100
AcDbLine
 10
111.0005198092772
 20
162.33137517245
 30
0.0
 11
-80.99948019072273
 21
162.33137517245
 31
0.0
  0
LINE
  5
5EC0
330
1E
100
AcDbEntity
  8
18
100
AcDbLine
 10
116.0005198092772
 20
162.33137517245
 30
0.0
 11
111.0005198092772
 21
166.33137517245
 31
0.0
  0
LINE
  5
5EC1
330
1E
100
AcDbEntity
  8
1
  6
Continuous
 62
     3
100
AcDbLine
 10
10.00051980927726
 20
222.5313751724499
 30
0.0
 11
22.87551980927727
 21
222.5313751724499
 31
0.0
  0
LINE
  5
5EC2
330
1E
100
AcDbEntity
  8
1
  6
Continuous
 62
     3
100
AcDbLine
 10
37.12551980927726
 20
219.9313751724499
 30
0.0
 11
52.87551980927728
 21
219.9313751724499
 31
0.0
  0
LINE
  5
5EC3
330
1E
100
AcDbEntity
  8
1
  6
Continuous
 62
     3
100
AcDbLine
 10
-45.99948019072272
 20
221.53137517245
 30
0.0
 11
-45.99948019072272
 21
219.9313751724499
 31
0.0
  0
LINE
  5
5EC4
330
1E
100
AcDbEntity
  8
1
  6
Continuous
 62
     3
100
AcDbLine
 10
-57.24948019072272
 20
222.2313751724501
 30
0.0
 11
-57.24948019072272
 21
221.53137517245
 31
0.0
  0
LINE
  5
5EC5
330
1E
100
AcDbEntity
  8
1
  6
Continuous
 62
     3
100
AcDbLine
 10
-48.09948019072264
 20
223.73137517245
 30
0.0
 11
-56.89948019072282
 21
223.73137517245
 31
0.0
  0
LINE
  5
5EC6
330
1E
100
AcDbEntity
  8
1
  6
Continuous
 62
     3
100
AcDbLine
 10
-51.85765519072303
 20
222.63137517245
 30
0.0
 11
-51.95389269072295
 21
223.73137517245
 31
0.0
  0
LINE
  5
5EC7
330
1E
100
AcDbEntity
  8
1
  6
Continuous
 62
     3
100
AcDbLine
 10
-54.62380519072251
 20
215.73137517245
 30
0.0
 11
-54.91248019072274
 21
216.23137517245
 31
0.0
  0
LINE
  5
5EC8
330
1E
100
AcDbEntity
  8
21
  6
Continuous
100
AcDbLine
 10
-27.49948019072274
 20
233.83137517245
 30
0.0
 11
-27.49948019072274
 21
269.3313751724501
 31
0.0
  0
LINE
  5
5EC9
330
1E
100
AcDbEntity
  8
21
  6
Continuous
100
AcDbLine
 10
62.50051980927725
 20
319.3313751724501
 30
0.0
 11
57.50051980927725
 21
319.3313751724501
 31
0.0
  0
LINE
  5
5ECA
330
1E
100
AcDbEntity
  8
21
  6
Continuous
100
AcDbLine
 10
32.50051980927727
 20
233.83137517245
 30
0.0
 11
32.50051980927727
 21
269.3313751724501
 31
0.0
  0
LINE
  5
5ECB
330
1E
100
AcDbEntity
  8
10
  6
CONTINOUS
100
AcDbLine
 10
75.00051980927726
 20
217.33137517245
 30
0.0
 11
75.00051980927726
 21
162.33137517245
 31
0.0
  0
LINE
  5
5ECC
330
1E
100
AcDbEntity
  8
10
  6
CONTINOUS
100
AcDbLine
 10
7.000519809277263
 20
141.33137517245
 30
0.0
 11
7.000519809277263
 21
129.3361226724499
 31
0.0
  0
LINE
  5
5ECD
330
1E
100
AcDbEntity
  8
21
  6
Continuous
100
AcDbLine
 10
62.50051980927725
 20
289.3313751724501
 30
0.0
 11
57.50051980927725
 21
289.3313751724501
 31
0.0
  0
LINE
  5
5ECE
330
1E
100
AcDbEntity
  8
10
  6
CONTINOUS
100
AcDbLine
 10
111.0005198092772
 20
147.33137517245
 30
0.0
 11
111.0005198092772
 21
162.33137517245
 31
0.0
  0
LINE
  5
5ECF
330
1E
100
AcDbEntity
  8
1
  6
Continuous
 62
     3
100
AcDbLine
 10
-14.99948019072273
 20
222.5313751724499
 30
0.0
 11
-14.99948019072273
 21
219.9313751724499
 31
0.0
  0
LINE
  5
5ED0
330
1E
100
AcDbEntity
  8
1
  6
Continuous
 62
     3
100
AcDbLine
 10
-22.87448019072273
 20
222.5313751724499
 30
0.0
 11
-14.99948019072273
 21
222.5313751724499
 31
0.0
  0
LINE
  5
5ED1
330
1E
100
AcDbEntity
  8
1
  6
Continuous
 62
     3
100
AcDbLine
 10
-62.59948019072311
 20
221.53137517245
 30
0.0
 11
-45.99948019072272
 21
221.53137517245
 31
0.0
  0
LINE
  5
5ED2
330
1E
100
AcDbEntity
  8
1
  6
Continuous
 62
     3
100
AcDbLine
 10
76.00051980927727
 20
221.53137517245
 30
0.0
 11
76.00051980927727
 21
219.9313751724499
 31
0.0
  0
LINE
  5
5ED3
330
1E
100
AcDbEntity
  8
1
  6
Continuous
 62
     3
100
AcDbLine
 10
-47.74948019072271
 20
222.2313751724501
 30
0.0
 11
-47.74948019072271
 21
221.53137517245
 31
0.0
  0
LINE
  5
5ED4
330
1E
100
AcDbEntity
  8
1
  6
Continuous
 62
     3
100
AcDbLine
 10
82.2449598092772
 20
223.73137517245
 30
0.0
 11
82.34119730927757
 21
222.63137517245
 31
0.0
  0
LINE
  5
5ED5
330
1E
100
AcDbEntity
  8
1
  6
Continuous
 62
     3
100
AcDbLine
 10
78.10051980927717
 20
225.9813751724501
 30
0.0
 11
78.10051980927717
 21
223.73137517245
 31
0.0
  0
LINE
  5
5ED6
330
1E
100
AcDbEntity
  8
1
  6
Continuous
 62
     3
100
AcDbLine
 10
-56.84948019072264
 20
222.63137517245
 30
0.0
 11
-48.14948019072282
 21
222.63137517245
 31
0.0
  0
LINE
  5
5ED7
330
1E
100
AcDbEntity
  8
1
  6
Continuous
 62
     3
100
AcDbLine
 10
-54.91248019072274
 20
216.23137517245
 30
0.0
 11
-54.91248019072274
 21
217.33137517245
 31
0.0
  0
LINE
  5
5ED8
330
1E
100
AcDbEntity
  8
1
  6
Continuous
 62
     3
100
AcDbLine
 10
80.37619480927705
 20
215.73137517245
 30
0.0
 11
80.08751980927725
 21
216.23137517245
 31
0.0
  0
LINE
  5
5ED9
330
1E
100
AcDbEntity
  8
21
  6
Continuous
100
AcDbLine
 10
-37.12448019072275
 20
217.33137517245
 30
0.0
 11
-37.12448019072275
 21
233.83137517245
 31
0.0
  0
LINE
  5
5EDA
330
1E
100
AcDbEntity
  8
21
  6
Continuous
100
AcDbLine
 10
52.87551980927728
 20
217.33137517245
 30
0.0
 11
52.87551980927728
 21
283.8313751724501
 31
0.0
  0
LINE
  5
5EDB
330
1E
100
AcDbEntity
  8
21
  6
Continuous
100
AcDbLine
 10
2.500519809277264
 20
319.3313751724501
 30
0.0
 11
-2.499480190722735
 21
319.3313751724501
 31
0.0
  0
LINE
  5
5EDC
330
1E
100
AcDbEntity
  8
21
  6
Continuous
100
AcDbLine
 10
22.87551980927727
 20
217.33137517245
 30
0.0
 11
22.87551980927727
 21
233.83137517245
 31
0.0
  0
LINE
  5
5EDD
330
1E
100
AcDbEntity
  8
21
  6
Continuous
100
AcDbLine
 10
2.500519809277264
 20
289.3313751724501
 30
0.0
 11
-2.499480190722735
 21
289.3313751724501
 31
0.0
  0
LINE
  5
5EDE
330
1E
100
AcDbEntity
  8
10
  6
CONTINOUS
100
AcDbLine
 10
11.00051980927726
 20
141.33137517245
 30
0.0
 11
-10.99948019072273
 21
141.33137517245
 31
0.0
  0
LINE
  5
5EDF
330
1E
100
AcDbEntity
  8
21
  6
Continuous
100
AcDbLine
 10
62.50051980927725
 20
283.8313751724501
 30
0.0
 11
62.50051980927725
 21
319.3313751724501
 31
0.0
  0
LINE
  5
5EE0
330
1E
100
AcDbEntity
  8
18
100
AcDbLine
 10
-85.99948019072273
 20
162.33137517245
 30
0.0
 11
-90.9994801907227
 21
166.33137517245
 31
0.0
  0
LINE
  5
5EE1
330
1E
100
AcDbEntity
  8
1
  6
Continuous
 62
     3
100
AcDbLine
 10
-39.99948019072274
 20
222.5313751724499
 30
0.0
 11
-39.99948019072274
 21
219.9313751724499
 31
0.0
  0
LINE
  5
5EE2
330
1E
100
AcDbEntity
  8
1
  6
Continuous
 62
     3
100
AcDbLine
 10
-62.59948019072311
 20
221.53137517245
 30
0.0
 11
-62.59948019072311
 21
162.33137517245
 31
0.0
  0
LINE
  5
5EE3
330
1E
100
AcDbEntity
  8
1
  6
Continuous
 62
     3
100
AcDbLine
 10
76.00051980927727
 20
221.53137517245
 30
0.0
 11
92.60051980927718
 21
221.53137517245
 31
0.0
  0
LINE
  5
5EE4
330
1E
100
AcDbEntity
  8
1
  6
Continuous
 62
     3
100
AcDbLine
 10
-48.09948019072264
 20
223.53137517245
 30
0.0
 11
-48.09948019072264
 21
222.63137517245
 31
0.0
  0
LINE
  5
5EE5
330
1E
100
AcDbEntity
  8
1
  6
Continuous
 62
     3
100
AcDbLine
 10
77.75051980927726
 20
222.2313751724501
 30
0.0
 11
77.75051980927726
 21
221.53137517245
 31
0.0
  0
LINE
  5
5EE6
330
1E
100
AcDbEntity
  8
1
  6
Continuous
 62
     3
100
AcDbLine
 10
86.90051980927734
 20
223.73137517245
 30
0.0
 11
78.10051980927717
 21
223.73137517245
 31
0.0
  0
LINE
  5
5EE7
330
1E
100
AcDbEntity
  8
1
  6
Continuous
 62
     3
100
AcDbLine
 10
85.90051980927738
 20
226.98137517245
 30
0.0
 11
79.10051980927717
 21
226.98137517245
 31
0.0
  0
LINE
  5
5EE8
330
1E
100
AcDbEntity
  8
1
  6
Continuous
 62
     3
100
AcDbLine
 10
80.08751980927725
 20
216.23137517245
 30
0.0
 11
80.08751980927725
 21
217.33137517245
 31
0.0
  0
LINE
  5
5EE9
330
1E
100
AcDbEntity
  8
21
  6
Continuous
100
AcDbLine
 10
-27.49948019072274
 20
269.3313751724501
 30
0.0
 11
-32.49948019072274
 21
269.3313751724501
 31
0.0
  0
LINE
  5
5EEA
330
1E
100
AcDbEntity
  8
21
  6
Continuous
100
AcDbLine
 10
-7.124480190722734
 20
217.33137517245
 30
0.0
 11
-7.124480190722734
 21
283.8313751724501
 31
0.0
  0
LINE
  5
5EEB
330
1E
100
AcDbEntity
  8
21
  6
Continuous
100
AcDbLine
 10
32.50051980927727
 20
269.3313751724501
 30
0.0
 11
27.50051980927727
 21
269.3313751724501
 31
0.0
  0
LINE
  5
5EEC
330
1E
100
AcDbEntity
  8
10
  6
CONTINOUS
100
AcDbLine
 10
42.00051980927725
 20
145.3313751724499
 30
0.0
 11
-41.99948019072272
 21
145.3313751724499
 31
0.0
  0
LINE
  5
5EED
330
1E
100
AcDbEntity
  8
16
100
AcDbLine
 10
0.0005198092772645
 20
113.2393271227666
 30
0.0
 11
0.0005198092772645
 21
324.33137517245
 31
0.0
  0
LINE
  5
5EEE
330
1E
100
AcDbEntity
  8
18
100
AcDbLine
 10
111.0005198092772
 20
166.33137517245
 30
0.0
 11
-90.9994801907227
 21
166.33137517245
 31
0.0
  0
LINE
  5
5EEF
330
1E
100
AcDbEntity
  8
1
  6
Continuous
 62
     3
100
AcDbLine
 10
-58.49948019072272
 20
219.9313751724499
 30
0.0
 11
-58.49948019072272
 21
217.33137517245
 31
0.0
  0
LINE
  5
5EF0
330
1E
100
AcDbEntity
  8
1
  6
Continuous
 62
     3
100
AcDbLine
 10
7.125519809277263
 20
219.9313751724499
 30
0.0
 11
22.87551980927727
 21
219.9313751724499
 31
0.0
  0
LINE
  5
5EF1
330
1E
100
AcDbEntity
  8
1
  6
Continuous
 62
     3
100
AcDbLine
 10
91.00051980927728
 20
219.9313751724499
 30
0.0
 11
91.00051980927728
 21
162.33137517245
 31
0.0
  0
LINE
  5
5EF2
330
1E
100
AcDbEntity
  8
1
  6
Continuous
 62
     3
100
AcDbLine
 10
-56.89948019072282
 20
225.9813751724501
 30
0.0
 11
-56.89948019072282
 21
223.73137517245
 31
0.0
  0
LINE
  5
5EF3
330
1E
100
AcDbEntity
  8
1
  6
Continuous
 62
     3
100
AcDbLine
 10
78.10051980927717
 20
223.53137517245
 30
0.0
 11
78.10051980927717
 21
222.63137517245
 31
0.0
  0
LINE
  5
5EF4
330
1E
100
AcDbEntity
  8
1
  6
Continuous
 62
     3
100
AcDbLine
 10
86.70051980927706
 20
223.73137517245
 30
0.0
 11
78.30051980927698
 21
223.73137517245
 31
0.0
  0
LINE
  5
5EF5
330
1E
100
AcDbEntity
  8
1
  6
Continuous
 62
     3
100
AcDbLine
 10
-50.08648019072272
 20
216.23137517245
 30
0.0
 11
-50.08648019072272
 21
217.33137517245
 31
0.0
  0
LINE
  5
5EF6
330
1E
100
AcDbEntity
  8
21
  6
Continuous
100
AcDbLine
 10
-27.49948019072274
 20
239.3313751724498
 30
0.0
 11
-32.49948019072274
 21
239.3313751724498
 31
0.0
  0
LINE
  5
5EF7
330
1E
100
AcDbEntity
  8
21
  6
Continuous
100
AcDbLine
 10
67.12551980927726
 20
283.8313751724501
 30
0.0
 11
52.87551980927728
 21
283.8313751724501
 31
0.0
  0
LINE
  5
5EF8
330
1E
100
AcDbEntity
  8
21
  6
Continuous
100
AcDbLine
 10
2.500519809277264
 20
319.3313751724501
 30
0.0
 11
-2.499480190722735
 21
319.3313751724501
 31
0.0
  0
LINE
  5
5EF9
330
1E
100
AcDbEntity
  8
21
  6
Continuous
100
AcDbLine
 10
32.50051980927727
 20
239.3313751724498
 30
0.0
 11
27.50051980927727
 21
239.3313751724498
 31
0.0
  0
LINE
  5
5EFA
330
1E
100
AcDbEntity
  8
21
  6
Continuous
100
AcDbLine
 10
-2.499480190722735
 20
283.8313751724501
 30
0.0
 11
-2.499480190722735
 21
319.3313751724501
 31
0.0
  0
LINE
  5
5EFB
330
1E
100
AcDbEntity
  8
10
  6
CONTINOUS
100
AcDbLine
 10
11.00051980927726
 20
141.33137517245
 30
0.0
 11
11.00051980927726
 21
145.3313751724499
 31
0.0
  0
LINE
  5
5EFC
330
1E
100
AcDbEntity
  8
10
  6
CONTINOUS
100
AcDbLine
 10
-41.99948019072272
 20
145.3313751724499
 30
0.0
 11
-41.99948019072272
 21
147.33137517245
 31
0.0
  0
LINE
  5
5EFD
330
1E
100
AcDbEntity
  8
10
  6
CONTINOUS
100
AcDbLine
 10
111.0005198092772
 20
147.33137517245
 30
0.0
 11
-80.99948019072273
 21
147.33137517245
 31
0.0
  0
LINE
  5
5EFE
330
1E
100
AcDbEntity
  8
18
100
AcDbLine
 10
116.0005198092772
 20
162.33137517245
 30
0.0
 11
111.0005198092772
 21
162.33137517245
 31
0.0
  0
ARC
  5
5EFF
330
1E
100
AcDbEntity
  8
1
  6
Continuous
 62
     3
100
AcDbCircle
 10
-48.29948019072292
 20
223.53137517245
 30
0.0
 40
0.2
100
AcDbArc
 50
0.0
 51
90.0
  0
ARC
  5
5F00
330
1E
100
AcDbEntity
  8
1
  6
Continuous
 62
     3
100
AcDbCircle
 10
86.85051980927717
 20
222.2313751724501
 30
0.0
 40
0.4
100
AcDbArc
 50
0.0
 51
90.0
  0
ARC
  5
5F01
330
1E
100
AcDbEntity
  8
1
  6
Continuous
 62
     3
100
AcDbCircle
 10
85.90051980927738
 20
225.9813751724501
 30
0.0
 40
1.0
100
AcDbArc
 50
0.0
 51
90.0
  0
ARC
  5
5F02
330
1E
100
AcDbEntity
  8
1
  6
Continuous
 62
     3
100
AcDbCircle
 10
78.30051980927698
 20
223.53137517245
 30
0.0
 40
0.2
100
AcDbArc
 50
90.0
 51
180.0
  0
ARC
  5
5F03
330
1E
100
AcDbEntity
  8
1
  6
Continuous
 62
     3
100
AcDbCircle
 10
86.70051980927706
 20
223.53137517245
 30
0.0
 40
0.2
100
AcDbArc
 50
0.0
 51
90.0
  0
ARC
  5
5F04
330
1E
100
AcDbEntity
  8
1
  6
Continuous
 62
     3
100
AcDbCircle
 10
-56.69948019072255
 20
223.53137517245
 30
0.0
 40
0.2
100
AcDbArc
 50
90.0
 51
180.0
  0
ARC
  5
5F05
330
1E
100
AcDbEntity
  8
1
  6
Continuous
 62
     3
100
AcDbCircle
 10
78.15051980927734
 20
222.2313751724501
 30
0.0
 40
0.4
100
AcDbArc
 50
90.0
 51
180.0
  0
ARC
  5
5F06
330
1E
100
AcDbEntity
  8
1
  6
Continuous
 62
     3
100
AcDbCircle
 10
-49.09948019072263
 20
225.9813751724501
 30
0.0
 40
1.0
100
AcDbArc
 50
0.0
 51
90.0
  0
ARC
  5
5F07
330
1E
100
AcDbEntity
  8
1
  6
Continuous
 62
     3
100
AcDbCircle
 10
79.10051980927717
 20
225.9813751724501
 30
0.0
 40
1.0
100
AcDbArc
 50
90.0
 51
180.0
  0
ARC
  5
5F08
330
1E
100
AcDbEntity
  8
1
  6
Continuous
 62
     3
100
AcDbCircle
 10
-56.84948019072264
 20
222.2313751724501
 30
0.0
 40
0.4
100
AcDbArc
 50
90.0
 51
180.0
  0
ARC
  5
5F09
330
1E
100
AcDbEntity
  8
1
  6
Continuous
 62
     3
100
AcDbCircle
 10
-48.14948019072282
 20
222.2313751724501
 30
0.0
 40
0.4
100
AcDbArc
 50
0.0
 51
90.0
  0
ARC
  5
5F0A
330
1E
100
AcDbEntity
  8
1
  6
Continuous
 62
     3
100
AcDbCircle
 10
-55.89948019072283
 20
225.9813751724501
 30
0.0
 40
1.0
100
AcDbArc
 50
90.0
 51
180.0
  0
DIMENSION
  5
5F0B
330
1E
100
AcDbEntity
  8
30
  6
Continuous
100
AcDbDimension
280
     0
  2
*D46
 10
0.0005198092772677
 20
338.4818676724502
 30
0.0
 11
-14.99948019072273
 21
341.4818676724502
 31
0.0
 70
    32
  1
 <> 
 71
     5
 42
30.0
 73
     0
 74
     0
 75
     0
  3
STANDARD
100
AcDbAlignedDimension
 13
-29.99948019072274
 23
236.33137517245
 33
0.0
 14
0.0005198092772645
 24
286.3313751724501
 34
0.0
100
AcDbRotatedDimension
1001
ACAD
1000
DSTYLE
1002
{
1070
    79
1070
     3
1002
}
  0
DIMENSION
  5
5F0C
330
1E
100
AcDbEntity
  8
30
  6
Continuous
100
AcDbDimension
280
     0
  2
*D47
 10
30.00051980927727
 20
338.4818676724502
 30
0.0
 11
15.00051980927727
 21
341.4818676724502
 31
0.0
 70
    32
  1
 <> 
 71
     5
 42
30.0
 73
     0
 74
     0
 75
     0
  3
STANDARD
100
AcDbAlignedDimension
 13
0.0005198092772645
 23
286.3313751724501
 33
0.0
 14
30.00051980927727
 24
236.33137517245
 34
0.0
100
AcDbRotatedDimension
1001
ACAD
1000
DSTYLE
1002
{
1070
    79
1070
     3
1002
}
  0
DIMENSION
  5
5F0D
330
1E
100
AcDbEntity
  8
30
  6
Continuous
100
AcDbDimension
280
     0
  2
*D48
 10
60.00051980927725
 20
338.4818676724502
 30
0.0
 11
45.00051980927725
 21
341.4818676724502
 31
0.0
 70
    32
  1
 <> 
 71
     5
 42
30.0
 73
     0
 74
     0
 75
     0
  3
STANDARD
100
AcDbAlignedDimension
 13
30.00051980927727
 23
236.33137517245
 33
0.0
 14
60.00051980927725
 24
286.3313751724501
 34
0.0
100
AcDbRotatedDimension
1001
ACAD
1000
DSTYLE
1002
{
1070
    79
1070
     3
1002
}
  0
LINE
  5
5F0E
330
1E
100
AcDbEntity
  8
10
  6
CONTINOUS
100
AcDbLine
 10
-44.99948019072272
 20
217.33137517245
 30
0.0
 11
75.00051980927726
 21
217.33137517245
 31
0.0
  0
LINE
  5
5F0F
330
1E
100
AcDbEntity
  8
1
  6
Continuous
 62
     3
100
AcDbLine
 10
-58.49948019072272
 20
217.33137517245
 30
0.0
 11
-44.99948019072272
 21
217.33137517245
 31
0.0
  0
LINE
  5
5F10
330
1E
100
AcDbEntity
  8
1
  6
Continuous
 62
     3
100
AcDbLine
 10
75.00051980927726
 20
217.33137517245
 30
0.0
 11
88.50051980927727
 21
217.33137517245
 31
0.0
  0
VIEWPORT
  5
9AC
330
1A
100
AcDbEntity
 67
     1
  8
0
  6
Continuous
100
AcDbViewport
 10
171.999535
 20
144.1384739999999
 30
0.0
 40
488.867686
 41
292.351491
 68
    -1
 69
     1
 12
171.999535
 22
144.1384739999999
 13
0.0
 23
0.0
 14
10.0
 24
10.0
 15
10.0
 25
10.0
 16
0.0
 26
0.0
 36
1.0
 17
0.0
 27
0.0
 37
0.0
 42
50.0
 43
0.0
 44
0.0
 45
292.351491
 50
0.0
 51
0.0
 72
   100
 90
    32800
  1

281
     0
 71
     1
 74
     0
110
0.0
120
0.0
130
0.0
111
1.0
121
0.0
131
0.0
112
0.0
122
1.0
132
0.0
 79
     0
146
0.0
170
     0
 61
     5
348
5B42
292
     1
282
     1
141
0.0
142
0.0
 63
   250
421
  3355443
  0
ENDSEC
  0
SECTION
  2
OBJECTS
  0
DICTIONARY
  5
C
330
0
100
AcDbDictionary
281
     1
  3
ACAD_CIP_PREVIOUS_PRODUCT_INFO
350
5B72
  3
ACAD_COLOR
350
5B55
  3
ACAD_DETAILVIEWSTYLE
350
5B6E
  3
ACAD_GROUP
350
D
  3
ACAD_LAYOUT
350
19
  3
ACAD_MATERIAL
350
5B23
  3
ACAD_MLEADERSTYLE
350
5B6A
  3
ACAD_MLINESTYLE
350
16
  3
ACAD_PLOTSETTINGS
350
18
  3
ACAD_PLOTSTYLENAME
350
E
  3
ACAD_SCALELIST
350
5B58
  3
ACAD_SECTIONVIEWSTYLE
350
5B6C
  3
ACAD_TABLESTYLE
350
5B56
  3
ACAD_VISUALSTYLE
350
5B3C
  3
ACDB_RECOMPOSE_DATA
350
5FC7
  3
ACDBVARIABLEDICTIONARY
350
5697
  3
AEC_PROPERTY_SET_DEFS
350
5C89
  0
DICTIONARY
  5
5F50
330
10
100
AcDbDictionary
280
     1
281
     1
  3
ADSK_XREC_LAYER_RECONCILED
360
5F51
  0
DICTIONARY
  5
5F52
330
2F
100
AcDbDictionary
280
     1
281
     1
  3
ADSK_XREC_LAYER_RECONCILED
360
5F53
  0
DICTIONARY
  5
5F54
330
31
100
AcDbDictionary
280
     1
281
     1
  3
ADSK_XREC_LAYER_RECONCILED
360
5F55
  0
DICTIONARY
  5
5F56
330
35
100
AcDbDictionary
280
     1
281
     1
  3
ADSK_XREC_LAYER_RECONCILED
360
5F57
  0
DICTIONARY
  5
5F58
330
38
100
AcDbDictionary
280
     1
281
     1
  3
ADSK_XREC_LAYER_RECONCILED
360
5F59
  0
DICTIONARY
  5
5F5A
330
3C
100
AcDbDictionary
280
     1
281
     1
  3
ADSK_XREC_LAYER_RECONCILED
360
5F5B
  0
DICTIONARY
  5
5F5C
330
3D
100
AcDbDictionary
280
     1
281
     1
  3
ADSK_XREC_LAYER_RECONCILED
360
5F5D
  0
DICTIONARY
  5
5F5E
330
3A2
100
AcDbDictionary
280
     1
281
     1
  3
ADSK_XREC_LAYER_RECONCILED
360
5F5F
  0
DICTIONARY
  5
5F60
330
3BBA
100
AcDbDictionary
280
     1
281
     1
  3
ADSK_XREC_LAYER_RECONCILED
360
5F61
  0
DICTIONARY
  5
5F62
330
3BBB
100
AcDbDictionary
280
     1
281
     1
  3
ADSK_XREC_LAYER_RECONCILED
360
5F63
  0
DICTIONARY
  5
5F64
330
5116
100
AcDbDictionary
280
     1
281
     1
  3
ADSK_XREC_LAYER_RECONCILED
360
5F65
  0
DICTIONARY
  5
5F66
330
5117
100
AcDbDictionary
280
     1
281
     1
  3
ADSK_XREC_LAYER_RECONCILED
360
5F67
  0
DICTIONARY
  5
178
330
1E
100
AcDbDictionary
280
     1
281
     1
  3
ACAD_LAYOUTSELFREF
360
5AE5
  0
DICTIONARY
  5
17A
330
1A
100
AcDbDictionary
280
     1
281
     1
  3
ACAD_LAYOUTSELFREF
360
5AE4
  0
DICTIONARY
  5
5F76
330
5A6E
100
AcDbDictionary
280
     1
281
     1
  0
XRECORD
  5
5B72
102
{ACAD_REACTORS
330
C
102
}
330
C
100
AcDbXrecord
280
     1
300
ACDLT
300
2014
300
ACDLT_F_S
  0
DICTIONARY
  5
5B55
102
{ACAD_REACTORS
330
C
102
}
330
C
100
AcDbDictionary
281
     1
  0
DICTIONARY
  5
5B6E
102
{ACAD_REACTORS
330
C
102
}
330
C
100
AcDbDictionary
281
     1
  3
Imperial24
350
5B6F
  0
DICTIONARY
  5
D
102
{ACAD_REACTORS
330
C
102
}
330
C
100
AcDbDictionary
281
     1
  0
DICTIONARY
  5
19
102
{ACAD_REACTORS
330
C
102
}
330
C
100
AcDbDictionary
281
     1
  3
Model
350
5AED
  3
ﾚｲｱｳﾄ1
350
5AEE
  0
DICTIONARY
  5
5B23
102
{ACAD_REACTORS
330
C
102
}
330
C
100
AcDbDictionary
281
     1
  3
ByBlock
350
5B2C
  3
ByLayer
350
5B24
  3
Global
350
5B34
  0
DICTIONARY
  5
5B6A
102
{ACAD_REACTORS
330
C
102
}
330
C
100
AcDbDictionary
281
     1
  3
Standard
350
5B6B
  0
DICTIONARY
  5
16
102
{ACAD_REACTORS
330
C
102
}
330
C
100
AcDbDictionary
281
     1
  3
STANDARD
350
17
  0
DICTIONARY
  5
18
102
{ACAD_REACTORS
330
C
102
}
330
C
100
AcDbDictionary
281
     1
  0
ACDBDICTIONARYWDFLT
  5
E
102
{ACAD_REACTORS
330
C
102
}
330
C
100
AcDbDictionary
281
     1
  3
Normal
350
F
100
AcDbDictionaryWithDefault
340
F
  0
DICTIONARY
  5
5B58
102
{ACAD_REACTORS
330
C
102
}
330
C
100
AcDbDictionary
281
     1
  3
A0
350
5B59
  3
A1
350
5B5A
  3
A2
350
5B5B
  3
A3
350
5B5C
  3
A4
350
5B5D
  3
A5
350
5B5E
  3
A6
350
5B5F
  3
A7
350
5B60
  3
A8
350
5B61
  3
A9
350
5B62
  3
B0
350
5B63
  3
B1
350
5B64
  3
B2
350
5B65
  3
B3
350
5B66
  3
B4
350
5B67
  3
B5
350
5B68
  3
B6
350
5B69
  0
DICTIONARY
  5
5B6C
102
{ACAD_REACTORS
330
C
102
}
330
C
100
AcDbDictionary
281
     1
  3
Imperial24
350
5B6D
  0
DICTIONARY
  5
5B56
102
{ACAD_REACTORS
330
C
102
}
330
C
100
AcDbDictionary
281
     1
  3
Standard
350
5B57
  0
DICTIONARY
  5
5B3C
102
{ACAD_REACTORS
330
C
102
}
330
C
100
AcDbDictionary
281
     1
  3
2dWireframe
350
5B42
  3
Basic
350
5B41
  3
Brighten
350
5B48
  3
ColorChange
350
5B4C
  3
Conceptual
350
5B45
  3
Dim
350
5B47
  3
EdgeColorOff
350
5B54
  3
Facepattern
350
5B4B
  3
Flat
350
5B3D
  3
FlatWithEdges
350
5B3E
  3
Gouraud
350
5B3F
  3
GouraudWithEdges
350
5B40
  3
Hidden
350
5B44
  3
JitterOff
350
5B52
  3
Linepattern
350
5B4A
  3
OverhangOff
350
5B53
  3
Realistic
350
5B46
  3
Shaded
350
5B51
  3
Shaded with edges
350
5B50
  3
Shades of Gray
350
5B4D
  3
Sketchy
350
5B4E
  3
Thicken
350
5B49
  3
Wireframe
350
5B43
  3
X-Ray
350
5B4F
  0
XRECORD
  5
5FC7
102
{ACAD_REACTORS
330
C
102
}
330
C
100
AcDbXrecord
280
     1
 90
        1
330
5B57
330
5B6D
330
5B6F
  0
DICTIONARY
  5
5697
102
{ACAD_REACTORS
330
C
102
}
330
C
100
AcDbDictionary
281
     1
  3
CANNOSCALE
350
5F6C
  3
CMLEADERSTYLE
350
5F69
  3
CTABLESTYLE
350
5F68
  3
CVIEWDETAILSTYLE
350
5F6A
  3
CVIEWSECTIONSTYLE
350
5F6B
  3
DIMASSOC
350
5698
  3
INDEXCTL
350
5F6E
  3
LAYEREVAL
350
5FC0
  3
LAYERNOTIFY
350
5FC1
  3
LIGHTINGUNITS
350
5FBF
  3
MSLTSCALE
350
5FBE
  3
SORTENTS
350
5F6D
  0
DICTIONARY
  5
5C89
102
{ACAD_REACTORS
330
C
102
}
330
C
100
AcDbDictionary
281
     1
  0
XRECORD
  5
5F51
102
{ACAD_REACTORS
330
5F50
102
}
330
5F50
100
AcDbXrecord
280
     1
290
     1
  0
XRECORD
  5
5F53
102
{ACAD_REACTORS
330
5F52
102
}
330
5F52
100
AcDbXrecord
280
     1
290
     1
  0
XRECORD
  5
5F55
102
{ACAD_REACTORS
330
5F54
102
}
330
5F54
100
AcDbXrecord
280
     1
290
     1
  0
XRECORD
  5
5F57
102
{ACAD_REACTORS
330
5F56
102
}
330
5F56
100
AcDbXrecord
280
     1
290
     1
  0
XRECORD
  5
5F59
102
{ACAD_REACTORS
330
5F58
102
}
330
5F58
100
AcDbXrecord
280
     1
290
     1
  0
XRECORD
  5
5F5B
102
{ACAD_REACTORS
330
5F5A
102
}
330
5F5A
100
AcDbXrecord
280
     1
290
     1
  0
XRECORD
  5
5F5D
102
{ACAD_REACTORS
330
5F5C
102
}
330
5F5C
100
AcDbXrecord
280
     1
290
     1
  0
XRECORD
  5
5F5F
102
{ACAD_REACTORS
330
5F5E
102
}
330
5F5E
100
AcDbXrecord
280
     1
290
     1
  0
XRECORD
  5
5F61
102
{ACAD_REACTORS
330
5F60
102
}
330
5F60
100
AcDbXrecord
280
     1
290
     1
  0
XRECORD
  5
5F63
102
{ACAD_REACTORS
330
5F62
102
}
330
5F62
100
AcDbXrecord
280
     1
290
     1
  0
XRECORD
  5
5F65
102
{ACAD_REACTORS
330
5F64
102
}
330
5F64
100
AcDbXrecord
280
     1
290
     1
  0
XRECORD
  5
5F67
102
{ACAD_REACTORS
330
5F66
102
}
330
5F66
100
AcDbXrecord
280
     1
290
     1
  0
XRECORD
  5
5AE5
102
{ACAD_REACTORS
330
178
102
}
330
178
100
AcDbXrecord
280
     1
340
1E
  0
XRECORD
  5
5AE4
102
{ACAD_REACTORS
330
17A
102
}
330
17A
100
AcDbXrecord
280
     1
340
1A
  0
ACDBDETAILVIEWSTYLE
  5
5B6F
102
{ACAD_XDICTIONARY
360
5FC5
102
}
102
{ACAD_REACTORS
330
5B6E
102
}
330
5B6E
100
AcDbModelDocViewStyle
 70
     0
  3
Imperial24
290
     0
100
AcDbDetailViewStyle
 70
     0
 71
     0
 90
        3
 71
     1
340
11
 62
   256
 40
0.24
340
0
 62
   256
 40
0.24
300

 40
0.36
280
     3
 71
     2
340
15
 90
       25
 62
   256
 71
     3
340
11
 62
   256
 40
0.24
 90
        1
 40
0.75
 90
        1
300
%<\AcVar ViewType \f "%tc1">% %<\AcVar ViewDetailId>%\PSCALE %<\AcVar ViewScale \f "%sn">%
 71
     4
340
15
 90
       25
 62
   256
340
15
 90
       25
 62
   256
280
     0
  0
LAYOUT
  5
5AED
102
{ACAD_REACTORS
330
19
102
}
330
19
100
AcDbPlotSettings
  1

  2
Canon LBP3800 LIPSLX
  4

  6

 40
0.0
 41
0.0
 42
0.0
 43
0.0
 44
0.0
 45
0.0
 46
0.0
 47
0.0
 48
0.0
 49
0.0
140
0.0
141
0.0
142
1.0
143
1.0
 70
  1712
 72
     0
 73
     0
 74
     0
  7
monochrome.ctb
 75
     0
147
1.0
 76
     0
 77
     2
 78
   300
148
0.0
149
0.0
100
AcDbLayout
  1
Model
 70
     1
 71
     0
 10
0.0
 20
0.0
 11
12.0
 21
9.0
 12
0.0
 22
0.0
 32
0.0
 14
0.0
 24
0.0
 34
0.0
 15
0.0
 25
0.0
 35
0.0
146
0.0
 13
0.0
 23
0.0
 33
0.0
 16
1.0
 26
0.0
 36
0.0
 17
0.0
 27
1.0
 37
0.0
 76
     0
330
1E
331
5AFB
  0
LAYOUT
  5
5AEE
102
{ACAD_REACTORS
330
19
102
}
330
19
100
AcDbPlotSettings
  1

  2
Canon LBP3800 LIPSLX
  4

  6

 40
0.0
 41
0.0
 42
0.0
 43
0.0
 44
0.0
 45
0.0
 46
0.0
 47
0.0
 48
0.0
 49
0.0
140
0.0
141
0.0
142
1.0
143
1.0
 70
   688
 72
     0
 73
     0
 74
     5
  7
monochrome.ctb
 75
    16
147
1.0
 76
     0
 77
     2
 78
   300
148
0.0
149
0.0
100
AcDbLayout
  1
ﾚｲｱｳﾄ1
 70
     1
 71
     1
 10
-5.873749
 20
-5.87375
 11
204.099579
 21
291.1369009999999
 12
0.0
 22
0.0
 32
0.0
 14
4.273573
 24
5.205245999999998
 34
0.0
 15
194.610095
 25
283.0697009999996
 35
0.0
146
0.0
 13
0.0
 23
0.0
 33
0.0
 16
1.0
 26
0.0
 36
0.0
 17
0.0
 27
1.0
 37
0.0
 76
     0
330
1A
  0
MATERIAL
  5
5B2C
102
{ACAD_XDICTIONARY
360
5B2D
102
}
102
{ACAD_REACTORS
330
5B23
102
}
330
5B23
100
AcDbMaterial
  1
ByBlock
 72
     0
 43
0.0208333333333333
 43
0.0
 43
0.0
 43
0.0
 43
0.0
 43
0.0208333333333333
 43
0.0
 43
0.0
 43
0.0
 43
0.0
 43
1.0
 43
0.0
 43
0.0
 43
0.0
 43
0.0
 43
1.0
 77
     0
 47
0.0208333333333333
 47
0.0
 47
0.0
 47
0.0
 47
0.0
 47
0.0208333333333333
 47
0.0
 47
0.0
 47
0.0
 47
0.0
 47
1.0
 47
0.0
 47
0.0
 47
0.0
 47
0.0
 47
1.0
171
     0
 49
0.0208333333333333
 49
0.0
 49
0.0
 49
0.0
 49
0.0
 49
0.0208333333333333
 49
0.0
 49
0.0
 49
0.0
 49
0.0
 49
1.0
 49
0.0
 49
0.0
 49
0.0
 49
0.0
 49
1.0
175
     0
142
0.0208333333333333
142
0.0
142
0.0
142
0.0
142
0.0
142
0.0208333333333333
142
0.0
142
0.0
142
0.0
142
0.0
142
1.0
142
0.0
142
0.0
142
0.0
142
0.0
142
1.0
179
     0
144
0.0208333333333333
144
0.0
144
0.0
144
0.0
144
0.0
144
0.0208333333333333
144
0.0
144
0.0
144
0.0
144
0.0
144
1.0
144
0.0
144
0.0
144
0.0
144
0.0
144
1.0
147
0.0208333333333333
147
0.0
147
0.0
147
0.0
147
0.0
147
0.0208333333333333
147
0.0
147
0.0
147
0.0
147
0.0
147
1.0
147
0.0
147
0.0
147
0.0
147
0.0
147
1.0
  0
MATERIAL
  5
5B24
102
{ACAD_XDICTIONARY
360
5B25
102
}
102
{ACAD_REACTORS
330
5B23
102
}
330
5B23
100
AcDbMaterial
  1
ByLayer
 72
     0
 43
0.0208333333333333
 43
0.0
 43
0.0
 43
0.0
 43
0.0
 43
0.0208333333333333
 43
0.0
 43
0.0
 43
0.0
 43
0.0
 43
1.0
 43
0.0
 43
0.0
 43
0.0
 43
0.0
 43
1.0
 77
     0
 47
0.0208333333333333
 47
0.0
 47
0.0
 47
0.0
 47
0.0
 47
0.0208333333333333
 47
0.0
 47
0.0
 47
0.0
 47
0.0
 47
1.0
 47
0.0
 47
0.0
 47
0.0
 47
0.0
 47
1.0
171
     0
 49
0.0208333333333333
 49
0.0
 49
0.0
 49
0.0
 49
0.0
 49
0.0208333333333333
 49
0.0
 49
0.0
 49
0.0
 49
0.0
 49
1.0
 49
0.0
 49
0.0
 49
0.0
 49
0.0
 49
1.0
175
     0
142
0.0208333333333333
142
0.0
142
0.0
142
0.0
142
0.0
142
0.0208333333333333
142
0.0
142
0.0
142
0.0
142
0.0
142
1.0
142
0.0
142
0.0
142
0.0
142
0.0
142
1.0
179
     0
144
0.0208333333333333
144
0.0
144
0.0
144
0.0
144
0.0
144
0.0208333333333333
144
0.0
144
0.0
144
0.0
144
0.0
144
1.0
144
0.0
144
0.0
144
0.0
144
0.0
144
1.0
147
0.0208333333333333
147
0.0
147
0.0
147
0.0
147
0.0
147
0.0208333333333333
147
0.0
147
0.0
147
0.0
147
0.0
147
1.0
147
0.0
147
0.0
147
0.0
147
0.0
147
1.0
  0
MATERIAL
  5
5B34
102
{ACAD_XDICTIONARY
360
5B35
102
}
102
{ACAD_REACTORS
330
5B23
102
}
330
5B23
100
AcDbMaterial
  1
Global
 72
     0
 43
0.0208333333333333
 43
0.0
 43
0.0
 43
0.0
 43
0.0
 43
0.0208333333333333
 43
0.0
 43
0.0
 43
0.0
 43
0.0
 43
1.0
 43
0.0
 43
0.0
 43
0.0
 43
0.0
 43
1.0
 77
     0
 47
0.0208333333333333
 47
0.0
 47
0.0
 47
0.0
 47
0.0
 47
0.0208333333333333
 47
0.0
 47
0.0
 47
0.0
 47
0.0
 47
1.0
 47
0.0
 47
0.0
 47
0.0
 47
0.0
 47
1.0
171
     0
 49
0.0208333333333333
 49
0.0
 49
0.0
 49
0.0
 49
0.0
 49
0.0208333333333333
 49
0.0
 49
0.0
 49
0.0
 49
0.0
 49
1.0
 49
0.0
 49
0.0
 49
0.0
 49
0.0
 49
1.0
175
     0
142
0.0208333333333333
142
0.0
142
0.0
142
0.0
142
0.0
142
0.0208333333333333
142
0.0
142
0.0
142
0.0
142
0.0
142
1.0
142
0.0
142
0.0
142
0.0
142
0.0
142
1.0
179
     0
144
0.0208333333333333
144
0.0
144
0.0
144
0.0
144
0.0
144
0.0208333333333333
144
0.0
144
0.0
144
0.0
144
0.0
144
1.0
144
0.0
144
0.0
144
0.0
144
0.0
144
1.0
147
0.0208333333333333
147
0.0
147
0.0
147
0.0
147
0.0
147
0.0208333333333333
147
0.0
147
0.0
147
0.0
147
0.0
147
1.0
147
0.0
147
0.0
147
0.0
147
0.0
147
1.0
  0
MLEADERSTYLE
  5
5B6B
102
{ACAD_REACTORS
330
5B6A
102
}
330
5B6A
100
AcDbMLeaderStyle
179
     2
170
     2
171
     1
172
     0
 90
        2
 40
0.0
 41
0.0
173
     1
 91
-1056964608
340
13
 92
       -2
290
     1
 42
0.09
291
     1
 43
0.36
  3
Standard
 44
0.18
300

342
11
174
     1
178
     6
175
     1
176
     0
 93
-1056964608
 45
0.18
292
     0
297
     0
 46
0.18
 94
-1056964608
 47
1.0
 49
1.0
140
1.0
293
     1
141
0.0
294
     1
177
     0
142
1.0
295
     0
296
     0
143
0.125
271
     0
272
     9
273
     9
298
     0
1001
ACAD_MLEADERVER
1070
     2
  0
MLINESTYLE
  5
17
102
{ACAD_REACTORS
330
16
102
}
330
16
100
AcDbMlineStyle
  2
STANDARD
 70
     0
  3

 62
   256
 51
90.0
 52
90.0
 71
     2
 49
0.5
 62
   256
  6
BYLAYER
 49
-0.5
 62
   256
  6
BYLAYER
  0
ACDBPLACEHOLDER
  5
F
102
{ACAD_REACTORS
330
E
102
}
330
E
  0
SCALE
  5
5B59
102
{ACAD_REACTORS
330
5B58
102
}
330
5B58
100
AcDbScale
 70
     0
300
1:1
140
1.0
141
1.0
290
     1
  0
SCALE
  5
5B5A
102
{ACAD_REACTORS
330
5B58
102
}
330
5B58
100
AcDbScale
 70
     0
300
1/128" = 1'-0"
140
0.0078125
141
12.0
290
     0
  0
SCALE
  5
5B5B
102
{ACAD_REACTORS
330
5B58
102
}
330
5B58
100
AcDbScale
 70
     0
300
1/64" = 1'-0"
140
0.015625
141
12.0
290
     0
  0
SCALE
  5
5B5C
102
{ACAD_REACTORS
330
5B58
102
}
330
5B58
100
AcDbScale
 70
     0
300
1/32" = 1'-0"
140
0.03125
141
12.0
290
     0
  0
SCALE
  5
5B5D
102
{ACAD_REACTORS
330
5B58
102
}
330
5B58
100
AcDbScale
 70
     0
300
1/16" = 1'-0"
140
0.0625
141
12.0
290
     0
  0
SCALE
  5
5B5E
102
{ACAD_REACTORS
330
5B58
102
}
330
5B58
100
AcDbScale
 70
     0
300
3/32" = 1'-0"
140
0.09375
141
12.0
290
     0
  0
SCALE
  5
5B5F
102
{ACAD_REACTORS
330
5B58
102
}
330
5B58
100
AcDbScale
 70
     0
300
1/8" = 1'-0"
140
0.125
141
12.0
290
     0
  0
SCALE
  5
5B60
102
{ACAD_REACTORS
330
5B58
102
}
330
5B58
100
AcDbScale
 70
     0
300
3/16" = 1'-0"
140
0.1875
141
12.0
290
     0
  0
SCALE
  5
5B61
102
{ACAD_REACTORS
330
5B58
102
}
330
5B58
100
AcDbScale
 70
     0
300
1/4" = 1'-0"
140
0.25
141
12.0
290
     0
  0
SCALE
  5
5B62
102
{ACAD_REACTORS
330
5B58
102
}
330
5B58
100
AcDbScale
 70
     0
300
3/8" = 1'-0"
140
0.375
141
12.0
290
     0
  0
SCALE
  5
5B63
102
{ACAD_REACTORS
330
5B58
102
}
330
5B58
100
AcDbScale
 70
     0
300
1/2" = 1'-0"
140
0.5
141
12.0
290
     0
  0
SCALE
  5
5B64
102
{ACAD_REACTORS
330
5B58
102
}
330
5B58
100
AcDbScale
 70
     0
300
3/4" = 1'-0"
140
0.75
141
12.0
290
     0
  0
SCALE
  5
5B65
102
{ACAD_REACTORS
330
5B58
102
}
330
5B58
100
AcDbScale
 70
     0
300
1" = 1'-0"
140
1.0
141
12.0
290
     0
  0
SCALE
  5
5B66
102
{ACAD_REACTORS
330
5B58
102
}
330
5B58
100
AcDbScale
 70
     0
300
1-1/2" = 1'-0"
140
1.5
141
12.0
290
     0
  0
SCALE
  5
5B67
102
{ACAD_REACTORS
330
5B58
102
}
330
5B58
100
AcDbScale
 70
     0
300
3" = 1'-0"
140
3.0
141
12.0
290
     0
  0
SCALE
  5
5B68
102
{ACAD_REACTORS
330
5B58
102
}
330
5B58
100
AcDbScale
 70
     0
300
6" = 1'-0"
140
6.0
141
12.0
290
     0
  0
SCALE
  5
5B69
102
{ACAD_REACTORS
330
5B58
102
}
330
5B58
100
AcDbScale
 70
     0
300
1'-0" = 1'-0"
140
12.0
141
12.0
290
     0
  0
ACDBSECTIONVIEWSTYLE
  5
5B6D
102
{ACAD_XDICTIONARY
360
5FC3
102
}
102
{ACAD_REACTORS
330
5B6C
102
}
330
5B6C
100
AcDbModelDocViewStyle
 70
     0
  3
Imperial24
290
     0
100
AcDbSectionViewStyle
 70
     0
 71
     0
 90
       78
 71
     1
340
11
 62
   256
 40
0.24
340
0
340
0
 62
   256
 40
0.24
300
I, O, Q, S, X, Z
 40
0.48
 90
        3
 40
0.18
 90
        1
 71
     2
340
15
 90
       25
 62
   256
340
15
 90
       50
 62
   256
 40
0.24
 40
0.0
 40
0.24
 71
     3
340
11
 62
   256
 40
0.24
 90
        1
 40
0.75
 90
        1
300
%<\AcVar ViewType \f "%tc1">% %<\AcVar ViewSectionStartId>%-%<\AcVar ViewSectionEndId>%\PSCALE %<\AcVar ViewScale \f "%sn">%
 71
     4
 62
   256
 62
   257
300
ANSI31
 40
1.0
 90
        0
290
     0
290
     0
 90
        6
 40
0.0
 40
1.570796326794896
 40
0.2617993877991494
 40
1.308996938995747
 40
-0.2617993877991494
 40
1.832595714594045
  0
TABLESTYLE
  5
5B57
102
{ACAD_XDICTIONARY
360
5F70
102
}
102
{ACAD_REACTORS
330
5B56
102
}
330
5B56
100
AcDbTableStyle
280
     0
  3
Standard
 70
     0
 71
     0
 40
0.06
 41
0.06
280
     0
281
     0
  7
STANDARD
140
0.18
170
     2
 62
     0
 63
     7
283
     0
 90
      512
 91
        0
  1

274
    -2
284
     1
 64
     0
275
    -2
285
     1
 65
     0
276
    -2
286
     1
 66
     0
277
    -2
287
     1
 67
     0
278
    -2
288
     1
 68
     0
279
    -2
289
     1
 69
     0
  7
STANDARD
140
0.25
170
     5
 62
     0
 63
     7
283
     0
 90
      512
 91
        0
  1

274
    -2
284
     1
 64
     0
275
    -2
285
     1
 65
     0
276
    -2
286
     1
 66
     0
277
    -2
287
     1
 67
     0
278
    -2
288
     1
 68
     0
279
    -2
289
     1
 69
     0
  7
STANDARD
140
0.18
170
     5
 62
     0
 63
     7
283
     0
 90
      512
 91
        0
  1

274
    -2
284
     1
 64
     0
275
    -2
285
     1
 65
     0
276
    -2
286
     1
 66
     0
277
    -2
287
     1
 67
     0
278
    -2
288
     1
 68
     0
279
    -2
289
     1
 69
     0
  0
VISUALSTYLE
  5
5B42
102
{ACAD_REACTORS
330
5B3C
102
}
330
5B3C
100
AcDbVisualStyle
  2

 70
     4
177
     3
291
     0
 70
    58
 90
        0
176
     1
 90
        2
176
     1
 90
        0
176
     1
 90
        0
176
     1
 40
0.6
176
     1
 40
30.0
176
     1
 62
     7
176
     1
 90
        1
176
     1
 90
        4
176
     1
 62
     7
176
     1
 62
   257
176
     1
 90
        1
176
     1
 90
        1
176
     1
 40
1.0
176
     1
 90
        0
176
     1
 62
   257
176
     1
 40
1.0
176
     1
 90
        1
176
     1
 90
        6
176
     1
 90
        2
176
     1
 62
     7
176
     1
 90
        5
176
     1
 90
        0
176
     1
 90
        0
176
     1
290
     0
176
     1
 90
        1
176
     1
 40
0.0
176
     1
 90
        0
176
     1
290
     1
176
     1
290
     1
176
     1
290
     0
176
     1
290
     0
176
     1
290
     0
176
     1
290
     0
176
     1
290
     0
176
     1
290
     0
176
     1
290
     0
176
     1
 90
       50
176
     1
 40
0.0
176
     1
 40
1.0
176
     1
 90
        0
176
     1
 62
    18
420
        0
176
     1
 90
       50
176
     1
 90
        3
176
     1
 62
     5
420
      255
176
     1
290
     0
176
     1
 90
       50
176
     1
 90
       50
176
     1
 90
       50
176
     1
290
     0
176
     1
 90
       50
176
     1
 62
   256
176
     0
 40
1.0
176
     0
 90
        2
176
     1
  1
strokes_ogs.tif
176
     1
290
     0
176
     1
 40
1.0
176
     1
 40
1.0
176
     1
1001
ACAD
1000
AcDbSavedByObjectVersion
1070
     0
  0
VISUALSTYLE
  5
5B41
102
{ACAD_REACTORS
330
5B3C
102
}
330
5B3C
100
AcDbVisualStyle
  2

 70
     7
177
     3
291
     1
 70
    58
 90
        1
176
     1
 90
        0
176
     1
 90
        1
176
     1
 90
        0
176
     1
 40
0.6
176
     1
 40
30.0
176
     1
 62
     7
176
     1
 90
        0
176
     1
 90
        4
176
     1
 62
     7
176
     1
 62
   257
176
     1
 90
        1
176
     1
 90
        1
176
     1
 40
1.0
176
     1
 90
        8
176
     1
 62
     7
176
     1
 40
1.0
176
     1
 90
        1
176
     1
 90
        6
176
     1
 90
        2
176
     1
 62
     7
176
     1
 90
        5
176
     1
 90
        0
176
     1
 90
        0
176
     1
290
     0
176
     1
 90
        1
176
     1
 40
0.0
176
     1
 90
        0
176
     1
290
     0
176
     1
290
     1
176
     1
290
     1
176
     1
290
     0
176
     1
290
     0
176
     1
290
     0
176
     1
290
     0
176
     1
290
     0
176
     1
290
     0
176
     1
 90
       50
176
     1
 40
0.0
176
     1
 40
1.0
176
     1
 90
        0
176
     1
 62
    18
420
        0
176
     1
 90
       50
176
     1
 90
        3
176
     1
 62
     5
420
      255
176
     1
290
     0
176
     1
 90
       50
176
     1
 90
       50
176
     1
 90
       50
176
     1
290
     0
176
     1
 90
       50
176
     1
 62
   256
176
     0
 40
1.0
176
     0
 90
        2
176
     1
  1
strokes_ogs.tif
176
     1
290
     0
176
     1
 40
1.0
176
     1
 40
1.0
176
     1
1001
ACAD
1000
AcDbSavedByObjectVersion
1070
     0
  0
VISUALSTYLE
  5
5B48
102
{ACAD_REACTORS
330
5B3C
102
}
330
5B3C
100
AcDbVisualStyle
  2

 70
    12
177
     3
291
     1
 70
    58
 90
        2
176
     1
 90
        2
176
     1
 90
        0
176
     1
 90
        0
176
     1
 40
0.6
176
     1
 40
30.0
176
     1
 62
     7
176
     1
 90
        1
176
     1
 90
        4
176
     1
 62
     7
176
     1
 62
   257
176
     1
 90
        1
176
     1
 90
        1
176
     1
 40
1.0
176
     1
 90
        8
176
     1
 62
     7
176
     1
 40
1.0
176
     1
 90
        1
176
     1
 90
        6
176
     1
 90
        2
176
     1
 62
     7
176
     1
 90
        5
176
     1
 90
        0
176
     1
 90
        0
176
     1
290
     0
176
     1
 90
        1
176
     1
 40
50.0
176
     1
 90
        0
176
     1
290
     0
176
     1
290
     1
176
     1
290
     1
176
     1
290
     0
176
     1
290
     0
176
     1
290
     0
176
     1
290
     0
176
     1
290
     0
176
     1
290
     0
176
     1
 90
       50
176
     1
 40
0.0
176
     1
 40
1.0
176
     1
 90
        0
176
     1
 62
    18
420
        0
176
     1
 90
       50
176
     1
 90
        3
176
     1
 62
     5
420
      255
176
     1
290
     0
176
     1
 90
       50
176
     1
 90
       50
176
     1
 90
       50
176
     1
290
     0
176
     1
 90
       50
176
     1
 62
   256
176
     0
 40
1.0
176
     0
 90
        2
176
     1
  1
strokes_ogs.tif
176
     1
290
     0
176
     1
 40
1.0
176
     1
 40
1.0
176
     1
1001
ACAD
1000
AcDbSavedByObjectVersion
1070
     0
  0
VISUALSTYLE
  5
5B4C
102
{ACAD_REACTORS
330
5B3C
102
}
330
5B3C
100
AcDbVisualStyle
  2

 70
    16
177
     3
291
     1
 70
    58
 90
        2
176
     1
 90
        2
176
     1
 90
        3
176
     1
 90
        0
176
     1
 40
0.6
176
     1
 40
30.0
176
     1
 62
     8
176
     1
 90
        1
176
     1
 90
        4
176
     1
 62
     7
176
     1
 62
   257
176
     1
 90
        1
176
     1
 90
        1
176
     1
 40
1.0
176
     1
 90
        8
176
     1
 62
     8
176
     1
 40
1.0
176
     1
 90
        1
176
     1
 90
        6
176
     1
 90
        2
176
     1
 62
     7
176
     1
 90
        5
176
     1
 90
        0
176
     1
 90
        0
176
     1
290
     0
176
     1
 90
        1
176
     1
 40
0.0
176
     1
 90
        0
176
     1
290
     0
176
     1
290
     1
176
     1
290
     1
176
     1
290
     0
176
     1
290
     0
176
     1
290
     0
176
     1
290
     0
176
     1
290
     0
176
     1
290
     0
176
     1
 90
       50
176
     1
 40
0.0
176
     1
 40
1.0
176
     1
 90
        0
176
     1
 62
    18
420
        0
176
     1
 90
       50
176
     1
 90
        3
176
     1
 62
     5
420
      255
176
     1
290
     0
176
     1
 90
       50
176
     1
 90
       50
176
     1
 90
       50
176
     1
290
     0
176
     1
 90
       50
176
     1
 62
   256
176
     0
 40
1.0
176
     0
 90
        2
176
     1
  1
strokes_ogs.tif
176
     1
290
     0
176
     1
 40
1.0
176
     1
 40
1.0
176
     1
1001
ACAD
1000
AcDbSavedByObjectVersion
1070
     0
  0
VISUALSTYLE
  5
5B45
102
{ACAD_REACTORS
330
5B3C
102
}
330
5B3C
100
AcDbVisualStyle
  2

 70
     9
177
     3
291
     0
 70
    58
 90
        3
176
     1
 90
        2
176
     1
 90
        0
176
     1
 90
        0
176
     1
 40
0.6
176
     1
 40
30.0
176
     1
 62
     7
176
     1
 90
        2
176
     1
 90
        2
176
     1
 62
     7
176
     1
 62
   257
176
     1
 90
        1
176
     1
 90
        1
176
     1
 40
179.0
176
     1
 90
        8
176
     1
 62
     7
176
     1
 40
1.0
176
     1
 90
        1
176
     1
 90
        6
176
     1
 90
        2
176
     1
 62
     7
176
     1
 90
        3
176
     1
 90
        0
176
     1
 90
        0
176
     1
290
     0
176
     1
 90
        1
176
     1
 40
0.0
176
     1
 90
        0
176
     1
290
     0
176
     1
290
     1
176
     1
290
     1
176
     1
290
     0
176
     1
290
     0
176
     1
290
     0
176
     1
290
     0
176
     1
290
     0
176
     1
290
     0
176
     1
 90
       50
176
     1
 40
0.0
176
     1
 40
1.0
176
     1
 90
        0
176
     1
 62
    18
420
        0
176
     1
 90
       50
176
     1
 90
        3
176
     1
 62
     5
420
      255
176
     1
290
     0
176
     1
 90
       50
176
     1
 90
       50
176
     1
 90
       50
176
     1
290
     0
176
     1
 90
       50
176
     1
 62
   256
176
     0
 40
1.0
176
     0
 90
        2
176
     1
  1
strokes_ogs.tif
176
     1
290
     0
176
     1
 40
1.0
176
     1
 40
1.0
176
     1
1001
ACAD
1000
AcDbSavedByObjectVersion
1070
     0
  0
VISUALSTYLE
  5
5B47
102
{ACAD_REACTORS
330
5B3C
102
}
330
5B3C
100
AcDbVisualStyle
  2

 70
    11
177
     3
291
     1
 70
    58
 90
        2
176
     1
 90
        2
176
     1
 90
        0
176
     1
 90
        0
176
     1
 40
0.6
176
     1
 40
30.0
176
     1
 62
     7
176
     1
 90
        1
176
     1
 90
        4
176
     1
 62
     7
176
     1
 62
   257
176
     1
 90
        1
176
     1
 90
        1
176
     1
 40
1.0
176
     1
 90
        8
176
     1
 62
     7
176
     1
 40
1.0
176
     1
 90
        1
176
     1
 90
        6
176
     1
 90
        2
176
     1
 62
     7
176
     1
 90
        5
176
     1
 90
        0
176
     1
 90
        0
176
     1
290
     0
176
     1
 90
        1
176
     1
 40
-50.0
176
     1
 90
        0
176
     1
290
     0
176
     1
290
     1
176
     1
290
     1
176
     1
290
     0
176
     1
290
     0
176
     1
290
     0
176
     1
290
     0
176
     1
290
     0
176
     1
290
     0
176
     1
 90
       50
176
     1
 40
0.0
176
     1
 40
1.0
176
     1
 90
        0
176
     1
 62
    18
420
        0
176
     1
 90
       50
176
     1
 90
        3
176
     1
 62
     5
420
      255
176
     1
290
     0
176
     1
 90
       50
176
     1
 90
       50
176
     1
 90
       50
176
     1
290
     0
176
     1
 90
       50
176
     1
 62
   256
176
     0
 40
1.0
176
     0
 90
        2
176
     1
  1
strokes_ogs.tif
176
     1
290
     0
176
     1
 40
1.0
176
     1
 40
1.0
176
     1
1001
ACAD
1000
AcDbSavedByObjectVersion
1070
     0
  0
VISUALSTYLE
  5
5B54
102
{ACAD_REACTORS
330
5B3C
102
}
330
5B3C
100
AcDbVisualStyle
  2

 70
    22
177
     3
291
     1
 70
    58
 90
        2
176
     0
 90
        2
176
     0
 90
        0
176
     0
 90
        0
176
     0
 40
0.6
176
     0
 40
30.0
176
     0
 62
     7
176
     0
 90
        1
176
     0
 90
        4
176
     0
 62
     7
176
     0
 62
   257
176
     0
 90
        1
176
     0
 90
        1
176
     0
 40
1.0
176
     0
 90
        8
176
     2
 62
     7
176
     0
 40
1.0
176
     0
 90
        1
176
     0
 90
        6
176
     0
 90
        2
176
     0
 62
     7
176
     0
 90
        5
176
     0
 90
        0
176
     0
 90
        0
176
     0
290
     0
176
     0
 90
        1
176
     0
 40
0.0
176
     0
 90
        0
176
     0
290
     0
176
     1
290
     1
176
     1
290
     1
176
     1
290
     0
176
     1
290
     0
176
     1
290
     0
176
     1
290
     0
176
     1
290
     0
176
     1
290
     0
176
     1
 90
       50
176
     0
 40
0.0
176
     0
 40
1.0
176
     0
 90
        0
176
     0
 62
    18
420
        0
176
     0
 90
       50
176
     0
 90
        3
176
     0
 62
     5
420
      255
176
     0
290
     0
176
     1
 90
       50
176
     0
 90
       50
176
     0
 90
       50
176
     0
290
     0
176
     1
 90
       50
176
     0
 62
   256
176
     0
 40
1.0
176
     0
 90
        2
176
     0
  1
strokes_ogs.tif
176
     0
290
     0
176
     1
 40
1.0
176
     0
 40
1.0
176
     0
1001
ACAD
1000
AcDbSavedByObjectVersion
1070
     0
  0
VISUALSTYLE
  5
5B4B
102
{ACAD_REACTORS
330
5B3C
102
}
330
5B3C
100
AcDbVisualStyle
  2

 70
    15
177
     3
291
     1
 70
    58
 90
        2
176
     1
 90
        2
176
     1
 90
        0
176
     1
 90
        0
176
     1
 40
0.6
176
     1
 40
30.0
176
     1
 62
     7
176
     1
 90
        1
176
     1
 90
        4
176
     1
 62
     7
176
     1
 62
   257
176
     1
 90
        1
176
     1
 90
        1
176
     1
 40
1.0
176
     1
 90
        8
176
     1
 62
     7
176
     1
 40
1.0
176
     1
 90
        1
176
     1
 90
        6
176
     1
 90
        2
176
     1
 62
     7
176
     1
 90
        5
176
     1
 90
        0
176
     1
 90
        0
176
     1
290
     0
176
     1
 90
        1
176
     1
 40
0.0
176
     1
 90
        0
176
     1
290
     0
176
     1
290
     1
176
     1
290
     1
176
     1
290
     0
176
     1
290
     0
176
     1
290
     0
176
     1
290
     0
176
     1
290
     0
176
     1
290
     0
176
     1
 90
       50
176
     1
 40
0.0
176
     1
 40
1.0
176
     1
 90
        0
176
     1
 62
    18
420
        0
176
     1
 90
       50
176
     1
 90
        3
176
     1
 62
     5
420
      255
176
     1
290
     0
176
     1
 90
       50
176
     1
 90
       50
176
     1
 90
       50
176
     1
290
     0
176
     1
 90
       50
176
     1
 62
   256
176
     0
 40
1.0
176
     0
 90
        2
176
     1
  1
strokes_ogs.tif
176
     1
290
     0
176
     1
 40
1.0
176
     1
 40
1.0
176
     1
1001
ACAD
1000
AcDbSavedByObjectVersion
1070
     0
  0
VISUALSTYLE
  5
5B3D
102
{ACAD_REACTORS
330
5B3C
102
}
330
5B3C
100
AcDbVisualStyle
  2

 70
     0
177
     3
291
     1
 70
    58
 90
        2
176
     1
 90
        1
176
     1
 90
        1
176
     1
 90
        2
176
     1
 40
0.6
176
     1
 40
30.0
176
     1
 62
     7
176
     1
 90
        0
176
     1
 90
        0
176
     1
 62
     7
176
     1
 62
   257
176
     1
 90
        1
176
     1
 90
        1
176
     1
 40
1.0
176
     1
 90
        8
176
     1
 62
     7
176
     1
 40
1.0
176
     1
 90
        1
176
     1
 90
        6
176
     1
 90
        2
176
     1
 62
     7
176
     1
 90
        5
176
     1
 90
        0
176
     1
 90
        0
176
     1
290
     0
176
     1
 90
       13
176
     1
 40
0.0
176
     1
 90
        0
176
     1
290
     0
176
     1
290
     1
176
     1
290
     1
176
     1
290
     0
176
     1
290
     0
176
     1
290
     0
176
     1
290
     0
176
     1
290
     0
176
     1
290
     0
176
     1
 90
       50
176
     1
 40
0.0
176
     1
 40
1.0
176
     1
 90
        0
176
     1
 62
    18
420
        0
176
     1
 90
       50
176
     1
 90
        3
176
     1
 62
     5
420
      255
176
     1
290
     0
176
     1
 90
       50
176
     1
 90
       50
176
     1
 90
       50
176
     1
290
     0
176
     1
 90
       50
176
     1
 62
   256
176
     0
 40
1.0
176
     0
 90
        2
176
     1
  1
strokes_ogs.tif
176
     1
290
     0
176
     1
 40
1.0
176
     1
 40
1.0
176
     1
1001
ACAD
1000
AcDbSavedByObjectVersion
1070
     0
  0
VISUALSTYLE
  5
5B3E
102
{ACAD_REACTORS
330
5B3C
102
}
330
5B3C
100
AcDbVisualStyle
  2

 70
     1
177
     3
291
     1
 70
    58
 90
        2
176
     1
 90
        1
176
     1
 90
        1
176
     1
 90
        2
176
     1
 40
0.6
176
     1
 40
30.0
176
     1
 62
     7
176
     1
 90
        1
176
     1
 90
        0
176
     1
 62
     7
176
     1
 62
   257
176
     1
 90
        1
176
     1
 90
        1
176
     1
 40
1.0
176
     1
 90
        0
176
     1
 62
   257
176
     1
 40
1.0
176
     1
 90
        1
176
     1
 90
        6
176
     1
 90
        2
176
     1
 62
     7
176
     1
 90
        5
176
     1
 90
        0
176
     1
 90
        0
176
     1
290
     0
176
     1
 90
       13
176
     1
 40
0.0
176
     1
 90
        0
176
     1
290
     0
176
     1
290
     1
176
     1
290
     1
176
     1
290
     0
176
     1
290
     0
176
     1
290
     0
176
     1
290
     0
176
     1
290
     0
176
     1
290
     0
176
     1
 90
       50
176
     1
 40
0.0
176
     1
 40
1.0
176
     1
 90
        0
176
     1
 62
    18
420
        0
176
     1
 90
       50
176
     1
 90
        3
176
     1
 62
     5
420
      255
176
     1
290
     0
176
     1
 90
       50
176
     1
 90
       50
176
     1
 90
       50
176
     1
290
     0
176
     1
 90
       50
176
     1
 62
   256
176
     0
 40
1.0
176
     0
 90
        2
176
     1
  1
strokes_ogs.tif
176
     1
290
     0
176
     1
 40
1.0
176
     1
 40
1.0
176
     1
1001
ACAD
1000
AcDbSavedByObjectVersion
1070
     0
  0
VISUALSTYLE
  5
5B3F
102
{ACAD_REACTORS
330
5B3C
102
}
330
5B3C
100
AcDbVisualStyle
  2

 70
     2
177
     3
291
     1
 70
    58
 90
        2
176
     1
 90
        2
176
     1
 90
        1
176
     1
 90
        2
176
     1
 40
0.6
176
     1
 40
30.0
176
     1
 62
     7
176
     1
 90
        0
176
     1
 90
        0
176
     1
 62
     7
176
     1
 62
   257
176
     1
 90
        1
176
     1
 90
        1
176
     1
 40
1.0
176
     1
 90
        0
176
     1
 62
     7
176
     1
 40
1.0
176
     1
 90
        1
176
     1
 90
        6
176
     1
 90
        2
176
     1
 62
     7
176
     1
 90
        5
176
     1
 90
        0
176
     1
 90
        0
176
     1
290
     0
176
     1
 90
       13
176
     1
 40
0.0
176
     1
 90
        0
176
     1
290
     0
176
     1
290
     1
176
     1
290
     1
176
     1
290
     0
176
     1
290
     0
176
     1
290
     0
176
     1
290
     0
176
     1
290
     0
176
     1
290
     0
176
     1
 90
       50
176
     1
 40
0.0
176
     1
 40
1.0
176
     1
 90
        0
176
     1
 62
    18
420
        0
176
     1
 90
       50
176
     1
 90
        3
176
     1
 62
     5
420
      255
176
     1
290
     0
176
     1
 90
       50
176
     1
 90
       50
176
     1
 90
       50
176
     1
290
     0
176
     1
 90
       50
176
     1
 62
   256
176
     0
 40
1.0
176
     0
 90
        2
176
     1
  1
strokes_ogs.tif
176
     1
290
     0
176
     1
 40
1.0
176
     1
 40
1.0
176
     1
1001
ACAD
1000
AcDbSavedByObjectVersion
1070
     0
  0
VISUALSTYLE
  5
5B40
102
{ACAD_REACTORS
330
5B3C
102
}
330
5B3C
100
AcDbVisualStyle
  2

 70
     3
177
     3
291
     1
 70
    58
 90
        2
176
     1
 90
        2
176
     1
 90
        1
176
     1
 90
        2
176
     1
 40
0.6
176
     1
 40
30.0
176
     1
 62
     7
176
     1
 90
        1
176
     1
 90
        0
176
     1
 62
     7
176
     1
 62
   257
176
     1
 90
        1
176
     1
 90
        1
176
     1
 40
1.0
176
     1
 90
        0
176
     1
 62
   257
176
     1
 40
1.0
176
     1
 90
        1
176
     1
 90
        6
176
     1
 90
        2
176
     1
 62
     7
176
     1
 90
        5
176
     1
 90
        0
176
     1
 90
        0
176
     1
290
     0
176
     1
 90
       13
176
     1
 40
0.0
176
     1
 90
        0
176
     1
290
     0
176
     1
290
     1
176
     1
290
     1
176
     1
290
     0
176
     1
290
     0
176
     1
290
     0
176
     1
290
     0
176
     1
290
     0
176
     1
290
     0
176
     1
 90
       50
176
     1
 40
0.0
176
     1
 40
1.0
176
     1
 90
        0
176
     1
 62
    18
420
        0
176
     1
 90
       50
176
     1
 90
        3
176
     1
 62
     5
420
      255
176
     1
290
     0
176
     1
 90
       50
176
     1
 90
       50
176
     1
 90
       50
176
     1
290
     0
176
     1
 90
       50
176
     1
 62
   256
176
     0
 40
1.0
176
     0
 90
        2
176
     1
  1
strokes_ogs.tif
176
     1
290
     0
176
     1
 40
1.0
176
     1
 40
1.0
176
     1
1001
ACAD
1000
AcDbSavedByObjectVersion
1070
     0
  0
VISUALSTYLE
  5
5B44
102
{ACAD_REACTORS
330
5B3C
102
}
330
5B3C
100
AcDbVisualStyle
  2

 70
     6
177
     3
291
     0
 70
    58
 90
        1
176
     1
 90
        2
176
     1
 90
        2
176
     1
 90
        0
176
     1
 40
0.6
176
     1
 40
30.0
176
     1
 62
     7
176
     1
 90
        2
176
     1
 90
        2
176
     1
 62
     7
176
     1
 62
   257
176
     1
 90
        2
176
     1
 90
        1
176
     1
 40
40.0
176
     1
 90
        0
176
     1
 62
   257
176
     1
 40
1.0
176
     1
 90
        1
176
     1
 90
        6
176
     1
 90
        2
176
     1
 62
     7
176
     1
 90
        3
176
     1
 90
        0
176
     1
 90
        0
176
     1
290
     0
176
     1
 90
        1
176
     1
 40
0.0
176
     1
 90
        0
176
     1
290
     0
176
     1
290
     1
176
     1
290
     1
176
     1
290
     0
176
     1
290
     0
176
     1
290
     0
176
     1
290
     0
176
     1
290
     0
176
     1
290
     0
176
     1
 90
       50
176
     1
 40
0.0
176
     1
 40
1.0
176
     1
 90
        0
176
     1
 62
    18
420
        0
176
     1
 90
       50
176
     1
 90
        3
176
     1
 62
     5
420
      255
176
     1
290
     0
176
     1
 90
       50
176
     1
 90
       50
176
     1
 90
       50
176
     1
290
     0
176
     1
 90
       50
176
     1
 62
   256
176
     0
 40
1.0
176
     0
 90
        2
176
     1
  1
strokes_ogs.tif
176
     1
290
     0
176
     1
 40
1.0
176
     1
 40
1.0
176
     1
1001
ACAD
1000
AcDbSavedByObjectVersion
1070
     0
  0
VISUALSTYLE
  5
5B52
102
{ACAD_REACTORS
330
5B3C
102
}
330
5B3C
100
AcDbVisualStyle
  2

 70
    20
177
     3
291
     1
 70
    58
 90
        2
176
     0
 90
        2
176
     0
 90
        0
176
     0
 90
        0
176
     0
 40
0.6
176
     0
 40
30.0
176
     0
 62
     7
176
     0
 90
        1
176
     0
 90
        4
176
     0
 62
     7
176
     0
 62
   257
176
     0
 90
        1
176
     0
 90
        1
176
     0
 40
1.0
176
     0
 90
       10
176
     2
 62
     7
176
     0
 40
1.0
176
     0
 90
        1
176
     0
 90
        6
176
     0
 90
        2
176
     0
 62
     7
176
     0
 90
        5
176
     0
 90
        0
176
     0
 90
        0
176
     0
290
     0
176
     0
 90
        1
176
     0
 40
0.0
176
     0
 90
        0
176
     0
290
     0
176
     1
290
     1
176
     1
290
     1
176
     1
290
     0
176
     1
290
     0
176
     1
290
     0
176
     1
290
     0
176
     1
290
     0
176
     1
290
     0
176
     1
 90
       50
176
     0
 40
0.0
176
     0
 40
1.0
176
     0
 90
        0
176
     0
 62
    18
420
        0
176
     0
 90
       50
176
     0
 90
        3
176
     0
 62
     5
420
      255
176
     0
290
     0
176
     1
 90
       50
176
     0
 90
       50
176
     0
 90
       50
176
     0
290
     0
176
     1
 90
       50
176
     0
 62
   256
176
     0
 40
1.0
176
     0
 90
        2
176
     0
  1
strokes_ogs.tif
176
     0
290
     0
176
     1
 40
1.0
176
     0
 40
1.0
176
     0
1001
ACAD
1000
AcDbSavedByObjectVersion
1070
     0
  0
VISUALSTYLE
  5
5B4A
102
{ACAD_REACTORS
330
5B3C
102
}
330
5B3C
100
AcDbVisualStyle
  2

 70
    14
177
     3
291
     1
 70
    58
 90
        2
176
     1
 90
        2
176
     1
 90
        0
176
     1
 90
        0
176
     1
 40
0.6
176
     1
 40
30.0
176
     1
 62
     7
176
     1
 90
        1
176
     1
 90
        4
176
     1
 62
     7
176
     1
 62
   257
176
     1
 90
        7
176
     1
 90
        7
176
     1
 40
1.0
176
     1
 90
        8
176
     1
 62
     7
176
     1
 40
1.0
176
     1
 90
        1
176
     1
 90
        6
176
     1
 90
        2
176
     1
 62
     7
176
     1
 90
        5
176
     1
 90
        0
176
     1
 90
        0
176
     1
290
     0
176
     1
 90
        1
176
     1
 40
0.0
176
     1
 90
        0
176
     1
290
     0
176
     1
290
     1
176
     1
290
     1
176
     1
290
     0
176
     1
290
     0
176
     1
290
     0
176
     1
290
     0
176
     1
290
     0
176
     1
290
     0
176
     1
 90
       50
176
     1
 40
0.0
176
     1
 40
1.0
176
     1
 90
        0
176
     1
 62
    18
420
        0
176
     1
 90
       50
176
     1
 90
        3
176
     1
 62
     5
420
      255
176
     1
290
     0
176
     1
 90
       50
176
     1
 90
       50
176
     1
 90
       50
176
     1
290
     0
176
     1
 90
       50
176
     1
 62
   256
176
     0
 40
1.0
176
     0
 90
        2
176
     1
  1
strokes_ogs.tif
176
     1
290
     0
176
     1
 40
1.0
176
     1
 40
1.0
176
     1
1001
ACAD
1000
AcDbSavedByObjectVersion
1070
     0
  0
VISUALSTYLE
  5
5B53
102
{ACAD_REACTORS
330
5B3C
102
}
330
5B3C
100
AcDbVisualStyle
  2

 70
    21
177
     3
291
     1
 70
    58
 90
        2
176
     0
 90
        2
176
     0
 90
        0
176
     0
 90
        0
176
     0
 40
0.6
176
     0
 40
30.0
176
     0
 62
     7
176
     0
 90
        1
176
     0
 90
        4
176
     0
 62
     7
176
     0
 62
   257
176
     0
 90
        1
176
     0
 90
        1
176
     0
 40
1.0
176
     0
 90
        9
176
     2
 62
     7
176
     0
 40
1.0
176
     0
 90
        1
176
     0
 90
        6
176
     0
 90
        2
176
     0
 62
     7
176
     0
 90
        5
176
     0
 90
        0
176
     0
 90
        0
176
     0
290
     0
176
     0
 90
        1
176
     0
 40
0.0
176
     0
 90
        0
176
     0
290
     0
176
     1
290
     1
176
     1
290
     1
176
     1
290
     0
176
     1
290
     0
176
     1
290
     0
176
     1
290
     0
176
     1
290
     0
176
     1
290
     0
176
     1
 90
       50
176
     0
 40
0.0
176
     0
 40
1.0
176
     0
 90
        0
176
     0
 62
    18
420
        0
176
     0
 90
       50
176
     0
 90
        3
176
     0
 62
     5
420
      255
176
     0
290
     0
176
     1
 90
       50
176
     0
 90
       50
176
     0
 90
       50
176
     0
290
     0
176
     1
 90
       50
176
     0
 62
   256
176
     0
 40
1.0
176
     0
 90
        2
176
     0
  1
strokes_ogs.tif
176
     0
290
     0
176
     1
 40
1.0
176
     0
 40
1.0
176
     0
1001
ACAD
1000
AcDbSavedByObjectVersion
1070
     0
  0
VISUALSTYLE
  5
5B46
102
{ACAD_REACTORS
330
5B3C
102
}
330
5B3C
100
AcDbVisualStyle
  2

 70
     8
177
     3
291
     0
 70
    58
 90
        2
176
     1
 90
        3
176
     1
 90
        0
176
     1
 90
        2
176
     1
 40
0.6
176
     1
 40
30.0
176
     1
 62
     7
176
     1
 90
        0
176
     1
 90
        0
176
     1
 62
     7
176
     1
 62
   257
176
     1
 90
        1
176
     1
 90
        1
176
     1
 40
1.0
176
     1
 90
        8
176
     1
 62
   257
176
     1
 40
1.0
176
     1
 90
        1
176
     1
 90
        6
176
     1
 90
        2
176
     1
 62
     7
176
     1
 90
        3
176
     1
 90
        0
176
     1
 90
        0
176
     1
290
     0
176
     1
 90
       13
176
     1
 40
0.0
176
     1
 90
        0
176
     1
290
     0
176
     1
290
     1
176
     1
290
     1
176
     1
290
     0
176
     1
290
     0
176
     1
290
     0
176
     1
290
     0
176
     1
290
     0
176
     1
290
     0
176
     1
 90
       50
176
     1
 40
0.0
176
     1
 40
1.0
176
     1
 90
        0
176
     1
 62
    18
420
        0
176
     1
 90
       50
176
     1
 90
        3
176
     1
 62
     5
420
      255
176
     1
290
     0
176
     1
 90
       50
176
     1
 90
       50
176
     1
 90
       50
176
     1
290
     0
176
     1
 90
       50
176
     1
 62
   256
176
     0
 40
1.0
176
     0
 90
        2
176
     1
  1
strokes_ogs.tif
176
     1
290
     0
176
     1
 40
1.0
176
     1
 40
1.0
176
     1
1001
ACAD
1000
AcDbSavedByObjectVersion
1070
     0
  0
VISUALSTYLE
  5
5B51
102
{ACAD_REACTORS
330
5B3C
102
}
330
5B3C
100
AcDbVisualStyle
  2

 70
    27
177
     3
291
     0
 70
    58
 90
        2
176
     1
 90
        2
176
     1
 90
        1
176
     1
 90
        2
176
     1
 40
0.6
176
     1
 40
30.0
176
     1
 62
     7
176
     1
 90
        0
176
     1
 90
        4
176
     1
 62
     7
176
     1
 62
   257
176
     1
 90
        1
176
     1
 90
        1
176
     1
 40
1.0
176
     1
 90
        8
176
     1
 62
   257
176
     1
 40
1.0
176
     1
 90
        1
176
     1
 90
        6
176
     1
 90
        2
176
     1
 62
     8
176
     1
 90
        3
176
     1
 90
        0
176
     1
 90
        0
176
     1
290
     0
176
     1
 90
        5
176
     1
 40
0.0
176
     1
 90
        0
176
     1
290
     0
176
     1
290
     1
176
     1
290
     1
176
     1
290
     0
176
     1
290
     0
176
     1
290
     0
176
     1
290
     0
176
     1
290
     0
176
     1
290
     0
176
     1
 90
       50
176
     1
 40
0.0
176
     1
 40
1.0
176
     1
 90
        0
176
     1
 62
    18
420
        0
176
     1
 90
       50
176
     1
 90
        3
176
     1
 62
     5
420
      255
176
     1
290
     0
176
     1
 90
       50
176
     1
 90
       50
176
     1
 90
       50
176
     1
290
     0
176
     1
 90
       50
176
     1
 62
   256
176
     0
 40
1.0
176
     0
 90
        2
176
     1
  1
strokes_ogs.tif
176
     1
290
     0
176
     1
 40
1.0
176
     1
 40
1.0
176
     1
1001
ACAD
1000
AcDbSavedByObjectVersion
1070
     0
  0
VISUALSTYLE
  5
5B50
102
{ACAD_REACTORS
330
5B3C
102
}
330
5B3C
100
AcDbVisualStyle
  2

 70
    26
177
     3
291
     0
 70
    58
 90
        2
176
     1
 90
        2
176
     1
 90
        1
176
     1
 90
        2
176
     1
 40
0.6
176
     1
 40
30.0
176
     1
 62
     7
176
     1
 90
        1
176
     1
 90
       10
176
     1
 62
     7
176
     1
 62
   257
176
     1
 90
        2
176
     1
 90
        1
176
     1
 40
1.0
176
     1
 90
        8
176
     1
 62
   257
176
     1
 40
1.0
176
     1
 90
        1
176
     1
 90
        6
176
     1
 90
        2
176
     1
 62
     7
176
     1
 90
        3
176
     1
 90
        0
176
     1
 90
        0
176
     1
290
     0
176
     1
 90
        5
176
     1
 40
0.0
176
     1
 90
        0
176
     1
290
     0
176
     1
290
     1
176
     1
290
     1
176
     1
290
     0
176
     1
290
     0
176
     1
290
     0
176
     1
290
     0
176
     1
290
     0
176
     1
290
     0
176
     1
 90
       50
176
     1
 40
0.0
176
     1
 40
1.0
176
     1
 90
        0
176
     1
 62
    18
420
        0
176
     1
 90
       50
176
     1
 90
        3
176
     1
 62
     5
420
      255
176
     1
290
     0
176
     1
 90
       50
176
     1
 90
       50
176
     1
 90
       50
176
     1
290
     0
176
     1
 90
       50
176
     1
 62
   256
176
     0
 40
1.0
176
     0
 90
        2
176
     1
  1
strokes_ogs.tif
176
     1
290
     0
176
     1
 40
1.0
176
     1
 40
1.0
176
     1
1001
ACAD
1000
AcDbSavedByObjectVersion
1070
     0
  0
VISUALSTYLE
  5
5B4D
102
{ACAD_REACTORS
330
5B3C
102
}
330
5B3C
100
AcDbVisualStyle
  2

 70
    23
177
     3
291
     0
 70
    58
 90
        2
176
     1
 90
        2
176
     1
 90
        3
176
     1
 90
        0
176
     1
 40
0.6
176
     1
 40
30.0
176
     1
 62
     7
176
     1
 90
        2
176
     1
 90
        2
176
     1
 62
     7
176
     1
 62
     7
176
     1
 90
        1
176
     1
 90
        1
176
     1
 40
40.0
176
     1
 90
        8
176
     1
 62
     7
176
     1
 40
1.0
176
     1
 90
        1
176
     1
 90
        6
176
     1
 90
        2
176
     1
 62
     7
176
     1
 90
        3
176
     1
 90
        0
176
     1
 90
        0
176
     1
290
     0
176
     1
 90
        1
176
     1
 40
0.0
176
     1
 90
        0
176
     1
290
     0
176
     1
290
     1
176
     1
290
     1
176
     1
290
     0
176
     1
290
     0
176
     1
290
     0
176
     1
290
     0
176
     1
290
     0
176
     1
290
     0
176
     1
 90
       50
176
     1
 40
0.0
176
     1
 40
1.0
176
     1
 90
        0
176
     1
 62
    18
420
        0
176
     1
 90
       50
176
     1
 90
        3
176
     1
 62
     5
420
      255
176
     1
290
     0
176
     1
 90
       50
176
     1
 90
       50
176
     1
 90
       50
176
     1
290
     0
176
     1
 90
       50
176
     1
 62
   256
176
     0
 40
1.0
176
     0
 90
        2
176
     1
  1
strokes_ogs.tif
176
     1
290
     0
176
     1
 40
1.0
176
     1
 40
1.0
176
     1
1001
ACAD
1000
AcDbSavedByObjectVersion
1070
     0
  0
VISUALSTYLE
  5
5B4E
102
{ACAD_REACTORS
330
5B3C
102
}
330
5B3C
100
AcDbVisualStyle
  2

 70
    24
177
     3
291
     0
 70
    58
 90
        1
176
     1
 90
        2
176
     1
 90
        2
176
     1
 90
        0
176
     1
 40
0.6
176
     1
 40
30.0
176
     1
 62
     7
176
     1
 90
        2
176
     1
 90
        2
176
     1
 62
     7
176
     1
 62
     7
176
     1
 90
        1
176
     1
 90
        1
176
     1
 40
40.0
176
     1
 90
       11
176
     1
 62
     7
176
     1
 40
1.0
176
     1
 90
        1
176
     1
 90
        6
176
     1
 90
        2
176
     1
 62
     7
176
     1
 90
        6
176
     1
 90
        0
176
     1
 90
        0
176
     1
290
     0
176
     1
 90
        1
176
     1
 40
0.0
176
     1
 90
        0
176
     1
290
     0
176
     1
290
     1
176
     1
290
     1
176
     1
290
     0
176
     1
290
     0
176
     1
290
     0
176
     1
290
     0
176
     1
290
     0
176
     1
290
     0
176
     1
 90
       50
176
     1
 40
0.0
176
     1
 40
1.0
176
     1
 90
        0
176
     1
 62
    18
420
        0
176
     1
 90
       50
176
     1
 90
        3
176
     1
 62
     5
420
      255
176
     1
290
     0
176
     1
 90
       50
176
     1
 90
       50
176
     1
 90
       50
176
     1
290
     0
176
     1
 90
       50
176
     1
 62
   256
176
     0
 40
1.0
176
     0
 90
        2
176
     1
  1
strokes_ogs.tif
176
     1
290
     0
176
     1
 40
1.0
176
     1
 40
1.0
176
     1
1001
ACAD
1000
AcDbSavedByObjectVersion
1070
     0
  0
VISUALSTYLE
  5
5B49
102
{ACAD_REACTORS
330
5B3C
102
}
330
5B3C
100
AcDbVisualStyle
  2

 70
    13
177
     3
291
     1
 70
    58
 90
        2
176
     1
 90
        2
176
     1
 90
        0
176
     1
 90
        0
176
     1
 40
0.6
176
     1
 40
30.0
176
     1
 62
     7
176
     1
 90
        1
176
     1
 90
        4
176
     1
 62
     7
176
     1
 62
   257
176
     1
 90
        1
176
     1
 90
        1
176
     1
 40
1.0
176
     1
 90
       12
176
     1
 62
     7
176
     1
 40
1.0
176
     1
 90
        1
176
     1
 90
        6
176
     1
 90
        2
176
     1
 62
     7
176
     1
 90
        5
176
     1
 90
        0
176
     1
 90
        0
176
     1
290
     0
176
     1
 90
        1
176
     1
 40
0.0
176
     1
 90
        0
176
     1
290
     0
176
     1
290
     1
176
     1
290
     1
176
     1
290
     0
176
     1
290
     0
176
     1
290
     0
176
     1
290
     0
176
     1
290
     0
176
     1
290
     0
176
     1
 90
       50
176
     1
 40
0.0
176
     1
 40
1.0
176
     1
 90
        0
176
     1
 62
    18
420
        0
176
     1
 90
       50
176
     1
 90
        3
176
     1
 62
     5
420
      255
176
     1
290
     0
176
     1
 90
       50
176
     1
 90
       50
176
     1
 90
       50
176
     1
290
     0
176
     1
 90
       50
176
     1
 62
   256
176
     0
 40
1.0
176
     0
 90
        2
176
     1
  1
strokes_ogs.tif
176
     1
290
     0
176
     1
 40
1.0
176
     1
 40
1.0
176
     1
1001
ACAD
1000
AcDbSavedByObjectVersion
1070
     0
  0
VISUALSTYLE
  5
5B43
102
{ACAD_REACTORS
330
5B3C
102
}
330
5B3C
100
AcDbVisualStyle
  2

 70
     5
177
     3
291
     0
 70
    58
 90
        0
176
     1
 90
        2
176
     1
 90
        0
176
     1
 90
        0
176
     1
 40
0.6
176
     1
 40
30.0
176
     1
 62
     7
176
     1
 90
        1
176
     1
 90
        4
176
     1
 62
     7
176
     1
 62
   257
176
     1
 90
        1
176
     1
 90
        1
176
     1
 40
1.0
176
     1
 90
        0
176
     1
 62
   257
176
     1
 40
1.0
176
     1
 90
        1
176
     1
 90
        6
176
     1
 90
        2
176
     1
 62
     7
176
     1
 90
        3
176
     1
 90
        0
176
     1
 90
        0
176
     1
290
     0
176
     1
 90
        1
176
     1
 40
0.0
176
     1
 90
        0
176
     1
290
     0
176
     1
290
     1
176
     1
290
     1
176
     1
290
     0
176
     1
290
     0
176
     1
290
     0
176
     1
290
     0
176
     1
290
     0
176
     1
290
     0
176
     1
 90
       50
176
     1
 40
0.0
176
     1
 40
1.0
176
     1
 90
        0
176
     1
 62
    18
420
        0
176
     1
 90
       50
176
     1
 90
        3
176
     1
 62
     5
420
      255
176
     1
290
     0
176
     1
 90
       50
176
     1
 90
       50
176
     1
 90
       50
176
     1
290
     0
176
     1
 90
       50
176
     1
 62
   256
176
     0
 40
1.0
176
     0
 90
        2
176
     1
  1
strokes_ogs.tif
176
     1
290
     0
176
     1
 40
1.0
176
     1
 40
1.0
176
     1
1001
ACAD
1000
AcDbSavedByObjectVersion
1070
     0
  0
VISUALSTYLE
  5
5B4F
102
{ACAD_REACTORS
330
5B3C
102
}
330
5B3C
100
AcDbVisualStyle
  2

 70
    25
177
     3
291
     0
 70
    58
 90
        2
176
     1
 90
        2
176
     1
 90
        1
176
     1
 90
        1
176
     1
 40
0.5
176
     1
 40
30.0
176
     1
 62
     7
176
     1
 90
        1
176
     1
 90
        0
176
     1
 62
     7
176
     1
 62
   257
176
     1
 90
        1
176
     1
 90
        1
176
     1
 40
1.0
176
     1
 90
        8
176
     1
 62
     7
176
     1
 40
1.0
176
     1
 90
        1
176
     1
 90
        6
176
     1
 90
        2
176
     1
 62
     7
176
     1
 90
        3
176
     1
 90
        0
176
     1
 90
        0
176
     1
290
     0
176
     1
 90
       13
176
     1
 40
0.0
176
     1
 90
        0
176
     1
290
     0
176
     1
290
     1
176
     1
290
     1
176
     1
290
     0
176
     1
290
     0
176
     1
290
     0
176
     1
290
     0
176
     1
290
     0
176
     1
290
     0
176
     1
 90
       50
176
     1
 40
0.0
176
     1
 40
1.0
176
     1
 90
        0
176
     1
 62
    18
420
        0
176
     1
 90
       50
176
     1
 90
        3
176
     1
 62
     5
420
      255
176
     1
290
     0
176
     1
 90
       50
176
     1
 90
       50
176
     1
 90
       50
176
     1
290
     0
176
     1
 90
       50
176
     1
 62
   256
176
     0
 40
1.0
176
     0
 90
        2
176
     1
  1
strokes_ogs.tif
176
     1
290
     0
176
     1
 40
1.0
176
     1
 40
1.0
176
     1
1001
ACAD
1000
AcDbSavedByObjectVersion
1070
     0
  0
DICTIONARYVAR
  5
5F6C
102
{ACAD_REACTORS
330
5697
102
}
330
5697
100
DictionaryVariables
280
     0
  1
1:1
  0
DICTIONARYVAR
  5
5F69
102
{ACAD_REACTORS
330
5697
102
}
330
5697
100
DictionaryVariables
280
     0
  1
STANDARD
  0
DICTIONARYVAR
  5
5F68
102
{ACAD_REACTORS
330
5697
102
}
330
5697
100
DictionaryVariables
280
     0
  1
STANDARD
  0
DICTIONARYVAR
  5
5F6A
102
{ACAD_REACTORS
330
5697
102
}
330
5697
100
DictionaryVariables
280
     0
  1
Imperial24
  0
DICTIONARYVAR
  5
5F6B
102
{ACAD_REACTORS
330
5697
102
}
330
5697
100
DictionaryVariables
280
     0
  1
Imperial24
  0
DICTIONARYVAR
  5
5698
102
{ACAD_REACTORS
330
5697
102
}
330
5697
100
DictionaryVariables
280
     0
  1
1
  0
DICTIONARYVAR
  5
5F6E
102
{ACAD_REACTORS
330
5697
102
}
330
5697
100
DictionaryVariables
280
     0
  1
0
  0
DICTIONARYVAR
  5
5FC0
102
{ACAD_REACTORS
330
5697
102
}
330
5697
100
DictionaryVariables
280
     0
  1
1
  0
DICTIONARYVAR
  5
5FC1
102
{ACAD_REACTORS
330
5697
102
}
330
5697
100
DictionaryVariables
280
     0
  1
15
  0
DICTIONARYVAR
  5
5FBF
102
{ACAD_REACTORS
330
5697
102
}
330
5697
100
DictionaryVariables
280
     0
  1
0
  0
DICTIONARYVAR
  5
5FBE
102
{ACAD_REACTORS
330
5697
102
}
330
5697
100
DictionaryVariables
280
     0
  1
0
  0
DICTIONARYVAR
  5
5F6D
102
{ACAD_REACTORS
330
5697
102
}
330
5697
100
DictionaryVariables
280
     0
  1
127
  0
DICTIONARY
  5
5FC5
330
5B6F
100
AcDbDictionary
280
     1
281
     1
  3
ACAD_XREC_ROUNDTRIP
360
5FC6
  0
DICTIONARY
  5
5B2D
330
5B2C
100
AcDbDictionary
280
     1
281
     1
  3
ACAD_XREC_ROUNDTRIP
360
5F7D
  3
BUMPTILE
360
5B2F
  3
DIFFUSETILE
360
5B2E
  3
OPACITYTILE
360
5B32
  3
REFLECTIONTILE
360
5B31
  3
REFRACTIONTILE
360
5B33
  3
SPECULARTILE
360
5B30
  0
DICTIONARY
  5
5B25
330
5B24
100
AcDbDictionary
280
     1
281
     1
  3
ACAD_XREC_ROUNDTRIP
360
5F7C
  3
BUMPTILE
360
5B27
  3
DIFFUSETILE
360
5B26
  3
OPACITYTILE
360
5B2A
  3
REFLECTIONTILE
360
5B29
  3
REFRACTIONTILE
360
5B2B
  3
SPECULARTILE
360
5B28
  0
DICTIONARY
  5
5B35
330
5B34
100
AcDbDictionary
280
     1
281
     1
  3
ACAD_XREC_ROUNDTRIP
360
5F7E
  3
BUMPTILE
360
5B37
  3
DIFFUSETILE
360
5B36
  3
OPACITYTILE
360
5B3A
  3
REFLECTIONTILE
360
5B39
  3
REFRACTIONTILE
360
5B3B
  3
SPECULARTILE
360
5B38
  0
DICTIONARY
  5
5FC3
330
5B6D
100
AcDbDictionary
280
     1
281
     1
  3
ACAD_XREC_ROUNDTRIP
360
5FC4
  0
DICTIONARY
  5
5F70
330
5B57
100
AcDbDictionary
280
     1
281
     1
  3
ACAD_ROUNDTRIP_2008_TABLESTYLE_CELLSTYLEMAP
360
5FC2
  0
XRECORD
  5
5FC6
102
{ACAD_REACTORS
330
5FC5
102
}
330
5FC5
100
AcDbXrecord
280
     1
102
DISPLAYNAME
  1
Imperial24
102
FLAGS
 90
        0
  0
XRECORD
  5
5F7D
102
{ACAD_REACTORS
330
5B2D
102
}
330
5B2D
100
AcDbXrecord
280
     1
102
MATERIAL
148
0.0
149
0.0
149
0.0
 93
        0
 94
      127
282
     0
 72
     0
 77
     0
171
     0
175
     0
179
     0
273
     0
  0
XRECORD
  5
5B2F
102
{ACAD_REACTORS
330
5B2D
102
}
330
5B2D
100
AcDbXrecord
280
     1
270
     1
271
     1
  0
XRECORD
  5
5B2E
102
{ACAD_REACTORS
330
5B2D
102
}
330
5B2D
100
AcDbXrecord
280
     1
270
     1
271
     1
  0
XRECORD
  5
5B32
102
{ACAD_REACTORS
330
5B2D
102
}
330
5B2D
100
AcDbXrecord
280
     1
270
     1
271
     1
  0
XRECORD
  5
5B31
102
{ACAD_REACTORS
330
5B2D
102
}
330
5B2D
100
AcDbXrecord
280
     1
270
     1
271
     1
  0
XRECORD
  5
5B33
102
{ACAD_REACTORS
330
5B2D
102
}
330
5B2D
100
AcDbXrecord
280
     1
270
     1
271
     1
  0
XRECORD
  5
5B30
102
{ACAD_REACTORS
330
5B2D
102
}
330
5B2D
100
AcDbXrecord
280
     1
270
     1
271
     1
  0
XRECORD
  5
5F7C
102
{ACAD_REACTORS
330
5B25
102
}
330
5B25
100
AcDbXrecord
280
     1
102
MATERIAL
148
0.0
149
0.0
149
0.0
 93
        0
 94
      127
282
     0
 72
     0
 77
     0
171
     0
175
     0
179
     0
273
     0
  0
XRECORD
  5
5B27
102
{ACAD_REACTORS
330
5B25
102
}
330
5B25
100
AcDbXrecord
280
     1
270
     1
271
     1
  0
XRECORD
  5
5B26
102
{ACAD_REACTORS
330
5B25
102
}
330
5B25
100
AcDbXrecord
280
     1
270
     1
271
     1
  0
XRECORD
  5
5B2A
102
{ACAD_REACTORS
330
5B25
102
}
330
5B25
100
AcDbXrecord
280
     1
270
     1
271
     1
  0
XRECORD
  5
5B29
102
{ACAD_REACTORS
330
5B25
102
}
330
5B25
100
AcDbXrecord
280
     1
270
     1
271
     1
  0
XRECORD
  5
5B2B
102
{ACAD_REACTORS
330
5B25
102
}
330
5B25
100
AcDbXrecord
280
     1
270
     1
271
     1
  0
XRECORD
  5
5B28
102
{ACAD_REACTORS
330
5B25
102
}
330
5B25
100
AcDbXrecord
280
     1
270
     1
271
     1
  0
XRECORD
  5
5F7E
102
{ACAD_REACTORS
330
5B35
102
}
330
5B35
100
AcDbXrecord
280
     1
102
MATERIAL
148
0.0
149
0.0
149
0.0
 93
        0
 94
      127
282
     0
 72
     0
 77
     0
171
     0
175
     0
179
     0
273
     0
  0
XRECORD
  5
5B37
102
{ACAD_REACTORS
330
5B35
102
}
330
5B35
100
AcDbXrecord
280
     1
270
     1
271
     1
  0
XRECORD
  5
5B36
102
{ACAD_REACTORS
330
5B35
102
}
330
5B35
100
AcDbXrecord
280
     1
270
     1
271
     1
  0
XRECORD
  5
5B3A
102
{ACAD_REACTORS
330
5B35
102
}
330
5B35
100
AcDbXrecord
280
     1
270
     1
271
     1
  0
XRECORD
  5
5B39
102
{ACAD_REACTORS
330
5B35
102
}
330
5B35
100
AcDbXrecord
280
     1
270
     1
271
     1
  0
XRECORD
  5
5B3B
102
{ACAD_REACTORS
330
5B35
102
}
330
5B35
100
AcDbXrecord
280
     1
270
     1
271
     1
  0
XRECORD
  5
5B38
102
{ACAD_REACTORS
330
5B35
102
}
330
5B35
100
AcDbXrecord
280
     1
270
     1
271
     1
  0
XRECORD
  5
5FC4
102
{ACAD_REACTORS
330
5FC3
102
}
330
5FC3
100
AcDbXrecord
280
     1
102
DISPLAYNAME
  1
Imperial24
102
FLAGS
 90
        0
  0
CELLSTYLEMAP
  5
5FC2
102
{ACAD_REACTORS
330
5F70
102
}
330
5F70
100
AcDbCellStyleMap
 90
        3
300
CELLSTYLE
  1
TABLEFORMAT_BEGIN
 90
        5
170
     1
 91
        0
 92
    32768
 62
   257
 93
        1
300
CONTENTFORMAT
  1
CONTENTFORMAT_BEGIN
 90
        0
 91
        0
 92
      512
 93
        0
300

 40
0.0
140
1.0
 94
        5
 62
     0
340
11
144
0.25
309
CONTENTFORMAT_END
171
     1
301
MARGIN
  1
CELLMARGIN_BEGIN
 40
0.06
 40
0.06
 40
0.06
 40
0.06
 40
0.18
 40
0.18
309
CELLMARGIN_END
 94
        6
 95
        1
302
GRIDFORMAT
  1
GRIDFORMAT_BEGIN
 90
        0
 91
        1
 62
     0
 92
       -2
340
0
 93
        0
 40
0.045
309
GRIDFORMAT_END
 95
        2
302
GRIDFORMAT
  1
GRIDFORMAT_BEGIN
 90
        0
 91
        1
 62
     0
 92
       -2
340
0
 93
        0
 40
0.045
309
GRIDFORMAT_END
 95
        4
302
GRIDFORMAT
  1
GRIDFORMAT_BEGIN
 90
        0
 91
        1
 62
     0
 92
       -2
340
0
 93
        0
 40
0.045
309
GRIDFORMAT_END
 95
        8
302
GRIDFORMAT
  1
GRIDFORMAT_BEGIN
 90
        0
 91
        1
 62
     0
 92
       -2
340
0
 93
        0
 40
0.045
309
GRIDFORMAT_END
 95
       16
302
GRIDFORMAT
  1
GRIDFORMAT_BEGIN
 90
        0
 91
        1
 62
     0
 92
       -2
340
0
 93
        0
 40
0.045
309
GRIDFORMAT_END
 95
       32
302
GRIDFORMAT
  1
GRIDFORMAT_BEGIN
 90
        0
 91
        1
 62
     0
 92
       -2
340
0
 93
        0
 40
0.045
309
GRIDFORMAT_END
309
TABLEFORMAT_END
  1
CELLSTYLE_BEGIN
 90
        1
 91
        1
300
_TITLE
309
CELLSTYLE_END
300
CELLSTYLE
  1
TABLEFORMAT_BEGIN
 90
        5
170
     1
 91
        0
 92
        0
 62
   257
 93
        1
300
CONTENTFORMAT
  1
CONTENTFORMAT_BEGIN
 90
        0
 91
        0
 92
      512
 93
        0
300

 40
0.0
140
1.0
 94
        5
 62
     0
340
11
144
0.18
309
CONTENTFORMAT_END
171
     1
301
MARGIN
  1
CELLMARGIN_BEGIN
 40
0.06
 40
0.06
 40
0.06
 40
0.06
 40
0.18
 40
0.18
309
CELLMARGIN_END
 94
        6
 95
        1
302
GRIDFORMAT
  1
GRIDFORMAT_BEGIN
 90
        0
 91
        1
 62
     0
 92
       -2
340
0
 93
        0
 40
0.045
309
GRIDFORMAT_END
 95
        2
302
GRIDFORMAT
  1
GRIDFORMAT_BEGIN
 90
        0
 91
        1
 62
     0
 92
       -2
340
0
 93
        0
 40
0.045
309
GRIDFORMAT_END
 95
        4
302
GRIDFORMAT
  1
GRIDFORMAT_BEGIN
 90
        0
 91
        1
 62
     0
 92
       -2
340
0
 93
        0
 40
0.045
309
GRIDFORMAT_END
 95
        8
302
GRIDFORMAT
  1
GRIDFORMAT_BEGIN
 90
        0
 91
        1
 62
     0
 92
       -2
340
0
 93
        0
 40
0.045
309
GRIDFORMAT_END
 95
       16
302
GRIDFORMAT
  1
GRIDFORMAT_BEGIN
 90
        0
 91
        1
 62
     0
 92
       -2
340
0
 93
        0
 40
0.045
309
GRIDFORMAT_END
 95
       32
302
GRIDFORMAT
  1
GRIDFORMAT_BEGIN
 90
        0
 91
        1
 62
     0
 92
       -2
340
0
 93
        0
 40
0.045
309
GRIDFORMAT_END
309
TABLEFORMAT_END
  1
CELLSTYLE_BEGIN
 90
        2
 91
        1
300
_HEADER
309
CELLSTYLE_END
300
CELLSTYLE
  1
TABLEFORMAT_BEGIN
 90
        5
170
     1
 91
        0
 92
        0
 62
   257
 93
        1
300
CONTENTFORMAT
  1
CONTENTFORMAT_BEGIN
 90
        0
 91
        0
 92
      512
 93
        0
300

 40
0.0
140
1.0
 94
        2
 62
     0
340
11
144
0.18
309
CONTENTFORMAT_END
171
     1
301
MARGIN
  1
CELLMARGIN_BEGIN
 40
0.06
 40
0.06
 40
0.06
 40
0.06
 40
0.18
 40
0.18
309
CELLMARGIN_END
 94
        6
 95
        1
302
GRIDFORMAT
  1
GRIDFORMAT_BEGIN
 90
        0
 91
        1
 62
     0
 92
       -2
340
0
 93
        0
 40
0.045
309
GRIDFORMAT_END
 95
        2
302
GRIDFORMAT
  1
GRIDFORMAT_BEGIN
 90
        0
 91
        1
 62
     0
 92
       -2
340
0
 93
        0
 40
0.045
309
GRIDFORMAT_END
 95
        4
302
GRIDFORMAT
  1
GRIDFORMAT_BEGIN
 90
        0
 91
        1
 62
     0
 92
       -2
340
0
 93
        0
 40
0.045
309
GRIDFORMAT_END
 95
        8
302
GRIDFORMAT
  1
GRIDFORMAT_BEGIN
 90
        0
 91
        1
 62
     0
 92
       -2
340
0
 93
        0
 40
0.045
309
GRIDFORMAT_END
 95
       16
302
GRIDFORMAT
  1
GRIDFORMAT_BEGIN
 90
        0
 91
        1
 62
     0
 92
       -2
340
0
 93
        0
 40
0.045
309
GRIDFORMAT_END
 95
       32
302
GRIDFORMAT
  1
GRIDFORMAT_BEGIN
 90
        0
 91
        1
 62
     0
 92
       -2
340
0
 93
        0
 40
0.045
309
GRIDFORMAT_END
309
TABLEFORMAT_END
  1
CELLSTYLE_BEGIN
 90
        3
 91
        2
300
_DATA
309
CELLSTYLE_END
  0
ENDSEC
  0
EOF
