  0
SECTION
  2
HEADER
  9
$ACADVER
  1
AC1027
  9
$ACADMAINTVER
 70
    55
  9
$DWGCODEPAGE
  3
ANSI_932
  9
$LASTSAVEDBY
  1
marketing
  9
$REQUIREDVERSIONS
160
                 0
  9
$INSBASE
 10
0.0
 20
0.0
 30
0.0
  9
$EXTMIN
 10
-83.96411608460175
 20
-359.8937837713706
 30
-0.0000000349181948
  9
$EXTMAX
 10
298.1391641800669
 20
280.2548651933869
 30
0.0000000814935747
  9
$LIMMIN
 10
-296.316999476111
 20
-370.7034300441653
  9
$LIMMAX
 10
623.3128432133979
 20
328.6261559379898
  9
$ORTHOMODE
 70
     0
  9
$REGENMODE
 70
     1
  9
$FILLMODE
 70
     1
  9
$QTEXTMODE
 70
     0
  9
$MIRRTEXT
 70
     1
  9
$LTSCALE
 40
10.0
  9
$ATTMODE
 70
     1
  9
$TEXTSIZE
 40
5.0
  9
$TRACEWID
 40
0.05
  9
$TEXTSTYLE
  7
STANDARD1
  9
$CLAYER
  8
30
  9
$CELTYPE
  6
CONTINUOUS
  9
$CECOLOR
 62
   256
  9
$CELTSCALE
 40
1.0
  9
$DISPSILH
 70
     0
  9
$DIMSCALE
 40
1.0
  9
$DIMASZ
 40
2.0
  9
$DIMEXO
 40
1.0
  9
$DIMDLI
 40
0.5
  9
$DIMRND
 40
0.0
  9
$DIMDLE
 40
0.0
  9
$DIMEXE
 40
0.5
  9
$DIMTP
 40
0.0
  9
$DIMTM
 40
0.0
  9
$DIMTXT
 40
4.0
  9
$DIMCEN
 40
0.09
  9
$DIMTSZ
 40
0.0
  9
$DIMTOL
 70
     0
  9
$DIMLIM
 70
     0
  9
$DIMTIH
 70
     0
  9
$DIMTOH
 70
     1
  9
$DIMSE1
 70
     0
  9
$DIMSE2
 70
     0
  9
$DIMTAD
 70
     3
  9
$DIMZIN
 70
    12
  9
$DIMBLK
  1
OPEN
  9
$DIMASO
 70
     1
  9
$DIMSHO
 70
     1
  9
$DIMPOST
  1

  9
$DIMAPOST
  1

  9
$DIMALT
 70
     0
  9
$DIMALTD
 70
     2
  9
$DIMALTF
 40
25.4
  9
$DIMLFAC
 40
1.0
  9
$DIMTOFL
 70
     0
  9
$DIMTVP
 40
0.0
  9
$DIMTIX
 70
     0
  9
$DIMSOXD
 70
     0
  9
$DIMSAH
 70
     0
  9
$DIMBLK1
  1

  9
$DIMBLK2
  1

  9
$DIMSTYLE
  2
STANDARD
  9
$DIMCLRD
 70
     0
  9
$DIMCLRE
 70
     0
  9
$DIMCLRT
 70
     0
  9
$DIMTFAC
 40
1.0
  9
$DIMGAP
 40
1.0
  9
$DIMJUST
 70
     0
  9
$DIMSD1
 70
     0
  9
$DIMSD2
 70
     0
  9
$DIMTOLJ
 70
     1
  9
$DIMTZIN
 70
     0
  9
$DIMALTZ
 70
     0
  9
$DIMALTTZ
 70
     0
  9
$DIMUPT
 70
     0
  9
$DIMDEC
 70
     1
  9
$DIMTDEC
 70
     1
  9
$DIMALTU
 70
     2
  9
$DIMALTTD
 70
     2
  9
$DIMTXSTY
  7
STANDARD
  9
$DIMAUNIT
 70
     0
  9
$DIMADEC
 70
     0
  9
$DIMALTRND
 40
0.0
  9
$DIMAZIN
 70
     3
  9
$DIMDSEP
 70
    46
  9
$DIMATFIT
 70
     3
  9
$DIMFRAC
 70
     0
  9
$DIMLDRBLK
  1
OPEN
  9
$DIMLUNIT
 70
     2
  9
$DIMLWD
 70
    -2
  9
$DIMLWE
 70
    -2
  9
$DIMTMOVE
 70
     0
  9
$DIMFXL
 40
1.0
  9
$DIMFXLON
 70
     0
  9
$DIMJOGANG
 40
0.7853981633974483
  9
$DIMTFILL
 70
     0
  9
$DIMTFILLCLR
 70
     0
  9
$DIMARCSYM
 70
     0
  9
$DIMLTYPE
  6

  9
$DIMLTEX1
  6

  9
$DIMLTEX2
  6

  9
$DIMTXTDIRECTION
 70
     0
  9
$LUNITS
 70
     2
  9
$LUPREC
 70
     4
  9
$SKETCHINC
 40
0.1
  9
$FILLETRAD
 40
0.0
  9
$AUNITS
 70
     0
  9
$AUPREC
 70
     0
  9
$MENU
  1
.
  9
$ELEVATION
 40
0.0
  9
$PELEVATION
 40
0.0
  9
$THICKNESS
 40
0.0
  9
$LIMCHECK
 70
     0
  9
$CHAMFERA
 40
0.0
  9
$CHAMFERB
 40
0.0
  9
$CHAMFERC
 40
0.0
  9
$CHAMFERD
 40
0.0
  9
$SKPOLY
 70
     0
  9
$TDCREATE
 40
2452286.555658658
  9
$TDUCREATE
 40
2452286.180658658
  9
$TDUPDATE
 40
2459278.609063750
  9
$TDUUPDATE
 40
2459278.234063750
  9
$TDINDWG
 40
1.2517954861
  9
$TDUSRTIMER
 40
1.2517938889
  9
$USRTIMER
 70
     1
  9
$ANGBASE
 50
0.0
  9
$ANGDIR
 70
     0
  9
$PDMODE
 70
     0
  9
$PDSIZE
 40
0.0
  9
$PLINEWID
 40
0.0
  9
$SPLFRAME
 70
     0
  9
$SPLINETYPE
 70
     6
  9
$SPLINESEGS
 70
     8
  9
$HANDSEED
  5
6A2C
  9
$SURFTAB1
 70
     6
  9
$SURFTAB2
 70
     6
  9
$SURFTYPE
 70
     6
  9
$SURFU
 70
     6
  9
$SURFV
 70
     6
  9
$UCSBASE
  2

  9
$UCSNAME
  2

  9
$UCSORG
 10
0.0
 20
0.0
 30
0.0
  9
$UCSXDIR
 10
1.0
 20
0.0
 30
0.0
  9
$UCSYDIR
 10
0.0
 20
1.0
 30
0.0
  9
$UCSORTHOREF
  2

  9
$UCSORTHOVIEW
 70
     0
  9
$UCSORGTOP
 10
0.0
 20
0.0
 30
0.0
  9
$UCSORGBOTTOM
 10
0.0
 20
0.0
 30
0.0
  9
$UCSORGLEFT
 10
0.0
 20
0.0
 30
0.0
  9
$UCSORGRIGHT
 10
0.0
 20
0.0
 30
0.0
  9
$UCSORGFRONT
 10
0.0
 20
0.0
 30
0.0
  9
$UCSORGBACK
 10
0.0
 20
0.0
 30
0.0
  9
$PUCSBASE
  2

  9
$PUCSNAME
  2

  9
$PUCSORG
 10
0.0
 20
0.0
 30
0.0
  9
$PUCSXDIR
 10
1.0
 20
0.0
 30
0.0
  9
$PUCSYDIR
 10
0.0
 20
1.0
 30
0.0
  9
$PUCSORTHOREF
  2

  9
$PUCSORTHOVIEW
 70
     0
  9
$PUCSORGTOP
 10
0.0
 20
0.0
 30
0.0
  9
$PUCSORGBOTTOM
 10
0.0
 20
0.0
 30
0.0
  9
$PUCSORGLEFT
 10
0.0
 20
0.0
 30
0.0
  9
$PUCSORGRIGHT
 10
0.0
 20
0.0
 30
0.0
  9
$PUCSORGFRONT
 10
0.0
 20
0.0
 30
0.0
  9
$PUCSORGBACK
 10
0.0
 20
0.0
 30
0.0
  9
$USERI1
 70
     0
  9
$USERI2
 70
     0
  9
$USERI3
 70
     0
  9
$USERI4
 70
     0
  9
$USERI5
 70
     0
  9
$USERR1
 40
0.0
  9
$USERR2
 40
0.0
  9
$USERR3
 40
0.0
  9
$USERR4
 40
0.0
  9
$USERR5
 40
0.0
  9
$WORLDVIEW
 70
     1
  9
$SHADEDGE
 70
     3
  9
$SHADEDIF
 70
    70
  9
$TILEMODE
 70
     1
  9
$MAXACTVP
 70
    48
  9
$PINSBASE
 10
0.0
 20
0.0
 30
0.0
  9
$PLIMCHECK
 70
     0
  9
$PEXTMIN
 10
4.273573
 20
5.205245999999998
 30
0.0
  9
$PEXTMAX
 10
194.610095
 20
283.0697009999996
 30
0.0
  9
$PLIMMIN
 10
-5.873749
 20
-5.87375
  9
$PLIMMAX
 10
204.099579
 20
291.1369009999999
  9
$UNITMODE
 70
     0
  9
$VISRETAIN
 70
     1
  9
$PLINEGEN
 70
     0
  9
$PSLTSCALE
 70
     1
  9
$TREEDEPTH
 70
  3020
  9
$CMLSTYLE
  2
STANDARD
  9
$CMLJUST
 70
     0
  9
$CMLSCALE
 40
1.0
  9
$PROXYGRAPHICS
 70
     1
  9
$MEASUREMENT
 70
     0
  9
$CELWEIGHT
370
    -1
  9
$ENDCAPS
280
     0
  9
$JOINSTYLE
280
     0
  9
$LWDISPLAY
290
     0
  9
$INSUNITS
 70
     0
  9
$HYPERLINKBASE
  1

  9
$STYLESHEET
  1
MONOCHROME.CTB
  9
$XEDIT
290
     1
  9
$CEPSNTYPE
380
     0
  9
$PSTYLEMODE
290
     1
  9
$FINGERPRINTGUID
  2

  9
$VERSIONGUID
  2
{C861E06B-D286-4B54-A8C0-FF8668E392F8}
  9
$EXTNAMES
290
     1
  9
$PSVPSCALE
 40
0.0
  9
$OLESTARTUP
290
     0
  9
$SORTENTS
280
   127
  9
$INDEXCTL
280
     0
  9
$HIDETEXT
280
     0
  9
$XCLIPFRAME
280
     2
  9
$HALOGAP
280
     0
  9
$OBSCOLOR
 70
   257
  9
$OBSLTYPE
280
     0
  9
$INTERSECTIONDISPLAY
280
     0
  9
$INTERSECTIONCOLOR
 70
   257
  9
$DIMASSOC
280
     1
  9
$PROJECTNAME
  1

  9
$CAMERADISPLAY
290
     0
  9
$LENSLENGTH
 40
50.0
  9
$CAMERAHEIGHT
 40
0.0
  9
$STEPSPERSEC
 40
2.0
  9
$STEPSIZE
 40
6.0
  9
$3DDWFPREC
 40
2.0
  9
$PSOLWIDTH
 40
0.25
  9
$PSOLHEIGHT
 40
4.0
  9
$LOFTANG1
 40
1.570796326794896
  9
$LOFTANG2
 40
1.570796326794896
  9
$LOFTMAG1
 40
0.0
  9
$LOFTMAG2
 40
0.0
  9
$LOFTPARAM
 70
     7
  9
$LOFTNORMALS
280
     1
  9
$LATITUDE
 40
37.795
  9
$LONGITUDE
 40
-122.394
  9
$NORTHDIRECTION
 40
0.0
  9
$TIMEZONE
 70
 -8000
  9
$LIGHTGLYPHDISPLAY
280
     1
  9
$TILEMODELIGHTSYNCH
280
     1
  9
$CMATERIAL
347
66CF
  9
$SOLIDHIST
280
     0
  9
$SHOWHIST
280
     1
  9
$DWFFRAME
280
     2
  9
$DGNFRAME
280
     0
  9
$REALWORLDSCALE
290
     1
  9
$INTERFERECOLOR
 62
     1
  9
$INTERFEREOBJVS
345
66F1
  9
$INTERFEREVPVS
346
66EE
  9
$CSHADOW
280
     0
  9
$SHADOWPLANELOCATION
 40
0.0
  0
ENDSEC
  0
SECTION
  2
CLASSES
  0
CLASS
  1
ACDBDICTIONARYWDFLT
  2
AcDbDictionaryWithDefault
  3
ObjectDBX Classes
 90
        0
 91
        1
280
     0
281
     0
  0
CLASS
  1
DICTIONARYVAR
  2
AcDbDictionaryVar
  3
ObjectDBX Classes
 90
        0
 91
       13
280
     0
281
     0
  0
CLASS
  1
MATERIAL
  2
AcDbMaterial
  3
ObjectDBX Classes
 90
     1153
 91
        3
280
     0
281
     0
  0
CLASS
  1
VISUALSTYLE
  2
AcDbVisualStyle
  3
ObjectDBX Classes
 90
     4095
 91
       24
280
     0
281
     0
  0
CLASS
  1
TABLESTYLE
  2
AcDbTableStyle
  3
ObjectDBX Classes
 90
     4095
 91
        1
280
     0
281
     0
  0
CLASS
  1
SCALE
  2
AcDbScale
  3
ObjectDBX Classes
 90
     1153
 91
       17
280
     0
281
     0
  0
CLASS
  1
MLEADERSTYLE
  2
AcDbMLeaderStyle
  3
ACDB_MLEADERSTYLE_CLASS
 90
     4095
 91
        1
280
     0
281
     0
  0
CLASS
  1
ACDBSECTIONVIEWSTYLE
  2
AcDbSectionViewStyle
  3
ObjectDBX Classes
 90
     1025
 91
        1
280
     0
281
     0
  0
CLASS
  1
ACDBDETAILVIEWSTYLE
  2
AcDbDetailViewStyle
  3
ObjectDBX Classes
 90
     1025
 91
        1
280
     0
281
     0
  0
CLASS
  1
CELLSTYLEMAP
  2
AcDbCellStyleMap
  3
ObjectDBX Classes
 90
     1152
 91
        2
280
     0
281
     0
  0
ENDSEC
  0
SECTION
  2
TABLES
  0
TABLE
  2
VPORT
  5
8
330
0
100
AcDbSymbolTable
 70
     1
  0
VPORT
  5
66C6
330
8
100
AcDbSymbolTableRecord
100
AcDbViewportTableRecord
  2
*Active
 70
     0
 10
0.0
 20
0.0
 11
1.0
 21
1.0
 12
107.0875240477326
 22
-39.81945928899188
 13
0.0
 23
0.0
 14
1.0
 24
1.0
 15
10.0
 25
10.0
 16
0.0
 26
0.0
 36
1.0
 17
0.0
 27
0.0
 37
0.0
 40
644.7762295596834
 41
2.289505428226779
 42
50.0
 43
0.0
 44
0.0
 50
0.0
 51
0.0
 71
     0
 72
   100
 73
     1
 74
     1
 75
     0
 76
     0
 77
     0
 78
     0
281
     0
 65
     1
110
0.0
120
0.0
130
0.0
111
1.0
121
0.0
131
0.0
112
0.0
122
1.0
132
0.0
 79
     0
146
0.0
348
66ED
 60
     3
 61
     5
292
     1
282
     1
141
0.0
142
0.0
 63
   250
421
  3355443
1001
ACAD_NAV_VCDISPLAY
1070
     3
  0
ENDTAB
  0
TABLE
  2
LTYPE
  5
5
330
0
100
AcDbSymbolTable
 70
     6
  0
LTYPE
  5
13
330
5
100
AcDbSymbolTableRecord
100
AcDbLinetypeTableRecord
  2
BYBLOCK
 70
     0
  3

 72
    65
 73
     0
 40
0.0
  0
LTYPE
  5
14
330
5
100
AcDbSymbolTableRecord
100
AcDbLinetypeTableRecord
  2
BYLAYER
 70
     0
  3

 72
    65
 73
     0
 40
0.0
  0
LTYPE
  5
15
330
5
100
AcDbSymbolTableRecord
100
AcDbLinetypeTableRecord
  2
CONTINUOUS
 70
     0
  3
Solid line
 72
    65
 73
     0
 40
0.0
  0
LTYPE
  5
22
330
5
100
AcDbSymbolTableRecord
100
AcDbLinetypeTableRecord
  2
CONTINOUS
 70
     0
  3
Solid line
 72
    65
 73
     0
 40
0.0
  0
LTYPE
  5
23
330
5
100
AcDbSymbolTableRecord
100
AcDbLinetypeTableRecord
  2
DASHED
 70
     0
  3
__ __ __ __ __ __ __ __ __ __ __ __ __ __ __
 72
    65
 73
     2
 40
0.75
 49
0.5
 74
     0
 49
-0.25
 74
     0
  0
LTYPE
  5
24
330
5
100
AcDbSymbolTableRecord
100
AcDbLinetypeTableRecord
  2
DASHDOT
 70
     0
  3
__ . __ . __ . __ . __ . __ . __ . __ . __ . __
 72
    65
 73
     4
 40
1.0
 49
0.5
 74
     0
 49
-0.25
 74
     0
 49
0.0
 74
     0
 49
-0.25
 74
     0
  0
LTYPE
  5
4C47
330
5
100
AcDbSymbolTableRecord
100
AcDbLinetypeTableRecord
  2
DIVIDE
 70
     0
  3
Divide ____ . . ____ . . ____ . . ____ . . ____
 72
    65
 73
     6
 40
1.25
 49
0.5
 74
     0
 49
-0.25
 74
     0
 49
0.0
 74
     0
 49
-0.25
 74
     0
 49
0.0
 74
     0
 49
-0.25
 74
     0
  0
ENDTAB
  0
TABLE
  2
LAYER
  5
2
330
0
100
AcDbSymbolTable
 70
    13
  0
LAYER
  5
10
102
{ACAD_XDICTIONARY
360
68DB
102
}
330
2
100
AcDbSymbolTableRecord
100
AcDbLayerTableRecord
  2
0
 70
     0
 62
     7
  6
CONTINOUS
370
    -3
390
F
347
66DF
348
0
  0
LAYER
  5
2F
102
{ACAD_XDICTIONARY
360
68DD
102
}
330
2
100
AcDbSymbolTableRecord
100
AcDbLayerTableRecord
  2
10
 70
     0
 62
     4
  6
CONTINOUS
370
    -3
390
F
347
66DF
348
0
  0
LAYER
  5
31
102
{ACAD_XDICTIONARY
360
68DF
102
}
330
2
100
AcDbSymbolTableRecord
100
AcDbLayerTableRecord
  2
12
 70
     0
 62
     3
  6
CONTINOUS
370
    -3
390
F
347
66DF
348
0
  0
LAYER
  5
35
102
{ACAD_XDICTIONARY
360
68E1
102
}
330
2
100
AcDbSymbolTableRecord
100
AcDbLayerTableRecord
  2
16
 70
     0
 62
     6
  6
DASHDOT
370
    -3
390
F
347
66DF
348
0
  0
LAYER
  5
38
102
{ACAD_XDICTIONARY
360
68E3
102
}
330
2
100
AcDbSymbolTableRecord
100
AcDbLayerTableRecord
  2
19
 70
     0
 62
     7
  6
CONTINOUS
370
    -3
390
F
347
66DF
348
0
  0
LAYER
  5
3C
102
{ACAD_XDICTIONARY
360
68E5
102
}
330
2
100
AcDbSymbolTableRecord
100
AcDbLayerTableRecord
  2
11
 70
     0
 62
     1
  6
CONTINOUS
370
    -3
390
F
347
66DF
348
0
  0
LAYER
  5
3D
102
{ACAD_XDICTIONARY
360
68E7
102
}
330
2
100
AcDbSymbolTableRecord
100
AcDbLayerTableRecord
  2
24
 70
     0
 62
     2
  6
CONTINOUS
370
    -3
390
F
347
66DF
348
0
  0
LAYER
  5
3A2
102
{ACAD_XDICTIONARY
360
68E9
102
}
330
2
100
AcDbSymbolTableRecord
100
AcDbLayerTableRecord
  2
30
 70
     0
 62
     9
  6
CONTINUOUS
370
    -3
390
F
347
66DF
348
0
  0
LAYER
  5
3A4
330
2
100
AcDbSymbolTableRecord
100
AcDbLayerTableRecord
  2
DEFPOINTS
 70
     0
 62
     7
  6
CONTINUOUS
290
     0
370
    -3
390
F
347
66DF
348
0
  0
LAYER
  5
3BBA
102
{ACAD_XDICTIONARY
360
68EB
102
}
330
2
100
AcDbSymbolTableRecord
100
AcDbLayerTableRecord
  2
18
 70
     0
 62
     5
  6
DIVIDE
370
    -3
390
F
347
66DF
348
0
  0
LAYER
  5
5116
102
{ACAD_XDICTIONARY
360
68ED
102
}
330
2
100
AcDbSymbolTableRecord
100
AcDbLayerTableRecord
  2
1
 70
     0
 62
     7
  6
CONTINUOUS
370
    -3
390
F
347
66DF
348
0
  0
LAYER
  5
5117
102
{ACAD_XDICTIONARY
360
68EF
102
}
330
2
100
AcDbSymbolTableRecord
100
AcDbLayerTableRecord
  2
TOP
 70
     0
 62
     7
  6
CONTINUOUS
370
    -3
390
F
347
66DF
348
0
  0
LAYER
  5
5C47
102
{ACAD_XDICTIONARY
360
68F1
102
}
330
2
100
AcDbSymbolTableRecord
100
AcDbLayerTableRecord
  2
17
 70
     0
 62
     2
  6
DASHDOT
370
    -3
390
F
347
66DF
348
0
  0
ENDTAB
  0
TABLE
  2
STYLE
  5
3
330
0
100
AcDbSymbolTable
 70
     3
  0
STYLE
  5
11
330
3
100
AcDbSymbolTableRecord
100
AcDbTextStyleTableRecord
  2
STANDARD
 70
     0
 40
0.0
 41
1.0
 50
0.0
 71
     0
 42
2.0
  3
txt.shx
  4
bigfont.shx
  0
STYLE
  5
42
330
3
100
AcDbSymbolTableRecord
100
AcDbTextStyleTableRecord
  2
STANDARD1
 70
     0
 40
0.0
 41
1.0
 50
0.0
 71
     0
 42
5.0
  3
MONOTXT
  4
BIGFONT
  0
STYLE
  5
5016
330
3
100
AcDbSymbolTableRecord
100
AcDbTextStyleTableRecord
  2
UGMTXT
 70
     0
 40
0.0
 41
1.0
 50
0.0
 71
     0
 42
0.2
  3
ugmtxt
  4
bigfont
  0
ENDTAB
  0
TABLE
  2
VIEW
  5
6
330
0
100
AcDbSymbolTable
 70
     3
  0
VIEW
  5
230C
330
6
100
AcDbSymbolTableRecord
100
AcDbViewTableRecord
  2
OLE1
 70
     0
 40
148.912488
 10
429.497628
 20
2.560627
 41
103.145806
 11
0.0
 21
0.0
 31
1.0
 12
0.0
 22
0.0
 32
0.0
 42
50.0
 43
0.0
 44
0.0
 50
0.0
 71
     0
281
     0
 72
     0
 73
     0
348
66ED
  0
VIEW
  5
230E
330
6
100
AcDbSymbolTableRecord
100
AcDbViewTableRecord
  2
OLE2
 70
     0
 40
170.778692
 10
322.66497
 20
-5.978304
 41
102.467215
 11
0.0
 21
0.0
 31
1.0
 12
0.0
 22
0.0
 32
0.0
 42
50.0
 43
0.0
 44
0.0
 50
0.0
 71
     0
281
     0
 72
     0
 73
     0
348
66ED
  0
VIEW
  5
23AA
330
6
100
AcDbSymbolTableRecord
100
AcDbViewTableRecord
  2
OLE3
 70
     0
 40
591.7897389999998
 10
84.79698199999999
 20
-46.09335999999998
 41
388.792096
 11
0.0
 21
0.0
 31
1.0
 12
0.0
 22
0.0
 32
0.0
 42
50.0
 43
0.0
 44
0.0
 50
0.0
 71
     0
281
     0
 72
     0
 73
     0
348
66ED
  0
ENDTAB
  0
TABLE
  2
UCS
  5
7
330
0
100
AcDbSymbolTable
 70
     0
  0
ENDTAB
  0
TABLE
  2
APPID
  5
9
330
0
100
AcDbSymbolTable
 70
     6
  0
APPID
  5
12
330
9
100
AcDbSymbolTableRecord
100
AcDbRegAppTableRecord
  2
ACAD
 70
     0
  0
APPID
  5
ECD
330
9
100
AcDbSymbolTableRecord
100
AcDbRegAppTableRecord
  2
CONTENTBLOCKICON
 70
     0
  0
APPID
  5
6771
330
9
100
AcDbSymbolTableRecord
100
AcDbRegAppTableRecord
  2
ACAD_PSEXT
 70
     0
  0
APPID
  5
6772
330
9
100
AcDbSymbolTableRecord
100
AcDbRegAppTableRecord
  2
ACAD_NAV_VCDISPLAY
 70
     0
  0
APPID
  5
6897
330
9
100
AcDbSymbolTableRecord
100
AcDbRegAppTableRecord
  2
ACAD_EXEMPT_FROM_CAD_STANDARDS
 70
     0
  0
APPID
  5
6A14
330
9
100
AcDbSymbolTableRecord
100
AcDbRegAppTableRecord
  2
ACAD_MLEADERVER
 70
     0
  0
ENDTAB
  0
TABLE
  2
DIMSTYLE
  5
A
330
0
100
AcDbSymbolTable
 70
     1
100
AcDbDimStyleTable
 71
     1
340
175
  0
DIMSTYLE
105
175
102
{ACAD_REACTORS
330
59D1
330
59D0
330
59B9
330
59D2
330
59C6
330
59BE
330
59FD
330
59F0
330
5C77
330
59BB
330
59BA
330
5E29
330
5E42
330
5E41
330
5E2A
330
5EF0
330
6116
330
614A
330
6157
330
6398
330
6472
330
647E
330
646C
330
67EB
330
67EC
330
67ED
330
67FD
330
67FE
330
6800
330
67FF
102
}
330
A
100
AcDbSymbolTableRecord
100
AcDbDimStyleTableRecord
  2
STANDARD
 70
     0
 41
2.0
 42
1.0
 43
0.5
 44
0.5
 73
     0
 77
     3
 78
    12
140
4.0
147
1.0
271
     1
272
     1
340
11
341
3B2
342
3B2
  0
ENDTAB
  0
TABLE
  2
BLOCK_RECORD
  5
1
330
0
100
AcDbSymbolTable
 70
    44
  0
BLOCK_RECORD
  5
1E
102
{ACAD_XDICTIONARY
360
178
102
}
330
1
100
AcDbSymbolTableRecord
100
AcDbBlockTableRecord
  2
*MODEL_SPACE
340
66C1
 70
     0
280
     1
281
     0
  0
BLOCK_RECORD
  5
1A
102
{ACAD_XDICTIONARY
360
17A
102
}
330
1
100
AcDbSymbolTableRecord
100
AcDbBlockTableRecord
  2
*PAPER_SPACE
340
66C2
 70
     0
280
     1
281
     0
  0
BLOCK_RECORD
  5
3B2
330
1
100
AcDbSymbolTableRecord
100
AcDbBlockTableRecord
  2
_OPEN
340
0
102
{BLKREFS
331
6891
331
6892
331
64D1
331
64F4
331
64F5
331
6522
331
6523
331
64FD
331
64FE
331
6518
331
6519
331
653D
331
653E
331
6506
331
6507
331
650F
331
6510
331
6534
331
6535
331
6546
331
6547
331
6551
331
6552
331
6319
331
631A
331
6310
331
6311
331
685B
331
685C
331
6864
331
6865
331
6308
331
62FE
331
62FF
331
6597
331
6598
331
6389
331
638A
331
6380
331
6381
331
6392
331
6393
331
658E
331
658F
331
62AE
331
62AF
331
62A5
331
62A6
331
652B
331
652C
331
64EB
331
64EC
331
675E
331
675F
331
676A
331
676B
331
672E
331
672F
331
673A
331
673B
331
6746
331
6747
331
6752
331
6753
331
6722
331
6723
331
686D
331
686E
331
6876
331
6877
331
687F
331
6880
331
6888
331
6889
331
68B7
331
68B8
331
6307
331
64D9
331
64DA
102
}
 70
     0
280
     1
281
     0
  0
BLOCK_RECORD
  5
58CA
330
1
100
AcDbSymbolTableRecord
100
AcDbBlockTableRecord
  2
*U1
340
0
102
{BLKREFS
331
59F3
102
}
 70
     0
280
     1
281
     0
  0
BLOCK_RECORD
  5
58CE
330
1
100
AcDbSymbolTableRecord
100
AcDbBlockTableRecord
  2
*U2
340
0
102
{BLKREFS
331
59F2
102
}
 70
     0
280
     1
281
     0
  0
BLOCK_RECORD
  5
58DE
330
1
100
AcDbSymbolTableRecord
100
AcDbBlockTableRecord
  2
*U3
340
0
102
{BLKREFS
331
59F1
102
}
 70
     0
280
     1
281
     0
  0
BLOCK_RECORD
  5
5A00
330
1
100
AcDbSymbolTableRecord
100
AcDbBlockTableRecord
  2
*D4
340
0
 70
     0
280
     1
281
     0
  0
BLOCK_RECORD
  5
5A0C
330
1
100
AcDbSymbolTableRecord
100
AcDbBlockTableRecord
  2
*D5
340
0
 70
     0
280
     1
281
     0
  0
BLOCK_RECORD
  5
5A19
330
1
100
AcDbSymbolTableRecord
100
AcDbBlockTableRecord
  2
*D6
340
0
 70
     0
280
     1
281
     0
  0
BLOCK_RECORD
  5
5A25
330
1
100
AcDbSymbolTableRecord
100
AcDbBlockTableRecord
  2
*D7
340
0
 70
     0
280
     1
281
     0
  0
BLOCK_RECORD
  5
5A31
330
1
100
AcDbSymbolTableRecord
100
AcDbBlockTableRecord
  2
*D8
340
0
 70
     0
280
     1
281
     0
  0
BLOCK_RECORD
  5
5A3D
330
1
100
AcDbSymbolTableRecord
100
AcDbBlockTableRecord
  2
*D9
340
0
 70
     0
280
     1
281
     0
  0
BLOCK_RECORD
  5
5A49
330
1
100
AcDbSymbolTableRecord
100
AcDbBlockTableRecord
  2
*D10
340
0
 70
     0
280
     1
281
     0
  0
BLOCK_RECORD
  5
5A55
330
1
100
AcDbSymbolTableRecord
100
AcDbBlockTableRecord
  2
*D11
340
0
 70
     0
280
     1
281
     0
  0
BLOCK_RECORD
  5
5A61
330
1
100
AcDbSymbolTableRecord
100
AcDbBlockTableRecord
  2
*D12
340
0
 70
     0
280
     1
281
     0
  0
BLOCK_RECORD
  5
5A6D
330
1
100
AcDbSymbolTableRecord
100
AcDbBlockTableRecord
  2
*D13
340
0
 70
     0
280
     1
281
     0
  0
BLOCK_RECORD
  5
5E7C
330
1
100
AcDbSymbolTableRecord
100
AcDbBlockTableRecord
  2
*D14
340
0
 70
     0
280
     1
281
     0
  0
BLOCK_RECORD
  5
5E88
330
1
100
AcDbSymbolTableRecord
100
AcDbBlockTableRecord
  2
*D15
340
0
 70
     0
280
     1
281
     0
  0
BLOCK_RECORD
  5
5E94
330
1
100
AcDbSymbolTableRecord
100
AcDbBlockTableRecord
  2
*D16
340
0
 70
     0
280
     1
281
     0
  0
BLOCK_RECORD
  5
5EA0
330
1
100
AcDbSymbolTableRecord
100
AcDbBlockTableRecord
  2
*D17
340
0
 70
     0
280
     1
281
     0
  0
BLOCK_RECORD
  5
5EF9
330
1
100
AcDbSymbolTableRecord
100
AcDbBlockTableRecord
  2
*D18
340
0
 70
     0
280
     1
281
     0
  0
BLOCK_RECORD
  5
5F6C
330
1
100
AcDbSymbolTableRecord
100
AcDbBlockTableRecord
  2
*D19
340
0
 70
     0
280
     1
281
     0
  0
BLOCK_RECORD
  5
5F79
330
1
100
AcDbSymbolTableRecord
100
AcDbBlockTableRecord
  2
*D20
340
0
 70
     0
280
     1
281
     0
  0
BLOCK_RECORD
  5
60FB
330
1
100
AcDbSymbolTableRecord
100
AcDbBlockTableRecord
  2
*D21
340
0
 70
     0
280
     1
281
     0
  0
BLOCK_RECORD
  5
6117
330
1
100
AcDbSymbolTableRecord
100
AcDbBlockTableRecord
  2
*D22
340
0
 70
     0
280
     1
281
     0
  0
BLOCK_RECORD
  5
614B
330
1
100
AcDbSymbolTableRecord
100
AcDbBlockTableRecord
  2
*D23
340
0
 70
     0
280
     1
281
     0
  0
BLOCK_RECORD
  5
6158
330
1
100
AcDbSymbolTableRecord
100
AcDbBlockTableRecord
  2
*D24
340
0
 70
     0
280
     1
281
     0
  0
BLOCK_RECORD
  5
6399
330
1
100
AcDbSymbolTableRecord
100
AcDbBlockTableRecord
  2
*D25
340
0
 70
     0
280
     1
281
     0
  0
BLOCK_RECORD
  5
648D
330
1
100
AcDbSymbolTableRecord
100
AcDbBlockTableRecord
  2
*D26
340
0
 70
     0
280
     1
281
     0
  0
BLOCK_RECORD
  5
6499
330
1
100
AcDbSymbolTableRecord
100
AcDbBlockTableRecord
  2
*D27
340
0
 70
     0
280
     1
281
     0
  0
BLOCK_RECORD
  5
64A4
330
1
100
AcDbSymbolTableRecord
100
AcDbBlockTableRecord
  2
*D28
340
0
 70
     0
280
     1
281
     0
  0
BLOCK_RECORD
  5
671D
330
1
100
AcDbSymbolTableRecord
100
AcDbBlockTableRecord
  2
*D29
340
0
 70
     0
280
     1
281
     0
  0
BLOCK_RECORD
  5
6729
330
1
100
AcDbSymbolTableRecord
100
AcDbBlockTableRecord
  2
*D30
340
0
 70
     0
280
     1
281
     0
  0
BLOCK_RECORD
  5
6735
330
1
100
AcDbSymbolTableRecord
100
AcDbBlockTableRecord
  2
*D31
340
0
 70
     0
280
     1
281
     0
  0
BLOCK_RECORD
  5
6741
330
1
100
AcDbSymbolTableRecord
100
AcDbBlockTableRecord
  2
*D32
340
0
 70
     0
280
     1
281
     0
  0
BLOCK_RECORD
  5
674D
330
1
100
AcDbSymbolTableRecord
100
AcDbBlockTableRecord
  2
*D33
340
0
 70
     0
280
     1
281
     0
  0
BLOCK_RECORD
  5
6759
330
1
100
AcDbSymbolTableRecord
100
AcDbBlockTableRecord
  2
*D34
340
0
 70
     0
280
     1
281
     0
  0
BLOCK_RECORD
  5
6765
330
1
100
AcDbSymbolTableRecord
100
AcDbBlockTableRecord
  2
*D35
340
0
 70
     0
280
     1
281
     0
  0
BLOCK_RECORD
  5
6804
330
1
100
AcDbSymbolTableRecord
100
AcDbBlockTableRecord
  2
*D36
340
0
 70
     0
280
     1
281
     0
  0
BLOCK_RECORD
  5
6810
330
1
100
AcDbSymbolTableRecord
100
AcDbBlockTableRecord
  2
*D37
340
0
 70
     0
280
     1
281
     0
  0
BLOCK_RECORD
  5
681C
330
1
100
AcDbSymbolTableRecord
100
AcDbBlockTableRecord
  2
*D38
340
0
 70
     0
280
     1
281
     0
  0
BLOCK_RECORD
  5
6828
330
1
100
AcDbSymbolTableRecord
100
AcDbBlockTableRecord
  2
*D39
340
0
 70
     0
280
     1
281
     0
  0
BLOCK_RECORD
  5
6834
330
1
100
AcDbSymbolTableRecord
100
AcDbBlockTableRecord
  2
*D40
340
0
 70
     0
280
     1
281
     0
  0
BLOCK_RECORD
  5
6840
330
1
100
AcDbSymbolTableRecord
100
AcDbBlockTableRecord
  2
*D41
340
0
 70
     0
280
     1
281
     0
  0
BLOCK_RECORD
  5
684C
330
1
100
AcDbSymbolTableRecord
100
AcDbBlockTableRecord
  2
*D42
340
0
 70
     0
280
     1
281
     0
  0
BLOCK_RECORD
  5
68B1
330
1
100
AcDbSymbolTableRecord
100
AcDbBlockTableRecord
  2
*D43
340
0
 70
     0
280
     1
281
     0
  0
ENDTAB
  0
ENDSEC
  0
SECTION
  2
BLOCKS
  0
BLOCK
  5
1F
330
1E
100
AcDbEntity
  8
0
100
AcDbBlockBegin
  2
*MODEL_SPACE
 70
     0
 10
0.0
 20
0.0
 30
0.0
  3
*MODEL_SPACE
  1

  0
ENDBLK
  5
20
330
1E
100
AcDbEntity
  8
0
100
AcDbBlockEnd
  0
BLOCK
  5
1B
330
1A
100
AcDbEntity
 67
     1
  8
0
100
AcDbBlockBegin
  2
*PAPER_SPACE
 70
     0
 10
0.0
 20
0.0
 30
0.0
  3
*PAPER_SPACE
  1

  0
ENDBLK
  5
1C
330
1A
100
AcDbEntity
 67
     1
  8
0
100
AcDbBlockEnd
  0
BLOCK
  5
3B6
330
3B2
100
AcDbEntity
  8
0
100
AcDbBlockBegin
  2
_OPEN
 70
     0
 10
0.0
 20
0.0
 30
0.0
  3
_OPEN
  1

  0
LINE
  5
3B3
330
3B2
100
AcDbEntity
  8
30
  6
Continuous
 62
     0
100
AcDbLine
 10
-1.0
 20
0.166667
 30
0.0
 11
0.0
 21
0.0
 31
0.0
  0
LINE
  5
3B4
330
3B2
100
AcDbEntity
  8
30
  6
Continuous
 62
     0
100
AcDbLine
 10
-1.0
 20
-0.166667
 30
0.0
 11
0.0
 21
0.0
 31
0.0
  0
LINE
  5
3B5
330
3B2
100
AcDbEntity
  8
30
  6
Continuous
 62
     0
100
AcDbLine
 10
0.0
 20
0.0
 30
0.0
 11
-1.0
 21
0.0
 31
0.0
  0
ENDBLK
  5
3B7
330
3B2
100
AcDbEntity
  8
0
100
AcDbBlockEnd
  0
BLOCK
  5
58CC
330
58CA
100
AcDbEntity
  8
TOP
  6
Continuous
 62
     4
100
AcDbBlockBegin
  2
*U1
 70
     1
 10
0.0
 20
0.0
 30
0.0
  3
*U1
  1

  0
TEXT
  5
58CB
330
58CA
100
AcDbEntity
  8
TOP
  6
ByBlock
 62
     0
100
AcDbText
 10
249.4949984839538
 20
103.4999999999999
 30
0.0
 40
2.500000003799998
  1
17
 41
0.78325
  7
UGMTXT
100
AcDbText
  0
ENDBLK
  5
58CD
330
58CA
100
AcDbEntity
  8
0
100
AcDbBlockEnd
  0
BLOCK
  5
58D0
330
58CE
100
AcDbEntity
  8
TOP
  6
Continuous
 62
     4
100
AcDbBlockBegin
  2
*U2
 70
     1
 10
0.0
 20
0.0
 30
0.0
  3
*U2
  1

  0
TEXT
  5
58CF
330
58CE
100
AcDbEntity
  8
TOP
  6
ByBlock
 62
     0
100
AcDbText
 10
252.6153110179847
 20
103.4999999999999
 30
0.0
 40
2.500000003799998
  1
(max.)
 41
0.7263970588235275
  7
UGMTXT
100
AcDbText
  0
ENDBLK
  5
58D1
330
58CE
100
AcDbEntity
  8
0
100
AcDbBlockEnd
  0
BLOCK
  5
58E0
330
58DE
100
AcDbEntity
  8
TOP
  6
Continuous
 62
     4
100
AcDbBlockBegin
  2
*U3
 70
     1
 10
0.0
 20
0.0
 30
0.0
  3
*U3
  1

  0
TEXT
  5
58DF
330
58DE
100
AcDbEntity
  8
TOP
  6
ByBlock
 62
     0
100
AcDbText
 10
250.6153110179847
 20
99.29999999999997
 30
0.0
 40
2.500000003799998
  1
max.t5
 41
0.7263970588235275
  7
UGMTXT
100
AcDbText
  0
ENDBLK
  5
58E1
330
58DE
100
AcDbEntity
  8
0
100
AcDbBlockEnd
  0
BLOCK
  5
5A0A
330
5A00
100
AcDbEntity
  8
0
100
AcDbBlockBegin
  2
*D4
 70
     1
 10
0.0
 20
0.0
 30
0.0
  3
*D4
  1

  0
LINE
  5
64F1
330
5A00
100
AcDbEntity
  8
30
  6
Continuous
 62
     0
440
 16777216
100
AcDbLine
 10
125.9923778520064
 20
-0.9897074468965454
 30
0.0
 11
125.9923778520064
 21
-136.7757960792594
 31
0.0
  0
LINE
  5
64F2
330
5A00
100
AcDbEntity
  8
30
  6
Continuous
 62
     0
440
 16777216
100
AcDbLine
 10
217.9923778520064
 20
-78.48970744689656
 30
0.0
 11
217.9923778520064
 21
-136.7757960792594
 31
0.0
  0
LINE
  5
64F3
330
5A00
100
AcDbEntity
  8
30
  6
Continuous
 62
     0
440
 16777216
100
AcDbLine
 10
127.9923778520065
 20
-136.2757960792595
 30
0.0
 11
215.9923778520064
 21
-136.2757960792595
 31
0.0
  0
INSERT
  5
64F4
330
5A00
100
AcDbEntity
  8
30
  6
Continuous
 62
     0
440
 16777216
100
AcDbBlockReference
  2
_OPEN
 10
125.9923778520064
 20
-136.2757960792595
 30
0.0
 41
2.0
 42
2.0
 43
2.0
 50
180.0
  0
INSERT
  5
64F5
330
5A00
100
AcDbEntity
  8
30
  6
Continuous
 62
     0
440
 16777216
100
AcDbBlockReference
  2
_OPEN
 10
217.9923778520064
 20
-136.2757960792595
 30
0.0
 41
2.0
 42
2.0
 43
2.0
  0
MTEXT
  5
64F6
330
5A00
100
AcDbEntity
  8
30
  6
Continuous
 62
     0
440
 16777216
100
AcDbMText
 10
171.9923778520064
 20
-133.2757960792595
 30
0.0
 40
4.0
 41
0.0
 46
0.0
 71
     5
 72
     1
  1
\A1;92
 73
     1
 44
1.0
1001
ACAD
1000
MTEXTBEGIN
1070
    73
1070
     1
1070
    44
1040
1.0
1070
    74
1070
     0
1000
MTEXTEND
  0
POINT
  5
64F7
330
5A00
100
AcDbEntity
  8
DEFPOINTS
  6
Continuous
 62
     0
440
 16777216
100
AcDbPoint
 10
125.9923778520064
 20
0.0102925531034544
 30
0.0
  0
POINT
  5
64F8
330
5A00
100
AcDbEntity
  8
DEFPOINTS
  6
Continuous
 62
     0
440
 16777216
100
AcDbPoint
 10
217.9923778520064
 20
-77.48970744689656
 30
0.0
  0
POINT
  5
64F9
330
5A00
100
AcDbEntity
  8
DEFPOINTS
  6
Continuous
 62
     0
440
 16777216
100
AcDbPoint
 10
217.9923778520064
 20
-136.2757960792595
 30
0.0
  0
ENDBLK
  5
5A0B
330
5A00
100
AcDbEntity
  8
0
100
AcDbBlockEnd
  0
BLOCK
  5
5A17
330
5A0C
100
AcDbEntity
  8
0
100
AcDbBlockBegin
  2
*D5
 70
     1
 10
0.0
 20
0.0
 30
0.0
  3
*D5
  1

  0
LINE
  5
651E
330
5A0C
100
AcDbEntity
  8
30
  6
Continuous
 62
     0
440
 16777216
100
AcDbLine
 10
141.9923778520064
 20
-25.98970744689655
 30
0.0
 11
141.9923778520064
 21
-122.3996550098397
 31
0.0
  0
LINE
  5
651F
330
5A0C
100
AcDbEntity
  8
30
  6
Continuous
 62
     0
440
 16777216
100
AcDbLine
 10
145.9923778520064
 20
-25.98970744689655
 30
0.0
 11
145.9923778520064
 21
-122.3996550098397
 31
0.0
  0
LINE
  5
6520
330
5A0C
100
AcDbEntity
  8
30
  6
Continuous
 62
     0
440
 16777216
100
AcDbLine
 10
139.9923778520063
 20
-121.8996550098397
 30
0.0
 11
137.9923778520063
 21
-121.8996550098397
 31
0.0
  0
LINE
  5
6521
330
5A0C
100
AcDbEntity
  8
30
  6
Continuous
 62
     0
440
 16777216
100
AcDbLine
 10
147.9923778520064
 20
-121.8996550098397
 30
0.0
 11
154.659044518673
 21
-121.8996550098397
 31
0.0
  0
INSERT
  5
6522
330
5A0C
100
AcDbEntity
  8
30
  6
Continuous
 62
     0
440
 16777216
100
AcDbBlockReference
  2
_OPEN
 10
141.9923778520064
 20
-121.8996550098397
 30
0.0
 41
2.0
 42
2.0
 43
2.0
  0
INSERT
  5
6523
330
5A0C
100
AcDbEntity
  8
30
  6
Continuous
 62
     0
440
 16777216
100
AcDbBlockReference
  2
_OPEN
 10
145.9923778520064
 20
-121.8996550098397
 30
0.0
 41
2.0
 42
2.0
 43
2.0
 50
180.0
  0
MTEXT
  5
6524
330
5A0C
100
AcDbEntity
  8
30
  6
Continuous
 62
     0
440
 16777216
100
AcDbMText
 10
152.3257111853398
 20
-118.8996550098394
 30
0.0
 40
4.0
 41
0.0
 46
0.0
 71
     5
 72
     1
  1
\A1;4
 73
     1
 44
1.0
1001
ACAD
1000
MTEXTBEGIN
1070
    73
1070
     1
1070
    44
1040
1.0
1070
    74
1070
     0
1000
MTEXTEND
  0
POINT
  5
6525
330
5A0C
100
AcDbEntity
  8
DEFPOINTS
  6
Continuous
 62
     0
440
 16777216
100
AcDbPoint
 10
141.9923778520064
 20
-24.98970744689656
 30
0.0
  0
POINT
  5
6526
330
5A0C
100
AcDbEntity
  8
DEFPOINTS
  6
Continuous
 62
     0
440
 16777216
100
AcDbPoint
 10
145.9923778520064
 20
-24.98970744689656
 30
0.0
  0
POINT
  5
6527
330
5A0C
100
AcDbEntity
  8
DEFPOINTS
  6
Continuous
 62
     0
440
 16777216
100
AcDbPoint
 10
145.9923778520064
 20
-121.8996550098397
 30
0.0
  0
ENDBLK
  5
5A18
330
5A0C
100
AcDbEntity
  8
0
100
AcDbBlockEnd
  0
BLOCK
  5
5A23
330
5A19
100
AcDbEntity
  8
0
100
AcDbBlockBegin
  2
*D6
 70
     1
 10
0.0
 20
0.0
 30
0.0
  3
*D6
  1

  0
LINE
  5
64FA
330
5A19
100
AcDbEntity
  8
30
  6
Continuous
 62
     0
440
 16777216
100
AcDbLine
 10
145.9923778520064
 20
-25.98970744689655
 30
0.0
 11
145.9923778520064
 21
-122.3996550098397
 31
0.0
  0
LINE
  5
64FB
330
5A19
100
AcDbEntity
  8
30
  6
Continuous
 62
     0
440
 16777216
100
AcDbLine
 10
217.9923778520064
 20
-78.48970744689656
 30
0.0
 11
217.9923778520064
 21
-122.3996550098397
 31
0.0
  0
LINE
  5
64FC
330
5A19
100
AcDbEntity
  8
30
  6
Continuous
 62
     0
440
 16777216
100
AcDbLine
 10
147.9923778520064
 20
-121.8996550098397
 30
0.0
 11
215.9923778520064
 21
-121.8996550098397
 31
0.0
  0
INSERT
  5
64FD
330
5A19
100
AcDbEntity
  8
30
  6
Continuous
 62
     0
440
 16777216
100
AcDbBlockReference
  2
_OPEN
 10
145.9923778520064
 20
-121.8996550098397
 30
0.0
 41
2.0
 42
2.0
 43
2.0
 50
180.0
  0
INSERT
  5
64FE
330
5A19
100
AcDbEntity
  8
30
  6
Continuous
 62
     0
440
 16777216
100
AcDbBlockReference
  2
_OPEN
 10
217.9923778520064
 20
-121.8996550098397
 30
0.0
 41
2.0
 42
2.0
 43
2.0
  0
MTEXT
  5
64FF
330
5A19
100
AcDbEntity
  8
30
  6
Continuous
 62
     0
440
 16777216
100
AcDbMText
 10
181.9923778520064
 20
-118.8996550098394
 30
0.0
 40
4.0
 41
0.0
 46
0.0
 71
     5
 72
     1
  1
\A1;72
 73
     1
 44
1.0
1001
ACAD
1000
MTEXTBEGIN
1070
    73
1070
     1
1070
    44
1040
1.0
1070
    74
1070
     0
1000
MTEXTEND
  0
POINT
  5
6500
330
5A19
100
AcDbEntity
  8
DEFPOINTS
  6
Continuous
 62
     0
440
 16777216
100
AcDbPoint
 10
145.9923778520064
 20
-24.98970744689656
 30
0.0
  0
POINT
  5
6501
330
5A19
100
AcDbEntity
  8
DEFPOINTS
  6
Continuous
 62
     0
440
 16777216
100
AcDbPoint
 10
217.9923778520064
 20
-77.48970744689656
 30
0.0
  0
POINT
  5
6502
330
5A19
100
AcDbEntity
  8
DEFPOINTS
  6
Continuous
 62
     0
440
 16777216
100
AcDbPoint
 10
217.9923778520064
 20
-121.8996550098397
 30
0.0
  0
ENDBLK
  5
5A24
330
5A19
100
AcDbEntity
  8
0
100
AcDbBlockEnd
  0
BLOCK
  5
5A2F
330
5A25
100
AcDbEntity
  8
0
100
AcDbBlockBegin
  2
*D7
 70
     1
 10
0.0
 20
0.0
 30
0.0
  3
*D7
  1

  0
LINE
  5
6515
330
5A25
100
AcDbEntity
  8
30
  6
Continuous
 62
     0
440
 16777216
100
AcDbLine
 10
140.9923778520064
 20
-24.98970744689656
 30
0.0
 11
112.8096155908131
 21
-24.98970744689652
 31
0.0
  0
LINE
  5
6516
330
5A25
100
AcDbEntity
  8
30
  6
Continuous
 62
     0
440
 16777216
100
AcDbLine
 10
140.9923778520064
 20
25.01029255310343
 30
0.0
 11
112.8096155908131
 21
25.01029255310343
 31
0.0
  0
LINE
  5
6517
330
5A25
100
AcDbEntity
  8
30
  6
Continuous
 62
     0
440
 16777216
100
AcDbLine
 10
113.3096155908132
 20
-22.98970744689654
 30
0.0
 11
113.3096155908132
 21
23.01029255310342
 31
0.0
  0
INSERT
  5
6518
330
5A25
100
AcDbEntity
  8
30
  6
Continuous
 62
     0
440
 16777216
100
AcDbBlockReference
  2
_OPEN
 10
113.3096155908132
 20
-24.98970744689652
 30
0.0
 41
2.0
 42
2.0
 43
2.0
 50
270.0
  0
INSERT
  5
6519
330
5A25
100
AcDbEntity
  8
30
  6
Continuous
 62
     0
440
 16777216
100
AcDbBlockReference
  2
_OPEN
 10
113.3096155908132
 20
25.01029255310343
 30
0.0
 41
2.0
 42
2.0
 43
2.0
 50
90.0
  0
MTEXT
  5
651A
330
5A25
100
AcDbEntity
  8
30
  6
Continuous
 62
     0
440
 16777216
100
AcDbMText
 10
110.3096155908132
 20
0.010292553103462
 30
0.0
 40
4.0
 41
0.0
 46
0.0
 71
     5
 72
     1
  1
\A1;50
 11
0.0000000000000001
 21
1.0
 31
0.0
 73
     1
 44
1.0
1001
ACAD
1000
MTEXTBEGIN
1070
    73
1070
     1
1070
    44
1040
1.0
1070
    74
1070
     0
1000
MTEXTEND
  0
POINT
  5
651B
330
5A25
100
AcDbEntity
  8
DEFPOINTS
  6
Continuous
 62
     0
440
 16777216
100
AcDbPoint
 10
141.9923778520064
 20
-24.98970744689656
 30
0.0
  0
POINT
  5
651C
330
5A25
100
AcDbEntity
  8
DEFPOINTS
  6
Continuous
 62
     0
440
 16777216
100
AcDbPoint
 10
141.9923778520064
 20
25.01029255310343
 30
0.0
  0
POINT
  5
651D
330
5A25
100
AcDbEntity
  8
DEFPOINTS
  6
Continuous
 62
     0
440
 16777216
100
AcDbPoint
 10
113.3096155908132
 20
25.01029255310343
 30
0.0
  0
ENDBLK
  5
5A30
330
5A25
100
AcDbEntity
  8
0
100
AcDbBlockEnd
  0
BLOCK
  5
5A3B
330
5A31
100
AcDbEntity
  8
0
100
AcDbBlockBegin
  2
*D8
 70
     1
 10
0.0
 20
0.0
 30
0.0
  3
*D8
  1

  0
LINE
  5
653A
330
5A31
100
AcDbEntity
  8
30
  6
Continuous
 62
     0
440
 16777216
100
AcDbLine
 10
193.9923778520064
 20
78.51029255310347
 30
0.0
 11
193.9923778520064
 21
108.7608744091518
 31
0.0
  0
LINE
  5
653B
330
5A31
100
AcDbEntity
  8
30
  6
Continuous
 62
     0
440
 16777216
100
AcDbLine
 10
217.9923778520064
 20
78.51029255310354
 30
0.0
 11
217.9923778520064
 21
108.7608744091518
 31
0.0
  0
LINE
  5
653C
330
5A31
100
AcDbEntity
  8
30
  6
Continuous
 62
     0
440
 16777216
100
AcDbLine
 10
195.9923778520064
 20
108.2608744091517
 30
0.0
 11
215.9923778520064
 21
108.2608744091517
 31
0.0
  0
INSERT
  5
653D
330
5A31
100
AcDbEntity
  8
30
  6
Continuous
 62
     0
440
 16777216
100
AcDbBlockReference
  2
_OPEN
 10
193.9923778520064
 20
108.2608744091517
 30
0.0
 41
2.0
 42
2.0
 43
2.0
 50
180.0
  0
INSERT
  5
653E
330
5A31
100
AcDbEntity
  8
30
  6
Continuous
 62
     0
440
 16777216
100
AcDbBlockReference
  2
_OPEN
 10
217.9923778520064
 20
108.2608744091517
 30
0.0
 41
2.0
 42
2.0
 43
2.0
  0
MTEXT
  5
653F
330
5A31
100
AcDbEntity
  8
30
  6
Continuous
 62
     0
440
 16777216
100
AcDbMText
 10
205.9923778520064
 20
111.2608744091517
 30
0.0
 40
4.0
 41
0.0
 46
0.0
 71
     5
 72
     1
  1
\A1;24
 73
     1
 44
1.0
1001
ACAD
1000
MTEXTBEGIN
1070
    73
1070
     1
1070
    44
1040
1.0
1070
    74
1070
     0
1000
MTEXTEND
  0
POINT
  5
6540
330
5A31
100
AcDbEntity
  8
DEFPOINTS
  6
Continuous
 62
     0
440
 16777216
100
AcDbPoint
 10
193.9923778520064
 20
77.51029255310347
 30
0.0
  0
POINT
  5
6541
330
5A31
100
AcDbEntity
  8
DEFPOINTS
  6
Continuous
 62
     0
440
 16777216
100
AcDbPoint
 10
217.9923778520064
 20
77.51029255310354
 30
0.0
  0
POINT
  5
6542
330
5A31
100
AcDbEntity
  8
DEFPOINTS
  6
Continuous
 62
     0
440
 16777216
100
AcDbPoint
 10
217.9923778520064
 20
108.2608744091517
 30
0.0
  0
ENDBLK
  5
5A3C
330
5A31
100
AcDbEntity
  8
0
100
AcDbBlockEnd
  0
BLOCK
  5
5A47
330
5A3D
100
AcDbEntity
  8
0
100
AcDbBlockBegin
  2
*D9
 70
     1
 10
0.0
 20
0.0
 30
0.0
  3
*D9
  1

  0
LINE
  5
6503
330
5A3D
100
AcDbEntity
  8
30
  6
Continuous
 62
     0
440
 16777216
100
AcDbLine
 10
149.9923778520065
 20
-51.98970744689663
 30
0.0
 11
149.9923778520065
 21
-109.9248887595565
 31
0.0
  0
LINE
  5
6504
330
5A3D
100
AcDbEntity
  8
30
  6
Continuous
 62
     0
440
 16777216
100
AcDbLine
 10
217.9923778520064
 20
-78.48970744689656
 30
0.0
 11
217.9923778520064
 21
-109.9248887595565
 31
0.0
  0
LINE
  5
6505
330
5A3D
100
AcDbEntity
  8
30
  6
Continuous
 62
     0
440
 16777216
100
AcDbLine
 10
151.9923778520064
 20
-109.4248887595564
 30
0.0
 11
215.9923778520064
 21
-109.4248887595564
 31
0.0
  0
INSERT
  5
6506
330
5A3D
100
AcDbEntity
  8
30
  6
Continuous
 62
     0
440
 16777216
100
AcDbBlockReference
  2
_OPEN
 10
149.9923778520065
 20
-109.4248887595564
 30
0.0
 41
2.0
 42
2.0
 43
2.0
 50
180.0
  0
INSERT
  5
6507
330
5A3D
100
AcDbEntity
  8
30
  6
Continuous
 62
     0
440
 16777216
100
AcDbBlockReference
  2
_OPEN
 10
217.9923778520064
 20
-109.4248887595564
 30
0.0
 41
2.0
 42
2.0
 43
2.0
  0
MTEXT
  5
6508
330
5A3D
100
AcDbEntity
  8
30
  6
Continuous
 62
     0
440
 16777216
100
AcDbMText
 10
183.9923778520064
 20
-106.4248887595564
 30
0.0
 40
4.0
 41
0.0
 46
0.0
 71
     5
 72
     1
  1
\A1;68
 73
     1
 44
1.0
1001
ACAD
1000
MTEXTBEGIN
1070
    73
1070
     1
1070
    44
1040
1.0
1070
    74
1070
     0
1000
MTEXTEND
  0
POINT
  5
6509
330
5A3D
100
AcDbEntity
  8
DEFPOINTS
  6
Continuous
 62
     0
440
 16777216
100
AcDbPoint
 10
149.9923778520065
 20
-50.98970744689665
 30
0.0
  0
POINT
  5
650A
330
5A3D
100
AcDbEntity
  8
DEFPOINTS
  6
Continuous
 62
     0
440
 16777216
100
AcDbPoint
 10
217.9923778520064
 20
-77.48970744689656
 30
0.0
  0
POINT
  5
650B
330
5A3D
100
AcDbEntity
  8
DEFPOINTS
  6
Continuous
 62
     0
440
 16777216
100
AcDbPoint
 10
217.9923778520064
 20
-109.4248887595564
 30
0.0
  0
ENDBLK
  5
5A48
330
5A3D
100
AcDbEntity
  8
0
100
AcDbBlockEnd
  0
BLOCK
  5
5A53
330
5A49
100
AcDbEntity
  8
0
100
AcDbBlockBegin
  2
*D10
 70
     1
 10
0.0
 20
0.0
 30
0.0
  3
*D10
  1

  0
LINE
  5
650C
330
5A49
100
AcDbEntity
  8
30
  6
Continuous
 62
     0
440
 16777216
100
AcDbLine
 10
156.9923778520063
 20
-78.48970744689656
 30
0.0
 11
156.9923778520063
 21
-98.33544422304399
 31
0.0
  0
LINE
  5
650D
330
5A49
100
AcDbEntity
  8
30
  6
Continuous
 62
     0
440
 16777216
100
AcDbLine
 10
217.9923778520064
 20
-78.48970744689656
 30
0.0
 11
217.9923778520064
 21
-98.33544422304399
 31
0.0
  0
LINE
  5
650E
330
5A49
100
AcDbEntity
  8
30
  6
Continuous
 62
     0
440
 16777216
100
AcDbLine
 10
158.9923778520063
 20
-97.83544422304402
 30
0.0
 11
215.9923778520064
 21
-97.83544422304402
 31
0.0
  0
INSERT
  5
650F
330
5A49
100
AcDbEntity
  8
30
  6
Continuous
 62
     0
440
 16777216
100
AcDbBlockReference
  2
_OPEN
 10
156.9923778520063
 20
-97.83544422304402
 30
0.0
 41
2.0
 42
2.0
 43
2.0
 50
180.0
  0
INSERT
  5
6510
330
5A49
100
AcDbEntity
  8
30
  6
Continuous
 62
     0
440
 16777216
100
AcDbBlockReference
  2
_OPEN
 10
217.9923778520064
 20
-97.83544422304402
 30
0.0
 41
2.0
 42
2.0
 43
2.0
  0
MTEXT
  5
6511
330
5A49
100
AcDbEntity
  8
30
  6
Continuous
 62
     0
440
 16777216
100
AcDbMText
 10
187.4923778520065
 20
-94.83544422304399
 30
0.0
 40
4.0
 41
0.0
 46
0.0
 71
     5
 72
     1
  1
\A1;61
 73
     1
 44
1.0
1001
ACAD
1000
MTEXTBEGIN
1070
    73
1070
     1
1070
    44
1040
1.0
1070
    74
1070
     0
1000
MTEXTEND
  0
POINT
  5
6512
330
5A49
100
AcDbEntity
  8
DEFPOINTS
  6
Continuous
 62
     0
440
 16777216
100
AcDbPoint
 10
156.9923778520063
 20
-77.48970744689656
 30
0.0
  0
POINT
  5
6513
330
5A49
100
AcDbEntity
  8
DEFPOINTS
  6
Continuous
 62
     0
440
 16777216
100
AcDbPoint
 10
217.9923778520064
 20
-77.48970744689656
 30
0.0
  0
POINT
  5
6514
330
5A49
100
AcDbEntity
  8
DEFPOINTS
  6
Continuous
 62
     0
440
 16777216
100
AcDbPoint
 10
217.9923778520064
 20
-97.83544422304402
 30
0.0
  0
ENDBLK
  5
5A54
330
5A49
100
AcDbEntity
  8
0
100
AcDbBlockEnd
  0
BLOCK
  5
5A5F
330
5A55
100
AcDbEntity
  8
0
100
AcDbBlockBegin
  2
*D11
 70
     1
 10
0.0
 20
0.0
 30
0.0
  3
*D11
  1

  0
LINE
  5
6531
330
5A55
100
AcDbEntity
  8
30
  6
Continuous
 62
     0
440
 16777216
100
AcDbLine
 10
172.9923778520064
 20
-71.23970744689656
 30
0.0
 11
172.9923778520064
 21
-88.0739814398534
 31
0.0
  0
LINE
  5
6532
330
5A55
100
AcDbEntity
  8
30
  6
Continuous
 62
     0
440
 16777216
100
AcDbLine
 10
217.9923778520064
 20
-78.48970744689656
 30
0.0
 11
217.9923778520064
 21
-88.0739814398534
 31
0.0
  0
LINE
  5
6533
330
5A55
100
AcDbEntity
  8
30
  6
Continuous
 62
     0
440
 16777216
100
AcDbLine
 10
174.9923778520065
 20
-87.57398143985339
 30
0.0
 11
215.9923778520064
 21
-87.57398143985339
 31
0.0
  0
INSERT
  5
6534
330
5A55
100
AcDbEntity
  8
30
  6
Continuous
 62
     0
440
 16777216
100
AcDbBlockReference
  2
_OPEN
 10
172.9923778520064
 20
-87.57398143985339
 30
0.0
 41
2.0
 42
2.0
 43
2.0
 50
180.0
  0
INSERT
  5
6535
330
5A55
100
AcDbEntity
  8
30
  6
Continuous
 62
     0
440
 16777216
100
AcDbBlockReference
  2
_OPEN
 10
217.9923778520064
 20
-87.57398143985339
 30
0.0
 41
2.0
 42
2.0
 43
2.0
  0
MTEXT
  5
6536
330
5A55
100
AcDbEntity
  8
30
  6
Continuous
 62
     0
440
 16777216
100
AcDbMText
 10
195.4923778520064
 20
-84.57398143985342
 30
0.0
 40
4.0
 41
0.0
 46
0.0
 71
     5
 72
     1
  1
\A1;45
 73
     1
 44
1.0
1001
ACAD
1000
MTEXTBEGIN
1070
    73
1070
     1
1070
    44
1040
1.0
1070
    74
1070
     0
1000
MTEXTEND
  0
POINT
  5
6537
330
5A55
100
AcDbEntity
  8
DEFPOINTS
  6
Continuous
 62
     0
440
 16777216
100
AcDbPoint
 10
172.9923778520064
 20
-70.23970744689655
 30
0.0
  0
POINT
  5
6538
330
5A55
100
AcDbEntity
  8
DEFPOINTS
  6
Continuous
 62
     0
440
 16777216
100
AcDbPoint
 10
217.9923778520064
 20
-77.48970744689656
 30
0.0
  0
POINT
  5
6539
330
5A55
100
AcDbEntity
  8
DEFPOINTS
  6
Continuous
 62
     0
440
 16777216
100
AcDbPoint
 10
217.9923778520064
 20
-87.57398143985339
 30
0.0
  0
ENDBLK
  5
5A60
330
5A55
100
AcDbEntity
  8
0
100
AcDbBlockEnd
  0
BLOCK
  5
5A6B
330
5A61
100
AcDbEntity
  8
0
100
AcDbBlockBegin
  2
*D12
 70
     1
 10
0.0
 20
0.0
 30
0.0
  3
*D12
  1

  0
LINE
  5
6543
330
5A61
100
AcDbEntity
  8
30
  6
Continuous
 62
     0
440
 16777216
100
AcDbLine
 10
257.4923778520064
 20
42.01029255310347
 30
0.0
 11
257.4923778520064
 21
27.1098009537836
 31
0.0
  0
LINE
  5
6544
330
5A61
100
AcDbEntity
  8
30
  6
Continuous
 62
     0
440
 16777216
100
AcDbLine
 10
274.4923778520064
 20
42.01029255310347
 30
0.0
 11
274.4923778520064
 21
27.1098009537836
 31
0.0
  0
LINE
  5
6545
330
5A61
100
AcDbEntity
  8
30
  6
Continuous
 62
     0
440
 16777216
100
AcDbLine
 10
259.4923778520064
 20
27.6098009537836
 30
0.0
 11
272.4923778520064
 21
27.6098009537836
 31
0.0
  0
INSERT
  5
6546
330
5A61
100
AcDbEntity
  8
30
  6
Continuous
 62
     0
440
 16777216
100
AcDbBlockReference
  2
_OPEN
 10
257.4923778520064
 20
27.6098009537836
 30
0.0
 41
2.0
 42
2.0
 43
2.0
 50
180.0
  0
INSERT
  5
6547
330
5A61
100
AcDbEntity
  8
30
  6
Continuous
 62
     0
440
 16777216
100
AcDbBlockReference
  2
_OPEN
 10
274.4923778520064
 20
27.6098009537836
 30
0.0
 41
2.0
 42
2.0
 43
2.0
  0
MTEXT
  5
6548
330
5A61
100
AcDbEntity
  8
30
  6
Continuous
 62
     0
440
 16777216
100
AcDbMText
 10
265.9923778520066
 20
30.6098009537836
 30
0.0
 40
4.0
 41
0.0
 46
0.0
 71
     5
 72
     1
  1
\A1;17
 73
     1
 44
1.0
1001
ACAD
1000
MTEXTBEGIN
1070
    73
1070
     1
1070
    44
1040
1.0
1070
    74
1070
     0
1000
MTEXTEND
  0
POINT
  5
6549
330
5A61
100
AcDbEntity
  8
DEFPOINTS
  6
Continuous
 62
     0
440
 16777216
100
AcDbPoint
 10
257.4923778520064
 20
43.01029255310345
 30
0.0
  0
POINT
  5
654A
330
5A61
100
AcDbEntity
  8
DEFPOINTS
  6
Continuous
 62
     0
440
 16777216
100
AcDbPoint
 10
274.4923778520064
 20
43.01029255310345
 30
0.0
  0
POINT
  5
654B
330
5A61
100
AcDbEntity
  8
DEFPOINTS
  6
Continuous
 62
     0
440
 16777216
100
AcDbPoint
 10
274.4923778520064
 20
27.6098009537836
 30
0.0
  0
ENDBLK
  5
5A6C
330
5A61
100
AcDbEntity
  8
0
100
AcDbBlockEnd
  0
BLOCK
  5
5A79
330
5A6D
100
AcDbEntity
  8
0
100
AcDbBlockBegin
  2
*D13
 70
     1
 10
0.0
 20
0.0
 30
0.0
  3
*D13
  1

  0
LINE
  5
654C
330
5A6D
100
AcDbEntity
  8
30
  6
Continuous
 62
     0
440
 16777216
100
AcDbLine
 10
275.4923778520065
 20
43.01029255310345
 30
0.0
 11
289.5791003447947
 21
43.01029255310345
 31
0.0
  0
LINE
  5
654D
330
5A6D
100
AcDbEntity
  8
30
  6
Continuous
 62
     0
440
 16777216
100
AcDbLine
 10
269.4923778685065
 20
51.51029255310342
 30
0.0
 11
289.5791003447947
 21
51.51029255310342
 31
0.0
  0
LINE
  5
654E
330
5A6D
100
AcDbEntity
  8
30
  6
Continuous
 62
     0
440
 16777216
100
AcDbLine
 10
289.0791003447947
 20
45.01029255310347
 30
0.0
 11
289.0791003447947
 21
49.51029255310341
 31
0.0
  0
LINE
  5
654F
330
5A6D
100
AcDbEntity
  8
30
  6
Continuous
 62
     0
440
 16777216
100
AcDbLine
 10
289.0791003447947
 20
51.51029255310342
 30
0.0
 11
289.0791003447947
 21
53.51029255310342
 31
0.0
  0
LINE
  5
6550
330
5A6D
100
AcDbEntity
  8
30
  6
Continuous
 62
     0
440
 16777216
100
AcDbLine
 10
289.0791003447947
 20
53.51029255310342
 30
0.0
 11
298.0791003447947
 21
53.51029255310342
 31
0.0
  0
INSERT
  5
6551
330
5A6D
100
AcDbEntity
  8
30
  6
Continuous
 62
     0
440
 16777216
100
AcDbBlockReference
  2
_OPEN
 10
289.0791003447947
 20
43.01029255310345
 30
0.0
 41
2.0
 42
2.0
 43
2.0
 50
270.0
  0
INSERT
  5
6552
330
5A6D
100
AcDbEntity
  8
30
  6
Continuous
 62
     0
440
 16777216
100
AcDbBlockReference
  2
_OPEN
 10
289.0791003447947
 20
51.51029255310342
 30
0.0
 41
2.0
 42
2.0
 43
2.0
 50
90.0
  0
MTEXT
  5
6553
330
5A6D
100
AcDbEntity
  8
30
  6
Continuous
 62
     0
440
 16777216
100
AcDbMText
 10
294.0791003447947
 20
56.51029255310345
 30
0.0
 40
4.0
 41
0.0
 46
0.0
 71
     5
 72
     1
  1
\A1;8.5
 73
     1
 44
1.0
1001
ACAD
1000
MTEXTBEGIN
1070
    73
1070
     1
1070
    44
1040
1.0
1070
    74
1070
     0
1000
MTEXTEND
  0
POINT
  5
6554
330
5A6D
100
AcDbEntity
  8
DEFPOINTS
  6
Continuous
 62
     0
440
 16777216
100
AcDbPoint
 10
274.4923778520064
 20
43.01029255310345
 30
0.0
  0
POINT
  5
6555
330
5A6D
100
AcDbEntity
  8
DEFPOINTS
  6
Continuous
 62
     0
440
 16777216
100
AcDbPoint
 10
268.4923778685063
 20
51.51029255310342
 30
0.0
  0
POINT
  5
6556
330
5A6D
100
AcDbEntity
  8
DEFPOINTS
  6
Continuous
 62
     0
440
 16777216
100
AcDbPoint
 10
289.0791003447947
 20
51.51029255310342
 30
0.0
  0
ENDBLK
  5
5A7A
330
5A6D
100
AcDbEntity
  8
0
100
AcDbBlockEnd
  0
BLOCK
  5
5E86
330
5E7C
100
AcDbEntity
  8
0
100
AcDbBlockBegin
  2
*D14
 70
     1
 10
0.0
 20
0.0
 30
0.0
  3
*D14
  1

  0
LINE
  5
6316
330
5E7C
100
AcDbEntity
  8
30
  6
Continuous
 62
     0
440
 16777216
100
AcDbLine
 10
-41.99999999999996
 20
25.99999999999996
 30
0.0
 11
-41.99999999999996
 21
33.09950840068014
 31
0.0
  0
LINE
  5
6317
330
5E7C
100
AcDbEntity
  8
30
  6
Continuous
 62
     0
440
 16777216
100
AcDbLine
 10
42.00000000000001
 20
25.99999999999996
 30
0.0
 11
42.00000000000001
 21
33.09950840068014
 31
0.0
  0
LINE
  5
6318
330
5E7C
100
AcDbEntity
  8
30
  6
Continuous
 62
     0
440
 16777216
100
AcDbLine
 10
-39.99999999999996
 20
32.59950840068015
 30
0.0
 11
40.0
 21
32.59950840068015
 31
0.0
  0
INSERT
  5
6319
330
5E7C
100
AcDbEntity
  8
30
  6
Continuous
 62
     0
440
 16777216
100
AcDbBlockReference
  2
_OPEN
 10
-41.99999999999996
 20
32.59950840068015
 30
0.0
 41
2.0
 42
2.0
 43
2.0
 50
180.0
  0
INSERT
  5
631A
330
5E7C
100
AcDbEntity
  8
30
  6
Continuous
 62
     0
440
 16777216
100
AcDbBlockReference
  2
_OPEN
 10
42.00000000000001
 20
32.59950840068015
 30
0.0
 41
2.0
 42
2.0
 43
2.0
  0
MTEXT
  5
631B
330
5E7C
100
AcDbEntity
  8
30
  6
Continuous
 62
     0
440
 16777216
100
AcDbMText
 10
0.0000000000000215
 20
35.59950840068014
 30
0.0
 40
4.0
 41
0.0
 46
0.0
 71
     5
 72
     1
  1
\A1;84
 73
     1
 44
1.0
1001
ACAD
1000
MTEXTBEGIN
1070
    73
1070
     1
1070
    44
1040
1.0
1070
    74
1070
     0
1000
MTEXTEND
  0
POINT
  5
631C
330
5E7C
100
AcDbEntity
  8
DEFPOINTS
  6
Continuous
 62
     0
440
 16777216
100
AcDbPoint
 10
-41.99999999999996
 20
24.99999999999996
 30
0.0
  0
POINT
  5
631D
330
5E7C
100
AcDbEntity
  8
DEFPOINTS
  6
Continuous
 62
     0
440
 16777216
100
AcDbPoint
 10
42.00000000000001
 20
24.99999999999996
 30
0.0
  0
POINT
  5
631E
330
5E7C
100
AcDbEntity
  8
DEFPOINTS
  6
Continuous
 62
     0
440
 16777216
100
AcDbPoint
 10
42.00000000000001
 20
32.59950840068015
 30
0.0
  0
ENDBLK
  5
5E87
330
5E7C
100
AcDbEntity
  8
0
100
AcDbBlockEnd
  0
BLOCK
  5
5E92
330
5E88
100
AcDbEntity
  8
0
100
AcDbBlockBegin
  2
*D15
 70
     1
 10
0.0
 20
0.0
 30
0.0
  3
*D15
  1

  0
LINE
  5
630D
330
5E88
100
AcDbEntity
  8
30
  6
Continuous
 62
     0
440
 16777216
100
AcDbLine
 10
-44.99999999999997
 20
-78.50000000000003
 30
0.0
 11
-44.99999999999997
 21
-122.2494181439514
 31
0.0
  0
LINE
  5
630E
330
5E88
100
AcDbEntity
  8
30
  6
Continuous
 62
     0
440
 16777216
100
AcDbLine
 10
75.00000000000003
 20
-78.50000000000003
 30
0.0
 11
75.00000000000003
 21
-122.2494181439514
 31
0.0
  0
LINE
  5
630F
330
5E88
100
AcDbEntity
  8
30
  6
Continuous
 62
     0
440
 16777216
100
AcDbLine
 10
-42.99999999999997
 20
-121.7494181439514
 30
0.0
 11
73.00000000000003
 21
-121.7494181439514
 31
0.0
  0
INSERT
  5
6310
330
5E88
100
AcDbEntity
  8
30
  6
Continuous
 62
     0
440
 16777216
100
AcDbBlockReference
  2
_OPEN
 10
-44.99999999999997
 20
-121.7494181439514
 30
0.0
 41
2.0
 42
2.0
 43
2.0
 50
180.0
  0
INSERT
  5
6311
330
5E88
100
AcDbEntity
  8
30
  6
Continuous
 62
     0
440
 16777216
100
AcDbBlockReference
  2
_OPEN
 10
75.00000000000003
 20
-121.7494181439514
 30
0.0
 41
2.0
 42
2.0
 43
2.0
  0
MTEXT
  5
6312
330
5E88
100
AcDbEntity
  8
30
  6
Continuous
 62
     0
440
 16777216
100
AcDbMText
 10
15.0
 20
-118.7494181439514
 30
0.0
 40
4.0
 41
0.0
 46
0.0
 71
     5
 72
     1
  1
\A1;120
 73
     1
 44
1.0
1001
ACAD
1000
MTEXTBEGIN
1070
    73
1070
     1
1070
    44
1040
1.0
1070
    74
1070
     0
1000
MTEXTEND
  0
POINT
  5
6313
330
5E88
100
AcDbEntity
  8
DEFPOINTS
  6
Continuous
 62
     0
440
 16777216
100
AcDbPoint
 10
-44.99999999999997
 20
-77.50000000000003
 30
0.0
  0
POINT
  5
6314
330
5E88
100
AcDbEntity
  8
DEFPOINTS
  6
Continuous
 62
     0
440
 16777216
100
AcDbPoint
 10
75.00000000000003
 20
-77.50000000000003
 30
0.0
  0
POINT
  5
6315
330
5E88
100
AcDbEntity
  8
DEFPOINTS
  6
Continuous
 62
     0
440
 16777216
100
AcDbPoint
 10
75.00000000000003
 20
-121.7494181439514
 30
0.0
  0
ENDBLK
  5
5E93
330
5E88
100
AcDbEntity
  8
0
100
AcDbBlockEnd
  0
BLOCK
  5
5E9E
330
5E94
100
AcDbEntity
  8
0
100
AcDbBlockBegin
  2
*D16
 70
     1
 10
0.0
 20
0.0
 30
0.0
  3
*D16
  1

  0
LINE
  5
6304
330
5E94
100
AcDbEntity
  8
30
  6
Continuous
 62
     0
440
 16777216
100
AcDbLine
 10
-29.99999999999995
 20
-70.50000001650004
 30
0.0
 11
-29.99999999999995
 21
-102.2494181439514
 31
0.0
  0
LINE
  5
6305
330
5E94
100
AcDbEntity
  8
30
  6
Continuous
 62
     0
440
 16777216
100
AcDbLine
 10
30.00000000000003
 20
-70.50000001650004
 30
0.0
 11
30.00000000000001
 21
-102.2494181439514
 31
0.0
  0
LINE
  5
6306
330
5E94
100
AcDbEntity
  8
30
  6
Continuous
 62
     0
440
 16777216
100
AcDbLine
 10
-27.99999999999994
 20
-101.7494181439513
 30
0.0
 11
28.00000000000002
 21
-101.7494181439513
 31
0.0
  0
INSERT
  5
6307
330
5E94
100
AcDbEntity
  8
30
  6
Continuous
 62
     0
440
 16777216
100
AcDbBlockReference
  2
_OPEN
 10
-29.99999999999995
 20
-101.7494181439513
 30
0.0
 41
2.0
 42
2.0
 43
2.0
 50
180.0
  0
INSERT
  5
6308
330
5E94
100
AcDbEntity
  8
30
  6
Continuous
 62
     0
440
 16777216
100
AcDbBlockReference
  2
_OPEN
 10
30.00000000000001
 20
-101.7494181439513
 30
0.0
 41
2.0
 42
2.0
 43
2.0
  0
MTEXT
  5
6309
330
5E94
100
AcDbEntity
  8
30
  6
Continuous
 62
     0
440
 16777216
100
AcDbMText
 10
0.000000000000041
 20
-98.7494181439515
 30
0.0
 40
4.0
 41
0.0
 46
0.0
 71
     5
 72
     1
  1
\A1;60
 73
     1
 44
1.0
1001
ACAD
1000
MTEXTBEGIN
1070
    73
1070
     1
1070
    44
1040
1.0
1070
    74
1070
     0
1000
MTEXTEND
  0
POINT
  5
630A
330
5E94
100
AcDbEntity
  8
DEFPOINTS
  6
Continuous
 62
     0
440
 16777216
100
AcDbPoint
 10
-29.99999999999995
 20
-69.50000001650003
 30
0.0
  0
POINT
  5
630B
330
5E94
100
AcDbEntity
  8
DEFPOINTS
  6
Continuous
 62
     0
440
 16777216
100
AcDbPoint
 10
30.00000000000003
 20
-69.50000001650003
 30
0.0
  0
POINT
  5
630C
330
5E94
100
AcDbEntity
  8
DEFPOINTS
  6
Continuous
 62
     0
440
 16777216
100
AcDbPoint
 10
30.00000000000001
 20
-101.7494181439513
 30
0.0
  0
ENDBLK
  5
5E9F
330
5E94
100
AcDbEntity
  8
0
100
AcDbBlockEnd
  0
BLOCK
  5
5EAA
330
5EA0
100
AcDbEntity
  8
0
100
AcDbBlockBegin
  2
*D17
 70
     1
 10
0.0
 20
0.0
 30
0.0
  3
*D17
  1

  0
LINE
  5
62FB
330
5EA0
100
AcDbEntity
  8
30
  6
Continuous
 62
     0
440
 16777216
100
AcDbLine
 10
-10.99999999999999
 20
-25.99999999999999
 30
0.0
 11
-11.0
 21
-42.2494181439515
 31
0.0
  0
LINE
  5
62FC
330
5EA0
100
AcDbEntity
  8
30
  6
Continuous
 62
     0
440
 16777216
100
AcDbLine
 10
11.00000000000003
 20
-25.99999999999999
 30
0.0
 11
11.00000000000003
 21
-42.2494181439515
 31
0.0
  0
LINE
  5
62FD
330
5EA0
100
AcDbEntity
  8
30
  6
Continuous
 62
     0
440
 16777216
100
AcDbLine
 10
-9.0
 20
-41.74941814395149
 30
0.0
 11
9.000000000000056
 21
-41.74941814395149
 31
0.0
  0
INSERT
  5
62FE
330
5EA0
100
AcDbEntity
  8
30
  6
Continuous
 62
     0
440
 16777216
100
AcDbBlockReference
  2
_OPEN
 10
-11.0
 20
-41.74941814395149
 30
0.0
 41
2.0
 42
2.0
 43
2.0
 50
180.0
  0
INSERT
  5
62FF
330
5EA0
100
AcDbEntity
  8
30
  6
Continuous
 62
     0
440
 16777216
100
AcDbBlockReference
  2
_OPEN
 10
11.00000000000003
 20
-41.74941814395149
 30
0.0
 41
2.0
 42
2.0
 43
2.0
  0
MTEXT
  5
6300
330
5EA0
100
AcDbEntity
  8
30
  6
Continuous
 62
     0
440
 16777216
100
AcDbMText
 10
0.0000000000000286
 20
-38.74941814395151
 30
0.0
 40
4.0
 41
0.0
 46
0.0
 71
     5
 72
     1
  1
\A1;22
 73
     1
 44
1.0
1001
ACAD
1000
MTEXTBEGIN
1070
    73
1070
     1
1070
    44
1040
1.0
1070
    74
1070
     0
1000
MTEXTEND
  0
POINT
  5
6301
330
5EA0
100
AcDbEntity
  8
DEFPOINTS
  6
Continuous
 62
     0
440
 16777216
100
AcDbPoint
 10
-10.99999999999999
 20
-25.0
 30
0.0
  0
POINT
  5
6302
330
5EA0
100
AcDbEntity
  8
DEFPOINTS
  6
Continuous
 62
     0
440
 16777216
100
AcDbPoint
 10
11.00000000000003
 20
-25.0
 30
0.0
  0
POINT
  5
6303
330
5EA0
100
AcDbEntity
  8
DEFPOINTS
  6
Continuous
 62
     0
440
 16777216
100
AcDbPoint
 10
11.00000000000003
 20
-41.74941814395149
 30
0.0
  0
ENDBLK
  5
5EAB
330
5EA0
100
AcDbEntity
  8
0
100
AcDbBlockEnd
  0
BLOCK
  5
5F03
330
5EF9
100
AcDbEntity
  8
0
100
AcDbBlockBegin
  2
*D18
 70
     1
 10
0.0
 20
0.0
 30
0.0
  3
*D18
  1

  0
LINE
  5
6594
330
5EF9
100
AcDbEntity
  8
30
  6
Continuous
 62
     0
440
 16777216
100
AcDbLine
 10
-15.38009453517117
 20
-325.1631237443548
 30
0.0
 11
-15.38009453517118
 21
-354.9125418883062
 31
0.0
  0
LINE
  5
6595
330
5EF9
100
AcDbEntity
  8
30
  6
Continuous
 62
     0
440
 16777216
100
AcDbLine
 10
14.61990546482881
 20
-322.163123760855
 30
0.0
 11
14.61990546482881
 21
-354.9125418883062
 31
0.0
  0
LINE
  5
6596
330
5EF9
100
AcDbEntity
  8
30
  6
Continuous
 62
     0
440
 16777216
100
AcDbLine
 10
-13.38009453517118
 20
-354.4125418883063
 30
0.0
 11
12.61990546482881
 21
-354.4125418883063
 31
0.0
  0
INSERT
  5
6597
330
5EF9
100
AcDbEntity
  8
30
  6
Continuous
 62
     0
440
 16777216
100
AcDbBlockReference
  2
_OPEN
 10
-15.38009453517118
 20
-354.4125418883063
 30
0.0
 41
2.0
 42
2.0
 43
2.0
 50
180.0
  0
INSERT
  5
6598
330
5EF9
100
AcDbEntity
  8
30
  6
Continuous
 62
     0
440
 16777216
100
AcDbBlockReference
  2
_OPEN
 10
14.61990546482881
 20
-354.4125418883063
 30
0.0
 41
2.0
 42
2.0
 43
2.0
  0
MTEXT
  5
6599
330
5EF9
100
AcDbEntity
  8
30
  6
Continuous
 62
     0
440
 16777216
100
AcDbMText
 10
-0.3800945351711904
 20
-351.4125418883062
 30
0.0
 40
4.0
 41
0.0
 46
0.0
 71
     5
 72
     1
  1
\A1;30
 73
     1
 44
1.0
1001
ACAD
1000
MTEXTBEGIN
1070
    73
1070
     1
1070
    44
1040
1.0
1070
    74
1070
     0
1000
MTEXTEND
  0
POINT
  5
659A
330
5EF9
100
AcDbEntity
  8
DEFPOINTS
  6
Continuous
 62
     0
440
 16777216
100
AcDbPoint
 10
-15.38009453517117
 20
-324.1631237443548
 30
0.0
  0
POINT
  5
659B
330
5EF9
100
AcDbEntity
  8
DEFPOINTS
  6
Continuous
 62
     0
440
 16777216
100
AcDbPoint
 10
14.61990546482881
 20
-321.163123760855
 30
0.0
  0
POINT
  5
659C
330
5EF9
100
AcDbEntity
  8
DEFPOINTS
  6
Continuous
 62
     0
440
 16777216
100
AcDbPoint
 10
14.61990546482881
 20
-354.4125418883063
 30
0.0
  0
ENDBLK
  5
5F04
330
5EF9
100
AcDbEntity
  8
0
100
AcDbBlockEnd
  0
BLOCK
  5
5F76
330
5F6C
100
AcDbEntity
  8
0
100
AcDbBlockBegin
  2
*D19
 70
     1
 10
0.0
 20
0.0
 30
0.0
  3
*D19
  1

  0
LINE
  5
6386
330
5F6C
100
AcDbEntity
  8
30
  6
Continuous
 62
     0
100
AcDbLine
 10
-29.99999999999998
 20
217.1349134126129
 30
0.0
 11
-29.99999999999998
 21
257.4821974718419
 31
0.0
  0
LINE
  5
6387
330
5F6C
100
AcDbEntity
  8
30
  6
Continuous
 62
     0
100
AcDbLine
 10
0.0000000000000005
 20
217.1349134126129
 30
0.0
 11
0.000000000000003
 21
257.4821974718419
 31
0.0
  0
LINE
  5
6388
330
5F6C
100
AcDbEntity
  8
30
  6
Continuous
 62
     0
100
AcDbLine
 10
-27.99999999999998
 20
256.9821974718418
 30
0.0
 11
-1.999999999999995
 21
256.9821974718418
 31
0.0
  0
INSERT
  5
6389
330
5F6C
100
AcDbEntity
  8
30
  6
Continuous
 62
     0
100
AcDbBlockReference
  2
_OPEN
 10
-29.99999999999998
 20
256.9821974718418
 30
0.0
 41
2.0
 42
2.0
 43
2.0
 50
180.0
  0
INSERT
  5
638A
330
5F6C
100
AcDbEntity
  8
30
  6
Continuous
 62
     0
100
AcDbBlockReference
  2
_OPEN
 10
0.0000000000000029
 20
256.9821974718418
 30
0.0
 41
2.0
 42
2.0
 43
2.0
  0
MTEXT
  5
638B
330
5F6C
100
AcDbEntity
  8
30
  6
Continuous
 62
     0
100
AcDbMText
 10
-14.99999999999999
 20
259.9821974718419
 30
0.0
 40
4.0
 41
0.0
 46
0.0
 71
     5
 72
     1
  1
\A1;30
 73
     1
 44
1.0
1001
ACAD
1000
MTEXTBEGIN
1070
    73
1070
     1
1070
    44
1040
1.0
1070
    74
1070
     0
1000
MTEXTEND
  0
POINT
  5
638C
330
5F6C
100
AcDbEntity
  8
DEFPOINTS
  6
Continuous
 62
     0
100
AcDbPoint
 10
-29.99999999999998
 20
216.1349134126129
 30
0.0
  0
POINT
  5
638D
330
5F6C
100
AcDbEntity
  8
DEFPOINTS
  6
Continuous
 62
     0
100
AcDbPoint
 10
0.0000000000000004
 20
216.1349134126129
 30
0.0
  0
POINT
  5
638E
330
5F6C
100
AcDbEntity
  8
DEFPOINTS
  6
Continuous
 62
     0
100
AcDbPoint
 10
0.0000000000000029
 20
256.9821974718418
 30
0.0
  0
ENDBLK
  5
5F77
330
5F6C
100
AcDbEntity
  8
0
100
AcDbBlockEnd
  0
BLOCK
  5
5F83
330
5F79
100
AcDbEntity
  8
0
100
AcDbBlockBegin
  2
*D20
 70
     1
 10
0.0
 20
0.0
 30
0.0
  3
*D20
  1

  0
LINE
  5
637D
330
5F79
100
AcDbEntity
  8
30
  6
Continuous
 62
     0
100
AcDbLine
 10
0.0000000000000005
 20
218.1349134126129
 30
0.0
 11
0.0000000000000029
 21
257.4821974718419
 31
0.0
  0
LINE
  5
637E
330
5F79
100
AcDbEntity
  8
30
  6
Continuous
 62
     0
100
AcDbLine
 10
30.0
 20
217.1349134126129
 30
0.0
 11
30.0
 21
257.4821974718419
 31
0.0
  0
LINE
  5
637F
330
5F79
100
AcDbEntity
  8
30
  6
Continuous
 62
     0
100
AcDbLine
 10
2.000000000000002
 20
256.9821974718418
 30
0.0
 11
28.0
 21
256.9821974718418
 31
0.0
  0
INSERT
  5
6380
330
5F79
100
AcDbEntity
  8
30
  6
Continuous
 62
     0
100
AcDbBlockReference
  2
_OPEN
 10
0.0000000000000029
 20
256.9821974718418
 30
0.0
 41
2.0
 42
2.0
 43
2.0
 50
180.0
  0
INSERT
  5
6381
330
5F79
100
AcDbEntity
  8
30
  6
Continuous
 62
     0
100
AcDbBlockReference
  2
_OPEN
 10
30.0
 20
256.9821974718418
 30
0.0
 41
2.0
 42
2.0
 43
2.0
  0
MTEXT
  5
6382
330
5F79
100
AcDbEntity
  8
30
  6
Continuous
 62
     0
100
AcDbMText
 10
15.0
 20
259.9821974718419
 30
0.0
 40
4.0
 41
0.0
 46
0.0
 71
     5
 72
     1
  1
\A1;30
 73
     1
 44
1.0
1001
ACAD
1000
MTEXTBEGIN
1070
    73
1070
     1
1070
    44
1040
1.0
1070
    74
1070
     0
1000
MTEXTEND
  0
POINT
  5
6383
330
5F79
100
AcDbEntity
  8
DEFPOINTS
  6
Continuous
 62
     0
100
AcDbPoint
 10
0.0000000000000004
 20
217.1349134126129
 30
0.0
  0
POINT
  5
6384
330
5F79
100
AcDbEntity
  8
DEFPOINTS
  6
Continuous
 62
     0
100
AcDbPoint
 10
30.0
 20
216.1349134126129
 30
0.0
  0
POINT
  5
6385
330
5F79
100
AcDbEntity
  8
DEFPOINTS
  6
Continuous
 62
     0
100
AcDbPoint
 10
30.0
 20
256.9821974718418
 30
0.0
  0
ENDBLK
  5
5F84
330
5F79
100
AcDbEntity
  8
0
100
AcDbBlockEnd
  0
BLOCK
  5
6105
330
60FB
100
AcDbEntity
  8
0
100
AcDbBlockBegin
  2
*D21
 70
     1
 10
0.0
 20
0.0
 30
0.0
  3
*D21
  1

  0
LINE
  5
638F
330
60FB
100
AcDbEntity
  8
30
  6
Continuous
 62
     0
100
AcDbLine
 10
30.0
 20
218.1349134126129
 30
0.0
 11
30.0
 21
257.4821974718419
 31
0.0
  0
LINE
  5
6390
330
60FB
100
AcDbEntity
  8
30
  6
Continuous
 62
     0
100
AcDbLine
 10
60.0
 20
217.1349134126129
 30
0.0
 11
60.0
 21
257.4821974718419
 31
0.0
  0
LINE
  5
6391
330
60FB
100
AcDbEntity
  8
30
  6
Continuous
 62
     0
100
AcDbLine
 10
32.0
 20
256.9821974718418
 30
0.0
 11
58.0
 21
256.9821974718418
 31
0.0
  0
INSERT
  5
6392
330
60FB
100
AcDbEntity
  8
30
  6
Continuous
 62
     0
100
AcDbBlockReference
  2
_OPEN
 10
30.0
 20
256.9821974718418
 30
0.0
 41
2.0
 42
2.0
 43
2.0
 50
180.0
  0
INSERT
  5
6393
330
60FB
100
AcDbEntity
  8
30
  6
Continuous
 62
     0
100
AcDbBlockReference
  2
_OPEN
 10
60.0
 20
256.9821974718418
 30
0.0
 41
2.0
 42
2.0
 43
2.0
  0
MTEXT
  5
6394
330
60FB
100
AcDbEntity
  8
30
  6
Continuous
 62
     0
100
AcDbMText
 10
45.0
 20
259.9821974718419
 30
0.0
 40
4.0
 41
0.0
 46
0.0
 71
     5
 72
     1
  1
\A1;30
 73
     1
 44
1.0
1001
ACAD
1000
MTEXTBEGIN
1070
    73
1070
     1
1070
    44
1040
1.0
1070
    74
1070
     0
1000
MTEXTEND
  0
POINT
  5
6395
330
60FB
100
AcDbEntity
  8
DEFPOINTS
  6
Continuous
 62
     0
100
AcDbPoint
 10
30.0
 20
217.1349134126129
 30
0.0
  0
POINT
  5
6396
330
60FB
100
AcDbEntity
  8
DEFPOINTS
  6
Continuous
 62
     0
100
AcDbPoint
 10
60.0
 20
216.1349134126129
 30
0.0
  0
POINT
  5
6397
330
60FB
100
AcDbEntity
  8
DEFPOINTS
  6
Continuous
 62
     0
100
AcDbPoint
 10
60.0
 20
256.9821974718418
 30
0.0
  0
ENDBLK
  5
6106
330
60FB
100
AcDbEntity
  8
0
100
AcDbBlockEnd
  0
BLOCK
  5
6121
330
6117
100
AcDbEntity
  8
0
100
AcDbBlockBegin
  2
*D22
 70
     1
 10
0.0
 20
0.0
 30
0.0
  3
*D22
  1

  0
LINE
  5
658B
330
6117
100
AcDbEntity
  8
30
  6
Continuous
 62
     0
440
 16777216
100
AcDbLine
 10
21.11990546482878
 20
-186.663123744355
 30
0.0
 11
97.35839195347299
 21
-186.663123744355
 31
0.0
  0
LINE
  5
658C
330
6117
100
AcDbEntity
  8
30
  6
Continuous
 62
     0
440
 16777216
100
AcDbLine
 10
21.1199054648288
 20
-318.6631237443549
 30
0.0
 11
97.35839195347296
 21
-318.6631237443549
 31
0.0
  0
LINE
  5
658D
330
6117
100
AcDbEntity
  8
30
  6
Continuous
 62
     0
440
 16777216
100
AcDbLine
 10
96.85839195347298
 20
-188.663123744355
 30
0.0
 11
96.85839195347298
 21
-316.6631237443549
 31
0.0
  0
INSERT
  5
658E
330
6117
100
AcDbEntity
  8
30
  6
Continuous
 62
     0
440
 16777216
100
AcDbBlockReference
  2
_OPEN
 10
96.85839195347298
 20
-186.663123744355
 30
0.0
 41
2.0
 42
2.0
 43
2.0
 50
90.0
  0
INSERT
  5
658F
330
6117
100
AcDbEntity
  8
30
  6
Continuous
 62
     0
440
 16777216
100
AcDbBlockReference
  2
_OPEN
 10
96.85839195347298
 20
-318.6631237443549
 30
0.0
 41
2.0
 42
2.0
 43
2.0
 50
270.0
  0
MTEXT
  5
6590
330
6117
100
AcDbEntity
  8
30
  6
Continuous
 62
     0
440
 16777216
100
AcDbMText
 10
93.85839195347307
 20
-252.6631237443548
 30
0.0
 40
4.0
 41
0.0
 46
0.0
 71
     5
 72
     1
  1
\A1;132
 11
0.0000000000000001
 21
1.0
 31
0.0
 73
     1
 44
1.0
1001
ACAD
1000
MTEXTBEGIN
1070
    73
1070
     1
1070
    44
1040
1.0
1070
    74
1070
     0
1000
MTEXTEND
  0
POINT
  5
6591
330
6117
100
AcDbEntity
  8
DEFPOINTS
  6
Continuous
 62
     0
440
 16777216
100
AcDbPoint
 10
20.11990546482878
 20
-186.663123744355
 30
0.0
  0
POINT
  5
6592
330
6117
100
AcDbEntity
  8
DEFPOINTS
  6
Continuous
 62
     0
440
 16777216
100
AcDbPoint
 10
20.1199054648288
 20
-318.6631237443549
 30
0.0
  0
POINT
  5
6593
330
6117
100
AcDbEntity
  8
DEFPOINTS
  6
Continuous
 62
     0
440
 16777216
100
AcDbPoint
 10
96.85839195347298
 20
-318.6631237443549
 30
0.0
  0
ENDBLK
  5
6122
330
6117
100
AcDbEntity
  8
0
100
AcDbBlockEnd
  0
BLOCK
  5
6155
330
614B
100
AcDbEntity
  8
0
100
AcDbBlockBegin
  2
*D23
 70
     1
 10
0.0
 20
0.0
 30
0.0
  3
*D23
  1

  0
LINE
  5
62AB
330
614B
100
AcDbEntity
  8
30
  6
Continuous
 62
     0
440
 16777216
100
AcDbLine
 10
-17.5
 20
124.4999999999996
 30
0.0
 11
-63.92066478230082
 21
124.4999999999996
 31
0.0
  0
LINE
  5
62AC
330
614B
100
AcDbEntity
  8
30
  6
Continuous
 62
     0
440
 16777216
100
AcDbLine
 10
-45.99999999999996
 20
77.49999999999997
 30
0.0
 11
-63.92066478230082
 21
77.49999999999997
 31
0.0
  0
LINE
  5
62AD
330
614B
100
AcDbEntity
  8
30
  6
Continuous
 62
     0
440
 16777216
100
AcDbLine
 10
-63.4206647823008
 20
122.4999999999996
 30
0.0
 11
-63.42066478230082
 21
79.49999999999997
 31
0.0
  0
INSERT
  5
62AE
330
614B
100
AcDbEntity
  8
30
  6
Continuous
 62
     0
440
 16777216
100
AcDbBlockReference
  2
_OPEN
 10
-63.4206647823008
 20
124.4999999999996
 30
0.0
 41
2.0
 42
2.0
 43
2.0
 50
90.0
  0
INSERT
  5
62AF
330
614B
100
AcDbEntity
  8
30
  6
Continuous
 62
     0
440
 16777216
100
AcDbBlockReference
  2
_OPEN
 10
-63.42066478230082
 20
77.49999999999997
 30
0.0
 41
2.0
 42
2.0
 43
2.0
 50
270.0
  0
MTEXT
  5
62B0
330
614B
100
AcDbEntity
  8
30
  6
Continuous
 62
     0
440
 16777216
100
AcDbMText
 10
-66.42066478230082
 20
100.9999999999997
 30
0.0
 40
4.0
 41
0.0
 46
0.0
 71
     5
 72
     1
  1
\A1;47
 11
0.0000000000000001
 21
1.0
 31
0.0
 73
     1
 44
1.0
1001
ACAD
1000
MTEXTBEGIN
1070
    73
1070
     1
1070
    44
1040
1.0
1070
    74
1070
     0
1000
MTEXTEND
  0
POINT
  5
62B1
330
614B
100
AcDbEntity
  8
DEFPOINTS
  6
Continuous
 62
     0
440
 16777216
100
AcDbPoint
 10
-16.5
 20
124.4999999999996
 30
0.0
  0
POINT
  5
62B2
330
614B
100
AcDbEntity
  8
DEFPOINTS
  6
Continuous
 62
     0
440
 16777216
100
AcDbPoint
 10
-44.99999999999997
 20
77.49999999999997
 30
0.0
  0
POINT
  5
62B3
330
614B
100
AcDbEntity
  8
DEFPOINTS
  6
Continuous
 62
     0
440
 16777216
100
AcDbPoint
 10
-63.42066478230082
 20
77.49999999999997
 30
0.0
  0
ENDBLK
  5
6156
330
614B
100
AcDbEntity
  8
0
100
AcDbBlockEnd
  0
BLOCK
  5
6162
330
6158
100
AcDbEntity
  8
0
100
AcDbBlockBegin
  2
*D24
 70
     1
 10
0.0
 20
0.0
 30
0.0
  3
*D24
  1

  0
LINE
  5
62A2
330
6158
100
AcDbEntity
  8
30
  6
Continuous
 62
     0
440
 16777216
100
AcDbLine
 10
-45.99999999999996
 20
77.49999999999997
 30
0.0
 11
-64.42066478230081
 21
77.49999999999997
 31
0.0
  0
LINE
  5
62A3
330
6158
100
AcDbEntity
  8
30
  6
Continuous
 62
     0
440
 16777216
100
AcDbLine
 10
-45.99999999999996
 20
-77.50000000000003
 30
0.0
 11
-64.42066478230085
 21
-77.50000000000003
 31
0.0
  0
LINE
  5
62A4
330
6158
100
AcDbEntity
  8
30
  6
Continuous
 62
     0
440
 16777216
100
AcDbLine
 10
-63.92066478230082
 20
75.49999999999997
 30
0.0
 11
-63.92066478230084
 21
-75.50000000000003
 31
0.0
  0
INSERT
  5
62A5
330
6158
100
AcDbEntity
  8
30
  6
Continuous
 62
     0
440
 16777216
100
AcDbBlockReference
  2
_OPEN
 10
-63.92066478230082
 20
77.49999999999997
 30
0.0
 41
2.0
 42
2.0
 43
2.0
 50
90.0
  0
INSERT
  5
62A6
330
6158
100
AcDbEntity
  8
30
  6
Continuous
 62
     0
440
 16777216
100
AcDbBlockReference
  2
_OPEN
 10
-63.92066478230084
 20
-77.50000000000003
 30
0.0
 41
2.0
 42
2.0
 43
2.0
 50
270.0
  0
MTEXT
  5
62A7
330
6158
100
AcDbEntity
  8
30
  6
Continuous
 62
     0
440
 16777216
100
AcDbMText
 10
-66.92066478230081
 20
-0.0000000000000384
 30
0.0
 40
4.0
 41
0.0
 46
0.0
 71
     5
 72
     1
  1
\A1;155
 11
0.0000000000000001
 21
1.0
 31
0.0
 73
     1
 44
1.0
1001
ACAD
1000
MTEXTBEGIN
1070
    73
1070
     1
1070
    44
1040
1.0
1070
    74
1070
     0
1000
MTEXTEND
  0
POINT
  5
62A8
330
6158
100
AcDbEntity
  8
DEFPOINTS
  6
Continuous
 62
     0
440
 16777216
100
AcDbPoint
 10
-44.99999999999997
 20
77.49999999999997
 30
0.0
  0
POINT
  5
62A9
330
6158
100
AcDbEntity
  8
DEFPOINTS
  6
Continuous
 62
     0
440
 16777216
100
AcDbPoint
 10
-44.99999999999997
 20
-77.50000000000003
 30
0.0
  0
POINT
  5
62AA
330
6158
100
AcDbEntity
  8
DEFPOINTS
  6
Continuous
 62
     0
440
 16777216
100
AcDbPoint
 10
-63.92066478230084
 20
-77.50000000000003
 30
0.0
  0
ENDBLK
  5
6163
330
6158
100
AcDbEntity
  8
0
100
AcDbBlockEnd
  0
BLOCK
  5
63A3
330
6399
100
AcDbEntity
  8
0
100
AcDbBlockBegin
  2
*D25
 70
     1
 10
0.0
 20
0.0
 30
0.0
  3
*D25
  1

  0
LINE
  5
6528
330
6399
100
AcDbEntity
  8
30
  6
Continuous
 62
     0
440
 16777216
100
AcDbLine
 10
225.9923778520064
 20
-69.23970744689659
 30
0.0
 11
225.9923778520064
 21
-88.2406484398534
 31
0.0
  0
LINE
  5
6529
330
6399
100
AcDbEntity
  8
30
  6
Continuous
 62
     0
440
 16777216
100
AcDbLine
 10
217.9923778520064
 20
-78.48970744689656
 30
0.0
 11
217.9923778520064
 21
-88.2406484398534
 31
0.0
  0
LINE
  5
652A
330
6399
100
AcDbEntity
  8
30
  6
Continuous
 62
     0
440
 16777216
100
AcDbLine
 10
223.9923778520064
 20
-87.74064843985341
 30
0.0
 11
219.9923778520064
 21
-87.74064843985341
 31
0.0
  0
INSERT
  5
652B
330
6399
100
AcDbEntity
  8
30
  6
Continuous
 62
     0
440
 16777216
100
AcDbBlockReference
  2
_OPEN
 10
225.9923778520064
 20
-87.74064843985341
 30
0.0
 41
2.0
 42
2.0
 43
2.0
  0
INSERT
  5
652C
330
6399
100
AcDbEntity
  8
30
  6
Continuous
 62
     0
440
 16777216
100
AcDbBlockReference
  2
_OPEN
 10
217.9923778520064
 20
-87.74064843985341
 30
0.0
 41
2.0
 42
2.0
 43
2.0
 50
180.0
  0
MTEXT
  5
652D
330
6399
100
AcDbEntity
  8
30
  6
Continuous
 62
     0
440
 16777216
100
AcDbMText
 10
221.9923778520064
 20
-84.74064843985342
 30
0.0
 40
4.0
 41
0.0
 46
0.0
 71
     5
 72
     1
  1
\A1;8
 73
     1
 44
1.0
1001
ACAD
1000
MTEXTBEGIN
1070
    73
1070
     1
1070
    44
1040
1.0
1070
    74
1070
     0
1000
MTEXTEND
  0
POINT
  5
652E
330
6399
100
AcDbEntity
  8
DEFPOINTS
  6
Continuous
 62
     0
440
 16777216
100
AcDbPoint
 10
225.9923778520064
 20
-68.23970744689657
 30
0.0
  0
POINT
  5
652F
330
6399
100
AcDbEntity
  8
DEFPOINTS
  6
Continuous
 62
     0
440
 16777216
100
AcDbPoint
 10
217.9923778520064
 20
-77.48970744689656
 30
0.0
  0
POINT
  5
6530
330
6399
100
AcDbEntity
  8
DEFPOINTS
  6
Continuous
 62
     0
440
 16777216
100
AcDbPoint
 10
217.9923778520064
 20
-87.74064843985341
 30
0.0
  0
ENDBLK
  5
63A4
330
6399
100
AcDbEntity
  8
0
100
AcDbBlockEnd
  0
BLOCK
  5
6497
330
648D
100
AcDbEntity
  8
0
100
AcDbBlockBegin
  2
*D26
 70
     1
 10
0.0
 20
0.0
 30
0.0
  3
*D26
  1

  0
LINE
  5
64E8
330
648D
100
AcDbEntity
  8
30
  6
Continuous
 62
     0
440
 16777216
100
AcDbLine
 10
166.6199054648288
 20
-278.6631237443549
 30
0.0
 11
166.6199054648288
 21
-359.8804450066014
 31
0.0
  0
LINE
  5
64E9
330
648D
100
AcDbEntity
  8
30
  6
Continuous
 62
     0
440
 16777216
100
AcDbLine
 10
252.6199054648289
 20
-278.6631237443549
 30
0.0
 11
252.6199054648289
 21
-359.8804450066014
 31
0.0
  0
LINE
  5
64EA
330
648D
100
AcDbEntity
  8
30
  6
Continuous
 62
     0
440
 16777216
100
AcDbLine
 10
168.6199054648288
 20
-359.3804450066013
 30
0.0
 11
250.6199054648289
 21
-359.3804450066013
 31
0.0
  0
INSERT
  5
64EB
330
648D
100
AcDbEntity
  8
30
  6
Continuous
 62
     0
440
 16777216
100
AcDbBlockReference
  2
_OPEN
 10
166.6199054648288
 20
-359.3804450066013
 30
0.0
 41
2.0
 42
2.0
 43
2.0
 50
180.0
  0
INSERT
  5
64EC
330
648D
100
AcDbEntity
  8
30
  6
Continuous
 62
     0
440
 16777216
100
AcDbBlockReference
  2
_OPEN
 10
252.6199054648289
 20
-359.3804450066013
 30
0.0
 41
2.0
 42
2.0
 43
2.0
  0
MTEXT
  5
64ED
330
648D
100
AcDbEntity
  8
30
  6
Continuous
 62
     0
440
 16777216
100
AcDbMText
 10
209.6199054648289
 20
-356.3804450066013
 30
0.0
 40
4.0
 41
0.0
 46
0.0
 71
     5
 72
     1
  1
\A1;86
 73
     1
 44
1.0
1001
ACAD
1000
MTEXTBEGIN
1070
    73
1070
     1
1070
    44
1040
1.0
1070
    74
1070
     0
1000
MTEXTEND
  0
POINT
  5
64EE
330
648D
100
AcDbEntity
  8
DEFPOINTS
  6
Continuous
 62
     0
440
 16777216
100
AcDbPoint
 10
166.6199054648288
 20
-277.6631237443548
 30
0.0
  0
POINT
  5
64EF
330
648D
100
AcDbEntity
  8
DEFPOINTS
  6
Continuous
 62
     0
440
 16777216
100
AcDbPoint
 10
252.6199054648289
 20
-277.6631237443548
 30
0.0
  0
POINT
  5
64F0
330
648D
100
AcDbEntity
  8
DEFPOINTS
  6
Continuous
 62
     0
440
 16777216
100
AcDbPoint
 10
252.6199054648289
 20
-359.3804450066013
 30
0.0
  0
ENDBLK
  5
6498
330
648D
100
AcDbEntity
  8
0
100
AcDbBlockEnd
  0
BLOCK
  5
64A2
330
6499
100
AcDbEntity
  8
0
100
AcDbBlockBegin
  2
*D27
 70
     1
 10
0.0
 20
0.0
 30
0.0
  3
*D27
  1

  0
LINE
  5
64CE
330
6499
100
AcDbEntity
  8
30
  6
Continuous
 62
     0
440
 16777216
100
AcDbLine
 10
261.9196053755326
 20
-224.6187952184035
 30
0.0
 11
255.5862720421993
 21
-224.6187952184035
 31
0.0
  0
LINE
  5
64CF
330
6499
100
AcDbEntity
  8
30
  6
Continuous
 62
     0
440
 16777216
100
AcDbLine
 10
255.5862720421993
 20
-224.6187952184035
 30
0.0
 11
253.9997254112511
 21
-225.8365266287838
 31
0.0
  0
MTEXT
  5
64D0
330
6499
100
AcDbEntity
  8
30
  6
Continuous
 62
     0
440
 16777216
100
AcDbMText
 10
259.252938708866
 20
-221.6187952184035
 30
0.0
 40
4.0
 41
0.0
 46
0.0
 71
     5
 72
     1
  1
\A1;R1
 73
     1
 44
1.0
1001
ACAD
1000
MTEXTBEGIN
1070
    73
1070
     1
1070
    44
1040
1.0
1070
    74
1070
     0
1000
MTEXTEND
  0
INSERT
  5
64D1
330
6499
100
AcDbEntity
  8
30
  6
Continuous
 62
     0
440
 16777216
100
AcDbBlockReference
  2
_OPEN
 10
252.413178780303
 20
-227.0542580391643
 30
0.0
 41
2.0
 42
2.0
 43
2.0
 50
217.5075311795308
  0
LINE
  5
64D2
330
6499
100
AcDbEntity
  8
30
  6
Continuous
 62
     0
440
 16777216
100
AcDbLine
 10
251.529905464829
 20
-227.6631237443548
 30
0.0
 11
251.7099054648289
 21
-227.6631237443548
 31
0.0
  0
LINE
  5
64D3
330
6499
100
AcDbEntity
  8
30
  6
Continuous
 62
     0
440
 16777216
100
AcDbLine
 10
251.6199054648291
 20
-227.7531237443545
 30
0.0
 11
251.6199054648291
 21
-227.5731237443547
 31
0.0
  0
POINT
  5
64D4
330
6499
100
AcDbEntity
  8
DEFPOINTS
  6
Continuous
 62
     0
440
 16777216
100
AcDbPoint
 10
252.413178780303
 20
-227.0542580391643
 30
0.0
  0
POINT
  5
64D5
330
6499
100
AcDbEntity
  8
DEFPOINTS
  6
Continuous
 62
     0
440
 16777216
100
AcDbPoint
 10
251.6199054648291
 20
-227.6631237443548
 30
0.0
  0
ENDBLK
  5
64A3
330
6499
100
AcDbEntity
  8
0
100
AcDbBlockEnd
  0
BLOCK
  5
64AE
330
64A4
100
AcDbEntity
  8
0
100
AcDbBlockBegin
  2
*D28
 70
     1
 10
0.0
 20
0.0
 30
0.0
  3
*D28
  1

  0
LINE
  5
64D6
330
64A4
100
AcDbEntity
  8
30
  6
Continuous
 62
     0
440
 16777216
100
AcDbLine
 10
252.6199054648288
 20
-226.6631237443549
 30
0.0
 11
273.180795841907
 21
-226.6631237443549
 31
0.0
  0
LINE
  5
64D7
330
64A4
100
AcDbEntity
  8
30
  6
Continuous
 62
     0
440
 16777216
100
AcDbLine
 10
252.6199054648288
 20
-278.6631237443549
 30
0.0
 11
273.180795841907
 21
-278.6631237443549
 31
0.0
  0
LINE
  5
64D8
330
64A4
100
AcDbEntity
  8
30
  6
Continuous
 62
     0
440
 16777216
100
AcDbLine
 10
272.680795841907
 20
-228.663123744355
 30
0.0
 11
272.680795841907
 21
-276.6631237443549
 31
0.0
  0
INSERT
  5
64D9
330
64A4
100
AcDbEntity
  8
30
  6
Continuous
 62
     0
440
 16777216
100
AcDbBlockReference
  2
_OPEN
 10
272.680795841907
 20
-226.6631237443549
 30
0.0
 41
2.0
 42
2.0
 43
2.0
 50
90.0
  0
INSERT
  5
64DA
330
64A4
100
AcDbEntity
  8
30
  6
Continuous
 62
     0
440
 16777216
100
AcDbBlockReference
  2
_OPEN
 10
272.680795841907
 20
-278.6631237443549
 30
0.0
 41
2.0
 42
2.0
 43
2.0
 50
270.0
  0
MTEXT
  5
64DB
330
64A4
100
AcDbEntity
  8
30
  6
Continuous
 62
     0
440
 16777216
100
AcDbMText
 10
269.680795841907
 20
-252.6631237443548
 30
0.0
 40
4.0
 41
0.0
 46
0.0
 71
     5
 72
     1
  1
\A1;52
 11
0.0000000000000001
 21
1.0
 31
0.0
 73
     1
 44
1.0
1001
ACAD
1000
MTEXTBEGIN
1070
    73
1070
     1
1070
    44
1040
1.0
1070
    74
1070
     0
1000
MTEXTEND
  0
POINT
  5
64DC
330
64A4
100
AcDbEntity
  8
DEFPOINTS
  6
Continuous
 62
     0
440
 16777216
100
AcDbPoint
 10
251.6199054648287
 20
-226.6631237443549
 30
0.0
  0
POINT
  5
64DD
330
64A4
100
AcDbEntity
  8
DEFPOINTS
  6
Continuous
 62
     0
440
 16777216
100
AcDbPoint
 10
251.6199054648287
 20
-278.6631237443549
 30
0.0
  0
POINT
  5
64DE
330
64A4
100
AcDbEntity
  8
DEFPOINTS
  6
Continuous
 62
     0
440
 16777216
100
AcDbPoint
 10
272.680795841907
 20
-278.6631237443549
 30
0.0
  0
ENDBLK
  5
64AF
330
64A4
100
AcDbEntity
  8
0
100
AcDbBlockEnd
  0
BLOCK
  5
671E
330
671D
100
AcDbEntity
  8
0
100
AcDbBlockBegin
  2
*D29
 70
     1
 10
0.0
 20
0.0
 30
0.0
  3
*D29
  1

  0
LINE
  5
671F
330
671D
100
AcDbEntity
  8
30
  6
Continuous
 62
     0
100
AcDbLine
 10
-29.99999999999998
 20
217.1349134126129
 30
0.0
 11
-29.99999999999998
 21
257.4821974718419
 31
0.0
  0
LINE
  5
6720
330
671D
100
AcDbEntity
  8
30
  6
Continuous
 62
     0
100
AcDbLine
 10
0.0000000000000005
 20
217.1349134126129
 30
0.0
 11
0.000000000000003
 21
257.4821974718419
 31
0.0
  0
LINE
  5
6721
330
671D
100
AcDbEntity
  8
30
  6
Continuous
 62
     0
100
AcDbLine
 10
-27.99999999999998
 20
256.9821974718418
 30
0.0
 11
-1.999999999999995
 21
256.9821974718418
 31
0.0
  0
INSERT
  5
6722
330
671D
100
AcDbEntity
  8
30
  6
Continuous
 62
     0
100
AcDbBlockReference
  2
_OPEN
 10
-29.99999999999998
 20
256.9821974718418
 30
0.0
 41
2.0
 42
2.0
 43
2.0
 50
180.0
  0
INSERT
  5
6723
330
671D
100
AcDbEntity
  8
30
  6
Continuous
 62
     0
100
AcDbBlockReference
  2
_OPEN
 10
0.0000000000000029
 20
256.9821974718418
 30
0.0
 41
2.0
 42
2.0
 43
2.0
  0
MTEXT
  5
6724
330
671D
100
AcDbEntity
  8
30
  6
Continuous
 62
     0
100
AcDbMText
 10
-14.99999999999999
 20
259.9821974718419
 30
0.0
 40
4.0
 41
0.0
 46
0.0
 71
     5
 72
     1
  1
\A1;30
 73
     1
 44
1.0
1001
ACAD
1000
MTEXTBEGIN
1070
    73
1070
     1
1070
    44
1040
1.0
1070
    74
1070
     0
1000
MTEXTEND
  0
POINT
  5
6725
330
671D
100
AcDbEntity
  8
DEFPOINTS
  6
Continuous
 62
     0
100
AcDbPoint
 10
-29.99999999999998
 20
216.1349134126129
 30
0.0
  0
POINT
  5
6726
330
671D
100
AcDbEntity
  8
DEFPOINTS
  6
Continuous
 62
     0
100
AcDbPoint
 10
0.0000000000000004
 20
216.1349134126129
 30
0.0
  0
POINT
  5
6727
330
671D
100
AcDbEntity
  8
DEFPOINTS
  6
Continuous
 62
     0
100
AcDbPoint
 10
0.0000000000000029
 20
256.9821974718418
 30
0.0
  0
ENDBLK
  5
6728
330
671D
100
AcDbEntity
  8
0
100
AcDbBlockEnd
  0
BLOCK
  5
672A
330
6729
100
AcDbEntity
  8
0
100
AcDbBlockBegin
  2
*D30
 70
     1
 10
0.0
 20
0.0
 30
0.0
  3
*D30
  1

  0
LINE
  5
672B
330
6729
100
AcDbEntity
  8
30
  6
Continuous
 62
     0
100
AcDbLine
 10
0.0000000000000005
 20
218.1349134126129
 30
0.0
 11
0.0000000000000029
 21
257.4821974718419
 31
0.0
  0
LINE
  5
672C
330
6729
100
AcDbEntity
  8
30
  6
Continuous
 62
     0
100
AcDbLine
 10
30.0
 20
217.1349134126129
 30
0.0
 11
30.0
 21
257.4821974718419
 31
0.0
  0
LINE
  5
672D
330
6729
100
AcDbEntity
  8
30
  6
Continuous
 62
     0
100
AcDbLine
 10
2.000000000000002
 20
256.9821974718418
 30
0.0
 11
28.0
 21
256.9821974718418
 31
0.0
  0
INSERT
  5
672E
330
6729
100
AcDbEntity
  8
30
  6
Continuous
 62
     0
100
AcDbBlockReference
  2
_OPEN
 10
0.0000000000000029
 20
256.9821974718418
 30
0.0
 41
2.0
 42
2.0
 43
2.0
 50
180.0
  0
INSERT
  5
672F
330
6729
100
AcDbEntity
  8
30
  6
Continuous
 62
     0
100
AcDbBlockReference
  2
_OPEN
 10
30.0
 20
256.9821974718418
 30
0.0
 41
2.0
 42
2.0
 43
2.0
  0
MTEXT
  5
6730
330
6729
100
AcDbEntity
  8
30
  6
Continuous
 62
     0
100
AcDbMText
 10
15.0
 20
259.9821974718419
 30
0.0
 40
4.0
 41
0.0
 46
0.0
 71
     5
 72
     1
  1
\A1;30
 73
     1
 44
1.0
1001
ACAD
1000
MTEXTBEGIN
1070
    73
1070
     1
1070
    44
1040
1.0
1070
    74
1070
     0
1000
MTEXTEND
  0
POINT
  5
6731
330
6729
100
AcDbEntity
  8
DEFPOINTS
  6
Continuous
 62
     0
100
AcDbPoint
 10
0.0000000000000004
 20
217.1349134126129
 30
0.0
  0
POINT
  5
6732
330
6729
100
AcDbEntity
  8
DEFPOINTS
  6
Continuous
 62
     0
100
AcDbPoint
 10
30.0
 20
216.1349134126129
 30
0.0
  0
POINT
  5
6733
330
6729
100
AcDbEntity
  8
DEFPOINTS
  6
Continuous
 62
     0
100
AcDbPoint
 10
30.0
 20
256.9821974718418
 30
0.0
  0
ENDBLK
  5
6734
330
6729
100
AcDbEntity
  8
0
100
AcDbBlockEnd
  0
BLOCK
  5
6736
330
6735
100
AcDbEntity
  8
0
100
AcDbBlockBegin
  2
*D31
 70
     1
 10
0.0
 20
0.0
 30
0.0
  3
*D31
  1

  0
LINE
  5
6737
330
6735
100
AcDbEntity
  8
30
  6
Continuous
 62
     0
100
AcDbLine
 10
30.0
 20
218.1349134126129
 30
0.0
 11
30.0
 21
257.4821974718419
 31
0.0
  0
LINE
  5
6738
330
6735
100
AcDbEntity
  8
30
  6
Continuous
 62
     0
100
AcDbLine
 10
60.0
 20
217.1349134126129
 30
0.0
 11
60.0
 21
257.4821974718419
 31
0.0
  0
LINE
  5
6739
330
6735
100
AcDbEntity
  8
30
  6
Continuous
 62
     0
100
AcDbLine
 10
32.0
 20
256.9821974718418
 30
0.0
 11
58.0
 21
256.9821974718418
 31
0.0
  0
INSERT
  5
673A
330
6735
100
AcDbEntity
  8
30
  6
Continuous
 62
     0
100
AcDbBlockReference
  2
_OPEN
 10
30.0
 20
256.9821974718418
 30
0.0
 41
2.0
 42
2.0
 43
2.0
 50
180.0
  0
INSERT
  5
673B
330
6735
100
AcDbEntity
  8
30
  6
Continuous
 62
     0
100
AcDbBlockReference
  2
_OPEN
 10
60.0
 20
256.9821974718418
 30
0.0
 41
2.0
 42
2.0
 43
2.0
  0
MTEXT
  5
673C
330
6735
100
AcDbEntity
  8
30
  6
Continuous
 62
     0
100
AcDbMText
 10
45.0
 20
259.9821974718419
 30
0.0
 40
4.0
 41
0.0
 46
0.0
 71
     5
 72
     1
  1
\A1;30
 73
     1
 44
1.0
1001
ACAD
1000
MTEXTBEGIN
1070
    73
1070
     1
1070
    44
1040
1.0
1070
    74
1070
     0
1000
MTEXTEND
  0
POINT
  5
673D
330
6735
100
AcDbEntity
  8
DEFPOINTS
  6
Continuous
 62
     0
100
AcDbPoint
 10
30.0
 20
217.1349134126129
 30
0.0
  0
POINT
  5
673E
330
6735
100
AcDbEntity
  8
DEFPOINTS
  6
Continuous
 62
     0
100
AcDbPoint
 10
60.0
 20
216.1349134126129
 30
0.0
  0
POINT
  5
673F
330
6735
100
AcDbEntity
  8
DEFPOINTS
  6
Continuous
 62
     0
100
AcDbPoint
 10
60.0
 20
256.9821974718418
 30
0.0
  0
ENDBLK
  5
6740
330
6735
100
AcDbEntity
  8
0
100
AcDbBlockEnd
  0
BLOCK
  5
6742
330
6741
100
AcDbEntity
  8
0
100
AcDbBlockBegin
  2
*D32
 70
     1
 10
0.0
 20
0.0
 30
0.0
  3
*D32
  1

  0
LINE
  5
6743
330
6741
100
AcDbEntity
  8
30
  6
Continuous
 62
     0
370
    -2
100
AcDbLine
 10
75.99999999999997
 20
235.1349134126127
 30
0.0
 11
83.03557793199617
 21
235.1349134126127
 31
0.0
  0
LINE
  5
6744
330
6741
100
AcDbEntity
  8
30
  6
Continuous
 62
     0
370
    -2
100
AcDbLine
 10
75.99999999999998
 20
174.1349134126129
 30
0.0
 11
83.03557793199615
 21
174.1349134126129
 31
0.0
  0
LINE
  5
6745
330
6741
100
AcDbEntity
  8
30
  6
Continuous
 62
     0
370
    -2
100
AcDbLine
 10
82.53557793199616
 20
233.1349134126127
 30
0.0
 11
82.53557793199616
 21
176.1349134126129
 31
0.0
  0
INSERT
  5
6746
330
6741
100
AcDbEntity
  8
30
  6
Continuous
 62
     0
370
    -2
100
AcDbBlockReference
  2
_OPEN
 10
82.53557793199616
 20
235.1349134126127
 30
0.0
 41
2.0
 42
2.0
 43
2.0
 50
90.0
  0
INSERT
  5
6747
330
6741
100
AcDbEntity
  8
30
  6
Continuous
 62
     0
370
    -2
100
AcDbBlockReference
  2
_OPEN
 10
82.53557793199616
 20
174.1349134126129
 30
0.0
 41
2.0
 42
2.0
 43
2.0
 50
270.0
  0
MTEXT
  5
6748
330
6741
100
AcDbEntity
  8
30
  6
Continuous
 62
     0
100
AcDbMText
 10
79.53557793199613
 20
204.6349134126128
 30
0.0
 40
4.0
 41
0.0
 46
0.0
 71
     5
 72
     1
  1
\A1;61
 11
0.0000000000000001
 21
1.0
 31
0.0
 73
     1
 44
1.0
1001
ACAD
1000
MTEXTBEGIN
1070
    73
1070
     1
1070
    44
1040
1.0
1070
    74
1070
     0
1000
MTEXTEND
  0
POINT
  5
6749
330
6741
100
AcDbEntity
  8
DEFPOINTS
  6
Continuous
 62
     0
100
AcDbPoint
 10
74.99999999999997
 20
235.1349134126127
 30
0.0
  0
POINT
  5
674A
330
6741
100
AcDbEntity
  8
DEFPOINTS
  6
Continuous
 62
     0
100
AcDbPoint
 10
74.99999999999999
 20
174.1349134126129
 30
0.0
  0
POINT
  5
674B
330
6741
100
AcDbEntity
  8
DEFPOINTS
  6
Continuous
 62
     0
100
AcDbPoint
 10
82.53557793199616
 20
174.1349134126129
 30
0.0
  0
ENDBLK
  5
674C
330
6741
100
AcDbEntity
  8
0
100
AcDbBlockEnd
  0
BLOCK
  5
674E
330
674D
100
AcDbEntity
  8
0
100
AcDbBlockBegin
  2
*D33
 70
     1
 10
0.0
 20
0.0
 30
0.0
  3
*D33
  1

  0
LINE
  5
674F
330
674D
100
AcDbEntity
  8
30
  6
Continuous
 62
     0
370
    -2
100
AcDbLine
 10
75.99999999999998
 20
235.1349134126127
 30
0.0
 11
90.34192661915676
 21
235.1349134126127
 31
0.0
  0
LINE
  5
6750
330
674D
100
AcDbEntity
  8
30
  6
Continuous
 62
     0
370
    -2
100
AcDbLine
 10
75.99999999999998
 20
167.1349134126128
 30
0.0
 11
90.34192661915676
 21
167.1349134126128
 31
0.0
  0
LINE
  5
6751
330
674D
100
AcDbEntity
  8
30
  6
Continuous
 62
     0
370
    -2
100
AcDbLine
 10
89.84192661915676
 20
233.1349134126127
 30
0.0
 11
89.84192661915676
 21
169.1349134126128
 31
0.0
  0
INSERT
  5
6752
330
674D
100
AcDbEntity
  8
30
  6
Continuous
 62
     0
370
    -2
100
AcDbBlockReference
  2
_OPEN
 10
89.84192661915676
 20
235.1349134126127
 30
0.0
 41
2.0
 42
2.0
 43
2.0
 50
90.0
  0
INSERT
  5
6753
330
674D
100
AcDbEntity
  8
30
  6
Continuous
 62
     0
370
    -2
100
AcDbBlockReference
  2
_OPEN
 10
89.84192661915676
 20
167.1349134126128
 30
0.0
 41
2.0
 42
2.0
 43
2.0
 50
270.0
  0
MTEXT
  5
6754
330
674D
100
AcDbEntity
  8
30
  6
Continuous
 62
     0
100
AcDbMText
 10
86.84192661915671
 20
201.1349134126128
 30
0.0
 40
4.0
 41
0.0
 46
0.0
 71
     5
 72
     1
  1
\A1;68
 11
0.0000000000000001
 21
1.0
 31
0.0
 73
     1
 44
1.0
1001
ACAD
1000
MTEXTBEGIN
1070
    73
1070
     1
1070
    44
1040
1.0
1070
    74
1070
     0
1000
MTEXTEND
  0
POINT
  5
6755
330
674D
100
AcDbEntity
  8
DEFPOINTS
  6
Continuous
 62
     0
100
AcDbPoint
 10
74.99999999999999
 20
235.1349134126127
 30
0.0
  0
POINT
  5
6756
330
674D
100
AcDbEntity
  8
DEFPOINTS
  6
Continuous
 62
     0
100
AcDbPoint
 10
74.99999999999999
 20
167.1349134126128
 30
0.0
  0
POINT
  5
6757
330
674D
100
AcDbEntity
  8
DEFPOINTS
  6
Continuous
 62
     0
100
AcDbPoint
 10
89.84192661915676
 20
167.1349134126128
 30
0.0
  0
ENDBLK
  5
6758
330
674D
100
AcDbEntity
  8
0
100
AcDbBlockEnd
  0
BLOCK
  5
675A
330
6759
100
AcDbEntity
  8
0
100
AcDbBlockBegin
  2
*D34
 70
     1
 10
0.0
 20
0.0
 30
0.0
  3
*D34
  1

  0
LINE
  5
675B
330
6759
100
AcDbEntity
  8
30
  6
Continuous
 62
     0
370
    -2
100
AcDbLine
 10
75.99999999999998
 20
235.1349134126127
 30
0.0
 11
97.64827530631784
 21
235.1349134126127
 31
0.0
  0
LINE
  5
675C
330
6759
100
AcDbEntity
  8
30
  6
Continuous
 62
     0
370
    -2
100
AcDbLine
 10
43.49999999999995
 20
163.1349134126129
 30
0.0
 11
97.6482753063178
 21
163.1349134126129
 31
0.0
  0
LINE
  5
675D
330
6759
100
AcDbEntity
  8
30
  6
Continuous
 62
     0
370
    -2
100
AcDbLine
 10
97.14827530631785
 20
233.1349134126127
 30
0.0
 11
97.14827530631779
 21
165.1349134126129
 31
0.0
  0
INSERT
  5
675E
330
6759
100
AcDbEntity
  8
30
  6
Continuous
 62
     0
370
    -2
100
AcDbBlockReference
  2
_OPEN
 10
97.14827530631785
 20
235.1349134126127
 30
0.0
 41
2.0
 42
2.0
 43
2.0
 50
90.0
  0
INSERT
  5
675F
330
6759
100
AcDbEntity
  8
30
  6
Continuous
 62
     0
370
    -2
100
AcDbBlockReference
  2
_OPEN
 10
97.14827530631779
 20
163.1349134126129
 30
0.0
 41
2.0
 42
2.0
 43
2.0
 50
270.0
  0
MTEXT
  5
6760
330
6759
100
AcDbEntity
  8
30
  6
Continuous
 62
     0
100
AcDbMText
 10
94.14827530631781
 20
199.1349134126128
 30
0.0
 40
4.0
 41
0.0
 46
0.0
 71
     5
 72
     1
  1
\A1;72
 11
0.0000000000000001
 21
1.0
 31
0.0
 73
     1
 44
1.0
1001
ACAD
1000
MTEXTBEGIN
1070
    73
1070
     1
1070
    44
1040
1.0
1070
    74
1070
     0
1000
MTEXTEND
  0
POINT
  5
6761
330
6759
100
AcDbEntity
  8
DEFPOINTS
  6
Continuous
 62
     0
100
AcDbPoint
 10
74.99999999999999
 20
235.1349134126127
 30
0.0
  0
POINT
  5
6762
330
6759
100
AcDbEntity
  8
DEFPOINTS
  6
Continuous
 62
     0
100
AcDbPoint
 10
42.49999999999995
 20
163.1349134126129
 30
0.0
  0
POINT
  5
6763
330
6759
100
AcDbEntity
  8
DEFPOINTS
  6
Continuous
 62
     0
100
AcDbPoint
 10
97.14827530631779
 20
163.1349134126129
 30
0.0
  0
ENDBLK
  5
6764
330
6759
100
AcDbEntity
  8
0
100
AcDbBlockEnd
  0
BLOCK
  5
6766
330
6765
100
AcDbEntity
  8
0
100
AcDbBlockBegin
  2
*D35
 70
     1
 10
0.0
 20
0.0
 30
0.0
  3
*D35
  1

  0
LINE
  5
6767
330
6765
100
AcDbEntity
  8
30
  6
Continuous
 62
     0
370
    -2
100
AcDbLine
 10
75.99999999999997
 20
235.1349134126127
 30
0.0
 11
104.9546239934789
 21
235.1349134126127
 31
0.0
  0
LINE
  5
6768
330
6765
100
AcDbEntity
  8
30
  6
Continuous
 62
     0
370
    -2
100
AcDbLine
 10
11.99999999999996
 20
159.1349134126129
 30
0.0
 11
104.9546239934789
 21
159.1349134126129
 31
0.0
  0
LINE
  5
6769
330
6765
100
AcDbEntity
  8
30
  6
Continuous
 62
     0
370
    -2
100
AcDbLine
 10
104.4546239934789
 20
233.1349134126127
 30
0.0
 11
104.4546239934789
 21
161.1349134126129
 31
0.0
  0
INSERT
  5
676A
330
6765
100
AcDbEntity
  8
30
  6
Continuous
 62
     0
370
    -2
100
AcDbBlockReference
  2
_OPEN
 10
104.4546239934789
 20
235.1349134126127
 30
0.0
 41
2.0
 42
2.0
 43
2.0
 50
90.0
  0
INSERT
  5
676B
330
6765
100
AcDbEntity
  8
30
  6
Continuous
 62
     0
370
    -2
100
AcDbBlockReference
  2
_OPEN
 10
104.4546239934789
 20
159.1349134126129
 30
0.0
 41
2.0
 42
2.0
 43
2.0
 50
270.0
  0
MTEXT
  5
676C
330
6765
100
AcDbEntity
  8
30
  6
Continuous
 62
     0
100
AcDbMText
 10
101.4546239934789
 20
197.1349134126128
 30
0.0
 40
4.0
 41
0.0
 46
0.0
 71
     5
 72
     1
  1
\A1;76
 11
0.0000000000000001
 21
1.0
 31
0.0
 73
     1
 44
1.0
1001
ACAD
1000
MTEXTBEGIN
1070
    73
1070
     1
1070
    44
1040
1.0
1070
    74
1070
     0
1000
MTEXTEND
  0
POINT
  5
676D
330
6765
100
AcDbEntity
  8
DEFPOINTS
  6
Continuous
 62
     0
100
AcDbPoint
 10
74.99999999999997
 20
235.1349134126127
 30
0.0
  0
POINT
  5
676E
330
6765
100
AcDbEntity
  8
DEFPOINTS
  6
Continuous
 62
     0
100
AcDbPoint
 10
10.99999999999996
 20
159.1349134126129
 30
0.0
  0
POINT
  5
676F
330
6765
100
AcDbEntity
  8
DEFPOINTS
  6
Continuous
 62
     0
100
AcDbPoint
 10
104.4546239934789
 20
159.1349134126129
 30
0.0
  0
ENDBLK
  5
6770
330
6765
100
AcDbEntity
  8
0
100
AcDbBlockEnd
  0
BLOCK
  5
6805
330
6804
100
AcDbEntity
  8
0
100
AcDbBlockBegin
  2
*D36
 70
     1
 10
0.0
 20
0.0
 30
0.0
  3
*D36
  1

  0
LINE
  5
6858
330
6804
100
AcDbEntity
  8
30
  6
Continuous
 62
     0
440
 16777216
370
    -2
100
AcDbLine
 10
-29.99999999999998
 20
217.1349134126129
 30
0.0
 11
-29.99999999999998
 21
257.4821974718418
 31
0.0
  0
LINE
  5
6859
330
6804
100
AcDbEntity
  8
30
  6
Continuous
 62
     0
440
 16777216
370
    -2
100
AcDbLine
 10
0.0000000000000005
 20
217.1349134126129
 30
0.0
 11
0.0000000000000029
 21
257.4821974718418
 31
0.0
  0
LINE
  5
685A
330
6804
100
AcDbEntity
  8
30
  6
Continuous
 62
     0
440
 16777216
370
    -2
100
AcDbLine
 10
-27.99999999999998
 20
256.9821974718418
 30
0.0
 11
-1.999999999999996
 21
256.9821974718418
 31
0.0
  0
INSERT
  5
685B
330
6804
100
AcDbEntity
  8
30
  6
Continuous
 62
     0
440
 16777216
370
    -2
100
AcDbBlockReference
  2
_OPEN
 10
-29.99999999999998
 20
256.9821974718418
 30
0.0
 41
2.0
 42
2.0
 43
2.0
 50
180.0
  0
INSERT
  5
685C
330
6804
100
AcDbEntity
  8
30
  6
Continuous
 62
     0
440
 16777216
370
    -2
100
AcDbBlockReference
  2
_OPEN
 10
0.0000000000000029
 20
256.9821974718418
 30
0.0
 41
2.0
 42
2.0
 43
2.0
  0
MTEXT
  5
685D
330
6804
100
AcDbEntity
  8
30
  6
Continuous
 62
     0
440
 16777216
100
AcDbMText
 10
-14.99999999999999
 20
259.9821974718418
 30
0.0
 40
4.0
 41
0.0
 46
0.0
 71
     5
 72
     1
  1
\A1;30
 73
     1
 44
1.0
1001
ACAD
1000
MTEXTBEGIN
1070
    73
1070
     1
1070
    44
1040
1.0
1070
    74
1070
     0
1000
MTEXTEND
  0
POINT
  5
685E
330
6804
100
AcDbEntity
  8
DEFPOINTS
  6
Continuous
 62
     0
440
 16777216
100
AcDbPoint
 10
-29.99999999999998
 20
216.1349134126129
 30
0.0
  0
POINT
  5
685F
330
6804
100
AcDbEntity
  8
DEFPOINTS
  6
Continuous
 62
     0
440
 16777216
100
AcDbPoint
 10
0.0000000000000004
 20
216.1349134126129
 30
0.0
  0
POINT
  5
6860
330
6804
100
AcDbEntity
  8
DEFPOINTS
  6
Continuous
 62
     0
440
 16777216
100
AcDbPoint
 10
0.0000000000000029
 20
256.9821974718418
 30
0.0
  0
ENDBLK
  5
6806
330
6804
100
AcDbEntity
  8
0
100
AcDbBlockEnd
  0
BLOCK
  5
6811
330
6810
100
AcDbEntity
  8
0
100
AcDbBlockBegin
  2
*D37
 70
     1
 10
0.0
 20
0.0
 30
0.0
  3
*D37
  1

  0
LINE
  5
6861
330
6810
100
AcDbEntity
  8
30
  6
Continuous
 62
     0
440
 16777216
370
    -2
100
AcDbLine
 10
0.0000000000000005
 20
218.1349134126129
 30
0.0
 11
0.0000000000000029
 21
257.4821974718418
 31
0.0
  0
LINE
  5
6862
330
6810
100
AcDbEntity
  8
30
  6
Continuous
 62
     0
440
 16777216
370
    -2
100
AcDbLine
 10
30.0
 20
217.1349134126129
 30
0.0
 11
30.0
 21
257.4821974718418
 31
0.0
  0
LINE
  5
6863
330
6810
100
AcDbEntity
  8
30
  6
Continuous
 62
     0
440
 16777216
370
    -2
100
AcDbLine
 10
2.000000000000002
 20
256.9821974718418
 30
0.0
 11
28.00000000000001
 21
256.9821974718418
 31
0.0
  0
INSERT
  5
6864
330
6810
100
AcDbEntity
  8
30
  6
Continuous
 62
     0
440
 16777216
370
    -2
100
AcDbBlockReference
  2
_OPEN
 10
0.0000000000000028
 20
256.9821974718418
 30
0.0
 41
2.0
 42
2.0
 43
2.0
 50
180.0
  0
INSERT
  5
6865
330
6810
100
AcDbEntity
  8
30
  6
Continuous
 62
     0
440
 16777216
370
    -2
100
AcDbBlockReference
  2
_OPEN
 10
30.0
 20
256.9821974718418
 30
0.0
 41
2.0
 42
2.0
 43
2.0
  0
MTEXT
  5
6866
330
6810
100
AcDbEntity
  8
30
  6
Continuous
 62
     0
440
 16777216
100
AcDbMText
 10
15.0
 20
259.9821974718418
 30
0.0
 40
4.0
 41
0.0
 46
0.0
 71
     5
 72
     1
  1
\A1;30
 73
     1
 44
1.0
1001
ACAD
1000
MTEXTBEGIN
1070
    73
1070
     1
1070
    44
1040
1.0
1070
    74
1070
     0
1000
MTEXTEND
  0
POINT
  5
6867
330
6810
100
AcDbEntity
  8
DEFPOINTS
  6
Continuous
 62
     0
440
 16777216
100
AcDbPoint
 10
0.0000000000000004
 20
217.1349134126129
 30
0.0
  0
POINT
  5
6868
330
6810
100
AcDbEntity
  8
DEFPOINTS
  6
Continuous
 62
     0
440
 16777216
100
AcDbPoint
 10
30.0
 20
216.1349134126129
 30
0.0
  0
POINT
  5
6869
330
6810
100
AcDbEntity
  8
DEFPOINTS
  6
Continuous
 62
     0
440
 16777216
100
AcDbPoint
 10
30.0
 20
256.9821974718418
 30
0.0
  0
ENDBLK
  5
6812
330
6810
100
AcDbEntity
  8
0
100
AcDbBlockEnd
  0
BLOCK
  5
681D
330
681C
100
AcDbEntity
  8
0
100
AcDbBlockBegin
  2
*D38
 70
     1
 10
0.0
 20
0.0
 30
0.0
  3
*D38
  1

  0
LINE
  5
686A
330
681C
100
AcDbEntity
  8
30
  6
Continuous
 62
     0
440
 16777216
370
    -2
100
AcDbLine
 10
30.0
 20
218.1349134126129
 30
0.0
 11
30.0
 21
257.4821974718418
 31
0.0
  0
LINE
  5
686B
330
681C
100
AcDbEntity
  8
30
  6
Continuous
 62
     0
440
 16777216
370
    -2
100
AcDbLine
 10
60.0
 20
217.1349134126129
 30
0.0
 11
60.0
 21
257.4821974718418
 31
0.0
  0
LINE
  5
686C
330
681C
100
AcDbEntity
  8
30
  6
Continuous
 62
     0
440
 16777216
370
    -2
100
AcDbLine
 10
32.0
 20
256.9821974718418
 30
0.0
 11
58.0
 21
256.9821974718418
 31
0.0
  0
INSERT
  5
686D
330
681C
100
AcDbEntity
  8
30
  6
Continuous
 62
     0
440
 16777216
370
    -2
100
AcDbBlockReference
  2
_OPEN
 10
30.0
 20
256.9821974718418
 30
0.0
 41
2.0
 42
2.0
 43
2.0
 50
180.0
  0
INSERT
  5
686E
330
681C
100
AcDbEntity
  8
30
  6
Continuous
 62
     0
440
 16777216
370
    -2
100
AcDbBlockReference
  2
_OPEN
 10
60.0
 20
256.9821974718418
 30
0.0
 41
2.0
 42
2.0
 43
2.0
  0
MTEXT
  5
686F
330
681C
100
AcDbEntity
  8
30
  6
Continuous
 62
     0
440
 16777216
100
AcDbMText
 10
45.0
 20
259.9821974718418
 30
0.0
 40
4.0
 41
0.0
 46
0.0
 71
     5
 72
     1
  1
\A1;30
 73
     1
 44
1.0
1001
ACAD
1000
MTEXTBEGIN
1070
    73
1070
     1
1070
    44
1040
1.0
1070
    74
1070
     0
1000
MTEXTEND
  0
POINT
  5
6870
330
681C
100
AcDbEntity
  8
DEFPOINTS
  6
Continuous
 62
     0
440
 16777216
100
AcDbPoint
 10
30.0
 20
217.1349134126129
 30
0.0
  0
POINT
  5
6871
330
681C
100
AcDbEntity
  8
DEFPOINTS
  6
Continuous
 62
     0
440
 16777216
100
AcDbPoint
 10
60.0
 20
216.1349134126129
 30
0.0
  0
POINT
  5
6872
330
681C
100
AcDbEntity
  8
DEFPOINTS
  6
Continuous
 62
     0
440
 16777216
100
AcDbPoint
 10
60.0
 20
256.9821974718418
 30
0.0
  0
ENDBLK
  5
681E
330
681C
100
AcDbEntity
  8
0
100
AcDbBlockEnd
  0
BLOCK
  5
6829
330
6828
100
AcDbEntity
  8
0
100
AcDbBlockBegin
  2
*D39
 70
     1
 10
0.0
 20
0.0
 30
0.0
  3
*D39
  1

  0
LINE
  5
6873
330
6828
100
AcDbEntity
  8
30
  6
Continuous
 62
     0
440
 16777216
370
    -2
100
AcDbLine
 10
75.99999999999997
 20
235.1349134126127
 30
0.0
 11
83.03557793199617
 21
235.1349134126127
 31
0.0
  0
LINE
  5
6874
330
6828
100
AcDbEntity
  8
30
  6
Continuous
 62
     0
440
 16777216
370
    -2
100
AcDbLine
 10
75.99999999999998
 20
174.1349134126129
 30
0.0
 11
83.03557793199615
 21
174.1349134126129
 31
0.0
  0
LINE
  5
6875
330
6828
100
AcDbEntity
  8
30
  6
Continuous
 62
     0
440
 16777216
370
    -2
100
AcDbLine
 10
82.53557793199616
 20
233.1349134126127
 30
0.0
 11
82.53557793199616
 21
176.1349134126129
 31
0.0
  0
INSERT
  5
6876
330
6828
100
AcDbEntity
  8
30
  6
Continuous
 62
     0
440
 16777216
370
    -2
100
AcDbBlockReference
  2
_OPEN
 10
82.53557793199616
 20
235.1349134126127
 30
0.0
 41
2.0
 42
2.0
 43
2.0
 50
90.0
  0
INSERT
  5
6877
330
6828
100
AcDbEntity
  8
30
  6
Continuous
 62
     0
440
 16777216
370
    -2
100
AcDbBlockReference
  2
_OPEN
 10
82.53557793199616
 20
174.1349134126129
 30
0.0
 41
2.0
 42
2.0
 43
2.0
 50
270.0
  0
MTEXT
  5
6878
330
6828
100
AcDbEntity
  8
30
  6
Continuous
 62
     0
440
 16777216
100
AcDbMText
 10
79.53557793199613
 20
204.6349134126128
 30
0.0
 40
4.0
 41
0.0
 46
0.0
 71
     5
 72
     1
  1
\A1;61
 11
0.0000000000000001
 21
1.0
 31
0.0
 73
     1
 44
1.0
1001
ACAD
1000
MTEXTBEGIN
1070
    73
1070
     1
1070
    44
1040
1.0
1070
    74
1070
     0
1000
MTEXTEND
  0
POINT
  5
6879
330
6828
100
AcDbEntity
  8
DEFPOINTS
  6
Continuous
 62
     0
440
 16777216
100
AcDbPoint
 10
74.99999999999997
 20
235.1349134126127
 30
0.0
  0
POINT
  5
687A
330
6828
100
AcDbEntity
  8
DEFPOINTS
  6
Continuous
 62
     0
440
 16777216
100
AcDbPoint
 10
74.99999999999999
 20
174.1349134126129
 30
0.0
  0
POINT
  5
687B
330
6828
100
AcDbEntity
  8
DEFPOINTS
  6
Continuous
 62
     0
440
 16777216
100
AcDbPoint
 10
82.53557793199616
 20
174.1349134126129
 30
0.0
  0
ENDBLK
  5
682A
330
6828
100
AcDbEntity
  8
0
100
AcDbBlockEnd
  0
BLOCK
  5
6835
330
6834
100
AcDbEntity
  8
0
100
AcDbBlockBegin
  2
*D40
 70
     1
 10
0.0
 20
0.0
 30
0.0
  3
*D40
  1

  0
LINE
  5
687C
330
6834
100
AcDbEntity
  8
30
  6
Continuous
 62
     0
440
 16777216
370
    -2
100
AcDbLine
 10
75.99999999999998
 20
235.1349134126127
 30
0.0
 11
90.34192661915678
 21
235.1349134126127
 31
0.0
  0
LINE
  5
687D
330
6834
100
AcDbEntity
  8
30
  6
Continuous
 62
     0
440
 16777216
370
    -2
100
AcDbLine
 10
75.99999999999998
 20
167.1349134126128
 30
0.0
 11
90.34192661915676
 21
167.1349134126128
 31
0.0
  0
LINE
  5
687E
330
6834
100
AcDbEntity
  8
30
  6
Continuous
 62
     0
440
 16777216
370
    -2
100
AcDbLine
 10
89.84192661915678
 20
233.1349134126127
 30
0.0
 11
89.84192661915676
 21
169.1349134126128
 31
0.0
  0
INSERT
  5
687F
330
6834
100
AcDbEntity
  8
30
  6
Continuous
 62
     0
440
 16777216
370
    -2
100
AcDbBlockReference
  2
_OPEN
 10
89.84192661915678
 20
235.1349134126127
 30
0.0
 41
2.0
 42
2.0
 43
2.0
 50
90.0
  0
INSERT
  5
6880
330
6834
100
AcDbEntity
  8
30
  6
Continuous
 62
     0
440
 16777216
370
    -2
100
AcDbBlockReference
  2
_OPEN
 10
89.84192661915676
 20
167.1349134126128
 30
0.0
 41
2.0
 42
2.0
 43
2.0
 50
270.0
  0
MTEXT
  5
6881
330
6834
100
AcDbEntity
  8
30
  6
Continuous
 62
     0
440
 16777216
100
AcDbMText
 10
86.84192661915673
 20
201.1349134126128
 30
0.0
 40
4.0
 41
0.0
 46
0.0
 71
     5
 72
     1
  1
\A1;68
 11
0.0000000000000001
 21
1.0
 31
0.0
 73
     1
 44
1.0
1001
ACAD
1000
MTEXTBEGIN
1070
    73
1070
     1
1070
    44
1040
1.0
1070
    74
1070
     0
1000
MTEXTEND
  0
POINT
  5
6882
330
6834
100
AcDbEntity
  8
DEFPOINTS
  6
Continuous
 62
     0
440
 16777216
100
AcDbPoint
 10
74.99999999999999
 20
235.1349134126127
 30
0.0
  0
POINT
  5
6883
330
6834
100
AcDbEntity
  8
DEFPOINTS
  6
Continuous
 62
     0
440
 16777216
100
AcDbPoint
 10
74.99999999999999
 20
167.1349134126128
 30
0.0
  0
POINT
  5
6884
330
6834
100
AcDbEntity
  8
DEFPOINTS
  6
Continuous
 62
     0
440
 16777216
100
AcDbPoint
 10
89.84192661915676
 20
167.1349134126128
 30
0.0
  0
ENDBLK
  5
6836
330
6834
100
AcDbEntity
  8
0
100
AcDbBlockEnd
  0
BLOCK
  5
6841
330
6840
100
AcDbEntity
  8
0
100
AcDbBlockBegin
  2
*D41
 70
     1
 10
0.0
 20
0.0
 30
0.0
  3
*D41
  1

  0
LINE
  5
6885
330
6840
100
AcDbEntity
  8
30
  6
Continuous
 62
     0
440
 16777216
370
    -2
100
AcDbLine
 10
75.99999999999998
 20
235.1349134126127
 30
0.0
 11
97.6482753063178
 21
235.1349134126127
 31
0.0
  0
LINE
  5
6886
330
6840
100
AcDbEntity
  8
30
  6
Continuous
 62
     0
440
 16777216
370
    -2
100
AcDbLine
 10
43.49999999999995
 20
163.1349134126129
 30
0.0
 11
97.6482753063178
 21
163.1349134126129
 31
0.0
  0
LINE
  5
6887
330
6840
100
AcDbEntity
  8
30
  6
Continuous
 62
     0
440
 16777216
370
    -2
100
AcDbLine
 10
97.14827530631779
 20
233.1349134126127
 30
0.0
 11
97.14827530631779
 21
165.1349134126129
 31
0.0
  0
INSERT
  5
6888
330
6840
100
AcDbEntity
  8
30
  6
Continuous
 62
     0
440
 16777216
370
    -2
100
AcDbBlockReference
  2
_OPEN
 10
97.14827530631779
 20
235.1349134126127
 30
0.0
 41
2.0
 42
2.0
 43
2.0
 50
90.0
  0
INSERT
  5
6889
330
6840
100
AcDbEntity
  8
30
  6
Continuous
 62
     0
440
 16777216
370
    -2
100
AcDbBlockReference
  2
_OPEN
 10
97.14827530631779
 20
163.1349134126129
 30
0.0
 41
2.0
 42
2.0
 43
2.0
 50
270.0
  0
MTEXT
  5
688A
330
6840
100
AcDbEntity
  8
30
  6
Continuous
 62
     0
440
 16777216
100
AcDbMText
 10
94.14827530631777
 20
199.1349134126128
 30
0.0
 40
4.0
 41
0.0
 46
0.0
 71
     5
 72
     1
  1
\A1;72
 11
0.0000000000000001
 21
1.0
 31
0.0
 73
     1
 44
1.0
1001
ACAD
1000
MTEXTBEGIN
1070
    73
1070
     1
1070
    44
1040
1.0
1070
    74
1070
     0
1000
MTEXTEND
  0
POINT
  5
688B
330
6840
100
AcDbEntity
  8
DEFPOINTS
  6
Continuous
 62
     0
440
 16777216
100
AcDbPoint
 10
74.99999999999999
 20
235.1349134126127
 30
0.0
  0
POINT
  5
688C
330
6840
100
AcDbEntity
  8
DEFPOINTS
  6
Continuous
 62
     0
440
 16777216
100
AcDbPoint
 10
42.49999999999995
 20
163.1349134126129
 30
0.0
  0
POINT
  5
688D
330
6840
100
AcDbEntity
  8
DEFPOINTS
  6
Continuous
 62
     0
440
 16777216
100
AcDbPoint
 10
97.14827530631779
 20
163.1349134126129
 30
0.0
  0
ENDBLK
  5
6842
330
6840
100
AcDbEntity
  8
0
100
AcDbBlockEnd
  0
BLOCK
  5
684D
330
684C
100
AcDbEntity
  8
0
100
AcDbBlockBegin
  2
*D42
 70
     1
 10
0.0
 20
0.0
 30
0.0
  3
*D42
  1

  0
LINE
  5
688E
330
684C
100
AcDbEntity
  8
30
  6
Continuous
 62
     0
440
 16777216
370
    -2
100
AcDbLine
 10
75.99999999999997
 20
235.1349134126127
 30
0.0
 11
104.9546239934789
 21
235.1349134126127
 31
0.0
  0
LINE
  5
688F
330
684C
100
AcDbEntity
  8
30
  6
Continuous
 62
     0
440
 16777216
370
    -2
100
AcDbLine
 10
11.99999999999996
 20
159.1349134126129
 30
0.0
 11
104.9546239934789
 21
159.1349134126129
 31
0.0
  0
LINE
  5
6890
330
684C
100
AcDbEntity
  8
30
  6
Continuous
 62
     0
440
 16777216
370
    -2
100
AcDbLine
 10
104.4546239934789
 20
233.1349134126127
 30
0.0
 11
104.4546239934789
 21
161.1349134126129
 31
0.0
  0
INSERT
  5
6891
330
684C
100
AcDbEntity
  8
30
  6
Continuous
 62
     0
440
 16777216
370
    -2
100
AcDbBlockReference
  2
_OPEN
 10
104.4546239934789
 20
235.1349134126127
 30
0.0
 41
2.0
 42
2.0
 43
2.0
 50
90.0
  0
INSERT
  5
6892
330
684C
100
AcDbEntity
  8
30
  6
Continuous
 62
     0
440
 16777216
370
    -2
100
AcDbBlockReference
  2
_OPEN
 10
104.4546239934789
 20
159.1349134126129
 30
0.0
 41
2.0
 42
2.0
 43
2.0
 50
270.0
  0
MTEXT
  5
6893
330
684C
100
AcDbEntity
  8
30
  6
Continuous
 62
     0
440
 16777216
100
AcDbMText
 10
101.4546239934789
 20
197.1349134126128
 30
0.0
 40
4.0
 41
0.0
 46
0.0
 71
     5
 72
     1
  1
\A1;76
 11
0.0000000000000001
 21
1.0
 31
0.0
 73
     1
 44
1.0
1001
ACAD
1000
MTEXTBEGIN
1070
    73
1070
     1
1070
    44
1040
1.0
1070
    74
1070
     0
1000
MTEXTEND
  0
POINT
  5
6894
330
684C
100
AcDbEntity
  8
DEFPOINTS
  6
Continuous
 62
     0
440
 16777216
100
AcDbPoint
 10
74.99999999999997
 20
235.1349134126127
 30
0.0
  0
POINT
  5
6895
330
684C
100
AcDbEntity
  8
DEFPOINTS
  6
Continuous
 62
     0
440
 16777216
100
AcDbPoint
 10
10.99999999999996
 20
159.1349134126129
 30
0.0
  0
POINT
  5
6896
330
684C
100
AcDbEntity
  8
DEFPOINTS
  6
Continuous
 62
     0
440
 16777216
100
AcDbPoint
 10
104.4546239934789
 20
159.1349134126129
 30
0.0
  0
ENDBLK
  5
684E
330
684C
100
AcDbEntity
  8
0
100
AcDbBlockEnd
  0
BLOCK
  5
68B2
330
68B1
100
AcDbEntity
  8
0
100
AcDbBlockBegin
  2
*D43
 70
     1
 10
0.0
 20
0.0
 30
0.0
  3
*D43
  1

  0
LINE
  5
68B4
330
68B1
100
AcDbEntity
  8
30
  6
Continuous
 62
     0
370
    -2
100
AcDbLine
 10
-41.99999999999996
 20
168.1349134126128
 30
0.0
 11
-41.99999999999996
 21
178.6268421205927
 31
0.0
  0
LINE
  5
68B5
330
68B1
100
AcDbEntity
  8
30
  6
Continuous
 62
     0
370
    -2
100
AcDbLine
 10
42.00000000000001
 20
168.1349134126128
 30
0.0
 11
42.00000000000001
 21
178.6268421205927
 31
0.0
  0
LINE
  5
68B6
330
68B1
100
AcDbEntity
  8
30
  6
Continuous
 62
     0
370
    -2
100
AcDbLine
 10
-39.99999999999996
 20
178.1268421205927
 30
0.0
 11
40.0
 21
178.1268421205927
 31
0.0
  0
INSERT
  5
68B7
330
68B1
100
AcDbEntity
  8
30
  6
Continuous
 62
     0
370
    -2
100
AcDbBlockReference
  2
_OPEN
 10
-41.99999999999996
 20
178.1268421205927
 30
0.0
 41
2.0
 42
2.0
 43
2.0
 50
180.0
  0
INSERT
  5
68B8
330
68B1
100
AcDbEntity
  8
30
  6
Continuous
 62
     0
370
    -2
100
AcDbBlockReference
  2
_OPEN
 10
42.00000000000001
 20
178.1268421205927
 30
0.0
 41
2.0
 42
2.0
 43
2.0
  0
MTEXT
  5
68B9
330
68B1
100
AcDbEntity
  8
30
  6
Continuous
 62
     0
100
AcDbMText
 10
0.0000000000000215
 20
181.1268421205927
 30
0.0
 40
4.0
 41
0.0
 46
0.0
 71
     5
 72
     1
  1
\A1;84
 73
     1
 44
1.0
1001
ACAD
1000
MTEXTBEGIN
1070
    73
1070
     1
1070
    44
1040
1.0
1070
    74
1070
     0
1000
MTEXTEND
  0
POINT
  5
68BA
330
68B1
100
AcDbEntity
  8
DEFPOINTS
  6
Continuous
 62
     0
100
AcDbPoint
 10
-41.99999999999996
 20
167.1349134126128
 30
0.0
  0
POINT
  5
68BB
330
68B1
100
AcDbEntity
  8
DEFPOINTS
  6
Continuous
 62
     0
100
AcDbPoint
 10
42.00000000000001
 20
167.1349134126128
 30
0.0
  0
POINT
  5
68BC
330
68B1
100
AcDbEntity
  8
DEFPOINTS
  6
Continuous
 62
     0
100
AcDbPoint
 10
42.00000000000001
 20
178.1268421205927
 30
0.0
  0
ENDBLK
  5
68B3
330
68B1
100
AcDbEntity
  8
0
100
AcDbBlockEnd
  0
ENDSEC
  0
SECTION
  2
ENTITIES
  0
LINE
  5
B4
330
1E
100
AcDbEntity
  8
16
100
AcDbLine
 10
0.0
 20
-101.8246001220914
 30
0.0
 11
0.0
 21
105.6073578546832
 31
0.0
  0
LINE
  5
B5
330
1E
100
AcDbEntity
  8
16
100
AcDbLine
 10
71.77465564206305
 20
-0.0000000000000018
 30
0.0
 11
-83.90588178115756
 21
-0.0000000000000018
 31
0.0
  0
MTEXT
  5
BF3
330
1E
100
AcDbEntity
  8
24
  6
Continuous
100
AcDbMText
 10
140.9820964648285
 20
176.3476821548369
 30
0.0
 40
3.0
 41
0.0
 46
0.0
 71
     1
 72
     1
  1
\A1;
 73
     1
 44
1.0
1001
ACAD
1000
MTEXTBEGIN
1070
    73
1070
     1
1070
    44
1040
1.0
1070
    74
1070
     0
1000
MTEXTEND
  0
LINE
  5
1C9B
330
1E
100
AcDbEntity
  8
16
100
AcDbLine
 10
252.2605240987882
 20
0.0102925531034544
 30
0.0
 11
120.0952764866181
 21
0.0102925531034544
 31
0.0
  0
LINE
  5
2260
330
1E
100
AcDbEntity
  8
16
100
AcDbLine
 10
87.32666213088251
 20
-253.4106968373281
 30
0.0
 11
-80.93000773675209
 21
-252.6631237443548
 31
0.0
  0
LINE
  5
2261
330
1E
100
AcDbEntity
  8
16
100
AcDbLine
 10
-0.3800945351711884
 20
-350.4150635072006
 30
0.0
 11
-0.3800945351711884
 21
-151.2797245348689
 31
0.0
  0
LINE
  5
4C5A
330
1E
100
AcDbEntity
  8
16
100
AcDbLine
 10
88.49441808474184
 20
-0.0000000000000018
 30
0.0
 11
-83.90588178115756
 21
-0.0000000000000018
 31
0.0
  0
DIMENSION
  5
59B9
330
1E
100
AcDbEntity
  8
30
  6
Continuous
100
AcDbDimension
280
     0
  2
*D4
 10
217.9923778520064
 20
-136.2757960792595
 30
0.0
 11
171.9923778520064
 21
-133.2757960792595
 31
0.0
 70
    32
 71
     5
 42
-1.0
 73
     0
 74
     0
 75
     0
  3
STANDARD
100
AcDbAlignedDimension
 13
125.9923778520064
 23
0.0102925531034544
 33
0.0
 14
217.9923778520064
 24
-77.48970744689656
 34
0.0
 50
180.0
100
AcDbRotatedDimension
1001
ACAD
1000
DSTYLE
1002
{
1070
    79
1070
     3
1002
}
  0
DIMENSION
  5
59BA
330
1E
100
AcDbEntity
  8
30
  6
Continuous
100
AcDbDimension
280
     0
  2
*D5
 10
145.9923778520064
 20
-121.8996550098397
 30
0.0
 11
152.3257111853398
 21
-118.8996550098394
 31
0.0
 70
    32
 71
     5
 42
-1.0
 73
     0
 74
     0
 75
     0
  3
STANDARD
100
AcDbAlignedDimension
 13
141.9923778520064
 23
-24.98970744689656
 33
0.0
 14
145.9923778520064
 24
-24.98970744689656
 34
0.0
 50
180.0
100
AcDbRotatedDimension
1001
ACAD
1000
DSTYLE
1002
{
1070
    79
1070
     3
1002
}
  0
DIMENSION
  5
59BB
330
1E
100
AcDbEntity
  8
30
  6
Continuous
100
AcDbDimension
280
     0
  2
*D6
 10
217.9923778520064
 20
-121.8996550098397
 30
0.0
 11
181.9923778520064
 21
-118.8996550098394
 31
0.0
 70
    32
 71
     5
 42
-1.0
 73
     0
 74
     0
 75
     0
  3
STANDARD
100
AcDbAlignedDimension
 13
145.9923778520064
 23
-24.98970744689656
 33
0.0
 14
217.9923778520064
 24
-77.48970744689656
 34
0.0
 50
180.0
100
AcDbRotatedDimension
1001
ACAD
1000
DSTYLE
1002
{
1070
    79
1070
     3
1002
}
  0
DIMENSION
  5
59BE
330
1E
100
AcDbEntity
  8
30
  6
Continuous
100
AcDbDimension
280
     0
  2
*D7
 10
113.3096155908132
 20
25.01029255310343
 30
0.0
 11
110.3096155908132
 21
0.010292553103462
 31
0.0
 70
    32
 71
     5
 42
-1.0
 73
     0
 74
     0
 75
     0
  3
STANDARD
100
AcDbAlignedDimension
 13
141.9923778520064
 23
-24.98970744689656
 33
0.0
 14
141.9923778520064
 24
25.01029255310343
 34
0.0
 50
90.0
100
AcDbRotatedDimension
1001
ACAD
1000
DSTYLE
1002
{
1070
    79
1070
     3
1002
}
  0
LINE
  5
59BF
330
1E
100
AcDbEntity
  8
10
  6
CONTINOUS
100
AcDbLine
 10
141.9923778520064
 20
14.1757293925334
 30
0.0
 11
133.4385826705174
 21
20.16516125891396
 31
0.0
  0
LINE
  5
59C0
330
1E
100
AcDbEntity
  8
10
  6
CONTINOUS
100
AcDbLine
 10
141.9923778520064
 20
6.851081859964692
 30
0.0
 11
129.9971240524111
 21
15.25024899318005
 31
0.0
  0
ARC
  5
59C2
330
1E
100
AcDbEntity
  8
30
  6
Continuous
100
AcDbCircle
 10
156.9923778520064
 20
0.0102925531034544
 30
0.0
 40
31.0
100
AcDbArc
 50
150.5534441956585
 51
180.0
  0
LINE
  5
59C5
330
1E
100
AcDbEntity
  8
10
  6
CONTINOUS
100
AcDbLine
 10
129.9971240524111
 20
15.25024899318005
 30
0.0
 11
133.4385826705174
 21
20.16516125891396
 31
0.0
  0
DIMENSION
  5
59C6
330
1E
100
AcDbEntity
  8
30
  6
Continuous
100
AcDbDimension
280
     0
  2
*D8
 10
217.9923778520064
 20
108.2608744091517
 30
0.0
 11
205.9923778520064
 21
111.2608744091517
 31
0.0
 70
    32
 71
     5
 42
-1.0
 73
     0
 74
     0
 75
     0
  3
STANDARD
100
AcDbAlignedDimension
 13
193.9923778520064
 23
77.51029255310347
 33
0.0
 14
217.9923778520064
 24
77.51029255310354
 34
0.0
100
AcDbRotatedDimension
1001
ACAD
1000
DSTYLE
1002
{
1070
    79
1070
     3
1002
}
  0
LINE
  5
59C7
330
1E
100
AcDbEntity
  8
10
  6
CONTINOUS
100
AcDbLine
 10
149.9923778520065
 20
51.01029255310336
 30
0.0
 11
149.9923778520065
 21
-50.98970744689665
 31
0.0
  0
LINE
  5
59C8
330
1E
100
AcDbEntity
  8
10
  6
CONTINOUS
100
AcDbLine
 10
145.9923778520064
 20
25.01029255310344
 30
0.0
 11
145.9923778520064
 21
-24.98970744689656
 31
0.0
  0
LINE
  5
59C9
330
1E
100
AcDbEntity
  8
10
  6
CONTINOUS
100
AcDbLine
 10
217.9923778520064
 20
77.51029255310354
 30
0.0
 11
217.9923778520064
 21
-77.48970744689656
 31
0.0
  0
LINE
  5
59CA
330
1E
100
AcDbEntity
  8
10
  6
CONTINOUS
100
AcDbLine
 10
141.9923778520064
 20
25.01029255310344
 30
0.0
 11
141.9923778520064
 21
-24.98970744689656
 31
0.0
  0
LINE
  5
59CD
330
1E
100
AcDbEntity
  8
12
  6
DASHED
100
AcDbLine
 10
217.9923778520064
 20
-63.73970744689657
 30
0.0
 11
225.9923778520064
 21
-63.73970744689657
 31
0.0
  0
LINE
  5
59CE
330
1E
100
AcDbEntity
  8
12
  6
DASHED
100
AcDbLine
 10
146.9923778520069
 20
-65.9897074468966
 30
0.0
 11
235.9923778520065
 21
-65.9897074468966
 31
0.0
  0
LINE
  5
59CF
330
1E
100
AcDbEntity
  8
12
  6
DASHED
100
AcDbLine
 10
217.9923778520064
 20
-68.23970744689657
 30
0.0
 11
225.9923778520064
 21
-68.23970744689657
 31
0.0
  0
DIMENSION
  5
59D0
330
1E
100
AcDbEntity
  8
30
  6
Continuous
100
AcDbDimension
280
     0
  2
*D9
 10
217.9923778520064
 20
-109.4248887595564
 30
0.0
 11
183.9923778520064
 21
-106.4248887595564
 31
0.0
 70
    32
 71
     5
 42
-1.0
 73
     0
 74
     0
 75
     0
  3
STANDARD
100
AcDbAlignedDimension
 13
149.9923778520065
 23
-50.98970744689665
 33
0.0
 14
217.9923778520064
 24
-77.48970744689656
 34
0.0
 50
180.0
100
AcDbRotatedDimension
1001
ACAD
1000
DSTYLE
1002
{
1070
    79
1070
     3
1002
}
  0
DIMENSION
  5
59D1
330
1E
100
AcDbEntity
  8
30
  6
Continuous
100
AcDbDimension
280
     0
  2
*D10
 10
217.9923778520064
 20
-97.83544422304402
 30
0.0
 11
187.4923778520065
 21
-94.83544422304399
 31
0.0
 70
    32
 71
     5
 42
-1.0
 73
     0
 74
     0
 75
     0
  3
STANDARD
100
AcDbAlignedDimension
 13
156.9923778520063
 23
-77.48970744689656
 33
0.0
 14
217.9923778520064
 24
-77.48970744689656
 34
0.0
 50
180.0
100
AcDbRotatedDimension
1001
ACAD
1000
DSTYLE
1002
{
1070
    79
1070
     3
1002
}
  0
DIMENSION
  5
59D2
330
1E
100
AcDbEntity
  8
30
  6
Continuous
100
AcDbDimension
280
     0
  2
*D11
 10
217.9923778520064
 20
-87.57398143985339
 30
0.0
 11
195.4923778520064
 21
-84.57398143985342
 31
0.0
 70
    32
 71
     5
 42
-1.0
 73
     0
 74
     0
 75
     0
  3
STANDARD
100
AcDbAlignedDimension
 13
172.9923778520064
 23
-70.23970744689655
 33
0.0
 14
217.9923778520064
 24
-77.48970744689656
 34
0.0
 50
180.0
100
AcDbRotatedDimension
1001
ACAD
1000
DSTYLE
1002
{
1070
    79
1070
     3
1002
}
  0
LINE
  5
59D3
330
1E
100
AcDbEntity
  8
12
  6
DASHED
100
AcDbLine
 10
172.9923778520064
 20
-68.23970744689657
 30
0.0
 11
217.9923778520064
 21
-68.23970744689657
 31
0.0
  0
LINE
  5
59D4
330
1E
100
AcDbEntity
  8
12
  6
DASHED
100
AcDbLine
 10
172.9923778520064
 20
-63.73970744689657
 30
0.0
 11
217.9923778520064
 21
-63.73970744689657
 31
0.0
  0
LINE
  5
59D5
330
1E
100
AcDbEntity
  8
10
  6
CONTINOUS
100
AcDbLine
 10
156.9923778520064
 20
-77.48970744689656
 30
0.0
 11
217.9923778520064
 21
-77.48970744689656
 31
0.0
  0
LINE
  5
59D6
330
1E
100
AcDbEntity
  8
10
  6
CONTINOUS
100
AcDbLine
 10
156.9923778520064
 20
-50.98970744689649
 30
0.0
 11
156.9923778520064
 21
-77.48970744689656
 31
0.0
  0
LINE
  5
59D7
330
1E
100
AcDbEntity
  8
12
  6
DASHED
100
AcDbLine
 10
156.9923778520064
 20
-70.23970744689655
 30
0.0
 11
172.9923778520064
 21
-70.23970744689655
 31
0.0
  0
LINE
  5
59D8
330
1E
100
AcDbEntity
  8
12
  6
DASHED
100
AcDbLine
 10
156.9923778520064
 20
-61.73970744689651
 30
0.0
 11
172.9923778520064
 21
-61.73970744689651
 31
0.0
  0
LINE
  5
59D9
330
1E
100
AcDbEntity
  8
12
  6
DASHED
100
AcDbLine
 10
172.9923778520064
 20
-61.73970744689651
 30
0.0
 11
172.9923778520064
 21
-70.23970744689655
 31
0.0
  0
LINE
  5
59DA
330
1E
100
AcDbEntity
  8
12
  6
DASHED
100
AcDbLine
 10
166.9923778520064
 20
-61.73970744689651
 30
0.0
 11
166.9923778520064
 21
-70.23970744689655
 31
0.0
  0
LINE
  5
59DB
330
1E
100
AcDbEntity
  8
12
  6
DASHED
100
AcDbLine
 10
172.9923778520064
 20
-68.23970744689654
 30
0.0
 11
172.9923778520064
 21
-70.23970744689655
 31
0.0
  0
LINE
  5
59DC
330
1E
100
AcDbEntity
  8
12
  6
DASHED
100
AcDbLine
 10
172.9923778520064
 20
-61.73970744689651
 30
0.0
 11
172.9923778520064
 21
-63.73970744689657
 31
0.0
  0
LINE
  5
59DD
330
1E
100
AcDbEntity
  8
10
  6
CONTINOUS
100
AcDbLine
 10
149.9923778520065
 20
-50.98970744689665
 30
0.0
 11
156.9923778520064
 21
-50.98970744689665
 31
0.0
  0
LINE
  5
59DE
330
1E
100
AcDbEntity
  8
10
  6
CONTINOUS
100
AcDbLine
 10
141.9923778520064
 20
-24.98970744689656
 30
0.0
 11
149.9923778520065
 21
-24.98970744689656
 31
0.0
  0
LINE
  5
59DF
330
1E
100
AcDbEntity
  8
12
  6
DASHED
100
AcDbLine
 10
225.9923778520064
 20
-63.73970744689654
 30
0.0
 11
225.9923778520064
 21
-68.23970744689654
 31
0.0
  0
LINE
  5
59E0
330
1E
100
AcDbEntity
  8
10
  6
CONTINOUS
100
AcDbLine
 10
141.9923778520064
 20
25.01029255310344
 30
0.0
 11
149.9923778520065
 21
25.01029255310344
 31
0.0
  0
LINE
  5
59E1
330
1E
100
AcDbEntity
  8
10
  6
CONTINOUS
100
AcDbLine
 10
156.9923778520064
 20
77.51029255310347
 30
0.0
 11
217.9923778520064
 21
77.51029255310354
 31
0.0
  0
LINE
  5
59E2
330
1E
100
AcDbEntity
  8
10
  6
CONTINOUS
100
AcDbLine
 10
156.9923778520064
 20
77.51029255310347
 30
0.0
 11
156.9923778520064
 21
51.01029255310343
 31
0.0
  0
LINE
  5
59E3
330
1E
100
AcDbEntity
  8
10
  6
CONTINOUS
100
AcDbLine
 10
149.9923778520065
 20
51.01029255310343
 30
0.0
 11
156.9923778520064
 21
51.01029255310343
 31
0.0
  0
LINE
  5
59E4
330
1E
100
AcDbEntity
  8
24
  6
CONTINOUS
100
AcDbLine
 10
195.9923778520064
 20
77.51029255310347
 30
0.0
 11
195.9923778520064
 21
56.51029255310335
 31
0.0
  0
LINE
  5
59E5
330
1E
100
AcDbEntity
  8
24
  6
CONTINOUS
100
AcDbLine
 10
186.7923778520065
 20
72.01029255310341
 30
0.0
 11
186.7923778520065
 21
62.01029255310341
 31
0.0
  0
LINE
  5
59E6
330
1E
100
AcDbEntity
  8
24
  6
CONTINOUS
100
AcDbLine
 10
191.9923778520064
 20
74.71029255310341
 30
0.0
 11
191.9923778520064
 21
59.31029255310344
 31
0.0
  0
LINE
  5
59E7
330
1E
100
AcDbEntity
  8
24
  6
CONTINOUS
100
AcDbLine
 10
193.9923778520064
 20
77.51029255310347
 30
0.0
 11
193.9923778520064
 21
56.51029255310335
 31
0.0
  0
LINE
  5
59E8
330
1E
100
AcDbEntity
  8
24
  6
CONTINOUS
100
AcDbLine
 10
188.7923778520066
 20
60.01029255310342
 30
0.0
 11
191.9923778520064
 21
60.01029255310342
 31
0.0
  0
LINE
  5
59E9
330
1E
100
AcDbEntity
  8
24
  6
CONTINOUS
100
AcDbLine
 10
181.7923778520063
 20
67.01029255310341
 30
0.0
 11
198.9923778520065
 21
67.01029255310341
 31
0.0
  0
ARC
  5
59EA
330
1E
100
AcDbEntity
  8
24
  6
CONTINOUS
100
AcDbCircle
 10
188.7923778520066
 20
62.01029255310341
 30
0.0
 40
2.0
100
AcDbArc
 50
180.0
 51
270.0
  0
LINE
  5
59EB
330
1E
100
AcDbEntity
  8
24
  6
CONTINOUS
100
AcDbLine
 10
193.9923778520064
 20
56.51029255310335
 30
0.0
 11
195.9923778520064
 21
56.51029255310335
 31
0.0
  0
LINE
  5
59EC
330
1E
100
AcDbEntity
  8
24
  6
CONTINOUS
100
AcDbLine
 10
191.9923778520064
 20
59.31029255310344
 30
0.0
 11
193.9923778520064
 21
59.31029255310344
 31
0.0
  0
LINE
  5
59ED
330
1E
100
AcDbEntity
  8
24
  6
CONTINOUS
100
AcDbLine
 10
188.7923778520066
 20
74.01029255310341
 30
0.0
 11
191.9923778520064
 21
74.01029255310341
 31
0.0
  0
ARC
  5
59EE
330
1E
100
AcDbEntity
  8
24
  6
CONTINOUS
100
AcDbCircle
 10
188.7923778520066
 20
72.01029255310341
 30
0.0
 40
2.0
100
AcDbArc
 50
90.0
 51
180.0
  0
LINE
  5
59EF
330
1E
100
AcDbEntity
  8
24
  6
CONTINOUS
100
AcDbLine
 10
191.9923778520064
 20
74.71029255310341
 30
0.0
 11
193.9923778520064
 21
74.71029255310341
 31
0.0
  0
DIMENSION
  5
59F0
330
1E
100
AcDbEntity
  8
30
  6
Continuous
100
AcDbDimension
280
     0
  2
*D12
 10
274.4923778520064
 20
27.6098009537836
 30
0.0
 11
265.9923778520066
 21
30.6098009537836
 31
0.0
 70
    32
 71
     5
 42
-1.0
 73
     0
 74
     0
 75
     0
  3
STANDARD
100
AcDbAlignedDimension
 13
257.4923778520064
 23
43.01029255310345
 33
0.0
 14
274.4923778520064
 24
43.01029255310345
 34
0.0
 50
180.0
100
AcDbRotatedDimension
1001
ACAD
1000
DSTYLE
1002
{
1070
    79
1070
     3
1002
}
  0
INSERT
  5
59F1
330
1E
100
AcDbEntity
  8
30
  6
Continuous
100
AcDbBlockReference
  2
*U3
 10
-371.545899659955
 20
-244.2651990414663
 30
0.0
 41
2.5
 42
2.5
 43
2.5
  0
INSERT
  5
59F2
330
1E
100
AcDbEntity
  8
30
  6
Continuous
100
AcDbBlockReference
  2
*U2
 10
-371.545899659955
 20
-244.2651990414663
 30
0.0
 41
2.5
 42
2.5
 43
2.5
  0
INSERT
  5
59F3
330
1E
100
AcDbEntity
  8
30
  6
Continuous
100
AcDbBlockReference
  2
*U1
 10
-371.545899659955
 20
-244.2651990414663
 30
0.0
 41
2.5
 42
2.5
 43
2.5
  0
ARC
  5
59F4
330
1E
100
AcDbEntity
  8
24
  6
Continuous
100
AcDbCircle
 10
261.6173778520066
 20
68.65577761767593
 30
0.0
 40
8.0
100
AcDbArc
 50
58.9607599896022
 51
121.0392400103977
  0
CIRCLE
  5
59F5
330
1E
100
AcDbEntity
  8
17
  6
DASHDOT
100
AcDbCircle
 10
265.9923778520066
 20
51.51029255310342
 30
0.0
 40
4.5
  0
LINE
  5
59F6
330
1E
100
AcDbEntity
  8
24
  6
Continuous
100
AcDbLine
 10
265.3169338818679
 20
75.74896344506797
 30
0.0
 11
269.7878198205435
 21
73.41710672571124
 31
0.0
  0
LINE
  5
59F7
330
1E
100
AcDbEntity
  8
17
  6
DASHDOT
100
AcDbLine
 10
259.7423778520066
 20
51.51029255310342
 30
0.0
 11
272.2423778520066
 21
51.51029255310342
 31
0.0
  0
LINE
  5
59F8
330
1E
100
AcDbEntity
  8
24
  6
Continuous
100
AcDbLine
 10
257.4923778520064
 20
43.01029255310345
 30
0.0
 11
274.4923778520064
 21
43.01029255310345
 31
0.0
  0
LINE
  5
59FA
330
1E
100
AcDbEntity
  8
24
  6
Continuous
100
AcDbLine
 10
257.4923778520064
 20
75.51029255310348
 30
0.0
 11
257.4923778520064
 21
43.01029255310345
 31
0.0
  0
LINE
  5
59FC
330
1E
100
AcDbEntity
  8
24
  6
Continuous
100
AcDbLine
 10
274.4923778520064
 20
72.57367041413417
 30
0.0
 11
274.4923778520064
 21
43.01029255310345
 31
0.0
  0
DIMENSION
  5
59FD
330
1E
100
AcDbEntity
  8
30
  6
Continuous
100
AcDbDimension
280
     0
  2
*D13
 10
289.0791003447947
 20
51.51029255310342
 30
0.0
 11
294.0791003447947
 21
56.51029255310345
 31
0.0
 70
    32
 71
     5
 42
-1.0
 73
     0
 74
     0
 75
     0
  3
STANDARD
100
AcDbAlignedDimension
 13
274.4923778520064
 23
43.01029255310345
 33
0.0
 14
268.4923778685063
 24
51.51029255310342
 34
0.0
 50
270.0
100
AcDbRotatedDimension
1001
ACAD
1000
DSTYLE
1002
{
1070
    79
1070
     3
1002
}
  0
LINE
  5
59FE
330
1E
100
AcDbEntity
  8
17
  6
DASHDOT
100
AcDbLine
 10
265.9923778520066
 20
57.76029255310342
 30
0.0
 11
265.9923778520068
 21
45.26029255310342
 31
0.0
  0
ARC
  5
59FF
330
1E
100
AcDbEntity
  8
24
  6
Continuous
100
AcDbCircle
 10
273.487375850405
 20
80.51029255310348
 30
0.0
 40
8.0
100
AcDbArc
 50
242.4550403035893
 51
277.2168646146247
  0
TEXT
  5
5C38
330
1E
100
AcDbEntity
  8
30
  6
Continuous
100
AcDbText
 10
168.6064450230434
 20
95.05011022994844
 30
0.0
 40
5.0
  1
M8
  7
STANDARD1
100
AcDbText
  0
TEXT
  5
5C39
330
1E
100
AcDbEntity
  8
30
  6
Continuous
100
AcDbText
 10
240.5305604766125
 20
76.12678862702907
 30
0.0
 40
5.0
  1
%%c9
  7
STANDARD1
100
AcDbText
  0
LEADER
  5
5C77
330
1E
100
AcDbEntity
  8
30
  6
Continuous
100
AcDbLeader
  3
STANDARD
 76
     3
 10
188.9205243462294
 20
74.67885470276758
 30
0.0
 10
179.5845267176718
 20
93.78586083856806
 30
0.0
 10
164.9887963705035
 20
93.73183951396162
 30
0.0
213
-1.25858682190082
223
2.501630256352555
233
0.0
1001
ACAD
1000
DSTYLE
1002
{
1070
     5
1000
OPEN
1070
    79
1070
     3
1070
   342
1005
3B2
1002
}
  0
MTEXT
  5
5C78
330
1E
100
AcDbEntity
  8
30
  6
Continuous
100
AcDbMText
 10
162.3297648581359
 20
88.99793930010117
 30
0.0
 40
4.0
 41
0.0
 46
0.0
 71
     9
 72
     1
  1

 73
     1
 44
1.0
1001
ACAD
1000
MTEXTBEGIN
1070
    73
1070
     1
1070
    44
1040
1.0
1070
    74
1070
     0
1000
MTEXTEND
  0
LEADER
  5
5C79
330
1E
100
AcDbEntity
  8
30
  6
Continuous
100
AcDbLeader
  3
STANDARD
 76
     3
 10
261.8302485034083
 20
55.12750014792604
 30
0.0
 10
252.4942508748509
 20
74.23450628372655
 30
0.0
 10
237.9441190148376
 20
74.20275950500036
 30
0.0
213
0.0
223
2.0
233
0.0
1001
ACAD
1000
DSTYLE
1002
{
1070
     5
1000
OPEN
1070
    77
1070
     0
1070
    79
1070
     3
1070
   147
1040
1.0
1070
   342
1005
3B2
1002
}
  0
DIMENSION
  5
5E29
330
1E
100
AcDbEntity
  8
30
  6
Continuous
100
AcDbDimension
280
     0
  2
*D14
 10
42.00000000000001
 20
32.59950840068015
 30
0.0
 11
0.0000000000000215
 21
35.59950840068014
 31
0.0
 70
    32
 71
     5
 42
-1.0
 73
     0
 74
     0
 75
     0
  3
STANDARD
100
AcDbAlignedDimension
 13
-41.99999999999996
 23
24.99999999999996
 33
0.0
 14
42.00000000000001
 24
24.99999999999996
 34
0.0
100
AcDbRotatedDimension
1001
ACAD
1000
DSTYLE
1002
{
1070
    79
1070
     3
1002
}
  0
DIMENSION
  5
5E2A
330
1E
100
AcDbEntity
  8
30
  6
Continuous
100
AcDbDimension
280
     0
  2
*D15
 10
75.00000000000003
 20
-121.7494181439514
 30
0.0
 11
15.0
 21
-118.7494181439514
 31
0.0
 70
    32
 71
     5
 42
-1.0
 73
     0
 74
     0
 75
     0
  3
STANDARD
100
AcDbAlignedDimension
 13
-44.99999999999997
 23
-77.50000000000003
 33
0.0
 14
75.00000000000003
 24
-77.50000000000003
 34
0.0
 50
180.0
100
AcDbRotatedDimension
1001
ACAD
1000
DSTYLE
1002
{
1070
    79
1070
     3
1002
}
  0
ARC
  5
5E2B
330
1E
100
AcDbEntity
  8
10
  6
CONTINOUS
100
AcDbCircle
 10
-33.74999999999992
 20
-66.00000000000004
 30
0.0
 40
5.0
100
AcDbArc
 50
90.0
 51
180.0
  0
ARC
  5
5E2C
330
1E
100
AcDbEntity
  8
10
  6
CONTINOUS
100
AcDbCircle
 10
33.74999999999992
 20
65.99999999999997
 30
0.0
 40
5.0
210
0.0
220
0.0
230
-1.0
100
AcDbArc
 50
270.0
 51
0.0
  0
LINE
  5
5E2D
330
1E
100
AcDbEntity
  8
10
  6
CONTINOUS
100
AcDbLine
 10
-41.99999999999996
 20
-25.0
 30
0.0
 11
42.00000000000001
 21
-25.0
 31
0.0
  0
LINE
  5
5E2E
330
1E
100
AcDbEntity
  8
10
  6
CONTINOUS
100
AcDbLine
 10
-44.99999999999997
 20
-51.00000000000008
 30
0.0
 11
75.00000000000003
 21
-51.00000000000008
 31
0.0
  0
LINE
  5
5E2F
330
1E
100
AcDbEntity
  8
10
  6
CONTINOUS
100
AcDbLine
 10
-44.99999999999997
 20
50.99999999999996
 30
0.0
 11
75.00000000000003
 21
50.99999999999996
 31
0.0
  0
LINE
  5
5E30
330
1E
100
AcDbEntity
  8
10
  6
CONTINOUS
100
AcDbLine
 10
75.00000000000003
 20
77.49999999999997
 30
0.0
 11
-44.99999999999997
 21
77.49999999999997
 31
0.0
  0
LINE
  5
5E31
330
1E
100
AcDbEntity
  8
10
  6
CONTINOUS
100
AcDbLine
 10
-44.99999999999997
 20
-77.50000000000003
 30
0.0
 11
75.00000000000003
 21
-77.50000000000003
 31
0.0
  0
LINE
  5
5E32
330
1E
100
AcDbEntity
  8
10
  6
CONTINOUS
100
AcDbLine
 10
-41.99999999999996
 20
25.0
 30
0.0
 11
42.00000000000001
 21
25.0
 31
0.0
  0
LINE
  5
5E33
330
1E
100
AcDbEntity
  8
10
  6
CONTINOUS
100
AcDbLine
 10
-41.99999999999996
 20
25.0
 30
0.0
 11
-41.99999999999996
 21
-25.0
 31
0.0
  0
LINE
  5
5E34
330
1E
100
AcDbEntity
  8
10
  6
CONTINOUS
100
AcDbLine
 10
-44.99999999999997
 20
77.49999999999997
 30
0.0
 11
-44.99999999999997
 21
-77.50000000000003
 31
0.0
  0
LINE
  5
5E35
330
1E
100
AcDbEntity
  8
10
  6
CONTINOUS
100
AcDbLine
 10
-38.74999999999996
 20
-66.00000000000004
 30
0.0
 11
-38.74999999999996
 21
-77.50000000000003
 31
0.0
  0
LINE
  5
5E36
330
1E
100
AcDbEntity
  8
10
  6
CONTINOUS
100
AcDbLine
 10
-38.74999999999996
 20
65.99999999999997
 30
0.0
 11
-38.74999999999996
 21
77.49999999999997
 31
0.0
  0
LINE
  5
5E38
330
1E
100
AcDbEntity
  8
18
100
AcDbLine
 10
13.50000000000003
 20
124.4999999999996
 30
0.0
 11
13.50000000000003
 21
77.49999999999973
 31
0.0
  0
LINE
  5
5E39
330
1E
100
AcDbEntity
  8
18
100
AcDbLine
 10
16.5
 20
124.4999999999996
 30
0.0
 11
16.5
 21
77.49999999999973
 31
0.0
  0
LINE
  5
5E3A
330
1E
100
AcDbEntity
  8
18
100
AcDbLine
 10
-13.49999999999999
 20
124.4999999999996
 30
0.0
 11
-13.49999999999999
 21
77.49999999999973
 31
0.0
  0
LINE
  5
5E3B
330
1E
100
AcDbEntity
  8
18
100
AcDbLine
 10
-16.5
 20
124.4999999999996
 30
0.0
 11
-16.5
 21
77.49999999999973
 31
0.0
  0
LINE
  5
5E3C
330
1E
100
AcDbEntity
  8
10
  6
CONTINOUS
100
AcDbLine
 10
42.00000000000001
 20
25.0
 30
0.0
 11
42.00000000000001
 21
-25.0
 31
0.0
  0
LINE
  5
5E3E
330
1E
100
AcDbEntity
  8
10
  6
CONTINOUS
100
AcDbLine
 10
11.00000000000003
 20
25.0
 30
0.0
 11
11.00000000000003
 21
-25.0
 31
0.0
  0
LINE
  5
5E3F
330
1E
100
AcDbEntity
  8
10
  6
CONTINOUS
100
AcDbLine
 10
-10.99999999999999
 20
25.0
 30
0.0
 11
-10.99999999999999
 21
-25.0
 31
0.0
  0
LINE
  5
5E40
330
1E
100
AcDbEntity
  8
10
  6
CONTINOUS
100
AcDbLine
 10
75.00000000000003
 20
-77.50000000000003
 30
0.0
 11
75.00000000000003
 21
77.49999999999997
 31
0.0
  0
DIMENSION
  5
5E41
330
1E
100
AcDbEntity
  8
30
  6
Continuous
100
AcDbDimension
280
     0
  2
*D16
 10
30.00000000000001
 20
-101.7494181439513
 30
0.0
 11
0.000000000000041
 21
-98.7494181439515
 31
0.0
 70
    32
 71
     5
 42
-1.0
 73
     0
 74
     0
 75
     0
  3
STANDARD
100
AcDbAlignedDimension
 13
-29.99999999999995
 23
-69.50000001650003
 33
0.0
 14
30.00000000000003
 24
-69.50000001650003
 34
0.0
 50
180.0
100
AcDbRotatedDimension
1001
ACAD
1000
DSTYLE
1002
{
1070
    79
1070
     3
1002
}
  0
DIMENSION
  5
5E42
330
1E
100
AcDbEntity
  8
30
  6
Continuous
100
AcDbDimension
280
     0
  2
*D17
 10
11.00000000000003
 20
-41.74941814395149
 30
0.0
 11
0.0000000000000286
 21
-38.74941814395151
 31
0.0
 70
    32
 71
     5
 42
-1.0
 73
     0
 74
     0
 75
     0
  3
STANDARD
100
AcDbAlignedDimension
 13
-10.99999999999999
 23
-25.0
 33
0.0
 14
11.00000000000003
 24
-25.0
 34
0.0
 50
180.0
100
AcDbRotatedDimension
1001
ACAD
1000
DSTYLE
1002
{
1070
    79
1070
     3
1002
}
  0
ARC
  5
5E43
330
1E
100
AcDbEntity
  8
10
  6
CONTINOUS
100
AcDbCircle
 10
-3.75
 20
-66.00000000000004
 30
0.0
 40
5.0
210
0.0
220
0.0
230
-1.0
100
AcDbArc
 50
90.0
 51
180.0
  0
CIRCLE
  5
5E44
330
1E
100
AcDbEntity
  8
24
  6
CONTINOUS
100
AcDbCircle
 10
0.0
 20
-67.00000000000001
 30
0.0
 40
5.0
  0
LINE
  5
5E45
330
1E
100
AcDbEntity
  8
24
  6
CONTINOUS
100
AcDbLine
 10
-6.999999999999997
 20
-67.00000000000001
 30
0.0
 11
7.000000000000026
 21
-67.00000000000001
 31
0.0
  0
CIRCLE
  5
5E46
330
1E
100
AcDbEntity
  8
24
  6
CONTINOUS
100
AcDbCircle
 10
-29.99999999999995
 20
-67.00000000000009
 30
0.0
 40
5.0
  0
LINE
  5
5E47
330
1E
100
AcDbEntity
  8
10
  6
CONTINOUS
100
AcDbLine
 10
-21.24999999999999
 20
-66.00000000000004
 30
0.0
 11
-21.24999999999999
 21
-77.50000000000003
 31
0.0
  0
LINE
  5
5E48
330
1E
100
AcDbEntity
  8
24
  6
CONTINOUS
100
AcDbLine
 10
-29.99999999999995
 20
-74.00000000000003
 30
0.0
 11
-29.99999999999995
 21
-60.00000000000003
 31
0.0
  0
LINE
  5
5E49
330
1E
100
AcDbEntity
  8
10
  6
CONTINOUS
100
AcDbLine
 10
-33.74999999999992
 20
-61.00000000000008
 30
0.0
 11
-26.24999999999999
 21
-61.00000000000008
 31
0.0
  0
LINE
  5
5E4A
330
1E
100
AcDbEntity
  8
24
  6
CONTINOUS
100
AcDbLine
 10
-22.99999999999996
 20
-67.00000000000001
 30
0.0
 11
-36.99999999999997
 21
-67.00000000000001
 31
0.0
  0
ARC
  5
5E4B
330
1E
100
AcDbEntity
  8
10
  6
CONTINOUS
100
AcDbCircle
 10
-26.24999999999999
 20
-66.00000000000004
 30
0.0
 40
5.0
100
AcDbArc
 50
0.0
 51
90.0
  0
LINE
  5
5E4C
330
1E
100
AcDbEntity
  8
10
  6
CONTINOUS
100
AcDbLine
 10
-8.749999999999998
 20
-66.00000000000004
 30
0.0
 11
-8.749999999999998
 21
-77.50000000000003
 31
0.0
  0
ARC
  5
5E4D
330
1E
100
AcDbEntity
  8
10
  6
CONTINOUS
100
AcDbCircle
 10
3.749999999999998
 20
-66.00000000000004
 30
0.0
 40
5.0
210
0.0
220
0.0
230
-1.0
100
AcDbArc
 50
0.0
 51
90.0
  0
LINE
  5
5E4E
330
1E
100
AcDbEntity
  8
10
  6
CONTINOUS
100
AcDbLine
 10
3.75
 20
-61.00000000000008
 30
0.0
 11
-3.749999999999998
 21
-61.00000000000008
 31
0.0
  0
ARC
  5
5E4F
330
1E
100
AcDbEntity
  8
10
  6
CONTINOUS
100
AcDbCircle
 10
-26.25000000000003
 20
-66.00000000000004
 30
0.0
 40
5.0
210
0.0
220
0.0
230
-1.0
100
AcDbArc
 50
0.0
 51
90.0
  0
CIRCLE
  5
5E50
330
1E
100
AcDbEntity
  8
24
  6
CONTINOUS
100
AcDbCircle
 10
30.00000000000003
 20
-67.00000000000001
 30
0.0
 40
5.0
  0
LINE
  5
5E51
330
1E
100
AcDbEntity
  8
24
  6
CONTINOUS
100
AcDbLine
 10
23.00000000000002
 20
-67.00000000000001
 30
0.0
 11
37.00000000000001
 21
-67.00000000000001
 31
0.0
  0
CIRCLE
  5
5E52
330
1E
100
AcDbEntity
  8
12
  6
DASHED
100
AcDbCircle
 10
15.00000000000005
 20
-66.00000000000004
 30
0.0
 40
4.0
  0
LINE
  5
5E53
330
1E
100
AcDbEntity
  8
12
  6
DASHED
100
AcDbLine
 10
15.00000000000005
 20
-71.50000000000003
 30
0.0
 11
15.00000000000005
 21
-60.49999999999998
 31
0.0
  0
LINE
  5
5E54
330
1E
100
AcDbEntity
  8
10
  6
CONTINOUS
100
AcDbLine
 10
21.25000000000003
 20
-66.00000000000004
 30
0.0
 11
21.25000000000003
 21
-77.50000000000003
 31
0.0
  0
LINE
  5
5E55
330
1E
100
AcDbEntity
  8
10
  6
CONTINOUS
100
AcDbLine
 10
8.750000000000023
 20
-66.00000000000004
 30
0.0
 11
8.750000000000023
 21
-77.50000000000003
 31
0.0
  0
LINE
  5
5E56
330
1E
100
AcDbEntity
  8
12
  6
DASHED
100
AcDbLine
 10
9.500000000000078
 20
-66.00000000000004
 30
0.0
 11
20.50000000000014
 21
-66.00000000000004
 31
0.0
  0
LINE
  5
5E57
330
1E
100
AcDbEntity
  8
24
  6
CONTINOUS
100
AcDbLine
 10
30.00000000000003
 20
-74.00000000000003
 30
0.0
 11
30.00000000000003
 21
-60.00000000000003
 31
0.0
  0
LINE
  5
5E58
330
1E
100
AcDbEntity
  8
10
  6
CONTINOUS
100
AcDbLine
 10
38.75000000000003
 20
-66.00000000000004
 30
0.0
 11
38.75000000000003
 21
-77.50000000000003
 31
0.0
  0
ARC
  5
5E59
330
1E
100
AcDbEntity
  8
10
  6
CONTINOUS
100
AcDbCircle
 10
-33.75000000000003
 20
-66.00000000000004
 30
0.0
 40
5.0
210
0.0
220
0.0
230
-1.0
100
AcDbArc
 50
90.0
 51
180.0
  0
LINE
  5
5E5A
330
1E
100
AcDbEntity
  8
10
  6
CONTINOUS
100
AcDbLine
 10
33.75000000000003
 20
-61.00000000000008
 30
0.0
 11
26.25000000000003
 21
-61.00000000000008
 31
0.0
  0
LINE
  5
5E5B
330
1E
100
AcDbEntity
  8
10
  6
CONTINOUS
100
AcDbLine
 10
7.000000000000026
 20
20.15486870581028
 30
0.0
 11
-7.000000000000909
 21
20.15486870581028
 31
0.0
  0
LINE
  5
5E5C
330
1E
100
AcDbEntity
  8
10
  6
CONTINOUS
100
AcDbLine
 10
7.000000000000026
 20
15.23995644007658
 30
0.0
 11
-6.999999999999997
 21
15.23995644007658
 31
0.0
  0
LINE
  5
5E5D
330
1E
100
AcDbEntity
  8
10
  6
CONTINOUS
100
AcDbLine
 10
7.000000000000026
 20
6.840789306861436
 30
0.0
 11
-6.99999999999903
 21
6.840789306861521
 31
0.0
  0
LINE
  5
5E5E
330
1E
100
AcDbEntity
  8
10
  6
CONTINOUS
100
AcDbLine
 10
-6.999999999999997
 20
-18.50000000000001
 30
0.0
 11
7.000000000000026
 21
-18.50000000000001
 31
0.0
  0
LINE
  5
5E5F
330
1E
100
AcDbEntity
  8
10
  6
CONTINOUS
100
AcDbLine
 10
-6.999999999999997
 20
-18.50000000000001
 30
0.0
 11
-6.999999999999857
 21
20.15486870581028
 31
0.0
  0
LINE
  5
5E60
330
1E
100
AcDbEntity
  8
10
  6
CONTINOUS
100
AcDbLine
 10
7.000000000000026
 20
-18.50000000000001
 30
0.0
 11
7.000000000000082
 21
20.15486870581028
 31
0.0
  0
ARC
  5
5E62
330
1E
100
AcDbEntity
  8
10
  6
CONTINOUS
100
AcDbCircle
 10
3.75
 20
65.99999999999997
 30
0.0
 40
5.0
100
AcDbArc
 50
270.0
 51
0.0
  0
CIRCLE
  5
5E63
330
1E
100
AcDbEntity
  8
24
  6
CONTINOUS
100
AcDbCircle
 10
0.0
 20
66.99999999999997
 30
0.0
 40
5.0
  0
LINE
  5
5E64
330
1E
100
AcDbEntity
  8
24
  6
CONTINOUS
100
AcDbLine
 10
-6.999999999999997
 20
66.99999999999997
 30
0.0
 11
7.000000000000026
 21
66.99999999999997
 31
0.0
  0
CIRCLE
  5
5E65
330
1E
100
AcDbEntity
  8
24
  6
CONTINOUS
100
AcDbCircle
 10
-29.99999999999995
 20
66.99999999999997
 30
0.0
 40
5.0
  0
LINE
  5
5E66
330
1E
100
AcDbEntity
  8
10
  6
CONTINOUS
100
AcDbLine
 10
-21.24999999999999
 20
65.99999999999997
 30
0.0
 11
-21.24999999999999
 21
77.49999999999997
 31
0.0
  0
LINE
  5
5E67
330
1E
100
AcDbEntity
  8
24
  6
CONTINOUS
100
AcDbLine
 10
-29.99999999999995
 20
73.99999999999997
 30
0.0
 11
-29.99999999999995
 21
59.99999999999996
 31
0.0
  0
LINE
  5
5E68
330
1E
100
AcDbEntity
  8
10
  6
CONTINOUS
100
AcDbLine
 10
-8.749999999999998
 20
65.99999999999997
 30
0.0
 11
-8.749999999999998
 21
77.49999999999997
 31
0.0
  0
CIRCLE
  5
5E69
330
1E
100
AcDbEntity
  8
12
  6
DASHED
100
AcDbCircle
 10
-14.99999999999999
 20
65.99999999999974
 30
0.0
 40
4.0
  0
LINE
  5
5E6A
330
1E
100
AcDbEntity
  8
12
  6
DASHED
100
AcDbLine
 10
-20.49999999999996
 20
65.99999999999974
 30
0.0
 11
-9.5
 21
65.99999999999974
 31
0.0
  0
LINE
  5
5E6B
330
1E
100
AcDbEntity
  8
10
  6
CONTINOUS
100
AcDbLine
 10
-33.74999999999992
 20
60.99999999999996
 30
0.0
 11
-26.24999999999999
 21
60.99999999999996
 31
0.0
  0
LINE
  5
5E6C
330
1E
100
AcDbEntity
  8
24
  6
CONTINOUS
100
AcDbLine
 10
-22.99999999999996
 20
66.99999999999997
 30
0.0
 11
-36.99999999999997
 21
66.99999999999997
 31
0.0
  0
ARC
  5
5E6D
330
1E
100
AcDbEntity
  8
10
  6
CONTINOUS
100
AcDbCircle
 10
26.24999999999999
 20
65.99999999999997
 30
0.0
 40
5.0
210
0.0
220
0.0
230
-1.0
100
AcDbArc
 50
180.0
 51
270.0
  0
ARC
  5
5E6E
330
1E
100
AcDbEntity
  8
10
  6
CONTINOUS
100
AcDbCircle
 10
-3.749999999999998
 20
65.99999999999997
 30
0.0
 40
5.0
100
AcDbArc
 50
180.0
 51
270.0
  0
LINE
  5
5E6F
330
1E
100
AcDbEntity
  8
12
  6
DASHED
100
AcDbLine
 10
-14.99999999999999
 20
60.49999999999974
 30
0.0
 11
-14.99999999999999
 21
71.49999999999973
 31
0.0
  0
LINE
  5
5E70
330
1E
100
AcDbEntity
  8
10
  6
CONTINOUS
100
AcDbLine
 10
3.75
 20
60.99999999999996
 30
0.0
 11
-3.749999999999998
 21
60.99999999999996
 31
0.0
  0
CIRCLE
  5
5E71
330
1E
100
AcDbEntity
  8
24
  6
CONTINOUS
100
AcDbCircle
 10
30.00000000000003
 20
66.99999999999997
 30
0.0
 40
5.0
  0
LINE
  5
5E72
330
1E
100
AcDbEntity
  8
10
  6
CONTINOUS
100
AcDbLine
 10
38.75000000000003
 20
65.99999999999997
 30
0.0
 11
38.75000000000003
 21
77.49999999999997
 31
0.0
  0
LINE
  5
5E73
330
1E
100
AcDbEntity
  8
10
  6
CONTINOUS
100
AcDbLine
 10
21.25000000000003
 20
65.99999999999997
 30
0.0
 11
21.25000000000003
 21
77.49999999999997
 31
0.0
  0
LINE
  5
5E74
330
1E
100
AcDbEntity
  8
24
  6
CONTINOUS
100
AcDbLine
 10
30.00000000000003
 20
73.99999999999997
 30
0.0
 11
30.00000000000003
 21
59.99999999999996
 31
0.0
  0
LINE
  5
5E75
330
1E
100
AcDbEntity
  8
10
  6
CONTINOUS
100
AcDbLine
 10
8.750000000000023
 20
65.99999999999997
 30
0.0
 11
8.750000000000023
 21
77.49999999999997
 31
0.0
  0
ARC
  5
5E76
330
1E
100
AcDbEntity
  8
10
  6
CONTINOUS
100
AcDbCircle
 10
26.25000000000003
 20
65.99999999999997
 30
0.0
 40
5.0
100
AcDbArc
 50
180.0
 51
270.0
  0
LINE
  5
5E77
330
1E
100
AcDbEntity
  8
24
  6
CONTINOUS
100
AcDbLine
 10
23.00000000000002
 20
66.99999999999997
 30
0.0
 11
37.00000000000001
 21
66.99999999999997
 31
0.0
  0
ARC
  5
5E78
330
1E
100
AcDbEntity
  8
10
  6
CONTINOUS
100
AcDbCircle
 10
33.75000000000003
 20
65.99999999999997
 30
0.0
 40
5.0
100
AcDbArc
 50
270.0
 51
0.0
  0
LINE
  5
5E79
330
1E
100
AcDbEntity
  8
10
  6
CONTINOUS
100
AcDbLine
 10
33.75000000000003
 20
60.99999999999996
 30
0.0
 11
26.25000000000003
 21
60.99999999999996
 31
0.0
  0
LINE
  5
5E7A
330
1E
100
AcDbEntity
  8
18
100
AcDbLine
 10
-13.49999999999999
 20
124.4999999999996
 30
0.0
 11
-16.5
 21
124.4999999999996
 31
0.0
  0
LINE
  5
5E7B
330
1E
100
AcDbEntity
  8
18
100
AcDbLine
 10
13.50000000000003
 20
124.4999999999996
 30
0.0
 11
16.5
 21
124.4999999999996
 31
0.0
  0
LINE
  5
5EEE
330
1E
100
AcDbEntity
  8
18
  6
DIVIDE
100
AcDbLine
 10
74.61990546482879
 20
-175.1631237443548
 30
0.0
 11
-45.38009453517117
 21
-175.1631237443548
 31
0.0
  0
LINE
  5
5EEF
330
1E
100
AcDbEntity
  8
18
  6
DIVIDE
100
AcDbLine
 10
-45.38009453517117
 20
-330.1631237443548
 30
0.0
 11
74.61990546482879
 21
-330.1631237443548
 31
0.0
  0
DIMENSION
  5
5EF0
330
1E
100
AcDbEntity
  8
30
  6
Continuous
100
AcDbDimension
280
     0
  2
*D18
 10
14.61990546482881
 20
-354.4125418883063
 30
0.0
 11
-0.3800945351711904
 21
-351.4125418883062
 31
0.0
 70
    32
 71
     5
 42
-1.0
 73
     0
 74
     0
 75
     0
  3
STANDARD
100
AcDbAlignedDimension
 13
-15.38009453517117
 23
-324.1631237443548
 33
0.0
 14
14.61990546482881
 24
-321.163123760855
 34
0.0
 50
180.0
100
AcDbRotatedDimension
1001
ACAD
1000
DSTYLE
1002
{
1070
    79
1070
     3
1002
}
  0
LINE
  5
5EF1
330
1E
100
AcDbEntity
  8
18
  6
DIVIDE
100
AcDbLine
 10
-45.38009453517117
 20
-175.1631237443548
 30
0.0
 11
-45.38009453517117
 21
-330.1631237443548
 31
0.0
  0
LINE
  5
5EF2
330
1E
100
AcDbEntity
  8
12
  6
Continuous
 62
     3
100
AcDbLine
 10
9.119905464828807
 20
-318.6631237443549
 30
0.0
 11
20.1199054648288
 21
-318.6631237443549
 31
0.0
  0
LINE
  5
5EF3
330
1E
100
AcDbEntity
  8
12
  6
Continuous
 62
     3
100
AcDbLine
 10
14.61990546482881
 20
-324.1631237443548
 30
0.0
 11
14.61990546482881
 21
-313.1631237443548
 31
0.0
  0
CIRCLE
  5
5EF4
330
1E
100
AcDbEntity
  8
12
  6
Continuous
 62
     3
100
AcDbCircle
 10
14.61990546482881
 20
-318.6631237443549
 30
0.0
 40
2.0
  0
CIRCLE
  5
5EF5
330
1E
100
AcDbEntity
  8
12
  6
Continuous
 62
     3
100
AcDbCircle
 10
-15.38009453517117
 20
-186.663123744355
 30
0.0
 40
2.0
  0
LINE
  5
5EF6
330
1E
100
AcDbEntity
  8
12
  6
Continuous
 62
     3
100
AcDbLine
 10
-20.88009453517118
 20
-186.663123744355
 30
0.0
 11
-9.880094535171187
 21
-186.663123744355
 31
0.0
  0
LINE
  5
5EF7
330
1E
100
AcDbEntity
  8
12
  6
Continuous
 62
     3
100
AcDbLine
 10
-15.38009453517117
 20
-192.1631237443549
 30
0.0
 11
-15.38009453517117
 21
-181.1631237443551
 31
0.0
  0
LINE
  5
5EF8
330
1E
100
AcDbEntity
  8
18
  6
DIVIDE
100
AcDbLine
 10
74.61990546482879
 20
-330.1631237443548
 30
0.0
 11
74.61990546482879
 21
-175.1631237443548
 31
0.0
  0
LEADER
  5
6067
330
1E
100
AcDbEntity
  8
30
  6
Continuous
100
AcDbLeader
  3
STANDARD
 76
     3
 10
-15.38009453517117
 20
-186.663123744355
 30
0.0
 10
-24.52312241480977
 20
-163.03149535289
 30
0.0
 10
-49.76364900581256
 20
-162.9957809278801
 30
0.0
213
-16.64037072048986
223
1.912916487680377
233
0.0
1001
ACAD
1000
DSTYLE
1002
{
1070
     5
1000
OPEN
1070
    77
1070
     0
1070
    79
1070
     3
1070
   147
1040
1.0
1070
   342
1005
3B2
1002
}
  0
MTEXT
  5
6068
330
1E
100
AcDbEntity
  8
30
  6
Continuous
100
AcDbMText
 10
-34.12327828532269
 20
-164.9086974155603
 30
0.0
 40
4.0
 41
0.0
 46
0.0
 71
     9
 72
     1
  1

 73
     1
 44
1.0
1001
ACAD
1000
MTEXTBEGIN
1070
    73
1070
     1
1070
    44
1040
1.0
1070
    74
1070
     0
1000
MTEXTEND
  0
MTEXT
  5
606B
330
1E
100
AcDbEntity
  8
30
  6
Continuous
100
AcDbMText
 10
-36.55182671697476
 20
-159.8201476728555
 30
0.0
 40
4.0
 41
0.0
 46
0.0
 71
     5
 72
     1
  1
M4×0.7
 73
     1
 44
1.0
1001
ACAD
1000
MTEXTBEGIN
1070
    73
1070
     1
1070
    44
1040
1.0
1070
    74
1070
     0
1000
MTEXTEND
  0
LINE
  5
60DC
330
1E
100
AcDbEntity
  8
24
  6
CONTINOUS
100
AcDbLine
 10
60.00000000000007
 20
-74.00000000000003
 30
0.0
 11
60.00000000000007
 21
-60.00000000000003
 31
0.0
  0
CIRCLE
  5
60DD
330
1E
100
AcDbEntity
  8
24
  6
CONTINOUS
100
AcDbCircle
 10
60.00000000000007
 20
-67.00000000000009
 30
0.0
 40
5.0
  0
ARC
  5
60DE
330
1E
100
AcDbEntity
  8
10
  6
CONTINOUS
100
AcDbCircle
 10
63.75
 20
-66.00000000000004
 30
0.0
 40
5.0
100
AcDbArc
 50
0.0
 51
90.0
  0
ARC
  5
60DF
330
1E
100
AcDbEntity
  8
10
  6
CONTINOUS
100
AcDbCircle
 10
56.25000000000007
 20
-66.00000000000004
 30
0.0
 40
5.0
100
AcDbArc
 50
90.0
 51
180.0
  0
LINE
  5
60E0
330
1E
100
AcDbEntity
  8
24
  6
CONTINOUS
100
AcDbLine
 10
67.00000000000001
 20
-67.00000000000001
 30
0.0
 11
53.00000000000003
 21
-67.00000000000001
 31
0.0
  0
LINE
  5
60E1
330
1E
100
AcDbEntity
  8
10
  6
CONTINOUS
100
AcDbLine
 10
51.25000000000003
 20
-66.00000000000004
 30
0.0
 11
51.25000000000003
 21
-77.50000000000003
 31
0.0
  0
LINE
  5
60E2
330
1E
100
AcDbEntity
  8
10
  6
CONTINOUS
100
AcDbLine
 10
68.75
 20
-66.00000000000004
 30
0.0
 11
68.75
 21
-77.50000000000003
 31
0.0
  0
LINE
  5
60E3
330
1E
100
AcDbEntity
  8
10
  6
CONTINOUS
100
AcDbLine
 10
56.25000000000007
 20
-61.00000000000008
 30
0.0
 11
63.75
 21
-61.00000000000008
 31
0.0
  0
LINE
  5
60E4
330
1E
100
AcDbEntity
  8
24
  6
CONTINOUS
100
AcDbLine
 10
67.00000000000001
 20
66.99999999999997
 30
0.0
 11
53.00000000000003
 21
66.99999999999997
 31
0.0
  0
ARC
  5
60E5
330
1E
100
AcDbEntity
  8
10
  6
CONTINOUS
100
AcDbCircle
 10
-56.25000000000007
 20
65.99999999999997
 30
0.0
 40
5.0
210
0.0
220
0.0
230
-1.0
100
AcDbArc
 50
270.0
 51
0.0
  0
LINE
  5
60E6
330
1E
100
AcDbEntity
  8
10
  6
CONTINOUS
100
AcDbLine
 10
51.25000000000003
 20
65.99999999999997
 30
0.0
 11
51.25000000000003
 21
77.49999999999997
 31
0.0
  0
LINE
  5
60E7
330
1E
100
AcDbEntity
  8
24
  6
CONTINOUS
100
AcDbLine
 10
60.00000000000007
 20
73.99999999999997
 30
0.0
 11
60.00000000000007
 21
59.99999999999996
 31
0.0
  0
CIRCLE
  5
60E8
330
1E
100
AcDbEntity
  8
24
  6
CONTINOUS
100
AcDbCircle
 10
60.00000000000007
 20
66.99999999999997
 30
0.0
 40
5.0
  0
ARC
  5
60E9
330
1E
100
AcDbEntity
  8
10
  6
CONTINOUS
100
AcDbCircle
 10
-63.75
 20
65.99999999999997
 30
0.0
 40
5.0
210
0.0
220
0.0
230
-1.0
100
AcDbArc
 50
180.0
 51
270.0
  0
LINE
  5
60EA
330
1E
100
AcDbEntity
  8
10
  6
CONTINOUS
100
AcDbLine
 10
56.25000000000007
 20
60.99999999999996
 30
0.0
 11
63.75
 21
60.99999999999996
 31
0.0
  0
LINE
  5
60EB
330
1E
100
AcDbEntity
  8
10
  6
CONTINOUS
100
AcDbLine
 10
68.75
 20
65.99999999999997
 30
0.0
 11
68.75
 21
77.49999999999997
 31
0.0
  0
LINE
  5
60EC
330
1E
100
AcDbEntity
  8
18
100
AcDbLine
 10
46.5
 20
124.4999999999996
 30
0.0
 11
46.5
 21
77.49999999999973
 31
0.0
  0
LINE
  5
60ED
330
1E
100
AcDbEntity
  8
18
100
AcDbLine
 10
43.50000000000006
 20
124.4999999999996
 30
0.0
 11
43.50000000000006
 21
77.49999999999973
 31
0.0
  0
LINE
  5
60EE
330
1E
100
AcDbEntity
  8
18
100
AcDbLine
 10
43.50000000000006
 20
124.4999999999996
 30
0.0
 11
46.5
 21
124.4999999999996
 31
0.0
  0
DIMENSION
  5
6116
330
1E
100
AcDbEntity
  8
30
  6
Continuous
100
AcDbDimension
280
     0
  2
*D22
 10
96.85839195347298
 20
-318.6631237443549
 30
0.0
 11
93.85839195347307
 21
-252.6631237443548
 31
0.0
 70
    32
 71
     5
 42
-1.0
 73
     0
 74
     0
 75
     0
  3
STANDARD
100
AcDbAlignedDimension
 13
20.11990546482878
 23
-186.663123744355
 33
0.0
 14
20.1199054648288
 24
-318.6631237443549
 34
0.0
 50
90.0
100
AcDbRotatedDimension
1001
ACAD
1000
DSTYLE
1002
{
1070
    79
1070
     3
1002
}
  0
DIMENSION
  5
614A
330
1E
100
AcDbEntity
  8
30
  6
Continuous
100
AcDbDimension
280
     0
  2
*D23
 10
-63.42066478230082
 20
77.49999999999997
 30
0.0
 11
-66.42066478230082
 21
100.9999999999997
 31
0.0
 70
    32
 71
     5
 42
-1.0
 73
     0
 74
     0
 75
     0
  3
STANDARD
100
AcDbAlignedDimension
 13
-16.5
 23
124.4999999999996
 33
0.0
 14
-44.99999999999997
 24
77.49999999999997
 34
0.0
 50
90.0
100
AcDbRotatedDimension
1001
ACAD
1000
DSTYLE
1002
{
1070
    79
1070
     3
1002
}
  0
DIMENSION
  5
6157
330
1E
100
AcDbEntity
  8
30
  6
Continuous
100
AcDbDimension
280
     0
  2
*D24
 10
-63.92066478230084
 20
-77.50000000000003
 30
0.0
 11
-66.92066478230081
 21
-0.0000000000000384
 31
0.0
 70
    32
 71
     5
 42
-1.0
 73
     0
 74
     0
 75
     0
  3
STANDARD
100
AcDbAlignedDimension
 13
-44.99999999999997
 23
77.49999999999997
 33
0.0
 14
-44.99999999999997
 24
-77.50000000000003
 34
0.0
 50
90.0
100
AcDbRotatedDimension
1001
ACAD
1000
DSTYLE
1002
{
1070
    79
1070
     3
1002
}
  0
DIMENSION
  5
6398
330
1E
100
AcDbEntity
  8
30
  6
Continuous
100
AcDbDimension
280
     0
  2
*D25
 10
217.9923778520064
 20
-87.74064843985341
 30
0.0
 11
221.9923778520064
 21
-84.74064843985342
 31
0.0
 70
    32
 71
     5
 42
-1.0
 73
     0
 74
     0
 75
     0
  3
STANDARD
100
AcDbAlignedDimension
 13
225.9923778520064
 23
-68.23970744689657
 33
0.0
 14
217.9923778520064
 24
-77.48970744689656
 34
0.0
100
AcDbRotatedDimension
1001
ACAD
1000
DSTYLE
1002
{
1070
    79
1070
     3
1002
}
  0
LINE
  5
6466
330
1E
100
AcDbEntity
  8
16
100
AcDbLine
 10
209.6199054648288
 20
-350.4150635072006
 30
0.0
 11
209.6199054648288
 21
-151.2797245348689
 31
0.0
  0
LINE
  5
6468
330
1E
100
AcDbEntity
  8
18
  6
DIVIDE
100
AcDbLine
 10
164.6199054648288
 20
-175.1631237443548
 30
0.0
 11
164.6199054648288
 21
-330.1631237443548
 31
0.0
  0
LINE
  5
6469
330
1E
100
AcDbEntity
  8
18
  6
DIVIDE
100
AcDbLine
 10
284.6199054648287
 20
-330.1631237443548
 30
0.0
 11
284.6199054648287
 21
-175.1631237443548
 31
0.0
  0
LINE
  5
646A
330
1E
100
AcDbEntity
  8
11
 48
2.0
100
AcDbLine
 10
166.6199054648288
 20
-227.6631237443548
 30
0.0
 11
166.6199054648288
 21
-277.6631237443548
 31
0.0
  0
LINE
  5
646B
330
1E
100
AcDbEntity
  8
11
 48
2.0
100
AcDbLine
 10
252.6199054648289
 20
-227.6631237443548
 30
0.0
 11
252.6199054648289
 21
-277.6631237443548
 31
0.0
  0
DIMENSION
  5
646C
330
1E
100
AcDbEntity
  8
30
  6
Continuous
100
AcDbDimension
280
     0
  2
*D28
 10
272.680795841907
 20
-278.6631237443549
 30
0.0
 11
269.680795841907
 21
-252.6631237443548
 31
0.0
 70
    32
 71
     5
 42
-1.0
 73
     0
 74
     0
 75
     0
  3
STANDARD
100
AcDbAlignedDimension
 13
251.6199054648287
 23
-226.6631237443549
 33
0.0
 14
251.6199054648287
 24
-278.6631237443549
 34
0.0
 50
90.0
100
AcDbRotatedDimension
1001
ACAD
1000
DSTYLE
1002
{
1070
    79
1070
     3
1002
}
  0
LINE
  5
646E
330
1E
100
AcDbEntity
  8
16
100
AcDbLine
 10
297.3266621308825
 20
-253.4106968373281
 30
0.0
 11
129.0699922632479
 21
-252.6631237443548
 31
0.0
  0
LINE
  5
646F
330
1E
100
AcDbEntity
  8
18
  6
DIVIDE
100
AcDbLine
 10
164.6199054648288
 20
-330.1631237443548
 30
0.0
 11
284.6199054648287
 21
-330.1631237443548
 31
0.0
  0
LINE
  5
6471
330
1E
100
AcDbEntity
  8
11
 48
2.0
100
AcDbLine
 10
167.6199054648288
 20
-278.6631237443549
 30
0.0
 11
251.6199054648287
 21
-278.6631237443549
 31
0.0
  0
DIMENSION
  5
6472
330
1E
100
AcDbEntity
  8
30
  6
Continuous
100
AcDbDimension
280
     0
  2
*D26
 10
252.6199054648289
 20
-359.3804450066013
 30
0.0
 11
209.6199054648289
 21
-356.3804450066013
 31
0.0
 70
    32
 71
     5
 42
-1.0
 73
     0
 74
     0
 75
     0
  3
STANDARD
100
AcDbAlignedDimension
 13
166.6199054648288
 23
-277.6631237443548
 33
0.0
 14
252.6199054648289
 24
-277.6631237443548
 34
0.0
100
AcDbRotatedDimension
1001
ACAD
1000
DSTYLE
1002
{
1070
    79
1070
     3
1002
}
  0
ARC
  5
6475
330
1E
100
AcDbEntity
  8
11
 48
2.0
100
AcDbCircle
 10
167.6199054648288
 20
-277.6631237443548
 30
0.0
 40
1.0
100
AcDbArc
 50
180.0
 51
270.0
  0
ARC
  5
6476
330
1E
100
AcDbEntity
  8
11
 48
2.0
100
AcDbCircle
 10
251.6199054648287
 20
-277.6631237443548
 30
0.0
 40
1.0
100
AcDbArc
 50
270.0
 51
0.0
  0
LINE
  5
6477
330
1E
100
AcDbEntity
  8
18
  6
DIVIDE
100
AcDbLine
 10
284.6199054648287
 20
-175.1631237443548
 30
0.0
 11
164.6199054648288
 21
-175.1631237443548
 31
0.0
  0
LINE
  5
6478
330
1E
100
AcDbEntity
  8
11
 48
2.0
100
AcDbLine
 10
167.6199054648288
 20
-226.6631237443549
 30
0.0
 11
251.6199054648287
 21
-226.6631237443549
 31
0.0
  0
ARC
  5
647D
330
1E
100
AcDbEntity
  8
11
 48
2.0
100
AcDbCircle
 10
167.6199054648288
 20
-227.6631237443548
 30
0.0
 40
1.0
100
AcDbArc
 50
90.0
 51
180.0
  0
DIMENSION
  5
647E
330
1E
100
AcDbEntity
  8
30
  6
Continuous
100
AcDbDimension
280
     0
  2
*D27
 10
251.6199054648291
 20
-227.6631237443548
 30
0.0
 11
259.252938708866
 21
-221.6187952184035
 31
0.0
 70
    36
 71
     5
 42
-1.0
 73
     0
 74
     0
 75
     0
  3
STANDARD
100
AcDbRadialDimension
 15
252.413178780303
 25
-227.0542580391643
 35
0.0
 40
0.0
1001
ACAD
1000
DSTYLE
1002
{
1070
   288
1070
     1
1002
}
  0
ARC
  5
647F
330
1E
100
AcDbEntity
  8
11
 48
2.0
100
AcDbCircle
 10
251.6199054648287
 20
-227.6631237443548
 30
0.0
 40
1.0
100
AcDbArc
 50
0.0
 51
90.0
  0
LINE
  5
6585
330
1E
100
AcDbEntity
  8
12
  6
Continuous
 62
     3
100
AcDbLine
 10
14.6199054648288
 20
-192.1631237443549
 30
0.0
 11
14.6199054648288
 21
-181.1631237443551
 31
0.0
  0
CIRCLE
  5
6586
330
1E
100
AcDbEntity
  8
12
  6
Continuous
 62
     3
100
AcDbCircle
 10
14.6199054648288
 20
-186.663123744355
 30
0.0
 40
2.0
  0
LINE
  5
6587
330
1E
100
AcDbEntity
  8
12
  6
Continuous
 62
     3
100
AcDbLine
 10
20.1199054648288
 20
-186.663123744355
 30
0.0
 11
9.119905464828812
 21
-186.663123744355
 31
0.0
  0
LINE
  5
6588
330
1E
100
AcDbEntity
  8
12
  6
Continuous
 62
     3
100
AcDbLine
 10
-9.880094535171183
 20
-318.6631237443549
 30
0.0
 11
-20.88009453517118
 21
-318.6631237443549
 31
0.0
  0
LINE
  5
6589
330
1E
100
AcDbEntity
  8
12
  6
Continuous
 62
     3
100
AcDbLine
 10
-15.38009453517117
 20
-324.1631237443548
 30
0.0
 11
-15.38009453517117
 21
-313.1631237443548
 31
0.0
  0
CIRCLE
  5
658A
330
1E
100
AcDbEntity
  8
12
  6
Continuous
 62
     3
100
AcDbCircle
 10
-15.38009453517117
 20
-318.6631237443549
 30
0.0
 40
2.0
  0
LINE
  5
65F9
330
1E
100
AcDbEntity
  8
12
  6
DASHED
100
AcDbLine
 10
20.49999999999996
 20
65.99999999999974
 30
0.0
 11
9.5
 21
65.99999999999974
 31
0.0
  0
CIRCLE
  5
65FA
330
1E
100
AcDbEntity
  8
12
  6
DASHED
100
AcDbCircle
 10
14.99999999999999
 20
65.99999999999974
 30
0.0
 40
4.0
  0
LINE
  5
65FB
330
1E
100
AcDbEntity
  8
12
  6
DASHED
100
AcDbLine
 10
14.99999999999999
 20
60.49999999999974
 30
0.0
 11
14.99999999999999
 21
71.49999999999973
 31
0.0
  0
LINE
  5
65FC
330
1E
100
AcDbEntity
  8
12
  6
DASHED
100
AcDbLine
 10
-9.500000000000078
 20
-66.00000000000004
 30
0.0
 11
-20.50000000000014
 21
-66.00000000000004
 31
0.0
  0
LINE
  5
65FD
330
1E
100
AcDbEntity
  8
12
  6
DASHED
100
AcDbLine
 10
-15.00000000000005
 20
-71.50000000000003
 30
0.0
 11
-15.00000000000005
 21
-60.49999999999998
 31
0.0
  0
CIRCLE
  5
65FE
330
1E
100
AcDbEntity
  8
12
  6
DASHED
100
AcDbCircle
 10
-15.00000000000005
 20
-66.00000000000004
 30
0.0
 40
4.0
  0
CIRCLE
  5
668A
330
1E
100
AcDbEntity
  8
10
  6
CONTINOUS
100
AcDbCircle
 10
26.19999999999996
 20
5.800000000000013
 30
0.0
 40
3.0
  0
LINE
  5
668B
330
1E
100
AcDbEntity
  8
10
  6
CONTINOUS
100
AcDbLine
 10
22.69999999999996
 20
-15.5
 30
0.0
 11
30.69999999999996
 21
-15.5
 31
0.0
  0
LINE
  5
668C
330
1E
100
AcDbEntity
  8
10
  6
CONTINOUS
100
AcDbLine
 10
22.69999999999996
 20
-10.5
 30
0.0
 11
30.69999999999996
 21
-10.5
 31
0.0
  0
LINE
  5
668D
330
1E
100
AcDbEntity
  8
10
  6
CONTINOUS
100
AcDbLine
 10
22.69999999999996
 20
-12.5
 30
0.0
 11
30.69999999999996
 21
-12.5
 31
0.0
  0
LINE
  5
668E
330
1E
100
AcDbEntity
  8
10
  6
CONTINOUS
100
AcDbLine
 10
22.69999999999996
 20
-7.5
 30
0.0
 11
30.69999999999996
 21
-7.5
 31
0.0
  0
LINE
  5
668F
330
1E
100
AcDbEntity
  8
10
  6
CONTINOUS
100
AcDbLine
 10
22.69999999999996
 20
-10.5
 30
0.0
 11
22.69999999999996
 21
-7.5
 31
0.0
  0
LINE
  5
6690
330
1E
100
AcDbEntity
  8
10
  6
CONTINOUS
100
AcDbLine
 10
22.69999999999996
 20
-15.5
 30
0.0
 11
22.69999999999996
 21
-12.5
 31
0.0
  0
LINE
  5
6691
330
1E
100
AcDbEntity
  8
10
  6
CONTINOUS
100
AcDbLine
 10
30.69999999999996
 20
-10.5
 30
0.0
 11
30.69999999999996
 21
-7.5
 31
0.0
  0
LINE
  5
6692
330
1E
100
AcDbEntity
  8
10
  6
CONTINOUS
100
AcDbLine
 10
30.69999999999996
 20
-15.5
 30
0.0
 11
30.69999999999996
 21
-12.5
 31
0.0
  0
CIRCLE
  5
6693
330
1E
100
AcDbEntity
  8
10
  6
CONTINOUS
100
AcDbCircle
 10
26.19999999999996
 20
-1.900000000000004
 30
0.0
 40
2.6
  0
CIRCLE
  5
6694
330
1E
100
AcDbEntity
  8
10
  6
CONTINOUS
100
AcDbCircle
 10
26.19999999999996
 20
-1.900000000000004
 30
0.0
 40
3.6
  0
MTEXT
  5
66C4
330
1E
100
AcDbEntity
  8
30
  6
Continuous
100
AcDbMText
 10
144.5959074630841
 20
228.4615571336542
 30
0.0
 40
5.0
 41
73.30899999999998
 46
0.0
 71
     1
 72
     5
  1
ZS100-GF 4P FC\PZS125-GF 4P FC
  7
STANDARD1
 73
     1
 44
1.0
1001
ACAD
1000
MTEXTBEGIN
1070
    73
1070
     1
1070
    44
1040
1.0
1070
    74
1070
     0
1000
MTEXTEND
  0
LINE
  5
67BE
330
1E
100
AcDbEntity
  8
16
100
AcDbLine
 10
0.000000000000004
 20
137.7384784421552
 30
0.0
 11
0.000000000000004
 21
280.2384784421551
 31
0.0
  0
LINE
  5
67C0
330
1E
100
AcDbEntity
  8
10
  6
CONTINOUS
100
AcDbLine
 10
74.99999999999999
 20
167.1349134126128
 30
0.0
 11
74.99999999999999
 21
235.1349134126127
 31
0.0
  0
LINE
  5
67C4
330
1E
100
AcDbEntity
  8
10
  6
CONTINOUS
100
AcDbLine
 10
-11.01790353517128
 20
159.1349134126129
 30
0.0
 11
10.99999999999996
 21
159.1349134126129
 31
0.0
  0
LINE
  5
67C6
330
1E
100
AcDbEntity
  8
10
  6
CONTINOUS
100
AcDbLine
 10
10.99999999999996
 20
159.1349134126129
 30
0.0
 11
10.99999999999996
 21
163.1349134126129
 31
0.0
  0
LINE
  5
67C7
330
1E
100
AcDbEntity
  8
10
  6
CONTINOUS
100
AcDbLine
 10
-11.01790353517128
 20
159.1349134126129
 30
0.0
 11
-11.01790353517128
 21
163.1349134126129
 31
0.0
  0
LINE
  5
67CA
330
1E
100
AcDbEntity
  8
24
  6
CONTINOUS
100
AcDbLine
 10
30.0
 20
198.9349134126126
 30
0.0
 11
30.0
 21
216.1349134126129
 31
0.0
  0
LINE
  5
67CB
330
1E
100
AcDbEntity
  8
24
  6
CONTINOUS
100
AcDbLine
 10
19.5
 20
211.1349134126129
 30
0.0
 11
40.5000000000001
 21
211.1349134126129
 31
0.0
  0
LINE
  5
67CC
330
1E
100
AcDbEntity
  8
24
  6
CONTINOUS
100
AcDbLine
 10
22.30000000000007
 20
205.9349134126128
 30
0.0
 11
37.70000000000004
 21
205.9349134126128
 31
0.0
  0
LINE
  5
67CD
330
1E
100
AcDbEntity
  8
24
  6
CONTINOUS
100
AcDbLine
 10
25.0
 20
200.7349134126128
 30
0.0
 11
35.0
 21
200.7349134126128
 31
0.0
  0
LINE
  5
67CE
330
1E
100
AcDbEntity
  8
24
  6
CONTINOUS
100
AcDbLine
 10
19.5
 20
213.1349134126129
 30
0.0
 11
40.5000000000001
 21
213.1349134126129
 31
0.0
  0
LINE
  5
67CF
330
1E
100
AcDbEntity
  8
24
  6
CONTINOUS
100
AcDbLine
 10
37.70000000000004
 20
205.9349134126128
 30
0.0
 11
37.70000000000004
 21
207.9349134126129
 31
0.0
  0
ARC
  5
67D0
330
1E
100
AcDbEntity
  8
24
  6
CONTINOUS
100
AcDbCircle
 10
35.00000000000003
 20
202.7349134126128
 30
0.0
 40
2.0
100
AcDbArc
 50
270.0
 51
0.0
  0
LINE
  5
67D1
330
1E
100
AcDbEntity
  8
24
  6
CONTINOUS
100
AcDbLine
 10
37.0
 20
202.7349134126128
 30
0.0
 11
37.0
 21
205.9349134126128
 31
0.0
  0
LINE
  5
67D2
330
1E
100
AcDbEntity
  8
24
  6
CONTINOUS
100
AcDbLine
 10
22.30000000000007
 20
205.9349134126128
 30
0.0
 11
22.30000000000007
 21
207.9349134126129
 31
0.0
  0
ARC
  5
67D3
330
1E
100
AcDbEntity
  8
24
  6
CONTINOUS
100
AcDbCircle
 10
25.00000000000003
 20
202.7349134126128
 30
0.0
 40
2.0
100
AcDbArc
 50
180.0
 51
270.0
  0
LINE
  5
67D4
330
1E
100
AcDbEntity
  8
24
  6
CONTINOUS
100
AcDbLine
 10
23.0
 20
202.7349134126128
 30
0.0
 11
23.0
 21
205.9349134126128
 31
0.0
  0
LINE
  5
67D5
330
1E
100
AcDbEntity
  8
24
  6
CONTINOUS
100
AcDbLine
 10
-10.49999999999999
 20
213.1349134126129
 30
0.0
 11
10.50000000000011
 21
213.1349134126129
 31
0.0
  0
LINE
  5
67D6
330
1E
100
AcDbEntity
  8
24
  6
CONTINOUS
100
AcDbLine
 10
-7.699999999999931
 20
205.9349134126128
 30
0.0
 11
7.700000000000045
 21
205.9349134126128
 31
0.0
  0
LINE
  5
67D7
330
1E
100
AcDbEntity
  8
24
  6
CONTINOUS
100
AcDbLine
 10
-10.49999999999999
 20
211.1349134126129
 30
0.0
 11
10.50000000000011
 21
211.1349134126129
 31
0.0
  0
ARC
  5
67D8
330
1E
100
AcDbEntity
  8
24
  6
CONTINOUS
100
AcDbCircle
 10
5.000000000000028
 20
202.7349134126128
 30
0.0
 40
2.0
100
AcDbArc
 50
270.0
 51
0.0
  0
LINE
  5
67D9
330
1E
100
AcDbEntity
  8
24
  6
CONTINOUS
100
AcDbLine
 10
-7.0
 20
202.7349134126128
 30
0.0
 11
-7.0
 21
205.9349134126128
 31
0.0
  0
LINE
  5
67DA
330
1E
100
AcDbEntity
  8
24
  6
CONTINOUS
100
AcDbLine
 10
0.0000000000000004
 20
198.9349134126126
 30
0.0
 11
0.0000000000000004
 21
216.1349134126129
 31
0.0
  0
LINE
  5
67DB
330
1E
100
AcDbEntity
  8
24
  6
CONTINOUS
100
AcDbLine
 10
-5.0
 20
200.7349134126128
 30
0.0
 11
5.0
 21
200.7349134126128
 31
0.0
  0
ARC
  5
67DC
330
1E
100
AcDbEntity
  8
24
  6
CONTINOUS
100
AcDbCircle
 10
-4.999999999999971
 20
202.7349134126128
 30
0.0
 40
2.0
100
AcDbArc
 50
180.0
 51
270.0
  0
LINE
  5
67DD
330
1E
100
AcDbEntity
  8
24
  6
CONTINOUS
100
AcDbLine
 10
-7.699999999999931
 20
205.9349134126128
 30
0.0
 11
-7.699999999999931
 21
207.9349134126129
 31
0.0
  0
LINE
  5
67DE
330
1E
100
AcDbEntity
  8
24
  6
CONTINOUS
100
AcDbLine
 10
7.0
 20
202.7349134126128
 30
0.0
 11
7.0
 21
205.9349134126128
 31
0.0
  0
LINE
  5
67DF
330
1E
100
AcDbEntity
  8
24
  6
CONTINOUS
100
AcDbLine
 10
7.700000000000045
 20
205.9349134126128
 30
0.0
 11
7.700000000000045
 21
207.9349134126129
 31
0.0
  0
LINE
  5
67E0
330
1E
100
AcDbEntity
  8
24
  6
CONTINOUS
100
AcDbLine
 10
-34.99999999999996
 20
200.7349134126128
 30
0.0
 11
-24.99999999999998
 21
200.7349134126128
 31
0.0
  0
LINE
  5
67E1
330
1E
100
AcDbEntity
  8
24
  6
CONTINOUS
100
AcDbLine
 10
-40.49999999999998
 20
211.1349134126129
 30
0.0
 11
-19.49999999999987
 21
211.1349134126129
 31
0.0
  0
LINE
  5
67E2
330
1E
100
AcDbEntity
  8
24
  6
CONTINOUS
100
AcDbLine
 10
-37.69999999999993
 20
205.9349134126128
 30
0.0
 11
-22.29999999999995
 21
205.9349134126128
 31
0.0
  0
LINE
  5
67E3
330
1E
100
AcDbEntity
  8
24
  6
CONTINOUS
100
AcDbLine
 10
-40.49999999999998
 20
213.1349134126129
 30
0.0
 11
-19.49999999999987
 21
213.1349134126129
 31
0.0
  0
LINE
  5
67E4
330
1E
100
AcDbEntity
  8
24
  6
CONTINOUS
100
AcDbLine
 10
-29.99999999999998
 20
198.9349134126126
 30
0.0
 11
-29.99999999999998
 21
216.1349134126129
 31
0.0
  0
LINE
  5
67E5
330
1E
100
AcDbEntity
  8
24
  6
CONTINOUS
100
AcDbLine
 10
-36.99999999999997
 20
202.7349134126128
 30
0.0
 11
-36.99999999999997
 21
205.9349134126128
 31
0.0
  0
ARC
  5
67E6
330
1E
100
AcDbEntity
  8
24
  6
CONTINOUS
100
AcDbCircle
 10
-34.99999999999996
 20
202.7349134126128
 30
0.0
 40
2.0
100
AcDbArc
 50
180.0
 51
270.0
  0
LINE
  5
67E7
330
1E
100
AcDbEntity
  8
24
  6
CONTINOUS
100
AcDbLine
 10
-37.69999999999993
 20
205.9349134126128
 30
0.0
 11
-37.69999999999993
 21
207.9349134126129
 31
0.0
  0
LINE
  5
67E8
330
1E
100
AcDbEntity
  8
24
  6
CONTINOUS
100
AcDbLine
 10
-22.99999999999998
 20
202.7349134126128
 30
0.0
 11
-22.99999999999998
 21
205.9349134126128
 31
0.0
  0
ARC
  5
67E9
330
1E
100
AcDbEntity
  8
24
  6
CONTINOUS
100
AcDbCircle
 10
-24.99999999999996
 20
202.7349134126128
 30
0.0
 40
2.0
100
AcDbArc
 50
270.0
 51
0.0
  0
LINE
  5
67EA
330
1E
100
AcDbEntity
  8
24
  6
CONTINOUS
100
AcDbLine
 10
-22.29999999999995
 20
205.9349134126128
 30
0.0
 11
-22.29999999999995
 21
207.9349134126129
 31
0.0
  0
DIMENSION
  5
67EB
330
1E
100
AcDbEntity
  8
30
  6
Continuous
100
AcDbDimension
280
     0
  2
*D36
 10
0.0000000000000029
 20
256.9821974718418
 30
0.0
 11
-14.99999999999999
 21
259.9821974718418
 31
0.0
 70
    32
 71
     5
 42
29.99999999999998
 73
     0
 74
     0
 75
     0
  3
STANDARD
100
AcDbAlignedDimension
 13
-29.99999999999998
 23
216.1349134126129
 33
0.0
 14
0.0000000000000004
 24
216.1349134126129
 34
0.0
100
AcDbRotatedDimension
1001
ACAD
1000
DSTYLE
1002
{
1070
    79
1070
     3
1002
}
  0
DIMENSION
  5
67EC
330
1E
100
AcDbEntity
  8
30
  6
Continuous
100
AcDbDimension
280
     0
  2
*D37
 10
30.0
 20
256.9821974718418
 30
0.0
 11
15.0
 21
259.9821974718418
 31
0.0
 70
    32
 71
     5
 42
30.0
 73
     0
 74
     0
 75
     0
  3
STANDARD
100
AcDbAlignedDimension
 13
0.0000000000000004
 23
217.1349134126129
 33
0.0
 14
30.0
 24
216.1349134126129
 34
0.0
100
AcDbRotatedDimension
1001
ACAD
1000
DSTYLE
1002
{
1070
    79
1070
     3
1002
}
  0
DIMENSION
  5
67ED
330
1E
100
AcDbEntity
  8
30
  6
Continuous
100
AcDbDimension
280
     0
  2
*D38
 10
60.0
 20
256.9821974718418
 30
0.0
 11
45.0
 21
259.9821974718418
 31
0.0
 70
    32
 71
     5
 42
30.0
 73
     0
 74
     0
 75
     0
  3
STANDARD
100
AcDbAlignedDimension
 13
30.0
 23
217.1349134126129
 33
0.0
 14
60.0
 24
216.1349134126129
 34
0.0
100
AcDbRotatedDimension
1001
ACAD
1000
DSTYLE
1002
{
1070
    79
1070
     3
1002
}
  0
LINE
  5
67EE
330
1E
100
AcDbEntity
  8
24
  6
CONTINOUS
100
AcDbLine
 10
49.50000000000001
 20
211.1349134126129
 30
0.0
 11
70.5000000000001
 21
211.1349134126129
 31
0.0
  0
LINE
  5
67EF
330
1E
100
AcDbEntity
  8
24
  6
CONTINOUS
100
AcDbLine
 10
49.50000000000001
 20
213.1349134126129
 30
0.0
 11
70.5000000000001
 21
213.1349134126129
 31
0.0
  0
LINE
  5
67F0
330
1E
100
AcDbEntity
  8
24
  6
CONTINOUS
100
AcDbLine
 10
52.30000000000007
 20
205.9349134126128
 30
0.0
 11
67.70000000000003
 21
205.9349134126128
 31
0.0
  0
LINE
  5
67F1
330
1E
100
AcDbEntity
  8
24
  6
CONTINOUS
100
AcDbLine
 10
67.0
 20
202.7349134126128
 30
0.0
 11
67.0
 21
205.9349134126128
 31
0.0
  0
LINE
  5
67F2
330
1E
100
AcDbEntity
  8
24
  6
CONTINOUS
100
AcDbLine
 10
60.0
 20
198.9349134126126
 30
0.0
 11
60.0
 21
216.1349134126129
 31
0.0
  0
LINE
  5
67F3
330
1E
100
AcDbEntity
  8
24
  6
CONTINOUS
100
AcDbLine
 10
53.0
 20
202.7349134126128
 30
0.0
 11
53.0
 21
205.9349134126128
 31
0.0
  0
LINE
  5
67F4
330
1E
100
AcDbEntity
  8
24
  6
CONTINOUS
100
AcDbLine
 10
55.0
 20
200.7349134126128
 30
0.0
 11
65.0
 21
200.7349134126128
 31
0.0
  0
ARC
  5
67F5
330
1E
100
AcDbEntity
  8
24
  6
CONTINOUS
100
AcDbCircle
 10
55.00000000000003
 20
202.7349134126128
 30
0.0
 40
2.0
100
AcDbArc
 50
180.0
 51
270.0
  0
ARC
  5
67F6
330
1E
100
AcDbEntity
  8
24
  6
CONTINOUS
100
AcDbCircle
 10
65.00000000000003
 20
202.7349134126128
 30
0.0
 40
2.0
100
AcDbArc
 50
270.0
 51
0.0
  0
LINE
  5
67F7
330
1E
100
AcDbEntity
  8
24
  6
CONTINOUS
100
AcDbLine
 10
52.30000000000007
 20
205.9349134126128
 30
0.0
 11
52.30000000000007
 21
207.9349134126129
 31
0.0
  0
LINE
  5
67F8
330
1E
100
AcDbEntity
  8
24
  6
CONTINOUS
100
AcDbLine
 10
67.70000000000003
 20
205.9349134126128
 30
0.0
 11
67.70000000000003
 21
207.9349134126129
 31
0.0
  0
LWPOLYLINE
  5
67F9
330
1E
100
AcDbEntity
  8
24
  6
CONTINOUS
100
AcDbPolyline
 90
        4
 70
     1
 43
0.0
 10
-37.99999999999998
 20
207.9349134126129
 10
-21.99999999999998
 20
207.9349134126129
 10
-21.99999999999998
 20
211.1349134126129
 10
-37.99999999999998
 20
211.1349134126129
  0
LWPOLYLINE
  5
67FA
330
1E
100
AcDbEntity
  8
24
  6
CONTINOUS
100
AcDbPolyline
 90
        4
 70
     1
 43
0.0
 10
-8.0
 20
207.9349134126129
 10
8.0
 20
207.9349134126129
 10
8.0
 20
211.1349134126129
 10
-8.0
 20
211.1349134126129
  0
LWPOLYLINE
  5
67FB
330
1E
100
AcDbEntity
  8
24
  6
CONTINOUS
100
AcDbPolyline
 90
        4
 70
     1
 43
0.0
 10
22.0
 20
207.9349134126129
 10
38.0
 20
207.9349134126129
 10
38.0
 20
211.1349134126129
 10
22.0
 20
211.1349134126129
  0
LWPOLYLINE
  5
67FC
330
1E
100
AcDbEntity
  8
24
  6
CONTINOUS
100
AcDbPolyline
 90
        4
 70
     1
 43
0.0
 10
52.0
 20
207.9349134126129
 10
68.0
 20
207.9349134126129
 10
68.0
 20
211.1349134126129
 10
52.0
 20
211.1349134126129
  0
DIMENSION
  5
67FD
330
1E
100
AcDbEntity
  8
30
  6
Continuous
100
AcDbDimension
280
     0
  2
*D39
 10
82.53557793199616
 20
174.1349134126129
 30
0.0
 11
79.53557793199613
 21
204.6349134126128
 31
0.0
 70
    32
 71
     5
 42
60.99999999999977
 73
     0
 74
     0
 75
     0
  3
STANDARD
100
AcDbAlignedDimension
 13
74.99999999999997
 23
235.1349134126127
 33
0.0
 14
74.99999999999999
 24
174.1349134126129
 34
0.0
 50
90.0
100
AcDbRotatedDimension
1001
ACAD
1000
DSTYLE
1002
{
1070
    79
1070
     3
1002
}
  0
DIMENSION
  5
67FE
330
1E
100
AcDbEntity
  8
30
  6
Continuous
100
AcDbDimension
280
     0
  2
*D40
 10
89.84192661915676
 20
167.1349134126128
 30
0.0
 11
86.84192661915673
 21
201.1349134126128
 31
0.0
 70
    32
 71
     5
 42
67.99999999999986
 73
     0
 74
     0
 75
     0
  3
STANDARD
100
AcDbAlignedDimension
 13
74.99999999999999
 23
235.1349134126127
 33
0.0
 14
74.99999999999999
 24
167.1349134126128
 34
0.0
 50
90.0
100
AcDbRotatedDimension
1001
ACAD
1000
DSTYLE
1002
{
1070
    79
1070
     3
1002
}
  0
DIMENSION
  5
67FF
330
1E
100
AcDbEntity
  8
30
  6
Continuous
100
AcDbDimension
280
     0
  2
*D41
 10
97.14827530631779
 20
163.1349134126129
 30
0.0
 11
94.14827530631777
 21
199.1349134126128
 31
0.0
 70
    32
 71
     5
 42
71.9999999999998
 73
     0
 74
     0
 75
     0
  3
STANDARD
100
AcDbAlignedDimension
 13
74.99999999999999
 23
235.1349134126127
 33
0.0
 14
42.49999999999995
 24
163.1349134126129
 34
0.0
 50
90.0
100
AcDbRotatedDimension
1001
ACAD
1000
DSTYLE
1002
{
1070
    79
1070
     3
1002
}
  0
DIMENSION
  5
6800
330
1E
100
AcDbEntity
  8
30
  6
Continuous
100
AcDbDimension
280
     0
  2
*D42
 10
104.4546239934789
 20
159.1349134126129
 30
0.0
 11
101.4546239934789
 21
197.1349134126128
 31
0.0
 70
    32
 71
     5
 42
75.9999999999998
 73
     0
 74
     0
 75
     0
  3
STANDARD
100
AcDbAlignedDimension
 13
74.99999999999997
 23
235.1349134126127
 33
0.0
 14
10.99999999999996
 24
159.1349134126129
 34
0.0
 50
90.0
100
AcDbRotatedDimension
1001
ACAD
1000
DSTYLE
1002
{
1070
    79
1070
     3
1002
}
  0
LINE
  5
6801
330
1E
100
AcDbEntity
  8
10
  6
CONTINOUS
100
AcDbLine
 10
-6.999999999999986
 20
159.1349134126129
 30
0.0
 11
-6.999999999999986
 21
147.1349134126129
 31
0.0
  0
LINE
  5
6802
330
1E
100
AcDbEntity
  8
10
  6
CONTINOUS
100
AcDbLine
 10
-6.999999999999986
 20
147.1349134126129
 30
0.0
 11
7.000000000000013
 21
147.1349134126129
 31
0.0
  0
LINE
  5
6803
330
1E
100
AcDbEntity
  8
10
  6
CONTINOUS
100
AcDbLine
 10
7.000000000000013
 20
147.1349134126129
 30
0.0
 11
7.000000000000013
 21
159.1349134126129
 31
0.0
  0
LINE
  5
68BE
330
1E
100
AcDbEntity
  8
10
  6
CONTINOUS
100
AcDbLine
 10
42.00000000000001
 20
167.1349134126128
 30
0.0
 11
42.00000000000001
 21
163.1349134126128
 31
0.0
  0
LINE
  5
68BF
330
1E
100
AcDbEntity
  8
10
  6
CONTINOUS
100
AcDbLine
 10
42.00000000000001
 20
163.1349134126128
 30
0.0
 11
-41.99999999999999
 21
163.1349134126128
 31
0.0
  0
LINE
  5
68C0
330
1E
100
AcDbEntity
  8
10
  6
CONTINOUS
100
AcDbLine
 10
74.99999999999999
 20
167.1349134126128
 30
0.0
 11
-45.0
 21
167.1349134126128
 31
0.0
  0
LINE
  5
68C1
330
1E
100
AcDbEntity
  8
10
  6
CONTINOUS
100
AcDbLine
 10
74.99999999999997
 20
174.1349134126129
 30
0.0
 11
74.99999999999997
 21
167.1349134126129
 31
0.0
  0
LINE
  5
68C2
330
1E
100
AcDbEntity
  8
10
  6
CONTINOUS
100
AcDbLine
 10
74.99999999999997
 20
174.1349134126129
 30
0.0
 11
-45.00000000000002
 21
174.1349134126129
 31
0.0
  0
LINE
  5
68C3
330
1E
100
AcDbEntity
  8
10
  6
CONTINOUS
100
AcDbLine
 10
74.99999999999999
 20
235.1349134126127
 30
0.0
 11
-45.0
 21
235.1349134126127
 31
0.0
  0
LINE
  5
68C4
330
1E
100
AcDbEntity
  8
10
  6
CONTINOUS
100
AcDbLine
 10
-45.0
 20
235.1349134126127
 30
0.0
 11
-45.0
 21
167.1349134126127
 31
0.0
  0
LINE
  5
68C5
330
1E
100
AcDbEntity
  8
10
  6
CONTINOUS
100
AcDbLine
 10
-41.99999999999999
 20
163.1349134126128
 30
0.0
 11
-41.99999999999999
 21
167.1349134126128
 31
0.0
  0
VIEWPORT
  5
9AC
330
1A
100
AcDbEntity
 67
     1
  8
0
  6
Continuous
100
AcDbViewport
 10
171.999535
 20
144.1384739999999
 30
0.0
 40
488.867686
 41
292.351491
 68
    -1
 69
     1
 12
171.999535
 22
144.1384739999999
 13
0.0
 23
0.0
 14
10.0
 24
10.0
 15
10.0
 25
10.0
 16
0.0
 26
0.0
 36
1.0
 17
0.0
 27
0.0
 37
0.0
 42
50.0
 43
0.0
 44
0.0
 45
292.351491
 50
0.0
 51
0.0
 72
   100
 90
    32800
  1

281
     0
 71
     1
 74
     0
110
0.0
120
0.0
130
0.0
111
1.0
121
0.0
131
0.0
112
0.0
122
1.0
132
0.0
 79
     0
146
0.0
170
     0
 61
     5
348
66ED
292
     1
282
     1
141
0.0
142
0.0
 63
   250
421
  3355443
  0
ENDSEC
  0
SECTION
  2
OBJECTS
  0
DICTIONARY
  5
C
330
0
100
AcDbDictionary
281
     1
  3
ACAD_CIP_PREVIOUS_PRODUCT_INFO
350
671C
  3
ACAD_COLOR
350
6700
  3
ACAD_DETAILVIEWSTYLE
350
6719
  3
ACAD_GROUP
350
D
  3
ACAD_LAYOUT
350
19
  3
ACAD_MATERIAL
350
66CE
  3
ACAD_MLEADERSTYLE
350
6715
  3
ACAD_MLINESTYLE
350
16
  3
ACAD_PLOTSETTINGS
350
18
  3
ACAD_PLOTSTYLENAME
350
E
  3
ACAD_SCALELIST
350
6703
  3
ACAD_SECTIONVIEWSTYLE
350
6717
  3
ACAD_TABLESTYLE
350
6701
  3
ACAD_VISUALSTYLE
350
66E7
  3
ACADDIM
350
5C76
  3
ACDB_RECOMPOSE_DATA
350
6A2B
  3
ACDBVARIABLEDICTIONARY
350
5697
  0
DICTIONARY
  5
68DB
330
10
100
AcDbDictionary
280
     1
281
     1
  3
ADSK_XREC_LAYER_RECONCILED
360
68DC
  0
DICTIONARY
  5
68DD
330
2F
100
AcDbDictionary
280
     1
281
     1
  3
ADSK_XREC_LAYER_RECONCILED
360
68DE
  0
DICTIONARY
  5
68DF
330
31
100
AcDbDictionary
280
     1
281
     1
  3
ADSK_XREC_LAYER_RECONCILED
360
68E0
  0
DICTIONARY
  5
68E1
330
35
100
AcDbDictionary
280
     1
281
     1
  3
ADSK_XREC_LAYER_RECONCILED
360
68E2
  0
DICTIONARY
  5
68E3
330
38
100
AcDbDictionary
280
     1
281
     1
  3
ADSK_XREC_LAYER_RECONCILED
360
68E4
  0
DICTIONARY
  5
68E5
330
3C
100
AcDbDictionary
280
     1
281
     1
  3
ADSK_XREC_LAYER_RECONCILED
360
68E6
  0
DICTIONARY
  5
68E7
330
3D
100
AcDbDictionary
280
     1
281
     1
  3
ADSK_XREC_LAYER_RECONCILED
360
68E8
  0
DICTIONARY
  5
68E9
330
3A2
100
AcDbDictionary
280
     1
281
     1
  3
ADSK_XREC_LAYER_RECONCILED
360
68EA
  0
DICTIONARY
  5
68EB
330
3BBA
100
AcDbDictionary
280
     1
281
     1
  3
ADSK_XREC_LAYER_RECONCILED
360
68EC
  0
DICTIONARY
  5
68ED
330
5116
100
AcDbDictionary
280
     1
281
     1
  3
ADSK_XREC_LAYER_RECONCILED
360
68EE
  0
DICTIONARY
  5
68EF
330
5117
100
AcDbDictionary
280
     1
281
     1
  3
ADSK_XREC_LAYER_RECONCILED
360
68F0
  0
DICTIONARY
  5
68F1
330
5C47
100
AcDbDictionary
280
     1
281
     1
  3
ADSK_XREC_LAYER_RECONCILED
360
68F2
  0
DICTIONARY
  5
178
330
1E
100
AcDbDictionary
280
     1
281
     1
  3
ACAD_LAYOUTSELFREF
360
66B9
  0
DICTIONARY
  5
17A
330
1A
100
AcDbDictionary
280
     1
281
     1
  3
ACAD_LAYOUTSELFREF
360
66B8
  0
XRECORD
  5
671C
102
{ACAD_REACTORS
330
C
102
}
330
C
100
AcDbXrecord
280
     1
300
ACDLT
300
2014
300
ACDLT_F_S
  0
DICTIONARY
  5
6700
102
{ACAD_REACTORS
330
C
102
}
330
C
100
AcDbDictionary
281
     1
  0
DICTIONARY
  5
6719
102
{ACAD_REACTORS
330
C
102
}
330
C
100
AcDbDictionary
281
     1
  3
Imperial24
350
671A
  0
DICTIONARY
  5
D
102
{ACAD_REACTORS
330
C
102
}
330
C
100
AcDbDictionary
281
     1
  0
DICTIONARY
  5
19
102
{ACAD_REACTORS
330
C
102
}
330
C
100
AcDbDictionary
281
     1
  3
Model
350
66C1
  3
ﾚｲｱｳﾄ1
350
66C2
  0
DICTIONARY
  5
66CE
102
{ACAD_REACTORS
330
C
102
}
330
C
100
AcDbDictionary
281
     1
  3
ByBlock
350
66D7
  3
ByLayer
350
66CF
  3
Global
350
66DF
  0
DICTIONARY
  5
6715
102
{ACAD_REACTORS
330
C
102
}
330
C
100
AcDbDictionary
281
     1
  3
Standard
350
6716
  0
DICTIONARY
  5
16
102
{ACAD_REACTORS
330
C
102
}
330
C
100
AcDbDictionary
281
     1
  3
STANDARD
350
17
  0
DICTIONARY
  5
18
102
{ACAD_REACTORS
330
C
102
}
330
C
100
AcDbDictionary
281
     1
  0
ACDBDICTIONARYWDFLT
  5
E
102
{ACAD_REACTORS
330
C
102
}
330
C
100
AcDbDictionary
281
     1
  3
Normal
350
F
100
AcDbDictionaryWithDefault
340
F
  0
DICTIONARY
  5
6703
102
{ACAD_REACTORS
330
C
102
}
330
C
100
AcDbDictionary
281
     1
  3
A0
350
6704
  3
A1
350
6705
  3
A2
350
6706
  3
A3
350
6707
  3
A4
350
6708
  3
A5
350
6709
  3
A6
350
670A
  3
A7
350
670B
  3
A8
350
670C
  3
A9
350
670D
  3
B0
350
670E
  3
B1
350
670F
  3
B2
350
6710
  3
B3
350
6711
  3
B4
350
6712
  3
B5
350
6713
  3
B6
350
6714
  0
DICTIONARY
  5
6717
102
{ACAD_REACTORS
330
C
102
}
330
C
100
AcDbDictionary
281
     1
  3
Imperial24
350
6718
  0
DICTIONARY
  5
6701
102
{ACAD_REACTORS
330
C
102
}
330
C
100
AcDbDictionary
281
     1
  3
Standard
350
6702
  0
DICTIONARY
  5
66E7
102
{ACAD_REACTORS
330
C
102
}
330
C
100
AcDbDictionary
281
     1
  3
2dWireframe
350
66ED
  3
Basic
350
66EC
  3
Brighten
350
66F3
  3
ColorChange
350
66F7
  3
Conceptual
350
66F0
  3
Dim
350
66F2
  3
EdgeColorOff
350
66FF
  3
Facepattern
350
66F6
  3
Flat
350
66E8
  3
FlatWithEdges
350
66E9
  3
Gouraud
350
66EA
  3
GouraudWithEdges
350
66EB
  3
Hidden
350
66EF
  3
JitterOff
350
66FD
  3
Linepattern
350
66F5
  3
OverhangOff
350
66FE
  3
Realistic
350
66F1
  3
Shaded
350
66FC
  3
Shaded with edges
350
66FB
  3
Shades of Gray
350
66F8
  3
Sketchy
350
66F9
  3
Thicken
350
66F4
  3
Wireframe
350
66EE
  3
X-Ray
350
66FA
  0
XRECORD
  5
5C76
102
{ACAD_REACTORS
330
C
102
}
330
C
100
AcDbXrecord
280
     1
 90
   990106
  3

 60
     0
 61
     0
 62
     1
 63
     3
 64
     0
 65
     0
 66
     0
 67
     3
 68
     1
 69
     0
 70
     0
 71
     0
 72
     0
 40
0.0
170
     0
340
6068
  0
XRECORD
  5
6A2B
102
{ACAD_REACTORS
330
C
102
}
330
C
100
AcDbXrecord
280
     1
 90
        1
330
6702
330
6718
330
671A
  0
DICTIONARY
  5
5697
102
{ACAD_REACTORS
330
C
102
}
330
C
100
AcDbDictionary
281
     1
  3
CANNOSCALE
350
68F7
  3
CMLEADERSTYLE
350
68F4
  3
CTABLESTYLE
350
68F3
  3
CVIEWDETAILSTYLE
350
68F5
  3
CVIEWSECTIONSTYLE
350
68F6
  3
DIMASSOC
350
5698
  3
INDEXCTL
350
68F9
  3
LAYEREVAL
350
6A24
  3
LAYERNOTIFY
350
6A25
  3
LIGHTINGUNITS
350
6A23
  3
MSLTSCALE
350
6A22
  3
SORTENTS
350
68F8
  0
XRECORD
  5
68DC
102
{ACAD_REACTORS
330
68DB
102
}
330
68DB
100
AcDbXrecord
280
     1
290
     1
  0
XRECORD
  5
68DE
102
{ACAD_REACTORS
330
68DD
102
}
330
68DD
100
AcDbXrecord
280
     1
290
     1
  0
XRECORD
  5
68E0
102
{ACAD_REACTORS
330
68DF
102
}
330
68DF
100
AcDbXrecord
280
     1
290
     1
  0
XRECORD
  5
68E2
102
{ACAD_REACTORS
330
68E1
102
}
330
68E1
100
AcDbXrecord
280
     1
290
     1
  0
XRECORD
  5
68E4
102
{ACAD_REACTORS
330
68E3
102
}
330
68E3
100
AcDbXrecord
280
     1
290
     1
  0
XRECORD
  5
68E6
102
{ACAD_REACTORS
330
68E5
102
}
330
68E5
100
AcDbXrecord
280
     1
290
     1
  0
XRECORD
  5
68E8
102
{ACAD_REACTORS
330
68E7
102
}
330
68E7
100
AcDbXrecord
280
     1
290
     1
  0
XRECORD
  5
68EA
102
{ACAD_REACTORS
330
68E9
102
}
330
68E9
100
AcDbXrecord
280
     1
290
     1
  0
XRECORD
  5
68EC
102
{ACAD_REACTORS
330
68EB
102
}
330
68EB
100
AcDbXrecord
280
     1
290
     1
  0
XRECORD
  5
68EE
102
{ACAD_REACTORS
330
68ED
102
}
330
68ED
100
AcDbXrecord
280
     1
290
     1
  0
XRECORD
  5
68F0
102
{ACAD_REACTORS
330
68EF
102
}
330
68EF
100
AcDbXrecord
280
     1
290
     1
  0
XRECORD
  5
68F2
102
{ACAD_REACTORS
330
68F1
102
}
330
68F1
100
AcDbXrecord
280
     1
290
     1
  0
XRECORD
  5
66B9
102
{ACAD_REACTORS
330
178
102
}
330
178
100
AcDbXrecord
280
     1
340
1E
  0
XRECORD
  5
66B8
102
{ACAD_REACTORS
330
17A
102
}
330
17A
100
AcDbXrecord
280
     1
340
1A
  0
ACDBDETAILVIEWSTYLE
  5
671A
102
{ACAD_XDICTIONARY
360
6A29
102
}
102
{ACAD_REACTORS
330
6719
102
}
330
6719
100
AcDbModelDocViewStyle
 70
     0
  3
Imperial24
290
     0
100
AcDbDetailViewStyle
 70
     0
 71
     0
 90
        3
 71
     1
340
11
 62
   256
 40
0.24
340
0
 62
   256
 40
0.24
300

 40
0.36
280
     3
 71
     2
340
15
 90
       25
 62
   256
 71
     3
340
11
 62
   256
 40
0.24
 90
        1
 40
0.75
 90
        1
300
%<\AcVar ViewType \f "%tc1">% %<\AcVar ViewDetailId>%\PSCALE %<\AcVar ViewScale \f "%sn">%
 71
     4
340
15
 90
       25
 62
   256
340
15
 90
       25
 62
   256
280
     0
  0
LAYOUT
  5
66C1
102
{ACAD_REACTORS
330
19
102
}
330
19
100
AcDbPlotSettings
  1

  2
none_device
  4
Letter_(8.50_x_11.00_Inches)
  6

 40
6.349999904632567
 41
6.349999904632567
 42
6.350006103515625
 43
6.350006103515625
 44
215.8999938964844
 45
279.3999938964844
 46
0.0
 47
0.0
 48
0.0
 49
0.0
140
0.0
141
0.0
142
1.0
143
75.21702354980162
 70
 11952
 72
     0
 73
     1
 74
     0
  7
monochrome.ctb
 75
     0
147
0.0132948626894003
 76
     0
 77
     2
 78
   300
148
5244.704987123877
149
1635.641739969545
100
AcDbLayout
  1
Model
 70
     1
 71
     0
 10
0.0
 20
0.0
 11
12.0
 21
9.0
 12
0.0
 22
0.0
 32
0.0
 14
0.0
 24
0.0
 34
0.0
 15
0.0
 25
0.0
 35
0.0
146
0.0
 13
0.0
 23
0.0
 33
0.0
 16
1.0
 26
0.0
 36
0.0
 17
0.0
 27
1.0
 37
0.0
 76
     0
330
1E
331
66C6
1001
ACAD_PSEXT
1000
なし
1000
なし
1000
適切ではありません
1000
新しいプロッタ環境設定名を選択しない限り、レイアウトは印刷されません。
1070
     0
  0
LAYOUT
  5
66C2
102
{ACAD_REACTORS
330
19
102
}
330
19
100
AcDbPlotSettings
  1

  2
Canon LBP3800 LIPSLX
  4

  6

 40
0.0
 41
0.0
 42
0.0
 43
0.0
 44
0.0
 45
0.0
 46
0.0
 47
0.0
 48
0.0
 49
0.0
140
0.0
141
0.0
142
1.0
143
1.0
 70
   688
 72
     0
 73
     0
 74
     5
  7
monochrome.ctb
 75
    16
147
1.0
 76
     0
 77
     2
 78
   300
148
0.0
149
0.0
100
AcDbLayout
  1
ﾚｲｱｳﾄ1
 70
     1
 71
     1
 10
-5.873749
 20
-5.87375
 11
204.099579
 21
291.1369009999999
 12
0.0
 22
0.0
 32
0.0
 14
4.273573
 24
5.205245999999998
 34
0.0
 15
194.610095
 25
283.0697009999996
 35
0.0
146
0.0
 13
0.0
 23
0.0
 33
0.0
 16
1.0
 26
0.0
 36
0.0
 17
0.0
 27
1.0
 37
0.0
 76
     0
330
1A
  0
MATERIAL
  5
66D7
102
{ACAD_XDICTIONARY
360
66D8
102
}
102
{ACAD_REACTORS
330
66CE
102
}
330
66CE
100
AcDbMaterial
  1
ByBlock
 72
     0
 43
0.0208333333333333
 43
0.0
 43
0.0
 43
0.0
 43
0.0
 43
0.0208333333333333
 43
0.0
 43
0.0
 43
0.0
 43
0.0
 43
1.0
 43
0.0
 43
0.0
 43
0.0
 43
0.0
 43
1.0
 77
     0
 47
0.0208333333333333
 47
0.0
 47
0.0
 47
0.0
 47
0.0
 47
0.0208333333333333
 47
0.0
 47
0.0
 47
0.0
 47
0.0
 47
1.0
 47
0.0
 47
0.0
 47
0.0
 47
0.0
 47
1.0
171
     0
 49
0.0208333333333333
 49
0.0
 49
0.0
 49
0.0
 49
0.0
 49
0.0208333333333333
 49
0.0
 49
0.0
 49
0.0
 49
0.0
 49
1.0
 49
0.0
 49
0.0
 49
0.0
 49
0.0
 49
1.0
175
     0
142
0.0208333333333333
142
0.0
142
0.0
142
0.0
142
0.0
142
0.0208333333333333
142
0.0
142
0.0
142
0.0
142
0.0
142
1.0
142
0.0
142
0.0
142
0.0
142
0.0
142
1.0
179
     0
144
0.0208333333333333
144
0.0
144
0.0
144
0.0
144
0.0
144
0.0208333333333333
144
0.0
144
0.0
144
0.0
144
0.0
144
1.0
144
0.0
144
0.0
144
0.0
144
0.0
144
1.0
147
0.0208333333333333
147
0.0
147
0.0
147
0.0
147
0.0
147
0.0208333333333333
147
0.0
147
0.0
147
0.0
147
0.0
147
1.0
147
0.0
147
0.0
147
0.0
147
0.0
147
1.0
  0
MATERIAL
  5
66CF
102
{ACAD_XDICTIONARY
360
66D0
102
}
102
{ACAD_REACTORS
330
66CE
102
}
330
66CE
100
AcDbMaterial
  1
ByLayer
 72
     0
 43
0.0208333333333333
 43
0.0
 43
0.0
 43
0.0
 43
0.0
 43
0.0208333333333333
 43
0.0
 43
0.0
 43
0.0
 43
0.0
 43
1.0
 43
0.0
 43
0.0
 43
0.0
 43
0.0
 43
1.0
 77
     0
 47
0.0208333333333333
 47
0.0
 47
0.0
 47
0.0
 47
0.0
 47
0.0208333333333333
 47
0.0
 47
0.0
 47
0.0
 47
0.0
 47
1.0
 47
0.0
 47
0.0
 47
0.0
 47
0.0
 47
1.0
171
     0
 49
0.0208333333333333
 49
0.0
 49
0.0
 49
0.0
 49
0.0
 49
0.0208333333333333
 49
0.0
 49
0.0
 49
0.0
 49
0.0
 49
1.0
 49
0.0
 49
0.0
 49
0.0
 49
0.0
 49
1.0
175
     0
142
0.0208333333333333
142
0.0
142
0.0
142
0.0
142
0.0
142
0.0208333333333333
142
0.0
142
0.0
142
0.0
142
0.0
142
1.0
142
0.0
142
0.0
142
0.0
142
0.0
142
1.0
179
     0
144
0.0208333333333333
144
0.0
144
0.0
144
0.0
144
0.0
144
0.0208333333333333
144
0.0
144
0.0
144
0.0
144
0.0
144
1.0
144
0.0
144
0.0
144
0.0
144
0.0
144
1.0
147
0.0208333333333333
147
0.0
147
0.0
147
0.0
147
0.0
147
0.0208333333333333
147
0.0
147
0.0
147
0.0
147
0.0
147
1.0
147
0.0
147
0.0
147
0.0
147
0.0
147
1.0
  0
MATERIAL
  5
66DF
102
{ACAD_XDICTIONARY
360
66E0
102
}
102
{ACAD_REACTORS
330
66CE
102
}
330
66CE
100
AcDbMaterial
  1
Global
 72
     0
 43
0.0208333333333333
 43
0.0
 43
0.0
 43
0.0
 43
0.0
 43
0.0208333333333333
 43
0.0
 43
0.0
 43
0.0
 43
0.0
 43
1.0
 43
0.0
 43
0.0
 43
0.0
 43
0.0
 43
1.0
 77
     0
 47
0.0208333333333333
 47
0.0
 47
0.0
 47
0.0
 47
0.0
 47
0.0208333333333333
 47
0.0
 47
0.0
 47
0.0
 47
0.0
 47
1.0
 47
0.0
 47
0.0
 47
0.0
 47
0.0
 47
1.0
171
     0
 49
0.0208333333333333
 49
0.0
 49
0.0
 49
0.0
 49
0.0
 49
0.0208333333333333
 49
0.0
 49
0.0
 49
0.0
 49
0.0
 49
1.0
 49
0.0
 49
0.0
 49
0.0
 49
0.0
 49
1.0
175
     0
142
0.0208333333333333
142
0.0
142
0.0
142
0.0
142
0.0
142
0.0208333333333333
142
0.0
142
0.0
142
0.0
142
0.0
142
1.0
142
0.0
142
0.0
142
0.0
142
0.0
142
1.0
179
     0
144
0.0208333333333333
144
0.0
144
0.0
144
0.0
144
0.0
144
0.0208333333333333
144
0.0
144
0.0
144
0.0
144
0.0
144
1.0
144
0.0
144
0.0
144
0.0
144
0.0
144
1.0
147
0.0208333333333333
147
0.0
147
0.0
147
0.0
147
0.0
147
0.0208333333333333
147
0.0
147
0.0
147
0.0
147
0.0
147
1.0
147
0.0
147
0.0
147
0.0
147
0.0
147
1.0
  0
MLEADERSTYLE
  5
6716
102
{ACAD_REACTORS
330
6715
102
}
330
6715
100
AcDbMLeaderStyle
179
     2
170
     2
171
     1
172
     0
 90
        2
 40
0.0
 41
0.0
173
     1
 91
-1056964608
340
13
 92
       -2
290
     1
 42
0.09
291
     1
 43
0.36
  3
Standard
 44
0.18
300

342
11
174
     1
178
     6
175
     1
176
     0
 93
-1056964608
 45
0.18
292
     0
297
     0
 46
0.18
 94
-1056964608
 47
1.0
 49
1.0
140
1.0
293
     1
141
0.0
294
     1
177
     0
142
1.0
295
     0
296
     0
143
0.125
271
     0
272
     9
273
     9
298
     0
1001
ACAD_MLEADERVER
1070
     2
  0
MLINESTYLE
  5
17
102
{ACAD_REACTORS
330
16
102
}
330
16
100
AcDbMlineStyle
  2
STANDARD
 70
     0
  3

 62
   256
 51
90.0
 52
90.0
 71
     2
 49
0.5
 62
   256
  6
BYLAYER
 49
-0.5
 62
   256
  6
BYLAYER
  0
ACDBPLACEHOLDER
  5
F
102
{ACAD_REACTORS
330
E
102
}
330
E
  0
SCALE
  5
6704
102
{ACAD_REACTORS
330
6703
102
}
330
6703
100
AcDbScale
 70
     0
300
1:1
140
1.0
141
1.0
290
     1
  0
SCALE
  5
6705
102
{ACAD_REACTORS
330
6703
102
}
330
6703
100
AcDbScale
 70
     0
300
1/128" = 1'-0"
140
0.0078125
141
12.0
290
     0
  0
SCALE
  5
6706
102
{ACAD_REACTORS
330
6703
102
}
330
6703
100
AcDbScale
 70
     0
300
1/64" = 1'-0"
140
0.015625
141
12.0
290
     0
  0
SCALE
  5
6707
102
{ACAD_REACTORS
330
6703
102
}
330
6703
100
AcDbScale
 70
     0
300
1/32" = 1'-0"
140
0.03125
141
12.0
290
     0
  0
SCALE
  5
6708
102
{ACAD_REACTORS
330
6703
102
}
330
6703
100
AcDbScale
 70
     0
300
1/16" = 1'-0"
140
0.0625
141
12.0
290
     0
  0
SCALE
  5
6709
102
{ACAD_REACTORS
330
6703
102
}
330
6703
100
AcDbScale
 70
     0
300
3/32" = 1'-0"
140
0.09375
141
12.0
290
     0
  0
SCALE
  5
670A
102
{ACAD_REACTORS
330
6703
102
}
330
6703
100
AcDbScale
 70
     0
300
1/8" = 1'-0"
140
0.125
141
12.0
290
     0
  0
SCALE
  5
670B
102
{ACAD_REACTORS
330
6703
102
}
330
6703
100
AcDbScale
 70
     0
300
3/16" = 1'-0"
140
0.1875
141
12.0
290
     0
  0
SCALE
  5
670C
102
{ACAD_REACTORS
330
6703
102
}
330
6703
100
AcDbScale
 70
     0
300
1/4" = 1'-0"
140
0.25
141
12.0
290
     0
  0
SCALE
  5
670D
102
{ACAD_REACTORS
330
6703
102
}
330
6703
100
AcDbScale
 70
     0
300
3/8" = 1'-0"
140
0.375
141
12.0
290
     0
  0
SCALE
  5
670E
102
{ACAD_REACTORS
330
6703
102
}
330
6703
100
AcDbScale
 70
     0
300
1/2" = 1'-0"
140
0.5
141
12.0
290
     0
  0
SCALE
  5
670F
102
{ACAD_REACTORS
330
6703
102
}
330
6703
100
AcDbScale
 70
     0
300
3/4" = 1'-0"
140
0.75
141
12.0
290
     0
  0
SCALE
  5
6710
102
{ACAD_REACTORS
330
6703
102
}
330
6703
100
AcDbScale
 70
     0
300
1" = 1'-0"
140
1.0
141
12.0
290
     0
  0
SCALE
  5
6711
102
{ACAD_REACTORS
330
6703
102
}
330
6703
100
AcDbScale
 70
     0
300
1-1/2" = 1'-0"
140
1.5
141
12.0
290
     0
  0
SCALE
  5
6712
102
{ACAD_REACTORS
330
6703
102
}
330
6703
100
AcDbScale
 70
     0
300
3" = 1'-0"
140
3.0
141
12.0
290
     0
  0
SCALE
  5
6713
102
{ACAD_REACTORS
330
6703
102
}
330
6703
100
AcDbScale
 70
     0
300
6" = 1'-0"
140
6.0
141
12.0
290
     0
  0
SCALE
  5
6714
102
{ACAD_REACTORS
330
6703
102
}
330
6703
100
AcDbScale
 70
     0
300
1'-0" = 1'-0"
140
12.0
141
12.0
290
     0
  0
ACDBSECTIONVIEWSTYLE
  5
6718
102
{ACAD_XDICTIONARY
360
6A27
102
}
102
{ACAD_REACTORS
330
6717
102
}
330
6717
100
AcDbModelDocViewStyle
 70
     0
  3
Imperial24
290
     0
100
AcDbSectionViewStyle
 70
     0
 71
     0
 90
       78
 71
     1
340
11
 62
   256
 40
0.24
340
0
340
0
 62
   256
 40
0.24
300
I, O, Q, S, X, Z
 40
0.48
 90
        3
 40
0.18
 90
        1
 71
     2
340
15
 90
       25
 62
   256
340
15
 90
       50
 62
   256
 40
0.24
 40
0.0
 40
0.24
 71
     3
340
11
 62
   256
 40
0.24
 90
        1
 40
0.75
 90
        1
300
%<\AcVar ViewType \f "%tc1">% %<\AcVar ViewSectionStartId>%-%<\AcVar ViewSectionEndId>%\PSCALE %<\AcVar ViewScale \f "%sn">%
 71
     4
 62
   256
 62
   257
300
ANSI31
 40
1.0
 90
        0
290
     0
290
     0
 90
        6
 40
0.0
 40
1.570796326794896
 40
0.2617993877991494
 40
1.308996938995747
 40
-0.2617993877991494
 40
1.832595714594045
  0
TABLESTYLE
  5
6702
102
{ACAD_XDICTIONARY
360
69D6
102
}
102
{ACAD_REACTORS
330
6701
102
}
330
6701
100
AcDbTableStyle
280
     0
  3
Standard
 70
     0
 71
     0
 40
0.06
 41
0.06
280
     0
281
     0
  7
STANDARD
140
0.18
170
     2
 62
     0
 63
     7
283
     0
 90
      512
 91
        0
  1

274
    -2
284
     1
 64
     0
275
    -2
285
     1
 65
     0
276
    -2
286
     1
 66
     0
277
    -2
287
     1
 67
     0
278
    -2
288
     1
 68
     0
279
    -2
289
     1
 69
     0
  7
STANDARD
140
0.25
170
     5
 62
     0
 63
     7
283
     0
 90
      512
 91
        0
  1

274
    -2
284
     1
 64
     0
275
    -2
285
     1
 65
     0
276
    -2
286
     1
 66
     0
277
    -2
287
     1
 67
     0
278
    -2
288
     1
 68
     0
279
    -2
289
     1
 69
     0
  7
STANDARD
140
0.18
170
     5
 62
     0
 63
     7
283
     0
 90
      512
 91
        0
  1

274
    -2
284
     1
 64
     0
275
    -2
285
     1
 65
     0
276
    -2
286
     1
 66
     0
277
    -2
287
     1
 67
     0
278
    -2
288
     1
 68
     0
279
    -2
289
     1
 69
     0
  0
VISUALSTYLE
  5
66ED
102
{ACAD_REACTORS
330
66E7
102
}
330
66E7
100
AcDbVisualStyle
  2

 70
     4
177
     3
291
     0
 70
    58
 90
        0
176
     1
 90
        2
176
     1
 90
        0
176
     1
 90
        0
176
     1
 40
0.6
176
     1
 40
30.0
176
     1
 62
     7
176
     1
 90
        1
176
     1
 90
        4
176
     1
 62
     7
176
     1
 62
   257
176
     1
 90
        1
176
     1
 90
        1
176
     1
 40
1.0
176
     1
 90
        0
176
     1
 62
   257
176
     1
 40
1.0
176
     1
 90
        1
176
     1
 90
        6
176
     1
 90
        2
176
     1
 62
     7
176
     1
 90
        5
176
     1
 90
        0
176
     1
 90
        0
176
     1
290
     0
176
     1
 90
        1
176
     1
 40
0.0
176
     1
 90
        0
176
     1
290
     1
176
     1
290
     1
176
     1
290
     0
176
     1
290
     0
176
     1
290
     0
176
     1
290
     0
176
     1
290
     0
176
     1
290
     0
176
     1
290
     0
176
     1
 90
       50
176
     1
 40
0.0
176
     1
 40
1.0
176
     1
 90
        0
176
     1
 62
    18
420
        0
176
     1
 90
       50
176
     1
 90
        3
176
     1
 62
     5
420
      255
176
     1
290
     0
176
     1
 90
       50
176
     1
 90
       50
176
     1
 90
       50
176
     1
290
     0
176
     1
 90
       50
176
     1
 62
   256
176
     0
 40
1.0
176
     0
 90
        2
176
     1
  1
strokes_ogs.tif
176
     1
290
     0
176
     1
 40
1.0
176
     1
 40
1.0
176
     1
1001
ACAD
1000
AcDbSavedByObjectVersion
1070
     0
  0
VISUALSTYLE
  5
66EC
102
{ACAD_REACTORS
330
66E7
102
}
330
66E7
100
AcDbVisualStyle
  2

 70
     7
177
     3
291
     1
 70
    58
 90
        1
176
     1
 90
        0
176
     1
 90
        1
176
     1
 90
        0
176
     1
 40
0.6
176
     1
 40
30.0
176
     1
 62
     7
176
     1
 90
        0
176
     1
 90
        4
176
     1
 62
     7
176
     1
 62
   257
176
     1
 90
        1
176
     1
 90
        1
176
     1
 40
1.0
176
     1
 90
        8
176
     1
 62
     7
176
     1
 40
1.0
176
     1
 90
        1
176
     1
 90
        6
176
     1
 90
        2
176
     1
 62
     7
176
     1
 90
        5
176
     1
 90
        0
176
     1
 90
        0
176
     1
290
     0
176
     1
 90
        1
176
     1
 40
0.0
176
     1
 90
        0
176
     1
290
     0
176
     1
290
     1
176
     1
290
     1
176
     1
290
     0
176
     1
290
     0
176
     1
290
     0
176
     1
290
     0
176
     1
290
     0
176
     1
290
     0
176
     1
 90
       50
176
     1
 40
0.0
176
     1
 40
1.0
176
     1
 90
        0
176
     1
 62
    18
420
        0
176
     1
 90
       50
176
     1
 90
        3
176
     1
 62
     5
420
      255
176
     1
290
     0
176
     1
 90
       50
176
     1
 90
       50
176
     1
 90
       50
176
     1
290
     0
176
     1
 90
       50
176
     1
 62
   256
176
     0
 40
1.0
176
     0
 90
        2
176
     1
  1
strokes_ogs.tif
176
     1
290
     0
176
     1
 40
1.0
176
     1
 40
1.0
176
     1
1001
ACAD
1000
AcDbSavedByObjectVersion
1070
     0
  0
VISUALSTYLE
  5
66F3
102
{ACAD_REACTORS
330
66E7
102
}
330
66E7
100
AcDbVisualStyle
  2

 70
    12
177
     3
291
     1
 70
    58
 90
        2
176
     1
 90
        2
176
     1
 90
        0
176
     1
 90
        0
176
     1
 40
0.6
176
     1
 40
30.0
176
     1
 62
     7
176
     1
 90
        1
176
     1
 90
        4
176
     1
 62
     7
176
     1
 62
   257
176
     1
 90
        1
176
     1
 90
        1
176
     1
 40
1.0
176
     1
 90
        8
176
     1
 62
     7
176
     1
 40
1.0
176
     1
 90
        1
176
     1
 90
        6
176
     1
 90
        2
176
     1
 62
     7
176
     1
 90
        5
176
     1
 90
        0
176
     1
 90
        0
176
     1
290
     0
176
     1
 90
        1
176
     1
 40
50.0
176
     1
 90
        0
176
     1
290
     0
176
     1
290
     1
176
     1
290
     1
176
     1
290
     0
176
     1
290
     0
176
     1
290
     0
176
     1
290
     0
176
     1
290
     0
176
     1
290
     0
176
     1
 90
       50
176
     1
 40
0.0
176
     1
 40
1.0
176
     1
 90
        0
176
     1
 62
    18
420
        0
176
     1
 90
       50
176
     1
 90
        3
176
     1
 62
     5
420
      255
176
     1
290
     0
176
     1
 90
       50
176
     1
 90
       50
176
     1
 90
       50
176
     1
290
     0
176
     1
 90
       50
176
     1
 62
   256
176
     0
 40
1.0
176
     0
 90
        2
176
     1
  1
strokes_ogs.tif
176
     1
290
     0
176
     1
 40
1.0
176
     1
 40
1.0
176
     1
1001
ACAD
1000
AcDbSavedByObjectVersion
1070
     0
  0
VISUALSTYLE
  5
66F7
102
{ACAD_REACTORS
330
66E7
102
}
330
66E7
100
AcDbVisualStyle
  2

 70
    16
177
     3
291
     1
 70
    58
 90
        2
176
     1
 90
        2
176
     1
 90
        3
176
     1
 90
        0
176
     1
 40
0.6
176
     1
 40
30.0
176
     1
 62
     8
176
     1
 90
        1
176
     1
 90
        4
176
     1
 62
     7
176
     1
 62
   257
176
     1
 90
        1
176
     1
 90
        1
176
     1
 40
1.0
176
     1
 90
        8
176
     1
 62
     8
176
     1
 40
1.0
176
     1
 90
        1
176
     1
 90
        6
176
     1
 90
        2
176
     1
 62
     7
176
     1
 90
        5
176
     1
 90
        0
176
     1
 90
        0
176
     1
290
     0
176
     1
 90
        1
176
     1
 40
0.0
176
     1
 90
        0
176
     1
290
     0
176
     1
290
     1
176
     1
290
     1
176
     1
290
     0
176
     1
290
     0
176
     1
290
     0
176
     1
290
     0
176
     1
290
     0
176
     1
290
     0
176
     1
 90
       50
176
     1
 40
0.0
176
     1
 40
1.0
176
     1
 90
        0
176
     1
 62
    18
420
        0
176
     1
 90
       50
176
     1
 90
        3
176
     1
 62
     5
420
      255
176
     1
290
     0
176
     1
 90
       50
176
     1
 90
       50
176
     1
 90
       50
176
     1
290
     0
176
     1
 90
       50
176
     1
 62
   256
176
     0
 40
1.0
176
     0
 90
        2
176
     1
  1
strokes_ogs.tif
176
     1
290
     0
176
     1
 40
1.0
176
     1
 40
1.0
176
     1
1001
ACAD
1000
AcDbSavedByObjectVersion
1070
     0
  0
VISUALSTYLE
  5
66F0
102
{ACAD_REACTORS
330
66E7
102
}
330
66E7
100
AcDbVisualStyle
  2

 70
     9
177
     3
291
     0
 70
    58
 90
        3
176
     1
 90
        2
176
     1
 90
        0
176
     1
 90
        0
176
     1
 40
0.6
176
     1
 40
30.0
176
     1
 62
     7
176
     1
 90
        2
176
     1
 90
        2
176
     1
 62
     7
176
     1
 62
   257
176
     1
 90
        1
176
     1
 90
        1
176
     1
 40
179.0
176
     1
 90
        8
176
     1
 62
     7
176
     1
 40
1.0
176
     1
 90
        1
176
     1
 90
        6
176
     1
 90
        2
176
     1
 62
     7
176
     1
 90
        3
176
     1
 90
        0
176
     1
 90
        0
176
     1
290
     0
176
     1
 90
        1
176
     1
 40
0.0
176
     1
 90
        0
176
     1
290
     0
176
     1
290
     1
176
     1
290
     1
176
     1
290
     0
176
     1
290
     0
176
     1
290
     0
176
     1
290
     0
176
     1
290
     0
176
     1
290
     0
176
     1
 90
       50
176
     1
 40
0.0
176
     1
 40
1.0
176
     1
 90
        0
176
     1
 62
    18
420
        0
176
     1
 90
       50
176
     1
 90
        3
176
     1
 62
     5
420
      255
176
     1
290
     0
176
     1
 90
       50
176
     1
 90
       50
176
     1
 90
       50
176
     1
290
     0
176
     1
 90
       50
176
     1
 62
   256
176
     0
 40
1.0
176
     0
 90
        2
176
     1
  1
strokes_ogs.tif
176
     1
290
     0
176
     1
 40
1.0
176
     1
 40
1.0
176
     1
1001
ACAD
1000
AcDbSavedByObjectVersion
1070
     0
  0
VISUALSTYLE
  5
66F2
102
{ACAD_REACTORS
330
66E7
102
}
330
66E7
100
AcDbVisualStyle
  2

 70
    11
177
     3
291
     1
 70
    58
 90
        2
176
     1
 90
        2
176
     1
 90
        0
176
     1
 90
        0
176
     1
 40
0.6
176
     1
 40
30.0
176
     1
 62
     7
176
     1
 90
        1
176
     1
 90
        4
176
     1
 62
     7
176
     1
 62
   257
176
     1
 90
        1
176
     1
 90
        1
176
     1
 40
1.0
176
     1
 90
        8
176
     1
 62
     7
176
     1
 40
1.0
176
     1
 90
        1
176
     1
 90
        6
176
     1
 90
        2
176
     1
 62
     7
176
     1
 90
        5
176
     1
 90
        0
176
     1
 90
        0
176
     1
290
     0
176
     1
 90
        1
176
     1
 40
-50.0
176
     1
 90
        0
176
     1
290
     0
176
     1
290
     1
176
     1
290
     1
176
     1
290
     0
176
     1
290
     0
176
     1
290
     0
176
     1
290
     0
176
     1
290
     0
176
     1
290
     0
176
     1
 90
       50
176
     1
 40
0.0
176
     1
 40
1.0
176
     1
 90
        0
176
     1
 62
    18
420
        0
176
     1
 90
       50
176
     1
 90
        3
176
     1
 62
     5
420
      255
176
     1
290
     0
176
     1
 90
       50
176
     1
 90
       50
176
     1
 90
       50
176
     1
290
     0
176
     1
 90
       50
176
     1
 62
   256
176
     0
 40
1.0
176
     0
 90
        2
176
     1
  1
strokes_ogs.tif
176
     1
290
     0
176
     1
 40
1.0
176
     1
 40
1.0
176
     1
1001
ACAD
1000
AcDbSavedByObjectVersion
1070
     0
  0
VISUALSTYLE
  5
66FF
102
{ACAD_REACTORS
330
66E7
102
}
330
66E7
100
AcDbVisualStyle
  2

 70
    22
177
     3
291
     1
 70
    58
 90
        2
176
     0
 90
        2
176
     0
 90
        0
176
     0
 90
        0
176
     0
 40
0.6
176
     0
 40
30.0
176
     0
 62
     7
176
     0
 90
        1
176
     0
 90
        4
176
     0
 62
     7
176
     0
 62
   257
176
     0
 90
        1
176
     0
 90
        1
176
     0
 40
1.0
176
     0
 90
        8
176
     2
 62
     7
176
     0
 40
1.0
176
     0
 90
        1
176
     0
 90
        6
176
     0
 90
        2
176
     0
 62
     7
176
     0
 90
        5
176
     0
 90
        0
176
     0
 90
        0
176
     0
290
     0
176
     0
 90
        1
176
     0
 40
0.0
176
     0
 90
        0
176
     0
290
     0
176
     1
290
     1
176
     1
290
     1
176
     1
290
     0
176
     1
290
     0
176
     1
290
     0
176
     1
290
     0
176
     1
290
     0
176
     1
290
     0
176
     1
 90
       50
176
     0
 40
0.0
176
     0
 40
1.0
176
     0
 90
        0
176
     0
 62
    18
420
        0
176
     0
 90
       50
176
     0
 90
        3
176
     0
 62
     5
420
      255
176
     0
290
     0
176
     1
 90
       50
176
     0
 90
       50
176
     0
 90
       50
176
     0
290
     0
176
     1
 90
       50
176
     0
 62
   256
176
     0
 40
1.0
176
     0
 90
        2
176
     0
  1
strokes_ogs.tif
176
     0
290
     0
176
     1
 40
1.0
176
     0
 40
1.0
176
     0
1001
ACAD
1000
AcDbSavedByObjectVersion
1070
     0
  0
VISUALSTYLE
  5
66F6
102
{ACAD_REACTORS
330
66E7
102
}
330
66E7
100
AcDbVisualStyle
  2

 70
    15
177
     3
291
     1
 70
    58
 90
        2
176
     1
 90
        2
176
     1
 90
        0
176
     1
 90
        0
176
     1
 40
0.6
176
     1
 40
30.0
176
     1
 62
     7
176
     1
 90
        1
176
     1
 90
        4
176
     1
 62
     7
176
     1
 62
   257
176
     1
 90
        1
176
     1
 90
        1
176
     1
 40
1.0
176
     1
 90
        8
176
     1
 62
     7
176
     1
 40
1.0
176
     1
 90
        1
176
     1
 90
        6
176
     1
 90
        2
176
     1
 62
     7
176
     1
 90
        5
176
     1
 90
        0
176
     1
 90
        0
176
     1
290
     0
176
     1
 90
        1
176
     1
 40
0.0
176
     1
 90
        0
176
     1
290
     0
176
     1
290
     1
176
     1
290
     1
176
     1
290
     0
176
     1
290
     0
176
     1
290
     0
176
     1
290
     0
176
     1
290
     0
176
     1
290
     0
176
     1
 90
       50
176
     1
 40
0.0
176
     1
 40
1.0
176
     1
 90
        0
176
     1
 62
    18
420
        0
176
     1
 90
       50
176
     1
 90
        3
176
     1
 62
     5
420
      255
176
     1
290
     0
176
     1
 90
       50
176
     1
 90
       50
176
     1
 90
       50
176
     1
290
     0
176
     1
 90
       50
176
     1
 62
   256
176
     0
 40
1.0
176
     0
 90
        2
176
     1
  1
strokes_ogs.tif
176
     1
290
     0
176
     1
 40
1.0
176
     1
 40
1.0
176
     1
1001
ACAD
1000
AcDbSavedByObjectVersion
1070
     0
  0
VISUALSTYLE
  5
66E8
102
{ACAD_REACTORS
330
66E7
102
}
330
66E7
100
AcDbVisualStyle
  2

 70
     0
177
     3
291
     1
 70
    58
 90
        2
176
     1
 90
        1
176
     1
 90
        1
176
     1
 90
        2
176
     1
 40
0.6
176
     1
 40
30.0
176
     1
 62
     7
176
     1
 90
        0
176
     1
 90
        0
176
     1
 62
     7
176
     1
 62
   257
176
     1
 90
        1
176
     1
 90
        1
176
     1
 40
1.0
176
     1
 90
        8
176
     1
 62
     7
176
     1
 40
1.0
176
     1
 90
        1
176
     1
 90
        6
176
     1
 90
        2
176
     1
 62
     7
176
     1
 90
        5
176
     1
 90
        0
176
     1
 90
        0
176
     1
290
     0
176
     1
 90
       13
176
     1
 40
0.0
176
     1
 90
        0
176
     1
290
     0
176
     1
290
     1
176
     1
290
     1
176
     1
290
     0
176
     1
290
     0
176
     1
290
     0
176
     1
290
     0
176
     1
290
     0
176
     1
290
     0
176
     1
 90
       50
176
     1
 40
0.0
176
     1
 40
1.0
176
     1
 90
        0
176
     1
 62
    18
420
        0
176
     1
 90
       50
176
     1
 90
        3
176
     1
 62
     5
420
      255
176
     1
290
     0
176
     1
 90
       50
176
     1
 90
       50
176
     1
 90
       50
176
     1
290
     0
176
     1
 90
       50
176
     1
 62
   256
176
     0
 40
1.0
176
     0
 90
        2
176
     1
  1
strokes_ogs.tif
176
     1
290
     0
176
     1
 40
1.0
176
     1
 40
1.0
176
     1
1001
ACAD
1000
AcDbSavedByObjectVersion
1070
     0
  0
VISUALSTYLE
  5
66E9
102
{ACAD_REACTORS
330
66E7
102
}
330
66E7
100
AcDbVisualStyle
  2

 70
     1
177
     3
291
     1
 70
    58
 90
        2
176
     1
 90
        1
176
     1
 90
        1
176
     1
 90
        2
176
     1
 40
0.6
176
     1
 40
30.0
176
     1
 62
     7
176
     1
 90
        1
176
     1
 90
        0
176
     1
 62
     7
176
     1
 62
   257
176
     1
 90
        1
176
     1
 90
        1
176
     1
 40
1.0
176
     1
 90
        0
176
     1
 62
   257
176
     1
 40
1.0
176
     1
 90
        1
176
     1
 90
        6
176
     1
 90
        2
176
     1
 62
     7
176
     1
 90
        5
176
     1
 90
        0
176
     1
 90
        0
176
     1
290
     0
176
     1
 90
       13
176
     1
 40
0.0
176
     1
 90
        0
176
     1
290
     0
176
     1
290
     1
176
     1
290
     1
176
     1
290
     0
176
     1
290
     0
176
     1
290
     0
176
     1
290
     0
176
     1
290
     0
176
     1
290
     0
176
     1
 90
       50
176
     1
 40
0.0
176
     1
 40
1.0
176
     1
 90
        0
176
     1
 62
    18
420
        0
176
     1
 90
       50
176
     1
 90
        3
176
     1
 62
     5
420
      255
176
     1
290
     0
176
     1
 90
       50
176
     1
 90
       50
176
     1
 90
       50
176
     1
290
     0
176
     1
 90
       50
176
     1
 62
   256
176
     0
 40
1.0
176
     0
 90
        2
176
     1
  1
strokes_ogs.tif
176
     1
290
     0
176
     1
 40
1.0
176
     1
 40
1.0
176
     1
1001
ACAD
1000
AcDbSavedByObjectVersion
1070
     0
  0
VISUALSTYLE
  5
66EA
102
{ACAD_REACTORS
330
66E7
102
}
330
66E7
100
AcDbVisualStyle
  2

 70
     2
177
     3
291
     1
 70
    58
 90
        2
176
     1
 90
        2
176
     1
 90
        1
176
     1
 90
        2
176
     1
 40
0.6
176
     1
 40
30.0
176
     1
 62
     7
176
     1
 90
        0
176
     1
 90
        0
176
     1
 62
     7
176
     1
 62
   257
176
     1
 90
        1
176
     1
 90
        1
176
     1
 40
1.0
176
     1
 90
        0
176
     1
 62
     7
176
     1
 40
1.0
176
     1
 90
        1
176
     1
 90
        6
176
     1
 90
        2
176
     1
 62
     7
176
     1
 90
        5
176
     1
 90
        0
176
     1
 90
        0
176
     1
290
     0
176
     1
 90
       13
176
     1
 40
0.0
176
     1
 90
        0
176
     1
290
     0
176
     1
290
     1
176
     1
290
     1
176
     1
290
     0
176
     1
290
     0
176
     1
290
     0
176
     1
290
     0
176
     1
290
     0
176
     1
290
     0
176
     1
 90
       50
176
     1
 40
0.0
176
     1
 40
1.0
176
     1
 90
        0
176
     1
 62
    18
420
        0
176
     1
 90
       50
176
     1
 90
        3
176
     1
 62
     5
420
      255
176
     1
290
     0
176
     1
 90
       50
176
     1
 90
       50
176
     1
 90
       50
176
     1
290
     0
176
     1
 90
       50
176
     1
 62
   256
176
     0
 40
1.0
176
     0
 90
        2
176
     1
  1
strokes_ogs.tif
176
     1
290
     0
176
     1
 40
1.0
176
     1
 40
1.0
176
     1
1001
ACAD
1000
AcDbSavedByObjectVersion
1070
     0
  0
VISUALSTYLE
  5
66EB
102
{ACAD_REACTORS
330
66E7
102
}
330
66E7
100
AcDbVisualStyle
  2

 70
     3
177
     3
291
     1
 70
    58
 90
        2
176
     1
 90
        2
176
     1
 90
        1
176
     1
 90
        2
176
     1
 40
0.6
176
     1
 40
30.0
176
     1
 62
     7
176
     1
 90
        1
176
     1
 90
        0
176
     1
 62
     7
176
     1
 62
   257
176
     1
 90
        1
176
     1
 90
        1
176
     1
 40
1.0
176
     1
 90
        0
176
     1
 62
   257
176
     1
 40
1.0
176
     1
 90
        1
176
     1
 90
        6
176
     1
 90
        2
176
     1
 62
     7
176
     1
 90
        5
176
     1
 90
        0
176
     1
 90
        0
176
     1
290
     0
176
     1
 90
       13
176
     1
 40
0.0
176
     1
 90
        0
176
     1
290
     0
176
     1
290
     1
176
     1
290
     1
176
     1
290
     0
176
     1
290
     0
176
     1
290
     0
176
     1
290
     0
176
     1
290
     0
176
     1
290
     0
176
     1
 90
       50
176
     1
 40
0.0
176
     1
 40
1.0
176
     1
 90
        0
176
     1
 62
    18
420
        0
176
     1
 90
       50
176
     1
 90
        3
176
     1
 62
     5
420
      255
176
     1
290
     0
176
     1
 90
       50
176
     1
 90
       50
176
     1
 90
       50
176
     1
290
     0
176
     1
 90
       50
176
     1
 62
   256
176
     0
 40
1.0
176
     0
 90
        2
176
     1
  1
strokes_ogs.tif
176
     1
290
     0
176
     1
 40
1.0
176
     1
 40
1.0
176
     1
1001
ACAD
1000
AcDbSavedByObjectVersion
1070
     0
  0
VISUALSTYLE
  5
66EF
102
{ACAD_REACTORS
330
66E7
102
}
330
66E7
100
AcDbVisualStyle
  2

 70
     6
177
     3
291
     0
 70
    58
 90
        1
176
     1
 90
        2
176
     1
 90
        2
176
     1
 90
        0
176
     1
 40
0.6
176
     1
 40
30.0
176
     1
 62
     7
176
     1
 90
        2
176
     1
 90
        2
176
     1
 62
     7
176
     1
 62
   257
176
     1
 90
        2
176
     1
 90
        1
176
     1
 40
40.0
176
     1
 90
        0
176
     1
 62
   257
176
     1
 40
1.0
176
     1
 90
        1
176
     1
 90
        6
176
     1
 90
        2
176
     1
 62
     7
176
     1
 90
        3
176
     1
 90
        0
176
     1
 90
        0
176
     1
290
     0
176
     1
 90
        1
176
     1
 40
0.0
176
     1
 90
        0
176
     1
290
     0
176
     1
290
     1
176
     1
290
     1
176
     1
290
     0
176
     1
290
     0
176
     1
290
     0
176
     1
290
     0
176
     1
290
     0
176
     1
290
     0
176
     1
 90
       50
176
     1
 40
0.0
176
     1
 40
1.0
176
     1
 90
        0
176
     1
 62
    18
420
        0
176
     1
 90
       50
176
     1
 90
        3
176
     1
 62
     5
420
      255
176
     1
290
     0
176
     1
 90
       50
176
     1
 90
       50
176
     1
 90
       50
176
     1
290
     0
176
     1
 90
       50
176
     1
 62
   256
176
     0
 40
1.0
176
     0
 90
        2
176
     1
  1
strokes_ogs.tif
176
     1
290
     0
176
     1
 40
1.0
176
     1
 40
1.0
176
     1
1001
ACAD
1000
AcDbSavedByObjectVersion
1070
     0
  0
VISUALSTYLE
  5
66FD
102
{ACAD_REACTORS
330
66E7
102
}
330
66E7
100
AcDbVisualStyle
  2

 70
    20
177
     3
291
     1
 70
    58
 90
        2
176
     0
 90
        2
176
     0
 90
        0
176
     0
 90
        0
176
     0
 40
0.6
176
     0
 40
30.0
176
     0
 62
     7
176
     0
 90
        1
176
     0
 90
        4
176
     0
 62
     7
176
     0
 62
   257
176
     0
 90
        1
176
     0
 90
        1
176
     0
 40
1.0
176
     0
 90
       10
176
     2
 62
     7
176
     0
 40
1.0
176
     0
 90
        1
176
     0
 90
        6
176
     0
 90
        2
176
     0
 62
     7
176
     0
 90
        5
176
     0
 90
        0
176
     0
 90
        0
176
     0
290
     0
176
     0
 90
        1
176
     0
 40
0.0
176
     0
 90
        0
176
     0
290
     0
176
     1
290
     1
176
     1
290
     1
176
     1
290
     0
176
     1
290
     0
176
     1
290
     0
176
     1
290
     0
176
     1
290
     0
176
     1
290
     0
176
     1
 90
       50
176
     0
 40
0.0
176
     0
 40
1.0
176
     0
 90
        0
176
     0
 62
    18
420
        0
176
     0
 90
       50
176
     0
 90
        3
176
     0
 62
     5
420
      255
176
     0
290
     0
176
     1
 90
       50
176
     0
 90
       50
176
     0
 90
       50
176
     0
290
     0
176
     1
 90
       50
176
     0
 62
   256
176
     0
 40
1.0
176
     0
 90
        2
176
     0
  1
strokes_ogs.tif
176
     0
290
     0
176
     1
 40
1.0
176
     0
 40
1.0
176
     0
1001
ACAD
1000
AcDbSavedByObjectVersion
1070
     0
  0
VISUALSTYLE
  5
66F5
102
{ACAD_REACTORS
330
66E7
102
}
330
66E7
100
AcDbVisualStyle
  2

 70
    14
177
     3
291
     1
 70
    58
 90
        2
176
     1
 90
        2
176
     1
 90
        0
176
     1
 90
        0
176
     1
 40
0.6
176
     1
 40
30.0
176
     1
 62
     7
176
     1
 90
        1
176
     1
 90
        4
176
     1
 62
     7
176
     1
 62
   257
176
     1
 90
        7
176
     1
 90
        7
176
     1
 40
1.0
176
     1
 90
        8
176
     1
 62
     7
176
     1
 40
1.0
176
     1
 90
        1
176
     1
 90
        6
176
     1
 90
        2
176
     1
 62
     7
176
     1
 90
        5
176
     1
 90
        0
176
     1
 90
        0
176
     1
290
     0
176
     1
 90
        1
176
     1
 40
0.0
176
     1
 90
        0
176
     1
290
     0
176
     1
290
     1
176
     1
290
     1
176
     1
290
     0
176
     1
290
     0
176
     1
290
     0
176
     1
290
     0
176
     1
290
     0
176
     1
290
     0
176
     1
 90
       50
176
     1
 40
0.0
176
     1
 40
1.0
176
     1
 90
        0
176
     1
 62
    18
420
        0
176
     1
 90
       50
176
     1
 90
        3
176
     1
 62
     5
420
      255
176
     1
290
     0
176
     1
 90
       50
176
     1
 90
       50
176
     1
 90
       50
176
     1
290
     0
176
     1
 90
       50
176
     1
 62
   256
176
     0
 40
1.0
176
     0
 90
        2
176
     1
  1
strokes_ogs.tif
176
     1
290
     0
176
     1
 40
1.0
176
     1
 40
1.0
176
     1
1001
ACAD
1000
AcDbSavedByObjectVersion
1070
     0
  0
VISUALSTYLE
  5
66FE
102
{ACAD_REACTORS
330
66E7
102
}
330
66E7
100
AcDbVisualStyle
  2

 70
    21
177
     3
291
     1
 70
    58
 90
        2
176
     0
 90
        2
176
     0
 90
        0
176
     0
 90
        0
176
     0
 40
0.6
176
     0
 40
30.0
176
     0
 62
     7
176
     0
 90
        1
176
     0
 90
        4
176
     0
 62
     7
176
     0
 62
   257
176
     0
 90
        1
176
     0
 90
        1
176
     0
 40
1.0
176
     0
 90
        9
176
     2
 62
     7
176
     0
 40
1.0
176
     0
 90
        1
176
     0
 90
        6
176
     0
 90
        2
176
     0
 62
     7
176
     0
 90
        5
176
     0
 90
        0
176
     0
 90
        0
176
     0
290
     0
176
     0
 90
        1
176
     0
 40
0.0
176
     0
 90
        0
176
     0
290
     0
176
     1
290
     1
176
     1
290
     1
176
     1
290
     0
176
     1
290
     0
176
     1
290
     0
176
     1
290
     0
176
     1
290
     0
176
     1
290
     0
176
     1
 90
       50
176
     0
 40
0.0
176
     0
 40
1.0
176
     0
 90
        0
176
     0
 62
    18
420
        0
176
     0
 90
       50
176
     0
 90
        3
176
     0
 62
     5
420
      255
176
     0
290
     0
176
     1
 90
       50
176
     0
 90
       50
176
     0
 90
       50
176
     0
290
     0
176
     1
 90
       50
176
     0
 62
   256
176
     0
 40
1.0
176
     0
 90
        2
176
     0
  1
strokes_ogs.tif
176
     0
290
     0
176
     1
 40
1.0
176
     0
 40
1.0
176
     0
1001
ACAD
1000
AcDbSavedByObjectVersion
1070
     0
  0
VISUALSTYLE
  5
66F1
102
{ACAD_REACTORS
330
66E7
102
}
330
66E7
100
AcDbVisualStyle
  2

 70
     8
177
     3
291
     0
 70
    58
 90
        2
176
     1
 90
        3
176
     1
 90
        0
176
     1
 90
        2
176
     1
 40
0.6
176
     1
 40
30.0
176
     1
 62
     7
176
     1
 90
        0
176
     1
 90
        0
176
     1
 62
     7
176
     1
 62
   257
176
     1
 90
        1
176
     1
 90
        1
176
     1
 40
1.0
176
     1
 90
        8
176
     1
 62
   257
176
     1
 40
1.0
176
     1
 90
        1
176
     1
 90
        6
176
     1
 90
        2
176
     1
 62
     7
176
     1
 90
        3
176
     1
 90
        0
176
     1
 90
        0
176
     1
290
     0
176
     1
 90
       13
176
     1
 40
0.0
176
     1
 90
        0
176
     1
290
     0
176
     1
290
     1
176
     1
290
     1
176
     1
290
     0
176
     1
290
     0
176
     1
290
     0
176
     1
290
     0
176
     1
290
     0
176
     1
290
     0
176
     1
 90
       50
176
     1
 40
0.0
176
     1
 40
1.0
176
     1
 90
        0
176
     1
 62
    18
420
        0
176
     1
 90
       50
176
     1
 90
        3
176
     1
 62
     5
420
      255
176
     1
290
     0
176
     1
 90
       50
176
     1
 90
       50
176
     1
 90
       50
176
     1
290
     0
176
     1
 90
       50
176
     1
 62
   256
176
     0
 40
1.0
176
     0
 90
        2
176
     1
  1
strokes_ogs.tif
176
     1
290
     0
176
     1
 40
1.0
176
     1
 40
1.0
176
     1
1001
ACAD
1000
AcDbSavedByObjectVersion
1070
     0
  0
VISUALSTYLE
  5
66FC
102
{ACAD_REACTORS
330
66E7
102
}
330
66E7
100
AcDbVisualStyle
  2

 70
    27
177
     3
291
     0
 70
    58
 90
        2
176
     1
 90
        2
176
     1
 90
        1
176
     1
 90
        2
176
     1
 40
0.6
176
     1
 40
30.0
176
     1
 62
     7
176
     1
 90
        0
176
     1
 90
        4
176
     1
 62
     7
176
     1
 62
   257
176
     1
 90
        1
176
     1
 90
        1
176
     1
 40
1.0
176
     1
 90
        8
176
     1
 62
   257
176
     1
 40
1.0
176
     1
 90
        1
176
     1
 90
        6
176
     1
 90
        2
176
     1
 62
     8
176
     1
 90
        3
176
     1
 90
        0
176
     1
 90
        0
176
     1
290
     0
176
     1
 90
        5
176
     1
 40
0.0
176
     1
 90
        0
176
     1
290
     0
176
     1
290
     1
176
     1
290
     1
176
     1
290
     0
176
     1
290
     0
176
     1
290
     0
176
     1
290
     0
176
     1
290
     0
176
     1
290
     0
176
     1
 90
       50
176
     1
 40
0.0
176
     1
 40
1.0
176
     1
 90
        0
176
     1
 62
    18
420
        0
176
     1
 90
       50
176
     1
 90
        3
176
     1
 62
     5
420
      255
176
     1
290
     0
176
     1
 90
       50
176
     1
 90
       50
176
     1
 90
       50
176
     1
290
     0
176
     1
 90
       50
176
     1
 62
   256
176
     0
 40
1.0
176
     0
 90
        2
176
     1
  1
strokes_ogs.tif
176
     1
290
     0
176
     1
 40
1.0
176
     1
 40
1.0
176
     1
1001
ACAD
1000
AcDbSavedByObjectVersion
1070
     0
  0
VISUALSTYLE
  5
66FB
102
{ACAD_REACTORS
330
66E7
102
}
330
66E7
100
AcDbVisualStyle
  2

 70
    26
177
     3
291
     0
 70
    58
 90
        2
176
     1
 90
        2
176
     1
 90
        1
176
     1
 90
        2
176
     1
 40
0.6
176
     1
 40
30.0
176
     1
 62
     7
176
     1
 90
        1
176
     1
 90
       10
176
     1
 62
     7
176
     1
 62
   257
176
     1
 90
        2
176
     1
 90
        1
176
     1
 40
1.0
176
     1
 90
        8
176
     1
 62
   257
176
     1
 40
1.0
176
     1
 90
        1
176
     1
 90
        6
176
     1
 90
        2
176
     1
 62
     7
176
     1
 90
        3
176
     1
 90
        0
176
     1
 90
        0
176
     1
290
     0
176
     1
 90
        5
176
     1
 40
0.0
176
     1
 90
        0
176
     1
290
     0
176
     1
290
     1
176
     1
290
     1
176
     1
290
     0
176
     1
290
     0
176
     1
290
     0
176
     1
290
     0
176
     1
290
     0
176
     1
290
     0
176
     1
 90
       50
176
     1
 40
0.0
176
     1
 40
1.0
176
     1
 90
        0
176
     1
 62
    18
420
        0
176
     1
 90
       50
176
     1
 90
        3
176
     1
 62
     5
420
      255
176
     1
290
     0
176
     1
 90
       50
176
     1
 90
       50
176
     1
 90
       50
176
     1
290
     0
176
     1
 90
       50
176
     1
 62
   256
176
     0
 40
1.0
176
     0
 90
        2
176
     1
  1
strokes_ogs.tif
176
     1
290
     0
176
     1
 40
1.0
176
     1
 40
1.0
176
     1
1001
ACAD
1000
AcDbSavedByObjectVersion
1070
     0
  0
VISUALSTYLE
  5
66F8
102
{ACAD_REACTORS
330
66E7
102
}
330
66E7
100
AcDbVisualStyle
  2

 70
    23
177
     3
291
     0
 70
    58
 90
        2
176
     1
 90
        2
176
     1
 90
        3
176
     1
 90
        0
176
     1
 40
0.6
176
     1
 40
30.0
176
     1
 62
     7
176
     1
 90
        2
176
     1
 90
        2
176
     1
 62
     7
176
     1
 62
     7
176
     1
 90
        1
176
     1
 90
        1
176
     1
 40
40.0
176
     1
 90
        8
176
     1
 62
     7
176
     1
 40
1.0
176
     1
 90
        1
176
     1
 90
        6
176
     1
 90
        2
176
     1
 62
     7
176
     1
 90
        3
176
     1
 90
        0
176
     1
 90
        0
176
     1
290
     0
176
     1
 90
        1
176
     1
 40
0.0
176
     1
 90
        0
176
     1
290
     0
176
     1
290
     1
176
     1
290
     1
176
     1
290
     0
176
     1
290
     0
176
     1
290
     0
176
     1
290
     0
176
     1
290
     0
176
     1
290
     0
176
     1
 90
       50
176
     1
 40
0.0
176
     1
 40
1.0
176
     1
 90
        0
176
     1
 62
    18
420
        0
176
     1
 90
       50
176
     1
 90
        3
176
     1
 62
     5
420
      255
176
     1
290
     0
176
     1
 90
       50
176
     1
 90
       50
176
     1
 90
       50
176
     1
290
     0
176
     1
 90
       50
176
     1
 62
   256
176
     0
 40
1.0
176
     0
 90
        2
176
     1
  1
strokes_ogs.tif
176
     1
290
     0
176
     1
 40
1.0
176
     1
 40
1.0
176
     1
1001
ACAD
1000
AcDbSavedByObjectVersion
1070
     0
  0
VISUALSTYLE
  5
66F9
102
{ACAD_REACTORS
330
66E7
102
}
330
66E7
100
AcDbVisualStyle
  2

 70
    24
177
     3
291
     0
 70
    58
 90
        1
176
     1
 90
        2
176
     1
 90
        2
176
     1
 90
        0
176
     1
 40
0.6
176
     1
 40
30.0
176
     1
 62
     7
176
     1
 90
        2
176
     1
 90
        2
176
     1
 62
     7
176
     1
 62
     7
176
     1
 90
        1
176
     1
 90
        1
176
     1
 40
40.0
176
     1
 90
       11
176
     1
 62
     7
176
     1
 40
1.0
176
     1
 90
        1
176
     1
 90
        6
176
     1
 90
        2
176
     1
 62
     7
176
     1
 90
        6
176
     1
 90
        0
176
     1
 90
        0
176
     1
290
     0
176
     1
 90
        1
176
     1
 40
0.0
176
     1
 90
        0
176
     1
290
     0
176
     1
290
     1
176
     1
290
     1
176
     1
290
     0
176
     1
290
     0
176
     1
290
     0
176
     1
290
     0
176
     1
290
     0
176
     1
290
     0
176
     1
 90
       50
176
     1
 40
0.0
176
     1
 40
1.0
176
     1
 90
        0
176
     1
 62
    18
420
        0
176
     1
 90
       50
176
     1
 90
        3
176
     1
 62
     5
420
      255
176
     1
290
     0
176
     1
 90
       50
176
     1
 90
       50
176
     1
 90
       50
176
     1
290
     0
176
     1
 90
       50
176
     1
 62
   256
176
     0
 40
1.0
176
     0
 90
        2
176
     1
  1
strokes_ogs.tif
176
     1
290
     0
176
     1
 40
1.0
176
     1
 40
1.0
176
     1
1001
ACAD
1000
AcDbSavedByObjectVersion
1070
     0
  0
VISUALSTYLE
  5
66F4
102
{ACAD_REACTORS
330
66E7
102
}
330
66E7
100
AcDbVisualStyle
  2

 70
    13
177
     3
291
     1
 70
    58
 90
        2
176
     1
 90
        2
176
     1
 90
        0
176
     1
 90
        0
176
     1
 40
0.6
176
     1
 40
30.0
176
     1
 62
     7
176
     1
 90
        1
176
     1
 90
        4
176
     1
 62
     7
176
     1
 62
   257
176
     1
 90
        1
176
     1
 90
        1
176
     1
 40
1.0
176
     1
 90
       12
176
     1
 62
     7
176
     1
 40
1.0
176
     1
 90
        1
176
     1
 90
        6
176
     1
 90
        2
176
     1
 62
     7
176
     1
 90
        5
176
     1
 90
        0
176
     1
 90
        0
176
     1
290
     0
176
     1
 90
        1
176
     1
 40
0.0
176
     1
 90
        0
176
     1
290
     0
176
     1
290
     1
176
     1
290
     1
176
     1
290
     0
176
     1
290
     0
176
     1
290
     0
176
     1
290
     0
176
     1
290
     0
176
     1
290
     0
176
     1
 90
       50
176
     1
 40
0.0
176
     1
 40
1.0
176
     1
 90
        0
176
     1
 62
    18
420
        0
176
     1
 90
       50
176
     1
 90
        3
176
     1
 62
     5
420
      255
176
     1
290
     0
176
     1
 90
       50
176
     1
 90
       50
176
     1
 90
       50
176
     1
290
     0
176
     1
 90
       50
176
     1
 62
   256
176
     0
 40
1.0
176
     0
 90
        2
176
     1
  1
strokes_ogs.tif
176
     1
290
     0
176
     1
 40
1.0
176
     1
 40
1.0
176
     1
1001
ACAD
1000
AcDbSavedByObjectVersion
1070
     0
  0
VISUALSTYLE
  5
66EE
102
{ACAD_REACTORS
330
66E7
102
}
330
66E7
100
AcDbVisualStyle
  2

 70
     5
177
     3
291
     0
 70
    58
 90
        0
176
     1
 90
        2
176
     1
 90
        0
176
     1
 90
        0
176
     1
 40
0.6
176
     1
 40
30.0
176
     1
 62
     7
176
     1
 90
        1
176
     1
 90
        4
176
     1
 62
     7
176
     1
 62
   257
176
     1
 90
        1
176
     1
 90
        1
176
     1
 40
1.0
176
     1
 90
        0
176
     1
 62
   257
176
     1
 40
1.0
176
     1
 90
        1
176
     1
 90
        6
176
     1
 90
        2
176
     1
 62
     7
176
     1
 90
        3
176
     1
 90
        0
176
     1
 90
        0
176
     1
290
     0
176
     1
 90
        1
176
     1
 40
0.0
176
     1
 90
        0
176
     1
290
     0
176
     1
290
     1
176
     1
290
     1
176
     1
290
     0
176
     1
290
     0
176
     1
290
     0
176
     1
290
     0
176
     1
290
     0
176
     1
290
     0
176
     1
 90
       50
176
     1
 40
0.0
176
     1
 40
1.0
176
     1
 90
        0
176
     1
 62
    18
420
        0
176
     1
 90
       50
176
     1
 90
        3
176
     1
 62
     5
420
      255
176
     1
290
     0
176
     1
 90
       50
176
     1
 90
       50
176
     1
 90
       50
176
     1
290
     0
176
     1
 90
       50
176
     1
 62
   256
176
     0
 40
1.0
176
     0
 90
        2
176
     1
  1
strokes_ogs.tif
176
     1
290
     0
176
     1
 40
1.0
176
     1
 40
1.0
176
     1
1001
ACAD
1000
AcDbSavedByObjectVersion
1070
     0
  0
VISUALSTYLE
  5
66FA
102
{ACAD_REACTORS
330
66E7
102
}
330
66E7
100
AcDbVisualStyle
  2

 70
    25
177
     3
291
     0
 70
    58
 90
        2
176
     1
 90
        2
176
     1
 90
        1
176
     1
 90
        1
176
     1
 40
0.5
176
     1
 40
30.0
176
     1
 62
     7
176
     1
 90
        1
176
     1
 90
        0
176
     1
 62
     7
176
     1
 62
   257
176
     1
 90
        1
176
     1
 90
        1
176
     1
 40
1.0
176
     1
 90
        8
176
     1
 62
     7
176
     1
 40
1.0
176
     1
 90
        1
176
     1
 90
        6
176
     1
 90
        2
176
     1
 62
     7
176
     1
 90
        3
176
     1
 90
        0
176
     1
 90
        0
176
     1
290
     0
176
     1
 90
       13
176
     1
 40
0.0
176
     1
 90
        0
176
     1
290
     0
176
     1
290
     1
176
     1
290
     1
176
     1
290
     0
176
     1
290
     0
176
     1
290
     0
176
     1
290
     0
176
     1
290
     0
176
     1
290
     0
176
     1
 90
       50
176
     1
 40
0.0
176
     1
 40
1.0
176
     1
 90
        0
176
     1
 62
    18
420
        0
176
     1
 90
       50
176
     1
 90
        3
176
     1
 62
     5
420
      255
176
     1
290
     0
176
     1
 90
       50
176
     1
 90
       50
176
     1
 90
       50
176
     1
290
     0
176
     1
 90
       50
176
     1
 62
   256
176
     0
 40
1.0
176
     0
 90
        2
176
     1
  1
strokes_ogs.tif
176
     1
290
     0
176
     1
 40
1.0
176
     1
 40
1.0
176
     1
1001
ACAD
1000
AcDbSavedByObjectVersion
1070
     0
  0
DICTIONARYVAR
  5
68F7
102
{ACAD_REACTORS
330
5697
102
}
330
5697
100
DictionaryVariables
280
     0
  1
1:1
  0
DICTIONARYVAR
  5
68F4
102
{ACAD_REACTORS
330
5697
102
}
330
5697
100
DictionaryVariables
280
     0
  1
STANDARD
  0
DICTIONARYVAR
  5
68F3
102
{ACAD_REACTORS
330
5697
102
}
330
5697
100
DictionaryVariables
280
     0
  1
STANDARD
  0
DICTIONARYVAR
  5
68F5
102
{ACAD_REACTORS
330
5697
102
}
330
5697
100
DictionaryVariables
280
     0
  1
Imperial24
  0
DICTIONARYVAR
  5
68F6
102
{ACAD_REACTORS
330
5697
102
}
330
5697
100
DictionaryVariables
280
     0
  1
Imperial24
  0
DICTIONARYVAR
  5
5698
102
{ACAD_REACTORS
330
5697
102
}
330
5697
100
DictionaryVariables
280
     0
  1
1
  0
DICTIONARYVAR
  5
68F9
102
{ACAD_REACTORS
330
5697
102
}
330
5697
100
DictionaryVariables
280
     0
  1
0
  0
DICTIONARYVAR
  5
6A24
102
{ACAD_REACTORS
330
5697
102
}
330
5697
100
DictionaryVariables
280
     0
  1
1
  0
DICTIONARYVAR
  5
6A25
102
{ACAD_REACTORS
330
5697
102
}
330
5697
100
DictionaryVariables
280
     0
  1
15
  0
DICTIONARYVAR
  5
6A23
102
{ACAD_REACTORS
330
5697
102
}
330
5697
100
DictionaryVariables
280
     0
  1
0
  0
DICTIONARYVAR
  5
6A22
102
{ACAD_REACTORS
330
5697
102
}
330
5697
100
DictionaryVariables
280
     0
  1
0
  0
DICTIONARYVAR
  5
68F8
102
{ACAD_REACTORS
330
5697
102
}
330
5697
100
DictionaryVariables
280
     0
  1
127
  0
DICTIONARY
  5
6A29
330
671A
100
AcDbDictionary
280
     1
281
     1
  3
ACAD_XREC_ROUNDTRIP
360
6A2A
  0
DICTIONARY
  5
66D8
330
66D7
100
AcDbDictionary
280
     1
281
     1
  3
ACAD_XREC_ROUNDTRIP
360
69E1
  3
BUMPTILE
360
66DA
  3
DIFFUSETILE
360
66D9
  3
OPACITYTILE
360
66DD
  3
REFLECTIONTILE
360
66DC
  3
REFRACTIONTILE
360
66DE
  3
SPECULARTILE
360
66DB
  0
DICTIONARY
  5
66D0
330
66CF
100
AcDbDictionary
280
     1
281
     1
  3
ACAD_XREC_ROUNDTRIP
360
69E0
  3
BUMPTILE
360
66D2
  3
DIFFUSETILE
360
66D1
  3
OPACITYTILE
360
66D5
  3
REFLECTIONTILE
360
66D4
  3
REFRACTIONTILE
360
66D6
  3
SPECULARTILE
360
66D3
  0
DICTIONARY
  5
66E0
330
66DF
100
AcDbDictionary
280
     1
281
     1
  3
ACAD_XREC_ROUNDTRIP
360
69E2
  3
BUMPTILE
360
66E2
  3
DIFFUSETILE
360
66E1
  3
FBXASSET
360
6946
  3
OPACITYTILE
360
66E5
  3
REFLECTIONTILE
360
66E4
  3
REFRACTIONTILE
360
66E6
  3
SPECULARTILE
360
66E3
  0
DICTIONARY
  5
6A27
330
6718
100
AcDbDictionary
280
     1
281
     1
  3
ACAD_XREC_ROUNDTRIP
360
6A28
  0
DICTIONARY
  5
69D6
330
6702
100
AcDbDictionary
280
     1
281
     1
  3
ACAD_ROUNDTRIP_2008_TABLESTYLE_CELLSTYLEMAP
360
6A26
  0
XRECORD
  5
6A2A
102
{ACAD_REACTORS
330
6A29
102
}
330
6A29
100
AcDbXrecord
280
     1
102
DISPLAYNAME
  1
Imperial24
102
FLAGS
 90
        0
  0
XRECORD
  5
69E1
102
{ACAD_REACTORS
330
66D8
102
}
330
66D8
100
AcDbXrecord
280
     1
102
MATERIAL
148
0.0
149
0.0
149
0.0
 93
        0
 94
      127
282
     0
 72
     0
 77
     0
171
     0
175
     0
179
     0
273
     0
  0
XRECORD
  5
66DA
102
{ACAD_REACTORS
330
66D8
102
}
330
66D8
100
AcDbXrecord
280
     1
270
     1
271
     1
  0
XRECORD
  5
66D9
102
{ACAD_REACTORS
330
66D8
102
}
330
66D8
100
AcDbXrecord
280
     1
270
     1
271
     1
  0
XRECORD
  5
66DD
102
{ACAD_REACTORS
330
66D8
102
}
330
66D8
100
AcDbXrecord
280
     1
270
     1
271
     1
  0
XRECORD
  5
66DC
102
{ACAD_REACTORS
330
66D8
102
}
330
66D8
100
AcDbXrecord
280
     1
270
     1
271
     1
  0
XRECORD
  5
66DE
102
{ACAD_REACTORS
330
66D8
102
}
330
66D8
100
AcDbXrecord
280
     1
270
     1
271
     1
  0
XRECORD
  5
66DB
102
{ACAD_REACTORS
330
66D8
102
}
330
66D8
100
AcDbXrecord
280
     1
270
     1
271
     1
  0
XRECORD
  5
69E0
102
{ACAD_REACTORS
330
66D0
102
}
330
66D0
100
AcDbXrecord
280
     1
102
MATERIAL
148
0.0
149
0.0
149
0.0
 93
        0
 94
      127
282
     0
 72
     0
 77
     0
171
     0
175
     0
179
     0
273
     0
  0
XRECORD
  5
66D2
102
{ACAD_REACTORS
330
66D0
102
}
330
66D0
100
AcDbXrecord
280
     1
270
     1
271
     1
  0
XRECORD
  5
66D1
102
{ACAD_REACTORS
330
66D0
102
}
330
66D0
100
AcDbXrecord
280
     1
270
     1
271
     1
  0
XRECORD
  5
66D5
102
{ACAD_REACTORS
330
66D0
102
}
330
66D0
100
AcDbXrecord
280
     1
270
     1
271
     1
  0
XRECORD
  5
66D4
102
{ACAD_REACTORS
330
66D0
102
}
330
66D0
100
AcDbXrecord
280
     1
270
     1
271
     1
  0
XRECORD
  5
66D6
102
{ACAD_REACTORS
330
66D0
102
}
330
66D0
100
AcDbXrecord
280
     1
270
     1
271
     1
  0
XRECORD
  5
66D3
102
{ACAD_REACTORS
330
66D0
102
}
330
66D0
100
AcDbXrecord
280
     1
270
     1
271
     1
  0
XRECORD
  5
69E2
102
{ACAD_REACTORS
330
66E0
102
}
330
66E0
100
AcDbXrecord
280
     1
102
MATERIAL
148
0.0
149
0.0
149
0.0
 93
        0
 94
      127
282
     0
 72
     0
 77
     0
171
     0
175
     0
179
     0
273
     0
  0
XRECORD
  5
66E2
102
{ACAD_REACTORS
330
66E0
102
}
330
66E0
100
AcDbXrecord
280
     1
270
     1
271
     1
  0
XRECORD
  5
66E1
102
{ACAD_REACTORS
330
66E0
102
}
330
66E0
100
AcDbXrecord
280
     1
270
     1
271
     1
  0
XRECORD
  5
6946
102
{ACAD_REACTORS
330
66E0
102
}
330
66E0
100
AcDbXrecord
280
     1
 70
     1
 90
1959938040
 71
     1
  1
6520AD50-9E94-4EA2-95AA-511E05C37702
311
504B0304140006080800367D6A487CE17A67DB000000200100004F00000031443430413931392D383632422D343636312D383333372D3837343839463939423946452F4173736574446174612F446566696E6974696F6E4974657261746F7250726F706572746965732E62696E454E4D4F023110AD1E301E3CF80F08F7D20F
311
CB0A1BC0B0C07AD28B9CBC90528665936E97B4DDC4A347FFB54C238649DEBCF97C333F8490DF8B61486E10DFE81F905FC181AFCD873942A3492F556CBBD3F6EEDABBC530A52B38E8CEC6B4F5560703D66A076D171EAFA3FD464794D3769896EE11FF859014AABF63E9FE3B22BD9458EF4FF98B0E01E28C1D765F6CBD28E4EA
311
B92CE844940BAA3229E8385BAEA91A974B3EE1420A55300FA1EDBC81C024E3DB8BF2F6E42A980D8C07FC633F984B2E32CA9FA8E01B31CA95C8D5E873CA62DDC07C1AA2AF5DD577BA3903504B0304140006080800367D6A48C0521A8108010000300200004500000031443430413931392D383632422D343636312D38333337
311
2D3837343839463939423946452F4173736574446174612F496E7374616E636550726F706572746965732E62696EEB606060F80F0540260323103700495E20ED9E9A975A94991C9C9C919A9BA802143033353270743135D0B574B534D135717534D2B5347574D4353534743530753636373730624768046931363471713532
311
B5D435353131D635313332D475727372D13534373670367376B67474B5042A03DBCBA019D37FE8ABC6157B20CD04146B0062181F4C03F940F0C11EA29A8141C08141002C0426541C106CAC2CA046088033B02A030AC2157C6006F21A8018AAF50194E6010A610250382264E08660284CD9E98021862280A91564B406929A0F
311
F62C401E28B6F88038B83CB1243943D7A928312F2535052403033A40862310EBF0093228F106C284516890D9300164F505EC1361C2701A00504B0304140006080800367D6A4828BB58AF800100009E0500003D00000031443430413931392D383632422D343636312D383333372D3837343839463939423946452F53636865
311
6D61732F436F6D6D6F6E536368656D612E786D6CBD544D4FC23018BEFB2B96DE15493C78601010A34B880709DEDFB52FD0D8B54BD70DF6EFED3AC0B12E6442E2716BFB3CEFF3D18E26FB440405EA8C2B1992E1C323095052C5B8DC842437EBFB673219DF8DA659866649B798C078B48AE6410122242F2A4994AC7F93815DF8
311
5C049C8564CA0A901499DD886B2EB9B1E02448F358701A9235880C49A0119892A20C89D1B9FD768815CAD268CB5E0355B40B1E47F3E37A2020464BED06AA57CE8FCC20C3C3446D46761A2632A8C1283D07031EFF2AE7CCB1BFEEE916E406DFAC8E36FFD99A9D60A6944090EEDC3B670C7DC13DE86B6B2C5C240D6E503BB85A
311
CD579D513F1B9F9A69DC9CC22AFA80C426D40AF0B21EA168559156B6276F0F726A6BFF04DCD513A87A62CAD41FB24FCB2858B3952E3D852084DA25B9303C15687973CC8E8AAE11DF2836C38C6A9E765E8C1BA1BFB1DC29CDFE518C8B5A7655A4ED7E77291ABEB80DBD82EC866ADE1B8D05AF9E35CF09D7A061F38A986D9EC4
311
12B8F0F65E5D81534D9B231D1E5A8FE577A241F3A5FD01504B0304140006080800367D6A482CCEBD668A040000E01200003E00000031443430413931392D383632422D343636312D383333372D3837343839463939423946452F536368656D61732F47656E65726963536368656D612E786D6CD5586D6FDB380CFE7EBF42F0
311
F7A649B70E1B90744856B4970F450FCD7A5F05459613EDE4174872DADCAF3F522F8ED3B88D2F1D06AC4050DBA2493EE4438AF2F8EB73AEC8466823CB62928C06C384888297A92C5693A4B6D9D9E7E4EBD51FE3A931C22EF85AE4EC6AFC38BF261BA626C9AD288496DC3F4FCEAFC63366845F7A10452AF41DB320C0D44EC26E
311
AB20918735565582695670811A6A49643A49A6E9069FA4604A64B29016DC4B48552F95E4932463CA888468C1D2B250DB4962750DF7CE273069CE8363F1FF4EDB00E0A21999574AE4A2B00C353B93F3BD4777B8A61ED8F604ABFEDD79CE56A2B7BDFBDBC50996E0ADDE16FED26223C5D30956C29BDF4A55EA686E5E58B112DA
311
45CE67F76F4FA27EFA3FB672FD7372FC388FAECDCA5209E693CAD167BADCD272F943701B3812F8A3D852008B1D2E32DB927B2F833C6EA95879925356D254582695095A3CE982924720BE5774A3CB9CDCDB350427D2DF20DA1B5532EBE2D5D6288D75D4F7E4FD9890A0EF8E3D93EBB8F8BA4758158EF6FB90A6F9520281C93D
311
E7AAC6D24607DA296BB96018123F821A7D6A5C5884050C475DA4865442732C8B95684A50165CBB3A32F25F783A4A480ED59AD7F924B968AEA50131F46303223E6A397B0E52976030DC1DCA81D7E7C1EDEEA42C19FF27635C505E2BD5198A599020DF50A2330FCB3AAF28CB0124108429553EF1B228802E2265D8F7CC240104
311
2B155BCC7070F1E5C55F13B4A9577362CCCE46C32174E010C3C378C44841A4BDA00FE3A12006CE11EE6AEC59894D3526DDE1CD59D503ECC324017F8061B7F162162FA62EDD81AE3308617770796DCBDAD2B2625C5AE8A63DE20B2C8AA5E95E76E5730823955956E33E705425A2187C185D36489A1B44D3DCEC2172F6BA2105
311
C3546287A7194B2331768EBBE64F6E70A9930ABE0ADEA89E9E2C38523B810287AD67A54A039C1606EAFE68F8304610BB9093DBDDABC0B2AE4E290DCDA15376D7E39F72B556F0B32EAB5D3D498B4C41ABADEC3A1434C422D87E8025A84BDCB2B1417ED750FAE4DA8976863974C577C7F902D3F156AD354DEA3540DE6BEAE2BE
311
A52F7A2EB4CA43802ECE5BF2CE2EDC9347179FFB023CE412E60BE16DA0BE29B374988A553F561DC04615DD35F7D2C8979F60E5955CE93DF29DED8AFA1EE6642D53418086C03C47C377910F75F7E8F5EF665F70B60FFB22AEDF897D119E8423C773E819A3C1E55E550599EE6EDCA34D0C86FD72057DF2CD46F16A470682471C
311
164E4346D5306BF12D7D12D82CFF673D41636C347443FEB51B50D72EA171A8E4A58623A4A16E0FA2B8B10A0D23268D87C33896EE8FB73305A74BF224EDBADFA0BD674AB354D63DB7BD5D83426761C077DE767728235446A552754EB93B755891C3C4CC6CADE37CF0E912A7BB38DBA010F9DE1282EDF470CA69A9CDA482E334
311
C4A6EA4107987980B17E72F31730EBF88BBD39E7C629F56797A3C0009C2C5AE7951D9A05A02773440F02EEB4DE396A3B6A570C72CCFBCD823B0B8ED3F1D5CEDDFED772FA70236C83FB7D86C385D570B87107535572A60A96035F8F7C6A7192F13007246BBE0521855E6AC46F3E27689CEE7D186A6FD679D98CDCAD13333E04
311
EBE7ED6F55FF01504B0304140006080800367D6A486180134D5F0100006B0300004500000031443430413931392D383632422D343636312D383333372D3837343839463939423946452F536368656D61732F52656E6465724D6174657269616C536368656D612E786D6CA5934D6FC2300C86EFFB1551EEE343DBA41D1A1030
311
09551ADAD40EAE28A4A68D9426284961FCFBE5A340113B2071746D3F765EBF4DC6BFB5407BD0862B49F0B037C0082453059725C18DDD3EBFE3F1E829991803366715D474942CD30FB4A782E00C64017A412D684E454CE3FE28995203B162A6EA5AC94B66997D225E109CD63B0135484BAD1B3C07E9080CA35DB3119C11BCA5
311
C200461A68A1A438126C75E3E230D40FF81FB3F03C91D1E3A3A0AF79FE28E25BC39EC3E17E4C2A2D94A0833A51AF55BCCA7D88572FCBAC529C4140B020FC3AAFA886621DCED7EAD7664CC86024E806DC297DA1BB393E4156543457A4537DB8817349A70F8ACBF09B3EEE2CB2F33E91B65D60786E4E3B39B77E3FEEEF565042
311
4525DA657FB8B46BE6BF064646F0A0F7327C0BC1BC1B4CBBC1C419FA3CCB23500007872A2580CAAE5461865565294E4EDB4617B62FF579DF9A5B2F54E834076A597573A020912FED777F9B3F504B0304140006080800367D6A48504837EE51000000570000004700000031443430413931392D383632422D343636312D3833
311
33372D3837343839463939423946452F4173736574446174612F41737365745461626C654F66436F6E74656E74732E62696E536160603033353270743135D0B574B534D135717534D2B5347574D43535347435307536363737301202AACB4D2C492DCA4CCC492C28484D2C4ACC4B4E050A82012F90744FCD03CA26072767A4
311
E6260200504B0304140006080800367D6A48F865834058000000680000004500000031443430413931392D383632422D343636312D383333372D3837343839463939423946452F4173736574446174612F53747265616D56657273696F6E5461626C652E696E66558CBD0A80300C06F73E4B117FB66E451741D041DC5BF984
311
80A492E4FDD18EAEC7DD4555D89EF28DF51A0B1BD8340C4DE7DD848B988C0ACF0649566493F2408C508DDEBB99D5129FF8F1AF8CF5B9503E20FAE5A16B5AF702504B0304140006080800367D6A48B17652A4350100009A0400003600000031443430413931392D383632422D343636312D383333372D383734383946393942
311
3946452F4173736574446174612F636E782E786D6CCD94314FC3301085FF4AE43D76525A842AC71582A51348540C6C57E752AC3A76645F10FC7BEC3403A888A943D7F3BBF3F327BF939BCFDE161F18A2F1AE6135AF58814EFBD6B843C346EACA3B566C940CDED30F192B1CF4D8B05C664A1E821F87B9D46207A3CD556BDC71
311
2EDEC788B483BDC5A7EEC13B42479115DA428C0D8BFA1D7BE030926F311E790B04BCE601A31F83C634894C8FF3241D10085BA616557D5B5637655DEDEAD57A59AF97AB3729B252C9BDF776D69B7459F043A14FB7325549918F951C839935F92D4CFDE591EF8D932229958C141293B983BE86D401C3608D064AE884D7845426
311
11422FC549ACA4C80C7E9178C4CE38935BB6C918900FCFC91E0632787544FEF37A79325B17099CC6EBE571EEF0F2145EA61FF47A0AE494986BCBC9B9436E5C77819488698DA4D0E4ADA2BE01504B0304140006080800367D6A48A7CD3D94080100004F0300003400000031443430413931392D383632422D343636312D3833
311
33372D3837343839463939423946452F536368656D61732F636E782E786D6CCD933F4F432114C5BFCA0B7BE1A1AD310D8F0E0E4E2EEAE48670DB9202F7853F46BFBDF0646813371DBAC1E11772CEE122769FDE0D1F1093C530114E473240D0686C384CA4E4FDEA9E0C3B2922623EC3C810948789349948718858E62E19D8AB
311
E29AEA6C3875F101BDC7F0A28FE01519B453294D242D5BAA4A4603E9448DCA8A721A2161891AEA0DD97AE837E8082A8321F266E477ABF176C5C757BED9AEF976BD7913AC9152BC23BACEDB9021E23C68AC8B50ED8C82B563294AB49D6919883CF7466B1B8255428A9463EDA093F96BAEA49A6767B5CAB52AB6803F8C14AC45
311
BD08FC0801A2D5D799F8C2DCBF457E8660203ED5578A56B9EB4CFE9BC7BF15C096D9AF23D0BE82FC06504B0304140006080800367D6A48410A3D5871000000A40000002C00000031443430413931392D383632422D343636312D383333372D3837343839463939423946452F636E782E786D6C55CC4D0E82301086E1AB34B3
311
1774E7A22D31F1069E60020334B633A63FC6E34B0909B07DDE2F9FEE7EC1AB2FC5E4840DDC9A2B28E25E06C7938192C7CB1D54677514C9871928C640062A83D55394F2D968A0118BAFEA1DBF377CA444F98919176EAB9FEAAB9F2960DA5BBB1E2ED3FA6FFF504B0304140006080800367D6A4854C8E4BF7E000000A3000000
311
07000000636E782E786D6C4D8CD10A832018465F45FE7BB72C317F4863B1F51EB12C64A6C3E5D8E34F4717BBFAE0F09DD3F59FCD91B7892F1BBC0276AA80187F0FB3F5AB82B42F5402E9751743D8FF6E40FCB419050583EED618D2F340B359A6E40A75D63F0EC8AEBCBA20432A453D502E04A3B2695A2A5B2E71441C70BC65
311
E35C943CBF5EDE92D75F504B0304140006080800367D6A4816E99B5DA600000035010000130000005B436F6E74656E745F54797065735D2E786D6C9590410E82301045AFD2740F4517C6180A0BF5065E60AC53688469D30E066F6F91AD9AB89CF9FFFD3F99BA9DC7413C3026E749CB4D59498164FCCD51A7E5C4B6D84BD136
311
F5E5193089ECA5A465CF1C0E4A25D3E308A9F401292BD6C711388FB15301CC1D3A54DBAADA29E38991B8E0254336F5092D4C038BF39CD76B6FC6A538AEBEA54A4B08617006389FA516557DE4AE8E7E70DE30729138228C5F021CD93F02D4FB0DCD0B504B0304140006080800367D6A483DEE336E64000000790000001B0000
311
006175746F6465736B2D64657369676E2D7061636B6167652E786D6C35CBC10E83200C00D05F21DCA56CA76D41FC96062B120735B69A7DBE268BB7777961F8D5AF396893C2ADB70FE7ADA196782C2DF776D7A97B5933C430F15651E5469C55D70F80A4992A3ADC954792C525AE70A1E4D6AD9816CC044FEFDF01FE3FDE9078
311
02504B0304140006080800367D6A4858CB1F3BF9000000960100003700000031443430413931392D383632422D343636312D383333372D3837343839463939423946452F4173736574446174612F636F72652E786D6C8550CB6E833010FC15B47703E61191C8380A05BEA0A7DE2CDB2156828DFCA8FAF9B5132AB5A79E7635
311
3B33BB3BE4FCB53EB24F699D32BA079C979049CD8D507AE921F82BEA203B53628DF1BF689069B6CA1E120C942CD6846D87B8D15EEA846A23E40E32E7A4878C3F62D383E337B9B29C051F19EE9E6F8CDFD922739CBF789484A0C42E5522BAA9AB9216E8300FD5A5A96A84C7B946CD3474E8383625EAA6C3B17DEBA6B9C62329
311
929812AFD69FEDDC4AE6A5005A95F880CA282FDF717B6AF0A9693F48919894386FE3CFFBD2F41DD04BBA7A649E91E235FDE31A36F1BF6B50DAD7D5EEFA5238A0381EF91C5052A494627946186B4A947E03504B0304140006080800367D6A489ACAAE78F7000000940100003500000031443430413931392D383632422D3436
311
36312D383333372D3837343839463939423946452F536368656D61732F636F72652E786D6C8550CB6E833010FC15B47703E61191C8382A057EA03DF5661987580936F2A3EAE7D7062AB5A79E76353B33BB3BE4FAB53C934F61ACD4AA059CE69008C5F524D5DC827737D44072A5C468ED7ED120516C112D441828998DF6EB01
311
71AD9C5011557A1207C8AC150E12FE0C4D0B96DFC5C252E65D60D847BA32FE60B34871BAF328F15E4E87544EC14DDEA43040BBB12B5EAAA244B81F4B540D5D83CE7D95A366389DEBD766184BDC932C8A297172F9D9CE8D604E4C408B1C9F501EE4F93BAE2F15BE54F507C9229312EB4CF8F9581ABF03FAB6DD6949B6CFFE78
311
FA75FADFD34BE5CAE2F0DC1516280E276E034AB29851285B80A1C63CE937504B0304140006080800367D6A4899C1BAE602010000D70100002D00000031443430413931392D383632422D343636312D383333372D3837343839463939423946452F636F72652E786D6C95914D6EC3201085AF82D8631BDB71EC0813356A7382
311
AEBAA330715062B0F8A97AFC42EDAAEDAE5D811EDF9BE1CDB0E3FB7C476FE0BCB666C4B4A8300223ADD2661A710C17D26374E4CC591B7E60181931C388B38C399B9C8DCB26496B0298AC1AAB601385F7103092F77419B19757984521624884BF158B90373141418B95E32CE8F9CB2A1D88000AF3BAA21DA91A42AB67BA3BB4
311
F4D0EE5E589949CEA236A1A9B76630BF824276092912E63B56AEAF898A5A6D8C56E98FFAA2C1614E1FDBEA61A003E9BBFA44DAAEA3A46F9A3DE9F76D3F9C87E1349C9F529164E6CC079726B315C933F8AB7D35FE4A1617F5CF64ABC3A79EDFA1CA3C66CECACF1DA433AF847F00504B0304140006080800367D6A48EC8AFC67
311
07010000B201000008000000636F72652E786D6C8D50CB6EC32010FC15B477DBE047E44498A8AEED2FE8A9370AC441B1C132386AFFBE90B8527BEB69D13C7686A5E7CF794277B53A6D4D0324C5809411566A3336B0F94B52033A33BA5AEB7FC900193EAB06220C8C8EABDD961D12D67865226AAC543BC89D531E9098C2A301
311
27AE6AE629DF7C50B85BBA7071E3A34A49FAD431EAF5FC6315ABE25E4960392687041709C16FA43A95E45456EF348B4A46B74DCB3D4ACB90AE2F5AADC0DAA1CD5FCA3C78BAA148CABEAD936357E2A4EE0FC7EAB5EE878274348B66469D5FC39FF725A1A7478EDF632ECD9E14A31FD64EBB209492C89AE90B18A65924FE94DE
311
16F98FD2DAF822DF173E1D0E1809851E44088E170CE371DE30E3B5D937504B01021400140006080800367D6A487CE17A67DB000000200100004F000000000000000000000000000000000031443430413931392D383632422D343636312D383333372D3837343839463939423946452F4173736574446174612F446566696E
311
6974696F6E4974657261746F7250726F706572746965732E62696E504B01021400140006080800367D6A48C0521A81080100003002000045000000000000000000000000004801000031443430413931392D383632422D343636312D383333372D3837343839463939423946452F4173736574446174612F496E7374616E63
311
6550726F706572746965732E62696E504B01021400140006080800367D6A4828BB58AF800100009E0500003D00000000000000000000000000B302000031443430413931392D383632422D343636312D383333372D3837343839463939423946452F536368656D61732F436F6D6D6F6E536368656D612E786D6C504B010214
311
00140006080800367D6A482CCEBD668A040000E01200003E000000000000000000000000008E04000031443430413931392D383632422D343636312D383333372D3837343839463939423946452F536368656D61732F47656E65726963536368656D612E786D6C504B01021400140006080800367D6A486180134D5F010000
311
6B03000045000000000000000000000000007409000031443430413931392D383632422D343636312D383333372D3837343839463939423946452F536368656D61732F52656E6465724D6174657269616C536368656D612E786D6C504B01021400140006080800367D6A48504837EE51000000570000004700000000000000
311
000000000000360B000031443430413931392D383632422D343636312D383333372D3837343839463939423946452F4173736574446174612F41737365745461626C654F66436F6E74656E74732E62696E504B01021400140006080800367D6A48F865834058000000680000004500000000000000000000000000EC0B0000
311
31443430413931392D383632422D343636312D383333372D3837343839463939423946452F4173736574446174612F53747265616D56657273696F6E5461626C652E696E66504B01021400140006080800367D6A48B17652A4350100009A0400003600000000000000000000000000A70C000031443430413931392D383632
311
422D343636312D383333372D3837343839463939423946452F4173736574446174612F636E782E786D6C504B01021400140006080800367D6A48A7CD3D94080100004F0300003400000000000000000000000000300E000031443430413931392D383632422D343636312D383333372D3837343839463939423946452F5363
311
68656D61732F636E782E786D6C504B01021400140006080800367D6A48410A3D5871000000A40000002C000000000000000000000000008A0F000031443430413931392D383632422D343636312D383333372D3837343839463939423946452F636E782E786D6C504B01021400140006080800367D6A4854C8E4BF7E000000
311
A3000000070000000000000000000000000045100000636E782E786D6C504B01021400140006080800367D6A4816E99B5DA6000000350100001300000000000000000000000000E81000005B436F6E74656E745F54797065735D2E786D6C504B01021400140006080800367D6A483DEE336E64000000790000001B00000000
311
000000000000000000BF1100006175746F6465736B2D64657369676E2D7061636B6167652E786D6C504B01021400140006080800367D6A4858CB1F3BF90000009601000037000000000000000000000000005C12000031443430413931392D383632422D343636312D383333372D3837343839463939423946452F41737365
311
74446174612F636F72652E786D6C504B01021400140006080800367D6A489ACAAE78F7000000940100003500000000000000000000000000AA13000031443430413931392D383632422D343636312D383333372D3837343839463939423946452F536368656D61732F636F72652E786D6C504B01021400140006080800367D
311
6A4899C1BAE602010000D70100002D00000000000000000000000000F414000031443430413931392D383632422D343636312D383333372D3837343839463939423946452F636F72652E786D6C504B01021400140006080800367D6A48EC8AFC6707010000B2010000080000000000000000000000000041160000636F7265
311
2E786D6C504B050600000000110011005A0600006E1700000000
310
504B0304140006080800367D6A48000000000000000000000000370000006662782F43313645463241362D303641362D343132312D383546432D4443463934343430304435412F617474726962757465732E62696E504B0304140006080800367D6A48000000000000000000000000350000006662782F4331364546324136
310
2D303641362D343132312D383546432D4443463934343430304435412F76657274696365732E62696E504B0304140006080800367D6A48F270F1330600000004000000360000006662782F43313645463241362D303641362D343132312D383546432D4443463934343430304435412F747269616E676C65732E62696E6366
310
60600000504B0304140006080800367D6A4851464CB48900000043010000360000006662782F43313645463241362D303641362D343132312D383546432D4443463934343430304435412F6469726563746F72792E786D6C9D8F310EC2300C45AF127987122606C71DD918B841D4B851A43646695A717C52A85029031293A5
310
A76FBF6FACEF7DA7264E43906840EF0FA03836E242F406C6DCEE4EA06AC22492573150D1F66C60C640E8938CB705396EEDD86DE9B5042FE27813D640EA63BB001C722AF6E55CB61E4863F58284D5D3F53DD715CE1C3985E63FD7F1B7EBDD617E9F1E504B0304140006080800367D6A48BA9B19802C0700001A1C0000340000
310
006662782F43313645463241362D303641362D343132312D383546432D4443463934343430304435412F6F626A656374732E786D6CDD59DB6EDB3810FD1542FB6C5D7C49E24271E1D8496114698B1A5DEC9B404B94C28D6E20A55CF6EB774891B224CBB6926D816253A071686A387366E6CC70E47E7C4962F44418A7597A6D
310
38A66D2092FA5940D3E8DA288B707465A08F0BE4B22C2B1AFB0C94E2845C1B62D958B811CBCA5C2D0524C465DC5DBDBBF90B719FA4C4407E8C39BF36B8FF40126CE2B2C802C21FCD0017D88CC217D331AB8D6DB111C3F943E7A81C339216A02AACA7204569E0B4FF0493AC856B890DAD6DE361DB2627B659D2F0B6A234E505
310
4EFD03AD3A72C6C3B49A38D3F5ED78361FCDA6D3C9687A317646377737EB917339B15717ABD57C793B37D0C2DD65595C3B202769005E7C35168E6B896F6AF3150A7D7AFB599A125FA1D9B721204A2E25BC8B490B58479AD67048656B636132D0F823DB0681D252A985B6364EFF6E466FB6FB1B40E043A2947122A29C170C7C
310
ADB0AFF2C176AD6AB5E517CA51820BC2288E514C770C3370106CAD1CD41223B24588420233E9452DAFA92B04F6F95CEAD3322CE358E4AFB19099E6413E92824BCDE83F84EDB56F9E063A81B5254D8B2B656CF19A8388B96BC9C5EABBC9587D590189C21847102D60A6D8341977F05A092ED8AC8DC5E7BBDDCB56F043FFE139
310
CB72C20A1179329955DE690F36420B826F002815AE6DDFED51F90ED07F01E46B5D900B9E63F465FA32D5B6339CF23063097807D96864C37F36121F0F3EB956FDF002A116571EC314D2F62761DA32A3757603D285FB04419FB189326EEBE31862FA9EA622CF2150509CC112F07DB87B31161B20535884A7700CD6C33FD7121F
310
11FCAAE400DF743CD447BF031CA513A69B677B5F7D829861D4AF5DD5B2F118BEB39F82EF72BDFDBC2D59887D72AF127B4D429AD2028A69BF422DD05B29FF63F34566E4813DAD5D3E9C136582387AFCB2557E41D231A08AA8C3956BE4CA3D85748F639C92ACE46ABD8FA8FC2CCE98B77BF5AA1CEE3DEB4F1D04D56190DF2202
310
7AC90CAABBCF682E403116CABC9A09CD3D4E82075500469553BD1DF61F05BC9E0F8CF51E3D206A31EB0A2D93DCC34956A682BE0FC3BB6B9A39B1E58FE3CCC7F67C7C35BFD0C672295E678FA6865A79714E82F32387AC5ADE52ACA12557793405B6ECB3C0879EA92CBC2CC73E2DFA63A16384CA5000FBA4CA010DC39203A9F7
310
C2D2D1D89C38336437FEAF0F39ADBD3AC4A3098E88176251E17ACF6B01540BD716F42213C519E734255C762807CCD541C5368108AAB8D5527B8290722F21057E4FFCC992D7093F46C2D8835EAA10DDECF9E8D30AAAEA794CA2E8DCB2D493F6BF7A1C27795C7569E73070C69D137A71154A8B239E20DE3C5C78764064D37D4E
310
7ACD0B1ADF41D2E7EF167F041E867F393CFA080AAD37D4C8F39E75CC9933173F57402A17336772A91D710E2B7D54217A90B884AEC97FF59E098D1E8611DAA0733889438FC6719978553D2848022D182E4A36285F2F66F681F3152F7412A27152486368900793A6EC3D74F70156C9E6E31869368E01A3680A77B441861C58D1
310
1BC2D217F23E2AAE5DE7BDFF76A9FF992F9BF79447F2FA9CB1A057D3761BA13B30DD3008BA5415AE8E232979E136932F911797F3384CB510C56FD52D414508234F540C26E40DA8F7FEC09F71E103916EE5EFD10D644440827D4FD112A7C61CC6020ED5D2749FDABCE900D989F2D16ABC36825013983660C1B3F7E243FC1D83
310
ABA1F3E396EA6AAC6A7D230A9B098395BD1E27647DFDB4ED488195C14F7F131891E78E04B5BA128DDC09513F36FB7EB5234159F46373E2F1E2A14C7629A6A2328AB0C041FEE1A3BC4B5E5B7051B06E9737E3F5E5DDCD68EEDC2DABD9C5D5C5EA7634BDBA5BD973DB193BD31B8B119E95CC27DC1A5BB6A77BA73C8D746054D0
310
0DB951C054E1FCD54FC773D7C1FFE31B459CEDF0B158FC5D2F1475BB271AB24E2E0EBD50F412F5EE6DDDBF7340D4FD45EC4D9D73352BD0017EBA6C0119E97A3FBCB5D0A27527D1AF73A322BEB1F01EBDADFCF21AD322F4DEFAD0DAD147F96D2E86D9534F95D2B75BC96B17B3B1BD5CCFECD1FC763E1D4D6F97E3D17CB65C8E
310
668E736BCF5693CB4BBB6EA2BB6C75AEAEFC161CAA8B60638C06D3609EC51486F2244011C9E00604538701FCCA12C2E5CD061A0055C6F51B81014F3F5533D502EF62FDB4FF8061301DAB8A5CFA3014855BC7B5A1D6D11F3006159348399C321FA1F0A8683750C9E8B501215050A82FE60EC659727828A577C69510B8388DC4
310
9DA97AAAFE7BFF98400762656F57BD67082ECAB25674C2702097EF0980ED7443F27ED3B53A0817F0715716B531FB85BD350A04FD42A0320EA67E8F0ADE17209ED37639A6DCD38264D064FE641C5452470566911CAF37F05EAEBF596232BEF98AF2B88C843B4FD5FB96A491E833E2B21A42B91018CACC1C8B7BF8EA83F58D65
310
F08A2941771482C05A654992A5EA8FA57A4585B60FF0C229B0F4B00F5A16DB9959B2E351037D98587162E2803FC2023895513115ADC06DB9BE26A686EBB52F8417E0B1D6FECD1A29FA6F34AF4D7211C0C8693E8214126F7144C2343734468F9005A095FC72FF412FB81683F1F7E25F504B0304140006080800367D6A484149
310
84253E01000046050000300000006662782F43313645463241362D303641362D343132312D383546432D4443463934343430304435412F636E782E786D6CCD94C14EC3300C865F25CABD4D0B1B42539A491C78020E885B9A7A252C8DABC445ECED494637406888C324768B9CDFD2FFD9BF2CD76F8363AF10A245DFF0BAAC38
310
036FB0B3BE6FF8449BE296B3B5920191BEC838F37A8086E73257B20F388D73A9838D9E5CAE3AEBB773511305DB4E049133E3748C0D8FE619065DEA89B083B82D3B4DBAACCB0011A76020F5931D60EE37013441C7D55555DF14D57551570FF572B5A8578BE5931459A9648BE866BDF504014766303D7C32534991BF959C829D
310
359980AB4F67656BBD14E95FC998DCFA7ED6D16ECCBA7174D6684A63126808A84822D083141F622545E6FD467D7FF77870C03A1BC01086DD3F0DA03E3580A3B13225E16FFC7BE1EFD8D8BE24DCFFDAF649D8D9D6D9500F698D29AE3FF79F52A47DEF2E2FF44763E7CF7C3A2564CDE5211F7C9D8958EC4F5E5A7ABE80EA1D50
310
4B0304140006080800367D6A48432163A37E000000A30000000B0000006662782F636E782E786D6C4D8CD10A832018855F45FE7B370D93066A84CDF7886521330D97638F3F1D5DECE67CF071CE11FD67F3E86DD3CBC520815E08201B1E71766195908F0577807A25528CC75F0D5098362BA16A50624D31EFA79AED32655FAD
310
77E1794A4DF9DD3403C7849760B4A1B86B8DC6A33637C61821633B94C5B54E0A7E7F85F55E7D01504B0304140006080800367D6A48A6D797065F0000008200000007000000636E782E786D6C4DCB3B0E80201045D1AD90E9FD7516806B51190811670C8A61F982B1B0BAC9C97B72CA7B1037C6D3332918DA1E04D2CAC69353
310
902EDB8C20262D23F3F59B81A079470595414B17391D1F19B4730A5583A7ED43BBE4025D9592775E5ADFFA01504B0304140006080800367D6A484FEB6A7CA0000000F4000000130000005B436F6E74656E745F54797065735D2E786D6C7D8F4B0EC2300C44AF1279DFA6B0400835ED02B8011730C16D239A8F121795DB93D0
310
2D6269CFBC19BBED573B8B17C564BC53B0AB1B10E4B47F18372A5878A88E20FAAEBDBD032591BD2E299898C349CAA427B2986A1FC86565F0D122E7318E32A07EE24872DF3407A9BD63725C71C980AEBDD080CBCCE2BAE6F5D69B7110E7CD57AA146008B3D1C8F92C5954F993BB1BF787F39A89ABC491D09600F9FDA2FB0050
310
4B0304140006080800367D6A483DEE336E64000000790000001B0000006175746F6465736B2D64657369676E2D7061636B6167652E786D6C35CBC10E83200C00D05F21DCA56CA76D41FC96062B120735B69A7DBE268BB7777961F8D5AF396893C2ADB70FE7ADA196782C2DF776D7A97B5933C430F15651E5469C55D70F80A4
310
992A3ADC954792C525AE70A1E4D6AD9816CC044FEFDF01FE3FDE907802504B0304140006080800367D6A48DD09BE92F8000000960100003B0000006662782F43313645463241362D303641362D343132312D383546432D4443463934343430304435412F7265736F75726365732F636F72652E786D6C8550CB6EC32010FC15
310
6BEFD810E3C68A30512C255FD0536F086F1C94182C1E553FBF90B8527BEA6957B333B3BB238E5FCBA3FA441F8CB303B09A428556BBC9D8798014AFA487EA2885772EFEA24165D582031418A498BD4BEB06696723DA825A37E106AA103042A51FB91920E81B2EAA56296646B8D7ABD2773563CDEA174F8A94CCB449CD94DDCC
310
D5A0073976945FD8B92317DAF6845FF67B721A4F7BD2B7236D3967E733A7A2296229A2597EB66B8F2AE2047247D91BA12D61F49D7507CE0EBCFB104D614A11A2CF3F6F4BCB77203D0697BCC6209AD7F48F6B5AA7FF5D93B1B1DD6DAE2F4500C9F291CF81144D4929976784B99644E537504B0304140006080800367D6A485D
310
DDE318F1000000B1010000310000006662782F43313645463241362D303641362D343132312D383546432D4443463934343430304435412F636F72652E786D6C8D504B6EC32014BC8AF5F6B6C1C1561A61A2C8A94FD055770888831283C527CAF10BB12BB5BB6C78689861E60D3D3EE77BF150CE6B6B7AC01582421961A536
310
530F315CCA3D1447469DB5E10F0D0AC367D5438681D1C9D9B86C90B02628935163A5DA40EEBD0A50887BBAF4E0C555CDBCE2312486BF550B17373EA90A572B8FD1A0E75FA9708A07258135087725DA95187DE1F640F081B4DFB4CE4C4663D472B3D232B9EB8B560ED880BBCFB1392559970E821B5CEEDB7128CFC3F8410841
310
E8DC9E689DC58CFAE0D2CEDB2779BB77E5ABF05FE6B8C837326B1376CD66B82A3C309CF2BC1E18AD738169BCDA4D3397CD7E00504B0304140006080800367D6A481AE4D82C53010000DD0200000C0000006662782F636F72652E786D6C8D525D6F832014FD2B8677142AAECD82346DD2FE823DED8D2275A40A06C1F4E70FFC
310
88F361DD6282E4DC7BCFB9E7047A7CB64D3248DB2BA34B80530412A985A994AE4BE0DD1D1E407264D41AE37EB48144F3569620C280D1DA1ADFCD9030DA491D516D2A3983BCEFA5038968C2A504BDF8922D4FB977A1A37FA41D170F5ECB14A7531FA3DEAB6A1E5555605377252D60E702912BBE14F08AF20324D7FD1E9ECEA7
310
3D3CE4679413822F17826816871975AA5DD48595DCC90AB01DC26F10E510A30F5CBC13FC4E8A4F9AC54E467B6783E75934BA03EC7E7BD26CC2377CBEABFEE6F34ABB7C37F34D133D6038AC371618CD623EE13786B7CD300887FC1CBF358B85478006299CB124542AE3D7D2C01B2F03354AC68F665335308F04BFF1EC5EF0BC
310
E60841715D87D5B80BD79B77517DBB53272D1CDC33D1C6B6BC59979B565CCF556863691917A631F63FD38BD525CC2C3E4CF60D504B0304140006080800367D6A48C228177C05010000B201000008000000636F72652E786D6C8D50CD6E8420107E1532771456AC66836CD6449FA0A7DEA8B096AC8211DCB46F5F586DD2DE7A
310
1AF2CDF7C7F0CBE73CA1875EBD71B6019A1140DA0E4E193B36B0851BAE015D045F9D0BBF6880AC9C75030906C1C7D56DCB010DCE066D136A9DD20728BDD701D030C547037EF8D0B3CCE41622C3DFB3450E7739EA8C663B4FF060E61FE9B06A19B4027122F405930253F24ACB33A36756BEF13C3105DF36A38E28A362BAB919
310
BD82684BC27ADA95B827458D595F55F8DA5E2B5C172D2918A35DC708CF9358701FD6F8E7C324F60CC8CB47CAE5F9BE12FCDDB9E920C4520A393B7D81880E69F1A7F4B6A87F94363614A7C37057781034167A2E6270BA601CCFF3C699AE2DBE01504B01021400140006080800367D6A48000000000000000000000000370000
310
0000000000000000000000000000006662782F43313645463241362D303641362D343132312D383546432D4443463934343430304435412F617474726962757465732E62696E504B01021400140006080800367D6A480000000000000000000000003500000000000000000000000000550000006662782F43313645463241
310
362D303641362D343132312D383546432D4443463934343430304435412F76657274696365732E62696E504B01021400140006080800367D6A48F270F13306000000040000003600000000000000000000000000A80000006662782F43313645463241362D303641362D343132312D383546432D4443463934343430304435
310
412F747269616E676C65732E62696E504B01021400140006080800367D6A4851464CB489000000430100003600000000000000000000000000020100006662782F43313645463241362D303641362D343132312D383546432D4443463934343430304435412F6469726563746F72792E786D6C504B01021400140006080800
310
367D6A48BA9B19802C0700001A1C00003400000000000000000000000000DF0100006662782F43313645463241362D303641362D343132312D383546432D4443463934343430304435412F6F626A656374732E786D6C504B01021400140006080800367D6A48414984253E0100004605000030000000000000000000000000
310
005D0900006662782F43313645463241362D303641362D343132312D383546432D4443463934343430304435412F636E782E786D6C504B01021400140006080800367D6A48432163A37E000000A30000000B00000000000000000000000000E90A00006662782F636E782E786D6C504B01021400140006080800367D6A48A6
310
D797065F000000820000000700000000000000000000000000900B0000636E782E786D6C504B01021400140006080800367D6A484FEB6A7CA0000000F40000001300000000000000000000000000140C00005B436F6E74656E745F54797065735D2E786D6C504B01021400140006080800367D6A483DEE336E640000007900
310
00001B00000000000000000000000000E50C00006175746F6465736B2D64657369676E2D7061636B6167652E786D6C504B01021400140006080800367D6A48DD09BE92F8000000960100003B00000000000000000000000000820D00006662782F43313645463241362D303641362D343132312D383546432D444346393434
310
3430304435412F7265736F75726365732F636F72652E786D6C504B01021400140006080800367D6A485DDDE318F1000000B10100003100000000000000000000000000D30E00006662782F43313645463241362D303641362D343132312D383546432D4443463934343430304435412F636F72652E786D6C504B0102140014
310
0006080800367D6A481AE4D82C53010000DD0200000C00000000000000000000000000131000006662782F636F72652E786D6C504B01021400140006080800367D6A48C228177C05010000B2010000080000000000000000000000000090110000636F72652E786D6C504B0506000000000E000E0080040000BB1200000000
  0
XRECORD
  5
66E5
102
{ACAD_REACTORS
330
66E0
102
}
330
66E0
100
AcDbXrecord
280
     1
270
     1
271
     1
  0
XRECORD
  5
66E4
102
{ACAD_REACTORS
330
66E0
102
}
330
66E0
100
AcDbXrecord
280
     1
270
     1
271
     1
  0
XRECORD
  5
66E6
102
{ACAD_REACTORS
330
66E0
102
}
330
66E0
100
AcDbXrecord
280
     1
270
     1
271
     1
  0
XRECORD
  5
66E3
102
{ACAD_REACTORS
330
66E0
102
}
330
66E0
100
AcDbXrecord
280
     1
270
     1
271
     1
  0
XRECORD
  5
6A28
102
{ACAD_REACTORS
330
6A27
102
}
330
6A27
100
AcDbXrecord
280
     1
102
DISPLAYNAME
  1
Imperial24
102
FLAGS
 90
        0
  0
CELLSTYLEMAP
  5
6A26
102
{ACAD_REACTORS
330
69D6
102
}
330
69D6
100
AcDbCellStyleMap
 90
        3
300
CELLSTYLE
  1
TABLEFORMAT_BEGIN
 90
        5
170
     1
 91
        0
 92
    32768
 62
   257
 93
        1
300
CONTENTFORMAT
  1
CONTENTFORMAT_BEGIN
 90
        0
 91
        0
 92
      512
 93
        0
300

 40
0.0
140
1.0
 94
        5
 62
     0
340
11
144
0.25
309
CONTENTFORMAT_END
171
     1
301
MARGIN
  1
CELLMARGIN_BEGIN
 40
0.06
 40
0.06
 40
0.06
 40
0.06
 40
0.18
 40
0.18
309
CELLMARGIN_END
 94
        6
 95
        1
302
GRIDFORMAT
  1
GRIDFORMAT_BEGIN
 90
        0
 91
        1
 62
     0
 92
       -2
340
0
 93
        0
 40
0.045
309
GRIDFORMAT_END
 95
        2
302
GRIDFORMAT
  1
GRIDFORMAT_BEGIN
 90
        0
 91
        1
 62
     0
 92
       -2
340
0
 93
        0
 40
0.045
309
GRIDFORMAT_END
 95
        4
302
GRIDFORMAT
  1
GRIDFORMAT_BEGIN
 90
        0
 91
        1
 62
     0
 92
       -2
340
0
 93
        0
 40
0.045
309
GRIDFORMAT_END
 95
        8
302
GRIDFORMAT
  1
GRIDFORMAT_BEGIN
 90
        0
 91
        1
 62
     0
 92
       -2
340
0
 93
        0
 40
0.045
309
GRIDFORMAT_END
 95
       16
302
GRIDFORMAT
  1
GRIDFORMAT_BEGIN
 90
        0
 91
        1
 62
     0
 92
       -2
340
0
 93
        0
 40
0.045
309
GRIDFORMAT_END
 95
       32
302
GRIDFORMAT
  1
GRIDFORMAT_BEGIN
 90
        0
 91
        1
 62
     0
 92
       -2
340
0
 93
        0
 40
0.045
309
GRIDFORMAT_END
309
TABLEFORMAT_END
  1
CELLSTYLE_BEGIN
 90
        1
 91
        1
300
_TITLE
309
CELLSTYLE_END
300
CELLSTYLE
  1
TABLEFORMAT_BEGIN
 90
        5
170
     1
 91
        0
 92
        0
 62
   257
 93
        1
300
CONTENTFORMAT
  1
CONTENTFORMAT_BEGIN
 90
        0
 91
        0
 92
      512
 93
        0
300

 40
0.0
140
1.0
 94
        5
 62
     0
340
11
144
0.18
309
CONTENTFORMAT_END
171
     1
301
MARGIN
  1
CELLMARGIN_BEGIN
 40
0.06
 40
0.06
 40
0.06
 40
0.06
 40
0.18
 40
0.18
309
CELLMARGIN_END
 94
        6
 95
        1
302
GRIDFORMAT
  1
GRIDFORMAT_BEGIN
 90
        0
 91
        1
 62
     0
 92
       -2
340
0
 93
        0
 40
0.045
309
GRIDFORMAT_END
 95
        2
302
GRIDFORMAT
  1
GRIDFORMAT_BEGIN
 90
        0
 91
        1
 62
     0
 92
       -2
340
0
 93
        0
 40
0.045
309
GRIDFORMAT_END
 95
        4
302
GRIDFORMAT
  1
GRIDFORMAT_BEGIN
 90
        0
 91
        1
 62
     0
 92
       -2
340
0
 93
        0
 40
0.045
309
GRIDFORMAT_END
 95
        8
302
GRIDFORMAT
  1
GRIDFORMAT_BEGIN
 90
        0
 91
        1
 62
     0
 92
       -2
340
0
 93
        0
 40
0.045
309
GRIDFORMAT_END
 95
       16
302
GRIDFORMAT
  1
GRIDFORMAT_BEGIN
 90
        0
 91
        1
 62
     0
 92
       -2
340
0
 93
        0
 40
0.045
309
GRIDFORMAT_END
 95
       32
302
GRIDFORMAT
  1
GRIDFORMAT_BEGIN
 90
        0
 91
        1
 62
     0
 92
       -2
340
0
 93
        0
 40
0.045
309
GRIDFORMAT_END
309
TABLEFORMAT_END
  1
CELLSTYLE_BEGIN
 90
        2
 91
        1
300
_HEADER
309
CELLSTYLE_END
300
CELLSTYLE
  1
TABLEFORMAT_BEGIN
 90
        5
170
     1
 91
        0
 92
        0
 62
   257
 93
        1
300
CONTENTFORMAT
  1
CONTENTFORMAT_BEGIN
 90
        0
 91
        0
 92
      512
 93
        0
300

 40
0.0
140
1.0
 94
        2
 62
     0
340
11
144
0.18
309
CONTENTFORMAT_END
171
     1
301
MARGIN
  1
CELLMARGIN_BEGIN
 40
0.06
 40
0.06
 40
0.06
 40
0.06
 40
0.18
 40
0.18
309
CELLMARGIN_END
 94
        6
 95
        1
302
GRIDFORMAT
  1
GRIDFORMAT_BEGIN
 90
        0
 91
        1
 62
     0
 92
       -2
340
0
 93
        0
 40
0.045
309
GRIDFORMAT_END
 95
        2
302
GRIDFORMAT
  1
GRIDFORMAT_BEGIN
 90
        0
 91
        1
 62
     0
 92
       -2
340
0
 93
        0
 40
0.045
309
GRIDFORMAT_END
 95
        4
302
GRIDFORMAT
  1
GRIDFORMAT_BEGIN
 90
        0
 91
        1
 62
     0
 92
       -2
340
0
 93
        0
 40
0.045
309
GRIDFORMAT_END
 95
        8
302
GRIDFORMAT
  1
GRIDFORMAT_BEGIN
 90
        0
 91
        1
 62
     0
 92
       -2
340
0
 93
        0
 40
0.045
309
GRIDFORMAT_END
 95
       16
302
GRIDFORMAT
  1
GRIDFORMAT_BEGIN
 90
        0
 91
        1
 62
     0
 92
       -2
340
0
 93
        0
 40
0.045
309
GRIDFORMAT_END
 95
       32
302
GRIDFORMAT
  1
GRIDFORMAT_BEGIN
 90
        0
 91
        1
 62
     0
 92
       -2
340
0
 93
        0
 40
0.045
309
GRIDFORMAT_END
309
TABLEFORMAT_END
  1
CELLSTYLE_BEGIN
 90
        3
 91
        2
300
_DATA
309
CELLSTYLE_END
  0
ENDSEC
  0
EOF
