  0
SECTION
  2
HEADER
  9
$ACADVER
  1
AC1027
  9
$ACADMAINTVER
 70
    55
  9
$DWGCODEPAGE
  3
ANSI_932
  9
$LASTSAVEDBY
  1
marketing
  9
$REQUIREDVERSIONS
160
                 0
  9
$INSBASE
 10
0.0
 20
0.0
 30
0.0
  9
$EXTMIN
 10
-100.0312573673366
 20
-404.0873372119624
 30
-0.0015258207003583
  9
$EXTMAX
 10
438.2530556281958
 20
373.3375984878953
 30
0.0000000349246037
  9
$LIMMIN
 10
-296.316999476111
 20
-370.7034300441653
  9
$LIMMAX
 10
623.3128432133979
 20
328.6261559379898
  9
$ORTHOMODE
 70
     0
  9
$REGENMODE
 70
     1
  9
$FILLMODE
 70
     1
  9
$QTEXTMODE
 70
     0
  9
$MIRRTEXT
 70
     1
  9
$LTSCALE
 40
10.0
  9
$ATTMODE
 70
     1
  9
$TEXTSIZE
 40
5.0
  9
$TRACEWID
 40
0.05
  9
$TEXTSTYLE
  7
STANDARD1
  9
$CLAYER
  8
30
  9
$CELTYPE
  6
CONTINUOUS
  9
$CECOLOR
 62
   256
  9
$CELTSCALE
 40
1.0
  9
$DISPSILH
 70
     0
  9
$DIMSCALE
 40
1.0
  9
$DIMASZ
 40
2.0
  9
$DIMEXO
 40
1.0
  9
$DIMDLI
 40
0.5
  9
$DIMRND
 40
0.0
  9
$DIMDLE
 40
0.0
  9
$DIMEXE
 40
0.5
  9
$DIMTP
 40
0.0
  9
$DIMTM
 40
0.0
  9
$DIMTXT
 40
4.0
  9
$DIMCEN
 40
0.09
  9
$DIMTSZ
 40
0.0
  9
$DIMTOL
 70
     0
  9
$DIMLIM
 70
     0
  9
$DIMTIH
 70
     0
  9
$DIMTOH
 70
     1
  9
$DIMSE1
 70
     0
  9
$DIMSE2
 70
     0
  9
$DIMTAD
 70
     3
  9
$DIMZIN
 70
    12
  9
$DIMBLK
  1
OPEN
  9
$DIMASO
 70
     1
  9
$DIMSHO
 70
     1
  9
$DIMPOST
  1

  9
$DIMAPOST
  1

  9
$DIMALT
 70
     0
  9
$DIMALTD
 70
     2
  9
$DIMALTF
 40
25.4
  9
$DIMLFAC
 40
1.0
  9
$DIMTOFL
 70
     0
  9
$DIMTVP
 40
0.0
  9
$DIMTIX
 70
     0
  9
$DIMSOXD
 70
     0
  9
$DIMSAH
 70
     0
  9
$DIMBLK1
  1

  9
$DIMBLK2
  1

  9
$DIMSTYLE
  2
STANDARD
  9
$DIMCLRD
 70
     0
  9
$DIMCLRE
 70
     0
  9
$DIMCLRT
 70
     0
  9
$DIMTFAC
 40
1.0
  9
$DIMGAP
 40
1.0
  9
$DIMJUST
 70
     0
  9
$DIMSD1
 70
     0
  9
$DIMSD2
 70
     0
  9
$DIMTOLJ
 70
     1
  9
$DIMTZIN
 70
     0
  9
$DIMALTZ
 70
     0
  9
$DIMALTTZ
 70
     0
  9
$DIMUPT
 70
     0
  9
$DIMDEC
 70
     1
  9
$DIMTDEC
 70
     1
  9
$DIMALTU
 70
     2
  9
$DIMALTTD
 70
     2
  9
$DIMTXSTY
  7
STANDARD
  9
$DIMAUNIT
 70
     0
  9
$DIMADEC
 70
     0
  9
$DIMALTRND
 40
0.0
  9
$DIMAZIN
 70
     3
  9
$DIMDSEP
 70
    46
  9
$DIMATFIT
 70
     3
  9
$DIMFRAC
 70
     0
  9
$DIMLDRBLK
  1
OPEN
  9
$DIMLUNIT
 70
     2
  9
$DIMLWD
 70
    -2
  9
$DIMLWE
 70
    -2
  9
$DIMTMOVE
 70
     0
  9
$DIMFXL
 40
1.0
  9
$DIMFXLON
 70
     0
  9
$DIMJOGANG
 40
0.7853981633974483
  9
$DIMTFILL
 70
     0
  9
$DIMTFILLCLR
 70
     0
  9
$DIMARCSYM
 70
     0
  9
$DIMLTYPE
  6

  9
$DIMLTEX1
  6

  9
$DIMLTEX2
  6

  9
$DIMTXTDIRECTION
 70
     0
  9
$LUNITS
 70
     2
  9
$LUPREC
 70
     4
  9
$SKETCHINC
 40
0.1
  9
$FILLETRAD
 40
0.0
  9
$AUNITS
 70
     0
  9
$AUPREC
 70
     0
  9
$MENU
  1
.
  9
$ELEVATION
 40
0.0
  9
$PELEVATION
 40
0.0
  9
$THICKNESS
 40
0.0
  9
$LIMCHECK
 70
     0
  9
$CHAMFERA
 40
0.0
  9
$CHAMFERB
 40
0.0
  9
$CHAMFERC
 40
0.0
  9
$CHAMFERD
 40
0.0
  9
$SKPOLY
 70
     0
  9
$TDCREATE
 40
2452286.555658658
  9
$TDUCREATE
 40
2452286.180658658
  9
$TDUPDATE
 40
2459278.608251030
  9
$TDUUPDATE
 40
2459278.233251030
  9
$TDINDWG
 40
1.1524785764
  9
$TDUSRTIMER
 40
1.1524771296
  9
$USRTIMER
 70
     1
  9
$ANGBASE
 50
0.0
  9
$ANGDIR
 70
     0
  9
$PDMODE
 70
     0
  9
$PDSIZE
 40
0.0
  9
$PLINEWID
 40
0.0
  9
$SPLFRAME
 70
     0
  9
$SPLINETYPE
 70
     6
  9
$SPLINESEGS
 70
     8
  9
$HANDSEED
  5
602A
  9
$SURFTAB1
 70
     6
  9
$SURFTAB2
 70
     6
  9
$SURFTYPE
 70
     6
  9
$SURFU
 70
     6
  9
$SURFV
 70
     6
  9
$UCSBASE
  2

  9
$UCSNAME
  2

  9
$UCSORG
 10
0.0
 20
0.0
 30
0.0
  9
$UCSXDIR
 10
1.0
 20
0.0
 30
0.0
  9
$UCSYDIR
 10
0.0
 20
1.0
 30
0.0
  9
$UCSORTHOREF
  2

  9
$UCSORTHOVIEW
 70
     0
  9
$UCSORGTOP
 10
0.0
 20
0.0
 30
0.0
  9
$UCSORGBOTTOM
 10
0.0
 20
0.0
 30
0.0
  9
$UCSORGLEFT
 10
0.0
 20
0.0
 30
0.0
  9
$UCSORGRIGHT
 10
0.0
 20
0.0
 30
0.0
  9
$UCSORGFRONT
 10
0.0
 20
0.0
 30
0.0
  9
$UCSORGBACK
 10
0.0
 20
0.0
 30
0.0
  9
$PUCSBASE
  2

  9
$PUCSNAME
  2

  9
$PUCSORG
 10
0.0
 20
0.0
 30
0.0
  9
$PUCSXDIR
 10
1.0
 20
0.0
 30
0.0
  9
$PUCSYDIR
 10
0.0
 20
1.0
 30
0.0
  9
$PUCSORTHOREF
  2

  9
$PUCSORTHOVIEW
 70
     0
  9
$PUCSORGTOP
 10
0.0
 20
0.0
 30
0.0
  9
$PUCSORGBOTTOM
 10
0.0
 20
0.0
 30
0.0
  9
$PUCSORGLEFT
 10
0.0
 20
0.0
 30
0.0
  9
$PUCSORGRIGHT
 10
0.0
 20
0.0
 30
0.0
  9
$PUCSORGFRONT
 10
0.0
 20
0.0
 30
0.0
  9
$PUCSORGBACK
 10
0.0
 20
0.0
 30
0.0
  9
$USERI1
 70
     0
  9
$USERI2
 70
     0
  9
$USERI3
 70
     0
  9
$USERI4
 70
     0
  9
$USERI5
 70
     0
  9
$USERR1
 40
0.0
  9
$USERR2
 40
0.0
  9
$USERR3
 40
0.0
  9
$USERR4
 40
0.0
  9
$USERR5
 40
0.0
  9
$WORLDVIEW
 70
     1
  9
$SHADEDGE
 70
     3
  9
$SHADEDIF
 70
    70
  9
$TILEMODE
 70
     1
  9
$MAXACTVP
 70
    48
  9
$PINSBASE
 10
0.0
 20
0.0
 30
0.0
  9
$PLIMCHECK
 70
     0
  9
$PEXTMIN
 10
4.273573
 20
5.205245999999998
 30
0.0
  9
$PEXTMAX
 10
194.610095
 20
283.0697009999996
 30
0.0
  9
$PLIMMIN
 10
-5.873749
 20
-5.87375
  9
$PLIMMAX
 10
204.099579
 20
291.1369009999999
  9
$UNITMODE
 70
     0
  9
$VISRETAIN
 70
     1
  9
$PLINEGEN
 70
     0
  9
$PSLTSCALE
 70
     1
  9
$TREEDEPTH
 70
  3020
  9
$CMLSTYLE
  2
STANDARD
  9
$CMLJUST
 70
     0
  9
$CMLSCALE
 40
1.0
  9
$PROXYGRAPHICS
 70
     1
  9
$MEASUREMENT
 70
     0
  9
$CELWEIGHT
370
    -1
  9
$ENDCAPS
280
     0
  9
$JOINSTYLE
280
     0
  9
$LWDISPLAY
290
     0
  9
$INSUNITS
 70
     0
  9
$HYPERLINKBASE
  1

  9
$STYLESHEET
  1
KIKI.CTB
  9
$XEDIT
290
     1
  9
$CEPSNTYPE
380
     0
  9
$PSTYLEMODE
290
     1
  9
$FINGERPRINTGUID
  2

  9
$VERSIONGUID
  2
{E883AAFE-F749-4891-AA23-4BE55E46BD28}
  9
$EXTNAMES
290
     1
  9
$PSVPSCALE
 40
0.0
  9
$OLESTARTUP
290
     0
  9
$SORTENTS
280
   127
  9
$INDEXCTL
280
     0
  9
$HIDETEXT
280
     0
  9
$XCLIPFRAME
280
     2
  9
$HALOGAP
280
     0
  9
$OBSCOLOR
 70
   257
  9
$OBSLTYPE
280
     0
  9
$INTERSECTIONDISPLAY
280
     0
  9
$INTERSECTIONCOLOR
 70
   257
  9
$DIMASSOC
280
     1
  9
$PROJECTNAME
  1

  9
$CAMERADISPLAY
290
     0
  9
$LENSLENGTH
 40
50.0
  9
$CAMERAHEIGHT
 40
0.0
  9
$STEPSPERSEC
 40
2.0
  9
$STEPSIZE
 40
6.0
  9
$3DDWFPREC
 40
2.0
  9
$PSOLWIDTH
 40
0.25
  9
$PSOLHEIGHT
 40
4.0
  9
$LOFTANG1
 40
1.570796326794896
  9
$LOFTANG2
 40
1.570796326794896
  9
$LOFTMAG1
 40
0.0
  9
$LOFTMAG2
 40
0.0
  9
$LOFTPARAM
 70
     7
  9
$LOFTNORMALS
280
     1
  9
$LATITUDE
 40
37.795
  9
$LONGITUDE
 40
-122.394
  9
$NORTHDIRECTION
 40
0.0
  9
$TIMEZONE
 70
 -8000
  9
$LIGHTGLYPHDISPLAY
280
     1
  9
$TILEMODELIGHTSYNCH
280
     1
  9
$CMATERIAL
347
5AB1
  9
$SOLIDHIST
280
     0
  9
$SHOWHIST
280
     1
  9
$DWFFRAME
280
     2
  9
$DGNFRAME
280
     0
  9
$REALWORLDSCALE
290
     1
  9
$INTERFERECOLOR
 62
     1
  9
$INTERFEREOBJVS
345
5AD3
  9
$INTERFEREVPVS
346
5AD0
  9
$CSHADOW
280
     0
  9
$SHADOWPLANELOCATION
 40
0.0
  0
ENDSEC
  0
SECTION
  2
CLASSES
  0
CLASS
  1
ACDBDICTIONARYWDFLT
  2
AcDbDictionaryWithDefault
  3
ObjectDBX Classes
 90
        0
 91
        1
280
     0
281
     0
  0
CLASS
  1
DICTIONARYVAR
  2
AcDbDictionaryVar
  3
ObjectDBX Classes
 90
        0
 91
       13
280
     0
281
     0
  0
CLASS
  1
MATERIAL
  2
AcDbMaterial
  3
ObjectDBX Classes
 90
     1153
 91
        3
280
     0
281
     0
  0
CLASS
  1
VISUALSTYLE
  2
AcDbVisualStyle
  3
ObjectDBX Classes
 90
     4095
 91
       24
280
     0
281
     0
  0
CLASS
  1
TABLESTYLE
  2
AcDbTableStyle
  3
ObjectDBX Classes
 90
     4095
 91
        1
280
     0
281
     0
  0
CLASS
  1
SCALE
  2
AcDbScale
  3
ObjectDBX Classes
 90
     1153
 91
       17
280
     0
281
     0
  0
CLASS
  1
MLEADERSTYLE
  2
AcDbMLeaderStyle
  3
ACDB_MLEADERSTYLE_CLASS
 90
     4095
 91
        1
280
     0
281
     0
  0
CLASS
  1
ACDBSECTIONVIEWSTYLE
  2
AcDbSectionViewStyle
  3
ObjectDBX Classes
 90
     1025
 91
        1
280
     0
281
     0
  0
CLASS
  1
ACDBDETAILVIEWSTYLE
  2
AcDbDetailViewStyle
  3
ObjectDBX Classes
 90
     1025
 91
        1
280
     0
281
     0
  0
CLASS
  1
CELLSTYLEMAP
  2
AcDbCellStyleMap
  3
ObjectDBX Classes
 90
     1152
 91
        2
280
     0
281
     0
  0
ENDSEC
  0
SECTION
  2
TABLES
  0
TABLE
  2
VPORT
  5
8
330
0
100
AcDbSymbolTable
 70
     1
  0
VPORT
  5
5A88
330
8
100
AcDbSymbolTableRecord
100
AcDbViewportTableRecord
  2
*Active
 70
     0
 10
0.0
 20
0.0
 11
1.0
 21
1.0
 12
169.1108991304295
 22
-15.37486936203356
 13
0.0
 23
0.0
 14
1.0
 24
1.0
 15
10.0
 25
10.0
 16
0.0
 26
0.0
 36
1.0
 17
0.0
 27
0.0
 37
0.0
 40
783.0448749940735
 41
2.289505428226779
 42
50.0
 43
0.0
 44
0.0
 50
0.0
 51
0.0
 71
     0
 72
   100
 73
     1
 74
     1
 75
     0
 76
     0
 77
     0
 78
     0
281
     0
 65
     1
110
0.0
120
0.0
130
0.0
111
1.0
121
0.0
131
0.0
112
0.0
122
1.0
132
0.0
 79
     0
146
0.0
348
5ACF
 60
     3
 61
     5
292
     1
282
     1
141
0.0
142
0.0
 63
   250
421
  3355443
1001
ACAD_NAV_VCDISPLAY
1070
     3
  0
ENDTAB
  0
TABLE
  2
LTYPE
  5
5
330
0
100
AcDbSymbolTable
 70
     7
  0
LTYPE
  5
13
330
5
100
AcDbSymbolTableRecord
100
AcDbLinetypeTableRecord
  2
BYBLOCK
 70
     0
  3

 72
    65
 73
     0
 40
0.0
  0
LTYPE
  5
14
330
5
100
AcDbSymbolTableRecord
100
AcDbLinetypeTableRecord
  2
BYLAYER
 70
     0
  3

 72
    65
 73
     0
 40
0.0
  0
LTYPE
  5
15
330
5
100
AcDbSymbolTableRecord
100
AcDbLinetypeTableRecord
  2
CONTINUOUS
 70
     0
  3
Solid line
 72
    65
 73
     0
 40
0.0
  0
LTYPE
  5
22
330
5
100
AcDbSymbolTableRecord
100
AcDbLinetypeTableRecord
  2
CONTINOUS
 70
     0
  3
Solid line
 72
    65
 73
     0
 40
0.0
  0
LTYPE
  5
23
330
5
100
AcDbSymbolTableRecord
100
AcDbLinetypeTableRecord
  2
DASHED
 70
     0
  3
__ __ __ __ __ __ __ __ __ __ __ __ __ __ __
 72
    65
 73
     2
 40
0.75
 49
0.5
 74
     0
 49
-0.25
 74
     0
  0
LTYPE
  5
24
330
5
100
AcDbSymbolTableRecord
100
AcDbLinetypeTableRecord
  2
DASHDOT
 70
     0
  3
__ . __ . __ . __ . __ . __ . __ . __ . __ . __
 72
    65
 73
     4
 40
1.0
 49
0.5
 74
     0
 49
-0.25
 74
     0
 49
0.0
 74
     0
 49
-0.25
 74
     0
  0
LTYPE
  5
4C47
330
5
100
AcDbSymbolTableRecord
100
AcDbLinetypeTableRecord
  2
DIVIDE
 70
     0
  3
Divide ____ . . ____ . . ____ . . ____ . . ____
 72
    65
 73
     6
 40
1.25
 49
0.5
 74
     0
 49
-0.25
 74
     0
 49
0.0
 74
     0
 49
-0.25
 74
     0
 49
0.0
 74
     0
 49
-0.25
 74
     0
  0
LTYPE
  5
5115
330
5
100
AcDbSymbolTableRecord
100
AcDbLinetypeTableRecord
  2
PHANTOM
 70
     0
  3
_____ _ _ _____ _ _ _____ _ _ _____ _ _ ____
 72
    65
 73
     6
 40
2.5
 49
1.25
 74
     0
 49
-0.25
 74
     0
 49
0.25
 74
     0
 49
-0.25
 74
     0
 49
0.25
 74
     0
 49
-0.25
 74
     0
  0
ENDTAB
  0
TABLE
  2
LAYER
  5
2
330
0
100
AcDbSymbolTable
 70
    13
  0
LAYER
  5
10
102
{ACAD_XDICTIONARY
360
5FB2
102
}
330
2
100
AcDbSymbolTableRecord
100
AcDbLayerTableRecord
  2
0
 70
     0
 62
     7
  6
CONTINOUS
370
    -3
390
F
347
5AC1
348
0
  0
LAYER
  5
2F
102
{ACAD_XDICTIONARY
360
5FB4
102
}
330
2
100
AcDbSymbolTableRecord
100
AcDbLayerTableRecord
  2
10
 70
     0
 62
     4
  6
CONTINOUS
370
    -3
390
F
347
5AC1
348
0
  0
LAYER
  5
31
102
{ACAD_XDICTIONARY
360
5FB6
102
}
330
2
100
AcDbSymbolTableRecord
100
AcDbLayerTableRecord
  2
12
 70
     0
 62
     3
  6
CONTINOUS
370
    -3
390
F
347
5AC1
348
0
  0
LAYER
  5
35
102
{ACAD_XDICTIONARY
360
5FB8
102
}
330
2
100
AcDbSymbolTableRecord
100
AcDbLayerTableRecord
  2
16
 70
     0
 62
     6
  6
DASHDOT
370
    -3
390
F
347
5AC1
348
0
  0
LAYER
  5
38
102
{ACAD_XDICTIONARY
360
5FBA
102
}
330
2
100
AcDbSymbolTableRecord
100
AcDbLayerTableRecord
  2
19
 70
     0
 62
     7
  6
CONTINOUS
370
    -3
390
F
347
5AC1
348
0
  0
LAYER
  5
3C
102
{ACAD_XDICTIONARY
360
5FBC
102
}
330
2
100
AcDbSymbolTableRecord
100
AcDbLayerTableRecord
  2
11
 70
     0
 62
     1
  6
CONTINOUS
370
    -3
390
F
347
5AC1
348
0
  0
LAYER
  5
3D
102
{ACAD_XDICTIONARY
360
5FBE
102
}
330
2
100
AcDbSymbolTableRecord
100
AcDbLayerTableRecord
  2
24
 70
     0
 62
     2
  6
CONTINOUS
370
    -3
390
F
347
5AC1
348
0
  0
LAYER
  5
3A2
102
{ACAD_XDICTIONARY
360
5FC0
102
}
330
2
100
AcDbSymbolTableRecord
100
AcDbLayerTableRecord
  2
30
 70
     0
 62
     9
  6
CONTINUOUS
370
    -3
390
F
347
5AC1
348
0
  0
LAYER
  5
3A4
330
2
100
AcDbSymbolTableRecord
100
AcDbLayerTableRecord
  2
DEFPOINTS
 70
     0
 62
     7
  6
CONTINUOUS
290
     0
370
    -3
390
F
347
5AC1
348
0
  0
LAYER
  5
3BBA
102
{ACAD_XDICTIONARY
360
5FC2
102
}
330
2
100
AcDbSymbolTableRecord
100
AcDbLayerTableRecord
  2
18
 70
     0
 62
     5
  6
DIVIDE
370
    -3
390
F
347
5AC1
348
0
  0
LAYER
  5
3BBB
102
{ACAD_XDICTIONARY
360
5FC4
102
}
330
2
100
AcDbSymbolTableRecord
100
AcDbLayerTableRecord
  2
21
 70
     0
 62
     7
  6
CONTINUOUS
370
    -3
390
F
347
5AC1
348
0
  0
LAYER
  5
5116
102
{ACAD_XDICTIONARY
360
5FC6
102
}
330
2
100
AcDbSymbolTableRecord
100
AcDbLayerTableRecord
  2
1
 70
     0
 62
     7
  6
CONTINUOUS
370
    -3
390
F
347
5AC1
348
0
  0
LAYER
  5
5117
102
{ACAD_XDICTIONARY
360
5FC8
102
}
330
2
100
AcDbSymbolTableRecord
100
AcDbLayerTableRecord
  2
TOP
 70
     0
 62
     7
  6
CONTINUOUS
370
    -3
390
F
347
5AC1
348
0
  0
ENDTAB
  0
TABLE
  2
STYLE
  5
3
330
0
100
AcDbSymbolTable
 70
     3
  0
STYLE
  5
11
330
3
100
AcDbSymbolTableRecord
100
AcDbTextStyleTableRecord
  2
STANDARD
 70
     0
 40
0.0
 41
1.0
 50
0.0
 71
     0
 42
2.0
  3
txt.shx
  4
bigfont.shx
  0
STYLE
  5
42
330
3
100
AcDbSymbolTableRecord
100
AcDbTextStyleTableRecord
  2
STANDARD1
 70
     0
 40
0.0
 41
1.0
 50
0.0
 71
     0
 42
5.0
  3
MONOTXT
  4
BIGFONT
  0
STYLE
  5
5016
330
3
100
AcDbSymbolTableRecord
100
AcDbTextStyleTableRecord
  2
UGMTXT
 70
     0
 40
0.0
 41
1.0
 50
0.0
 71
     0
 42
0.2
  3
ugmtxt
  4
bigfont
  0
ENDTAB
  0
TABLE
  2
VIEW
  5
6
330
0
100
AcDbSymbolTable
 70
     3
  0
VIEW
  5
230C
330
6
100
AcDbSymbolTableRecord
100
AcDbViewTableRecord
  2
OLE1
 70
     0
 40
148.912488
 10
429.497628
 20
2.560627
 41
103.145806
 11
0.0
 21
0.0
 31
1.0
 12
0.0
 22
0.0
 32
0.0
 42
50.0
 43
0.0
 44
0.0
 50
0.0
 71
     0
281
     0
 72
     0
 73
     0
348
5ACF
  0
VIEW
  5
230E
330
6
100
AcDbSymbolTableRecord
100
AcDbViewTableRecord
  2
OLE2
 70
     0
 40
170.778692
 10
322.66497
 20
-5.978304
 41
102.467215
 11
0.0
 21
0.0
 31
1.0
 12
0.0
 22
0.0
 32
0.0
 42
50.0
 43
0.0
 44
0.0
 50
0.0
 71
     0
281
     0
 72
     0
 73
     0
348
5ACF
  0
VIEW
  5
23AA
330
6
100
AcDbSymbolTableRecord
100
AcDbViewTableRecord
  2
OLE3
 70
     0
 40
591.7897389999998
 10
84.79698199999999
 20
-46.09335999999998
 41
388.792096
 11
0.0
 21
0.0
 31
1.0
 12
0.0
 22
0.0
 32
0.0
 42
50.0
 43
0.0
 44
0.0
 50
0.0
 71
     0
281
     0
 72
     0
 73
     0
348
5ACF
  0
ENDTAB
  0
TABLE
  2
UCS
  5
7
330
0
100
AcDbSymbolTable
 70
     0
  0
ENDTAB
  0
TABLE
  2
APPID
  5
9
330
0
100
AcDbSymbolTable
 70
     5
  0
APPID
  5
12
330
9
100
AcDbSymbolTableRecord
100
AcDbRegAppTableRecord
  2
ACAD
 70
     0
  0
APPID
  5
ECD
330
9
100
AcDbSymbolTableRecord
100
AcDbRegAppTableRecord
  2
CONTENTBLOCKICON
 70
     0
  0
APPID
  5
5B00
330
9
100
AcDbSymbolTableRecord
100
AcDbRegAppTableRecord
  2
ACAD_EXEMPT_FROM_CAD_STANDARDS
 70
     0
  0
APPID
  5
5B8B
330
9
100
AcDbSymbolTableRecord
100
AcDbRegAppTableRecord
  2
ACAD_NAV_VCDISPLAY
 70
     0
  0
APPID
  5
6012
330
9
100
AcDbSymbolTableRecord
100
AcDbRegAppTableRecord
  2
ACAD_MLEADERVER
 70
     0
  0
ENDTAB
  0
TABLE
  2
DIMSTYLE
  5
A
330
0
100
AcDbSymbolTable
 70
     1
100
AcDbDimStyleTable
 71
     1
340
175
  0
DIMSTYLE
105
175
102
{ACAD_REACTORS
330
5476
330
53E3
330
53E2
330
54D8
330
5923
330
5D25
330
5D31
330
5D32
330
5D34
330
5D38
330
5D44
330
5D45
330
5D53
330
5D67
330
5D6B
330
5F85
330
5F86
330
5B8E
330
5B9A
330
5B9B
330
5B9D
330
5BA1
330
5BAD
330
5BAE
330
5BBC
330
5BD0
330
5BD4
102
}
330
A
100
AcDbSymbolTableRecord
100
AcDbDimStyleTableRecord
  2
STANDARD
 70
     0
 41
2.0
 42
1.0
 43
0.5
 44
0.5
 73
     0
 77
     3
 78
    12
140
4.0
147
1.0
271
     1
272
     1
340
11
341
3B2
342
3B2
  0
ENDTAB
  0
TABLE
  2
BLOCK_RECORD
  5
1
330
0
100
AcDbSymbolTable
 70
    56
  0
BLOCK_RECORD
  5
1E
102
{ACAD_XDICTIONARY
360
178
102
}
330
1
100
AcDbSymbolTableRecord
100
AcDbBlockTableRecord
  2
*MODEL_SPACE
340
5A14
 70
     0
280
     1
281
     0
  0
BLOCK_RECORD
  5
1A
102
{ACAD_XDICTIONARY
360
17A
102
}
330
1
100
AcDbSymbolTableRecord
100
AcDbBlockTableRecord
  2
*PAPER_SPACE
340
5A15
 70
     0
280
     1
281
     0
  0
BLOCK_RECORD
  5
3B2
330
1
100
AcDbSymbolTableRecord
100
AcDbBlockTableRecord
  2
_OPEN
340
0
102
{BLKREFS
331
5C86
331
5C87
331
5C92
331
5C93
331
5974
331
5975
331
598F
331
5990
331
5998
331
5999
331
596B
331
596C
331
59A1
331
59A2
331
5986
331
5987
331
59AA
331
59AB
331
597D
331
597E
331
59B5
331
59B6
331
5743
331
5744
331
5720
331
5721
331
570F
331
5962
331
5963
331
5928
331
5929
331
5FA3
331
5FA4
331
5FAC
331
5FAD
331
5C24
331
5C25
331
5C30
331
5C31
331
5C3C
331
5C3D
331
5C48
331
5C49
331
5C54
331
5C55
331
5C60
331
5C61
331
5C6C
331
5C6D
331
5C78
331
5C79
331
5B3A
331
5B3B
331
5B46
331
5B47
331
5B52
331
5B53
331
5B5E
331
5B5F
331
5B6A
331
5B6B
331
5B78
331
5B79
331
5B84
331
5B85
331
5E66
331
5E67
331
5E71
331
5E72
331
5E7A
331
5E7B
331
5E88
331
5E89
331
5E94
331
5E95
331
573A
331
573B
331
5731
331
5732
331
5728
331
5729
331
5B16
331
5B17
331
5B22
331
5B23
331
5B2E
331
5B2F
331
5E27
331
5E28
331
5E30
331
5E31
331
5E39
331
5E3A
331
5E42
331
5E43
331
5E4B
331
5E4C
331
5E54
331
5E55
331
5E5D
331
5E5E
102
}
 70
     0
280
     1
281
     0
  0
BLOCK_RECORD
  5
507D
330
1
100
AcDbSymbolTableRecord
100
AcDbBlockTableRecord
  2
*U1
340
0
 70
     0
280
     1
281
     0
  0
BLOCK_RECORD
  5
5209
330
1
100
AcDbSymbolTableRecord
100
AcDbBlockTableRecord
  2
*D2
340
0
 70
     0
280
     1
281
     0
  0
BLOCK_RECORD
  5
5221
330
1
100
AcDbSymbolTableRecord
100
AcDbBlockTableRecord
  2
*D3
340
0
 70
     0
280
     1
281
     0
  0
BLOCK_RECORD
  5
522D
330
1
100
AcDbSymbolTableRecord
100
AcDbBlockTableRecord
  2
*D4
340
0
 70
     0
280
     1
281
     0
  0
BLOCK_RECORD
  5
5239
330
1
100
AcDbSymbolTableRecord
100
AcDbBlockTableRecord
  2
*D5
340
0
 70
     0
280
     1
281
     0
  0
BLOCK_RECORD
  5
5245
330
1
100
AcDbSymbolTableRecord
100
AcDbBlockTableRecord
  2
*D6
340
0
 70
     0
280
     1
281
     0
  0
BLOCK_RECORD
  5
5251
330
1
100
AcDbSymbolTableRecord
100
AcDbBlockTableRecord
  2
*D7
340
0
 70
     0
280
     1
281
     0
  0
BLOCK_RECORD
  5
525D
330
1
100
AcDbSymbolTableRecord
100
AcDbBlockTableRecord
  2
*D8
340
0
 70
     0
280
     1
281
     0
  0
BLOCK_RECORD
  5
5269
330
1
100
AcDbSymbolTableRecord
100
AcDbBlockTableRecord
  2
*D9
340
0
 70
     0
280
     1
281
     0
  0
BLOCK_RECORD
  5
5275
330
1
100
AcDbSymbolTableRecord
100
AcDbBlockTableRecord
  2
*D10
340
0
 70
     0
280
     1
281
     0
  0
BLOCK_RECORD
  5
5407
330
1
100
AcDbSymbolTableRecord
100
AcDbBlockTableRecord
  2
*D11
340
0
 70
     0
280
     1
281
     0
  0
BLOCK_RECORD
  5
5413
330
1
100
AcDbSymbolTableRecord
100
AcDbBlockTableRecord
  2
*D12
340
0
 70
     0
280
     1
281
     0
  0
BLOCK_RECORD
  5
5432
330
1
100
AcDbSymbolTableRecord
100
AcDbBlockTableRecord
  2
*D13
340
0
 70
     0
280
     1
281
     0
  0
BLOCK_RECORD
  5
543F
330
1
100
AcDbSymbolTableRecord
100
AcDbBlockTableRecord
  2
*D14
340
0
 70
     0
280
     1
281
     0
  0
BLOCK_RECORD
  5
5477
330
1
100
AcDbSymbolTableRecord
100
AcDbBlockTableRecord
  2
*D15
340
0
 70
     0
280
     1
281
     0
  0
BLOCK_RECORD
  5
54D9
330
1
100
AcDbSymbolTableRecord
100
AcDbBlockTableRecord
  2
*D16
340
0
 70
     0
280
     1
281
     0
  0
BLOCK_RECORD
  5
55FF
330
1
100
AcDbSymbolTableRecord
100
AcDbBlockTableRecord
  2
*D17
340
0
 70
     0
280
     1
281
     0
  0
BLOCK_RECORD
  5
5924
330
1
100
AcDbSymbolTableRecord
100
AcDbBlockTableRecord
  2
*D18
340
0
 70
     0
280
     1
281
     0
  0
BLOCK_RECORD
  5
5B09
330
1
100
AcDbSymbolTableRecord
100
AcDbBlockTableRecord
  2
*U19
340
0
102
{BLKREFS
331
5B9C
102
}
 70
     0
280
     1
281
     0
  0
BLOCK_RECORD
  5
5B11
330
1
100
AcDbSymbolTableRecord
100
AcDbBlockTableRecord
  2
*D20
340
0
 70
     0
280
     1
281
     0
  0
BLOCK_RECORD
  5
5B1D
330
1
100
AcDbSymbolTableRecord
100
AcDbBlockTableRecord
  2
*D21
340
0
 70
     0
280
     1
281
     0
  0
BLOCK_RECORD
  5
5B29
330
1
100
AcDbSymbolTableRecord
100
AcDbBlockTableRecord
  2
*D22
340
0
 70
     0
280
     1
281
     0
  0
BLOCK_RECORD
  5
5B35
330
1
100
AcDbSymbolTableRecord
100
AcDbBlockTableRecord
  2
*D23
340
0
 70
     0
280
     1
281
     0
  0
BLOCK_RECORD
  5
5B41
330
1
100
AcDbSymbolTableRecord
100
AcDbBlockTableRecord
  2
*D24
340
0
 70
     0
280
     1
281
     0
  0
BLOCK_RECORD
  5
5B4D
330
1
100
AcDbSymbolTableRecord
100
AcDbBlockTableRecord
  2
*D25
340
0
 70
     0
280
     1
281
     0
  0
BLOCK_RECORD
  5
5B59
330
1
100
AcDbSymbolTableRecord
100
AcDbBlockTableRecord
  2
*D26
340
0
 70
     0
280
     1
281
     0
  0
BLOCK_RECORD
  5
5B65
330
1
100
AcDbSymbolTableRecord
100
AcDbBlockTableRecord
  2
*D27
340
0
 70
     0
280
     1
281
     0
  0
BLOCK_RECORD
  5
5B71
330
1
100
AcDbSymbolTableRecord
100
AcDbBlockTableRecord
  2
*D28
340
0
 70
     0
280
     1
281
     0
  0
BLOCK_RECORD
  5
5B7F
330
1
100
AcDbSymbolTableRecord
100
AcDbBlockTableRecord
  2
*D29
340
0
 70
     0
280
     1
281
     0
  0
BLOCK_RECORD
  5
5B8C
102
{ACAD_XDICTIONARY
360
5C13
102
}
330
1
100
AcDbSymbolTableRecord
100
AcDbBlockTableRecord
  2
A$C62570FBC
340
0
 70
     0
280
     1
281
     0
  0
BLOCK_RECORD
  5
5C17
330
1
100
AcDbSymbolTableRecord
100
AcDbBlockTableRecord
  2
*U31
340
0
102
{BLKREFS
331
5D33
102
}
 70
     0
280
     1
281
     0
  0
BLOCK_RECORD
  5
5C1F
330
1
100
AcDbSymbolTableRecord
100
AcDbBlockTableRecord
  2
*D32
340
0
 70
     0
280
     1
281
     0
  0
BLOCK_RECORD
  5
5C2B
330
1
100
AcDbSymbolTableRecord
100
AcDbBlockTableRecord
  2
*D33
340
0
 70
     0
280
     1
281
     0
  0
BLOCK_RECORD
  5
5C37
330
1
100
AcDbSymbolTableRecord
100
AcDbBlockTableRecord
  2
*D34
340
0
 70
     0
280
     1
281
     0
  0
BLOCK_RECORD
  5
5C43
330
1
100
AcDbSymbolTableRecord
100
AcDbBlockTableRecord
  2
*D35
340
0
 70
     0
280
     1
281
     0
  0
BLOCK_RECORD
  5
5C4F
330
1
100
AcDbSymbolTableRecord
100
AcDbBlockTableRecord
  2
*D36
340
0
 70
     0
280
     1
281
     0
  0
BLOCK_RECORD
  5
5C5B
330
1
100
AcDbSymbolTableRecord
100
AcDbBlockTableRecord
  2
*D37
340
0
 70
     0
280
     1
281
     0
  0
BLOCK_RECORD
  5
5C67
330
1
100
AcDbSymbolTableRecord
100
AcDbBlockTableRecord
  2
*D38
340
0
 70
     0
280
     1
281
     0
  0
BLOCK_RECORD
  5
5C73
330
1
100
AcDbSymbolTableRecord
100
AcDbBlockTableRecord
  2
*D39
340
0
 70
     0
280
     1
281
     0
  0
BLOCK_RECORD
  5
5C7F
330
1
100
AcDbSymbolTableRecord
100
AcDbBlockTableRecord
  2
*D40
340
0
 70
     0
280
     1
281
     0
  0
BLOCK_RECORD
  5
5C8D
330
1
100
AcDbSymbolTableRecord
100
AcDbBlockTableRecord
  2
*D41
340
0
 70
     0
280
     1
281
     0
  0
BLOCK_RECORD
  5
5DAA
330
1
100
AcDbSymbolTableRecord
100
AcDbBlockTableRecord
  2
*D42
340
0
 70
     0
280
     1
281
     0
  0
BLOCK_RECORD
  5
5DB6
330
1
100
AcDbSymbolTableRecord
100
AcDbBlockTableRecord
  2
*D43
340
0
 70
     0
280
     1
281
     0
  0
BLOCK_RECORD
  5
5DC2
330
1
100
AcDbSymbolTableRecord
100
AcDbBlockTableRecord
  2
*D44
340
0
 70
     0
280
     1
281
     0
  0
BLOCK_RECORD
  5
5DCE
330
1
100
AcDbSymbolTableRecord
100
AcDbBlockTableRecord
  2
*D45
340
0
 70
     0
280
     1
281
     0
  0
BLOCK_RECORD
  5
5DDA
330
1
100
AcDbSymbolTableRecord
100
AcDbBlockTableRecord
  2
*D46
340
0
 70
     0
280
     1
281
     0
  0
BLOCK_RECORD
  5
5DE6
330
1
100
AcDbSymbolTableRecord
100
AcDbBlockTableRecord
  2
*D47
340
0
 70
     0
280
     1
281
     0
  0
BLOCK_RECORD
  5
5DF2
330
1
100
AcDbSymbolTableRecord
100
AcDbBlockTableRecord
  2
*D48
340
0
 70
     0
280
     1
281
     0
  0
BLOCK_RECORD
  5
5DFE
330
1
100
AcDbSymbolTableRecord
100
AcDbBlockTableRecord
  2
*D49
340
0
 70
     0
280
     1
281
     0
  0
BLOCK_RECORD
  5
5E0A
330
1
100
AcDbSymbolTableRecord
100
AcDbBlockTableRecord
  2
*D50
340
0
 70
     0
280
     1
281
     0
  0
BLOCK_RECORD
  5
5E18
330
1
100
AcDbSymbolTableRecord
100
AcDbBlockTableRecord
  2
*D51
340
0
 70
     0
280
     1
281
     0
  0
BLOCK_RECORD
  5
5E83
330
1
100
AcDbSymbolTableRecord
100
AcDbBlockTableRecord
  2
*D52
340
0
 70
     0
280
     1
281
     0
  0
BLOCK_RECORD
  5
5E8F
330
1
100
AcDbSymbolTableRecord
100
AcDbBlockTableRecord
  2
*D53
340
0
 70
     0
280
     1
281
     0
  0
BLOCK_RECORD
  5
5F88
330
1
100
AcDbSymbolTableRecord
100
AcDbBlockTableRecord
  2
*D54
340
0
 70
     0
280
     1
281
     0
  0
BLOCK_RECORD
  5
5F94
330
1
100
AcDbSymbolTableRecord
100
AcDbBlockTableRecord
  2
*D55
340
0
 70
     0
280
     1
281
     0
  0
ENDTAB
  0
ENDSEC
  0
SECTION
  2
BLOCKS
  0
BLOCK
  5
1F
330
1E
100
AcDbEntity
  8
0
100
AcDbBlockBegin
  2
*MODEL_SPACE
 70
     0
 10
0.0
 20
0.0
 30
0.0
  3
*MODEL_SPACE
  1

  0
ENDBLK
  5
20
330
1E
100
AcDbEntity
  8
0
100
AcDbBlockEnd
  0
BLOCK
  5
1B
330
1A
100
AcDbEntity
 67
     1
  8
0
100
AcDbBlockBegin
  2
*PAPER_SPACE
 70
     0
 10
0.0
 20
0.0
 30
0.0
  3
*PAPER_SPACE
  1

  0
ENDBLK
  5
1C
330
1A
100
AcDbEntity
 67
     1
  8
0
100
AcDbBlockEnd
  0
BLOCK
  5
3B6
330
3B2
100
AcDbEntity
  8
0
100
AcDbBlockBegin
  2
_OPEN
 70
     0
 10
0.0
 20
0.0
 30
0.0
  3
_OPEN
  1

  0
LINE
  5
3B3
330
3B2
100
AcDbEntity
  8
30
  6
Continuous
 62
     0
100
AcDbLine
 10
-1.0
 20
0.166667
 30
0.0
 11
0.0
 21
0.0
 31
0.0
  0
LINE
  5
3B4
330
3B2
100
AcDbEntity
  8
30
  6
Continuous
 62
     0
100
AcDbLine
 10
-1.0
 20
-0.166667
 30
0.0
 11
0.0
 21
0.0
 31
0.0
  0
LINE
  5
3B5
330
3B2
100
AcDbEntity
  8
30
  6
Continuous
 62
     0
100
AcDbLine
 10
0.0
 20
0.0
 30
0.0
 11
-1.0
 21
0.0
 31
0.0
  0
ENDBLK
  5
3B7
330
3B2
100
AcDbEntity
  8
0
100
AcDbBlockEnd
  0
BLOCK
  5
5083
330
507D
100
AcDbEntity
  8
TOP
  6
Continuous
 62
     4
100
AcDbBlockBegin
  2
*U1
 70
     1
 10
0.0
 20
0.0
 30
0.0
  3
*U1
  1

  0
LINE
  5
507E
330
507D
100
AcDbEntity
  8
1
  6
ByBlock
 62
     0
100
AcDbLine
 10
287.2057572385031
 20
73.79512687471603
 30
0.0
 11
276.2057572385031
 21
73.79512687471603
 31
0.0
  0
LINE
  5
507F
330
507D
100
AcDbEntity
  8
1
  6
ByBlock
 62
     0
100
AcDbLine
 10
296.8913158503363
 20
94.37207082491942
 30
0.0
 11
287.2057572385031
 21
73.79512687471603
 31
0.0
  0
SOLID
  5
5080
330
507D
100
AcDbEntity
  8
1
  6
ByBlock
 62
     0
100
AcDbTrace
 10
296.8913158503363
 20
94.37207082491942
 30
0.0
 11
296.3411501381206
 21
92.42055119794148
 31
0.0
 12
295.7379635408423
 22
92.7044708682264
 32
0.0
 13
295.7379635408423
 23
92.7044708682264
 33
0.0
  0
TEXT
  5
5081
330
507D
100
AcDbEntity
  8
TOP
  6
ByBlock
 62
     0
100
AcDbText
 10
274.4739864025374
 20
72.54512687281603
 30
0.0
 40
2.500000003799998
  1
 
 41
1.189062499999995
  7
UGMTXT
100
AcDbText
  0
TEXT
  5
5082
330
507D
100
AcDbEntity
  8
TOP
  6
ByBlock
 62
     0
100
AcDbText
 10
272.742215566572
 20
72.54512687281603
 30
0.0
 40
2.500000003799998
  1
 
 41
1.189062499999995
  7
UGMTXT
100
AcDbText
  0
ENDBLK
  5
5084
330
507D
100
AcDbEntity
  8
0
100
AcDbBlockEnd
  0
BLOCK
  5
5213
330
5209
100
AcDbEntity
  8
0
100
AcDbBlockBegin
  2
*D2
 70
     1
 10
0.0
 20
0.0
 30
0.0
  3
*D2
  1

  0
LINE
  5
5971
330
5209
100
AcDbEntity
  8
30
  6
Continuous
 62
     0
100
AcDbLine
 10
208.0001089354264
 20
-3.499987637474178
 30
0.0
 11
208.0001089354264
 21
-172.8996379392699
 31
0.0
  0
LINE
  5
5972
330
5209
100
AcDbEntity
  8
30
  6
Continuous
 62
     0
100
AcDbLine
 10
244.9999257258451
 20
-106.9994751293082
 30
0.0
 11
244.9999257258451
 21
-172.8996379392699
 31
0.0
  0
LINE
  5
5973
330
5209
100
AcDbEntity
  8
30
  6
Continuous
 62
     0
100
AcDbLine
 10
210.0001089354264
 20
-172.3996379392698
 30
0.0
 11
242.9999257258451
 21
-172.3996379392698
 31
0.0
  0
INSERT
  5
5974
330
5209
100
AcDbEntity
  8
30
  6
Continuous
 62
     0
100
AcDbBlockReference
  2
_OPEN
 10
208.0001089354264
 20
-172.3996379392698
 30
0.0
 41
2.0
 42
2.0
 43
2.0
 50
180.0
  0
INSERT
  5
5975
330
5209
100
AcDbEntity
  8
30
  6
Continuous
 62
     0
100
AcDbBlockReference
  2
_OPEN
 10
244.9999257258451
 20
-172.3996379392698
 30
0.0
 41
2.0
 42
2.0
 43
2.0
  0
MTEXT
  5
5976
330
5209
100
AcDbEntity
  8
30
  6
Continuous
 62
     0
100
AcDbMText
 10
226.5000173306356
 20
-169.39963793927
 30
0.0
 40
4.0
 41
0.0
 46
0.0
 71
     5
 72
     1
  1
\A1;37
 73
     1
 44
1.0
1001
ACAD
1000
MTEXTBEGIN
1070
    73
1070
     1
1070
    44
1040
1.0
1070
    74
1070
     0
1000
MTEXTEND
  0
POINT
  5
5977
330
5209
100
AcDbEntity
  8
DEFPOINTS
  6
Continuous
 62
     0
100
AcDbPoint
 10
208.0001089354264
 20
-2.499987637474178
 30
0.0
  0
POINT
  5
5978
330
5209
100
AcDbEntity
  8
DEFPOINTS
  6
Continuous
 62
     0
100
AcDbPoint
 10
244.9999257258451
 20
-105.9994751293082
 30
0.0
  0
POINT
  5
5979
330
5209
100
AcDbEntity
  8
DEFPOINTS
  6
Continuous
 62
     0
100
AcDbPoint
 10
244.9999257258451
 20
-172.3996379392698
 30
0.0
  0
ENDBLK
  5
5214
330
5209
100
AcDbEntity
  8
0
100
AcDbBlockEnd
  0
BLOCK
  5
522B
330
5221
100
AcDbEntity
  8
0
100
AcDbBlockBegin
  2
*D3
 70
     1
 10
0.0
 20
0.0
 30
0.0
  3
*D3
  1

  0
LINE
  5
598C
330
5221
100
AcDbEntity
  8
30
  6
Continuous
 62
     0
100
AcDbLine
 10
244.9999257258451
 20
-106.9994751293082
 30
0.0
 11
244.9999257258451
 21
-172.8996379392699
 31
0.0
  0
LINE
  5
598D
330
5221
100
AcDbEntity
  8
30
  6
Continuous
 62
     0
100
AcDbLine
 10
401.9991483230286
 20
-67.99966824211003
 30
0.0
 11
401.9991483230286
 21
-172.8996379392699
 31
0.0
  0
LINE
  5
598E
330
5221
100
AcDbEntity
  8
30
  6
Continuous
 62
     0
100
AcDbLine
 10
246.9999257258451
 20
-172.3996379392698
 30
0.0
 11
399.9991483230287
 21
-172.3996379392698
 31
0.0
  0
INSERT
  5
598F
330
5221
100
AcDbEntity
  8
30
  6
Continuous
 62
     0
100
AcDbBlockReference
  2
_OPEN
 10
244.9999257258451
 20
-172.3996379392698
 30
0.0
 41
2.0
 42
2.0
 43
2.0
 50
180.0
  0
INSERT
  5
5990
330
5221
100
AcDbEntity
  8
30
  6
Continuous
 62
     0
100
AcDbBlockReference
  2
_OPEN
 10
401.9991483230286
 20
-172.3996379392698
 30
0.0
 41
2.0
 42
2.0
 43
2.0
  0
MTEXT
  5
5991
330
5221
100
AcDbEntity
  8
30
  6
Continuous
 62
     0
100
AcDbMText
 10
323.4995370244368
 20
-169.39963793927
 30
0.0
 40
4.0
 41
0.0
 46
0.0
 71
     5
 72
     1
  1
\A1;157
 73
     1
 44
1.0
1001
ACAD
1000
MTEXTBEGIN
1070
    73
1070
     1
1070
    44
1040
1.0
1070
    74
1070
     0
1000
MTEXTEND
  0
POINT
  5
5992
330
5221
100
AcDbEntity
  8
DEFPOINTS
  6
Continuous
 62
     0
100
AcDbPoint
 10
244.9999257258451
 20
-105.9994751293082
 30
0.0
  0
POINT
  5
5993
330
5221
100
AcDbEntity
  8
DEFPOINTS
  6
Continuous
 62
     0
100
AcDbPoint
 10
401.9991483230286
 20
-66.99966824211003
 30
0.0
  0
POINT
  5
5994
330
5221
100
AcDbEntity
  8
DEFPOINTS
  6
Continuous
 62
     0
100
AcDbPoint
 10
401.9991483230286
 20
-172.3996379392698
 30
0.0
  0
ENDBLK
  5
522C
330
5221
100
AcDbEntity
  8
0
100
AcDbBlockEnd
  0
BLOCK
  5
5237
330
522D
100
AcDbEntity
  8
0
100
AcDbBlockBegin
  2
*D4
 70
     1
 10
0.0
 20
0.0
 30
0.0
  3
*D4
  1

  0
LINE
  5
5995
330
522D
100
AcDbEntity
  8
30
  6
Continuous
 62
     0
100
AcDbLine
 10
244.9999257258451
 20
-106.9994751293082
 30
0.0
 11
244.9999257258451
 21
-147.8997617295273
 31
0.0
  0
LINE
  5
5996
330
522D
100
AcDbEntity
  8
30
  6
Continuous
 62
     0
100
AcDbLine
 10
351.9993959035433
 20
-67.99966824211003
 30
0.0
 11
351.9993959035433
 21
-147.8997617295273
 31
0.0
  0
LINE
  5
5997
330
522D
100
AcDbEntity
  8
30
  6
Continuous
 62
     0
100
AcDbLine
 10
246.9999257258451
 20
-147.3997617295276
 30
0.0
 11
349.9993959035433
 21
-147.3997617295276
 31
0.0
  0
INSERT
  5
5998
330
522D
100
AcDbEntity
  8
30
  6
Continuous
 62
     0
100
AcDbBlockReference
  2
_OPEN
 10
244.9999257258451
 20
-147.3997617295276
 30
0.0
 41
2.0
 42
2.0
 43
2.0
 50
180.0
  0
INSERT
  5
5999
330
522D
100
AcDbEntity
  8
30
  6
Continuous
 62
     0
100
AcDbBlockReference
  2
_OPEN
 10
351.9993959035433
 20
-147.3997617295276
 30
0.0
 41
2.0
 42
2.0
 43
2.0
  0
MTEXT
  5
599A
330
522D
100
AcDbEntity
  8
30
  6
Continuous
 62
     0
100
AcDbMText
 10
298.4996608146941
 20
-144.3997617295273
 30
0.0
 40
4.0
 41
0.0
 46
0.0
 71
     5
 72
     1
  1
\A1;107
 73
     1
 44
1.0
1001
ACAD
1000
MTEXTBEGIN
1070
    73
1070
     1
1070
    44
1040
1.0
1070
    74
1070
     0
1000
MTEXTEND
  0
POINT
  5
599B
330
522D
100
AcDbEntity
  8
DEFPOINTS
  6
Continuous
 62
     0
100
AcDbPoint
 10
244.9999257258451
 20
-105.9994751293082
 30
0.0
  0
POINT
  5
599C
330
522D
100
AcDbEntity
  8
DEFPOINTS
  6
Continuous
 62
     0
100
AcDbPoint
 10
351.9993959035433
 20
-66.99966824211003
 30
0.0
  0
POINT
  5
599D
330
522D
100
AcDbEntity
  8
DEFPOINTS
  6
Continuous
 62
     0
100
AcDbPoint
 10
351.9993959035433
 20
-147.3997617295276
 30
0.0
  0
ENDBLK
  5
5238
330
522D
100
AcDbEntity
  8
0
100
AcDbBlockEnd
  0
BLOCK
  5
5243
330
5239
100
AcDbEntity
  8
0
100
AcDbBlockBegin
  2
*D5
 70
     1
 10
0.0
 20
0.0
 30
0.0
  3
*D5
  1

  0
LINE
  5
5968
330
5239
100
AcDbEntity
  8
30
  6
Continuous
 62
     0
100
AcDbLine
 10
321.9995444518525
 20
-58.99970288688222
 30
0.0
 11
321.9995444518525
 21
-34.40031878568621
 31
0.0
  0
LINE
  5
5969
330
5239
100
AcDbEntity
  8
30
  6
Continuous
 62
     0
100
AcDbLine
 10
336.9994701776982
 20
-63.49968060463591
 30
0.0
 11
336.9994701776982
 21
-34.40031878568621
 31
0.0
  0
LINE
  5
596A
330
5239
100
AcDbEntity
  8
30
  6
Continuous
 62
     0
100
AcDbLine
 10
323.9995444518525
 20
-34.90031878568621
 30
0.0
 11
334.9994701776981
 21
-34.90031878568621
 31
0.0
  0
INSERT
  5
596B
330
5239
100
AcDbEntity
  8
30
  6
Continuous
 62
     0
100
AcDbBlockReference
  2
_OPEN
 10
321.9995444518525
 20
-34.90031878568621
 30
0.0
 41
2.0
 42
2.0
 43
2.0
 50
180.0
  0
INSERT
  5
596C
330
5239
100
AcDbEntity
  8
30
  6
Continuous
 62
     0
100
AcDbBlockReference
  2
_OPEN
 10
336.9994701776982
 20
-34.90031878568621
 30
0.0
 41
2.0
 42
2.0
 43
2.0
  0
MTEXT
  5
596D
330
5239
100
AcDbEntity
  8
30
  6
Continuous
 62
     0
100
AcDbMText
 10
329.4995073147753
 20
-31.90031878568621
 30
0.0
 40
4.0
 41
0.0
 46
0.0
 71
     5
 72
     1
  1
\A1;15
 73
     1
 44
1.0
1001
ACAD
1000
MTEXTBEGIN
1070
    73
1070
     1
1070
    44
1040
1.0
1070
    74
1070
     0
1000
MTEXTEND
  0
POINT
  5
596E
330
5239
100
AcDbEntity
  8
DEFPOINTS
  6
Continuous
 62
     0
100
AcDbPoint
 10
321.9995444518525
 20
-59.99970288688222
 30
0.0
  0
POINT
  5
596F
330
5239
100
AcDbEntity
  8
DEFPOINTS
  6
Continuous
 62
     0
100
AcDbPoint
 10
336.9994701776982
 20
-64.49968060463591
 30
0.0
  0
POINT
  5
5970
330
5239
100
AcDbEntity
  8
DEFPOINTS
  6
Continuous
 62
     0
100
AcDbPoint
 10
336.9994701776982
 20
-34.90031878568621
 30
0.0
  0
ENDBLK
  5
5244
330
5239
100
AcDbEntity
  8
0
100
AcDbBlockEnd
  0
BLOCK
  5
524F
330
5245
100
AcDbEntity
  8
0
100
AcDbBlockBegin
  2
*D6
 70
     1
 10
0.0
 20
0.0
 30
0.0
  3
*D6
  1

  0
LINE
  5
599E
330
5245
100
AcDbEntity
  8
30
  6
Continuous
 62
     0
100
AcDbLine
 10
230.0
 20
-96.99952464541125
 30
0.0
 11
230.0
 21
-147.8997617295273
 31
0.0
  0
LINE
  5
599F
330
5245
100
AcDbEntity
  8
30
  6
Continuous
 62
     0
100
AcDbLine
 10
244.9999257258451
 20
-106.9994751293082
 30
0.0
 11
244.9999257258451
 21
-147.8997617295273
 31
0.0
  0
LINE
  5
59A0
330
5245
100
AcDbEntity
  8
30
  6
Continuous
 62
     0
100
AcDbLine
 10
232.0
 20
-147.3997617295276
 30
0.0
 11
242.9999257258451
 21
-147.3997617295276
 31
0.0
  0
INSERT
  5
59A1
330
5245
100
AcDbEntity
  8
30
  6
Continuous
 62
     0
100
AcDbBlockReference
  2
_OPEN
 10
230.0
 20
-147.3997617295276
 30
0.0
 41
2.0
 42
2.0
 43
2.0
 50
180.0
  0
INSERT
  5
59A2
330
5245
100
AcDbEntity
  8
30
  6
Continuous
 62
     0
100
AcDbBlockReference
  2
_OPEN
 10
244.9999257258451
 20
-147.3997617295276
 30
0.0
 41
2.0
 42
2.0
 43
2.0
  0
MTEXT
  5
59A3
330
5245
100
AcDbEntity
  8
30
  6
Continuous
 62
     0
100
AcDbMText
 10
237.4999628629225
 20
-144.3997617295273
 30
0.0
 40
4.0
 41
0.0
 46
0.0
 71
     5
 72
     1
  1
\A1;15
 73
     1
 44
1.0
1001
ACAD
1000
MTEXTBEGIN
1070
    73
1070
     1
1070
    44
1040
1.0
1070
    74
1070
     0
1000
MTEXTEND
  0
POINT
  5
59A4
330
5245
100
AcDbEntity
  8
DEFPOINTS
  6
Continuous
 62
     0
100
AcDbPoint
 10
230.0
 20
-95.99952464541123
 30
0.0
  0
POINT
  5
59A5
330
5245
100
AcDbEntity
  8
DEFPOINTS
  6
Continuous
 62
     0
100
AcDbPoint
 10
244.9999257258451
 20
-105.9994751293082
 30
0.0
  0
POINT
  5
59A6
330
5245
100
AcDbEntity
  8
DEFPOINTS
  6
Continuous
 62
     0
100
AcDbPoint
 10
244.9999257258451
 20
-147.3997617295276
 30
0.0
  0
ENDBLK
  5
5250
330
5245
100
AcDbEntity
  8
0
100
AcDbBlockEnd
  0
BLOCK
  5
525B
330
5251
100
AcDbEntity
  8
0
100
AcDbBlockBegin
  2
*D7
 70
     1
 10
0.0
 20
0.0
 30
0.0
  3
*D7
  1

  0
LINE
  5
5983
330
5251
100
AcDbEntity
  8
30
  6
Continuous
 62
     0
100
AcDbLine
 10
386.9992225971832
 20
-70.49965587958421
 30
0.0
 11
386.9992225971832
 21
-122.8998855197852
 31
0.0
  0
LINE
  5
5984
330
5251
100
AcDbEntity
  8
30
  6
Continuous
 62
     0
100
AcDbLine
 10
401.9991483230286
 20
-77.28671009944187
 30
0.0
 11
401.9991483230286
 21
-122.8998855197852
 31
0.0
  0
LINE
  5
5985
330
5251
100
AcDbEntity
  8
30
  6
Continuous
 62
     0
100
AcDbLine
 10
388.9992225971832
 20
-122.3998855197852
 30
0.0
 11
399.9991483230287
 21
-122.3998855197852
 31
0.0
  0
INSERT
  5
5986
330
5251
100
AcDbEntity
  8
30
  6
Continuous
 62
     0
100
AcDbBlockReference
  2
_OPEN
 10
386.9992225971832
 20
-122.3998855197852
 30
0.0
 41
2.0
 42
2.0
 43
2.0
 50
180.0
  0
INSERT
  5
5987
330
5251
100
AcDbEntity
  8
30
  6
Continuous
 62
     0
100
AcDbBlockReference
  2
_OPEN
 10
401.9991483230286
 20
-122.3998855197852
 30
0.0
 41
2.0
 42
2.0
 43
2.0
  0
MTEXT
  5
5988
330
5251
100
AcDbEntity
  8
30
  6
Continuous
 62
     0
100
AcDbMText
 10
394.4991854601058
 20
-119.3998855197851
 30
0.0
 40
4.0
 41
0.0
 46
0.0
 71
     5
 72
     1
  1
\A1;15
 73
     1
 44
1.0
1001
ACAD
1000
MTEXTBEGIN
1070
    73
1070
     1
1070
    44
1040
1.0
1070
    74
1070
     0
1000
MTEXTEND
  0
POINT
  5
5989
330
5251
100
AcDbEntity
  8
DEFPOINTS
  6
Continuous
 62
     0
100
AcDbPoint
 10
386.9992225971832
 20
-69.49965587958423
 30
0.0
  0
POINT
  5
598A
330
5251
100
AcDbEntity
  8
DEFPOINTS
  6
Continuous
 62
     0
100
AcDbPoint
 10
401.9991483230286
 20
-76.28671009944188
 30
0.0
  0
POINT
  5
598B
330
5251
100
AcDbEntity
  8
DEFPOINTS
  6
Continuous
 62
     0
100
AcDbPoint
 10
401.9991483230286
 20
-122.3998855197852
 30
0.0
  0
ENDBLK
  5
525C
330
5251
100
AcDbEntity
  8
0
100
AcDbBlockEnd
  0
BLOCK
  5
5267
330
525D
100
AcDbEntity
  8
0
100
AcDbBlockBegin
  2
*D8
 70
     1
 10
0.0
 20
0.0
 30
0.0
  3
*D8
  1

  0
LINE
  5
59A7
330
525D
100
AcDbEntity
  8
30
  6
Continuous
 62
     0
100
AcDbLine
 10
336.9994701776982
 20
-70.49965587958421
 30
0.0
 11
336.9994701776982
 21
-122.8998855197852
 31
0.0
  0
LINE
  5
59A8
330
525D
100
AcDbEntity
  8
30
  6
Continuous
 62
     0
100
AcDbLine
 10
351.9993959035433
 20
-77.28671009944187
 30
0.0
 11
351.9993959035433
 21
-122.8998855197852
 31
0.0
  0
LINE
  5
59A9
330
525D
100
AcDbEntity
  8
30
  6
Continuous
 62
     0
100
AcDbLine
 10
338.9994701776981
 20
-122.3998855197852
 30
0.0
 11
349.9993959035433
 21
-122.3998855197852
 31
0.0
  0
INSERT
  5
59AA
330
525D
100
AcDbEntity
  8
30
  6
Continuous
 62
     0
100
AcDbBlockReference
  2
_OPEN
 10
336.9994701776982
 20
-122.3998855197852
 30
0.0
 41
2.0
 42
2.0
 43
2.0
 50
180.0
  0
INSERT
  5
59AB
330
525D
100
AcDbEntity
  8
30
  6
Continuous
 62
     0
100
AcDbBlockReference
  2
_OPEN
 10
351.9993959035433
 20
-122.3998855197852
 30
0.0
 41
2.0
 42
2.0
 43
2.0
  0
MTEXT
  5
59AC
330
525D
100
AcDbEntity
  8
30
  6
Continuous
 62
     0
100
AcDbMText
 10
344.4994330406207
 20
-119.3998855197851
 30
0.0
 40
4.0
 41
0.0
 46
0.0
 71
     5
 72
     1
  1
\A1;15
 73
     1
 44
1.0
1001
ACAD
1000
MTEXTBEGIN
1070
    73
1070
     1
1070
    44
1040
1.0
1070
    74
1070
     0
1000
MTEXTEND
  0
POINT
  5
59AD
330
525D
100
AcDbEntity
  8
DEFPOINTS
  6
Continuous
 62
     0
100
AcDbPoint
 10
336.9994701776982
 20
-69.49965587958423
 30
0.0
  0
POINT
  5
59AE
330
525D
100
AcDbEntity
  8
DEFPOINTS
  6
Continuous
 62
     0
100
AcDbPoint
 10
351.9993959035433
 20
-76.28671009944188
 30
0.0
  0
POINT
  5
59AF
330
525D
100
AcDbEntity
  8
DEFPOINTS
  6
Continuous
 62
     0
100
AcDbPoint
 10
351.9993959035433
 20
-122.3998855197852
 30
0.0
  0
ENDBLK
  5
5268
330
525D
100
AcDbEntity
  8
0
100
AcDbBlockEnd
  0
BLOCK
  5
5273
330
5269
100
AcDbEntity
  8
0
100
AcDbBlockBegin
  2
*D9
 70
     1
 10
0.0
 20
0.0
 30
0.0
  3
*D9
  1

  0
LINE
  5
597A
330
5269
100
AcDbEntity
  8
30
  6
Continuous
 62
     0
100
AcDbLine
 10
400.8555653978195
 20
-74.99962862922766
 30
0.0
 11
426.585751547754
 21
-74.99962862922767
 31
0.0
  0
LINE
  5
597B
330
5269
100
AcDbEntity
  8
30
  6
Continuous
 62
     0
100
AcDbLine
 10
400.8555653978195
 20
-58.99970785499242
 30
0.0
 11
426.585751547754
 21
-58.99970785499242
 31
0.0
  0
LINE
  5
597C
330
5269
100
AcDbEntity
  8
30
  6
Continuous
 62
     0
100
AcDbLine
 10
426.085751547754
 20
-72.99962862922767
 30
0.0
 11
426.085751547754
 21
-60.99970785499241
 31
0.0
  0
INSERT
  5
597D
330
5269
100
AcDbEntity
  8
30
  6
Continuous
 62
     0
100
AcDbBlockReference
  2
_OPEN
 10
426.085751547754
 20
-74.99962862922767
 30
0.0
 41
2.0
 42
2.0
 43
2.0
 50
270.0
  0
INSERT
  5
597E
330
5269
100
AcDbEntity
  8
30
  6
Continuous
 62
     0
100
AcDbBlockReference
  2
_OPEN
 10
426.085751547754
 20
-58.99970785499242
 30
0.0
 41
2.0
 42
2.0
 43
2.0
 50
90.0
  0
MTEXT
  5
597F
330
5269
100
AcDbEntity
  8
30
  6
Continuous
 62
     0
100
AcDbMText
 10
423.085751547754
 20
-66.99966824210996
 30
0.0
 40
4.0
 41
0.0
 46
0.0
 71
     5
 72
     1
  1
\A1;16
 11
0.0000000000000001
 21
1.0
 31
0.0
 73
     1
 44
1.0
1001
ACAD
1000
MTEXTBEGIN
1070
    73
1070
     1
1070
    44
1040
1.0
1070
    74
1070
     0
1000
MTEXTEND
  0
POINT
  5
5980
330
5269
100
AcDbEntity
  8
DEFPOINTS
  6
Continuous
 62
     0
100
AcDbPoint
 10
399.8555653978195
 20
-74.99962862922766
 30
0.0
  0
POINT
  5
5981
330
5269
100
AcDbEntity
  8
DEFPOINTS
  6
Continuous
 62
     0
100
AcDbPoint
 10
399.8555653978195
 20
-58.99970785499242
 30
0.0
  0
POINT
  5
5982
330
5269
100
AcDbEntity
  8
DEFPOINTS
  6
Continuous
 62
     0
100
AcDbPoint
 10
426.085751547754
 20
-58.99970785499242
 30
0.0
  0
ENDBLK
  5
5274
330
5269
100
AcDbEntity
  8
0
100
AcDbBlockEnd
  0
BLOCK
  5
5281
330
5275
100
AcDbEntity
  8
0
100
AcDbBlockBegin
  2
*D10
 70
     1
 10
0.0
 20
0.0
 30
0.0
  3
*D10
  1

  0
LINE
  5
59B0
330
5275
100
AcDbEntity
  8
30
  6
Continuous
 62
     0
100
AcDbLine
 10
402.9991483230286
 20
64.49968062113575
 30
0.0
 11
424.2524182144206
 21
64.49968062113573
 31
0.0
  0
LINE
  5
59B1
330
5275
100
AcDbEntity
  8
30
  6
Continuous
 62
     0
100
AcDbLine
 10
402.9991483230286
 20
69.49965586308424
 30
0.0
 11
424.2524182144206
 21
69.49965586308421
 31
0.0
  0
LINE
  5
59B2
330
5275
100
AcDbEntity
  8
30
  6
Continuous
 62
     0
100
AcDbLine
 10
423.7524182144206
 20
62.49968062113573
 30
0.0
 11
423.7524182144206
 21
60.49968062113574
 31
0.0
  0
LINE
  5
59B3
330
5275
100
AcDbEntity
  8
30
  6
Continuous
 62
     0
100
AcDbLine
 10
423.7524182144206
 20
71.49965586308423
 30
0.0
 11
423.7524182144206
 21
73.49965586308425
 31
0.0
  0
LINE
  5
59B4
330
5275
100
AcDbEntity
  8
30
  6
Continuous
 62
     0
100
AcDbLine
 10
423.7524182144206
 20
73.49965586308425
 30
0.0
 11
427.4190848810873
 21
73.49965586308425
 31
0.0
  0
INSERT
  5
59B5
330
5275
100
AcDbEntity
  8
30
  6
Continuous
 62
     0
100
AcDbBlockReference
  2
_OPEN
 10
423.7524182144206
 20
64.49968062113573
 30
0.0
 41
2.0
 42
2.0
 43
2.0
 50
90.0
  0
INSERT
  5
59B6
330
5275
100
AcDbEntity
  8
30
  6
Continuous
 62
     0
100
AcDbBlockReference
  2
_OPEN
 10
423.7524182144206
 20
69.49965586308421
 30
0.0
 41
2.0
 42
2.0
 43
2.0
 50
270.0
  0
MTEXT
  5
59B7
330
5275
100
AcDbEntity
  8
30
  6
Continuous
 62
     0
100
AcDbMText
 10
426.085751547754
 20
76.49965586308431
 30
0.0
 40
4.0
 41
0.0
 46
0.0
 71
     5
 72
     1
  1
\A1;5
 73
     1
 44
1.0
1001
ACAD
1000
MTEXTBEGIN
1070
    73
1070
     1
1070
    44
1040
1.0
1070
    74
1070
     0
1000
MTEXTEND
  0
POINT
  5
59B8
330
5275
100
AcDbEntity
  8
DEFPOINTS
  6
Continuous
 62
     0
100
AcDbPoint
 10
401.9991483230286
 20
64.49968062113575
 30
0.0
  0
POINT
  5
59B9
330
5275
100
AcDbEntity
  8
DEFPOINTS
  6
Continuous
 62
     0
100
AcDbPoint
 10
401.9991483230286
 20
69.49965586308424
 30
0.0
  0
POINT
  5
59BA
330
5275
100
AcDbEntity
  8
DEFPOINTS
  6
Continuous
 62
     0
100
AcDbPoint
 10
423.7524182144206
 20
69.49965586308421
 30
0.0
  0
ENDBLK
  5
5282
330
5275
100
AcDbEntity
  8
0
100
AcDbBlockEnd
  0
BLOCK
  5
5411
330
5407
100
AcDbEntity
  8
0
100
AcDbBlockBegin
  2
*D11
 70
     1
 10
0.0
 20
0.0
 30
0.0
  3
*D11
  1

  0
LINE
  5
5740
330
5407
100
AcDbEntity
  8
30
  6
Continuous
 62
     0
440
 16777216
100
AcDbLine
 10
-68.38009453517114
 20
-289.163123760855
 30
0.0
 11
-68.38009453517114
 21
-404.0636153436748
 31
0.0
  0
LINE
  5
5741
330
5407
100
AcDbEntity
  8
30
  6
Continuous
 62
     0
440
 16777216
100
AcDbLine
 10
67.61990546482874
 20
-289.163123760855
 30
0.0
 11
67.61990546482874
 21
-404.0636153436748
 31
0.0
  0
LINE
  5
5742
330
5407
100
AcDbEntity
  8
30
  6
Continuous
 62
     0
440
 16777216
100
AcDbLine
 10
-66.38009453517113
 20
-403.5636153436747
 30
0.0
 11
65.61990546482873
 21
-403.5636153436747
 31
0.0
  0
INSERT
  5
5743
330
5407
100
AcDbEntity
  8
30
  6
Continuous
 62
     0
440
 16777216
100
AcDbBlockReference
  2
_OPEN
 10
-68.38009453517114
 20
-403.5636153436747
 30
0.0
 41
2.0
 42
2.0
 43
2.0
 50
180.0
  0
INSERT
  5
5744
330
5407
100
AcDbEntity
  8
30
  6
Continuous
 62
     0
440
 16777216
100
AcDbBlockReference
  2
_OPEN
 10
67.61990546482874
 20
-403.5636153436747
 30
0.0
 41
2.0
 42
2.0
 43
2.0
  0
MTEXT
  5
5745
330
5407
100
AcDbEntity
  8
30
  6
Continuous
 62
     0
440
 16777216
100
AcDbMText
 10
-0.3800945351711958
 20
-400.5636153436748
 30
0.0
 40
4.0
 41
0.0
 46
0.0
 71
     5
 72
     1
  1
\A1;136
 73
     1
 44
1.0
1001
ACAD
1000
MTEXTBEGIN
1070
    73
1070
     1
1070
    44
1040
1.0
1070
    74
1070
     0
1000
MTEXTEND
  0
POINT
  5
5746
330
5407
100
AcDbEntity
  8
DEFPOINTS
  6
Continuous
 62
     0
440
 16777216
100
AcDbPoint
 10
-68.38009453517114
 20
-288.163123760855
 30
0.0
  0
POINT
  5
5747
330
5407
100
AcDbEntity
  8
DEFPOINTS
  6
Continuous
 62
     0
440
 16777216
100
AcDbPoint
 10
67.61990546482874
 20
-288.163123760855
 30
0.0
  0
POINT
  5
5748
330
5407
100
AcDbEntity
  8
DEFPOINTS
  6
Continuous
 62
     0
440
 16777216
100
AcDbPoint
 10
67.61990546482874
 20
-403.5636153436747
 30
0.0
  0
ENDBLK
  5
5412
330
5407
100
AcDbEntity
  8
0
100
AcDbBlockEnd
  0
BLOCK
  5
541D
330
5413
100
AcDbEntity
  8
0
100
AcDbBlockBegin
  2
*D12
 70
     1
 10
0.0
 20
0.0
 30
0.0
  3
*D12
  1

  0
LINE
  5
5737
330
5413
100
AcDbEntity
  8
30
  6
Continuous
 62
     0
440
 16777216
100
AcDbLine
 10
-63.38009453517095
 20
-344.1631237443548
 30
0.0
 11
-63.38009453517095
 21
-379.0636153436746
 31
0.0
  0
LINE
  5
5738
330
5413
100
AcDbEntity
  8
30
  6
Continuous
 62
     0
440
 16777216
100
AcDbLine
 10
62.61990546482903
 20
-344.1631237443548
 30
0.0
 11
62.61990546482903
 21
-379.0636153436746
 31
0.0
  0
LINE
  5
5739
330
5413
100
AcDbEntity
  8
30
  6
Continuous
 62
     0
440
 16777216
100
AcDbLine
 10
-61.38009453517097
 20
-378.5636153436747
 30
0.0
 11
60.61990546482903
 21
-378.5636153436747
 31
0.0
  0
INSERT
  5
573A
330
5413
100
AcDbEntity
  8
30
  6
Continuous
 62
     0
440
 16777216
100
AcDbBlockReference
  2
_OPEN
 10
-63.38009453517095
 20
-378.5636153436747
 30
0.0
 41
2.0
 42
2.0
 43
2.0
 50
180.0
  0
INSERT
  5
573B
330
5413
100
AcDbEntity
  8
30
  6
Continuous
 62
     0
440
 16777216
100
AcDbBlockReference
  2
_OPEN
 10
62.61990546482903
 20
-378.5636153436747
 30
0.0
 41
2.0
 42
2.0
 43
2.0
  0
MTEXT
  5
573C
330
5413
100
AcDbEntity
  8
30
  6
Continuous
 62
     0
440
 16777216
100
AcDbMText
 10
-0.3800945351709613
 20
-375.5636153436747
 30
0.0
 40
4.0
 41
0.0
 46
0.0
 71
     5
 72
     1
  1
\A1;126
 73
     1
 44
1.0
1001
ACAD
1000
MTEXTBEGIN
1070
    73
1070
     1
1070
    44
1040
1.0
1070
    74
1070
     0
1000
MTEXTEND
  0
POINT
  5
573D
330
5413
100
AcDbEntity
  8
DEFPOINTS
  6
Continuous
 62
     0
440
 16777216
100
AcDbPoint
 10
-63.38009453517095
 20
-343.1631237443548
 30
0.0
  0
POINT
  5
573E
330
5413
100
AcDbEntity
  8
DEFPOINTS
  6
Continuous
 62
     0
440
 16777216
100
AcDbPoint
 10
62.61990546482903
 20
-343.1631237443548
 30
0.0
  0
POINT
  5
573F
330
5413
100
AcDbEntity
  8
DEFPOINTS
  6
Continuous
 62
     0
440
 16777216
100
AcDbPoint
 10
62.61990546482903
 20
-378.5636153436747
 30
0.0
  0
ENDBLK
  5
541E
330
5413
100
AcDbEntity
  8
0
100
AcDbBlockEnd
  0
BLOCK
  5
543C
330
5432
100
AcDbEntity
  8
0
100
AcDbBlockBegin
  2
*D13
 70
     1
 10
0.0
 20
0.0
 30
0.0
  3
*D13
  1

  0
LINE
  5
572E
330
5432
100
AcDbEntity
  8
30
  6
Continuous
 62
     0
100
AcDbLine
 10
-30.97790353517138
 20
271.3553751724501
 30
0.0
 11
-30.97790353517138
 21
326.6448107631839
 31
0.0
  0
LINE
  5
572F
330
5432
100
AcDbEntity
  8
30
  6
Continuous
 62
     0
100
AcDbLine
 10
-1.017903535171255
 20
322.3953751724502
 30
0.0
 11
-1.017903535171255
 21
326.6448107631839
 31
0.0
  0
LINE
  5
5730
330
5432
100
AcDbEntity
  8
30
  6
Continuous
 62
     0
100
AcDbLine
 10
-28.97790353517137
 20
326.1448107631839
 30
0.0
 11
-3.017903535171256
 21
326.1448107631839
 31
0.0
  0
INSERT
  5
5731
330
5432
100
AcDbEntity
  8
30
  6
Continuous
 62
     0
100
AcDbBlockReference
  2
_OPEN
 10
-30.97790353517138
 20
326.1448107631839
 30
0.0
 41
2.0
 42
2.0
 43
2.0
 50
180.0
  0
INSERT
  5
5732
330
5432
100
AcDbEntity
  8
30
  6
Continuous
 62
     0
100
AcDbBlockReference
  2
_OPEN
 10
-1.017903535171255
 20
326.1448107631839
 30
0.0
 41
2.0
 42
2.0
 43
2.0
  0
MTEXT
  5
5733
330
5432
100
AcDbEntity
  8
30
  6
Continuous
 62
     0
100
AcDbMText
 10
-15.99790353517131
 20
329.1448107631838
 30
0.0
 40
4.0
 41
0.0
 46
0.0
 71
     5
 72
     1
  1
\A1;30
 73
     1
 44
1.0
1001
ACAD
1000
MTEXTBEGIN
1070
    73
1070
     1
1070
    44
1040
1.0
1070
    74
1070
     0
1000
MTEXTEND
  0
POINT
  5
5734
330
5432
100
AcDbEntity
  8
DEFPOINTS
  6
Continuous
 62
     0
100
AcDbPoint
 10
-30.97790353517138
 20
270.3553751724502
 30
0.0
  0
POINT
  5
5735
330
5432
100
AcDbEntity
  8
DEFPOINTS
  6
Continuous
 62
     0
100
AcDbPoint
 10
-1.017903535171255
 20
321.3953751724502
 30
0.0
  0
POINT
  5
5736
330
5432
100
AcDbEntity
  8
DEFPOINTS
  6
Continuous
 62
     0
100
AcDbPoint
 10
-1.017903535171255
 20
326.1448107631839
 30
0.0
  0
ENDBLK
  5
543D
330
5432
100
AcDbEntity
  8
0
100
AcDbBlockEnd
  0
BLOCK
  5
5448
330
543F
100
AcDbEntity
  8
0
100
AcDbBlockBegin
  2
*D14
 70
     1
 10
0.0
 20
0.0
 30
0.0
  3
*D14
  1

  0
LINE
  5
5726
330
543F
100
AcDbEntity
  8
30
  6
Continuous
 62
     0
100
AcDbLine
 10
28.94209646482864
 20
271.7953751724501
 30
0.0
 11
28.94209646482864
 21
326.6448107631839
 31
0.0
  0
LINE
  5
5727
330
543F
100
AcDbEntity
  8
30
  6
Continuous
 62
     0
100
AcDbLine
 10
0.9820964648287436
 20
326.1448107631839
 30
0.0
 11
26.94209646482864
 21
326.1448107631839
 31
0.0
  0
INSERT
  5
5728
330
543F
100
AcDbEntity
  8
30
  6
Continuous
 62
     0
100
AcDbBlockReference
  2
_OPEN
 10
-1.017903535171255
 20
326.1448107631839
 30
0.0
 41
2.0
 42
2.0
 43
2.0
 50
180.0
  0
INSERT
  5
5729
330
543F
100
AcDbEntity
  8
30
  6
Continuous
 62
     0
100
AcDbBlockReference
  2
_OPEN
 10
28.94209646482864
 20
326.1448107631839
 30
0.0
 41
2.0
 42
2.0
 43
2.0
  0
MTEXT
  5
572A
330
543F
100
AcDbEntity
  8
30
  6
Continuous
 62
     0
100
AcDbMText
 10
13.96209646482867
 20
329.1448107631838
 30
0.0
 40
4.0
 41
0.0
 46
0.0
 71
     5
 72
     1
  1
\A1;30
 73
     1
 44
1.0
1001
ACAD
1000
MTEXTBEGIN
1070
    73
1070
     1
1070
    44
1040
1.0
1070
    74
1070
     0
1000
MTEXTEND
  0
POINT
  5
572B
330
543F
100
AcDbEntity
  8
DEFPOINTS
  6
Continuous
 62
     0
100
AcDbPoint
 10
-1.017903535171255
 20
326.6448107631839
 30
0.0
  0
POINT
  5
572C
330
543F
100
AcDbEntity
  8
DEFPOINTS
  6
Continuous
 62
     0
100
AcDbPoint
 10
28.94209646482864
 20
270.7953751724502
 30
0.0
  0
POINT
  5
572D
330
543F
100
AcDbEntity
  8
DEFPOINTS
  6
Continuous
 62
     0
100
AcDbPoint
 10
28.94209646482864
 20
326.1448107631839
 30
0.0
  0
ENDBLK
  5
5449
330
543F
100
AcDbEntity
  8
0
100
AcDbBlockEnd
  0
BLOCK
  5
5481
330
5477
100
AcDbEntity
  8
0
100
AcDbBlockBegin
  2
*D15
 70
     1
 10
0.0
 20
0.0
 30
0.0
  3
*D15
  1

  0
LINE
  5
571D
330
5477
100
AcDbEntity
  8
30
  6
Continuous
 62
     0
440
 16777216
100
AcDbLine
 10
-78.49974009536143
 20
-96.2647216513492
 30
0.0
 11
-78.49974009536143
 21
-124.781538972208
 31
0.0
  0
LINE
  5
571E
330
5477
100
AcDbEntity
  8
30
  6
Continuous
 62
     0
440
 16777216
100
AcDbLine
 10
78.49974009536143
 20
-96.2647216513492
 30
0.0
 11
78.49974009536143
 21
-124.781538972208
 31
0.0
  0
LINE
  5
571F
330
5477
100
AcDbEntity
  8
30
  6
Continuous
 62
     0
440
 16777216
100
AcDbLine
 10
-76.49974009536143
 20
-124.2815389722079
 30
0.0
 11
76.49974009536143
 21
-124.2815389722079
 31
0.0
  0
INSERT
  5
5720
330
5477
100
AcDbEntity
  8
30
  6
Continuous
 62
     0
440
 16777216
100
AcDbBlockReference
  2
_OPEN
 10
-78.49974009536143
 20
-124.2815389722079
 30
0.0
 41
2.0
 42
2.0
 43
2.0
 50
180.0
  0
INSERT
  5
5721
330
5477
100
AcDbEntity
  8
30
  6
Continuous
 62
     0
440
 16777216
100
AcDbBlockReference
  2
_OPEN
 10
78.49974009536143
 20
-124.2815389722079
 30
0.0
 41
2.0
 42
2.0
 43
2.0
  0
MTEXT
  5
5722
330
5477
100
AcDbEntity
  8
30
  6
Continuous
 62
     0
440
 16777216
100
AcDbMText
 10
0.0000000000000073
 20
-121.2815389722079
 30
0.0
 40
4.0
 41
0.0
 46
0.0
 71
     5
 72
     1
  1
\A1;157
 73
     1
 44
1.0
1001
ACAD
1000
MTEXTBEGIN
1070
    73
1070
     1
1070
    44
1040
1.0
1070
    74
1070
     0
1000
MTEXTEND
  0
POINT
  5
5723
330
5477
100
AcDbEntity
  8
DEFPOINTS
  6
Continuous
 62
     0
440
 16777216
100
AcDbPoint
 10
-78.49974009536143
 20
-95.2647216513492
 30
0.0
  0
POINT
  5
5724
330
5477
100
AcDbEntity
  8
DEFPOINTS
  6
Continuous
 62
     0
440
 16777216
100
AcDbPoint
 10
78.49974009536143
 20
-95.2647216513492
 30
0.0
  0
POINT
  5
5725
330
5477
100
AcDbEntity
  8
DEFPOINTS
  6
Continuous
 62
     0
440
 16777216
100
AcDbPoint
 10
78.49974009536143
 20
-124.2815389722079
 30
0.0
  0
ENDBLK
  5
5482
330
5477
100
AcDbEntity
  8
0
100
AcDbBlockEnd
  0
BLOCK
  5
54E2
330
54D9
100
AcDbEntity
  8
0
100
AcDbBlockBegin
  2
*D16
 70
     1
 10
0.0
 20
0.0
 30
0.0
  3
*D16
  1

  0
LINE
  5
570C
330
54D9
100
AcDbEntity
  8
30
  6
Continuous
 62
     0
440
 16777216
100
AcDbLine
 10
100.6510546521082
 20
-204.873116845163
 30
0.0
 11
92.9843786553388
 21
-204.873116845163
 31
0.0
  0
LINE
  5
570D
330
54D9
100
AcDbEntity
  8
30
  6
Continuous
 62
     0
440
 16777216
100
AcDbLine
 10
92.9843786553388
 20
-204.873116845163
 30
0.0
 11
70.37744715978293
 21
-215.9520029230797
 31
0.0
  0
MTEXT
  5
570E
102
{ACAD_XDICTIONARY
360
5FD8
102
}
330
54D9
100
AcDbEntity
  8
30
  6
Continuous
 62
     0
440
 16777216
100
AcDbMText
 10
97.31772131877509
 20
-201.8731168451628
 30
0.0
 40
4.0
 41
0.0
 46
0.0
 71
     5
 72
     1
  1
\A1;∅6
 73
     1
 44
1.0
1001
ACAD
1000
MTEXTBEGIN
1070
    73
1070
     1
1070
    44
1040
1.0
1070
    74
1070
     0
1000
MTEXTEND
  0
INSERT
  5
570F
330
54D9
100
AcDbEntity
  8
30
  6
Continuous
 62
     0
440
 16777216
100
AcDbBlockReference
  2
_OPEN
 10
68.58151331877514
 20
-216.8321288451628
 30
0.0
 41
2.0
 42
2.0
 43
2.0
 50
206.1078983677151
  0
LINE
  5
5710
330
54D9
100
AcDbEntity
  8
30
  6
Continuous
 62
     0
440
 16777216
100
AcDbLine
 10
65.79761231877512
 20
-218.152317845163
 30
0.0
 11
65.9776123187751
 21
-218.152317845163
 31
0.0
  0
LINE
  5
5711
330
54D9
100
AcDbEntity
  8
30
  6
Continuous
 62
     0
440
 16777216
100
AcDbLine
 10
65.88761231877509
 20
-218.2423178451629
 30
0.0
 11
65.88761231877509
 21
-218.0623178451631
 31
0.0
  0
POINT
  5
5712
330
54D9
100
AcDbEntity
  8
DEFPOINTS
  6
Continuous
 62
     0
440
 16777216
100
AcDbPoint
 10
68.58151331877514
 20
-216.8321288451628
 30
0.0
  0
POINT
  5
5713
330
54D9
100
AcDbEntity
  8
DEFPOINTS
  6
Continuous
 62
     0
440
 16777216
100
AcDbPoint
 10
63.19371131877503
 20
-219.4725068451631
 30
0.0
  0
ENDBLK
  5
54E3
330
54D9
100
AcDbEntity
  8
0
100
AcDbBlockEnd
  0
BLOCK
  5
5609
330
55FF
100
AcDbEntity
  8
0
100
AcDbBlockBegin
  2
*D17
 70
     1
 10
0.0
 20
0.0
 30
0.0
  3
*D17
  1

  0
LINE
  5
595F
330
55FF
100
AcDbEntity
  8
30
  6
Continuous
 62
     0
100
AcDbLine
 10
412.9990988069256
 20
66.99966824210996
 30
0.0
 11
438.2367141808033
 21
66.99966824210996
 31
0.0
  0
LINE
  5
5960
330
55FF
100
AcDbEntity
  8
30
  6
Continuous
 62
     0
100
AcDbLine
 10
427.085751547754
 20
-66.99966824211003
 30
0.0
 11
438.2367141808033
 21
-66.99966824211003
 31
0.0
  0
LINE
  5
5961
330
55FF
100
AcDbEntity
  8
30
  6
Continuous
 62
     0
100
AcDbLine
 10
437.7367141808033
 20
64.99966824210996
 30
0.0
 11
437.7367141808033
 21
-64.99966824211004
 31
0.0
  0
INSERT
  5
5962
330
55FF
100
AcDbEntity
  8
30
  6
Continuous
 62
     0
100
AcDbBlockReference
  2
_OPEN
 10
437.7367141808033
 20
66.99966824210996
 30
0.0
 41
2.0
 42
2.0
 43
2.0
 50
90.0
  0
INSERT
  5
5963
330
55FF
100
AcDbEntity
  8
30
  6
Continuous
 62
     0
100
AcDbBlockReference
  2
_OPEN
 10
437.7367141808033
 20
-66.99966824211003
 30
0.0
 41
2.0
 42
2.0
 43
2.0
 50
270.0
  0
MTEXT
  5
5964
330
55FF
100
AcDbEntity
  8
30
  6
Continuous
 62
     0
100
AcDbMText
 10
434.7367141808033
 20
0.0000000000000304
 30
0.0
 40
4.0
 41
0.0
 46
0.0
 71
     5
 72
     1
  1
\A1;134
 11
0.0000000000000001
 21
1.0
 31
0.0
 73
     1
 44
1.0
1001
ACAD
1000
MTEXTBEGIN
1070
    73
1070
     1
1070
    44
1040
1.0
1070
    74
1070
     0
1000
MTEXTEND
  0
POINT
  5
5965
330
55FF
100
AcDbEntity
  8
DEFPOINTS
  6
Continuous
 62
     0
100
AcDbPoint
 10
411.9990988069256
 20
66.99966824210996
 30
0.0
  0
POINT
  5
5966
330
55FF
100
AcDbEntity
  8
DEFPOINTS
  6
Continuous
 62
     0
100
AcDbPoint
 10
426.085751547754
 20
-66.99966824211003
 30
0.0
  0
POINT
  5
5967
330
55FF
100
AcDbEntity
  8
DEFPOINTS
  6
Continuous
 62
     0
100
AcDbPoint
 10
437.7367141808033
 20
-66.99966824211003
 30
0.0
  0
ENDBLK
  5
560A
330
55FF
100
AcDbEntity
  8
0
100
AcDbBlockEnd
  0
BLOCK
  5
592E
330
5924
100
AcDbEntity
  8
0
100
AcDbBlockBegin
  2
*D18
 70
     1
 10
0.0
 20
0.0
 30
0.0
  3
*D18
  1

  0
LINE
  5
5925
330
5924
100
AcDbEntity
  8
30
  6
Continuous
 62
     0
440
 16777216
100
AcDbLine
 10
-74.49975664979702
 20
-95.9996821548369
 30
0.0
 11
-95.50000000000002
 21
-95.9996821548369
 31
0.0
  0
LINE
  5
5926
330
5924
100
AcDbEntity
  8
30
  6
Continuous
 62
     0
440
 16777216
100
AcDbLine
 10
-74.49975664979702
 20
95.99968215483697
 30
0.0
 11
-95.5
 21
95.99968215483697
 31
0.0
  0
LINE
  5
5927
330
5924
100
AcDbEntity
  8
30
  6
Continuous
 62
     0
440
 16777216
100
AcDbLine
 10
-95.00000000000005
 20
-93.9996821548369
 30
0.0
 11
-95.0
 21
93.99968215483696
 31
0.0
  0
INSERT
  5
5928
330
5924
100
AcDbEntity
  8
30
  6
Continuous
 62
     0
440
 16777216
100
AcDbBlockReference
  2
_OPEN
 10
-95.00000000000005
 20
-95.9996821548369
 30
0.0
 41
2.0
 42
2.0
 43
2.0
 50
270.0
  0
INSERT
  5
5929
330
5924
100
AcDbEntity
  8
30
  6
Continuous
 62
     0
440
 16777216
100
AcDbBlockReference
  2
_OPEN
 10
-95.0
 20
95.99968215483697
 30
0.0
 41
2.0
 42
2.0
 43
2.0
 50
90.0
  0
MTEXT
  5
592A
330
5924
100
AcDbEntity
  8
30
  6
Continuous
 62
     0
440
 16777216
100
AcDbMText
 10
-98.00000000000002
 20
0.0000000000000204
 30
0.0
 40
4.0
 41
0.0
 46
0.0
 71
     5
 72
     1
  1
\A1;192
 11
0.0000000000000001
 21
1.0
 31
0.0
 73
     1
 44
1.0
1001
ACAD
1000
MTEXTBEGIN
1070
    73
1070
     1
1070
    44
1040
1.0
1070
    74
1070
     0
1000
MTEXTEND
  0
POINT
  5
592B
330
5924
100
AcDbEntity
  8
DEFPOINTS
  6
Continuous
 62
     0
440
 16777216
100
AcDbPoint
 10
-73.49975664979702
 20
-95.9996821548369
 30
0.0
  0
POINT
  5
592C
330
5924
100
AcDbEntity
  8
DEFPOINTS
  6
Continuous
 62
     0
440
 16777216
100
AcDbPoint
 10
-73.49975664979702
 20
95.99968215483697
 30
0.0
  0
POINT
  5
592D
330
5924
100
AcDbEntity
  8
DEFPOINTS
  6
Continuous
 62
     0
440
 16777216
100
AcDbPoint
 10
-95.0
 20
95.99968215483697
 30
0.0
  0
ENDBLK
  5
592F
330
5924
100
AcDbEntity
  8
0
100
AcDbBlockEnd
  0
BLOCK
  5
5B0A
330
5B09
100
AcDbEntity
  8
TOP
  6
Continuous
 62
     4
100
AcDbBlockBegin
  2
*U19
 70
     1
 10
0.0
 20
0.0
 30
0.0
  3
*U19
  1

  0
LINE
  5
5B0B
330
5B09
100
AcDbEntity
  8
1
  6
ByBlock
 62
     0
100
AcDbLine
 10
287.2057572385031
 20
73.79512687471603
 30
0.0
 11
276.2057572385031
 21
73.79512687471603
 31
0.0
  0
LINE
  5
5B0C
330
5B09
100
AcDbEntity
  8
1
  6
ByBlock
 62
     0
100
AcDbLine
 10
296.8913158503363
 20
94.37207082491942
 30
0.0
 11
287.2057572385031
 21
73.79512687471603
 31
0.0
  0
SOLID
  5
5B0D
330
5B09
100
AcDbEntity
  8
1
  6
ByBlock
 62
     0
100
AcDbTrace
 10
296.8913158503363
 20
94.37207082491942
 30
0.0
 11
296.3411501381206
 21
92.42055119794148
 31
0.0
 12
295.7379635408423
 22
92.7044708682264
 32
0.0
 13
295.7379635408423
 23
92.7044708682264
 33
0.0
  0
TEXT
  5
5B0E
330
5B09
100
AcDbEntity
  8
TOP
  6
ByBlock
 62
     0
100
AcDbText
 10
274.4739864025374
 20
72.54512687281603
 30
0.0
 40
2.500000003799998
  1
 
 41
1.189062499999995
  7
UGMTXT
100
AcDbText
  0
TEXT
  5
5B0F
330
5B09
100
AcDbEntity
  8
TOP
  6
ByBlock
 62
     0
100
AcDbText
 10
272.742215566572
 20
72.54512687281603
 30
0.0
 40
2.500000003799998
  1
 
 41
1.189062499999995
  7
UGMTXT
100
AcDbText
  0
ENDBLK
  5
5B10
330
5B09
100
AcDbEntity
  8
0
100
AcDbBlockEnd
  0
BLOCK
  5
5B12
330
5B11
100
AcDbEntity
  8
0
100
AcDbBlockBegin
  2
*D20
 70
     1
 10
0.0
 20
0.0
 30
0.0
  3
*D20
  1

  0
LINE
  5
5B13
330
5B11
100
AcDbEntity
  8
30
  6
Continuous
 62
     0
370
    -2
100
AcDbLine
 10
158.0001089354263
 20
-3.499987637474178
 30
0.0
 11
158.0001089354263
 21
-172.8996379392698
 31
0.0
  0
LINE
  5
5B14
330
5B11
100
AcDbEntity
  8
30
  6
Continuous
 62
     0
370
    -2
100
AcDbLine
 10
194.9999257258451
 20
-106.9994751293082
 30
0.0
 11
194.9999257258451
 21
-172.8996379392698
 31
0.0
  0
LINE
  5
5B15
330
5B11
100
AcDbEntity
  8
30
  6
Continuous
 62
     0
370
    -2
100
AcDbLine
 10
160.0001089354263
 20
-172.3996379392698
 30
0.0
 11
192.9999257258451
 21
-172.3996379392698
 31
0.0
  0
INSERT
  5
5B16
330
5B11
100
AcDbEntity
  8
30
  6
Continuous
 62
     0
370
    -2
100
AcDbBlockReference
  2
_OPEN
 10
158.0001089354263
 20
-172.3996379392698
 30
0.0
 41
2.0
 42
2.0
 43
2.0
 50
180.0
  0
INSERT
  5
5B17
330
5B11
100
AcDbEntity
  8
30
  6
Continuous
 62
     0
370
    -2
100
AcDbBlockReference
  2
_OPEN
 10
194.9999257258451
 20
-172.3996379392698
 30
0.0
 41
2.0
 42
2.0
 43
2.0
  0
MTEXT
  5
5B18
330
5B11
100
AcDbEntity
  8
30
  6
Continuous
 62
     0
100
AcDbMText
 10
176.5000173306356
 20
-169.3996379392698
 30
0.0
 40
4.0
 41
0.0
 46
0.0
 71
     5
 72
     1
  1
\A1;37
 73
     1
 44
1.0
1001
ACAD
1000
MTEXTBEGIN
1070
    73
1070
     1
1070
    44
1040
1.0
1070
    74
1070
     0
1000
MTEXTEND
  0
POINT
  5
5B19
330
5B11
100
AcDbEntity
  8
DEFPOINTS
  6
Continuous
 62
     0
100
AcDbPoint
 10
158.0001089354263
 20
-2.499987637474178
 30
0.0
  0
POINT
  5
5B1A
330
5B11
100
AcDbEntity
  8
DEFPOINTS
  6
Continuous
 62
     0
100
AcDbPoint
 10
194.9999257258451
 20
-105.9994751293082
 30
0.0
  0
POINT
  5
5B1B
330
5B11
100
AcDbEntity
  8
DEFPOINTS
  6
Continuous
 62
     0
100
AcDbPoint
 10
194.9999257258451
 20
-172.3996379392698
 30
0.0
  0
ENDBLK
  5
5B1C
330
5B11
100
AcDbEntity
  8
0
100
AcDbBlockEnd
  0
BLOCK
  5
5B1E
330
5B1D
100
AcDbEntity
  8
0
100
AcDbBlockBegin
  2
*D21
 70
     1
 10
0.0
 20
0.0
 30
0.0
  3
*D21
  1

  0
LINE
  5
5B1F
330
5B1D
100
AcDbEntity
  8
30
  6
Continuous
 62
     0
370
    -2
100
AcDbLine
 10
194.9999257258451
 20
-106.9994751293082
 30
0.0
 11
194.9999257258451
 21
-172.8996379392698
 31
0.0
  0
LINE
  5
5B20
330
5B1D
100
AcDbEntity
  8
30
  6
Continuous
 62
     0
370
    -2
100
AcDbLine
 10
351.9991483230286
 20
-67.99966824211003
 30
0.0
 11
351.9991483230286
 21
-172.8996379392698
 31
0.0
  0
LINE
  5
5B21
330
5B1D
100
AcDbEntity
  8
30
  6
Continuous
 62
     0
370
    -2
100
AcDbLine
 10
196.9999257258451
 20
-172.3996379392698
 30
0.0
 11
349.9991483230286
 21
-172.3996379392698
 31
0.0
  0
INSERT
  5
5B22
330
5B1D
100
AcDbEntity
  8
30
  6
Continuous
 62
     0
370
    -2
100
AcDbBlockReference
  2
_OPEN
 10
194.9999257258451
 20
-172.3996379392698
 30
0.0
 41
2.0
 42
2.0
 43
2.0
 50
180.0
  0
INSERT
  5
5B23
330
5B1D
100
AcDbEntity
  8
30
  6
Continuous
 62
     0
370
    -2
100
AcDbBlockReference
  2
_OPEN
 10
351.9991483230286
 20
-172.3996379392698
 30
0.0
 41
2.0
 42
2.0
 43
2.0
  0
MTEXT
  5
5B24
330
5B1D
100
AcDbEntity
  8
30
  6
Continuous
 62
     0
100
AcDbMText
 10
273.4995370244369
 20
-169.3996379392698
 30
0.0
 40
4.0
 41
0.0
 46
0.0
 71
     5
 72
     1
  1
\A1;157
 73
     1
 44
1.0
1001
ACAD
1000
MTEXTBEGIN
1070
    73
1070
     1
1070
    44
1040
1.0
1070
    74
1070
     0
1000
MTEXTEND
  0
POINT
  5
5B25
330
5B1D
100
AcDbEntity
  8
DEFPOINTS
  6
Continuous
 62
     0
100
AcDbPoint
 10
194.9999257258451
 20
-105.9994751293082
 30
0.0
  0
POINT
  5
5B26
330
5B1D
100
AcDbEntity
  8
DEFPOINTS
  6
Continuous
 62
     0
100
AcDbPoint
 10
351.9991483230286
 20
-66.99966824211003
 30
0.0
  0
POINT
  5
5B27
330
5B1D
100
AcDbEntity
  8
DEFPOINTS
  6
Continuous
 62
     0
100
AcDbPoint
 10
351.9991483230286
 20
-172.3996379392698
 30
0.0
  0
ENDBLK
  5
5B28
330
5B1D
100
AcDbEntity
  8
0
100
AcDbBlockEnd
  0
BLOCK
  5
5B2A
330
5B29
100
AcDbEntity
  8
0
100
AcDbBlockBegin
  2
*D22
 70
     1
 10
0.0
 20
0.0
 30
0.0
  3
*D22
  1

  0
LINE
  5
5B2B
330
5B29
100
AcDbEntity
  8
30
  6
Continuous
 62
     0
370
    -2
100
AcDbLine
 10
194.9999257258451
 20
-106.9994751293082
 30
0.0
 11
194.9999257258451
 21
-147.8997617295276
 31
0.0
  0
LINE
  5
5B2C
330
5B29
100
AcDbEntity
  8
30
  6
Continuous
 62
     0
370
    -2
100
AcDbLine
 10
301.9993959035433
 20
-67.99966824211003
 30
0.0
 11
301.9993959035433
 21
-147.8997617295276
 31
0.0
  0
LINE
  5
5B2D
330
5B29
100
AcDbEntity
  8
30
  6
Continuous
 62
     0
370
    -2
100
AcDbLine
 10
196.9999257258451
 20
-147.3997617295276
 30
0.0
 11
299.9993959035433
 21
-147.3997617295276
 31
0.0
  0
INSERT
  5
5B2E
330
5B29
100
AcDbEntity
  8
30
  6
Continuous
 62
     0
370
    -2
100
AcDbBlockReference
  2
_OPEN
 10
194.9999257258451
 20
-147.3997617295276
 30
0.0
 41
2.0
 42
2.0
 43
2.0
 50
180.0
  0
INSERT
  5
5B2F
330
5B29
100
AcDbEntity
  8
30
  6
Continuous
 62
     0
370
    -2
100
AcDbBlockReference
  2
_OPEN
 10
301.9993959035433
 20
-147.3997617295276
 30
0.0
 41
2.0
 42
2.0
 43
2.0
  0
MTEXT
  5
5B30
330
5B29
100
AcDbEntity
  8
30
  6
Continuous
 62
     0
100
AcDbMText
 10
248.4996608146942
 20
-144.3997617295276
 30
0.0
 40
4.0
 41
0.0
 46
0.0
 71
     5
 72
     1
  1
\A1;107
 73
     1
 44
1.0
1001
ACAD
1000
MTEXTBEGIN
1070
    73
1070
     1
1070
    44
1040
1.0
1070
    74
1070
     0
1000
MTEXTEND
  0
POINT
  5
5B31
330
5B29
100
AcDbEntity
  8
DEFPOINTS
  6
Continuous
 62
     0
100
AcDbPoint
 10
194.9999257258451
 20
-105.9994751293082
 30
0.0
  0
POINT
  5
5B32
330
5B29
100
AcDbEntity
  8
DEFPOINTS
  6
Continuous
 62
     0
100
AcDbPoint
 10
301.9993959035433
 20
-66.99966824211003
 30
0.0
  0
POINT
  5
5B33
330
5B29
100
AcDbEntity
  8
DEFPOINTS
  6
Continuous
 62
     0
100
AcDbPoint
 10
301.9993959035433
 20
-147.3997617295276
 30
0.0
  0
ENDBLK
  5
5B34
330
5B29
100
AcDbEntity
  8
0
100
AcDbBlockEnd
  0
BLOCK
  5
5B36
330
5B35
100
AcDbEntity
  8
0
100
AcDbBlockBegin
  2
*D23
 70
     1
 10
0.0
 20
0.0
 30
0.0
  3
*D23
  1

  0
LINE
  5
5B37
330
5B35
100
AcDbEntity
  8
30
  6
Continuous
 62
     0
370
    -2
100
AcDbLine
 10
271.9995444518525
 20
-58.99970288688222
 30
0.0
 11
271.9995444518525
 21
-34.40031878568621
 31
0.0
  0
LINE
  5
5B38
330
5B35
100
AcDbEntity
  8
30
  6
Continuous
 62
     0
370
    -2
100
AcDbLine
 10
286.9994701776981
 20
-63.49968060463591
 30
0.0
 11
286.9994701776981
 21
-34.40031878568621
 31
0.0
  0
LINE
  5
5B39
330
5B35
100
AcDbEntity
  8
30
  6
Continuous
 62
     0
370
    -2
100
AcDbLine
 10
273.9995444518525
 20
-34.90031878568621
 30
0.0
 11
284.9994701776981
 21
-34.90031878568621
 31
0.0
  0
INSERT
  5
5B3A
330
5B35
100
AcDbEntity
  8
30
  6
Continuous
 62
     0
370
    -2
100
AcDbBlockReference
  2
_OPEN
 10
271.9995444518525
 20
-34.90031878568621
 30
0.0
 41
2.0
 42
2.0
 43
2.0
 50
180.0
  0
INSERT
  5
5B3B
330
5B35
100
AcDbEntity
  8
30
  6
Continuous
 62
     0
370
    -2
100
AcDbBlockReference
  2
_OPEN
 10
286.9994701776981
 20
-34.90031878568621
 30
0.0
 41
2.0
 42
2.0
 43
2.0
  0
MTEXT
  5
5B3C
330
5B35
100
AcDbEntity
  8
30
  6
Continuous
 62
     0
100
AcDbMText
 10
279.4995073147753
 20
-31.90031878568621
 30
0.0
 40
4.0
 41
0.0
 46
0.0
 71
     5
 72
     1
  1
\A1;15
 73
     1
 44
1.0
1001
ACAD
1000
MTEXTBEGIN
1070
    73
1070
     1
1070
    44
1040
1.0
1070
    74
1070
     0
1000
MTEXTEND
  0
POINT
  5
5B3D
330
5B35
100
AcDbEntity
  8
DEFPOINTS
  6
Continuous
 62
     0
100
AcDbPoint
 10
271.9995444518525
 20
-59.99970288688222
 30
0.0
  0
POINT
  5
5B3E
330
5B35
100
AcDbEntity
  8
DEFPOINTS
  6
Continuous
 62
     0
100
AcDbPoint
 10
286.9994701776981
 20
-64.49968060463591
 30
0.0
  0
POINT
  5
5B3F
330
5B35
100
AcDbEntity
  8
DEFPOINTS
  6
Continuous
 62
     0
100
AcDbPoint
 10
286.9994701776981
 20
-34.90031878568621
 30
0.0
  0
ENDBLK
  5
5B40
330
5B35
100
AcDbEntity
  8
0
100
AcDbBlockEnd
  0
BLOCK
  5
5B42
330
5B41
100
AcDbEntity
  8
0
100
AcDbBlockBegin
  2
*D24
 70
     1
 10
0.0
 20
0.0
 30
0.0
  3
*D24
  1

  0
LINE
  5
5B43
330
5B41
100
AcDbEntity
  8
30
  6
Continuous
 62
     0
370
    -2
100
AcDbLine
 10
180.0
 20
-96.99952464541125
 30
0.0
 11
180.0
 21
-147.8997617295276
 31
0.0
  0
LINE
  5
5B44
330
5B41
100
AcDbEntity
  8
30
  6
Continuous
 62
     0
370
    -2
100
AcDbLine
 10
194.9999257258451
 20
-106.9994751293082
 30
0.0
 11
194.9999257258451
 21
-147.8997617295276
 31
0.0
  0
LINE
  5
5B45
330
5B41
100
AcDbEntity
  8
30
  6
Continuous
 62
     0
370
    -2
100
AcDbLine
 10
182.0
 20
-147.3997617295276
 30
0.0
 11
192.9999257258451
 21
-147.3997617295276
 31
0.0
  0
INSERT
  5
5B46
330
5B41
100
AcDbEntity
  8
30
  6
Continuous
 62
     0
370
    -2
100
AcDbBlockReference
  2
_OPEN
 10
180.0
 20
-147.3997617295276
 30
0.0
 41
2.0
 42
2.0
 43
2.0
 50
180.0
  0
INSERT
  5
5B47
330
5B41
100
AcDbEntity
  8
30
  6
Continuous
 62
     0
370
    -2
100
AcDbBlockReference
  2
_OPEN
 10
194.9999257258451
 20
-147.3997617295276
 30
0.0
 41
2.0
 42
2.0
 43
2.0
  0
MTEXT
  5
5B48
330
5B41
100
AcDbEntity
  8
30
  6
Continuous
 62
     0
100
AcDbMText
 10
187.4999628629225
 20
-144.3997617295276
 30
0.0
 40
4.0
 41
0.0
 46
0.0
 71
     5
 72
     1
  1
\A1;15
 73
     1
 44
1.0
1001
ACAD
1000
MTEXTBEGIN
1070
    73
1070
     1
1070
    44
1040
1.0
1070
    74
1070
     0
1000
MTEXTEND
  0
POINT
  5
5B49
330
5B41
100
AcDbEntity
  8
DEFPOINTS
  6
Continuous
 62
     0
100
AcDbPoint
 10
180.0
 20
-95.99952464541123
 30
0.0
  0
POINT
  5
5B4A
330
5B41
100
AcDbEntity
  8
DEFPOINTS
  6
Continuous
 62
     0
100
AcDbPoint
 10
194.9999257258451
 20
-105.9994751293082
 30
0.0
  0
POINT
  5
5B4B
330
5B41
100
AcDbEntity
  8
DEFPOINTS
  6
Continuous
 62
     0
100
AcDbPoint
 10
194.9999257258451
 20
-147.3997617295276
 30
0.0
  0
ENDBLK
  5
5B4C
330
5B41
100
AcDbEntity
  8
0
100
AcDbBlockEnd
  0
BLOCK
  5
5B4E
330
5B4D
100
AcDbEntity
  8
0
100
AcDbBlockBegin
  2
*D25
 70
     1
 10
0.0
 20
0.0
 30
0.0
  3
*D25
  1

  0
LINE
  5
5B4F
330
5B4D
100
AcDbEntity
  8
30
  6
Continuous
 62
     0
370
    -2
100
AcDbLine
 10
336.9992225971831
 20
-70.49965587958421
 30
0.0
 11
336.9992225971831
 21
-122.8998855197852
 31
0.0
  0
LINE
  5
5B50
330
5B4D
100
AcDbEntity
  8
30
  6
Continuous
 62
     0
370
    -2
100
AcDbLine
 10
351.9991483230286
 20
-77.28671009944187
 30
0.0
 11
351.9991483230286
 21
-122.8998855197852
 31
0.0
  0
LINE
  5
5B51
330
5B4D
100
AcDbEntity
  8
30
  6
Continuous
 62
     0
370
    -2
100
AcDbLine
 10
338.9992225971831
 20
-122.3998855197852
 30
0.0
 11
349.9991483230286
 21
-122.3998855197852
 31
0.0
  0
INSERT
  5
5B52
330
5B4D
100
AcDbEntity
  8
30
  6
Continuous
 62
     0
370
    -2
100
AcDbBlockReference
  2
_OPEN
 10
336.9992225971831
 20
-122.3998855197852
 30
0.0
 41
2.0
 42
2.0
 43
2.0
 50
180.0
  0
INSERT
  5
5B53
330
5B4D
100
AcDbEntity
  8
30
  6
Continuous
 62
     0
370
    -2
100
AcDbBlockReference
  2
_OPEN
 10
351.9991483230286
 20
-122.3998855197852
 30
0.0
 41
2.0
 42
2.0
 43
2.0
  0
MTEXT
  5
5B54
330
5B4D
100
AcDbEntity
  8
30
  6
Continuous
 62
     0
100
AcDbMText
 10
344.4991854601059
 20
-119.3998855197852
 30
0.0
 40
4.0
 41
0.0
 46
0.0
 71
     5
 72
     1
  1
\A1;15
 73
     1
 44
1.0
1001
ACAD
1000
MTEXTBEGIN
1070
    73
1070
     1
1070
    44
1040
1.0
1070
    74
1070
     0
1000
MTEXTEND
  0
POINT
  5
5B55
330
5B4D
100
AcDbEntity
  8
DEFPOINTS
  6
Continuous
 62
     0
100
AcDbPoint
 10
336.9992225971831
 20
-69.49965587958423
 30
0.0
  0
POINT
  5
5B56
330
5B4D
100
AcDbEntity
  8
DEFPOINTS
  6
Continuous
 62
     0
100
AcDbPoint
 10
351.9991483230286
 20
-76.28671009944188
 30
0.0
  0
POINT
  5
5B57
330
5B4D
100
AcDbEntity
  8
DEFPOINTS
  6
Continuous
 62
     0
100
AcDbPoint
 10
351.9991483230286
 20
-122.3998855197852
 30
0.0
  0
ENDBLK
  5
5B58
330
5B4D
100
AcDbEntity
  8
0
100
AcDbBlockEnd
  0
BLOCK
  5
5B5A
330
5B59
100
AcDbEntity
  8
0
100
AcDbBlockBegin
  2
*D26
 70
     1
 10
0.0
 20
0.0
 30
0.0
  3
*D26
  1

  0
LINE
  5
5B5B
330
5B59
100
AcDbEntity
  8
30
  6
Continuous
 62
     0
370
    -2
100
AcDbLine
 10
286.9994701776981
 20
-70.49965587958421
 30
0.0
 11
286.9994701776981
 21
-122.8998855197852
 31
0.0
  0
LINE
  5
5B5C
330
5B59
100
AcDbEntity
  8
30
  6
Continuous
 62
     0
370
    -2
100
AcDbLine
 10
301.9993959035433
 20
-77.28671009944187
 30
0.0
 11
301.9993959035433
 21
-122.8998855197852
 31
0.0
  0
LINE
  5
5B5D
330
5B59
100
AcDbEntity
  8
30
  6
Continuous
 62
     0
370
    -2
100
AcDbLine
 10
288.9994701776981
 20
-122.3998855197852
 30
0.0
 11
299.9993959035433
 21
-122.3998855197852
 31
0.0
  0
INSERT
  5
5B5E
330
5B59
100
AcDbEntity
  8
30
  6
Continuous
 62
     0
370
    -2
100
AcDbBlockReference
  2
_OPEN
 10
286.9994701776981
 20
-122.3998855197852
 30
0.0
 41
2.0
 42
2.0
 43
2.0
 50
180.0
  0
INSERT
  5
5B5F
330
5B59
100
AcDbEntity
  8
30
  6
Continuous
 62
     0
370
    -2
100
AcDbBlockReference
  2
_OPEN
 10
301.9993959035433
 20
-122.3998855197852
 30
0.0
 41
2.0
 42
2.0
 43
2.0
  0
MTEXT
  5
5B60
330
5B59
100
AcDbEntity
  8
30
  6
Continuous
 62
     0
100
AcDbMText
 10
294.4994330406207
 20
-119.3998855197852
 30
0.0
 40
4.0
 41
0.0
 46
0.0
 71
     5
 72
     1
  1
\A1;15
 73
     1
 44
1.0
1001
ACAD
1000
MTEXTBEGIN
1070
    73
1070
     1
1070
    44
1040
1.0
1070
    74
1070
     0
1000
MTEXTEND
  0
POINT
  5
5B61
330
5B59
100
AcDbEntity
  8
DEFPOINTS
  6
Continuous
 62
     0
100
AcDbPoint
 10
286.9994701776981
 20
-69.49965587958423
 30
0.0
  0
POINT
  5
5B62
330
5B59
100
AcDbEntity
  8
DEFPOINTS
  6
Continuous
 62
     0
100
AcDbPoint
 10
301.9993959035433
 20
-76.28671009944188
 30
0.0
  0
POINT
  5
5B63
330
5B59
100
AcDbEntity
  8
DEFPOINTS
  6
Continuous
 62
     0
100
AcDbPoint
 10
301.9993959035433
 20
-122.3998855197852
 30
0.0
  0
ENDBLK
  5
5B64
330
5B59
100
AcDbEntity
  8
0
100
AcDbBlockEnd
  0
BLOCK
  5
5B66
330
5B65
100
AcDbEntity
  8
0
100
AcDbBlockBegin
  2
*D27
 70
     1
 10
0.0
 20
0.0
 30
0.0
  3
*D27
  1

  0
LINE
  5
5B67
330
5B65
100
AcDbEntity
  8
30
  6
Continuous
 62
     0
370
    -2
100
AcDbLine
 10
350.8555653978196
 20
-74.99962862922766
 30
0.0
 11
376.5857515477538
 21
-74.99962862922767
 31
0.0
  0
LINE
  5
5B68
330
5B65
100
AcDbEntity
  8
30
  6
Continuous
 62
     0
370
    -2
100
AcDbLine
 10
350.8555653978196
 20
-58.99970785499242
 30
0.0
 11
376.5857515477538
 21
-58.99970785499242
 31
0.0
  0
LINE
  5
5B69
330
5B65
100
AcDbEntity
  8
30
  6
Continuous
 62
     0
370
    -2
100
AcDbLine
 10
376.0857515477538
 20
-72.99962862922767
 30
0.0
 11
376.0857515477538
 21
-60.99970785499241
 31
0.0
  0
INSERT
  5
5B6A
330
5B65
100
AcDbEntity
  8
30
  6
Continuous
 62
     0
370
    -2
100
AcDbBlockReference
  2
_OPEN
 10
376.0857515477538
 20
-74.99962862922767
 30
0.0
 41
2.0
 42
2.0
 43
2.0
 50
270.0
  0
INSERT
  5
5B6B
330
5B65
100
AcDbEntity
  8
30
  6
Continuous
 62
     0
370
    -2
100
AcDbBlockReference
  2
_OPEN
 10
376.0857515477538
 20
-58.99970785499242
 30
0.0
 41
2.0
 42
2.0
 43
2.0
 50
90.0
  0
MTEXT
  5
5B6C
330
5B65
100
AcDbEntity
  8
30
  6
Continuous
 62
     0
100
AcDbMText
 10
373.0857515477538
 20
-66.99966824210999
 30
0.0
 40
4.0
 41
0.0
 46
0.0
 71
     5
 72
     1
  1
\A1;16
 11
0.0000000000000001
 21
1.0
 31
0.0
 73
     1
 44
1.0
1001
ACAD
1000
MTEXTBEGIN
1070
    73
1070
     1
1070
    44
1040
1.0
1070
    74
1070
     0
1000
MTEXTEND
  0
POINT
  5
5B6D
330
5B65
100
AcDbEntity
  8
DEFPOINTS
  6
Continuous
 62
     0
100
AcDbPoint
 10
349.8555653978196
 20
-74.99962862922766
 30
0.0
  0
POINT
  5
5B6E
330
5B65
100
AcDbEntity
  8
DEFPOINTS
  6
Continuous
 62
     0
100
AcDbPoint
 10
349.8555653978196
 20
-58.99970785499242
 30
0.0
  0
POINT
  5
5B6F
330
5B65
100
AcDbEntity
  8
DEFPOINTS
  6
Continuous
 62
     0
100
AcDbPoint
 10
376.0857515477538
 20
-58.99970785499242
 30
0.0
  0
ENDBLK
  5
5B70
330
5B65
100
AcDbEntity
  8
0
100
AcDbBlockEnd
  0
BLOCK
  5
5B72
330
5B71
100
AcDbEntity
  8
0
100
AcDbBlockBegin
  2
*D28
 70
     1
 10
0.0
 20
0.0
 30
0.0
  3
*D28
  1

  0
LINE
  5
5B73
330
5B71
100
AcDbEntity
  8
30
  6
Continuous
 62
     0
370
    -2
100
AcDbLine
 10
352.9991483230286
 20
64.49968062113573
 30
0.0
 11
374.2524182144205
 21
64.49968062113573
 31
0.0
  0
LINE
  5
5B74
330
5B71
100
AcDbEntity
  8
30
  6
Continuous
 62
     0
370
    -2
100
AcDbLine
 10
352.9991483230286
 20
69.49965586308421
 30
0.0
 11
374.2524182144205
 21
69.49965586308421
 31
0.0
  0
LINE
  5
5B75
330
5B71
100
AcDbEntity
  8
30
  6
Continuous
 62
     0
370
    -2
100
AcDbLine
 10
373.7524182144205
 20
62.49968062113573
 30
0.0
 11
373.7524182144205
 21
60.49968062113574
 31
0.0
  0
LINE
  5
5B76
330
5B71
100
AcDbEntity
  8
30
  6
Continuous
 62
     0
370
    -2
100
AcDbLine
 10
373.7524182144205
 20
71.49965586308423
 30
0.0
 11
373.7524182144205
 21
73.49965586308425
 31
0.0
  0
LINE
  5
5B77
330
5B71
100
AcDbEntity
  8
30
  6
Continuous
 62
     0
370
    -2
100
AcDbLine
 10
373.7524182144205
 20
73.49965586308425
 30
0.0
 11
377.4190848810872
 21
73.49965586308425
 31
0.0
  0
INSERT
  5
5B78
330
5B71
100
AcDbEntity
  8
30
  6
Continuous
 62
     0
370
    -2
100
AcDbBlockReference
  2
_OPEN
 10
373.7524182144205
 20
64.49968062113573
 30
0.0
 41
2.0
 42
2.0
 43
2.0
 50
90.0
  0
INSERT
  5
5B79
330
5B71
100
AcDbEntity
  8
30
  6
Continuous
 62
     0
370
    -2
100
AcDbBlockReference
  2
_OPEN
 10
373.7524182144205
 20
69.49965586308421
 30
0.0
 41
2.0
 42
2.0
 43
2.0
 50
270.0
  0
MTEXT
  5
5B7A
330
5B71
100
AcDbEntity
  8
30
  6
Continuous
 62
     0
100
AcDbMText
 10
376.0857515477538
 20
76.4996558630843
 30
0.0
 40
4.0
 41
0.0
 46
0.0
 71
     5
 72
     1
  1
\A1;5
 73
     1
 44
1.0
1001
ACAD
1000
MTEXTBEGIN
1070
    73
1070
     1
1070
    44
1040
1.0
1070
    74
1070
     0
1000
MTEXTEND
  0
POINT
  5
5B7B
330
5B71
100
AcDbEntity
  8
DEFPOINTS
  6
Continuous
 62
     0
100
AcDbPoint
 10
351.9991483230286
 20
64.49968062113575
 30
0.0
  0
POINT
  5
5B7C
330
5B71
100
AcDbEntity
  8
DEFPOINTS
  6
Continuous
 62
     0
100
AcDbPoint
 10
351.9991483230286
 20
69.49965586308424
 30
0.0
  0
POINT
  5
5B7D
330
5B71
100
AcDbEntity
  8
DEFPOINTS
  6
Continuous
 62
     0
100
AcDbPoint
 10
373.7524182144205
 20
69.49965586308421
 30
0.0
  0
ENDBLK
  5
5B7E
330
5B71
100
AcDbEntity
  8
0
100
AcDbBlockEnd
  0
BLOCK
  5
5B80
330
5B7F
100
AcDbEntity
  8
0
100
AcDbBlockBegin
  2
*D29
 70
     1
 10
0.0
 20
0.0
 30
0.0
  3
*D29
  1

  0
LINE
  5
5B81
330
5B7F
100
AcDbEntity
  8
30
  6
Continuous
 62
     0
370
    -2
100
AcDbLine
 10
362.9990988069256
 20
66.99966824210996
 30
0.0
 11
388.2367141808032
 21
66.99966824210996
 31
0.0
  0
LINE
  5
5B82
330
5B7F
100
AcDbEntity
  8
30
  6
Continuous
 62
     0
370
    -2
100
AcDbLine
 10
377.0857515477538
 20
-66.99966824211003
 30
0.0
 11
388.2367141808032
 21
-66.99966824211003
 31
0.0
  0
LINE
  5
5B83
330
5B7F
100
AcDbEntity
  8
30
  6
Continuous
 62
     0
370
    -2
100
AcDbLine
 10
387.7367141808032
 20
64.99966824210996
 30
0.0
 11
387.7367141808032
 21
-64.99966824211004
 31
0.0
  0
INSERT
  5
5B84
330
5B7F
100
AcDbEntity
  8
30
  6
Continuous
 62
     0
370
    -2
100
AcDbBlockReference
  2
_OPEN
 10
387.7367141808032
 20
66.99966824210996
 30
0.0
 41
2.0
 42
2.0
 43
2.0
 50
90.0
  0
INSERT
  5
5B85
330
5B7F
100
AcDbEntity
  8
30
  6
Continuous
 62
     0
370
    -2
100
AcDbBlockReference
  2
_OPEN
 10
387.7367141808032
 20
-66.99966824211003
 30
0.0
 41
2.0
 42
2.0
 43
2.0
 50
270.0
  0
MTEXT
  5
5B86
330
5B7F
100
AcDbEntity
  8
30
  6
Continuous
 62
     0
100
AcDbMText
 10
384.7367141808033
 20
0.0000000000000264
 30
0.0
 40
4.0
 41
0.0
 46
0.0
 71
     5
 72
     1
  1
\A1;134
 11
0.0000000000000001
 21
1.0
 31
0.0
 73
     1
 44
1.0
1001
ACAD
1000
MTEXTBEGIN
1070
    73
1070
     1
1070
    44
1040
1.0
1070
    74
1070
     0
1000
MTEXTEND
  0
POINT
  5
5B87
330
5B7F
100
AcDbEntity
  8
DEFPOINTS
  6
Continuous
 62
     0
100
AcDbPoint
 10
361.9990988069257
 20
66.99966824210996
 30
0.0
  0
POINT
  5
5B88
330
5B7F
100
AcDbEntity
  8
DEFPOINTS
  6
Continuous
 62
     0
100
AcDbPoint
 10
376.0857515477538
 20
-66.99966824211003
 30
0.0
  0
POINT
  5
5B89
330
5B7F
100
AcDbEntity
  8
DEFPOINTS
  6
Continuous
 62
     0
100
AcDbPoint
 10
387.7367141808032
 20
-66.99966824211003
 30
0.0
  0
ENDBLK
  5
5B8A
330
5B7F
100
AcDbEntity
  8
0
100
AcDbBlockEnd
  0
BLOCK
  5
5C14
330
5B8C
100
AcDbEntity
  8
0
100
AcDbBlockBegin
  2
A$C62570FBC
 70
     0
 10
0.0
 20
0.0
 30
0.0
  3
A$C62570FBC
  1

  0
LINE
  5
5B8D
330
5B8C
100
AcDbEntity
  8
16
100
AcDbLine
 10
93.9068787532455
 20
-95.99952464541166
 30
0.0
 11
-38.25836885892417
 21
-95.99952464541166
 31
0.0
  0
DIMENSION
  5
5B8E
330
5B8C
100
AcDbEntity
  8
30
  6
Continuous
100
AcDbDimension
280
     0
  2
*D20
 10
14.99992572584512
 20
-268.3991625846815
 30
0.0
 11
-3.499982669364328
 21
-265.3991625846814
 31
0.0
 12
-180.0
 22
-95.99952464541166
 32
0.0
 71
     5
 42
36.99981679041882
 73
     0
 74
     0
 75
     0
  3
STANDARD
100
AcDbAlignedDimension
 13
-21.99989106457369
 23
-98.49951228288583
 33
0.0
 14
14.99992572584512
 24
-201.9989997747199
 34
0.0
 50
180.0
100
AcDbRotatedDimension
  0
LINE
  5
5B8F
330
5B8C
100
AcDbEntity
  8
10
  6
CONTINOUS
100
AcDbLine
 10
-5.999970290338097
 20
-120.9994008551542
 30
0.0
 11
0.0
 21
-120.9994008551542
 31
0.0
  0
LINE
  5
5B90
330
5B8C
100
AcDbEntity
  8
10
  6
CONTINOUS
100
AcDbLine
 10
-5.999970290338097
 20
-70.99964843566915
 30
0.0
 11
0.0
 21
-70.99964843566915
 31
0.0
  0
LINE
  5
5B91
330
5B8C
100
AcDbEntity
  8
10
  6
CONTINOUS
100
AcDbLine
 10
-5.999970290338097
 20
-70.99964843566915
 30
0.0
 11
-5.999970290338097
 21
-120.9994008551542
 31
0.0
  0
ARC
  5
5B92
330
5B8C
100
AcDbEntity
  8
30
  6
Continuous
100
AcDbCircle
 10
8.999955435507303
 20
-95.99952464541166
 30
0.0
 40
30.99984650008077
100
AcDbArc
 50
150.5534441956564
 51
180.0
  0
LINE
  5
5B93
330
5B8C
100
AcDbEntity
  8
10
  6
CONTINOUS
100
AcDbLine
 10
-5.999970290338097
 20
-89.15876921147319
 30
0.0
 11
-17.99516469411139
 21
-80.75964366766031
 31
0.0
  0
LINE
  5
5B94
330
5B8C
100
AcDbEntity
  8
10
  6
CONTINOUS
100
AcDbLine
 10
-5.999970290338097
 20
-81.83415794770459
 30
0.0
 11
-14.55372311676709
 21
-75.84475573865649
 31
0.0
  0
LINE
  5
5B95
330
5B8C
100
AcDbEntity
  8
10
  6
CONTINOUS
100
AcDbLine
 10
-17.99516469411139
 20
-80.75964366766031
 30
0.0
 11
-14.55372311676709
 21
-75.84475573865649
 31
0.0
  0
LINE
  5
5B96
330
5B8C
100
AcDbEntity
  8
10
  6
CONTINOUS
100
AcDbLine
 10
14.99992572584512
 20
0.0
 30
0.0
 11
14.99992572584512
 21
-191.9990492908229
 31
0.0
  0
LINE
  5
5B97
330
5B8C
100
AcDbEntity
  8
10
  6
CONTINOUS
100
AcDbLine
 10
-1.999990096779583
 20
-70.99964843566915
 30
0.0
 11
-1.999990096779583
 21
-120.9994008551542
 31
0.0
  0
LINE
  5
5B98
330
5B8C
100
AcDbEntity
  8
18
100
AcDbLine
 10
18.9999059194044
 20
4.999975241948433
 30
0.0
 11
18.9999059194044
 21
-206.9989750166683
 31
0.0
  0
LINE
  5
5B99
330
5B8C
100
AcDbEntity
  8
10
  6
CONTINOUS
100
AcDbLine
 10
0.0
 20
0.0
 30
0.0
 11
0.0
 21
-191.9990492908229
 31
0.0
  0
DIMENSION
  5
5B9A
330
5B8C
100
AcDbEntity
  8
30
  6
Continuous
100
AcDbDimension
280
     0
  2
*D21
 10
171.9991483230286
 20
-268.3991625846815
 30
0.0
 11
93.49953702443691
 21
-265.3991625846814
 31
0.0
 12
-180.0
 22
-95.99952464541166
 32
0.0
 71
     5
 42
156.9992225971835
 73
     0
 74
     0
 75
     0
  3
STANDARD
100
AcDbAlignedDimension
 13
14.99992572584512
 23
-201.9989997747199
 33
0.0
 14
171.9991483230286
 24
-162.9991928875216
 34
0.0
 50
180.0
100
AcDbRotatedDimension
  0
DIMENSION
  5
5B9B
330
5B8C
100
AcDbEntity
  8
30
  6
Continuous
100
AcDbDimension
280
     0
  2
*D22
 10
121.9993959035433
 20
-243.3992863749393
 30
0.0
 11
68.49966081469418
 21
-240.3992863749393
 31
0.0
 12
-180.0
 22
-95.99952464541166
 32
0.0
 71
     5
 42
106.9994701776982
 73
     0
 74
     0
 75
     0
  3
STANDARD
100
AcDbAlignedDimension
 13
14.99992572584512
 23
-201.9989997747199
 33
0.0
 14
121.9993959035433
 24
-162.9991928875216
 34
0.0
 50
180.0
100
AcDbRotatedDimension
  0
INSERT
  5
5B9C
330
5B8C
100
AcDbEntity
  8
30
  6
Continuous
100
AcDbBlockReference
  2
*U19
 10
-637.0351231466663
 20
-402.773497207298
 30
0.0
 41
2.499987620974227
 42
2.499987620974227
 43
2.499987620974227
  0
DIMENSION
  5
5B9D
330
5B8C
100
AcDbEntity
  8
30
  6
Continuous
100
AcDbDimension
280
     0
  2
*D23
 10
106.9994701776981
 20
-130.8998434310979
 30
0.0
 11
99.49950731477532
 21
-127.8998434310979
 31
0.0
 12
-180.0
 22
-95.99952464541166
 32
0.0
 71
     5
 42
14.99992572584563
 73
     0
 74
     0
 75
     0
  3
STANDARD
100
AcDbAlignedDimension
 13
91.99954445185248
 23
-155.9992275322939
 33
0.0
 14
106.9994701776981
 24
-160.4992052500475
 34
0.0
100
AcDbRotatedDimension
  0
LINE
  5
5B9E
330
5B8C
100
AcDbEntity
  8
0
  6
Continuous
100
AcDbLine
 10
93.59330880380241
 20
-170.9991532746393
 30
0.0
 11
119.8558129783345
 21
-170.9991532746393
 31
0.0
  0
LINE
  5
5B9F
330
5B8C
100
AcDbEntity
  8
0
  6
Continuous
100
AcDbLine
 10
93.59330880380241
 20
-154.9992325004041
 30
0.0
 11
119.8558129783345
 21
-154.9992325004041
 31
0.0
  0
LINE
  5
5BA0
330
5B8C
100
AcDbEntity
  8
0
  6
Continuous
100
AcDbLine
 10
64.99967814533049
 20
-162.9991928875216
 30
0.0
 11
181.9990988069256
 21
-162.9991928875216
 31
0.0
  0
DIMENSION
  5
5BA1
330
5B8C
100
AcDbEntity
  8
30
  6
Continuous
100
AcDbDimension
280
     0
  2
*D24
 10
14.99992572584512
 20
-243.3992863749393
 30
0.0
 11
7.499962862922528
 21
-240.3992863749393
 31
0.0
 12
-180.0
 22
-95.99952464541166
 32
0.0
 71
     5
 42
14.99992572584512
 73
     0
 74
     0
 75
     0
  3
STANDARD
100
AcDbAlignedDimension
 13
0.0
 23
-191.9990492908229
 33
0.0
 14
14.99992572584512
 24
-201.9989997747199
 34
0.0
 50
180.0
100
AcDbRotatedDimension
  0
LINE
  5
5BA2
330
5B8C
100
AcDbEntity
  8
18
100
AcDbLine
 10
14.99992572584512
 20
-191.9990492908229
 30
0.0
 11
14.99992572584512
 21
-201.9989997747197
 31
0.0
  0
LINE
  5
5BA3
330
5B8C
100
AcDbEntity
  8
18
100
AcDbLine
 10
14.99992572584512
 20
-201.9989997747197
 30
0.0
 11
18.9999059194044
 21
-206.9989750166683
 31
0.0
  0
LINE
  5
5BA4
330
5B8C
100
AcDbEntity
  8
10
  6
CONTINOUS
100
AcDbLine
 10
14.99992572584512
 20
-173.4991408956135
 30
0.0
 11
69.99965338727921
 21
-173.4991408956135
 31
0.0
  0
LINE
  5
5BA5
330
5B8C
100
AcDbEntity
  8
10
  6
CONTINOUS
100
AcDbLine
 10
0.0
 20
-191.9990492908229
 30
0.0
 11
14.99992572584512
 21
-191.9990492908229
 31
0.0
  0
LINE
  5
5BA6
330
5B8C
100
AcDbEntity
  8
0
  6
Continuous
100
AcDbLine
 10
86.49957168570892
 20
-155.8742281677451
 30
0.0
 11
86.49957168570892
 21
-170.1241576072983
 31
0.0
  0
LINE
  5
5BA7
330
5B8C
100
AcDbEntity
  8
0
  6
Continuous
100
AcDbLine
 10
69.99965338727881
 20
-170.1241576072983
 30
0.0
 11
93.11678648075591
 21
-170.1241576072983
 31
0.0
  0
LINE
  5
5BA8
330
5B8C
100
AcDbEntity
  8
0
  6
Continuous
100
AcDbLine
 10
86.49957168570892
 20
-167.4991706052753
 30
0.0
 11
91.99954445185248
 21
-167.4991706052753
 31
0.0
  0
ARC
  5
5BA9
330
5B8C
100
AcDbEntity
  8
0
  6
Continuous
100
AcDbCircle
 10
110.9137311150848
 20
-160.9992027907423
 30
0.0
 40
19.99990096779404
100
AcDbArc
 50
198.9655749888479
 51
209.999999999999
  0
LINE
  5
5BAA
330
5B8C
100
AcDbEntity
  8
0
  6
Continuous
100
AcDbLine
 10
69.99965338727881
 20
-155.8742281677451
 30
0.0
 11
93.11678648075591
 21
-155.8742281677451
 31
0.0
  0
LINE
  5
5BAB
330
5B8C
100
AcDbEntity
  8
0
  6
Continuous
100
AcDbLine
 10
86.49957168570892
 20
-158.499215169768
 30
0.0
 11
91.99954445185248
 21
-158.499215169768
 31
0.0
  0
ARC
  5
5BAC
330
5B8C
100
AcDbEntity
  8
0
  6
Continuous
100
AcDbCircle
 10
-110.9137311150848
 20
-164.9991829843011
 30
0.0
 40
19.99990096779404
210
0.0
220
0.0
230
-1.0
100
AcDbArc
 50
18.96557498884869
 51
29.99999999999972
  0
DIMENSION
  5
5BAD
330
5B8C
100
AcDbEntity
  8
30
  6
Continuous
100
AcDbDimension
280
     0
  2
*D25
 10
171.9991483230286
 20
-218.3994101651968
 30
0.0
 11
164.4991854601059
 21
-215.3994101651969
 31
0.0
 12
-180.0
 22
-95.99952464541166
 32
0.0
 71
     5
 42
14.99992572584551
 73
     0
 74
     0
 75
     0
  3
STANDARD
100
AcDbAlignedDimension
 13
156.9992225971831
 23
-165.4991805249959
 33
0.0
 14
171.9991483230286
 24
-172.2862347448535
 34
0.0
 50
180.0
100
AcDbRotatedDimension
  0
DIMENSION
  5
5BAE
330
5B8C
100
AcDbEntity
  8
30
  6
Continuous
100
AcDbDimension
280
     0
  2
*D26
 10
121.9993959035433
 20
-218.3994101651968
 30
0.0
 11
114.4994330406207
 21
-215.3994101651969
 31
0.0
 12
-180.0
 22
-95.99952464541166
 32
0.0
 71
     5
 42
14.99992572584517
 73
     0
 74
     0
 75
     0
  3
STANDARD
100
AcDbAlignedDimension
 13
106.9994701776981
 23
-165.4991805249959
 33
0.0
 14
121.9993959035433
 24
-172.2862347448535
 34
0.0
 50
180.0
100
AcDbRotatedDimension
  0
CIRCLE
  5
5BAF
330
5B8C
100
AcDbEntity
  8
0
  6
Continuous
100
AcDbCircle
 10
156.9992225971831
 20
-162.9991928875216
 30
0.0
 40
4.249978955656231
  0
LINE
  5
5BB0
330
5B8C
100
AcDbEntity
  8
0
  6
Continuous
100
AcDbLine
 10
143.5930612232875
 20
-154.9992325004041
 30
0.0
 11
169.8555653978196
 21
-154.9992325004041
 31
0.0
  0
LINE
  5
5BB1
330
5B8C
100
AcDbEntity
  8
0
  6
Continuous
100
AcDbLine
 10
143.5930612232875
 20
-170.9991532746393
 30
0.0
 11
169.8555653978196
 21
-170.9991532746393
 31
0.0
  0
ARC
  5
5BB2
330
5B8C
100
AcDbEntity
  8
0
  6
Continuous
100
AcDbCircle
 10
105.9994751293085
 20
-162.9991928875216
 30
0.0
 40
15.99992077423523
100
AcDbArc
 50
330.0000000000003
 51
29.99999999999972
  0
CIRCLE
  5
5BB3
330
5B8C
100
AcDbEntity
  8
0
  6
Continuous
100
AcDbCircle
 10
106.9994701776981
 20
-162.9991928875216
 30
0.0
 40
4.249978955656231
  0
LINE
  5
5BB4
330
5B8C
100
AcDbEntity
  8
0
  6
Continuous
100
AcDbLine
 10
106.9994701776981
 20
-149.9992572584556
 30
0.0
 11
106.9994701776981
 21
-175.9991285165878
 31
0.0
  0
LINE
  5
5BB5
330
5B8C
100
AcDbEntity
  8
0
  6
Continuous
100
AcDbLine
 10
136.4993241051941
 20
-155.8742281677451
 30
0.0
 11
136.4993241051941
 21
-170.1241576072983
 31
0.0
  0
LINE
  5
5BB6
330
5B8C
100
AcDbEntity
  8
0
  6
Continuous
100
AcDbLine
 10
120.3254076477777
 20
-170.1241576072983
 30
0.0
 11
136.4993241051943
 21
-170.1241576072983
 31
0.0
  0
LINE
  5
5BB7
330
5B8C
100
AcDbEntity
  8
0
  6
Continuous
100
AcDbLine
 10
136.4993241051941
 20
-167.4991706052753
 30
0.0
 11
141.9992968713376
 21
-167.4991706052753
 31
0.0
  0
ARC
  5
5BB8
330
5B8C
100
AcDbEntity
  8
0
  6
Continuous
100
AcDbCircle
 10
160.9134835345702
 20
-160.9992027907423
 30
0.0
 40
19.99990096779404
100
AcDbArc
 50
198.9655749888479
 51
209.999999999999
  0
LINE
  5
5BB9
330
5B8C
100
AcDbEntity
  8
0
  6
Continuous
100
AcDbLine
 10
120.3254076477777
 20
-155.8742281677451
 30
0.0
 11
136.4993241051943
 21
-155.8742281677451
 31
0.0
  0
LINE
  5
5BBA
330
5B8C
100
AcDbEntity
  8
0
  6
Continuous
100
AcDbLine
 10
136.4993241051941
 20
-158.499215169768
 30
0.0
 11
141.9992968713376
 21
-158.499215169768
 31
0.0
  0
ARC
  5
5BBB
330
5B8C
100
AcDbEntity
  8
0
  6
Continuous
100
AcDbCircle
 10
-160.9134835345702
 20
-164.9991829843011
 30
0.0
 40
19.99990096779404
210
0.0
220
0.0
230
-1.0
100
AcDbArc
 50
18.96557498884869
 51
29.99999999999972
  0
DIMENSION
  5
5BBC
330
5B8C
100
AcDbEntity
  8
30
  6
Continuous
100
AcDbDimension
280
     0
  2
*D27
 10
196.0857515477538
 20
-154.9992325004041
 30
0.0
 11
193.0857515477538
 21
-162.9991928875216
 31
0.0
 12
-180.0
 22
-95.99952464541166
 32
0.0
 71
     5
 42
15.99992077423525
 73
     0
 74
     0
 75
     0
  3
STANDARD
100
AcDbAlignedDimension
 13
169.8555653978196
 23
-170.9991532746393
 33
0.0
 14
169.8555653978196
 24
-154.9992325004041
 34
0.0
 50
270.0
100
AcDbRotatedDimension
  0
ARC
  5
5BBD
330
5B8C
100
AcDbEntity
  8
0
  6
Continuous
100
AcDbCircle
 10
155.9992275487935
 20
-162.9991928875216
 30
0.0
 40
15.99992077423523
100
AcDbArc
 50
330.0000000000003
 51
29.99999999999972
  0
LINE
  5
5BBE
330
5B8C
100
AcDbEntity
  8
0
  6
Continuous
100
AcDbLine
 10
156.9992225971831
 20
-149.9992572584556
 30
0.0
 11
156.9992225971831
 21
-175.9991285165878
 31
0.0
  0
LINE
  5
5BBF
330
5B8C
100
AcDbEntity
  8
0
  6
Continuous
100
AcDbLine
 10
86.49957168570892
 20
-31.49984402427592
 30
0.0
 11
121.9993959035433
 21
-31.49984402427592
 31
0.0
  0
LINE
  5
5BC0
330
5B8C
100
AcDbEntity
  8
0
  6
Continuous
100
AcDbLine
 10
86.49957168570892
 20
-26.49986878232743
 30
0.0
 11
121.9993959035433
 21
-26.49986878232743
 31
0.0
  0
LINE
  5
5BC1
330
5B8C
100
AcDbEntity
  8
0
  6
Continuous
100
AcDbLine
 10
64.99967814533049
 20
-28.99985640330171
 30
0.0
 11
181.9990988069256
 21
-28.99985640330171
 31
0.0
  0
LINE
  5
5BC2
330
5B8C
100
AcDbEntity
  8
0
  6
Continuous
100
AcDbLine
 10
69.99965338727881
 20
-36.12482112307823
 30
0.0
 11
136.4993241051938
 21
-36.12482112307823
 31
0.0
  0
LINE
  5
5BC3
330
5B8C
100
AcDbEntity
  8
0
  6
Continuous
100
AcDbLine
 10
69.99965338727881
 20
-21.87489168352508
 30
0.0
 11
136.4993241051938
 21
-21.87489168352508
 31
0.0
  0
LINE
  5
5BC4
330
5B8C
100
AcDbEntity
  8
10
  6
CONTINOUS
100
AcDbLine
 10
14.99992572584512
 20
-18.49990839520961
 30
0.0
 11
69.99965338727921
 21
-18.49990839520961
 31
0.0
  0
LINE
  5
5BC5
330
5B8C
100
AcDbEntity
  8
10
  6
CONTINOUS
100
AcDbLine
 10
0.0
 20
0.0
 30
0.0
 11
14.99992572584512
 21
0.0
 31
0.0
  0
LINE
  5
5BC6
330
5B8C
100
AcDbEntity
  8
18
100
AcDbLine
 10
14.99992572584512
 20
9.999950483896741
 30
0.0
 11
14.99992572584512
 21
0.0
 31
0.0
  0
LINE
  5
5BC7
330
5B8C
100
AcDbEntity
  8
18
100
AcDbLine
 10
14.99992572584512
 20
9.999950483896741
 30
0.0
 11
18.9999059194044
 21
4.999975241948433
 31
0.0
  0
LINE
  5
5BC8
330
5B8C
100
AcDbEntity
  8
0
  6
Continuous
100
AcDbLine
 10
86.49957168570892
 20
-21.87489168352508
 30
0.0
 11
86.49957168570892
 21
-36.12482112307828
 31
0.0
  0
LINE
  5
5BC9
330
5B8C
100
AcDbEntity
  8
0
  6
Continuous
100
AcDbLine
 10
91.99954445185248
 20
-26.49986878232743
 30
0.0
 11
91.99954445185248
 21
-31.49984402427592
 31
0.0
  0
LINE
  5
5BCA
330
5B8C
100
AcDbEntity
  8
0
  6
Continuous
100
AcDbLine
 10
136.4993241051941
 20
-26.49986878232743
 30
0.0
 11
171.9991483230286
 21
-26.49986878232743
 31
0.0
  0
LINE
  5
5BCB
330
5B8C
100
AcDbEntity
  8
0
  6
Continuous
100
AcDbLine
 10
136.4993241051941
 20
-31.49984402427592
 30
0.0
 11
171.9991483230286
 21
-31.49984402427592
 31
0.0
  0
LINE
  5
5BCC
330
5B8C
100
AcDbEntity
  8
0
  6
Continuous
100
AcDbLine
 10
106.9994701776981
 20
-22.74988735086606
 30
0.0
 11
106.9994701776981
 21
-35.24982545573732
 31
0.0
  0
LINE
  5
5BCD
330
5B8C
100
AcDbEntity
  8
0
  6
Continuous
100
AcDbLine
 10
121.9993959035433
 20
-26.49986878232743
 30
0.0
 11
121.9993959035433
 21
-31.49984402427592
 31
0.0
  0
LINE
  5
5BCE
330
5B8C
100
AcDbEntity
  8
0
  6
Continuous
100
AcDbLine
 10
136.4993241051941
 20
-21.87489168352508
 30
0.0
 11
136.4993241051941
 21
-36.12482112307823
 31
0.0
  0
LINE
  5
5BCF
330
5B8C
100
AcDbEntity
  8
0
  6
Continuous
100
AcDbLine
 10
141.9992968713376
 20
-26.49986878232743
 30
0.0
 11
141.9992968713376
 21
-31.49984402427592
 31
0.0
  0
DIMENSION
  5
5BD0
330
5B8C
100
AcDbEntity
  8
30
  6
Continuous
100
AcDbDimension
280
     0
  2
*D28
 10
193.7524182144204
 20
-26.49986878232745
 30
0.0
 11
196.0857515477538
 21
-22.49986878232737
 31
0.0
 12
-180.0
 22
-95.99952464541166
 32
0.0
 70
   128
 71
     5
 42
4.999975241948487
 73
     0
 74
     0
 75
     0
  3
STANDARD
100
AcDbAlignedDimension
 13
171.9991483230286
 23
-31.49984402427592
 33
0.0
 14
171.9991483230286
 24
-26.49986878232743
 34
0.0
 50
270.0
100
AcDbRotatedDimension
1001
ACAD
1000
DSTYLE
1002
{
1070
   340
1005
11
1002
}
  0
LINE
  5
5BD1
330
5B8C
100
AcDbEntity
  8
0
  6
Continuous
100
AcDbLine
 10
156.9992225971831
 20
-22.74988735086606
 30
0.0
 11
156.9992225971831
 21
-35.24982545573732
 31
0.0
  0
LINE
  5
5BD2
330
5B8C
100
AcDbEntity
  8
0
  6
Continuous
100
AcDbLine
 10
171.9991483230286
 20
-26.49986878232743
 30
0.0
 11
171.9991483230286
 21
-31.49984402427592
 31
0.0
  0
TEXT
  5
5BD3
330
5B8C
100
AcDbEntity
  8
30
  6
Continuous
100
AcDbText
 10
64.3687489326077
 20
-217.3897317899184
 30
0.0
 40
5.0
  1
%%c8.5
 41
0.8542968749999968
  7
UGMTXT
100
AcDbText
  0
DIMENSION
  5
5BD4
330
5B8C
100
AcDbEntity
  8
30
  6
Continuous
100
AcDbDimension
280
     0
  2
*D29
 10
207.7367141808032
 20
-162.9991928875216
 30
0.0
 11
204.7367141808033
 21
-95.99952464541164
 31
0.0
 12
-180.0
 22
-95.99952464541166
 32
0.0
 71
     5
 42
133.9993364842199
 73
     0
 74
     0
 75
     0
  3
STANDARD
100
AcDbAlignedDimension
 13
181.9990988069256
 23
-28.99985640330171
 33
0.0
 14
196.0857515477538
 24
-162.9991928875216
 34
0.0
 50
90.0
100
AcDbRotatedDimension
1001
ACAD
1000
DSTYLE
1002
{
1070
    79
1070
     3
1002
}
  0
LINE
  5
5BD5
330
5B8C
100
AcDbEntity
  8
1
  6
Continuous
 62
     3
100
AcDbLine
 10
74.1999257258449
 20
-145.9999083952096
 30
0.0
 11
72.599925725845
 21
-145.9999083952096
 31
0.0
  0
LINE
  5
5BD6
330
5B8C
100
AcDbEntity
  8
1
  6
Continuous
 62
     3
100
AcDbLine
 10
26.79992572584493
 20
-145.9999083952096
 30
0.0
 11
26.79992572584493
 21
-170.9999083952096
 31
0.0
  0
LINE
  5
5BD7
330
5B8C
100
AcDbEntity
  8
1
  6
Continuous
 62
     3
100
AcDbLine
 10
72.599925725845
 20
-145.9999083952096
 30
0.0
 11
72.599925725845
 21
-172.4999083952096
 31
0.0
  0
LINE
  5
5BD8
330
5B8C
100
AcDbEntity
  8
1
  6
Continuous
 62
     3
100
AcDbLine
 10
77.29992572584461
 20
-128.5999083952096
 30
0.0
 11
77.29992572584461
 21
-137.3999083952096
 31
0.0
  0
LINE
  5
5BD9
330
5B8C
100
AcDbEntity
  8
1
  6
Continuous
 62
     3
100
AcDbLine
 10
79.74992572584461
 20
-57.39990839520961
 30
0.0
 11
77.49992572584513
 21
-57.39990839520961
 31
0.0
  0
LINE
  5
5BDA
330
5B8C
100
AcDbEntity
  8
1
  6
Continuous
 62
     3
100
AcDbLine
 10
23.3999257258447
 20
-77.99990839520956
 30
0.0
 11
23.3999257258447
 21
-113.9999083952096
 31
0.0
  0
LINE
  5
5BDB
330
5B8C
100
AcDbEntity
  8
1
  6
Continuous
 62
     3
100
AcDbLine
 10
77.0999257258448
 20
-128.5999083952096
 30
0.0
 11
76.19992572584471
 21
-128.5999083952096
 31
0.0
  0
LINE
  5
5BDC
330
5B8C
100
AcDbEntity
  8
1
  6
Continuous
 62
     3
100
AcDbLine
 10
69.99992572584512
 20
-172.4999083952096
 30
0.0
 11
72.599925725845
 21
-172.4999083952096
 31
0.0
  0
LINE
  5
5BDD
330
5B8C
100
AcDbEntity
  8
1
  6
Continuous
 62
     3
100
AcDbLine
 10
26.79992572584493
 20
-20.99990839520962
 30
0.0
 11
14.99992572584512
 21
-20.99990839520962
 31
0.0
  0
LINE
  5
5BDE
330
5B8C
100
AcDbEntity
  8
1
  6
Continuous
 62
     3
100
AcDbLine
 10
26.79992572584493
 20
-45.99990839520962
 30
0.0
 11
72.599925725845
 21
-45.99990839520962
 31
0.0
  0
LINE
  5
5BDF
330
5B8C
100
AcDbEntity
  8
1
  6
Continuous
 62
     3
100
AcDbLine
 10
60.3999257258448
 20
-113.9999083952096
 30
0.0
 11
60.3999257258448
 21
-77.99990839520956
 31
0.0
  0
LINE
  5
5BE0
330
5B8C
100
AcDbEntity
  8
1
  6
Continuous
 62
     3
100
AcDbLine
 10
75.19992572584498
 20
-41.49990839520959
 30
0.0
 11
72.599925725845
 21
-41.49990839520959
 31
0.0
  0
LINE
  5
5BE1
330
5B8C
100
AcDbEntity
  8
1
  6
Continuous
 62
     3
100
AcDbLine
 10
76.39992572584481
 20
-52.35808589520964
 30
0.0
 11
77.49992572584513
 21
-52.45432339520959
 31
0.0
  0
LINE
  5
5BE2
330
5B8C
100
AcDbEntity
  8
1
  6
Continuous
 62
     3
100
AcDbLine
 10
80.74992572584489
 20
-49.59990839520962
 30
0.0
 11
80.74992572584489
 21
-56.39990839520961
 31
0.0
  0
LINE
  5
5BE3
330
5B8C
100
AcDbEntity
  8
1
  6
Continuous
 62
     3
100
AcDbLine
 10
76.39992572584481
 20
-57.3499083952096
 30
0.0
 11
76.39992572584481
 21
-48.64990839520963
 31
0.0
  0
LINE
  5
5BE4
330
5B8C
100
AcDbEntity
  8
1
  6
Continuous
 62
     3
100
AcDbLine
 10
75.99992572584461
 20
-57.74990839520959
 30
0.0
 11
75.29992572584494
 21
-57.74990839520959
 31
0.0
  0
LINE
  5
5BE5
330
5B8C
100
AcDbEntity
  8
1
  6
Continuous
 62
     3
100
AcDbLine
 10
77.49992572584513
 20
-48.79990839520964
 30
0.0
 11
77.49992572584513
 21
-57.19990839520959
 31
0.0
  0
LINE
  5
5BE6
330
5B8C
100
AcDbEntity
  8
1
  6
Continuous
 62
     3
100
AcDbLine
 10
75.79992572584481
 20
-128.2499083952096
 30
0.0
 11
75.099925725845
 21
-128.2499083952096
 31
0.0
  0
LINE
  5
5BE7
330
5B8C
100
AcDbEntity
  8
1
  6
Continuous
 62
     3
100
AcDbLine
 10
77.49992572584513
 20
-53.2554683952096
 30
0.0
 11
76.39992572584481
 21
-53.15923089520964
 31
0.0
  0
LINE
  5
5BE8
330
5B8C
100
AcDbEntity
  8
1
  6
Continuous
 62
     3
100
AcDbLine
 10
58.39992572584481
 20
-75.99990839520962
 30
0.0
 11
25.39992572584481
 21
-75.99990839520962
 31
0.0
  0
LINE
  5
5BE9
330
5B8C
100
AcDbEntity
  8
1
  6
Continuous
 62
     3
100
AcDbLine
 10
75.19992572584498
 20
-141.4999083952096
 30
0.0
 11
75.19992572584498
 21
-41.49990839520959
 31
0.0
  0
LINE
  5
5BEA
330
5B8C
100
AcDbEntity
  8
1
  6
Continuous
 62
     3
100
AcDbLine
 10
77.29992572584461
 20
-48.5999083952096
 30
0.0
 11
76.39992572584481
 21
-48.5999083952096
 31
0.0
  0
LINE
  5
5BEB
330
5B8C
100
AcDbEntity
  8
1
  6
Continuous
 62
     3
100
AcDbLine
 10
77.29992572584461
 20
-57.39990839520961
 30
0.0
 11
76.39992572584481
 21
-57.39990839520961
 31
0.0
  0
LINE
  5
5BEC
330
5B8C
100
AcDbEntity
  8
1
  6
Continuous
 62
     3
100
AcDbLine
 10
75.99992572584461
 20
-48.24990839520964
 30
0.0
 11
75.29992572584494
 21
-48.24990839520964
 31
0.0
  0
LINE
  5
5BED
330
5B8C
100
AcDbEntity
  8
1
  6
Continuous
 62
     3
100
AcDbLine
 10
79.54992572584479
 20
-137.3999083952096
 30
0.0
 11
77.29992572584461
 21
-137.3999083952096
 31
0.0
  0
LINE
  5
5BEE
330
5B8C
100
AcDbEntity
  8
1
  6
Continuous
 62
     3
100
AcDbLine
 10
26.79992572584493
 20
-20.99990839520962
 30
0.0
 11
26.79992572584493
 21
-45.99990839520962
 31
0.0
  0
LINE
  5
5BEF
330
5B8C
100
AcDbEntity
  8
1
  6
Continuous
 62
     3
100
AcDbLine
 10
25.39992572584481
 20
-115.9999083952096
 30
0.0
 11
58.39992572584481
 21
-115.9999083952096
 31
0.0
  0
LINE
  5
5BF0
330
5B8C
100
AcDbEntity
  8
1
  6
Continuous
 62
     3
100
AcDbLine
 10
74.1999257258449
 20
-45.99990839520962
 30
0.0
 11
74.1999257258449
 21
-145.9999083952096
 31
0.0
  0
LINE
  5
5BF1
330
5B8C
100
AcDbEntity
  8
1
  6
Continuous
 62
     3
100
AcDbLine
 10
72.599925725845
 20
-19.49990839520961
 30
0.0
 11
72.599925725845
 21
-45.99990839520962
 31
0.0
  0
LINE
  5
5BF2
330
5B8C
100
AcDbEntity
  8
1
  6
Continuous
 62
     3
100
AcDbLine
 10
79.54992572584479
 20
-128.5999083952096
 30
0.0
 11
77.29992572584461
 21
-128.5999083952096
 31
0.0
  0
LINE
  5
5BF3
330
5B8C
100
AcDbEntity
  8
1
  6
Continuous
 62
     3
100
AcDbLine
 10
80.54992572584479
 20
-129.5999083952096
 30
0.0
 11
80.54992572584479
 21
-136.3999083952096
 31
0.0
  0
LINE
  5
5BF4
330
5B8C
100
AcDbEntity
  8
1
  6
Continuous
 62
     3
100
AcDbLine
 10
76.19992572584471
 20
-132.3580858952096
 30
0.0
 11
77.29992572584461
 21
-132.4543233952096
 31
0.0
  0
LINE
  5
5BF5
330
5B8C
100
AcDbEntity
  8
1
  6
Continuous
 62
     3
100
AcDbLine
 10
14.99992572584512
 20
-170.9999083952096
 30
0.0
 11
26.79992572584493
 21
-170.9999083952096
 31
0.0
  0
LINE
  5
5BF6
330
5B8C
100
AcDbEntity
  8
1
  6
Continuous
 62
     3
100
AcDbLine
 10
69.99992572584512
 20
-19.49990839520961
 30
0.0
 11
72.599925725845
 21
-19.49990839520961
 31
0.0
  0
LINE
  5
5BF7
330
5B8C
100
AcDbEntity
  8
1
  6
Continuous
 62
     3
100
AcDbLine
 10
77.49992572584513
 20
-48.5999083952096
 30
0.0
 11
77.49992572584513
 21
-57.39990839520961
 31
0.0
  0
LINE
  5
5BF8
330
5B8C
100
AcDbEntity
  8
1
  6
Continuous
 62
     3
100
AcDbLine
 10
79.74992572584461
 20
-48.5999083952096
 30
0.0
 11
77.49992572584513
 21
-48.5999083952096
 31
0.0
  0
LINE
  5
5BF9
330
5B8C
100
AcDbEntity
  8
1
  6
Continuous
 62
     3
100
AcDbLine
 10
77.0999257258448
 20
-137.3999083952096
 30
0.0
 11
76.19992572584471
 21
-137.3999083952096
 31
0.0
  0
LINE
  5
5BFA
330
5B8C
100
AcDbEntity
  8
1
  6
Continuous
 62
     3
100
AcDbLine
 10
72.599925725845
 20
-145.9999083952096
 30
0.0
 11
26.79992572584493
 21
-145.9999083952096
 31
0.0
  0
LINE
  5
5BFB
330
5B8C
100
AcDbEntity
  8
1
  6
Continuous
 62
     3
100
AcDbLine
 10
72.599925725845
 20
-45.99990839520962
 30
0.0
 11
74.1999257258449
 21
-45.99990839520962
 31
0.0
  0
LINE
  5
5BFC
330
5B8C
100
AcDbEntity
  8
1
  6
Continuous
 62
     3
100
AcDbLine
 10
75.19992572584498
 20
-141.4999083952096
 30
0.0
 11
74.1999257258449
 21
-141.4999083952096
 31
0.0
  0
LINE
  5
5BFD
330
5B8C
100
AcDbEntity
  8
1
  6
Continuous
 62
     3
100
AcDbLine
 10
77.29992572584461
 20
-133.2554683952096
 30
0.0
 11
76.19992572584471
 21
-133.1592308952096
 31
0.0
  0
LINE
  5
5BFE
330
5B8C
100
AcDbEntity
  8
1
  6
Continuous
 62
     3
100
AcDbLine
 10
75.79992572584481
 20
-137.7499083952096
 30
0.0
 11
75.099925725845
 21
-137.7499083952096
 31
0.0
  0
LINE
  5
5BFF
330
5B8C
100
AcDbEntity
  8
1
  6
Continuous
 62
     3
100
AcDbLine
 10
77.29992572584461
 20
-128.7999083952096
 30
0.0
 11
77.29992572584461
 21
-137.1999083952096
 31
0.0
  0
LINE
  5
5C00
330
5B8C
100
AcDbEntity
  8
1
  6
Continuous
 62
     3
100
AcDbLine
 10
76.19992572584471
 20
-137.3499083952095
 30
0.0
 11
76.19992572584471
 21
-128.6499083952096
 31
0.0
  0
ARC
  5
5C01
330
5B8C
100
AcDbEntity
  8
1
  6
Continuous
 62
     3
100
AcDbCircle
 10
79.54992572584479
 20
-129.5999083952096
 30
0.0
 40
1.0
100
AcDbArc
 50
0.0
 51
90.0
  0
ARC
  5
5C02
330
5B8C
100
AcDbEntity
  8
1
  6
Continuous
 62
     3
100
AcDbCircle
 10
77.29992572584461
 20
-48.79990839520964
 30
0.0
 40
0.2
100
AcDbArc
 50
0.0
 51
90.0
  0
ARC
  5
5C03
330
5B8C
100
AcDbEntity
  8
1
  6
Continuous
 62
     3
100
AcDbCircle
 10
25.39992572584481
 20
-113.9999083952096
 30
0.0
 40
2.0
100
AcDbArc
 50
180.0
 51
270.0
  0
ARC
  5
5C04
330
5B8C
100
AcDbEntity
  8
1
  6
Continuous
 62
     3
100
AcDbCircle
 10
77.29992572584461
 20
-57.19990839520959
 30
0.0
 40
0.2
100
AcDbArc
 50
270.0
 51
0.0
  0
ARC
  5
5C05
330
5B8C
100
AcDbEntity
  8
1
  6
Continuous
 62
     3
100
AcDbCircle
 10
77.0999257258448
 20
-128.7999083952096
 30
0.0
 40
0.2
100
AcDbArc
 50
0.0
 51
90.0
  0
ARC
  5
5C06
330
5B8C
100
AcDbEntity
  8
1
  6
Continuous
 62
     3
100
AcDbCircle
 10
25.39992572584481
 20
-77.99990839520956
 30
0.0
 40
2.0
100
AcDbArc
 50
90.0
 51
180.0
  0
ARC
  5
5C07
330
5B8C
100
AcDbEntity
  8
1
  6
Continuous
 62
     3
100
AcDbCircle
 10
75.99992572584461
 20
-48.64990839520963
 30
0.0
 40
0.4
100
AcDbArc
 50
0.0
 51
90.0
  0
ARC
  5
5C08
330
5B8C
100
AcDbEntity
  8
1
  6
Continuous
 62
     3
100
AcDbCircle
 10
58.39992572584481
 20
-113.9999083952096
 30
0.0
 40
2.0
100
AcDbArc
 50
270.0
 51
0.0
  0
ARC
  5
5C09
330
5B8C
100
AcDbEntity
  8
1
  6
Continuous
 62
     3
100
AcDbCircle
 10
75.99992572584461
 20
-57.3499083952096
 30
0.0
 40
0.4
100
AcDbArc
 50
270.0
 51
0.0
  0
ARC
  5
5C0A
330
5B8C
100
AcDbEntity
  8
1
  6
Continuous
 62
     3
100
AcDbCircle
 10
79.74992572584461
 20
-49.59990839520962
 30
0.0
 40
1.0
100
AcDbArc
 50
0.0
 51
90.0
  0
ARC
  5
5C0B
330
5B8C
100
AcDbEntity
  8
1
  6
Continuous
 62
     3
100
AcDbCircle
 10
77.0999257258448
 20
-137.1999083952096
 30
0.0
 40
0.2
100
AcDbArc
 50
270.0
 51
0.0
  0
ARC
  5
5C0C
330
5B8C
100
AcDbEntity
  8
1
  6
Continuous
 62
     3
100
AcDbCircle
 10
79.54992572584479
 20
-136.3999083952096
 30
0.0
 40
1.0
100
AcDbArc
 50
270.0
 51
0.0
  0
ARC
  5
5C0D
330
5B8C
100
AcDbEntity
  8
1
  6
Continuous
 62
     3
100
AcDbCircle
 10
79.74992572584461
 20
-56.39990839520961
 30
0.0
 40
1.0
100
AcDbArc
 50
270.0
 51
0.0
  0
ARC
  5
5C0E
330
5B8C
100
AcDbEntity
  8
1
  6
Continuous
 62
     3
100
AcDbCircle
 10
75.79992572584481
 20
-137.3499083952095
 30
0.0
 40
0.4
100
AcDbArc
 50
270.0
 51
0.0
  0
ARC
  5
5C0F
330
5B8C
100
AcDbEntity
  8
1
  6
Continuous
 62
     3
100
AcDbCircle
 10
58.39992572584481
 20
-77.99990839520956
 30
0.0
 40
2.0
100
AcDbArc
 50
0.0
 51
90.0
  0
ARC
  5
5C10
330
5B8C
100
AcDbEntity
  8
1
  6
Continuous
 62
     3
100
AcDbCircle
 10
75.79992572584481
 20
-128.6499083952096
 30
0.0
 40
0.4
100
AcDbArc
 50
0.0
 51
90.0
  0
LINE
  5
5C11
330
5B8C
100
AcDbEntity
  8
10
  6
CONTINOUS
100
AcDbLine
 10
69.99965338727921
 20
-173.4991408956135
 30
0.0
 11
69.99965338727921
 21
-145.9999083952096
 31
0.0
  0
LINE
  5
5C12
330
5B8C
100
AcDbEntity
  8
10
  6
CONTINOUS
100
AcDbLine
 10
69.99965338727921
 20
-18.49990839520961
 30
0.0
 11
69.99965338727921
 21
-45.99990839520962
 31
0.0
  0
ENDBLK
  5
5C15
330
5B8C
100
AcDbEntity
  8
0
100
AcDbBlockEnd
  0
BLOCK
  5
5C18
330
5C17
100
AcDbEntity
  8
TOP
  6
Continuous
 62
     4
100
AcDbBlockBegin
  2
*U31
 70
     1
 10
0.0
 20
0.0
 30
0.0
  3
*U31
  1

  0
LINE
  5
5C19
330
5C17
100
AcDbEntity
  8
1
  6
ByBlock
 62
     0
100
AcDbLine
 10
287.2057572385031
 20
73.79512687471603
 30
0.0
 11
276.2057572385031
 21
73.79512687471603
 31
0.0
  0
LINE
  5
5C1A
330
5C17
100
AcDbEntity
  8
1
  6
ByBlock
 62
     0
100
AcDbLine
 10
296.8913158503363
 20
94.37207082491942
 30
0.0
 11
287.2057572385031
 21
73.79512687471603
 31
0.0
  0
SOLID
  5
5C1B
330
5C17
100
AcDbEntity
  8
1
  6
ByBlock
 62
     0
100
AcDbTrace
 10
296.8913158503363
 20
94.37207082491942
 30
0.0
 11
296.3411501381206
 21
92.42055119794148
 31
0.0
 12
295.7379635408423
 22
92.7044708682264
 32
0.0
 13
295.7379635408423
 23
92.7044708682264
 33
0.0
  0
TEXT
  5
5C1C
330
5C17
100
AcDbEntity
  8
TOP
  6
ByBlock
 62
     0
100
AcDbText
 10
274.4739864025374
 20
72.54512687281603
 30
0.0
 40
2.500000003799998
  1
 
 41
1.189062499999995
  7
UGMTXT
100
AcDbText
  0
TEXT
  5
5C1D
330
5C17
100
AcDbEntity
  8
TOP
  6
ByBlock
 62
     0
100
AcDbText
 10
272.742215566572
 20
72.54512687281603
 30
0.0
 40
2.500000003799998
  1
 
 41
1.189062499999995
  7
UGMTXT
100
AcDbText
  0
ENDBLK
  5
5C1E
330
5C17
100
AcDbEntity
  8
0
100
AcDbBlockEnd
  0
BLOCK
  5
5C20
330
5C1F
100
AcDbEntity
  8
0
100
AcDbBlockBegin
  2
*D32
 70
     1
 10
0.0
 20
0.0
 30
0.0
  3
*D32
  1

  0
LINE
  5
5C21
330
5C1F
100
AcDbEntity
  8
30
  6
Continuous
 62
     0
370
    -2
100
AcDbLine
 10
158.0001089354263
 20
-3.499987637474178
 30
0.0
 11
158.0001089354263
 21
-172.8996379392698
 31
0.0
  0
LINE
  5
5C22
330
5C1F
100
AcDbEntity
  8
30
  6
Continuous
 62
     0
370
    -2
100
AcDbLine
 10
194.9999257258451
 20
-106.9994751293082
 30
0.0
 11
194.9999257258451
 21
-172.8996379392698
 31
0.0
  0
LINE
  5
5C23
330
5C1F
100
AcDbEntity
  8
30
  6
Continuous
 62
     0
370
    -2
100
AcDbLine
 10
160.0001089354263
 20
-172.3996379392698
 30
0.0
 11
192.9999257258451
 21
-172.3996379392698
 31
0.0
  0
INSERT
  5
5C24
330
5C1F
100
AcDbEntity
  8
30
  6
Continuous
 62
     0
370
    -2
100
AcDbBlockReference
  2
_OPEN
 10
158.0001089354263
 20
-172.3996379392698
 30
0.0
 41
2.0
 42
2.0
 43
2.0
 50
180.0
  0
INSERT
  5
5C25
330
5C1F
100
AcDbEntity
  8
30
  6
Continuous
 62
     0
370
    -2
100
AcDbBlockReference
  2
_OPEN
 10
194.9999257258451
 20
-172.3996379392698
 30
0.0
 41
2.0
 42
2.0
 43
2.0
  0
MTEXT
  5
5C26
330
5C1F
100
AcDbEntity
  8
30
  6
Continuous
 62
     0
100
AcDbMText
 10
176.5000173306356
 20
-169.3996379392698
 30
0.0
 40
4.0
 41
0.0
 46
0.0
 71
     5
 72
     1
  1
\A1;37
 73
     1
 44
1.0
1001
ACAD
1000
MTEXTBEGIN
1070
    73
1070
     1
1070
    44
1040
1.0
1070
    74
1070
     0
1000
MTEXTEND
  0
POINT
  5
5C27
330
5C1F
100
AcDbEntity
  8
DEFPOINTS
  6
Continuous
 62
     0
100
AcDbPoint
 10
158.0001089354263
 20
-2.499987637474178
 30
0.0
  0
POINT
  5
5C28
330
5C1F
100
AcDbEntity
  8
DEFPOINTS
  6
Continuous
 62
     0
100
AcDbPoint
 10
194.9999257258451
 20
-105.9994751293082
 30
0.0
  0
POINT
  5
5C29
330
5C1F
100
AcDbEntity
  8
DEFPOINTS
  6
Continuous
 62
     0
100
AcDbPoint
 10
194.9999257258451
 20
-172.3996379392698
 30
0.0
  0
ENDBLK
  5
5C2A
330
5C1F
100
AcDbEntity
  8
0
100
AcDbBlockEnd
  0
BLOCK
  5
5C2C
330
5C2B
100
AcDbEntity
  8
0
100
AcDbBlockBegin
  2
*D33
 70
     1
 10
0.0
 20
0.0
 30
0.0
  3
*D33
  1

  0
LINE
  5
5C2D
330
5C2B
100
AcDbEntity
  8
30
  6
Continuous
 62
     0
370
    -2
100
AcDbLine
 10
194.9999257258451
 20
-106.9994751293082
 30
0.0
 11
194.9999257258451
 21
-172.8996379392698
 31
0.0
  0
LINE
  5
5C2E
330
5C2B
100
AcDbEntity
  8
30
  6
Continuous
 62
     0
370
    -2
100
AcDbLine
 10
351.9991483230286
 20
-67.99966824211003
 30
0.0
 11
351.9991483230286
 21
-172.8996379392698
 31
0.0
  0
LINE
  5
5C2F
330
5C2B
100
AcDbEntity
  8
30
  6
Continuous
 62
     0
370
    -2
100
AcDbLine
 10
196.9999257258451
 20
-172.3996379392698
 30
0.0
 11
349.9991483230286
 21
-172.3996379392698
 31
0.0
  0
INSERT
  5
5C30
330
5C2B
100
AcDbEntity
  8
30
  6
Continuous
 62
     0
370
    -2
100
AcDbBlockReference
  2
_OPEN
 10
194.9999257258451
 20
-172.3996379392698
 30
0.0
 41
2.0
 42
2.0
 43
2.0
 50
180.0
  0
INSERT
  5
5C31
330
5C2B
100
AcDbEntity
  8
30
  6
Continuous
 62
     0
370
    -2
100
AcDbBlockReference
  2
_OPEN
 10
351.9991483230286
 20
-172.3996379392698
 30
0.0
 41
2.0
 42
2.0
 43
2.0
  0
MTEXT
  5
5C32
330
5C2B
100
AcDbEntity
  8
30
  6
Continuous
 62
     0
100
AcDbMText
 10
273.4995370244369
 20
-169.3996379392698
 30
0.0
 40
4.0
 41
0.0
 46
0.0
 71
     5
 72
     1
  1
\A1;157
 73
     1
 44
1.0
1001
ACAD
1000
MTEXTBEGIN
1070
    73
1070
     1
1070
    44
1040
1.0
1070
    74
1070
     0
1000
MTEXTEND
  0
POINT
  5
5C33
330
5C2B
100
AcDbEntity
  8
DEFPOINTS
  6
Continuous
 62
     0
100
AcDbPoint
 10
194.9999257258451
 20
-105.9994751293082
 30
0.0
  0
POINT
  5
5C34
330
5C2B
100
AcDbEntity
  8
DEFPOINTS
  6
Continuous
 62
     0
100
AcDbPoint
 10
351.9991483230286
 20
-66.99966824211003
 30
0.0
  0
POINT
  5
5C35
330
5C2B
100
AcDbEntity
  8
DEFPOINTS
  6
Continuous
 62
     0
100
AcDbPoint
 10
351.9991483230286
 20
-172.3996379392698
 30
0.0
  0
ENDBLK
  5
5C36
330
5C2B
100
AcDbEntity
  8
0
100
AcDbBlockEnd
  0
BLOCK
  5
5C38
330
5C37
100
AcDbEntity
  8
0
100
AcDbBlockBegin
  2
*D34
 70
     1
 10
0.0
 20
0.0
 30
0.0
  3
*D34
  1

  0
LINE
  5
5C39
330
5C37
100
AcDbEntity
  8
30
  6
Continuous
 62
     0
370
    -2
100
AcDbLine
 10
194.9999257258451
 20
-106.9994751293082
 30
0.0
 11
194.9999257258451
 21
-147.8997617295276
 31
0.0
  0
LINE
  5
5C3A
330
5C37
100
AcDbEntity
  8
30
  6
Continuous
 62
     0
370
    -2
100
AcDbLine
 10
301.9993959035433
 20
-67.99966824211003
 30
0.0
 11
301.9993959035433
 21
-147.8997617295276
 31
0.0
  0
LINE
  5
5C3B
330
5C37
100
AcDbEntity
  8
30
  6
Continuous
 62
     0
370
    -2
100
AcDbLine
 10
196.9999257258451
 20
-147.3997617295276
 30
0.0
 11
299.9993959035433
 21
-147.3997617295276
 31
0.0
  0
INSERT
  5
5C3C
330
5C37
100
AcDbEntity
  8
30
  6
Continuous
 62
     0
370
    -2
100
AcDbBlockReference
  2
_OPEN
 10
194.9999257258451
 20
-147.3997617295276
 30
0.0
 41
2.0
 42
2.0
 43
2.0
 50
180.0
  0
INSERT
  5
5C3D
330
5C37
100
AcDbEntity
  8
30
  6
Continuous
 62
     0
370
    -2
100
AcDbBlockReference
  2
_OPEN
 10
301.9993959035433
 20
-147.3997617295276
 30
0.0
 41
2.0
 42
2.0
 43
2.0
  0
MTEXT
  5
5C3E
330
5C37
100
AcDbEntity
  8
30
  6
Continuous
 62
     0
100
AcDbMText
 10
248.4996608146942
 20
-144.3997617295276
 30
0.0
 40
4.0
 41
0.0
 46
0.0
 71
     5
 72
     1
  1
\A1;107
 73
     1
 44
1.0
1001
ACAD
1000
MTEXTBEGIN
1070
    73
1070
     1
1070
    44
1040
1.0
1070
    74
1070
     0
1000
MTEXTEND
  0
POINT
  5
5C3F
330
5C37
100
AcDbEntity
  8
DEFPOINTS
  6
Continuous
 62
     0
100
AcDbPoint
 10
194.9999257258451
 20
-105.9994751293082
 30
0.0
  0
POINT
  5
5C40
330
5C37
100
AcDbEntity
  8
DEFPOINTS
  6
Continuous
 62
     0
100
AcDbPoint
 10
301.9993959035433
 20
-66.99966824211003
 30
0.0
  0
POINT
  5
5C41
330
5C37
100
AcDbEntity
  8
DEFPOINTS
  6
Continuous
 62
     0
100
AcDbPoint
 10
301.9993959035433
 20
-147.3997617295276
 30
0.0
  0
ENDBLK
  5
5C42
330
5C37
100
AcDbEntity
  8
0
100
AcDbBlockEnd
  0
BLOCK
  5
5C44
330
5C43
100
AcDbEntity
  8
0
100
AcDbBlockBegin
  2
*D35
 70
     1
 10
0.0
 20
0.0
 30
0.0
  3
*D35
  1

  0
LINE
  5
5C45
330
5C43
100
AcDbEntity
  8
30
  6
Continuous
 62
     0
370
    -2
100
AcDbLine
 10
271.9995444518525
 20
-58.99970288688222
 30
0.0
 11
271.9995444518525
 21
-34.40031878568621
 31
0.0
  0
LINE
  5
5C46
330
5C43
100
AcDbEntity
  8
30
  6
Continuous
 62
     0
370
    -2
100
AcDbLine
 10
286.9994701776981
 20
-63.49968060463591
 30
0.0
 11
286.9994701776981
 21
-34.40031878568621
 31
0.0
  0
LINE
  5
5C47
330
5C43
100
AcDbEntity
  8
30
  6
Continuous
 62
     0
370
    -2
100
AcDbLine
 10
273.9995444518525
 20
-34.90031878568621
 30
0.0
 11
284.9994701776981
 21
-34.90031878568621
 31
0.0
  0
INSERT
  5
5C48
330
5C43
100
AcDbEntity
  8
30
  6
Continuous
 62
     0
370
    -2
100
AcDbBlockReference
  2
_OPEN
 10
271.9995444518525
 20
-34.90031878568621
 30
0.0
 41
2.0
 42
2.0
 43
2.0
 50
180.0
  0
INSERT
  5
5C49
330
5C43
100
AcDbEntity
  8
30
  6
Continuous
 62
     0
370
    -2
100
AcDbBlockReference
  2
_OPEN
 10
286.9994701776981
 20
-34.90031878568621
 30
0.0
 41
2.0
 42
2.0
 43
2.0
  0
MTEXT
  5
5C4A
330
5C43
100
AcDbEntity
  8
30
  6
Continuous
 62
     0
100
AcDbMText
 10
279.4995073147753
 20
-31.90031878568621
 30
0.0
 40
4.0
 41
0.0
 46
0.0
 71
     5
 72
     1
  1
\A1;15
 73
     1
 44
1.0
1001
ACAD
1000
MTEXTBEGIN
1070
    73
1070
     1
1070
    44
1040
1.0
1070
    74
1070
     0
1000
MTEXTEND
  0
POINT
  5
5C4B
330
5C43
100
AcDbEntity
  8
DEFPOINTS
  6
Continuous
 62
     0
100
AcDbPoint
 10
271.9995444518525
 20
-59.99970288688222
 30
0.0
  0
POINT
  5
5C4C
330
5C43
100
AcDbEntity
  8
DEFPOINTS
  6
Continuous
 62
     0
100
AcDbPoint
 10
286.9994701776981
 20
-64.49968060463591
 30
0.0
  0
POINT
  5
5C4D
330
5C43
100
AcDbEntity
  8
DEFPOINTS
  6
Continuous
 62
     0
100
AcDbPoint
 10
286.9994701776981
 20
-34.90031878568621
 30
0.0
  0
ENDBLK
  5
5C4E
330
5C43
100
AcDbEntity
  8
0
100
AcDbBlockEnd
  0
BLOCK
  5
5C50
330
5C4F
100
AcDbEntity
  8
0
100
AcDbBlockBegin
  2
*D36
 70
     1
 10
0.0
 20
0.0
 30
0.0
  3
*D36
  1

  0
LINE
  5
5C51
330
5C4F
100
AcDbEntity
  8
30
  6
Continuous
 62
     0
370
    -2
100
AcDbLine
 10
180.0
 20
-96.99952464541125
 30
0.0
 11
180.0
 21
-147.8997617295276
 31
0.0
  0
LINE
  5
5C52
330
5C4F
100
AcDbEntity
  8
30
  6
Continuous
 62
     0
370
    -2
100
AcDbLine
 10
194.9999257258451
 20
-106.9994751293082
 30
0.0
 11
194.9999257258451
 21
-147.8997617295276
 31
0.0
  0
LINE
  5
5C53
330
5C4F
100
AcDbEntity
  8
30
  6
Continuous
 62
     0
370
    -2
100
AcDbLine
 10
182.0
 20
-147.3997617295276
 30
0.0
 11
192.9999257258451
 21
-147.3997617295276
 31
0.0
  0
INSERT
  5
5C54
330
5C4F
100
AcDbEntity
  8
30
  6
Continuous
 62
     0
370
    -2
100
AcDbBlockReference
  2
_OPEN
 10
180.0
 20
-147.3997617295276
 30
0.0
 41
2.0
 42
2.0
 43
2.0
 50
180.0
  0
INSERT
  5
5C55
330
5C4F
100
AcDbEntity
  8
30
  6
Continuous
 62
     0
370
    -2
100
AcDbBlockReference
  2
_OPEN
 10
194.9999257258451
 20
-147.3997617295276
 30
0.0
 41
2.0
 42
2.0
 43
2.0
  0
MTEXT
  5
5C56
330
5C4F
100
AcDbEntity
  8
30
  6
Continuous
 62
     0
100
AcDbMText
 10
187.4999628629225
 20
-144.3997617295276
 30
0.0
 40
4.0
 41
0.0
 46
0.0
 71
     5
 72
     1
  1
\A1;15
 73
     1
 44
1.0
1001
ACAD
1000
MTEXTBEGIN
1070
    73
1070
     1
1070
    44
1040
1.0
1070
    74
1070
     0
1000
MTEXTEND
  0
POINT
  5
5C57
330
5C4F
100
AcDbEntity
  8
DEFPOINTS
  6
Continuous
 62
     0
100
AcDbPoint
 10
180.0
 20
-95.99952464541123
 30
0.0
  0
POINT
  5
5C58
330
5C4F
100
AcDbEntity
  8
DEFPOINTS
  6
Continuous
 62
     0
100
AcDbPoint
 10
194.9999257258451
 20
-105.9994751293082
 30
0.0
  0
POINT
  5
5C59
330
5C4F
100
AcDbEntity
  8
DEFPOINTS
  6
Continuous
 62
     0
100
AcDbPoint
 10
194.9999257258451
 20
-147.3997617295276
 30
0.0
  0
ENDBLK
  5
5C5A
330
5C4F
100
AcDbEntity
  8
0
100
AcDbBlockEnd
  0
BLOCK
  5
5C5C
330
5C5B
100
AcDbEntity
  8
0
100
AcDbBlockBegin
  2
*D37
 70
     1
 10
0.0
 20
0.0
 30
0.0
  3
*D37
  1

  0
LINE
  5
5C5D
330
5C5B
100
AcDbEntity
  8
30
  6
Continuous
 62
     0
370
    -2
100
AcDbLine
 10
336.9992225971831
 20
-70.49965587958421
 30
0.0
 11
336.9992225971831
 21
-122.8998855197852
 31
0.0
  0
LINE
  5
5C5E
330
5C5B
100
AcDbEntity
  8
30
  6
Continuous
 62
     0
370
    -2
100
AcDbLine
 10
351.9991483230286
 20
-77.28671009944187
 30
0.0
 11
351.9991483230286
 21
-122.8998855197852
 31
0.0
  0
LINE
  5
5C5F
330
5C5B
100
AcDbEntity
  8
30
  6
Continuous
 62
     0
370
    -2
100
AcDbLine
 10
338.9992225971831
 20
-122.3998855197852
 30
0.0
 11
349.9991483230286
 21
-122.3998855197852
 31
0.0
  0
INSERT
  5
5C60
330
5C5B
100
AcDbEntity
  8
30
  6
Continuous
 62
     0
370
    -2
100
AcDbBlockReference
  2
_OPEN
 10
336.9992225971831
 20
-122.3998855197852
 30
0.0
 41
2.0
 42
2.0
 43
2.0
 50
180.0
  0
INSERT
  5
5C61
330
5C5B
100
AcDbEntity
  8
30
  6
Continuous
 62
     0
370
    -2
100
AcDbBlockReference
  2
_OPEN
 10
351.9991483230286
 20
-122.3998855197852
 30
0.0
 41
2.0
 42
2.0
 43
2.0
  0
MTEXT
  5
5C62
330
5C5B
100
AcDbEntity
  8
30
  6
Continuous
 62
     0
100
AcDbMText
 10
344.4991854601059
 20
-119.3998855197852
 30
0.0
 40
4.0
 41
0.0
 46
0.0
 71
     5
 72
     1
  1
\A1;15
 73
     1
 44
1.0
1001
ACAD
1000
MTEXTBEGIN
1070
    73
1070
     1
1070
    44
1040
1.0
1070
    74
1070
     0
1000
MTEXTEND
  0
POINT
  5
5C63
330
5C5B
100
AcDbEntity
  8
DEFPOINTS
  6
Continuous
 62
     0
100
AcDbPoint
 10
336.9992225971831
 20
-69.49965587958423
 30
0.0
  0
POINT
  5
5C64
330
5C5B
100
AcDbEntity
  8
DEFPOINTS
  6
Continuous
 62
     0
100
AcDbPoint
 10
351.9991483230286
 20
-76.28671009944188
 30
0.0
  0
POINT
  5
5C65
330
5C5B
100
AcDbEntity
  8
DEFPOINTS
  6
Continuous
 62
     0
100
AcDbPoint
 10
351.9991483230286
 20
-122.3998855197852
 30
0.0
  0
ENDBLK
  5
5C66
330
5C5B
100
AcDbEntity
  8
0
100
AcDbBlockEnd
  0
BLOCK
  5
5C68
330
5C67
100
AcDbEntity
  8
0
100
AcDbBlockBegin
  2
*D38
 70
     1
 10
0.0
 20
0.0
 30
0.0
  3
*D38
  1

  0
LINE
  5
5C69
330
5C67
100
AcDbEntity
  8
30
  6
Continuous
 62
     0
370
    -2
100
AcDbLine
 10
286.9994701776981
 20
-70.49965587958421
 30
0.0
 11
286.9994701776981
 21
-122.8998855197852
 31
0.0
  0
LINE
  5
5C6A
330
5C67
100
AcDbEntity
  8
30
  6
Continuous
 62
     0
370
    -2
100
AcDbLine
 10
301.9993959035433
 20
-77.28671009944187
 30
0.0
 11
301.9993959035433
 21
-122.8998855197852
 31
0.0
  0
LINE
  5
5C6B
330
5C67
100
AcDbEntity
  8
30
  6
Continuous
 62
     0
370
    -2
100
AcDbLine
 10
288.9994701776981
 20
-122.3998855197852
 30
0.0
 11
299.9993959035433
 21
-122.3998855197852
 31
0.0
  0
INSERT
  5
5C6C
330
5C67
100
AcDbEntity
  8
30
  6
Continuous
 62
     0
370
    -2
100
AcDbBlockReference
  2
_OPEN
 10
286.9994701776981
 20
-122.3998855197852
 30
0.0
 41
2.0
 42
2.0
 43
2.0
 50
180.0
  0
INSERT
  5
5C6D
330
5C67
100
AcDbEntity
  8
30
  6
Continuous
 62
     0
370
    -2
100
AcDbBlockReference
  2
_OPEN
 10
301.9993959035433
 20
-122.3998855197852
 30
0.0
 41
2.0
 42
2.0
 43
2.0
  0
MTEXT
  5
5C6E
330
5C67
100
AcDbEntity
  8
30
  6
Continuous
 62
     0
100
AcDbMText
 10
294.4994330406207
 20
-119.3998855197852
 30
0.0
 40
4.0
 41
0.0
 46
0.0
 71
     5
 72
     1
  1
\A1;15
 73
     1
 44
1.0
1001
ACAD
1000
MTEXTBEGIN
1070
    73
1070
     1
1070
    44
1040
1.0
1070
    74
1070
     0
1000
MTEXTEND
  0
POINT
  5
5C6F
330
5C67
100
AcDbEntity
  8
DEFPOINTS
  6
Continuous
 62
     0
100
AcDbPoint
 10
286.9994701776981
 20
-69.49965587958423
 30
0.0
  0
POINT
  5
5C70
330
5C67
100
AcDbEntity
  8
DEFPOINTS
  6
Continuous
 62
     0
100
AcDbPoint
 10
301.9993959035433
 20
-76.28671009944188
 30
0.0
  0
POINT
  5
5C71
330
5C67
100
AcDbEntity
  8
DEFPOINTS
  6
Continuous
 62
     0
100
AcDbPoint
 10
301.9993959035433
 20
-122.3998855197852
 30
0.0
  0
ENDBLK
  5
5C72
330
5C67
100
AcDbEntity
  8
0
100
AcDbBlockEnd
  0
BLOCK
  5
5C74
330
5C73
100
AcDbEntity
  8
0
100
AcDbBlockBegin
  2
*D39
 70
     1
 10
0.0
 20
0.0
 30
0.0
  3
*D39
  1

  0
LINE
  5
5C75
330
5C73
100
AcDbEntity
  8
30
  6
Continuous
 62
     0
370
    -2
100
AcDbLine
 10
350.8555653978196
 20
-74.99962862922766
 30
0.0
 11
376.5857515477538
 21
-74.99962862922767
 31
0.0
  0
LINE
  5
5C76
330
5C73
100
AcDbEntity
  8
30
  6
Continuous
 62
     0
370
    -2
100
AcDbLine
 10
350.8555653978196
 20
-58.99970785499242
 30
0.0
 11
376.5857515477538
 21
-58.99970785499242
 31
0.0
  0
LINE
  5
5C77
330
5C73
100
AcDbEntity
  8
30
  6
Continuous
 62
     0
370
    -2
100
AcDbLine
 10
376.0857515477538
 20
-72.99962862922767
 30
0.0
 11
376.0857515477538
 21
-60.99970785499241
 31
0.0
  0
INSERT
  5
5C78
330
5C73
100
AcDbEntity
  8
30
  6
Continuous
 62
     0
370
    -2
100
AcDbBlockReference
  2
_OPEN
 10
376.0857515477538
 20
-74.99962862922767
 30
0.0
 41
2.0
 42
2.0
 43
2.0
 50
270.0
  0
INSERT
  5
5C79
330
5C73
100
AcDbEntity
  8
30
  6
Continuous
 62
     0
370
    -2
100
AcDbBlockReference
  2
_OPEN
 10
376.0857515477538
 20
-58.99970785499242
 30
0.0
 41
2.0
 42
2.0
 43
2.0
 50
90.0
  0
MTEXT
  5
5C7A
330
5C73
100
AcDbEntity
  8
30
  6
Continuous
 62
     0
100
AcDbMText
 10
373.0857515477538
 20
-66.99966824210999
 30
0.0
 40
4.0
 41
0.0
 46
0.0
 71
     5
 72
     1
  1
\A1;16
 11
0.0000000000000001
 21
1.0
 31
0.0
 73
     1
 44
1.0
1001
ACAD
1000
MTEXTBEGIN
1070
    73
1070
     1
1070
    44
1040
1.0
1070
    74
1070
     0
1000
MTEXTEND
  0
POINT
  5
5C7B
330
5C73
100
AcDbEntity
  8
DEFPOINTS
  6
Continuous
 62
     0
100
AcDbPoint
 10
349.8555653978196
 20
-74.99962862922766
 30
0.0
  0
POINT
  5
5C7C
330
5C73
100
AcDbEntity
  8
DEFPOINTS
  6
Continuous
 62
     0
100
AcDbPoint
 10
349.8555653978196
 20
-58.99970785499242
 30
0.0
  0
POINT
  5
5C7D
330
5C73
100
AcDbEntity
  8
DEFPOINTS
  6
Continuous
 62
     0
100
AcDbPoint
 10
376.0857515477538
 20
-58.99970785499242
 30
0.0
  0
ENDBLK
  5
5C7E
330
5C73
100
AcDbEntity
  8
0
100
AcDbBlockEnd
  0
BLOCK
  5
5C80
330
5C7F
100
AcDbEntity
  8
0
100
AcDbBlockBegin
  2
*D40
 70
     1
 10
0.0
 20
0.0
 30
0.0
  3
*D40
  1

  0
LINE
  5
5C81
330
5C7F
100
AcDbEntity
  8
30
  6
Continuous
 62
     0
370
    -2
100
AcDbLine
 10
352.9991483230286
 20
64.49968062113573
 30
0.0
 11
374.2524182144205
 21
64.49968062113573
 31
0.0
  0
LINE
  5
5C82
330
5C7F
100
AcDbEntity
  8
30
  6
Continuous
 62
     0
370
    -2
100
AcDbLine
 10
352.9991483230286
 20
69.49965586308421
 30
0.0
 11
374.2524182144205
 21
69.49965586308421
 31
0.0
  0
LINE
  5
5C83
330
5C7F
100
AcDbEntity
  8
30
  6
Continuous
 62
     0
370
    -2
100
AcDbLine
 10
373.7524182144205
 20
62.49968062113573
 30
0.0
 11
373.7524182144205
 21
60.49968062113574
 31
0.0
  0
LINE
  5
5C84
330
5C7F
100
AcDbEntity
  8
30
  6
Continuous
 62
     0
370
    -2
100
AcDbLine
 10
373.7524182144205
 20
71.49965586308423
 30
0.0
 11
373.7524182144205
 21
73.49965586308425
 31
0.0
  0
LINE
  5
5C85
330
5C7F
100
AcDbEntity
  8
30
  6
Continuous
 62
     0
370
    -2
100
AcDbLine
 10
373.7524182144205
 20
73.49965586308425
 30
0.0
 11
377.4190848810872
 21
73.49965586308425
 31
0.0
  0
INSERT
  5
5C86
330
5C7F
100
AcDbEntity
  8
30
  6
Continuous
 62
     0
370
    -2
100
AcDbBlockReference
  2
_OPEN
 10
373.7524182144205
 20
64.49968062113573
 30
0.0
 41
2.0
 42
2.0
 43
2.0
 50
90.0
  0
INSERT
  5
5C87
330
5C7F
100
AcDbEntity
  8
30
  6
Continuous
 62
     0
370
    -2
100
AcDbBlockReference
  2
_OPEN
 10
373.7524182144205
 20
69.49965586308421
 30
0.0
 41
2.0
 42
2.0
 43
2.0
 50
270.0
  0
MTEXT
  5
5C88
330
5C7F
100
AcDbEntity
  8
30
  6
Continuous
 62
     0
100
AcDbMText
 10
376.0857515477538
 20
76.4996558630843
 30
0.0
 40
4.0
 41
0.0
 46
0.0
 71
     5
 72
     1
  1
\A1;5
 73
     1
 44
1.0
1001
ACAD
1000
MTEXTBEGIN
1070
    73
1070
     1
1070
    44
1040
1.0
1070
    74
1070
     0
1000
MTEXTEND
  0
POINT
  5
5C89
330
5C7F
100
AcDbEntity
  8
DEFPOINTS
  6
Continuous
 62
     0
100
AcDbPoint
 10
351.9991483230286
 20
64.49968062113575
 30
0.0
  0
POINT
  5
5C8A
330
5C7F
100
AcDbEntity
  8
DEFPOINTS
  6
Continuous
 62
     0
100
AcDbPoint
 10
351.9991483230286
 20
69.49965586308424
 30
0.0
  0
POINT
  5
5C8B
330
5C7F
100
AcDbEntity
  8
DEFPOINTS
  6
Continuous
 62
     0
100
AcDbPoint
 10
373.7524182144205
 20
69.49965586308421
 30
0.0
  0
ENDBLK
  5
5C8C
330
5C7F
100
AcDbEntity
  8
0
100
AcDbBlockEnd
  0
BLOCK
  5
5C8E
330
5C8D
100
AcDbEntity
  8
0
100
AcDbBlockBegin
  2
*D41
 70
     1
 10
0.0
 20
0.0
 30
0.0
  3
*D41
  1

  0
LINE
  5
5C8F
330
5C8D
100
AcDbEntity
  8
30
  6
Continuous
 62
     0
370
    -2
100
AcDbLine
 10
362.9990988069256
 20
66.99966824210996
 30
0.0
 11
388.2367141808032
 21
66.99966824210996
 31
0.0
  0
LINE
  5
5C90
330
5C8D
100
AcDbEntity
  8
30
  6
Continuous
 62
     0
370
    -2
100
AcDbLine
 10
377.0857515477538
 20
-66.99966824211003
 30
0.0
 11
388.2367141808032
 21
-66.99966824211003
 31
0.0
  0
LINE
  5
5C91
330
5C8D
100
AcDbEntity
  8
30
  6
Continuous
 62
     0
370
    -2
100
AcDbLine
 10
387.7367141808032
 20
64.99966824210996
 30
0.0
 11
387.7367141808032
 21
-64.99966824211004
 31
0.0
  0
INSERT
  5
5C92
330
5C8D
100
AcDbEntity
  8
30
  6
Continuous
 62
     0
370
    -2
100
AcDbBlockReference
  2
_OPEN
 10
387.7367141808032
 20
66.99966824210996
 30
0.0
 41
2.0
 42
2.0
 43
2.0
 50
90.0
  0
INSERT
  5
5C93
330
5C8D
100
AcDbEntity
  8
30
  6
Continuous
 62
     0
370
    -2
100
AcDbBlockReference
  2
_OPEN
 10
387.7367141808032
 20
-66.99966824211003
 30
0.0
 41
2.0
 42
2.0
 43
2.0
 50
270.0
  0
MTEXT
  5
5C94
330
5C8D
100
AcDbEntity
  8
30
  6
Continuous
 62
     0
100
AcDbMText
 10
384.7367141808033
 20
0.0000000000000264
 30
0.0
 40
4.0
 41
0.0
 46
0.0
 71
     5
 72
     1
  1
\A1;134
 11
0.0000000000000001
 21
1.0
 31
0.0
 73
     1
 44
1.0
1001
ACAD
1000
MTEXTBEGIN
1070
    73
1070
     1
1070
    44
1040
1.0
1070
    74
1070
     0
1000
MTEXTEND
  0
POINT
  5
5C95
330
5C8D
100
AcDbEntity
  8
DEFPOINTS
  6
Continuous
 62
     0
100
AcDbPoint
 10
361.9990988069257
 20
66.99966824210996
 30
0.0
  0
POINT
  5
5C96
330
5C8D
100
AcDbEntity
  8
DEFPOINTS
  6
Continuous
 62
     0
100
AcDbPoint
 10
376.0857515477538
 20
-66.99966824211003
 30
0.0
  0
POINT
  5
5C97
330
5C8D
100
AcDbEntity
  8
DEFPOINTS
  6
Continuous
 62
     0
100
AcDbPoint
 10
387.7367141808032
 20
-66.99966824211003
 30
0.0
  0
ENDBLK
  5
5C98
330
5C8D
100
AcDbEntity
  8
0
100
AcDbBlockEnd
  0
BLOCK
  5
5DAB
330
5DAA
100
AcDbEntity
  8
0
100
AcDbBlockBegin
  2
*D42
 70
     1
 10
0.0
 20
0.0
 30
0.0
  3
*D42
  1

  0
LINE
  5
5E24
330
5DAA
100
AcDbEntity
  8
30
  6
Continuous
 62
     0
440
 16777216
370
    -2
100
AcDbLine
 10
208.0001089354263
 20
-3.499987637474176
 30
0.0
 11
208.0001089354263
 21
-172.8996379392698
 31
0.0
  0
LINE
  5
5E25
330
5DAA
100
AcDbEntity
  8
30
  6
Continuous
 62
     0
440
 16777216
370
    -2
100
AcDbLine
 10
244.9999257258451
 20
-106.9994751293082
 30
0.0
 11
244.9999257258451
 21
-172.8996379392698
 31
0.0
  0
LINE
  5
5E26
330
5DAA
100
AcDbEntity
  8
30
  6
Continuous
 62
     0
440
 16777216
370
    -2
100
AcDbLine
 10
210.0001089354263
 20
-172.3996379392698
 30
0.0
 11
242.9999257258451
 21
-172.3996379392698
 31
0.0
  0
INSERT
  5
5E27
330
5DAA
100
AcDbEntity
  8
30
  6
Continuous
 62
     0
440
 16777216
370
    -2
100
AcDbBlockReference
  2
_OPEN
 10
208.0001089354263
 20
-172.3996379392698
 30
0.0
 41
2.0
 42
2.0
 43
2.0
 50
180.0
  0
INSERT
  5
5E28
330
5DAA
100
AcDbEntity
  8
30
  6
Continuous
 62
     0
440
 16777216
370
    -2
100
AcDbBlockReference
  2
_OPEN
 10
244.9999257258451
 20
-172.3996379392698
 30
0.0
 41
2.0
 42
2.0
 43
2.0
  0
MTEXT
  5
5E29
330
5DAA
100
AcDbEntity
  8
30
  6
Continuous
 62
     0
440
 16777216
100
AcDbMText
 10
226.5000173306357
 20
-169.3996379392698
 30
0.0
 40
4.0
 41
0.0
 46
0.0
 71
     5
 72
     1
  1
\A1;37
 73
     1
 44
1.0
1001
ACAD
1000
MTEXTBEGIN
1070
    73
1070
     1
1070
    44
1040
1.0
1070
    74
1070
     0
1000
MTEXTEND
  0
POINT
  5
5E2A
330
5DAA
100
AcDbEntity
  8
DEFPOINTS
  6
Continuous
 62
     0
440
 16777216
100
AcDbPoint
 10
208.0001089354263
 20
-2.499987637474176
 30
0.0
  0
POINT
  5
5E2B
330
5DAA
100
AcDbEntity
  8
DEFPOINTS
  6
Continuous
 62
     0
440
 16777216
100
AcDbPoint
 10
244.9999257258451
 20
-105.9994751293082
 30
0.0
  0
POINT
  5
5E2C
330
5DAA
100
AcDbEntity
  8
DEFPOINTS
  6
Continuous
 62
     0
440
 16777216
100
AcDbPoint
 10
244.9999257258451
 20
-172.3996379392698
 30
0.0
  0
ENDBLK
  5
5DAC
330
5DAA
100
AcDbEntity
  8
0
100
AcDbBlockEnd
  0
BLOCK
  5
5DB7
330
5DB6
100
AcDbEntity
  8
0
100
AcDbBlockBegin
  2
*D43
 70
     1
 10
0.0
 20
0.0
 30
0.0
  3
*D43
  1

  0
LINE
  5
5E2D
330
5DB6
100
AcDbEntity
  8
30
  6
Continuous
 62
     0
440
 16777216
370
    -2
100
AcDbLine
 10
244.9999257258451
 20
-106.9994751293082
 30
0.0
 11
244.9999257258451
 21
-172.8996379392698
 31
0.0
  0
LINE
  5
5E2E
330
5DB6
100
AcDbEntity
  8
30
  6
Continuous
 62
     0
440
 16777216
370
    -2
100
AcDbLine
 10
401.9991483230286
 20
-67.99966824211003
 30
0.0
 11
401.9991483230286
 21
-172.8996379392698
 31
0.0
  0
LINE
  5
5E2F
330
5DB6
100
AcDbEntity
  8
30
  6
Continuous
 62
     0
440
 16777216
370
    -2
100
AcDbLine
 10
246.9999257258451
 20
-172.3996379392698
 30
0.0
 11
399.9991483230287
 21
-172.3996379392698
 31
0.0
  0
INSERT
  5
5E30
330
5DB6
100
AcDbEntity
  8
30
  6
Continuous
 62
     0
440
 16777216
370
    -2
100
AcDbBlockReference
  2
_OPEN
 10
244.9999257258451
 20
-172.3996379392698
 30
0.0
 41
2.0
 42
2.0
 43
2.0
 50
180.0
  0
INSERT
  5
5E31
330
5DB6
100
AcDbEntity
  8
30
  6
Continuous
 62
     0
440
 16777216
370
    -2
100
AcDbBlockReference
  2
_OPEN
 10
401.9991483230286
 20
-172.3996379392698
 30
0.0
 41
2.0
 42
2.0
 43
2.0
  0
MTEXT
  5
5E32
330
5DB6
100
AcDbEntity
  8
30
  6
Continuous
 62
     0
440
 16777216
100
AcDbMText
 10
323.4995370244369
 20
-169.3996379392698
 30
0.0
 40
4.0
 41
0.0
 46
0.0
 71
     5
 72
     1
  1
\A1;157
 73
     1
 44
1.0
1001
ACAD
1000
MTEXTBEGIN
1070
    73
1070
     1
1070
    44
1040
1.0
1070
    74
1070
     0
1000
MTEXTEND
  0
POINT
  5
5E33
330
5DB6
100
AcDbEntity
  8
DEFPOINTS
  6
Continuous
 62
     0
440
 16777216
100
AcDbPoint
 10
244.9999257258451
 20
-105.9994751293082
 30
0.0
  0
POINT
  5
5E34
330
5DB6
100
AcDbEntity
  8
DEFPOINTS
  6
Continuous
 62
     0
440
 16777216
100
AcDbPoint
 10
401.9991483230286
 20
-66.99966824211003
 30
0.0
  0
POINT
  5
5E35
330
5DB6
100
AcDbEntity
  8
DEFPOINTS
  6
Continuous
 62
     0
440
 16777216
100
AcDbPoint
 10
401.9991483230286
 20
-172.3996379392698
 30
0.0
  0
ENDBLK
  5
5DB8
330
5DB6
100
AcDbEntity
  8
0
100
AcDbBlockEnd
  0
BLOCK
  5
5DC3
330
5DC2
100
AcDbEntity
  8
0
100
AcDbBlockBegin
  2
*D44
 70
     1
 10
0.0
 20
0.0
 30
0.0
  3
*D44
  1

  0
LINE
  5
5E36
330
5DC2
100
AcDbEntity
  8
30
  6
Continuous
 62
     0
440
 16777216
370
    -2
100
AcDbLine
 10
244.9999257258451
 20
-106.9994751293082
 30
0.0
 11
244.9999257258451
 21
-147.8997617295276
 31
0.0
  0
LINE
  5
5E37
330
5DC2
100
AcDbEntity
  8
30
  6
Continuous
 62
     0
440
 16777216
370
    -2
100
AcDbLine
 10
351.9993959035433
 20
-67.99966824211003
 30
0.0
 11
351.9993959035433
 21
-147.8997617295276
 31
0.0
  0
LINE
  5
5E38
330
5DC2
100
AcDbEntity
  8
30
  6
Continuous
 62
     0
440
 16777216
370
    -2
100
AcDbLine
 10
246.9999257258451
 20
-147.3997617295276
 30
0.0
 11
349.9993959035433
 21
-147.3997617295276
 31
0.0
  0
INSERT
  5
5E39
330
5DC2
100
AcDbEntity
  8
30
  6
Continuous
 62
     0
440
 16777216
370
    -2
100
AcDbBlockReference
  2
_OPEN
 10
244.9999257258451
 20
-147.3997617295276
 30
0.0
 41
2.0
 42
2.0
 43
2.0
 50
180.0
  0
INSERT
  5
5E3A
330
5DC2
100
AcDbEntity
  8
30
  6
Continuous
 62
     0
440
 16777216
370
    -2
100
AcDbBlockReference
  2
_OPEN
 10
351.9993959035433
 20
-147.3997617295276
 30
0.0
 41
2.0
 42
2.0
 43
2.0
  0
MTEXT
  5
5E3B
330
5DC2
100
AcDbEntity
  8
30
  6
Continuous
 62
     0
440
 16777216
100
AcDbMText
 10
298.4996608146941
 20
-144.3997617295276
 30
0.0
 40
4.0
 41
0.0
 46
0.0
 71
     5
 72
     1
  1
\A1;107
 73
     1
 44
1.0
1001
ACAD
1000
MTEXTBEGIN
1070
    73
1070
     1
1070
    44
1040
1.0
1070
    74
1070
     0
1000
MTEXTEND
  0
POINT
  5
5E3C
330
5DC2
100
AcDbEntity
  8
DEFPOINTS
  6
Continuous
 62
     0
440
 16777216
100
AcDbPoint
 10
244.9999257258451
 20
-105.9994751293082
 30
0.0
  0
POINT
  5
5E3D
330
5DC2
100
AcDbEntity
  8
DEFPOINTS
  6
Continuous
 62
     0
440
 16777216
100
AcDbPoint
 10
351.9993959035433
 20
-66.99966824211003
 30
0.0
  0
POINT
  5
5E3E
330
5DC2
100
AcDbEntity
  8
DEFPOINTS
  6
Continuous
 62
     0
440
 16777216
100
AcDbPoint
 10
351.9993959035433
 20
-147.3997617295276
 30
0.0
  0
ENDBLK
  5
5DC4
330
5DC2
100
AcDbEntity
  8
0
100
AcDbBlockEnd
  0
BLOCK
  5
5DCF
330
5DCE
100
AcDbEntity
  8
0
100
AcDbBlockBegin
  2
*D45
 70
     1
 10
0.0
 20
0.0
 30
0.0
  3
*D45
  1

  0
LINE
  5
5E3F
330
5DCE
100
AcDbEntity
  8
30
  6
Continuous
 62
     0
440
 16777216
370
    -2
100
AcDbLine
 10
321.9995444518525
 20
-58.99970288688223
 30
0.0
 11
321.9995444518525
 21
-34.40031878568621
 31
0.0
  0
LINE
  5
5E40
330
5DCE
100
AcDbEntity
  8
30
  6
Continuous
 62
     0
440
 16777216
370
    -2
100
AcDbLine
 10
336.9994701776982
 20
-63.4996806046359
 30
0.0
 11
336.9994701776982
 21
-34.40031878568621
 31
0.0
  0
LINE
  5
5E41
330
5DCE
100
AcDbEntity
  8
30
  6
Continuous
 62
     0
440
 16777216
370
    -2
100
AcDbLine
 10
323.9995444518525
 20
-34.90031878568621
 30
0.0
 11
334.9994701776981
 21
-34.90031878568621
 31
0.0
  0
INSERT
  5
5E42
330
5DCE
100
AcDbEntity
  8
30
  6
Continuous
 62
     0
440
 16777216
370
    -2
100
AcDbBlockReference
  2
_OPEN
 10
321.9995444518525
 20
-34.90031878568621
 30
0.0
 41
2.0
 42
2.0
 43
2.0
 50
180.0
  0
INSERT
  5
5E43
330
5DCE
100
AcDbEntity
  8
30
  6
Continuous
 62
     0
440
 16777216
370
    -2
100
AcDbBlockReference
  2
_OPEN
 10
336.9994701776982
 20
-34.90031878568621
 30
0.0
 41
2.0
 42
2.0
 43
2.0
  0
MTEXT
  5
5E44
330
5DCE
100
AcDbEntity
  8
30
  6
Continuous
 62
     0
440
 16777216
100
AcDbMText
 10
329.4995073147753
 20
-31.90031878568621
 30
0.0
 40
4.0
 41
0.0
 46
0.0
 71
     5
 72
     1
  1
\A1;15
 73
     1
 44
1.0
1001
ACAD
1000
MTEXTBEGIN
1070
    73
1070
     1
1070
    44
1040
1.0
1070
    74
1070
     0
1000
MTEXTEND
  0
POINT
  5
5E45
330
5DCE
100
AcDbEntity
  8
DEFPOINTS
  6
Continuous
 62
     0
440
 16777216
100
AcDbPoint
 10
321.9995444518525
 20
-59.99970288688222
 30
0.0
  0
POINT
  5
5E46
330
5DCE
100
AcDbEntity
  8
DEFPOINTS
  6
Continuous
 62
     0
440
 16777216
100
AcDbPoint
 10
336.9994701776982
 20
-64.49968060463588
 30
0.0
  0
POINT
  5
5E47
330
5DCE
100
AcDbEntity
  8
DEFPOINTS
  6
Continuous
 62
     0
440
 16777216
100
AcDbPoint
 10
336.9994701776982
 20
-34.90031878568621
 30
0.0
  0
ENDBLK
  5
5DD0
330
5DCE
100
AcDbEntity
  8
0
100
AcDbBlockEnd
  0
BLOCK
  5
5DDB
330
5DDA
100
AcDbEntity
  8
0
100
AcDbBlockBegin
  2
*D46
 70
     1
 10
0.0
 20
0.0
 30
0.0
  3
*D46
  1

  0
LINE
  5
5E48
330
5DDA
100
AcDbEntity
  8
30
  6
Continuous
 62
     0
440
 16777216
370
    -2
100
AcDbLine
 10
230.0
 20
-96.99952464541125
 30
0.0
 11
230.0
 21
-147.8997617295276
 31
0.0
  0
LINE
  5
5E49
330
5DDA
100
AcDbEntity
  8
30
  6
Continuous
 62
     0
440
 16777216
370
    -2
100
AcDbLine
 10
244.9999257258451
 20
-106.9994751293082
 30
0.0
 11
244.9999257258451
 21
-147.8997617295276
 31
0.0
  0
LINE
  5
5E4A
330
5DDA
100
AcDbEntity
  8
30
  6
Continuous
 62
     0
440
 16777216
370
    -2
100
AcDbLine
 10
232.0
 20
-147.3997617295276
 30
0.0
 11
242.9999257258451
 21
-147.3997617295276
 31
0.0
  0
INSERT
  5
5E4B
330
5DDA
100
AcDbEntity
  8
30
  6
Continuous
 62
     0
440
 16777216
370
    -2
100
AcDbBlockReference
  2
_OPEN
 10
230.0
 20
-147.3997617295276
 30
0.0
 41
2.0
 42
2.0
 43
2.0
 50
180.0
  0
INSERT
  5
5E4C
330
5DDA
100
AcDbEntity
  8
30
  6
Continuous
 62
     0
440
 16777216
370
    -2
100
AcDbBlockReference
  2
_OPEN
 10
244.9999257258451
 20
-147.3997617295276
 30
0.0
 41
2.0
 42
2.0
 43
2.0
  0
MTEXT
  5
5E4D
330
5DDA
100
AcDbEntity
  8
30
  6
Continuous
 62
     0
440
 16777216
100
AcDbMText
 10
237.4999628629225
 20
-144.3997617295276
 30
0.0
 40
4.0
 41
0.0
 46
0.0
 71
     5
 72
     1
  1
\A1;15
 73
     1
 44
1.0
1001
ACAD
1000
MTEXTBEGIN
1070
    73
1070
     1
1070
    44
1040
1.0
1070
    74
1070
     0
1000
MTEXTEND
  0
POINT
  5
5E4E
330
5DDA
100
AcDbEntity
  8
DEFPOINTS
  6
Continuous
 62
     0
440
 16777216
100
AcDbPoint
 10
230.0
 20
-95.99952464541123
 30
0.0
  0
POINT
  5
5E4F
330
5DDA
100
AcDbEntity
  8
DEFPOINTS
  6
Continuous
 62
     0
440
 16777216
100
AcDbPoint
 10
244.9999257258451
 20
-105.9994751293082
 30
0.0
  0
POINT
  5
5E50
330
5DDA
100
AcDbEntity
  8
DEFPOINTS
  6
Continuous
 62
     0
440
 16777216
100
AcDbPoint
 10
244.9999257258451
 20
-147.3997617295276
 30
0.0
  0
ENDBLK
  5
5DDC
330
5DDA
100
AcDbEntity
  8
0
100
AcDbBlockEnd
  0
BLOCK
  5
5DE7
330
5DE6
100
AcDbEntity
  8
0
100
AcDbBlockBegin
  2
*D47
 70
     1
 10
0.0
 20
0.0
 30
0.0
  3
*D47
  1

  0
LINE
  5
5E51
330
5DE6
100
AcDbEntity
  8
30
  6
Continuous
 62
     0
440
 16777216
370
    -2
100
AcDbLine
 10
386.9992225971832
 20
-70.49965587958421
 30
0.0
 11
386.9992225971832
 21
-122.8998855197852
 31
0.0
  0
LINE
  5
5E52
330
5DE6
100
AcDbEntity
  8
30
  6
Continuous
 62
     0
440
 16777216
370
    -2
100
AcDbLine
 10
401.9991483230286
 20
-77.28671009944187
 30
0.0
 11
401.9991483230286
 21
-122.8998855197852
 31
0.0
  0
LINE
  5
5E53
330
5DE6
100
AcDbEntity
  8
30
  6
Continuous
 62
     0
440
 16777216
370
    -2
100
AcDbLine
 10
388.9992225971832
 20
-122.3998855197852
 30
0.0
 11
399.9991483230287
 21
-122.3998855197852
 31
0.0
  0
INSERT
  5
5E54
330
5DE6
100
AcDbEntity
  8
30
  6
Continuous
 62
     0
440
 16777216
370
    -2
100
AcDbBlockReference
  2
_OPEN
 10
386.9992225971832
 20
-122.3998855197852
 30
0.0
 41
2.0
 42
2.0
 43
2.0
 50
180.0
  0
INSERT
  5
5E55
330
5DE6
100
AcDbEntity
  8
30
  6
Continuous
 62
     0
440
 16777216
370
    -2
100
AcDbBlockReference
  2
_OPEN
 10
401.9991483230286
 20
-122.3998855197852
 30
0.0
 41
2.0
 42
2.0
 43
2.0
  0
MTEXT
  5
5E56
330
5DE6
100
AcDbEntity
  8
30
  6
Continuous
 62
     0
440
 16777216
100
AcDbMText
 10
394.4991854601059
 20
-119.3998855197852
 30
0.0
 40
4.0
 41
0.0
 46
0.0
 71
     5
 72
     1
  1
\A1;15
 73
     1
 44
1.0
1001
ACAD
1000
MTEXTBEGIN
1070
    73
1070
     1
1070
    44
1040
1.0
1070
    74
1070
     0
1000
MTEXTEND
  0
POINT
  5
5E57
330
5DE6
100
AcDbEntity
  8
DEFPOINTS
  6
Continuous
 62
     0
440
 16777216
100
AcDbPoint
 10
386.9992225971832
 20
-69.49965587958423
 30
0.0
  0
POINT
  5
5E58
330
5DE6
100
AcDbEntity
  8
DEFPOINTS
  6
Continuous
 62
     0
440
 16777216
100
AcDbPoint
 10
401.9991483230286
 20
-76.28671009944188
 30
0.0
  0
POINT
  5
5E59
330
5DE6
100
AcDbEntity
  8
DEFPOINTS
  6
Continuous
 62
     0
440
 16777216
100
AcDbPoint
 10
401.9991483230286
 20
-122.3998855197852
 30
0.0
  0
ENDBLK
  5
5DE8
330
5DE6
100
AcDbEntity
  8
0
100
AcDbBlockEnd
  0
BLOCK
  5
5DF3
330
5DF2
100
AcDbEntity
  8
0
100
AcDbBlockBegin
  2
*D48
 70
     1
 10
0.0
 20
0.0
 30
0.0
  3
*D48
  1

  0
LINE
  5
5E5A
330
5DF2
100
AcDbEntity
  8
30
  6
Continuous
 62
     0
440
 16777216
370
    -2
100
AcDbLine
 10
336.9994701776982
 20
-70.49965587958421
 30
0.0
 11
336.9994701776982
 21
-122.8998855197852
 31
0.0
  0
LINE
  5
5E5B
330
5DF2
100
AcDbEntity
  8
30
  6
Continuous
 62
     0
440
 16777216
370
    -2
100
AcDbLine
 10
351.9993959035433
 20
-77.28671009944187
 30
0.0
 11
351.9993959035433
 21
-122.8998855197852
 31
0.0
  0
LINE
  5
5E5C
330
5DF2
100
AcDbEntity
  8
30
  6
Continuous
 62
     0
440
 16777216
370
    -2
100
AcDbLine
 10
338.9994701776981
 20
-122.3998855197852
 30
0.0
 11
349.9993959035433
 21
-122.3998855197852
 31
0.0
  0
INSERT
  5
5E5D
330
5DF2
100
AcDbEntity
  8
30
  6
Continuous
 62
     0
440
 16777216
370
    -2
100
AcDbBlockReference
  2
_OPEN
 10
336.9994701776982
 20
-122.3998855197852
 30
0.0
 41
2.0
 42
2.0
 43
2.0
 50
180.0
  0
INSERT
  5
5E5E
330
5DF2
100
AcDbEntity
  8
30
  6
Continuous
 62
     0
440
 16777216
370
    -2
100
AcDbBlockReference
  2
_OPEN
 10
351.9993959035433
 20
-122.3998855197852
 30
0.0
 41
2.0
 42
2.0
 43
2.0
  0
MTEXT
  5
5E5F
330
5DF2
100
AcDbEntity
  8
30
  6
Continuous
 62
     0
440
 16777216
100
AcDbMText
 10
344.4994330406207
 20
-119.3998855197852
 30
0.0
 40
4.0
 41
0.0
 46
0.0
 71
     5
 72
     1
  1
\A1;15
 73
     1
 44
1.0
1001
ACAD
1000
MTEXTBEGIN
1070
    73
1070
     1
1070
    44
1040
1.0
1070
    74
1070
     0
1000
MTEXTEND
  0
POINT
  5
5E60
330
5DF2
100
AcDbEntity
  8
DEFPOINTS
  6
Continuous
 62
     0
440
 16777216
100
AcDbPoint
 10
336.9994701776982
 20
-69.49965587958423
 30
0.0
  0
POINT
  5
5E61
330
5DF2
100
AcDbEntity
  8
DEFPOINTS
  6
Continuous
 62
     0
440
 16777216
100
AcDbPoint
 10
351.9993959035433
 20
-76.28671009944188
 30
0.0
  0
POINT
  5
5E62
330
5DF2
100
AcDbEntity
  8
DEFPOINTS
  6
Continuous
 62
     0
440
 16777216
100
AcDbPoint
 10
351.9993959035433
 20
-122.3998855197852
 30
0.0
  0
ENDBLK
  5
5DF4
330
5DF2
100
AcDbEntity
  8
0
100
AcDbBlockEnd
  0
BLOCK
  5
5DFF
330
5DFE
100
AcDbEntity
  8
0
100
AcDbBlockBegin
  2
*D49
 70
     1
 10
0.0
 20
0.0
 30
0.0
  3
*D49
  1

  0
LINE
  5
5E63
330
5DFE
100
AcDbEntity
  8
30
  6
Continuous
 62
     0
440
 16777216
370
    -2
100
AcDbLine
 10
400.8555653978196
 20
-74.99962862922766
 30
0.0
 11
426.5857515477538
 21
-74.99962862922767
 31
0.0
  0
LINE
  5
5E64
330
5DFE
100
AcDbEntity
  8
30
  6
Continuous
 62
     0
440
 16777216
370
    -2
100
AcDbLine
 10
400.8555653978196
 20
-58.99970785499242
 30
0.0
 11
426.5857515477538
 21
-58.99970785499242
 31
0.0
  0
LINE
  5
5E65
330
5DFE
100
AcDbEntity
  8
30
  6
Continuous
 62
     0
440
 16777216
370
    -2
100
AcDbLine
 10
426.0857515477538
 20
-72.99962862922767
 30
0.0
 11
426.0857515477538
 21
-60.99970785499241
 31
0.0
  0
INSERT
  5
5E66
330
5DFE
100
AcDbEntity
  8
30
  6
Continuous
 62
     0
440
 16777216
370
    -2
100
AcDbBlockReference
  2
_OPEN
 10
426.0857515477538
 20
-74.99962862922767
 30
0.0
 41
2.0
 42
2.0
 43
2.0
 50
270.0
  0
INSERT
  5
5E67
330
5DFE
100
AcDbEntity
  8
30
  6
Continuous
 62
     0
440
 16777216
370
    -2
100
AcDbBlockReference
  2
_OPEN
 10
426.0857515477538
 20
-58.99970785499242
 30
0.0
 41
2.0
 42
2.0
 43
2.0
 50
90.0
  0
MTEXT
  5
5E68
330
5DFE
100
AcDbEntity
  8
30
  6
Continuous
 62
     0
440
 16777216
100
AcDbMText
 10
423.0857515477538
 20
-66.99966824210996
 30
0.0
 40
4.0
 41
0.0
 46
0.0
 71
     5
 72
     1
  1
\A1;16
 11
0.0000000000000001
 21
1.0
 31
0.0
 73
     1
 44
1.0
1001
ACAD
1000
MTEXTBEGIN
1070
    73
1070
     1
1070
    44
1040
1.0
1070
    74
1070
     0
1000
MTEXTEND
  0
POINT
  5
5E69
330
5DFE
100
AcDbEntity
  8
DEFPOINTS
  6
Continuous
 62
     0
440
 16777216
100
AcDbPoint
 10
399.8555653978196
 20
-74.99962862922766
 30
0.0
  0
POINT
  5
5E6A
330
5DFE
100
AcDbEntity
  8
DEFPOINTS
  6
Continuous
 62
     0
440
 16777216
100
AcDbPoint
 10
399.8555653978196
 20
-58.99970785499241
 30
0.0
  0
POINT
  5
5E6B
330
5DFE
100
AcDbEntity
  8
DEFPOINTS
  6
Continuous
 62
     0
440
 16777216
100
AcDbPoint
 10
426.0857515477538
 20
-58.99970785499242
 30
0.0
  0
ENDBLK
  5
5E00
330
5DFE
100
AcDbEntity
  8
0
100
AcDbBlockEnd
  0
BLOCK
  5
5E0B
330
5E0A
100
AcDbEntity
  8
0
100
AcDbBlockBegin
  2
*D50
 70
     1
 10
0.0
 20
0.0
 30
0.0
  3
*D50
  1

  0
LINE
  5
5E6C
330
5E0A
100
AcDbEntity
  8
30
  6
Continuous
 62
     0
440
 16777216
370
    -2
100
AcDbLine
 10
402.9991483230286
 20
64.49968062113575
 30
0.0
 11
424.2524182144205
 21
64.49968062113573
 31
0.0
  0
LINE
  5
5E6D
330
5E0A
100
AcDbEntity
  8
30
  6
Continuous
 62
     0
440
 16777216
370
    -2
100
AcDbLine
 10
402.9991483230286
 20
69.49965586308424
 30
0.0
 11
424.2524182144205
 21
69.49965586308421
 31
0.0
  0
LINE
  5
5E6E
330
5E0A
100
AcDbEntity
  8
30
  6
Continuous
 62
     0
440
 16777216
370
    -2
100
AcDbLine
 10
423.7524182144204
 20
62.49968062113573
 30
0.0
 11
423.7524182144204
 21
60.49968062113574
 31
0.0
  0
LINE
  5
5E6F
330
5E0A
100
AcDbEntity
  8
30
  6
Continuous
 62
     0
440
 16777216
370
    -2
100
AcDbLine
 10
423.7524182144204
 20
71.49965586308423
 30
0.0
 11
423.7524182144204
 21
73.49965586308423
 31
0.0
  0
LINE
  5
5E70
330
5E0A
100
AcDbEntity
  8
30
  6
Continuous
 62
     0
440
 16777216
370
    -2
100
AcDbLine
 10
423.7524182144204
 20
73.49965586308423
 30
0.0
 11
427.4190848810872
 21
73.49965586308423
 31
0.0
  0
INSERT
  5
5E71
330
5E0A
100
AcDbEntity
  8
30
  6
Continuous
 62
     0
440
 16777216
370
    -2
100
AcDbBlockReference
  2
_OPEN
 10
423.7524182144204
 20
64.49968062113573
 30
0.0
 41
2.0
 42
2.0
 43
2.0
 50
90.0
  0
INSERT
  5
5E72
330
5E0A
100
AcDbEntity
  8
30
  6
Continuous
 62
     0
440
 16777216
370
    -2
100
AcDbBlockReference
  2
_OPEN
 10
423.7524182144204
 20
69.49965586308421
 30
0.0
 41
2.0
 42
2.0
 43
2.0
 50
270.0
  0
MTEXT
  5
5E73
330
5E0A
100
AcDbEntity
  8
30
  6
Continuous
 62
     0
440
 16777216
100
AcDbMText
 10
426.0857515477538
 20
76.4996558630843
 30
0.0
 40
4.0
 41
0.0
 46
0.0
 71
     5
 72
     1
  1
\A1;5
 73
     1
 44
1.0
1001
ACAD
1000
MTEXTBEGIN
1070
    73
1070
     1
1070
    44
1040
1.0
1070
    74
1070
     0
1000
MTEXTEND
  0
POINT
  5
5E74
330
5E0A
100
AcDbEntity
  8
DEFPOINTS
  6
Continuous
 62
     0
440
 16777216
100
AcDbPoint
 10
401.9991483230286
 20
64.49968062113575
 30
0.0
  0
POINT
  5
5E75
330
5E0A
100
AcDbEntity
  8
DEFPOINTS
  6
Continuous
 62
     0
440
 16777216
100
AcDbPoint
 10
401.9991483230286
 20
69.49965586308424
 30
0.0
  0
POINT
  5
5E76
330
5E0A
100
AcDbEntity
  8
DEFPOINTS
  6
Continuous
 62
     0
440
 16777216
100
AcDbPoint
 10
423.7524182144204
 20
69.49965586308421
 30
0.0
  0
ENDBLK
  5
5E0C
330
5E0A
100
AcDbEntity
  8
0
100
AcDbBlockEnd
  0
BLOCK
  5
5E19
330
5E18
100
AcDbEntity
  8
0
100
AcDbBlockBegin
  2
*D51
 70
     1
 10
0.0
 20
0.0
 30
0.0
  3
*D51
  1

  0
LINE
  5
5E77
330
5E18
100
AcDbEntity
  8
30
  6
Continuous
 62
     0
440
 16777216
370
    -2
100
AcDbLine
 10
412.9990988069256
 20
66.99966824210996
 30
0.0
 11
438.2367141808032
 21
66.99966824210996
 31
0.0
  0
LINE
  5
5E78
330
5E18
100
AcDbEntity
  8
30
  6
Continuous
 62
     0
440
 16777216
370
    -2
100
AcDbLine
 10
427.0857515477538
 20
-66.99966824211003
 30
0.0
 11
438.2367141808032
 21
-66.99966824211003
 31
0.0
  0
LINE
  5
5E79
330
5E18
100
AcDbEntity
  8
30
  6
Continuous
 62
     0
440
 16777216
370
    -2
100
AcDbLine
 10
437.7367141808032
 20
64.99966824210996
 30
0.0
 11
437.7367141808032
 21
-64.99966824211004
 31
0.0
  0
INSERT
  5
5E7A
330
5E18
100
AcDbEntity
  8
30
  6
Continuous
 62
     0
440
 16777216
370
    -2
100
AcDbBlockReference
  2
_OPEN
 10
437.7367141808032
 20
66.99966824210996
 30
0.0
 41
2.0
 42
2.0
 43
2.0
 50
90.0
  0
INSERT
  5
5E7B
330
5E18
100
AcDbEntity
  8
30
  6
Continuous
 62
     0
440
 16777216
370
    -2
100
AcDbBlockReference
  2
_OPEN
 10
437.7367141808032
 20
-66.99966824211003
 30
0.0
 41
2.0
 42
2.0
 43
2.0
 50
270.0
  0
MTEXT
  5
5E7C
330
5E18
100
AcDbEntity
  8
30
  6
Continuous
 62
     0
440
 16777216
100
AcDbMText
 10
434.7367141808032
 20
0.0000000000000304
 30
0.0
 40
4.0
 41
0.0
 46
0.0
 71
     5
 72
     1
  1
\A1;134
 11
0.0000000000000001
 21
1.0
 31
0.0
 73
     1
 44
1.0
1001
ACAD
1000
MTEXTBEGIN
1070
    73
1070
     1
1070
    44
1040
1.0
1070
    74
1070
     0
1000
MTEXTEND
  0
POINT
  5
5E7D
330
5E18
100
AcDbEntity
  8
DEFPOINTS
  6
Continuous
 62
     0
440
 16777216
100
AcDbPoint
 10
411.9990988069256
 20
66.99966824210996
 30
0.0
  0
POINT
  5
5E7E
330
5E18
100
AcDbEntity
  8
DEFPOINTS
  6
Continuous
 62
     0
440
 16777216
100
AcDbPoint
 10
426.0857515477538
 20
-66.99966824211003
 30
0.0
  0
POINT
  5
5E7F
330
5E18
100
AcDbEntity
  8
DEFPOINTS
  6
Continuous
 62
     0
440
 16777216
100
AcDbPoint
 10
437.7367141808032
 20
-66.99966824211003
 30
0.0
  0
ENDBLK
  5
5E1A
330
5E18
100
AcDbEntity
  8
0
100
AcDbBlockEnd
  0
BLOCK
  5
5E84
330
5E83
100
AcDbEntity
  8
0
100
AcDbBlockBegin
  2
*D52
 70
     1
 10
0.0
 20
0.0
 30
0.0
  3
*D52
  1

  0
LINE
  5
5E85
330
5E83
100
AcDbEntity
  8
21
  6
Continuous
 62
     0
370
    -2
100
AcDbLine
 10
-29.99999999999974
 20
239.6248600274724
 30
0.0
 11
-29.99999999999973
 21
341.2753525274724
 31
0.0
  0
LINE
  5
5E86
330
5E83
100
AcDbEntity
  8
21
  6
Continuous
 62
     0
370
    -2
100
AcDbLine
 10
0.0000000000002592
 20
289.6248600274724
 30
0.0
 11
0.0000000000002623
 21
341.2753525274724
 31
0.0
  0
LINE
  5
5E87
330
5E83
100
AcDbEntity
  8
21
  6
Continuous
 62
     0
370
    -2
100
AcDbLine
 10
-27.99999999999974
 20
340.7753525274724
 30
0.0
 11
-1.999999999999736
 21
340.7753525274724
 31
0.0
  0
INSERT
  5
5E88
330
5E83
100
AcDbEntity
  8
21
  6
Continuous
 62
     0
370
    -2
100
AcDbBlockReference
  2
_OPEN
 10
-29.99999999999973
 20
340.7753525274724
 30
0.0
 41
2.0
 42
2.0
 43
2.0
 50
180.0
  0
INSERT
  5
5E89
330
5E83
100
AcDbEntity
  8
21
  6
Continuous
 62
     0
370
    -2
100
AcDbBlockReference
  2
_OPEN
 10
0.0000000000002623
 20
340.7753525274724
 30
0.0
 41
2.0
 42
2.0
 43
2.0
  0
MTEXT
  5
5E8A
330
5E83
100
AcDbEntity
  8
21
  6
Continuous
 62
     0
100
AcDbMText
 10
-14.99999999999973
 20
343.7753525274723
 30
0.0
 40
4.0
 41
0.0
 46
0.0
 71
     5
 72
     1
  1
\A1; 30 
 73
     1
 44
1.0
1001
ACAD
1000
MTEXTBEGIN
1070
    73
1070
     1
1070
    44
1040
1.0
1070
    74
1070
     0
1000
MTEXTEND
  0
POINT
  5
5E8B
330
5E83
100
AcDbEntity
  8
DEFPOINTS
  6
Continuous
 62
     0
100
AcDbPoint
 10
-29.99999999999974
 20
238.6248600274724
 30
0.0
  0
POINT
  5
5E8C
330
5E83
100
AcDbEntity
  8
DEFPOINTS
  6
Continuous
 62
     0
100
AcDbPoint
 10
0.0000000000002591
 20
288.6248600274724
 30
0.0
  0
POINT
  5
5E8D
330
5E83
100
AcDbEntity
  8
DEFPOINTS
  6
Continuous
 62
     0
100
AcDbPoint
 10
0.0000000000002623
 20
340.7753525274724
 30
0.0
  0
ENDBLK
  5
5E8E
330
5E83
100
AcDbEntity
  8
0
100
AcDbBlockEnd
  0
BLOCK
  5
5E90
330
5E8F
100
AcDbEntity
  8
0
100
AcDbBlockBegin
  2
*D53
 70
     1
 10
0.0
 20
0.0
 30
0.0
  3
*D53
  1

  0
LINE
  5
5E91
330
5E8F
100
AcDbEntity
  8
21
  6
Continuous
 62
     0
370
    -2
100
AcDbLine
 10
0.0000000000002592
 20
330.1248600274724
 30
0.0
 11
0.0000000000002599
 21
341.2753525274724
 31
0.0
  0
LINE
  5
5E92
330
5E8F
100
AcDbEntity
  8
21
  6
Continuous
 62
     0
370
    -2
100
AcDbLine
 10
30.00000000000027
 20
239.6248600274724
 30
0.0
 11
30.00000000000027
 21
341.2753525274724
 31
0.0
  0
LINE
  5
5E93
330
5E8F
100
AcDbEntity
  8
21
  6
Continuous
 62
     0
370
    -2
100
AcDbLine
 10
2.000000000000258
 20
340.7753525274724
 30
0.0
 11
28.00000000000027
 21
340.7753525274724
 31
0.0
  0
INSERT
  5
5E94
330
5E8F
100
AcDbEntity
  8
21
  6
Continuous
 62
     0
370
    -2
100
AcDbBlockReference
  2
_OPEN
 10
0.0000000000002598
 20
340.7753525274724
 30
0.0
 41
2.0
 42
2.0
 43
2.0
 50
180.0
  0
INSERT
  5
5E95
330
5E8F
100
AcDbEntity
  8
21
  6
Continuous
 62
     0
370
    -2
100
AcDbBlockReference
  2
_OPEN
 10
30.00000000000027
 20
340.7753525274724
 30
0.0
 41
2.0
 42
2.0
 43
2.0
  0
MTEXT
  5
5E96
330
5E8F
100
AcDbEntity
  8
21
  6
Continuous
 62
     0
100
AcDbMText
 10
15.00000000000026
 20
343.7753525274723
 30
0.0
 40
4.0
 41
0.0
 46
0.0
 71
     5
 72
     1
  1
\A1; 30 
 73
     1
 44
1.0
1001
ACAD
1000
MTEXTBEGIN
1070
    73
1070
     1
1070
    44
1040
1.0
1070
    74
1070
     0
1000
MTEXTEND
  0
POINT
  5
5E97
330
5E8F
100
AcDbEntity
  8
DEFPOINTS
  6
Continuous
 62
     0
100
AcDbPoint
 10
0.0000000000002591
 20
329.1248600274724
 30
0.0
  0
POINT
  5
5E98
330
5E8F
100
AcDbEntity
  8
DEFPOINTS
  6
Continuous
 62
     0
100
AcDbPoint
 10
30.00000000000027
 20
238.6248600274724
 30
0.0
  0
POINT
  5
5E99
330
5E8F
100
AcDbEntity
  8
DEFPOINTS
  6
Continuous
 62
     0
100
AcDbPoint
 10
30.00000000000027
 20
340.7753525274724
 30
0.0
  0
ENDBLK
  5
5E9A
330
5E8F
100
AcDbEntity
  8
0
100
AcDbBlockEnd
  0
BLOCK
  5
5F89
330
5F88
100
AcDbEntity
  8
0
100
AcDbBlockBegin
  2
*D54
 70
     1
 10
0.0
 20
0.0
 30
0.0
  3
*D54
  1

  0
LINE
  5
5FA0
330
5F88
100
AcDbEntity
  8
21
  6
Continuous
 62
     0
440
 16777216
370
    -2
100
AcDbLine
 10
-29.99974009536146
 20
237.3313751724503
 30
0.0
 11
-29.99974009536145
 21
338.9818676724503
 31
0.0
  0
LINE
  5
5FA1
330
5F88
100
AcDbEntity
  8
21
  6
Continuous
 62
     0
440
 16777216
370
    -2
100
AcDbLine
 10
0.0002599046385399
 20
287.3313751724503
 30
0.0
 11
0.0002599046385431
 21
338.9818676724503
 31
0.0
  0
LINE
  5
5FA2
330
5F88
100
AcDbEntity
  8
21
  6
Continuous
 62
     0
440
 16777216
370
    -2
100
AcDbLine
 10
-27.99974009536145
 20
338.4818676724503
 30
0.0
 11
-1.999740095361455
 21
338.4818676724503
 31
0.0
  0
INSERT
  5
5FA3
330
5F88
100
AcDbEntity
  8
21
  6
Continuous
 62
     0
440
 16777216
370
    -2
100
AcDbBlockReference
  2
_OPEN
 10
-29.99974009536145
 20
338.4818676724503
 30
0.0
 41
2.0
 42
2.0
 43
2.0
 50
180.0
  0
INSERT
  5
5FA4
330
5F88
100
AcDbEntity
  8
21
  6
Continuous
 62
     0
440
 16777216
370
    -2
100
AcDbBlockReference
  2
_OPEN
 10
0.0002599046385431
 20
338.4818676724503
 30
0.0
 41
2.0
 42
2.0
 43
2.0
  0
MTEXT
  5
5FA5
330
5F88
100
AcDbEntity
  8
21
  6
Continuous
 62
     0
440
 16777216
100
AcDbMText
 10
-14.99974009536145
 20
341.4818676724503
 30
0.0
 40
4.0
 41
0.0
 46
0.0
 71
     5
 72
     1
  1
\A1; 30 
 73
     1
 44
1.0
1001
ACAD
1000
MTEXTBEGIN
1070
    73
1070
     1
1070
    44
1040
1.0
1070
    74
1070
     0
1000
MTEXTEND
  0
POINT
  5
5FA6
330
5F88
100
AcDbEntity
  8
DEFPOINTS
  6
Continuous
 62
     0
440
 16777216
100
AcDbPoint
 10
-29.99974009536146
 20
236.3313751724503
 30
0.0
  0
POINT
  5
5FA7
330
5F88
100
AcDbEntity
  8
DEFPOINTS
  6
Continuous
 62
     0
440
 16777216
100
AcDbPoint
 10
0.0002599046385399
 20
286.3313751724503
 30
0.0
  0
POINT
  5
5FA8
330
5F88
100
AcDbEntity
  8
DEFPOINTS
  6
Continuous
 62
     0
440
 16777216
100
AcDbPoint
 10
0.0002599046385431
 20
338.4818676724503
 30
0.0
  0
ENDBLK
  5
5F8A
330
5F88
100
AcDbEntity
  8
0
100
AcDbBlockEnd
  0
BLOCK
  5
5F95
330
5F94
100
AcDbEntity
  8
0
100
AcDbBlockBegin
  2
*D55
 70
     1
 10
0.0
 20
0.0
 30
0.0
  3
*D55
  1

  0
LINE
  5
5FA9
330
5F94
100
AcDbEntity
  8
21
  6
Continuous
 62
     0
440
 16777216
370
    -2
100
AcDbLine
 10
0.0002599046385399
 20
327.8313751724503
 30
0.0
 11
0.0002599046385406
 21
338.9818676724503
 31
0.0
  0
LINE
  5
5FAA
330
5F94
100
AcDbEntity
  8
21
  6
Continuous
 62
     0
440
 16777216
370
    -2
100
AcDbLine
 10
30.00025990463856
 20
237.3313751724503
 30
0.0
 11
30.00025990463856
 21
338.9818676724503
 31
0.0
  0
LINE
  5
5FAB
330
5F94
100
AcDbEntity
  8
21
  6
Continuous
 62
     0
440
 16777216
370
    -2
100
AcDbLine
 10
2.00025990463854
 20
338.4818676724503
 30
0.0
 11
28.00025990463856
 21
338.4818676724503
 31
0.0
  0
INSERT
  5
5FAC
330
5F94
100
AcDbEntity
  8
21
  6
Continuous
 62
     0
440
 16777216
370
    -2
100
AcDbBlockReference
  2
_OPEN
 10
0.0002599046385406
 20
338.4818676724503
 30
0.0
 41
2.0
 42
2.0
 43
2.0
 50
180.0
  0
INSERT
  5
5FAD
330
5F94
100
AcDbEntity
  8
21
  6
Continuous
 62
     0
440
 16777216
370
    -2
100
AcDbBlockReference
  2
_OPEN
 10
30.00025990463856
 20
338.4818676724503
 30
0.0
 41
2.0
 42
2.0
 43
2.0
  0
MTEXT
  5
5FAE
330
5F94
100
AcDbEntity
  8
21
  6
Continuous
 62
     0
440
 16777216
100
AcDbMText
 10
15.00025990463855
 20
341.4818676724503
 30
0.0
 40
4.0
 41
0.0
 46
0.0
 71
     5
 72
     1
  1
\A1; 30 
 73
     1
 44
1.0
1001
ACAD
1000
MTEXTBEGIN
1070
    73
1070
     1
1070
    44
1040
1.0
1070
    74
1070
     0
1000
MTEXTEND
  0
POINT
  5
5FAF
330
5F94
100
AcDbEntity
  8
DEFPOINTS
  6
Continuous
 62
     0
440
 16777216
100
AcDbPoint
 10
0.0002599046385399
 20
326.8313751724503
 30
0.0
  0
POINT
  5
5FB0
330
5F94
100
AcDbEntity
  8
DEFPOINTS
  6
Continuous
 62
     0
440
 16777216
100
AcDbPoint
 10
30.00025990463856
 20
236.3313751724503
 30
0.0
  0
POINT
  5
5FB1
330
5F94
100
AcDbEntity
  8
DEFPOINTS
  6
Continuous
 62
     0
440
 16777216
100
AcDbPoint
 10
30.00025990463856
 20
338.4818676724503
 30
0.0
  0
ENDBLK
  5
5F96
330
5F94
100
AcDbEntity
  8
0
100
AcDbBlockEnd
  0
ENDSEC
  0
SECTION
  2
ENTITIES
  0
LINE
  5
B4
330
1E
100
AcDbEntity
  8
16
100
AcDbLine
 10
0.0
 20
-101.8246001220914
 30
0.0
 11
0.0
 21
105.6073578546832
 31
0.0
  0
LINE
  5
B5
330
1E
100
AcDbEntity
  8
16
100
AcDbLine
 10
71.77465564206305
 20
-0.0000000000000007
 30
0.0
 11
-83.90588178115756
 21
-0.0000000000000007
 31
0.0
  0
MTEXT
  5
BF3
330
1E
100
AcDbEntity
  8
24
  6
Continuous
100
AcDbMText
 10
140.9820964648283
 20
176.3476821548369
 30
0.0
 40
3.0
 41
0.0
 46
0.0
 71
     1
 72
     1
  1
\A1;
 73
     1
 44
1.0
1001
ACAD
1000
MTEXTBEGIN
1070
    73
1070
     1
1070
    44
1040
1.0
1070
    74
1070
     0
1000
MTEXTEND
  0
LINE
  5
2260
330
1E
100
AcDbEntity
  8
16
100
AcDbLine
 10
68.52380301423583
 20
-252.6631237443548
 30
0.0
 11
-80.93000773675209
 21
-252.6631237443548
 31
0.0
  0
LINE
  5
2261
330
1E
100
AcDbEntity
  8
16
100
AcDbLine
 10
-0.3800945351711884
 20
-350.4150635072006
 30
0.0
 11
-0.3800945351711884
 21
-151.2797245348689
 31
0.0
  0
LINE
  5
4C5A
330
1E
100
AcDbEntity
  8
16
100
AcDbLine
 10
88.49441808474184
 20
-0.0000000000000007
 30
0.0
 11
-83.90588178115756
 21
-0.0000000000000007
 31
0.0
  0
CIRCLE
  5
5045
330
1E
100
AcDbEntity
  8
12
  6
DASHED
100
AcDbCircle
 10
-67.9997748596762
 20
-32.99989074072519
 30
0.0
 40
2.499991722782211
  0
CIRCLE
  5
5047
330
1E
100
AcDbEntity
  8
12
  6
DASHED
100
AcDbCircle
 10
-67.9997748596762
 20
32.99989074072514
 30
0.0
 40
2.499991722782211
  0
LINE
  5
5048
330
1E
100
AcDbEntity
  8
12
  6
DASHDOT
 62
     3
100
AcDbLine
 10
-71.49976327157128
 20
-32.99989074072519
 30
0.0
 11
-64.49978644778109
 21
-32.99989074072519
 31
0.0
  0
LINE
  5
504A
330
1E
100
AcDbEntity
  8
12
  6
DASHDOT
 62
     3
100
AcDbLine
 10
-71.49976327157128
 20
32.99989074072514
 30
0.0
 11
-64.49978644778109
 21
32.99989074072514
 31
0.0
  0
LINE
  5
504C
330
1E
100
AcDbEntity
  8
10
  6
CONTINOUS
100
AcDbLine
 10
-73.49975664979702
 20
-95.9996821548369
 30
0.0
 11
73.49975664979702
 21
-95.9996821548369
 31
0.0
  0
LINE
  5
504D
330
1E
100
AcDbEntity
  8
10
  6
CONTINOUS
100
AcDbLine
 10
-78.49974009536143
 20
90.99969870927251
 30
0.0
 11
-78.49974009536143
 21
-90.99969870927248
 31
0.0
  0
ARC
  5
504E
330
1E
100
AcDbEntity
  8
10
  6
CONTINOUS
100
AcDbCircle
 10
-73.49975664979702
 20
-90.99969870927248
 30
0.0
 40
4.999983445564422
100
AcDbArc
 50
180.0
 51
270.0
  0
LINE
  5
504F
330
1E
100
AcDbEntity
  8
12
  6
DASHDOT
 62
     3
100
AcDbLine
 10
-67.99977485967628
 20
-36.49987915262093
 30
0.0
 11
-67.99977485967628
 21
-29.49990232883076
 31
0.0
  0
LINE
  5
5051
330
1E
100
AcDbEntity
  8
12
  6
DASHDOT
 62
     3
100
AcDbLine
 10
-67.99977485967628
 20
29.4999023288294
 30
0.0
 11
-67.99977485967628
 21
36.49987915261965
 31
0.0
  0
ARC
  5
5052
330
1E
100
AcDbEntity
  8
10
  6
CONTINOUS
100
AcDbCircle
 10
-73.49975664979702
 20
90.99969870927251
 30
0.0
 40
4.999983445564422
100
AcDbArc
 50
90.0
 51
180.0
  0
LINE
  5
5053
330
1E
100
AcDbEntity
  8
10
  6
CONTINOUS
100
AcDbLine
 10
-41.99986094274118
 20
24.99991722782211
 30
0.0
 11
-41.99986094274118
 21
-24.99991722782206
 31
0.0
  0
LINE
  5
5054
330
1E
100
AcDbEntity
  8
10
  6
CONTINOUS
100
AcDbLine
 10
41.99986094274112
 20
24.99991722782211
 30
0.0
 11
41.99986094274112
 21
-24.99991722782206
 31
0.0
  0
LINE
  5
5055
330
1E
100
AcDbEntity
  8
10
  6
CONTINOUS
100
AcDbLine
 10
-10.99996358024178
 20
24.99991722782211
 30
0.0
 11
-10.99996358024178
 21
-24.99991722782206
 31
0.0
  0
LINE
  5
5056
330
1E
100
AcDbEntity
  8
10
  6
CONTINOUS
100
AcDbLine
 10
10.99996358024167
 20
24.99991722782211
 30
0.0
 11
10.99996358024167
 21
-24.99991722782206
 31
0.0
  0
LINE
  5
5057
330
1E
100
AcDbEntity
  8
10
  6
DASHED
100
AcDbLine
 10
-44.99985101007982
 20
77.49974340624856
 30
0.0
 11
-44.99985101007982
 21
-77.49974340624856
 31
0.0
  0
LINE
  5
5058
330
1E
100
AcDbEntity
  8
10
  6
DASHED
100
AcDbLine
 10
44.99985101007982
 20
-77.49974340624856
 30
0.0
 11
44.99985101007982
 21
77.49974340624856
 31
0.0
  0
LINE
  5
5059
330
1E
100
AcDbEntity
  8
10
  6
CONTINOUS
100
AcDbLine
 10
78.49974009536139
 20
-90.99969870927248
 30
0.0
 11
78.49974009536139
 21
90.99969870927251
 31
0.0
  0
LINE
  5
505A
330
1E
100
AcDbEntity
  8
10
  6
CONTINOUS
100
AcDbLine
 10
-41.99986094274118
 20
-24.99991722782206
 30
0.0
 11
41.99986094274112
 21
-24.99991722782206
 31
0.0
  0
LINE
  5
505B
330
1E
100
AcDbEntity
  8
10
  6
DASHED
100
AcDbLine
 10
-44.99985101007982
 20
-77.49974340624856
 30
0.0
 11
44.99985101007982
 21
-77.49974340624856
 31
0.0
  0
ARC
  5
505C
330
1E
100
AcDbEntity
  8
10
  6
CONTINOUS
100
AcDbCircle
 10
73.49975664979702
 20
-90.99969870927248
 30
0.0
 40
4.999983445564422
100
AcDbArc
 50
270.0
 51
0.0
  0
CIRCLE
  5
505D
330
1E
100
AcDbEntity
  8
12
  6
DASHED
100
AcDbCircle
 10
67.99977485967611
 20
-32.99989074072519
 30
0.0
 40
2.499991722782211
  0
LINE
  5
505E
330
1E
100
AcDbEntity
  8
12
  6
DASHDOT
 62
     3
100
AcDbLine
 10
64.49978644778099
 20
-32.99989074072519
 30
0.0
 11
71.49976327157126
 21
-32.99989074072519
 31
0.0
  0
LINE
  5
505F
330
1E
100
AcDbEntity
  8
12
  6
DASHDOT
 62
     3
100
AcDbLine
 10
67.99977485967606
 20
-36.49987915262093
 30
0.0
 11
67.99977485967606
 21
-29.49990232883076
 31
0.0
  0
LINE
  5
5060
330
1E
100
AcDbEntity
  8
10
  6
CONTINOUS
100
AcDbLine
 10
-41.99986094274118
 20
24.99991722782211
 30
0.0
 11
41.99986094274112
 21
24.99991722782211
 31
0.0
  0
LINE
  5
5061
330
1E
100
AcDbEntity
  8
10
  6
DASHED
100
AcDbLine
 10
44.99985101007982
 20
77.49974340624856
 30
0.0
 11
-44.99985101007982
 21
77.49974340624856
 31
0.0
  0
LINE
  5
5062
330
1E
100
AcDbEntity
  8
10
  6
CONTINOUS
100
AcDbLine
 10
6.999976823790134
 20
-18.49993874858834
 30
0.0
 11
6.999976823790247
 21
20.15480197531517
 31
0.0
  0
LINE
  5
5063
330
1E
100
AcDbEntity
  8
10
  6
CONTINOUS
100
AcDbLine
 10
-6.999976823790191
 20
-18.49993874858834
 30
0.0
 11
-6.999976823790134
 21
20.15480197531517
 31
0.0
  0
LINE
  5
5064
330
1E
100
AcDbEntity
  8
10
  6
CONTINOUS
100
AcDbLine
 10
-6.999976823790191
 20
-18.49993874858834
 30
0.0
 11
6.999976823790134
 21
-18.49993874858834
 31
0.0
  0
LINE
  5
5065
330
1E
100
AcDbEntity
  8
10
  6
CONTINOUS
100
AcDbLine
 10
6.999976823790134
 20
6.840766657780405
 30
0.0
 11
-6.999976823789296
 21
6.840766657780405
 31
0.0
  0
LINE
  5
5066
330
1E
100
AcDbEntity
  8
10
  6
CONTINOUS
100
AcDbLine
 10
6.999976823790134
 20
20.15480197531517
 30
0.0
 11
-6.999976823791143
 21
20.15480197531517
 31
0.0
  0
LINE
  5
5067
330
1E
100
AcDbEntity
  8
10
  6
CONTINOUS
100
AcDbLine
 10
6.999976823790134
 20
15.2399059823013
 30
0.0
 11
-6.999976823790191
 21
15.2399059823013
 31
0.0
  0
CIRCLE
  5
506B
330
1E
100
AcDbEntity
  8
12
  6
DASHED
100
AcDbCircle
 10
67.99977485967611
 20
32.99989074072514
 30
0.0
 40
2.499991722782211
  0
LINE
  5
506C
330
1E
100
AcDbEntity
  8
12
  6
DASHDOT
 62
     3
100
AcDbLine
 10
64.49978644778099
 20
32.99989074072514
 30
0.0
 11
71.49976327157126
 21
32.99989074072514
 31
0.0
  0
LINE
  5
506D
330
1E
100
AcDbEntity
  8
12
  6
DASHDOT
 62
     3
100
AcDbLine
 10
67.99977485967606
 20
29.4999023288294
 30
0.0
 11
67.99977485967606
 21
36.49987915261965
 31
0.0
  0
ARC
  5
506E
330
1E
100
AcDbEntity
  8
10
  6
CONTINOUS
100
AcDbCircle
 10
73.49975664979702
 20
90.99969870927251
 30
0.0
 40
4.999983445564422
100
AcDbArc
 50
0.0
 51
90.0
  0
DIMENSION
  5
53E2
330
1E
100
AcDbEntity
  8
30
  6
Continuous
100
AcDbDimension
280
     0
  2
*D11
 10
67.61990546482874
 20
-403.5636153436747
 30
0.0
 11
-0.3800945351711958
 21
-400.5636153436748
 31
0.0
 70
    32
 71
     5
 42
-1.0
 73
     0
 74
     0
 75
     0
  3
STANDARD
100
AcDbAlignedDimension
 13
-68.38009453517114
 23
-288.163123760855
 33
0.0
 14
67.61990546482874
 24
-288.163123760855
 34
0.0
 50
180.0
100
AcDbRotatedDimension
  0
DIMENSION
  5
53E3
330
1E
100
AcDbEntity
  8
30
  6
Continuous
100
AcDbDimension
280
     0
  2
*D12
 10
62.61990546482903
 20
-378.5636153436747
 30
0.0
 11
-0.3800945351709613
 21
-375.5636153436747
 31
0.0
 70
    32
 71
     5
 42
-1.0
 73
     0
 74
     0
 75
     0
  3
STANDARD
100
AcDbAlignedDimension
 13
-63.38009453517095
 23
-343.1631237443548
 33
0.0
 14
62.61990546482903
 24
-343.1631237443548
 34
0.0
 50
180.0
100
AcDbRotatedDimension
  0
LINE
  5
53E4
330
1E
100
AcDbEntity
  8
18
  6
DIVIDE
100
AcDbLine
 10
73.11990546482879
 20
-156.6631237443556
 30
0.0
 11
-73.88009453517105
 21
-156.6631237443556
 31
0.0
  0
LINE
  5
53E5
330
1E
100
AcDbEntity
  8
18
  6
DIVIDE
100
AcDbLine
 10
-73.88009453517105
 20
-348.663123744355
 30
0.0
 11
73.11990546482879
 21
-348.663123744355
 31
0.0
  0
LINE
  5
53E7
330
1E
100
AcDbEntity
  8
11
 48
2.0
100
AcDbLine
 10
62.61990546482903
 20
-162.1631237443549
 30
0.0
 11
-63.38009453517097
 21
-162.1631237443549
 31
0.0
  0
LINE
  5
53E8
330
1E
100
AcDbEntity
  8
11
 48
2.0
100
AcDbLine
 10
-63.38009453517117
 20
-343.1631237443548
 30
0.0
 11
62.61990546482858
 21
-343.1631237443548
 31
0.0
  0
LINE
  5
53E9
330
1E
100
AcDbEntity
  8
18
  6
DIVIDE
100
AcDbLine
 10
-78.88009453517097
 20
-161.6631237443554
 30
0.0
 11
-78.88009453517097
 21
-343.6631237443547
 31
0.0
  0
LINE
  5
53EA
330
1E
100
AcDbEntity
  8
11
 48
2.0
100
AcDbLine
 10
-63.38009453517097
 20
-343.1631237443548
 30
0.0
 11
-63.38009453517097
 21
-162.1631237443549
 31
0.0
  0
ARC
  5
53EB
330
1E
100
AcDbEntity
  8
18
  6
DIVIDE
100
AcDbCircle
 10
-73.88009453517105
 20
-343.6631237443547
 30
0.0
 40
4.999999999999992
100
AcDbArc
 50
180.0
 51
270.0
  0
CIRCLE
  5
53EC
330
1E
100
AcDbEntity
  8
12
  6
Continuous
 62
     3
100
AcDbCircle
 10
-68.38009453517114
 20
-285.6631237443549
 30
0.0
 40
2.999999999999996
  0
LINE
  5
53ED
330
1E
100
AcDbEntity
  8
12
  6
Continuous
 62
     3
100
AcDbLine
 10
-68.38009453517114
 20
-290.6631237443559
 30
0.0
 11
-68.38009453517114
 21
-280.6631237443559
 31
0.0
  0
LINE
  5
53EE
330
1E
100
AcDbEntity
  8
12
  6
Continuous
 62
     3
100
AcDbLine
 10
-73.38009453517106
 20
-285.6631237443549
 30
0.0
 11
-63.38009453517117
 21
-285.6631237443549
 31
0.0
  0
CIRCLE
  5
53F2
330
1E
100
AcDbEntity
  8
12
  6
Continuous
 62
     3
100
AcDbCircle
 10
-68.38009453517114
 20
-219.6631237443551
 30
0.0
 40
2.999999999999996
  0
LINE
  5
53F3
330
1E
100
AcDbEntity
  8
12
  6
Continuous
 62
     3
100
AcDbLine
 10
-73.38009453517106
 20
-219.6631237443551
 30
0.0
 11
-63.38009453517117
 21
-219.6631237443551
 31
0.0
  0
LINE
  5
53F4
330
1E
100
AcDbEntity
  8
12
  6
Continuous
 62
     3
100
AcDbLine
 10
-68.38009453517155
 20
-224.663123744356
 30
0.0
 11
-68.38009453517155
 21
-214.663123744356
 31
0.0
  0
ARC
  5
53F5
330
1E
100
AcDbEntity
  8
18
  6
DIVIDE
100
AcDbCircle
 10
-73.88009453517105
 20
-161.6631237443554
 30
0.0
 40
4.999999999999992
100
AcDbArc
 50
90.0
 51
180.0
  0
LINE
  5
53F6
330
1E
100
AcDbEntity
  8
18
  6
DIVIDE
100
AcDbLine
 10
78.11990546482871
 20
-343.6631237443547
 30
0.0
 11
78.11990546482871
 21
-161.6631237443554
 31
0.0
  0
LINE
  5
53F8
330
1E
100
AcDbEntity
  8
11
 48
2.0
100
AcDbLine
 10
62.61990546482903
 20
-343.1631237443548
 30
0.0
 11
62.61990546482903
 21
-162.1631237443549
 31
0.0
  0
ARC
  5
53F9
330
1E
100
AcDbEntity
  8
18
  6
DIVIDE
100
AcDbCircle
 10
73.11990546482879
 20
-343.6631237443547
 30
0.0
 40
4.999999999999992
100
AcDbArc
 50
270.0
 51
0.0
  0
CIRCLE
  5
53FA
330
1E
100
AcDbEntity
  8
12
  6
Continuous
 62
     3
100
AcDbCircle
 10
67.61990546482874
 20
-285.6631237443549
 30
0.0
 40
2.999999999999996
  0
LINE
  5
53FB
330
1E
100
AcDbEntity
  8
12
  6
Continuous
 62
     3
100
AcDbLine
 10
67.61990546482852
 20
-290.6631237443559
 30
0.0
 11
67.61990546482852
 21
-280.6631237443559
 31
0.0
  0
LINE
  5
53FC
330
1E
100
AcDbEntity
  8
12
  6
Continuous
 62
     3
100
AcDbLine
 10
62.61990546482858
 20
-285.6631237443549
 30
0.0
 11
72.61990546482869
 21
-285.6631237443549
 31
0.0
  0
LINE
  5
5400
330
1E
100
AcDbEntity
  8
12
  6
Continuous
 62
     3
100
AcDbLine
 10
62.61990546482858
 20
-219.6631237443551
 30
0.0
 11
72.61990546482845
 21
-219.6631237443551
 31
0.0
  0
CIRCLE
  5
5401
330
1E
100
AcDbEntity
  8
12
  6
Continuous
 62
     3
100
AcDbCircle
 10
67.61990546482852
 20
-219.6631237443551
 30
0.0
 40
2.999999999999996
  0
LINE
  5
5402
330
1E
100
AcDbEntity
  8
12
  6
Continuous
 62
     3
100
AcDbLine
 10
67.61990546482852
 20
-224.663123744356
 30
0.0
 11
67.61990546482852
 21
-214.663123744356
 31
0.0
  0
ARC
  5
5403
330
1E
100
AcDbEntity
  8
18
  6
DIVIDE
100
AcDbCircle
 10
73.11990546482879
 20
-161.6631237443554
 30
0.0
 40
4.999999999999992
100
AcDbArc
 50
0.0
 51
90.0
  0
LWPOLYLINE
  5
5475
330
1E
100
AcDbEntity
  8
10
  6
CONTINOUS
100
AcDbPolyline
 90
        2
 70
     0
 43
0.0
 10
73.49975664979702
 20
95.99968215483697
 10
-73.49975664979702
 20
95.99968215483697
  0
DIMENSION
  5
5476
330
1E
100
AcDbEntity
  8
30
  6
Continuous
100
AcDbDimension
280
     0
  2
*D15
 10
78.49974009536143
 20
-124.2815389722079
 30
0.0
 11
0.0000000000000073
 21
-121.2815389722079
 31
0.0
 70
    32
 71
     5
 42
-1.0
 73
     0
 74
     0
 75
     0
  3
STANDARD
100
AcDbAlignedDimension
 13
-78.49974009536143
 23
-95.2647216513492
 33
0.0
 14
78.49974009536143
 24
-95.2647216513492
 34
0.0
100
AcDbRotatedDimension
1001
ACAD
1000
DSTYLE
1002
{
1070
    79
1070
     3
1002
}
  0
DIMENSION
  5
54D8
330
1E
100
AcDbEntity
  8
30
  6
Continuous
100
AcDbDimension
280
     0
  2
*D16
 10
63.19371131877503
 20
-219.4725068451631
 30
0.0
 11
97.31772131877509
 21
-204.873116845163
 31
0.0
 70
   163
 71
     5
 42
-1.0
 73
     0
 74
     0
 75
     0
  3
STANDARD
100
AcDbDiametricDimension
 15
68.58151331877514
 25
-216.8321288451628
 35
0.0
 40
0.0
1001
ACAD
1000
DSTYLE
1002
{
1070
   288
1070
     1
1002
}
  0
DIMENSION
  5
5923
330
1E
100
AcDbEntity
  8
30
  6
Continuous
100
AcDbDimension
280
     0
  2
*D18
 10
-95.0
 20
95.99968215483697
 30
0.0
 11
-98.00000000000002
 21
0.0000000000000204
 31
0.0
 70
    32
 71
     5
 42
-1.0
 73
     0
 74
     0
 75
     0
  3
STANDARD
100
AcDbAlignedDimension
 13
-73.49975664979702
 23
-95.9996821548369
 33
0.0
 14
-73.49975664979702
 24
95.99968215483697
 34
0.0
 50
90.0
100
AcDbRotatedDimension
1001
ACAD
1000
DSTYLE
1002
{
1070
    79
1070
     3
1002
}
  0
CIRCLE
  5
59D6
330
1E
100
AcDbEntity
  8
10
  6
CONTINOUS
100
AcDbCircle
 10
26.19999999999996
 20
5.800000000000013
 30
0.0
 40
3.0
  0
LINE
  5
59D7
330
1E
100
AcDbEntity
  8
10
  6
CONTINOUS
100
AcDbLine
 10
22.69999999999996
 20
-15.5
 30
0.0
 11
30.69999999999996
 21
-15.5
 31
0.0
  0
LINE
  5
59D8
330
1E
100
AcDbEntity
  8
10
  6
CONTINOUS
100
AcDbLine
 10
22.69999999999996
 20
-10.5
 30
0.0
 11
30.69999999999996
 21
-10.5
 31
0.0
  0
LINE
  5
59D9
330
1E
100
AcDbEntity
  8
10
  6
CONTINOUS
100
AcDbLine
 10
22.69999999999996
 20
-12.5
 30
0.0
 11
30.69999999999996
 21
-12.5
 31
0.0
  0
LINE
  5
59DA
330
1E
100
AcDbEntity
  8
10
  6
CONTINOUS
100
AcDbLine
 10
22.69999999999996
 20
-7.5
 30
0.0
 11
30.69999999999996
 21
-7.5
 31
0.0
  0
LINE
  5
59DB
330
1E
100
AcDbEntity
  8
10
  6
CONTINOUS
100
AcDbLine
 10
22.69999999999996
 20
-10.5
 30
0.0
 11
22.69999999999996
 21
-7.5
 31
0.0
  0
LINE
  5
59DC
330
1E
100
AcDbEntity
  8
10
  6
CONTINOUS
100
AcDbLine
 10
22.69999999999996
 20
-15.5
 30
0.0
 11
22.69999999999996
 21
-12.5
 31
0.0
  0
LINE
  5
59DD
330
1E
100
AcDbEntity
  8
10
  6
CONTINOUS
100
AcDbLine
 10
30.69999999999996
 20
-10.5
 30
0.0
 11
30.69999999999996
 21
-7.5
 31
0.0
  0
LINE
  5
59DE
330
1E
100
AcDbEntity
  8
10
  6
CONTINOUS
100
AcDbLine
 10
30.69999999999996
 20
-15.5
 30
0.0
 11
30.69999999999996
 21
-12.5
 31
0.0
  0
CIRCLE
  5
59DF
330
1E
100
AcDbEntity
  8
10
  6
CONTINOUS
100
AcDbCircle
 10
26.19999999999996
 20
-1.900000000000004
 30
0.0
 40
2.6
  0
CIRCLE
  5
59E0
330
1E
100
AcDbEntity
  8
10
  6
CONTINOUS
100
AcDbCircle
 10
26.19999999999996
 20
-1.900000000000004
 30
0.0
 40
3.6
  0
MTEXT
  5
5A17
330
1E
100
AcDbEntity
  8
30
  6
Continuous
100
AcDbMText
 10
198.2702517865454
 20
225.3592752675976
 30
0.0
 40
5.0
 41
97.0
 46
0.0
 71
     1
 72
     5
  1
ZS100-GF 3P FP\PZS125-GF 3P FP
  7
STANDARD1
 73
     1
 44
1.0
1001
ACAD
1000
MTEXTBEGIN
1070
    73
1070
     1
1070
    44
1040
1.0
1070
    74
1070
     0
1000
MTEXTEND
  0
LINE
  5
5D24
330
1E
100
AcDbEntity
  8
16
100
AcDbLine
 10
323.9068787532455
 20
0.0
 30
0.0
 11
191.7416311410758
 21
0.0
 31
0.0
  0
DIMENSION
  5
5D25
330
1E
100
AcDbEntity
  8
30
  6
Continuous
100
AcDbDimension
280
     0
  2
*D42
 10
244.9999257258451
 20
-172.3996379392698
 30
0.0
 11
226.5000173306357
 21
-169.3996379392698
 31
0.0
 70
    32
 71
     5
 42
36.99981679041882
 73
     0
 74
     0
 75
     0
  3
STANDARD
100
AcDbAlignedDimension
 13
208.0001089354263
 23
-2.499987637474176
 33
0.0
 14
244.9999257258451
 24
-105.9994751293082
 34
0.0
 50
180.0
100
AcDbRotatedDimension
  0
LINE
  5
5D26
330
1E
100
AcDbEntity
  8
10
  6
CONTINOUS
100
AcDbLine
 10
224.0000297096619
 20
-24.99987620974255
 30
0.0
 11
230.0
 21
-24.99987620974255
 31
0.0
  0
LINE
  5
5D27
330
1E
100
AcDbEntity
  8
10
  6
CONTINOUS
100
AcDbLine
 10
224.0000297096619
 20
24.99987620974251
 30
0.0
 11
230.0
 21
24.99987620974251
 31
0.0
  0
LINE
  5
5D28
330
1E
100
AcDbEntity
  8
10
  6
CONTINOUS
100
AcDbLine
 10
224.0000297096619
 20
24.99987620974251
 30
0.0
 11
224.0000297096619
 21
-24.99987620974255
 31
0.0
  0
ARC
  5
5D29
330
1E
100
AcDbEntity
  8
30
  6
Continuous
100
AcDbCircle
 10
238.9999554355073
 20
0.0
 30
0.0
 40
30.99984650008077
100
AcDbArc
 50
150.5534441956564
 51
180.0
  0
LINE
  5
5D2A
330
1E
100
AcDbEntity
  8
10
  6
CONTINOUS
100
AcDbLine
 10
224.0000297096619
 20
6.840755433938483
 30
0.0
 11
212.0048353058886
 21
15.23988097775135
 31
0.0
  0
LINE
  5
5D2B
330
1E
100
AcDbEntity
  8
10
  6
CONTINOUS
100
AcDbLine
 10
224.0000297096619
 20
14.16536669770708
 30
0.0
 11
215.4462768832329
 21
20.15476890675518
 31
0.0
  0
LINE
  5
5D2C
330
1E
100
AcDbEntity
  8
10
  6
CONTINOUS
100
AcDbLine
 10
212.0048353058886
 20
15.23988097775135
 30
0.0
 11
215.4462768832329
 21
20.15476890675518
 31
0.0
  0
LINE
  5
5D2D
330
1E
100
AcDbEntity
  8
10
  6
CONTINOUS
100
AcDbLine
 10
244.9999257258451
 20
95.99952464541166
 30
0.0
 11
244.9999257258451
 21
-95.99952464541123
 31
0.0
  0
LINE
  5
5D2E
330
1E
100
AcDbEntity
  8
10
  6
CONTINOUS
100
AcDbLine
 10
228.0000099032204
 20
24.99987620974251
 30
0.0
 11
228.0000099032204
 21
-24.99987620974255
 31
0.0
  0
LINE
  5
5D2F
330
1E
100
AcDbEntity
  8
18
100
AcDbLine
 10
248.9999059194044
 20
100.9994998873601
 30
0.0
 11
248.9999059194044
 21
-110.9994503712566
 31
0.0
  0
LINE
  5
5D30
330
1E
100
AcDbEntity
  8
10
  6
CONTINOUS
100
AcDbLine
 10
230.0
 20
95.99952464541166
 30
0.0
 11
230.0
 21
-95.99952464541123
 31
0.0
  0
DIMENSION
  5
5D31
330
1E
100
AcDbEntity
  8
30
  6
Continuous
100
AcDbDimension
280
     0
  2
*D43
 10
401.9991483230286
 20
-172.3996379392698
 30
0.0
 11
323.4995370244369
 21
-169.3996379392698
 31
0.0
 70
    32
 71
     5
 42
156.9992225971835
 73
     0
 74
     0
 75
     0
  3
STANDARD
100
AcDbAlignedDimension
 13
244.9999257258451
 23
-105.9994751293082
 33
0.0
 14
401.9991483230286
 24
-66.99966824211003
 34
0.0
 50
180.0
100
AcDbRotatedDimension
  0
DIMENSION
  5
5D32
330
1E
100
AcDbEntity
  8
30
  6
Continuous
100
AcDbDimension
280
     0
  2
*D44
 10
351.9993959035433
 20
-147.3997617295276
 30
0.0
 11
298.4996608146941
 21
-144.3997617295276
 31
0.0
 70
    32
 71
     5
 42
106.9994701776982
 73
     0
 74
     0
 75
     0
  3
STANDARD
100
AcDbAlignedDimension
 13
244.9999257258451
 23
-105.9994751293082
 33
0.0
 14
351.9993959035433
 24
-66.99966824211003
 34
0.0
 50
180.0
100
AcDbRotatedDimension
  0
INSERT
  5
5D33
330
1E
100
AcDbEntity
  8
30
  6
Continuous
100
AcDbBlockReference
  2
*U31
 10
-407.0351231466664
 20
-306.7739725618864
 30
0.0
 41
2.499987620974227
 42
2.499987620974227
 43
2.499987620974227
  0
DIMENSION
  5
5D34
330
1E
100
AcDbEntity
  8
30
  6
Continuous
100
AcDbDimension
280
     0
  2
*D45
 10
336.9994701776982
 20
-34.90031878568621
 30
0.0
 11
329.4995073147753
 21
-31.90031878568621
 31
0.0
 70
    32
 71
     5
 42
14.99992572584563
 73
     0
 74
     0
 75
     0
  3
STANDARD
100
AcDbAlignedDimension
 13
321.9995444518525
 23
-59.99970288688222
 33
0.0
 14
336.9994701776982
 24
-64.49968060463588
 34
0.0
100
AcDbRotatedDimension
  0
LINE
  5
5D35
330
1E
100
AcDbEntity
  8
0
  6
Continuous
100
AcDbLine
 10
323.5933088038024
 20
-74.99962862922766
 30
0.0
 11
349.8558129783345
 21
-74.99962862922766
 31
0.0
  0
LINE
  5
5D36
330
1E
100
AcDbEntity
  8
0
  6
Continuous
100
AcDbLine
 10
323.5933088038024
 20
-58.99970785499244
 30
0.0
 11
349.8558129783345
 21
-58.99970785499244
 31
0.0
  0
LINE
  5
5D37
330
1E
100
AcDbEntity
  8
0
  6
Continuous
100
AcDbLine
 10
294.9996781453305
 20
-66.99966824211003
 30
0.0
 11
411.9990988069256
 21
-66.99966824211003
 31
0.0
  0
DIMENSION
  5
5D38
330
1E
100
AcDbEntity
  8
30
  6
Continuous
100
AcDbDimension
280
     0
  2
*D46
 10
244.9999257258451
 20
-147.3997617295276
 30
0.0
 11
237.4999628629225
 21
-144.3997617295276
 31
0.0
 70
    32
 71
     5
 42
14.99992572584512
 73
     0
 74
     0
 75
     0
  3
STANDARD
100
AcDbAlignedDimension
 13
230.0
 23
-95.99952464541123
 33
0.0
 14
244.9999257258451
 24
-105.9994751293082
 34
0.0
 50
180.0
100
AcDbRotatedDimension
  0
LINE
  5
5D39
330
1E
100
AcDbEntity
  8
18
100
AcDbLine
 10
244.9999257258451
 20
-95.99952464541123
 30
0.0
 11
244.9999257258451
 21
-105.999475129308
 31
0.0
  0
LINE
  5
5D3A
330
1E
100
AcDbEntity
  8
18
100
AcDbLine
 10
244.9999257258451
 20
-105.999475129308
 30
0.0
 11
248.9999059194044
 21
-110.9994503712566
 31
0.0
  0
LINE
  5
5D3B
330
1E
100
AcDbEntity
  8
10
  6
CONTINOUS
100
AcDbLine
 10
244.9999257258451
 20
-77.49961625020187
 30
0.0
 11
299.9996533872792
 21
-77.49961625020187
 31
0.0
  0
LINE
  5
5D3C
330
1E
100
AcDbEntity
  8
10
  6
CONTINOUS
100
AcDbLine
 10
230.0
 20
-95.99952464541123
 30
0.0
 11
244.9999257258451
 21
-95.99952464541123
 31
0.0
  0
LINE
  5
5D3D
330
1E
100
AcDbEntity
  8
0
  6
Continuous
100
AcDbLine
 10
316.4995716857089
 20
-59.87470352233344
 30
0.0
 11
316.4995716857089
 21
-74.12463296188668
 31
0.0
  0
LINE
  5
5D3E
330
1E
100
AcDbEntity
  8
0
  6
Continuous
100
AcDbLine
 10
299.9996533872788
 20
-74.12463296188668
 30
0.0
 11
323.1167864807559
 21
-74.12463296188668
 31
0.0
  0
LINE
  5
5D3F
330
1E
100
AcDbEntity
  8
0
  6
Continuous
100
AcDbLine
 10
316.4995716857089
 20
-71.4996459598637
 30
0.0
 11
321.9995444518525
 21
-71.4996459598637
 31
0.0
  0
ARC
  5
5D40
330
1E
100
AcDbEntity
  8
0
  6
Continuous
100
AcDbCircle
 10
340.9137311150848
 20
-64.99967814533062
 30
0.0
 40
19.99990096779404
100
AcDbArc
 50
198.9655749888479
 51
209.999999999999
  0
LINE
  5
5D41
330
1E
100
AcDbEntity
  8
0
  6
Continuous
100
AcDbLine
 10
299.9996533872788
 20
-59.87470352233344
 30
0.0
 11
323.1167864807559
 21
-59.87470352233344
 31
0.0
  0
LINE
  5
5D42
330
1E
100
AcDbEntity
  8
0
  6
Continuous
100
AcDbLine
 10
316.4995716857089
 20
-62.49969052435637
 30
0.0
 11
321.9995444518525
 21
-62.49969052435637
 31
0.0
  0
ARC
  5
5D43
330
1E
100
AcDbEntity
  8
0
  6
Continuous
100
AcDbCircle
 10
-340.9137311150848
 20
-68.99965833888946
 30
0.0
 40
19.99990096779404
210
0.0
220
0.0
230
-1.0
100
AcDbArc
 50
18.96557498884869
 51
29.99999999999972
  0
DIMENSION
  5
5D44
330
1E
100
AcDbEntity
  8
30
  6
Continuous
100
AcDbDimension
280
     0
  2
*D47
 10
401.9991483230286
 20
-122.3998855197852
 30
0.0
 11
394.4991854601059
 21
-119.3998855197852
 31
0.0
 70
    32
 71
     5
 42
14.99992572584551
 73
     0
 74
     0
 75
     0
  3
STANDARD
100
AcDbAlignedDimension
 13
386.9992225971832
 23
-69.49965587958423
 33
0.0
 14
401.9991483230286
 24
-76.28671009944188
 34
0.0
 50
180.0
100
AcDbRotatedDimension
  0
DIMENSION
  5
5D45
330
1E
100
AcDbEntity
  8
30
  6
Continuous
100
AcDbDimension
280
     0
  2
*D48
 10
351.9993959035433
 20
-122.3998855197852
 30
0.0
 11
344.4994330406207
 21
-119.3998855197852
 31
0.0
 70
    32
 71
     5
 42
14.99992572584517
 73
     0
 74
     0
 75
     0
  3
STANDARD
100
AcDbAlignedDimension
 13
336.9994701776982
 23
-69.49965587958423
 33
0.0
 14
351.9993959035433
 24
-76.28671009944188
 34
0.0
 50
180.0
100
AcDbRotatedDimension
  0
CIRCLE
  5
5D46
330
1E
100
AcDbEntity
  8
0
  6
Continuous
100
AcDbCircle
 10
386.9992225971832
 20
-66.99966824211003
 30
0.0
 40
4.249978955656231
  0
LINE
  5
5D47
330
1E
100
AcDbEntity
  8
0
  6
Continuous
100
AcDbLine
 10
373.5930612232875
 20
-58.99970785499244
 30
0.0
 11
399.8555653978196
 21
-58.99970785499244
 31
0.0
  0
LINE
  5
5D48
330
1E
100
AcDbEntity
  8
0
  6
Continuous
100
AcDbLine
 10
373.5930612232875
 20
-74.99962862922766
 30
0.0
 11
399.8555653978196
 21
-74.99962862922766
 31
0.0
  0
ARC
  5
5D49
330
1E
100
AcDbEntity
  8
0
  6
Continuous
100
AcDbCircle
 10
335.9994751293085
 20
-66.99966824211003
 30
0.0
 40
15.99992077423523
100
AcDbArc
 50
330.0000000000003
 51
29.99999999999972
  0
CIRCLE
  5
5D4A
330
1E
100
AcDbEntity
  8
0
  6
Continuous
100
AcDbCircle
 10
336.9994701776982
 20
-66.99966824211003
 30
0.0
 40
4.249978955656231
  0
LINE
  5
5D4B
330
1E
100
AcDbEntity
  8
0
  6
Continuous
100
AcDbLine
 10
336.9994701776982
 20
-53.99973261304392
 30
0.0
 11
336.9994701776982
 21
-79.99960387117616
 31
0.0
  0
LINE
  5
5D4C
330
1E
100
AcDbEntity
  8
0
  6
Continuous
100
AcDbLine
 10
366.4993241051941
 20
-59.87470352233344
 30
0.0
 11
366.4993241051941
 21
-74.12463296188668
 31
0.0
  0
LINE
  5
5D4D
330
1E
100
AcDbEntity
  8
0
  6
Continuous
100
AcDbLine
 10
350.3254076477777
 20
-74.12463296188668
 30
0.0
 11
366.4993241051943
 21
-74.12463296188668
 31
0.0
  0
LINE
  5
5D4E
330
1E
100
AcDbEntity
  8
0
  6
Continuous
100
AcDbLine
 10
366.4993241051941
 20
-71.4996459598637
 30
0.0
 11
371.9992968713377
 21
-71.4996459598637
 31
0.0
  0
ARC
  5
5D4F
330
1E
100
AcDbEntity
  8
0
  6
Continuous
100
AcDbCircle
 10
390.9134835345702
 20
-64.99967814533062
 30
0.0
 40
19.99990096779404
100
AcDbArc
 50
198.9655749888479
 51
209.999999999999
  0
LINE
  5
5D50
330
1E
100
AcDbEntity
  8
0
  6
Continuous
100
AcDbLine
 10
350.3254076477777
 20
-59.87470352233344
 30
0.0
 11
366.4993241051943
 21
-59.87470352233344
 31
0.0
  0
LINE
  5
5D51
330
1E
100
AcDbEntity
  8
0
  6
Continuous
100
AcDbLine
 10
366.4993241051941
 20
-62.49969052435637
 30
0.0
 11
371.9992968713377
 21
-62.49969052435637
 31
0.0
  0
ARC
  5
5D52
330
1E
100
AcDbEntity
  8
0
  6
Continuous
100
AcDbCircle
 10
-390.9134835345702
 20
-68.99965833888946
 30
0.0
 40
19.99990096779404
210
0.0
220
0.0
230
-1.0
100
AcDbArc
 50
18.96557498884869
 51
29.99999999999972
  0
DIMENSION
  5
5D53
330
1E
100
AcDbEntity
  8
30
  6
Continuous
100
AcDbDimension
280
     0
  2
*D49
 10
426.0857515477538
 20
-58.99970785499242
 30
0.0
 11
423.0857515477538
 21
-66.99966824210996
 31
0.0
 70
    32
 71
     5
 42
15.99992077423525
 73
     0
 74
     0
 75
     0
  3
STANDARD
100
AcDbAlignedDimension
 13
399.8555653978196
 23
-74.99962862922766
 33
0.0
 14
399.8555653978196
 24
-58.99970785499241
 34
0.0
 50
270.0
100
AcDbRotatedDimension
  0
ARC
  5
5D54
330
1E
100
AcDbEntity
  8
0
  6
Continuous
100
AcDbCircle
 10
385.9992275487935
 20
-66.99966824211003
 30
0.0
 40
15.99992077423523
100
AcDbArc
 50
330.0000000000003
 51
29.99999999999972
  0
LINE
  5
5D55
330
1E
100
AcDbEntity
  8
0
  6
Continuous
100
AcDbLine
 10
386.9992225971832
 20
-53.99973261304392
 30
0.0
 11
386.9992225971832
 21
-79.99960387117616
 31
0.0
  0
LINE
  5
5D56
330
1E
100
AcDbEntity
  8
0
  6
Continuous
100
AcDbLine
 10
316.4995716857089
 20
64.49968062113575
 30
0.0
 11
351.9993959035433
 21
64.49968062113575
 31
0.0
  0
LINE
  5
5D57
330
1E
100
AcDbEntity
  8
0
  6
Continuous
100
AcDbLine
 10
316.4995716857089
 20
69.49965586308424
 30
0.0
 11
351.9993959035433
 21
69.49965586308424
 31
0.0
  0
LINE
  5
5D58
330
1E
100
AcDbEntity
  8
0
  6
Continuous
100
AcDbLine
 10
294.9996781453305
 20
66.99966824210996
 30
0.0
 11
411.9990988069256
 21
66.99966824210996
 31
0.0
  0
LINE
  5
5D59
330
1E
100
AcDbEntity
  8
0
  6
Continuous
100
AcDbLine
 10
299.9996533872788
 20
59.87470352233344
 30
0.0
 11
366.4993241051938
 21
59.87470352233344
 31
0.0
  0
LINE
  5
5D5A
330
1E
100
AcDbEntity
  8
0
  6
Continuous
100
AcDbLine
 10
299.9996533872788
 20
74.12463296188659
 30
0.0
 11
366.4993241051938
 21
74.12463296188659
 31
0.0
  0
LINE
  5
5D5B
330
1E
100
AcDbEntity
  8
10
  6
CONTINOUS
100
AcDbLine
 10
244.9999257258451
 20
77.49961625020205
 30
0.0
 11
299.9996533872792
 21
77.49961625020205
 31
0.0
  0
LINE
  5
5D5C
330
1E
100
AcDbEntity
  8
10
  6
CONTINOUS
100
AcDbLine
 10
230.0
 20
95.99952464541166
 30
0.0
 11
244.9999257258451
 21
95.99952464541166
 31
0.0
  0
LINE
  5
5D5D
330
1E
100
AcDbEntity
  8
18
100
AcDbLine
 10
244.9999257258451
 20
105.9994751293084
 30
0.0
 11
244.9999257258451
 21
95.99952464541166
 31
0.0
  0
LINE
  5
5D5E
330
1E
100
AcDbEntity
  8
18
100
AcDbLine
 10
244.9999257258451
 20
105.9994751293084
 30
0.0
 11
248.9999059194044
 21
100.9994998873601
 31
0.0
  0
LINE
  5
5D5F
330
1E
100
AcDbEntity
  8
0
  6
Continuous
100
AcDbLine
 10
316.4995716857089
 20
74.12463296188659
 30
0.0
 11
316.4995716857089
 21
59.87470352233339
 31
0.0
  0
LINE
  5
5D60
330
1E
100
AcDbEntity
  8
0
  6
Continuous
100
AcDbLine
 10
321.9995444518525
 20
69.49965586308424
 30
0.0
 11
321.9995444518525
 21
64.49968062113575
 31
0.0
  0
LINE
  5
5D61
330
1E
100
AcDbEntity
  8
0
  6
Continuous
100
AcDbLine
 10
366.4993241051941
 20
69.49965586308424
 30
0.0
 11
401.9991483230286
 21
69.49965586308424
 31
0.0
  0
LINE
  5
5D62
330
1E
100
AcDbEntity
  8
0
  6
Continuous
100
AcDbLine
 10
366.4993241051941
 20
64.49968062113575
 30
0.0
 11
401.9991483230286
 21
64.49968062113575
 31
0.0
  0
LINE
  5
5D63
330
1E
100
AcDbEntity
  8
0
  6
Continuous
100
AcDbLine
 10
336.9994701776982
 20
73.24963729454561
 30
0.0
 11
336.9994701776982
 21
60.74969918967435
 31
0.0
  0
LINE
  5
5D64
330
1E
100
AcDbEntity
  8
0
  6
Continuous
100
AcDbLine
 10
351.9993959035433
 20
69.49965586308424
 30
0.0
 11
351.9993959035433
 21
64.49968062113575
 31
0.0
  0
LINE
  5
5D65
330
1E
100
AcDbEntity
  8
0
  6
Continuous
100
AcDbLine
 10
366.4993241051941
 20
74.12463296188659
 30
0.0
 11
366.4993241051941
 21
59.87470352233344
 31
0.0
  0
LINE
  5
5D66
330
1E
100
AcDbEntity
  8
0
  6
Continuous
100
AcDbLine
 10
371.9992968713377
 20
69.49965586308424
 30
0.0
 11
371.9992968713377
 21
64.49968062113575
 31
0.0
  0
DIMENSION
  5
5D67
330
1E
100
AcDbEntity
  8
30
  6
Continuous
100
AcDbDimension
280
     0
  2
*D50
 10
423.7524182144204
 20
69.49965586308421
 30
0.0
 11
426.0857515477538
 21
73.4996558630843
 31
0.0
 70
   160
 71
     5
 42
4.999975241948489
 73
     0
 74
     0
 75
     0
  3
STANDARD
100
AcDbAlignedDimension
 13
401.9991483230286
 23
64.49968062113575
 33
0.0
 14
401.9991483230286
 24
69.49965586308424
 34
0.0
 50
270.0
100
AcDbRotatedDimension
1001
ACAD
1000
DSTYLE
1002
{
1070
   340
1005
11
1002
}
  0
LINE
  5
5D68
330
1E
100
AcDbEntity
  8
0
  6
Continuous
100
AcDbLine
 10
386.9992225971832
 20
73.24963729454561
 30
0.0
 11
386.9992225971832
 21
60.74969918967435
 31
0.0
  0
LINE
  5
5D69
330
1E
100
AcDbEntity
  8
0
  6
Continuous
100
AcDbLine
 10
401.9991483230286
 20
69.49965586308424
 30
0.0
 11
401.9991483230286
 21
64.49968062113575
 31
0.0
  0
TEXT
  5
5D6A
330
1E
100
AcDbEntity
  8
30
  6
Continuous
100
AcDbText
 10
294.3687489326077
 20
-121.3902071445067
 30
0.0
 40
5.0
  1
%%c8.5
 41
0.8542968749999968
  7
UGMTXT
100
AcDbText
  0
DIMENSION
  5
5D6B
330
1E
100
AcDbEntity
  8
30
  6
Continuous
100
AcDbDimension
280
     0
  2
*D51
 10
437.7367141808032
 20
-66.99966824211003
 30
0.0
 11
434.7367141808032
 21
0.0000000000000304
 31
0.0
 70
    32
 71
     5
 42
133.9993364842199
 73
     0
 74
     0
 75
     0
  3
STANDARD
100
AcDbAlignedDimension
 13
411.9990988069256
 23
66.99966824210996
 33
0.0
 14
426.0857515477538
 24
-66.99966824211003
 34
0.0
 50
90.0
100
AcDbRotatedDimension
1001
ACAD
1000
DSTYLE
1002
{
1070
    79
1070
     3
1002
}
  0
LINE
  5
5D6C
330
1E
100
AcDbEntity
  8
1
  6
Continuous
 62
     3
100
AcDbLine
 10
304.1999257258449
 20
-50.00038374979793
 30
0.0
 11
302.599925725845
 21
-50.00038374979793
 31
0.0
  0
LINE
  5
5D6D
330
1E
100
AcDbEntity
  8
1
  6
Continuous
 62
     3
100
AcDbLine
 10
256.7999257258449
 20
-50.00038374979793
 30
0.0
 11
256.7999257258449
 21
-75.00038374979793
 31
0.0
  0
LINE
  5
5D6E
330
1E
100
AcDbEntity
  8
1
  6
Continuous
 62
     3
100
AcDbLine
 10
302.599925725845
 20
-50.00038374979793
 30
0.0
 11
302.599925725845
 21
-76.50038374979795
 31
0.0
  0
LINE
  5
5D6F
330
1E
100
AcDbEntity
  8
1
  6
Continuous
 62
     3
100
AcDbLine
 10
307.2999257258446
 20
-32.60038374979791
 30
0.0
 11
307.2999257258446
 21
-41.40038374979795
 31
0.0
  0
LINE
  5
5D70
330
1E
100
AcDbEntity
  8
1
  6
Continuous
 62
     3
100
AcDbLine
 10
309.7499257258446
 20
38.59961625020205
 30
0.0
 11
307.4999257258451
 21
38.59961625020205
 31
0.0
  0
LINE
  5
5D71
330
1E
100
AcDbEntity
  8
1
  6
Continuous
 62
     3
100
AcDbLine
 10
253.3999257258447
 20
17.99961625020209
 30
0.0
 11
253.3999257258447
 21
-18.00038374979792
 31
0.0
  0
LINE
  5
5D72
330
1E
100
AcDbEntity
  8
1
  6
Continuous
 62
     3
100
AcDbLine
 10
307.0999257258448
 20
-32.60038374979791
 30
0.0
 11
306.1999257258447
 21
-32.60038374979791
 31
0.0
  0
LINE
  5
5D73
330
1E
100
AcDbEntity
  8
1
  6
Continuous
 62
     3
100
AcDbLine
 10
299.9999257258451
 20
-76.50038374979795
 30
0.0
 11
302.599925725845
 21
-76.50038374979795
 31
0.0
  0
LINE
  5
5D74
330
1E
100
AcDbEntity
  8
1
  6
Continuous
 62
     3
100
AcDbLine
 10
256.7999257258449
 20
74.99961625020205
 30
0.0
 11
244.9999257258451
 21
74.99961625020205
 31
0.0
  0
LINE
  5
5D75
330
1E
100
AcDbEntity
  8
1
  6
Continuous
 62
     3
100
AcDbLine
 10
256.7999257258449
 20
49.99961625020205
 30
0.0
 11
302.599925725845
 21
49.99961625020205
 31
0.0
  0
LINE
  5
5D76
330
1E
100
AcDbEntity
  8
1
  6
Continuous
 62
     3
100
AcDbLine
 10
290.3999257258448
 20
-18.00038374979792
 30
0.0
 11
290.3999257258448
 21
17.99961625020209
 31
0.0
  0
LINE
  5
5D77
330
1E
100
AcDbEntity
  8
1
  6
Continuous
 62
     3
100
AcDbLine
 10
305.199925725845
 20
54.49961625020208
 30
0.0
 11
302.599925725845
 21
54.49961625020208
 31
0.0
  0
LINE
  5
5D78
330
1E
100
AcDbEntity
  8
1
  6
Continuous
 62
     3
100
AcDbLine
 10
306.3999257258448
 20
43.64143875020203
 30
0.0
 11
307.4999257258451
 21
43.54520125020207
 31
0.0
  0
LINE
  5
5D79
330
1E
100
AcDbEntity
  8
1
  6
Continuous
 62
     3
100
AcDbLine
 10
310.7499257258449
 20
46.39961625020204
 30
0.0
 11
310.7499257258449
 21
39.59961625020206
 31
0.0
  0
LINE
  5
5D7A
330
1E
100
AcDbEntity
  8
1
  6
Continuous
 62
     3
100
AcDbLine
 10
306.3999257258448
 20
38.64961625020207
 30
0.0
 11
306.3999257258448
 21
47.34961625020203
 31
0.0
  0
LINE
  5
5D7B
330
1E
100
AcDbEntity
  8
1
  6
Continuous
 62
     3
100
AcDbLine
 10
305.9999257258446
 20
38.24961625020208
 30
0.0
 11
305.2999257258449
 21
38.24961625020208
 31
0.0
  0
LINE
  5
5D7C
330
1E
100
AcDbEntity
  8
1
  6
Continuous
 62
     3
100
AcDbLine
 10
307.4999257258451
 20
47.19961625020203
 30
0.0
 11
307.4999257258451
 21
38.79961625020208
 31
0.0
  0
LINE
  5
5D7D
330
1E
100
AcDbEntity
  8
1
  6
Continuous
 62
     3
100
AcDbLine
 10
305.7999257258448
 20
-32.25038374979795
 30
0.0
 11
305.099925725845
 21
-32.25038374979795
 31
0.0
  0
LINE
  5
5D7E
330
1E
100
AcDbEntity
  8
1
  6
Continuous
 62
     3
100
AcDbLine
 10
307.4999257258451
 20
42.74405625020206
 30
0.0
 11
306.3999257258448
 21
42.84029375020202
 31
0.0
  0
LINE
  5
5D7F
330
1E
100
AcDbEntity
  8
1
  6
Continuous
 62
     3
100
AcDbLine
 10
288.3999257258448
 20
19.99961625020205
 30
0.0
 11
255.3999257258448
 21
19.99961625020205
 31
0.0
  0
LINE
  5
5D80
330
1E
100
AcDbEntity
  8
1
  6
Continuous
 62
     3
100
AcDbLine
 10
305.199925725845
 20
-45.50038374979793
 30
0.0
 11
305.199925725845
 21
54.49961625020208
 31
0.0
  0
LINE
  5
5D81
330
1E
100
AcDbEntity
  8
1
  6
Continuous
 62
     3
100
AcDbLine
 10
307.2999257258446
 20
47.39961625020207
 30
0.0
 11
306.3999257258448
 21
47.39961625020207
 31
0.0
  0
LINE
  5
5D82
330
1E
100
AcDbEntity
  8
1
  6
Continuous
 62
     3
100
AcDbLine
 10
307.2999257258446
 20
38.59961625020205
 30
0.0
 11
306.3999257258448
 21
38.59961625020205
 31
0.0
  0
LINE
  5
5D83
330
1E
100
AcDbEntity
  8
1
  6
Continuous
 62
     3
100
AcDbLine
 10
305.9999257258446
 20
47.74961625020203
 30
0.0
 11
305.2999257258449
 21
47.74961625020203
 31
0.0
  0
LINE
  5
5D84
330
1E
100
AcDbEntity
  8
1
  6
Continuous
 62
     3
100
AcDbLine
 10
309.5499257258448
 20
-41.40038374979795
 30
0.0
 11
307.2999257258446
 21
-41.40038374979795
 31
0.0
  0
LINE
  5
5D85
330
1E
100
AcDbEntity
  8
1
  6
Continuous
 62
     3
100
AcDbLine
 10
256.7999257258449
 20
74.99961625020205
 30
0.0
 11
256.7999257258449
 21
49.99961625020205
 31
0.0
  0
LINE
  5
5D86
330
1E
100
AcDbEntity
  8
1
  6
Continuous
 62
     3
100
AcDbLine
 10
255.3999257258448
 20
-20.00038374979795
 30
0.0
 11
288.3999257258448
 21
-20.00038374979795
 31
0.0
  0
LINE
  5
5D87
330
1E
100
AcDbEntity
  8
1
  6
Continuous
 62
     3
100
AcDbLine
 10
304.1999257258449
 20
49.99961625020205
 30
0.0
 11
304.1999257258449
 21
-50.00038374979793
 31
0.0
  0
LINE
  5
5D88
330
1E
100
AcDbEntity
  8
1
  6
Continuous
 62
     3
100
AcDbLine
 10
302.599925725845
 20
76.49961625020205
 30
0.0
 11
302.599925725845
 21
49.99961625020205
 31
0.0
  0
LINE
  5
5D89
330
1E
100
AcDbEntity
  8
1
  6
Continuous
 62
     3
100
AcDbLine
 10
309.5499257258448
 20
-32.60038374979791
 30
0.0
 11
307.2999257258446
 21
-32.60038374979791
 31
0.0
  0
LINE
  5
5D8A
330
1E
100
AcDbEntity
  8
1
  6
Continuous
 62
     3
100
AcDbLine
 10
310.5499257258448
 20
-33.60038374979794
 30
0.0
 11
310.5499257258448
 21
-40.40038374979793
 31
0.0
  0
LINE
  5
5D8B
330
1E
100
AcDbEntity
  8
1
  6
Continuous
 62
     3
100
AcDbLine
 10
306.1999257258447
 20
-36.35856124979793
 30
0.0
 11
307.2999257258446
 21
-36.45479874979793
 31
0.0
  0
LINE
  5
5D8C
330
1E
100
AcDbEntity
  8
1
  6
Continuous
 62
     3
100
AcDbLine
 10
244.9999257258451
 20
-75.00038374979793
 30
0.0
 11
256.7999257258449
 21
-75.00038374979793
 31
0.0
  0
LINE
  5
5D8D
330
1E
100
AcDbEntity
  8
1
  6
Continuous
 62
     3
100
AcDbLine
 10
299.9999257258451
 20
76.49961625020205
 30
0.0
 11
302.599925725845
 21
76.49961625020205
 31
0.0
  0
LINE
  5
5D8E
330
1E
100
AcDbEntity
  8
1
  6
Continuous
 62
     3
100
AcDbLine
 10
307.4999257258451
 20
47.39961625020207
 30
0.0
 11
307.4999257258451
 21
38.59961625020205
 31
0.0
  0
LINE
  5
5D8F
330
1E
100
AcDbEntity
  8
1
  6
Continuous
 62
     3
100
AcDbLine
 10
309.7499257258446
 20
47.39961625020207
 30
0.0
 11
307.4999257258451
 21
47.39961625020207
 31
0.0
  0
LINE
  5
5D90
330
1E
100
AcDbEntity
  8
1
  6
Continuous
 62
     3
100
AcDbLine
 10
307.0999257258448
 20
-41.40038374979795
 30
0.0
 11
306.1999257258447
 21
-41.40038374979795
 31
0.0
  0
LINE
  5
5D91
330
1E
100
AcDbEntity
  8
1
  6
Continuous
 62
     3
100
AcDbLine
 10
302.599925725845
 20
-50.00038374979793
 30
0.0
 11
256.7999257258449
 21
-50.00038374979793
 31
0.0
  0
LINE
  5
5D92
330
1E
100
AcDbEntity
  8
1
  6
Continuous
 62
     3
100
AcDbLine
 10
302.599925725845
 20
49.99961625020205
 30
0.0
 11
304.1999257258449
 21
49.99961625020205
 31
0.0
  0
LINE
  5
5D93
330
1E
100
AcDbEntity
  8
1
  6
Continuous
 62
     3
100
AcDbLine
 10
305.199925725845
 20
-45.50038374979793
 30
0.0
 11
304.1999257258449
 21
-45.50038374979793
 31
0.0
  0
LINE
  5
5D94
330
1E
100
AcDbEntity
  8
1
  6
Continuous
 62
     3
100
AcDbLine
 10
307.2999257258446
 20
-37.25594374979792
 30
0.0
 11
306.1999257258447
 21
-37.15970624979796
 31
0.0
  0
LINE
  5
5D95
330
1E
100
AcDbEntity
  8
1
  6
Continuous
 62
     3
100
AcDbLine
 10
305.7999257258448
 20
-41.75038374979793
 30
0.0
 11
305.099925725845
 21
-41.75038374979793
 31
0.0
  0
LINE
  5
5D96
330
1E
100
AcDbEntity
  8
1
  6
Continuous
 62
     3
100
AcDbLine
 10
307.2999257258446
 20
-32.80038374979793
 30
0.0
 11
307.2999257258446
 21
-41.20038374979793
 31
0.0
  0
LINE
  5
5D97
330
1E
100
AcDbEntity
  8
1
  6
Continuous
 62
     3
100
AcDbLine
 10
306.1999257258447
 20
-41.3503837497979
 30
0.0
 11
306.1999257258447
 21
-32.65038374979795
 31
0.0
  0
ARC
  5
5D98
330
1E
100
AcDbEntity
  8
1
  6
Continuous
 62
     3
100
AcDbCircle
 10
309.5499257258448
 20
-33.60038374979794
 30
0.0
 40
1.0
100
AcDbArc
 50
0.0
 51
90.0
  0
ARC
  5
5D99
330
1E
100
AcDbEntity
  8
1
  6
Continuous
 62
     3
100
AcDbCircle
 10
307.2999257258446
 20
47.19961625020203
 30
0.0
 40
0.2
100
AcDbArc
 50
0.0
 51
90.0
  0
ARC
  5
5D9A
330
1E
100
AcDbEntity
  8
1
  6
Continuous
 62
     3
100
AcDbCircle
 10
255.3999257258448
 20
-18.00038374979792
 30
0.0
 40
2.0
100
AcDbArc
 50
180.0
 51
270.0
  0
ARC
  5
5D9B
330
1E
100
AcDbEntity
  8
1
  6
Continuous
 62
     3
100
AcDbCircle
 10
307.2999257258446
 20
38.79961625020208
 30
0.0
 40
0.2
100
AcDbArc
 50
270.0
 51
0.0
  0
ARC
  5
5D9C
330
1E
100
AcDbEntity
  8
1
  6
Continuous
 62
     3
100
AcDbCircle
 10
307.0999257258448
 20
-32.80038374979793
 30
0.0
 40
0.2
100
AcDbArc
 50
0.0
 51
90.0
  0
ARC
  5
5D9D
330
1E
100
AcDbEntity
  8
1
  6
Continuous
 62
     3
100
AcDbCircle
 10
255.3999257258448
 20
17.99961625020209
 30
0.0
 40
2.0
100
AcDbArc
 50
90.0
 51
180.0
  0
ARC
  5
5D9E
330
1E
100
AcDbEntity
  8
1
  6
Continuous
 62
     3
100
AcDbCircle
 10
305.9999257258446
 20
47.34961625020203
 30
0.0
 40
0.4
100
AcDbArc
 50
0.0
 51
90.0
  0
ARC
  5
5D9F
330
1E
100
AcDbEntity
  8
1
  6
Continuous
 62
     3
100
AcDbCircle
 10
288.3999257258448
 20
-18.00038374979792
 30
0.0
 40
2.0
100
AcDbArc
 50
270.0
 51
0.0
  0
ARC
  5
5DA0
330
1E
100
AcDbEntity
  8
1
  6
Continuous
 62
     3
100
AcDbCircle
 10
305.9999257258446
 20
38.64961625020207
 30
0.0
 40
0.4
100
AcDbArc
 50
270.0
 51
0.0
  0
ARC
  5
5DA1
330
1E
100
AcDbEntity
  8
1
  6
Continuous
 62
     3
100
AcDbCircle
 10
309.7499257258446
 20
46.39961625020204
 30
0.0
 40
1.0
100
AcDbArc
 50
0.0
 51
90.0
  0
ARC
  5
5DA2
330
1E
100
AcDbEntity
  8
1
  6
Continuous
 62
     3
100
AcDbCircle
 10
307.0999257258448
 20
-41.20038374979793
 30
0.0
 40
0.2
100
AcDbArc
 50
270.0
 51
0.0
  0
ARC
  5
5DA3
330
1E
100
AcDbEntity
  8
1
  6
Continuous
 62
     3
100
AcDbCircle
 10
309.5499257258448
 20
-40.40038374979793
 30
0.0
 40
1.0
100
AcDbArc
 50
270.0
 51
0.0
  0
ARC
  5
5DA4
330
1E
100
AcDbEntity
  8
1
  6
Continuous
 62
     3
100
AcDbCircle
 10
309.7499257258446
 20
39.59961625020206
 30
0.0
 40
1.0
100
AcDbArc
 50
270.0
 51
0.0
  0
ARC
  5
5DA5
330
1E
100
AcDbEntity
  8
1
  6
Continuous
 62
     3
100
AcDbCircle
 10
305.7999257258448
 20
-41.3503837497979
 30
0.0
 40
0.4
100
AcDbArc
 50
270.0
 51
0.0
  0
ARC
  5
5DA6
330
1E
100
AcDbEntity
  8
1
  6
Continuous
 62
     3
100
AcDbCircle
 10
288.3999257258448
 20
17.99961625020209
 30
0.0
 40
2.0
100
AcDbArc
 50
0.0
 51
90.0
  0
ARC
  5
5DA7
330
1E
100
AcDbEntity
  8
1
  6
Continuous
 62
     3
100
AcDbCircle
 10
305.7999257258448
 20
-32.65038374979795
 30
0.0
 40
0.4
100
AcDbArc
 50
0.0
 51
90.0
  0
LINE
  5
5DA8
330
1E
100
AcDbEntity
  8
10
  6
CONTINOUS
100
AcDbLine
 10
299.9996533872792
 20
-77.49961625020187
 30
0.0
 11
299.9996533872792
 21
-50.00038374979793
 31
0.0
  0
LINE
  5
5DA9
330
1E
100
AcDbEntity
  8
10
  6
CONTINOUS
100
AcDbLine
 10
299.9996533872792
 20
77.49961625020205
 30
0.0
 11
299.9996533872792
 21
49.99961625020205
 31
0.0
  0
LINE
  5
5F14
330
1E
100
AcDbEntity
  8
18
100
AcDbLine
 10
-80.38374009536184
 20
162.5113751724502
 30
0.0
 11
-85.44374009536189
 21
162.5113751724502
 31
0.0
  0
LINE
  5
5F15
330
1E
100
AcDbEntity
  8
18
100
AcDbLine
 10
83.56025990463868
 20
162.5113751724503
 30
0.0
 11
78.50025990463852
 21
162.5113751724503
 31
0.0
  0
LINE
  5
5F16
330
1E
100
AcDbEntity
  8
18
100
AcDbLine
 10
83.56025990463868
 20
162.5113751724503
 30
0.0
 11
78.50025990463852
 21
166.55937517245
 31
0.0
  0
LINE
  5
5F17
330
1E
100
AcDbEntity
  8
18
100
AcDbLine
 10
78.50025990463895
 20
166.55937517245
 30
0.0
 11
-90.50374009536186
 21
166.55937517245
 31
0.0
  0
LINE
  5
5F18
330
1E
100
AcDbEntity
  8
18
100
AcDbLine
 10
-85.44374009536189
 20
162.5113751724502
 30
0.0
 11
-90.50374009536186
 21
166.55937517245
 31
0.0
  0
LINE
  5
5F19
330
1E
100
AcDbEntity
  8
10
  6
CONTINOUS
100
AcDbLine
 10
42.00025990463852
 20
145.3313751724502
 30
0.0
 11
42.00025990463852
 21
147.3313751724503
 31
0.0
  0
LINE
  5
5F1A
330
1E
100
AcDbEntity
  8
10
  6
CONTINOUS
100
AcDbLine
 10
-10.99974009536146
 20
141.3313751724503
 30
0.0
 11
-10.99974009536146
 21
145.3313751724502
 31
0.0
  0
LINE
  5
5F1B
330
1E
100
AcDbEntity
  8
1
  6
Continuous
 62
     3
100
AcDbLine
 10
-22.87474009536145
 20
219.9313751724504
 30
0.0
 11
-7.12474009536146
 21
219.9313751724504
 31
0.0
  0
LINE
  5
5F1C
330
1E
100
AcDbEntity
  8
1
  6
Continuous
 62
     3
100
AcDbLine
 10
-60.09974009536136
 20
221.5313751724504
 30
0.0
 11
-60.09974009536136
 21
162.3313751724503
 31
0.0
  0
LINE
  5
5F1D
330
1E
100
AcDbEntity
  8
1
  6
Continuous
 62
     3
100
AcDbLine
 10
37.50025990463854
 20
222.5313751724503
 30
0.0
 11
37.50025990463854
 21
219.9313751724504
 31
0.0
  0
LINE
  5
5F1E
330
1E
100
AcDbEntity
  8
1
  6
Continuous
 62
     3
100
AcDbLine
 10
-55.99974009536146
 20
219.9313751724504
 30
0.0
 11
-55.99974009536146
 21
217.3313751724503
 31
0.0
  0
LINE
  5
5F1F
330
1E
100
AcDbEntity
  8
10
  6
CONTINOUS
100
AcDbLine
 10
7.000259904638539
 20
141.3313751724503
 30
0.0
 11
7.000259904638539
 21
129.3361226724502
 31
0.0
  0
LINE
  5
5F20
330
1E
100
AcDbEntity
  8
10
  6
CONTINOUS
100
AcDbLine
 10
-44.99974009536146
 20
162.3313751724503
 30
0.0
 11
-44.99974009536146
 21
217.3313751724503
 31
0.0
  0
LINE
  5
5F21
330
1E
100
AcDbEntity
  8
21
  6
Continuous
100
AcDbLine
 10
-27.49974009536146
 20
269.3313751724503
 30
0.0
 11
-32.49974009536147
 21
269.3313751724503
 31
0.0
  0
LINE
  5
5F22
330
1E
100
AcDbEntity
  8
1
  6
Continuous
 62
     3
100
AcDbLine
 10
53.40025990463864
 20
226.9813751724503
 30
0.0
 11
46.6002599046389
 21
226.9813751724503
 31
0.0
  0
LINE
  5
5F23
330
1E
100
AcDbEntity
  8
1
  6
Continuous
 62
     3
100
AcDbLine
 10
-52.12406509536169
 20
215.7313751724503
 30
0.0
 11
-52.412740095361
 21
216.2313751724503
 31
0.0
  0
LINE
  5
5F24
330
1E
100
AcDbEntity
  8
10
  6
CONTINOUS
100
AcDbLine
 10
-78.49974009536143
 20
147.3313751724503
 30
0.0
 11
-78.49974009536143
 21
162.3313751724503
 31
0.0
  0
LINE
  5
5F25
330
1E
100
AcDbEntity
  8
1
  6
Continuous
 62
     3
100
AcDbLine
 10
-60.09974009536136
 20
221.5313751724504
 30
0.0
 11
-43.49974009536146
 21
221.5313751724504
 31
0.0
  0
LINE
  5
5F26
330
1E
100
AcDbEntity
  8
1
  6
Continuous
 62
     3
100
AcDbLine
 10
12.50025990463854
 20
222.5313751724503
 30
0.0
 11
22.87525990463855
 21
222.5313751724503
 31
0.0
  0
LINE
  5
5F27
330
1E
100
AcDbEntity
  8
21
  6
Continuous
100
AcDbLine
 10
22.87525990463855
 20
217.3313751724503
 30
0.0
 11
22.87525990463855
 21
233.8313751724503
 31
0.0
  0
LINE
  5
5F28
330
1E
100
AcDbEntity
  8
1
  6
Continuous
 62
     3
100
AcDbLine
 10
49.74469990463846
 20
223.7313751724503
 30
0.0
 11
49.84093740463839
 21
222.6313751724503
 31
0.0
  0
LINE
  5
5F29
330
1E
100
AcDbEntity
  8
10
  6
CONTINOUS
100
AcDbLine
 10
7.000259904638539
 20
129.3361226724502
 30
0.0
 11
-6.99974009536146
 21
129.3361226724502
 31
0.0
  0
LINE
  5
5F2A
330
1E
100
AcDbEntity
  8
1
  6
Continuous
 62
     3
100
AcDbLine
 10
-45.79974009536164
 20
223.7313751724503
 30
0.0
 11
-54.19974009536128
 21
223.7313751724503
 31
0.0
  0
LINE
  5
5F2B
330
1E
100
AcDbEntity
  8
1
  6
Continuous
 62
     3
100
AcDbLine
 10
58.50025990463855
 20
219.9313751724504
 30
0.0
 11
58.50025990463855
 21
162.3313751724503
 31
0.0
  0
LINE
  5
5F2C
330
1E
100
AcDbEntity
  8
1
  6
Continuous
 62
     3
100
AcDbLine
 10
-37.49974009536147
 20
222.5313751724503
 30
0.0
 11
-37.49974009536147
 21
219.9313751724504
 31
0.0
  0
LINE
  5
5F2D
330
1E
100
AcDbEntity
  8
1
  6
Continuous
 62
     3
100
AcDbLine
 10
43.50025990463851
 20
221.5313751724504
 30
0.0
 11
60.10025990463844
 21
221.5313751724504
 31
0.0
  0
LINE
  5
5F2E
330
1E
100
AcDbEntity
  8
1
  6
Continuous
 62
     3
100
AcDbLine
 10
-58.49974009536146
 20
219.9313751724504
 30
0.0
 11
-37.12474009536147
 21
219.9313751724504
 31
0.0
  0
LINE
  5
5F2F
330
1E
100
AcDbEntity
  8
1
  6
Continuous
 62
     3
100
AcDbLine
 10
7.125259904638539
 20
219.9313751724504
 30
0.0
 11
22.87525990463855
 21
219.9313751724504
 31
0.0
  0
LINE
  5
5F30
330
1E
100
AcDbEntity
  8
1
  6
Continuous
 62
     3
100
AcDbLine
 10
-45.59974009536182
 20
225.9813751724504
 30
0.0
 11
-45.59974009536182
 21
223.7313751724503
 31
0.0
  0
LINE
  5
5F31
330
1E
100
AcDbEntity
  8
1
  6
Continuous
 62
     3
100
AcDbLine
 10
-45.59974009536182
 20
223.7313751724503
 30
0.0
 11
-54.39974009536154
 21
223.7313751724503
 31
0.0
  0
LINE
  5
5F32
330
1E
100
AcDbEntity
  8
1
  6
Continuous
 62
     3
100
AcDbLine
 10
54.40025990463818
 20
223.7313751724503
 30
0.0
 11
45.60025990463843
 21
223.7313751724503
 31
0.0
  0
LINE
  5
5F33
330
1E
100
AcDbEntity
  8
1
  6
Continuous
 62
     3
100
AcDbLine
 10
54.40025990463818
 20
223.5313751724504
 30
0.0
 11
54.40025990463818
 21
222.6313751724503
 31
0.0
  0
LINE
  5
5F34
330
1E
100
AcDbEntity
  8
1
  6
Continuous
 62
     3
100
AcDbLine
 10
52.1245849046383
 20
215.7313751724503
 30
0.0
 11
47.8759349046383
 21
215.7313751724503
 31
0.0
  0
LINE
  5
5F35
330
1E
100
AcDbEntity
  8
10
  6
CONTINOUS
100
AcDbLine
 10
78.50025990463855
 20
147.3313751724503
 30
0.0
 11
-78.49974009536143
 21
147.3313751724503
 31
0.0
  0
LINE
  5
5F36
330
1E
100
AcDbEntity
  8
21
  6
Continuous
100
AcDbLine
 10
2.500259904638538
 20
319.3313751724503
 30
0.0
 11
-2.499740095361459
 21
319.3313751724503
 31
0.0
  0
LINE
  5
5F37
330
1E
100
AcDbEntity
  8
21
  6
Continuous
100
AcDbLine
 10
-37.12474009536147
 20
217.3313751724503
 30
0.0
 11
-37.12474009536147
 21
233.8313751724503
 31
0.0
  0
LINE
  5
5F38
330
1E
100
AcDbEntity
  8
21
  6
Continuous
100
AcDbLine
 10
37.12525990463854
 20
233.8313751724503
 30
0.0
 11
22.87525990463855
 21
233.8313751724503
 31
0.0
  0
LINE
  5
5F39
330
1E
100
AcDbEntity
  8
1
  6
Continuous
 62
     3
100
AcDbLine
 10
-50.25530009536151
 20
223.7313751724503
 30
0.0
 11
-50.1590625953616
 21
222.6313751724503
 31
0.0
  0
LINE
  5
5F3A
330
1E
100
AcDbEntity
  8
1
  6
Continuous
 62
     3
100
AcDbLine
 10
-46.59974009536135
 20
226.9813751724503
 30
0.0
 11
-53.3997400953611
 21
226.9813751724503
 31
0.0
  0
LINE
  5
5F3B
330
1E
100
AcDbEntity
  8
1
  6
Continuous
 62
     3
100
AcDbLine
 10
45.25025990463854
 20
222.2313751724504
 30
0.0
 11
45.25025990463854
 21
221.5313751724504
 31
0.0
  0
LINE
  5
5F3C
330
1E
100
AcDbEntity
  8
1
  6
Continuous
 62
     3
100
AcDbLine
 10
-52.412740095361
 20
216.2313751724503
 30
0.0
 11
-52.412740095361
 21
217.3313751724503
 31
0.0
  0
LINE
  5
5F3D
330
1E
100
AcDbEntity
  8
1
  6
Continuous
 62
     3
100
AcDbLine
 10
47.8759349046383
 20
215.7313751724503
 30
0.0
 11
47.587259904639
 21
216.2313751724503
 31
0.0
  0
LINE
  5
5F3E
330
1E
100
AcDbEntity
  8
10
  6
CONTINOUS
100
AcDbLine
 10
78.50025990463855
 20
162.3313751724503
 30
0.0
 11
-78.49974009536143
 21
162.3313751724503
 31
0.0
  0
LINE
  5
5F3F
330
1E
100
AcDbEntity
  8
21
  6
Continuous
100
AcDbLine
 10
7.125259904638539
 20
283.8313751724503
 30
0.0
 11
-7.12474009536146
 21
283.8313751724503
 31
0.0
  0
LINE
  5
5F40
330
1E
100
AcDbEntity
  8
21
  6
Continuous
100
AcDbLine
 10
-27.49974009536146
 20
239.3313751724501
 30
0.0
 11
-32.49974009536147
 21
239.3313751724501
 31
0.0
  0
LINE
  5
5F41
330
1E
100
AcDbEntity
  8
21
  6
Continuous
100
AcDbLine
 10
27.50025990463856
 20
233.8313751724503
 30
0.0
 11
27.50025990463856
 21
269.3313751724503
 31
0.0
  0
LINE
  5
5F42
330
1E
100
AcDbEntity
  8
21
  6
Continuous
100
AcDbLine
 10
2.500259904638538
 20
289.3313751724504
 30
0.0
 11
-2.499740095361459
 21
289.3313751724504
 31
0.0
  0
LINE
  5
5F43
330
1E
100
AcDbEntity
  8
10
  6
CONTINOUS
100
AcDbLine
 10
11.00025990463854
 20
141.3313751724503
 30
0.0
 11
-10.99974009536146
 21
141.3313751724503
 31
0.0
  0
LINE
  5
5F44
330
1E
100
AcDbEntity
  8
1
  6
Continuous
 62
     3
100
AcDbLine
 10
-37.49974009536147
 20
222.5313751724503
 30
0.0
 11
-37.12474009536147
 21
222.5313751724503
 31
0.0
  0
LINE
  5
5F45
330
1E
100
AcDbEntity
  8
1
  6
Continuous
 62
     3
100
AcDbLine
 10
43.50025990463851
 20
221.5313751724504
 30
0.0
 11
43.50025990463851
 21
219.9313751724504
 31
0.0
  0
LINE
  5
5F46
330
1E
100
AcDbEntity
  8
1
  6
Continuous
 62
     3
100
AcDbLine
 10
-22.87474009536145
 20
222.5313751724503
 30
0.0
 11
-12.49974009536146
 21
222.5313751724503
 31
0.0
  0
LINE
  5
5F47
330
1E
100
AcDbEntity
  8
1
  6
Continuous
 62
     3
100
AcDbLine
 10
-45.24974009536146
 20
222.2313751724504
 30
0.0
 11
-45.24974009536146
 21
221.5313751724504
 31
0.0
  0
LINE
  5
5F48
330
1E
100
AcDbEntity
  8
1
  6
Continuous
 62
     3
100
AcDbLine
 10
-54.39974009536154
 20
223.5313751724504
 30
0.0
 11
-54.39974009536154
 21
222.6313751724503
 31
0.0
  0
LINE
  5
5F49
330
1E
100
AcDbEntity
  8
1
  6
Continuous
 62
     3
100
AcDbLine
 10
45.65025990463817
 20
222.6313751724503
 30
0.0
 11
54.35025990463843
 21
222.6313751724503
 31
0.0
  0
LINE
  5
5F4A
330
1E
100
AcDbEntity
  8
1
  6
Continuous
 62
     3
100
AcDbLine
 10
54.40025990463818
 20
225.9813751724504
 30
0.0
 11
54.40025990463818
 21
223.7313751724503
 31
0.0
  0
LINE
  5
5F4B
330
1E
100
AcDbEntity
  8
1
  6
Continuous
 62
     3
100
AcDbLine
 10
47.587259904639
 20
216.2313751724503
 30
0.0
 11
47.587259904639
 21
217.3313751724503
 31
0.0
  0
LINE
  5
5F4C
330
1E
100
AcDbEntity
  8
10
  6
CONTINOUS
100
AcDbLine
 10
78.50025990463855
 20
147.3313751724503
 30
0.0
 11
78.50025990463855
 21
162.3313751724503
 31
0.0
  0
LINE
  5
5F4D
330
1E
100
AcDbEntity
  8
21
  6
Continuous
100
AcDbLine
 10
7.125259904638539
 20
217.3313751724503
 30
0.0
 11
7.125259904638539
 21
283.8313751724503
 31
0.0
  0
LINE
  5
5F4E
330
1E
100
AcDbEntity
  8
21
  6
Continuous
100
AcDbLine
 10
-22.87474009536145
 20
217.3313751724503
 30
0.0
 11
-22.87474009536145
 21
233.8313751724503
 31
0.0
  0
LINE
  5
5F4F
330
1E
100
AcDbEntity
  8
21
  6
Continuous
100
AcDbLine
 10
32.50025990463856
 20
233.8313751724503
 30
0.0
 11
32.50025990463856
 21
269.3313751724503
 31
0.0
  0
LINE
  5
5F50
330
1E
100
AcDbEntity
  8
21
  6
Continuous
100
AcDbLine
 10
-2.499740095361459
 20
283.8313751724503
 30
0.0
 11
-2.499740095361459
 21
319.3313751724503
 31
0.0
  0
LINE
  5
5F51
330
1E
100
AcDbEntity
  8
10
  6
CONTINOUS
100
AcDbLine
 10
42.00025990463852
 20
145.3313751724502
 30
0.0
 11
-41.99974009536146
 21
145.3313751724502
 31
0.0
  0
LINE
  5
5F52
330
1E
100
AcDbEntity
  8
1
  6
Continuous
 62
     3
100
AcDbLine
 10
-12.49974009536146
 20
222.5313751724503
 30
0.0
 11
-12.49974009536146
 21
219.9313751724504
 31
0.0
  0
LINE
  5
5F53
330
1E
100
AcDbEntity
  8
1
  6
Continuous
 62
     3
100
AcDbLine
 10
60.10025990463844
 20
221.5313751724504
 30
0.0
 11
60.10025990463844
 21
162.3313751724503
 31
0.0
  0
LINE
  5
5F54
330
1E
100
AcDbEntity
  8
1
  6
Continuous
 62
     3
100
AcDbLine
 10
-43.49974009536146
 20
221.5313751724504
 30
0.0
 11
-43.49974009536146
 21
219.9313751724504
 31
0.0
  0
LINE
  5
5F55
330
1E
100
AcDbEntity
  8
1
  6
Continuous
 62
     3
100
AcDbLine
 10
-45.59974009536182
 20
223.5313751724504
 30
0.0
 11
-45.59974009536182
 21
222.6313751724503
 31
0.0
  0
LINE
  5
5F56
330
1E
100
AcDbEntity
  8
1
  6
Continuous
 62
     3
100
AcDbLine
 10
45.60025990463843
 20
225.9813751724504
 30
0.0
 11
45.60025990463843
 21
223.7313751724503
 31
0.0
  0
LINE
  5
5F57
330
1E
100
AcDbEntity
  8
1
  6
Continuous
 62
     3
100
AcDbLine
 10
50.64208490463871
 20
222.6313751724503
 30
0.0
 11
50.54584740463834
 21
223.7313751724503
 31
0.0
  0
LINE
  5
5F58
330
1E
100
AcDbEntity
  8
1
  6
Continuous
 62
     3
100
AcDbLine
 10
-47.58674009536143
 20
216.2313751724503
 30
0.0
 11
-47.58674009536143
 21
217.3313751724503
 31
0.0
  0
LINE
  5
5F59
330
1E
100
AcDbEntity
  8
21
  6
Continuous
100
AcDbLine
 10
-22.87474009536145
 20
233.8313751724503
 30
0.0
 11
-37.12474009536147
 21
233.8313751724503
 31
0.0
  0
LINE
  5
5F5A
330
1E
100
AcDbEntity
  8
21
  6
Continuous
100
AcDbLine
 10
37.12525990463854
 20
217.3313751724503
 30
0.0
 11
37.12525990463854
 21
233.8313751724503
 31
0.0
  0
LINE
  5
5F5B
330
1E
100
AcDbEntity
  8
10
  6
CONTINOUS
100
AcDbLine
 10
11.00025990463854
 20
141.3313751724503
 30
0.0
 11
11.00025990463854
 21
145.3313751724502
 31
0.0
  0
LINE
  5
5F5C
330
1E
100
AcDbEntity
  8
10
  6
CONTINOUS
100
AcDbLine
 10
-41.99974009536146
 20
145.3313751724502
 30
0.0
 11
-41.99974009536146
 21
147.3313751724503
 31
0.0
  0
LINE
  5
5F5D
330
1E
100
AcDbEntity
  8
1
  6
Continuous
 62
     3
100
AcDbLine
 10
12.50025990463854
 20
222.5313751724503
 30
0.0
 11
12.50025990463854
 21
219.9313751724504
 31
0.0
  0
LINE
  5
5F5E
330
1E
100
AcDbEntity
  8
1
  6
Continuous
 62
     3
100
AcDbLine
 10
56.00025990463855
 20
219.9313751724504
 30
0.0
 11
56.00025990463855
 21
217.3313751724503
 31
0.0
  0
LINE
  5
5F5F
330
1E
100
AcDbEntity
  8
1
  6
Continuous
 62
     3
100
AcDbLine
 10
-58.49974009536146
 20
219.9313751724504
 30
0.0
 11
-58.49974009536146
 21
162.3313751724503
 31
0.0
  0
LINE
  5
5F60
330
1E
100
AcDbEntity
  8
1
  6
Continuous
 62
     3
100
AcDbLine
 10
37.12525990463854
 20
219.9313751724504
 30
0.0
 11
56.00025990463855
 21
219.9313751724504
 31
0.0
  0
LINE
  5
5F61
330
1E
100
AcDbEntity
  8
1
  6
Continuous
 62
     3
100
AcDbLine
 10
-54.34974009536182
 20
222.6313751724503
 30
0.0
 11
-45.64974009536153
 21
222.6313751724503
 31
0.0
  0
LINE
  5
5F62
330
1E
100
AcDbEntity
  8
1
  6
Continuous
 62
     3
100
AcDbLine
 10
-54.74974009536146
 20
222.2313751724504
 30
0.0
 11
-54.74974009536146
 21
221.5313751724504
 31
0.0
  0
LINE
  5
5F63
330
1E
100
AcDbEntity
  8
1
  6
Continuous
 62
     3
100
AcDbLine
 10
45.60025990463843
 20
223.5313751724504
 30
0.0
 11
45.60025990463843
 21
222.6313751724503
 31
0.0
  0
LINE
  5
5F64
330
1E
100
AcDbEntity
  8
1
  6
Continuous
 62
     3
100
AcDbLine
 10
-47.58674009536143
 20
216.2313751724503
 30
0.0
 11
-47.87541509536167
 21
215.7313751724503
 31
0.0
  0
LINE
  5
5F65
330
1E
100
AcDbEntity
  8
1
  6
Continuous
 62
     3
100
AcDbLine
 10
52.41325990463856
 20
216.2313751724503
 30
0.0
 11
52.41325990463856
 21
217.3313751724503
 31
0.0
  0
LINE
  5
5F66
330
1E
100
AcDbEntity
  8
21
  6
Continuous
100
AcDbLine
 10
2.500259904638538
 20
319.3313751724503
 30
0.0
 11
-2.499740095361459
 21
319.3313751724503
 31
0.0
  0
LINE
  5
5F67
330
1E
100
AcDbEntity
  8
21
  6
Continuous
100
AcDbLine
 10
-32.49974009536147
 20
233.8313751724503
 30
0.0
 11
-32.49974009536147
 21
269.3313751724503
 31
0.0
  0
LINE
  5
5F68
330
1E
100
AcDbEntity
  8
21
  6
Continuous
100
AcDbLine
 10
32.50025990463856
 20
269.3313751724503
 30
0.0
 11
27.50025990463856
 21
269.3313751724503
 31
0.0
  0
LINE
  5
5F69
330
1E
100
AcDbEntity
  8
10
  6
CONTINOUS
100
AcDbLine
 10
45.00025990463853
 20
217.3313751724503
 30
0.0
 11
45.00025990463853
 21
162.3313751724503
 31
0.0
  0
LINE
  5
5F6A
330
1E
100
AcDbEntity
  8
10
  6
CONTINOUS
100
AcDbLine
 10
-6.99974009536146
 20
141.3313751724503
 30
0.0
 11
-6.99974009536146
 21
129.3361226724502
 31
0.0
  0
LINE
  5
5F6B
330
1E
100
AcDbEntity
  8
1
  6
Continuous
 62
     3
100
AcDbLine
 10
56.00025990463855
 20
217.3313751724503
 30
0.0
 11
-55.99974009536146
 21
217.3313751724503
 31
0.0
  0
LINE
  5
5F6C
330
1E
100
AcDbEntity
  8
1
  6
Continuous
 62
     3
100
AcDbLine
 10
58.50025990463855
 20
219.9313751724504
 30
0.0
 11
56.00025990463855
 21
219.9313751724504
 31
0.0
  0
LINE
  5
5F6D
330
1E
100
AcDbEntity
  8
1
  6
Continuous
 62
     3
100
AcDbLine
 10
37.12525990463854
 20
222.5313751724503
 30
0.0
 11
37.50025990463854
 21
222.5313751724503
 31
0.0
  0
LINE
  5
5F6E
330
1E
100
AcDbEntity
  8
1
  6
Continuous
 62
     3
100
AcDbLine
 10
-54.39974009536154
 20
225.9813751724504
 30
0.0
 11
-54.39974009536154
 21
223.7313751724503
 31
0.0
  0
LINE
  5
5F6F
330
1E
100
AcDbEntity
  8
1
  6
Continuous
 62
     3
100
AcDbLine
 10
-49.3579150953613
 20
222.6313751724503
 30
0.0
 11
-49.45415259536169
 21
223.7313751724503
 31
0.0
  0
LINE
  5
5F70
330
1E
100
AcDbEntity
  8
1
  6
Continuous
 62
     3
100
AcDbLine
 10
54.20025990463835
 20
223.7313751724503
 30
0.0
 11
45.8002599046387
 21
223.7313751724503
 31
0.0
  0
LINE
  5
5F71
330
1E
100
AcDbEntity
  8
1
  6
Continuous
 62
     3
100
AcDbLine
 10
54.75025990463855
 20
222.2313751724504
 30
0.0
 11
54.75025990463855
 21
221.5313751724504
 31
0.0
  0
LINE
  5
5F72
330
1E
100
AcDbEntity
  8
1
  6
Continuous
 62
     3
100
AcDbLine
 10
-47.87541509536167
 20
215.7313751724503
 30
0.0
 11
-52.12406509536169
 21
215.7313751724503
 31
0.0
  0
LINE
  5
5F73
330
1E
100
AcDbEntity
  8
1
  6
Continuous
 62
     3
100
AcDbLine
 10
52.41325990463856
 20
216.2313751724503
 30
0.0
 11
52.1245849046383
 21
215.7313751724503
 31
0.0
  0
LINE
  5
5F74
330
1E
100
AcDbEntity
  8
21
  6
Continuous
100
AcDbLine
 10
-7.12474009536146
 20
217.3313751724503
 30
0.0
 11
-7.12474009536146
 21
283.8313751724503
 31
0.0
  0
LINE
  5
5F75
330
1E
100
AcDbEntity
  8
21
  6
Continuous
100
AcDbLine
 10
-27.49974009536146
 20
233.8313751724503
 30
0.0
 11
-27.49974009536146
 21
269.3313751724503
 31
0.0
  0
LINE
  5
5F76
330
1E
100
AcDbEntity
  8
21
  6
Continuous
100
AcDbLine
 10
32.50025990463856
 20
239.3313751724501
 30
0.0
 11
27.50025990463856
 21
239.3313751724501
 31
0.0
  0
LINE
  5
5F77
330
1E
100
AcDbEntity
  8
21
  6
Continuous
100
AcDbLine
 10
2.500259904638538
 20
283.8313751724503
 30
0.0
 11
2.500259904638538
 21
319.3313751724503
 31
0.0
  0
LINE
  5
5F78
330
1E
100
AcDbEntity
  8
10
  6
CONTINOUS
100
AcDbLine
 10
45.00025990463853
 20
217.3313751724503
 30
0.0
 11
-44.99974009536146
 21
217.3313751724503
 31
0.0
  0
ARC
  5
5F79
330
1E
100
AcDbEntity
  8
1
  6
Continuous
 62
     3
100
AcDbCircle
 10
-54.19974009536128
 20
223.5313751724504
 30
0.0
 40
0.2
100
AcDbArc
 50
90.0
 51
180.0
  0
ARC
  5
5F7A
330
1E
100
AcDbEntity
  8
1
  6
Continuous
 62
     3
100
AcDbCircle
 10
53.40025990463864
 20
225.9813751724504
 30
0.0
 40
1.0
100
AcDbArc
 50
0.0
 51
90.0
  0
ARC
  5
5F7B
330
1E
100
AcDbEntity
  8
1
  6
Continuous
 62
     3
100
AcDbCircle
 10
-53.3997400953611
 20
225.9813751724504
 30
0.0
 40
1.0
100
AcDbArc
 50
90.0
 51
180.0
  0
ARC
  5
5F7C
330
1E
100
AcDbEntity
  8
1
  6
Continuous
 62
     3
100
AcDbCircle
 10
-46.59974009536135
 20
225.9813751724504
 30
0.0
 40
1.0
100
AcDbArc
 50
0.0
 51
90.0
  0
ARC
  5
5F7D
330
1E
100
AcDbEntity
  8
1
  6
Continuous
 62
     3
100
AcDbCircle
 10
54.35025990463843
 20
222.2313751724504
 30
0.0
 40
0.4
100
AcDbArc
 50
0.0
 51
90.0
  0
ARC
  5
5F7E
330
1E
100
AcDbEntity
  8
1
  6
Continuous
 62
     3
100
AcDbCircle
 10
-45.64974009536153
 20
222.2313751724504
 30
0.0
 40
0.4
100
AcDbArc
 50
0.0
 51
90.0
  0
ARC
  5
5F7F
330
1E
100
AcDbEntity
  8
1
  6
Continuous
 62
     3
100
AcDbCircle
 10
45.8002599046387
 20
223.5313751724504
 30
0.0
 40
0.2
100
AcDbArc
 50
90.0
 51
180.0
  0
ARC
  5
5F80
330
1E
100
AcDbEntity
  8
1
  6
Continuous
 62
     3
100
AcDbCircle
 10
46.6002599046389
 20
225.9813751724504
 30
0.0
 40
1.0
100
AcDbArc
 50
90.0
 51
180.0
  0
ARC
  5
5F81
330
1E
100
AcDbEntity
  8
1
  6
Continuous
 62
     3
100
AcDbCircle
 10
-54.34974009536182
 20
222.2313751724504
 30
0.0
 40
0.4
100
AcDbArc
 50
90.0
 51
180.0
  0
ARC
  5
5F82
330
1E
100
AcDbEntity
  8
1
  6
Continuous
 62
     3
100
AcDbCircle
 10
54.20025990463835
 20
223.5313751724504
 30
0.0
 40
0.2
100
AcDbArc
 50
0.0
 51
90.0
  0
ARC
  5
5F83
330
1E
100
AcDbEntity
  8
1
  6
Continuous
 62
     3
100
AcDbCircle
 10
-45.79974009536164
 20
223.5313751724504
 30
0.0
 40
0.2
100
AcDbArc
 50
0.0
 51
90.0
  0
ARC
  5
5F84
330
1E
100
AcDbEntity
  8
1
  6
Continuous
 62
     3
100
AcDbCircle
 10
45.65025990463817
 20
222.2313751724504
 30
0.0
 40
0.4
100
AcDbArc
 50
90.0
 51
180.0
  0
DIMENSION
  5
5F85
330
1E
100
AcDbEntity
  8
21
  6
Continuous
100
AcDbDimension
280
     0
  2
*D54
 10
0.0002599046385431
 20
338.4818676724503
 30
0.0
 11
-14.99974009536145
 21
341.4818676724503
 31
0.0
 70
    32
  1
 <> 
 71
     5
 42
30.0
 73
     0
 74
     0
 75
     0
  3
STANDARD
100
AcDbAlignedDimension
 13
-29.99974009536146
 23
236.3313751724503
 33
0.0
 14
0.0002599046385399
 24
286.3313751724503
 34
0.0
100
AcDbRotatedDimension
1001
ACAD
1000
DSTYLE
1002
{
1070
    79
1070
     3
1002
}
  0
DIMENSION
  5
5F86
330
1E
100
AcDbEntity
  8
21
  6
Continuous
100
AcDbDimension
280
     0
  2
*D55
 10
30.00025990463856
 20
338.4818676724503
 30
0.0
 11
15.00025990463855
 21
341.4818676724503
 31
0.0
 70
    32
  1
 <> 
 71
     5
 42
30.00000000000002
 73
     0
 74
     0
 75
     0
  3
STANDARD
100
AcDbAlignedDimension
 13
0.0002599046385399
 23
326.8313751724503
 33
0.0
 14
30.00025990463856
 24
236.3313751724503
 34
0.0
100
AcDbRotatedDimension
1001
ACAD
1000
DSTYLE
1002
{
1070
    79
1070
     3
1002
}
  0
LINE
  5
5F87
330
1E
100
AcDbEntity
  8
16
100
AcDbLine
 10
0.0002599046382841
 20
123.3138729996611
 30
0.0
 11
0.0002599046382841
 21
373.3138729996611
 31
0.0
  0
VIEWPORT
  5
9AC
330
1A
100
AcDbEntity
 67
     1
  8
0
  6
Continuous
100
AcDbViewport
 10
171.999535
 20
144.1384739999999
 30
0.0
 40
488.867686
 41
292.351491
 68
    -1
 69
     1
 12
171.999535
 22
144.1384739999999
 13
0.0
 23
0.0
 14
10.0
 24
10.0
 15
10.0
 25
10.0
 16
0.0
 26
0.0
 36
1.0
 17
0.0
 27
0.0
 37
0.0
 42
50.0
 43
0.0
 44
0.0
 45
292.351491
 50
0.0
 51
0.0
 72
   100
 90
    32800
  1

281
     0
 71
     1
 74
     0
110
0.0
120
0.0
130
0.0
111
1.0
121
0.0
131
0.0
112
0.0
122
1.0
132
0.0
 79
     0
146
0.0
170
     0
 61
     5
348
5ACF
292
     1
282
     1
141
0.0
142
0.0
 63
   250
421
  3355443
  0
ENDSEC
  0
SECTION
  2
OBJECTS
  0
DICTIONARY
  5
C
330
0
100
AcDbDictionary
281
     1
  3
ACAD_CIP_PREVIOUS_PRODUCT_INFO
350
5AFF
  3
ACAD_COLOR
350
5AE2
  3
ACAD_DETAILVIEWSTYLE
350
5AFB
  3
ACAD_GROUP
350
D
  3
ACAD_LAYOUT
350
19
  3
ACAD_MATERIAL
350
5AB0
  3
ACAD_MLEADERSTYLE
350
5AF7
  3
ACAD_MLINESTYLE
350
16
  3
ACAD_PLOTSETTINGS
350
18
  3
ACAD_PLOTSTYLENAME
350
E
  3
ACAD_SCALELIST
350
5AE5
  3
ACAD_SECTIONVIEWSTYLE
350
5AF9
  3
ACAD_TABLESTYLE
350
5AE3
  3
ACAD_VISUALSTYLE
350
5AC9
  3
ACDB_RECOMPOSE_DATA
350
6029
  3
ACDBVARIABLEDICTIONARY
350
5697
  3
AEC_PROPERTY_SET_DEFS
350
5C16
  0
DICTIONARY
  5
5FB2
330
10
100
AcDbDictionary
280
     1
281
     1
  3
ADSK_XREC_LAYER_RECONCILED
360
5FB3
  0
DICTIONARY
  5
5FB4
330
2F
100
AcDbDictionary
280
     1
281
     1
  3
ADSK_XREC_LAYER_RECONCILED
360
5FB5
  0
DICTIONARY
  5
5FB6
330
31
100
AcDbDictionary
280
     1
281
     1
  3
ADSK_XREC_LAYER_RECONCILED
360
5FB7
  0
DICTIONARY
  5
5FB8
330
35
100
AcDbDictionary
280
     1
281
     1
  3
ADSK_XREC_LAYER_RECONCILED
360
5FB9
  0
DICTIONARY
  5
5FBA
330
38
100
AcDbDictionary
280
     1
281
     1
  3
ADSK_XREC_LAYER_RECONCILED
360
5FBB
  0
DICTIONARY
  5
5FBC
330
3C
100
AcDbDictionary
280
     1
281
     1
  3
ADSK_XREC_LAYER_RECONCILED
360
5FBD
  0
DICTIONARY
  5
5FBE
330
3D
100
AcDbDictionary
280
     1
281
     1
  3
ADSK_XREC_LAYER_RECONCILED
360
5FBF
  0
DICTIONARY
  5
5FC0
330
3A2
100
AcDbDictionary
280
     1
281
     1
  3
ADSK_XREC_LAYER_RECONCILED
360
5FC1
  0
DICTIONARY
  5
5FC2
330
3BBA
100
AcDbDictionary
280
     1
281
     1
  3
ADSK_XREC_LAYER_RECONCILED
360
5FC3
  0
DICTIONARY
  5
5FC4
330
3BBB
100
AcDbDictionary
280
     1
281
     1
  3
ADSK_XREC_LAYER_RECONCILED
360
5FC5
  0
DICTIONARY
  5
5FC6
330
5116
100
AcDbDictionary
280
     1
281
     1
  3
ADSK_XREC_LAYER_RECONCILED
360
5FC7
  0
DICTIONARY
  5
5FC8
330
5117
100
AcDbDictionary
280
     1
281
     1
  3
ADSK_XREC_LAYER_RECONCILED
360
5FC9
  0
DICTIONARY
  5
178
330
1E
100
AcDbDictionary
280
     1
281
     1
  3
ACAD_LAYOUTSELFREF
360
5A0C
  0
DICTIONARY
  5
17A
330
1A
100
AcDbDictionary
280
     1
281
     1
  3
ACAD_LAYOUTSELFREF
360
5A0B
  0
DICTIONARY
  5
5C13
330
5B8C
100
AcDbDictionary
280
     1
281
     1
  0
DICTIONARY
  5
5FD8
330
570E
100
AcDbDictionary
280
     1
281
     1
  0
XRECORD
  5
5AFF
102
{ACAD_REACTORS
330
C
102
}
330
C
100
AcDbXrecord
280
     1
300
ACDLT
300
2014
300
ACDLT_F_S
  0
DICTIONARY
  5
5AE2
102
{ACAD_REACTORS
330
C
102
}
330
C
100
AcDbDictionary
281
     1
  0
DICTIONARY
  5
5AFB
102
{ACAD_REACTORS
330
C
102
}
330
C
100
AcDbDictionary
281
     1
  3
Imperial24
350
5AFC
  0
DICTIONARY
  5
D
102
{ACAD_REACTORS
330
C
102
}
330
C
100
AcDbDictionary
281
     1
  0
DICTIONARY
  5
19
102
{ACAD_REACTORS
330
C
102
}
330
C
100
AcDbDictionary
281
     1
  3
Model
350
5A14
  3
ﾚｲｱｳﾄ1
350
5A15
  0
DICTIONARY
  5
5AB0
102
{ACAD_REACTORS
330
C
102
}
330
C
100
AcDbDictionary
281
     1
  3
ByBlock
350
5AB9
  3
ByLayer
350
5AB1
  3
Global
350
5AC1
  0
DICTIONARY
  5
5AF7
102
{ACAD_REACTORS
330
C
102
}
330
C
100
AcDbDictionary
281
     1
  3
Standard
350
5AF8
  0
DICTIONARY
  5
16
102
{ACAD_REACTORS
330
C
102
}
330
C
100
AcDbDictionary
281
     1
  3
STANDARD
350
17
  0
DICTIONARY
  5
18
102
{ACAD_REACTORS
330
C
102
}
330
C
100
AcDbDictionary
281
     1
  0
ACDBDICTIONARYWDFLT
  5
E
102
{ACAD_REACTORS
330
C
102
}
330
C
100
AcDbDictionary
281
     1
  3
Normal
350
F
100
AcDbDictionaryWithDefault
340
F
  0
DICTIONARY
  5
5AE5
102
{ACAD_REACTORS
330
C
102
}
330
C
100
AcDbDictionary
281
     1
  3
A0
350
5AE6
  3
A1
350
5AE7
  3
A2
350
5AE8
  3
A3
350
5AE9
  3
A4
350
5AEA
  3
A5
350
5AEB
  3
A6
350
5AEC
  3
A7
350
5AED
  3
A8
350
5AEE
  3
A9
350
5AEF
  3
B0
350
5AF0
  3
B1
350
5AF1
  3
B2
350
5AF2
  3
B3
350
5AF3
  3
B4
350
5AF4
  3
B5
350
5AF5
  3
B6
350
5AF6
  0
DICTIONARY
  5
5AF9
102
{ACAD_REACTORS
330
C
102
}
330
C
100
AcDbDictionary
281
     1
  3
Imperial24
350
5AFA
  0
DICTIONARY
  5
5AE3
102
{ACAD_REACTORS
330
C
102
}
330
C
100
AcDbDictionary
281
     1
  3
Standard
350
5AE4
  0
DICTIONARY
  5
5AC9
102
{ACAD_REACTORS
330
C
102
}
330
C
100
AcDbDictionary
281
     1
  3
2dWireframe
350
5ACF
  3
Basic
350
5ACE
  3
Brighten
350
5AD5
  3
ColorChange
350
5AD9
  3
Conceptual
350
5AD2
  3
Dim
350
5AD4
  3
EdgeColorOff
350
5AE1
  3
Facepattern
350
5AD8
  3
Flat
350
5ACA
  3
FlatWithEdges
350
5ACB
  3
Gouraud
350
5ACC
  3
GouraudWithEdges
350
5ACD
  3
Hidden
350
5AD1
  3
JitterOff
350
5ADF
  3
Linepattern
350
5AD7
  3
OverhangOff
350
5AE0
  3
Realistic
350
5AD3
  3
Shaded
350
5ADE
  3
Shaded with edges
350
5ADD
  3
Shades of Gray
350
5ADA
  3
Sketchy
350
5ADB
  3
Thicken
350
5AD6
  3
Wireframe
350
5AD0
  3
X-Ray
350
5ADC
  0
XRECORD
  5
6029
102
{ACAD_REACTORS
330
C
102
}
330
C
100
AcDbXrecord
280
     1
 90
        1
330
5AE4
330
5AFA
330
5AFC
  0
DICTIONARY
  5
5697
102
{ACAD_REACTORS
330
C
102
}
330
C
100
AcDbDictionary
281
     1
  3
CANNOSCALE
350
5FCE
  3
CMLEADERSTYLE
350
5FCB
  3
CTABLESTYLE
350
5FCA
  3
CVIEWDETAILSTYLE
350
5FCC
  3
CVIEWSECTIONSTYLE
350
5FCD
  3
DIMASSOC
350
5698
  3
INDEXCTL
350
5FD0
  3
LAYEREVAL
350
6022
  3
LAYERNOTIFY
350
6023
  3
LIGHTINGUNITS
350
6021
  3
MSLTSCALE
350
6020
  3
SORTENTS
350
5FCF
  0
DICTIONARY
  5
5C16
102
{ACAD_REACTORS
330
C
102
}
330
C
100
AcDbDictionary
281
     1
  0
XRECORD
  5
5FB3
102
{ACAD_REACTORS
330
5FB2
102
}
330
5FB2
100
AcDbXrecord
280
     1
290
     1
  0
XRECORD
  5
5FB5
102
{ACAD_REACTORS
330
5FB4
102
}
330
5FB4
100
AcDbXrecord
280
     1
290
     1
  0
XRECORD
  5
5FB7
102
{ACAD_REACTORS
330
5FB6
102
}
330
5FB6
100
AcDbXrecord
280
     1
290
     1
  0
XRECORD
  5
5FB9
102
{ACAD_REACTORS
330
5FB8
102
}
330
5FB8
100
AcDbXrecord
280
     1
290
     1
  0
XRECORD
  5
5FBB
102
{ACAD_REACTORS
330
5FBA
102
}
330
5FBA
100
AcDbXrecord
280
     1
290
     1
  0
XRECORD
  5
5FBD
102
{ACAD_REACTORS
330
5FBC
102
}
330
5FBC
100
AcDbXrecord
280
     1
290
     1
  0
XRECORD
  5
5FBF
102
{ACAD_REACTORS
330
5FBE
102
}
330
5FBE
100
AcDbXrecord
280
     1
290
     1
  0
XRECORD
  5
5FC1
102
{ACAD_REACTORS
330
5FC0
102
}
330
5FC0
100
AcDbXrecord
280
     1
290
     1
  0
XRECORD
  5
5FC3
102
{ACAD_REACTORS
330
5FC2
102
}
330
5FC2
100
AcDbXrecord
280
     1
290
     1
  0
XRECORD
  5
5FC5
102
{ACAD_REACTORS
330
5FC4
102
}
330
5FC4
100
AcDbXrecord
280
     1
290
     1
  0
XRECORD
  5
5FC7
102
{ACAD_REACTORS
330
5FC6
102
}
330
5FC6
100
AcDbXrecord
280
     1
290
     1
  0
XRECORD
  5
5FC9
102
{ACAD_REACTORS
330
5FC8
102
}
330
5FC8
100
AcDbXrecord
280
     1
290
     1
  0
XRECORD
  5
5A0C
102
{ACAD_REACTORS
330
178
102
}
330
178
100
AcDbXrecord
280
     1
340
1E
  0
XRECORD
  5
5A0B
102
{ACAD_REACTORS
330
17A
102
}
330
17A
100
AcDbXrecord
280
     1
340
1A
  0
ACDBDETAILVIEWSTYLE
  5
5AFC
102
{ACAD_XDICTIONARY
360
6027
102
}
102
{ACAD_REACTORS
330
5AFB
102
}
330
5AFB
100
AcDbModelDocViewStyle
 70
     0
  3
Imperial24
290
     0
100
AcDbDetailViewStyle
 70
     0
 71
     0
 90
        3
 71
     1
340
11
 62
   256
 40
0.24
340
0
 62
   256
 40
0.24
300

 40
0.36
280
     3
 71
     2
340
15
 90
       25
 62
   256
 71
     3
340
11
 62
   256
 40
0.24
 90
        1
 40
0.75
 90
        1
300
%<\AcVar ViewType \f "%tc1">% %<\AcVar ViewDetailId>%\PSCALE %<\AcVar ViewScale \f "%sn">%
 71
     4
340
15
 90
       25
 62
   256
340
15
 90
       25
 62
   256
280
     0
  0
LAYOUT
  5
5A14
102
{ACAD_REACTORS
330
19
102
}
330
19
100
AcDbPlotSettings
  1

  2
Canon LBP3800 LIPSLX
  4

  6

 40
0.0
 41
0.0
 42
0.0
 43
0.0
 44
0.0
 45
0.0
 46
0.0
 47
0.0
 48
0.0
 49
0.0
140
0.0
141
0.0
142
1.0
143
1.0
 70
  1712
 72
     0
 73
     0
 74
     0
  7
monochrome.ctb
 75
     0
147
1.0
 76
     0
 77
     2
 78
   300
148
0.0
149
0.0
100
AcDbLayout
  1
Model
 70
     1
 71
     0
 10
0.0
 20
0.0
 11
12.0
 21
9.0
 12
0.0
 22
0.0
 32
0.0
 14
0.0
 24
0.0
 34
0.0
 15
0.0
 25
0.0
 35
0.0
146
0.0
 13
0.0
 23
0.0
 33
0.0
 16
1.0
 26
0.0
 36
0.0
 17
0.0
 27
1.0
 37
0.0
 76
     0
330
1E
331
5A88
  0
LAYOUT
  5
5A15
102
{ACAD_REACTORS
330
19
102
}
330
19
100
AcDbPlotSettings
  1

  2
Canon LBP3800 LIPSLX
  4

  6

 40
0.0
 41
0.0
 42
0.0
 43
0.0
 44
0.0
 45
0.0
 46
0.0
 47
0.0
 48
0.0
 49
0.0
140
0.0
141
0.0
142
1.0
143
1.0
 70
   688
 72
     0
 73
     0
 74
     5
  7
monochrome.ctb
 75
    16
147
1.0
 76
     0
 77
     2
 78
   300
148
0.0
149
0.0
100
AcDbLayout
  1
ﾚｲｱｳﾄ1
 70
     1
 71
     1
 10
-5.873749
 20
-5.87375
 11
204.099579
 21
291.1369009999999
 12
0.0
 22
0.0
 32
0.0
 14
4.273573
 24
5.205245999999998
 34
0.0
 15
194.610095
 25
283.0697009999996
 35
0.0
146
0.0
 13
0.0
 23
0.0
 33
0.0
 16
1.0
 26
0.0
 36
0.0
 17
0.0
 27
1.0
 37
0.0
 76
     0
330
1A
  0
MATERIAL
  5
5AB9
102
{ACAD_XDICTIONARY
360
5ABA
102
}
102
{ACAD_REACTORS
330
5AB0
102
}
330
5AB0
100
AcDbMaterial
  1
ByBlock
 72
     0
 43
0.0208333333333333
 43
0.0
 43
0.0
 43
0.0
 43
0.0
 43
0.0208333333333333
 43
0.0
 43
0.0
 43
0.0
 43
0.0
 43
1.0
 43
0.0
 43
0.0
 43
0.0
 43
0.0
 43
1.0
 77
     0
 47
0.0208333333333333
 47
0.0
 47
0.0
 47
0.0
 47
0.0
 47
0.0208333333333333
 47
0.0
 47
0.0
 47
0.0
 47
0.0
 47
1.0
 47
0.0
 47
0.0
 47
0.0
 47
0.0
 47
1.0
171
     0
 49
0.0208333333333333
 49
0.0
 49
0.0
 49
0.0
 49
0.0
 49
0.0208333333333333
 49
0.0
 49
0.0
 49
0.0
 49
0.0
 49
1.0
 49
0.0
 49
0.0
 49
0.0
 49
0.0
 49
1.0
175
     0
142
0.0208333333333333
142
0.0
142
0.0
142
0.0
142
0.0
142
0.0208333333333333
142
0.0
142
0.0
142
0.0
142
0.0
142
1.0
142
0.0
142
0.0
142
0.0
142
0.0
142
1.0
179
     0
144
0.0208333333333333
144
0.0
144
0.0
144
0.0
144
0.0
144
0.0208333333333333
144
0.0
144
0.0
144
0.0
144
0.0
144
1.0
144
0.0
144
0.0
144
0.0
144
0.0
144
1.0
147
0.0208333333333333
147
0.0
147
0.0
147
0.0
147
0.0
147
0.0208333333333333
147
0.0
147
0.0
147
0.0
147
0.0
147
1.0
147
0.0
147
0.0
147
0.0
147
0.0
147
1.0
  0
MATERIAL
  5
5AB1
102
{ACAD_XDICTIONARY
360
5AB2
102
}
102
{ACAD_REACTORS
330
5AB0
102
}
330
5AB0
100
AcDbMaterial
  1
ByLayer
 72
     0
 43
0.0208333333333333
 43
0.0
 43
0.0
 43
0.0
 43
0.0
 43
0.0208333333333333
 43
0.0
 43
0.0
 43
0.0
 43
0.0
 43
1.0
 43
0.0
 43
0.0
 43
0.0
 43
0.0
 43
1.0
 77
     0
 47
0.0208333333333333
 47
0.0
 47
0.0
 47
0.0
 47
0.0
 47
0.0208333333333333
 47
0.0
 47
0.0
 47
0.0
 47
0.0
 47
1.0
 47
0.0
 47
0.0
 47
0.0
 47
0.0
 47
1.0
171
     0
 49
0.0208333333333333
 49
0.0
 49
0.0
 49
0.0
 49
0.0
 49
0.0208333333333333
 49
0.0
 49
0.0
 49
0.0
 49
0.0
 49
1.0
 49
0.0
 49
0.0
 49
0.0
 49
0.0
 49
1.0
175
     0
142
0.0208333333333333
142
0.0
142
0.0
142
0.0
142
0.0
142
0.0208333333333333
142
0.0
142
0.0
142
0.0
142
0.0
142
1.0
142
0.0
142
0.0
142
0.0
142
0.0
142
1.0
179
     0
144
0.0208333333333333
144
0.0
144
0.0
144
0.0
144
0.0
144
0.0208333333333333
144
0.0
144
0.0
144
0.0
144
0.0
144
1.0
144
0.0
144
0.0
144
0.0
144
0.0
144
1.0
147
0.0208333333333333
147
0.0
147
0.0
147
0.0
147
0.0
147
0.0208333333333333
147
0.0
147
0.0
147
0.0
147
0.0
147
1.0
147
0.0
147
0.0
147
0.0
147
0.0
147
1.0
  0
MATERIAL
  5
5AC1
102
{ACAD_XDICTIONARY
360
5AC2
102
}
102
{ACAD_REACTORS
330
5AB0
102
}
330
5AB0
100
AcDbMaterial
  1
Global
 72
     0
 43
0.0208333333333333
 43
0.0
 43
0.0
 43
0.0
 43
0.0
 43
0.0208333333333333
 43
0.0
 43
0.0
 43
0.0
 43
0.0
 43
1.0
 43
0.0
 43
0.0
 43
0.0
 43
0.0
 43
1.0
 77
     0
 47
0.0208333333333333
 47
0.0
 47
0.0
 47
0.0
 47
0.0
 47
0.0208333333333333
 47
0.0
 47
0.0
 47
0.0
 47
0.0
 47
1.0
 47
0.0
 47
0.0
 47
0.0
 47
0.0
 47
1.0
171
     0
 49
0.0208333333333333
 49
0.0
 49
0.0
 49
0.0
 49
0.0
 49
0.0208333333333333
 49
0.0
 49
0.0
 49
0.0
 49
0.0
 49
1.0
 49
0.0
 49
0.0
 49
0.0
 49
0.0
 49
1.0
175
     0
142
0.0208333333333333
142
0.0
142
0.0
142
0.0
142
0.0
142
0.0208333333333333
142
0.0
142
0.0
142
0.0
142
0.0
142
1.0
142
0.0
142
0.0
142
0.0
142
0.0
142
1.0
179
     0
144
0.0208333333333333
144
0.0
144
0.0
144
0.0
144
0.0
144
0.0208333333333333
144
0.0
144
0.0
144
0.0
144
0.0
144
1.0
144
0.0
144
0.0
144
0.0
144
0.0
144
1.0
147
0.0208333333333333
147
0.0
147
0.0
147
0.0
147
0.0
147
0.0208333333333333
147
0.0
147
0.0
147
0.0
147
0.0
147
1.0
147
0.0
147
0.0
147
0.0
147
0.0
147
1.0
  0
MLEADERSTYLE
  5
5AF8
102
{ACAD_REACTORS
330
5AF7
102
}
330
5AF7
100
AcDbMLeaderStyle
179
     2
170
     2
171
     1
172
     0
 90
        2
 40
0.0
 41
0.0
173
     1
 91
-1056964608
340
13
 92
       -2
290
     1
 42
0.09
291
     1
 43
0.36
  3
Standard
 44
0.18
300

342
11
174
     1
178
     6
175
     1
176
     0
 93
-1056964608
 45
0.18
292
     0
297
     0
 46
0.18
 94
-1056964608
 47
1.0
 49
1.0
140
1.0
293
     1
141
0.0
294
     1
177
     0
142
1.0
295
     0
296
     0
143
0.125
271
     0
272
     9
273
     9
298
     0
1001
ACAD_MLEADERVER
1070
     2
  0
MLINESTYLE
  5
17
102
{ACAD_REACTORS
330
16
102
}
330
16
100
AcDbMlineStyle
  2
STANDARD
 70
     0
  3

 62
   256
 51
90.0
 52
90.0
 71
     2
 49
0.5
 62
   256
  6
BYLAYER
 49
-0.5
 62
   256
  6
BYLAYER
  0
ACDBPLACEHOLDER
  5
F
102
{ACAD_REACTORS
330
E
102
}
330
E
  0
SCALE
  5
5AE6
102
{ACAD_REACTORS
330
5AE5
102
}
330
5AE5
100
AcDbScale
 70
     0
300
1:1
140
1.0
141
1.0
290
     1
  0
SCALE
  5
5AE7
102
{ACAD_REACTORS
330
5AE5
102
}
330
5AE5
100
AcDbScale
 70
     0
300
1/128" = 1'-0"
140
0.0078125
141
12.0
290
     0
  0
SCALE
  5
5AE8
102
{ACAD_REACTORS
330
5AE5
102
}
330
5AE5
100
AcDbScale
 70
     0
300
1/64" = 1'-0"
140
0.015625
141
12.0
290
     0
  0
SCALE
  5
5AE9
102
{ACAD_REACTORS
330
5AE5
102
}
330
5AE5
100
AcDbScale
 70
     0
300
1/32" = 1'-0"
140
0.03125
141
12.0
290
     0
  0
SCALE
  5
5AEA
102
{ACAD_REACTORS
330
5AE5
102
}
330
5AE5
100
AcDbScale
 70
     0
300
1/16" = 1'-0"
140
0.0625
141
12.0
290
     0
  0
SCALE
  5
5AEB
102
{ACAD_REACTORS
330
5AE5
102
}
330
5AE5
100
AcDbScale
 70
     0
300
3/32" = 1'-0"
140
0.09375
141
12.0
290
     0
  0
SCALE
  5
5AEC
102
{ACAD_REACTORS
330
5AE5
102
}
330
5AE5
100
AcDbScale
 70
     0
300
1/8" = 1'-0"
140
0.125
141
12.0
290
     0
  0
SCALE
  5
5AED
102
{ACAD_REACTORS
330
5AE5
102
}
330
5AE5
100
AcDbScale
 70
     0
300
3/16" = 1'-0"
140
0.1875
141
12.0
290
     0
  0
SCALE
  5
5AEE
102
{ACAD_REACTORS
330
5AE5
102
}
330
5AE5
100
AcDbScale
 70
     0
300
1/4" = 1'-0"
140
0.25
141
12.0
290
     0
  0
SCALE
  5
5AEF
102
{ACAD_REACTORS
330
5AE5
102
}
330
5AE5
100
AcDbScale
 70
     0
300
3/8" = 1'-0"
140
0.375
141
12.0
290
     0
  0
SCALE
  5
5AF0
102
{ACAD_REACTORS
330
5AE5
102
}
330
5AE5
100
AcDbScale
 70
     0
300
1/2" = 1'-0"
140
0.5
141
12.0
290
     0
  0
SCALE
  5
5AF1
102
{ACAD_REACTORS
330
5AE5
102
}
330
5AE5
100
AcDbScale
 70
     0
300
3/4" = 1'-0"
140
0.75
141
12.0
290
     0
  0
SCALE
  5
5AF2
102
{ACAD_REACTORS
330
5AE5
102
}
330
5AE5
100
AcDbScale
 70
     0
300
1" = 1'-0"
140
1.0
141
12.0
290
     0
  0
SCALE
  5
5AF3
102
{ACAD_REACTORS
330
5AE5
102
}
330
5AE5
100
AcDbScale
 70
     0
300
1-1/2" = 1'-0"
140
1.5
141
12.0
290
     0
  0
SCALE
  5
5AF4
102
{ACAD_REACTORS
330
5AE5
102
}
330
5AE5
100
AcDbScale
 70
     0
300
3" = 1'-0"
140
3.0
141
12.0
290
     0
  0
SCALE
  5
5AF5
102
{ACAD_REACTORS
330
5AE5
102
}
330
5AE5
100
AcDbScale
 70
     0
300
6" = 1'-0"
140
6.0
141
12.0
290
     0
  0
SCALE
  5
5AF6
102
{ACAD_REACTORS
330
5AE5
102
}
330
5AE5
100
AcDbScale
 70
     0
300
1'-0" = 1'-0"
140
12.0
141
12.0
290
     0
  0
ACDBSECTIONVIEWSTYLE
  5
5AFA
102
{ACAD_XDICTIONARY
360
6025
102
}
102
{ACAD_REACTORS
330
5AF9
102
}
330
5AF9
100
AcDbModelDocViewStyle
 70
     0
  3
Imperial24
290
     0
100
AcDbSectionViewStyle
 70
     0
 71
     0
 90
       78
 71
     1
340
11
 62
   256
 40
0.24
340
0
340
0
 62
   256
 40
0.24
300
I, O, Q, S, X, Z
 40
0.48
 90
        3
 40
0.18
 90
        1
 71
     2
340
15
 90
       25
 62
   256
340
15
 90
       50
 62
   256
 40
0.24
 40
0.0
 40
0.24
 71
     3
340
11
 62
   256
 40
0.24
 90
        1
 40
0.75
 90
        1
300
%<\AcVar ViewType \f "%tc1">% %<\AcVar ViewSectionStartId>%-%<\AcVar ViewSectionEndId>%\PSCALE %<\AcVar ViewScale \f "%sn">%
 71
     4
 62
   256
 62
   257
300
ANSI31
 40
1.0
 90
        0
290
     0
290
     0
 90
        6
 40
0.0
 40
1.570796326794896
 40
0.2617993877991494
 40
1.308996938995747
 40
-0.2617993877991494
 40
1.832595714594045
  0
TABLESTYLE
  5
5AE4
102
{ACAD_XDICTIONARY
360
5FD2
102
}
102
{ACAD_REACTORS
330
5AE3
102
}
330
5AE3
100
AcDbTableStyle
280
     0
  3
Standard
 70
     0
 71
     0
 40
0.06
 41
0.06
280
     0
281
     0
  7
STANDARD
140
0.18
170
     2
 62
     0
 63
     7
283
     0
 90
      512
 91
        0
  1

274
    -2
284
     1
 64
     0
275
    -2
285
     1
 65
     0
276
    -2
286
     1
 66
     0
277
    -2
287
     1
 67
     0
278
    -2
288
     1
 68
     0
279
    -2
289
     1
 69
     0
  7
STANDARD
140
0.25
170
     5
 62
     0
 63
     7
283
     0
 90
      512
 91
        0
  1

274
    -2
284
     1
 64
     0
275
    -2
285
     1
 65
     0
276
    -2
286
     1
 66
     0
277
    -2
287
     1
 67
     0
278
    -2
288
     1
 68
     0
279
    -2
289
     1
 69
     0
  7
STANDARD
140
0.18
170
     5
 62
     0
 63
     7
283
     0
 90
      512
 91
        0
  1

274
    -2
284
     1
 64
     0
275
    -2
285
     1
 65
     0
276
    -2
286
     1
 66
     0
277
    -2
287
     1
 67
     0
278
    -2
288
     1
 68
     0
279
    -2
289
     1
 69
     0
  0
VISUALSTYLE
  5
5ACF
102
{ACAD_REACTORS
330
5AC9
102
}
330
5AC9
100
AcDbVisualStyle
  2

 70
     4
177
     3
291
     0
 70
    58
 90
        0
176
     1
 90
        2
176
     1
 90
        0
176
     1
 90
        0
176
     1
 40
0.6
176
     1
 40
30.0
176
     1
 62
     7
176
     1
 90
        1
176
     1
 90
        4
176
     1
 62
     7
176
     1
 62
   257
176
     1
 90
        1
176
     1
 90
        1
176
     1
 40
1.0
176
     1
 90
        0
176
     1
 62
   257
176
     1
 40
1.0
176
     1
 90
        1
176
     1
 90
        6
176
     1
 90
        2
176
     1
 62
     7
176
     1
 90
        5
176
     1
 90
        0
176
     1
 90
        0
176
     1
290
     0
176
     1
 90
        1
176
     1
 40
0.0
176
     1
 90
        0
176
     1
290
     1
176
     1
290
     1
176
     1
290
     0
176
     1
290
     0
176
     1
290
     0
176
     1
290
     0
176
     1
290
     0
176
     1
290
     0
176
     1
290
     0
176
     1
 90
       50
176
     1
 40
0.0
176
     1
 40
1.0
176
     1
 90
        0
176
     1
 62
    18
420
        0
176
     1
 90
       50
176
     1
 90
        3
176
     1
 62
     5
420
      255
176
     1
290
     0
176
     1
 90
       50
176
     1
 90
       50
176
     1
 90
       50
176
     1
290
     0
176
     1
 90
       50
176
     1
 62
   256
176
     0
 40
1.0
176
     0
 90
        2
176
     1
  1
strokes_ogs.tif
176
     1
290
     0
176
     1
 40
1.0
176
     1
 40
1.0
176
     1
1001
ACAD
1000
AcDbSavedByObjectVersion
1070
     0
  0
VISUALSTYLE
  5
5ACE
102
{ACAD_REACTORS
330
5AC9
102
}
330
5AC9
100
AcDbVisualStyle
  2

 70
     7
177
     3
291
     1
 70
    58
 90
        1
176
     1
 90
        0
176
     1
 90
        1
176
     1
 90
        0
176
     1
 40
0.6
176
     1
 40
30.0
176
     1
 62
     7
176
     1
 90
        0
176
     1
 90
        4
176
     1
 62
     7
176
     1
 62
   257
176
     1
 90
        1
176
     1
 90
        1
176
     1
 40
1.0
176
     1
 90
        8
176
     1
 62
     7
176
     1
 40
1.0
176
     1
 90
        1
176
     1
 90
        6
176
     1
 90
        2
176
     1
 62
     7
176
     1
 90
        5
176
     1
 90
        0
176
     1
 90
        0
176
     1
290
     0
176
     1
 90
        1
176
     1
 40
0.0
176
     1
 90
        0
176
     1
290
     0
176
     1
290
     1
176
     1
290
     1
176
     1
290
     0
176
     1
290
     0
176
     1
290
     0
176
     1
290
     0
176
     1
290
     0
176
     1
290
     0
176
     1
 90
       50
176
     1
 40
0.0
176
     1
 40
1.0
176
     1
 90
        0
176
     1
 62
    18
420
        0
176
     1
 90
       50
176
     1
 90
        3
176
     1
 62
     5
420
      255
176
     1
290
     0
176
     1
 90
       50
176
     1
 90
       50
176
     1
 90
       50
176
     1
290
     0
176
     1
 90
       50
176
     1
 62
   256
176
     0
 40
1.0
176
     0
 90
        2
176
     1
  1
strokes_ogs.tif
176
     1
290
     0
176
     1
 40
1.0
176
     1
 40
1.0
176
     1
1001
ACAD
1000
AcDbSavedByObjectVersion
1070
     0
  0
VISUALSTYLE
  5
5AD5
102
{ACAD_REACTORS
330
5AC9
102
}
330
5AC9
100
AcDbVisualStyle
  2

 70
    12
177
     3
291
     1
 70
    58
 90
        2
176
     1
 90
        2
176
     1
 90
        0
176
     1
 90
        0
176
     1
 40
0.6
176
     1
 40
30.0
176
     1
 62
     7
176
     1
 90
        1
176
     1
 90
        4
176
     1
 62
     7
176
     1
 62
   257
176
     1
 90
        1
176
     1
 90
        1
176
     1
 40
1.0
176
     1
 90
        8
176
     1
 62
     7
176
     1
 40
1.0
176
     1
 90
        1
176
     1
 90
        6
176
     1
 90
        2
176
     1
 62
     7
176
     1
 90
        5
176
     1
 90
        0
176
     1
 90
        0
176
     1
290
     0
176
     1
 90
        1
176
     1
 40
50.0
176
     1
 90
        0
176
     1
290
     0
176
     1
290
     1
176
     1
290
     1
176
     1
290
     0
176
     1
290
     0
176
     1
290
     0
176
     1
290
     0
176
     1
290
     0
176
     1
290
     0
176
     1
 90
       50
176
     1
 40
0.0
176
     1
 40
1.0
176
     1
 90
        0
176
     1
 62
    18
420
        0
176
     1
 90
       50
176
     1
 90
        3
176
     1
 62
     5
420
      255
176
     1
290
     0
176
     1
 90
       50
176
     1
 90
       50
176
     1
 90
       50
176
     1
290
     0
176
     1
 90
       50
176
     1
 62
   256
176
     0
 40
1.0
176
     0
 90
        2
176
     1
  1
strokes_ogs.tif
176
     1
290
     0
176
     1
 40
1.0
176
     1
 40
1.0
176
     1
1001
ACAD
1000
AcDbSavedByObjectVersion
1070
     0
  0
VISUALSTYLE
  5
5AD9
102
{ACAD_REACTORS
330
5AC9
102
}
330
5AC9
100
AcDbVisualStyle
  2

 70
    16
177
     3
291
     1
 70
    58
 90
        2
176
     1
 90
        2
176
     1
 90
        3
176
     1
 90
        0
176
     1
 40
0.6
176
     1
 40
30.0
176
     1
 62
     8
176
     1
 90
        1
176
     1
 90
        4
176
     1
 62
     7
176
     1
 62
   257
176
     1
 90
        1
176
     1
 90
        1
176
     1
 40
1.0
176
     1
 90
        8
176
     1
 62
     8
176
     1
 40
1.0
176
     1
 90
        1
176
     1
 90
        6
176
     1
 90
        2
176
     1
 62
     7
176
     1
 90
        5
176
     1
 90
        0
176
     1
 90
        0
176
     1
290
     0
176
     1
 90
        1
176
     1
 40
0.0
176
     1
 90
        0
176
     1
290
     0
176
     1
290
     1
176
     1
290
     1
176
     1
290
     0
176
     1
290
     0
176
     1
290
     0
176
     1
290
     0
176
     1
290
     0
176
     1
290
     0
176
     1
 90
       50
176
     1
 40
0.0
176
     1
 40
1.0
176
     1
 90
        0
176
     1
 62
    18
420
        0
176
     1
 90
       50
176
     1
 90
        3
176
     1
 62
     5
420
      255
176
     1
290
     0
176
     1
 90
       50
176
     1
 90
       50
176
     1
 90
       50
176
     1
290
     0
176
     1
 90
       50
176
     1
 62
   256
176
     0
 40
1.0
176
     0
 90
        2
176
     1
  1
strokes_ogs.tif
176
     1
290
     0
176
     1
 40
1.0
176
     1
 40
1.0
176
     1
1001
ACAD
1000
AcDbSavedByObjectVersion
1070
     0
  0
VISUALSTYLE
  5
5AD2
102
{ACAD_REACTORS
330
5AC9
102
}
330
5AC9
100
AcDbVisualStyle
  2

 70
     9
177
     3
291
     0
 70
    58
 90
        3
176
     1
 90
        2
176
     1
 90
        0
176
     1
 90
        0
176
     1
 40
0.6
176
     1
 40
30.0
176
     1
 62
     7
176
     1
 90
        2
176
     1
 90
        2
176
     1
 62
     7
176
     1
 62
   257
176
     1
 90
        1
176
     1
 90
        1
176
     1
 40
179.0
176
     1
 90
        8
176
     1
 62
     7
176
     1
 40
1.0
176
     1
 90
        1
176
     1
 90
        6
176
     1
 90
        2
176
     1
 62
     7
176
     1
 90
        3
176
     1
 90
        0
176
     1
 90
        0
176
     1
290
     0
176
     1
 90
        1
176
     1
 40
0.0
176
     1
 90
        0
176
     1
290
     0
176
     1
290
     1
176
     1
290
     1
176
     1
290
     0
176
     1
290
     0
176
     1
290
     0
176
     1
290
     0
176
     1
290
     0
176
     1
290
     0
176
     1
 90
       50
176
     1
 40
0.0
176
     1
 40
1.0
176
     1
 90
        0
176
     1
 62
    18
420
        0
176
     1
 90
       50
176
     1
 90
        3
176
     1
 62
     5
420
      255
176
     1
290
     0
176
     1
 90
       50
176
     1
 90
       50
176
     1
 90
       50
176
     1
290
     0
176
     1
 90
       50
176
     1
 62
   256
176
     0
 40
1.0
176
     0
 90
        2
176
     1
  1
strokes_ogs.tif
176
     1
290
     0
176
     1
 40
1.0
176
     1
 40
1.0
176
     1
1001
ACAD
1000
AcDbSavedByObjectVersion
1070
     0
  0
VISUALSTYLE
  5
5AD4
102
{ACAD_REACTORS
330
5AC9
102
}
330
5AC9
100
AcDbVisualStyle
  2

 70
    11
177
     3
291
     1
 70
    58
 90
        2
176
     1
 90
        2
176
     1
 90
        0
176
     1
 90
        0
176
     1
 40
0.6
176
     1
 40
30.0
176
     1
 62
     7
176
     1
 90
        1
176
     1
 90
        4
176
     1
 62
     7
176
     1
 62
   257
176
     1
 90
        1
176
     1
 90
        1
176
     1
 40
1.0
176
     1
 90
        8
176
     1
 62
     7
176
     1
 40
1.0
176
     1
 90
        1
176
     1
 90
        6
176
     1
 90
        2
176
     1
 62
     7
176
     1
 90
        5
176
     1
 90
        0
176
     1
 90
        0
176
     1
290
     0
176
     1
 90
        1
176
     1
 40
-50.0
176
     1
 90
        0
176
     1
290
     0
176
     1
290
     1
176
     1
290
     1
176
     1
290
     0
176
     1
290
     0
176
     1
290
     0
176
     1
290
     0
176
     1
290
     0
176
     1
290
     0
176
     1
 90
       50
176
     1
 40
0.0
176
     1
 40
1.0
176
     1
 90
        0
176
     1
 62
    18
420
        0
176
     1
 90
       50
176
     1
 90
        3
176
     1
 62
     5
420
      255
176
     1
290
     0
176
     1
 90
       50
176
     1
 90
       50
176
     1
 90
       50
176
     1
290
     0
176
     1
 90
       50
176
     1
 62
   256
176
     0
 40
1.0
176
     0
 90
        2
176
     1
  1
strokes_ogs.tif
176
     1
290
     0
176
     1
 40
1.0
176
     1
 40
1.0
176
     1
1001
ACAD
1000
AcDbSavedByObjectVersion
1070
     0
  0
VISUALSTYLE
  5
5AE1
102
{ACAD_REACTORS
330
5AC9
102
}
330
5AC9
100
AcDbVisualStyle
  2

 70
    22
177
     3
291
     1
 70
    58
 90
        2
176
     0
 90
        2
176
     0
 90
        0
176
     0
 90
        0
176
     0
 40
0.6
176
     0
 40
30.0
176
     0
 62
     7
176
     0
 90
        1
176
     0
 90
        4
176
     0
 62
     7
176
     0
 62
   257
176
     0
 90
        1
176
     0
 90
        1
176
     0
 40
1.0
176
     0
 90
        8
176
     2
 62
     7
176
     0
 40
1.0
176
     0
 90
        1
176
     0
 90
        6
176
     0
 90
        2
176
     0
 62
     7
176
     0
 90
        5
176
     0
 90
        0
176
     0
 90
        0
176
     0
290
     0
176
     0
 90
        1
176
     0
 40
0.0
176
     0
 90
        0
176
     0
290
     0
176
     1
290
     1
176
     1
290
     1
176
     1
290
     0
176
     1
290
     0
176
     1
290
     0
176
     1
290
     0
176
     1
290
     0
176
     1
290
     0
176
     1
 90
       50
176
     0
 40
0.0
176
     0
 40
1.0
176
     0
 90
        0
176
     0
 62
    18
420
        0
176
     0
 90
       50
176
     0
 90
        3
176
     0
 62
     5
420
      255
176
     0
290
     0
176
     1
 90
       50
176
     0
 90
       50
176
     0
 90
       50
176
     0
290
     0
176
     1
 90
       50
176
     0
 62
   256
176
     0
 40
1.0
176
     0
 90
        2
176
     0
  1
strokes_ogs.tif
176
     0
290
     0
176
     1
 40
1.0
176
     0
 40
1.0
176
     0
1001
ACAD
1000
AcDbSavedByObjectVersion
1070
     0
  0
VISUALSTYLE
  5
5AD8
102
{ACAD_REACTORS
330
5AC9
102
}
330
5AC9
100
AcDbVisualStyle
  2

 70
    15
177
     3
291
     1
 70
    58
 90
        2
176
     1
 90
        2
176
     1
 90
        0
176
     1
 90
        0
176
     1
 40
0.6
176
     1
 40
30.0
176
     1
 62
     7
176
     1
 90
        1
176
     1
 90
        4
176
     1
 62
     7
176
     1
 62
   257
176
     1
 90
        1
176
     1
 90
        1
176
     1
 40
1.0
176
     1
 90
        8
176
     1
 62
     7
176
     1
 40
1.0
176
     1
 90
        1
176
     1
 90
        6
176
     1
 90
        2
176
     1
 62
     7
176
     1
 90
        5
176
     1
 90
        0
176
     1
 90
        0
176
     1
290
     0
176
     1
 90
        1
176
     1
 40
0.0
176
     1
 90
        0
176
     1
290
     0
176
     1
290
     1
176
     1
290
     1
176
     1
290
     0
176
     1
290
     0
176
     1
290
     0
176
     1
290
     0
176
     1
290
     0
176
     1
290
     0
176
     1
 90
       50
176
     1
 40
0.0
176
     1
 40
1.0
176
     1
 90
        0
176
     1
 62
    18
420
        0
176
     1
 90
       50
176
     1
 90
        3
176
     1
 62
     5
420
      255
176
     1
290
     0
176
     1
 90
       50
176
     1
 90
       50
176
     1
 90
       50
176
     1
290
     0
176
     1
 90
       50
176
     1
 62
   256
176
     0
 40
1.0
176
     0
 90
        2
176
     1
  1
strokes_ogs.tif
176
     1
290
     0
176
     1
 40
1.0
176
     1
 40
1.0
176
     1
1001
ACAD
1000
AcDbSavedByObjectVersion
1070
     0
  0
VISUALSTYLE
  5
5ACA
102
{ACAD_REACTORS
330
5AC9
102
}
330
5AC9
100
AcDbVisualStyle
  2

 70
     0
177
     3
291
     1
 70
    58
 90
        2
176
     1
 90
        1
176
     1
 90
        1
176
     1
 90
        2
176
     1
 40
0.6
176
     1
 40
30.0
176
     1
 62
     7
176
     1
 90
        0
176
     1
 90
        0
176
     1
 62
     7
176
     1
 62
   257
176
     1
 90
        1
176
     1
 90
        1
176
     1
 40
1.0
176
     1
 90
        8
176
     1
 62
     7
176
     1
 40
1.0
176
     1
 90
        1
176
     1
 90
        6
176
     1
 90
        2
176
     1
 62
     7
176
     1
 90
        5
176
     1
 90
        0
176
     1
 90
        0
176
     1
290
     0
176
     1
 90
       13
176
     1
 40
0.0
176
     1
 90
        0
176
     1
290
     0
176
     1
290
     1
176
     1
290
     1
176
     1
290
     0
176
     1
290
     0
176
     1
290
     0
176
     1
290
     0
176
     1
290
     0
176
     1
290
     0
176
     1
 90
       50
176
     1
 40
0.0
176
     1
 40
1.0
176
     1
 90
        0
176
     1
 62
    18
420
        0
176
     1
 90
       50
176
     1
 90
        3
176
     1
 62
     5
420
      255
176
     1
290
     0
176
     1
 90
       50
176
     1
 90
       50
176
     1
 90
       50
176
     1
290
     0
176
     1
 90
       50
176
     1
 62
   256
176
     0
 40
1.0
176
     0
 90
        2
176
     1
  1
strokes_ogs.tif
176
     1
290
     0
176
     1
 40
1.0
176
     1
 40
1.0
176
     1
1001
ACAD
1000
AcDbSavedByObjectVersion
1070
     0
  0
VISUALSTYLE
  5
5ACB
102
{ACAD_REACTORS
330
5AC9
102
}
330
5AC9
100
AcDbVisualStyle
  2

 70
     1
177
     3
291
     1
 70
    58
 90
        2
176
     1
 90
        1
176
     1
 90
        1
176
     1
 90
        2
176
     1
 40
0.6
176
     1
 40
30.0
176
     1
 62
     7
176
     1
 90
        1
176
     1
 90
        0
176
     1
 62
     7
176
     1
 62
   257
176
     1
 90
        1
176
     1
 90
        1
176
     1
 40
1.0
176
     1
 90
        0
176
     1
 62
   257
176
     1
 40
1.0
176
     1
 90
        1
176
     1
 90
        6
176
     1
 90
        2
176
     1
 62
     7
176
     1
 90
        5
176
     1
 90
        0
176
     1
 90
        0
176
     1
290
     0
176
     1
 90
       13
176
     1
 40
0.0
176
     1
 90
        0
176
     1
290
     0
176
     1
290
     1
176
     1
290
     1
176
     1
290
     0
176
     1
290
     0
176
     1
290
     0
176
     1
290
     0
176
     1
290
     0
176
     1
290
     0
176
     1
 90
       50
176
     1
 40
0.0
176
     1
 40
1.0
176
     1
 90
        0
176
     1
 62
    18
420
        0
176
     1
 90
       50
176
     1
 90
        3
176
     1
 62
     5
420
      255
176
     1
290
     0
176
     1
 90
       50
176
     1
 90
       50
176
     1
 90
       50
176
     1
290
     0
176
     1
 90
       50
176
     1
 62
   256
176
     0
 40
1.0
176
     0
 90
        2
176
     1
  1
strokes_ogs.tif
176
     1
290
     0
176
     1
 40
1.0
176
     1
 40
1.0
176
     1
1001
ACAD
1000
AcDbSavedByObjectVersion
1070
     0
  0
VISUALSTYLE
  5
5ACC
102
{ACAD_REACTORS
330
5AC9
102
}
330
5AC9
100
AcDbVisualStyle
  2

 70
     2
177
     3
291
     1
 70
    58
 90
        2
176
     1
 90
        2
176
     1
 90
        1
176
     1
 90
        2
176
     1
 40
0.6
176
     1
 40
30.0
176
     1
 62
     7
176
     1
 90
        0
176
     1
 90
        0
176
     1
 62
     7
176
     1
 62
   257
176
     1
 90
        1
176
     1
 90
        1
176
     1
 40
1.0
176
     1
 90
        0
176
     1
 62
     7
176
     1
 40
1.0
176
     1
 90
        1
176
     1
 90
        6
176
     1
 90
        2
176
     1
 62
     7
176
     1
 90
        5
176
     1
 90
        0
176
     1
 90
        0
176
     1
290
     0
176
     1
 90
       13
176
     1
 40
0.0
176
     1
 90
        0
176
     1
290
     0
176
     1
290
     1
176
     1
290
     1
176
     1
290
     0
176
     1
290
     0
176
     1
290
     0
176
     1
290
     0
176
     1
290
     0
176
     1
290
     0
176
     1
 90
       50
176
     1
 40
0.0
176
     1
 40
1.0
176
     1
 90
        0
176
     1
 62
    18
420
        0
176
     1
 90
       50
176
     1
 90
        3
176
     1
 62
     5
420
      255
176
     1
290
     0
176
     1
 90
       50
176
     1
 90
       50
176
     1
 90
       50
176
     1
290
     0
176
     1
 90
       50
176
     1
 62
   256
176
     0
 40
1.0
176
     0
 90
        2
176
     1
  1
strokes_ogs.tif
176
     1
290
     0
176
     1
 40
1.0
176
     1
 40
1.0
176
     1
1001
ACAD
1000
AcDbSavedByObjectVersion
1070
     0
  0
VISUALSTYLE
  5
5ACD
102
{ACAD_REACTORS
330
5AC9
102
}
330
5AC9
100
AcDbVisualStyle
  2

 70
     3
177
     3
291
     1
 70
    58
 90
        2
176
     1
 90
        2
176
     1
 90
        1
176
     1
 90
        2
176
     1
 40
0.6
176
     1
 40
30.0
176
     1
 62
     7
176
     1
 90
        1
176
     1
 90
        0
176
     1
 62
     7
176
     1
 62
   257
176
     1
 90
        1
176
     1
 90
        1
176
     1
 40
1.0
176
     1
 90
        0
176
     1
 62
   257
176
     1
 40
1.0
176
     1
 90
        1
176
     1
 90
        6
176
     1
 90
        2
176
     1
 62
     7
176
     1
 90
        5
176
     1
 90
        0
176
     1
 90
        0
176
     1
290
     0
176
     1
 90
       13
176
     1
 40
0.0
176
     1
 90
        0
176
     1
290
     0
176
     1
290
     1
176
     1
290
     1
176
     1
290
     0
176
     1
290
     0
176
     1
290
     0
176
     1
290
     0
176
     1
290
     0
176
     1
290
     0
176
     1
 90
       50
176
     1
 40
0.0
176
     1
 40
1.0
176
     1
 90
        0
176
     1
 62
    18
420
        0
176
     1
 90
       50
176
     1
 90
        3
176
     1
 62
     5
420
      255
176
     1
290
     0
176
     1
 90
       50
176
     1
 90
       50
176
     1
 90
       50
176
     1
290
     0
176
     1
 90
       50
176
     1
 62
   256
176
     0
 40
1.0
176
     0
 90
        2
176
     1
  1
strokes_ogs.tif
176
     1
290
     0
176
     1
 40
1.0
176
     1
 40
1.0
176
     1
1001
ACAD
1000
AcDbSavedByObjectVersion
1070
     0
  0
VISUALSTYLE
  5
5AD1
102
{ACAD_REACTORS
330
5AC9
102
}
330
5AC9
100
AcDbVisualStyle
  2

 70
     6
177
     3
291
     0
 70
    58
 90
        1
176
     1
 90
        2
176
     1
 90
        2
176
     1
 90
        0
176
     1
 40
0.6
176
     1
 40
30.0
176
     1
 62
     7
176
     1
 90
        2
176
     1
 90
        2
176
     1
 62
     7
176
     1
 62
   257
176
     1
 90
        2
176
     1
 90
        1
176
     1
 40
40.0
176
     1
 90
        0
176
     1
 62
   257
176
     1
 40
1.0
176
     1
 90
        1
176
     1
 90
        6
176
     1
 90
        2
176
     1
 62
     7
176
     1
 90
        3
176
     1
 90
        0
176
     1
 90
        0
176
     1
290
     0
176
     1
 90
        1
176
     1
 40
0.0
176
     1
 90
        0
176
     1
290
     0
176
     1
290
     1
176
     1
290
     1
176
     1
290
     0
176
     1
290
     0
176
     1
290
     0
176
     1
290
     0
176
     1
290
     0
176
     1
290
     0
176
     1
 90
       50
176
     1
 40
0.0
176
     1
 40
1.0
176
     1
 90
        0
176
     1
 62
    18
420
        0
176
     1
 90
       50
176
     1
 90
        3
176
     1
 62
     5
420
      255
176
     1
290
     0
176
     1
 90
       50
176
     1
 90
       50
176
     1
 90
       50
176
     1
290
     0
176
     1
 90
       50
176
     1
 62
   256
176
     0
 40
1.0
176
     0
 90
        2
176
     1
  1
strokes_ogs.tif
176
     1
290
     0
176
     1
 40
1.0
176
     1
 40
1.0
176
     1
1001
ACAD
1000
AcDbSavedByObjectVersion
1070
     0
  0
VISUALSTYLE
  5
5ADF
102
{ACAD_REACTORS
330
5AC9
102
}
330
5AC9
100
AcDbVisualStyle
  2

 70
    20
177
     3
291
     1
 70
    58
 90
        2
176
     0
 90
        2
176
     0
 90
        0
176
     0
 90
        0
176
     0
 40
0.6
176
     0
 40
30.0
176
     0
 62
     7
176
     0
 90
        1
176
     0
 90
        4
176
     0
 62
     7
176
     0
 62
   257
176
     0
 90
        1
176
     0
 90
        1
176
     0
 40
1.0
176
     0
 90
       10
176
     2
 62
     7
176
     0
 40
1.0
176
     0
 90
        1
176
     0
 90
        6
176
     0
 90
        2
176
     0
 62
     7
176
     0
 90
        5
176
     0
 90
        0
176
     0
 90
        0
176
     0
290
     0
176
     0
 90
        1
176
     0
 40
0.0
176
     0
 90
        0
176
     0
290
     0
176
     1
290
     1
176
     1
290
     1
176
     1
290
     0
176
     1
290
     0
176
     1
290
     0
176
     1
290
     0
176
     1
290
     0
176
     1
290
     0
176
     1
 90
       50
176
     0
 40
0.0
176
     0
 40
1.0
176
     0
 90
        0
176
     0
 62
    18
420
        0
176
     0
 90
       50
176
     0
 90
        3
176
     0
 62
     5
420
      255
176
     0
290
     0
176
     1
 90
       50
176
     0
 90
       50
176
     0
 90
       50
176
     0
290
     0
176
     1
 90
       50
176
     0
 62
   256
176
     0
 40
1.0
176
     0
 90
        2
176
     0
  1
strokes_ogs.tif
176
     0
290
     0
176
     1
 40
1.0
176
     0
 40
1.0
176
     0
1001
ACAD
1000
AcDbSavedByObjectVersion
1070
     0
  0
VISUALSTYLE
  5
5AD7
102
{ACAD_REACTORS
330
5AC9
102
}
330
5AC9
100
AcDbVisualStyle
  2

 70
    14
177
     3
291
     1
 70
    58
 90
        2
176
     1
 90
        2
176
     1
 90
        0
176
     1
 90
        0
176
     1
 40
0.6
176
     1
 40
30.0
176
     1
 62
     7
176
     1
 90
        1
176
     1
 90
        4
176
     1
 62
     7
176
     1
 62
   257
176
     1
 90
        7
176
     1
 90
        7
176
     1
 40
1.0
176
     1
 90
        8
176
     1
 62
     7
176
     1
 40
1.0
176
     1
 90
        1
176
     1
 90
        6
176
     1
 90
        2
176
     1
 62
     7
176
     1
 90
        5
176
     1
 90
        0
176
     1
 90
        0
176
     1
290
     0
176
     1
 90
        1
176
     1
 40
0.0
176
     1
 90
        0
176
     1
290
     0
176
     1
290
     1
176
     1
290
     1
176
     1
290
     0
176
     1
290
     0
176
     1
290
     0
176
     1
290
     0
176
     1
290
     0
176
     1
290
     0
176
     1
 90
       50
176
     1
 40
0.0
176
     1
 40
1.0
176
     1
 90
        0
176
     1
 62
    18
420
        0
176
     1
 90
       50
176
     1
 90
        3
176
     1
 62
     5
420
      255
176
     1
290
     0
176
     1
 90
       50
176
     1
 90
       50
176
     1
 90
       50
176
     1
290
     0
176
     1
 90
       50
176
     1
 62
   256
176
     0
 40
1.0
176
     0
 90
        2
176
     1
  1
strokes_ogs.tif
176
     1
290
     0
176
     1
 40
1.0
176
     1
 40
1.0
176
     1
1001
ACAD
1000
AcDbSavedByObjectVersion
1070
     0
  0
VISUALSTYLE
  5
5AE0
102
{ACAD_REACTORS
330
5AC9
102
}
330
5AC9
100
AcDbVisualStyle
  2

 70
    21
177
     3
291
     1
 70
    58
 90
        2
176
     0
 90
        2
176
     0
 90
        0
176
     0
 90
        0
176
     0
 40
0.6
176
     0
 40
30.0
176
     0
 62
     7
176
     0
 90
        1
176
     0
 90
        4
176
     0
 62
     7
176
     0
 62
   257
176
     0
 90
        1
176
     0
 90
        1
176
     0
 40
1.0
176
     0
 90
        9
176
     2
 62
     7
176
     0
 40
1.0
176
     0
 90
        1
176
     0
 90
        6
176
     0
 90
        2
176
     0
 62
     7
176
     0
 90
        5
176
     0
 90
        0
176
     0
 90
        0
176
     0
290
     0
176
     0
 90
        1
176
     0
 40
0.0
176
     0
 90
        0
176
     0
290
     0
176
     1
290
     1
176
     1
290
     1
176
     1
290
     0
176
     1
290
     0
176
     1
290
     0
176
     1
290
     0
176
     1
290
     0
176
     1
290
     0
176
     1
 90
       50
176
     0
 40
0.0
176
     0
 40
1.0
176
     0
 90
        0
176
     0
 62
    18
420
        0
176
     0
 90
       50
176
     0
 90
        3
176
     0
 62
     5
420
      255
176
     0
290
     0
176
     1
 90
       50
176
     0
 90
       50
176
     0
 90
       50
176
     0
290
     0
176
     1
 90
       50
176
     0
 62
   256
176
     0
 40
1.0
176
     0
 90
        2
176
     0
  1
strokes_ogs.tif
176
     0
290
     0
176
     1
 40
1.0
176
     0
 40
1.0
176
     0
1001
ACAD
1000
AcDbSavedByObjectVersion
1070
     0
  0
VISUALSTYLE
  5
5AD3
102
{ACAD_REACTORS
330
5AC9
102
}
330
5AC9
100
AcDbVisualStyle
  2

 70
     8
177
     3
291
     0
 70
    58
 90
        2
176
     1
 90
        3
176
     1
 90
        0
176
     1
 90
        2
176
     1
 40
0.6
176
     1
 40
30.0
176
     1
 62
     7
176
     1
 90
        0
176
     1
 90
        0
176
     1
 62
     7
176
     1
 62
   257
176
     1
 90
        1
176
     1
 90
        1
176
     1
 40
1.0
176
     1
 90
        8
176
     1
 62
   257
176
     1
 40
1.0
176
     1
 90
        1
176
     1
 90
        6
176
     1
 90
        2
176
     1
 62
     7
176
     1
 90
        3
176
     1
 90
        0
176
     1
 90
        0
176
     1
290
     0
176
     1
 90
       13
176
     1
 40
0.0
176
     1
 90
        0
176
     1
290
     0
176
     1
290
     1
176
     1
290
     1
176
     1
290
     0
176
     1
290
     0
176
     1
290
     0
176
     1
290
     0
176
     1
290
     0
176
     1
290
     0
176
     1
 90
       50
176
     1
 40
0.0
176
     1
 40
1.0
176
     1
 90
        0
176
     1
 62
    18
420
        0
176
     1
 90
       50
176
     1
 90
        3
176
     1
 62
     5
420
      255
176
     1
290
     0
176
     1
 90
       50
176
     1
 90
       50
176
     1
 90
       50
176
     1
290
     0
176
     1
 90
       50
176
     1
 62
   256
176
     0
 40
1.0
176
     0
 90
        2
176
     1
  1
strokes_ogs.tif
176
     1
290
     0
176
     1
 40
1.0
176
     1
 40
1.0
176
     1
1001
ACAD
1000
AcDbSavedByObjectVersion
1070
     0
  0
VISUALSTYLE
  5
5ADE
102
{ACAD_REACTORS
330
5AC9
102
}
330
5AC9
100
AcDbVisualStyle
  2

 70
    27
177
     3
291
     0
 70
    58
 90
        2
176
     1
 90
        2
176
     1
 90
        1
176
     1
 90
        2
176
     1
 40
0.6
176
     1
 40
30.0
176
     1
 62
     7
176
     1
 90
        0
176
     1
 90
        4
176
     1
 62
     7
176
     1
 62
   257
176
     1
 90
        1
176
     1
 90
        1
176
     1
 40
1.0
176
     1
 90
        8
176
     1
 62
   257
176
     1
 40
1.0
176
     1
 90
        1
176
     1
 90
        6
176
     1
 90
        2
176
     1
 62
     8
176
     1
 90
        3
176
     1
 90
        0
176
     1
 90
        0
176
     1
290
     0
176
     1
 90
        5
176
     1
 40
0.0
176
     1
 90
        0
176
     1
290
     0
176
     1
290
     1
176
     1
290
     1
176
     1
290
     0
176
     1
290
     0
176
     1
290
     0
176
     1
290
     0
176
     1
290
     0
176
     1
290
     0
176
     1
 90
       50
176
     1
 40
0.0
176
     1
 40
1.0
176
     1
 90
        0
176
     1
 62
    18
420
        0
176
     1
 90
       50
176
     1
 90
        3
176
     1
 62
     5
420
      255
176
     1
290
     0
176
     1
 90
       50
176
     1
 90
       50
176
     1
 90
       50
176
     1
290
     0
176
     1
 90
       50
176
     1
 62
   256
176
     0
 40
1.0
176
     0
 90
        2
176
     1
  1
strokes_ogs.tif
176
     1
290
     0
176
     1
 40
1.0
176
     1
 40
1.0
176
     1
1001
ACAD
1000
AcDbSavedByObjectVersion
1070
     0
  0
VISUALSTYLE
  5
5ADD
102
{ACAD_REACTORS
330
5AC9
102
}
330
5AC9
100
AcDbVisualStyle
  2

 70
    26
177
     3
291
     0
 70
    58
 90
        2
176
     1
 90
        2
176
     1
 90
        1
176
     1
 90
        2
176
     1
 40
0.6
176
     1
 40
30.0
176
     1
 62
     7
176
     1
 90
        1
176
     1
 90
       10
176
     1
 62
     7
176
     1
 62
   257
176
     1
 90
        2
176
     1
 90
        1
176
     1
 40
1.0
176
     1
 90
        8
176
     1
 62
   257
176
     1
 40
1.0
176
     1
 90
        1
176
     1
 90
        6
176
     1
 90
        2
176
     1
 62
     7
176
     1
 90
        3
176
     1
 90
        0
176
     1
 90
        0
176
     1
290
     0
176
     1
 90
        5
176
     1
 40
0.0
176
     1
 90
        0
176
     1
290
     0
176
     1
290
     1
176
     1
290
     1
176
     1
290
     0
176
     1
290
     0
176
     1
290
     0
176
     1
290
     0
176
     1
290
     0
176
     1
290
     0
176
     1
 90
       50
176
     1
 40
0.0
176
     1
 40
1.0
176
     1
 90
        0
176
     1
 62
    18
420
        0
176
     1
 90
       50
176
     1
 90
        3
176
     1
 62
     5
420
      255
176
     1
290
     0
176
     1
 90
       50
176
     1
 90
       50
176
     1
 90
       50
176
     1
290
     0
176
     1
 90
       50
176
     1
 62
   256
176
     0
 40
1.0
176
     0
 90
        2
176
     1
  1
strokes_ogs.tif
176
     1
290
     0
176
     1
 40
1.0
176
     1
 40
1.0
176
     1
1001
ACAD
1000
AcDbSavedByObjectVersion
1070
     0
  0
VISUALSTYLE
  5
5ADA
102
{ACAD_REACTORS
330
5AC9
102
}
330
5AC9
100
AcDbVisualStyle
  2

 70
    23
177
     3
291
     0
 70
    58
 90
        2
176
     1
 90
        2
176
     1
 90
        3
176
     1
 90
        0
176
     1
 40
0.6
176
     1
 40
30.0
176
     1
 62
     7
176
     1
 90
        2
176
     1
 90
        2
176
     1
 62
     7
176
     1
 62
     7
176
     1
 90
        1
176
     1
 90
        1
176
     1
 40
40.0
176
     1
 90
        8
176
     1
 62
     7
176
     1
 40
1.0
176
     1
 90
        1
176
     1
 90
        6
176
     1
 90
        2
176
     1
 62
     7
176
     1
 90
        3
176
     1
 90
        0
176
     1
 90
        0
176
     1
290
     0
176
     1
 90
        1
176
     1
 40
0.0
176
     1
 90
        0
176
     1
290
     0
176
     1
290
     1
176
     1
290
     1
176
     1
290
     0
176
     1
290
     0
176
     1
290
     0
176
     1
290
     0
176
     1
290
     0
176
     1
290
     0
176
     1
 90
       50
176
     1
 40
0.0
176
     1
 40
1.0
176
     1
 90
        0
176
     1
 62
    18
420
        0
176
     1
 90
       50
176
     1
 90
        3
176
     1
 62
     5
420
      255
176
     1
290
     0
176
     1
 90
       50
176
     1
 90
       50
176
     1
 90
       50
176
     1
290
     0
176
     1
 90
       50
176
     1
 62
   256
176
     0
 40
1.0
176
     0
 90
        2
176
     1
  1
strokes_ogs.tif
176
     1
290
     0
176
     1
 40
1.0
176
     1
 40
1.0
176
     1
1001
ACAD
1000
AcDbSavedByObjectVersion
1070
     0
  0
VISUALSTYLE
  5
5ADB
102
{ACAD_REACTORS
330
5AC9
102
}
330
5AC9
100
AcDbVisualStyle
  2

 70
    24
177
     3
291
     0
 70
    58
 90
        1
176
     1
 90
        2
176
     1
 90
        2
176
     1
 90
        0
176
     1
 40
0.6
176
     1
 40
30.0
176
     1
 62
     7
176
     1
 90
        2
176
     1
 90
        2
176
     1
 62
     7
176
     1
 62
     7
176
     1
 90
        1
176
     1
 90
        1
176
     1
 40
40.0
176
     1
 90
       11
176
     1
 62
     7
176
     1
 40
1.0
176
     1
 90
        1
176
     1
 90
        6
176
     1
 90
        2
176
     1
 62
     7
176
     1
 90
        6
176
     1
 90
        0
176
     1
 90
        0
176
     1
290
     0
176
     1
 90
        1
176
     1
 40
0.0
176
     1
 90
        0
176
     1
290
     0
176
     1
290
     1
176
     1
290
     1
176
     1
290
     0
176
     1
290
     0
176
     1
290
     0
176
     1
290
     0
176
     1
290
     0
176
     1
290
     0
176
     1
 90
       50
176
     1
 40
0.0
176
     1
 40
1.0
176
     1
 90
        0
176
     1
 62
    18
420
        0
176
     1
 90
       50
176
     1
 90
        3
176
     1
 62
     5
420
      255
176
     1
290
     0
176
     1
 90
       50
176
     1
 90
       50
176
     1
 90
       50
176
     1
290
     0
176
     1
 90
       50
176
     1
 62
   256
176
     0
 40
1.0
176
     0
 90
        2
176
     1
  1
strokes_ogs.tif
176
     1
290
     0
176
     1
 40
1.0
176
     1
 40
1.0
176
     1
1001
ACAD
1000
AcDbSavedByObjectVersion
1070
     0
  0
VISUALSTYLE
  5
5AD6
102
{ACAD_REACTORS
330
5AC9
102
}
330
5AC9
100
AcDbVisualStyle
  2

 70
    13
177
     3
291
     1
 70
    58
 90
        2
176
     1
 90
        2
176
     1
 90
        0
176
     1
 90
        0
176
     1
 40
0.6
176
     1
 40
30.0
176
     1
 62
     7
176
     1
 90
        1
176
     1
 90
        4
176
     1
 62
     7
176
     1
 62
   257
176
     1
 90
        1
176
     1
 90
        1
176
     1
 40
1.0
176
     1
 90
       12
176
     1
 62
     7
176
     1
 40
1.0
176
     1
 90
        1
176
     1
 90
        6
176
     1
 90
        2
176
     1
 62
     7
176
     1
 90
        5
176
     1
 90
        0
176
     1
 90
        0
176
     1
290
     0
176
     1
 90
        1
176
     1
 40
0.0
176
     1
 90
        0
176
     1
290
     0
176
     1
290
     1
176
     1
290
     1
176
     1
290
     0
176
     1
290
     0
176
     1
290
     0
176
     1
290
     0
176
     1
290
     0
176
     1
290
     0
176
     1
 90
       50
176
     1
 40
0.0
176
     1
 40
1.0
176
     1
 90
        0
176
     1
 62
    18
420
        0
176
     1
 90
       50
176
     1
 90
        3
176
     1
 62
     5
420
      255
176
     1
290
     0
176
     1
 90
       50
176
     1
 90
       50
176
     1
 90
       50
176
     1
290
     0
176
     1
 90
       50
176
     1
 62
   256
176
     0
 40
1.0
176
     0
 90
        2
176
     1
  1
strokes_ogs.tif
176
     1
290
     0
176
     1
 40
1.0
176
     1
 40
1.0
176
     1
1001
ACAD
1000
AcDbSavedByObjectVersion
1070
     0
  0
VISUALSTYLE
  5
5AD0
102
{ACAD_REACTORS
330
5AC9
102
}
330
5AC9
100
AcDbVisualStyle
  2

 70
     5
177
     3
291
     0
 70
    58
 90
        0
176
     1
 90
        2
176
     1
 90
        0
176
     1
 90
        0
176
     1
 40
0.6
176
     1
 40
30.0
176
     1
 62
     7
176
     1
 90
        1
176
     1
 90
        4
176
     1
 62
     7
176
     1
 62
   257
176
     1
 90
        1
176
     1
 90
        1
176
     1
 40
1.0
176
     1
 90
        0
176
     1
 62
   257
176
     1
 40
1.0
176
     1
 90
        1
176
     1
 90
        6
176
     1
 90
        2
176
     1
 62
     7
176
     1
 90
        3
176
     1
 90
        0
176
     1
 90
        0
176
     1
290
     0
176
     1
 90
        1
176
     1
 40
0.0
176
     1
 90
        0
176
     1
290
     0
176
     1
290
     1
176
     1
290
     1
176
     1
290
     0
176
     1
290
     0
176
     1
290
     0
176
     1
290
     0
176
     1
290
     0
176
     1
290
     0
176
     1
 90
       50
176
     1
 40
0.0
176
     1
 40
1.0
176
     1
 90
        0
176
     1
 62
    18
420
        0
176
     1
 90
       50
176
     1
 90
        3
176
     1
 62
     5
420
      255
176
     1
290
     0
176
     1
 90
       50
176
     1
 90
       50
176
     1
 90
       50
176
     1
290
     0
176
     1
 90
       50
176
     1
 62
   256
176
     0
 40
1.0
176
     0
 90
        2
176
     1
  1
strokes_ogs.tif
176
     1
290
     0
176
     1
 40
1.0
176
     1
 40
1.0
176
     1
1001
ACAD
1000
AcDbSavedByObjectVersion
1070
     0
  0
VISUALSTYLE
  5
5ADC
102
{ACAD_REACTORS
330
5AC9
102
}
330
5AC9
100
AcDbVisualStyle
  2

 70
    25
177
     3
291
     0
 70
    58
 90
        2
176
     1
 90
        2
176
     1
 90
        1
176
     1
 90
        1
176
     1
 40
0.5
176
     1
 40
30.0
176
     1
 62
     7
176
     1
 90
        1
176
     1
 90
        0
176
     1
 62
     7
176
     1
 62
   257
176
     1
 90
        1
176
     1
 90
        1
176
     1
 40
1.0
176
     1
 90
        8
176
     1
 62
     7
176
     1
 40
1.0
176
     1
 90
        1
176
     1
 90
        6
176
     1
 90
        2
176
     1
 62
     7
176
     1
 90
        3
176
     1
 90
        0
176
     1
 90
        0
176
     1
290
     0
176
     1
 90
       13
176
     1
 40
0.0
176
     1
 90
        0
176
     1
290
     0
176
     1
290
     1
176
     1
290
     1
176
     1
290
     0
176
     1
290
     0
176
     1
290
     0
176
     1
290
     0
176
     1
290
     0
176
     1
290
     0
176
     1
 90
       50
176
     1
 40
0.0
176
     1
 40
1.0
176
     1
 90
        0
176
     1
 62
    18
420
        0
176
     1
 90
       50
176
     1
 90
        3
176
     1
 62
     5
420
      255
176
     1
290
     0
176
     1
 90
       50
176
     1
 90
       50
176
     1
 90
       50
176
     1
290
     0
176
     1
 90
       50
176
     1
 62
   256
176
     0
 40
1.0
176
     0
 90
        2
176
     1
  1
strokes_ogs.tif
176
     1
290
     0
176
     1
 40
1.0
176
     1
 40
1.0
176
     1
1001
ACAD
1000
AcDbSavedByObjectVersion
1070
     0
  0
DICTIONARYVAR
  5
5FCE
102
{ACAD_REACTORS
330
5697
102
}
330
5697
100
DictionaryVariables
280
     0
  1
1:1
  0
DICTIONARYVAR
  5
5FCB
102
{ACAD_REACTORS
330
5697
102
}
330
5697
100
DictionaryVariables
280
     0
  1
STANDARD
  0
DICTIONARYVAR
  5
5FCA
102
{ACAD_REACTORS
330
5697
102
}
330
5697
100
DictionaryVariables
280
     0
  1
STANDARD
  0
DICTIONARYVAR
  5
5FCC
102
{ACAD_REACTORS
330
5697
102
}
330
5697
100
DictionaryVariables
280
     0
  1
Imperial24
  0
DICTIONARYVAR
  5
5FCD
102
{ACAD_REACTORS
330
5697
102
}
330
5697
100
DictionaryVariables
280
     0
  1
Imperial24
  0
DICTIONARYVAR
  5
5698
102
{ACAD_REACTORS
330
5697
102
}
330
5697
100
DictionaryVariables
280
     0
  1
1
  0
DICTIONARYVAR
  5
5FD0
102
{ACAD_REACTORS
330
5697
102
}
330
5697
100
DictionaryVariables
280
     0
  1
0
  0
DICTIONARYVAR
  5
6022
102
{ACAD_REACTORS
330
5697
102
}
330
5697
100
DictionaryVariables
280
     0
  1
1
  0
DICTIONARYVAR
  5
6023
102
{ACAD_REACTORS
330
5697
102
}
330
5697
100
DictionaryVariables
280
     0
  1
15
  0
DICTIONARYVAR
  5
6021
102
{ACAD_REACTORS
330
5697
102
}
330
5697
100
DictionaryVariables
280
     0
  1
0
  0
DICTIONARYVAR
  5
6020
102
{ACAD_REACTORS
330
5697
102
}
330
5697
100
DictionaryVariables
280
     0
  1
0
  0
DICTIONARYVAR
  5
5FCF
102
{ACAD_REACTORS
330
5697
102
}
330
5697
100
DictionaryVariables
280
     0
  1
127
  0
DICTIONARY
  5
6027
330
5AFC
100
AcDbDictionary
280
     1
281
     1
  3
ACAD_XREC_ROUNDTRIP
360
6028
  0
DICTIONARY
  5
5ABA
330
5AB9
100
AcDbDictionary
280
     1
281
     1
  3
ACAD_XREC_ROUNDTRIP
360
5FDF
  3
BUMPTILE
360
5ABC
  3
DIFFUSETILE
360
5ABB
  3
OPACITYTILE
360
5ABF
  3
REFLECTIONTILE
360
5ABE
  3
REFRACTIONTILE
360
5AC0
  3
SPECULARTILE
360
5ABD
  0
DICTIONARY
  5
5AB2
330
5AB1
100
AcDbDictionary
280
     1
281
     1
  3
ACAD_XREC_ROUNDTRIP
360
5FDE
  3
BUMPTILE
360
5AB4
  3
DIFFUSETILE
360
5AB3
  3
OPACITYTILE
360
5AB7
  3
REFLECTIONTILE
360
5AB6
  3
REFRACTIONTILE
360
5AB8
  3
SPECULARTILE
360
5AB5
  0
DICTIONARY
  5
5AC2
330
5AC1
100
AcDbDictionary
280
     1
281
     1
  3
ACAD_XREC_ROUNDTRIP
360
5FE0
  3
BUMPTILE
360
5AC4
  3
DIFFUSETILE
360
5AC3
  3
OPACITYTILE
360
5AC7
  3
REFLECTIONTILE
360
5AC6
  3
REFRACTIONTILE
360
5AC8
  3
SPECULARTILE
360
5AC5
  0
DICTIONARY
  5
6025
330
5AFA
100
AcDbDictionary
280
     1
281
     1
  3
ACAD_XREC_ROUNDTRIP
360
6026
  0
DICTIONARY
  5
5FD2
330
5AE4
100
AcDbDictionary
280
     1
281
     1
  3
ACAD_ROUNDTRIP_2008_TABLESTYLE_CELLSTYLEMAP
360
6024
  0
XRECORD
  5
6028
102
{ACAD_REACTORS
330
6027
102
}
330
6027
100
AcDbXrecord
280
     1
102
DISPLAYNAME
  1
Imperial24
102
FLAGS
 90
        0
  0
XRECORD
  5
5FDF
102
{ACAD_REACTORS
330
5ABA
102
}
330
5ABA
100
AcDbXrecord
280
     1
102
MATERIAL
148
0.0
149
0.0
149
0.0
 93
        0
 94
      127
282
     0
 72
     0
 77
     0
171
     0
175
     0
179
     0
273
     0
  0
XRECORD
  5
5ABC
102
{ACAD_REACTORS
330
5ABA
102
}
330
5ABA
100
AcDbXrecord
280
     1
270
     1
271
     1
  0
XRECORD
  5
5ABB
102
{ACAD_REACTORS
330
5ABA
102
}
330
5ABA
100
AcDbXrecord
280
     1
270
     1
271
     1
  0
XRECORD
  5
5ABF
102
{ACAD_REACTORS
330
5ABA
102
}
330
5ABA
100
AcDbXrecord
280
     1
270
     1
271
     1
  0
XRECORD
  5
5ABE
102
{ACAD_REACTORS
330
5ABA
102
}
330
5ABA
100
AcDbXrecord
280
     1
270
     1
271
     1
  0
XRECORD
  5
5AC0
102
{ACAD_REACTORS
330
5ABA
102
}
330
5ABA
100
AcDbXrecord
280
     1
270
     1
271
     1
  0
XRECORD
  5
5ABD
102
{ACAD_REACTORS
330
5ABA
102
}
330
5ABA
100
AcDbXrecord
280
     1
270
     1
271
     1
  0
XRECORD
  5
5FDE
102
{ACAD_REACTORS
330
5AB2
102
}
330
5AB2
100
AcDbXrecord
280
     1
102
MATERIAL
148
0.0
149
0.0
149
0.0
 93
        0
 94
      127
282
     0
 72
     0
 77
     0
171
     0
175
     0
179
     0
273
     0
  0
XRECORD
  5
5AB4
102
{ACAD_REACTORS
330
5AB2
102
}
330
5AB2
100
AcDbXrecord
280
     1
270
     1
271
     1
  0
XRECORD
  5
5AB3
102
{ACAD_REACTORS
330
5AB2
102
}
330
5AB2
100
AcDbXrecord
280
     1
270
     1
271
     1
  0
XRECORD
  5
5AB7
102
{ACAD_REACTORS
330
5AB2
102
}
330
5AB2
100
AcDbXrecord
280
     1
270
     1
271
     1
  0
XRECORD
  5
5AB6
102
{ACAD_REACTORS
330
5AB2
102
}
330
5AB2
100
AcDbXrecord
280
     1
270
     1
271
     1
  0
XRECORD
  5
5AB8
102
{ACAD_REACTORS
330
5AB2
102
}
330
5AB2
100
AcDbXrecord
280
     1
270
     1
271
     1
  0
XRECORD
  5
5AB5
102
{ACAD_REACTORS
330
5AB2
102
}
330
5AB2
100
AcDbXrecord
280
     1
270
     1
271
     1
  0
XRECORD
  5
5FE0
102
{ACAD_REACTORS
330
5AC2
102
}
330
5AC2
100
AcDbXrecord
280
     1
102
MATERIAL
148
0.0
149
0.0
149
0.0
 93
        0
 94
      127
282
     0
 72
     0
 77
     0
171
     0
175
     0
179
     0
273
     0
  0
XRECORD
  5
5AC4
102
{ACAD_REACTORS
330
5AC2
102
}
330
5AC2
100
AcDbXrecord
280
     1
270
     1
271
     1
  0
XRECORD
  5
5AC3
102
{ACAD_REACTORS
330
5AC2
102
}
330
5AC2
100
AcDbXrecord
280
     1
270
     1
271
     1
  0
XRECORD
  5
5AC7
102
{ACAD_REACTORS
330
5AC2
102
}
330
5AC2
100
AcDbXrecord
280
     1
270
     1
271
     1
  0
XRECORD
  5
5AC6
102
{ACAD_REACTORS
330
5AC2
102
}
330
5AC2
100
AcDbXrecord
280
     1
270
     1
271
     1
  0
XRECORD
  5
5AC8
102
{ACAD_REACTORS
330
5AC2
102
}
330
5AC2
100
AcDbXrecord
280
     1
270
     1
271
     1
  0
XRECORD
  5
5AC5
102
{ACAD_REACTORS
330
5AC2
102
}
330
5AC2
100
AcDbXrecord
280
     1
270
     1
271
     1
  0
XRECORD
  5
6026
102
{ACAD_REACTORS
330
6025
102
}
330
6025
100
AcDbXrecord
280
     1
102
DISPLAYNAME
  1
Imperial24
102
FLAGS
 90
        0
  0
CELLSTYLEMAP
  5
6024
102
{ACAD_REACTORS
330
5FD2
102
}
330
5FD2
100
AcDbCellStyleMap
 90
        3
300
CELLSTYLE
  1
TABLEFORMAT_BEGIN
 90
        5
170
     1
 91
        0
 92
    32768
 62
   257
 93
        1
300
CONTENTFORMAT
  1
CONTENTFORMAT_BEGIN
 90
        0
 91
        0
 92
      512
 93
        0
300

 40
0.0
140
1.0
 94
        5
 62
     0
340
11
144
0.25
309
CONTENTFORMAT_END
171
     1
301
MARGIN
  1
CELLMARGIN_BEGIN
 40
0.06
 40
0.06
 40
0.06
 40
0.06
 40
0.18
 40
0.18
309
CELLMARGIN_END
 94
        6
 95
        1
302
GRIDFORMAT
  1
GRIDFORMAT_BEGIN
 90
        0
 91
        1
 62
     0
 92
       -2
340
0
 93
        0
 40
0.045
309
GRIDFORMAT_END
 95
        2
302
GRIDFORMAT
  1
GRIDFORMAT_BEGIN
 90
        0
 91
        1
 62
     0
 92
       -2
340
0
 93
        0
 40
0.045
309
GRIDFORMAT_END
 95
        4
302
GRIDFORMAT
  1
GRIDFORMAT_BEGIN
 90
        0
 91
        1
 62
     0
 92
       -2
340
0
 93
        0
 40
0.045
309
GRIDFORMAT_END
 95
        8
302
GRIDFORMAT
  1
GRIDFORMAT_BEGIN
 90
        0
 91
        1
 62
     0
 92
       -2
340
0
 93
        0
 40
0.045
309
GRIDFORMAT_END
 95
       16
302
GRIDFORMAT
  1
GRIDFORMAT_BEGIN
 90
        0
 91
        1
 62
     0
 92
       -2
340
0
 93
        0
 40
0.045
309
GRIDFORMAT_END
 95
       32
302
GRIDFORMAT
  1
GRIDFORMAT_BEGIN
 90
        0
 91
        1
 62
     0
 92
       -2
340
0
 93
        0
 40
0.045
309
GRIDFORMAT_END
309
TABLEFORMAT_END
  1
CELLSTYLE_BEGIN
 90
        1
 91
        1
300
_TITLE
309
CELLSTYLE_END
300
CELLSTYLE
  1
TABLEFORMAT_BEGIN
 90
        5
170
     1
 91
        0
 92
        0
 62
   257
 93
        1
300
CONTENTFORMAT
  1
CONTENTFORMAT_BEGIN
 90
        0
 91
        0
 92
      512
 93
        0
300

 40
0.0
140
1.0
 94
        5
 62
     0
340
11
144
0.18
309
CONTENTFORMAT_END
171
     1
301
MARGIN
  1
CELLMARGIN_BEGIN
 40
0.06
 40
0.06
 40
0.06
 40
0.06
 40
0.18
 40
0.18
309
CELLMARGIN_END
 94
        6
 95
        1
302
GRIDFORMAT
  1
GRIDFORMAT_BEGIN
 90
        0
 91
        1
 62
     0
 92
       -2
340
0
 93
        0
 40
0.045
309
GRIDFORMAT_END
 95
        2
302
GRIDFORMAT
  1
GRIDFORMAT_BEGIN
 90
        0
 91
        1
 62
     0
 92
       -2
340
0
 93
        0
 40
0.045
309
GRIDFORMAT_END
 95
        4
302
GRIDFORMAT
  1
GRIDFORMAT_BEGIN
 90
        0
 91
        1
 62
     0
 92
       -2
340
0
 93
        0
 40
0.045
309
GRIDFORMAT_END
 95
        8
302
GRIDFORMAT
  1
GRIDFORMAT_BEGIN
 90
        0
 91
        1
 62
     0
 92
       -2
340
0
 93
        0
 40
0.045
309
GRIDFORMAT_END
 95
       16
302
GRIDFORMAT
  1
GRIDFORMAT_BEGIN
 90
        0
 91
        1
 62
     0
 92
       -2
340
0
 93
        0
 40
0.045
309
GRIDFORMAT_END
 95
       32
302
GRIDFORMAT
  1
GRIDFORMAT_BEGIN
 90
        0
 91
        1
 62
     0
 92
       -2
340
0
 93
        0
 40
0.045
309
GRIDFORMAT_END
309
TABLEFORMAT_END
  1
CELLSTYLE_BEGIN
 90
        2
 91
        1
300
_HEADER
309
CELLSTYLE_END
300
CELLSTYLE
  1
TABLEFORMAT_BEGIN
 90
        5
170
     1
 91
        0
 92
        0
 62
   257
 93
        1
300
CONTENTFORMAT
  1
CONTENTFORMAT_BEGIN
 90
        0
 91
        0
 92
      512
 93
        0
300

 40
0.0
140
1.0
 94
        2
 62
     0
340
11
144
0.18
309
CONTENTFORMAT_END
171
     1
301
MARGIN
  1
CELLMARGIN_BEGIN
 40
0.06
 40
0.06
 40
0.06
 40
0.06
 40
0.18
 40
0.18
309
CELLMARGIN_END
 94
        6
 95
        1
302
GRIDFORMAT
  1
GRIDFORMAT_BEGIN
 90
        0
 91
        1
 62
     0
 92
       -2
340
0
 93
        0
 40
0.045
309
GRIDFORMAT_END
 95
        2
302
GRIDFORMAT
  1
GRIDFORMAT_BEGIN
 90
        0
 91
        1
 62
     0
 92
       -2
340
0
 93
        0
 40
0.045
309
GRIDFORMAT_END
 95
        4
302
GRIDFORMAT
  1
GRIDFORMAT_BEGIN
 90
        0
 91
        1
 62
     0
 92
       -2
340
0
 93
        0
 40
0.045
309
GRIDFORMAT_END
 95
        8
302
GRIDFORMAT
  1
GRIDFORMAT_BEGIN
 90
        0
 91
        1
 62
     0
 92
       -2
340
0
 93
        0
 40
0.045
309
GRIDFORMAT_END
 95
       16
302
GRIDFORMAT
  1
GRIDFORMAT_BEGIN
 90
        0
 91
        1
 62
     0
 92
       -2
340
0
 93
        0
 40
0.045
309
GRIDFORMAT_END
 95
       32
302
GRIDFORMAT
  1
GRIDFORMAT_BEGIN
 90
        0
 91
        1
 62
     0
 92
       -2
340
0
 93
        0
 40
0.045
309
GRIDFORMAT_END
309
TABLEFORMAT_END
  1
CELLSTYLE_BEGIN
 90
        3
 91
        2
300
_DATA
309
CELLSTYLE_END
  0
ENDSEC
  0
EOF
