  0
SECTION
  2
HEADER
  9
$ACADVER
  1
AC1027
  9
$ACADMAINTVER
 70
    55
  9
$DWGCODEPAGE
  3
ANSI_932
  9
$LASTSAVEDBY
  1
marketing
  9
$REQUIREDVERSIONS
160
                 0
  9
$INSBASE
 10
0.0
 20
0.0
 30
0.0
  9
$EXTMIN
 10
-100.0312573673366
 20
-404.0873372119624
 30
-0.0015258207003583
  9
$EXTMAX
 10
488.2786963905973
 20
373.3375984878953
 30
0.0000000349246037
  9
$LIMMIN
 10
-296.316999476111
 20
-370.7034300441653
  9
$LIMMAX
 10
623.3128432133979
 20
328.6261559379898
  9
$ORTHOMODE
 70
     0
  9
$REGENMODE
 70
     1
  9
$FILLMODE
 70
     1
  9
$QTEXTMODE
 70
     0
  9
$MIRRTEXT
 70
     1
  9
$LTSCALE
 40
10.0
  9
$ATTMODE
 70
     1
  9
$TEXTSIZE
 40
5.0
  9
$TRACEWID
 40
0.05
  9
$TEXTSTYLE
  7
STANDARD1
  9
$CLAYER
  8
30
  9
$CELTYPE
  6
CONTINUOUS
  9
$CECOLOR
 62
   256
  9
$CELTSCALE
 40
1.0
  9
$DISPSILH
 70
     0
  9
$DIMSCALE
 40
1.0
  9
$DIMASZ
 40
2.0
  9
$DIMEXO
 40
1.0
  9
$DIMDLI
 40
0.5
  9
$DIMRND
 40
0.0
  9
$DIMDLE
 40
0.0
  9
$DIMEXE
 40
0.5
  9
$DIMTP
 40
0.0
  9
$DIMTM
 40
0.0
  9
$DIMTXT
 40
4.0
  9
$DIMCEN
 40
0.09
  9
$DIMTSZ
 40
0.0
  9
$DIMTOL
 70
     0
  9
$DIMLIM
 70
     0
  9
$DIMTIH
 70
     0
  9
$DIMTOH
 70
     1
  9
$DIMSE1
 70
     0
  9
$DIMSE2
 70
     0
  9
$DIMTAD
 70
     3
  9
$DIMZIN
 70
    12
  9
$DIMBLK
  1
OPEN
  9
$DIMASO
 70
     1
  9
$DIMSHO
 70
     1
  9
$DIMPOST
  1

  9
$DIMAPOST
  1

  9
$DIMALT
 70
     0
  9
$DIMALTD
 70
     2
  9
$DIMALTF
 40
25.4
  9
$DIMLFAC
 40
1.0
  9
$DIMTOFL
 70
     0
  9
$DIMTVP
 40
0.0
  9
$DIMTIX
 70
     0
  9
$DIMSOXD
 70
     0
  9
$DIMSAH
 70
     0
  9
$DIMBLK1
  1

  9
$DIMBLK2
  1

  9
$DIMSTYLE
  2
STANDARD
  9
$DIMCLRD
 70
     0
  9
$DIMCLRE
 70
     0
  9
$DIMCLRT
 70
     0
  9
$DIMTFAC
 40
1.0
  9
$DIMGAP
 40
1.0
  9
$DIMJUST
 70
     0
  9
$DIMSD1
 70
     0
  9
$DIMSD2
 70
     0
  9
$DIMTOLJ
 70
     1
  9
$DIMTZIN
 70
     0
  9
$DIMALTZ
 70
     0
  9
$DIMALTTZ
 70
     0
  9
$DIMUPT
 70
     0
  9
$DIMDEC
 70
     1
  9
$DIMTDEC
 70
     1
  9
$DIMALTU
 70
     2
  9
$DIMALTTD
 70
     2
  9
$DIMTXSTY
  7
STANDARD
  9
$DIMAUNIT
 70
     0
  9
$DIMADEC
 70
     0
  9
$DIMALTRND
 40
0.0
  9
$DIMAZIN
 70
     3
  9
$DIMDSEP
 70
    46
  9
$DIMATFIT
 70
     3
  9
$DIMFRAC
 70
     0
  9
$DIMLDRBLK
  1
OPEN
  9
$DIMLUNIT
 70
     2
  9
$DIMLWD
 70
    -2
  9
$DIMLWE
 70
    -2
  9
$DIMTMOVE
 70
     0
  9
$DIMFXL
 40
1.0
  9
$DIMFXLON
 70
     0
  9
$DIMJOGANG
 40
0.7853981633974483
  9
$DIMTFILL
 70
     0
  9
$DIMTFILLCLR
 70
     0
  9
$DIMARCSYM
 70
     0
  9
$DIMLTYPE
  6

  9
$DIMLTEX1
  6

  9
$DIMLTEX2
  6

  9
$DIMTXTDIRECTION
 70
     0
  9
$LUNITS
 70
     2
  9
$LUPREC
 70
     4
  9
$SKETCHINC
 40
0.1
  9
$FILLETRAD
 40
0.0
  9
$AUNITS
 70
     0
  9
$AUPREC
 70
     0
  9
$MENU
  1
.
  9
$ELEVATION
 40
0.0
  9
$PELEVATION
 40
0.0
  9
$THICKNESS
 40
0.0
  9
$LIMCHECK
 70
     0
  9
$CHAMFERA
 40
0.0
  9
$CHAMFERB
 40
0.0
  9
$CHAMFERC
 40
0.0
  9
$CHAMFERD
 40
0.0
  9
$SKPOLY
 70
     0
  9
$TDCREATE
 40
2452286.555658658
  9
$TDUCREATE
 40
2452286.180658658
  9
$TDUPDATE
 40
2459278.602534630
  9
$TDUUPDATE
 40
2459278.227534630
  9
$TDINDWG
 40
1.1585898843
  9
$TDUSRTIMER
 40
1.1585891435
  9
$USRTIMER
 70
     1
  9
$ANGBASE
 50
0.0
  9
$ANGDIR
 70
     0
  9
$PDMODE
 70
     0
  9
$PDSIZE
 40
0.0
  9
$PLINEWID
 40
0.0
  9
$SPLFRAME
 70
     0
  9
$SPLINETYPE
 70
     6
  9
$SPLINESEGS
 70
     8
  9
$HANDSEED
  5
5E2A
  9
$SURFTAB1
 70
     6
  9
$SURFTAB2
 70
     6
  9
$SURFTYPE
 70
     6
  9
$SURFU
 70
     6
  9
$SURFV
 70
     6
  9
$UCSBASE
  2

  9
$UCSNAME
  2

  9
$UCSORG
 10
0.0
 20
0.0
 30
0.0
  9
$UCSXDIR
 10
1.0
 20
0.0
 30
0.0
  9
$UCSYDIR
 10
0.0
 20
1.0
 30
0.0
  9
$UCSORTHOREF
  2

  9
$UCSORTHOVIEW
 70
     0
  9
$UCSORGTOP
 10
0.0
 20
0.0
 30
0.0
  9
$UCSORGBOTTOM
 10
0.0
 20
0.0
 30
0.0
  9
$UCSORGLEFT
 10
0.0
 20
0.0
 30
0.0
  9
$UCSORGRIGHT
 10
0.0
 20
0.0
 30
0.0
  9
$UCSORGFRONT
 10
0.0
 20
0.0
 30
0.0
  9
$UCSORGBACK
 10
0.0
 20
0.0
 30
0.0
  9
$PUCSBASE
  2

  9
$PUCSNAME
  2

  9
$PUCSORG
 10
0.0
 20
0.0
 30
0.0
  9
$PUCSXDIR
 10
1.0
 20
0.0
 30
0.0
  9
$PUCSYDIR
 10
0.0
 20
1.0
 30
0.0
  9
$PUCSORTHOREF
  2

  9
$PUCSORTHOVIEW
 70
     0
  9
$PUCSORGTOP
 10
0.0
 20
0.0
 30
0.0
  9
$PUCSORGBOTTOM
 10
0.0
 20
0.0
 30
0.0
  9
$PUCSORGLEFT
 10
0.0
 20
0.0
 30
0.0
  9
$PUCSORGRIGHT
 10
0.0
 20
0.0
 30
0.0
  9
$PUCSORGFRONT
 10
0.0
 20
0.0
 30
0.0
  9
$PUCSORGBACK
 10
0.0
 20
0.0
 30
0.0
  9
$USERI1
 70
     0
  9
$USERI2
 70
     0
  9
$USERI3
 70
     0
  9
$USERI4
 70
     0
  9
$USERI5
 70
     0
  9
$USERR1
 40
0.0
  9
$USERR2
 40
0.0
  9
$USERR3
 40
0.0
  9
$USERR4
 40
0.0
  9
$USERR5
 40
0.0
  9
$WORLDVIEW
 70
     1
  9
$SHADEDGE
 70
     3
  9
$SHADEDIF
 70
    70
  9
$TILEMODE
 70
     1
  9
$MAXACTVP
 70
    48
  9
$PINSBASE
 10
0.0
 20
0.0
 30
0.0
  9
$PLIMCHECK
 70
     0
  9
$PEXTMIN
 10
4.273573
 20
5.205245999999998
 30
0.0
  9
$PEXTMAX
 10
194.610095
 20
283.0697009999996
 30
0.0
  9
$PLIMMIN
 10
-5.873749
 20
-5.87375
  9
$PLIMMAX
 10
204.099579
 20
291.1369009999999
  9
$UNITMODE
 70
     0
  9
$VISRETAIN
 70
     1
  9
$PLINEGEN
 70
     0
  9
$PSLTSCALE
 70
     1
  9
$TREEDEPTH
 70
  3020
  9
$CMLSTYLE
  2
STANDARD
  9
$CMLJUST
 70
     0
  9
$CMLSCALE
 40
1.0
  9
$PROXYGRAPHICS
 70
     1
  9
$MEASUREMENT
 70
     0
  9
$CELWEIGHT
370
    -1
  9
$ENDCAPS
280
     0
  9
$JOINSTYLE
280
     0
  9
$LWDISPLAY
290
     0
  9
$INSUNITS
 70
     0
  9
$HYPERLINKBASE
  1

  9
$STYLESHEET
  1
KIKI.CTB
  9
$XEDIT
290
     1
  9
$CEPSNTYPE
380
     0
  9
$PSTYLEMODE
290
     1
  9
$FINGERPRINTGUID
  2

  9
$VERSIONGUID
  2
{E5DEC3D9-A8B4-4E39-9CBF-A8906F0BDD56}
  9
$EXTNAMES
290
     1
  9
$PSVPSCALE
 40
0.0
  9
$OLESTARTUP
290
     0
  9
$SORTENTS
280
   127
  9
$INDEXCTL
280
     0
  9
$HIDETEXT
280
     0
  9
$XCLIPFRAME
280
     2
  9
$HALOGAP
280
     0
  9
$OBSCOLOR
 70
   257
  9
$OBSLTYPE
280
     0
  9
$INTERSECTIONDISPLAY
280
     0
  9
$INTERSECTIONCOLOR
 70
   257
  9
$DIMASSOC
280
     1
  9
$PROJECTNAME
  1

  9
$CAMERADISPLAY
290
     0
  9
$LENSLENGTH
 40
50.0
  9
$CAMERAHEIGHT
 40
0.0
  9
$STEPSPERSEC
 40
2.0
  9
$STEPSIZE
 40
6.0
  9
$3DDWFPREC
 40
2.0
  9
$PSOLWIDTH
 40
0.25
  9
$PSOLHEIGHT
 40
4.0
  9
$LOFTANG1
 40
1.570796326794896
  9
$LOFTANG2
 40
1.570796326794896
  9
$LOFTMAG1
 40
0.0
  9
$LOFTMAG2
 40
0.0
  9
$LOFTPARAM
 70
     7
  9
$LOFTNORMALS
280
     1
  9
$LATITUDE
 40
37.795
  9
$LONGITUDE
 40
-122.394
  9
$NORTHDIRECTION
 40
0.0
  9
$TIMEZONE
 70
 -8000
  9
$LIGHTGLYPHDISPLAY
280
     1
  9
$TILEMODELIGHTSYNCH
280
     1
  9
$CMATERIAL
347
5993
  9
$SOLIDHIST
280
     0
  9
$SHOWHIST
280
     1
  9
$DWFFRAME
280
     2
  9
$DGNFRAME
280
     0
  9
$REALWORLDSCALE
290
     1
  9
$INTERFERECOLOR
 62
     1
  9
$INTERFEREOBJVS
345
59B5
  9
$INTERFEREVPVS
346
59B2
  9
$CSHADOW
280
     0
  9
$SHADOWPLANELOCATION
 40
0.0
  0
ENDSEC
  0
SECTION
  2
CLASSES
  0
CLASS
  1
ACDBDICTIONARYWDFLT
  2
AcDbDictionaryWithDefault
  3
ObjectDBX Classes
 90
        0
 91
        1
280
     0
281
     0
  0
CLASS
  1
DICTIONARYVAR
  2
AcDbDictionaryVar
  3
ObjectDBX Classes
 90
        0
 91
       13
280
     0
281
     0
  0
CLASS
  1
MATERIAL
  2
AcDbMaterial
  3
ObjectDBX Classes
 90
     1153
 91
        3
280
     0
281
     0
  0
CLASS
  1
VISUALSTYLE
  2
AcDbVisualStyle
  3
ObjectDBX Classes
 90
     4095
 91
       24
280
     0
281
     0
  0
CLASS
  1
TABLESTYLE
  2
AcDbTableStyle
  3
ObjectDBX Classes
 90
     4095
 91
        1
280
     0
281
     0
  0
CLASS
  1
SCALE
  2
AcDbScale
  3
ObjectDBX Classes
 90
     1153
 91
       17
280
     0
281
     0
  0
CLASS
  1
MLEADERSTYLE
  2
AcDbMLeaderStyle
  3
ACDB_MLEADERSTYLE_CLASS
 90
     4095
 91
        1
280
     0
281
     0
  0
CLASS
  1
ACDBSECTIONVIEWSTYLE
  2
AcDbSectionViewStyle
  3
ObjectDBX Classes
 90
     1025
 91
        1
280
     0
281
     0
  0
CLASS
  1
ACDBDETAILVIEWSTYLE
  2
AcDbDetailViewStyle
  3
ObjectDBX Classes
 90
     1025
 91
        1
280
     0
281
     0
  0
CLASS
  1
CELLSTYLEMAP
  2
AcDbCellStyleMap
  3
ObjectDBX Classes
 90
     1152
 91
        2
280
     0
281
     0
  0
ENDSEC
  0
SECTION
  2
TABLES
  0
TABLE
  2
VPORT
  5
8
330
0
100
AcDbSymbolTable
 70
     1
  0
VPORT
  5
596A
330
8
100
AcDbSymbolTableRecord
100
AcDbViewportTableRecord
  2
*Active
 70
     0
 10
0.0
 20
0.0
 11
1.0
 21
1.0
 12
194.1237195116304
 22
-15.37486936203356
 13
0.0
 23
0.0
 14
1.0
 24
1.0
 15
10.0
 25
10.0
 16
0.0
 26
0.0
 36
1.0
 17
0.0
 27
0.0
 37
0.0
 40
783.0448749940735
 41
2.289505428226779
 42
50.0
 43
0.0
 44
0.0
 50
0.0
 51
0.0
 71
     0
 72
   100
 73
     1
 74
     1
 75
     0
 76
     0
 77
     0
 78
     0
281
     0
 65
     1
110
0.0
120
0.0
130
0.0
111
1.0
121
0.0
131
0.0
112
0.0
122
1.0
132
0.0
 79
     0
146
0.0
348
59B1
 60
     3
 61
     5
292
     1
282
     1
141
0.0
142
0.0
 63
   250
421
  3355443
1001
ACAD_NAV_VCDISPLAY
1070
     3
  0
ENDTAB
  0
TABLE
  2
LTYPE
  5
5
330
0
100
AcDbSymbolTable
 70
     7
  0
LTYPE
  5
13
330
5
100
AcDbSymbolTableRecord
100
AcDbLinetypeTableRecord
  2
BYBLOCK
 70
     0
  3

 72
    65
 73
     0
 40
0.0
  0
LTYPE
  5
14
330
5
100
AcDbSymbolTableRecord
100
AcDbLinetypeTableRecord
  2
BYLAYER
 70
     0
  3

 72
    65
 73
     0
 40
0.0
  0
LTYPE
  5
15
330
5
100
AcDbSymbolTableRecord
100
AcDbLinetypeTableRecord
  2
CONTINUOUS
 70
     0
  3
Solid line
 72
    65
 73
     0
 40
0.0
  0
LTYPE
  5
22
330
5
100
AcDbSymbolTableRecord
100
AcDbLinetypeTableRecord
  2
CONTINOUS
 70
     0
  3
Solid line
 72
    65
 73
     0
 40
0.0
  0
LTYPE
  5
23
330
5
100
AcDbSymbolTableRecord
100
AcDbLinetypeTableRecord
  2
DASHED
 70
     0
  3
__ __ __ __ __ __ __ __ __ __ __ __ __ __ __
 72
    65
 73
     2
 40
0.75
 49
0.5
 74
     0
 49
-0.25
 74
     0
  0
LTYPE
  5
24
330
5
100
AcDbSymbolTableRecord
100
AcDbLinetypeTableRecord
  2
DASHDOT
 70
     0
  3
__ . __ . __ . __ . __ . __ . __ . __ . __ . __
 72
    65
 73
     4
 40
1.0
 49
0.5
 74
     0
 49
-0.25
 74
     0
 49
0.0
 74
     0
 49
-0.25
 74
     0
  0
LTYPE
  5
4C47
330
5
100
AcDbSymbolTableRecord
100
AcDbLinetypeTableRecord
  2
DIVIDE
 70
     0
  3
Divide ____ . . ____ . . ____ . . ____ . . ____
 72
    65
 73
     6
 40
1.25
 49
0.5
 74
     0
 49
-0.25
 74
     0
 49
0.0
 74
     0
 49
-0.25
 74
     0
 49
0.0
 74
     0
 49
-0.25
 74
     0
  0
LTYPE
  5
5115
330
5
100
AcDbSymbolTableRecord
100
AcDbLinetypeTableRecord
  2
PHANTOM
 70
     0
  3
_____ _ _ _____ _ _ _____ _ _ _____ _ _ ____
 72
    65
 73
     6
 40
2.5
 49
1.25
 74
     0
 49
-0.25
 74
     0
 49
0.25
 74
     0
 49
-0.25
 74
     0
 49
0.25
 74
     0
 49
-0.25
 74
     0
  0
ENDTAB
  0
TABLE
  2
LAYER
  5
2
330
0
100
AcDbSymbolTable
 70
    13
  0
LAYER
  5
10
102
{ACAD_XDICTIONARY
360
5DB2
102
}
330
2
100
AcDbSymbolTableRecord
100
AcDbLayerTableRecord
  2
0
 70
     0
 62
     7
  6
CONTINOUS
370
    -3
390
F
347
59A3
348
0
  0
LAYER
  5
2F
102
{ACAD_XDICTIONARY
360
5DB4
102
}
330
2
100
AcDbSymbolTableRecord
100
AcDbLayerTableRecord
  2
10
 70
     0
 62
     4
  6
CONTINOUS
370
    -3
390
F
347
59A3
348
0
  0
LAYER
  5
31
102
{ACAD_XDICTIONARY
360
5DB6
102
}
330
2
100
AcDbSymbolTableRecord
100
AcDbLayerTableRecord
  2
12
 70
     0
 62
     3
  6
CONTINOUS
370
    -3
390
F
347
59A3
348
0
  0
LAYER
  5
35
102
{ACAD_XDICTIONARY
360
5DB8
102
}
330
2
100
AcDbSymbolTableRecord
100
AcDbLayerTableRecord
  2
16
 70
     0
 62
     6
  6
DASHDOT
370
    -3
390
F
347
59A3
348
0
  0
LAYER
  5
38
102
{ACAD_XDICTIONARY
360
5DBA
102
}
330
2
100
AcDbSymbolTableRecord
100
AcDbLayerTableRecord
  2
19
 70
     0
 62
     7
  6
CONTINOUS
370
    -3
390
F
347
59A3
348
0
  0
LAYER
  5
3C
102
{ACAD_XDICTIONARY
360
5DBC
102
}
330
2
100
AcDbSymbolTableRecord
100
AcDbLayerTableRecord
  2
11
 70
     0
 62
     1
  6
CONTINOUS
370
    -3
390
F
347
59A3
348
0
  0
LAYER
  5
3D
102
{ACAD_XDICTIONARY
360
5DBE
102
}
330
2
100
AcDbSymbolTableRecord
100
AcDbLayerTableRecord
  2
24
 70
     0
 62
     2
  6
CONTINOUS
370
    -3
390
F
347
59A3
348
0
  0
LAYER
  5
3A2
102
{ACAD_XDICTIONARY
360
5DC0
102
}
330
2
100
AcDbSymbolTableRecord
100
AcDbLayerTableRecord
  2
30
 70
     0
 62
     9
  6
CONTINUOUS
370
    -3
390
F
347
59A3
348
0
  0
LAYER
  5
3A4
330
2
100
AcDbSymbolTableRecord
100
AcDbLayerTableRecord
  2
DEFPOINTS
 70
     0
 62
     7
  6
CONTINUOUS
290
     0
370
    -3
390
F
347
59A3
348
0
  0
LAYER
  5
3BBA
102
{ACAD_XDICTIONARY
360
5DC2
102
}
330
2
100
AcDbSymbolTableRecord
100
AcDbLayerTableRecord
  2
18
 70
     0
 62
     5
  6
DIVIDE
370
    -3
390
F
347
59A3
348
0
  0
LAYER
  5
3BBB
102
{ACAD_XDICTIONARY
360
5DC4
102
}
330
2
100
AcDbSymbolTableRecord
100
AcDbLayerTableRecord
  2
21
 70
     0
 62
     7
  6
CONTINUOUS
370
    -3
390
F
347
59A3
348
0
  0
LAYER
  5
5116
102
{ACAD_XDICTIONARY
360
5DC6
102
}
330
2
100
AcDbSymbolTableRecord
100
AcDbLayerTableRecord
  2
1
 70
     0
 62
     7
  6
CONTINUOUS
370
    -3
390
F
347
59A3
348
0
  0
LAYER
  5
5117
102
{ACAD_XDICTIONARY
360
5DC8
102
}
330
2
100
AcDbSymbolTableRecord
100
AcDbLayerTableRecord
  2
TOP
 70
     0
 62
     7
  6
CONTINUOUS
370
    -3
390
F
347
59A3
348
0
  0
ENDTAB
  0
TABLE
  2
STYLE
  5
3
330
0
100
AcDbSymbolTable
 70
     3
  0
STYLE
  5
11
330
3
100
AcDbSymbolTableRecord
100
AcDbTextStyleTableRecord
  2
STANDARD
 70
     0
 40
0.0
 41
1.0
 50
0.0
 71
     0
 42
2.0
  3
txt.shx
  4
bigfont.shx
  0
STYLE
  5
42
330
3
100
AcDbSymbolTableRecord
100
AcDbTextStyleTableRecord
  2
STANDARD1
 70
     0
 40
0.0
 41
1.0
 50
0.0
 71
     0
 42
5.0
  3
MONOTXT
  4
BIGFONT
  0
STYLE
  5
5016
330
3
100
AcDbSymbolTableRecord
100
AcDbTextStyleTableRecord
  2
UGMTXT
 70
     0
 40
0.0
 41
1.0
 50
0.0
 71
     0
 42
0.2
  3
ugmtxt
  4
bigfont
  0
ENDTAB
  0
TABLE
  2
VIEW
  5
6
330
0
100
AcDbSymbolTable
 70
     3
  0
VIEW
  5
230C
330
6
100
AcDbSymbolTableRecord
100
AcDbViewTableRecord
  2
OLE1
 70
     0
 40
148.912488
 10
429.497628
 20
2.560627
 41
103.145806
 11
0.0
 21
0.0
 31
1.0
 12
0.0
 22
0.0
 32
0.0
 42
50.0
 43
0.0
 44
0.0
 50
0.0
 71
     0
281
     0
 72
     0
 73
     0
348
59B1
  0
VIEW
  5
230E
330
6
100
AcDbSymbolTableRecord
100
AcDbViewTableRecord
  2
OLE2
 70
     0
 40
170.778692
 10
322.66497
 20
-5.978304
 41
102.467215
 11
0.0
 21
0.0
 31
1.0
 12
0.0
 22
0.0
 32
0.0
 42
50.0
 43
0.0
 44
0.0
 50
0.0
 71
     0
281
     0
 72
     0
 73
     0
348
59B1
  0
VIEW
  5
23AA
330
6
100
AcDbSymbolTableRecord
100
AcDbViewTableRecord
  2
OLE3
 70
     0
 40
591.7897389999998
 10
84.79698199999999
 20
-46.09335999999998
 41
388.792096
 11
0.0
 21
0.0
 31
1.0
 12
0.0
 22
0.0
 32
0.0
 42
50.0
 43
0.0
 44
0.0
 50
0.0
 71
     0
281
     0
 72
     0
 73
     0
348
59B1
  0
ENDTAB
  0
TABLE
  2
UCS
  5
7
330
0
100
AcDbSymbolTable
 70
     0
  0
ENDTAB
  0
TABLE
  2
APPID
  5
9
330
0
100
AcDbSymbolTable
 70
     5
  0
APPID
  5
12
330
9
100
AcDbSymbolTableRecord
100
AcDbRegAppTableRecord
  2
ACAD
 70
     0
  0
APPID
  5
ECD
330
9
100
AcDbSymbolTableRecord
100
AcDbRegAppTableRecord
  2
CONTENTBLOCKICON
 70
     0
  0
APPID
  5
59E2
330
9
100
AcDbSymbolTableRecord
100
AcDbRegAppTableRecord
  2
ACAD_EXEMPT_FROM_CAD_STANDARDS
 70
     0
  0
APPID
  5
5A6E
330
9
100
AcDbSymbolTableRecord
100
AcDbRegAppTableRecord
  2
ACAD_NAV_VCDISPLAY
 70
     0
  0
APPID
  5
5E12
330
9
100
AcDbSymbolTableRecord
100
AcDbRegAppTableRecord
  2
ACAD_MLEADERVER
 70
     0
  0
ENDTAB
  0
TABLE
  2
DIMSTYLE
  5
A
330
0
100
AcDbSymbolTable
 70
     1
100
AcDbDimStyleTable
 71
     1
340
175
  0
DIMSTYLE
105
175
102
{ACAD_REACTORS
330
5476
330
53E3
330
53E2
330
54D8
330
5923
330
5AFB
330
5B07
330
5B08
330
5B0A
330
5B0E
330
5B1A
330
5B1B
330
5B29
330
5B3D
330
5B41
330
5D77
330
5D78
102
}
330
A
100
AcDbSymbolTableRecord
100
AcDbDimStyleTableRecord
  2
STANDARD
 70
     0
 41
2.0
 42
1.0
 43
0.5
 44
0.5
 73
     0
 77
     3
 78
    12
140
4.0
147
1.0
271
     1
272
     1
340
11
341
3B2
342
3B2
  0
ENDTAB
  0
TABLE
  2
BLOCK_RECORD
  5
1
330
0
100
AcDbSymbolTable
 70
    60
  0
BLOCK_RECORD
  5
1E
102
{ACAD_XDICTIONARY
360
178
102
}
330
1
100
AcDbSymbolTableRecord
100
AcDbBlockTableRecord
  2
*MODEL_SPACE
340
595C
 70
     0
280
     1
281
     0
  0
BLOCK_RECORD
  5
1A
102
{ACAD_XDICTIONARY
360
17A
102
}
330
1
100
AcDbSymbolTableRecord
100
AcDbBlockTableRecord
  2
*PAPER_SPACE
340
595D
 70
     0
280
     1
281
     0
  0
BLOCK_RECORD
  5
3B2
330
1
100
AcDbSymbolTableRecord
100
AcDbBlockTableRecord
  2
_OPEN
340
0
102
{BLKREFS
331
5A68
331
5C50
331
5C51
331
5C61
331
5C62
331
5C6E
331
5C6F
331
5C7A
331
5C7B
331
5C86
331
5C87
331
5A5B
331
5A5C
331
5D95
331
5D96
331
5D9E
331
5D9F
331
5BFD
331
5BFE
331
5C06
331
5C07
331
5C0F
331
5C10
331
5C18
331
5C19
331
5C21
331
5C22
331
5C2A
331
5C2B
331
5C33
331
5C34
331
5C3C
331
5C3D
331
5C47
331
5C48
331
5720
331
5721
331
570F
331
5833
331
5834
331
5928
331
5929
331
5A67
331
59F9
331
59FA
331
5A05
331
5A06
331
5A11
331
5A12
331
5A1D
331
5A1E
331
5A29
331
5A2A
331
5A35
331
5A36
331
5A41
331
5A42
331
5A4D
331
5A4E
331
582A
331
582B
331
5845
331
5846
331
584E
331
584F
331
583C
331
583D
331
5857
331
5858
331
5869
331
586A
331
5860
331
5861
331
5872
331
5873
331
587D
331
587E
331
5743
331
5744
331
573A
331
573B
331
5731
331
5732
331
5728
331
5729
102
}
 70
     0
280
     1
281
     0
  0
BLOCK_RECORD
  5
506F
330
1
100
AcDbSymbolTableRecord
100
AcDbBlockTableRecord
  2
*U1
340
0
 70
     0
280
     1
281
     0
  0
BLOCK_RECORD
  5
5078
330
1
100
AcDbSymbolTableRecord
100
AcDbBlockTableRecord
  2
*U2
340
0
 70
     0
280
     1
281
     0
  0
BLOCK_RECORD
  5
507D
330
1
100
AcDbSymbolTableRecord
100
AcDbBlockTableRecord
  2
*U3
340
0
 70
     0
280
     1
281
     0
  0
BLOCK_RECORD
  5
5085
330
1
100
AcDbSymbolTableRecord
100
AcDbBlockTableRecord
  2
*U4
340
0
 70
     0
280
     1
281
     0
  0
BLOCK_RECORD
  5
508C
330
1
100
AcDbSymbolTableRecord
100
AcDbBlockTableRecord
  2
*U5
340
0
 70
     0
280
     1
281
     0
  0
BLOCK_RECORD
  5
5093
330
1
100
AcDbSymbolTableRecord
100
AcDbBlockTableRecord
  2
*D6
340
0
 70
     0
280
     1
281
     0
  0
BLOCK_RECORD
  5
50A0
330
1
100
AcDbSymbolTableRecord
100
AcDbBlockTableRecord
  2
*D7
340
0
 70
     0
280
     1
281
     0
  0
BLOCK_RECORD
  5
50AD
330
1
100
AcDbSymbolTableRecord
100
AcDbBlockTableRecord
  2
*D8
340
0
 70
     0
280
     1
281
     0
  0
BLOCK_RECORD
  5
50BA
330
1
100
AcDbSymbolTableRecord
100
AcDbBlockTableRecord
  2
*D9
340
0
 70
     0
280
     1
281
     0
  0
BLOCK_RECORD
  5
50C7
330
1
100
AcDbSymbolTableRecord
100
AcDbBlockTableRecord
  2
*D10
340
0
 70
     0
280
     1
281
     0
  0
BLOCK_RECORD
  5
50D4
330
1
100
AcDbSymbolTableRecord
100
AcDbBlockTableRecord
  2
*D11
340
0
 70
     0
280
     1
281
     0
  0
BLOCK_RECORD
  5
50E1
330
1
100
AcDbSymbolTableRecord
100
AcDbBlockTableRecord
  2
*D12
340
0
 70
     0
280
     1
281
     0
  0
BLOCK_RECORD
  5
50EE
330
1
100
AcDbSymbolTableRecord
100
AcDbBlockTableRecord
  2
*D13
340
0
 70
     0
280
     1
281
     0
  0
BLOCK_RECORD
  5
50FB
330
1
100
AcDbSymbolTableRecord
100
AcDbBlockTableRecord
  2
*D14
340
0
 70
     0
280
     1
281
     0
  0
BLOCK_RECORD
  5
5108
330
1
100
AcDbSymbolTableRecord
100
AcDbBlockTableRecord
  2
*D15
340
0
 70
     0
280
     1
281
     0
  0
BLOCK_RECORD
  5
5209
330
1
100
AcDbSymbolTableRecord
100
AcDbBlockTableRecord
  2
*D16
340
0
 70
     0
280
     1
281
     0
  0
BLOCK_RECORD
  5
5221
330
1
100
AcDbSymbolTableRecord
100
AcDbBlockTableRecord
  2
*D17
340
0
 70
     0
280
     1
281
     0
  0
BLOCK_RECORD
  5
522D
330
1
100
AcDbSymbolTableRecord
100
AcDbBlockTableRecord
  2
*D18
340
0
 70
     0
280
     1
281
     0
  0
BLOCK_RECORD
  5
5239
330
1
100
AcDbSymbolTableRecord
100
AcDbBlockTableRecord
  2
*D19
340
0
 70
     0
280
     1
281
     0
  0
BLOCK_RECORD
  5
5245
330
1
100
AcDbSymbolTableRecord
100
AcDbBlockTableRecord
  2
*D20
340
0
 70
     0
280
     1
281
     0
  0
BLOCK_RECORD
  5
5251
330
1
100
AcDbSymbolTableRecord
100
AcDbBlockTableRecord
  2
*D21
340
0
 70
     0
280
     1
281
     0
  0
BLOCK_RECORD
  5
525D
330
1
100
AcDbSymbolTableRecord
100
AcDbBlockTableRecord
  2
*D22
340
0
 70
     0
280
     1
281
     0
  0
BLOCK_RECORD
  5
5269
330
1
100
AcDbSymbolTableRecord
100
AcDbBlockTableRecord
  2
*D23
340
0
 70
     0
280
     1
281
     0
  0
BLOCK_RECORD
  5
5275
330
1
100
AcDbSymbolTableRecord
100
AcDbBlockTableRecord
  2
*D24
340
0
 70
     0
280
     1
281
     0
  0
BLOCK_RECORD
  5
5407
330
1
100
AcDbSymbolTableRecord
100
AcDbBlockTableRecord
  2
*D25
340
0
 70
     0
280
     1
281
     0
  0
BLOCK_RECORD
  5
5413
330
1
100
AcDbSymbolTableRecord
100
AcDbBlockTableRecord
  2
*D26
340
0
 70
     0
280
     1
281
     0
  0
BLOCK_RECORD
  5
5432
330
1
100
AcDbSymbolTableRecord
100
AcDbBlockTableRecord
  2
*D27
340
0
 70
     0
280
     1
281
     0
  0
BLOCK_RECORD
  5
543F
330
1
100
AcDbSymbolTableRecord
100
AcDbBlockTableRecord
  2
*D28
340
0
 70
     0
280
     1
281
     0
  0
BLOCK_RECORD
  5
5477
330
1
100
AcDbSymbolTableRecord
100
AcDbBlockTableRecord
  2
*D29
340
0
 70
     0
280
     1
281
     0
  0
BLOCK_RECORD
  5
54D9
330
1
100
AcDbSymbolTableRecord
100
AcDbBlockTableRecord
  2
*D30
340
0
 70
     0
280
     1
281
     0
  0
BLOCK_RECORD
  5
55FF
330
1
100
AcDbSymbolTableRecord
100
AcDbBlockTableRecord
  2
*D31
340
0
 70
     0
280
     1
281
     0
  0
BLOCK_RECORD
  5
5924
330
1
100
AcDbSymbolTableRecord
100
AcDbBlockTableRecord
  2
*D32
340
0
 70
     0
280
     1
281
     0
  0
BLOCK_RECORD
  5
59EC
330
1
100
AcDbSymbolTableRecord
100
AcDbBlockTableRecord
  2
*U33
340
0
102
{BLKREFS
331
5B09
102
}
 70
     0
280
     1
281
     0
  0
BLOCK_RECORD
  5
59F4
330
1
100
AcDbSymbolTableRecord
100
AcDbBlockTableRecord
  2
*D34
340
0
 70
     0
280
     1
281
     0
  0
BLOCK_RECORD
  5
5A00
330
1
100
AcDbSymbolTableRecord
100
AcDbBlockTableRecord
  2
*D35
340
0
 70
     0
280
     1
281
     0
  0
BLOCK_RECORD
  5
5A0C
330
1
100
AcDbSymbolTableRecord
100
AcDbBlockTableRecord
  2
*D36
340
0
 70
     0
280
     1
281
     0
  0
BLOCK_RECORD
  5
5A18
330
1
100
AcDbSymbolTableRecord
100
AcDbBlockTableRecord
  2
*D37
340
0
 70
     0
280
     1
281
     0
  0
BLOCK_RECORD
  5
5A24
330
1
100
AcDbSymbolTableRecord
100
AcDbBlockTableRecord
  2
*D38
340
0
 70
     0
280
     1
281
     0
  0
BLOCK_RECORD
  5
5A30
330
1
100
AcDbSymbolTableRecord
100
AcDbBlockTableRecord
  2
*D39
340
0
 70
     0
280
     1
281
     0
  0
BLOCK_RECORD
  5
5A3C
330
1
100
AcDbSymbolTableRecord
100
AcDbBlockTableRecord
  2
*D40
340
0
 70
     0
280
     1
281
     0
  0
BLOCK_RECORD
  5
5A48
330
1
100
AcDbSymbolTableRecord
100
AcDbBlockTableRecord
  2
*D41
340
0
 70
     0
280
     1
281
     0
  0
BLOCK_RECORD
  5
5A54
330
1
100
AcDbSymbolTableRecord
100
AcDbBlockTableRecord
  2
*D42
340
0
 70
     0
280
     1
281
     0
  0
BLOCK_RECORD
  5
5A62
330
1
100
AcDbSymbolTableRecord
100
AcDbBlockTableRecord
  2
*D43
340
0
 70
     0
280
     1
281
     0
  0
BLOCK_RECORD
  5
5B80
330
1
100
AcDbSymbolTableRecord
100
AcDbBlockTableRecord
  2
*D44
340
0
 70
     0
280
     1
281
     0
  0
BLOCK_RECORD
  5
5B8C
330
1
100
AcDbSymbolTableRecord
100
AcDbBlockTableRecord
  2
*D45
340
0
 70
     0
280
     1
281
     0
  0
BLOCK_RECORD
  5
5B98
330
1
100
AcDbSymbolTableRecord
100
AcDbBlockTableRecord
  2
*D46
340
0
 70
     0
280
     1
281
     0
  0
BLOCK_RECORD
  5
5BA4
330
1
100
AcDbSymbolTableRecord
100
AcDbBlockTableRecord
  2
*D47
340
0
 70
     0
280
     1
281
     0
  0
BLOCK_RECORD
  5
5BB0
330
1
100
AcDbSymbolTableRecord
100
AcDbBlockTableRecord
  2
*D48
340
0
 70
     0
280
     1
281
     0
  0
BLOCK_RECORD
  5
5BBC
330
1
100
AcDbSymbolTableRecord
100
AcDbBlockTableRecord
  2
*D49
340
0
 70
     0
280
     1
281
     0
  0
BLOCK_RECORD
  5
5BC8
330
1
100
AcDbSymbolTableRecord
100
AcDbBlockTableRecord
  2
*D50
340
0
 70
     0
280
     1
281
     0
  0
BLOCK_RECORD
  5
5BD4
330
1
100
AcDbSymbolTableRecord
100
AcDbBlockTableRecord
  2
*D51
340
0
 70
     0
280
     1
281
     0
  0
BLOCK_RECORD
  5
5BE0
330
1
100
AcDbSymbolTableRecord
100
AcDbBlockTableRecord
  2
*D52
340
0
 70
     0
280
     1
281
     0
  0
BLOCK_RECORD
  5
5BEE
330
1
100
AcDbSymbolTableRecord
100
AcDbBlockTableRecord
  2
*D53
340
0
 70
     0
280
     1
281
     0
  0
BLOCK_RECORD
  5
5C5B
330
1
100
AcDbSymbolTableRecord
100
AcDbBlockTableRecord
  2
*D54
340
0
 70
     0
280
     1
281
     0
  0
BLOCK_RECORD
  5
5C68
330
1
100
AcDbSymbolTableRecord
100
AcDbBlockTableRecord
  2
*D55
340
0
 70
     0
280
     1
281
     0
  0
BLOCK_RECORD
  5
5C75
330
1
100
AcDbSymbolTableRecord
100
AcDbBlockTableRecord
  2
*D56
340
0
 70
     0
280
     1
281
     0
  0
BLOCK_RECORD
  5
5C81
330
1
100
AcDbSymbolTableRecord
100
AcDbBlockTableRecord
  2
*D57
340
0
 70
     0
280
     1
281
     0
  0
BLOCK_RECORD
  5
5D7A
330
1
100
AcDbSymbolTableRecord
100
AcDbBlockTableRecord
  2
*D58
340
0
 70
     0
280
     1
281
     0
  0
BLOCK_RECORD
  5
5D86
330
1
100
AcDbSymbolTableRecord
100
AcDbBlockTableRecord
  2
*D59
340
0
 70
     0
280
     1
281
     0
  0
ENDTAB
  0
ENDSEC
  0
SECTION
  2
BLOCKS
  0
BLOCK
  5
1F
330
1E
100
AcDbEntity
  8
0
100
AcDbBlockBegin
  2
*MODEL_SPACE
 70
     0
 10
0.0
 20
0.0
 30
0.0
  3
*MODEL_SPACE
  1

  0
ENDBLK
  5
20
330
1E
100
AcDbEntity
  8
0
100
AcDbBlockEnd
  0
BLOCK
  5
1B
330
1A
100
AcDbEntity
 67
     1
  8
0
100
AcDbBlockBegin
  2
*PAPER_SPACE
 70
     0
 10
0.0
 20
0.0
 30
0.0
  3
*PAPER_SPACE
  1

  0
ENDBLK
  5
1C
330
1A
100
AcDbEntity
 67
     1
  8
0
100
AcDbBlockEnd
  0
BLOCK
  5
3B6
330
3B2
100
AcDbEntity
  8
0
100
AcDbBlockBegin
  2
_OPEN
 70
     0
 10
0.0
 20
0.0
 30
0.0
  3
_OPEN
  1

  0
LINE
  5
3B3
330
3B2
100
AcDbEntity
  8
30
  6
Continuous
 62
     0
100
AcDbLine
 10
-1.0
 20
0.166667
 30
0.0
 11
0.0
 21
0.0
 31
0.0
  0
LINE
  5
3B4
330
3B2
100
AcDbEntity
  8
30
  6
Continuous
 62
     0
100
AcDbLine
 10
-1.0
 20
-0.166667
 30
0.0
 11
0.0
 21
0.0
 31
0.0
  0
LINE
  5
3B5
330
3B2
100
AcDbEntity
  8
30
  6
Continuous
 62
     0
100
AcDbLine
 10
0.0
 20
0.0
 30
0.0
 11
-1.0
 21
0.0
 31
0.0
  0
ENDBLK
  5
3B7
330
3B2
100
AcDbEntity
  8
0
100
AcDbBlockEnd
  0
BLOCK
  5
5076
330
506F
100
AcDbEntity
  8
TOP
  6
Continuous
 62
     4
100
AcDbBlockBegin
  2
*U1
 70
     1
 10
0.0
 20
0.0
 30
0.0
  3
*U1
  1

  0
LINE
  5
5070
330
506F
100
AcDbEntity
  8
1
  6
ByBlock
 62
     0
100
AcDbLine
 10
334.4153110047843
 20
95.91019663782793
 30
0.0
 11
337.2500000084996
 21
95.91019663782793
 31
0.0
  0
LINE
  5
5071
330
506F
100
AcDbEntity
  8
1
  6
ByBlock
 62
     0
100
AcDbLine
 10
334.4153110047843
 20
149.5101966378278
 30
0.0
 11
337.2500000084996
 21
149.5101966378278
 31
0.0
  0
LINE
  5
5072
330
506F
100
AcDbEntity
  8
1
  6
ByBlock
 62
     0
100
AcDbLine
 10
336.2500000019
 20
95.91019663782793
 30
0.0
 11
336.2500000019
 21
149.5101966378278
 31
0.0
  0
SOLID
  5
5073
330
506F
100
AcDbEntity
  8
1
  6
ByBlock
 62
     0
100
AcDbTrace
 10
336.2500000019
 20
95.91019663782793
 30
0.0
 11
335.9166666663666
 21
97.91019665102794
 31
0.0
 12
336.5833333374331
 22
97.91019665102794
 32
0.0
 13
336.5833333374331
 23
97.91019665102794
 33
0.0
  0
SOLID
  5
5074
330
506F
100
AcDbEntity
  8
1
  6
ByBlock
 62
     0
100
AcDbTrace
 10
336.2500000019
 20
149.5101966378278
 30
0.0
 11
336.5833333374331
 21
147.5101966246279
 31
0.0
 12
335.9166666663666
 22
147.5101966246279
 32
0.0
 13
335.9166666663666
 23
147.5101966246279
 33
0.0
  0
TEXT
  5
5075
330
506F
100
AcDbEntity
  8
TOP
  6
ByBlock
 62
     0
100
AcDbText
 10
335.0
 20
119.8625403834995
 30
0.0
 40
2.500000003799998
  1
134
 50
89.99999999999404
 41
0.8542968749999989
  7
UGMTXT
100
AcDbText
  0
ENDBLK
  5
5077
330
506F
100
AcDbEntity
  8
0
100
AcDbBlockEnd
  0
BLOCK
  5
507B
330
5078
100
AcDbEntity
  8
TOP
  6
Continuous
 62
     4
100
AcDbBlockBegin
  2
*U2
 70
     1
 10
0.0
 20
0.0
 30
0.0
  3
*U2
  1

  0
TEXT
  5
5079
330
5078
100
AcDbEntity
  8
TOP
  6
ByBlock
 62
     0
100
AcDbText
 10
280.562938070046
 20
75.47570270834146
 30
0.0
 40
2.500000003799998
  1
8.5
 41
0.8542968749999968
  7
UGMTXT
100
AcDbText
  0
TEXT
  5
507A
330
5078
100
AcDbEntity
  8
TOP
  6
ByBlock
 62
     0
100
AcDbText
 10
276.8697321605457
 20
74.22570270644145
 30
0.0
 40
2.500000003799998
  1
%%c
 41
1.519902056402514
  7
UGMTXT
100
AcDbText
  0
ENDBLK
  5
507C
330
5078
100
AcDbEntity
  8
0
100
AcDbBlockEnd
  0
BLOCK
  5
5083
330
507D
100
AcDbEntity
  8
TOP
  6
Continuous
 62
     4
100
AcDbBlockBegin
  2
*U3
 70
     1
 10
0.0
 20
0.0
 30
0.0
  3
*U3
  1

  0
LINE
  5
507E
330
507D
100
AcDbEntity
  8
1
  6
ByBlock
 62
     0
100
AcDbLine
 10
287.2057572385031
 20
73.79512687471603
 30
0.0
 11
276.2057572385031
 21
73.79512687471603
 31
0.0
  0
LINE
  5
507F
330
507D
100
AcDbEntity
  8
1
  6
ByBlock
 62
     0
100
AcDbLine
 10
296.8913158503363
 20
94.37207082491942
 30
0.0
 11
287.2057572385031
 21
73.79512687471603
 31
0.0
  0
SOLID
  5
5080
330
507D
100
AcDbEntity
  8
1
  6
ByBlock
 62
     0
100
AcDbTrace
 10
296.8913158503363
 20
94.37207082491942
 30
0.0
 11
296.3411501381206
 21
92.42055119794148
 31
0.0
 12
295.7379635408423
 22
92.7044708682264
 32
0.0
 13
295.7379635408423
 23
92.7044708682264
 33
0.0
  0
TEXT
  5
5081
330
507D
100
AcDbEntity
  8
TOP
  6
ByBlock
 62
     0
100
AcDbText
 10
274.4739864025374
 20
72.54512687281603
 30
0.0
 40
2.500000003799998
  1
 
 41
1.189062499999995
  7
UGMTXT
100
AcDbText
  0
TEXT
  5
5082
330
507D
100
AcDbEntity
  8
TOP
  6
ByBlock
 62
     0
100
AcDbText
 10
272.742215566572
 20
72.54512687281603
 30
0.0
 40
2.500000003799998
  1
 
 41
1.189062499999995
  7
UGMTXT
100
AcDbText
  0
ENDBLK
  5
5084
330
507D
100
AcDbEntity
  8
0
100
AcDbBlockEnd
  0
BLOCK
  5
508A
330
5085
100
AcDbEntity
  8
TOP
  6
Continuous
 62
     3
100
AcDbBlockBegin
  2
*U4
 70
     1
 10
0.0
 20
0.0
 30
0.0
  3
*U4
  1

  0
LINE
  5
5086
330
5085
100
AcDbEntity
  8
1
  6
ByBlock
 62
     0
100
AcDbLine
 10
356.0226384799982
 20
73.67938951191193
 30
0.0
 11
330.0226384799981
 21
73.67938951191193
 31
0.0
  0
LINE
  5
5087
330
5085
100
AcDbEntity
  8
1
  6
ByBlock
 62
     0
100
AcDbLine
 10
319.8164585567165
 20
92.71019663782793
 30
0.0
 11
330.0226384799981
 21
73.67938951191193
 31
0.0
  0
SOLID
  5
5088
330
5085
100
AcDbEntity
  8
1
  6
ByBlock
 62
     0
100
AcDbTrace
 10
319.8164585567165
 20
92.71019663782793
 30
0.0
 11
321.0554556869717
 21
91.10520527442524
 31
0.0
 12
320.4679451296377
 22
90.79012465722914
 32
0.0
 13
320.4679451296377
 23
90.79012465722914
 33
0.0
  0
TEXT
  5
5089
330
5085
100
AcDbEntity
  8
TOP
  6
ByBlock
 62
     0
100
AcDbText
 10
356.0226384799982
 20
72.42938951191193
 30
0.0
 40
2.5
  1
 
 41
1.189062499999988
  7
UGMTXT
100
AcDbText
  0
ENDBLK
  5
508B
330
5085
100
AcDbEntity
  8
0
100
AcDbBlockEnd
  0
BLOCK
  5
5091
330
508C
100
AcDbEntity
  8
TOP
  6
Continuous
 62
     3
100
AcDbBlockBegin
  2
*U5
 70
     1
 10
0.0
 20
0.0
 30
0.0
  3
*U5
  1

  0
LINE
  5
508D
330
508C
100
AcDbEntity
  8
1
  6
ByBlock
 62
     0
100
AcDbLine
 10
300.9609374931422
 20
171.5000000098999
 30
0.0
 11
271.9609374931422
 21
171.5000000098999
 31
0.0
  0
LINE
  5
508E
330
508C
100
AcDbEntity
  8
1
  6
ByBlock
 62
     0
100
AcDbLine
 10
262.4153110047846
 20
159.718196637828
 30
0.0
 11
271.9609374931422
 21
171.5000000098999
 31
0.0
  0
SOLID
  5
508F
330
508C
100
AcDbEntity
  8
1
  6
ByBlock
 62
     0
100
AcDbTrace
 10
262.4153110047846
 20
159.718196637828
 30
0.0
 11
263.4153470455668
 21
161.482010426898
 31
0.0
 12
263.9333387587366
 22
161.0623331277758
 32
0.0
 13
263.9333387587366
 23
161.0623331277758
 33
0.0
  0
TEXT
  5
5090
330
508C
100
AcDbEntity
  8
TOP
  6
ByBlock
 62
     0
100
AcDbText
 10
300.9609374931422
 20
170.0
 30
0.0
 40
3.000000019799997
  1
 
 41
1.189062499999995
  7
UGMTXT
100
AcDbText
  0
ENDBLK
  5
5092
330
508C
100
AcDbEntity
  8
0
100
AcDbBlockEnd
  0
BLOCK
  5
509E
330
5093
100
AcDbEntity
  8
0
100
AcDbBlockBegin
  2
*D6
 70
     1
 10
0.0
 20
0.0
 30
0.0
  3
*D6
  1

  0
LINE
  5
5094
330
5093
100
AcDbEntity
  8
0
  6
Continuous
 62
     0
100
AcDbLine
 10
638.5482368421052
 20
285.1567974937046
 30
0.0
 11
603.8575000048068
 21
285.1567974937046
 31
0.0
  0
LINE
  5
5095
330
5093
100
AcDbEntity
  8
0
  6
Continuous
 62
     0
100
AcDbLine
 10
638.5482368421052
 20
335.7567974937047
 30
0.0
 11
603.8575000048068
 21
335.7567974937047
 31
0.0
  0
LINE
  5
5096
330
5093
100
AcDbEntity
  8
0
  6
Continuous
 62
     0
100
AcDbLine
 10
604.0375000048069
 20
285.3367974937047
 30
0.0
 11
604.0375000048069
 21
310.2767974937043
 31
0.0
  0
LINE
  5
5097
330
5093
100
AcDbEntity
  8
0
  6
Continuous
 62
     0
100
AcDbLine
 10
604.0375000048069
 20
335.5767974937045
 30
0.0
 11
604.0375000048069
 21
310.6367974937043
 31
0.0
  0
SOLID
  5
5098
330
5093
100
AcDbEntity
  8
0
  6
Continuous
 62
     0
100
AcDbTrace
 10
604.0075000048067
 20
285.3367974937047
 30
0.0
 11
604.0675000048069
 21
285.3367974937047
 31
0.0
 12
604.0375000048069
 22
285.1567974937046
 32
0.0
 13
604.0375000048069
 23
285.1567974937046
 33
0.0
  0
SOLID
  5
5099
330
5093
100
AcDbEntity
  8
0
  6
Continuous
 62
     0
100
AcDbTrace
 10
604.0075000048067
 20
335.5767974937045
 30
0.0
 11
604.0675000048069
 21
335.5767974937045
 31
0.0
 12
604.0375000048069
 22
335.7567974937047
 32
0.0
 13
604.0375000048069
 23
335.7567974937047
 33
0.0
  0
MTEXT
  5
509A
330
5093
100
AcDbEntity
  8
0
  6
Continuous
 62
     0
100
AcDbMText
 10
604.0375000048067
 20
310.4567974937046
 30
0.0
 40
0.18
 41
0.0
 46
0.0
 71
     5
 72
     1
  1
\A1;50.6000
 73
     1
 44
1.0
1001
ACAD
1000
MTEXTBEGIN
1070
    73
1070
     1
1070
    44
1040
1.0
1070
    74
1070
     0
1000
MTEXTEND
  0
POINT
  5
509B
330
5093
100
AcDbEntity
  8
DEFPOINTS
  6
Continuous
 62
     0
100
AcDbPoint
 10
638.610736842105
 20
285.1567974937046
 30
0.0
  0
POINT
  5
509C
330
5093
100
AcDbEntity
  8
DEFPOINTS
  6
Continuous
 62
     0
100
AcDbPoint
 10
638.610736842105
 20
335.7567974937047
 30
0.0
  0
POINT
  5
509D
330
5093
100
AcDbEntity
  8
DEFPOINTS
  6
Continuous
 62
     0
100
AcDbPoint
 10
604.0375000048069
 20
335.7567974937047
 30
0.0
  0
ENDBLK
  5
509F
330
5093
100
AcDbEntity
  8
0
100
AcDbBlockEnd
  0
BLOCK
  5
50AB
330
50A0
100
AcDbEntity
  8
0
100
AcDbBlockBegin
  2
*D7
 70
     1
 10
0.0
 20
0.0
 30
0.0
  3
*D7
  1

  0
LINE
  5
50A1
330
50A0
100
AcDbEntity
  8
0
  6
Continuous
 62
     0
100
AcDbLine
 10
803.5667368421052
 20
240.0602974770066
 30
0.0
 11
803.5667368421052
 21
186.4074999951929
 31
0.0
  0
LINE
  5
50A2
330
50A0
100
AcDbEntity
  8
0
  6
Continuous
 62
     0
100
AcDbLine
 10
818.7467368421049
 20
233.1917645962124
 30
0.0
 11
818.7467368421049
 21
186.4074999951929
 31
0.0
  0
LINE
  5
50A3
330
50A0
100
AcDbEntity
  8
0
  6
Continuous
 62
     0
100
AcDbLine
 10
803.7467368421051
 20
186.5874999951929
 30
0.0
 11
810.5695939849622
 21
186.5874999951929
 31
0.0
  0
LINE
  5
50A4
330
50A0
100
AcDbEntity
  8
0
  6
Continuous
 62
     0
100
AcDbLine
 10
818.566736842105
 20
186.5874999951929
 30
0.0
 11
811.743879699248
 21
186.5874999951929
 31
0.0
  0
SOLID
  5
50A5
330
50A0
100
AcDbEntity
  8
0
  6
Continuous
 62
     0
100
AcDbTrace
 10
803.7467368421051
 20
186.6174999951929
 30
0.0
 11
803.7467368421051
 21
186.5574999951929
 31
0.0
 12
803.5667368421052
 22
186.5874999951929
 32
0.0
 13
803.5667368421052
 23
186.5874999951929
 33
0.0
  0
SOLID
  5
50A6
330
50A0
100
AcDbEntity
  8
0
  6
Continuous
 62
     0
100
AcDbTrace
 10
818.566736842105
 20
186.6174999951929
 30
0.0
 11
818.566736842105
 21
186.5574999951929
 31
0.0
 12
818.7467368421049
 22
186.5874999951929
 32
0.0
 13
818.7467368421049
 23
186.5874999951929
 33
0.0
  0
MTEXT
  5
50A7
330
50A0
100
AcDbEntity
  8
0
  6
Continuous
 62
     0
100
AcDbMText
 10
811.1567368421049
 20
186.5874999951929
 30
0.0
 40
0.18
 41
0.0
 46
0.0
 71
     5
 72
     1
  1
\A1;15.1800
 73
     1
 44
1.0
1001
ACAD
1000
MTEXTBEGIN
1070
    73
1070
     1
1070
    44
1040
1.0
1070
    74
1070
     0
1000
MTEXTEND
  0
POINT
  5
50A8
330
50A0
100
AcDbEntity
  8
DEFPOINTS
  6
Continuous
 62
     0
100
AcDbPoint
 10
803.5667368421052
 20
240.1227974770065
 30
0.0
  0
POINT
  5
50A9
330
50A0
100
AcDbEntity
  8
DEFPOINTS
  6
Continuous
 62
     0
100
AcDbPoint
 10
818.7467368421049
 20
233.2542645962124
 30
0.0
  0
POINT
  5
50AA
330
50A0
100
AcDbEntity
  8
DEFPOINTS
  6
Continuous
 62
     0
100
AcDbPoint
 10
818.7467368421049
 20
186.5874999951929
 30
0.0
  0
ENDBLK
  5
50AC
330
50A0
100
AcDbEntity
  8
0
100
AcDbBlockEnd
  0
BLOCK
  5
50B8
330
50AD
100
AcDbEntity
  8
0
100
AcDbBlockBegin
  2
*D8
 70
     1
 10
0.0
 20
0.0
 30
0.0
  3
*D8
  1

  0
LINE
  5
50AE
330
50AD
100
AcDbEntity
  8
0
  6
Continuous
 62
     0
100
AcDbLine
 10
659.862736842105
 20
203.1222974937048
 30
0.0
 11
659.862736842105
 21
135.8074999951929
 31
0.0
  0
LINE
  5
50AF
330
50AD
100
AcDbEntity
  8
0
  6
Continuous
 62
     0
100
AcDbLine
 10
818.7467368421049
 20
242.5902974937045
 30
0.0
 11
818.7467368421049
 21
135.8074999951929
 31
0.0
  0
LINE
  5
50B0
330
50AD
100
AcDbEntity
  8
0
  6
Continuous
 62
     0
100
AcDbLine
 10
660.0427368421051
 20
135.9874999951929
 30
0.0
 11
738.614736842105
 21
135.9874999951929
 31
0.0
  0
LINE
  5
50B1
330
50AD
100
AcDbEntity
  8
0
  6
Continuous
 62
     0
100
AcDbLine
 10
818.566736842105
 20
135.9874999951929
 30
0.0
 11
739.9947368421051
 21
135.9874999951929
 31
0.0
  0
SOLID
  5
50B2
330
50AD
100
AcDbEntity
  8
0
  6
Continuous
 62
     0
100
AcDbTrace
 10
660.0427368421051
 20
136.0174999951929
 30
0.0
 11
660.0427368421051
 21
135.9574999951929
 31
0.0
 12
659.862736842105
 22
135.9874999951929
 32
0.0
 13
659.862736842105
 23
135.9874999951929
 33
0.0
  0
SOLID
  5
50B3
330
50AD
100
AcDbEntity
  8
0
  6
Continuous
 62
     0
100
AcDbTrace
 10
818.566736842105
 20
136.0174999951929
 30
0.0
 11
818.566736842105
 21
135.9574999951929
 31
0.0
 12
818.7467368421049
 22
135.9874999951929
 32
0.0
 13
818.7467368421049
 23
135.9874999951929
 33
0.0
  0
MTEXT
  5
50B4
330
50AD
100
AcDbEntity
  8
0
  6
Continuous
 62
     0
100
AcDbMText
 10
739.3047368421051
 20
135.9874999951929
 30
0.0
 40
0.18
 41
0.0
 46
0.0
 71
     5
 72
     1
  1
\A1;158.8840
 73
     1
 44
1.0
1001
ACAD
1000
MTEXTBEGIN
1070
    73
1070
     1
1070
    44
1040
1.0
1070
    74
1070
     0
1000
MTEXTEND
  0
POINT
  5
50B5
330
50AD
100
AcDbEntity
  8
DEFPOINTS
  6
Continuous
 62
     0
100
AcDbPoint
 10
659.862736842105
 20
203.1847974937046
 30
0.0
  0
POINT
  5
50B6
330
50AD
100
AcDbEntity
  8
DEFPOINTS
  6
Continuous
 62
     0
100
AcDbPoint
 10
818.7467368421049
 20
242.6527974937046
 30
0.0
  0
POINT
  5
50B7
330
50AD
100
AcDbEntity
  8
DEFPOINTS
  6
Continuous
 62
     0
100
AcDbPoint
 10
818.7467368421049
 20
135.9874999951929
 30
0.0
  0
ENDBLK
  5
50B9
330
50AD
100
AcDbEntity
  8
0
100
AcDbBlockEnd
  0
BLOCK
  5
50C5
330
50BA
100
AcDbEntity
  8
0
100
AcDbBlockBegin
  2
*D9
 70
     1
 10
0.0
 20
0.0
 30
0.0
  3
*D9
  1

  0
LINE
  5
50BB
330
50BA
100
AcDbEntity
  8
0
  6
Continuous
 62
     0
100
AcDbLine
 10
659.862736842105
 20
203.1222974937048
 30
0.0
 11
659.862736842105
 21
161.107499995193
 31
0.0
  0
LINE
  5
50BC
330
50BA
100
AcDbEntity
  8
0
  6
Continuous
 62
     0
100
AcDbLine
 10
768.1467368421049
 20
242.5902974937045
 30
0.0
 11
768.1467368421049
 21
161.107499995193
 31
0.0
  0
LINE
  5
50BD
330
50BA
100
AcDbEntity
  8
0
  6
Continuous
 62
     0
100
AcDbLine
 10
660.0427368421051
 20
161.287499995193
 30
0.0
 11
713.3147368421049
 21
161.287499995193
 31
0.0
  0
LINE
  5
50BE
330
50BA
100
AcDbEntity
  8
0
  6
Continuous
 62
     0
100
AcDbLine
 10
767.9667368421051
 20
161.287499995193
 30
0.0
 11
714.6947368421051
 21
161.287499995193
 31
0.0
  0
SOLID
  5
50BF
330
50BA
100
AcDbEntity
  8
0
  6
Continuous
 62
     0
100
AcDbTrace
 10
660.0427368421051
 20
161.317499995193
 30
0.0
 11
660.0427368421051
 21
161.257499995193
 31
0.0
 12
659.862736842105
 22
161.287499995193
 32
0.0
 13
659.862736842105
 23
161.287499995193
 33
0.0
  0
SOLID
  5
50C0
330
50BA
100
AcDbEntity
  8
0
  6
Continuous
 62
     0
100
AcDbTrace
 10
767.9667368421051
 20
161.317499995193
 30
0.0
 11
767.9667368421051
 21
161.257499995193
 31
0.0
 12
768.1467368421049
 22
161.287499995193
 32
0.0
 13
768.1467368421049
 23
161.287499995193
 33
0.0
  0
MTEXT
  5
50C1
330
50BA
100
AcDbEntity
  8
0
  6
Continuous
 62
     0
100
AcDbMText
 10
714.0047368421051
 20
161.287499995193
 30
0.0
 40
0.18
 41
0.0
 46
0.0
 71
     5
 72
     1
  1
\A1;108.2840
 73
     1
 44
1.0
1001
ACAD
1000
MTEXTBEGIN
1070
    73
1070
     1
1070
    44
1040
1.0
1070
    74
1070
     0
1000
MTEXTEND
  0
POINT
  5
50C2
330
50BA
100
AcDbEntity
  8
DEFPOINTS
  6
Continuous
 62
     0
100
AcDbPoint
 10
659.862736842105
 20
203.1847974937046
 30
0.0
  0
POINT
  5
50C3
330
50BA
100
AcDbEntity
  8
DEFPOINTS
  6
Continuous
 62
     0
100
AcDbPoint
 10
768.1467368421049
 20
242.6527974937046
 30
0.0
  0
POINT
  5
50C4
330
50BA
100
AcDbEntity
  8
DEFPOINTS
  6
Continuous
 62
     0
100
AcDbPoint
 10
768.1467368421049
 20
161.287499995193
 30
0.0
  0
ENDBLK
  5
50C6
330
50BA
100
AcDbEntity
  8
0
100
AcDbBlockEnd
  0
BLOCK
  5
50D2
330
50C7
100
AcDbEntity
  8
0
100
AcDbBlockBegin
  2
*D10
 70
     1
 10
0.0
 20
0.0
 30
0.0
  3
*D10
  1

  0
LINE
  5
50C8
330
50C7
100
AcDbEntity
  8
0
  6
Continuous
 62
     0
100
AcDbLine
 10
622.4187368421052
 20
307.8642974770066
 30
0.0
 11
622.4187368421052
 21
135.8074999951929
 31
0.0
  0
LINE
  5
50C9
330
50C7
100
AcDbEntity
  8
0
  6
Continuous
 62
     0
100
AcDbLine
 10
659.862736842105
 20
203.1222974937048
 30
0.0
 11
659.862736842105
 21
135.8074999951929
 31
0.0
  0
LINE
  5
50CA
330
50C7
100
AcDbEntity
  8
0
  6
Continuous
 62
     0
100
AcDbLine
 10
622.5987368421051
 20
135.9874999951929
 30
0.0
 11
640.5193082706762
 21
135.9874999951929
 31
0.0
  0
LINE
  5
50CB
330
50C7
100
AcDbEntity
  8
0
  6
Continuous
 62
     0
100
AcDbLine
 10
659.6827368421052
 20
135.9874999951929
 30
0.0
 11
641.7621654135338
 21
135.9874999951929
 31
0.0
  0
SOLID
  5
50CC
330
50C7
100
AcDbEntity
  8
0
  6
Continuous
 62
     0
100
AcDbTrace
 10
622.5987368421051
 20
136.0174999951929
 30
0.0
 11
622.5987368421051
 21
135.9574999951929
 31
0.0
 12
622.4187368421052
 22
135.9874999951929
 32
0.0
 13
622.4187368421052
 23
135.9874999951929
 33
0.0
  0
SOLID
  5
50CD
330
50C7
100
AcDbEntity
  8
0
  6
Continuous
 62
     0
100
AcDbTrace
 10
659.6827368421052
 20
136.0174999951929
 30
0.0
 11
659.6827368421052
 21
135.9574999951929
 31
0.0
 12
659.862736842105
 22
135.9874999951929
 32
0.0
 13
659.862736842105
 23
135.9874999951929
 33
0.0
  0
MTEXT
  5
50CE
330
50C7
100
AcDbEntity
  8
0
  6
Continuous
 62
     0
100
AcDbMText
 10
641.1407368421053
 20
135.9874999951929
 30
0.0
 40
0.18
 41
0.0
 46
0.0
 71
     5
 72
     1
  1
\A1;37.4440
 73
     1
 44
1.0
1001
ACAD
1000
MTEXTBEGIN
1070
    73
1070
     1
1070
    44
1040
1.0
1070
    74
1070
     0
1000
MTEXTEND
  0
POINT
  5
50CF
330
50C7
100
AcDbEntity
  8
DEFPOINTS
  6
Continuous
 62
     0
100
AcDbPoint
 10
622.4187368421052
 20
307.9267974770066
 30
0.0
  0
POINT
  5
50D0
330
50C7
100
AcDbEntity
  8
DEFPOINTS
  6
Continuous
 62
     0
100
AcDbPoint
 10
659.862736842105
 20
203.1847974937046
 30
0.0
  0
POINT
  5
50D1
330
50C7
100
AcDbEntity
  8
DEFPOINTS
  6
Continuous
 62
     0
100
AcDbPoint
 10
659.862736842105
 20
135.9874999951929
 30
0.0
  0
ENDBLK
  5
50D3
330
50C7
100
AcDbEntity
  8
0
100
AcDbBlockEnd
  0
BLOCK
  5
50DF
330
50D4
100
AcDbEntity
  8
0
100
AcDbBlockBegin
  2
*D11
 70
     1
 10
0.0
 20
0.0
 30
0.0
  3
*D11
  1

  0
LINE
  5
50D5
330
50D4
100
AcDbEntity
  8
0
  6
Continuous
 62
     0
100
AcDbLine
 10
644.6827368421052
 20
213.2422974937048
 30
0.0
 11
644.6827368421052
 21
161.107499995193
 31
0.0
  0
LINE
  5
50D6
330
50D4
100
AcDbEntity
  8
0
  6
Continuous
 62
     0
100
AcDbLine
 10
659.862736842105
 20
203.1222974937048
 30
0.0
 11
659.862736842105
 21
161.107499995193
 31
0.0
  0
LINE
  5
50D7
330
50D4
100
AcDbEntity
  8
0
  6
Continuous
 62
     0
100
AcDbLine
 10
644.862736842105
 20
161.287499995193
 30
0.0
 11
651.6855939849622
 21
161.287499995193
 31
0.0
  0
LINE
  5
50D8
330
50D4
100
AcDbEntity
  8
0
  6
Continuous
 62
     0
100
AcDbLine
 10
659.6827368421052
 20
161.287499995193
 30
0.0
 11
652.8598796992479
 21
161.287499995193
 31
0.0
  0
SOLID
  5
50D9
330
50D4
100
AcDbEntity
  8
0
  6
Continuous
 62
     0
100
AcDbTrace
 10
644.862736842105
 20
161.317499995193
 30
0.0
 11
644.862736842105
 21
161.257499995193
 31
0.0
 12
644.6827368421052
 22
161.287499995193
 32
0.0
 13
644.6827368421052
 23
161.287499995193
 33
0.0
  0
SOLID
  5
50DA
330
50D4
100
AcDbEntity
  8
0
  6
Continuous
 62
     0
100
AcDbTrace
 10
659.6827368421052
 20
161.317499995193
 30
0.0
 11
659.6827368421052
 21
161.257499995193
 31
0.0
 12
659.862736842105
 22
161.287499995193
 32
0.0
 13
659.862736842105
 23
161.287499995193
 33
0.0
  0
MTEXT
  5
50DB
330
50D4
100
AcDbEntity
  8
0
  6
Continuous
 62
     0
100
AcDbMText
 10
652.2727368421051
 20
161.287499995193
 30
0.0
 40
0.18
 41
0.0
 46
0.0
 71
     5
 72
     1
  1
\A1;15.1800
 73
     1
 44
1.0
1001
ACAD
1000
MTEXTBEGIN
1070
    73
1070
     1
1070
    44
1040
1.0
1070
    74
1070
     0
1000
MTEXTEND
  0
POINT
  5
50DC
330
50D4
100
AcDbEntity
  8
DEFPOINTS
  6
Continuous
 62
     0
100
AcDbPoint
 10
644.6827368421052
 20
213.3047974937047
 30
0.0
  0
POINT
  5
50DD
330
50D4
100
AcDbEntity
  8
DEFPOINTS
  6
Continuous
 62
     0
100
AcDbPoint
 10
659.862736842105
 20
203.1847974937046
 30
0.0
  0
POINT
  5
50DE
330
50D4
100
AcDbEntity
  8
DEFPOINTS
  6
Continuous
 62
     0
100
AcDbPoint
 10
659.862736842105
 20
161.287499995193
 30
0.0
  0
ENDBLK
  5
50E0
330
50D4
100
AcDbEntity
  8
0
100
AcDbBlockEnd
  0
BLOCK
  5
50EC
330
50E1
100
AcDbEntity
  8
0
100
AcDbBlockBegin
  2
*D12
 70
     1
 10
0.0
 20
0.0
 30
0.0
  3
*D12
  1

  0
LINE
  5
50E2
330
50E1
100
AcDbEntity
  8
0
  6
Continuous
 62
     0
100
AcDbLine
 10
752.9667368421049
 20
240.0602974770066
 30
0.0
 11
752.9667368421049
 21
186.4074999951929
 31
0.0
  0
LINE
  5
50E3
330
50E1
100
AcDbEntity
  8
0
  6
Continuous
 62
     0
100
AcDbLine
 10
768.1467368421049
 20
233.1917645962124
 30
0.0
 11
768.1467368421049
 21
186.4074999951929
 31
0.0
  0
LINE
  5
50E4
330
50E1
100
AcDbEntity
  8
0
  6
Continuous
 62
     0
100
AcDbLine
 10
753.1467368421049
 20
186.5874999951929
 30
0.0
 11
759.9695939849619
 21
186.5874999951929
 31
0.0
  0
LINE
  5
50E5
330
50E1
100
AcDbEntity
  8
0
  6
Continuous
 62
     0
100
AcDbLine
 10
767.9667368421051
 20
186.5874999951929
 30
0.0
 11
761.1438796992479
 21
186.5874999951929
 31
0.0
  0
SOLID
  5
50E6
330
50E1
100
AcDbEntity
  8
0
  6
Continuous
 62
     0
100
AcDbTrace
 10
753.1467368421049
 20
186.6174999951929
 30
0.0
 11
753.1467368421049
 21
186.5574999951929
 31
0.0
 12
752.9667368421049
 22
186.5874999951929
 32
0.0
 13
752.9667368421049
 23
186.5874999951929
 33
0.0
  0
SOLID
  5
50E7
330
50E1
100
AcDbEntity
  8
0
  6
Continuous
 62
     0
100
AcDbTrace
 10
767.9667368421051
 20
186.6174999951929
 30
0.0
 11
767.9667368421051
 21
186.5574999951929
 31
0.0
 12
768.1467368421049
 22
186.5874999951929
 32
0.0
 13
768.1467368421049
 23
186.5874999951929
 33
0.0
  0
MTEXT
  5
50E8
330
50E1
100
AcDbEntity
  8
0
  6
Continuous
 62
     0
100
AcDbMText
 10
760.5567368421048
 20
186.5874999951929
 30
0.0
 40
0.18
 41
0.0
 46
0.0
 71
     5
 72
     1
  1
\A1;15.1800
 73
     1
 44
1.0
1001
ACAD
1000
MTEXTBEGIN
1070
    73
1070
     1
1070
    44
1040
1.0
1070
    74
1070
     0
1000
MTEXTEND
  0
POINT
  5
50E9
330
50E1
100
AcDbEntity
  8
DEFPOINTS
  6
Continuous
 62
     0
100
AcDbPoint
 10
752.9667368421049
 20
240.1227974770065
 30
0.0
  0
POINT
  5
50EA
330
50E1
100
AcDbEntity
  8
DEFPOINTS
  6
Continuous
 62
     0
100
AcDbPoint
 10
768.1467368421049
 20
233.2542645962124
 30
0.0
  0
POINT
  5
50EB
330
50E1
100
AcDbEntity
  8
DEFPOINTS
  6
Continuous
 62
     0
100
AcDbPoint
 10
768.1467368421049
 20
186.5874999951929
 30
0.0
  0
ENDBLK
  5
50ED
330
50E1
100
AcDbEntity
  8
0
100
AcDbBlockEnd
  0
BLOCK
  5
50F9
330
50EE
100
AcDbEntity
  8
0
100
AcDbBlockBegin
  2
*D13
 70
     1
 10
0.0
 20
0.0
 30
0.0
  3
*D13
  1

  0
LINE
  5
50EF
330
50EE
100
AcDbEntity
  8
0
  6
Continuous
 62
     0
100
AcDbLine
 10
737.7867368421051
 20
249.7992975104025
 30
0.0
 11
737.7867368421051
 21
275.3174999951929
 31
0.0
  0
LINE
  5
50F0
330
50EE
100
AcDbEntity
  8
0
  6
Continuous
 62
     0
100
AcDbLine
 10
752.9667368421049
 20
245.2452975104026
 30
0.0
 11
752.9667368421049
 21
275.3174999951929
 31
0.0
  0
LINE
  5
50F1
330
50EE
100
AcDbEntity
  8
0
  6
Continuous
 62
     0
100
AcDbLine
 10
737.9667368421051
 20
275.1374999951929
 30
0.0
 11
744.7895939849622
 21
275.1374999951929
 31
0.0
  0
LINE
  5
50F2
330
50EE
100
AcDbEntity
  8
0
  6
Continuous
 62
     0
100
AcDbLine
 10
752.7867368421051
 20
275.1374999951929
 30
0.0
 11
745.963879699248
 21
275.1374999951929
 31
0.0
  0
SOLID
  5
50F3
330
50EE
100
AcDbEntity
  8
0
  6
Continuous
 62
     0
100
AcDbTrace
 10
737.9667368421051
 20
275.1674999951926
 30
0.0
 11
737.9667368421051
 21
275.107499995193
 31
0.0
 12
737.7867368421051
 22
275.1374999951929
 32
0.0
 13
737.7867368421051
 23
275.1374999951929
 33
0.0
  0
SOLID
  5
50F4
330
50EE
100
AcDbEntity
  8
0
  6
Continuous
 62
     0
100
AcDbTrace
 10
752.7867368421051
 20
275.1674999951926
 30
0.0
 11
752.7867368421051
 21
275.107499995193
 31
0.0
 12
752.9667368421049
 22
275.1374999951929
 32
0.0
 13
752.9667368421049
 23
275.1374999951929
 33
0.0
  0
MTEXT
  5
50F5
330
50EE
100
AcDbEntity
  8
0
  6
Continuous
 62
     0
100
AcDbMText
 10
745.3767368421051
 20
275.1374999951929
 30
0.0
 40
0.18
 41
0.0
 46
0.0
 71
     5
 72
     1
  1
\A1;15.1800
 73
     1
 44
1.0
1001
ACAD
1000
MTEXTBEGIN
1070
    73
1070
     1
1070
    44
1040
1.0
1070
    74
1070
     0
1000
MTEXTEND
  0
POINT
  5
50F6
330
50EE
100
AcDbEntity
  8
DEFPOINTS
  6
Continuous
 62
     0
100
AcDbPoint
 10
737.7867368421051
 20
249.7367975104026
 30
0.0
  0
POINT
  5
50F7
330
50EE
100
AcDbEntity
  8
DEFPOINTS
  6
Continuous
 62
     0
100
AcDbPoint
 10
752.9667368421049
 20
245.1827975104026
 30
0.0
  0
POINT
  5
50F8
330
50EE
100
AcDbEntity
  8
DEFPOINTS
  6
Continuous
 62
     0
100
AcDbPoint
 10
752.9667368421049
 20
275.1374999951929
 30
0.0
  0
ENDBLK
  5
50FA
330
50EE
100
AcDbEntity
  8
0
100
AcDbBlockEnd
  0
BLOCK
  5
5106
330
50FB
100
AcDbEntity
  8
0
100
AcDbBlockBegin
  2
*D14
 70
     1
 10
0.0
 20
0.0
 30
0.0
  3
*D14
  1

  0
LINE
  5
50FC
330
50FB
100
AcDbEntity
  8
0
  6
Continuous
 62
     0
100
AcDbLine
 10
816.6399201801828
 20
234.5567974937046
 30
0.0
 11
843.3025000048068
 21
234.5567974937046
 31
0.0
  0
LINE
  5
50FD
330
50FB
100
AcDbEntity
  8
0
  6
Continuous
 62
     0
100
AcDbLine
 10
816.6399201801828
 20
250.7487974937046
 30
0.0
 11
843.3025000048068
 21
250.7487974937046
 31
0.0
  0
LINE
  5
50FE
330
50FB
100
AcDbEntity
  8
0
  6
Continuous
 62
     0
100
AcDbLine
 10
843.1225000048069
 20
234.7367974937046
 30
0.0
 11
843.1225000048069
 21
242.4727974937046
 31
0.0
  0
LINE
  5
50FF
330
50FB
100
AcDbEntity
  8
0
  6
Continuous
 62
     0
100
AcDbLine
 10
843.1225000048069
 20
250.5687974937046
 30
0.0
 11
843.1225000048069
 21
242.8327974937046
 31
0.0
  0
SOLID
  5
5100
330
50FB
100
AcDbEntity
  8
0
  6
Continuous
 62
     0
100
AcDbTrace
 10
843.092500004807
 20
234.7367974937046
 30
0.0
 11
843.1525000048068
 21
234.7367974937046
 31
0.0
 12
843.1225000048069
 22
234.5567974937046
 32
0.0
 13
843.1225000048069
 23
234.5567974937046
 33
0.0
  0
SOLID
  5
5101
330
50FB
100
AcDbEntity
  8
0
  6
Continuous
 62
     0
100
AcDbTrace
 10
843.092500004807
 20
250.5687974937046
 30
0.0
 11
843.1525000048068
 21
250.5687974937046
 31
0.0
 12
843.1225000048069
 22
250.7487974937046
 32
0.0
 13
843.1225000048069
 23
250.7487974937046
 33
0.0
  0
MTEXT
  5
5102
330
50FB
100
AcDbEntity
  8
0
  6
Continuous
 62
     0
100
AcDbMText
 10
843.1225000048069
 20
242.6527974937048
 30
0.0
 40
0.18
 41
0.0
 46
0.0
 71
     5
 72
     1
  1
\A1;16.1920
 73
     1
 44
1.0
1001
ACAD
1000
MTEXTBEGIN
1070
    73
1070
     1
1070
    44
1040
1.0
1070
    74
1070
     0
1000
MTEXTEND
  0
POINT
  5
5103
330
50FB
100
AcDbEntity
  8
DEFPOINTS
  6
Continuous
 62
     0
100
AcDbPoint
 10
816.5774201801827
 20
234.5567974937046
 30
0.0
  0
POINT
  5
5104
330
50FB
100
AcDbEntity
  8
DEFPOINTS
  6
Continuous
 62
     0
100
AcDbPoint
 10
816.5774201801827
 20
250.7487974937046
 30
0.0
  0
POINT
  5
5105
330
50FB
100
AcDbEntity
  8
DEFPOINTS
  6
Continuous
 62
     0
100
AcDbPoint
 10
843.1225000048069
 20
250.7487974937046
 30
0.0
  0
ENDBLK
  5
5107
330
50FB
100
AcDbEntity
  8
0
100
AcDbBlockEnd
  0
BLOCK
  5
5113
330
5108
100
AcDbEntity
  8
0
100
AcDbBlockBegin
  2
*D15
 70
     1
 10
0.0
 20
0.0
 30
0.0
  3
*D15
  1

  0
LINE
  5
5109
330
5108
100
AcDbEntity
  8
0
  6
Continuous
 62
     0
100
AcDbLine
 10
818.8092368421051
 20
375.7307974937045
 30
0.0
 11
843.3025000048068
 21
375.7307974937045
 31
0.0
  0
LINE
  5
510A
330
5108
100
AcDbEntity
  8
0
  6
Continuous
 62
     0
100
AcDbLine
 10
818.8092368421051
 20
380.7907974937045
 30
0.0
 11
843.3025000048068
 21
380.7907974937045
 31
0.0
  0
LINE
  5
510B
330
5108
100
AcDbEntity
  8
0
  6
Continuous
 62
     0
100
AcDbLine
 10
843.1225000048069
 20
375.9107974937045
 30
0.0
 11
843.1225000048069
 21
378.0807974937046
 31
0.0
  0
LINE
  5
510C
330
5108
100
AcDbEntity
  8
0
  6
Continuous
 62
     0
100
AcDbLine
 10
843.1225000048069
 20
380.6107974937045
 30
0.0
 11
843.1225000048069
 21
378.4407974937046
 31
0.0
  0
SOLID
  5
510D
330
5108
100
AcDbEntity
  8
0
  6
Continuous
 62
     0
100
AcDbTrace
 10
843.092500004807
 20
375.9107974937045
 30
0.0
 11
843.1525000048068
 21
375.9107974937045
 31
0.0
 12
843.1225000048069
 22
375.7307974937045
 32
0.0
 13
843.1225000048069
 23
375.7307974937045
 33
0.0
  0
SOLID
  5
510E
330
5108
100
AcDbEntity
  8
0
  6
Continuous
 62
     0
100
AcDbTrace
 10
843.092500004807
 20
380.6107974937045
 30
0.0
 11
843.1525000048068
 21
380.6107974937045
 31
0.0
 12
843.1225000048069
 22
380.7907974937045
 32
0.0
 13
843.1225000048069
 23
380.7907974937045
 33
0.0
  0
MTEXT
  5
510F
330
5108
100
AcDbEntity
  8
0
  6
Continuous
 62
     0
100
AcDbMText
 10
843.1225000048069
 20
378.2607974937046
 30
0.0
 40
0.18
 41
0.0
 46
0.0
 71
     5
 72
     1
  1
\A1;5.0600
 73
     1
 44
1.0
1001
ACAD
1000
MTEXTBEGIN
1070
    73
1070
     1
1070
    44
1040
1.0
1070
    74
1070
     0
1000
MTEXTEND
  0
POINT
  5
5110
330
5108
100
AcDbEntity
  8
DEFPOINTS
  6
Continuous
 62
     0
100
AcDbPoint
 10
818.7467368421049
 20
375.7307974937045
 30
0.0
  0
POINT
  5
5111
330
5108
100
AcDbEntity
  8
DEFPOINTS
  6
Continuous
 62
     0
100
AcDbPoint
 10
818.7467368421049
 20
380.7907974937045
 30
0.0
  0
POINT
  5
5112
330
5108
100
AcDbEntity
  8
DEFPOINTS
  6
Continuous
 62
     0
100
AcDbPoint
 10
843.1225000048069
 20
380.7907974937045
 30
0.0
  0
ENDBLK
  5
5114
330
5108
100
AcDbEntity
  8
0
100
AcDbBlockEnd
  0
BLOCK
  5
5213
330
5209
100
AcDbEntity
  8
0
100
AcDbBlockBegin
  2
*D16
 70
     1
 10
0.0
 20
0.0
 30
0.0
  3
*D16
  1

  0
LINE
  5
5827
330
5209
100
AcDbEntity
  8
30
  6
Continuous
 62
     0
100
AcDbLine
 10
258.0001089354264
 20
-3.499987637474178
 30
0.0
 11
258.0001089354264
 21
-172.8996379392699
 31
0.0
  0
LINE
  5
5828
330
5209
100
AcDbEntity
  8
30
  6
Continuous
 62
     0
100
AcDbLine
 10
294.9999257258451
 20
-106.9994751293082
 30
0.0
 11
294.9999257258451
 21
-172.8996379392699
 31
0.0
  0
LINE
  5
5829
330
5209
100
AcDbEntity
  8
30
  6
Continuous
 62
     0
100
AcDbLine
 10
260.0001089354264
 20
-172.3996379392699
 30
0.0
 11
292.9999257258451
 21
-172.3996379392699
 31
0.0
  0
INSERT
  5
582A
330
5209
100
AcDbEntity
  8
30
  6
Continuous
 62
     0
100
AcDbBlockReference
  2
_OPEN
 10
258.0001089354264
 20
-172.3996379392699
 30
0.0
 41
2.0
 42
2.0
 43
2.0
 50
180.0
  0
INSERT
  5
582B
330
5209
100
AcDbEntity
  8
30
  6
Continuous
 62
     0
100
AcDbBlockReference
  2
_OPEN
 10
294.9999257258451
 20
-172.3996379392699
 30
0.0
 41
2.0
 42
2.0
 43
2.0
  0
MTEXT
  5
582C
330
5209
100
AcDbEntity
  8
30
  6
Continuous
 62
     0
100
AcDbMText
 10
276.5000173306356
 20
-169.39963793927
 30
0.0
 40
4.0
 41
0.0
 46
0.0
 71
     5
 72
     1
  1
\A1;37
 73
     1
 44
1.0
1001
ACAD
1000
MTEXTBEGIN
1070
    73
1070
     1
1070
    44
1040
1.0
1070
    74
1070
     0
1000
MTEXTEND
  0
POINT
  5
582D
330
5209
100
AcDbEntity
  8
DEFPOINTS
  6
Continuous
 62
     0
100
AcDbPoint
 10
258.0001089354264
 20
-2.499987637474178
 30
0.0
  0
POINT
  5
582E
330
5209
100
AcDbEntity
  8
DEFPOINTS
  6
Continuous
 62
     0
100
AcDbPoint
 10
294.9999257258451
 20
-105.9994751293082
 30
0.0
  0
POINT
  5
582F
330
5209
100
AcDbEntity
  8
DEFPOINTS
  6
Continuous
 62
     0
100
AcDbPoint
 10
294.9999257258451
 20
-172.3996379392699
 30
0.0
  0
ENDBLK
  5
5214
330
5209
100
AcDbEntity
  8
0
100
AcDbBlockEnd
  0
BLOCK
  5
522B
330
5221
100
AcDbEntity
  8
0
100
AcDbBlockBegin
  2
*D17
 70
     1
 10
0.0
 20
0.0
 30
0.0
  3
*D17
  1

  0
LINE
  5
5842
330
5221
100
AcDbEntity
  8
30
  6
Continuous
 62
     0
100
AcDbLine
 10
294.9999257258451
 20
-106.9994751293082
 30
0.0
 11
294.9999257258451
 21
-172.8996379392699
 31
0.0
  0
LINE
  5
5843
330
5221
100
AcDbEntity
  8
30
  6
Continuous
 62
     0
100
AcDbLine
 10
451.9991483230286
 20
-67.99966824211003
 30
0.0
 11
451.9991483230286
 21
-172.8996379392699
 31
0.0
  0
LINE
  5
5844
330
5221
100
AcDbEntity
  8
30
  6
Continuous
 62
     0
100
AcDbLine
 10
296.9999257258452
 20
-172.3996379392699
 30
0.0
 11
449.9991483230286
 21
-172.3996379392699
 31
0.0
  0
INSERT
  5
5845
330
5221
100
AcDbEntity
  8
30
  6
Continuous
 62
     0
100
AcDbBlockReference
  2
_OPEN
 10
294.9999257258451
 20
-172.3996379392699
 30
0.0
 41
2.0
 42
2.0
 43
2.0
 50
180.0
  0
INSERT
  5
5846
330
5221
100
AcDbEntity
  8
30
  6
Continuous
 62
     0
100
AcDbBlockReference
  2
_OPEN
 10
451.9991483230286
 20
-172.3996379392699
 30
0.0
 41
2.0
 42
2.0
 43
2.0
  0
MTEXT
  5
5847
330
5221
100
AcDbEntity
  8
30
  6
Continuous
 62
     0
100
AcDbMText
 10
373.4995370244368
 20
-169.39963793927
 30
0.0
 40
4.0
 41
0.0
 46
0.0
 71
     5
 72
     1
  1
\A1;157
 73
     1
 44
1.0
1001
ACAD
1000
MTEXTBEGIN
1070
    73
1070
     1
1070
    44
1040
1.0
1070
    74
1070
     0
1000
MTEXTEND
  0
POINT
  5
5848
330
5221
100
AcDbEntity
  8
DEFPOINTS
  6
Continuous
 62
     0
100
AcDbPoint
 10
294.9999257258451
 20
-105.9994751293082
 30
0.0
  0
POINT
  5
5849
330
5221
100
AcDbEntity
  8
DEFPOINTS
  6
Continuous
 62
     0
100
AcDbPoint
 10
451.9991483230286
 20
-66.99966824211003
 30
0.0
  0
POINT
  5
584A
330
5221
100
AcDbEntity
  8
DEFPOINTS
  6
Continuous
 62
     0
100
AcDbPoint
 10
451.9991483230286
 20
-172.3996379392699
 30
0.0
  0
ENDBLK
  5
522C
330
5221
100
AcDbEntity
  8
0
100
AcDbBlockEnd
  0
BLOCK
  5
5237
330
522D
100
AcDbEntity
  8
0
100
AcDbBlockBegin
  2
*D18
 70
     1
 10
0.0
 20
0.0
 30
0.0
  3
*D18
  1

  0
LINE
  5
584B
330
522D
100
AcDbEntity
  8
30
  6
Continuous
 62
     0
100
AcDbLine
 10
294.9999257258451
 20
-106.9994751293082
 30
0.0
 11
294.9999257258451
 21
-147.8997617295273
 31
0.0
  0
LINE
  5
584C
330
522D
100
AcDbEntity
  8
30
  6
Continuous
 62
     0
100
AcDbLine
 10
401.999395903543
 20
-67.99966824211003
 30
0.0
 11
401.999395903543
 21
-147.8997617295273
 31
0.0
  0
LINE
  5
584D
330
522D
100
AcDbEntity
  8
30
  6
Continuous
 62
     0
100
AcDbLine
 10
296.9999257258452
 20
-147.3997617295276
 30
0.0
 11
399.9993959035433
 21
-147.3997617295276
 31
0.0
  0
INSERT
  5
584E
330
522D
100
AcDbEntity
  8
30
  6
Continuous
 62
     0
100
AcDbBlockReference
  2
_OPEN
 10
294.9999257258451
 20
-147.3997617295276
 30
0.0
 41
2.0
 42
2.0
 43
2.0
 50
180.0
  0
INSERT
  5
584F
330
522D
100
AcDbEntity
  8
30
  6
Continuous
 62
     0
100
AcDbBlockReference
  2
_OPEN
 10
401.999395903543
 20
-147.3997617295276
 30
0.0
 41
2.0
 42
2.0
 43
2.0
  0
MTEXT
  5
5850
330
522D
100
AcDbEntity
  8
30
  6
Continuous
 62
     0
100
AcDbMText
 10
348.4996608146942
 20
-144.3997617295273
 30
0.0
 40
4.0
 41
0.0
 46
0.0
 71
     5
 72
     1
  1
\A1;107
 73
     1
 44
1.0
1001
ACAD
1000
MTEXTBEGIN
1070
    73
1070
     1
1070
    44
1040
1.0
1070
    74
1070
     0
1000
MTEXTEND
  0
POINT
  5
5851
330
522D
100
AcDbEntity
  8
DEFPOINTS
  6
Continuous
 62
     0
100
AcDbPoint
 10
294.9999257258451
 20
-105.9994751293082
 30
0.0
  0
POINT
  5
5852
330
522D
100
AcDbEntity
  8
DEFPOINTS
  6
Continuous
 62
     0
100
AcDbPoint
 10
401.999395903543
 20
-66.99966824211003
 30
0.0
  0
POINT
  5
5853
330
522D
100
AcDbEntity
  8
DEFPOINTS
  6
Continuous
 62
     0
100
AcDbPoint
 10
401.999395903543
 20
-147.3997617295276
 30
0.0
  0
ENDBLK
  5
5238
330
522D
100
AcDbEntity
  8
0
100
AcDbBlockEnd
  0
BLOCK
  5
5243
330
5239
100
AcDbEntity
  8
0
100
AcDbBlockBegin
  2
*D19
 70
     1
 10
0.0
 20
0.0
 30
0.0
  3
*D19
  1

  0
LINE
  5
5839
330
5239
100
AcDbEntity
  8
30
  6
Continuous
 62
     0
100
AcDbLine
 10
371.9995444518525
 20
-58.99970288688223
 30
0.0
 11
371.9995444518525
 21
-34.40031878568621
 31
0.0
  0
LINE
  5
583A
330
5239
100
AcDbEntity
  8
30
  6
Continuous
 62
     0
100
AcDbLine
 10
386.9994701776981
 20
-63.49968060463591
 30
0.0
 11
386.9994701776981
 21
-34.40031878568621
 31
0.0
  0
LINE
  5
583B
330
5239
100
AcDbEntity
  8
30
  6
Continuous
 62
     0
100
AcDbLine
 10
373.9995444518525
 20
-34.90031878568621
 30
0.0
 11
384.9994701776981
 21
-34.90031878568621
 31
0.0
  0
INSERT
  5
583C
330
5239
100
AcDbEntity
  8
30
  6
Continuous
 62
     0
100
AcDbBlockReference
  2
_OPEN
 10
371.9995444518525
 20
-34.90031878568621
 30
0.0
 41
2.0
 42
2.0
 43
2.0
 50
180.0
  0
INSERT
  5
583D
330
5239
100
AcDbEntity
  8
30
  6
Continuous
 62
     0
100
AcDbBlockReference
  2
_OPEN
 10
386.9994701776981
 20
-34.90031878568621
 30
0.0
 41
2.0
 42
2.0
 43
2.0
  0
MTEXT
  5
583E
330
5239
100
AcDbEntity
  8
30
  6
Continuous
 62
     0
100
AcDbMText
 10
379.4995073147753
 20
-31.90031878568621
 30
0.0
 40
4.0
 41
0.0
 46
0.0
 71
     5
 72
     1
  1
\A1;15
 73
     1
 44
1.0
1001
ACAD
1000
MTEXTBEGIN
1070
    73
1070
     1
1070
    44
1040
1.0
1070
    74
1070
     0
1000
MTEXTEND
  0
POINT
  5
583F
330
5239
100
AcDbEntity
  8
DEFPOINTS
  6
Continuous
 62
     0
100
AcDbPoint
 10
371.9995444518525
 20
-59.99970288688222
 30
0.0
  0
POINT
  5
5840
330
5239
100
AcDbEntity
  8
DEFPOINTS
  6
Continuous
 62
     0
100
AcDbPoint
 10
386.9994701776981
 20
-64.49968060463591
 30
0.0
  0
POINT
  5
5841
330
5239
100
AcDbEntity
  8
DEFPOINTS
  6
Continuous
 62
     0
100
AcDbPoint
 10
386.9994701776981
 20
-34.90031878568621
 30
0.0
  0
ENDBLK
  5
5244
330
5239
100
AcDbEntity
  8
0
100
AcDbBlockEnd
  0
BLOCK
  5
524F
330
5245
100
AcDbEntity
  8
0
100
AcDbBlockBegin
  2
*D20
 70
     1
 10
0.0
 20
0.0
 30
0.0
  3
*D20
  1

  0
LINE
  5
5854
330
5245
100
AcDbEntity
  8
30
  6
Continuous
 62
     0
100
AcDbLine
 10
280.0
 20
-96.99952464541125
 30
0.0
 11
280.0
 21
-147.8997617295273
 31
0.0
  0
LINE
  5
5855
330
5245
100
AcDbEntity
  8
30
  6
Continuous
 62
     0
100
AcDbLine
 10
294.9999257258451
 20
-106.9994751293082
 30
0.0
 11
294.9999257258451
 21
-147.8997617295273
 31
0.0
  0
LINE
  5
5856
330
5245
100
AcDbEntity
  8
30
  6
Continuous
 62
     0
100
AcDbLine
 10
282.0
 20
-147.3997617295276
 30
0.0
 11
292.9999257258451
 21
-147.3997617295276
 31
0.0
  0
INSERT
  5
5857
330
5245
100
AcDbEntity
  8
30
  6
Continuous
 62
     0
100
AcDbBlockReference
  2
_OPEN
 10
280.0
 20
-147.3997617295276
 30
0.0
 41
2.0
 42
2.0
 43
2.0
 50
180.0
  0
INSERT
  5
5858
330
5245
100
AcDbEntity
  8
30
  6
Continuous
 62
     0
100
AcDbBlockReference
  2
_OPEN
 10
294.9999257258451
 20
-147.3997617295276
 30
0.0
 41
2.0
 42
2.0
 43
2.0
  0
MTEXT
  5
5859
330
5245
100
AcDbEntity
  8
30
  6
Continuous
 62
     0
100
AcDbMText
 10
287.4999628629226
 20
-144.3997617295273
 30
0.0
 40
4.0
 41
0.0
 46
0.0
 71
     5
 72
     1
  1
\A1;15
 73
     1
 44
1.0
1001
ACAD
1000
MTEXTBEGIN
1070
    73
1070
     1
1070
    44
1040
1.0
1070
    74
1070
     0
1000
MTEXTEND
  0
POINT
  5
585A
330
5245
100
AcDbEntity
  8
DEFPOINTS
  6
Continuous
 62
     0
100
AcDbPoint
 10
280.0
 20
-95.99952464541123
 30
0.0
  0
POINT
  5
585B
330
5245
100
AcDbEntity
  8
DEFPOINTS
  6
Continuous
 62
     0
100
AcDbPoint
 10
294.9999257258451
 20
-105.9994751293082
 30
0.0
  0
POINT
  5
585C
330
5245
100
AcDbEntity
  8
DEFPOINTS
  6
Continuous
 62
     0
100
AcDbPoint
 10
294.9999257258451
 20
-147.3997617295276
 30
0.0
  0
ENDBLK
  5
5250
330
5245
100
AcDbEntity
  8
0
100
AcDbBlockEnd
  0
BLOCK
  5
525B
330
5251
100
AcDbEntity
  8
0
100
AcDbBlockBegin
  2
*D21
 70
     1
 10
0.0
 20
0.0
 30
0.0
  3
*D21
  1

  0
LINE
  5
5866
330
5251
100
AcDbEntity
  8
30
  6
Continuous
 62
     0
100
AcDbLine
 10
436.9992225971832
 20
-70.49965587958424
 30
0.0
 11
436.9992225971832
 21
-122.8998855197852
 31
0.0
  0
LINE
  5
5867
330
5251
100
AcDbEntity
  8
30
  6
Continuous
 62
     0
100
AcDbLine
 10
451.9991483230286
 20
-77.28671009944187
 30
0.0
 11
451.9991483230286
 21
-122.8998855197852
 31
0.0
  0
LINE
  5
5868
330
5251
100
AcDbEntity
  8
30
  6
Continuous
 62
     0
100
AcDbLine
 10
438.999222597183
 20
-122.3998855197852
 30
0.0
 11
449.9991483230286
 21
-122.3998855197852
 31
0.0
  0
INSERT
  5
5869
330
5251
100
AcDbEntity
  8
30
  6
Continuous
 62
     0
100
AcDbBlockReference
  2
_OPEN
 10
436.9992225971832
 20
-122.3998855197852
 30
0.0
 41
2.0
 42
2.0
 43
2.0
 50
180.0
  0
INSERT
  5
586A
330
5251
100
AcDbEntity
  8
30
  6
Continuous
 62
     0
100
AcDbBlockReference
  2
_OPEN
 10
451.9991483230286
 20
-122.3998855197852
 30
0.0
 41
2.0
 42
2.0
 43
2.0
  0
MTEXT
  5
586B
330
5251
100
AcDbEntity
  8
30
  6
Continuous
 62
     0
100
AcDbMText
 10
444.4991854601059
 20
-119.3998855197851
 30
0.0
 40
4.0
 41
0.0
 46
0.0
 71
     5
 72
     1
  1
\A1;15
 73
     1
 44
1.0
1001
ACAD
1000
MTEXTBEGIN
1070
    73
1070
     1
1070
    44
1040
1.0
1070
    74
1070
     0
1000
MTEXTEND
  0
POINT
  5
586C
330
5251
100
AcDbEntity
  8
DEFPOINTS
  6
Continuous
 62
     0
100
AcDbPoint
 10
436.9992225971832
 20
-69.49965587958423
 30
0.0
  0
POINT
  5
586D
330
5251
100
AcDbEntity
  8
DEFPOINTS
  6
Continuous
 62
     0
100
AcDbPoint
 10
451.9991483230286
 20
-76.28671009944188
 30
0.0
  0
POINT
  5
586E
330
5251
100
AcDbEntity
  8
DEFPOINTS
  6
Continuous
 62
     0
100
AcDbPoint
 10
451.9991483230286
 20
-122.3998855197852
 30
0.0
  0
ENDBLK
  5
525C
330
5251
100
AcDbEntity
  8
0
100
AcDbBlockEnd
  0
BLOCK
  5
5267
330
525D
100
AcDbEntity
  8
0
100
AcDbBlockBegin
  2
*D22
 70
     1
 10
0.0
 20
0.0
 30
0.0
  3
*D22
  1

  0
LINE
  5
585D
330
525D
100
AcDbEntity
  8
30
  6
Continuous
 62
     0
100
AcDbLine
 10
386.9994701776981
 20
-70.49965587958424
 30
0.0
 11
386.9994701776981
 21
-122.8998855197852
 31
0.0
  0
LINE
  5
585E
330
525D
100
AcDbEntity
  8
30
  6
Continuous
 62
     0
100
AcDbLine
 10
401.999395903543
 20
-77.28671009944187
 30
0.0
 11
401.999395903543
 21
-122.8998855197852
 31
0.0
  0
LINE
  5
585F
330
525D
100
AcDbEntity
  8
30
  6
Continuous
 62
     0
100
AcDbLine
 10
388.9994701776982
 20
-122.3998855197852
 30
0.0
 11
399.9993959035433
 21
-122.3998855197852
 31
0.0
  0
INSERT
  5
5860
330
525D
100
AcDbEntity
  8
30
  6
Continuous
 62
     0
100
AcDbBlockReference
  2
_OPEN
 10
386.9994701776981
 20
-122.3998855197852
 30
0.0
 41
2.0
 42
2.0
 43
2.0
 50
180.0
  0
INSERT
  5
5861
330
525D
100
AcDbEntity
  8
30
  6
Continuous
 62
     0
100
AcDbBlockReference
  2
_OPEN
 10
401.999395903543
 20
-122.3998855197852
 30
0.0
 41
2.0
 42
2.0
 43
2.0
  0
MTEXT
  5
5862
330
525D
100
AcDbEntity
  8
30
  6
Continuous
 62
     0
100
AcDbMText
 10
394.4994330406207
 20
-119.3998855197851
 30
0.0
 40
4.0
 41
0.0
 46
0.0
 71
     5
 72
     1
  1
\A1;15
 73
     1
 44
1.0
1001
ACAD
1000
MTEXTBEGIN
1070
    73
1070
     1
1070
    44
1040
1.0
1070
    74
1070
     0
1000
MTEXTEND
  0
POINT
  5
5863
330
525D
100
AcDbEntity
  8
DEFPOINTS
  6
Continuous
 62
     0
100
AcDbPoint
 10
386.9994701776981
 20
-69.49965587958423
 30
0.0
  0
POINT
  5
5864
330
525D
100
AcDbEntity
  8
DEFPOINTS
  6
Continuous
 62
     0
100
AcDbPoint
 10
401.999395903543
 20
-76.28671009944188
 30
0.0
  0
POINT
  5
5865
330
525D
100
AcDbEntity
  8
DEFPOINTS
  6
Continuous
 62
     0
100
AcDbPoint
 10
401.999395903543
 20
-122.3998855197852
 30
0.0
  0
ENDBLK
  5
5268
330
525D
100
AcDbEntity
  8
0
100
AcDbBlockEnd
  0
BLOCK
  5
5273
330
5269
100
AcDbEntity
  8
0
100
AcDbBlockBegin
  2
*D23
 70
     1
 10
0.0
 20
0.0
 30
0.0
  3
*D23
  1

  0
LINE
  5
586F
330
5269
100
AcDbEntity
  8
30
  6
Continuous
 62
     0
100
AcDbLine
 10
450.8555653978196
 20
-74.99962862922766
 30
0.0
 11
476.585751547754
 21
-74.99962862922766
 31
0.0
  0
LINE
  5
5870
330
5269
100
AcDbEntity
  8
30
  6
Continuous
 62
     0
100
AcDbLine
 10
450.8555653978196
 20
-58.99970785499242
 30
0.0
 11
476.585751547754
 21
-58.99970785499242
 31
0.0
  0
LINE
  5
5871
330
5269
100
AcDbEntity
  8
30
  6
Continuous
 62
     0
100
AcDbLine
 10
476.085751547754
 20
-72.99962862922765
 30
0.0
 11
476.085751547754
 21
-60.99970785499241
 31
0.0
  0
INSERT
  5
5872
330
5269
100
AcDbEntity
  8
30
  6
Continuous
 62
     0
100
AcDbBlockReference
  2
_OPEN
 10
476.085751547754
 20
-74.99962862922766
 30
0.0
 41
2.0
 42
2.0
 43
2.0
 50
270.0
  0
INSERT
  5
5873
330
5269
100
AcDbEntity
  8
30
  6
Continuous
 62
     0
100
AcDbBlockReference
  2
_OPEN
 10
476.085751547754
 20
-58.99970785499242
 30
0.0
 41
2.0
 42
2.0
 43
2.0
 50
90.0
  0
MTEXT
  5
5874
330
5269
100
AcDbEntity
  8
30
  6
Continuous
 62
     0
100
AcDbMText
 10
473.085751547754
 20
-66.99966824210996
 30
0.0
 40
4.0
 41
0.0
 46
0.0
 71
     5
 72
     1
  1
\A1;16
 11
0.0000000000000001
 21
1.0
 31
0.0
 73
     1
 44
1.0
1001
ACAD
1000
MTEXTBEGIN
1070
    73
1070
     1
1070
    44
1040
1.0
1070
    74
1070
     0
1000
MTEXTEND
  0
POINT
  5
5875
330
5269
100
AcDbEntity
  8
DEFPOINTS
  6
Continuous
 62
     0
100
AcDbPoint
 10
449.8555653978195
 20
-74.99962862922766
 30
0.0
  0
POINT
  5
5876
330
5269
100
AcDbEntity
  8
DEFPOINTS
  6
Continuous
 62
     0
100
AcDbPoint
 10
449.8555653978195
 20
-58.99970785499242
 30
0.0
  0
POINT
  5
5877
330
5269
100
AcDbEntity
  8
DEFPOINTS
  6
Continuous
 62
     0
100
AcDbPoint
 10
476.085751547754
 20
-58.99970785499242
 30
0.0
  0
ENDBLK
  5
5274
330
5269
100
AcDbEntity
  8
0
100
AcDbBlockEnd
  0
BLOCK
  5
5281
330
5275
100
AcDbEntity
  8
0
100
AcDbBlockBegin
  2
*D24
 70
     1
 10
0.0
 20
0.0
 30
0.0
  3
*D24
  1

  0
LINE
  5
5878
330
5275
100
AcDbEntity
  8
30
  6
Continuous
 62
     0
100
AcDbLine
 10
452.9991483230286
 20
64.49968062113575
 30
0.0
 11
474.2524182144206
 21
64.49968062113575
 31
0.0
  0
LINE
  5
5879
330
5275
100
AcDbEntity
  8
30
  6
Continuous
 62
     0
100
AcDbLine
 10
452.9991483230286
 20
69.49965586308424
 30
0.0
 11
474.2524182144206
 21
69.49965586308424
 31
0.0
  0
LINE
  5
587A
330
5275
100
AcDbEntity
  8
30
  6
Continuous
 62
     0
100
AcDbLine
 10
473.7524182144206
 20
62.49968062113573
 30
0.0
 11
473.7524182144206
 21
60.49968062113574
 31
0.0
  0
LINE
  5
587B
330
5275
100
AcDbEntity
  8
30
  6
Continuous
 62
     0
100
AcDbLine
 10
473.7524182144206
 20
71.49965586308423
 30
0.0
 11
473.7524182144206
 21
73.49965586308425
 31
0.0
  0
LINE
  5
587C
330
5275
100
AcDbEntity
  8
30
  6
Continuous
 62
     0
100
AcDbLine
 10
473.7524182144206
 20
73.49965586308425
 30
0.0
 11
477.4190848810873
 21
73.49965586308425
 31
0.0
  0
INSERT
  5
587D
330
5275
100
AcDbEntity
  8
30
  6
Continuous
 62
     0
100
AcDbBlockReference
  2
_OPEN
 10
473.7524182144206
 20
64.49968062113575
 30
0.0
 41
2.0
 42
2.0
 43
2.0
 50
90.0
  0
INSERT
  5
587E
330
5275
100
AcDbEntity
  8
30
  6
Continuous
 62
     0
100
AcDbBlockReference
  2
_OPEN
 10
473.7524182144206
 20
69.49965586308424
 30
0.0
 41
2.0
 42
2.0
 43
2.0
 50
270.0
  0
MTEXT
  5
587F
330
5275
100
AcDbEntity
  8
30
  6
Continuous
 62
     0
100
AcDbMText
 10
476.085751547754
 20
76.49965586308431
 30
0.0
 40
4.0
 41
0.0
 46
0.0
 71
     5
 72
     1
  1
\A1;5
 73
     1
 44
1.0
1001
ACAD
1000
MTEXTBEGIN
1070
    73
1070
     1
1070
    44
1040
1.0
1070
    74
1070
     0
1000
MTEXTEND
  0
POINT
  5
5880
330
5275
100
AcDbEntity
  8
DEFPOINTS
  6
Continuous
 62
     0
100
AcDbPoint
 10
451.9991483230286
 20
64.49968062113575
 30
0.0
  0
POINT
  5
5881
330
5275
100
AcDbEntity
  8
DEFPOINTS
  6
Continuous
 62
     0
100
AcDbPoint
 10
451.9991483230286
 20
69.49965586308424
 30
0.0
  0
POINT
  5
5882
330
5275
100
AcDbEntity
  8
DEFPOINTS
  6
Continuous
 62
     0
100
AcDbPoint
 10
473.7524182144206
 20
69.49965586308424
 30
0.0
  0
ENDBLK
  5
5282
330
5275
100
AcDbEntity
  8
0
100
AcDbBlockEnd
  0
BLOCK
  5
5411
330
5407
100
AcDbEntity
  8
0
100
AcDbBlockBegin
  2
*D25
 70
     1
 10
0.0
 20
0.0
 30
0.0
  3
*D25
  1

  0
LINE
  5
5740
330
5407
100
AcDbEntity
  8
30
  6
Continuous
 62
     0
440
 16777216
100
AcDbLine
 10
-68.38009453517114
 20
-289.163123760855
 30
0.0
 11
-68.38009453517114
 21
-404.0636153436748
 31
0.0
  0
LINE
  5
5741
330
5407
100
AcDbEntity
  8
30
  6
Continuous
 62
     0
440
 16777216
100
AcDbLine
 10
67.61990546482874
 20
-289.163123760855
 30
0.0
 11
67.61990546482874
 21
-404.0636153436748
 31
0.0
  0
LINE
  5
5742
330
5407
100
AcDbEntity
  8
30
  6
Continuous
 62
     0
440
 16777216
100
AcDbLine
 10
-66.38009453517113
 20
-403.5636153436747
 30
0.0
 11
65.61990546482873
 21
-403.5636153436747
 31
0.0
  0
INSERT
  5
5743
330
5407
100
AcDbEntity
  8
30
  6
Continuous
 62
     0
440
 16777216
100
AcDbBlockReference
  2
_OPEN
 10
-68.38009453517114
 20
-403.5636153436747
 30
0.0
 41
2.0
 42
2.0
 43
2.0
 50
180.0
  0
INSERT
  5
5744
330
5407
100
AcDbEntity
  8
30
  6
Continuous
 62
     0
440
 16777216
100
AcDbBlockReference
  2
_OPEN
 10
67.61990546482874
 20
-403.5636153436747
 30
0.0
 41
2.0
 42
2.0
 43
2.0
  0
MTEXT
  5
5745
330
5407
100
AcDbEntity
  8
30
  6
Continuous
 62
     0
440
 16777216
100
AcDbMText
 10
-0.3800945351711958
 20
-400.5636153436748
 30
0.0
 40
4.0
 41
0.0
 46
0.0
 71
     5
 72
     1
  1
\A1;136
 73
     1
 44
1.0
1001
ACAD
1000
MTEXTBEGIN
1070
    73
1070
     1
1070
    44
1040
1.0
1070
    74
1070
     0
1000
MTEXTEND
  0
POINT
  5
5746
330
5407
100
AcDbEntity
  8
DEFPOINTS
  6
Continuous
 62
     0
440
 16777216
100
AcDbPoint
 10
-68.38009453517114
 20
-288.163123760855
 30
0.0
  0
POINT
  5
5747
330
5407
100
AcDbEntity
  8
DEFPOINTS
  6
Continuous
 62
     0
440
 16777216
100
AcDbPoint
 10
67.61990546482874
 20
-288.163123760855
 30
0.0
  0
POINT
  5
5748
330
5407
100
AcDbEntity
  8
DEFPOINTS
  6
Continuous
 62
     0
440
 16777216
100
AcDbPoint
 10
67.61990546482874
 20
-403.5636153436747
 30
0.0
  0
ENDBLK
  5
5412
330
5407
100
AcDbEntity
  8
0
100
AcDbBlockEnd
  0
BLOCK
  5
541D
330
5413
100
AcDbEntity
  8
0
100
AcDbBlockBegin
  2
*D26
 70
     1
 10
0.0
 20
0.0
 30
0.0
  3
*D26
  1

  0
LINE
  5
5737
330
5413
100
AcDbEntity
  8
30
  6
Continuous
 62
     0
440
 16777216
100
AcDbLine
 10
-63.38009453517095
 20
-344.1631237443548
 30
0.0
 11
-63.38009453517095
 21
-379.0636153436746
 31
0.0
  0
LINE
  5
5738
330
5413
100
AcDbEntity
  8
30
  6
Continuous
 62
     0
440
 16777216
100
AcDbLine
 10
62.61990546482903
 20
-344.1631237443548
 30
0.0
 11
62.61990546482903
 21
-379.0636153436746
 31
0.0
  0
LINE
  5
5739
330
5413
100
AcDbEntity
  8
30
  6
Continuous
 62
     0
440
 16777216
100
AcDbLine
 10
-61.38009453517097
 20
-378.5636153436747
 30
0.0
 11
60.61990546482903
 21
-378.5636153436747
 31
0.0
  0
INSERT
  5
573A
330
5413
100
AcDbEntity
  8
30
  6
Continuous
 62
     0
440
 16777216
100
AcDbBlockReference
  2
_OPEN
 10
-63.38009453517095
 20
-378.5636153436747
 30
0.0
 41
2.0
 42
2.0
 43
2.0
 50
180.0
  0
INSERT
  5
573B
330
5413
100
AcDbEntity
  8
30
  6
Continuous
 62
     0
440
 16777216
100
AcDbBlockReference
  2
_OPEN
 10
62.61990546482903
 20
-378.5636153436747
 30
0.0
 41
2.0
 42
2.0
 43
2.0
  0
MTEXT
  5
573C
330
5413
100
AcDbEntity
  8
30
  6
Continuous
 62
     0
440
 16777216
100
AcDbMText
 10
-0.3800945351709613
 20
-375.5636153436747
 30
0.0
 40
4.0
 41
0.0
 46
0.0
 71
     5
 72
     1
  1
\A1;126
 73
     1
 44
1.0
1001
ACAD
1000
MTEXTBEGIN
1070
    73
1070
     1
1070
    44
1040
1.0
1070
    74
1070
     0
1000
MTEXTEND
  0
POINT
  5
573D
330
5413
100
AcDbEntity
  8
DEFPOINTS
  6
Continuous
 62
     0
440
 16777216
100
AcDbPoint
 10
-63.38009453517095
 20
-343.1631237443548
 30
0.0
  0
POINT
  5
573E
330
5413
100
AcDbEntity
  8
DEFPOINTS
  6
Continuous
 62
     0
440
 16777216
100
AcDbPoint
 10
62.61990546482903
 20
-343.1631237443548
 30
0.0
  0
POINT
  5
573F
330
5413
100
AcDbEntity
  8
DEFPOINTS
  6
Continuous
 62
     0
440
 16777216
100
AcDbPoint
 10
62.61990546482903
 20
-378.5636153436747
 30
0.0
  0
ENDBLK
  5
541E
330
5413
100
AcDbEntity
  8
0
100
AcDbBlockEnd
  0
BLOCK
  5
543C
330
5432
100
AcDbEntity
  8
0
100
AcDbBlockBegin
  2
*D27
 70
     1
 10
0.0
 20
0.0
 30
0.0
  3
*D27
  1

  0
LINE
  5
572E
330
5432
100
AcDbEntity
  8
30
  6
Continuous
 62
     0
100
AcDbLine
 10
-30.97790353517138
 20
271.3553751724501
 30
0.0
 11
-30.97790353517138
 21
326.6448107631839
 31
0.0
  0
LINE
  5
572F
330
5432
100
AcDbEntity
  8
30
  6
Continuous
 62
     0
100
AcDbLine
 10
-1.017903535171255
 20
322.3953751724502
 30
0.0
 11
-1.017903535171255
 21
326.6448107631839
 31
0.0
  0
LINE
  5
5730
330
5432
100
AcDbEntity
  8
30
  6
Continuous
 62
     0
100
AcDbLine
 10
-28.97790353517137
 20
326.1448107631839
 30
0.0
 11
-3.017903535171256
 21
326.1448107631839
 31
0.0
  0
INSERT
  5
5731
330
5432
100
AcDbEntity
  8
30
  6
Continuous
 62
     0
100
AcDbBlockReference
  2
_OPEN
 10
-30.97790353517138
 20
326.1448107631839
 30
0.0
 41
2.0
 42
2.0
 43
2.0
 50
180.0
  0
INSERT
  5
5732
330
5432
100
AcDbEntity
  8
30
  6
Continuous
 62
     0
100
AcDbBlockReference
  2
_OPEN
 10
-1.017903535171255
 20
326.1448107631839
 30
0.0
 41
2.0
 42
2.0
 43
2.0
  0
MTEXT
  5
5733
330
5432
100
AcDbEntity
  8
30
  6
Continuous
 62
     0
100
AcDbMText
 10
-15.99790353517131
 20
329.1448107631838
 30
0.0
 40
4.0
 41
0.0
 46
0.0
 71
     5
 72
     1
  1
\A1;30
 73
     1
 44
1.0
1001
ACAD
1000
MTEXTBEGIN
1070
    73
1070
     1
1070
    44
1040
1.0
1070
    74
1070
     0
1000
MTEXTEND
  0
POINT
  5
5734
330
5432
100
AcDbEntity
  8
DEFPOINTS
  6
Continuous
 62
     0
100
AcDbPoint
 10
-30.97790353517138
 20
270.3553751724502
 30
0.0
  0
POINT
  5
5735
330
5432
100
AcDbEntity
  8
DEFPOINTS
  6
Continuous
 62
     0
100
AcDbPoint
 10
-1.017903535171255
 20
321.3953751724502
 30
0.0
  0
POINT
  5
5736
330
5432
100
AcDbEntity
  8
DEFPOINTS
  6
Continuous
 62
     0
100
AcDbPoint
 10
-1.017903535171255
 20
326.1448107631839
 30
0.0
  0
ENDBLK
  5
543D
330
5432
100
AcDbEntity
  8
0
100
AcDbBlockEnd
  0
BLOCK
  5
5448
330
543F
100
AcDbEntity
  8
0
100
AcDbBlockBegin
  2
*D28
 70
     1
 10
0.0
 20
0.0
 30
0.0
  3
*D28
  1

  0
LINE
  5
5726
330
543F
100
AcDbEntity
  8
30
  6
Continuous
 62
     0
100
AcDbLine
 10
28.94209646482864
 20
271.7953751724501
 30
0.0
 11
28.94209646482864
 21
326.6448107631839
 31
0.0
  0
LINE
  5
5727
330
543F
100
AcDbEntity
  8
30
  6
Continuous
 62
     0
100
AcDbLine
 10
0.9820964648287436
 20
326.1448107631839
 30
0.0
 11
26.94209646482864
 21
326.1448107631839
 31
0.0
  0
INSERT
  5
5728
330
543F
100
AcDbEntity
  8
30
  6
Continuous
 62
     0
100
AcDbBlockReference
  2
_OPEN
 10
-1.017903535171255
 20
326.1448107631839
 30
0.0
 41
2.0
 42
2.0
 43
2.0
 50
180.0
  0
INSERT
  5
5729
330
543F
100
AcDbEntity
  8
30
  6
Continuous
 62
     0
100
AcDbBlockReference
  2
_OPEN
 10
28.94209646482864
 20
326.1448107631839
 30
0.0
 41
2.0
 42
2.0
 43
2.0
  0
MTEXT
  5
572A
330
543F
100
AcDbEntity
  8
30
  6
Continuous
 62
     0
100
AcDbMText
 10
13.96209646482867
 20
329.1448107631838
 30
0.0
 40
4.0
 41
0.0
 46
0.0
 71
     5
 72
     1
  1
\A1;30
 73
     1
 44
1.0
1001
ACAD
1000
MTEXTBEGIN
1070
    73
1070
     1
1070
    44
1040
1.0
1070
    74
1070
     0
1000
MTEXTEND
  0
POINT
  5
572B
330
543F
100
AcDbEntity
  8
DEFPOINTS
  6
Continuous
 62
     0
100
AcDbPoint
 10
-1.017903535171255
 20
326.6448107631839
 30
0.0
  0
POINT
  5
572C
330
543F
100
AcDbEntity
  8
DEFPOINTS
  6
Continuous
 62
     0
100
AcDbPoint
 10
28.94209646482864
 20
270.7953751724502
 30
0.0
  0
POINT
  5
572D
330
543F
100
AcDbEntity
  8
DEFPOINTS
  6
Continuous
 62
     0
100
AcDbPoint
 10
28.94209646482864
 20
326.1448107631839
 30
0.0
  0
ENDBLK
  5
5449
330
543F
100
AcDbEntity
  8
0
100
AcDbBlockEnd
  0
BLOCK
  5
5481
330
5477
100
AcDbEntity
  8
0
100
AcDbBlockBegin
  2
*D29
 70
     1
 10
0.0
 20
0.0
 30
0.0
  3
*D29
  1

  0
LINE
  5
571D
330
5477
100
AcDbEntity
  8
30
  6
Continuous
 62
     0
440
 16777216
100
AcDbLine
 10
-78.49974009536143
 20
-96.2647216513492
 30
0.0
 11
-78.49974009536143
 21
-124.781538972208
 31
0.0
  0
LINE
  5
571E
330
5477
100
AcDbEntity
  8
30
  6
Continuous
 62
     0
440
 16777216
100
AcDbLine
 10
78.49974009536143
 20
-96.2647216513492
 30
0.0
 11
78.49974009536143
 21
-124.781538972208
 31
0.0
  0
LINE
  5
571F
330
5477
100
AcDbEntity
  8
30
  6
Continuous
 62
     0
440
 16777216
100
AcDbLine
 10
-76.49974009536143
 20
-124.2815389722079
 30
0.0
 11
76.49974009536143
 21
-124.2815389722079
 31
0.0
  0
INSERT
  5
5720
330
5477
100
AcDbEntity
  8
30
  6
Continuous
 62
     0
440
 16777216
100
AcDbBlockReference
  2
_OPEN
 10
-78.49974009536143
 20
-124.2815389722079
 30
0.0
 41
2.0
 42
2.0
 43
2.0
 50
180.0
  0
INSERT
  5
5721
330
5477
100
AcDbEntity
  8
30
  6
Continuous
 62
     0
440
 16777216
100
AcDbBlockReference
  2
_OPEN
 10
78.49974009536143
 20
-124.2815389722079
 30
0.0
 41
2.0
 42
2.0
 43
2.0
  0
MTEXT
  5
5722
330
5477
100
AcDbEntity
  8
30
  6
Continuous
 62
     0
440
 16777216
100
AcDbMText
 10
0.0000000000000073
 20
-121.2815389722079
 30
0.0
 40
4.0
 41
0.0
 46
0.0
 71
     5
 72
     1
  1
\A1;157
 73
     1
 44
1.0
1001
ACAD
1000
MTEXTBEGIN
1070
    73
1070
     1
1070
    44
1040
1.0
1070
    74
1070
     0
1000
MTEXTEND
  0
POINT
  5
5723
330
5477
100
AcDbEntity
  8
DEFPOINTS
  6
Continuous
 62
     0
440
 16777216
100
AcDbPoint
 10
-78.49974009536143
 20
-95.2647216513492
 30
0.0
  0
POINT
  5
5724
330
5477
100
AcDbEntity
  8
DEFPOINTS
  6
Continuous
 62
     0
440
 16777216
100
AcDbPoint
 10
78.49974009536143
 20
-95.2647216513492
 30
0.0
  0
POINT
  5
5725
330
5477
100
AcDbEntity
  8
DEFPOINTS
  6
Continuous
 62
     0
440
 16777216
100
AcDbPoint
 10
78.49974009536143
 20
-124.2815389722079
 30
0.0
  0
ENDBLK
  5
5482
330
5477
100
AcDbEntity
  8
0
100
AcDbBlockEnd
  0
BLOCK
  5
54E2
330
54D9
100
AcDbEntity
  8
0
100
AcDbBlockBegin
  2
*D30
 70
     1
 10
0.0
 20
0.0
 30
0.0
  3
*D30
  1

  0
LINE
  5
570C
330
54D9
100
AcDbEntity
  8
30
  6
Continuous
 62
     0
440
 16777216
100
AcDbLine
 10
100.6510546521082
 20
-204.873116845163
 30
0.0
 11
92.9843786553388
 21
-204.873116845163
 31
0.0
  0
LINE
  5
570D
330
54D9
100
AcDbEntity
  8
30
  6
Continuous
 62
     0
440
 16777216
100
AcDbLine
 10
92.9843786553388
 20
-204.873116845163
 30
0.0
 11
70.37744715978293
 21
-215.9520029230797
 31
0.0
  0
MTEXT
  5
570E
102
{ACAD_XDICTIONARY
360
5DD8
102
}
330
54D9
100
AcDbEntity
  8
30
  6
Continuous
 62
     0
440
 16777216
100
AcDbMText
 10
97.31772131877509
 20
-201.8731168451628
 30
0.0
 40
4.0
 41
0.0
 46
0.0
 71
     5
 72
     1
  1
\A1;∅6
 73
     1
 44
1.0
1001
ACAD
1000
MTEXTBEGIN
1070
    73
1070
     1
1070
    44
1040
1.0
1070
    74
1070
     0
1000
MTEXTEND
  0
INSERT
  5
570F
330
54D9
100
AcDbEntity
  8
30
  6
Continuous
 62
     0
440
 16777216
100
AcDbBlockReference
  2
_OPEN
 10
68.58151331877514
 20
-216.8321288451628
 30
0.0
 41
2.0
 42
2.0
 43
2.0
 50
206.1078983677151
  0
LINE
  5
5710
330
54D9
100
AcDbEntity
  8
30
  6
Continuous
 62
     0
440
 16777216
100
AcDbLine
 10
65.79761231877512
 20
-218.152317845163
 30
0.0
 11
65.9776123187751
 21
-218.152317845163
 31
0.0
  0
LINE
  5
5711
330
54D9
100
AcDbEntity
  8
30
  6
Continuous
 62
     0
440
 16777216
100
AcDbLine
 10
65.88761231877509
 20
-218.2423178451629
 30
0.0
 11
65.88761231877509
 21
-218.0623178451631
 31
0.0
  0
POINT
  5
5712
330
54D9
100
AcDbEntity
  8
DEFPOINTS
  6
Continuous
 62
     0
440
 16777216
100
AcDbPoint
 10
68.58151331877514
 20
-216.8321288451628
 30
0.0
  0
POINT
  5
5713
330
54D9
100
AcDbEntity
  8
DEFPOINTS
  6
Continuous
 62
     0
440
 16777216
100
AcDbPoint
 10
63.19371131877503
 20
-219.4725068451631
 30
0.0
  0
ENDBLK
  5
54E3
330
54D9
100
AcDbEntity
  8
0
100
AcDbBlockEnd
  0
BLOCK
  5
5609
330
55FF
100
AcDbEntity
  8
0
100
AcDbBlockBegin
  2
*D31
 70
     1
 10
0.0
 20
0.0
 30
0.0
  3
*D31
  1

  0
LINE
  5
5830
330
55FF
100
AcDbEntity
  8
30
  6
Continuous
 62
     0
100
AcDbLine
 10
462.9990988069256
 20
66.99966824210996
 30
0.0
 11
488.2367141808033
 21
66.99966824210996
 31
0.0
  0
LINE
  5
5831
330
55FF
100
AcDbEntity
  8
30
  6
Continuous
 62
     0
100
AcDbLine
 10
477.085751547754
 20
-66.99966824211003
 30
0.0
 11
488.2367141808033
 21
-66.99966824211005
 31
0.0
  0
LINE
  5
5832
330
55FF
100
AcDbEntity
  8
30
  6
Continuous
 62
     0
100
AcDbLine
 10
487.7367141808033
 20
64.99966824210996
 30
0.0
 11
487.7367141808033
 21
-64.99966824211004
 31
0.0
  0
INSERT
  5
5833
330
55FF
100
AcDbEntity
  8
30
  6
Continuous
 62
     0
100
AcDbBlockReference
  2
_OPEN
 10
487.7367141808033
 20
66.99966824210996
 30
0.0
 41
2.0
 42
2.0
 43
2.0
 50
90.0
  0
INSERT
  5
5834
330
55FF
100
AcDbEntity
  8
30
  6
Continuous
 62
     0
100
AcDbBlockReference
  2
_OPEN
 10
487.7367141808033
 20
-66.99966824211005
 30
0.0
 41
2.0
 42
2.0
 43
2.0
 50
270.0
  0
MTEXT
  5
5835
330
55FF
100
AcDbEntity
  8
30
  6
Continuous
 62
     0
100
AcDbMText
 10
484.7367141808033
 20
0.0000000000000345
 30
0.0
 40
4.0
 41
0.0
 46
0.0
 71
     5
 72
     1
  1
\A1;134
 11
0.0000000000000001
 21
1.0
 31
0.0
 73
     1
 44
1.0
1001
ACAD
1000
MTEXTBEGIN
1070
    73
1070
     1
1070
    44
1040
1.0
1070
    74
1070
     0
1000
MTEXTEND
  0
POINT
  5
5836
330
55FF
100
AcDbEntity
  8
DEFPOINTS
  6
Continuous
 62
     0
100
AcDbPoint
 10
461.9990988069256
 20
66.99966824210996
 30
0.0
  0
POINT
  5
5837
330
55FF
100
AcDbEntity
  8
DEFPOINTS
  6
Continuous
 62
     0
100
AcDbPoint
 10
476.085751547754
 20
-66.99966824211003
 30
0.0
  0
POINT
  5
5838
330
55FF
100
AcDbEntity
  8
DEFPOINTS
  6
Continuous
 62
     0
100
AcDbPoint
 10
487.7367141808033
 20
-66.99966824211005
 30
0.0
  0
ENDBLK
  5
560A
330
55FF
100
AcDbEntity
  8
0
100
AcDbBlockEnd
  0
BLOCK
  5
592E
330
5924
100
AcDbEntity
  8
0
100
AcDbBlockBegin
  2
*D32
 70
     1
 10
0.0
 20
0.0
 30
0.0
  3
*D32
  1

  0
LINE
  5
5925
330
5924
100
AcDbEntity
  8
30
  6
Continuous
 62
     0
440
 16777216
100
AcDbLine
 10
-74.49975664979702
 20
-95.9996821548369
 30
0.0
 11
-95.50000000000002
 21
-95.9996821548369
 31
0.0
  0
LINE
  5
5926
330
5924
100
AcDbEntity
  8
30
  6
Continuous
 62
     0
440
 16777216
100
AcDbLine
 10
-74.49975664979702
 20
95.99968215483697
 30
0.0
 11
-95.5
 21
95.99968215483697
 31
0.0
  0
LINE
  5
5927
330
5924
100
AcDbEntity
  8
30
  6
Continuous
 62
     0
440
 16777216
100
AcDbLine
 10
-95.00000000000005
 20
-93.9996821548369
 30
0.0
 11
-95.0
 21
93.99968215483696
 31
0.0
  0
INSERT
  5
5928
330
5924
100
AcDbEntity
  8
30
  6
Continuous
 62
     0
440
 16777216
100
AcDbBlockReference
  2
_OPEN
 10
-95.00000000000005
 20
-95.9996821548369
 30
0.0
 41
2.0
 42
2.0
 43
2.0
 50
270.0
  0
INSERT
  5
5929
330
5924
100
AcDbEntity
  8
30
  6
Continuous
 62
     0
440
 16777216
100
AcDbBlockReference
  2
_OPEN
 10
-95.0
 20
95.99968215483697
 30
0.0
 41
2.0
 42
2.0
 43
2.0
 50
90.0
  0
MTEXT
  5
592A
330
5924
100
AcDbEntity
  8
30
  6
Continuous
 62
     0
440
 16777216
100
AcDbMText
 10
-98.00000000000002
 20
0.0000000000000204
 30
0.0
 40
4.0
 41
0.0
 46
0.0
 71
     5
 72
     1
  1
\A1;192
 11
0.0000000000000001
 21
1.0
 31
0.0
 73
     1
 44
1.0
1001
ACAD
1000
MTEXTBEGIN
1070
    73
1070
     1
1070
    44
1040
1.0
1070
    74
1070
     0
1000
MTEXTEND
  0
POINT
  5
592B
330
5924
100
AcDbEntity
  8
DEFPOINTS
  6
Continuous
 62
     0
440
 16777216
100
AcDbPoint
 10
-73.49975664979702
 20
-95.9996821548369
 30
0.0
  0
POINT
  5
592C
330
5924
100
AcDbEntity
  8
DEFPOINTS
  6
Continuous
 62
     0
440
 16777216
100
AcDbPoint
 10
-73.49975664979702
 20
95.99968215483697
 30
0.0
  0
POINT
  5
592D
330
5924
100
AcDbEntity
  8
DEFPOINTS
  6
Continuous
 62
     0
440
 16777216
100
AcDbPoint
 10
-95.0
 20
95.99968215483697
 30
0.0
  0
ENDBLK
  5
592F
330
5924
100
AcDbEntity
  8
0
100
AcDbBlockEnd
  0
BLOCK
  5
59ED
330
59EC
100
AcDbEntity
  8
TOP
  6
Continuous
 62
     4
100
AcDbBlockBegin
  2
*U33
 70
     1
 10
0.0
 20
0.0
 30
0.0
  3
*U33
  1

  0
LINE
  5
59EE
330
59EC
100
AcDbEntity
  8
1
  6
ByBlock
 62
     0
100
AcDbLine
 10
287.2057572385031
 20
73.79512687471603
 30
0.0
 11
276.2057572385031
 21
73.79512687471603
 31
0.0
  0
LINE
  5
59EF
330
59EC
100
AcDbEntity
  8
1
  6
ByBlock
 62
     0
100
AcDbLine
 10
296.8913158503363
 20
94.37207082491942
 30
0.0
 11
287.2057572385031
 21
73.79512687471603
 31
0.0
  0
SOLID
  5
59F0
330
59EC
100
AcDbEntity
  8
1
  6
ByBlock
 62
     0
100
AcDbTrace
 10
296.8913158503363
 20
94.37207082491942
 30
0.0
 11
296.3411501381206
 21
92.42055119794148
 31
0.0
 12
295.7379635408423
 22
92.7044708682264
 32
0.0
 13
295.7379635408423
 23
92.7044708682264
 33
0.0
  0
TEXT
  5
59F1
330
59EC
100
AcDbEntity
  8
TOP
  6
ByBlock
 62
     0
100
AcDbText
 10
274.4739864025374
 20
72.54512687281603
 30
0.0
 40
2.500000003799998
  1
 
 41
1.189062499999995
  7
UGMTXT
100
AcDbText
  0
TEXT
  5
59F2
330
59EC
100
AcDbEntity
  8
TOP
  6
ByBlock
 62
     0
100
AcDbText
 10
272.742215566572
 20
72.54512687281603
 30
0.0
 40
2.500000003799998
  1
 
 41
1.189062499999995
  7
UGMTXT
100
AcDbText
  0
ENDBLK
  5
59F3
330
59EC
100
AcDbEntity
  8
0
100
AcDbBlockEnd
  0
BLOCK
  5
59F5
330
59F4
100
AcDbEntity
  8
0
100
AcDbBlockBegin
  2
*D34
 70
     1
 10
0.0
 20
0.0
 30
0.0
  3
*D34
  1

  0
LINE
  5
59F6
330
59F4
100
AcDbEntity
  8
30
  6
Continuous
 62
     0
370
    -2
100
AcDbLine
 10
158.0001089354263
 20
-3.499987637474178
 30
0.0
 11
158.0001089354263
 21
-172.8996379392698
 31
0.0
  0
LINE
  5
59F7
330
59F4
100
AcDbEntity
  8
30
  6
Continuous
 62
     0
370
    -2
100
AcDbLine
 10
194.9999257258451
 20
-106.9994751293082
 30
0.0
 11
194.9999257258451
 21
-172.8996379392698
 31
0.0
  0
LINE
  5
59F8
330
59F4
100
AcDbEntity
  8
30
  6
Continuous
 62
     0
370
    -2
100
AcDbLine
 10
160.0001089354263
 20
-172.3996379392698
 30
0.0
 11
192.9999257258451
 21
-172.3996379392698
 31
0.0
  0
INSERT
  5
59F9
330
59F4
100
AcDbEntity
  8
30
  6
Continuous
 62
     0
370
    -2
100
AcDbBlockReference
  2
_OPEN
 10
158.0001089354263
 20
-172.3996379392698
 30
0.0
 41
2.0
 42
2.0
 43
2.0
 50
180.0
  0
INSERT
  5
59FA
330
59F4
100
AcDbEntity
  8
30
  6
Continuous
 62
     0
370
    -2
100
AcDbBlockReference
  2
_OPEN
 10
194.9999257258451
 20
-172.3996379392698
 30
0.0
 41
2.0
 42
2.0
 43
2.0
  0
MTEXT
  5
59FB
330
59F4
100
AcDbEntity
  8
30
  6
Continuous
 62
     0
100
AcDbMText
 10
176.5000173306356
 20
-169.3996379392698
 30
0.0
 40
4.0
 41
0.0
 46
0.0
 71
     5
 72
     1
  1
\A1;37
 73
     1
 44
1.0
1001
ACAD
1000
MTEXTBEGIN
1070
    73
1070
     1
1070
    44
1040
1.0
1070
    74
1070
     0
1000
MTEXTEND
  0
POINT
  5
59FC
330
59F4
100
AcDbEntity
  8
DEFPOINTS
  6
Continuous
 62
     0
100
AcDbPoint
 10
158.0001089354263
 20
-2.499987637474178
 30
0.0
  0
POINT
  5
59FD
330
59F4
100
AcDbEntity
  8
DEFPOINTS
  6
Continuous
 62
     0
100
AcDbPoint
 10
194.9999257258451
 20
-105.9994751293082
 30
0.0
  0
POINT
  5
59FE
330
59F4
100
AcDbEntity
  8
DEFPOINTS
  6
Continuous
 62
     0
100
AcDbPoint
 10
194.9999257258451
 20
-172.3996379392698
 30
0.0
  0
ENDBLK
  5
59FF
330
59F4
100
AcDbEntity
  8
0
100
AcDbBlockEnd
  0
BLOCK
  5
5A01
330
5A00
100
AcDbEntity
  8
0
100
AcDbBlockBegin
  2
*D35
 70
     1
 10
0.0
 20
0.0
 30
0.0
  3
*D35
  1

  0
LINE
  5
5A02
330
5A00
100
AcDbEntity
  8
30
  6
Continuous
 62
     0
370
    -2
100
AcDbLine
 10
194.9999257258451
 20
-106.9994751293082
 30
0.0
 11
194.9999257258451
 21
-172.8996379392698
 31
0.0
  0
LINE
  5
5A03
330
5A00
100
AcDbEntity
  8
30
  6
Continuous
 62
     0
370
    -2
100
AcDbLine
 10
351.9991483230286
 20
-67.99966824211003
 30
0.0
 11
351.9991483230286
 21
-172.8996379392698
 31
0.0
  0
LINE
  5
5A04
330
5A00
100
AcDbEntity
  8
30
  6
Continuous
 62
     0
370
    -2
100
AcDbLine
 10
196.9999257258451
 20
-172.3996379392698
 30
0.0
 11
349.9991483230286
 21
-172.3996379392698
 31
0.0
  0
INSERT
  5
5A05
330
5A00
100
AcDbEntity
  8
30
  6
Continuous
 62
     0
370
    -2
100
AcDbBlockReference
  2
_OPEN
 10
194.9999257258451
 20
-172.3996379392698
 30
0.0
 41
2.0
 42
2.0
 43
2.0
 50
180.0
  0
INSERT
  5
5A06
330
5A00
100
AcDbEntity
  8
30
  6
Continuous
 62
     0
370
    -2
100
AcDbBlockReference
  2
_OPEN
 10
351.9991483230286
 20
-172.3996379392698
 30
0.0
 41
2.0
 42
2.0
 43
2.0
  0
MTEXT
  5
5A07
330
5A00
100
AcDbEntity
  8
30
  6
Continuous
 62
     0
100
AcDbMText
 10
273.4995370244369
 20
-169.3996379392698
 30
0.0
 40
4.0
 41
0.0
 46
0.0
 71
     5
 72
     1
  1
\A1;157
 73
     1
 44
1.0
1001
ACAD
1000
MTEXTBEGIN
1070
    73
1070
     1
1070
    44
1040
1.0
1070
    74
1070
     0
1000
MTEXTEND
  0
POINT
  5
5A08
330
5A00
100
AcDbEntity
  8
DEFPOINTS
  6
Continuous
 62
     0
100
AcDbPoint
 10
194.9999257258451
 20
-105.9994751293082
 30
0.0
  0
POINT
  5
5A09
330
5A00
100
AcDbEntity
  8
DEFPOINTS
  6
Continuous
 62
     0
100
AcDbPoint
 10
351.9991483230286
 20
-66.99966824211003
 30
0.0
  0
POINT
  5
5A0A
330
5A00
100
AcDbEntity
  8
DEFPOINTS
  6
Continuous
 62
     0
100
AcDbPoint
 10
351.9991483230286
 20
-172.3996379392698
 30
0.0
  0
ENDBLK
  5
5A0B
330
5A00
100
AcDbEntity
  8
0
100
AcDbBlockEnd
  0
BLOCK
  5
5A0D
330
5A0C
100
AcDbEntity
  8
0
100
AcDbBlockBegin
  2
*D36
 70
     1
 10
0.0
 20
0.0
 30
0.0
  3
*D36
  1

  0
LINE
  5
5A0E
330
5A0C
100
AcDbEntity
  8
30
  6
Continuous
 62
     0
370
    -2
100
AcDbLine
 10
194.9999257258451
 20
-106.9994751293082
 30
0.0
 11
194.9999257258451
 21
-147.8997617295276
 31
0.0
  0
LINE
  5
5A0F
330
5A0C
100
AcDbEntity
  8
30
  6
Continuous
 62
     0
370
    -2
100
AcDbLine
 10
301.9993959035433
 20
-67.99966824211003
 30
0.0
 11
301.9993959035433
 21
-147.8997617295276
 31
0.0
  0
LINE
  5
5A10
330
5A0C
100
AcDbEntity
  8
30
  6
Continuous
 62
     0
370
    -2
100
AcDbLine
 10
196.9999257258451
 20
-147.3997617295276
 30
0.0
 11
299.9993959035433
 21
-147.3997617295276
 31
0.0
  0
INSERT
  5
5A11
330
5A0C
100
AcDbEntity
  8
30
  6
Continuous
 62
     0
370
    -2
100
AcDbBlockReference
  2
_OPEN
 10
194.9999257258451
 20
-147.3997617295276
 30
0.0
 41
2.0
 42
2.0
 43
2.0
 50
180.0
  0
INSERT
  5
5A12
330
5A0C
100
AcDbEntity
  8
30
  6
Continuous
 62
     0
370
    -2
100
AcDbBlockReference
  2
_OPEN
 10
301.9993959035433
 20
-147.3997617295276
 30
0.0
 41
2.0
 42
2.0
 43
2.0
  0
MTEXT
  5
5A13
330
5A0C
100
AcDbEntity
  8
30
  6
Continuous
 62
     0
100
AcDbMText
 10
248.4996608146942
 20
-144.3997617295276
 30
0.0
 40
4.0
 41
0.0
 46
0.0
 71
     5
 72
     1
  1
\A1;107
 73
     1
 44
1.0
1001
ACAD
1000
MTEXTBEGIN
1070
    73
1070
     1
1070
    44
1040
1.0
1070
    74
1070
     0
1000
MTEXTEND
  0
POINT
  5
5A14
330
5A0C
100
AcDbEntity
  8
DEFPOINTS
  6
Continuous
 62
     0
100
AcDbPoint
 10
194.9999257258451
 20
-105.9994751293082
 30
0.0
  0
POINT
  5
5A15
330
5A0C
100
AcDbEntity
  8
DEFPOINTS
  6
Continuous
 62
     0
100
AcDbPoint
 10
301.9993959035433
 20
-66.99966824211003
 30
0.0
  0
POINT
  5
5A16
330
5A0C
100
AcDbEntity
  8
DEFPOINTS
  6
Continuous
 62
     0
100
AcDbPoint
 10
301.9993959035433
 20
-147.3997617295276
 30
0.0
  0
ENDBLK
  5
5A17
330
5A0C
100
AcDbEntity
  8
0
100
AcDbBlockEnd
  0
BLOCK
  5
5A19
330
5A18
100
AcDbEntity
  8
0
100
AcDbBlockBegin
  2
*D37
 70
     1
 10
0.0
 20
0.0
 30
0.0
  3
*D37
  1

  0
LINE
  5
5A1A
330
5A18
100
AcDbEntity
  8
30
  6
Continuous
 62
     0
370
    -2
100
AcDbLine
 10
271.9995444518525
 20
-58.99970288688222
 30
0.0
 11
271.9995444518525
 21
-34.40031878568621
 31
0.0
  0
LINE
  5
5A1B
330
5A18
100
AcDbEntity
  8
30
  6
Continuous
 62
     0
370
    -2
100
AcDbLine
 10
286.9994701776981
 20
-63.49968060463591
 30
0.0
 11
286.9994701776981
 21
-34.40031878568621
 31
0.0
  0
LINE
  5
5A1C
330
5A18
100
AcDbEntity
  8
30
  6
Continuous
 62
     0
370
    -2
100
AcDbLine
 10
273.9995444518525
 20
-34.90031878568621
 30
0.0
 11
284.9994701776981
 21
-34.90031878568621
 31
0.0
  0
INSERT
  5
5A1D
330
5A18
100
AcDbEntity
  8
30
  6
Continuous
 62
     0
370
    -2
100
AcDbBlockReference
  2
_OPEN
 10
271.9995444518525
 20
-34.90031878568621
 30
0.0
 41
2.0
 42
2.0
 43
2.0
 50
180.0
  0
INSERT
  5
5A1E
330
5A18
100
AcDbEntity
  8
30
  6
Continuous
 62
     0
370
    -2
100
AcDbBlockReference
  2
_OPEN
 10
286.9994701776981
 20
-34.90031878568621
 30
0.0
 41
2.0
 42
2.0
 43
2.0
  0
MTEXT
  5
5A1F
330
5A18
100
AcDbEntity
  8
30
  6
Continuous
 62
     0
100
AcDbMText
 10
279.4995073147753
 20
-31.90031878568621
 30
0.0
 40
4.0
 41
0.0
 46
0.0
 71
     5
 72
     1
  1
\A1;15
 73
     1
 44
1.0
1001
ACAD
1000
MTEXTBEGIN
1070
    73
1070
     1
1070
    44
1040
1.0
1070
    74
1070
     0
1000
MTEXTEND
  0
POINT
  5
5A20
330
5A18
100
AcDbEntity
  8
DEFPOINTS
  6
Continuous
 62
     0
100
AcDbPoint
 10
271.9995444518525
 20
-59.99970288688222
 30
0.0
  0
POINT
  5
5A21
330
5A18
100
AcDbEntity
  8
DEFPOINTS
  6
Continuous
 62
     0
100
AcDbPoint
 10
286.9994701776981
 20
-64.49968060463591
 30
0.0
  0
POINT
  5
5A22
330
5A18
100
AcDbEntity
  8
DEFPOINTS
  6
Continuous
 62
     0
100
AcDbPoint
 10
286.9994701776981
 20
-34.90031878568621
 30
0.0
  0
ENDBLK
  5
5A23
330
5A18
100
AcDbEntity
  8
0
100
AcDbBlockEnd
  0
BLOCK
  5
5A25
330
5A24
100
AcDbEntity
  8
0
100
AcDbBlockBegin
  2
*D38
 70
     1
 10
0.0
 20
0.0
 30
0.0
  3
*D38
  1

  0
LINE
  5
5A26
330
5A24
100
AcDbEntity
  8
30
  6
Continuous
 62
     0
370
    -2
100
AcDbLine
 10
180.0
 20
-96.99952464541125
 30
0.0
 11
180.0
 21
-147.8997617295276
 31
0.0
  0
LINE
  5
5A27
330
5A24
100
AcDbEntity
  8
30
  6
Continuous
 62
     0
370
    -2
100
AcDbLine
 10
194.9999257258451
 20
-106.9994751293082
 30
0.0
 11
194.9999257258451
 21
-147.8997617295276
 31
0.0
  0
LINE
  5
5A28
330
5A24
100
AcDbEntity
  8
30
  6
Continuous
 62
     0
370
    -2
100
AcDbLine
 10
182.0
 20
-147.3997617295276
 30
0.0
 11
192.9999257258451
 21
-147.3997617295276
 31
0.0
  0
INSERT
  5
5A29
330
5A24
100
AcDbEntity
  8
30
  6
Continuous
 62
     0
370
    -2
100
AcDbBlockReference
  2
_OPEN
 10
180.0
 20
-147.3997617295276
 30
0.0
 41
2.0
 42
2.0
 43
2.0
 50
180.0
  0
INSERT
  5
5A2A
330
5A24
100
AcDbEntity
  8
30
  6
Continuous
 62
     0
370
    -2
100
AcDbBlockReference
  2
_OPEN
 10
194.9999257258451
 20
-147.3997617295276
 30
0.0
 41
2.0
 42
2.0
 43
2.0
  0
MTEXT
  5
5A2B
330
5A24
100
AcDbEntity
  8
30
  6
Continuous
 62
     0
100
AcDbMText
 10
187.4999628629225
 20
-144.3997617295276
 30
0.0
 40
4.0
 41
0.0
 46
0.0
 71
     5
 72
     1
  1
\A1;15
 73
     1
 44
1.0
1001
ACAD
1000
MTEXTBEGIN
1070
    73
1070
     1
1070
    44
1040
1.0
1070
    74
1070
     0
1000
MTEXTEND
  0
POINT
  5
5A2C
330
5A24
100
AcDbEntity
  8
DEFPOINTS
  6
Continuous
 62
     0
100
AcDbPoint
 10
180.0
 20
-95.99952464541123
 30
0.0
  0
POINT
  5
5A2D
330
5A24
100
AcDbEntity
  8
DEFPOINTS
  6
Continuous
 62
     0
100
AcDbPoint
 10
194.9999257258451
 20
-105.9994751293082
 30
0.0
  0
POINT
  5
5A2E
330
5A24
100
AcDbEntity
  8
DEFPOINTS
  6
Continuous
 62
     0
100
AcDbPoint
 10
194.9999257258451
 20
-147.3997617295276
 30
0.0
  0
ENDBLK
  5
5A2F
330
5A24
100
AcDbEntity
  8
0
100
AcDbBlockEnd
  0
BLOCK
  5
5A31
330
5A30
100
AcDbEntity
  8
0
100
AcDbBlockBegin
  2
*D39
 70
     1
 10
0.0
 20
0.0
 30
0.0
  3
*D39
  1

  0
LINE
  5
5A32
330
5A30
100
AcDbEntity
  8
30
  6
Continuous
 62
     0
370
    -2
100
AcDbLine
 10
336.9992225971831
 20
-70.49965587958421
 30
0.0
 11
336.9992225971831
 21
-122.8998855197852
 31
0.0
  0
LINE
  5
5A33
330
5A30
100
AcDbEntity
  8
30
  6
Continuous
 62
     0
370
    -2
100
AcDbLine
 10
351.9991483230286
 20
-77.28671009944187
 30
0.0
 11
351.9991483230286
 21
-122.8998855197852
 31
0.0
  0
LINE
  5
5A34
330
5A30
100
AcDbEntity
  8
30
  6
Continuous
 62
     0
370
    -2
100
AcDbLine
 10
338.9992225971831
 20
-122.3998855197852
 30
0.0
 11
349.9991483230286
 21
-122.3998855197852
 31
0.0
  0
INSERT
  5
5A35
330
5A30
100
AcDbEntity
  8
30
  6
Continuous
 62
     0
370
    -2
100
AcDbBlockReference
  2
_OPEN
 10
336.9992225971831
 20
-122.3998855197852
 30
0.0
 41
2.0
 42
2.0
 43
2.0
 50
180.0
  0
INSERT
  5
5A36
330
5A30
100
AcDbEntity
  8
30
  6
Continuous
 62
     0
370
    -2
100
AcDbBlockReference
  2
_OPEN
 10
351.9991483230286
 20
-122.3998855197852
 30
0.0
 41
2.0
 42
2.0
 43
2.0
  0
MTEXT
  5
5A37
330
5A30
100
AcDbEntity
  8
30
  6
Continuous
 62
     0
100
AcDbMText
 10
344.4991854601059
 20
-119.3998855197852
 30
0.0
 40
4.0
 41
0.0
 46
0.0
 71
     5
 72
     1
  1
\A1;15
 73
     1
 44
1.0
1001
ACAD
1000
MTEXTBEGIN
1070
    73
1070
     1
1070
    44
1040
1.0
1070
    74
1070
     0
1000
MTEXTEND
  0
POINT
  5
5A38
330
5A30
100
AcDbEntity
  8
DEFPOINTS
  6
Continuous
 62
     0
100
AcDbPoint
 10
336.9992225971831
 20
-69.49965587958423
 30
0.0
  0
POINT
  5
5A39
330
5A30
100
AcDbEntity
  8
DEFPOINTS
  6
Continuous
 62
     0
100
AcDbPoint
 10
351.9991483230286
 20
-76.28671009944188
 30
0.0
  0
POINT
  5
5A3A
330
5A30
100
AcDbEntity
  8
DEFPOINTS
  6
Continuous
 62
     0
100
AcDbPoint
 10
351.9991483230286
 20
-122.3998855197852
 30
0.0
  0
ENDBLK
  5
5A3B
330
5A30
100
AcDbEntity
  8
0
100
AcDbBlockEnd
  0
BLOCK
  5
5A3D
330
5A3C
100
AcDbEntity
  8
0
100
AcDbBlockBegin
  2
*D40
 70
     1
 10
0.0
 20
0.0
 30
0.0
  3
*D40
  1

  0
LINE
  5
5A3E
330
5A3C
100
AcDbEntity
  8
30
  6
Continuous
 62
     0
370
    -2
100
AcDbLine
 10
286.9994701776981
 20
-70.49965587958421
 30
0.0
 11
286.9994701776981
 21
-122.8998855197852
 31
0.0
  0
LINE
  5
5A3F
330
5A3C
100
AcDbEntity
  8
30
  6
Continuous
 62
     0
370
    -2
100
AcDbLine
 10
301.9993959035433
 20
-77.28671009944187
 30
0.0
 11
301.9993959035433
 21
-122.8998855197852
 31
0.0
  0
LINE
  5
5A40
330
5A3C
100
AcDbEntity
  8
30
  6
Continuous
 62
     0
370
    -2
100
AcDbLine
 10
288.9994701776981
 20
-122.3998855197852
 30
0.0
 11
299.9993959035433
 21
-122.3998855197852
 31
0.0
  0
INSERT
  5
5A41
330
5A3C
100
AcDbEntity
  8
30
  6
Continuous
 62
     0
370
    -2
100
AcDbBlockReference
  2
_OPEN
 10
286.9994701776981
 20
-122.3998855197852
 30
0.0
 41
2.0
 42
2.0
 43
2.0
 50
180.0
  0
INSERT
  5
5A42
330
5A3C
100
AcDbEntity
  8
30
  6
Continuous
 62
     0
370
    -2
100
AcDbBlockReference
  2
_OPEN
 10
301.9993959035433
 20
-122.3998855197852
 30
0.0
 41
2.0
 42
2.0
 43
2.0
  0
MTEXT
  5
5A43
330
5A3C
100
AcDbEntity
  8
30
  6
Continuous
 62
     0
100
AcDbMText
 10
294.4994330406207
 20
-119.3998855197852
 30
0.0
 40
4.0
 41
0.0
 46
0.0
 71
     5
 72
     1
  1
\A1;15
 73
     1
 44
1.0
1001
ACAD
1000
MTEXTBEGIN
1070
    73
1070
     1
1070
    44
1040
1.0
1070
    74
1070
     0
1000
MTEXTEND
  0
POINT
  5
5A44
330
5A3C
100
AcDbEntity
  8
DEFPOINTS
  6
Continuous
 62
     0
100
AcDbPoint
 10
286.9994701776981
 20
-69.49965587958423
 30
0.0
  0
POINT
  5
5A45
330
5A3C
100
AcDbEntity
  8
DEFPOINTS
  6
Continuous
 62
     0
100
AcDbPoint
 10
301.9993959035433
 20
-76.28671009944188
 30
0.0
  0
POINT
  5
5A46
330
5A3C
100
AcDbEntity
  8
DEFPOINTS
  6
Continuous
 62
     0
100
AcDbPoint
 10
301.9993959035433
 20
-122.3998855197852
 30
0.0
  0
ENDBLK
  5
5A47
330
5A3C
100
AcDbEntity
  8
0
100
AcDbBlockEnd
  0
BLOCK
  5
5A49
330
5A48
100
AcDbEntity
  8
0
100
AcDbBlockBegin
  2
*D41
 70
     1
 10
0.0
 20
0.0
 30
0.0
  3
*D41
  1

  0
LINE
  5
5A4A
330
5A48
100
AcDbEntity
  8
30
  6
Continuous
 62
     0
370
    -2
100
AcDbLine
 10
350.8555653978196
 20
-74.99962862922766
 30
0.0
 11
376.5857515477538
 21
-74.99962862922767
 31
0.0
  0
LINE
  5
5A4B
330
5A48
100
AcDbEntity
  8
30
  6
Continuous
 62
     0
370
    -2
100
AcDbLine
 10
350.8555653978196
 20
-58.99970785499242
 30
0.0
 11
376.5857515477538
 21
-58.99970785499242
 31
0.0
  0
LINE
  5
5A4C
330
5A48
100
AcDbEntity
  8
30
  6
Continuous
 62
     0
370
    -2
100
AcDbLine
 10
376.0857515477538
 20
-72.99962862922767
 30
0.0
 11
376.0857515477538
 21
-60.99970785499241
 31
0.0
  0
INSERT
  5
5A4D
330
5A48
100
AcDbEntity
  8
30
  6
Continuous
 62
     0
370
    -2
100
AcDbBlockReference
  2
_OPEN
 10
376.0857515477538
 20
-74.99962862922767
 30
0.0
 41
2.0
 42
2.0
 43
2.0
 50
270.0
  0
INSERT
  5
5A4E
330
5A48
100
AcDbEntity
  8
30
  6
Continuous
 62
     0
370
    -2
100
AcDbBlockReference
  2
_OPEN
 10
376.0857515477538
 20
-58.99970785499242
 30
0.0
 41
2.0
 42
2.0
 43
2.0
 50
90.0
  0
MTEXT
  5
5A4F
330
5A48
100
AcDbEntity
  8
30
  6
Continuous
 62
     0
100
AcDbMText
 10
373.0857515477538
 20
-66.99966824210999
 30
0.0
 40
4.0
 41
0.0
 46
0.0
 71
     5
 72
     1
  1
\A1;16
 11
0.0000000000000001
 21
1.0
 31
0.0
 73
     1
 44
1.0
1001
ACAD
1000
MTEXTBEGIN
1070
    73
1070
     1
1070
    44
1040
1.0
1070
    74
1070
     0
1000
MTEXTEND
  0
POINT
  5
5A50
330
5A48
100
AcDbEntity
  8
DEFPOINTS
  6
Continuous
 62
     0
100
AcDbPoint
 10
349.8555653978196
 20
-74.99962862922766
 30
0.0
  0
POINT
  5
5A51
330
5A48
100
AcDbEntity
  8
DEFPOINTS
  6
Continuous
 62
     0
100
AcDbPoint
 10
349.8555653978196
 20
-58.99970785499242
 30
0.0
  0
POINT
  5
5A52
330
5A48
100
AcDbEntity
  8
DEFPOINTS
  6
Continuous
 62
     0
100
AcDbPoint
 10
376.0857515477538
 20
-58.99970785499242
 30
0.0
  0
ENDBLK
  5
5A53
330
5A48
100
AcDbEntity
  8
0
100
AcDbBlockEnd
  0
BLOCK
  5
5A55
330
5A54
100
AcDbEntity
  8
0
100
AcDbBlockBegin
  2
*D42
 70
     1
 10
0.0
 20
0.0
 30
0.0
  3
*D42
  1

  0
LINE
  5
5A56
330
5A54
100
AcDbEntity
  8
30
  6
Continuous
 62
     0
370
    -2
100
AcDbLine
 10
352.9991483230286
 20
64.49968062113573
 30
0.0
 11
374.2524182144205
 21
64.49968062113573
 31
0.0
  0
LINE
  5
5A57
330
5A54
100
AcDbEntity
  8
30
  6
Continuous
 62
     0
370
    -2
100
AcDbLine
 10
352.9991483230286
 20
69.49965586308421
 30
0.0
 11
374.2524182144205
 21
69.49965586308421
 31
0.0
  0
LINE
  5
5A58
330
5A54
100
AcDbEntity
  8
30
  6
Continuous
 62
     0
370
    -2
100
AcDbLine
 10
373.7524182144205
 20
62.49968062113573
 30
0.0
 11
373.7524182144205
 21
60.49968062113574
 31
0.0
  0
LINE
  5
5A59
330
5A54
100
AcDbEntity
  8
30
  6
Continuous
 62
     0
370
    -2
100
AcDbLine
 10
373.7524182144205
 20
71.49965586308423
 30
0.0
 11
373.7524182144205
 21
73.49965586308425
 31
0.0
  0
LINE
  5
5A5A
330
5A54
100
AcDbEntity
  8
30
  6
Continuous
 62
     0
370
    -2
100
AcDbLine
 10
373.7524182144205
 20
73.49965586308425
 30
0.0
 11
377.4190848810872
 21
73.49965586308425
 31
0.0
  0
INSERT
  5
5A5B
330
5A54
100
AcDbEntity
  8
30
  6
Continuous
 62
     0
370
    -2
100
AcDbBlockReference
  2
_OPEN
 10
373.7524182144205
 20
64.49968062113573
 30
0.0
 41
2.0
 42
2.0
 43
2.0
 50
90.0
  0
INSERT
  5
5A5C
330
5A54
100
AcDbEntity
  8
30
  6
Continuous
 62
     0
370
    -2
100
AcDbBlockReference
  2
_OPEN
 10
373.7524182144205
 20
69.49965586308421
 30
0.0
 41
2.0
 42
2.0
 43
2.0
 50
270.0
  0
MTEXT
  5
5A5D
330
5A54
100
AcDbEntity
  8
30
  6
Continuous
 62
     0
100
AcDbMText
 10
376.0857515477538
 20
76.4996558630843
 30
0.0
 40
4.0
 41
0.0
 46
0.0
 71
     5
 72
     1
  1
\A1;5
 73
     1
 44
1.0
1001
ACAD
1000
MTEXTBEGIN
1070
    73
1070
     1
1070
    44
1040
1.0
1070
    74
1070
     0
1000
MTEXTEND
  0
POINT
  5
5A5E
330
5A54
100
AcDbEntity
  8
DEFPOINTS
  6
Continuous
 62
     0
100
AcDbPoint
 10
351.9991483230286
 20
64.49968062113575
 30
0.0
  0
POINT
  5
5A5F
330
5A54
100
AcDbEntity
  8
DEFPOINTS
  6
Continuous
 62
     0
100
AcDbPoint
 10
351.9991483230286
 20
69.49965586308424
 30
0.0
  0
POINT
  5
5A60
330
5A54
100
AcDbEntity
  8
DEFPOINTS
  6
Continuous
 62
     0
100
AcDbPoint
 10
373.7524182144205
 20
69.49965586308421
 30
0.0
  0
ENDBLK
  5
5A61
330
5A54
100
AcDbEntity
  8
0
100
AcDbBlockEnd
  0
BLOCK
  5
5A63
330
5A62
100
AcDbEntity
  8
0
100
AcDbBlockBegin
  2
*D43
 70
     1
 10
0.0
 20
0.0
 30
0.0
  3
*D43
  1

  0
LINE
  5
5A64
330
5A62
100
AcDbEntity
  8
30
  6
Continuous
 62
     0
370
    -2
100
AcDbLine
 10
362.9990988069256
 20
66.99966824210996
 30
0.0
 11
388.2367141808032
 21
66.99966824210996
 31
0.0
  0
LINE
  5
5A65
330
5A62
100
AcDbEntity
  8
30
  6
Continuous
 62
     0
370
    -2
100
AcDbLine
 10
377.0857515477538
 20
-66.99966824211003
 30
0.0
 11
388.2367141808032
 21
-66.99966824211003
 31
0.0
  0
LINE
  5
5A66
330
5A62
100
AcDbEntity
  8
30
  6
Continuous
 62
     0
370
    -2
100
AcDbLine
 10
387.7367141808032
 20
64.99966824210996
 30
0.0
 11
387.7367141808032
 21
-64.99966824211004
 31
0.0
  0
INSERT
  5
5A67
330
5A62
100
AcDbEntity
  8
30
  6
Continuous
 62
     0
370
    -2
100
AcDbBlockReference
  2
_OPEN
 10
387.7367141808032
 20
66.99966824210996
 30
0.0
 41
2.0
 42
2.0
 43
2.0
 50
90.0
  0
INSERT
  5
5A68
330
5A62
100
AcDbEntity
  8
30
  6
Continuous
 62
     0
370
    -2
100
AcDbBlockReference
  2
_OPEN
 10
387.7367141808032
 20
-66.99966824211003
 30
0.0
 41
2.0
 42
2.0
 43
2.0
 50
270.0
  0
MTEXT
  5
5A69
330
5A62
100
AcDbEntity
  8
30
  6
Continuous
 62
     0
100
AcDbMText
 10
384.7367141808033
 20
0.0000000000000264
 30
0.0
 40
4.0
 41
0.0
 46
0.0
 71
     5
 72
     1
  1
\A1;134
 11
0.0000000000000001
 21
1.0
 31
0.0
 73
     1
 44
1.0
1001
ACAD
1000
MTEXTBEGIN
1070
    73
1070
     1
1070
    44
1040
1.0
1070
    74
1070
     0
1000
MTEXTEND
  0
POINT
  5
5A6A
330
5A62
100
AcDbEntity
  8
DEFPOINTS
  6
Continuous
 62
     0
100
AcDbPoint
 10
361.9990988069257
 20
66.99966824210996
 30
0.0
  0
POINT
  5
5A6B
330
5A62
100
AcDbEntity
  8
DEFPOINTS
  6
Continuous
 62
     0
100
AcDbPoint
 10
376.0857515477538
 20
-66.99966824211003
 30
0.0
  0
POINT
  5
5A6C
330
5A62
100
AcDbEntity
  8
DEFPOINTS
  6
Continuous
 62
     0
100
AcDbPoint
 10
387.7367141808032
 20
-66.99966824211003
 30
0.0
  0
ENDBLK
  5
5A6D
330
5A62
100
AcDbEntity
  8
0
100
AcDbBlockEnd
  0
BLOCK
  5
5B81
330
5B80
100
AcDbEntity
  8
0
100
AcDbBlockBegin
  2
*D44
 70
     1
 10
0.0
 20
0.0
 30
0.0
  3
*D44
  1

  0
LINE
  5
5BFA
330
5B80
100
AcDbEntity
  8
30
  6
Continuous
 62
     0
440
 16777216
370
    -2
100
AcDbLine
 10
258.0001089354263
 20
-3.499987637474176
 30
0.0
 11
258.0001089354263
 21
-172.8996379392698
 31
0.0
  0
LINE
  5
5BFB
330
5B80
100
AcDbEntity
  8
30
  6
Continuous
 62
     0
440
 16777216
370
    -2
100
AcDbLine
 10
294.9999257258451
 20
-106.9994751293082
 30
0.0
 11
294.9999257258451
 21
-172.8996379392698
 31
0.0
  0
LINE
  5
5BFC
330
5B80
100
AcDbEntity
  8
30
  6
Continuous
 62
     0
440
 16777216
370
    -2
100
AcDbLine
 10
260.0001089354263
 20
-172.3996379392698
 30
0.0
 11
292.9999257258451
 21
-172.3996379392698
 31
0.0
  0
INSERT
  5
5BFD
330
5B80
100
AcDbEntity
  8
30
  6
Continuous
 62
     0
440
 16777216
370
    -2
100
AcDbBlockReference
  2
_OPEN
 10
258.0001089354263
 20
-172.3996379392698
 30
0.0
 41
2.0
 42
2.0
 43
2.0
 50
180.0
  0
INSERT
  5
5BFE
330
5B80
100
AcDbEntity
  8
30
  6
Continuous
 62
     0
440
 16777216
370
    -2
100
AcDbBlockReference
  2
_OPEN
 10
294.9999257258451
 20
-172.3996379392698
 30
0.0
 41
2.0
 42
2.0
 43
2.0
  0
MTEXT
  5
5BFF
330
5B80
100
AcDbEntity
  8
30
  6
Continuous
 62
     0
440
 16777216
100
AcDbMText
 10
276.5000173306357
 20
-169.3996379392698
 30
0.0
 40
4.0
 41
0.0
 46
0.0
 71
     5
 72
     1
  1
\A1;37
 73
     1
 44
1.0
1001
ACAD
1000
MTEXTBEGIN
1070
    73
1070
     1
1070
    44
1040
1.0
1070
    74
1070
     0
1000
MTEXTEND
  0
POINT
  5
5C00
330
5B80
100
AcDbEntity
  8
DEFPOINTS
  6
Continuous
 62
     0
440
 16777216
100
AcDbPoint
 10
258.0001089354263
 20
-2.499987637474176
 30
0.0
  0
POINT
  5
5C01
330
5B80
100
AcDbEntity
  8
DEFPOINTS
  6
Continuous
 62
     0
440
 16777216
100
AcDbPoint
 10
294.9999257258451
 20
-105.9994751293082
 30
0.0
  0
POINT
  5
5C02
330
5B80
100
AcDbEntity
  8
DEFPOINTS
  6
Continuous
 62
     0
440
 16777216
100
AcDbPoint
 10
294.9999257258451
 20
-172.3996379392698
 30
0.0
  0
ENDBLK
  5
5B82
330
5B80
100
AcDbEntity
  8
0
100
AcDbBlockEnd
  0
BLOCK
  5
5B8D
330
5B8C
100
AcDbEntity
  8
0
100
AcDbBlockBegin
  2
*D45
 70
     1
 10
0.0
 20
0.0
 30
0.0
  3
*D45
  1

  0
LINE
  5
5C03
330
5B8C
100
AcDbEntity
  8
30
  6
Continuous
 62
     0
440
 16777216
370
    -2
100
AcDbLine
 10
294.9999257258451
 20
-106.9994751293082
 30
0.0
 11
294.9999257258451
 21
-172.8996379392698
 31
0.0
  0
LINE
  5
5C04
330
5B8C
100
AcDbEntity
  8
30
  6
Continuous
 62
     0
440
 16777216
370
    -2
100
AcDbLine
 10
451.9991483230286
 20
-67.99966824211003
 30
0.0
 11
451.9991483230286
 21
-172.8996379392698
 31
0.0
  0
LINE
  5
5C05
330
5B8C
100
AcDbEntity
  8
30
  6
Continuous
 62
     0
440
 16777216
370
    -2
100
AcDbLine
 10
296.9999257258451
 20
-172.3996379392698
 30
0.0
 11
449.9991483230286
 21
-172.3996379392698
 31
0.0
  0
INSERT
  5
5C06
330
5B8C
100
AcDbEntity
  8
30
  6
Continuous
 62
     0
440
 16777216
370
    -2
100
AcDbBlockReference
  2
_OPEN
 10
294.9999257258451
 20
-172.3996379392698
 30
0.0
 41
2.0
 42
2.0
 43
2.0
 50
180.0
  0
INSERT
  5
5C07
330
5B8C
100
AcDbEntity
  8
30
  6
Continuous
 62
     0
440
 16777216
370
    -2
100
AcDbBlockReference
  2
_OPEN
 10
451.9991483230286
 20
-172.3996379392698
 30
0.0
 41
2.0
 42
2.0
 43
2.0
  0
MTEXT
  5
5C08
330
5B8C
100
AcDbEntity
  8
30
  6
Continuous
 62
     0
440
 16777216
100
AcDbMText
 10
373.4995370244369
 20
-169.3996379392698
 30
0.0
 40
4.0
 41
0.0
 46
0.0
 71
     5
 72
     1
  1
\A1;157
 73
     1
 44
1.0
1001
ACAD
1000
MTEXTBEGIN
1070
    73
1070
     1
1070
    44
1040
1.0
1070
    74
1070
     0
1000
MTEXTEND
  0
POINT
  5
5C09
330
5B8C
100
AcDbEntity
  8
DEFPOINTS
  6
Continuous
 62
     0
440
 16777216
100
AcDbPoint
 10
294.9999257258451
 20
-105.9994751293082
 30
0.0
  0
POINT
  5
5C0A
330
5B8C
100
AcDbEntity
  8
DEFPOINTS
  6
Continuous
 62
     0
440
 16777216
100
AcDbPoint
 10
451.9991483230286
 20
-66.99966824211003
 30
0.0
  0
POINT
  5
5C0B
330
5B8C
100
AcDbEntity
  8
DEFPOINTS
  6
Continuous
 62
     0
440
 16777216
100
AcDbPoint
 10
451.9991483230286
 20
-172.3996379392698
 30
0.0
  0
ENDBLK
  5
5B8E
330
5B8C
100
AcDbEntity
  8
0
100
AcDbBlockEnd
  0
BLOCK
  5
5B99
330
5B98
100
AcDbEntity
  8
0
100
AcDbBlockBegin
  2
*D46
 70
     1
 10
0.0
 20
0.0
 30
0.0
  3
*D46
  1

  0
LINE
  5
5C0C
330
5B98
100
AcDbEntity
  8
30
  6
Continuous
 62
     0
440
 16777216
370
    -2
100
AcDbLine
 10
294.9999257258451
 20
-106.9994751293082
 30
0.0
 11
294.9999257258451
 21
-147.8997617295276
 31
0.0
  0
LINE
  5
5C0D
330
5B98
100
AcDbEntity
  8
30
  6
Continuous
 62
     0
440
 16777216
370
    -2
100
AcDbLine
 10
401.9993959035431
 20
-67.99966824211003
 30
0.0
 11
401.9993959035431
 21
-147.8997617295276
 31
0.0
  0
LINE
  5
5C0E
330
5B98
100
AcDbEntity
  8
30
  6
Continuous
 62
     0
440
 16777216
370
    -2
100
AcDbLine
 10
296.9999257258451
 20
-147.3997617295276
 30
0.0
 11
399.9993959035433
 21
-147.3997617295276
 31
0.0
  0
INSERT
  5
5C0F
330
5B98
100
AcDbEntity
  8
30
  6
Continuous
 62
     0
440
 16777216
370
    -2
100
AcDbBlockReference
  2
_OPEN
 10
294.9999257258451
 20
-147.3997617295276
 30
0.0
 41
2.0
 42
2.0
 43
2.0
 50
180.0
  0
INSERT
  5
5C10
330
5B98
100
AcDbEntity
  8
30
  6
Continuous
 62
     0
440
 16777216
370
    -2
100
AcDbBlockReference
  2
_OPEN
 10
401.9993959035431
 20
-147.3997617295276
 30
0.0
 41
2.0
 42
2.0
 43
2.0
  0
MTEXT
  5
5C11
330
5B98
100
AcDbEntity
  8
30
  6
Continuous
 62
     0
440
 16777216
100
AcDbMText
 10
348.4996608146942
 20
-144.3997617295276
 30
0.0
 40
4.0
 41
0.0
 46
0.0
 71
     5
 72
     1
  1
\A1;107
 73
     1
 44
1.0
1001
ACAD
1000
MTEXTBEGIN
1070
    73
1070
     1
1070
    44
1040
1.0
1070
    74
1070
     0
1000
MTEXTEND
  0
POINT
  5
5C12
330
5B98
100
AcDbEntity
  8
DEFPOINTS
  6
Continuous
 62
     0
440
 16777216
100
AcDbPoint
 10
294.9999257258451
 20
-105.9994751293082
 30
0.0
  0
POINT
  5
5C13
330
5B98
100
AcDbEntity
  8
DEFPOINTS
  6
Continuous
 62
     0
440
 16777216
100
AcDbPoint
 10
401.9993959035431
 20
-66.99966824211003
 30
0.0
  0
POINT
  5
5C14
330
5B98
100
AcDbEntity
  8
DEFPOINTS
  6
Continuous
 62
     0
440
 16777216
100
AcDbPoint
 10
401.9993959035431
 20
-147.3997617295276
 30
0.0
  0
ENDBLK
  5
5B9A
330
5B98
100
AcDbEntity
  8
0
100
AcDbBlockEnd
  0
BLOCK
  5
5BA5
330
5BA4
100
AcDbEntity
  8
0
100
AcDbBlockBegin
  2
*D47
 70
     1
 10
0.0
 20
0.0
 30
0.0
  3
*D47
  1

  0
LINE
  5
5C15
330
5BA4
100
AcDbEntity
  8
30
  6
Continuous
 62
     0
440
 16777216
370
    -2
100
AcDbLine
 10
371.9995444518525
 20
-58.99970288688223
 30
0.0
 11
371.9995444518525
 21
-34.40031878568621
 31
0.0
  0
LINE
  5
5C16
330
5BA4
100
AcDbEntity
  8
30
  6
Continuous
 62
     0
440
 16777216
370
    -2
100
AcDbLine
 10
386.9994701776981
 20
-63.4996806046359
 30
0.0
 11
386.9994701776981
 21
-34.40031878568621
 31
0.0
  0
LINE
  5
5C17
330
5BA4
100
AcDbEntity
  8
30
  6
Continuous
 62
     0
440
 16777216
370
    -2
100
AcDbLine
 10
373.9995444518525
 20
-34.90031878568621
 30
0.0
 11
384.9994701776981
 21
-34.90031878568621
 31
0.0
  0
INSERT
  5
5C18
330
5BA4
100
AcDbEntity
  8
30
  6
Continuous
 62
     0
440
 16777216
370
    -2
100
AcDbBlockReference
  2
_OPEN
 10
371.9995444518525
 20
-34.90031878568621
 30
0.0
 41
2.0
 42
2.0
 43
2.0
 50
180.0
  0
INSERT
  5
5C19
330
5BA4
100
AcDbEntity
  8
30
  6
Continuous
 62
     0
440
 16777216
370
    -2
100
AcDbBlockReference
  2
_OPEN
 10
386.9994701776981
 20
-34.90031878568621
 30
0.0
 41
2.0
 42
2.0
 43
2.0
  0
MTEXT
  5
5C1A
330
5BA4
100
AcDbEntity
  8
30
  6
Continuous
 62
     0
440
 16777216
100
AcDbMText
 10
379.4995073147753
 20
-31.90031878568621
 30
0.0
 40
4.0
 41
0.0
 46
0.0
 71
     5
 72
     1
  1
\A1;15
 73
     1
 44
1.0
1001
ACAD
1000
MTEXTBEGIN
1070
    73
1070
     1
1070
    44
1040
1.0
1070
    74
1070
     0
1000
MTEXTEND
  0
POINT
  5
5C1B
330
5BA4
100
AcDbEntity
  8
DEFPOINTS
  6
Continuous
 62
     0
440
 16777216
100
AcDbPoint
 10
371.9995444518525
 20
-59.99970288688222
 30
0.0
  0
POINT
  5
5C1C
330
5BA4
100
AcDbEntity
  8
DEFPOINTS
  6
Continuous
 62
     0
440
 16777216
100
AcDbPoint
 10
386.9994701776981
 20
-64.49968060463588
 30
0.0
  0
POINT
  5
5C1D
330
5BA4
100
AcDbEntity
  8
DEFPOINTS
  6
Continuous
 62
     0
440
 16777216
100
AcDbPoint
 10
386.9994701776981
 20
-34.90031878568621
 30
0.0
  0
ENDBLK
  5
5BA6
330
5BA4
100
AcDbEntity
  8
0
100
AcDbBlockEnd
  0
BLOCK
  5
5BB1
330
5BB0
100
AcDbEntity
  8
0
100
AcDbBlockBegin
  2
*D48
 70
     1
 10
0.0
 20
0.0
 30
0.0
  3
*D48
  1

  0
LINE
  5
5C1E
330
5BB0
100
AcDbEntity
  8
30
  6
Continuous
 62
     0
440
 16777216
370
    -2
100
AcDbLine
 10
280.0
 20
-96.99952464541125
 30
0.0
 11
280.0
 21
-147.8997617295276
 31
0.0
  0
LINE
  5
5C1F
330
5BB0
100
AcDbEntity
  8
30
  6
Continuous
 62
     0
440
 16777216
370
    -2
100
AcDbLine
 10
294.9999257258451
 20
-106.9994751293082
 30
0.0
 11
294.9999257258451
 21
-147.8997617295276
 31
0.0
  0
LINE
  5
5C20
330
5BB0
100
AcDbEntity
  8
30
  6
Continuous
 62
     0
440
 16777216
370
    -2
100
AcDbLine
 10
282.0
 20
-147.3997617295276
 30
0.0
 11
292.9999257258451
 21
-147.3997617295276
 31
0.0
  0
INSERT
  5
5C21
330
5BB0
100
AcDbEntity
  8
30
  6
Continuous
 62
     0
440
 16777216
370
    -2
100
AcDbBlockReference
  2
_OPEN
 10
280.0
 20
-147.3997617295276
 30
0.0
 41
2.0
 42
2.0
 43
2.0
 50
180.0
  0
INSERT
  5
5C22
330
5BB0
100
AcDbEntity
  8
30
  6
Continuous
 62
     0
440
 16777216
370
    -2
100
AcDbBlockReference
  2
_OPEN
 10
294.9999257258451
 20
-147.3997617295276
 30
0.0
 41
2.0
 42
2.0
 43
2.0
  0
MTEXT
  5
5C23
330
5BB0
100
AcDbEntity
  8
30
  6
Continuous
 62
     0
440
 16777216
100
AcDbMText
 10
287.4999628629225
 20
-144.3997617295276
 30
0.0
 40
4.0
 41
0.0
 46
0.0
 71
     5
 72
     1
  1
\A1;15
 73
     1
 44
1.0
1001
ACAD
1000
MTEXTBEGIN
1070
    73
1070
     1
1070
    44
1040
1.0
1070
    74
1070
     0
1000
MTEXTEND
  0
POINT
  5
5C24
330
5BB0
100
AcDbEntity
  8
DEFPOINTS
  6
Continuous
 62
     0
440
 16777216
100
AcDbPoint
 10
280.0
 20
-95.99952464541123
 30
0.0
  0
POINT
  5
5C25
330
5BB0
100
AcDbEntity
  8
DEFPOINTS
  6
Continuous
 62
     0
440
 16777216
100
AcDbPoint
 10
294.9999257258451
 20
-105.9994751293082
 30
0.0
  0
POINT
  5
5C26
330
5BB0
100
AcDbEntity
  8
DEFPOINTS
  6
Continuous
 62
     0
440
 16777216
100
AcDbPoint
 10
294.9999257258451
 20
-147.3997617295276
 30
0.0
  0
ENDBLK
  5
5BB2
330
5BB0
100
AcDbEntity
  8
0
100
AcDbBlockEnd
  0
BLOCK
  5
5BBD
330
5BBC
100
AcDbEntity
  8
0
100
AcDbBlockBegin
  2
*D49
 70
     1
 10
0.0
 20
0.0
 30
0.0
  3
*D49
  1

  0
LINE
  5
5C27
330
5BBC
100
AcDbEntity
  8
30
  6
Continuous
 62
     0
440
 16777216
370
    -2
100
AcDbLine
 10
436.9992225971832
 20
-70.49965587958421
 30
0.0
 11
436.9992225971832
 21
-122.8998855197852
 31
0.0
  0
LINE
  5
5C28
330
5BBC
100
AcDbEntity
  8
30
  6
Continuous
 62
     0
440
 16777216
370
    -2
100
AcDbLine
 10
451.9991483230286
 20
-77.28671009944187
 30
0.0
 11
451.9991483230286
 21
-122.8998855197852
 31
0.0
  0
LINE
  5
5C29
330
5BBC
100
AcDbEntity
  8
30
  6
Continuous
 62
     0
440
 16777216
370
    -2
100
AcDbLine
 10
438.999222597183
 20
-122.3998855197852
 30
0.0
 11
449.9991483230286
 21
-122.3998855197852
 31
0.0
  0
INSERT
  5
5C2A
330
5BBC
100
AcDbEntity
  8
30
  6
Continuous
 62
     0
440
 16777216
370
    -2
100
AcDbBlockReference
  2
_OPEN
 10
436.9992225971832
 20
-122.3998855197852
 30
0.0
 41
2.0
 42
2.0
 43
2.0
 50
180.0
  0
INSERT
  5
5C2B
330
5BBC
100
AcDbEntity
  8
30
  6
Continuous
 62
     0
440
 16777216
370
    -2
100
AcDbBlockReference
  2
_OPEN
 10
451.9991483230286
 20
-122.3998855197852
 30
0.0
 41
2.0
 42
2.0
 43
2.0
  0
MTEXT
  5
5C2C
330
5BBC
100
AcDbEntity
  8
30
  6
Continuous
 62
     0
440
 16777216
100
AcDbMText
 10
444.4991854601059
 20
-119.3998855197852
 30
0.0
 40
4.0
 41
0.0
 46
0.0
 71
     5
 72
     1
  1
\A1;15
 73
     1
 44
1.0
1001
ACAD
1000
MTEXTBEGIN
1070
    73
1070
     1
1070
    44
1040
1.0
1070
    74
1070
     0
1000
MTEXTEND
  0
POINT
  5
5C2D
330
5BBC
100
AcDbEntity
  8
DEFPOINTS
  6
Continuous
 62
     0
440
 16777216
100
AcDbPoint
 10
436.9992225971832
 20
-69.49965587958423
 30
0.0
  0
POINT
  5
5C2E
330
5BBC
100
AcDbEntity
  8
DEFPOINTS
  6
Continuous
 62
     0
440
 16777216
100
AcDbPoint
 10
451.9991483230286
 20
-76.28671009944188
 30
0.0
  0
POINT
  5
5C2F
330
5BBC
100
AcDbEntity
  8
DEFPOINTS
  6
Continuous
 62
     0
440
 16777216
100
AcDbPoint
 10
451.9991483230286
 20
-122.3998855197852
 30
0.0
  0
ENDBLK
  5
5BBE
330
5BBC
100
AcDbEntity
  8
0
100
AcDbBlockEnd
  0
BLOCK
  5
5BC9
330
5BC8
100
AcDbEntity
  8
0
100
AcDbBlockBegin
  2
*D50
 70
     1
 10
0.0
 20
0.0
 30
0.0
  3
*D50
  1

  0
LINE
  5
5C30
330
5BC8
100
AcDbEntity
  8
30
  6
Continuous
 62
     0
440
 16777216
370
    -2
100
AcDbLine
 10
386.9994701776981
 20
-70.49965587958421
 30
0.0
 11
386.9994701776981
 21
-122.8998855197852
 31
0.0
  0
LINE
  5
5C31
330
5BC8
100
AcDbEntity
  8
30
  6
Continuous
 62
     0
440
 16777216
370
    -2
100
AcDbLine
 10
401.9993959035431
 20
-77.28671009944187
 30
0.0
 11
401.9993959035431
 21
-122.8998855197852
 31
0.0
  0
LINE
  5
5C32
330
5BC8
100
AcDbEntity
  8
30
  6
Continuous
 62
     0
440
 16777216
370
    -2
100
AcDbLine
 10
388.9994701776982
 20
-122.3998855197852
 30
0.0
 11
399.9993959035433
 21
-122.3998855197852
 31
0.0
  0
INSERT
  5
5C33
330
5BC8
100
AcDbEntity
  8
30
  6
Continuous
 62
     0
440
 16777216
370
    -2
100
AcDbBlockReference
  2
_OPEN
 10
386.9994701776981
 20
-122.3998855197852
 30
0.0
 41
2.0
 42
2.0
 43
2.0
 50
180.0
  0
INSERT
  5
5C34
330
5BC8
100
AcDbEntity
  8
30
  6
Continuous
 62
     0
440
 16777216
370
    -2
100
AcDbBlockReference
  2
_OPEN
 10
401.9993959035431
 20
-122.3998855197852
 30
0.0
 41
2.0
 42
2.0
 43
2.0
  0
MTEXT
  5
5C35
330
5BC8
100
AcDbEntity
  8
30
  6
Continuous
 62
     0
440
 16777216
100
AcDbMText
 10
394.4994330406207
 20
-119.3998855197852
 30
0.0
 40
4.0
 41
0.0
 46
0.0
 71
     5
 72
     1
  1
\A1;15
 73
     1
 44
1.0
1001
ACAD
1000
MTEXTBEGIN
1070
    73
1070
     1
1070
    44
1040
1.0
1070
    74
1070
     0
1000
MTEXTEND
  0
POINT
  5
5C36
330
5BC8
100
AcDbEntity
  8
DEFPOINTS
  6
Continuous
 62
     0
440
 16777216
100
AcDbPoint
 10
386.9994701776981
 20
-69.49965587958423
 30
0.0
  0
POINT
  5
5C37
330
5BC8
100
AcDbEntity
  8
DEFPOINTS
  6
Continuous
 62
     0
440
 16777216
100
AcDbPoint
 10
401.9993959035431
 20
-76.28671009944188
 30
0.0
  0
POINT
  5
5C38
330
5BC8
100
AcDbEntity
  8
DEFPOINTS
  6
Continuous
 62
     0
440
 16777216
100
AcDbPoint
 10
401.9993959035431
 20
-122.3998855197852
 30
0.0
  0
ENDBLK
  5
5BCA
330
5BC8
100
AcDbEntity
  8
0
100
AcDbBlockEnd
  0
BLOCK
  5
5BD5
330
5BD4
100
AcDbEntity
  8
0
100
AcDbBlockBegin
  2
*D51
 70
     1
 10
0.0
 20
0.0
 30
0.0
  3
*D51
  1

  0
LINE
  5
5C39
330
5BD4
100
AcDbEntity
  8
30
  6
Continuous
 62
     0
440
 16777216
370
    -2
100
AcDbLine
 10
450.8555653978196
 20
-74.99962862922766
 30
0.0
 11
476.5857515477538
 21
-74.99962862922766
 31
0.0
  0
LINE
  5
5C3A
330
5BD4
100
AcDbEntity
  8
30
  6
Continuous
 62
     0
440
 16777216
370
    -2
100
AcDbLine
 10
450.8555653978196
 20
-58.99970785499241
 30
0.0
 11
476.5857515477538
 21
-58.99970785499242
 31
0.0
  0
LINE
  5
5C3B
330
5BD4
100
AcDbEntity
  8
30
  6
Continuous
 62
     0
440
 16777216
370
    -2
100
AcDbLine
 10
476.0857515477538
 20
-72.99962862922765
 30
0.0
 11
476.0857515477538
 21
-60.99970785499241
 31
0.0
  0
INSERT
  5
5C3C
330
5BD4
100
AcDbEntity
  8
30
  6
Continuous
 62
     0
440
 16777216
370
    -2
100
AcDbBlockReference
  2
_OPEN
 10
476.0857515477538
 20
-74.99962862922766
 30
0.0
 41
2.0
 42
2.0
 43
2.0
 50
270.0
  0
INSERT
  5
5C3D
330
5BD4
100
AcDbEntity
  8
30
  6
Continuous
 62
     0
440
 16777216
370
    -2
100
AcDbBlockReference
  2
_OPEN
 10
476.0857515477538
 20
-58.99970785499242
 30
0.0
 41
2.0
 42
2.0
 43
2.0
 50
90.0
  0
MTEXT
  5
5C3E
330
5BD4
100
AcDbEntity
  8
30
  6
Continuous
 62
     0
440
 16777216
100
AcDbMText
 10
473.0857515477538
 20
-66.99966824210996
 30
0.0
 40
4.0
 41
0.0
 46
0.0
 71
     5
 72
     1
  1
\A1;16
 11
0.0000000000000001
 21
1.0
 31
0.0
 73
     1
 44
1.0
1001
ACAD
1000
MTEXTBEGIN
1070
    73
1070
     1
1070
    44
1040
1.0
1070
    74
1070
     0
1000
MTEXTEND
  0
POINT
  5
5C3F
330
5BD4
100
AcDbEntity
  8
DEFPOINTS
  6
Continuous
 62
     0
440
 16777216
100
AcDbPoint
 10
449.8555653978195
 20
-74.99962862922766
 30
0.0
  0
POINT
  5
5C40
330
5BD4
100
AcDbEntity
  8
DEFPOINTS
  6
Continuous
 62
     0
440
 16777216
100
AcDbPoint
 10
449.8555653978195
 20
-58.99970785499241
 30
0.0
  0
POINT
  5
5C41
330
5BD4
100
AcDbEntity
  8
DEFPOINTS
  6
Continuous
 62
     0
440
 16777216
100
AcDbPoint
 10
476.0857515477538
 20
-58.99970785499242
 30
0.0
  0
ENDBLK
  5
5BD6
330
5BD4
100
AcDbEntity
  8
0
100
AcDbBlockEnd
  0
BLOCK
  5
5BE1
330
5BE0
100
AcDbEntity
  8
0
100
AcDbBlockBegin
  2
*D52
 70
     1
 10
0.0
 20
0.0
 30
0.0
  3
*D52
  1

  0
LINE
  5
5C42
330
5BE0
100
AcDbEntity
  8
30
  6
Continuous
 62
     0
440
 16777216
370
    -2
100
AcDbLine
 10
452.9991483230286
 20
64.49968062113575
 30
0.0
 11
474.2524182144205
 21
64.49968062113575
 31
0.0
  0
LINE
  5
5C43
330
5BE0
100
AcDbEntity
  8
30
  6
Continuous
 62
     0
440
 16777216
370
    -2
100
AcDbLine
 10
452.9991483230286
 20
69.49965586308424
 30
0.0
 11
474.2524182144205
 21
69.49965586308424
 31
0.0
  0
LINE
  5
5C44
330
5BE0
100
AcDbEntity
  8
30
  6
Continuous
 62
     0
440
 16777216
370
    -2
100
AcDbLine
 10
473.7524182144205
 20
62.49968062113573
 30
0.0
 11
473.7524182144205
 21
60.49968062113574
 31
0.0
  0
LINE
  5
5C45
330
5BE0
100
AcDbEntity
  8
30
  6
Continuous
 62
     0
440
 16777216
370
    -2
100
AcDbLine
 10
473.7524182144205
 20
71.49965586308423
 30
0.0
 11
473.7524182144205
 21
73.49965586308425
 31
0.0
  0
LINE
  5
5C46
330
5BE0
100
AcDbEntity
  8
30
  6
Continuous
 62
     0
440
 16777216
370
    -2
100
AcDbLine
 10
473.7524182144205
 20
73.49965586308425
 30
0.0
 11
477.4190848810872
 21
73.49965586308425
 31
0.0
  0
INSERT
  5
5C47
330
5BE0
100
AcDbEntity
  8
30
  6
Continuous
 62
     0
440
 16777216
370
    -2
100
AcDbBlockReference
  2
_OPEN
 10
473.7524182144205
 20
64.49968062113575
 30
0.0
 41
2.0
 42
2.0
 43
2.0
 50
90.0
  0
INSERT
  5
5C48
330
5BE0
100
AcDbEntity
  8
30
  6
Continuous
 62
     0
440
 16777216
370
    -2
100
AcDbBlockReference
  2
_OPEN
 10
473.7524182144205
 20
69.49965586308424
 30
0.0
 41
2.0
 42
2.0
 43
2.0
 50
270.0
  0
MTEXT
  5
5C49
330
5BE0
100
AcDbEntity
  8
30
  6
Continuous
 62
     0
440
 16777216
100
AcDbMText
 10
476.0857515477538
 20
76.49965586308431
 30
0.0
 40
4.0
 41
0.0
 46
0.0
 71
     5
 72
     1
  1
\A1;5
 73
     1
 44
1.0
1001
ACAD
1000
MTEXTBEGIN
1070
    73
1070
     1
1070
    44
1040
1.0
1070
    74
1070
     0
1000
MTEXTEND
  0
POINT
  5
5C4A
330
5BE0
100
AcDbEntity
  8
DEFPOINTS
  6
Continuous
 62
     0
440
 16777216
100
AcDbPoint
 10
451.9991483230286
 20
64.49968062113575
 30
0.0
  0
POINT
  5
5C4B
330
5BE0
100
AcDbEntity
  8
DEFPOINTS
  6
Continuous
 62
     0
440
 16777216
100
AcDbPoint
 10
451.9991483230286
 20
69.49965586308424
 30
0.0
  0
POINT
  5
5C4C
330
5BE0
100
AcDbEntity
  8
DEFPOINTS
  6
Continuous
 62
     0
440
 16777216
100
AcDbPoint
 10
473.7524182144205
 20
69.49965586308424
 30
0.0
  0
ENDBLK
  5
5BE2
330
5BE0
100
AcDbEntity
  8
0
100
AcDbBlockEnd
  0
BLOCK
  5
5BEF
330
5BEE
100
AcDbEntity
  8
0
100
AcDbBlockBegin
  2
*D53
 70
     1
 10
0.0
 20
0.0
 30
0.0
  3
*D53
  1

  0
LINE
  5
5C4D
330
5BEE
100
AcDbEntity
  8
30
  6
Continuous
 62
     0
440
 16777216
370
    -2
100
AcDbLine
 10
462.9990988069256
 20
66.99966824210996
 30
0.0
 11
488.2367141808032
 21
66.99966824210996
 31
0.0
  0
LINE
  5
5C4E
330
5BEE
100
AcDbEntity
  8
30
  6
Continuous
 62
     0
440
 16777216
370
    -2
100
AcDbLine
 10
477.0857515477538
 20
-66.99966824211003
 30
0.0
 11
488.2367141808032
 21
-66.99966824211005
 31
0.0
  0
LINE
  5
5C4F
330
5BEE
100
AcDbEntity
  8
30
  6
Continuous
 62
     0
440
 16777216
370
    -2
100
AcDbLine
 10
487.7367141808032
 20
64.99966824210996
 30
0.0
 11
487.7367141808032
 21
-64.99966824211004
 31
0.0
  0
INSERT
  5
5C50
330
5BEE
100
AcDbEntity
  8
30
  6
Continuous
 62
     0
440
 16777216
370
    -2
100
AcDbBlockReference
  2
_OPEN
 10
487.7367141808032
 20
66.99966824210996
 30
0.0
 41
2.0
 42
2.0
 43
2.0
 50
90.0
  0
INSERT
  5
5C51
330
5BEE
100
AcDbEntity
  8
30
  6
Continuous
 62
     0
440
 16777216
370
    -2
100
AcDbBlockReference
  2
_OPEN
 10
487.7367141808032
 20
-66.99966824211005
 30
0.0
 41
2.0
 42
2.0
 43
2.0
 50
270.0
  0
MTEXT
  5
5C52
330
5BEE
100
AcDbEntity
  8
30
  6
Continuous
 62
     0
440
 16777216
100
AcDbMText
 10
484.7367141808032
 20
0.0000000000000345
 30
0.0
 40
4.0
 41
0.0
 46
0.0
 71
     5
 72
     1
  1
\A1;134
 11
0.0000000000000001
 21
1.0
 31
0.0
 73
     1
 44
1.0
1001
ACAD
1000
MTEXTBEGIN
1070
    73
1070
     1
1070
    44
1040
1.0
1070
    74
1070
     0
1000
MTEXTEND
  0
POINT
  5
5C53
330
5BEE
100
AcDbEntity
  8
DEFPOINTS
  6
Continuous
 62
     0
440
 16777216
100
AcDbPoint
 10
461.9990988069256
 20
66.99966824210996
 30
0.0
  0
POINT
  5
5C54
330
5BEE
100
AcDbEntity
  8
DEFPOINTS
  6
Continuous
 62
     0
440
 16777216
100
AcDbPoint
 10
476.0857515477538
 20
-66.99966824211003
 30
0.0
  0
POINT
  5
5C55
330
5BEE
100
AcDbEntity
  8
DEFPOINTS
  6
Continuous
 62
     0
440
 16777216
100
AcDbPoint
 10
487.7367141808032
 20
-66.99966824211005
 30
0.0
  0
ENDBLK
  5
5BF0
330
5BEE
100
AcDbEntity
  8
0
100
AcDbBlockEnd
  0
BLOCK
  5
5C5C
330
5C5B
100
AcDbEntity
  8
0
100
AcDbBlockBegin
  2
*D54
 70
     1
 10
0.0
 20
0.0
 30
0.0
  3
*D54
  1

  0
LINE
  5
5C5E
330
5C5B
100
AcDbEntity
  8
30
  6
Continuous
 62
     0
370
    -2
100
AcDbLine
 10
-78.49974009536143
 20
146.3313751724503
 30
0.0
 11
-78.49974009536143
 21
136.2502913166866
 31
0.0
  0
LINE
  5
5C5F
330
5C5B
100
AcDbEntity
  8
30
  6
Continuous
 62
     0
370
    -2
100
AcDbLine
 10
78.42409646482899
 20
165.55937517245
 30
0.0
 11
78.42409646482899
 21
136.2502913166866
 31
0.0
  0
LINE
  5
5C60
330
5C5B
100
AcDbEntity
  8
30
  6
Continuous
 62
     0
370
    -2
100
AcDbLine
 10
-76.49974009536143
 20
136.7502913166865
 30
0.0
 11
76.42409646482899
 21
136.7502913166865
 31
0.0
  0
INSERT
  5
5C61
330
5C5B
100
AcDbEntity
  8
30
  6
Continuous
 62
     0
370
    -2
100
AcDbBlockReference
  2
_OPEN
 10
-78.49974009536143
 20
136.7502913166865
 30
0.0
 41
2.0
 42
2.0
 43
2.0
 50
180.0
  0
INSERT
  5
5C62
330
5C5B
100
AcDbEntity
  8
30
  6
Continuous
 62
     0
370
    -2
100
AcDbBlockReference
  2
_OPEN
 10
78.42409646482899
 20
136.7502913166865
 30
0.0
 41
2.0
 42
2.0
 43
2.0
  0
MTEXT
  5
5C63
330
5C5B
100
AcDbEntity
  8
30
  6
Continuous
 62
     0
100
AcDbMText
 10
-0.0378218152662198
 20
139.7502913166865
 30
0.0
 40
4.0
 41
0.0
 46
0.0
 71
     5
 72
     1
  1
\A1;156.9
 73
     1
 44
1.0
1001
ACAD
1000
MTEXTBEGIN
1070
    73
1070
     1
1070
    44
1040
1.0
1070
    74
1070
     0
1000
MTEXTEND
  0
POINT
  5
5C64
330
5C5B
100
AcDbEntity
  8
DEFPOINTS
  6
Continuous
 62
     0
100
AcDbPoint
 10
-78.49974009536143
 20
147.3313751724503
 30
0.0
  0
POINT
  5
5C65
330
5C5B
100
AcDbEntity
  8
DEFPOINTS
  6
Continuous
 62
     0
100
AcDbPoint
 10
78.42409646482899
 20
166.55937517245
 30
0.0
  0
POINT
  5
5C66
330
5C5B
100
AcDbEntity
  8
DEFPOINTS
  6
Continuous
 62
     0
100
AcDbPoint
 10
78.42409646482899
 20
136.7502913166865
 30
0.0
  0
ENDBLK
  5
5C5D
330
5C5B
100
AcDbEntity
  8
0
100
AcDbBlockEnd
  0
BLOCK
  5
5C69
330
5C68
100
AcDbEntity
  8
0
100
AcDbBlockBegin
  2
*D55
 70
     1
 10
0.0
 20
0.0
 30
0.0
  3
*D55
  1

  0
LINE
  5
5C6B
330
5C68
100
AcDbEntity
  8
30
  6
Continuous
 62
     0
370
    -2
100
AcDbLine
 10
-78.49974009536143
 20
148.3313751724503
 30
0.0
 11
-78.49974009536143
 21
169.9008278630333
 31
0.0
  0
LINE
  5
5C6C
330
5C68
100
AcDbEntity
  8
30
  6
Continuous
 62
     0
370
    -2
100
AcDbLine
 10
78.49974009536139
 20
167.4988602680241
 30
0.0
 11
78.49974009536139
 21
169.9008278630333
 31
0.0
  0
LINE
  5
5C6D
330
5C68
100
AcDbEntity
  8
30
  6
Continuous
 62
     0
370
    -2
100
AcDbLine
 10
-76.49974009536143
 20
169.4008278630333
 30
0.0
 11
76.49974009536139
 21
169.4008278630333
 31
0.0
  0
INSERT
  5
5C6E
330
5C68
100
AcDbEntity
  8
30
  6
Continuous
 62
     0
370
    -2
100
AcDbBlockReference
  2
_OPEN
 10
-78.49974009536143
 20
169.4008278630333
 30
0.0
 41
2.0
 42
2.0
 43
2.0
 50
180.0
  0
INSERT
  5
5C6F
330
5C68
100
AcDbEntity
  8
30
  6
Continuous
 62
     0
370
    -2
100
AcDbBlockReference
  2
_OPEN
 10
78.49974009536139
 20
169.4008278630333
 30
0.0
 41
2.0
 42
2.0
 43
2.0
  0
MTEXT
  5
5C70
330
5C68
100
AcDbEntity
  8
30
  6
Continuous
 62
     0
100
AcDbMText
 10
-0.0000000000000211
 20
172.4008278630333
 30
0.0
 40
4.0
 41
0.0
 46
0.0
 71
     5
 72
     1
  1
\A1;157
 73
     1
 44
1.0
1001
ACAD
1000
MTEXTBEGIN
1070
    73
1070
     1
1070
    44
1040
1.0
1070
    74
1070
     0
1000
MTEXTEND
  0
POINT
  5
5C71
330
5C68
100
AcDbEntity
  8
DEFPOINTS
  6
Continuous
 62
     0
100
AcDbPoint
 10
-78.49974009536143
 20
147.3313751724503
 30
0.0
  0
POINT
  5
5C72
330
5C68
100
AcDbEntity
  8
DEFPOINTS
  6
Continuous
 62
     0
100
AcDbPoint
 10
78.49974009536139
 20
166.4988602680241
 30
0.0
  0
POINT
  5
5C73
330
5C68
100
AcDbEntity
  8
DEFPOINTS
  6
Continuous
 62
     0
100
AcDbPoint
 10
78.49974009536139
 20
169.4008278630333
 30
0.0
  0
ENDBLK
  5
5C6A
330
5C68
100
AcDbEntity
  8
0
100
AcDbBlockEnd
  0
BLOCK
  5
5C76
330
5C75
100
AcDbEntity
  8
0
100
AcDbBlockBegin
  2
*D56
 70
     1
 10
0.0
 20
0.0
 30
0.0
  3
*D56
  1

  0
LINE
  5
5C77
330
5C75
100
AcDbEntity
  8
21
  6
Continuous
 62
     0
370
    -2
100
AcDbLine
 10
-29.99999999999974
 20
239.6248600274724
 30
0.0
 11
-29.99999999999973
 21
341.2753525274724
 31
0.0
  0
LINE
  5
5C78
330
5C75
100
AcDbEntity
  8
21
  6
Continuous
 62
     0
370
    -2
100
AcDbLine
 10
0.0000000000002592
 20
289.6248600274724
 30
0.0
 11
0.0000000000002623
 21
341.2753525274724
 31
0.0
  0
LINE
  5
5C79
330
5C75
100
AcDbEntity
  8
21
  6
Continuous
 62
     0
370
    -2
100
AcDbLine
 10
-27.99999999999974
 20
340.7753525274724
 30
0.0
 11
-1.999999999999736
 21
340.7753525274724
 31
0.0
  0
INSERT
  5
5C7A
330
5C75
100
AcDbEntity
  8
21
  6
Continuous
 62
     0
370
    -2
100
AcDbBlockReference
  2
_OPEN
 10
-29.99999999999973
 20
340.7753525274724
 30
0.0
 41
2.0
 42
2.0
 43
2.0
 50
180.0
  0
INSERT
  5
5C7B
330
5C75
100
AcDbEntity
  8
21
  6
Continuous
 62
     0
370
    -2
100
AcDbBlockReference
  2
_OPEN
 10
0.0000000000002623
 20
340.7753525274724
 30
0.0
 41
2.0
 42
2.0
 43
2.0
  0
MTEXT
  5
5C7C
330
5C75
100
AcDbEntity
  8
21
  6
Continuous
 62
     0
100
AcDbMText
 10
-14.99999999999973
 20
343.7753525274723
 30
0.0
 40
4.0
 41
0.0
 46
0.0
 71
     5
 72
     1
  1
\A1; 30 
 73
     1
 44
1.0
1001
ACAD
1000
MTEXTBEGIN
1070
    73
1070
     1
1070
    44
1040
1.0
1070
    74
1070
     0
1000
MTEXTEND
  0
POINT
  5
5C7D
330
5C75
100
AcDbEntity
  8
DEFPOINTS
  6
Continuous
 62
     0
100
AcDbPoint
 10
-29.99999999999974
 20
238.6248600274724
 30
0.0
  0
POINT
  5
5C7E
330
5C75
100
AcDbEntity
  8
DEFPOINTS
  6
Continuous
 62
     0
100
AcDbPoint
 10
0.0000000000002591
 20
288.6248600274724
 30
0.0
  0
POINT
  5
5C7F
330
5C75
100
AcDbEntity
  8
DEFPOINTS
  6
Continuous
 62
     0
100
AcDbPoint
 10
0.0000000000002623
 20
340.7753525274724
 30
0.0
  0
ENDBLK
  5
5C80
330
5C75
100
AcDbEntity
  8
0
100
AcDbBlockEnd
  0
BLOCK
  5
5C82
330
5C81
100
AcDbEntity
  8
0
100
AcDbBlockBegin
  2
*D57
 70
     1
 10
0.0
 20
0.0
 30
0.0
  3
*D57
  1

  0
LINE
  5
5C83
330
5C81
100
AcDbEntity
  8
21
  6
Continuous
 62
     0
370
    -2
100
AcDbLine
 10
0.0000000000002592
 20
330.1248600274724
 30
0.0
 11
0.0000000000002599
 21
341.2753525274724
 31
0.0
  0
LINE
  5
5C84
330
5C81
100
AcDbEntity
  8
21
  6
Continuous
 62
     0
370
    -2
100
AcDbLine
 10
30.00000000000027
 20
239.6248600274724
 30
0.0
 11
30.00000000000027
 21
341.2753525274724
 31
0.0
  0
LINE
  5
5C85
330
5C81
100
AcDbEntity
  8
21
  6
Continuous
 62
     0
370
    -2
100
AcDbLine
 10
2.000000000000258
 20
340.7753525274724
 30
0.0
 11
28.00000000000027
 21
340.7753525274724
 31
0.0
  0
INSERT
  5
5C86
330
5C81
100
AcDbEntity
  8
21
  6
Continuous
 62
     0
370
    -2
100
AcDbBlockReference
  2
_OPEN
 10
0.0000000000002598
 20
340.7753525274724
 30
0.0
 41
2.0
 42
2.0
 43
2.0
 50
180.0
  0
INSERT
  5
5C87
330
5C81
100
AcDbEntity
  8
21
  6
Continuous
 62
     0
370
    -2
100
AcDbBlockReference
  2
_OPEN
 10
30.00000000000027
 20
340.7753525274724
 30
0.0
 41
2.0
 42
2.0
 43
2.0
  0
MTEXT
  5
5C88
330
5C81
100
AcDbEntity
  8
21
  6
Continuous
 62
     0
100
AcDbMText
 10
15.00000000000026
 20
343.7753525274723
 30
0.0
 40
4.0
 41
0.0
 46
0.0
 71
     5
 72
     1
  1
\A1; 30 
 73
     1
 44
1.0
1001
ACAD
1000
MTEXTBEGIN
1070
    73
1070
     1
1070
    44
1040
1.0
1070
    74
1070
     0
1000
MTEXTEND
  0
POINT
  5
5C89
330
5C81
100
AcDbEntity
  8
DEFPOINTS
  6
Continuous
 62
     0
100
AcDbPoint
 10
0.0000000000002591
 20
329.1248600274724
 30
0.0
  0
POINT
  5
5C8A
330
5C81
100
AcDbEntity
  8
DEFPOINTS
  6
Continuous
 62
     0
100
AcDbPoint
 10
30.00000000000027
 20
238.6248600274724
 30
0.0
  0
POINT
  5
5C8B
330
5C81
100
AcDbEntity
  8
DEFPOINTS
  6
Continuous
 62
     0
100
AcDbPoint
 10
30.00000000000027
 20
340.7753525274724
 30
0.0
  0
ENDBLK
  5
5C8C
330
5C81
100
AcDbEntity
  8
0
100
AcDbBlockEnd
  0
BLOCK
  5
5D7B
330
5D7A
100
AcDbEntity
  8
0
100
AcDbBlockBegin
  2
*D58
 70
     1
 10
0.0
 20
0.0
 30
0.0
  3
*D58
  1

  0
LINE
  5
5D92
330
5D7A
100
AcDbEntity
  8
21
  6
Continuous
 62
     0
440
 16777216
370
    -2
100
AcDbLine
 10
-29.99974009536144
 20
237.3313751724503
 30
0.0
 11
-29.99974009536143
 21
338.9818676724503
 31
0.0
  0
LINE
  5
5D93
330
5D7A
100
AcDbEntity
  8
21
  6
Continuous
 62
     0
440
 16777216
370
    -2
100
AcDbLine
 10
0.0002599046385541
 20
287.3313751724503
 30
0.0
 11
0.0002599046385573
 21
338.9818676724503
 31
0.0
  0
LINE
  5
5D94
330
5D7A
100
AcDbEntity
  8
21
  6
Continuous
 62
     0
440
 16777216
370
    -2
100
AcDbLine
 10
-27.99974009536143
 20
338.4818676724503
 30
0.0
 11
-1.999740095361442
 21
338.4818676724503
 31
0.0
  0
INSERT
  5
5D95
330
5D7A
100
AcDbEntity
  8
21
  6
Continuous
 62
     0
440
 16777216
370
    -2
100
AcDbBlockReference
  2
_OPEN
 10
-29.99974009536143
 20
338.4818676724503
 30
0.0
 41
2.0
 42
2.0
 43
2.0
 50
180.0
  0
INSERT
  5
5D96
330
5D7A
100
AcDbEntity
  8
21
  6
Continuous
 62
     0
440
 16777216
370
    -2
100
AcDbBlockReference
  2
_OPEN
 10
0.0002599046385573
 20
338.4818676724503
 30
0.0
 41
2.0
 42
2.0
 43
2.0
  0
MTEXT
  5
5D97
330
5D7A
100
AcDbEntity
  8
21
  6
Continuous
 62
     0
440
 16777216
100
AcDbMText
 10
-14.99974009536144
 20
341.4818676724503
 30
0.0
 40
4.0
 41
0.0
 46
0.0
 71
     5
 72
     1
  1
\A1; 30 
 73
     1
 44
1.0
1001
ACAD
1000
MTEXTBEGIN
1070
    73
1070
     1
1070
    44
1040
1.0
1070
    74
1070
     0
1000
MTEXTEND
  0
POINT
  5
5D98
330
5D7A
100
AcDbEntity
  8
DEFPOINTS
  6
Continuous
 62
     0
440
 16777216
100
AcDbPoint
 10
-29.99974009536144
 20
236.3313751724503
 30
0.0
  0
POINT
  5
5D99
330
5D7A
100
AcDbEntity
  8
DEFPOINTS
  6
Continuous
 62
     0
440
 16777216
100
AcDbPoint
 10
0.0002599046385541
 20
286.3313751724503
 30
0.0
  0
POINT
  5
5D9A
330
5D7A
100
AcDbEntity
  8
DEFPOINTS
  6
Continuous
 62
     0
440
 16777216
100
AcDbPoint
 10
0.0002599046385573
 20
338.4818676724503
 30
0.0
  0
ENDBLK
  5
5D7C
330
5D7A
100
AcDbEntity
  8
0
100
AcDbBlockEnd
  0
BLOCK
  5
5D87
330
5D86
100
AcDbEntity
  8
0
100
AcDbBlockBegin
  2
*D59
 70
     1
 10
0.0
 20
0.0
 30
0.0
  3
*D59
  1

  0
LINE
  5
5D9B
330
5D86
100
AcDbEntity
  8
21
  6
Continuous
 62
     0
440
 16777216
370
    -2
100
AcDbLine
 10
0.0002599046385541
 20
327.8313751724503
 30
0.0
 11
0.0002599046385548
 21
338.9818676724503
 31
0.0
  0
LINE
  5
5D9C
330
5D86
100
AcDbEntity
  8
21
  6
Continuous
 62
     0
440
 16777216
370
    -2
100
AcDbLine
 10
30.00025990463857
 20
237.3313751724503
 30
0.0
 11
30.00025990463857
 21
338.9818676724503
 31
0.0
  0
LINE
  5
5D9D
330
5D86
100
AcDbEntity
  8
21
  6
Continuous
 62
     0
440
 16777216
370
    -2
100
AcDbLine
 10
2.000259904638554
 20
338.4818676724503
 30
0.0
 11
28.00025990463858
 21
338.4818676724503
 31
0.0
  0
INSERT
  5
5D9E
330
5D86
100
AcDbEntity
  8
21
  6
Continuous
 62
     0
440
 16777216
370
    -2
100
AcDbBlockReference
  2
_OPEN
 10
0.0002599046385548
 20
338.4818676724503
 30
0.0
 41
2.0
 42
2.0
 43
2.0
 50
180.0
  0
INSERT
  5
5D9F
330
5D86
100
AcDbEntity
  8
21
  6
Continuous
 62
     0
440
 16777216
370
    -2
100
AcDbBlockReference
  2
_OPEN
 10
30.00025990463857
 20
338.4818676724503
 30
0.0
 41
2.0
 42
2.0
 43
2.0
  0
MTEXT
  5
5DA0
330
5D86
100
AcDbEntity
  8
21
  6
Continuous
 62
     0
440
 16777216
100
AcDbMText
 10
15.00025990463856
 20
341.4818676724503
 30
0.0
 40
4.0
 41
0.0
 46
0.0
 71
     5
 72
     1
  1
\A1; 30 
 73
     1
 44
1.0
1001
ACAD
1000
MTEXTBEGIN
1070
    73
1070
     1
1070
    44
1040
1.0
1070
    74
1070
     0
1000
MTEXTEND
  0
POINT
  5
5DA1
330
5D86
100
AcDbEntity
  8
DEFPOINTS
  6
Continuous
 62
     0
440
 16777216
100
AcDbPoint
 10
0.0002599046385541
 20
326.8313751724503
 30
0.0
  0
POINT
  5
5DA2
330
5D86
100
AcDbEntity
  8
DEFPOINTS
  6
Continuous
 62
     0
440
 16777216
100
AcDbPoint
 10
30.00025990463857
 20
236.3313751724503
 30
0.0
  0
POINT
  5
5DA3
330
5D86
100
AcDbEntity
  8
DEFPOINTS
  6
Continuous
 62
     0
440
 16777216
100
AcDbPoint
 10
30.00025990463857
 20
338.4818676724503
 30
0.0
  0
ENDBLK
  5
5D88
330
5D86
100
AcDbEntity
  8
0
100
AcDbBlockEnd
  0
ENDSEC
  0
SECTION
  2
ENTITIES
  0
LINE
  5
B4
330
1E
100
AcDbEntity
  8
16
100
AcDbLine
 10
0.0
 20
-101.8246001220914
 30
0.0
 11
0.0
 21
105.6073578546832
 31
0.0
  0
LINE
  5
B5
330
1E
100
AcDbEntity
  8
16
100
AcDbLine
 10
71.77465564206305
 20
-0.0000000000000007
 30
0.0
 11
-83.90588178115756
 21
-0.0000000000000007
 31
0.0
  0
MTEXT
  5
BF3
330
1E
100
AcDbEntity
  8
24
  6
Continuous
100
AcDbMText
 10
140.9820964648284
 20
176.3476821548369
 30
0.0
 40
3.0
 41
0.0
 46
0.0
 71
     1
 72
     1
  1
\A1;
 73
     1
 44
1.0
1001
ACAD
1000
MTEXTBEGIN
1070
    73
1070
     1
1070
    44
1040
1.0
1070
    74
1070
     0
1000
MTEXTEND
  0
LINE
  5
2260
330
1E
100
AcDbEntity
  8
16
100
AcDbLine
 10
68.52380301423583
 20
-252.6631237443548
 30
0.0
 11
-80.93000773675209
 21
-252.6631237443548
 31
0.0
  0
LINE
  5
2261
330
1E
100
AcDbEntity
  8
16
100
AcDbLine
 10
-0.3800945351711884
 20
-350.4150635072006
 30
0.0
 11
-0.3800945351711884
 21
-151.2797245348689
 31
0.0
  0
LINE
  5
4C5A
330
1E
100
AcDbEntity
  8
16
100
AcDbLine
 10
88.49441808474184
 20
-0.0000000000000007
 30
0.0
 11
-83.90588178115756
 21
-0.0000000000000007
 31
0.0
  0
CIRCLE
  5
5045
330
1E
100
AcDbEntity
  8
12
  6
DASHED
100
AcDbCircle
 10
-67.9997748596762
 20
-32.99989074072519
 30
0.0
 40
2.499991722782211
  0
CIRCLE
  5
5047
330
1E
100
AcDbEntity
  8
12
  6
DASHED
100
AcDbCircle
 10
-67.9997748596762
 20
32.99989074072514
 30
0.0
 40
2.499991722782211
  0
LINE
  5
5048
330
1E
100
AcDbEntity
  8
12
  6
DASHDOT
 62
     3
100
AcDbLine
 10
-71.49976327157128
 20
-32.99989074072519
 30
0.0
 11
-64.49978644778109
 21
-32.99989074072519
 31
0.0
  0
LINE
  5
504A
330
1E
100
AcDbEntity
  8
12
  6
DASHDOT
 62
     3
100
AcDbLine
 10
-71.49976327157128
 20
32.99989074072514
 30
0.0
 11
-64.49978644778109
 21
32.99989074072514
 31
0.0
  0
LINE
  5
504C
330
1E
100
AcDbEntity
  8
10
  6
CONTINOUS
100
AcDbLine
 10
-73.49975664979702
 20
-95.9996821548369
 30
0.0
 11
73.49975664979702
 21
-95.9996821548369
 31
0.0
  0
LINE
  5
504D
330
1E
100
AcDbEntity
  8
10
  6
CONTINOUS
100
AcDbLine
 10
-78.49974009536143
 20
90.99969870927251
 30
0.0
 11
-78.49974009536143
 21
-90.99969870927248
 31
0.0
  0
ARC
  5
504E
330
1E
100
AcDbEntity
  8
10
  6
CONTINOUS
100
AcDbCircle
 10
-73.49975664979702
 20
-90.99969870927248
 30
0.0
 40
4.999983445564422
100
AcDbArc
 50
180.0
 51
270.0
  0
LINE
  5
504F
330
1E
100
AcDbEntity
  8
12
  6
DASHDOT
 62
     3
100
AcDbLine
 10
-67.99977485967628
 20
-36.49987915262093
 30
0.0
 11
-67.99977485967628
 21
-29.49990232883076
 31
0.0
  0
LINE
  5
5051
330
1E
100
AcDbEntity
  8
12
  6
DASHDOT
 62
     3
100
AcDbLine
 10
-67.99977485967628
 20
29.4999023288294
 30
0.0
 11
-67.99977485967628
 21
36.49987915261965
 31
0.0
  0
ARC
  5
5052
330
1E
100
AcDbEntity
  8
10
  6
CONTINOUS
100
AcDbCircle
 10
-73.49975664979702
 20
90.99969870927251
 30
0.0
 40
4.999983445564422
100
AcDbArc
 50
90.0
 51
180.0
  0
LINE
  5
5053
330
1E
100
AcDbEntity
  8
10
  6
CONTINOUS
100
AcDbLine
 10
-41.99986094274118
 20
24.99991722782211
 30
0.0
 11
-41.99986094274118
 21
-24.99991722782206
 31
0.0
  0
LINE
  5
5054
330
1E
100
AcDbEntity
  8
10
  6
CONTINOUS
100
AcDbLine
 10
41.99986094274112
 20
24.99991722782211
 30
0.0
 11
41.99986094274112
 21
-24.99991722782206
 31
0.0
  0
LINE
  5
5055
330
1E
100
AcDbEntity
  8
10
  6
CONTINOUS
100
AcDbLine
 10
-10.99996358024178
 20
24.99991722782211
 30
0.0
 11
-10.99996358024178
 21
-24.99991722782206
 31
0.0
  0
LINE
  5
5056
330
1E
100
AcDbEntity
  8
10
  6
CONTINOUS
100
AcDbLine
 10
10.99996358024167
 20
24.99991722782211
 30
0.0
 11
10.99996358024167
 21
-24.99991722782206
 31
0.0
  0
LINE
  5
5057
330
1E
100
AcDbEntity
  8
10
  6
DASHED
100
AcDbLine
 10
-44.99985101007982
 20
77.49974340624856
 30
0.0
 11
-44.99985101007982
 21
-77.49974340624856
 31
0.0
  0
LINE
  5
5058
330
1E
100
AcDbEntity
  8
10
  6
DASHED
100
AcDbLine
 10
44.99985101007982
 20
-77.49974340624856
 30
0.0
 11
44.99985101007982
 21
77.49974340624856
 31
0.0
  0
LINE
  5
5059
330
1E
100
AcDbEntity
  8
10
  6
CONTINOUS
100
AcDbLine
 10
78.49974009536139
 20
-90.99969870927248
 30
0.0
 11
78.49974009536139
 21
90.99969870927251
 31
0.0
  0
LINE
  5
505A
330
1E
100
AcDbEntity
  8
10
  6
CONTINOUS
100
AcDbLine
 10
-41.99986094274118
 20
-24.99991722782206
 30
0.0
 11
41.99986094274112
 21
-24.99991722782206
 31
0.0
  0
LINE
  5
505B
330
1E
100
AcDbEntity
  8
10
  6
DASHED
100
AcDbLine
 10
-44.99985101007982
 20
-77.49974340624856
 30
0.0
 11
44.99985101007982
 21
-77.49974340624856
 31
0.0
  0
ARC
  5
505C
330
1E
100
AcDbEntity
  8
10
  6
CONTINOUS
100
AcDbCircle
 10
73.49975664979702
 20
-90.99969870927248
 30
0.0
 40
4.999983445564422
100
AcDbArc
 50
270.0
 51
0.0
  0
CIRCLE
  5
505D
330
1E
100
AcDbEntity
  8
12
  6
DASHED
100
AcDbCircle
 10
67.99977485967611
 20
-32.99989074072519
 30
0.0
 40
2.499991722782211
  0
LINE
  5
505E
330
1E
100
AcDbEntity
  8
12
  6
DASHDOT
 62
     3
100
AcDbLine
 10
64.49978644778099
 20
-32.99989074072519
 30
0.0
 11
71.49976327157126
 21
-32.99989074072519
 31
0.0
  0
LINE
  5
505F
330
1E
100
AcDbEntity
  8
12
  6
DASHDOT
 62
     3
100
AcDbLine
 10
67.99977485967606
 20
-36.49987915262093
 30
0.0
 11
67.99977485967606
 21
-29.49990232883076
 31
0.0
  0
LINE
  5
5060
330
1E
100
AcDbEntity
  8
10
  6
CONTINOUS
100
AcDbLine
 10
-41.99986094274118
 20
24.99991722782211
 30
0.0
 11
41.99986094274112
 21
24.99991722782211
 31
0.0
  0
LINE
  5
5061
330
1E
100
AcDbEntity
  8
10
  6
DASHED
100
AcDbLine
 10
44.99985101007982
 20
77.49974340624856
 30
0.0
 11
-44.99985101007982
 21
77.49974340624856
 31
0.0
  0
LINE
  5
5062
330
1E
100
AcDbEntity
  8
10
  6
CONTINOUS
100
AcDbLine
 10
6.999976823790134
 20
-18.49993874858834
 30
0.0
 11
6.999976823790247
 21
20.15480197531517
 31
0.0
  0
LINE
  5
5063
330
1E
100
AcDbEntity
  8
10
  6
CONTINOUS
100
AcDbLine
 10
-6.999976823790191
 20
-18.49993874858834
 30
0.0
 11
-6.999976823790134
 21
20.15480197531517
 31
0.0
  0
LINE
  5
5064
330
1E
100
AcDbEntity
  8
10
  6
CONTINOUS
100
AcDbLine
 10
-6.999976823790191
 20
-18.49993874858834
 30
0.0
 11
6.999976823790134
 21
-18.49993874858834
 31
0.0
  0
LINE
  5
5065
330
1E
100
AcDbEntity
  8
10
  6
CONTINOUS
100
AcDbLine
 10
6.999976823790134
 20
6.840766657780405
 30
0.0
 11
-6.999976823789296
 21
6.840766657780405
 31
0.0
  0
LINE
  5
5066
330
1E
100
AcDbEntity
  8
10
  6
CONTINOUS
100
AcDbLine
 10
6.999976823790134
 20
20.15480197531517
 30
0.0
 11
-6.999976823791143
 21
20.15480197531517
 31
0.0
  0
LINE
  5
5067
330
1E
100
AcDbEntity
  8
10
  6
CONTINOUS
100
AcDbLine
 10
6.999976823790134
 20
15.2399059823013
 30
0.0
 11
-6.999976823790191
 21
15.2399059823013
 31
0.0
  0
CIRCLE
  5
506B
330
1E
100
AcDbEntity
  8
12
  6
DASHED
100
AcDbCircle
 10
67.99977485967611
 20
32.99989074072514
 30
0.0
 40
2.499991722782211
  0
LINE
  5
506C
330
1E
100
AcDbEntity
  8
12
  6
DASHDOT
 62
     3
100
AcDbLine
 10
64.49978644778099
 20
32.99989074072514
 30
0.0
 11
71.49976327157126
 21
32.99989074072514
 31
0.0
  0
LINE
  5
506D
330
1E
100
AcDbEntity
  8
12
  6
DASHDOT
 62
     3
100
AcDbLine
 10
67.99977485967606
 20
29.4999023288294
 30
0.0
 11
67.99977485967606
 21
36.49987915261965
 31
0.0
  0
ARC
  5
506E
330
1E
100
AcDbEntity
  8
10
  6
CONTINOUS
100
AcDbCircle
 10
73.49975664979702
 20
90.99969870927251
 30
0.0
 40
4.999983445564422
100
AcDbArc
 50
0.0
 51
90.0
  0
DIMENSION
  5
53E2
330
1E
100
AcDbEntity
  8
30
  6
Continuous
100
AcDbDimension
280
     0
  2
*D25
 10
67.61990546482874
 20
-403.5636153436747
 30
0.0
 11
-0.3800945351711958
 21
-400.5636153436748
 31
0.0
 70
    32
 71
     5
 42
-1.0
 73
     0
 74
     0
 75
     0
  3
STANDARD
100
AcDbAlignedDimension
 13
-68.38009453517114
 23
-288.163123760855
 33
0.0
 14
67.61990546482874
 24
-288.163123760855
 34
0.0
 50
180.0
100
AcDbRotatedDimension
  0
DIMENSION
  5
53E3
330
1E
100
AcDbEntity
  8
30
  6
Continuous
100
AcDbDimension
280
     0
  2
*D26
 10
62.61990546482903
 20
-378.5636153436747
 30
0.0
 11
-0.3800945351709613
 21
-375.5636153436747
 31
0.0
 70
    32
 71
     5
 42
-1.0
 73
     0
 74
     0
 75
     0
  3
STANDARD
100
AcDbAlignedDimension
 13
-63.38009453517095
 23
-343.1631237443548
 33
0.0
 14
62.61990546482903
 24
-343.1631237443548
 34
0.0
 50
180.0
100
AcDbRotatedDimension
  0
LINE
  5
53E4
330
1E
100
AcDbEntity
  8
18
  6
DIVIDE
100
AcDbLine
 10
73.11990546482879
 20
-156.6631237443556
 30
0.0
 11
-73.88009453517105
 21
-156.6631237443556
 31
0.0
  0
LINE
  5
53E5
330
1E
100
AcDbEntity
  8
18
  6
DIVIDE
100
AcDbLine
 10
-73.88009453517105
 20
-348.663123744355
 30
0.0
 11
73.11990546482879
 21
-348.663123744355
 31
0.0
  0
LINE
  5
53E7
330
1E
100
AcDbEntity
  8
11
 48
2.0
100
AcDbLine
 10
62.61990546482903
 20
-162.1631237443549
 30
0.0
 11
-63.38009453517097
 21
-162.1631237443549
 31
0.0
  0
LINE
  5
53E8
330
1E
100
AcDbEntity
  8
11
 48
2.0
100
AcDbLine
 10
-63.38009453517117
 20
-343.1631237443548
 30
0.0
 11
62.61990546482858
 21
-343.1631237443548
 31
0.0
  0
LINE
  5
53E9
330
1E
100
AcDbEntity
  8
18
  6
DIVIDE
100
AcDbLine
 10
-78.88009453517097
 20
-161.6631237443554
 30
0.0
 11
-78.88009453517097
 21
-343.6631237443548
 31
0.0
  0
LINE
  5
53EA
330
1E
100
AcDbEntity
  8
11
 48
2.0
100
AcDbLine
 10
-63.38009453517097
 20
-343.1631237443548
 30
0.0
 11
-63.38009453517097
 21
-162.1631237443549
 31
0.0
  0
ARC
  5
53EB
330
1E
100
AcDbEntity
  8
18
  6
DIVIDE
100
AcDbCircle
 10
-73.88009453517105
 20
-343.6631237443548
 30
0.0
 40
4.999999999999992
100
AcDbArc
 50
180.0
 51
270.0
  0
CIRCLE
  5
53EC
330
1E
100
AcDbEntity
  8
12
  6
Continuous
 62
     3
100
AcDbCircle
 10
-68.38009453517114
 20
-285.6631237443549
 30
0.0
 40
2.999999999999996
  0
LINE
  5
53ED
330
1E
100
AcDbEntity
  8
12
  6
Continuous
 62
     3
100
AcDbLine
 10
-68.38009453517114
 20
-290.6631237443559
 30
0.0
 11
-68.38009453517114
 21
-280.6631237443559
 31
0.0
  0
LINE
  5
53EE
330
1E
100
AcDbEntity
  8
12
  6
Continuous
 62
     3
100
AcDbLine
 10
-73.38009453517106
 20
-285.6631237443549
 30
0.0
 11
-63.38009453517117
 21
-285.6631237443549
 31
0.0
  0
CIRCLE
  5
53F2
330
1E
100
AcDbEntity
  8
12
  6
Continuous
 62
     3
100
AcDbCircle
 10
-68.38009453517114
 20
-219.6631237443551
 30
0.0
 40
2.999999999999996
  0
LINE
  5
53F3
330
1E
100
AcDbEntity
  8
12
  6
Continuous
 62
     3
100
AcDbLine
 10
-73.38009453517106
 20
-219.6631237443551
 30
0.0
 11
-63.38009453517117
 21
-219.6631237443551
 31
0.0
  0
LINE
  5
53F4
330
1E
100
AcDbEntity
  8
12
  6
Continuous
 62
     3
100
AcDbLine
 10
-68.38009453517155
 20
-224.663123744356
 30
0.0
 11
-68.38009453517155
 21
-214.663123744356
 31
0.0
  0
ARC
  5
53F5
330
1E
100
AcDbEntity
  8
18
  6
DIVIDE
100
AcDbCircle
 10
-73.88009453517105
 20
-161.6631237443554
 30
0.0
 40
4.999999999999992
100
AcDbArc
 50
90.0
 51
180.0
  0
LINE
  5
53F6
330
1E
100
AcDbEntity
  8
18
  6
DIVIDE
100
AcDbLine
 10
78.11990546482871
 20
-343.6631237443548
 30
0.0
 11
78.11990546482871
 21
-161.6631237443554
 31
0.0
  0
LINE
  5
53F8
330
1E
100
AcDbEntity
  8
11
 48
2.0
100
AcDbLine
 10
62.61990546482903
 20
-343.1631237443548
 30
0.0
 11
62.61990546482903
 21
-162.1631237443549
 31
0.0
  0
ARC
  5
53F9
330
1E
100
AcDbEntity
  8
18
  6
DIVIDE
100
AcDbCircle
 10
73.11990546482879
 20
-343.6631237443548
 30
0.0
 40
4.999999999999992
100
AcDbArc
 50
270.0
 51
0.0
  0
CIRCLE
  5
53FA
330
1E
100
AcDbEntity
  8
12
  6
Continuous
 62
     3
100
AcDbCircle
 10
67.61990546482874
 20
-285.6631237443549
 30
0.0
 40
2.999999999999996
  0
LINE
  5
53FB
330
1E
100
AcDbEntity
  8
12
  6
Continuous
 62
     3
100
AcDbLine
 10
67.61990546482852
 20
-290.6631237443559
 30
0.0
 11
67.61990546482852
 21
-280.6631237443559
 31
0.0
  0
LINE
  5
53FC
330
1E
100
AcDbEntity
  8
12
  6
Continuous
 62
     3
100
AcDbLine
 10
62.61990546482858
 20
-285.6631237443549
 30
0.0
 11
72.61990546482869
 21
-285.6631237443549
 31
0.0
  0
LINE
  5
5400
330
1E
100
AcDbEntity
  8
12
  6
Continuous
 62
     3
100
AcDbLine
 10
62.61990546482858
 20
-219.6631237443551
 30
0.0
 11
72.61990546482845
 21
-219.6631237443551
 31
0.0
  0
CIRCLE
  5
5401
330
1E
100
AcDbEntity
  8
12
  6
Continuous
 62
     3
100
AcDbCircle
 10
67.61990546482852
 20
-219.6631237443551
 30
0.0
 40
2.999999999999996
  0
LINE
  5
5402
330
1E
100
AcDbEntity
  8
12
  6
Continuous
 62
     3
100
AcDbLine
 10
67.61990546482852
 20
-224.663123744356
 30
0.0
 11
67.61990546482852
 21
-214.663123744356
 31
0.0
  0
ARC
  5
5403
330
1E
100
AcDbEntity
  8
18
  6
DIVIDE
100
AcDbCircle
 10
73.11990546482879
 20
-161.6631237443554
 30
0.0
 40
4.999999999999992
100
AcDbArc
 50
0.0
 51
90.0
  0
LWPOLYLINE
  5
5475
330
1E
100
AcDbEntity
  8
10
  6
CONTINOUS
100
AcDbPolyline
 90
        2
 70
     0
 43
0.0
 10
73.49975664979702
 20
95.99968215483697
 10
-73.49975664979702
 20
95.99968215483697
  0
DIMENSION
  5
5476
330
1E
100
AcDbEntity
  8
30
  6
Continuous
100
AcDbDimension
280
     0
  2
*D29
 10
78.49974009536143
 20
-124.2815389722079
 30
0.0
 11
0.0000000000000073
 21
-121.2815389722079
 31
0.0
 70
    32
 71
     5
 42
-1.0
 73
     0
 74
     0
 75
     0
  3
STANDARD
100
AcDbAlignedDimension
 13
-78.49974009536143
 23
-95.2647216513492
 33
0.0
 14
78.49974009536143
 24
-95.2647216513492
 34
0.0
100
AcDbRotatedDimension
1001
ACAD
1000
DSTYLE
1002
{
1070
    79
1070
     3
1002
}
  0
DIMENSION
  5
54D8
330
1E
100
AcDbEntity
  8
30
  6
Continuous
100
AcDbDimension
280
     0
  2
*D30
 10
63.19371131877503
 20
-219.4725068451631
 30
0.0
 11
97.31772131877509
 21
-204.873116845163
 31
0.0
 70
   163
 71
     5
 42
-1.0
 73
     0
 74
     0
 75
     0
  3
STANDARD
100
AcDbDiametricDimension
 15
68.58151331877514
 25
-216.8321288451628
 35
0.0
 40
0.0
1001
ACAD
1000
DSTYLE
1002
{
1070
   288
1070
     1
1002
}
  0
LINE
  5
58FA
330
1E
100
AcDbEntity
  8
10
  6
CONTINOUS
100
AcDbLine
 10
22.69999999999999
 20
-12.49999999999997
 30
0.0
 11
22.69999999999999
 21
-15.49999999999997
 31
0.0
  0
LINE
  5
58FB
330
1E
100
AcDbEntity
  8
10
  6
CONTINOUS
100
AcDbLine
 10
30.69999999999999
 20
-12.49999999999997
 30
0.0
 11
30.69999999999999
 21
-15.49999999999997
 31
0.0
  0
LINE
  5
58FC
330
1E
100
AcDbEntity
  8
10
  6
CONTINOUS
100
AcDbLine
 10
22.69999999999999
 20
-15.49999999999997
 30
0.0
 11
30.69999999999999
 21
-15.49999999999997
 31
0.0
  0
CIRCLE
  5
58FD
330
1E
100
AcDbEntity
  8
10
  6
CONTINOUS
100
AcDbCircle
 10
26.19999999999999
 20
-1.899999999999975
 30
0.0
 40
3.6
  0
CIRCLE
  5
58FE
330
1E
100
AcDbEntity
  8
10
  6
CONTINOUS
100
AcDbCircle
 10
26.19999999999999
 20
-1.899999999999975
 30
0.0
 40
2.6
  0
LINE
  5
58FF
330
1E
100
AcDbEntity
  8
10
  6
CONTINOUS
100
AcDbLine
 10
22.69999999999999
 20
-7.499999999999971
 30
0.0
 11
30.69999999999999
 21
-7.499999999999971
 31
0.0
  0
LINE
  5
5900
330
1E
100
AcDbEntity
  8
10
  6
CONTINOUS
100
AcDbLine
 10
22.69999999999999
 20
-10.49999999999996
 30
0.0
 11
30.69999999999999
 21
-10.49999999999996
 31
0.0
  0
LINE
  5
5901
330
1E
100
AcDbEntity
  8
10
  6
CONTINOUS
100
AcDbLine
 10
22.69999999999999
 20
-12.49999999999997
 30
0.0
 11
30.69999999999999
 21
-12.49999999999997
 31
0.0
  0
LINE
  5
5902
330
1E
100
AcDbEntity
  8
10
  6
CONTINOUS
100
AcDbLine
 10
22.69999999999999
 20
-7.499999999999971
 30
0.0
 11
22.69999999999999
 21
-10.49999999999996
 31
0.0
  0
LINE
  5
5903
330
1E
100
AcDbEntity
  8
10
  6
CONTINOUS
100
AcDbLine
 10
30.69999999999999
 20
-7.499999999999971
 30
0.0
 11
30.69999999999999
 21
-10.49999999999996
 31
0.0
  0
CIRCLE
  5
5904
330
1E
100
AcDbEntity
  8
10
  6
CONTINOUS
100
AcDbCircle
 10
26.19999999999999
 20
12.30000000000003
 30
0.0
 40
1.5
  0
CIRCLE
  5
5905
330
1E
100
AcDbEntity
  8
10
  6
CONTINOUS
100
AcDbCircle
 10
26.19999999999999
 20
5.80000000000004
 30
0.0
 40
3.6
  0
CIRCLE
  5
5906
330
1E
100
AcDbEntity
  8
10
  6
CONTINOUS
100
AcDbCircle
 10
26.19999999999999
 20
5.80000000000004
 30
0.0
 40
2.6
  0
LINE
  5
5907
330
1E
100
AcDbEntity
  8
18
100
AcDbLine
 10
125.5
 20
-2.999999999999982
 30
0.0
 11
158.0
 21
-2.999999999999982
 31
0.0
  0
LINE
  5
5908
330
1E
100
AcDbEntity
  8
18
100
AcDbLine
 10
125.5
 20
3.000000000000017
 30
0.0
 11
158.0
 21
3.000000000000017
 31
0.0
  0
LINE
  5
5909
330
1E
100
AcDbEntity
  8
18
100
AcDbLine
 10
125.5
 20
-0.9999999999999822
 30
0.0
 11
158.0
 21
-0.9999999999999822
 31
0.0
  0
LINE
  5
590A
330
1E
100
AcDbEntity
  8
18
100
AcDbLine
 10
125.5
 20
1.000000000000017
 30
0.0
 11
158.0
 21
1.000000000000017
 31
0.0
  0
LINE
  5
590B
330
1E
100
AcDbEntity
  8
18
100
AcDbLine
 10
42.00000000000001
 20
-2.999999999999982
 30
0.0
 11
78.66646632145505
 21
-2.999999999999982
 31
0.0
  0
LINE
  5
590C
330
1E
100
AcDbEntity
  8
18
100
AcDbLine
 10
42.00000000000001
 20
-0.9999999999999822
 30
0.0
 11
79.86990379777616
 21
-0.9999999999999822
 31
0.0
  0
LINE
  5
590D
330
1E
100
AcDbEntity
  8
18
100
AcDbLine
 10
42.00000000000001
 20
1.000000000000017
 30
0.0
 11
79.5319992477354
 21
1.000000000000017
 31
0.0
  0
LINE
  5
590E
330
1E
100
AcDbEntity
  8
18
100
AcDbLine
 10
42.00000000000001
 20
3.000000000000017
 30
0.0
 11
80.01770323792866
 21
3.000000000000017
 31
0.0
  0
LINE
  5
590F
330
1E
100
AcDbEntity
  8
18
100
AcDbLine
 10
110.4999999999999
 20
-3.499999999999982
 30
0.0
 11
125.5
 21
-3.499999999999982
 31
0.0
  0
LINE
  5
5910
330
1E
100
AcDbEntity
  8
18
100
AcDbLine
 10
110.4999999999999
 20
3.500000000000017
 30
0.0
 11
125.5
 21
3.500000000000017
 31
0.0
  0
LINE
  5
5911
330
1E
100
AcDbEntity
  8
18
100
AcDbLine
 10
82.66646632145505
 20
-2.999999999999982
 30
0.0
 11
110.4999999999999
 21
-2.999999999999982
 31
0.0
  0
LINE
  5
5912
330
1E
100
AcDbEntity
  8
18
100
AcDbLine
 10
83.86990379777612
 20
-0.9999999999999822
 30
0.0
 11
110.4999999999999
 21
-0.9999999999999822
 31
0.0
  0
LINE
  5
5913
330
1E
100
AcDbEntity
  8
18
100
AcDbLine
 10
83.5319992477356
 20
1.000000000000017
 30
0.0
 11
110.4999999999999
 21
1.000000000000017
 31
0.0
  0
LINE
  5
5914
330
1E
100
AcDbEntity
  8
18
100
AcDbLine
 10
84.01770323792865
 20
3.000000000000017
 30
0.0
 11
110.4999999999999
 21
3.000000000000017
 31
0.0
  0
LINE
  5
5915
330
1E
100
AcDbEntity
  8
18
100
AcDbLine
 10
110.4999999999999
 20
-3.499999999999982
 30
0.0
 11
110.4999999999999
 21
3.500000000000017
 31
0.0
  0
LINE
  5
5916
330
1E
100
AcDbEntity
  8
18
100
AcDbLine
 10
125.5
 20
-3.499999999999982
 30
0.0
 11
125.5
 21
3.500000000000017
 31
0.0
  0
LINE
  5
5917
330
1E
100
AcDbEntity
  8
18
100
AcDbLine
 10
158.0
 20
-0.9999999999999822
 30
0.0
 11
158.0
 21
1.000000000000017
 31
0.0
  0
LINE
  5
5918
330
1E
100
AcDbEntity
  8
18
100
AcDbLine
 10
163.0
 20
-0.4999999999999825
 30
0.0
 11
163.0
 21
0.5000000000000178
 31
0.0
  0
LINE
  5
5919
330
1E
100
AcDbEntity
  8
18
100
AcDbLine
 10
158.0
 20
-2.49999999999998
 30
0.0
 11
163.0
 21
-2.49999999999998
 31
0.0
  0
LINE
  5
591A
330
1E
100
AcDbEntity
  8
18
100
AcDbLine
 10
158.0
 20
-1.49999999999998
 30
0.0
 11
163.0
 21
-1.49999999999998
 31
0.0
  0
LINE
  5
591B
330
1E
100
AcDbEntity
  8
18
100
AcDbLine
 10
158.0
 20
-0.4999999999999825
 30
0.0
 11
163.0
 21
-0.4999999999999825
 31
0.0
  0
LINE
  5
591C
330
1E
100
AcDbEntity
  8
18
100
AcDbLine
 10
158.0
 20
-2.999999999999982
 30
0.0
 11
158.0
 21
-0.9999999999999822
 31
0.0
  0
LINE
  5
591D
330
1E
100
AcDbEntity
  8
18
100
AcDbLine
 10
163.0
 20
-2.49999999999998
 30
0.0
 11
163.0
 21
-1.49999999999998
 31
0.0
  0
LINE
  5
591E
330
1E
100
AcDbEntity
  8
18
100
AcDbLine
 10
158.0
 20
0.5000000000000178
 30
0.0
 11
163.0
 21
0.5000000000000178
 31
0.0
  0
LINE
  5
591F
330
1E
100
AcDbEntity
  8
18
100
AcDbLine
 10
158.0
 20
1.500000000000017
 30
0.0
 11
163.0
 21
1.500000000000017
 31
0.0
  0
LINE
  5
5920
330
1E
100
AcDbEntity
  8
18
100
AcDbLine
 10
158.0
 20
2.500000000000015
 30
0.0
 11
163.0
 21
2.500000000000015
 31
0.0
  0
LINE
  5
5921
330
1E
100
AcDbEntity
  8
18
100
AcDbLine
 10
158.0
 20
1.000000000000017
 30
0.0
 11
158.0
 21
3.000000000000017
 31
0.0
  0
LINE
  5
5922
330
1E
100
AcDbEntity
  8
18
100
AcDbLine
 10
163.0
 20
1.500000000000017
 30
0.0
 11
163.0
 21
2.500000000000015
 31
0.0
  0
DIMENSION
  5
5923
330
1E
100
AcDbEntity
  8
30
  6
Continuous
100
AcDbDimension
280
     0
  2
*D32
 10
-95.0
 20
95.99968215483697
 30
0.0
 11
-98.00000000000002
 21
0.0000000000000204
 31
0.0
 70
    32
 71
     5
 42
-1.0
 73
     0
 74
     0
 75
     0
  3
STANDARD
100
AcDbAlignedDimension
 13
-73.49975664979702
 23
-95.9996821548369
 33
0.0
 14
-73.49975664979702
 24
95.99968215483697
 34
0.0
 50
90.0
100
AcDbRotatedDimension
1001
ACAD
1000
DSTYLE
1002
{
1070
    79
1070
     3
1002
}
  0
MTEXT
  5
595F
330
1E
100
AcDbEntity
  8
30
  6
Continuous
100
AcDbMText
 10
194.5002131091851
 20
227.0247451504559
 30
0.0
 40
5.0
 41
79.0
 46
0.0
 71
     1
 72
     5
  1
ZAS50-GF 3P FP\PZAS100-GF 3P FP\PZAS125-GF 3P FP
  7
STANDARD1
 73
     1
 44
1.0
1001
ACAD
1000
MTEXTBEGIN
1070
    73
1070
     1
1070
    44
1040
1.0
1070
    74
1070
     0
1000
MTEXTEND
  0
LINE
  5
5AFA
330
1E
100
AcDbEntity
  8
16
100
AcDbLine
 10
373.9068787532454
 20
0.0
 30
0.0
 11
241.7416311410758
 21
0.0
 31
0.0
  0
DIMENSION
  5
5AFB
330
1E
100
AcDbEntity
  8
30
  6
Continuous
100
AcDbDimension
280
     0
  2
*D44
 10
294.9999257258451
 20
-172.3996379392698
 30
0.0
 11
276.5000173306357
 21
-169.3996379392698
 31
0.0
 70
    32
 71
     5
 42
36.99981679041883
 73
     0
 74
     0
 75
     0
  3
STANDARD
100
AcDbAlignedDimension
 13
258.0001089354263
 23
-2.499987637474176
 33
0.0
 14
294.9999257258451
 24
-105.9994751293082
 34
0.0
 50
180.0
100
AcDbRotatedDimension
  0
LINE
  5
5AFC
330
1E
100
AcDbEntity
  8
10
  6
CONTINOUS
100
AcDbLine
 10
274.0000297096619
 20
-24.99987620974255
 30
0.0
 11
280.0
 21
-24.99987620974255
 31
0.0
  0
LINE
  5
5AFD
330
1E
100
AcDbEntity
  8
10
  6
CONTINOUS
100
AcDbLine
 10
274.0000297096619
 20
24.99987620974251
 30
0.0
 11
280.0
 21
24.99987620974251
 31
0.0
  0
LINE
  5
5AFE
330
1E
100
AcDbEntity
  8
10
  6
CONTINOUS
100
AcDbLine
 10
274.0000297096619
 20
24.99987620974251
 30
0.0
 11
274.0000297096619
 21
-24.99987620974255
 31
0.0
  0
ARC
  5
5AFF
330
1E
100
AcDbEntity
  8
30
  6
Continuous
100
AcDbCircle
 10
288.9999554355073
 20
0.0
 30
0.0
 40
30.99984650008077
100
AcDbArc
 50
150.5534441956572
 51
180.0
  0
LINE
  5
5B00
330
1E
100
AcDbEntity
  8
10
  6
CONTINOUS
100
AcDbLine
 10
274.0000297096619
 20
6.840755433938483
 30
0.0
 11
262.0048353058886
 21
15.23988097775135
 31
0.0
  0
LINE
  5
5B01
330
1E
100
AcDbEntity
  8
10
  6
CONTINOUS
100
AcDbLine
 10
274.0000297096619
 20
14.16536669770708
 30
0.0
 11
265.4462768832329
 21
20.15476890675518
 31
0.0
  0
LINE
  5
5B02
330
1E
100
AcDbEntity
  8
10
  6
CONTINOUS
100
AcDbLine
 10
262.0048353058886
 20
15.23988097775135
 30
0.0
 11
265.4462768832329
 21
20.15476890675518
 31
0.0
  0
LINE
  5
5B03
330
1E
100
AcDbEntity
  8
10
  6
CONTINOUS
100
AcDbLine
 10
294.9999257258451
 20
95.99952464541166
 30
0.0
 11
294.9999257258451
 21
-95.99952464541123
 31
0.0
  0
LINE
  5
5B04
330
1E
100
AcDbEntity
  8
10
  6
CONTINOUS
100
AcDbLine
 10
278.0000099032204
 20
24.99987620974251
 30
0.0
 11
278.0000099032204
 21
-24.99987620974255
 31
0.0
  0
LINE
  5
5B05
330
1E
100
AcDbEntity
  8
18
100
AcDbLine
 10
298.9999059194044
 20
100.9994998873601
 30
0.0
 11
298.9999059194044
 21
-110.9994503712566
 31
0.0
  0
LINE
  5
5B06
330
1E
100
AcDbEntity
  8
10
  6
CONTINOUS
100
AcDbLine
 10
280.0
 20
95.99952464541166
 30
0.0
 11
280.0
 21
-95.99952464541123
 31
0.0
  0
DIMENSION
  5
5B07
330
1E
100
AcDbEntity
  8
30
  6
Continuous
100
AcDbDimension
280
     0
  2
*D45
 10
451.9991483230286
 20
-172.3996379392698
 30
0.0
 11
373.4995370244369
 21
-169.3996379392698
 31
0.0
 70
    32
 71
     5
 42
156.9992225971835
 73
     0
 74
     0
 75
     0
  3
STANDARD
100
AcDbAlignedDimension
 13
294.9999257258451
 23
-105.9994751293082
 33
0.0
 14
451.9991483230286
 24
-66.99966824211003
 34
0.0
 50
180.0
100
AcDbRotatedDimension
  0
DIMENSION
  5
5B08
330
1E
100
AcDbEntity
  8
30
  6
Continuous
100
AcDbDimension
280
     0
  2
*D46
 10
401.9993959035431
 20
-147.3997617295276
 30
0.0
 11
348.4996608146942
 21
-144.3997617295276
 31
0.0
 70
    32
 71
     5
 42
106.9994701776982
 73
     0
 74
     0
 75
     0
  3
STANDARD
100
AcDbAlignedDimension
 13
294.9999257258451
 23
-105.9994751293082
 33
0.0
 14
401.9993959035431
 24
-66.99966824211003
 34
0.0
 50
180.0
100
AcDbRotatedDimension
  0
INSERT
  5
5B09
330
1E
100
AcDbEntity
  8
30
  6
Continuous
100
AcDbBlockReference
  2
*U33
 10
-357.0351231466664
 20
-306.7739725618864
 30
0.0
 41
2.499987620974227
 42
2.499987620974227
 43
2.499987620974227
  0
DIMENSION
  5
5B0A
330
1E
100
AcDbEntity
  8
30
  6
Continuous
100
AcDbDimension
280
     0
  2
*D47
 10
386.9994701776981
 20
-34.90031878568621
 30
0.0
 11
379.4995073147753
 21
-31.90031878568621
 31
0.0
 70
    32
 71
     5
 42
14.99992572584563
 73
     0
 74
     0
 75
     0
  3
STANDARD
100
AcDbAlignedDimension
 13
371.9995444518525
 23
-59.99970288688222
 33
0.0
 14
386.9994701776981
 24
-64.49968060463588
 34
0.0
100
AcDbRotatedDimension
  0
LINE
  5
5B0B
330
1E
100
AcDbEntity
  8
0
  6
Continuous
100
AcDbLine
 10
373.5933088038024
 20
-74.99962862922766
 30
0.0
 11
399.8558129783345
 21
-74.99962862922766
 31
0.0
  0
LINE
  5
5B0C
330
1E
100
AcDbEntity
  8
0
  6
Continuous
100
AcDbLine
 10
373.5933088038024
 20
-58.99970785499244
 30
0.0
 11
399.8558129783345
 21
-58.99970785499244
 31
0.0
  0
LINE
  5
5B0D
330
1E
100
AcDbEntity
  8
0
  6
Continuous
100
AcDbLine
 10
344.9996781453305
 20
-66.99966824211003
 30
0.0
 11
461.9990988069256
 21
-66.99966824211003
 31
0.0
  0
DIMENSION
  5
5B0E
330
1E
100
AcDbEntity
  8
30
  6
Continuous
100
AcDbDimension
280
     0
  2
*D48
 10
294.9999257258451
 20
-147.3997617295276
 30
0.0
 11
287.4999628629225
 21
-144.3997617295276
 31
0.0
 70
    32
 71
     5
 42
14.99992572584512
 73
     0
 74
     0
 75
     0
  3
STANDARD
100
AcDbAlignedDimension
 13
280.0
 23
-95.99952464541123
 33
0.0
 14
294.9999257258451
 24
-105.9994751293082
 34
0.0
 50
180.0
100
AcDbRotatedDimension
  0
LINE
  5
5B0F
330
1E
100
AcDbEntity
  8
18
100
AcDbLine
 10
294.9999257258451
 20
-95.99952464541123
 30
0.0
 11
294.9999257258451
 21
-105.999475129308
 31
0.0
  0
LINE
  5
5B10
330
1E
100
AcDbEntity
  8
18
100
AcDbLine
 10
294.9999257258451
 20
-105.999475129308
 30
0.0
 11
298.9999059194044
 21
-110.9994503712566
 31
0.0
  0
LINE
  5
5B11
330
1E
100
AcDbEntity
  8
10
  6
CONTINOUS
100
AcDbLine
 10
294.9999257258451
 20
-77.49961625020187
 30
0.0
 11
349.9996533872792
 21
-77.49961625020187
 31
0.0
  0
LINE
  5
5B12
330
1E
100
AcDbEntity
  8
10
  6
CONTINOUS
100
AcDbLine
 10
280.0
 20
-95.99952464541123
 30
0.0
 11
294.9999257258451
 21
-95.99952464541123
 31
0.0
  0
LINE
  5
5B13
330
1E
100
AcDbEntity
  8
0
  6
Continuous
100
AcDbLine
 10
366.4995716857089
 20
-59.87470352233344
 30
0.0
 11
366.4995716857089
 21
-74.12463296188668
 31
0.0
  0
LINE
  5
5B14
330
1E
100
AcDbEntity
  8
0
  6
Continuous
100
AcDbLine
 10
349.9996533872788
 20
-74.12463296188668
 30
0.0
 11
373.1167864807558
 21
-74.12463296188668
 31
0.0
  0
LINE
  5
5B15
330
1E
100
AcDbEntity
  8
0
  6
Continuous
100
AcDbLine
 10
366.4995716857089
 20
-71.4996459598637
 30
0.0
 11
371.9995444518525
 21
-71.4996459598637
 31
0.0
  0
ARC
  5
5B16
330
1E
100
AcDbEntity
  8
0
  6
Continuous
100
AcDbCircle
 10
390.9137311150848
 20
-64.99967814533062
 30
0.0
 40
19.99990096779404
100
AcDbArc
 50
198.9655749888474
 51
209.9999999999998
  0
LINE
  5
5B17
330
1E
100
AcDbEntity
  8
0
  6
Continuous
100
AcDbLine
 10
349.9996533872788
 20
-59.87470352233344
 30
0.0
 11
373.1167864807558
 21
-59.87470352233344
 31
0.0
  0
LINE
  5
5B18
330
1E
100
AcDbEntity
  8
0
  6
Continuous
100
AcDbLine
 10
366.4995716857089
 20
-62.49969052435637
 30
0.0
 11
371.9995444518525
 21
-62.49969052435637
 31
0.0
  0
ARC
  5
5B19
330
1E
100
AcDbEntity
  8
0
  6
Continuous
100
AcDbCircle
 10
-390.9137311150848
 20
-68.99965833888946
 30
0.0
 40
19.99990096779404
210
0.0
220
0.0
230
-1.0
100
AcDbArc
 50
18.96557498884922
 51
30.00000000000055
  0
DIMENSION
  5
5B1A
330
1E
100
AcDbEntity
  8
30
  6
Continuous
100
AcDbDimension
280
     0
  2
*D49
 10
451.9991483230286
 20
-122.3998855197852
 30
0.0
 11
444.4991854601059
 21
-119.3998855197852
 31
0.0
 70
    32
 71
     5
 42
14.99992572584551
 73
     0
 74
     0
 75
     0
  3
STANDARD
100
AcDbAlignedDimension
 13
436.9992225971832
 23
-69.49965587958423
 33
0.0
 14
451.9991483230286
 24
-76.28671009944188
 34
0.0
 50
180.0
100
AcDbRotatedDimension
  0
DIMENSION
  5
5B1B
330
1E
100
AcDbEntity
  8
30
  6
Continuous
100
AcDbDimension
280
     0
  2
*D50
 10
401.9993959035431
 20
-122.3998855197852
 30
0.0
 11
394.4994330406207
 21
-119.3998855197852
 31
0.0
 70
    32
 71
     5
 42
14.99992572584517
 73
     0
 74
     0
 75
     0
  3
STANDARD
100
AcDbAlignedDimension
 13
386.9994701776981
 23
-69.49965587958423
 33
0.0
 14
401.9993959035431
 24
-76.28671009944188
 34
0.0
 50
180.0
100
AcDbRotatedDimension
  0
CIRCLE
  5
5B1C
330
1E
100
AcDbEntity
  8
0
  6
Continuous
100
AcDbCircle
 10
436.9992225971832
 20
-66.99966824211003
 30
0.0
 40
4.249978955656231
  0
LINE
  5
5B1D
330
1E
100
AcDbEntity
  8
0
  6
Continuous
100
AcDbLine
 10
423.5930612232875
 20
-58.99970785499244
 30
0.0
 11
449.8555653978195
 21
-58.99970785499244
 31
0.0
  0
LINE
  5
5B1E
330
1E
100
AcDbEntity
  8
0
  6
Continuous
100
AcDbLine
 10
423.5930612232875
 20
-74.99962862922766
 30
0.0
 11
449.8555653978195
 21
-74.99962862922766
 31
0.0
  0
ARC
  5
5B1F
330
1E
100
AcDbEntity
  8
0
  6
Continuous
100
AcDbCircle
 10
385.9994751293085
 20
-66.99966824211003
 30
0.0
 40
15.99992077423523
100
AcDbArc
 50
329.9999999999995
 51
30.00000000000055
  0
CIRCLE
  5
5B20
330
1E
100
AcDbEntity
  8
0
  6
Continuous
100
AcDbCircle
 10
386.9994701776981
 20
-66.99966824211003
 30
0.0
 40
4.249978955656231
  0
LINE
  5
5B21
330
1E
100
AcDbEntity
  8
0
  6
Continuous
100
AcDbLine
 10
386.9994701776981
 20
-53.99973261304392
 30
0.0
 11
386.9994701776981
 21
-79.99960387117616
 31
0.0
  0
LINE
  5
5B22
330
1E
100
AcDbEntity
  8
0
  6
Continuous
100
AcDbLine
 10
416.4993241051941
 20
-59.87470352233344
 30
0.0
 11
416.4993241051941
 21
-74.12463296188668
 31
0.0
  0
LINE
  5
5B23
330
1E
100
AcDbEntity
  8
0
  6
Continuous
100
AcDbLine
 10
400.3254076477777
 20
-74.12463296188668
 30
0.0
 11
416.4993241051943
 21
-74.12463296188668
 31
0.0
  0
LINE
  5
5B24
330
1E
100
AcDbEntity
  8
0
  6
Continuous
100
AcDbLine
 10
416.4993241051941
 20
-71.4996459598637
 30
0.0
 11
421.9992968713374
 21
-71.4996459598637
 31
0.0
  0
ARC
  5
5B25
330
1E
100
AcDbEntity
  8
0
  6
Continuous
100
AcDbCircle
 10
440.9134835345701
 20
-64.99967814533062
 30
0.0
 40
19.99990096779404
100
AcDbArc
 50
198.9655749888474
 51
209.9999999999998
  0
LINE
  5
5B26
330
1E
100
AcDbEntity
  8
0
  6
Continuous
100
AcDbLine
 10
400.3254076477777
 20
-59.87470352233344
 30
0.0
 11
416.4993241051943
 21
-59.87470352233344
 31
0.0
  0
LINE
  5
5B27
330
1E
100
AcDbEntity
  8
0
  6
Continuous
100
AcDbLine
 10
416.4993241051941
 20
-62.49969052435637
 30
0.0
 11
421.9992968713374
 21
-62.49969052435637
 31
0.0
  0
ARC
  5
5B28
330
1E
100
AcDbEntity
  8
0
  6
Continuous
100
AcDbCircle
 10
-440.9134835345701
 20
-68.99965833888946
 30
0.0
 40
19.99990096779404
210
0.0
220
0.0
230
-1.0
100
AcDbArc
 50
18.96557498884922
 51
30.00000000000055
  0
DIMENSION
  5
5B29
330
1E
100
AcDbEntity
  8
30
  6
Continuous
100
AcDbDimension
280
     0
  2
*D51
 10
476.0857515477538
 20
-58.99970785499242
 30
0.0
 11
473.0857515477538
 21
-66.99966824210996
 31
0.0
 70
    32
 71
     5
 42
15.99992077423525
 73
     0
 74
     0
 75
     0
  3
STANDARD
100
AcDbAlignedDimension
 13
449.8555653978195
 23
-74.99962862922766
 33
0.0
 14
449.8555653978195
 24
-58.99970785499241
 34
0.0
 50
270.0
100
AcDbRotatedDimension
  0
ARC
  5
5B2A
330
1E
100
AcDbEntity
  8
0
  6
Continuous
100
AcDbCircle
 10
435.9992275487933
 20
-66.99966824211003
 30
0.0
 40
15.99992077423523
100
AcDbArc
 50
329.9999999999995
 51
30.00000000000055
  0
LINE
  5
5B2B
330
1E
100
AcDbEntity
  8
0
  6
Continuous
100
AcDbLine
 10
436.9992225971832
 20
-53.99973261304392
 30
0.0
 11
436.9992225971832
 21
-79.99960387117616
 31
0.0
  0
LINE
  5
5B2C
330
1E
100
AcDbEntity
  8
0
  6
Continuous
100
AcDbLine
 10
366.4995716857089
 20
64.49968062113575
 30
0.0
 11
401.9993959035431
 21
64.49968062113575
 31
0.0
  0
LINE
  5
5B2D
330
1E
100
AcDbEntity
  8
0
  6
Continuous
100
AcDbLine
 10
366.4995716857089
 20
69.49965586308424
 30
0.0
 11
401.9993959035431
 21
69.49965586308424
 31
0.0
  0
LINE
  5
5B2E
330
1E
100
AcDbEntity
  8
0
  6
Continuous
100
AcDbLine
 10
344.9996781453305
 20
66.99966824210996
 30
0.0
 11
461.9990988069256
 21
66.99966824210996
 31
0.0
  0
LINE
  5
5B2F
330
1E
100
AcDbEntity
  8
0
  6
Continuous
100
AcDbLine
 10
349.9996533872788
 20
59.87470352233344
 30
0.0
 11
416.4993241051938
 21
59.87470352233344
 31
0.0
  0
LINE
  5
5B30
330
1E
100
AcDbEntity
  8
0
  6
Continuous
100
AcDbLine
 10
349.9996533872788
 20
74.12463296188659
 30
0.0
 11
416.4993241051938
 21
74.12463296188659
 31
0.0
  0
LINE
  5
5B31
330
1E
100
AcDbEntity
  8
10
  6
CONTINOUS
100
AcDbLine
 10
294.9999257258451
 20
77.49961625020205
 30
0.0
 11
349.9996533872792
 21
77.49961625020205
 31
0.0
  0
LINE
  5
5B32
330
1E
100
AcDbEntity
  8
10
  6
CONTINOUS
100
AcDbLine
 10
280.0
 20
95.99952464541166
 30
0.0
 11
294.9999257258451
 21
95.99952464541166
 31
0.0
  0
LINE
  5
5B33
330
1E
100
AcDbEntity
  8
18
100
AcDbLine
 10
294.9999257258451
 20
105.9994751293084
 30
0.0
 11
294.9999257258451
 21
95.99952464541166
 31
0.0
  0
LINE
  5
5B34
330
1E
100
AcDbEntity
  8
18
100
AcDbLine
 10
294.9999257258451
 20
105.9994751293084
 30
0.0
 11
298.9999059194044
 21
100.9994998873601
 31
0.0
  0
LINE
  5
5B35
330
1E
100
AcDbEntity
  8
0
  6
Continuous
100
AcDbLine
 10
366.4995716857089
 20
74.12463296188659
 30
0.0
 11
366.4995716857089
 21
59.87470352233339
 31
0.0
  0
LINE
  5
5B36
330
1E
100
AcDbEntity
  8
0
  6
Continuous
100
AcDbLine
 10
371.9995444518525
 20
69.49965586308424
 30
0.0
 11
371.9995444518525
 21
64.49968062113575
 31
0.0
  0
LINE
  5
5B37
330
1E
100
AcDbEntity
  8
0
  6
Continuous
100
AcDbLine
 10
416.4993241051941
 20
69.49965586308424
 30
0.0
 11
451.9991483230286
 21
69.49965586308424
 31
0.0
  0
LINE
  5
5B38
330
1E
100
AcDbEntity
  8
0
  6
Continuous
100
AcDbLine
 10
416.4993241051941
 20
64.49968062113575
 30
0.0
 11
451.9991483230286
 21
64.49968062113575
 31
0.0
  0
LINE
  5
5B39
330
1E
100
AcDbEntity
  8
0
  6
Continuous
100
AcDbLine
 10
386.9994701776981
 20
73.24963729454561
 30
0.0
 11
386.9994701776981
 21
60.74969918967435
 31
0.0
  0
LINE
  5
5B3A
330
1E
100
AcDbEntity
  8
0
  6
Continuous
100
AcDbLine
 10
401.9993959035431
 20
69.49965586308424
 30
0.0
 11
401.9993959035431
 21
64.49968062113575
 31
0.0
  0
LINE
  5
5B3B
330
1E
100
AcDbEntity
  8
0
  6
Continuous
100
AcDbLine
 10
416.4993241051941
 20
74.12463296188659
 30
0.0
 11
416.4993241051941
 21
59.87470352233344
 31
0.0
  0
LINE
  5
5B3C
330
1E
100
AcDbEntity
  8
0
  6
Continuous
100
AcDbLine
 10
421.9992968713374
 20
69.49965586308424
 30
0.0
 11
421.9992968713374
 21
64.49968062113575
 31
0.0
  0
DIMENSION
  5
5B3D
330
1E
100
AcDbEntity
  8
30
  6
Continuous
100
AcDbDimension
280
     0
  2
*D52
 10
473.7524182144205
 20
69.49965586308424
 30
0.0
 11
476.0857515477538
 21
73.49965586308432
 31
0.0
 70
   160
 71
     5
 42
4.999975241948489
 73
     0
 74
     0
 75
     0
  3
STANDARD
100
AcDbAlignedDimension
 13
451.9991483230286
 23
64.49968062113575
 33
0.0
 14
451.9991483230286
 24
69.49965586308424
 34
0.0
 50
270.0
100
AcDbRotatedDimension
1001
ACAD
1000
DSTYLE
1002
{
1070
   340
1005
11
1002
}
  0
LINE
  5
5B3E
330
1E
100
AcDbEntity
  8
0
  6
Continuous
100
AcDbLine
 10
436.9992225971832
 20
73.24963729454561
 30
0.0
 11
436.9992225971832
 21
60.74969918967435
 31
0.0
  0
LINE
  5
5B3F
330
1E
100
AcDbEntity
  8
0
  6
Continuous
100
AcDbLine
 10
451.9991483230286
 20
69.49965586308424
 30
0.0
 11
451.9991483230286
 21
64.49968062113575
 31
0.0
  0
TEXT
  5
5B40
330
1E
100
AcDbEntity
  8
30
  6
Continuous
100
AcDbText
 10
344.3687489326077
 20
-121.3902071445067
 30
0.0
 40
5.0
  1
%%c8.5
 41
0.8542968749999968
  7
UGMTXT
100
AcDbText
  0
DIMENSION
  5
5B41
330
1E
100
AcDbEntity
  8
30
  6
Continuous
100
AcDbDimension
280
     0
  2
*D53
 10
487.7367141808032
 20
-66.99966824211005
 30
0.0
 11
484.7367141808032
 21
0.0000000000000345
 31
0.0
 70
    32
 71
     5
 42
133.9993364842199
 73
     0
 74
     0
 75
     0
  3
STANDARD
100
AcDbAlignedDimension
 13
461.9990988069256
 23
66.99966824210996
 33
0.0
 14
476.0857515477538
 24
-66.99966824211003
 34
0.0
 50
90.0
100
AcDbRotatedDimension
1001
ACAD
1000
DSTYLE
1002
{
1070
    79
1070
     3
1002
}
  0
LINE
  5
5B42
330
1E
100
AcDbEntity
  8
1
  6
Continuous
 62
     3
100
AcDbLine
 10
354.1999257258449
 20
-50.00038374979793
 30
0.0
 11
352.599925725845
 21
-50.00038374979793
 31
0.0
  0
LINE
  5
5B43
330
1E
100
AcDbEntity
  8
1
  6
Continuous
 62
     3
100
AcDbLine
 10
306.7999257258449
 20
-50.00038374979793
 30
0.0
 11
306.7999257258449
 21
-75.00038374979793
 31
0.0
  0
LINE
  5
5B44
330
1E
100
AcDbEntity
  8
1
  6
Continuous
 62
     3
100
AcDbLine
 10
352.599925725845
 20
-50.00038374979793
 30
0.0
 11
352.599925725845
 21
-76.50038374979795
 31
0.0
  0
LINE
  5
5B45
330
1E
100
AcDbEntity
  8
1
  6
Continuous
 62
     3
100
AcDbLine
 10
357.2999257258447
 20
-32.60038374979791
 30
0.0
 11
357.2999257258447
 21
-41.40038374979795
 31
0.0
  0
LINE
  5
5B46
330
1E
100
AcDbEntity
  8
1
  6
Continuous
 62
     3
100
AcDbLine
 10
359.7499257258446
 20
38.59961625020205
 30
0.0
 11
357.4999257258451
 21
38.59961625020205
 31
0.0
  0
LINE
  5
5B47
330
1E
100
AcDbEntity
  8
1
  6
Continuous
 62
     3
100
AcDbLine
 10
303.3999257258447
 20
17.99961625020209
 30
0.0
 11
303.3999257258447
 21
-18.00038374979792
 31
0.0
  0
LINE
  5
5B48
330
1E
100
AcDbEntity
  8
1
  6
Continuous
 62
     3
100
AcDbLine
 10
357.0999257258448
 20
-32.60038374979791
 30
0.0
 11
356.1999257258447
 21
-32.60038374979791
 31
0.0
  0
LINE
  5
5B49
330
1E
100
AcDbEntity
  8
1
  6
Continuous
 62
     3
100
AcDbLine
 10
349.9999257258451
 20
-76.50038374979795
 30
0.0
 11
352.599925725845
 21
-76.50038374979795
 31
0.0
  0
LINE
  5
5B4A
330
1E
100
AcDbEntity
  8
1
  6
Continuous
 62
     3
100
AcDbLine
 10
306.7999257258449
 20
74.99961625020205
 30
0.0
 11
294.9999257258451
 21
74.99961625020205
 31
0.0
  0
LINE
  5
5B4B
330
1E
100
AcDbEntity
  8
1
  6
Continuous
 62
     3
100
AcDbLine
 10
306.7999257258449
 20
49.99961625020205
 30
0.0
 11
352.599925725845
 21
49.99961625020205
 31
0.0
  0
LINE
  5
5B4C
330
1E
100
AcDbEntity
  8
1
  6
Continuous
 62
     3
100
AcDbLine
 10
340.3999257258448
 20
-18.00038374979792
 30
0.0
 11
340.3999257258448
 21
17.99961625020209
 31
0.0
  0
LINE
  5
5B4D
330
1E
100
AcDbEntity
  8
1
  6
Continuous
 62
     3
100
AcDbLine
 10
355.199925725845
 20
54.49961625020208
 30
0.0
 11
352.599925725845
 21
54.49961625020208
 31
0.0
  0
LINE
  5
5B4E
330
1E
100
AcDbEntity
  8
1
  6
Continuous
 62
     3
100
AcDbLine
 10
356.3999257258448
 20
43.64143875020203
 30
0.0
 11
357.4999257258451
 21
43.54520125020207
 31
0.0
  0
LINE
  5
5B4F
330
1E
100
AcDbEntity
  8
1
  6
Continuous
 62
     3
100
AcDbLine
 10
360.7499257258449
 20
46.39961625020204
 30
0.0
 11
360.7499257258449
 21
39.59961625020206
 31
0.0
  0
LINE
  5
5B50
330
1E
100
AcDbEntity
  8
1
  6
Continuous
 62
     3
100
AcDbLine
 10
356.3999257258448
 20
38.64961625020207
 30
0.0
 11
356.3999257258448
 21
47.34961625020203
 31
0.0
  0
LINE
  5
5B51
330
1E
100
AcDbEntity
  8
1
  6
Continuous
 62
     3
100
AcDbLine
 10
355.9999257258447
 20
38.24961625020208
 30
0.0
 11
355.2999257258449
 21
38.24961625020208
 31
0.0
  0
LINE
  5
5B52
330
1E
100
AcDbEntity
  8
1
  6
Continuous
 62
     3
100
AcDbLine
 10
357.4999257258451
 20
47.19961625020203
 30
0.0
 11
357.4999257258451
 21
38.79961625020208
 31
0.0
  0
LINE
  5
5B53
330
1E
100
AcDbEntity
  8
1
  6
Continuous
 62
     3
100
AcDbLine
 10
355.7999257258448
 20
-32.25038374979795
 30
0.0
 11
355.099925725845
 21
-32.25038374979795
 31
0.0
  0
LINE
  5
5B54
330
1E
100
AcDbEntity
  8
1
  6
Continuous
 62
     3
100
AcDbLine
 10
357.4999257258451
 20
42.74405625020206
 30
0.0
 11
356.3999257258448
 21
42.84029375020202
 31
0.0
  0
LINE
  5
5B55
330
1E
100
AcDbEntity
  8
1
  6
Continuous
 62
     3
100
AcDbLine
 10
338.3999257258448
 20
19.99961625020205
 30
0.0
 11
305.3999257258448
 21
19.99961625020205
 31
0.0
  0
LINE
  5
5B56
330
1E
100
AcDbEntity
  8
1
  6
Continuous
 62
     3
100
AcDbLine
 10
355.199925725845
 20
-45.50038374979793
 30
0.0
 11
355.199925725845
 21
54.49961625020208
 31
0.0
  0
LINE
  5
5B57
330
1E
100
AcDbEntity
  8
1
  6
Continuous
 62
     3
100
AcDbLine
 10
357.2999257258447
 20
47.39961625020207
 30
0.0
 11
356.3999257258448
 21
47.39961625020207
 31
0.0
  0
LINE
  5
5B58
330
1E
100
AcDbEntity
  8
1
  6
Continuous
 62
     3
100
AcDbLine
 10
357.2999257258447
 20
38.59961625020205
 30
0.0
 11
356.3999257258448
 21
38.59961625020205
 31
0.0
  0
LINE
  5
5B59
330
1E
100
AcDbEntity
  8
1
  6
Continuous
 62
     3
100
AcDbLine
 10
355.9999257258447
 20
47.74961625020203
 30
0.0
 11
355.2999257258449
 21
47.74961625020203
 31
0.0
  0
LINE
  5
5B5A
330
1E
100
AcDbEntity
  8
1
  6
Continuous
 62
     3
100
AcDbLine
 10
359.5499257258448
 20
-41.40038374979795
 30
0.0
 11
357.2999257258447
 21
-41.40038374979795
 31
0.0
  0
LINE
  5
5B5B
330
1E
100
AcDbEntity
  8
1
  6
Continuous
 62
     3
100
AcDbLine
 10
306.7999257258449
 20
74.99961625020205
 30
0.0
 11
306.7999257258449
 21
49.99961625020205
 31
0.0
  0
LINE
  5
5B5C
330
1E
100
AcDbEntity
  8
1
  6
Continuous
 62
     3
100
AcDbLine
 10
305.3999257258448
 20
-20.00038374979795
 30
0.0
 11
338.3999257258448
 21
-20.00038374979795
 31
0.0
  0
LINE
  5
5B5D
330
1E
100
AcDbEntity
  8
1
  6
Continuous
 62
     3
100
AcDbLine
 10
354.1999257258449
 20
49.99961625020205
 30
0.0
 11
354.1999257258449
 21
-50.00038374979793
 31
0.0
  0
LINE
  5
5B5E
330
1E
100
AcDbEntity
  8
1
  6
Continuous
 62
     3
100
AcDbLine
 10
352.599925725845
 20
76.49961625020205
 30
0.0
 11
352.599925725845
 21
49.99961625020205
 31
0.0
  0
LINE
  5
5B5F
330
1E
100
AcDbEntity
  8
1
  6
Continuous
 62
     3
100
AcDbLine
 10
359.5499257258448
 20
-32.60038374979791
 30
0.0
 11
357.2999257258447
 21
-32.60038374979791
 31
0.0
  0
LINE
  5
5B60
330
1E
100
AcDbEntity
  8
1
  6
Continuous
 62
     3
100
AcDbLine
 10
360.5499257258448
 20
-33.60038374979794
 30
0.0
 11
360.5499257258448
 21
-40.40038374979793
 31
0.0
  0
LINE
  5
5B61
330
1E
100
AcDbEntity
  8
1
  6
Continuous
 62
     3
100
AcDbLine
 10
356.1999257258447
 20
-36.35856124979793
 30
0.0
 11
357.2999257258447
 21
-36.45479874979793
 31
0.0
  0
LINE
  5
5B62
330
1E
100
AcDbEntity
  8
1
  6
Continuous
 62
     3
100
AcDbLine
 10
294.9999257258451
 20
-75.00038374979793
 30
0.0
 11
306.7999257258449
 21
-75.00038374979793
 31
0.0
  0
LINE
  5
5B63
330
1E
100
AcDbEntity
  8
1
  6
Continuous
 62
     3
100
AcDbLine
 10
349.9999257258451
 20
76.49961625020205
 30
0.0
 11
352.599925725845
 21
76.49961625020205
 31
0.0
  0
LINE
  5
5B64
330
1E
100
AcDbEntity
  8
1
  6
Continuous
 62
     3
100
AcDbLine
 10
357.4999257258451
 20
47.39961625020207
 30
0.0
 11
357.4999257258451
 21
38.59961625020205
 31
0.0
  0
LINE
  5
5B65
330
1E
100
AcDbEntity
  8
1
  6
Continuous
 62
     3
100
AcDbLine
 10
359.7499257258446
 20
47.39961625020207
 30
0.0
 11
357.4999257258451
 21
47.39961625020207
 31
0.0
  0
LINE
  5
5B66
330
1E
100
AcDbEntity
  8
1
  6
Continuous
 62
     3
100
AcDbLine
 10
357.0999257258448
 20
-41.40038374979795
 30
0.0
 11
356.1999257258447
 21
-41.40038374979795
 31
0.0
  0
LINE
  5
5B67
330
1E
100
AcDbEntity
  8
1
  6
Continuous
 62
     3
100
AcDbLine
 10
352.599925725845
 20
-50.00038374979793
 30
0.0
 11
306.7999257258449
 21
-50.00038374979793
 31
0.0
  0
LINE
  5
5B68
330
1E
100
AcDbEntity
  8
1
  6
Continuous
 62
     3
100
AcDbLine
 10
352.599925725845
 20
49.99961625020205
 30
0.0
 11
354.1999257258449
 21
49.99961625020205
 31
0.0
  0
LINE
  5
5B69
330
1E
100
AcDbEntity
  8
1
  6
Continuous
 62
     3
100
AcDbLine
 10
355.199925725845
 20
-45.50038374979793
 30
0.0
 11
354.1999257258449
 21
-45.50038374979793
 31
0.0
  0
LINE
  5
5B6A
330
1E
100
AcDbEntity
  8
1
  6
Continuous
 62
     3
100
AcDbLine
 10
357.2999257258447
 20
-37.25594374979792
 30
0.0
 11
356.1999257258447
 21
-37.15970624979796
 31
0.0
  0
LINE
  5
5B6B
330
1E
100
AcDbEntity
  8
1
  6
Continuous
 62
     3
100
AcDbLine
 10
355.7999257258448
 20
-41.75038374979793
 30
0.0
 11
355.099925725845
 21
-41.75038374979793
 31
0.0
  0
LINE
  5
5B6C
330
1E
100
AcDbEntity
  8
1
  6
Continuous
 62
     3
100
AcDbLine
 10
357.2999257258447
 20
-32.80038374979793
 30
0.0
 11
357.2999257258447
 21
-41.20038374979793
 31
0.0
  0
LINE
  5
5B6D
330
1E
100
AcDbEntity
  8
1
  6
Continuous
 62
     3
100
AcDbLine
 10
356.1999257258447
 20
-41.3503837497979
 30
0.0
 11
356.1999257258447
 21
-32.65038374979795
 31
0.0
  0
ARC
  5
5B6E
330
1E
100
AcDbEntity
  8
1
  6
Continuous
 62
     3
100
AcDbCircle
 10
359.5499257258448
 20
-33.60038374979794
 30
0.0
 40
1.0
100
AcDbArc
 50
0.0
 51
90.0
  0
ARC
  5
5B6F
330
1E
100
AcDbEntity
  8
1
  6
Continuous
 62
     3
100
AcDbCircle
 10
357.2999257258447
 20
47.19961625020203
 30
0.0
 40
0.2
100
AcDbArc
 50
0.0
 51
90.0
  0
ARC
  5
5B70
330
1E
100
AcDbEntity
  8
1
  6
Continuous
 62
     3
100
AcDbCircle
 10
305.3999257258448
 20
-18.00038374979792
 30
0.0
 40
2.0
100
AcDbArc
 50
180.0
 51
270.0
  0
ARC
  5
5B71
330
1E
100
AcDbEntity
  8
1
  6
Continuous
 62
     3
100
AcDbCircle
 10
357.2999257258447
 20
38.79961625020208
 30
0.0
 40
0.2
100
AcDbArc
 50
270.0
 51
0.0
  0
ARC
  5
5B72
330
1E
100
AcDbEntity
  8
1
  6
Continuous
 62
     3
100
AcDbCircle
 10
357.0999257258448
 20
-32.80038374979793
 30
0.0
 40
0.2
100
AcDbArc
 50
0.0
 51
90.0
  0
ARC
  5
5B73
330
1E
100
AcDbEntity
  8
1
  6
Continuous
 62
     3
100
AcDbCircle
 10
305.3999257258448
 20
17.99961625020209
 30
0.0
 40
2.0
100
AcDbArc
 50
90.0
 51
180.0
  0
ARC
  5
5B74
330
1E
100
AcDbEntity
  8
1
  6
Continuous
 62
     3
100
AcDbCircle
 10
355.9999257258447
 20
47.34961625020203
 30
0.0
 40
0.4
100
AcDbArc
 50
0.0
 51
90.0
  0
ARC
  5
5B75
330
1E
100
AcDbEntity
  8
1
  6
Continuous
 62
     3
100
AcDbCircle
 10
338.3999257258448
 20
-18.00038374979792
 30
0.0
 40
2.0
100
AcDbArc
 50
270.0
 51
0.0
  0
ARC
  5
5B76
330
1E
100
AcDbEntity
  8
1
  6
Continuous
 62
     3
100
AcDbCircle
 10
355.9999257258447
 20
38.64961625020207
 30
0.0
 40
0.4
100
AcDbArc
 50
270.0
 51
0.0
  0
ARC
  5
5B77
330
1E
100
AcDbEntity
  8
1
  6
Continuous
 62
     3
100
AcDbCircle
 10
359.7499257258446
 20
46.39961625020204
 30
0.0
 40
1.0
100
AcDbArc
 50
0.0
 51
90.0
  0
ARC
  5
5B78
330
1E
100
AcDbEntity
  8
1
  6
Continuous
 62
     3
100
AcDbCircle
 10
357.0999257258448
 20
-41.20038374979793
 30
0.0
 40
0.2
100
AcDbArc
 50
270.0
 51
0.0
  0
ARC
  5
5B79
330
1E
100
AcDbEntity
  8
1
  6
Continuous
 62
     3
100
AcDbCircle
 10
359.5499257258448
 20
-40.40038374979793
 30
0.0
 40
1.0
100
AcDbArc
 50
270.0
 51
0.0
  0
ARC
  5
5B7A
330
1E
100
AcDbEntity
  8
1
  6
Continuous
 62
     3
100
AcDbCircle
 10
359.7499257258446
 20
39.59961625020206
 30
0.0
 40
1.0
100
AcDbArc
 50
270.0
 51
0.0
  0
ARC
  5
5B7B
330
1E
100
AcDbEntity
  8
1
  6
Continuous
 62
     3
100
AcDbCircle
 10
355.7999257258448
 20
-41.3503837497979
 30
0.0
 40
0.4
100
AcDbArc
 50
270.0
 51
0.0
  0
ARC
  5
5B7C
330
1E
100
AcDbEntity
  8
1
  6
Continuous
 62
     3
100
AcDbCircle
 10
338.3999257258448
 20
17.99961625020209
 30
0.0
 40
2.0
100
AcDbArc
 50
0.0
 51
90.0
  0
ARC
  5
5B7D
330
1E
100
AcDbEntity
  8
1
  6
Continuous
 62
     3
100
AcDbCircle
 10
355.7999257258448
 20
-32.65038374979795
 30
0.0
 40
0.4
100
AcDbArc
 50
0.0
 51
90.0
  0
LINE
  5
5B7E
330
1E
100
AcDbEntity
  8
10
  6
CONTINOUS
100
AcDbLine
 10
349.9996533872792
 20
-77.49961625020187
 30
0.0
 11
349.9996533872792
 21
-50.00038374979793
 31
0.0
  0
LINE
  5
5B7F
330
1E
100
AcDbEntity
  8
10
  6
CONTINOUS
100
AcDbLine
 10
349.9996533872792
 20
77.49961625020205
 30
0.0
 11
349.9996533872792
 21
49.99961625020205
 31
0.0
  0
LINE
  5
5D06
330
1E
100
AcDbEntity
  8
18
100
AcDbLine
 10
-80.38374009536182
 20
162.5113751724502
 30
0.0
 11
-85.44374009536189
 21
162.5113751724502
 31
0.0
  0
LINE
  5
5D07
330
1E
100
AcDbEntity
  8
18
100
AcDbLine
 10
83.56025990463869
 20
162.5113751724503
 30
0.0
 11
78.50025990463855
 21
162.5113751724503
 31
0.0
  0
LINE
  5
5D08
330
1E
100
AcDbEntity
  8
18
100
AcDbLine
 10
83.56025990463869
 20
162.5113751724503
 30
0.0
 11
78.50025990463855
 21
166.55937517245
 31
0.0
  0
LINE
  5
5D09
330
1E
100
AcDbEntity
  8
18
100
AcDbLine
 10
78.50025990463897
 20
166.55937517245
 30
0.0
 11
-90.50374009536184
 21
166.55937517245
 31
0.0
  0
LINE
  5
5D0A
330
1E
100
AcDbEntity
  8
18
100
AcDbLine
 10
-85.44374009536189
 20
162.5113751724502
 30
0.0
 11
-90.50374009536184
 21
166.55937517245
 31
0.0
  0
LINE
  5
5D0B
330
1E
100
AcDbEntity
  8
10
  6
CONTINOUS
100
AcDbLine
 10
42.00025990463854
 20
145.3313751724502
 30
0.0
 11
42.00025990463854
 21
147.3313751724503
 31
0.0
  0
LINE
  5
5D0C
330
1E
100
AcDbEntity
  8
10
  6
CONTINOUS
100
AcDbLine
 10
-10.99974009536144
 20
141.3313751724503
 30
0.0
 11
-10.99974009536144
 21
145.3313751724502
 31
0.0
  0
LINE
  5
5D0D
330
1E
100
AcDbEntity
  8
1
  6
Continuous
 62
     3
100
AcDbLine
 10
-22.87474009536144
 20
219.9313751724504
 30
0.0
 11
-7.124740095361445
 21
219.9313751724504
 31
0.0
  0
LINE
  5
5D0E
330
1E
100
AcDbEntity
  8
1
  6
Continuous
 62
     3
100
AcDbLine
 10
-60.09974009536136
 20
221.5313751724504
 30
0.0
 11
-60.09974009536136
 21
162.3313751724503
 31
0.0
  0
LINE
  5
5D0F
330
1E
100
AcDbEntity
  8
1
  6
Continuous
 62
     3
100
AcDbLine
 10
37.50025990463856
 20
222.5313751724503
 30
0.0
 11
37.50025990463856
 21
219.9313751724504
 31
0.0
  0
LINE
  5
5D10
330
1E
100
AcDbEntity
  8
1
  6
Continuous
 62
     3
100
AcDbLine
 10
-55.99974009536143
 20
219.9313751724504
 30
0.0
 11
-55.99974009536143
 21
217.3313751724503
 31
0.0
  0
LINE
  5
5D11
330
1E
100
AcDbEntity
  8
10
  6
CONTINOUS
100
AcDbLine
 10
7.000259904638554
 20
141.3313751724503
 30
0.0
 11
7.000259904638554
 21
129.3361226724502
 31
0.0
  0
LINE
  5
5D12
330
1E
100
AcDbEntity
  8
10
  6
CONTINOUS
100
AcDbLine
 10
-44.99974009536145
 20
162.3313751724503
 30
0.0
 11
-44.99974009536145
 21
217.3313751724503
 31
0.0
  0
LINE
  5
5D13
330
1E
100
AcDbEntity
  8
21
  6
Continuous
100
AcDbLine
 10
-27.49974009536144
 20
269.3313751724503
 30
0.0
 11
-32.49974009536146
 21
269.3313751724503
 31
0.0
  0
LINE
  5
5D14
330
1E
100
AcDbEntity
  8
1
  6
Continuous
 62
     3
100
AcDbLine
 10
53.40025990463865
 20
226.9813751724503
 30
0.0
 11
46.60025990463892
 21
226.9813751724503
 31
0.0
  0
LINE
  5
5D15
330
1E
100
AcDbEntity
  8
1
  6
Continuous
 62
     3
100
AcDbLine
 10
-52.12406509536167
 20
215.7313751724503
 30
0.0
 11
-52.41274009536099
 21
216.2313751724503
 31
0.0
  0
LINE
  5
5D16
330
1E
100
AcDbEntity
  8
10
  6
CONTINOUS
100
AcDbLine
 10
-78.49974009536143
 20
147.3313751724503
 30
0.0
 11
-78.49974009536143
 21
162.3313751724503
 31
0.0
  0
LINE
  5
5D17
330
1E
100
AcDbEntity
  8
1
  6
Continuous
 62
     3
100
AcDbLine
 10
-60.09974009536136
 20
221.5313751724504
 30
0.0
 11
-43.49974009536142
 21
221.5313751724504
 31
0.0
  0
LINE
  5
5D18
330
1E
100
AcDbEntity
  8
1
  6
Continuous
 62
     3
100
AcDbLine
 10
12.50025990463855
 20
222.5313751724503
 30
0.0
 11
22.87525990463857
 21
222.5313751724503
 31
0.0
  0
LINE
  5
5D19
330
1E
100
AcDbEntity
  8
21
  6
Continuous
100
AcDbLine
 10
22.87525990463857
 20
217.3313751724503
 30
0.0
 11
22.87525990463857
 21
233.8313751724503
 31
0.0
  0
LINE
  5
5D1A
330
1E
100
AcDbEntity
  8
1
  6
Continuous
 62
     3
100
AcDbLine
 10
49.74469990463848
 20
223.7313751724503
 30
0.0
 11
49.8409374046384
 21
222.6313751724503
 31
0.0
  0
LINE
  5
5D1B
330
1E
100
AcDbEntity
  8
10
  6
CONTINOUS
100
AcDbLine
 10
7.000259904638554
 20
129.3361226724502
 30
0.0
 11
-6.999740095361445
 21
129.3361226724502
 31
0.0
  0
LINE
  5
5D1C
330
1E
100
AcDbEntity
  8
1
  6
Continuous
 62
     3
100
AcDbLine
 10
-45.79974009536161
 20
223.7313751724503
 30
0.0
 11
-54.19974009536126
 21
223.7313751724503
 31
0.0
  0
LINE
  5
5D1D
330
1E
100
AcDbEntity
  8
1
  6
Continuous
 62
     3
100
AcDbLine
 10
58.50025990463857
 20
219.9313751724504
 30
0.0
 11
58.50025990463857
 21
162.3313751724503
 31
0.0
  0
LINE
  5
5D1E
330
1E
100
AcDbEntity
  8
1
  6
Continuous
 62
     3
100
AcDbLine
 10
-37.49974009536146
 20
222.5313751724503
 30
0.0
 11
-37.49974009536146
 21
219.9313751724504
 31
0.0
  0
LINE
  5
5D1F
330
1E
100
AcDbEntity
  8
1
  6
Continuous
 62
     3
100
AcDbLine
 10
43.50025990463854
 20
221.5313751724504
 30
0.0
 11
60.10025990463844
 21
221.5313751724504
 31
0.0
  0
LINE
  5
5D20
330
1E
100
AcDbEntity
  8
1
  6
Continuous
 62
     3
100
AcDbLine
 10
-58.49974009536143
 20
219.9313751724504
 30
0.0
 11
-37.12474009536145
 21
219.9313751724504
 31
0.0
  0
LINE
  5
5D21
330
1E
100
AcDbEntity
  8
1
  6
Continuous
 62
     3
100
AcDbLine
 10
7.125259904638554
 20
219.9313751724504
 30
0.0
 11
22.87525990463857
 21
219.9313751724504
 31
0.0
  0
LINE
  5
5D22
330
1E
100
AcDbEntity
  8
1
  6
Continuous
 62
     3
100
AcDbLine
 10
-45.59974009536182
 20
225.9813751724504
 30
0.0
 11
-45.59974009536182
 21
223.7313751724503
 31
0.0
  0
LINE
  5
5D23
330
1E
100
AcDbEntity
  8
1
  6
Continuous
 62
     3
100
AcDbLine
 10
-45.59974009536182
 20
223.7313751724503
 30
0.0
 11
-54.39974009536153
 21
223.7313751724503
 31
0.0
  0
LINE
  5
5D24
330
1E
100
AcDbEntity
  8
1
  6
Continuous
 62
     3
100
AcDbLine
 10
54.4002599046382
 20
223.7313751724503
 30
0.0
 11
45.60025990463843
 21
223.7313751724503
 31
0.0
  0
LINE
  5
5D25
330
1E
100
AcDbEntity
  8
1
  6
Continuous
 62
     3
100
AcDbLine
 10
54.4002599046382
 20
223.5313751724504
 30
0.0
 11
54.4002599046382
 21
222.6313751724503
 31
0.0
  0
LINE
  5
5D26
330
1E
100
AcDbEntity
  8
1
  6
Continuous
 62
     3
100
AcDbLine
 10
52.12458490463831
 20
215.7313751724503
 30
0.0
 11
47.87593490463833
 21
215.7313751724503
 31
0.0
  0
LINE
  5
5D27
330
1E
100
AcDbEntity
  8
10
  6
CONTINOUS
100
AcDbLine
 10
78.50025990463857
 20
147.3313751724503
 30
0.0
 11
-78.49974009536143
 21
147.3313751724503
 31
0.0
  0
LINE
  5
5D28
330
1E
100
AcDbEntity
  8
21
  6
Continuous
100
AcDbLine
 10
2.500259904638554
 20
319.3313751724503
 30
0.0
 11
-2.499740095361445
 21
319.3313751724503
 31
0.0
  0
LINE
  5
5D29
330
1E
100
AcDbEntity
  8
21
  6
Continuous
100
AcDbLine
 10
-37.12474009536145
 20
217.3313751724503
 30
0.0
 11
-37.12474009536145
 21
233.8313751724503
 31
0.0
  0
LINE
  5
5D2A
330
1E
100
AcDbEntity
  8
21
  6
Continuous
100
AcDbLine
 10
37.12525990463856
 20
233.8313751724503
 30
0.0
 11
22.87525990463857
 21
233.8313751724503
 31
0.0
  0
LINE
  5
5D2B
330
1E
100
AcDbEntity
  8
1
  6
Continuous
 62
     3
100
AcDbLine
 10
-50.2553000953615
 20
223.7313751724503
 30
0.0
 11
-50.15906259536158
 21
222.6313751724503
 31
0.0
  0
LINE
  5
5D2C
330
1E
100
AcDbEntity
  8
1
  6
Continuous
 62
     3
100
AcDbLine
 10
-46.59974009536134
 20
226.9813751724503
 30
0.0
 11
-53.39974009536108
 21
226.9813751724503
 31
0.0
  0
LINE
  5
5D2D
330
1E
100
AcDbEntity
  8
1
  6
Continuous
 62
     3
100
AcDbLine
 10
45.25025990463855
 20
222.2313751724504
 30
0.0
 11
45.25025990463855
 21
221.5313751724504
 31
0.0
  0
LINE
  5
5D2E
330
1E
100
AcDbEntity
  8
1
  6
Continuous
 62
     3
100
AcDbLine
 10
-52.41274009536099
 20
216.2313751724503
 30
0.0
 11
-52.41274009536099
 21
217.3313751724503
 31
0.0
  0
LINE
  5
5D2F
330
1E
100
AcDbEntity
  8
1
  6
Continuous
 62
     3
100
AcDbLine
 10
47.87593490463833
 20
215.7313751724503
 30
0.0
 11
47.587259904639
 21
216.2313751724503
 31
0.0
  0
LINE
  5
5D30
330
1E
100
AcDbEntity
  8
10
  6
CONTINOUS
100
AcDbLine
 10
78.50025990463857
 20
162.3313751724503
 30
0.0
 11
-78.49974009536143
 21
162.3313751724503
 31
0.0
  0
LINE
  5
5D31
330
1E
100
AcDbEntity
  8
21
  6
Continuous
100
AcDbLine
 10
7.125259904638554
 20
283.8313751724503
 30
0.0
 11
-7.124740095361445
 21
283.8313751724503
 31
0.0
  0
LINE
  5
5D32
330
1E
100
AcDbEntity
  8
21
  6
Continuous
100
AcDbLine
 10
-27.49974009536144
 20
239.3313751724501
 30
0.0
 11
-32.49974009536146
 21
239.3313751724501
 31
0.0
  0
LINE
  5
5D33
330
1E
100
AcDbEntity
  8
21
  6
Continuous
100
AcDbLine
 10
27.50025990463857
 20
233.8313751724503
 30
0.0
 11
27.50025990463857
 21
269.3313751724503
 31
0.0
  0
LINE
  5
5D34
330
1E
100
AcDbEntity
  8
21
  6
Continuous
100
AcDbLine
 10
2.500259904638554
 20
289.3313751724504
 30
0.0
 11
-2.499740095361445
 21
289.3313751724504
 31
0.0
  0
LINE
  5
5D35
330
1E
100
AcDbEntity
  8
10
  6
CONTINOUS
100
AcDbLine
 10
11.00025990463855
 20
141.3313751724503
 30
0.0
 11
-10.99974009536144
 21
141.3313751724503
 31
0.0
  0
LINE
  5
5D36
330
1E
100
AcDbEntity
  8
1
  6
Continuous
 62
     3
100
AcDbLine
 10
-37.49974009536146
 20
222.5313751724503
 30
0.0
 11
-37.12474009536145
 21
222.5313751724503
 31
0.0
  0
LINE
  5
5D37
330
1E
100
AcDbEntity
  8
1
  6
Continuous
 62
     3
100
AcDbLine
 10
43.50025990463854
 20
221.5313751724504
 30
0.0
 11
43.50025990463854
 21
219.9313751724504
 31
0.0
  0
LINE
  5
5D38
330
1E
100
AcDbEntity
  8
1
  6
Continuous
 62
     3
100
AcDbLine
 10
-22.87474009536144
 20
222.5313751724503
 30
0.0
 11
-12.49974009536144
 21
222.5313751724503
 31
0.0
  0
LINE
  5
5D39
330
1E
100
AcDbEntity
  8
1
  6
Continuous
 62
     3
100
AcDbLine
 10
-45.24974009536143
 20
222.2313751724504
 30
0.0
 11
-45.24974009536143
 21
221.5313751724504
 31
0.0
  0
LINE
  5
5D3A
330
1E
100
AcDbEntity
  8
1
  6
Continuous
 62
     3
100
AcDbLine
 10
-54.39974009536153
 20
223.5313751724504
 30
0.0
 11
-54.39974009536153
 21
222.6313751724503
 31
0.0
  0
LINE
  5
5D3B
330
1E
100
AcDbEntity
  8
1
  6
Continuous
 62
     3
100
AcDbLine
 10
45.65025990463817
 20
222.6313751724503
 30
0.0
 11
54.35025990463845
 21
222.6313751724503
 31
0.0
  0
LINE
  5
5D3C
330
1E
100
AcDbEntity
  8
1
  6
Continuous
 62
     3
100
AcDbLine
 10
54.4002599046382
 20
225.9813751724504
 30
0.0
 11
54.4002599046382
 21
223.7313751724503
 31
0.0
  0
LINE
  5
5D3D
330
1E
100
AcDbEntity
  8
1
  6
Continuous
 62
     3
100
AcDbLine
 10
47.587259904639
 20
216.2313751724503
 30
0.0
 11
47.587259904639
 21
217.3313751724503
 31
0.0
  0
LINE
  5
5D3E
330
1E
100
AcDbEntity
  8
10
  6
CONTINOUS
100
AcDbLine
 10
78.50025990463857
 20
147.3313751724503
 30
0.0
 11
78.50025990463857
 21
162.3313751724503
 31
0.0
  0
LINE
  5
5D3F
330
1E
100
AcDbEntity
  8
21
  6
Continuous
100
AcDbLine
 10
7.125259904638554
 20
217.3313751724503
 30
0.0
 11
7.125259904638554
 21
283.8313751724503
 31
0.0
  0
LINE
  5
5D40
330
1E
100
AcDbEntity
  8
21
  6
Continuous
100
AcDbLine
 10
-22.87474009536144
 20
217.3313751724503
 30
0.0
 11
-22.87474009536144
 21
233.8313751724503
 31
0.0
  0
LINE
  5
5D41
330
1E
100
AcDbEntity
  8
21
  6
Continuous
100
AcDbLine
 10
32.50025990463857
 20
233.8313751724503
 30
0.0
 11
32.50025990463857
 21
269.3313751724503
 31
0.0
  0
LINE
  5
5D42
330
1E
100
AcDbEntity
  8
21
  6
Continuous
100
AcDbLine
 10
-2.499740095361445
 20
283.8313751724503
 30
0.0
 11
-2.499740095361445
 21
319.3313751724503
 31
0.0
  0
LINE
  5
5D43
330
1E
100
AcDbEntity
  8
10
  6
CONTINOUS
100
AcDbLine
 10
42.00025990463854
 20
145.3313751724502
 30
0.0
 11
-41.99974009536144
 21
145.3313751724502
 31
0.0
  0
LINE
  5
5D44
330
1E
100
AcDbEntity
  8
1
  6
Continuous
 62
     3
100
AcDbLine
 10
-12.49974009536144
 20
222.5313751724503
 30
0.0
 11
-12.49974009536144
 21
219.9313751724504
 31
0.0
  0
LINE
  5
5D45
330
1E
100
AcDbEntity
  8
1
  6
Continuous
 62
     3
100
AcDbLine
 10
60.10025990463844
 20
221.5313751724504
 30
0.0
 11
60.10025990463844
 21
162.3313751724503
 31
0.0
  0
LINE
  5
5D46
330
1E
100
AcDbEntity
  8
1
  6
Continuous
 62
     3
100
AcDbLine
 10
-43.49974009536142
 20
221.5313751724504
 30
0.0
 11
-43.49974009536142
 21
219.9313751724504
 31
0.0
  0
LINE
  5
5D47
330
1E
100
AcDbEntity
  8
1
  6
Continuous
 62
     3
100
AcDbLine
 10
-45.59974009536182
 20
223.5313751724504
 30
0.0
 11
-45.59974009536182
 21
222.6313751724503
 31
0.0
  0
LINE
  5
5D48
330
1E
100
AcDbEntity
  8
1
  6
Continuous
 62
     3
100
AcDbLine
 10
45.60025990463843
 20
225.9813751724504
 30
0.0
 11
45.60025990463843
 21
223.7313751724503
 31
0.0
  0
LINE
  5
5D49
330
1E
100
AcDbEntity
  8
1
  6
Continuous
 62
     3
100
AcDbLine
 10
50.64208490463872
 20
222.6313751724503
 30
0.0
 11
50.54584740463834
 21
223.7313751724503
 31
0.0
  0
LINE
  5
5D4A
330
1E
100
AcDbEntity
  8
1
  6
Continuous
 62
     3
100
AcDbLine
 10
-47.58674009536142
 20
216.2313751724503
 30
0.0
 11
-47.58674009536142
 21
217.3313751724503
 31
0.0
  0
LINE
  5
5D4B
330
1E
100
AcDbEntity
  8
21
  6
Continuous
100
AcDbLine
 10
-22.87474009536144
 20
233.8313751724503
 30
0.0
 11
-37.12474009536145
 21
233.8313751724503
 31
0.0
  0
LINE
  5
5D4C
330
1E
100
AcDbEntity
  8
21
  6
Continuous
100
AcDbLine
 10
37.12525990463856
 20
217.3313751724503
 30
0.0
 11
37.12525990463856
 21
233.8313751724503
 31
0.0
  0
LINE
  5
5D4D
330
1E
100
AcDbEntity
  8
10
  6
CONTINOUS
100
AcDbLine
 10
11.00025990463855
 20
141.3313751724503
 30
0.0
 11
11.00025990463855
 21
145.3313751724502
 31
0.0
  0
LINE
  5
5D4E
330
1E
100
AcDbEntity
  8
10
  6
CONTINOUS
100
AcDbLine
 10
-41.99974009536144
 20
145.3313751724502
 30
0.0
 11
-41.99974009536144
 21
147.3313751724503
 31
0.0
  0
LINE
  5
5D4F
330
1E
100
AcDbEntity
  8
1
  6
Continuous
 62
     3
100
AcDbLine
 10
12.50025990463855
 20
222.5313751724503
 30
0.0
 11
12.50025990463855
 21
219.9313751724504
 31
0.0
  0
LINE
  5
5D50
330
1E
100
AcDbEntity
  8
1
  6
Continuous
 62
     3
100
AcDbLine
 10
56.00025990463857
 20
219.9313751724504
 30
0.0
 11
56.00025990463857
 21
217.3313751724503
 31
0.0
  0
LINE
  5
5D51
330
1E
100
AcDbEntity
  8
1
  6
Continuous
 62
     3
100
AcDbLine
 10
-58.49974009536143
 20
219.9313751724504
 30
0.0
 11
-58.49974009536143
 21
162.3313751724503
 31
0.0
  0
LINE
  5
5D52
330
1E
100
AcDbEntity
  8
1
  6
Continuous
 62
     3
100
AcDbLine
 10
37.12525990463856
 20
219.9313751724504
 30
0.0
 11
56.00025990463857
 21
219.9313751724504
 31
0.0
  0
LINE
  5
5D53
330
1E
100
AcDbEntity
  8
1
  6
Continuous
 62
     3
100
AcDbLine
 10
-54.34974009536182
 20
222.6313751724503
 30
0.0
 11
-45.64974009536153
 21
222.6313751724503
 31
0.0
  0
LINE
  5
5D54
330
1E
100
AcDbEntity
  8
1
  6
Continuous
 62
     3
100
AcDbLine
 10
-54.74974009536143
 20
222.2313751724504
 30
0.0
 11
-54.74974009536143
 21
221.5313751724504
 31
0.0
  0
LINE
  5
5D55
330
1E
100
AcDbEntity
  8
1
  6
Continuous
 62
     3
100
AcDbLine
 10
45.60025990463843
 20
223.5313751724504
 30
0.0
 11
45.60025990463843
 21
222.6313751724503
 31
0.0
  0
LINE
  5
5D56
330
1E
100
AcDbEntity
  8
1
  6
Continuous
 62
     3
100
AcDbLine
 10
-47.58674009536142
 20
216.2313751724503
 30
0.0
 11
-47.87541509536167
 21
215.7313751724503
 31
0.0
  0
LINE
  5
5D57
330
1E
100
AcDbEntity
  8
1
  6
Continuous
 62
     3
100
AcDbLine
 10
52.41325990463858
 20
216.2313751724503
 30
0.0
 11
52.41325990463858
 21
217.3313751724503
 31
0.0
  0
LINE
  5
5D58
330
1E
100
AcDbEntity
  8
21
  6
Continuous
100
AcDbLine
 10
2.500259904638554
 20
319.3313751724503
 30
0.0
 11
-2.499740095361445
 21
319.3313751724503
 31
0.0
  0
LINE
  5
5D59
330
1E
100
AcDbEntity
  8
21
  6
Continuous
100
AcDbLine
 10
-32.49974009536146
 20
233.8313751724503
 30
0.0
 11
-32.49974009536146
 21
269.3313751724503
 31
0.0
  0
LINE
  5
5D5A
330
1E
100
AcDbEntity
  8
21
  6
Continuous
100
AcDbLine
 10
32.50025990463857
 20
269.3313751724503
 30
0.0
 11
27.50025990463857
 21
269.3313751724503
 31
0.0
  0
LINE
  5
5D5B
330
1E
100
AcDbEntity
  8
10
  6
CONTINOUS
100
AcDbLine
 10
45.00025990463853
 20
217.3313751724503
 30
0.0
 11
45.00025990463853
 21
162.3313751724503
 31
0.0
  0
LINE
  5
5D5C
330
1E
100
AcDbEntity
  8
10
  6
CONTINOUS
100
AcDbLine
 10
-6.999740095361445
 20
141.3313751724503
 30
0.0
 11
-6.999740095361445
 21
129.3361226724502
 31
0.0
  0
LINE
  5
5D5D
330
1E
100
AcDbEntity
  8
1
  6
Continuous
 62
     3
100
AcDbLine
 10
56.00025990463857
 20
217.3313751724503
 30
0.0
 11
-55.99974009536143
 21
217.3313751724503
 31
0.0
  0
LINE
  5
5D5E
330
1E
100
AcDbEntity
  8
1
  6
Continuous
 62
     3
100
AcDbLine
 10
58.50025990463857
 20
219.9313751724504
 30
0.0
 11
56.00025990463857
 21
219.9313751724504
 31
0.0
  0
LINE
  5
5D5F
330
1E
100
AcDbEntity
  8
1
  6
Continuous
 62
     3
100
AcDbLine
 10
37.12525990463856
 20
222.5313751724503
 30
0.0
 11
37.50025990463856
 21
222.5313751724503
 31
0.0
  0
LINE
  5
5D60
330
1E
100
AcDbEntity
  8
1
  6
Continuous
 62
     3
100
AcDbLine
 10
-54.39974009536153
 20
225.9813751724504
 30
0.0
 11
-54.39974009536153
 21
223.7313751724503
 31
0.0
  0
LINE
  5
5D61
330
1E
100
AcDbEntity
  8
1
  6
Continuous
 62
     3
100
AcDbLine
 10
-49.35791509536129
 20
222.6313751724503
 30
0.0
 11
-49.45415259536165
 21
223.7313751724503
 31
0.0
  0
LINE
  5
5D62
330
1E
100
AcDbEntity
  8
1
  6
Continuous
 62
     3
100
AcDbLine
 10
54.20025990463836
 20
223.7313751724503
 30
0.0
 11
45.80025990463872
 21
223.7313751724503
 31
0.0
  0
LINE
  5
5D63
330
1E
100
AcDbEntity
  8
1
  6
Continuous
 62
     3
100
AcDbLine
 10
54.75025990463857
 20
222.2313751724504
 30
0.0
 11
54.75025990463857
 21
221.5313751724504
 31
0.0
  0
LINE
  5
5D64
330
1E
100
AcDbEntity
  8
1
  6
Continuous
 62
     3
100
AcDbLine
 10
-47.87541509536167
 20
215.7313751724503
 30
0.0
 11
-52.12406509536167
 21
215.7313751724503
 31
0.0
  0
LINE
  5
5D65
330
1E
100
AcDbEntity
  8
1
  6
Continuous
 62
     3
100
AcDbLine
 10
52.41325990463858
 20
216.2313751724503
 30
0.0
 11
52.12458490463831
 21
215.7313751724503
 31
0.0
  0
LINE
  5
5D66
330
1E
100
AcDbEntity
  8
21
  6
Continuous
100
AcDbLine
 10
-7.124740095361445
 20
217.3313751724503
 30
0.0
 11
-7.124740095361445
 21
283.8313751724503
 31
0.0
  0
LINE
  5
5D67
330
1E
100
AcDbEntity
  8
21
  6
Continuous
100
AcDbLine
 10
-27.49974009536144
 20
233.8313751724503
 30
0.0
 11
-27.49974009536144
 21
269.3313751724503
 31
0.0
  0
LINE
  5
5D68
330
1E
100
AcDbEntity
  8
21
  6
Continuous
100
AcDbLine
 10
32.50025990463857
 20
239.3313751724501
 30
0.0
 11
27.50025990463857
 21
239.3313751724501
 31
0.0
  0
LINE
  5
5D69
330
1E
100
AcDbEntity
  8
21
  6
Continuous
100
AcDbLine
 10
2.500259904638554
 20
283.8313751724503
 30
0.0
 11
2.500259904638554
 21
319.3313751724503
 31
0.0
  0
LINE
  5
5D6A
330
1E
100
AcDbEntity
  8
10
  6
CONTINOUS
100
AcDbLine
 10
45.00025990463853
 20
217.3313751724503
 30
0.0
 11
-44.99974009536145
 21
217.3313751724503
 31
0.0
  0
ARC
  5
5D6B
330
1E
100
AcDbEntity
  8
1
  6
Continuous
 62
     3
100
AcDbCircle
 10
-54.19974009536126
 20
223.5313751724504
 30
0.0
 40
0.2
100
AcDbArc
 50
90.0
 51
180.0
  0
ARC
  5
5D6C
330
1E
100
AcDbEntity
  8
1
  6
Continuous
 62
     3
100
AcDbCircle
 10
53.40025990463865
 20
225.9813751724504
 30
0.0
 40
1.0
100
AcDbArc
 50
0.0
 51
90.0
  0
ARC
  5
5D6D
330
1E
100
AcDbEntity
  8
1
  6
Continuous
 62
     3
100
AcDbCircle
 10
-53.39974009536108
 20
225.9813751724504
 30
0.0
 40
1.0
100
AcDbArc
 50
90.0
 51
180.0
  0
ARC
  5
5D6E
330
1E
100
AcDbEntity
  8
1
  6
Continuous
 62
     3
100
AcDbCircle
 10
-46.59974009536134
 20
225.9813751724504
 30
0.0
 40
1.0
100
AcDbArc
 50
0.0
 51
90.0
  0
ARC
  5
5D6F
330
1E
100
AcDbEntity
  8
1
  6
Continuous
 62
     3
100
AcDbCircle
 10
54.35025990463845
 20
222.2313751724504
 30
0.0
 40
0.4
100
AcDbArc
 50
0.0
 51
90.0
  0
ARC
  5
5D70
330
1E
100
AcDbEntity
  8
1
  6
Continuous
 62
     3
100
AcDbCircle
 10
-45.64974009536153
 20
222.2313751724504
 30
0.0
 40
0.4
100
AcDbArc
 50
0.0
 51
90.0
  0
ARC
  5
5D71
330
1E
100
AcDbEntity
  8
1
  6
Continuous
 62
     3
100
AcDbCircle
 10
45.80025990463872
 20
223.5313751724504
 30
0.0
 40
0.2
100
AcDbArc
 50
90.0
 51
180.0
  0
ARC
  5
5D72
330
1E
100
AcDbEntity
  8
1
  6
Continuous
 62
     3
100
AcDbCircle
 10
46.60025990463892
 20
225.9813751724504
 30
0.0
 40
1.0
100
AcDbArc
 50
90.0
 51
180.0
  0
ARC
  5
5D73
330
1E
100
AcDbEntity
  8
1
  6
Continuous
 62
     3
100
AcDbCircle
 10
-54.34974009536182
 20
222.2313751724504
 30
0.0
 40
0.4
100
AcDbArc
 50
90.0
 51
180.0
  0
ARC
  5
5D74
330
1E
100
AcDbEntity
  8
1
  6
Continuous
 62
     3
100
AcDbCircle
 10
54.20025990463836
 20
223.5313751724504
 30
0.0
 40
0.2
100
AcDbArc
 50
0.0
 51
90.0
  0
ARC
  5
5D75
330
1E
100
AcDbEntity
  8
1
  6
Continuous
 62
     3
100
AcDbCircle
 10
-45.79974009536161
 20
223.5313751724504
 30
0.0
 40
0.2
100
AcDbArc
 50
0.0
 51
90.0
  0
ARC
  5
5D76
330
1E
100
AcDbEntity
  8
1
  6
Continuous
 62
     3
100
AcDbCircle
 10
45.65025990463817
 20
222.2313751724504
 30
0.0
 40
0.4
100
AcDbArc
 50
90.0
 51
180.0
  0
DIMENSION
  5
5D77
330
1E
100
AcDbEntity
  8
21
  6
Continuous
100
AcDbDimension
280
     0
  2
*D58
 10
0.0002599046385573
 20
338.4818676724503
 30
0.0
 11
-14.99974009536144
 21
341.4818676724503
 31
0.0
 70
    32
  1
 <> 
 71
     5
 42
30.0
 73
     0
 74
     0
 75
     0
  3
STANDARD
100
AcDbAlignedDimension
 13
-29.99974009536144
 23
236.3313751724503
 33
0.0
 14
0.0002599046385541
 24
286.3313751724503
 34
0.0
100
AcDbRotatedDimension
1001
ACAD
1000
DSTYLE
1002
{
1070
    79
1070
     3
1002
}
  0
DIMENSION
  5
5D78
330
1E
100
AcDbEntity
  8
21
  6
Continuous
100
AcDbDimension
280
     0
  2
*D59
 10
30.00025990463857
 20
338.4818676724503
 30
0.0
 11
15.00025990463856
 21
341.4818676724503
 31
0.0
 70
    32
  1
 <> 
 71
     5
 42
30.00000000000002
 73
     0
 74
     0
 75
     0
  3
STANDARD
100
AcDbAlignedDimension
 13
0.0002599046385541
 23
326.8313751724503
 33
0.0
 14
30.00025990463857
 24
236.3313751724503
 34
0.0
100
AcDbRotatedDimension
1001
ACAD
1000
DSTYLE
1002
{
1070
    79
1070
     3
1002
}
  0
LINE
  5
5D79
330
1E
100
AcDbEntity
  8
16
100
AcDbLine
 10
0.0002599046382983
 20
123.3138729996611
 30
0.0
 11
0.0002599046382983
 21
373.3138729996611
 31
0.0
  0
VIEWPORT
  5
9AC
330
1A
100
AcDbEntity
 67
     1
  8
0
  6
Continuous
100
AcDbViewport
 10
171.999535
 20
144.1384739999999
 30
0.0
 40
488.867686
 41
292.351491
 68
    -1
 69
     1
 12
171.999535
 22
144.1384739999999
 13
0.0
 23
0.0
 14
10.0
 24
10.0
 15
10.0
 25
10.0
 16
0.0
 26
0.0
 36
1.0
 17
0.0
 27
0.0
 37
0.0
 42
50.0
 43
0.0
 44
0.0
 45
292.351491
 50
0.0
 51
0.0
 72
   100
 90
    32800
  1

281
     0
 71
     1
 74
     0
110
0.0
120
0.0
130
0.0
111
1.0
121
0.0
131
0.0
112
0.0
122
1.0
132
0.0
 79
     0
146
0.0
170
     0
 61
     5
348
59B1
292
     1
282
     1
141
0.0
142
0.0
 63
   250
421
  3355443
  0
ENDSEC
  0
SECTION
  2
OBJECTS
  0
DICTIONARY
  5
C
330
0
100
AcDbDictionary
281
     1
  3
ACAD_CIP_PREVIOUS_PRODUCT_INFO
350
59E1
  3
ACAD_COLOR
350
59C4
  3
ACAD_DETAILVIEWSTYLE
350
59DD
  3
ACAD_GROUP
350
D
  3
ACAD_LAYOUT
350
19
  3
ACAD_MATERIAL
350
5992
  3
ACAD_MLEADERSTYLE
350
59D9
  3
ACAD_MLINESTYLE
350
16
  3
ACAD_PLOTSETTINGS
350
18
  3
ACAD_PLOTSTYLENAME
350
E
  3
ACAD_SCALELIST
350
59C7
  3
ACAD_SECTIONVIEWSTYLE
350
59DB
  3
ACAD_TABLESTYLE
350
59C5
  3
ACAD_VISUALSTYLE
350
59AB
  3
ACDB_RECOMPOSE_DATA
350
5E29
  3
ACDBVARIABLEDICTIONARY
350
5697
  0
DICTIONARY
  5
5DB2
330
10
100
AcDbDictionary
280
     1
281
     1
  3
ADSK_XREC_LAYER_RECONCILED
360
5DB3
  0
DICTIONARY
  5
5DB4
330
2F
100
AcDbDictionary
280
     1
281
     1
  3
ADSK_XREC_LAYER_RECONCILED
360
5DB5
  0
DICTIONARY
  5
5DB6
330
31
100
AcDbDictionary
280
     1
281
     1
  3
ADSK_XREC_LAYER_RECONCILED
360
5DB7
  0
DICTIONARY
  5
5DB8
330
35
100
AcDbDictionary
280
     1
281
     1
  3
ADSK_XREC_LAYER_RECONCILED
360
5DB9
  0
DICTIONARY
  5
5DBA
330
38
100
AcDbDictionary
280
     1
281
     1
  3
ADSK_XREC_LAYER_RECONCILED
360
5DBB
  0
DICTIONARY
  5
5DBC
330
3C
100
AcDbDictionary
280
     1
281
     1
  3
ADSK_XREC_LAYER_RECONCILED
360
5DBD
  0
DICTIONARY
  5
5DBE
330
3D
100
AcDbDictionary
280
     1
281
     1
  3
ADSK_XREC_LAYER_RECONCILED
360
5DBF
  0
DICTIONARY
  5
5DC0
330
3A2
100
AcDbDictionary
280
     1
281
     1
  3
ADSK_XREC_LAYER_RECONCILED
360
5DC1
  0
DICTIONARY
  5
5DC2
330
3BBA
100
AcDbDictionary
280
     1
281
     1
  3
ADSK_XREC_LAYER_RECONCILED
360
5DC3
  0
DICTIONARY
  5
5DC4
330
3BBB
100
AcDbDictionary
280
     1
281
     1
  3
ADSK_XREC_LAYER_RECONCILED
360
5DC5
  0
DICTIONARY
  5
5DC6
330
5116
100
AcDbDictionary
280
     1
281
     1
  3
ADSK_XREC_LAYER_RECONCILED
360
5DC7
  0
DICTIONARY
  5
5DC8
330
5117
100
AcDbDictionary
280
     1
281
     1
  3
ADSK_XREC_LAYER_RECONCILED
360
5DC9
  0
DICTIONARY
  5
178
330
1E
100
AcDbDictionary
280
     1
281
     1
  3
ACAD_LAYOUTSELFREF
360
5954
  0
DICTIONARY
  5
17A
330
1A
100
AcDbDictionary
280
     1
281
     1
  3
ACAD_LAYOUTSELFREF
360
5953
  0
DICTIONARY
  5
5DD8
330
570E
100
AcDbDictionary
280
     1
281
     1
  0
XRECORD
  5
59E1
102
{ACAD_REACTORS
330
C
102
}
330
C
100
AcDbXrecord
280
     1
300
ACDLT
300
2014
300
ACDLT_F_S
  0
DICTIONARY
  5
59C4
102
{ACAD_REACTORS
330
C
102
}
330
C
100
AcDbDictionary
281
     1
  0
DICTIONARY
  5
59DD
102
{ACAD_REACTORS
330
C
102
}
330
C
100
AcDbDictionary
281
     1
  3
Imperial24
350
59DE
  0
DICTIONARY
  5
D
102
{ACAD_REACTORS
330
C
102
}
330
C
100
AcDbDictionary
281
     1
  0
DICTIONARY
  5
19
102
{ACAD_REACTORS
330
C
102
}
330
C
100
AcDbDictionary
281
     1
  3
Model
350
595C
  3
ﾚｲｱｳﾄ1
350
595D
  0
DICTIONARY
  5
5992
102
{ACAD_REACTORS
330
C
102
}
330
C
100
AcDbDictionary
281
     1
  3
ByBlock
350
599B
  3
ByLayer
350
5993
  3
Global
350
59A3
  0
DICTIONARY
  5
59D9
102
{ACAD_REACTORS
330
C
102
}
330
C
100
AcDbDictionary
281
     1
  3
Standard
350
59DA
  0
DICTIONARY
  5
16
102
{ACAD_REACTORS
330
C
102
}
330
C
100
AcDbDictionary
281
     1
  3
STANDARD
350
17
  0
DICTIONARY
  5
18
102
{ACAD_REACTORS
330
C
102
}
330
C
100
AcDbDictionary
281
     1
  0
ACDBDICTIONARYWDFLT
  5
E
102
{ACAD_REACTORS
330
C
102
}
330
C
100
AcDbDictionary
281
     1
  3
Normal
350
F
100
AcDbDictionaryWithDefault
340
F
  0
DICTIONARY
  5
59C7
102
{ACAD_REACTORS
330
C
102
}
330
C
100
AcDbDictionary
281
     1
  3
A0
350
59C8
  3
A1
350
59C9
  3
A2
350
59CA
  3
A3
350
59CB
  3
A4
350
59CC
  3
A5
350
59CD
  3
A6
350
59CE
  3
A7
350
59CF
  3
A8
350
59D0
  3
A9
350
59D1
  3
B0
350
59D2
  3
B1
350
59D3
  3
B2
350
59D4
  3
B3
350
59D5
  3
B4
350
59D6
  3
B5
350
59D7
  3
B6
350
59D8
  0
DICTIONARY
  5
59DB
102
{ACAD_REACTORS
330
C
102
}
330
C
100
AcDbDictionary
281
     1
  3
Imperial24
350
59DC
  0
DICTIONARY
  5
59C5
102
{ACAD_REACTORS
330
C
102
}
330
C
100
AcDbDictionary
281
     1
  3
Standard
350
59C6
  0
DICTIONARY
  5
59AB
102
{ACAD_REACTORS
330
C
102
}
330
C
100
AcDbDictionary
281
     1
  3
2dWireframe
350
59B1
  3
Basic
350
59B0
  3
Brighten
350
59B7
  3
ColorChange
350
59BB
  3
Conceptual
350
59B4
  3
Dim
350
59B6
  3
EdgeColorOff
350
59C3
  3
Facepattern
350
59BA
  3
Flat
350
59AC
  3
FlatWithEdges
350
59AD
  3
Gouraud
350
59AE
  3
GouraudWithEdges
350
59AF
  3
Hidden
350
59B3
  3
JitterOff
350
59C1
  3
Linepattern
350
59B9
  3
OverhangOff
350
59C2
  3
Realistic
350
59B5
  3
Shaded
350
59C0
  3
Shaded with edges
350
59BF
  3
Shades of Gray
350
59BC
  3
Sketchy
350
59BD
  3
Thicken
350
59B8
  3
Wireframe
350
59B2
  3
X-Ray
350
59BE
  0
XRECORD
  5
5E29
102
{ACAD_REACTORS
330
C
102
}
330
C
100
AcDbXrecord
280
     1
 90
        1
330
59C6
330
59DC
330
59DE
  0
DICTIONARY
  5
5697
102
{ACAD_REACTORS
330
C
102
}
330
C
100
AcDbDictionary
281
     1
  3
CANNOSCALE
350
5DCE
  3
CMLEADERSTYLE
350
5DCB
  3
CTABLESTYLE
350
5DCA
  3
CVIEWDETAILSTYLE
350
5DCC
  3
CVIEWSECTIONSTYLE
350
5DCD
  3
DIMASSOC
350
5698
  3
INDEXCTL
350
5DD0
  3
LAYEREVAL
350
5E22
  3
LAYERNOTIFY
350
5E23
  3
LIGHTINGUNITS
350
5E21
  3
MSLTSCALE
350
5E20
  3
SORTENTS
350
5DCF
  0
XRECORD
  5
5DB3
102
{ACAD_REACTORS
330
5DB2
102
}
330
5DB2
100
AcDbXrecord
280
     1
290
     1
  0
XRECORD
  5
5DB5
102
{ACAD_REACTORS
330
5DB4
102
}
330
5DB4
100
AcDbXrecord
280
     1
290
     1
  0
XRECORD
  5
5DB7
102
{ACAD_REACTORS
330
5DB6
102
}
330
5DB6
100
AcDbXrecord
280
     1
290
     1
  0
XRECORD
  5
5DB9
102
{ACAD_REACTORS
330
5DB8
102
}
330
5DB8
100
AcDbXrecord
280
     1
290
     1
  0
XRECORD
  5
5DBB
102
{ACAD_REACTORS
330
5DBA
102
}
330
5DBA
100
AcDbXrecord
280
     1
290
     1
  0
XRECORD
  5
5DBD
102
{ACAD_REACTORS
330
5DBC
102
}
330
5DBC
100
AcDbXrecord
280
     1
290
     1
  0
XRECORD
  5
5DBF
102
{ACAD_REACTORS
330
5DBE
102
}
330
5DBE
100
AcDbXrecord
280
     1
290
     1
  0
XRECORD
  5
5DC1
102
{ACAD_REACTORS
330
5DC0
102
}
330
5DC0
100
AcDbXrecord
280
     1
290
     1
  0
XRECORD
  5
5DC3
102
{ACAD_REACTORS
330
5DC2
102
}
330
5DC2
100
AcDbXrecord
280
     1
290
     1
  0
XRECORD
  5
5DC5
102
{ACAD_REACTORS
330
5DC4
102
}
330
5DC4
100
AcDbXrecord
280
     1
290
     1
  0
XRECORD
  5
5DC7
102
{ACAD_REACTORS
330
5DC6
102
}
330
5DC6
100
AcDbXrecord
280
     1
290
     1
  0
XRECORD
  5
5DC9
102
{ACAD_REACTORS
330
5DC8
102
}
330
5DC8
100
AcDbXrecord
280
     1
290
     1
  0
XRECORD
  5
5954
102
{ACAD_REACTORS
330
178
102
}
330
178
100
AcDbXrecord
280
     1
340
1E
  0
XRECORD
  5
5953
102
{ACAD_REACTORS
330
17A
102
}
330
17A
100
AcDbXrecord
280
     1
340
1A
  0
ACDBDETAILVIEWSTYLE
  5
59DE
102
{ACAD_XDICTIONARY
360
5E27
102
}
102
{ACAD_REACTORS
330
59DD
102
}
330
59DD
100
AcDbModelDocViewStyle
 70
     0
  3
Imperial24
290
     0
100
AcDbDetailViewStyle
 70
     0
 71
     0
 90
        3
 71
     1
340
11
 62
   256
 40
0.24
340
0
 62
   256
 40
0.24
300

 40
0.36
280
     3
 71
     2
340
15
 90
       25
 62
   256
 71
     3
340
11
 62
   256
 40
0.24
 90
        1
 40
0.75
 90
        1
300
%<\AcVar ViewType \f "%tc1">% %<\AcVar ViewDetailId>%\PSCALE %<\AcVar ViewScale \f "%sn">%
 71
     4
340
15
 90
       25
 62
   256
340
15
 90
       25
 62
   256
280
     0
  0
LAYOUT
  5
595C
102
{ACAD_REACTORS
330
19
102
}
330
19
100
AcDbPlotSettings
  1

  2
Canon LBP3800 LIPSLX
  4

  6

 40
0.0
 41
0.0
 42
0.0
 43
0.0
 44
0.0
 45
0.0
 46
0.0
 47
0.0
 48
0.0
 49
0.0
140
0.0
141
0.0
142
1.0
143
1.0
 70
  1712
 72
     0
 73
     0
 74
     0
  7
monochrome.ctb
 75
     0
147
1.0
 76
     0
 77
     2
 78
   300
148
0.0
149
0.0
100
AcDbLayout
  1
Model
 70
     1
 71
     0
 10
0.0
 20
0.0
 11
12.0
 21
9.0
 12
0.0
 22
0.0
 32
0.0
 14
0.0
 24
0.0
 34
0.0
 15
0.0
 25
0.0
 35
0.0
146
0.0
 13
0.0
 23
0.0
 33
0.0
 16
1.0
 26
0.0
 36
0.0
 17
0.0
 27
1.0
 37
0.0
 76
     0
330
1E
331
596A
  0
LAYOUT
  5
595D
102
{ACAD_REACTORS
330
19
102
}
330
19
100
AcDbPlotSettings
  1

  2
Canon LBP3800 LIPSLX
  4

  6

 40
0.0
 41
0.0
 42
0.0
 43
0.0
 44
0.0
 45
0.0
 46
0.0
 47
0.0
 48
0.0
 49
0.0
140
0.0
141
0.0
142
1.0
143
1.0
 70
   688
 72
     0
 73
     0
 74
     5
  7
monochrome.ctb
 75
    16
147
1.0
 76
     0
 77
     2
 78
   300
148
0.0
149
0.0
100
AcDbLayout
  1
ﾚｲｱｳﾄ1
 70
     1
 71
     1
 10
-5.873749
 20
-5.87375
 11
204.099579
 21
291.1369009999999
 12
0.0
 22
0.0
 32
0.0
 14
4.273573
 24
5.205245999999998
 34
0.0
 15
194.610095
 25
283.0697009999996
 35
0.0
146
0.0
 13
0.0
 23
0.0
 33
0.0
 16
1.0
 26
0.0
 36
0.0
 17
0.0
 27
1.0
 37
0.0
 76
     0
330
1A
  0
MATERIAL
  5
599B
102
{ACAD_XDICTIONARY
360
599C
102
}
102
{ACAD_REACTORS
330
5992
102
}
330
5992
100
AcDbMaterial
  1
ByBlock
 72
     0
 43
0.0208333333333333
 43
0.0
 43
0.0
 43
0.0
 43
0.0
 43
0.0208333333333333
 43
0.0
 43
0.0
 43
0.0
 43
0.0
 43
1.0
 43
0.0
 43
0.0
 43
0.0
 43
0.0
 43
1.0
 77
     0
 47
0.0208333333333333
 47
0.0
 47
0.0
 47
0.0
 47
0.0
 47
0.0208333333333333
 47
0.0
 47
0.0
 47
0.0
 47
0.0
 47
1.0
 47
0.0
 47
0.0
 47
0.0
 47
0.0
 47
1.0
171
     0
 49
0.0208333333333333
 49
0.0
 49
0.0
 49
0.0
 49
0.0
 49
0.0208333333333333
 49
0.0
 49
0.0
 49
0.0
 49
0.0
 49
1.0
 49
0.0
 49
0.0
 49
0.0
 49
0.0
 49
1.0
175
     0
142
0.0208333333333333
142
0.0
142
0.0
142
0.0
142
0.0
142
0.0208333333333333
142
0.0
142
0.0
142
0.0
142
0.0
142
1.0
142
0.0
142
0.0
142
0.0
142
0.0
142
1.0
179
     0
144
0.0208333333333333
144
0.0
144
0.0
144
0.0
144
0.0
144
0.0208333333333333
144
0.0
144
0.0
144
0.0
144
0.0
144
1.0
144
0.0
144
0.0
144
0.0
144
0.0
144
1.0
147
0.0208333333333333
147
0.0
147
0.0
147
0.0
147
0.0
147
0.0208333333333333
147
0.0
147
0.0
147
0.0
147
0.0
147
1.0
147
0.0
147
0.0
147
0.0
147
0.0
147
1.0
  0
MATERIAL
  5
5993
102
{ACAD_XDICTIONARY
360
5994
102
}
102
{ACAD_REACTORS
330
5992
102
}
330
5992
100
AcDbMaterial
  1
ByLayer
 72
     0
 43
0.0208333333333333
 43
0.0
 43
0.0
 43
0.0
 43
0.0
 43
0.0208333333333333
 43
0.0
 43
0.0
 43
0.0
 43
0.0
 43
1.0
 43
0.0
 43
0.0
 43
0.0
 43
0.0
 43
1.0
 77
     0
 47
0.0208333333333333
 47
0.0
 47
0.0
 47
0.0
 47
0.0
 47
0.0208333333333333
 47
0.0
 47
0.0
 47
0.0
 47
0.0
 47
1.0
 47
0.0
 47
0.0
 47
0.0
 47
0.0
 47
1.0
171
     0
 49
0.0208333333333333
 49
0.0
 49
0.0
 49
0.0
 49
0.0
 49
0.0208333333333333
 49
0.0
 49
0.0
 49
0.0
 49
0.0
 49
1.0
 49
0.0
 49
0.0
 49
0.0
 49
0.0
 49
1.0
175
     0
142
0.0208333333333333
142
0.0
142
0.0
142
0.0
142
0.0
142
0.0208333333333333
142
0.0
142
0.0
142
0.0
142
0.0
142
1.0
142
0.0
142
0.0
142
0.0
142
0.0
142
1.0
179
     0
144
0.0208333333333333
144
0.0
144
0.0
144
0.0
144
0.0
144
0.0208333333333333
144
0.0
144
0.0
144
0.0
144
0.0
144
1.0
144
0.0
144
0.0
144
0.0
144
0.0
144
1.0
147
0.0208333333333333
147
0.0
147
0.0
147
0.0
147
0.0
147
0.0208333333333333
147
0.0
147
0.0
147
0.0
147
0.0
147
1.0
147
0.0
147
0.0
147
0.0
147
0.0
147
1.0
  0
MATERIAL
  5
59A3
102
{ACAD_XDICTIONARY
360
59A4
102
}
102
{ACAD_REACTORS
330
5992
102
}
330
5992
100
AcDbMaterial
  1
Global
 72
     0
 43
0.0208333333333333
 43
0.0
 43
0.0
 43
0.0
 43
0.0
 43
0.0208333333333333
 43
0.0
 43
0.0
 43
0.0
 43
0.0
 43
1.0
 43
0.0
 43
0.0
 43
0.0
 43
0.0
 43
1.0
 77
     0
 47
0.0208333333333333
 47
0.0
 47
0.0
 47
0.0
 47
0.0
 47
0.0208333333333333
 47
0.0
 47
0.0
 47
0.0
 47
0.0
 47
1.0
 47
0.0
 47
0.0
 47
0.0
 47
0.0
 47
1.0
171
     0
 49
0.0208333333333333
 49
0.0
 49
0.0
 49
0.0
 49
0.0
 49
0.0208333333333333
 49
0.0
 49
0.0
 49
0.0
 49
0.0
 49
1.0
 49
0.0
 49
0.0
 49
0.0
 49
0.0
 49
1.0
175
     0
142
0.0208333333333333
142
0.0
142
0.0
142
0.0
142
0.0
142
0.0208333333333333
142
0.0
142
0.0
142
0.0
142
0.0
142
1.0
142
0.0
142
0.0
142
0.0
142
0.0
142
1.0
179
     0
144
0.0208333333333333
144
0.0
144
0.0
144
0.0
144
0.0
144
0.0208333333333333
144
0.0
144
0.0
144
0.0
144
0.0
144
1.0
144
0.0
144
0.0
144
0.0
144
0.0
144
1.0
147
0.0208333333333333
147
0.0
147
0.0
147
0.0
147
0.0
147
0.0208333333333333
147
0.0
147
0.0
147
0.0
147
0.0
147
1.0
147
0.0
147
0.0
147
0.0
147
0.0
147
1.0
  0
MLEADERSTYLE
  5
59DA
102
{ACAD_REACTORS
330
59D9
102
}
330
59D9
100
AcDbMLeaderStyle
179
     2
170
     2
171
     1
172
     0
 90
        2
 40
0.0
 41
0.0
173
     1
 91
-1056964608
340
13
 92
       -2
290
     1
 42
0.09
291
     1
 43
0.36
  3
Standard
 44
0.18
300

342
11
174
     1
178
     6
175
     1
176
     0
 93
-1056964608
 45
0.18
292
     0
297
     0
 46
0.18
 94
-1056964608
 47
1.0
 49
1.0
140
1.0
293
     1
141
0.0
294
     1
177
     0
142
1.0
295
     0
296
     0
143
0.125
271
     0
272
     9
273
     9
298
     0
1001
ACAD_MLEADERVER
1070
     2
  0
MLINESTYLE
  5
17
102
{ACAD_REACTORS
330
16
102
}
330
16
100
AcDbMlineStyle
  2
STANDARD
 70
     0
  3

 62
   256
 51
90.0
 52
90.0
 71
     2
 49
0.5
 62
   256
  6
BYLAYER
 49
-0.5
 62
   256
  6
BYLAYER
  0
ACDBPLACEHOLDER
  5
F
102
{ACAD_REACTORS
330
E
102
}
330
E
  0
SCALE
  5
59C8
102
{ACAD_REACTORS
330
59C7
102
}
330
59C7
100
AcDbScale
 70
     0
300
1:1
140
1.0
141
1.0
290
     1
  0
SCALE
  5
59C9
102
{ACAD_REACTORS
330
59C7
102
}
330
59C7
100
AcDbScale
 70
     0
300
1/128" = 1'-0"
140
0.0078125
141
12.0
290
     0
  0
SCALE
  5
59CA
102
{ACAD_REACTORS
330
59C7
102
}
330
59C7
100
AcDbScale
 70
     0
300
1/64" = 1'-0"
140
0.015625
141
12.0
290
     0
  0
SCALE
  5
59CB
102
{ACAD_REACTORS
330
59C7
102
}
330
59C7
100
AcDbScale
 70
     0
300
1/32" = 1'-0"
140
0.03125
141
12.0
290
     0
  0
SCALE
  5
59CC
102
{ACAD_REACTORS
330
59C7
102
}
330
59C7
100
AcDbScale
 70
     0
300
1/16" = 1'-0"
140
0.0625
141
12.0
290
     0
  0
SCALE
  5
59CD
102
{ACAD_REACTORS
330
59C7
102
}
330
59C7
100
AcDbScale
 70
     0
300
3/32" = 1'-0"
140
0.09375
141
12.0
290
     0
  0
SCALE
  5
59CE
102
{ACAD_REACTORS
330
59C7
102
}
330
59C7
100
AcDbScale
 70
     0
300
1/8" = 1'-0"
140
0.125
141
12.0
290
     0
  0
SCALE
  5
59CF
102
{ACAD_REACTORS
330
59C7
102
}
330
59C7
100
AcDbScale
 70
     0
300
3/16" = 1'-0"
140
0.1875
141
12.0
290
     0
  0
SCALE
  5
59D0
102
{ACAD_REACTORS
330
59C7
102
}
330
59C7
100
AcDbScale
 70
     0
300
1/4" = 1'-0"
140
0.25
141
12.0
290
     0
  0
SCALE
  5
59D1
102
{ACAD_REACTORS
330
59C7
102
}
330
59C7
100
AcDbScale
 70
     0
300
3/8" = 1'-0"
140
0.375
141
12.0
290
     0
  0
SCALE
  5
59D2
102
{ACAD_REACTORS
330
59C7
102
}
330
59C7
100
AcDbScale
 70
     0
300
1/2" = 1'-0"
140
0.5
141
12.0
290
     0
  0
SCALE
  5
59D3
102
{ACAD_REACTORS
330
59C7
102
}
330
59C7
100
AcDbScale
 70
     0
300
3/4" = 1'-0"
140
0.75
141
12.0
290
     0
  0
SCALE
  5
59D4
102
{ACAD_REACTORS
330
59C7
102
}
330
59C7
100
AcDbScale
 70
     0
300
1" = 1'-0"
140
1.0
141
12.0
290
     0
  0
SCALE
  5
59D5
102
{ACAD_REACTORS
330
59C7
102
}
330
59C7
100
AcDbScale
 70
     0
300
1-1/2" = 1'-0"
140
1.5
141
12.0
290
     0
  0
SCALE
  5
59D6
102
{ACAD_REACTORS
330
59C7
102
}
330
59C7
100
AcDbScale
 70
     0
300
3" = 1'-0"
140
3.0
141
12.0
290
     0
  0
SCALE
  5
59D7
102
{ACAD_REACTORS
330
59C7
102
}
330
59C7
100
AcDbScale
 70
     0
300
6" = 1'-0"
140
6.0
141
12.0
290
     0
  0
SCALE
  5
59D8
102
{ACAD_REACTORS
330
59C7
102
}
330
59C7
100
AcDbScale
 70
     0
300
1'-0" = 1'-0"
140
12.0
141
12.0
290
     0
  0
ACDBSECTIONVIEWSTYLE
  5
59DC
102
{ACAD_XDICTIONARY
360
5E25
102
}
102
{ACAD_REACTORS
330
59DB
102
}
330
59DB
100
AcDbModelDocViewStyle
 70
     0
  3
Imperial24
290
     0
100
AcDbSectionViewStyle
 70
     0
 71
     0
 90
       78
 71
     1
340
11
 62
   256
 40
0.24
340
0
340
0
 62
   256
 40
0.24
300
I, O, Q, S, X, Z
 40
0.48
 90
        3
 40
0.18
 90
        1
 71
     2
340
15
 90
       25
 62
   256
340
15
 90
       50
 62
   256
 40
0.24
 40
0.0
 40
0.24
 71
     3
340
11
 62
   256
 40
0.24
 90
        1
 40
0.75
 90
        1
300
%<\AcVar ViewType \f "%tc1">% %<\AcVar ViewSectionStartId>%-%<\AcVar ViewSectionEndId>%\PSCALE %<\AcVar ViewScale \f "%sn">%
 71
     4
 62
   256
 62
   257
300
ANSI31
 40
1.0
 90
        0
290
     0
290
     0
 90
        6
 40
0.0
 40
1.570796326794896
 40
0.2617993877991494
 40
1.308996938995747
 40
-0.2617993877991494
 40
1.832595714594045
  0
TABLESTYLE
  5
59C6
102
{ACAD_XDICTIONARY
360
5DD2
102
}
102
{ACAD_REACTORS
330
59C5
102
}
330
59C5
100
AcDbTableStyle
280
     0
  3
Standard
 70
     0
 71
     0
 40
0.06
 41
0.06
280
     0
281
     0
  7
STANDARD
140
0.18
170
     2
 62
     0
 63
     7
283
     0
 90
      512
 91
        0
  1

274
    -2
284
     1
 64
     0
275
    -2
285
     1
 65
     0
276
    -2
286
     1
 66
     0
277
    -2
287
     1
 67
     0
278
    -2
288
     1
 68
     0
279
    -2
289
     1
 69
     0
  7
STANDARD
140
0.25
170
     5
 62
     0
 63
     7
283
     0
 90
      512
 91
        0
  1

274
    -2
284
     1
 64
     0
275
    -2
285
     1
 65
     0
276
    -2
286
     1
 66
     0
277
    -2
287
     1
 67
     0
278
    -2
288
     1
 68
     0
279
    -2
289
     1
 69
     0
  7
STANDARD
140
0.18
170
     5
 62
     0
 63
     7
283
     0
 90
      512
 91
        0
  1

274
    -2
284
     1
 64
     0
275
    -2
285
     1
 65
     0
276
    -2
286
     1
 66
     0
277
    -2
287
     1
 67
     0
278
    -2
288
     1
 68
     0
279
    -2
289
     1
 69
     0
  0
VISUALSTYLE
  5
59B1
102
{ACAD_REACTORS
330
59AB
102
}
330
59AB
100
AcDbVisualStyle
  2

 70
     4
177
     3
291
     0
 70
    58
 90
        0
176
     1
 90
        2
176
     1
 90
        0
176
     1
 90
        0
176
     1
 40
0.6
176
     1
 40
30.0
176
     1
 62
     7
176
     1
 90
        1
176
     1
 90
        4
176
     1
 62
     7
176
     1
 62
   257
176
     1
 90
        1
176
     1
 90
        1
176
     1
 40
1.0
176
     1
 90
        0
176
     1
 62
   257
176
     1
 40
1.0
176
     1
 90
        1
176
     1
 90
        6
176
     1
 90
        2
176
     1
 62
     7
176
     1
 90
        5
176
     1
 90
        0
176
     1
 90
        0
176
     1
290
     0
176
     1
 90
        1
176
     1
 40
0.0
176
     1
 90
        0
176
     1
290
     1
176
     1
290
     1
176
     1
290
     0
176
     1
290
     0
176
     1
290
     0
176
     1
290
     0
176
     1
290
     0
176
     1
290
     0
176
     1
290
     0
176
     1
 90
       50
176
     1
 40
0.0
176
     1
 40
1.0
176
     1
 90
        0
176
     1
 62
    18
420
        0
176
     1
 90
       50
176
     1
 90
        3
176
     1
 62
     5
420
      255
176
     1
290
     0
176
     1
 90
       50
176
     1
 90
       50
176
     1
 90
       50
176
     1
290
     0
176
     1
 90
       50
176
     1
 62
   256
176
     0
 40
1.0
176
     0
 90
        2
176
     1
  1
strokes_ogs.tif
176
     1
290
     0
176
     1
 40
1.0
176
     1
 40
1.0
176
     1
1001
ACAD
1000
AcDbSavedByObjectVersion
1070
     0
  0
VISUALSTYLE
  5
59B0
102
{ACAD_REACTORS
330
59AB
102
}
330
59AB
100
AcDbVisualStyle
  2

 70
     7
177
     3
291
     1
 70
    58
 90
        1
176
     1
 90
        0
176
     1
 90
        1
176
     1
 90
        0
176
     1
 40
0.6
176
     1
 40
30.0
176
     1
 62
     7
176
     1
 90
        0
176
     1
 90
        4
176
     1
 62
     7
176
     1
 62
   257
176
     1
 90
        1
176
     1
 90
        1
176
     1
 40
1.0
176
     1
 90
        8
176
     1
 62
     7
176
     1
 40
1.0
176
     1
 90
        1
176
     1
 90
        6
176
     1
 90
        2
176
     1
 62
     7
176
     1
 90
        5
176
     1
 90
        0
176
     1
 90
        0
176
     1
290
     0
176
     1
 90
        1
176
     1
 40
0.0
176
     1
 90
        0
176
     1
290
     0
176
     1
290
     1
176
     1
290
     1
176
     1
290
     0
176
     1
290
     0
176
     1
290
     0
176
     1
290
     0
176
     1
290
     0
176
     1
290
     0
176
     1
 90
       50
176
     1
 40
0.0
176
     1
 40
1.0
176
     1
 90
        0
176
     1
 62
    18
420
        0
176
     1
 90
       50
176
     1
 90
        3
176
     1
 62
     5
420
      255
176
     1
290
     0
176
     1
 90
       50
176
     1
 90
       50
176
     1
 90
       50
176
     1
290
     0
176
     1
 90
       50
176
     1
 62
   256
176
     0
 40
1.0
176
     0
 90
        2
176
     1
  1
strokes_ogs.tif
176
     1
290
     0
176
     1
 40
1.0
176
     1
 40
1.0
176
     1
1001
ACAD
1000
AcDbSavedByObjectVersion
1070
     0
  0
VISUALSTYLE
  5
59B7
102
{ACAD_REACTORS
330
59AB
102
}
330
59AB
100
AcDbVisualStyle
  2

 70
    12
177
     3
291
     1
 70
    58
 90
        2
176
     1
 90
        2
176
     1
 90
        0
176
     1
 90
        0
176
     1
 40
0.6
176
     1
 40
30.0
176
     1
 62
     7
176
     1
 90
        1
176
     1
 90
        4
176
     1
 62
     7
176
     1
 62
   257
176
     1
 90
        1
176
     1
 90
        1
176
     1
 40
1.0
176
     1
 90
        8
176
     1
 62
     7
176
     1
 40
1.0
176
     1
 90
        1
176
     1
 90
        6
176
     1
 90
        2
176
     1
 62
     7
176
     1
 90
        5
176
     1
 90
        0
176
     1
 90
        0
176
     1
290
     0
176
     1
 90
        1
176
     1
 40
50.0
176
     1
 90
        0
176
     1
290
     0
176
     1
290
     1
176
     1
290
     1
176
     1
290
     0
176
     1
290
     0
176
     1
290
     0
176
     1
290
     0
176
     1
290
     0
176
     1
290
     0
176
     1
 90
       50
176
     1
 40
0.0
176
     1
 40
1.0
176
     1
 90
        0
176
     1
 62
    18
420
        0
176
     1
 90
       50
176
     1
 90
        3
176
     1
 62
     5
420
      255
176
     1
290
     0
176
     1
 90
       50
176
     1
 90
       50
176
     1
 90
       50
176
     1
290
     0
176
     1
 90
       50
176
     1
 62
   256
176
     0
 40
1.0
176
     0
 90
        2
176
     1
  1
strokes_ogs.tif
176
     1
290
     0
176
     1
 40
1.0
176
     1
 40
1.0
176
     1
1001
ACAD
1000
AcDbSavedByObjectVersion
1070
     0
  0
VISUALSTYLE
  5
59BB
102
{ACAD_REACTORS
330
59AB
102
}
330
59AB
100
AcDbVisualStyle
  2

 70
    16
177
     3
291
     1
 70
    58
 90
        2
176
     1
 90
        2
176
     1
 90
        3
176
     1
 90
        0
176
     1
 40
0.6
176
     1
 40
30.0
176
     1
 62
     8
176
     1
 90
        1
176
     1
 90
        4
176
     1
 62
     7
176
     1
 62
   257
176
     1
 90
        1
176
     1
 90
        1
176
     1
 40
1.0
176
     1
 90
        8
176
     1
 62
     8
176
     1
 40
1.0
176
     1
 90
        1
176
     1
 90
        6
176
     1
 90
        2
176
     1
 62
     7
176
     1
 90
        5
176
     1
 90
        0
176
     1
 90
        0
176
     1
290
     0
176
     1
 90
        1
176
     1
 40
0.0
176
     1
 90
        0
176
     1
290
     0
176
     1
290
     1
176
     1
290
     1
176
     1
290
     0
176
     1
290
     0
176
     1
290
     0
176
     1
290
     0
176
     1
290
     0
176
     1
290
     0
176
     1
 90
       50
176
     1
 40
0.0
176
     1
 40
1.0
176
     1
 90
        0
176
     1
 62
    18
420
        0
176
     1
 90
       50
176
     1
 90
        3
176
     1
 62
     5
420
      255
176
     1
290
     0
176
     1
 90
       50
176
     1
 90
       50
176
     1
 90
       50
176
     1
290
     0
176
     1
 90
       50
176
     1
 62
   256
176
     0
 40
1.0
176
     0
 90
        2
176
     1
  1
strokes_ogs.tif
176
     1
290
     0
176
     1
 40
1.0
176
     1
 40
1.0
176
     1
1001
ACAD
1000
AcDbSavedByObjectVersion
1070
     0
  0
VISUALSTYLE
  5
59B4
102
{ACAD_REACTORS
330
59AB
102
}
330
59AB
100
AcDbVisualStyle
  2

 70
     9
177
     3
291
     0
 70
    58
 90
        3
176
     1
 90
        2
176
     1
 90
        0
176
     1
 90
        0
176
     1
 40
0.6
176
     1
 40
30.0
176
     1
 62
     7
176
     1
 90
        2
176
     1
 90
        2
176
     1
 62
     7
176
     1
 62
   257
176
     1
 90
        1
176
     1
 90
        1
176
     1
 40
179.0
176
     1
 90
        8
176
     1
 62
     7
176
     1
 40
1.0
176
     1
 90
        1
176
     1
 90
        6
176
     1
 90
        2
176
     1
 62
     7
176
     1
 90
        3
176
     1
 90
        0
176
     1
 90
        0
176
     1
290
     0
176
     1
 90
        1
176
     1
 40
0.0
176
     1
 90
        0
176
     1
290
     0
176
     1
290
     1
176
     1
290
     1
176
     1
290
     0
176
     1
290
     0
176
     1
290
     0
176
     1
290
     0
176
     1
290
     0
176
     1
290
     0
176
     1
 90
       50
176
     1
 40
0.0
176
     1
 40
1.0
176
     1
 90
        0
176
     1
 62
    18
420
        0
176
     1
 90
       50
176
     1
 90
        3
176
     1
 62
     5
420
      255
176
     1
290
     0
176
     1
 90
       50
176
     1
 90
       50
176
     1
 90
       50
176
     1
290
     0
176
     1
 90
       50
176
     1
 62
   256
176
     0
 40
1.0
176
     0
 90
        2
176
     1
  1
strokes_ogs.tif
176
     1
290
     0
176
     1
 40
1.0
176
     1
 40
1.0
176
     1
1001
ACAD
1000
AcDbSavedByObjectVersion
1070
     0
  0
VISUALSTYLE
  5
59B6
102
{ACAD_REACTORS
330
59AB
102
}
330
59AB
100
AcDbVisualStyle
  2

 70
    11
177
     3
291
     1
 70
    58
 90
        2
176
     1
 90
        2
176
     1
 90
        0
176
     1
 90
        0
176
     1
 40
0.6
176
     1
 40
30.0
176
     1
 62
     7
176
     1
 90
        1
176
     1
 90
        4
176
     1
 62
     7
176
     1
 62
   257
176
     1
 90
        1
176
     1
 90
        1
176
     1
 40
1.0
176
     1
 90
        8
176
     1
 62
     7
176
     1
 40
1.0
176
     1
 90
        1
176
     1
 90
        6
176
     1
 90
        2
176
     1
 62
     7
176
     1
 90
        5
176
     1
 90
        0
176
     1
 90
        0
176
     1
290
     0
176
     1
 90
        1
176
     1
 40
-50.0
176
     1
 90
        0
176
     1
290
     0
176
     1
290
     1
176
     1
290
     1
176
     1
290
     0
176
     1
290
     0
176
     1
290
     0
176
     1
290
     0
176
     1
290
     0
176
     1
290
     0
176
     1
 90
       50
176
     1
 40
0.0
176
     1
 40
1.0
176
     1
 90
        0
176
     1
 62
    18
420
        0
176
     1
 90
       50
176
     1
 90
        3
176
     1
 62
     5
420
      255
176
     1
290
     0
176
     1
 90
       50
176
     1
 90
       50
176
     1
 90
       50
176
     1
290
     0
176
     1
 90
       50
176
     1
 62
   256
176
     0
 40
1.0
176
     0
 90
        2
176
     1
  1
strokes_ogs.tif
176
     1
290
     0
176
     1
 40
1.0
176
     1
 40
1.0
176
     1
1001
ACAD
1000
AcDbSavedByObjectVersion
1070
     0
  0
VISUALSTYLE
  5
59C3
102
{ACAD_REACTORS
330
59AB
102
}
330
59AB
100
AcDbVisualStyle
  2

 70
    22
177
     3
291
     1
 70
    58
 90
        2
176
     0
 90
        2
176
     0
 90
        0
176
     0
 90
        0
176
     0
 40
0.6
176
     0
 40
30.0
176
     0
 62
     7
176
     0
 90
        1
176
     0
 90
        4
176
     0
 62
     7
176
     0
 62
   257
176
     0
 90
        1
176
     0
 90
        1
176
     0
 40
1.0
176
     0
 90
        8
176
     2
 62
     7
176
     0
 40
1.0
176
     0
 90
        1
176
     0
 90
        6
176
     0
 90
        2
176
     0
 62
     7
176
     0
 90
        5
176
     0
 90
        0
176
     0
 90
        0
176
     0
290
     0
176
     0
 90
        1
176
     0
 40
0.0
176
     0
 90
        0
176
     0
290
     0
176
     1
290
     1
176
     1
290
     1
176
     1
290
     0
176
     1
290
     0
176
     1
290
     0
176
     1
290
     0
176
     1
290
     0
176
     1
290
     0
176
     1
 90
       50
176
     0
 40
0.0
176
     0
 40
1.0
176
     0
 90
        0
176
     0
 62
    18
420
        0
176
     0
 90
       50
176
     0
 90
        3
176
     0
 62
     5
420
      255
176
     0
290
     0
176
     1
 90
       50
176
     0
 90
       50
176
     0
 90
       50
176
     0
290
     0
176
     1
 90
       50
176
     0
 62
   256
176
     0
 40
1.0
176
     0
 90
        2
176
     0
  1
strokes_ogs.tif
176
     0
290
     0
176
     1
 40
1.0
176
     0
 40
1.0
176
     0
1001
ACAD
1000
AcDbSavedByObjectVersion
1070
     0
  0
VISUALSTYLE
  5
59BA
102
{ACAD_REACTORS
330
59AB
102
}
330
59AB
100
AcDbVisualStyle
  2

 70
    15
177
     3
291
     1
 70
    58
 90
        2
176
     1
 90
        2
176
     1
 90
        0
176
     1
 90
        0
176
     1
 40
0.6
176
     1
 40
30.0
176
     1
 62
     7
176
     1
 90
        1
176
     1
 90
        4
176
     1
 62
     7
176
     1
 62
   257
176
     1
 90
        1
176
     1
 90
        1
176
     1
 40
1.0
176
     1
 90
        8
176
     1
 62
     7
176
     1
 40
1.0
176
     1
 90
        1
176
     1
 90
        6
176
     1
 90
        2
176
     1
 62
     7
176
     1
 90
        5
176
     1
 90
        0
176
     1
 90
        0
176
     1
290
     0
176
     1
 90
        1
176
     1
 40
0.0
176
     1
 90
        0
176
     1
290
     0
176
     1
290
     1
176
     1
290
     1
176
     1
290
     0
176
     1
290
     0
176
     1
290
     0
176
     1
290
     0
176
     1
290
     0
176
     1
290
     0
176
     1
 90
       50
176
     1
 40
0.0
176
     1
 40
1.0
176
     1
 90
        0
176
     1
 62
    18
420
        0
176
     1
 90
       50
176
     1
 90
        3
176
     1
 62
     5
420
      255
176
     1
290
     0
176
     1
 90
       50
176
     1
 90
       50
176
     1
 90
       50
176
     1
290
     0
176
     1
 90
       50
176
     1
 62
   256
176
     0
 40
1.0
176
     0
 90
        2
176
     1
  1
strokes_ogs.tif
176
     1
290
     0
176
     1
 40
1.0
176
     1
 40
1.0
176
     1
1001
ACAD
1000
AcDbSavedByObjectVersion
1070
     0
  0
VISUALSTYLE
  5
59AC
102
{ACAD_REACTORS
330
59AB
102
}
330
59AB
100
AcDbVisualStyle
  2

 70
     0
177
     3
291
     1
 70
    58
 90
        2
176
     1
 90
        1
176
     1
 90
        1
176
     1
 90
        2
176
     1
 40
0.6
176
     1
 40
30.0
176
     1
 62
     7
176
     1
 90
        0
176
     1
 90
        0
176
     1
 62
     7
176
     1
 62
   257
176
     1
 90
        1
176
     1
 90
        1
176
     1
 40
1.0
176
     1
 90
        8
176
     1
 62
     7
176
     1
 40
1.0
176
     1
 90
        1
176
     1
 90
        6
176
     1
 90
        2
176
     1
 62
     7
176
     1
 90
        5
176
     1
 90
        0
176
     1
 90
        0
176
     1
290
     0
176
     1
 90
       13
176
     1
 40
0.0
176
     1
 90
        0
176
     1
290
     0
176
     1
290
     1
176
     1
290
     1
176
     1
290
     0
176
     1
290
     0
176
     1
290
     0
176
     1
290
     0
176
     1
290
     0
176
     1
290
     0
176
     1
 90
       50
176
     1
 40
0.0
176
     1
 40
1.0
176
     1
 90
        0
176
     1
 62
    18
420
        0
176
     1
 90
       50
176
     1
 90
        3
176
     1
 62
     5
420
      255
176
     1
290
     0
176
     1
 90
       50
176
     1
 90
       50
176
     1
 90
       50
176
     1
290
     0
176
     1
 90
       50
176
     1
 62
   256
176
     0
 40
1.0
176
     0
 90
        2
176
     1
  1
strokes_ogs.tif
176
     1
290
     0
176
     1
 40
1.0
176
     1
 40
1.0
176
     1
1001
ACAD
1000
AcDbSavedByObjectVersion
1070
     0
  0
VISUALSTYLE
  5
59AD
102
{ACAD_REACTORS
330
59AB
102
}
330
59AB
100
AcDbVisualStyle
  2

 70
     1
177
     3
291
     1
 70
    58
 90
        2
176
     1
 90
        1
176
     1
 90
        1
176
     1
 90
        2
176
     1
 40
0.6
176
     1
 40
30.0
176
     1
 62
     7
176
     1
 90
        1
176
     1
 90
        0
176
     1
 62
     7
176
     1
 62
   257
176
     1
 90
        1
176
     1
 90
        1
176
     1
 40
1.0
176
     1
 90
        0
176
     1
 62
   257
176
     1
 40
1.0
176
     1
 90
        1
176
     1
 90
        6
176
     1
 90
        2
176
     1
 62
     7
176
     1
 90
        5
176
     1
 90
        0
176
     1
 90
        0
176
     1
290
     0
176
     1
 90
       13
176
     1
 40
0.0
176
     1
 90
        0
176
     1
290
     0
176
     1
290
     1
176
     1
290
     1
176
     1
290
     0
176
     1
290
     0
176
     1
290
     0
176
     1
290
     0
176
     1
290
     0
176
     1
290
     0
176
     1
 90
       50
176
     1
 40
0.0
176
     1
 40
1.0
176
     1
 90
        0
176
     1
 62
    18
420
        0
176
     1
 90
       50
176
     1
 90
        3
176
     1
 62
     5
420
      255
176
     1
290
     0
176
     1
 90
       50
176
     1
 90
       50
176
     1
 90
       50
176
     1
290
     0
176
     1
 90
       50
176
     1
 62
   256
176
     0
 40
1.0
176
     0
 90
        2
176
     1
  1
strokes_ogs.tif
176
     1
290
     0
176
     1
 40
1.0
176
     1
 40
1.0
176
     1
1001
ACAD
1000
AcDbSavedByObjectVersion
1070
     0
  0
VISUALSTYLE
  5
59AE
102
{ACAD_REACTORS
330
59AB
102
}
330
59AB
100
AcDbVisualStyle
  2

 70
     2
177
     3
291
     1
 70
    58
 90
        2
176
     1
 90
        2
176
     1
 90
        1
176
     1
 90
        2
176
     1
 40
0.6
176
     1
 40
30.0
176
     1
 62
     7
176
     1
 90
        0
176
     1
 90
        0
176
     1
 62
     7
176
     1
 62
   257
176
     1
 90
        1
176
     1
 90
        1
176
     1
 40
1.0
176
     1
 90
        0
176
     1
 62
     7
176
     1
 40
1.0
176
     1
 90
        1
176
     1
 90
        6
176
     1
 90
        2
176
     1
 62
     7
176
     1
 90
        5
176
     1
 90
        0
176
     1
 90
        0
176
     1
290
     0
176
     1
 90
       13
176
     1
 40
0.0
176
     1
 90
        0
176
     1
290
     0
176
     1
290
     1
176
     1
290
     1
176
     1
290
     0
176
     1
290
     0
176
     1
290
     0
176
     1
290
     0
176
     1
290
     0
176
     1
290
     0
176
     1
 90
       50
176
     1
 40
0.0
176
     1
 40
1.0
176
     1
 90
        0
176
     1
 62
    18
420
        0
176
     1
 90
       50
176
     1
 90
        3
176
     1
 62
     5
420
      255
176
     1
290
     0
176
     1
 90
       50
176
     1
 90
       50
176
     1
 90
       50
176
     1
290
     0
176
     1
 90
       50
176
     1
 62
   256
176
     0
 40
1.0
176
     0
 90
        2
176
     1
  1
strokes_ogs.tif
176
     1
290
     0
176
     1
 40
1.0
176
     1
 40
1.0
176
     1
1001
ACAD
1000
AcDbSavedByObjectVersion
1070
     0
  0
VISUALSTYLE
  5
59AF
102
{ACAD_REACTORS
330
59AB
102
}
330
59AB
100
AcDbVisualStyle
  2

 70
     3
177
     3
291
     1
 70
    58
 90
        2
176
     1
 90
        2
176
     1
 90
        1
176
     1
 90
        2
176
     1
 40
0.6
176
     1
 40
30.0
176
     1
 62
     7
176
     1
 90
        1
176
     1
 90
        0
176
     1
 62
     7
176
     1
 62
   257
176
     1
 90
        1
176
     1
 90
        1
176
     1
 40
1.0
176
     1
 90
        0
176
     1
 62
   257
176
     1
 40
1.0
176
     1
 90
        1
176
     1
 90
        6
176
     1
 90
        2
176
     1
 62
     7
176
     1
 90
        5
176
     1
 90
        0
176
     1
 90
        0
176
     1
290
     0
176
     1
 90
       13
176
     1
 40
0.0
176
     1
 90
        0
176
     1
290
     0
176
     1
290
     1
176
     1
290
     1
176
     1
290
     0
176
     1
290
     0
176
     1
290
     0
176
     1
290
     0
176
     1
290
     0
176
     1
290
     0
176
     1
 90
       50
176
     1
 40
0.0
176
     1
 40
1.0
176
     1
 90
        0
176
     1
 62
    18
420
        0
176
     1
 90
       50
176
     1
 90
        3
176
     1
 62
     5
420
      255
176
     1
290
     0
176
     1
 90
       50
176
     1
 90
       50
176
     1
 90
       50
176
     1
290
     0
176
     1
 90
       50
176
     1
 62
   256
176
     0
 40
1.0
176
     0
 90
        2
176
     1
  1
strokes_ogs.tif
176
     1
290
     0
176
     1
 40
1.0
176
     1
 40
1.0
176
     1
1001
ACAD
1000
AcDbSavedByObjectVersion
1070
     0
  0
VISUALSTYLE
  5
59B3
102
{ACAD_REACTORS
330
59AB
102
}
330
59AB
100
AcDbVisualStyle
  2

 70
     6
177
     3
291
     0
 70
    58
 90
        1
176
     1
 90
        2
176
     1
 90
        2
176
     1
 90
        0
176
     1
 40
0.6
176
     1
 40
30.0
176
     1
 62
     7
176
     1
 90
        2
176
     1
 90
        2
176
     1
 62
     7
176
     1
 62
   257
176
     1
 90
        2
176
     1
 90
        1
176
     1
 40
40.0
176
     1
 90
        0
176
     1
 62
   257
176
     1
 40
1.0
176
     1
 90
        1
176
     1
 90
        6
176
     1
 90
        2
176
     1
 62
     7
176
     1
 90
        3
176
     1
 90
        0
176
     1
 90
        0
176
     1
290
     0
176
     1
 90
        1
176
     1
 40
0.0
176
     1
 90
        0
176
     1
290
     0
176
     1
290
     1
176
     1
290
     1
176
     1
290
     0
176
     1
290
     0
176
     1
290
     0
176
     1
290
     0
176
     1
290
     0
176
     1
290
     0
176
     1
 90
       50
176
     1
 40
0.0
176
     1
 40
1.0
176
     1
 90
        0
176
     1
 62
    18
420
        0
176
     1
 90
       50
176
     1
 90
        3
176
     1
 62
     5
420
      255
176
     1
290
     0
176
     1
 90
       50
176
     1
 90
       50
176
     1
 90
       50
176
     1
290
     0
176
     1
 90
       50
176
     1
 62
   256
176
     0
 40
1.0
176
     0
 90
        2
176
     1
  1
strokes_ogs.tif
176
     1
290
     0
176
     1
 40
1.0
176
     1
 40
1.0
176
     1
1001
ACAD
1000
AcDbSavedByObjectVersion
1070
     0
  0
VISUALSTYLE
  5
59C1
102
{ACAD_REACTORS
330
59AB
102
}
330
59AB
100
AcDbVisualStyle
  2

 70
    20
177
     3
291
     1
 70
    58
 90
        2
176
     0
 90
        2
176
     0
 90
        0
176
     0
 90
        0
176
     0
 40
0.6
176
     0
 40
30.0
176
     0
 62
     7
176
     0
 90
        1
176
     0
 90
        4
176
     0
 62
     7
176
     0
 62
   257
176
     0
 90
        1
176
     0
 90
        1
176
     0
 40
1.0
176
     0
 90
       10
176
     2
 62
     7
176
     0
 40
1.0
176
     0
 90
        1
176
     0
 90
        6
176
     0
 90
        2
176
     0
 62
     7
176
     0
 90
        5
176
     0
 90
        0
176
     0
 90
        0
176
     0
290
     0
176
     0
 90
        1
176
     0
 40
0.0
176
     0
 90
        0
176
     0
290
     0
176
     1
290
     1
176
     1
290
     1
176
     1
290
     0
176
     1
290
     0
176
     1
290
     0
176
     1
290
     0
176
     1
290
     0
176
     1
290
     0
176
     1
 90
       50
176
     0
 40
0.0
176
     0
 40
1.0
176
     0
 90
        0
176
     0
 62
    18
420
        0
176
     0
 90
       50
176
     0
 90
        3
176
     0
 62
     5
420
      255
176
     0
290
     0
176
     1
 90
       50
176
     0
 90
       50
176
     0
 90
       50
176
     0
290
     0
176
     1
 90
       50
176
     0
 62
   256
176
     0
 40
1.0
176
     0
 90
        2
176
     0
  1
strokes_ogs.tif
176
     0
290
     0
176
     1
 40
1.0
176
     0
 40
1.0
176
     0
1001
ACAD
1000
AcDbSavedByObjectVersion
1070
     0
  0
VISUALSTYLE
  5
59B9
102
{ACAD_REACTORS
330
59AB
102
}
330
59AB
100
AcDbVisualStyle
  2

 70
    14
177
     3
291
     1
 70
    58
 90
        2
176
     1
 90
        2
176
     1
 90
        0
176
     1
 90
        0
176
     1
 40
0.6
176
     1
 40
30.0
176
     1
 62
     7
176
     1
 90
        1
176
     1
 90
        4
176
     1
 62
     7
176
     1
 62
   257
176
     1
 90
        7
176
     1
 90
        7
176
     1
 40
1.0
176
     1
 90
        8
176
     1
 62
     7
176
     1
 40
1.0
176
     1
 90
        1
176
     1
 90
        6
176
     1
 90
        2
176
     1
 62
     7
176
     1
 90
        5
176
     1
 90
        0
176
     1
 90
        0
176
     1
290
     0
176
     1
 90
        1
176
     1
 40
0.0
176
     1
 90
        0
176
     1
290
     0
176
     1
290
     1
176
     1
290
     1
176
     1
290
     0
176
     1
290
     0
176
     1
290
     0
176
     1
290
     0
176
     1
290
     0
176
     1
290
     0
176
     1
 90
       50
176
     1
 40
0.0
176
     1
 40
1.0
176
     1
 90
        0
176
     1
 62
    18
420
        0
176
     1
 90
       50
176
     1
 90
        3
176
     1
 62
     5
420
      255
176
     1
290
     0
176
     1
 90
       50
176
     1
 90
       50
176
     1
 90
       50
176
     1
290
     0
176
     1
 90
       50
176
     1
 62
   256
176
     0
 40
1.0
176
     0
 90
        2
176
     1
  1
strokes_ogs.tif
176
     1
290
     0
176
     1
 40
1.0
176
     1
 40
1.0
176
     1
1001
ACAD
1000
AcDbSavedByObjectVersion
1070
     0
  0
VISUALSTYLE
  5
59C2
102
{ACAD_REACTORS
330
59AB
102
}
330
59AB
100
AcDbVisualStyle
  2

 70
    21
177
     3
291
     1
 70
    58
 90
        2
176
     0
 90
        2
176
     0
 90
        0
176
     0
 90
        0
176
     0
 40
0.6
176
     0
 40
30.0
176
     0
 62
     7
176
     0
 90
        1
176
     0
 90
        4
176
     0
 62
     7
176
     0
 62
   257
176
     0
 90
        1
176
     0
 90
        1
176
     0
 40
1.0
176
     0
 90
        9
176
     2
 62
     7
176
     0
 40
1.0
176
     0
 90
        1
176
     0
 90
        6
176
     0
 90
        2
176
     0
 62
     7
176
     0
 90
        5
176
     0
 90
        0
176
     0
 90
        0
176
     0
290
     0
176
     0
 90
        1
176
     0
 40
0.0
176
     0
 90
        0
176
     0
290
     0
176
     1
290
     1
176
     1
290
     1
176
     1
290
     0
176
     1
290
     0
176
     1
290
     0
176
     1
290
     0
176
     1
290
     0
176
     1
290
     0
176
     1
 90
       50
176
     0
 40
0.0
176
     0
 40
1.0
176
     0
 90
        0
176
     0
 62
    18
420
        0
176
     0
 90
       50
176
     0
 90
        3
176
     0
 62
     5
420
      255
176
     0
290
     0
176
     1
 90
       50
176
     0
 90
       50
176
     0
 90
       50
176
     0
290
     0
176
     1
 90
       50
176
     0
 62
   256
176
     0
 40
1.0
176
     0
 90
        2
176
     0
  1
strokes_ogs.tif
176
     0
290
     0
176
     1
 40
1.0
176
     0
 40
1.0
176
     0
1001
ACAD
1000
AcDbSavedByObjectVersion
1070
     0
  0
VISUALSTYLE
  5
59B5
102
{ACAD_REACTORS
330
59AB
102
}
330
59AB
100
AcDbVisualStyle
  2

 70
     8
177
     3
291
     0
 70
    58
 90
        2
176
     1
 90
        3
176
     1
 90
        0
176
     1
 90
        2
176
     1
 40
0.6
176
     1
 40
30.0
176
     1
 62
     7
176
     1
 90
        0
176
     1
 90
        0
176
     1
 62
     7
176
     1
 62
   257
176
     1
 90
        1
176
     1
 90
        1
176
     1
 40
1.0
176
     1
 90
        8
176
     1
 62
   257
176
     1
 40
1.0
176
     1
 90
        1
176
     1
 90
        6
176
     1
 90
        2
176
     1
 62
     7
176
     1
 90
        3
176
     1
 90
        0
176
     1
 90
        0
176
     1
290
     0
176
     1
 90
       13
176
     1
 40
0.0
176
     1
 90
        0
176
     1
290
     0
176
     1
290
     1
176
     1
290
     1
176
     1
290
     0
176
     1
290
     0
176
     1
290
     0
176
     1
290
     0
176
     1
290
     0
176
     1
290
     0
176
     1
 90
       50
176
     1
 40
0.0
176
     1
 40
1.0
176
     1
 90
        0
176
     1
 62
    18
420
        0
176
     1
 90
       50
176
     1
 90
        3
176
     1
 62
     5
420
      255
176
     1
290
     0
176
     1
 90
       50
176
     1
 90
       50
176
     1
 90
       50
176
     1
290
     0
176
     1
 90
       50
176
     1
 62
   256
176
     0
 40
1.0
176
     0
 90
        2
176
     1
  1
strokes_ogs.tif
176
     1
290
     0
176
     1
 40
1.0
176
     1
 40
1.0
176
     1
1001
ACAD
1000
AcDbSavedByObjectVersion
1070
     0
  0
VISUALSTYLE
  5
59C0
102
{ACAD_REACTORS
330
59AB
102
}
330
59AB
100
AcDbVisualStyle
  2

 70
    27
177
     3
291
     0
 70
    58
 90
        2
176
     1
 90
        2
176
     1
 90
        1
176
     1
 90
        2
176
     1
 40
0.6
176
     1
 40
30.0
176
     1
 62
     7
176
     1
 90
        0
176
     1
 90
        4
176
     1
 62
     7
176
     1
 62
   257
176
     1
 90
        1
176
     1
 90
        1
176
     1
 40
1.0
176
     1
 90
        8
176
     1
 62
   257
176
     1
 40
1.0
176
     1
 90
        1
176
     1
 90
        6
176
     1
 90
        2
176
     1
 62
     8
176
     1
 90
        3
176
     1
 90
        0
176
     1
 90
        0
176
     1
290
     0
176
     1
 90
        5
176
     1
 40
0.0
176
     1
 90
        0
176
     1
290
     0
176
     1
290
     1
176
     1
290
     1
176
     1
290
     0
176
     1
290
     0
176
     1
290
     0
176
     1
290
     0
176
     1
290
     0
176
     1
290
     0
176
     1
 90
       50
176
     1
 40
0.0
176
     1
 40
1.0
176
     1
 90
        0
176
     1
 62
    18
420
        0
176
     1
 90
       50
176
     1
 90
        3
176
     1
 62
     5
420
      255
176
     1
290
     0
176
     1
 90
       50
176
     1
 90
       50
176
     1
 90
       50
176
     1
290
     0
176
     1
 90
       50
176
     1
 62
   256
176
     0
 40
1.0
176
     0
 90
        2
176
     1
  1
strokes_ogs.tif
176
     1
290
     0
176
     1
 40
1.0
176
     1
 40
1.0
176
     1
1001
ACAD
1000
AcDbSavedByObjectVersion
1070
     0
  0
VISUALSTYLE
  5
59BF
102
{ACAD_REACTORS
330
59AB
102
}
330
59AB
100
AcDbVisualStyle
  2

 70
    26
177
     3
291
     0
 70
    58
 90
        2
176
     1
 90
        2
176
     1
 90
        1
176
     1
 90
        2
176
     1
 40
0.6
176
     1
 40
30.0
176
     1
 62
     7
176
     1
 90
        1
176
     1
 90
       10
176
     1
 62
     7
176
     1
 62
   257
176
     1
 90
        2
176
     1
 90
        1
176
     1
 40
1.0
176
     1
 90
        8
176
     1
 62
   257
176
     1
 40
1.0
176
     1
 90
        1
176
     1
 90
        6
176
     1
 90
        2
176
     1
 62
     7
176
     1
 90
        3
176
     1
 90
        0
176
     1
 90
        0
176
     1
290
     0
176
     1
 90
        5
176
     1
 40
0.0
176
     1
 90
        0
176
     1
290
     0
176
     1
290
     1
176
     1
290
     1
176
     1
290
     0
176
     1
290
     0
176
     1
290
     0
176
     1
290
     0
176
     1
290
     0
176
     1
290
     0
176
     1
 90
       50
176
     1
 40
0.0
176
     1
 40
1.0
176
     1
 90
        0
176
     1
 62
    18
420
        0
176
     1
 90
       50
176
     1
 90
        3
176
     1
 62
     5
420
      255
176
     1
290
     0
176
     1
 90
       50
176
     1
 90
       50
176
     1
 90
       50
176
     1
290
     0
176
     1
 90
       50
176
     1
 62
   256
176
     0
 40
1.0
176
     0
 90
        2
176
     1
  1
strokes_ogs.tif
176
     1
290
     0
176
     1
 40
1.0
176
     1
 40
1.0
176
     1
1001
ACAD
1000
AcDbSavedByObjectVersion
1070
     0
  0
VISUALSTYLE
  5
59BC
102
{ACAD_REACTORS
330
59AB
102
}
330
59AB
100
AcDbVisualStyle
  2

 70
    23
177
     3
291
     0
 70
    58
 90
        2
176
     1
 90
        2
176
     1
 90
        3
176
     1
 90
        0
176
     1
 40
0.6
176
     1
 40
30.0
176
     1
 62
     7
176
     1
 90
        2
176
     1
 90
        2
176
     1
 62
     7
176
     1
 62
     7
176
     1
 90
        1
176
     1
 90
        1
176
     1
 40
40.0
176
     1
 90
        8
176
     1
 62
     7
176
     1
 40
1.0
176
     1
 90
        1
176
     1
 90
        6
176
     1
 90
        2
176
     1
 62
     7
176
     1
 90
        3
176
     1
 90
        0
176
     1
 90
        0
176
     1
290
     0
176
     1
 90
        1
176
     1
 40
0.0
176
     1
 90
        0
176
     1
290
     0
176
     1
290
     1
176
     1
290
     1
176
     1
290
     0
176
     1
290
     0
176
     1
290
     0
176
     1
290
     0
176
     1
290
     0
176
     1
290
     0
176
     1
 90
       50
176
     1
 40
0.0
176
     1
 40
1.0
176
     1
 90
        0
176
     1
 62
    18
420
        0
176
     1
 90
       50
176
     1
 90
        3
176
     1
 62
     5
420
      255
176
     1
290
     0
176
     1
 90
       50
176
     1
 90
       50
176
     1
 90
       50
176
     1
290
     0
176
     1
 90
       50
176
     1
 62
   256
176
     0
 40
1.0
176
     0
 90
        2
176
     1
  1
strokes_ogs.tif
176
     1
290
     0
176
     1
 40
1.0
176
     1
 40
1.0
176
     1
1001
ACAD
1000
AcDbSavedByObjectVersion
1070
     0
  0
VISUALSTYLE
  5
59BD
102
{ACAD_REACTORS
330
59AB
102
}
330
59AB
100
AcDbVisualStyle
  2

 70
    24
177
     3
291
     0
 70
    58
 90
        1
176
     1
 90
        2
176
     1
 90
        2
176
     1
 90
        0
176
     1
 40
0.6
176
     1
 40
30.0
176
     1
 62
     7
176
     1
 90
        2
176
     1
 90
        2
176
     1
 62
     7
176
     1
 62
     7
176
     1
 90
        1
176
     1
 90
        1
176
     1
 40
40.0
176
     1
 90
       11
176
     1
 62
     7
176
     1
 40
1.0
176
     1
 90
        1
176
     1
 90
        6
176
     1
 90
        2
176
     1
 62
     7
176
     1
 90
        6
176
     1
 90
        0
176
     1
 90
        0
176
     1
290
     0
176
     1
 90
        1
176
     1
 40
0.0
176
     1
 90
        0
176
     1
290
     0
176
     1
290
     1
176
     1
290
     1
176
     1
290
     0
176
     1
290
     0
176
     1
290
     0
176
     1
290
     0
176
     1
290
     0
176
     1
290
     0
176
     1
 90
       50
176
     1
 40
0.0
176
     1
 40
1.0
176
     1
 90
        0
176
     1
 62
    18
420
        0
176
     1
 90
       50
176
     1
 90
        3
176
     1
 62
     5
420
      255
176
     1
290
     0
176
     1
 90
       50
176
     1
 90
       50
176
     1
 90
       50
176
     1
290
     0
176
     1
 90
       50
176
     1
 62
   256
176
     0
 40
1.0
176
     0
 90
        2
176
     1
  1
strokes_ogs.tif
176
     1
290
     0
176
     1
 40
1.0
176
     1
 40
1.0
176
     1
1001
ACAD
1000
AcDbSavedByObjectVersion
1070
     0
  0
VISUALSTYLE
  5
59B8
102
{ACAD_REACTORS
330
59AB
102
}
330
59AB
100
AcDbVisualStyle
  2

 70
    13
177
     3
291
     1
 70
    58
 90
        2
176
     1
 90
        2
176
     1
 90
        0
176
     1
 90
        0
176
     1
 40
0.6
176
     1
 40
30.0
176
     1
 62
     7
176
     1
 90
        1
176
     1
 90
        4
176
     1
 62
     7
176
     1
 62
   257
176
     1
 90
        1
176
     1
 90
        1
176
     1
 40
1.0
176
     1
 90
       12
176
     1
 62
     7
176
     1
 40
1.0
176
     1
 90
        1
176
     1
 90
        6
176
     1
 90
        2
176
     1
 62
     7
176
     1
 90
        5
176
     1
 90
        0
176
     1
 90
        0
176
     1
290
     0
176
     1
 90
        1
176
     1
 40
0.0
176
     1
 90
        0
176
     1
290
     0
176
     1
290
     1
176
     1
290
     1
176
     1
290
     0
176
     1
290
     0
176
     1
290
     0
176
     1
290
     0
176
     1
290
     0
176
     1
290
     0
176
     1
 90
       50
176
     1
 40
0.0
176
     1
 40
1.0
176
     1
 90
        0
176
     1
 62
    18
420
        0
176
     1
 90
       50
176
     1
 90
        3
176
     1
 62
     5
420
      255
176
     1
290
     0
176
     1
 90
       50
176
     1
 90
       50
176
     1
 90
       50
176
     1
290
     0
176
     1
 90
       50
176
     1
 62
   256
176
     0
 40
1.0
176
     0
 90
        2
176
     1
  1
strokes_ogs.tif
176
     1
290
     0
176
     1
 40
1.0
176
     1
 40
1.0
176
     1
1001
ACAD
1000
AcDbSavedByObjectVersion
1070
     0
  0
VISUALSTYLE
  5
59B2
102
{ACAD_REACTORS
330
59AB
102
}
330
59AB
100
AcDbVisualStyle
  2

 70
     5
177
     3
291
     0
 70
    58
 90
        0
176
     1
 90
        2
176
     1
 90
        0
176
     1
 90
        0
176
     1
 40
0.6
176
     1
 40
30.0
176
     1
 62
     7
176
     1
 90
        1
176
     1
 90
        4
176
     1
 62
     7
176
     1
 62
   257
176
     1
 90
        1
176
     1
 90
        1
176
     1
 40
1.0
176
     1
 90
        0
176
     1
 62
   257
176
     1
 40
1.0
176
     1
 90
        1
176
     1
 90
        6
176
     1
 90
        2
176
     1
 62
     7
176
     1
 90
        3
176
     1
 90
        0
176
     1
 90
        0
176
     1
290
     0
176
     1
 90
        1
176
     1
 40
0.0
176
     1
 90
        0
176
     1
290
     0
176
     1
290
     1
176
     1
290
     1
176
     1
290
     0
176
     1
290
     0
176
     1
290
     0
176
     1
290
     0
176
     1
290
     0
176
     1
290
     0
176
     1
 90
       50
176
     1
 40
0.0
176
     1
 40
1.0
176
     1
 90
        0
176
     1
 62
    18
420
        0
176
     1
 90
       50
176
     1
 90
        3
176
     1
 62
     5
420
      255
176
     1
290
     0
176
     1
 90
       50
176
     1
 90
       50
176
     1
 90
       50
176
     1
290
     0
176
     1
 90
       50
176
     1
 62
   256
176
     0
 40
1.0
176
     0
 90
        2
176
     1
  1
strokes_ogs.tif
176
     1
290
     0
176
     1
 40
1.0
176
     1
 40
1.0
176
     1
1001
ACAD
1000
AcDbSavedByObjectVersion
1070
     0
  0
VISUALSTYLE
  5
59BE
102
{ACAD_REACTORS
330
59AB
102
}
330
59AB
100
AcDbVisualStyle
  2

 70
    25
177
     3
291
     0
 70
    58
 90
        2
176
     1
 90
        2
176
     1
 90
        1
176
     1
 90
        1
176
     1
 40
0.5
176
     1
 40
30.0
176
     1
 62
     7
176
     1
 90
        1
176
     1
 90
        0
176
     1
 62
     7
176
     1
 62
   257
176
     1
 90
        1
176
     1
 90
        1
176
     1
 40
1.0
176
     1
 90
        8
176
     1
 62
     7
176
     1
 40
1.0
176
     1
 90
        1
176
     1
 90
        6
176
     1
 90
        2
176
     1
 62
     7
176
     1
 90
        3
176
     1
 90
        0
176
     1
 90
        0
176
     1
290
     0
176
     1
 90
       13
176
     1
 40
0.0
176
     1
 90
        0
176
     1
290
     0
176
     1
290
     1
176
     1
290
     1
176
     1
290
     0
176
     1
290
     0
176
     1
290
     0
176
     1
290
     0
176
     1
290
     0
176
     1
290
     0
176
     1
 90
       50
176
     1
 40
0.0
176
     1
 40
1.0
176
     1
 90
        0
176
     1
 62
    18
420
        0
176
     1
 90
       50
176
     1
 90
        3
176
     1
 62
     5
420
      255
176
     1
290
     0
176
     1
 90
       50
176
     1
 90
       50
176
     1
 90
       50
176
     1
290
     0
176
     1
 90
       50
176
     1
 62
   256
176
     0
 40
1.0
176
     0
 90
        2
176
     1
  1
strokes_ogs.tif
176
     1
290
     0
176
     1
 40
1.0
176
     1
 40
1.0
176
     1
1001
ACAD
1000
AcDbSavedByObjectVersion
1070
     0
  0
DICTIONARYVAR
  5
5DCE
102
{ACAD_REACTORS
330
5697
102
}
330
5697
100
DictionaryVariables
280
     0
  1
1:1
  0
DICTIONARYVAR
  5
5DCB
102
{ACAD_REACTORS
330
5697
102
}
330
5697
100
DictionaryVariables
280
     0
  1
STANDARD
  0
DICTIONARYVAR
  5
5DCA
102
{ACAD_REACTORS
330
5697
102
}
330
5697
100
DictionaryVariables
280
     0
  1
STANDARD
  0
DICTIONARYVAR
  5
5DCC
102
{ACAD_REACTORS
330
5697
102
}
330
5697
100
DictionaryVariables
280
     0
  1
Imperial24
  0
DICTIONARYVAR
  5
5DCD
102
{ACAD_REACTORS
330
5697
102
}
330
5697
100
DictionaryVariables
280
     0
  1
Imperial24
  0
DICTIONARYVAR
  5
5698
102
{ACAD_REACTORS
330
5697
102
}
330
5697
100
DictionaryVariables
280
     0
  1
1
  0
DICTIONARYVAR
  5
5DD0
102
{ACAD_REACTORS
330
5697
102
}
330
5697
100
DictionaryVariables
280
     0
  1
0
  0
DICTIONARYVAR
  5
5E22
102
{ACAD_REACTORS
330
5697
102
}
330
5697
100
DictionaryVariables
280
     0
  1
1
  0
DICTIONARYVAR
  5
5E23
102
{ACAD_REACTORS
330
5697
102
}
330
5697
100
DictionaryVariables
280
     0
  1
15
  0
DICTIONARYVAR
  5
5E21
102
{ACAD_REACTORS
330
5697
102
}
330
5697
100
DictionaryVariables
280
     0
  1
0
  0
DICTIONARYVAR
  5
5E20
102
{ACAD_REACTORS
330
5697
102
}
330
5697
100
DictionaryVariables
280
     0
  1
0
  0
DICTIONARYVAR
  5
5DCF
102
{ACAD_REACTORS
330
5697
102
}
330
5697
100
DictionaryVariables
280
     0
  1
127
  0
DICTIONARY
  5
5E27
330
59DE
100
AcDbDictionary
280
     1
281
     1
  3
ACAD_XREC_ROUNDTRIP
360
5E28
  0
DICTIONARY
  5
599C
330
599B
100
AcDbDictionary
280
     1
281
     1
  3
ACAD_XREC_ROUNDTRIP
360
5DDF
  3
BUMPTILE
360
599E
  3
DIFFUSETILE
360
599D
  3
OPACITYTILE
360
59A1
  3
REFLECTIONTILE
360
59A0
  3
REFRACTIONTILE
360
59A2
  3
SPECULARTILE
360
599F
  0
DICTIONARY
  5
5994
330
5993
100
AcDbDictionary
280
     1
281
     1
  3
ACAD_XREC_ROUNDTRIP
360
5DDE
  3
BUMPTILE
360
5996
  3
DIFFUSETILE
360
5995
  3
OPACITYTILE
360
5999
  3
REFLECTIONTILE
360
5998
  3
REFRACTIONTILE
360
599A
  3
SPECULARTILE
360
5997
  0
DICTIONARY
  5
59A4
330
59A3
100
AcDbDictionary
280
     1
281
     1
  3
ACAD_XREC_ROUNDTRIP
360
5DE0
  3
BUMPTILE
360
59A6
  3
DIFFUSETILE
360
59A5
  3
OPACITYTILE
360
59A9
  3
REFLECTIONTILE
360
59A8
  3
REFRACTIONTILE
360
59AA
  3
SPECULARTILE
360
59A7
  0
DICTIONARY
  5
5E25
330
59DC
100
AcDbDictionary
280
     1
281
     1
  3
ACAD_XREC_ROUNDTRIP
360
5E26
  0
DICTIONARY
  5
5DD2
330
59C6
100
AcDbDictionary
280
     1
281
     1
  3
ACAD_ROUNDTRIP_2008_TABLESTYLE_CELLSTYLEMAP
360
5E24
  0
XRECORD
  5
5E28
102
{ACAD_REACTORS
330
5E27
102
}
330
5E27
100
AcDbXrecord
280
     1
102
DISPLAYNAME
  1
Imperial24
102
FLAGS
 90
        0
  0
XRECORD
  5
5DDF
102
{ACAD_REACTORS
330
599C
102
}
330
599C
100
AcDbXrecord
280
     1
102
MATERIAL
148
0.0
149
0.0
149
0.0
 93
        0
 94
      127
282
     0
 72
     0
 77
     0
171
     0
175
     0
179
     0
273
     0
  0
XRECORD
  5
599E
102
{ACAD_REACTORS
330
599C
102
}
330
599C
100
AcDbXrecord
280
     1
270
     1
271
     1
  0
XRECORD
  5
599D
102
{ACAD_REACTORS
330
599C
102
}
330
599C
100
AcDbXrecord
280
     1
270
     1
271
     1
  0
XRECORD
  5
59A1
102
{ACAD_REACTORS
330
599C
102
}
330
599C
100
AcDbXrecord
280
     1
270
     1
271
     1
  0
XRECORD
  5
59A0
102
{ACAD_REACTORS
330
599C
102
}
330
599C
100
AcDbXrecord
280
     1
270
     1
271
     1
  0
XRECORD
  5
59A2
102
{ACAD_REACTORS
330
599C
102
}
330
599C
100
AcDbXrecord
280
     1
270
     1
271
     1
  0
XRECORD
  5
599F
102
{ACAD_REACTORS
330
599C
102
}
330
599C
100
AcDbXrecord
280
     1
270
     1
271
     1
  0
XRECORD
  5
5DDE
102
{ACAD_REACTORS
330
5994
102
}
330
5994
100
AcDbXrecord
280
     1
102
MATERIAL
148
0.0
149
0.0
149
0.0
 93
        0
 94
      127
282
     0
 72
     0
 77
     0
171
     0
175
     0
179
     0
273
     0
  0
XRECORD
  5
5996
102
{ACAD_REACTORS
330
5994
102
}
330
5994
100
AcDbXrecord
280
     1
270
     1
271
     1
  0
XRECORD
  5
5995
102
{ACAD_REACTORS
330
5994
102
}
330
5994
100
AcDbXrecord
280
     1
270
     1
271
     1
  0
XRECORD
  5
5999
102
{ACAD_REACTORS
330
5994
102
}
330
5994
100
AcDbXrecord
280
     1
270
     1
271
     1
  0
XRECORD
  5
5998
102
{ACAD_REACTORS
330
5994
102
}
330
5994
100
AcDbXrecord
280
     1
270
     1
271
     1
  0
XRECORD
  5
599A
102
{ACAD_REACTORS
330
5994
102
}
330
5994
100
AcDbXrecord
280
     1
270
     1
271
     1
  0
XRECORD
  5
5997
102
{ACAD_REACTORS
330
5994
102
}
330
5994
100
AcDbXrecord
280
     1
270
     1
271
     1
  0
XRECORD
  5
5DE0
102
{ACAD_REACTORS
330
59A4
102
}
330
59A4
100
AcDbXrecord
280
     1
102
MATERIAL
148
0.0
149
0.0
149
0.0
 93
        0
 94
      127
282
     0
 72
     0
 77
     0
171
     0
175
     0
179
     0
273
     0
  0
XRECORD
  5
59A6
102
{ACAD_REACTORS
330
59A4
102
}
330
59A4
100
AcDbXrecord
280
     1
270
     1
271
     1
  0
XRECORD
  5
59A5
102
{ACAD_REACTORS
330
59A4
102
}
330
59A4
100
AcDbXrecord
280
     1
270
     1
271
     1
  0
XRECORD
  5
59A9
102
{ACAD_REACTORS
330
59A4
102
}
330
59A4
100
AcDbXrecord
280
     1
270
     1
271
     1
  0
XRECORD
  5
59A8
102
{ACAD_REACTORS
330
59A4
102
}
330
59A4
100
AcDbXrecord
280
     1
270
     1
271
     1
  0
XRECORD
  5
59AA
102
{ACAD_REACTORS
330
59A4
102
}
330
59A4
100
AcDbXrecord
280
     1
270
     1
271
     1
  0
XRECORD
  5
59A7
102
{ACAD_REACTORS
330
59A4
102
}
330
59A4
100
AcDbXrecord
280
     1
270
     1
271
     1
  0
XRECORD
  5
5E26
102
{ACAD_REACTORS
330
5E25
102
}
330
5E25
100
AcDbXrecord
280
     1
102
DISPLAYNAME
  1
Imperial24
102
FLAGS
 90
        0
  0
CELLSTYLEMAP
  5
5E24
102
{ACAD_REACTORS
330
5DD2
102
}
330
5DD2
100
AcDbCellStyleMap
 90
        3
300
CELLSTYLE
  1
TABLEFORMAT_BEGIN
 90
        5
170
     1
 91
        0
 92
    32768
 62
   257
 93
        1
300
CONTENTFORMAT
  1
CONTENTFORMAT_BEGIN
 90
        0
 91
        0
 92
      512
 93
        0
300

 40
0.0
140
1.0
 94
        5
 62
     0
340
11
144
0.25
309
CONTENTFORMAT_END
171
     1
301
MARGIN
  1
CELLMARGIN_BEGIN
 40
0.06
 40
0.06
 40
0.06
 40
0.06
 40
0.18
 40
0.18
309
CELLMARGIN_END
 94
        6
 95
        1
302
GRIDFORMAT
  1
GRIDFORMAT_BEGIN
 90
        0
 91
        1
 62
     0
 92
       -2
340
0
 93
        0
 40
0.045
309
GRIDFORMAT_END
 95
        2
302
GRIDFORMAT
  1
GRIDFORMAT_BEGIN
 90
        0
 91
        1
 62
     0
 92
       -2
340
0
 93
        0
 40
0.045
309
GRIDFORMAT_END
 95
        4
302
GRIDFORMAT
  1
GRIDFORMAT_BEGIN
 90
        0
 91
        1
 62
     0
 92
       -2
340
0
 93
        0
 40
0.045
309
GRIDFORMAT_END
 95
        8
302
GRIDFORMAT
  1
GRIDFORMAT_BEGIN
 90
        0
 91
        1
 62
     0
 92
       -2
340
0
 93
        0
 40
0.045
309
GRIDFORMAT_END
 95
       16
302
GRIDFORMAT
  1
GRIDFORMAT_BEGIN
 90
        0
 91
        1
 62
     0
 92
       -2
340
0
 93
        0
 40
0.045
309
GRIDFORMAT_END
 95
       32
302
GRIDFORMAT
  1
GRIDFORMAT_BEGIN
 90
        0
 91
        1
 62
     0
 92
       -2
340
0
 93
        0
 40
0.045
309
GRIDFORMAT_END
309
TABLEFORMAT_END
  1
CELLSTYLE_BEGIN
 90
        1
 91
        1
300
_TITLE
309
CELLSTYLE_END
300
CELLSTYLE
  1
TABLEFORMAT_BEGIN
 90
        5
170
     1
 91
        0
 92
        0
 62
   257
 93
        1
300
CONTENTFORMAT
  1
CONTENTFORMAT_BEGIN
 90
        0
 91
        0
 92
      512
 93
        0
300

 40
0.0
140
1.0
 94
        5
 62
     0
340
11
144
0.18
309
CONTENTFORMAT_END
171
     1
301
MARGIN
  1
CELLMARGIN_BEGIN
 40
0.06
 40
0.06
 40
0.06
 40
0.06
 40
0.18
 40
0.18
309
CELLMARGIN_END
 94
        6
 95
        1
302
GRIDFORMAT
  1
GRIDFORMAT_BEGIN
 90
        0
 91
        1
 62
     0
 92
       -2
340
0
 93
        0
 40
0.045
309
GRIDFORMAT_END
 95
        2
302
GRIDFORMAT
  1
GRIDFORMAT_BEGIN
 90
        0
 91
        1
 62
     0
 92
       -2
340
0
 93
        0
 40
0.045
309
GRIDFORMAT_END
 95
        4
302
GRIDFORMAT
  1
GRIDFORMAT_BEGIN
 90
        0
 91
        1
 62
     0
 92
       -2
340
0
 93
        0
 40
0.045
309
GRIDFORMAT_END
 95
        8
302
GRIDFORMAT
  1
GRIDFORMAT_BEGIN
 90
        0
 91
        1
 62
     0
 92
       -2
340
0
 93
        0
 40
0.045
309
GRIDFORMAT_END
 95
       16
302
GRIDFORMAT
  1
GRIDFORMAT_BEGIN
 90
        0
 91
        1
 62
     0
 92
       -2
340
0
 93
        0
 40
0.045
309
GRIDFORMAT_END
 95
       32
302
GRIDFORMAT
  1
GRIDFORMAT_BEGIN
 90
        0
 91
        1
 62
     0
 92
       -2
340
0
 93
        0
 40
0.045
309
GRIDFORMAT_END
309
TABLEFORMAT_END
  1
CELLSTYLE_BEGIN
 90
        2
 91
        1
300
_HEADER
309
CELLSTYLE_END
300
CELLSTYLE
  1
TABLEFORMAT_BEGIN
 90
        5
170
     1
 91
        0
 92
        0
 62
   257
 93
        1
300
CONTENTFORMAT
  1
CONTENTFORMAT_BEGIN
 90
        0
 91
        0
 92
      512
 93
        0
300

 40
0.0
140
1.0
 94
        2
 62
     0
340
11
144
0.18
309
CONTENTFORMAT_END
171
     1
301
MARGIN
  1
CELLMARGIN_BEGIN
 40
0.06
 40
0.06
 40
0.06
 40
0.06
 40
0.18
 40
0.18
309
CELLMARGIN_END
 94
        6
 95
        1
302
GRIDFORMAT
  1
GRIDFORMAT_BEGIN
 90
        0
 91
        1
 62
     0
 92
       -2
340
0
 93
        0
 40
0.045
309
GRIDFORMAT_END
 95
        2
302
GRIDFORMAT
  1
GRIDFORMAT_BEGIN
 90
        0
 91
        1
 62
     0
 92
       -2
340
0
 93
        0
 40
0.045
309
GRIDFORMAT_END
 95
        4
302
GRIDFORMAT
  1
GRIDFORMAT_BEGIN
 90
        0
 91
        1
 62
     0
 92
       -2
340
0
 93
        0
 40
0.045
309
GRIDFORMAT_END
 95
        8
302
GRIDFORMAT
  1
GRIDFORMAT_BEGIN
 90
        0
 91
        1
 62
     0
 92
       -2
340
0
 93
        0
 40
0.045
309
GRIDFORMAT_END
 95
       16
302
GRIDFORMAT
  1
GRIDFORMAT_BEGIN
 90
        0
 91
        1
 62
     0
 92
       -2
340
0
 93
        0
 40
0.045
309
GRIDFORMAT_END
 95
       32
302
GRIDFORMAT
  1
GRIDFORMAT_BEGIN
 90
        0
 91
        1
 62
     0
 92
       -2
340
0
 93
        0
 40
0.045
309
GRIDFORMAT_END
309
TABLEFORMAT_END
  1
CELLSTYLE_BEGIN
 90
        3
 91
        2
300
_DATA
309
CELLSTYLE_END
  0
ENDSEC
  0
EOF
