  0
SECTION
  2
HEADER
  9
$ACADVER
  1
AC1027
  9
$ACADMAINTVER
 70
    55
  9
$DWGCODEPAGE
  3
ANSI_932
  9
$LASTSAVEDBY
  1
marketing
  9
$REQUIREDVERSIONS
160
                 0
  9
$INSBASE
 10
0.0
 20
0.0
 30
0.0
  9
$EXTMIN
 10
-83.96411608460175
 20
-359.9375006386506
 30
-0.0000000000112498
  9
$EXTMAX
 10
298.1391641800669
 20
280.2527357426636
 30
0.0000000000002956
  9
$LIMMIN
 10
-296.316999476111
 20
-370.7034300441653
  9
$LIMMAX
 10
623.3128432133979
 20
328.6261559379898
  9
$ORTHOMODE
 70
     1
  9
$REGENMODE
 70
     1
  9
$FILLMODE
 70
     1
  9
$QTEXTMODE
 70
     0
  9
$MIRRTEXT
 70
     1
  9
$LTSCALE
 40
10.0
  9
$ATTMODE
 70
     1
  9
$TEXTSIZE
 40
5.0
  9
$TRACEWID
 40
0.05
  9
$TEXTSTYLE
  7
STANDARD1
  9
$CLAYER
  8
30
  9
$CELTYPE
  6
CONTINUOUS
  9
$CECOLOR
 62
   256
  9
$CELTSCALE
 40
1.0
  9
$DISPSILH
 70
     0
  9
$DIMSCALE
 40
1.0
  9
$DIMASZ
 40
2.0
  9
$DIMEXO
 40
1.0
  9
$DIMDLI
 40
0.5
  9
$DIMRND
 40
0.0
  9
$DIMDLE
 40
0.0
  9
$DIMEXE
 40
0.5
  9
$DIMTP
 40
0.0
  9
$DIMTM
 40
0.0
  9
$DIMTXT
 40
4.0
  9
$DIMCEN
 40
0.09
  9
$DIMTSZ
 40
0.0
  9
$DIMTOL
 70
     0
  9
$DIMLIM
 70
     0
  9
$DIMTIH
 70
     0
  9
$DIMTOH
 70
     1
  9
$DIMSE1
 70
     0
  9
$DIMSE2
 70
     0
  9
$DIMTAD
 70
     3
  9
$DIMZIN
 70
    12
  9
$DIMBLK
  1
OPEN
  9
$DIMASO
 70
     1
  9
$DIMSHO
 70
     1
  9
$DIMPOST
  1

  9
$DIMAPOST
  1

  9
$DIMALT
 70
     0
  9
$DIMALTD
 70
     2
  9
$DIMALTF
 40
25.4
  9
$DIMLFAC
 40
1.0
  9
$DIMTOFL
 70
     0
  9
$DIMTVP
 40
0.0
  9
$DIMTIX
 70
     0
  9
$DIMSOXD
 70
     0
  9
$DIMSAH
 70
     0
  9
$DIMBLK1
  1

  9
$DIMBLK2
  1

  9
$DIMSTYLE
  2
STANDARD
  9
$DIMCLRD
 70
     0
  9
$DIMCLRE
 70
     0
  9
$DIMCLRT
 70
     0
  9
$DIMTFAC
 40
1.0
  9
$DIMGAP
 40
1.0
  9
$DIMJUST
 70
     0
  9
$DIMSD1
 70
     0
  9
$DIMSD2
 70
     0
  9
$DIMTOLJ
 70
     1
  9
$DIMTZIN
 70
     0
  9
$DIMALTZ
 70
     0
  9
$DIMALTTZ
 70
     0
  9
$DIMUPT
 70
     0
  9
$DIMDEC
 70
     1
  9
$DIMTDEC
 70
     1
  9
$DIMALTU
 70
     2
  9
$DIMALTTD
 70
     2
  9
$DIMTXSTY
  7
STANDARD
  9
$DIMAUNIT
 70
     0
  9
$DIMADEC
 70
     0
  9
$DIMALTRND
 40
0.0
  9
$DIMAZIN
 70
     3
  9
$DIMDSEP
 70
    46
  9
$DIMATFIT
 70
     3
  9
$DIMFRAC
 70
     0
  9
$DIMLDRBLK
  1
OPEN
  9
$DIMLUNIT
 70
     2
  9
$DIMLWD
 70
    -2
  9
$DIMLWE
 70
    -2
  9
$DIMTMOVE
 70
     0
  9
$DIMFXL
 40
1.0
  9
$DIMFXLON
 70
     0
  9
$DIMJOGANG
 40
0.7853981633974483
  9
$DIMTFILL
 70
     0
  9
$DIMTFILLCLR
 70
     0
  9
$DIMARCSYM
 70
     0
  9
$DIMLTYPE
  6

  9
$DIMLTEX1
  6

  9
$DIMLTEX2
  6

  9
$DIMTXTDIRECTION
 70
     0
  9
$LUNITS
 70
     2
  9
$LUPREC
 70
     4
  9
$SKETCHINC
 40
0.1
  9
$FILLETRAD
 40
0.0
  9
$AUNITS
 70
     0
  9
$AUPREC
 70
     0
  9
$MENU
  1
.
  9
$ELEVATION
 40
0.0
  9
$PELEVATION
 40
0.0
  9
$THICKNESS
 40
0.0
  9
$LIMCHECK
 70
     0
  9
$CHAMFERA
 40
0.0
  9
$CHAMFERB
 40
0.0
  9
$CHAMFERC
 40
0.0
  9
$CHAMFERD
 40
0.0
  9
$SKPOLY
 70
     0
  9
$TDCREATE
 40
2452286.555658658
  9
$TDUCREATE
 40
2452286.180658658
  9
$TDUPDATE
 40
2459278.588786782
  9
$TDUUPDATE
 40
2459278.213786782
  9
$TDINDWG
 40
1.3020494792
  9
$TDUSRTIMER
 40
1.3020482060
  9
$USRTIMER
 70
     1
  9
$ANGBASE
 50
0.0
  9
$ANGDIR
 70
     0
  9
$PDMODE
 70
     0
  9
$PDSIZE
 40
0.0
  9
$PLINEWID
 40
0.0
  9
$SPLFRAME
 70
     0
  9
$SPLINETYPE
 70
     6
  9
$SPLINESEGS
 70
     8
  9
$HANDSEED
  5
6D85
  9
$SURFTAB1
 70
     6
  9
$SURFTAB2
 70
     6
  9
$SURFTYPE
 70
     6
  9
$SURFU
 70
     6
  9
$SURFV
 70
     6
  9
$UCSBASE
  2

  9
$UCSNAME
  2

  9
$UCSORG
 10
0.0
 20
0.0
 30
0.0
  9
$UCSXDIR
 10
1.0
 20
0.0
 30
0.0
  9
$UCSYDIR
 10
0.0
 20
1.0
 30
0.0
  9
$UCSORTHOREF
  2

  9
$UCSORTHOVIEW
 70
     0
  9
$UCSORGTOP
 10
0.0
 20
0.0
 30
0.0
  9
$UCSORGBOTTOM
 10
0.0
 20
0.0
 30
0.0
  9
$UCSORGLEFT
 10
0.0
 20
0.0
 30
0.0
  9
$UCSORGRIGHT
 10
0.0
 20
0.0
 30
0.0
  9
$UCSORGFRONT
 10
0.0
 20
0.0
 30
0.0
  9
$UCSORGBACK
 10
0.0
 20
0.0
 30
0.0
  9
$PUCSBASE
  2

  9
$PUCSNAME
  2

  9
$PUCSORG
 10
0.0
 20
0.0
 30
0.0
  9
$PUCSXDIR
 10
1.0
 20
0.0
 30
0.0
  9
$PUCSYDIR
 10
0.0
 20
1.0
 30
0.0
  9
$PUCSORTHOREF
  2

  9
$PUCSORTHOVIEW
 70
     0
  9
$PUCSORGTOP
 10
0.0
 20
0.0
 30
0.0
  9
$PUCSORGBOTTOM
 10
0.0
 20
0.0
 30
0.0
  9
$PUCSORGLEFT
 10
0.0
 20
0.0
 30
0.0
  9
$PUCSORGRIGHT
 10
0.0
 20
0.0
 30
0.0
  9
$PUCSORGFRONT
 10
0.0
 20
0.0
 30
0.0
  9
$PUCSORGBACK
 10
0.0
 20
0.0
 30
0.0
  9
$USERI1
 70
     0
  9
$USERI2
 70
     0
  9
$USERI3
 70
     0
  9
$USERI4
 70
     0
  9
$USERI5
 70
     0
  9
$USERR1
 40
0.0
  9
$USERR2
 40
0.0
  9
$USERR3
 40
0.0
  9
$USERR4
 40
0.0
  9
$USERR5
 40
0.0
  9
$WORLDVIEW
 70
     1
  9
$SHADEDGE
 70
     3
  9
$SHADEDIF
 70
    70
  9
$TILEMODE
 70
     1
  9
$MAXACTVP
 70
    48
  9
$PINSBASE
 10
0.0
 20
0.0
 30
0.0
  9
$PLIMCHECK
 70
     0
  9
$PEXTMIN
 10
4.273573
 20
5.205245999999998
 30
0.0
  9
$PEXTMAX
 10
194.610095
 20
283.0697009999996
 30
0.0
  9
$PLIMMIN
 10
-5.873749
 20
-5.87375
  9
$PLIMMAX
 10
204.099579
 20
291.1369009999999
  9
$UNITMODE
 70
     0
  9
$VISRETAIN
 70
     1
  9
$PLINEGEN
 70
     0
  9
$PSLTSCALE
 70
     1
  9
$TREEDEPTH
 70
  3020
  9
$CMLSTYLE
  2
STANDARD
  9
$CMLJUST
 70
     0
  9
$CMLSCALE
 40
1.0
  9
$PROXYGRAPHICS
 70
     1
  9
$MEASUREMENT
 70
     0
  9
$CELWEIGHT
370
    -1
  9
$ENDCAPS
280
     0
  9
$JOINSTYLE
280
     0
  9
$LWDISPLAY
290
     0
  9
$INSUNITS
 70
     0
  9
$HYPERLINKBASE
  1

  9
$STYLESHEET
  1
MONOCHROME.CTB
  9
$XEDIT
290
     1
  9
$CEPSNTYPE
380
     0
  9
$PSTYLEMODE
290
     1
  9
$FINGERPRINTGUID
  2

  9
$VERSIONGUID
  2
{034818C5-1921-4C6A-9903-DC0BC84C09A5}
  9
$EXTNAMES
290
     1
  9
$PSVPSCALE
 40
0.0
  9
$OLESTARTUP
290
     0
  9
$SORTENTS
280
   127
  9
$INDEXCTL
280
     0
  9
$HIDETEXT
280
     0
  9
$XCLIPFRAME
280
     2
  9
$HALOGAP
280
     0
  9
$OBSCOLOR
 70
   257
  9
$OBSLTYPE
280
     0
  9
$INTERSECTIONDISPLAY
280
     0
  9
$INTERSECTIONCOLOR
 70
   257
  9
$DIMASSOC
280
     1
  9
$PROJECTNAME
  1

  9
$CAMERADISPLAY
290
     0
  9
$LENSLENGTH
 40
50.0
  9
$CAMERAHEIGHT
 40
0.0
  9
$STEPSPERSEC
 40
2.0
  9
$STEPSIZE
 40
6.0
  9
$3DDWFPREC
 40
2.0
  9
$PSOLWIDTH
 40
0.25
  9
$PSOLHEIGHT
 40
4.0
  9
$LOFTANG1
 40
1.570796326794896
  9
$LOFTANG2
 40
1.570796326794896
  9
$LOFTMAG1
 40
0.0
  9
$LOFTMAG2
 40
0.0
  9
$LOFTPARAM
 70
     7
  9
$LOFTNORMALS
280
     1
  9
$LATITUDE
 40
37.795
  9
$LONGITUDE
 40
-122.394
  9
$NORTHDIRECTION
 40
0.0
  9
$TIMEZONE
 70
 -8000
  9
$LIGHTGLYPHDISPLAY
280
     1
  9
$TILEMODELIGHTSYNCH
280
     1
  9
$CMATERIAL
347
69B1
  9
$SOLIDHIST
280
     0
  9
$SHOWHIST
280
     1
  9
$DWFFRAME
280
     2
  9
$DGNFRAME
280
     0
  9
$REALWORLDSCALE
290
     1
  9
$INTERFERECOLOR
 62
     1
  9
$INTERFEREOBJVS
345
69D3
  9
$INTERFEREVPVS
346
69D0
  9
$CSHADOW
280
     0
  9
$SHADOWPLANELOCATION
 40
0.0
  0
ENDSEC
  0
SECTION
  2
CLASSES
  0
CLASS
  1
ACDBDICTIONARYWDFLT
  2
AcDbDictionaryWithDefault
  3
ObjectDBX Classes
 90
        0
 91
        1
280
     0
281
     0
  0
CLASS
  1
DICTIONARYVAR
  2
AcDbDictionaryVar
  3
ObjectDBX Classes
 90
        0
 91
       13
280
     0
281
     0
  0
CLASS
  1
MATERIAL
  2
AcDbMaterial
  3
ObjectDBX Classes
 90
     1153
 91
        3
280
     0
281
     0
  0
CLASS
  1
VISUALSTYLE
  2
AcDbVisualStyle
  3
ObjectDBX Classes
 90
     4095
 91
       24
280
     0
281
     0
  0
CLASS
  1
TABLESTYLE
  2
AcDbTableStyle
  3
ObjectDBX Classes
 90
     4095
 91
        1
280
     0
281
     0
  0
CLASS
  1
SCALE
  2
AcDbScale
  3
ObjectDBX Classes
 90
     1153
 91
       17
280
     0
281
     0
  0
CLASS
  1
MLEADERSTYLE
  2
AcDbMLeaderStyle
  3
ACDB_MLEADERSTYLE_CLASS
 90
     4095
 91
        1
280
     0
281
     0
  0
CLASS
  1
ACDBSECTIONVIEWSTYLE
  2
AcDbSectionViewStyle
  3
ObjectDBX Classes
 90
     1025
 91
        1
280
     0
281
     0
  0
CLASS
  1
ACDBDETAILVIEWSTYLE
  2
AcDbDetailViewStyle
  3
ObjectDBX Classes
 90
     1025
 91
        1
280
     0
281
     0
  0
CLASS
  1
CELLSTYLEMAP
  2
AcDbCellStyleMap
  3
ObjectDBX Classes
 90
     1152
 91
        2
280
     0
281
     0
  0
ENDSEC
  0
SECTION
  2
TABLES
  0
TABLE
  2
VPORT
  5
8
330
0
100
AcDbSymbolTable
 70
     1
  0
VPORT
  5
69A8
330
8
100
AcDbSymbolTableRecord
100
AcDbViewportTableRecord
  2
*Active
 70
     0
 10
0.0
 20
0.0
 11
1.0
 21
1.0
 12
107.0875240477326
 22
-39.84238244799349
 13
0.0
 23
0.0
 14
1.0
 24
1.0
 15
10.0
 25
10.0
 16
0.0
 26
0.0
 36
1.0
 17
0.0
 27
0.0
 37
0.0
 40
644.818117608167
 41
2.289505428226779
 42
50.0
 43
0.0
 44
0.0
 50
0.0
 51
0.0
 71
     0
 72
   100
 73
     1
 74
     1
 75
     0
 76
     0
 77
     0
 78
     0
281
     0
 65
     1
110
0.0
120
0.0
130
0.0
111
1.0
121
0.0
131
0.0
112
0.0
122
1.0
132
0.0
 79
     0
146
0.0
348
69CF
 60
     3
 61
     5
292
     1
282
     1
141
0.0
142
0.0
 63
   250
421
  3355443
1001
ACAD_NAV_VCDISPLAY
1070
     3
  0
ENDTAB
  0
TABLE
  2
LTYPE
  5
5
330
0
100
AcDbSymbolTable
 70
     6
  0
LTYPE
  5
13
330
5
100
AcDbSymbolTableRecord
100
AcDbLinetypeTableRecord
  2
BYBLOCK
 70
     0
  3

 72
    65
 73
     0
 40
0.0
  0
LTYPE
  5
14
330
5
100
AcDbSymbolTableRecord
100
AcDbLinetypeTableRecord
  2
BYLAYER
 70
     0
  3

 72
    65
 73
     0
 40
0.0
  0
LTYPE
  5
15
330
5
100
AcDbSymbolTableRecord
100
AcDbLinetypeTableRecord
  2
CONTINUOUS
 70
     0
  3
Solid line
 72
    65
 73
     0
 40
0.0
  0
LTYPE
  5
22
330
5
100
AcDbSymbolTableRecord
100
AcDbLinetypeTableRecord
  2
CONTINOUS
 70
     0
  3
Solid line
 72
    65
 73
     0
 40
0.0
  0
LTYPE
  5
23
330
5
100
AcDbSymbolTableRecord
100
AcDbLinetypeTableRecord
  2
DASHED
 70
     0
  3
__ __ __ __ __ __ __ __ __ __ __ __ __ __ __
 72
    65
 73
     2
 40
0.75
 49
0.5
 74
     0
 49
-0.25
 74
     0
  0
LTYPE
  5
24
330
5
100
AcDbSymbolTableRecord
100
AcDbLinetypeTableRecord
  2
DASHDOT
 70
     0
  3
__ . __ . __ . __ . __ . __ . __ . __ . __ . __
 72
    65
 73
     4
 40
1.0
 49
0.5
 74
     0
 49
-0.25
 74
     0
 49
0.0
 74
     0
 49
-0.25
 74
     0
  0
LTYPE
  5
4C47
330
5
100
AcDbSymbolTableRecord
100
AcDbLinetypeTableRecord
  2
DIVIDE
 70
     0
  3
Divide ____ . . ____ . . ____ . . ____ . . ____
 72
    65
 73
     6
 40
1.25
 49
0.5
 74
     0
 49
-0.25
 74
     0
 49
0.0
 74
     0
 49
-0.25
 74
     0
 49
0.0
 74
     0
 49
-0.25
 74
     0
  0
ENDTAB
  0
TABLE
  2
LAYER
  5
2
330
0
100
AcDbSymbolTable
 70
    13
  0
LAYER
  5
10
102
{ACAD_XDICTIONARY
360
6A5A
102
}
330
2
100
AcDbSymbolTableRecord
100
AcDbLayerTableRecord
  2
0
 70
     0
 62
     7
  6
CONTINOUS
370
    -3
390
F
347
69C1
348
0
  0
LAYER
  5
2F
102
{ACAD_XDICTIONARY
360
6A5C
102
}
330
2
100
AcDbSymbolTableRecord
100
AcDbLayerTableRecord
  2
10
 70
     0
 62
     4
  6
CONTINOUS
370
    -3
390
F
347
69C1
348
0
  0
LAYER
  5
31
102
{ACAD_XDICTIONARY
360
6A5E
102
}
330
2
100
AcDbSymbolTableRecord
100
AcDbLayerTableRecord
  2
12
 70
     0
 62
     3
  6
CONTINOUS
370
    -3
390
F
347
69C1
348
0
  0
LAYER
  5
35
102
{ACAD_XDICTIONARY
360
6A60
102
}
330
2
100
AcDbSymbolTableRecord
100
AcDbLayerTableRecord
  2
16
 70
     0
 62
     6
  6
DASHDOT
370
    -3
390
F
347
69C1
348
0
  0
LAYER
  5
38
102
{ACAD_XDICTIONARY
360
6A62
102
}
330
2
100
AcDbSymbolTableRecord
100
AcDbLayerTableRecord
  2
19
 70
     0
 62
     7
  6
CONTINOUS
370
    -3
390
F
347
69C1
348
0
  0
LAYER
  5
3C
102
{ACAD_XDICTIONARY
360
6A64
102
}
330
2
100
AcDbSymbolTableRecord
100
AcDbLayerTableRecord
  2
11
 70
     0
 62
     1
  6
CONTINOUS
370
    -3
390
F
347
69C1
348
0
  0
LAYER
  5
3D
102
{ACAD_XDICTIONARY
360
6A66
102
}
330
2
100
AcDbSymbolTableRecord
100
AcDbLayerTableRecord
  2
24
 70
     0
 62
     2
  6
CONTINOUS
370
    -3
390
F
347
69C1
348
0
  0
LAYER
  5
3A2
102
{ACAD_XDICTIONARY
360
6A68
102
}
330
2
100
AcDbSymbolTableRecord
100
AcDbLayerTableRecord
  2
30
 70
     0
 62
     9
  6
CONTINUOUS
370
    -3
390
F
347
69C1
348
0
  0
LAYER
  5
3A4
330
2
100
AcDbSymbolTableRecord
100
AcDbLayerTableRecord
  2
DEFPOINTS
 70
     0
 62
     7
  6
CONTINUOUS
290
     0
370
    -3
390
F
347
69C1
348
0
  0
LAYER
  5
3BBA
102
{ACAD_XDICTIONARY
360
6A6A
102
}
330
2
100
AcDbSymbolTableRecord
100
AcDbLayerTableRecord
  2
18
 70
     0
 62
     5
  6
DIVIDE
370
    -3
390
F
347
69C1
348
0
  0
LAYER
  5
5116
102
{ACAD_XDICTIONARY
360
6A6C
102
}
330
2
100
AcDbSymbolTableRecord
100
AcDbLayerTableRecord
  2
1
 70
     0
 62
     7
  6
CONTINUOUS
370
    -3
390
F
347
69C1
348
0
  0
LAYER
  5
5117
102
{ACAD_XDICTIONARY
360
6A6E
102
}
330
2
100
AcDbSymbolTableRecord
100
AcDbLayerTableRecord
  2
TOP
 70
     0
 62
     7
  6
CONTINUOUS
370
    -3
390
F
347
69C1
348
0
  0
LAYER
  5
5C47
102
{ACAD_XDICTIONARY
360
6A70
102
}
330
2
100
AcDbSymbolTableRecord
100
AcDbLayerTableRecord
  2
17
 70
     0
 62
     2
  6
DASHDOT
370
    -3
390
F
347
69C1
348
0
  0
ENDTAB
  0
TABLE
  2
STYLE
  5
3
330
0
100
AcDbSymbolTable
 70
     3
  0
STYLE
  5
11
330
3
100
AcDbSymbolTableRecord
100
AcDbTextStyleTableRecord
  2
STANDARD
 70
     0
 40
0.0
 41
1.0
 50
0.0
 71
     0
 42
2.0
  3
txt.shx
  4
bigfont.shx
  0
STYLE
  5
42
330
3
100
AcDbSymbolTableRecord
100
AcDbTextStyleTableRecord
  2
STANDARD1
 70
     0
 40
0.0
 41
1.0
 50
0.0
 71
     0
 42
5.0
  3
MONOTXT
  4
BIGFONT
  0
STYLE
  5
5016
330
3
100
AcDbSymbolTableRecord
100
AcDbTextStyleTableRecord
  2
UGMTXT
 70
     0
 40
0.0
 41
1.0
 50
0.0
 71
     0
 42
0.2
  3
ugmtxt
  4
bigfont
  0
ENDTAB
  0
TABLE
  2
VIEW
  5
6
330
0
100
AcDbSymbolTable
 70
     3
  0
VIEW
  5
230C
330
6
100
AcDbSymbolTableRecord
100
AcDbViewTableRecord
  2
OLE1
 70
     0
 40
148.912488
 10
429.497628
 20
2.560627
 41
103.145806
 11
0.0
 21
0.0
 31
1.0
 12
0.0
 22
0.0
 32
0.0
 42
50.0
 43
0.0
 44
0.0
 50
0.0
 71
     0
281
     0
 72
     0
 73
     0
348
69CF
  0
VIEW
  5
230E
330
6
100
AcDbSymbolTableRecord
100
AcDbViewTableRecord
  2
OLE2
 70
     0
 40
170.778692
 10
322.66497
 20
-5.978304
 41
102.467215
 11
0.0
 21
0.0
 31
1.0
 12
0.0
 22
0.0
 32
0.0
 42
50.0
 43
0.0
 44
0.0
 50
0.0
 71
     0
281
     0
 72
     0
 73
     0
348
69CF
  0
VIEW
  5
23AA
330
6
100
AcDbSymbolTableRecord
100
AcDbViewTableRecord
  2
OLE3
 70
     0
 40
591.7897389999998
 10
84.79698199999999
 20
-46.09335999999998
 41
388.792096
 11
0.0
 21
0.0
 31
1.0
 12
0.0
 22
0.0
 32
0.0
 42
50.0
 43
0.0
 44
0.0
 50
0.0
 71
     0
281
     0
 72
     0
 73
     0
348
69CF
  0
ENDTAB
  0
TABLE
  2
UCS
  5
7
330
0
100
AcDbSymbolTable
 70
     0
  0
ENDTAB
  0
TABLE
  2
APPID
  5
9
330
0
100
AcDbSymbolTable
 70
     6
  0
APPID
  5
12
330
9
100
AcDbSymbolTableRecord
100
AcDbRegAppTableRecord
  2
ACAD
 70
     0
  0
APPID
  5
ECD
330
9
100
AcDbSymbolTableRecord
100
AcDbRegAppTableRecord
  2
CONTENTBLOCKICON
 70
     0
  0
APPID
  5
6A40
330
9
100
AcDbSymbolTableRecord
100
AcDbRegAppTableRecord
  2
ACAD_PSEXT
 70
     0
  0
APPID
  5
6A41
330
9
100
AcDbSymbolTableRecord
100
AcDbRegAppTableRecord
  2
ACAD_NAV_VCDISPLAY
 70
     0
  0
APPID
  5
6B0D
330
9
100
AcDbSymbolTableRecord
100
AcDbRegAppTableRecord
  2
ACAD_MLEADERVER
 70
     0
  0
APPID
  5
6B1A
330
9
100
AcDbSymbolTableRecord
100
AcDbRegAppTableRecord
  2
ACAD_EXEMPT_FROM_CAD_STANDARDS
 70
     0
  0
ENDTAB
  0
TABLE
  2
DIMSTYLE
  5
A
330
0
100
AcDbSymbolTable
 70
     1
100
AcDbDimStyleTable
 71
     1
340
175
  0
DIMSTYLE
105
175
102
{ACAD_REACTORS
330
59D1
330
59D0
330
59B9
330
59D2
330
59BE
330
59FD
330
59F0
330
59BB
330
59BA
330
5E29
330
5E42
330
5EF0
330
6116
330
614A
330
6157
330
6398
330
6472
330
647E
330
646C
330
66DA
330
6843
330
6BFA
330
6BFB
330
6BFC
330
6C0C
330
6C0D
330
6C0E
330
6C0F
102
}
330
A
100
AcDbSymbolTableRecord
100
AcDbDimStyleTableRecord
  2
STANDARD
 70
     0
 41
2.0
 42
1.0
 43
0.5
 44
0.5
 73
     0
 77
     3
 78
    12
140
4.0
147
1.0
271
     1
272
     1
340
11
341
3B2
342
3B2
  0
ENDTAB
  0
TABLE
  2
BLOCK_RECORD
  5
1
330
0
100
AcDbSymbolTable
 70
    57
  0
BLOCK_RECORD
  5
1E
102
{ACAD_XDICTIONARY
360
178
102
}
330
1
100
AcDbSymbolTableRecord
100
AcDbBlockTableRecord
  2
*MODEL_SPACE
340
69A3
 70
     0
280
     1
281
     0
  0
BLOCK_RECORD
  5
1A
102
{ACAD_XDICTIONARY
360
17A
102
}
330
1
100
AcDbSymbolTableRecord
100
AcDbBlockTableRecord
  2
*PAPER_SPACE
340
69A4
 70
     0
280
     1
281
     0
  0
BLOCK_RECORD
  5
3B2
330
1
100
AcDbSymbolTableRecord
100
AcDbBlockTableRecord
  2
_OPEN
340
0
102
{BLKREFS
331
6518
331
6519
331
6A54
331
6A55
331
6A06
331
6A07
331
6A13
331
6A14
331
694E
331
694F
331
62A5
331
62A6
331
652B
331
652C
331
64EB
331
64EC
331
64D1
331
64D9
331
64DA
331
664C
331
664D
331
6655
331
6656
331
64F4
331
64F5
331
6522
331
6523
331
64FD
331
64FE
331
6B69
331
6B6A
331
6B75
331
6B76
331
650F
331
6510
331
6534
331
6535
331
6546
331
6547
331
6551
331
6552
331
6319
331
631A
331
62FE
331
62FF
331
67E0
331
67E1
331
6389
331
638A
331
6A2D
331
6A2E
331
6A3A
331
6A3B
331
6A20
331
6A21
331
6B39
331
6B3A
331
6B45
331
6B46
331
6C72
331
6C73
331
6C7B
331
6C7C
331
6C84
331
6C85
331
6C8D
331
6C8E
331
6C96
331
6C97
331
6C9F
331
6CA0
331
6CA8
331
6CA9
331
6B81
331
6B82
331
6B51
331
6B52
331
6B5D
331
6B5E
331
6506
331
6507
331
665E
331
665F
331
6747
331
6748
331
693C
331
693D
331
6759
331
675A
331
6762
331
6763
331
67B2
331
67B3
331
67BC
331
67BD
331
681A
331
681B
331
6853
331
6854
331
6380
331
6381
331
6392
331
6393
331
67D7
331
67D8
102
}
 70
     0
280
     1
281
     0
  0
BLOCK_RECORD
  5
58CA
330
1
100
AcDbSymbolTableRecord
100
AcDbBlockTableRecord
  2
*U1
340
0
102
{BLKREFS
331
59F3
102
}
 70
     0
280
     1
281
     0
  0
BLOCK_RECORD
  5
58CE
330
1
100
AcDbSymbolTableRecord
100
AcDbBlockTableRecord
  2
*U2
340
0
102
{BLKREFS
331
59F2
102
}
 70
     0
280
     1
281
     0
  0
BLOCK_RECORD
  5
58DE
330
1
100
AcDbSymbolTableRecord
100
AcDbBlockTableRecord
  2
*U3
340
0
102
{BLKREFS
331
59F1
102
}
 70
     0
280
     1
281
     0
  0
BLOCK_RECORD
  5
5A00
330
1
100
AcDbSymbolTableRecord
100
AcDbBlockTableRecord
  2
*D4
340
0
 70
     0
280
     1
281
     0
  0
BLOCK_RECORD
  5
5A0C
330
1
100
AcDbSymbolTableRecord
100
AcDbBlockTableRecord
  2
*D5
340
0
 70
     0
280
     1
281
     0
  0
BLOCK_RECORD
  5
5A19
330
1
100
AcDbSymbolTableRecord
100
AcDbBlockTableRecord
  2
*D6
340
0
 70
     0
280
     1
281
     0
  0
BLOCK_RECORD
  5
5A25
330
1
100
AcDbSymbolTableRecord
100
AcDbBlockTableRecord
  2
*D7
340
0
 70
     0
280
     1
281
     0
  0
BLOCK_RECORD
  5
5A3D
330
1
100
AcDbSymbolTableRecord
100
AcDbBlockTableRecord
  2
*D8
340
0
 70
     0
280
     1
281
     0
  0
BLOCK_RECORD
  5
5A49
330
1
100
AcDbSymbolTableRecord
100
AcDbBlockTableRecord
  2
*D9
340
0
 70
     0
280
     1
281
     0
  0
BLOCK_RECORD
  5
5A55
330
1
100
AcDbSymbolTableRecord
100
AcDbBlockTableRecord
  2
*D10
340
0
 70
     0
280
     1
281
     0
  0
BLOCK_RECORD
  5
5A61
330
1
100
AcDbSymbolTableRecord
100
AcDbBlockTableRecord
  2
*D11
340
0
 70
     0
280
     1
281
     0
  0
BLOCK_RECORD
  5
5A6D
330
1
100
AcDbSymbolTableRecord
100
AcDbBlockTableRecord
  2
*D12
340
0
 70
     0
280
     1
281
     0
  0
BLOCK_RECORD
  5
5E7C
330
1
100
AcDbSymbolTableRecord
100
AcDbBlockTableRecord
  2
*D13
340
0
 70
     0
280
     1
281
     0
  0
BLOCK_RECORD
  5
5EA0
330
1
100
AcDbSymbolTableRecord
100
AcDbBlockTableRecord
  2
*D14
340
0
 70
     0
280
     1
281
     0
  0
BLOCK_RECORD
  5
5EF9
330
1
100
AcDbSymbolTableRecord
100
AcDbBlockTableRecord
  2
*D15
340
0
 70
     0
280
     1
281
     0
  0
BLOCK_RECORD
  5
5F6C
330
1
100
AcDbSymbolTableRecord
100
AcDbBlockTableRecord
  2
*D16
340
0
 70
     0
280
     1
281
     0
  0
BLOCK_RECORD
  5
5F79
330
1
100
AcDbSymbolTableRecord
100
AcDbBlockTableRecord
  2
*D17
340
0
 70
     0
280
     1
281
     0
  0
BLOCK_RECORD
  5
60FB
330
1
100
AcDbSymbolTableRecord
100
AcDbBlockTableRecord
  2
*D18
340
0
 70
     0
280
     1
281
     0
  0
BLOCK_RECORD
  5
6117
330
1
100
AcDbSymbolTableRecord
100
AcDbBlockTableRecord
  2
*D19
340
0
 70
     0
280
     1
281
     0
  0
BLOCK_RECORD
  5
614B
330
1
100
AcDbSymbolTableRecord
100
AcDbBlockTableRecord
  2
*D20
340
0
 70
     0
280
     1
281
     0
  0
BLOCK_RECORD
  5
6158
330
1
100
AcDbSymbolTableRecord
100
AcDbBlockTableRecord
  2
*D21
340
0
 70
     0
280
     1
281
     0
  0
BLOCK_RECORD
  5
6399
330
1
100
AcDbSymbolTableRecord
100
AcDbBlockTableRecord
  2
*D22
340
0
 70
     0
280
     1
281
     0
  0
BLOCK_RECORD
  5
648D
330
1
100
AcDbSymbolTableRecord
100
AcDbBlockTableRecord
  2
*D23
340
0
 70
     0
280
     1
281
     0
  0
BLOCK_RECORD
  5
6499
330
1
100
AcDbSymbolTableRecord
100
AcDbBlockTableRecord
  2
*D24
340
0
 70
     0
280
     1
281
     0
  0
BLOCK_RECORD
  5
64A4
330
1
100
AcDbSymbolTableRecord
100
AcDbBlockTableRecord
  2
*D25
340
0
 70
     0
280
     1
281
     0
  0
BLOCK_RECORD
  5
6625
330
1
100
AcDbSymbolTableRecord
100
AcDbBlockTableRecord
  2
*D26
340
0
 70
     0
280
     1
281
     0
  0
BLOCK_RECORD
  5
6631
330
1
100
AcDbSymbolTableRecord
100
AcDbBlockTableRecord
  2
*D27
340
0
 70
     0
280
     1
281
     0
  0
BLOCK_RECORD
  5
663D
330
1
100
AcDbSymbolTableRecord
100
AcDbBlockTableRecord
  2
*D28
340
0
 70
     0
280
     1
281
     0
  0
BLOCK_RECORD
  5
6714
330
1
100
AcDbSymbolTableRecord
100
AcDbBlockTableRecord
  2
*D29
340
0
 70
     0
280
     1
281
     0
  0
BLOCK_RECORD
  5
6720
330
1
100
AcDbSymbolTableRecord
100
AcDbBlockTableRecord
  2
*D30
340
0
 70
     0
280
     1
281
     0
  0
BLOCK_RECORD
  5
672C
330
1
100
AcDbSymbolTableRecord
100
AcDbBlockTableRecord
  2
*D31
340
0
 70
     0
280
     1
281
     0
  0
BLOCK_RECORD
  5
6738
330
1
100
AcDbSymbolTableRecord
100
AcDbBlockTableRecord
  2
*D32
340
0
 70
     0
280
     1
281
     0
  0
BLOCK_RECORD
  5
6796
330
1
100
AcDbSymbolTableRecord
100
AcDbBlockTableRecord
  2
*D33
340
0
 70
     0
280
     1
281
     0
  0
BLOCK_RECORD
  5
67A2
330
1
100
AcDbSymbolTableRecord
100
AcDbBlockTableRecord
  2
*D34
340
0
 70
     0
280
     1
281
     0
  0
BLOCK_RECORD
  5
6816
330
1
100
AcDbSymbolTableRecord
100
AcDbBlockTableRecord
  2
*D35
340
0
 70
     0
280
     1
281
     0
  0
BLOCK_RECORD
  5
6844
330
1
100
AcDbSymbolTableRecord
100
AcDbBlockTableRecord
  2
*D36
340
0
 70
     0
280
     1
281
     0
  0
BLOCK_RECORD
  5
6A00
330
1
100
AcDbSymbolTableRecord
100
AcDbBlockTableRecord
  2
*D37
340
0
 70
     0
280
     1
281
     0
  0
BLOCK_RECORD
  5
6A0D
330
1
100
AcDbSymbolTableRecord
100
AcDbBlockTableRecord
  2
*D38
340
0
 70
     0
280
     1
281
     0
  0
BLOCK_RECORD
  5
6A1A
330
1
100
AcDbSymbolTableRecord
100
AcDbBlockTableRecord
  2
*D39
340
0
 70
     0
280
     1
281
     0
  0
BLOCK_RECORD
  5
6A27
330
1
100
AcDbSymbolTableRecord
100
AcDbBlockTableRecord
  2
*D40
340
0
 70
     0
280
     1
281
     0
  0
BLOCK_RECORD
  5
6A34
330
1
100
AcDbSymbolTableRecord
100
AcDbBlockTableRecord
  2
*D41
340
0
 70
     0
280
     1
281
     0
  0
BLOCK_RECORD
  5
6A4E
330
1
100
AcDbSymbolTableRecord
100
AcDbBlockTableRecord
  2
*D42
340
0
 70
     0
280
     1
281
     0
  0
BLOCK_RECORD
  5
6B34
330
1
100
AcDbSymbolTableRecord
100
AcDbBlockTableRecord
  2
*D43
340
0
 70
     0
280
     1
281
     0
  0
BLOCK_RECORD
  5
6B40
330
1
100
AcDbSymbolTableRecord
100
AcDbBlockTableRecord
  2
*D44
340
0
 70
     0
280
     1
281
     0
  0
BLOCK_RECORD
  5
6B4C
330
1
100
AcDbSymbolTableRecord
100
AcDbBlockTableRecord
  2
*D45
340
0
 70
     0
280
     1
281
     0
  0
BLOCK_RECORD
  5
6B58
330
1
100
AcDbSymbolTableRecord
100
AcDbBlockTableRecord
  2
*D46
340
0
 70
     0
280
     1
281
     0
  0
BLOCK_RECORD
  5
6B64
330
1
100
AcDbSymbolTableRecord
100
AcDbBlockTableRecord
  2
*D47
340
0
 70
     0
280
     1
281
     0
  0
BLOCK_RECORD
  5
6B70
330
1
100
AcDbSymbolTableRecord
100
AcDbBlockTableRecord
  2
*D48
340
0
 70
     0
280
     1
281
     0
  0
BLOCK_RECORD
  5
6B7C
330
1
100
AcDbSymbolTableRecord
100
AcDbBlockTableRecord
  2
*D49
340
0
 70
     0
280
     1
281
     0
  0
BLOCK_RECORD
  5
6C1B
330
1
100
AcDbSymbolTableRecord
100
AcDbBlockTableRecord
  2
*D50
340
0
 70
     0
280
     1
281
     0
  0
BLOCK_RECORD
  5
6C27
330
1
100
AcDbSymbolTableRecord
100
AcDbBlockTableRecord
  2
*D51
340
0
 70
     0
280
     1
281
     0
  0
BLOCK_RECORD
  5
6C33
330
1
100
AcDbSymbolTableRecord
100
AcDbBlockTableRecord
  2
*D52
340
0
 70
     0
280
     1
281
     0
  0
BLOCK_RECORD
  5
6C3F
330
1
100
AcDbSymbolTableRecord
100
AcDbBlockTableRecord
  2
*D53
340
0
 70
     0
280
     1
281
     0
  0
BLOCK_RECORD
  5
6C4B
330
1
100
AcDbSymbolTableRecord
100
AcDbBlockTableRecord
  2
*D54
340
0
 70
     0
280
     1
281
     0
  0
BLOCK_RECORD
  5
6C57
330
1
100
AcDbSymbolTableRecord
100
AcDbBlockTableRecord
  2
*D55
340
0
 70
     0
280
     1
281
     0
  0
BLOCK_RECORD
  5
6C63
330
1
100
AcDbSymbolTableRecord
100
AcDbBlockTableRecord
  2
*D56
340
0
 70
     0
280
     1
281
     0
  0
ENDTAB
  0
ENDSEC
  0
SECTION
  2
BLOCKS
  0
BLOCK
  5
1F
330
1E
100
AcDbEntity
  8
0
100
AcDbBlockBegin
  2
*MODEL_SPACE
 70
     0
 10
0.0
 20
0.0
 30
0.0
  3
*MODEL_SPACE
  1

  0
ENDBLK
  5
20
330
1E
100
AcDbEntity
  8
0
100
AcDbBlockEnd
  0
BLOCK
  5
1B
330
1A
100
AcDbEntity
 67
     1
  8
0
100
AcDbBlockBegin
  2
*PAPER_SPACE
 70
     0
 10
0.0
 20
0.0
 30
0.0
  3
*PAPER_SPACE
  1

  0
ENDBLK
  5
1C
330
1A
100
AcDbEntity
 67
     1
  8
0
100
AcDbBlockEnd
  0
BLOCK
  5
3B6
330
3B2
100
AcDbEntity
  8
0
100
AcDbBlockBegin
  2
_OPEN
 70
     0
 10
0.0
 20
0.0
 30
0.0
  3
_OPEN
  1

  0
LINE
  5
3B3
330
3B2
100
AcDbEntity
  8
30
  6
Continuous
 62
     0
100
AcDbLine
 10
-1.0
 20
0.166667
 30
0.0
 11
0.0
 21
0.0
 31
0.0
  0
LINE
  5
3B4
330
3B2
100
AcDbEntity
  8
30
  6
Continuous
 62
     0
100
AcDbLine
 10
-1.0
 20
-0.166667
 30
0.0
 11
0.0
 21
0.0
 31
0.0
  0
LINE
  5
3B5
330
3B2
100
AcDbEntity
  8
30
  6
Continuous
 62
     0
100
AcDbLine
 10
0.0
 20
0.0
 30
0.0
 11
-1.0
 21
0.0
 31
0.0
  0
ENDBLK
  5
3B7
330
3B2
100
AcDbEntity
  8
0
100
AcDbBlockEnd
  0
BLOCK
  5
58CC
330
58CA
100
AcDbEntity
  8
TOP
  6
Continuous
 62
     4
100
AcDbBlockBegin
  2
*U1
 70
     1
 10
0.0
 20
0.0
 30
0.0
  3
*U1
  1

  0
TEXT
  5
58CB
330
58CA
100
AcDbEntity
  8
TOP
  6
ByBlock
 62
     0
100
AcDbText
 10
249.4949984839538
 20
103.4999999999999
 30
0.0
 40
2.500000003799998
  1
17
 41
0.78325
  7
UGMTXT
100
AcDbText
  0
ENDBLK
  5
58CD
330
58CA
100
AcDbEntity
  8
0
100
AcDbBlockEnd
  0
BLOCK
  5
58D0
330
58CE
100
AcDbEntity
  8
TOP
  6
Continuous
 62
     4
100
AcDbBlockBegin
  2
*U2
 70
     1
 10
0.0
 20
0.0
 30
0.0
  3
*U2
  1

  0
TEXT
  5
58CF
330
58CE
100
AcDbEntity
  8
TOP
  6
ByBlock
 62
     0
100
AcDbText
 10
252.6153110179847
 20
103.4999999999999
 30
0.0
 40
2.500000003799998
  1
(max.)
 41
0.7263970588235275
  7
UGMTXT
100
AcDbText
  0
ENDBLK
  5
58D1
330
58CE
100
AcDbEntity
  8
0
100
AcDbBlockEnd
  0
BLOCK
  5
58E0
330
58DE
100
AcDbEntity
  8
TOP
  6
Continuous
 62
     4
100
AcDbBlockBegin
  2
*U3
 70
     1
 10
0.0
 20
0.0
 30
0.0
  3
*U3
  1

  0
TEXT
  5
58DF
330
58DE
100
AcDbEntity
  8
TOP
  6
ByBlock
 62
     0
100
AcDbText
 10
250.6153110179847
 20
99.29999999999997
 30
0.0
 40
2.500000003799998
  1
max.t5
 41
0.7263970588235275
  7
UGMTXT
100
AcDbText
  0
ENDBLK
  5
58E1
330
58DE
100
AcDbEntity
  8
0
100
AcDbBlockEnd
  0
BLOCK
  5
5A0A
330
5A00
100
AcDbEntity
  8
0
100
AcDbBlockBegin
  2
*D4
 70
     1
 10
0.0
 20
0.0
 30
0.0
  3
*D4
  1

  0
LINE
  5
64F1
330
5A00
100
AcDbEntity
  8
30
  6
Continuous
 62
     0
440
 16777216
100
AcDbLine
 10
125.9923778520064
 20
-0.9897074468965454
 30
0.0
 11
125.9923778520064
 21
-136.7757960792594
 31
0.0
  0
LINE
  5
64F2
330
5A00
100
AcDbEntity
  8
30
  6
Continuous
 62
     0
440
 16777216
100
AcDbLine
 10
217.9923778520064
 20
-78.48970744689656
 30
0.0
 11
217.9923778520064
 21
-136.7757960792594
 31
0.0
  0
LINE
  5
64F3
330
5A00
100
AcDbEntity
  8
30
  6
Continuous
 62
     0
440
 16777216
100
AcDbLine
 10
127.9923778520065
 20
-136.2757960792595
 30
0.0
 11
215.9923778520064
 21
-136.2757960792595
 31
0.0
  0
INSERT
  5
64F4
330
5A00
100
AcDbEntity
  8
30
  6
Continuous
 62
     0
440
 16777216
100
AcDbBlockReference
  2
_OPEN
 10
125.9923778520064
 20
-136.2757960792595
 30
0.0
 41
2.0
 42
2.0
 43
2.0
 50
180.0
  0
INSERT
  5
64F5
330
5A00
100
AcDbEntity
  8
30
  6
Continuous
 62
     0
440
 16777216
100
AcDbBlockReference
  2
_OPEN
 10
217.9923778520064
 20
-136.2757960792595
 30
0.0
 41
2.0
 42
2.0
 43
2.0
  0
MTEXT
  5
64F6
330
5A00
100
AcDbEntity
  8
30
  6
Continuous
 62
     0
440
 16777216
100
AcDbMText
 10
171.9923778520064
 20
-133.2757960792595
 30
0.0
 40
4.0
 41
0.0
 46
0.0
 71
     5
 72
     1
  1
\A1;92
 73
     1
 44
1.0
1001
ACAD
1000
MTEXTBEGIN
1070
    73
1070
     1
1070
    44
1040
1.0
1070
    74
1070
     0
1000
MTEXTEND
  0
POINT
  5
64F7
330
5A00
100
AcDbEntity
  8
DEFPOINTS
  6
Continuous
 62
     0
440
 16777216
100
AcDbPoint
 10
125.9923778520064
 20
0.0102925531034544
 30
0.0
  0
POINT
  5
64F8
330
5A00
100
AcDbEntity
  8
DEFPOINTS
  6
Continuous
 62
     0
440
 16777216
100
AcDbPoint
 10
217.9923778520064
 20
-77.48970744689656
 30
0.0
  0
POINT
  5
64F9
330
5A00
100
AcDbEntity
  8
DEFPOINTS
  6
Continuous
 62
     0
440
 16777216
100
AcDbPoint
 10
217.9923778520064
 20
-136.2757960792595
 30
0.0
  0
ENDBLK
  5
5A0B
330
5A00
100
AcDbEntity
  8
0
100
AcDbBlockEnd
  0
BLOCK
  5
5A17
330
5A0C
100
AcDbEntity
  8
0
100
AcDbBlockBegin
  2
*D5
 70
     1
 10
0.0
 20
0.0
 30
0.0
  3
*D5
  1

  0
LINE
  5
651E
330
5A0C
100
AcDbEntity
  8
30
  6
Continuous
 62
     0
440
 16777216
100
AcDbLine
 10
141.9923778520064
 20
-25.98970744689655
 30
0.0
 11
141.9923778520064
 21
-122.3996550098397
 31
0.0
  0
LINE
  5
651F
330
5A0C
100
AcDbEntity
  8
30
  6
Continuous
 62
     0
440
 16777216
100
AcDbLine
 10
145.9923778520064
 20
-25.98970744689655
 30
0.0
 11
145.9923778520064
 21
-122.3996550098397
 31
0.0
  0
LINE
  5
6520
330
5A0C
100
AcDbEntity
  8
30
  6
Continuous
 62
     0
440
 16777216
100
AcDbLine
 10
139.9923778520063
 20
-121.8996550098397
 30
0.0
 11
137.9923778520063
 21
-121.8996550098397
 31
0.0
  0
LINE
  5
6521
330
5A0C
100
AcDbEntity
  8
30
  6
Continuous
 62
     0
440
 16777216
100
AcDbLine
 10
147.9923778520064
 20
-121.8996550098397
 30
0.0
 11
154.659044518673
 21
-121.8996550098397
 31
0.0
  0
INSERT
  5
6522
330
5A0C
100
AcDbEntity
  8
30
  6
Continuous
 62
     0
440
 16777216
100
AcDbBlockReference
  2
_OPEN
 10
141.9923778520064
 20
-121.8996550098397
 30
0.0
 41
2.0
 42
2.0
 43
2.0
  0
INSERT
  5
6523
330
5A0C
100
AcDbEntity
  8
30
  6
Continuous
 62
     0
440
 16777216
100
AcDbBlockReference
  2
_OPEN
 10
145.9923778520064
 20
-121.8996550098397
 30
0.0
 41
2.0
 42
2.0
 43
2.0
 50
180.0
  0
MTEXT
  5
6524
330
5A0C
100
AcDbEntity
  8
30
  6
Continuous
 62
     0
440
 16777216
100
AcDbMText
 10
152.3257111853398
 20
-118.8996550098394
 30
0.0
 40
4.0
 41
0.0
 46
0.0
 71
     5
 72
     1
  1
\A1;4
 73
     1
 44
1.0
1001
ACAD
1000
MTEXTBEGIN
1070
    73
1070
     1
1070
    44
1040
1.0
1070
    74
1070
     0
1000
MTEXTEND
  0
POINT
  5
6525
330
5A0C
100
AcDbEntity
  8
DEFPOINTS
  6
Continuous
 62
     0
440
 16777216
100
AcDbPoint
 10
141.9923778520064
 20
-24.98970744689656
 30
0.0
  0
POINT
  5
6526
330
5A0C
100
AcDbEntity
  8
DEFPOINTS
  6
Continuous
 62
     0
440
 16777216
100
AcDbPoint
 10
145.9923778520064
 20
-24.98970744689656
 30
0.0
  0
POINT
  5
6527
330
5A0C
100
AcDbEntity
  8
DEFPOINTS
  6
Continuous
 62
     0
440
 16777216
100
AcDbPoint
 10
145.9923778520064
 20
-121.8996550098397
 30
0.0
  0
ENDBLK
  5
5A18
330
5A0C
100
AcDbEntity
  8
0
100
AcDbBlockEnd
  0
BLOCK
  5
5A23
330
5A19
100
AcDbEntity
  8
0
100
AcDbBlockBegin
  2
*D6
 70
     1
 10
0.0
 20
0.0
 30
0.0
  3
*D6
  1

  0
LINE
  5
64FA
330
5A19
100
AcDbEntity
  8
30
  6
Continuous
 62
     0
440
 16777216
100
AcDbLine
 10
145.9923778520064
 20
-25.98970744689655
 30
0.0
 11
145.9923778520064
 21
-122.3996550098397
 31
0.0
  0
LINE
  5
64FB
330
5A19
100
AcDbEntity
  8
30
  6
Continuous
 62
     0
440
 16777216
100
AcDbLine
 10
217.9923778520064
 20
-78.48970744689656
 30
0.0
 11
217.9923778520064
 21
-122.3996550098397
 31
0.0
  0
LINE
  5
64FC
330
5A19
100
AcDbEntity
  8
30
  6
Continuous
 62
     0
440
 16777216
100
AcDbLine
 10
147.9923778520064
 20
-121.8996550098397
 30
0.0
 11
215.9923778520064
 21
-121.8996550098397
 31
0.0
  0
INSERT
  5
64FD
330
5A19
100
AcDbEntity
  8
30
  6
Continuous
 62
     0
440
 16777216
100
AcDbBlockReference
  2
_OPEN
 10
145.9923778520064
 20
-121.8996550098397
 30
0.0
 41
2.0
 42
2.0
 43
2.0
 50
180.0
  0
INSERT
  5
64FE
330
5A19
100
AcDbEntity
  8
30
  6
Continuous
 62
     0
440
 16777216
100
AcDbBlockReference
  2
_OPEN
 10
217.9923778520064
 20
-121.8996550098397
 30
0.0
 41
2.0
 42
2.0
 43
2.0
  0
MTEXT
  5
64FF
330
5A19
100
AcDbEntity
  8
30
  6
Continuous
 62
     0
440
 16777216
100
AcDbMText
 10
181.9923778520064
 20
-118.8996550098394
 30
0.0
 40
4.0
 41
0.0
 46
0.0
 71
     5
 72
     1
  1
\A1;72
 73
     1
 44
1.0
1001
ACAD
1000
MTEXTBEGIN
1070
    73
1070
     1
1070
    44
1040
1.0
1070
    74
1070
     0
1000
MTEXTEND
  0
POINT
  5
6500
330
5A19
100
AcDbEntity
  8
DEFPOINTS
  6
Continuous
 62
     0
440
 16777216
100
AcDbPoint
 10
145.9923778520064
 20
-24.98970744689656
 30
0.0
  0
POINT
  5
6501
330
5A19
100
AcDbEntity
  8
DEFPOINTS
  6
Continuous
 62
     0
440
 16777216
100
AcDbPoint
 10
217.9923778520064
 20
-77.48970744689656
 30
0.0
  0
POINT
  5
6502
330
5A19
100
AcDbEntity
  8
DEFPOINTS
  6
Continuous
 62
     0
440
 16777216
100
AcDbPoint
 10
217.9923778520064
 20
-121.8996550098397
 30
0.0
  0
ENDBLK
  5
5A24
330
5A19
100
AcDbEntity
  8
0
100
AcDbBlockEnd
  0
BLOCK
  5
5A2F
330
5A25
100
AcDbEntity
  8
0
100
AcDbBlockBegin
  2
*D7
 70
     1
 10
0.0
 20
0.0
 30
0.0
  3
*D7
  1

  0
LINE
  5
6515
330
5A25
100
AcDbEntity
  8
30
  6
Continuous
 62
     0
440
 16777216
100
AcDbLine
 10
140.9923778520064
 20
-24.98970744689656
 30
0.0
 11
112.8096155908131
 21
-24.98970744689652
 31
0.0
  0
LINE
  5
6516
330
5A25
100
AcDbEntity
  8
30
  6
Continuous
 62
     0
440
 16777216
100
AcDbLine
 10
140.9923778520064
 20
25.01029255310343
 30
0.0
 11
112.8096155908131
 21
25.01029255310343
 31
0.0
  0
LINE
  5
6517
330
5A25
100
AcDbEntity
  8
30
  6
Continuous
 62
     0
440
 16777216
100
AcDbLine
 10
113.3096155908132
 20
-22.98970744689654
 30
0.0
 11
113.3096155908132
 21
23.01029255310342
 31
0.0
  0
INSERT
  5
6518
330
5A25
100
AcDbEntity
  8
30
  6
Continuous
 62
     0
440
 16777216
100
AcDbBlockReference
  2
_OPEN
 10
113.3096155908132
 20
-24.98970744689652
 30
0.0
 41
2.0
 42
2.0
 43
2.0
 50
270.0
  0
INSERT
  5
6519
330
5A25
100
AcDbEntity
  8
30
  6
Continuous
 62
     0
440
 16777216
100
AcDbBlockReference
  2
_OPEN
 10
113.3096155908132
 20
25.01029255310343
 30
0.0
 41
2.0
 42
2.0
 43
2.0
 50
90.0
  0
MTEXT
  5
651A
330
5A25
100
AcDbEntity
  8
30
  6
Continuous
 62
     0
440
 16777216
100
AcDbMText
 10
110.3096155908132
 20
0.010292553103462
 30
0.0
 40
4.0
 41
0.0
 46
0.0
 71
     5
 72
     1
  1
\A1;50
 11
0.0000000000000001
 21
1.0
 31
0.0
 73
     1
 44
1.0
1001
ACAD
1000
MTEXTBEGIN
1070
    73
1070
     1
1070
    44
1040
1.0
1070
    74
1070
     0
1000
MTEXTEND
  0
POINT
  5
651B
330
5A25
100
AcDbEntity
  8
DEFPOINTS
  6
Continuous
 62
     0
440
 16777216
100
AcDbPoint
 10
141.9923778520064
 20
-24.98970744689656
 30
0.0
  0
POINT
  5
651C
330
5A25
100
AcDbEntity
  8
DEFPOINTS
  6
Continuous
 62
     0
440
 16777216
100
AcDbPoint
 10
141.9923778520064
 20
25.01029255310343
 30
0.0
  0
POINT
  5
651D
330
5A25
100
AcDbEntity
  8
DEFPOINTS
  6
Continuous
 62
     0
440
 16777216
100
AcDbPoint
 10
113.3096155908132
 20
25.01029255310343
 30
0.0
  0
ENDBLK
  5
5A30
330
5A25
100
AcDbEntity
  8
0
100
AcDbBlockEnd
  0
BLOCK
  5
5A47
330
5A3D
100
AcDbEntity
  8
0
100
AcDbBlockBegin
  2
*D8
 70
     1
 10
0.0
 20
0.0
 30
0.0
  3
*D8
  1

  0
LINE
  5
6503
330
5A3D
100
AcDbEntity
  8
30
  6
Continuous
 62
     0
440
 16777216
100
AcDbLine
 10
149.9923778520065
 20
-51.98970744689663
 30
0.0
 11
149.9923778520065
 21
-109.9248887595565
 31
0.0
  0
LINE
  5
6504
330
5A3D
100
AcDbEntity
  8
30
  6
Continuous
 62
     0
440
 16777216
100
AcDbLine
 10
217.9923778520064
 20
-78.48970744689656
 30
0.0
 11
217.9923778520064
 21
-109.9248887595565
 31
0.0
  0
LINE
  5
6505
330
5A3D
100
AcDbEntity
  8
30
  6
Continuous
 62
     0
440
 16777216
100
AcDbLine
 10
151.9923778520064
 20
-109.4248887595564
 30
0.0
 11
215.9923778520064
 21
-109.4248887595564
 31
0.0
  0
INSERT
  5
6506
330
5A3D
100
AcDbEntity
  8
30
  6
Continuous
 62
     0
440
 16777216
100
AcDbBlockReference
  2
_OPEN
 10
149.9923778520065
 20
-109.4248887595564
 30
0.0
 41
2.0
 42
2.0
 43
2.0
 50
180.0
  0
INSERT
  5
6507
330
5A3D
100
AcDbEntity
  8
30
  6
Continuous
 62
     0
440
 16777216
100
AcDbBlockReference
  2
_OPEN
 10
217.9923778520064
 20
-109.4248887595564
 30
0.0
 41
2.0
 42
2.0
 43
2.0
  0
MTEXT
  5
6508
330
5A3D
100
AcDbEntity
  8
30
  6
Continuous
 62
     0
440
 16777216
100
AcDbMText
 10
183.9923778520064
 20
-106.4248887595564
 30
0.0
 40
4.0
 41
0.0
 46
0.0
 71
     5
 72
     1
  1
\A1;68
 73
     1
 44
1.0
1001
ACAD
1000
MTEXTBEGIN
1070
    73
1070
     1
1070
    44
1040
1.0
1070
    74
1070
     0
1000
MTEXTEND
  0
POINT
  5
6509
330
5A3D
100
AcDbEntity
  8
DEFPOINTS
  6
Continuous
 62
     0
440
 16777216
100
AcDbPoint
 10
149.9923778520065
 20
-50.98970744689665
 30
0.0
  0
POINT
  5
650A
330
5A3D
100
AcDbEntity
  8
DEFPOINTS
  6
Continuous
 62
     0
440
 16777216
100
AcDbPoint
 10
217.9923778520064
 20
-77.48970744689656
 30
0.0
  0
POINT
  5
650B
330
5A3D
100
AcDbEntity
  8
DEFPOINTS
  6
Continuous
 62
     0
440
 16777216
100
AcDbPoint
 10
217.9923778520064
 20
-109.4248887595564
 30
0.0
  0
ENDBLK
  5
5A48
330
5A3D
100
AcDbEntity
  8
0
100
AcDbBlockEnd
  0
BLOCK
  5
5A53
330
5A49
100
AcDbEntity
  8
0
100
AcDbBlockBegin
  2
*D9
 70
     1
 10
0.0
 20
0.0
 30
0.0
  3
*D9
  1

  0
LINE
  5
650C
330
5A49
100
AcDbEntity
  8
30
  6
Continuous
 62
     0
440
 16777216
100
AcDbLine
 10
156.9923778520063
 20
-78.48970744689656
 30
0.0
 11
156.9923778520063
 21
-98.33544422304399
 31
0.0
  0
LINE
  5
650D
330
5A49
100
AcDbEntity
  8
30
  6
Continuous
 62
     0
440
 16777216
100
AcDbLine
 10
217.9923778520064
 20
-78.48970744689656
 30
0.0
 11
217.9923778520064
 21
-98.33544422304399
 31
0.0
  0
LINE
  5
650E
330
5A49
100
AcDbEntity
  8
30
  6
Continuous
 62
     0
440
 16777216
100
AcDbLine
 10
158.9923778520063
 20
-97.83544422304402
 30
0.0
 11
215.9923778520064
 21
-97.83544422304402
 31
0.0
  0
INSERT
  5
650F
330
5A49
100
AcDbEntity
  8
30
  6
Continuous
 62
     0
440
 16777216
100
AcDbBlockReference
  2
_OPEN
 10
156.9923778520063
 20
-97.83544422304402
 30
0.0
 41
2.0
 42
2.0
 43
2.0
 50
180.0
  0
INSERT
  5
6510
330
5A49
100
AcDbEntity
  8
30
  6
Continuous
 62
     0
440
 16777216
100
AcDbBlockReference
  2
_OPEN
 10
217.9923778520064
 20
-97.83544422304402
 30
0.0
 41
2.0
 42
2.0
 43
2.0
  0
MTEXT
  5
6511
330
5A49
100
AcDbEntity
  8
30
  6
Continuous
 62
     0
440
 16777216
100
AcDbMText
 10
187.4923778520065
 20
-94.83544422304399
 30
0.0
 40
4.0
 41
0.0
 46
0.0
 71
     5
 72
     1
  1
\A1;61
 73
     1
 44
1.0
1001
ACAD
1000
MTEXTBEGIN
1070
    73
1070
     1
1070
    44
1040
1.0
1070
    74
1070
     0
1000
MTEXTEND
  0
POINT
  5
6512
330
5A49
100
AcDbEntity
  8
DEFPOINTS
  6
Continuous
 62
     0
440
 16777216
100
AcDbPoint
 10
156.9923778520063
 20
-77.48970744689656
 30
0.0
  0
POINT
  5
6513
330
5A49
100
AcDbEntity
  8
DEFPOINTS
  6
Continuous
 62
     0
440
 16777216
100
AcDbPoint
 10
217.9923778520064
 20
-77.48970744689656
 30
0.0
  0
POINT
  5
6514
330
5A49
100
AcDbEntity
  8
DEFPOINTS
  6
Continuous
 62
     0
440
 16777216
100
AcDbPoint
 10
217.9923778520064
 20
-97.83544422304402
 30
0.0
  0
ENDBLK
  5
5A54
330
5A49
100
AcDbEntity
  8
0
100
AcDbBlockEnd
  0
BLOCK
  5
5A5F
330
5A55
100
AcDbEntity
  8
0
100
AcDbBlockBegin
  2
*D10
 70
     1
 10
0.0
 20
0.0
 30
0.0
  3
*D10
  1

  0
LINE
  5
6531
330
5A55
100
AcDbEntity
  8
30
  6
Continuous
 62
     0
440
 16777216
100
AcDbLine
 10
172.9923778520064
 20
-71.23970744689656
 30
0.0
 11
172.9923778520064
 21
-88.0739814398534
 31
0.0
  0
LINE
  5
6532
330
5A55
100
AcDbEntity
  8
30
  6
Continuous
 62
     0
440
 16777216
100
AcDbLine
 10
217.9923778520064
 20
-78.48970744689656
 30
0.0
 11
217.9923778520064
 21
-88.0739814398534
 31
0.0
  0
LINE
  5
6533
330
5A55
100
AcDbEntity
  8
30
  6
Continuous
 62
     0
440
 16777216
100
AcDbLine
 10
174.9923778520065
 20
-87.57398143985339
 30
0.0
 11
215.9923778520064
 21
-87.57398143985339
 31
0.0
  0
INSERT
  5
6534
330
5A55
100
AcDbEntity
  8
30
  6
Continuous
 62
     0
440
 16777216
100
AcDbBlockReference
  2
_OPEN
 10
172.9923778520064
 20
-87.57398143985339
 30
0.0
 41
2.0
 42
2.0
 43
2.0
 50
180.0
  0
INSERT
  5
6535
330
5A55
100
AcDbEntity
  8
30
  6
Continuous
 62
     0
440
 16777216
100
AcDbBlockReference
  2
_OPEN
 10
217.9923778520064
 20
-87.57398143985339
 30
0.0
 41
2.0
 42
2.0
 43
2.0
  0
MTEXT
  5
6536
330
5A55
100
AcDbEntity
  8
30
  6
Continuous
 62
     0
440
 16777216
100
AcDbMText
 10
195.4923778520064
 20
-84.57398143985342
 30
0.0
 40
4.0
 41
0.0
 46
0.0
 71
     5
 72
     1
  1
\A1;45
 73
     1
 44
1.0
1001
ACAD
1000
MTEXTBEGIN
1070
    73
1070
     1
1070
    44
1040
1.0
1070
    74
1070
     0
1000
MTEXTEND
  0
POINT
  5
6537
330
5A55
100
AcDbEntity
  8
DEFPOINTS
  6
Continuous
 62
     0
440
 16777216
100
AcDbPoint
 10
172.9923778520064
 20
-70.23970744689655
 30
0.0
  0
POINT
  5
6538
330
5A55
100
AcDbEntity
  8
DEFPOINTS
  6
Continuous
 62
     0
440
 16777216
100
AcDbPoint
 10
217.9923778520064
 20
-77.48970744689656
 30
0.0
  0
POINT
  5
6539
330
5A55
100
AcDbEntity
  8
DEFPOINTS
  6
Continuous
 62
     0
440
 16777216
100
AcDbPoint
 10
217.9923778520064
 20
-87.57398143985339
 30
0.0
  0
ENDBLK
  5
5A60
330
5A55
100
AcDbEntity
  8
0
100
AcDbBlockEnd
  0
BLOCK
  5
5A6B
330
5A61
100
AcDbEntity
  8
0
100
AcDbBlockBegin
  2
*D11
 70
     1
 10
0.0
 20
0.0
 30
0.0
  3
*D11
  1

  0
LINE
  5
6543
330
5A61
100
AcDbEntity
  8
30
  6
Continuous
 62
     0
440
 16777216
100
AcDbLine
 10
257.4923778520064
 20
42.01029255310347
 30
0.0
 11
257.4923778520064
 21
27.1098009537836
 31
0.0
  0
LINE
  5
6544
330
5A61
100
AcDbEntity
  8
30
  6
Continuous
 62
     0
440
 16777216
100
AcDbLine
 10
274.4923778520064
 20
42.01029255310347
 30
0.0
 11
274.4923778520064
 21
27.1098009537836
 31
0.0
  0
LINE
  5
6545
330
5A61
100
AcDbEntity
  8
30
  6
Continuous
 62
     0
440
 16777216
100
AcDbLine
 10
259.4923778520064
 20
27.6098009537836
 30
0.0
 11
272.4923778520064
 21
27.6098009537836
 31
0.0
  0
INSERT
  5
6546
330
5A61
100
AcDbEntity
  8
30
  6
Continuous
 62
     0
440
 16777216
100
AcDbBlockReference
  2
_OPEN
 10
257.4923778520064
 20
27.6098009537836
 30
0.0
 41
2.0
 42
2.0
 43
2.0
 50
180.0
  0
INSERT
  5
6547
330
5A61
100
AcDbEntity
  8
30
  6
Continuous
 62
     0
440
 16777216
100
AcDbBlockReference
  2
_OPEN
 10
274.4923778520064
 20
27.6098009537836
 30
0.0
 41
2.0
 42
2.0
 43
2.0
  0
MTEXT
  5
6548
330
5A61
100
AcDbEntity
  8
30
  6
Continuous
 62
     0
440
 16777216
100
AcDbMText
 10
265.9923778520066
 20
30.6098009537836
 30
0.0
 40
4.0
 41
0.0
 46
0.0
 71
     5
 72
     1
  1
\A1;17
 73
     1
 44
1.0
1001
ACAD
1000
MTEXTBEGIN
1070
    73
1070
     1
1070
    44
1040
1.0
1070
    74
1070
     0
1000
MTEXTEND
  0
POINT
  5
6549
330
5A61
100
AcDbEntity
  8
DEFPOINTS
  6
Continuous
 62
     0
440
 16777216
100
AcDbPoint
 10
257.4923778520064
 20
43.01029255310345
 30
0.0
  0
POINT
  5
654A
330
5A61
100
AcDbEntity
  8
DEFPOINTS
  6
Continuous
 62
     0
440
 16777216
100
AcDbPoint
 10
274.4923778520064
 20
43.01029255310345
 30
0.0
  0
POINT
  5
654B
330
5A61
100
AcDbEntity
  8
DEFPOINTS
  6
Continuous
 62
     0
440
 16777216
100
AcDbPoint
 10
274.4923778520064
 20
27.6098009537836
 30
0.0
  0
ENDBLK
  5
5A6C
330
5A61
100
AcDbEntity
  8
0
100
AcDbBlockEnd
  0
BLOCK
  5
5A79
330
5A6D
100
AcDbEntity
  8
0
100
AcDbBlockBegin
  2
*D12
 70
     1
 10
0.0
 20
0.0
 30
0.0
  3
*D12
  1

  0
LINE
  5
654C
330
5A6D
100
AcDbEntity
  8
30
  6
Continuous
 62
     0
440
 16777216
100
AcDbLine
 10
275.4923778520065
 20
43.01029255310345
 30
0.0
 11
289.5791003447947
 21
43.01029255310345
 31
0.0
  0
LINE
  5
654D
330
5A6D
100
AcDbEntity
  8
30
  6
Continuous
 62
     0
440
 16777216
100
AcDbLine
 10
269.4923778685065
 20
51.51029255310342
 30
0.0
 11
289.5791003447947
 21
51.51029255310342
 31
0.0
  0
LINE
  5
654E
330
5A6D
100
AcDbEntity
  8
30
  6
Continuous
 62
     0
440
 16777216
100
AcDbLine
 10
289.0791003447947
 20
45.01029255310347
 30
0.0
 11
289.0791003447947
 21
49.51029255310341
 31
0.0
  0
LINE
  5
654F
330
5A6D
100
AcDbEntity
  8
30
  6
Continuous
 62
     0
440
 16777216
100
AcDbLine
 10
289.0791003447947
 20
51.51029255310342
 30
0.0
 11
289.0791003447947
 21
53.51029255310342
 31
0.0
  0
LINE
  5
6550
330
5A6D
100
AcDbEntity
  8
30
  6
Continuous
 62
     0
440
 16777216
100
AcDbLine
 10
289.0791003447947
 20
53.51029255310342
 30
0.0
 11
298.0791003447947
 21
53.51029255310342
 31
0.0
  0
INSERT
  5
6551
330
5A6D
100
AcDbEntity
  8
30
  6
Continuous
 62
     0
440
 16777216
100
AcDbBlockReference
  2
_OPEN
 10
289.0791003447947
 20
43.01029255310345
 30
0.0
 41
2.0
 42
2.0
 43
2.0
 50
270.0
  0
INSERT
  5
6552
330
5A6D
100
AcDbEntity
  8
30
  6
Continuous
 62
     0
440
 16777216
100
AcDbBlockReference
  2
_OPEN
 10
289.0791003447947
 20
51.51029255310342
 30
0.0
 41
2.0
 42
2.0
 43
2.0
 50
90.0
  0
MTEXT
  5
6553
330
5A6D
100
AcDbEntity
  8
30
  6
Continuous
 62
     0
440
 16777216
100
AcDbMText
 10
294.0791003447947
 20
56.51029255310345
 30
0.0
 40
4.0
 41
0.0
 46
0.0
 71
     5
 72
     1
  1
\A1;8.5
 73
     1
 44
1.0
1001
ACAD
1000
MTEXTBEGIN
1070
    73
1070
     1
1070
    44
1040
1.0
1070
    74
1070
     0
1000
MTEXTEND
  0
POINT
  5
6554
330
5A6D
100
AcDbEntity
  8
DEFPOINTS
  6
Continuous
 62
     0
440
 16777216
100
AcDbPoint
 10
274.4923778520064
 20
43.01029255310345
 30
0.0
  0
POINT
  5
6555
330
5A6D
100
AcDbEntity
  8
DEFPOINTS
  6
Continuous
 62
     0
440
 16777216
100
AcDbPoint
 10
268.4923778685063
 20
51.51029255310342
 30
0.0
  0
POINT
  5
6556
330
5A6D
100
AcDbEntity
  8
DEFPOINTS
  6
Continuous
 62
     0
440
 16777216
100
AcDbPoint
 10
289.0791003447947
 20
51.51029255310342
 30
0.0
  0
ENDBLK
  5
5A7A
330
5A6D
100
AcDbEntity
  8
0
100
AcDbBlockEnd
  0
BLOCK
  5
5E86
330
5E7C
100
AcDbEntity
  8
0
100
AcDbBlockBegin
  2
*D13
 70
     1
 10
0.0
 20
0.0
 30
0.0
  3
*D13
  1

  0
LINE
  5
6316
330
5E7C
100
AcDbEntity
  8
30
  6
Continuous
 62
     0
440
 16777216
100
AcDbLine
 10
-41.99999999999996
 20
25.99999999999996
 30
0.0
 11
-41.99999999999996
 21
33.09950840068014
 31
0.0
  0
LINE
  5
6317
330
5E7C
100
AcDbEntity
  8
30
  6
Continuous
 62
     0
440
 16777216
100
AcDbLine
 10
42.00000000000001
 20
25.99999999999996
 30
0.0
 11
42.00000000000001
 21
33.09950840068014
 31
0.0
  0
LINE
  5
6318
330
5E7C
100
AcDbEntity
  8
30
  6
Continuous
 62
     0
440
 16777216
100
AcDbLine
 10
-39.99999999999996
 20
32.59950840068015
 30
0.0
 11
40.0
 21
32.59950840068015
 31
0.0
  0
INSERT
  5
6319
330
5E7C
100
AcDbEntity
  8
30
  6
Continuous
 62
     0
440
 16777216
100
AcDbBlockReference
  2
_OPEN
 10
-41.99999999999996
 20
32.59950840068015
 30
0.0
 41
2.0
 42
2.0
 43
2.0
 50
180.0
  0
INSERT
  5
631A
330
5E7C
100
AcDbEntity
  8
30
  6
Continuous
 62
     0
440
 16777216
100
AcDbBlockReference
  2
_OPEN
 10
42.00000000000001
 20
32.59950840068015
 30
0.0
 41
2.0
 42
2.0
 43
2.0
  0
MTEXT
  5
631B
330
5E7C
100
AcDbEntity
  8
30
  6
Continuous
 62
     0
440
 16777216
100
AcDbMText
 10
0.0000000000000215
 20
35.59950840068014
 30
0.0
 40
4.0
 41
0.0
 46
0.0
 71
     5
 72
     1
  1
\A1;84
 73
     1
 44
1.0
1001
ACAD
1000
MTEXTBEGIN
1070
    73
1070
     1
1070
    44
1040
1.0
1070
    74
1070
     0
1000
MTEXTEND
  0
POINT
  5
631C
330
5E7C
100
AcDbEntity
  8
DEFPOINTS
  6
Continuous
 62
     0
440
 16777216
100
AcDbPoint
 10
-41.99999999999996
 20
24.99999999999996
 30
0.0
  0
POINT
  5
631D
330
5E7C
100
AcDbEntity
  8
DEFPOINTS
  6
Continuous
 62
     0
440
 16777216
100
AcDbPoint
 10
42.00000000000001
 20
24.99999999999996
 30
0.0
  0
POINT
  5
631E
330
5E7C
100
AcDbEntity
  8
DEFPOINTS
  6
Continuous
 62
     0
440
 16777216
100
AcDbPoint
 10
42.00000000000001
 20
32.59950840068015
 30
0.0
  0
ENDBLK
  5
5E87
330
5E7C
100
AcDbEntity
  8
0
100
AcDbBlockEnd
  0
BLOCK
  5
5EAA
330
5EA0
100
AcDbEntity
  8
0
100
AcDbBlockBegin
  2
*D14
 70
     1
 10
0.0
 20
0.0
 30
0.0
  3
*D14
  1

  0
LINE
  5
62FB
330
5EA0
100
AcDbEntity
  8
30
  6
Continuous
 62
     0
440
 16777216
100
AcDbLine
 10
-10.99999999999999
 20
-25.99999999999999
 30
0.0
 11
-11.0
 21
-42.2494181439515
 31
0.0
  0
LINE
  5
62FC
330
5EA0
100
AcDbEntity
  8
30
  6
Continuous
 62
     0
440
 16777216
100
AcDbLine
 10
11.00000000000002
 20
-25.99999999999999
 30
0.0
 11
11.00000000000002
 21
-42.2494181439515
 31
0.0
  0
LINE
  5
62FD
330
5EA0
100
AcDbEntity
  8
30
  6
Continuous
 62
     0
440
 16777216
100
AcDbLine
 10
-9.0
 20
-41.74941814395149
 30
0.0
 11
9.000000000000056
 21
-41.74941814395149
 31
0.0
  0
INSERT
  5
62FE
330
5EA0
100
AcDbEntity
  8
30
  6
Continuous
 62
     0
440
 16777216
100
AcDbBlockReference
  2
_OPEN
 10
-11.0
 20
-41.74941814395149
 30
0.0
 41
2.0
 42
2.0
 43
2.0
 50
180.0
  0
INSERT
  5
62FF
330
5EA0
100
AcDbEntity
  8
30
  6
Continuous
 62
     0
440
 16777216
100
AcDbBlockReference
  2
_OPEN
 10
11.00000000000002
 20
-41.74941814395149
 30
0.0
 41
2.0
 42
2.0
 43
2.0
  0
MTEXT
  5
6300
330
5EA0
100
AcDbEntity
  8
30
  6
Continuous
 62
     0
440
 16777216
100
AcDbMText
 10
0.0000000000000286
 20
-38.74941814395151
 30
0.0
 40
4.0
 41
0.0
 46
0.0
 71
     5
 72
     1
  1
\A1;22
 73
     1
 44
1.0
1001
ACAD
1000
MTEXTBEGIN
1070
    73
1070
     1
1070
    44
1040
1.0
1070
    74
1070
     0
1000
MTEXTEND
  0
POINT
  5
6301
330
5EA0
100
AcDbEntity
  8
DEFPOINTS
  6
Continuous
 62
     0
440
 16777216
100
AcDbPoint
 10
-10.99999999999999
 20
-25.0
 30
0.0
  0
POINT
  5
6302
330
5EA0
100
AcDbEntity
  8
DEFPOINTS
  6
Continuous
 62
     0
440
 16777216
100
AcDbPoint
 10
11.00000000000002
 20
-25.0
 30
0.0
  0
POINT
  5
6303
330
5EA0
100
AcDbEntity
  8
DEFPOINTS
  6
Continuous
 62
     0
440
 16777216
100
AcDbPoint
 10
11.00000000000002
 20
-41.74941814395149
 30
0.0
  0
ENDBLK
  5
5EAB
330
5EA0
100
AcDbEntity
  8
0
100
AcDbBlockEnd
  0
BLOCK
  5
5F03
330
5EF9
100
AcDbEntity
  8
0
100
AcDbBlockBegin
  2
*D15
 70
     1
 10
0.0
 20
0.0
 30
0.0
  3
*D15
  1

  0
LINE
  5
67DD
330
5EF9
100
AcDbEntity
  8
30
  6
Continuous
 62
     0
440
 16777216
100
AcDbLine
 10
-15.38009453517117
 20
-325.1631237443548
 30
0.0
 11
-15.38009453517117
 21
-354.9125418883061
 31
0.0
  0
LINE
  5
67DE
330
5EF9
100
AcDbEntity
  8
30
  6
Continuous
 62
     0
440
 16777216
100
AcDbLine
 10
14.61990546482881
 20
-322.163123760855
 30
0.0
 11
14.61990546482881
 21
-354.9125418883061
 31
0.0
  0
LINE
  5
67DF
330
5EF9
100
AcDbEntity
  8
30
  6
Continuous
 62
     0
440
 16777216
100
AcDbLine
 10
-13.38009453517118
 20
-354.4125418883063
 30
0.0
 11
12.61990546482881
 21
-354.4125418883063
 31
0.0
  0
INSERT
  5
67E0
330
5EF9
100
AcDbEntity
  8
30
  6
Continuous
 62
     0
440
 16777216
100
AcDbBlockReference
  2
_OPEN
 10
-15.38009453517117
 20
-354.4125418883063
 30
0.0
 41
2.0
 42
2.0
 43
2.0
 50
180.0
  0
INSERT
  5
67E1
330
5EF9
100
AcDbEntity
  8
30
  6
Continuous
 62
     0
440
 16777216
100
AcDbBlockReference
  2
_OPEN
 10
14.61990546482881
 20
-354.4125418883063
 30
0.0
 41
2.0
 42
2.0
 43
2.0
  0
MTEXT
  5
67E2
330
5EF9
100
AcDbEntity
  8
30
  6
Continuous
 62
     0
440
 16777216
100
AcDbMText
 10
-0.3800945351711904
 20
-351.4125418883061
 30
0.0
 40
4.0
 41
0.0
 46
0.0
 71
     5
 72
     1
  1
\A1;30
 73
     1
 44
1.0
1001
ACAD
1000
MTEXTBEGIN
1070
    73
1070
     1
1070
    44
1040
1.0
1070
    74
1070
     0
1000
MTEXTEND
  0
POINT
  5
67E3
330
5EF9
100
AcDbEntity
  8
DEFPOINTS
  6
Continuous
 62
     0
440
 16777216
100
AcDbPoint
 10
-15.38009453517117
 20
-324.1631237443548
 30
0.0
  0
POINT
  5
67E4
330
5EF9
100
AcDbEntity
  8
DEFPOINTS
  6
Continuous
 62
     0
440
 16777216
100
AcDbPoint
 10
14.61990546482881
 20
-321.163123760855
 30
0.0
  0
POINT
  5
67E5
330
5EF9
100
AcDbEntity
  8
DEFPOINTS
  6
Continuous
 62
     0
440
 16777216
100
AcDbPoint
 10
14.61990546482881
 20
-354.4125418883063
 30
0.0
  0
ENDBLK
  5
5F04
330
5EF9
100
AcDbEntity
  8
0
100
AcDbBlockEnd
  0
BLOCK
  5
5F76
330
5F6C
100
AcDbEntity
  8
0
100
AcDbBlockBegin
  2
*D16
 70
     1
 10
0.0
 20
0.0
 30
0.0
  3
*D16
  1

  0
LINE
  5
6386
330
5F6C
100
AcDbEntity
  8
30
  6
Continuous
 62
     0
100
AcDbLine
 10
-29.99999999999998
 20
217.1349134126129
 30
0.0
 11
-29.99999999999998
 21
257.4821974718419
 31
0.0
  0
LINE
  5
6387
330
5F6C
100
AcDbEntity
  8
30
  6
Continuous
 62
     0
100
AcDbLine
 10
0.0000000000000005
 20
217.1349134126129
 30
0.0
 11
0.000000000000003
 21
257.4821974718419
 31
0.0
  0
LINE
  5
6388
330
5F6C
100
AcDbEntity
  8
30
  6
Continuous
 62
     0
100
AcDbLine
 10
-27.99999999999998
 20
256.9821974718418
 30
0.0
 11
-1.999999999999995
 21
256.9821974718418
 31
0.0
  0
INSERT
  5
6389
330
5F6C
100
AcDbEntity
  8
30
  6
Continuous
 62
     0
100
AcDbBlockReference
  2
_OPEN
 10
-29.99999999999998
 20
256.9821974718418
 30
0.0
 41
2.0
 42
2.0
 43
2.0
 50
180.0
  0
INSERT
  5
638A
330
5F6C
100
AcDbEntity
  8
30
  6
Continuous
 62
     0
100
AcDbBlockReference
  2
_OPEN
 10
0.0000000000000029
 20
256.9821974718418
 30
0.0
 41
2.0
 42
2.0
 43
2.0
  0
MTEXT
  5
638B
330
5F6C
100
AcDbEntity
  8
30
  6
Continuous
 62
     0
100
AcDbMText
 10
-14.99999999999999
 20
259.9821974718419
 30
0.0
 40
4.0
 41
0.0
 46
0.0
 71
     5
 72
     1
  1
\A1;30
 73
     1
 44
1.0
1001
ACAD
1000
MTEXTBEGIN
1070
    73
1070
     1
1070
    44
1040
1.0
1070
    74
1070
     0
1000
MTEXTEND
  0
POINT
  5
638C
330
5F6C
100
AcDbEntity
  8
DEFPOINTS
  6
Continuous
 62
     0
100
AcDbPoint
 10
-29.99999999999998
 20
216.1349134126129
 30
0.0
  0
POINT
  5
638D
330
5F6C
100
AcDbEntity
  8
DEFPOINTS
  6
Continuous
 62
     0
100
AcDbPoint
 10
0.0000000000000004
 20
216.1349134126129
 30
0.0
  0
POINT
  5
638E
330
5F6C
100
AcDbEntity
  8
DEFPOINTS
  6
Continuous
 62
     0
100
AcDbPoint
 10
0.0000000000000029
 20
256.9821974718418
 30
0.0
  0
ENDBLK
  5
5F77
330
5F6C
100
AcDbEntity
  8
0
100
AcDbBlockEnd
  0
BLOCK
  5
5F83
330
5F79
100
AcDbEntity
  8
0
100
AcDbBlockBegin
  2
*D17
 70
     1
 10
0.0
 20
0.0
 30
0.0
  3
*D17
  1

  0
LINE
  5
637D
330
5F79
100
AcDbEntity
  8
30
  6
Continuous
 62
     0
100
AcDbLine
 10
0.0000000000000005
 20
218.1349134126129
 30
0.0
 11
0.0000000000000029
 21
257.4821974718419
 31
0.0
  0
LINE
  5
637E
330
5F79
100
AcDbEntity
  8
30
  6
Continuous
 62
     0
100
AcDbLine
 10
30.0
 20
217.1349134126129
 30
0.0
 11
30.0
 21
257.4821974718419
 31
0.0
  0
LINE
  5
637F
330
5F79
100
AcDbEntity
  8
30
  6
Continuous
 62
     0
100
AcDbLine
 10
2.000000000000002
 20
256.9821974718418
 30
0.0
 11
28.0
 21
256.9821974718418
 31
0.0
  0
INSERT
  5
6380
330
5F79
100
AcDbEntity
  8
30
  6
Continuous
 62
     0
100
AcDbBlockReference
  2
_OPEN
 10
0.0000000000000029
 20
256.9821974718418
 30
0.0
 41
2.0
 42
2.0
 43
2.0
 50
180.0
  0
INSERT
  5
6381
330
5F79
100
AcDbEntity
  8
30
  6
Continuous
 62
     0
100
AcDbBlockReference
  2
_OPEN
 10
30.0
 20
256.9821974718418
 30
0.0
 41
2.0
 42
2.0
 43
2.0
  0
MTEXT
  5
6382
330
5F79
100
AcDbEntity
  8
30
  6
Continuous
 62
     0
100
AcDbMText
 10
15.0
 20
259.9821974718419
 30
0.0
 40
4.0
 41
0.0
 46
0.0
 71
     5
 72
     1
  1
\A1;30
 73
     1
 44
1.0
1001
ACAD
1000
MTEXTBEGIN
1070
    73
1070
     1
1070
    44
1040
1.0
1070
    74
1070
     0
1000
MTEXTEND
  0
POINT
  5
6383
330
5F79
100
AcDbEntity
  8
DEFPOINTS
  6
Continuous
 62
     0
100
AcDbPoint
 10
0.0000000000000004
 20
217.1349134126129
 30
0.0
  0
POINT
  5
6384
330
5F79
100
AcDbEntity
  8
DEFPOINTS
  6
Continuous
 62
     0
100
AcDbPoint
 10
30.0
 20
216.1349134126129
 30
0.0
  0
POINT
  5
6385
330
5F79
100
AcDbEntity
  8
DEFPOINTS
  6
Continuous
 62
     0
100
AcDbPoint
 10
30.0
 20
256.9821974718418
 30
0.0
  0
ENDBLK
  5
5F84
330
5F79
100
AcDbEntity
  8
0
100
AcDbBlockEnd
  0
BLOCK
  5
6105
330
60FB
100
AcDbEntity
  8
0
100
AcDbBlockBegin
  2
*D18
 70
     1
 10
0.0
 20
0.0
 30
0.0
  3
*D18
  1

  0
LINE
  5
638F
330
60FB
100
AcDbEntity
  8
30
  6
Continuous
 62
     0
100
AcDbLine
 10
30.0
 20
218.1349134126129
 30
0.0
 11
30.0
 21
257.4821974718419
 31
0.0
  0
LINE
  5
6390
330
60FB
100
AcDbEntity
  8
30
  6
Continuous
 62
     0
100
AcDbLine
 10
60.0
 20
217.1349134126129
 30
0.0
 11
60.0
 21
257.4821974718419
 31
0.0
  0
LINE
  5
6391
330
60FB
100
AcDbEntity
  8
30
  6
Continuous
 62
     0
100
AcDbLine
 10
32.0
 20
256.9821974718418
 30
0.0
 11
58.0
 21
256.9821974718418
 31
0.0
  0
INSERT
  5
6392
330
60FB
100
AcDbEntity
  8
30
  6
Continuous
 62
     0
100
AcDbBlockReference
  2
_OPEN
 10
30.0
 20
256.9821974718418
 30
0.0
 41
2.0
 42
2.0
 43
2.0
 50
180.0
  0
INSERT
  5
6393
330
60FB
100
AcDbEntity
  8
30
  6
Continuous
 62
     0
100
AcDbBlockReference
  2
_OPEN
 10
60.0
 20
256.9821974718418
 30
0.0
 41
2.0
 42
2.0
 43
2.0
  0
MTEXT
  5
6394
330
60FB
100
AcDbEntity
  8
30
  6
Continuous
 62
     0
100
AcDbMText
 10
45.0
 20
259.9821974718419
 30
0.0
 40
4.0
 41
0.0
 46
0.0
 71
     5
 72
     1
  1
\A1;30
 73
     1
 44
1.0
1001
ACAD
1000
MTEXTBEGIN
1070
    73
1070
     1
1070
    44
1040
1.0
1070
    74
1070
     0
1000
MTEXTEND
  0
POINT
  5
6395
330
60FB
100
AcDbEntity
  8
DEFPOINTS
  6
Continuous
 62
     0
100
AcDbPoint
 10
30.0
 20
217.1349134126129
 30
0.0
  0
POINT
  5
6396
330
60FB
100
AcDbEntity
  8
DEFPOINTS
  6
Continuous
 62
     0
100
AcDbPoint
 10
60.0
 20
216.1349134126129
 30
0.0
  0
POINT
  5
6397
330
60FB
100
AcDbEntity
  8
DEFPOINTS
  6
Continuous
 62
     0
100
AcDbPoint
 10
60.0
 20
256.9821974718418
 30
0.0
  0
ENDBLK
  5
6106
330
60FB
100
AcDbEntity
  8
0
100
AcDbBlockEnd
  0
BLOCK
  5
6121
330
6117
100
AcDbEntity
  8
0
100
AcDbBlockBegin
  2
*D19
 70
     1
 10
0.0
 20
0.0
 30
0.0
  3
*D19
  1

  0
LINE
  5
67D4
330
6117
100
AcDbEntity
  8
30
  6
Continuous
 62
     0
440
 16777216
100
AcDbLine
 10
21.11990546482878
 20
-186.663123744355
 30
0.0
 11
97.35839195347299
 21
-186.663123744355
 31
0.0
  0
LINE
  5
67D5
330
6117
100
AcDbEntity
  8
30
  6
Continuous
 62
     0
440
 16777216
100
AcDbLine
 10
21.1199054648288
 20
-318.6631237443549
 30
0.0
 11
97.35839195347296
 21
-318.6631237443549
 31
0.0
  0
LINE
  5
67D6
330
6117
100
AcDbEntity
  8
30
  6
Continuous
 62
     0
440
 16777216
100
AcDbLine
 10
96.85839195347298
 20
-188.663123744355
 30
0.0
 11
96.85839195347298
 21
-316.6631237443549
 31
0.0
  0
INSERT
  5
67D7
330
6117
100
AcDbEntity
  8
30
  6
Continuous
 62
     0
440
 16777216
100
AcDbBlockReference
  2
_OPEN
 10
96.85839195347298
 20
-186.663123744355
 30
0.0
 41
2.0
 42
2.0
 43
2.0
 50
90.0
  0
INSERT
  5
67D8
330
6117
100
AcDbEntity
  8
30
  6
Continuous
 62
     0
440
 16777216
100
AcDbBlockReference
  2
_OPEN
 10
96.85839195347298
 20
-318.6631237443549
 30
0.0
 41
2.0
 42
2.0
 43
2.0
 50
270.0
  0
MTEXT
  5
67D9
330
6117
100
AcDbEntity
  8
30
  6
Continuous
 62
     0
440
 16777216
100
AcDbMText
 10
93.85839195347307
 20
-252.6631237443548
 30
0.0
 40
4.0
 41
0.0
 46
0.0
 71
     5
 72
     1
  1
\A1;132
 11
0.0000000000000001
 21
1.0
 31
0.0
 73
     1
 44
1.0
1001
ACAD
1000
MTEXTBEGIN
1070
    73
1070
     1
1070
    44
1040
1.0
1070
    74
1070
     0
1000
MTEXTEND
  0
POINT
  5
67DA
330
6117
100
AcDbEntity
  8
DEFPOINTS
  6
Continuous
 62
     0
440
 16777216
100
AcDbPoint
 10
20.11990546482878
 20
-186.663123744355
 30
0.0
  0
POINT
  5
67DB
330
6117
100
AcDbEntity
  8
DEFPOINTS
  6
Continuous
 62
     0
440
 16777216
100
AcDbPoint
 10
20.1199054648288
 20
-318.6631237443549
 30
0.0
  0
POINT
  5
67DC
330
6117
100
AcDbEntity
  8
DEFPOINTS
  6
Continuous
 62
     0
440
 16777216
100
AcDbPoint
 10
96.85839195347298
 20
-318.6631237443549
 30
0.0
  0
ENDBLK
  5
6122
330
6117
100
AcDbEntity
  8
0
100
AcDbBlockEnd
  0
BLOCK
  5
6155
330
614B
100
AcDbEntity
  8
0
100
AcDbBlockBegin
  2
*D20
 70
     1
 10
0.0
 20
0.0
 30
0.0
  3
*D20
  1

  0
LINE
  5
694B
330
614B
100
AcDbEntity
  8
30
  6
Continuous
 62
     0
440
 16777216
100
AcDbLine
 10
-17.5
 20
124.4999999999996
 30
0.0
 11
-64.42066478230079
 21
124.4999999999996
 31
0.0
  0
LINE
  5
694C
330
614B
100
AcDbEntity
  8
30
  6
Continuous
 62
     0
440
 16777216
100
AcDbLine
 10
-45.99999999999996
 20
77.49999999999997
 30
0.0
 11
-64.42066478230081
 21
77.49999999999997
 31
0.0
  0
LINE
  5
694D
330
614B
100
AcDbEntity
  8
30
  6
Continuous
 62
     0
440
 16777216
100
AcDbLine
 10
-63.92066478230082
 20
122.4999999999996
 30
0.0
 11
-63.92066478230082
 21
79.49999999999997
 31
0.0
  0
INSERT
  5
694E
330
614B
100
AcDbEntity
  8
30
  6
Continuous
 62
     0
440
 16777216
100
AcDbBlockReference
  2
_OPEN
 10
-63.92066478230082
 20
124.4999999999996
 30
0.0
 41
2.0
 42
2.0
 43
2.0
 50
90.0
  0
INSERT
  5
694F
330
614B
100
AcDbEntity
  8
30
  6
Continuous
 62
     0
440
 16777216
100
AcDbBlockReference
  2
_OPEN
 10
-63.92066478230082
 20
77.49999999999997
 30
0.0
 41
2.0
 42
2.0
 43
2.0
 50
270.0
  0
MTEXT
  5
6950
330
614B
100
AcDbEntity
  8
30
  6
Continuous
 62
     0
440
 16777216
100
AcDbMText
 10
-66.92066478230081
 20
100.9999999999997
 30
0.0
 40
4.0
 41
0.0
 46
0.0
 71
     5
 72
     1
  1
\A1;47
 11
0.0000000000000001
 21
1.0
 31
0.0
 73
     1
 44
1.0
1001
ACAD
1000
MTEXTBEGIN
1070
    73
1070
     1
1070
    44
1040
1.0
1070
    74
1070
     0
1000
MTEXTEND
  0
POINT
  5
6951
330
614B
100
AcDbEntity
  8
DEFPOINTS
  6
Continuous
 62
     0
440
 16777216
100
AcDbPoint
 10
-16.5
 20
124.4999999999996
 30
0.0
  0
POINT
  5
6952
330
614B
100
AcDbEntity
  8
DEFPOINTS
  6
Continuous
 62
     0
440
 16777216
100
AcDbPoint
 10
-44.99999999999997
 20
77.49999999999997
 30
0.0
  0
POINT
  5
6953
330
614B
100
AcDbEntity
  8
DEFPOINTS
  6
Continuous
 62
     0
440
 16777216
100
AcDbPoint
 10
-63.92066478230082
 20
77.49999999999997
 30
0.0
  0
ENDBLK
  5
6156
330
614B
100
AcDbEntity
  8
0
100
AcDbBlockEnd
  0
BLOCK
  5
6162
330
6158
100
AcDbEntity
  8
0
100
AcDbBlockBegin
  2
*D21
 70
     1
 10
0.0
 20
0.0
 30
0.0
  3
*D21
  1

  0
LINE
  5
62A2
330
6158
100
AcDbEntity
  8
30
  6
Continuous
 62
     0
440
 16777216
100
AcDbLine
 10
-45.99999999999996
 20
77.49999999999997
 30
0.0
 11
-64.42066478230081
 21
77.49999999999997
 31
0.0
  0
LINE
  5
62A3
330
6158
100
AcDbEntity
  8
30
  6
Continuous
 62
     0
440
 16777216
100
AcDbLine
 10
-45.99999999999996
 20
-77.50000000000003
 30
0.0
 11
-64.42066478230085
 21
-77.50000000000003
 31
0.0
  0
LINE
  5
62A4
330
6158
100
AcDbEntity
  8
30
  6
Continuous
 62
     0
440
 16777216
100
AcDbLine
 10
-63.92066478230082
 20
75.49999999999997
 30
0.0
 11
-63.92066478230084
 21
-75.50000000000003
 31
0.0
  0
INSERT
  5
62A5
330
6158
100
AcDbEntity
  8
30
  6
Continuous
 62
     0
440
 16777216
100
AcDbBlockReference
  2
_OPEN
 10
-63.92066478230082
 20
77.49999999999997
 30
0.0
 41
2.0
 42
2.0
 43
2.0
 50
90.0
  0
INSERT
  5
62A6
330
6158
100
AcDbEntity
  8
30
  6
Continuous
 62
     0
440
 16777216
100
AcDbBlockReference
  2
_OPEN
 10
-63.92066478230084
 20
-77.50000000000003
 30
0.0
 41
2.0
 42
2.0
 43
2.0
 50
270.0
  0
MTEXT
  5
62A7
330
6158
100
AcDbEntity
  8
30
  6
Continuous
 62
     0
440
 16777216
100
AcDbMText
 10
-66.92066478230081
 20
-0.0000000000000384
 30
0.0
 40
4.0
 41
0.0
 46
0.0
 71
     5
 72
     1
  1
\A1;155
 11
0.0000000000000001
 21
1.0
 31
0.0
 73
     1
 44
1.0
1001
ACAD
1000
MTEXTBEGIN
1070
    73
1070
     1
1070
    44
1040
1.0
1070
    74
1070
     0
1000
MTEXTEND
  0
POINT
  5
62A8
330
6158
100
AcDbEntity
  8
DEFPOINTS
  6
Continuous
 62
     0
440
 16777216
100
AcDbPoint
 10
-44.99999999999997
 20
77.49999999999997
 30
0.0
  0
POINT
  5
62A9
330
6158
100
AcDbEntity
  8
DEFPOINTS
  6
Continuous
 62
     0
440
 16777216
100
AcDbPoint
 10
-44.99999999999997
 20
-77.50000000000003
 30
0.0
  0
POINT
  5
62AA
330
6158
100
AcDbEntity
  8
DEFPOINTS
  6
Continuous
 62
     0
440
 16777216
100
AcDbPoint
 10
-63.92066478230084
 20
-77.50000000000003
 30
0.0
  0
ENDBLK
  5
6163
330
6158
100
AcDbEntity
  8
0
100
AcDbBlockEnd
  0
BLOCK
  5
63A3
330
6399
100
AcDbEntity
  8
0
100
AcDbBlockBegin
  2
*D22
 70
     1
 10
0.0
 20
0.0
 30
0.0
  3
*D22
  1

  0
LINE
  5
6528
330
6399
100
AcDbEntity
  8
30
  6
Continuous
 62
     0
440
 16777216
100
AcDbLine
 10
225.9923778520064
 20
-69.23970744689659
 30
0.0
 11
225.9923778520064
 21
-88.2406484398534
 31
0.0
  0
LINE
  5
6529
330
6399
100
AcDbEntity
  8
30
  6
Continuous
 62
     0
440
 16777216
100
AcDbLine
 10
217.9923778520064
 20
-78.48970744689656
 30
0.0
 11
217.9923778520064
 21
-88.2406484398534
 31
0.0
  0
LINE
  5
652A
330
6399
100
AcDbEntity
  8
30
  6
Continuous
 62
     0
440
 16777216
100
AcDbLine
 10
223.9923778520064
 20
-87.74064843985341
 30
0.0
 11
219.9923778520064
 21
-87.74064843985341
 31
0.0
  0
INSERT
  5
652B
330
6399
100
AcDbEntity
  8
30
  6
Continuous
 62
     0
440
 16777216
100
AcDbBlockReference
  2
_OPEN
 10
225.9923778520064
 20
-87.74064843985341
 30
0.0
 41
2.0
 42
2.0
 43
2.0
  0
INSERT
  5
652C
330
6399
100
AcDbEntity
  8
30
  6
Continuous
 62
     0
440
 16777216
100
AcDbBlockReference
  2
_OPEN
 10
217.9923778520064
 20
-87.74064843985341
 30
0.0
 41
2.0
 42
2.0
 43
2.0
 50
180.0
  0
MTEXT
  5
652D
330
6399
100
AcDbEntity
  8
30
  6
Continuous
 62
     0
440
 16777216
100
AcDbMText
 10
221.9923778520064
 20
-84.74064843985342
 30
0.0
 40
4.0
 41
0.0
 46
0.0
 71
     5
 72
     1
  1
\A1;8
 73
     1
 44
1.0
1001
ACAD
1000
MTEXTBEGIN
1070
    73
1070
     1
1070
    44
1040
1.0
1070
    74
1070
     0
1000
MTEXTEND
  0
POINT
  5
652E
330
6399
100
AcDbEntity
  8
DEFPOINTS
  6
Continuous
 62
     0
440
 16777216
100
AcDbPoint
 10
225.9923778520064
 20
-68.23970744689657
 30
0.0
  0
POINT
  5
652F
330
6399
100
AcDbEntity
  8
DEFPOINTS
  6
Continuous
 62
     0
440
 16777216
100
AcDbPoint
 10
217.9923778520064
 20
-77.48970744689656
 30
0.0
  0
POINT
  5
6530
330
6399
100
AcDbEntity
  8
DEFPOINTS
  6
Continuous
 62
     0
440
 16777216
100
AcDbPoint
 10
217.9923778520064
 20
-87.74064843985341
 30
0.0
  0
ENDBLK
  5
63A4
330
6399
100
AcDbEntity
  8
0
100
AcDbBlockEnd
  0
BLOCK
  5
6497
330
648D
100
AcDbEntity
  8
0
100
AcDbBlockBegin
  2
*D23
 70
     1
 10
0.0
 20
0.0
 30
0.0
  3
*D23
  1

  0
LINE
  5
64E8
330
648D
100
AcDbEntity
  8
30
  6
Continuous
 62
     0
440
 16777216
100
AcDbLine
 10
166.6199054648288
 20
-278.6631237443549
 30
0.0
 11
166.6199054648288
 21
-359.8804450066014
 31
0.0
  0
LINE
  5
64E9
330
648D
100
AcDbEntity
  8
30
  6
Continuous
 62
     0
440
 16777216
100
AcDbLine
 10
252.6199054648289
 20
-278.6631237443549
 30
0.0
 11
252.6199054648289
 21
-359.8804450066014
 31
0.0
  0
LINE
  5
64EA
330
648D
100
AcDbEntity
  8
30
  6
Continuous
 62
     0
440
 16777216
100
AcDbLine
 10
168.6199054648288
 20
-359.3804450066013
 30
0.0
 11
250.6199054648289
 21
-359.3804450066013
 31
0.0
  0
INSERT
  5
64EB
330
648D
100
AcDbEntity
  8
30
  6
Continuous
 62
     0
440
 16777216
100
AcDbBlockReference
  2
_OPEN
 10
166.6199054648288
 20
-359.3804450066013
 30
0.0
 41
2.0
 42
2.0
 43
2.0
 50
180.0
  0
INSERT
  5
64EC
330
648D
100
AcDbEntity
  8
30
  6
Continuous
 62
     0
440
 16777216
100
AcDbBlockReference
  2
_OPEN
 10
252.6199054648289
 20
-359.3804450066013
 30
0.0
 41
2.0
 42
2.0
 43
2.0
  0
MTEXT
  5
64ED
330
648D
100
AcDbEntity
  8
30
  6
Continuous
 62
     0
440
 16777216
100
AcDbMText
 10
209.6199054648289
 20
-356.3804450066013
 30
0.0
 40
4.0
 41
0.0
 46
0.0
 71
     5
 72
     1
  1
\A1;86
 73
     1
 44
1.0
1001
ACAD
1000
MTEXTBEGIN
1070
    73
1070
     1
1070
    44
1040
1.0
1070
    74
1070
     0
1000
MTEXTEND
  0
POINT
  5
64EE
330
648D
100
AcDbEntity
  8
DEFPOINTS
  6
Continuous
 62
     0
440
 16777216
100
AcDbPoint
 10
166.6199054648288
 20
-277.6631237443548
 30
0.0
  0
POINT
  5
64EF
330
648D
100
AcDbEntity
  8
DEFPOINTS
  6
Continuous
 62
     0
440
 16777216
100
AcDbPoint
 10
252.6199054648289
 20
-277.6631237443548
 30
0.0
  0
POINT
  5
64F0
330
648D
100
AcDbEntity
  8
DEFPOINTS
  6
Continuous
 62
     0
440
 16777216
100
AcDbPoint
 10
252.6199054648289
 20
-359.3804450066013
 30
0.0
  0
ENDBLK
  5
6498
330
648D
100
AcDbEntity
  8
0
100
AcDbBlockEnd
  0
BLOCK
  5
64A2
330
6499
100
AcDbEntity
  8
0
100
AcDbBlockBegin
  2
*D24
 70
     1
 10
0.0
 20
0.0
 30
0.0
  3
*D24
  1

  0
LINE
  5
64CE
330
6499
100
AcDbEntity
  8
30
  6
Continuous
 62
     0
440
 16777216
100
AcDbLine
 10
261.9196053755326
 20
-224.6187952184035
 30
0.0
 11
255.5862720421993
 21
-224.6187952184035
 31
0.0
  0
LINE
  5
64CF
330
6499
100
AcDbEntity
  8
30
  6
Continuous
 62
     0
440
 16777216
100
AcDbLine
 10
255.5862720421993
 20
-224.6187952184035
 30
0.0
 11
253.9997254112511
 21
-225.8365266287836
 31
0.0
  0
MTEXT
  5
64D0
330
6499
100
AcDbEntity
  8
30
  6
Continuous
 62
     0
440
 16777216
100
AcDbMText
 10
259.252938708866
 20
-221.6187952184035
 30
0.0
 40
4.0
 41
0.0
 46
0.0
 71
     5
 72
     1
  1
\A1;R1
 73
     1
 44
1.0
1001
ACAD
1000
MTEXTBEGIN
1070
    73
1070
     1
1070
    44
1040
1.0
1070
    74
1070
     0
1000
MTEXTEND
  0
INSERT
  5
64D1
330
6499
100
AcDbEntity
  8
30
  6
Continuous
 62
     0
440
 16777216
100
AcDbBlockReference
  2
_OPEN
 10
252.413178780303
 20
-227.0542580391643
 30
0.0
 41
2.0
 42
2.0
 43
2.0
 50
217.5075311795308
  0
LINE
  5
64D2
330
6499
100
AcDbEntity
  8
30
  6
Continuous
 62
     0
440
 16777216
100
AcDbLine
 10
251.529905464829
 20
-227.6631237443548
 30
0.0
 11
251.7099054648289
 21
-227.6631237443548
 31
0.0
  0
LINE
  5
64D3
330
6499
100
AcDbEntity
  8
30
  6
Continuous
 62
     0
440
 16777216
100
AcDbLine
 10
251.6199054648291
 20
-227.7531237443545
 30
0.0
 11
251.6199054648291
 21
-227.5731237443547
 31
0.0
  0
POINT
  5
64D4
330
6499
100
AcDbEntity
  8
DEFPOINTS
  6
Continuous
 62
     0
440
 16777216
100
AcDbPoint
 10
252.413178780303
 20
-227.0542580391643
 30
0.0
  0
POINT
  5
64D5
330
6499
100
AcDbEntity
  8
DEFPOINTS
  6
Continuous
 62
     0
440
 16777216
100
AcDbPoint
 10
251.6199054648291
 20
-227.6631237443548
 30
0.0
  0
ENDBLK
  5
64A3
330
6499
100
AcDbEntity
  8
0
100
AcDbBlockEnd
  0
BLOCK
  5
64AE
330
64A4
100
AcDbEntity
  8
0
100
AcDbBlockBegin
  2
*D25
 70
     1
 10
0.0
 20
0.0
 30
0.0
  3
*D25
  1

  0
LINE
  5
64D6
330
64A4
100
AcDbEntity
  8
30
  6
Continuous
 62
     0
440
 16777216
100
AcDbLine
 10
252.6199054648288
 20
-226.6631237443549
 30
0.0
 11
273.180795841907
 21
-226.6631237443549
 31
0.0
  0
LINE
  5
64D7
330
64A4
100
AcDbEntity
  8
30
  6
Continuous
 62
     0
440
 16777216
100
AcDbLine
 10
252.6199054648288
 20
-278.6631237443549
 30
0.0
 11
273.180795841907
 21
-278.6631237443549
 31
0.0
  0
LINE
  5
64D8
330
64A4
100
AcDbEntity
  8
30
  6
Continuous
 62
     0
440
 16777216
100
AcDbLine
 10
272.680795841907
 20
-228.663123744355
 30
0.0
 11
272.680795841907
 21
-276.6631237443549
 31
0.0
  0
INSERT
  5
64D9
330
64A4
100
AcDbEntity
  8
30
  6
Continuous
 62
     0
440
 16777216
100
AcDbBlockReference
  2
_OPEN
 10
272.680795841907
 20
-226.6631237443549
 30
0.0
 41
2.0
 42
2.0
 43
2.0
 50
90.0
  0
INSERT
  5
64DA
330
64A4
100
AcDbEntity
  8
30
  6
Continuous
 62
     0
440
 16777216
100
AcDbBlockReference
  2
_OPEN
 10
272.680795841907
 20
-278.6631237443549
 30
0.0
 41
2.0
 42
2.0
 43
2.0
 50
270.0
  0
MTEXT
  5
64DB
330
64A4
100
AcDbEntity
  8
30
  6
Continuous
 62
     0
440
 16777216
100
AcDbMText
 10
269.680795841907
 20
-252.6631237443548
 30
0.0
 40
4.0
 41
0.0
 46
0.0
 71
     5
 72
     1
  1
\A1;52
 11
0.0000000000000001
 21
1.0
 31
0.0
 73
     1
 44
1.0
1001
ACAD
1000
MTEXTBEGIN
1070
    73
1070
     1
1070
    44
1040
1.0
1070
    74
1070
     0
1000
MTEXTEND
  0
POINT
  5
64DC
330
64A4
100
AcDbEntity
  8
DEFPOINTS
  6
Continuous
 62
     0
440
 16777216
100
AcDbPoint
 10
251.6199054648287
 20
-226.6631237443549
 30
0.0
  0
POINT
  5
64DD
330
64A4
100
AcDbEntity
  8
DEFPOINTS
  6
Continuous
 62
     0
440
 16777216
100
AcDbPoint
 10
251.6199054648287
 20
-278.6631237443549
 30
0.0
  0
POINT
  5
64DE
330
64A4
100
AcDbEntity
  8
DEFPOINTS
  6
Continuous
 62
     0
440
 16777216
100
AcDbPoint
 10
272.680795841907
 20
-278.6631237443549
 30
0.0
  0
ENDBLK
  5
64AF
330
64A4
100
AcDbEntity
  8
0
100
AcDbBlockEnd
  0
BLOCK
  5
662F
330
6625
100
AcDbEntity
  8
0
100
AcDbBlockBegin
  2
*D26
 70
     1
 10
0.0
 20
0.0
 30
0.0
  3
*D26
  1

  0
LINE
  5
6649
330
6625
100
AcDbEntity
  8
30
  6
Continuous
 62
     0
100
AcDbLine
 10
69.00000000000004
 20
105.9999999999996
 30
0.0
 11
85.7649774054443
 21
105.9999999999996
 31
0.0
  0
LINE
  5
664A
330
6625
100
AcDbEntity
  8
30
  6
Continuous
 62
     0
100
AcDbLine
 10
69.00000000000004
 20
77.49999999999997
 30
0.0
 11
85.7649774054443
 21
77.49999999999997
 31
0.0
  0
LINE
  5
664B
330
6625
100
AcDbEntity
  8
30
  6
Continuous
 62
     0
100
AcDbLine
 10
85.2649774054443
 20
103.9999999999996
 30
0.0
 11
85.26497740544428
 21
79.49999999999997
 31
0.0
  0
INSERT
  5
664C
330
6625
100
AcDbEntity
  8
30
  6
Continuous
 62
     0
100
AcDbBlockReference
  2
_OPEN
 10
85.2649774054443
 20
105.9999999999996
 30
0.0
 41
2.0
 42
2.0
 43
2.0
 50
90.0
  0
INSERT
  5
664D
330
6625
100
AcDbEntity
  8
30
  6
Continuous
 62
     0
100
AcDbBlockReference
  2
_OPEN
 10
85.26497740544428
 20
77.49999999999997
 30
0.0
 41
2.0
 42
2.0
 43
2.0
 50
270.0
  0
MTEXT
  5
664E
330
6625
100
AcDbEntity
  8
30
  6
Continuous
 62
     0
100
AcDbMText
 10
82.26497740544427
 20
91.74999999999998
 30
0.0
 40
4.0
 41
0.0
 46
0.0
 71
     5
 72
     1
  1
\A1;28.5
 11
0.0000000000000001
 21
1.0
 31
0.0
 73
     1
 44
1.0
1001
ACAD
1000
MTEXTBEGIN
1070
    73
1070
     1
1070
    44
1040
1.0
1070
    74
1070
     0
1000
MTEXTEND
  0
POINT
  5
664F
330
6625
100
AcDbEntity
  8
DEFPOINTS
  6
Continuous
 62
     0
100
AcDbPoint
 10
68.00000000000007
 20
105.9999999999996
 30
0.0
  0
POINT
  5
6650
330
6625
100
AcDbEntity
  8
DEFPOINTS
  6
Continuous
 62
     0
100
AcDbPoint
 10
68.00000000000007
 20
77.49999999999997
 30
0.0
  0
POINT
  5
6651
330
6625
100
AcDbEntity
  8
DEFPOINTS
  6
Continuous
 62
     0
100
AcDbPoint
 10
85.26497740544428
 20
77.49999999999997
 30
0.0
  0
ENDBLK
  5
6630
330
6625
100
AcDbEntity
  8
0
100
AcDbBlockEnd
  0
BLOCK
  5
663B
330
6631
100
AcDbEntity
  8
0
100
AcDbBlockBegin
  2
*D27
 70
     1
 10
0.0
 20
0.0
 30
0.0
  3
*D27
  1

  0
LINE
  5
6652
330
6631
100
AcDbEntity
  8
30
  6
Continuous
 62
     0
100
AcDbLine
 10
52.00000000000006
 20
106.9999999999996
 30
0.0
 11
52.00000000000006
 21
119.3555569197477
 31
0.0
  0
LINE
  5
6653
330
6631
100
AcDbEntity
  8
30
  6
Continuous
 62
     0
100
AcDbLine
 10
68.00000000000007
 20
106.9999999999996
 30
0.0
 11
68.00000000000007
 21
119.3555569197477
 31
0.0
  0
LINE
  5
6654
330
6631
100
AcDbEntity
  8
30
  6
Continuous
 62
     0
100
AcDbLine
 10
54.00000000000005
 20
118.8555569197476
 30
0.0
 11
66.00000000000004
 21
118.8555569197476
 31
0.0
  0
INSERT
  5
6655
330
6631
100
AcDbEntity
  8
30
  6
Continuous
 62
     0
100
AcDbBlockReference
  2
_OPEN
 10
52.00000000000006
 20
118.8555569197476
 30
0.0
 41
2.0
 42
2.0
 43
2.0
 50
180.0
  0
INSERT
  5
6656
330
6631
100
AcDbEntity
  8
30
  6
Continuous
 62
     0
100
AcDbBlockReference
  2
_OPEN
 10
68.00000000000007
 20
118.8555569197476
 30
0.0
 41
2.0
 42
2.0
 43
2.0
  0
MTEXT
  5
6657
330
6631
100
AcDbEntity
  8
30
  6
Continuous
 62
     0
100
AcDbMText
 10
60.00000000000007
 20
121.8555569197476
 30
0.0
 40
4.0
 41
0.0
 46
0.0
 71
     5
 72
     1
  1
\A1;16
 73
     1
 44
1.0
1001
ACAD
1000
MTEXTBEGIN
1070
    73
1070
     1
1070
    44
1040
1.0
1070
    74
1070
     0
1000
MTEXTEND
  0
POINT
  5
6658
330
6631
100
AcDbEntity
  8
DEFPOINTS
  6
Continuous
 62
     0
100
AcDbPoint
 10
52.00000000000006
 20
105.9999999999996
 30
0.0
  0
POINT
  5
6659
330
6631
100
AcDbEntity
  8
DEFPOINTS
  6
Continuous
 62
     0
100
AcDbPoint
 10
68.00000000000007
 20
105.9999999999996
 30
0.0
  0
POINT
  5
665A
330
6631
100
AcDbEntity
  8
DEFPOINTS
  6
Continuous
 62
     0
100
AcDbPoint
 10
68.00000000000007
 20
118.8555569197476
 30
0.0
  0
ENDBLK
  5
663C
330
6631
100
AcDbEntity
  8
0
100
AcDbBlockEnd
  0
BLOCK
  5
6647
330
663D
100
AcDbEntity
  8
0
100
AcDbBlockBegin
  2
*D28
 70
     1
 10
0.0
 20
0.0
 30
0.0
  3
*D28
  1

  0
LINE
  5
665B
330
663D
100
AcDbEntity
  8
30
  6
Continuous
 62
     0
100
AcDbLine
 10
69.00000000000004
 20
105.9999999999996
 30
0.0
 11
76.5487018232797
 21
105.9999999999996
 31
0.0
  0
LINE
  5
665C
330
663D
100
AcDbEntity
  8
30
  6
Continuous
 62
     0
100
AcDbLine
 10
65.25000000000004
 20
97.99999999999997
 30
0.0
 11
76.5487018232797
 21
97.99999999999997
 31
0.0
  0
LINE
  5
665D
330
663D
100
AcDbEntity
  8
30
  6
Continuous
 62
     0
100
AcDbLine
 10
76.0487018232797
 20
103.9999999999996
 30
0.0
 11
76.0487018232797
 21
100.0
 31
0.0
  0
INSERT
  5
665E
330
663D
100
AcDbEntity
  8
30
  6
Continuous
 62
     0
100
AcDbBlockReference
  2
_OPEN
 10
76.0487018232797
 20
105.9999999999996
 30
0.0
 41
2.0
 42
2.0
 43
2.0
 50
90.0
  0
INSERT
  5
665F
330
663D
100
AcDbEntity
  8
30
  6
Continuous
 62
     0
100
AcDbBlockReference
  2
_OPEN
 10
76.0487018232797
 20
97.99999999999997
 30
0.0
 41
2.0
 42
2.0
 43
2.0
 50
270.0
  0
MTEXT
  5
6660
330
663D
100
AcDbEntity
  8
30
  6
Continuous
 62
     0
100
AcDbMText
 10
73.04870182327967
 20
101.9999999999999
 30
0.0
 40
4.0
 41
0.0
 46
0.0
 71
     5
 72
     1
  1
\A1;8
 11
0.0000000000000001
 21
1.0
 31
0.0
 73
     1
 44
1.0
1001
ACAD
1000
MTEXTBEGIN
1070
    73
1070
     1
1070
    44
1040
1.0
1070
    74
1070
     0
1000
MTEXTEND
  0
POINT
  5
6661
330
663D
100
AcDbEntity
  8
DEFPOINTS
  6
Continuous
 62
     0
100
AcDbPoint
 10
68.00000000000007
 20
105.9999999999996
 30
0.0
  0
POINT
  5
6662
330
663D
100
AcDbEntity
  8
DEFPOINTS
  6
Continuous
 62
     0
100
AcDbPoint
 10
64.25000000000007
 20
97.99999999999997
 30
0.0
  0
POINT
  5
6663
330
663D
100
AcDbEntity
  8
DEFPOINTS
  6
Continuous
 62
     0
100
AcDbPoint
 10
76.0487018232797
 20
97.99999999999997
 30
0.0
  0
ENDBLK
  5
6648
330
663D
100
AcDbEntity
  8
0
100
AcDbBlockEnd
  0
BLOCK
  5
671E
330
6714
100
AcDbEntity
  8
0
100
AcDbBlockBegin
  2
*D29
 70
     1
 10
0.0
 20
0.0
 30
0.0
  3
*D29
  1

  0
LINE
  5
6744
330
6714
100
AcDbEntity
  8
30
  6
Continuous
 62
     0
100
AcDbLine
 10
-0.0000000000000001
 20
-103.2499999999999
 30
0.0
 11
-0.0000000000000011
 21
-120.5243264533329
 31
0.0
  0
LINE
  5
6745
330
6714
100
AcDbEntity
  8
30
  6
Continuous
 62
     0
100
AcDbLine
 10
29.99999999999995
 20
-105.9999999999996
 30
0.0
 11
29.99999999999995
 21
-120.5243264533329
 31
0.0
  0
LINE
  5
6746
330
6714
100
AcDbEntity
  8
30
  6
Continuous
 62
     0
100
AcDbLine
 10
1.999999999999998
 20
-120.0243264533328
 30
0.0
 11
27.99999999999994
 21
-120.0243264533328
 31
0.0
  0
INSERT
  5
6747
330
6714
100
AcDbEntity
  8
30
  6
Continuous
 62
     0
100
AcDbBlockReference
  2
_OPEN
 10
-0.0000000000000011
 20
-120.0243264533328
 30
0.0
 41
2.0
 42
2.0
 43
2.0
 50
180.0
  0
INSERT
  5
6748
330
6714
100
AcDbEntity
  8
30
  6
Continuous
 62
     0
100
AcDbBlockReference
  2
_OPEN
 10
29.99999999999995
 20
-120.0243264533328
 30
0.0
 41
2.0
 42
2.0
 43
2.0
  0
MTEXT
  5
6749
330
6714
100
AcDbEntity
  8
30
  6
Continuous
 62
     0
100
AcDbMText
 10
14.99999999999997
 20
-117.0243264533329
 30
0.0
 40
4.0
 41
0.0
 46
0.0
 71
     5
 72
     1
  1
\A1;30
 73
     1
 44
1.0
1001
ACAD
1000
MTEXTBEGIN
1070
    73
1070
     1
1070
    44
1040
1.0
1070
    74
1070
     0
1000
MTEXTEND
  0
POINT
  5
674A
330
6714
100
AcDbEntity
  8
DEFPOINTS
  6
Continuous
 62
     0
100
AcDbPoint
 10
0.0
 20
-102.2499999999999
 30
0.0
  0
POINT
  5
674B
330
6714
100
AcDbEntity
  8
DEFPOINTS
  6
Continuous
 62
     0
100
AcDbPoint
 10
29.99999999999995
 20
-104.9999999999996
 30
0.0
  0
POINT
  5
674C
330
6714
100
AcDbEntity
  8
DEFPOINTS
  6
Continuous
 62
     0
100
AcDbPoint
 10
29.99999999999995
 20
-120.0243264533328
 30
0.0
  0
ENDBLK
  5
671F
330
6714
100
AcDbEntity
  8
0
100
AcDbBlockEnd
  0
BLOCK
  5
672A
330
6720
100
AcDbEntity
  8
0
100
AcDbBlockBegin
  2
*D30
 70
     1
 10
0.0
 20
0.0
 30
0.0
  3
*D30
  1

  0
LINE
  5
6939
330
6720
100
AcDbEntity
  8
30
  6
Continuous
 62
     0
440
 16777216
100
AcDbLine
 10
-44.99999999999997
 20
-78.50000000000003
 30
0.0
 11
-44.99999999999997
 21
-107.1830794292268
 31
0.0
  0
LINE
  5
693A
330
6720
100
AcDbEntity
  8
30
  6
Continuous
 62
     0
440
 16777216
100
AcDbLine
 10
75.00000000000003
 20
-78.50000000000003
 30
0.0
 11
75.00000000000003
 21
-107.1830794292268
 31
0.0
  0
LINE
  5
693B
330
6720
100
AcDbEntity
  8
30
  6
Continuous
 62
     0
440
 16777216
100
AcDbLine
 10
-42.99999999999997
 20
-106.6830794292267
 30
0.0
 11
73.00000000000003
 21
-106.6830794292267
 31
0.0
  0
INSERT
  5
693C
330
6720
100
AcDbEntity
  8
30
  6
Continuous
 62
     0
440
 16777216
100
AcDbBlockReference
  2
_OPEN
 10
-44.99999999999997
 20
-106.6830794292267
 30
0.0
 41
2.0
 42
2.0
 43
2.0
 50
180.0
  0
INSERT
  5
693D
330
6720
100
AcDbEntity
  8
30
  6
Continuous
 62
     0
440
 16777216
100
AcDbBlockReference
  2
_OPEN
 10
75.00000000000003
 20
-106.6830794292267
 30
0.0
 41
2.0
 42
2.0
 43
2.0
  0
MTEXT
  5
693E
330
6720
100
AcDbEntity
  8
30
  6
Continuous
 62
     0
440
 16777216
100
AcDbMText
 10
15.00000000000001
 20
-103.6830794292267
 30
0.0
 40
4.0
 41
0.0
 46
0.0
 71
     5
 72
     1
  1
\A1;120
 73
     1
 44
1.0
1001
ACAD
1000
MTEXTBEGIN
1070
    73
1070
     1
1070
    44
1040
1.0
1070
    74
1070
     0
1000
MTEXTEND
  0
POINT
  5
693F
330
6720
100
AcDbEntity
  8
DEFPOINTS
  6
Continuous
 62
     0
440
 16777216
100
AcDbPoint
 10
-44.99999999999997
 20
-77.50000000000003
 30
0.0
  0
POINT
  5
6940
330
6720
100
AcDbEntity
  8
DEFPOINTS
  6
Continuous
 62
     0
440
 16777216
100
AcDbPoint
 10
75.00000000000003
 20
-77.50000000000003
 30
0.0
  0
POINT
  5
6941
330
6720
100
AcDbEntity
  8
DEFPOINTS
  6
Continuous
 62
     0
440
 16777216
100
AcDbPoint
 10
75.00000000000003
 20
-106.6830794292267
 30
0.0
  0
ENDBLK
  5
672B
330
6720
100
AcDbEntity
  8
0
100
AcDbBlockEnd
  0
BLOCK
  5
6736
330
672C
100
AcDbEntity
  8
0
100
AcDbBlockBegin
  2
*D31
 70
     1
 10
0.0
 20
0.0
 30
0.0
  3
*D31
  1

  0
LINE
  5
6756
330
672C
100
AcDbEntity
  8
30
  6
Continuous
 62
     0
100
AcDbLine
 10
-29.99999999999995
 20
-103.2499999999999
 30
0.0
 11
-29.99999999999995
 21
-120.5243264533329
 31
0.0
  0
LINE
  5
6757
330
672C
100
AcDbEntity
  8
30
  6
Continuous
 62
     0
100
AcDbLine
 10
-0.0000000000000001
 20
-105.9999999999996
 30
0.0
 11
-0.000000000000001
 21
-120.5243264533329
 31
0.0
  0
LINE
  5
6758
330
672C
100
AcDbEntity
  8
30
  6
Continuous
 62
     0
100
AcDbLine
 10
-27.99999999999994
 20
-120.0243264533328
 30
0.0
 11
-2.0
 21
-120.0243264533328
 31
0.0
  0
INSERT
  5
6759
330
672C
100
AcDbEntity
  8
30
  6
Continuous
 62
     0
100
AcDbBlockReference
  2
_OPEN
 10
-29.99999999999995
 20
-120.0243264533328
 30
0.0
 41
2.0
 42
2.0
 43
2.0
 50
180.0
  0
INSERT
  5
675A
330
672C
100
AcDbEntity
  8
30
  6
Continuous
 62
     0
100
AcDbBlockReference
  2
_OPEN
 10
-0.0000000000000009
 20
-120.0243264533328
 30
0.0
 41
2.0
 42
2.0
 43
2.0
  0
MTEXT
  5
675B
330
672C
100
AcDbEntity
  8
30
  6
Continuous
 62
     0
100
AcDbMText
 10
-14.99999999999997
 20
-117.0243264533329
 30
0.0
 40
4.0
 41
0.0
 46
0.0
 71
     5
 72
     1
  1
\A1;30
 73
     1
 44
1.0
1001
ACAD
1000
MTEXTBEGIN
1070
    73
1070
     1
1070
    44
1040
1.0
1070
    74
1070
     0
1000
MTEXTEND
  0
POINT
  5
675C
330
672C
100
AcDbEntity
  8
DEFPOINTS
  6
Continuous
 62
     0
100
AcDbPoint
 10
-29.99999999999995
 20
-102.2499999999999
 30
0.0
  0
POINT
  5
675D
330
672C
100
AcDbEntity
  8
DEFPOINTS
  6
Continuous
 62
     0
100
AcDbPoint
 10
0.0
 20
-104.9999999999996
 30
0.0
  0
POINT
  5
675E
330
672C
100
AcDbEntity
  8
DEFPOINTS
  6
Continuous
 62
     0
100
AcDbPoint
 10
-0.0000000000000009
 20
-120.0243264533328
 30
0.0
  0
ENDBLK
  5
6737
330
672C
100
AcDbEntity
  8
0
100
AcDbBlockEnd
  0
BLOCK
  5
6742
330
6738
100
AcDbEntity
  8
0
100
AcDbBlockBegin
  2
*D32
 70
     1
 10
0.0
 20
0.0
 30
0.0
  3
*D32
  1

  0
LINE
  5
675F
330
6738
100
AcDbEntity
  8
30
  6
Continuous
 62
     0
100
AcDbLine
 10
29.99999999999995
 20
-103.2499999999999
 30
0.0
 11
29.99999999999995
 21
-120.5243264533329
 31
0.0
  0
LINE
  5
6760
330
6738
100
AcDbEntity
  8
30
  6
Continuous
 62
     0
100
AcDbLine
 10
59.99999999999989
 20
-105.9999999999996
 30
0.0
 11
59.99999999999989
 21
-120.5243264533329
 31
0.0
  0
LINE
  5
6761
330
6738
100
AcDbEntity
  8
30
  6
Continuous
 62
     0
100
AcDbLine
 10
31.99999999999994
 20
-120.0243264533328
 30
0.0
 11
57.9999999999999
 21
-120.0243264533328
 31
0.0
  0
INSERT
  5
6762
330
6738
100
AcDbEntity
  8
30
  6
Continuous
 62
     0
100
AcDbBlockReference
  2
_OPEN
 10
29.99999999999995
 20
-120.0243264533328
 30
0.0
 41
2.0
 42
2.0
 43
2.0
 50
180.0
  0
INSERT
  5
6763
330
6738
100
AcDbEntity
  8
30
  6
Continuous
 62
     0
100
AcDbBlockReference
  2
_OPEN
 10
59.99999999999989
 20
-120.0243264533328
 30
0.0
 41
2.0
 42
2.0
 43
2.0
  0
MTEXT
  5
6764
330
6738
100
AcDbEntity
  8
30
  6
Continuous
 62
     0
100
AcDbMText
 10
44.99999999999992
 20
-117.0243264533329
 30
0.0
 40
4.0
 41
0.0
 46
0.0
 71
     5
 72
     1
  1
\A1;30
 73
     1
 44
1.0
1001
ACAD
1000
MTEXTBEGIN
1070
    73
1070
     1
1070
    44
1040
1.0
1070
    74
1070
     0
1000
MTEXTEND
  0
POINT
  5
6765
330
6738
100
AcDbEntity
  8
DEFPOINTS
  6
Continuous
 62
     0
100
AcDbPoint
 10
29.99999999999995
 20
-102.2499999999999
 30
0.0
  0
POINT
  5
6766
330
6738
100
AcDbEntity
  8
DEFPOINTS
  6
Continuous
 62
     0
100
AcDbPoint
 10
59.99999999999989
 20
-104.9999999999996
 30
0.0
  0
POINT
  5
6767
330
6738
100
AcDbEntity
  8
DEFPOINTS
  6
Continuous
 62
     0
100
AcDbPoint
 10
59.99999999999989
 20
-120.0243264533328
 30
0.0
  0
ENDBLK
  5
6743
330
6738
100
AcDbEntity
  8
0
100
AcDbBlockEnd
  0
BLOCK
  5
67A0
330
6796
100
AcDbEntity
  8
0
100
AcDbBlockBegin
  2
*D33
 70
     1
 10
0.0
 20
0.0
 30
0.0
  3
*D33
  1

  0
LINE
  5
67AF
330
6796
100
AcDbEntity
  8
30
  6
Continuous
 62
     0
100
AcDbLine
 10
190.7923778520064
 20
107.0102925531035
 30
0.0
 11
190.7923778520064
 21
122.7740785404979
 31
0.0
  0
LINE
  5
67B0
330
6796
100
AcDbEntity
  8
30
  6
Continuous
 62
     0
100
AcDbLine
 10
217.9923778520064
 20
78.51029255310357
 30
0.0
 11
217.9923778520064
 21
122.7740785404979
 31
0.0
  0
LINE
  5
67B1
330
6796
100
AcDbEntity
  8
30
  6
Continuous
 62
     0
100
AcDbLine
 10
192.7923778520064
 20
122.2740785404979
 30
0.0
 11
215.9923778520064
 21
122.2740785404979
 31
0.0
  0
INSERT
  5
67B2
330
6796
100
AcDbEntity
  8
30
  6
Continuous
 62
     0
100
AcDbBlockReference
  2
_OPEN
 10
190.7923778520064
 20
122.2740785404979
 30
0.0
 41
2.0
 42
2.0
 43
2.0
 50
180.0
  0
INSERT
  5
67B3
330
6796
100
AcDbEntity
  8
30
  6
Continuous
 62
     0
100
AcDbBlockReference
  2
_OPEN
 10
217.9923778520064
 20
122.2740785404979
 30
0.0
 41
2.0
 42
2.0
 43
2.0
  0
MTEXT
  5
67B4
330
6796
100
AcDbEntity
  8
30
  6
Continuous
 62
     0
100
AcDbMText
 10
204.3923778520063
 20
125.2740785404979
 30
0.0
 40
4.0
 41
0.0
 46
0.0
 71
     5
 72
     1
  1
\A1;27.2
 73
     1
 44
1.0
1001
ACAD
1000
MTEXTBEGIN
1070
    73
1070
     1
1070
    44
1040
1.0
1070
    74
1070
     0
1000
MTEXTEND
  0
POINT
  5
67B5
330
6796
100
AcDbEntity
  8
DEFPOINTS
  6
Continuous
 62
     0
100
AcDbPoint
 10
190.7923778520064
 20
106.0102925531035
 30
0.0
  0
POINT
  5
67B6
330
6796
100
AcDbEntity
  8
DEFPOINTS
  6
Continuous
 62
     0
100
AcDbPoint
 10
217.9923778520064
 20
77.51029255310356
 30
0.0
  0
POINT
  5
67B7
330
6796
100
AcDbEntity
  8
DEFPOINTS
  6
Continuous
 62
     0
100
AcDbPoint
 10
217.9923778520064
 20
122.2740785404979
 30
0.0
  0
ENDBLK
  5
67A1
330
6796
100
AcDbEntity
  8
0
100
AcDbBlockEnd
  0
BLOCK
  5
67AD
330
67A2
100
AcDbEntity
  8
0
100
AcDbBlockBegin
  2
*D34
 70
     1
 10
0.0
 20
0.0
 30
0.0
  3
*D34
  1

  0
LINE
  5
67B8
330
67A2
100
AcDbEntity
  8
30
  6
Continuous
 62
     0
100
AcDbLine
 10
193.9923778520064
 20
107.0102925531035
 30
0.0
 11
193.9923778520064
 21
113.8276404527821
 31
0.0
  0
LINE
  5
67B9
330
67A2
100
AcDbEntity
  8
30
  6
Continuous
 62
     0
100
AcDbLine
 10
190.7923778520064
 20
107.0102925531035
 30
0.0
 11
190.7923778520064
 21
113.8276404527821
 31
0.0
  0
LINE
  5
67BA
330
67A2
100
AcDbEntity
  8
30
  6
Continuous
 62
     0
100
AcDbLine
 10
195.9923778520064
 20
113.3276404527824
 30
0.0
 11
197.9923778520064
 21
113.3276404527824
 31
0.0
  0
LINE
  5
67BB
330
67A2
100
AcDbEntity
  8
30
  6
Continuous
 62
     0
100
AcDbLine
 10
188.7923778520064
 20
113.3276404527824
 30
0.0
 11
176.7923778520064
 21
113.3276404527824
 31
0.0
  0
INSERT
  5
67BC
330
67A2
100
AcDbEntity
  8
30
  6
Continuous
 62
     0
100
AcDbBlockReference
  2
_OPEN
 10
193.9923778520064
 20
113.3276404527824
 30
0.0
 41
2.0
 42
2.0
 43
2.0
 50
180.0
  0
INSERT
  5
67BD
330
67A2
100
AcDbEntity
  8
30
  6
Continuous
 62
     0
100
AcDbBlockReference
  2
_OPEN
 10
190.7923778520064
 20
113.3276404527824
 30
0.0
 41
2.0
 42
2.0
 43
2.0
  0
MTEXT
  5
67BE
330
67A2
100
AcDbEntity
  8
30
  6
Continuous
 62
     0
100
AcDbMText
 10
181.7923778520064
 20
116.3276404527824
 30
0.0
 40
4.0
 41
0.0
 46
0.0
 71
     5
 72
     1
  1
\A1;3.2
 73
     1
 44
1.0
1001
ACAD
1000
MTEXTBEGIN
1070
    73
1070
     1
1070
    44
1040
1.0
1070
    74
1070
     0
1000
MTEXTEND
  0
POINT
  5
67BF
330
67A2
100
AcDbEntity
  8
DEFPOINTS
  6
Continuous
 62
     0
100
AcDbPoint
 10
193.9923778520064
 20
106.0102925531035
 30
0.0
  0
POINT
  5
67C0
330
67A2
100
AcDbEntity
  8
DEFPOINTS
  6
Continuous
 62
     0
100
AcDbPoint
 10
190.7923778520064
 20
106.0102925531035
 30
0.0
  0
POINT
  5
67C1
330
67A2
100
AcDbEntity
  8
DEFPOINTS
  6
Continuous
 62
     0
100
AcDbPoint
 10
190.7923778520064
 20
113.3276404527824
 30
0.0
  0
ENDBLK
  5
67AE
330
67A2
100
AcDbEntity
  8
0
100
AcDbBlockEnd
  0
BLOCK
  5
6820
330
6816
100
AcDbEntity
  8
0
100
AcDbBlockBegin
  2
*D35
 70
     1
 10
0.0
 20
0.0
 30
0.0
  3
*D35
  1

  0
LINE
  5
6817
330
6816
100
AcDbEntity
  8
30
  6
Continuous
 62
     0
100
AcDbLine
 10
197.8144775593031
 20
78.50000000000001
 30
0.0
 11
197.8144775593031
 21
108.7505818560483
 31
0.0
  0
LINE
  5
6818
330
6816
100
AcDbEntity
  8
30
  6
Continuous
 62
     0
100
AcDbLine
 10
221.8144775593031
 20
78.5000000000001
 30
0.0
 11
221.8144775593031
 21
108.7505818560483
 31
0.0
  0
LINE
  5
6819
330
6816
100
AcDbEntity
  8
30
  6
Continuous
 62
     0
100
AcDbLine
 10
199.8144775593031
 20
108.2505818560482
 30
0.0
 11
219.8144775593031
 21
108.2505818560482
 31
0.0
  0
INSERT
  5
681A
330
6816
100
AcDbEntity
  8
30
  6
Continuous
 62
     0
100
AcDbBlockReference
  2
_OPEN
 10
197.8144775593031
 20
108.2505818560482
 30
0.0
 41
2.0
 42
2.0
 43
2.0
 50
180.0
  0
INSERT
  5
681B
330
6816
100
AcDbEntity
  8
30
  6
Continuous
 62
     0
100
AcDbBlockReference
  2
_OPEN
 10
221.8144775593031
 20
108.2505818560482
 30
0.0
 41
2.0
 42
2.0
 43
2.0
  0
MTEXT
  5
681C
330
6816
100
AcDbEntity
  8
30
  6
Continuous
 62
     0
100
AcDbMText
 10
209.8144775593031
 20
111.2505818560483
 30
0.0
 40
4.0
 41
0.0
 46
0.0
 71
     5
 72
     1
  1
\A1;24
 73
     1
 44
1.0
1001
ACAD
1000
MTEXTBEGIN
1070
    73
1070
     1
1070
    44
1040
1.0
1070
    74
1070
     0
1000
MTEXTEND
  0
POINT
  5
681D
330
6816
100
AcDbEntity
  8
DEFPOINTS
  6
Continuous
 62
     0
100
AcDbPoint
 10
197.8144775593031
 20
77.50000000000001
 30
0.0
  0
POINT
  5
681E
330
6816
100
AcDbEntity
  8
DEFPOINTS
  6
Continuous
 62
     0
100
AcDbPoint
 10
221.8144775593031
 20
77.5000000000001
 30
0.0
  0
POINT
  5
681F
330
6816
100
AcDbEntity
  8
DEFPOINTS
  6
Continuous
 62
     0
100
AcDbPoint
 10
221.8144775593031
 20
108.2505818560482
 30
0.0
  0
ENDBLK
  5
6821
330
6816
100
AcDbEntity
  8
0
100
AcDbBlockEnd
  0
BLOCK
  5
684E
330
6844
100
AcDbEntity
  8
0
100
AcDbBlockBegin
  2
*D36
 70
     1
 10
0.0
 20
0.0
 30
0.0
  3
*D36
  1

  0
LINE
  5
6850
330
6844
100
AcDbEntity
  8
30
  6
Continuous
 62
     0
440
 16777216
100
AcDbLine
 10
193.9923778520064
 20
78.51029255310345
 30
0.0
 11
193.9923778520064
 21
108.7608744091516
 31
0.0
  0
LINE
  5
6851
330
6844
100
AcDbEntity
  8
30
  6
Continuous
 62
     0
440
 16777216
100
AcDbLine
 10
217.9923778520064
 20
78.51029255310354
 30
0.0
 11
217.9923778520064
 21
108.7608744091516
 31
0.0
  0
LINE
  5
6852
330
6844
100
AcDbEntity
  8
30
  6
Continuous
 62
     0
440
 16777216
100
AcDbLine
 10
195.9923778520064
 20
108.2608744091515
 30
0.0
 11
215.9923778520064
 21
108.2608744091515
 31
0.0
  0
INSERT
  5
6853
330
6844
100
AcDbEntity
  8
30
  6
Continuous
 62
     0
440
 16777216
100
AcDbBlockReference
  2
_OPEN
 10
193.9923778520064
 20
108.2608744091515
 30
0.0
 41
2.0
 42
2.0
 43
2.0
 50
180.0
  0
INSERT
  5
6854
330
6844
100
AcDbEntity
  8
30
  6
Continuous
 62
     0
440
 16777216
100
AcDbBlockReference
  2
_OPEN
 10
217.9923778520064
 20
108.2608744091515
 30
0.0
 41
2.0
 42
2.0
 43
2.0
  0
MTEXT
  5
6855
330
6844
100
AcDbEntity
  8
30
  6
Continuous
 62
     0
440
 16777216
100
AcDbMText
 10
205.9923778520064
 20
111.2608744091515
 30
0.0
 40
4.0
 41
0.0
 46
0.0
 71
     5
 72
     1
  1
\A1;24
 73
     1
 44
1.0
1001
ACAD
1000
MTEXTBEGIN
1070
    73
1070
     1
1070
    44
1040
1.0
1070
    74
1070
     0
1000
MTEXTEND
  0
POINT
  5
6856
330
6844
100
AcDbEntity
  8
DEFPOINTS
  6
Continuous
 62
     0
440
 16777216
100
AcDbPoint
 10
193.9923778520064
 20
77.51029255310346
 30
0.0
  0
POINT
  5
6857
330
6844
100
AcDbEntity
  8
DEFPOINTS
  6
Continuous
 62
     0
440
 16777216
100
AcDbPoint
 10
217.9923778520064
 20
77.51029255310354
 30
0.0
  0
POINT
  5
6858
330
6844
100
AcDbEntity
  8
DEFPOINTS
  6
Continuous
 62
     0
440
 16777216
100
AcDbPoint
 10
217.9923778520064
 20
108.2608744091515
 30
0.0
  0
ENDBLK
  5
684F
330
6844
100
AcDbEntity
  8
0
100
AcDbBlockEnd
  0
BLOCK
  5
6A01
330
6A00
100
AcDbEntity
  8
0
100
AcDbBlockBegin
  2
*D37
 70
     1
 10
0.0
 20
0.0
 30
0.0
  3
*D37
  1

  0
LINE
  5
6A03
330
6A00
100
AcDbEntity
  8
30
  6
Continuous
 62
     0
370
    -2
100
AcDbLine
 10
75.99999999999997
 20
235.1349134126127
 30
0.0
 11
83.03557793199617
 21
235.1349134126127
 31
0.0
  0
LINE
  5
6A04
330
6A00
100
AcDbEntity
  8
30
  6
Continuous
 62
     0
370
    -2
100
AcDbLine
 10
75.99999999999998
 20
174.1349134126129
 30
0.0
 11
83.03557793199615
 21
174.1349134126129
 31
0.0
  0
LINE
  5
6A05
330
6A00
100
AcDbEntity
  8
30
  6
Continuous
 62
     0
370
    -2
100
AcDbLine
 10
82.53557793199616
 20
233.1349134126127
 30
0.0
 11
82.53557793199616
 21
176.1349134126129
 31
0.0
  0
INSERT
  5
6A06
330
6A00
100
AcDbEntity
  8
30
  6
Continuous
 62
     0
370
    -2
100
AcDbBlockReference
  2
_OPEN
 10
82.53557793199616
 20
235.1349134126127
 30
0.0
 41
2.0
 42
2.0
 43
2.0
 50
90.0
  0
INSERT
  5
6A07
330
6A00
100
AcDbEntity
  8
30
  6
Continuous
 62
     0
370
    -2
100
AcDbBlockReference
  2
_OPEN
 10
82.53557793199616
 20
174.1349134126129
 30
0.0
 41
2.0
 42
2.0
 43
2.0
 50
270.0
  0
MTEXT
  5
6A08
330
6A00
100
AcDbEntity
  8
30
  6
Continuous
 62
     0
100
AcDbMText
 10
79.53557793199613
 20
204.6349134126128
 30
0.0
 40
4.0
 41
0.0
 46
0.0
 71
     5
 72
     1
  1
\A1;61
 11
0.0000000000000001
 21
1.0
 31
0.0
 73
     1
 44
1.0
1001
ACAD
1000
MTEXTBEGIN
1070
    73
1070
     1
1070
    44
1040
1.0
1070
    74
1070
     0
1000
MTEXTEND
  0
POINT
  5
6A09
330
6A00
100
AcDbEntity
  8
DEFPOINTS
  6
Continuous
 62
     0
100
AcDbPoint
 10
74.99999999999997
 20
235.1349134126127
 30
0.0
  0
POINT
  5
6A0A
330
6A00
100
AcDbEntity
  8
DEFPOINTS
  6
Continuous
 62
     0
100
AcDbPoint
 10
74.99999999999999
 20
174.1349134126129
 30
0.0
  0
POINT
  5
6A0B
330
6A00
100
AcDbEntity
  8
DEFPOINTS
  6
Continuous
 62
     0
100
AcDbPoint
 10
82.53557793199616
 20
174.1349134126129
 30
0.0
  0
ENDBLK
  5
6A02
330
6A00
100
AcDbEntity
  8
0
100
AcDbBlockEnd
  0
BLOCK
  5
6A0E
330
6A0D
100
AcDbEntity
  8
0
100
AcDbBlockBegin
  2
*D38
 70
     1
 10
0.0
 20
0.0
 30
0.0
  3
*D38
  1

  0
LINE
  5
6A10
330
6A0D
100
AcDbEntity
  8
30
  6
Continuous
 62
     0
370
    -2
100
AcDbLine
 10
75.99999999999998
 20
235.1349134126127
 30
0.0
 11
90.34192661915676
 21
235.1349134126127
 31
0.0
  0
LINE
  5
6A11
330
6A0D
100
AcDbEntity
  8
30
  6
Continuous
 62
     0
370
    -2
100
AcDbLine
 10
75.99999999999998
 20
167.1349134126128
 30
0.0
 11
90.34192661915676
 21
167.1349134126128
 31
0.0
  0
LINE
  5
6A12
330
6A0D
100
AcDbEntity
  8
30
  6
Continuous
 62
     0
370
    -2
100
AcDbLine
 10
89.84192661915676
 20
233.1349134126127
 30
0.0
 11
89.84192661915676
 21
169.1349134126128
 31
0.0
  0
INSERT
  5
6A13
330
6A0D
100
AcDbEntity
  8
30
  6
Continuous
 62
     0
370
    -2
100
AcDbBlockReference
  2
_OPEN
 10
89.84192661915676
 20
235.1349134126127
 30
0.0
 41
2.0
 42
2.0
 43
2.0
 50
90.0
  0
INSERT
  5
6A14
330
6A0D
100
AcDbEntity
  8
30
  6
Continuous
 62
     0
370
    -2
100
AcDbBlockReference
  2
_OPEN
 10
89.84192661915676
 20
167.1349134126128
 30
0.0
 41
2.0
 42
2.0
 43
2.0
 50
270.0
  0
MTEXT
  5
6A15
330
6A0D
100
AcDbEntity
  8
30
  6
Continuous
 62
     0
100
AcDbMText
 10
86.84192661915671
 20
201.1349134126128
 30
0.0
 40
4.0
 41
0.0
 46
0.0
 71
     5
 72
     1
  1
\A1;68
 11
0.0000000000000001
 21
1.0
 31
0.0
 73
     1
 44
1.0
1001
ACAD
1000
MTEXTBEGIN
1070
    73
1070
     1
1070
    44
1040
1.0
1070
    74
1070
     0
1000
MTEXTEND
  0
POINT
  5
6A16
330
6A0D
100
AcDbEntity
  8
DEFPOINTS
  6
Continuous
 62
     0
100
AcDbPoint
 10
74.99999999999999
 20
235.1349134126127
 30
0.0
  0
POINT
  5
6A17
330
6A0D
100
AcDbEntity
  8
DEFPOINTS
  6
Continuous
 62
     0
100
AcDbPoint
 10
74.99999999999999
 20
167.1349134126128
 30
0.0
  0
POINT
  5
6A18
330
6A0D
100
AcDbEntity
  8
DEFPOINTS
  6
Continuous
 62
     0
100
AcDbPoint
 10
89.84192661915676
 20
167.1349134126128
 30
0.0
  0
ENDBLK
  5
6A0F
330
6A0D
100
AcDbEntity
  8
0
100
AcDbBlockEnd
  0
BLOCK
  5
6A1B
330
6A1A
100
AcDbEntity
  8
0
100
AcDbBlockBegin
  2
*D39
 70
     1
 10
0.0
 20
0.0
 30
0.0
  3
*D39
  1

  0
LINE
  5
6A1D
330
6A1A
100
AcDbEntity
  8
30
  6
Continuous
 62
     0
370
    -2
100
AcDbLine
 10
75.99999999999998
 20
235.1349134126127
 30
0.0
 11
97.64827530631784
 21
235.1349134126127
 31
0.0
  0
LINE
  5
6A1E
330
6A1A
100
AcDbEntity
  8
30
  6
Continuous
 62
     0
370
    -2
100
AcDbLine
 10
43.49999999999995
 20
163.1349134126129
 30
0.0
 11
97.6482753063178
 21
163.1349134126129
 31
0.0
  0
LINE
  5
6A1F
330
6A1A
100
AcDbEntity
  8
30
  6
Continuous
 62
     0
370
    -2
100
AcDbLine
 10
97.14827530631785
 20
233.1349134126127
 30
0.0
 11
97.14827530631779
 21
165.1349134126129
 31
0.0
  0
INSERT
  5
6A20
330
6A1A
100
AcDbEntity
  8
30
  6
Continuous
 62
     0
370
    -2
100
AcDbBlockReference
  2
_OPEN
 10
97.14827530631785
 20
235.1349134126127
 30
0.0
 41
2.0
 42
2.0
 43
2.0
 50
90.0
  0
INSERT
  5
6A21
330
6A1A
100
AcDbEntity
  8
30
  6
Continuous
 62
     0
370
    -2
100
AcDbBlockReference
  2
_OPEN
 10
97.14827530631779
 20
163.1349134126129
 30
0.0
 41
2.0
 42
2.0
 43
2.0
 50
270.0
  0
MTEXT
  5
6A22
330
6A1A
100
AcDbEntity
  8
30
  6
Continuous
 62
     0
100
AcDbMText
 10
94.14827530631781
 20
199.1349134126128
 30
0.0
 40
4.0
 41
0.0
 46
0.0
 71
     5
 72
     1
  1
\A1;72
 11
0.0000000000000001
 21
1.0
 31
0.0
 73
     1
 44
1.0
1001
ACAD
1000
MTEXTBEGIN
1070
    73
1070
     1
1070
    44
1040
1.0
1070
    74
1070
     0
1000
MTEXTEND
  0
POINT
  5
6A23
330
6A1A
100
AcDbEntity
  8
DEFPOINTS
  6
Continuous
 62
     0
100
AcDbPoint
 10
74.99999999999999
 20
235.1349134126127
 30
0.0
  0
POINT
  5
6A24
330
6A1A
100
AcDbEntity
  8
DEFPOINTS
  6
Continuous
 62
     0
100
AcDbPoint
 10
42.49999999999995
 20
163.1349134126129
 30
0.0
  0
POINT
  5
6A25
330
6A1A
100
AcDbEntity
  8
DEFPOINTS
  6
Continuous
 62
     0
100
AcDbPoint
 10
97.14827530631779
 20
163.1349134126129
 30
0.0
  0
ENDBLK
  5
6A1C
330
6A1A
100
AcDbEntity
  8
0
100
AcDbBlockEnd
  0
BLOCK
  5
6A28
330
6A27
100
AcDbEntity
  8
0
100
AcDbBlockBegin
  2
*D40
 70
     1
 10
0.0
 20
0.0
 30
0.0
  3
*D40
  1

  0
LINE
  5
6A2A
330
6A27
100
AcDbEntity
  8
30
  6
Continuous
 62
     0
370
    -2
100
AcDbLine
 10
75.99999999999997
 20
235.1349134126127
 30
0.0
 11
104.9546239934789
 21
235.1349134126127
 31
0.0
  0
LINE
  5
6A2B
330
6A27
100
AcDbEntity
  8
30
  6
Continuous
 62
     0
370
    -2
100
AcDbLine
 10
11.99999999999996
 20
159.1349134126129
 30
0.0
 11
104.9546239934789
 21
159.1349134126129
 31
0.0
  0
LINE
  5
6A2C
330
6A27
100
AcDbEntity
  8
30
  6
Continuous
 62
     0
370
    -2
100
AcDbLine
 10
104.4546239934789
 20
233.1349134126127
 30
0.0
 11
104.4546239934789
 21
161.1349134126129
 31
0.0
  0
INSERT
  5
6A2D
330
6A27
100
AcDbEntity
  8
30
  6
Continuous
 62
     0
370
    -2
100
AcDbBlockReference
  2
_OPEN
 10
104.4546239934789
 20
235.1349134126127
 30
0.0
 41
2.0
 42
2.0
 43
2.0
 50
90.0
  0
INSERT
  5
6A2E
330
6A27
100
AcDbEntity
  8
30
  6
Continuous
 62
     0
370
    -2
100
AcDbBlockReference
  2
_OPEN
 10
104.4546239934789
 20
159.1349134126129
 30
0.0
 41
2.0
 42
2.0
 43
2.0
 50
270.0
  0
MTEXT
  5
6A2F
330
6A27
100
AcDbEntity
  8
30
  6
Continuous
 62
     0
100
AcDbMText
 10
101.4546239934789
 20
197.1349134126128
 30
0.0
 40
4.0
 41
0.0
 46
0.0
 71
     5
 72
     1
  1
\A1;76
 11
0.0000000000000001
 21
1.0
 31
0.0
 73
     1
 44
1.0
1001
ACAD
1000
MTEXTBEGIN
1070
    73
1070
     1
1070
    44
1040
1.0
1070
    74
1070
     0
1000
MTEXTEND
  0
POINT
  5
6A30
330
6A27
100
AcDbEntity
  8
DEFPOINTS
  6
Continuous
 62
     0
100
AcDbPoint
 10
74.99999999999997
 20
235.1349134126127
 30
0.0
  0
POINT
  5
6A31
330
6A27
100
AcDbEntity
  8
DEFPOINTS
  6
Continuous
 62
     0
100
AcDbPoint
 10
10.99999999999996
 20
159.1349134126129
 30
0.0
  0
POINT
  5
6A32
330
6A27
100
AcDbEntity
  8
DEFPOINTS
  6
Continuous
 62
     0
100
AcDbPoint
 10
104.4546239934789
 20
159.1349134126129
 30
0.0
  0
ENDBLK
  5
6A29
330
6A27
100
AcDbEntity
  8
0
100
AcDbBlockEnd
  0
BLOCK
  5
6A35
330
6A34
100
AcDbEntity
  8
0
100
AcDbBlockBegin
  2
*D41
 70
     1
 10
0.0
 20
0.0
 30
0.0
  3
*D41
  1

  0
LINE
  5
6A37
330
6A34
100
AcDbEntity
  8
30
  6
Continuous
 62
     0
370
    -2
100
AcDbLine
 10
129.997124052411
 20
16.25024899318012
 30
0.0
 11
129.997124052411
 21
119.0574132873546
 31
0.0
  0
LINE
  5
6A38
330
6A34
100
AcDbEntity
  8
30
  6
Continuous
 62
     0
370
    -2
100
AcDbLine
 10
217.9923778520064
 20
78.51029255310354
 30
0.0
 11
217.9923778520064
 21
119.0574132873546
 31
0.0
  0
LINE
  5
6A39
330
6A34
100
AcDbEntity
  8
30
  6
Continuous
 62
     0
370
    -2
100
AcDbLine
 10
131.9971240524109
 20
118.5574132873546
 30
0.0
 11
215.9923778520064
 21
118.5574132873546
 31
0.0
  0
INSERT
  5
6A3A
330
6A34
100
AcDbEntity
  8
30
  6
Continuous
 62
     0
370
    -2
100
AcDbBlockReference
  2
_OPEN
 10
129.997124052411
 20
118.5574132873546
 30
0.0
 41
2.0
 42
2.0
 43
2.0
 50
180.0
  0
INSERT
  5
6A3B
330
6A34
100
AcDbEntity
  8
30
  6
Continuous
 62
     0
370
    -2
100
AcDbBlockReference
  2
_OPEN
 10
217.9923778520064
 20
118.5574132873546
 30
0.0
 41
2.0
 42
2.0
 43
2.0
  0
MTEXT
  5
6A3C
330
6A34
100
AcDbEntity
  8
30
  6
Continuous
 62
     0
100
AcDbMText
 10
173.9947509522087
 20
121.5574132873546
 30
0.0
 40
4.0
 41
0.0
 46
0.0
 71
     5
 72
     1
  1
\A1;88
 73
     1
 44
1.0
1001
ACAD
1000
MTEXTBEGIN
1070
    73
1070
     1
1070
    44
1040
1.0
1070
    74
1070
     0
1000
MTEXTEND
  0
POINT
  5
6A3D
330
6A34
100
AcDbEntity
  8
DEFPOINTS
  6
Continuous
 62
     0
100
AcDbPoint
 10
129.997124052411
 20
15.25024899318012
 30
0.0
  0
POINT
  5
6A3E
330
6A34
100
AcDbEntity
  8
DEFPOINTS
  6
Continuous
 62
     0
100
AcDbPoint
 10
217.9923778520064
 20
77.51029255310354
 30
0.0
  0
POINT
  5
6A3F
330
6A34
100
AcDbEntity
  8
DEFPOINTS
  6
Continuous
 62
     0
100
AcDbPoint
 10
217.9923778520064
 20
118.5574132873546
 30
0.0
  0
ENDBLK
  5
6A36
330
6A34
100
AcDbEntity
  8
0
100
AcDbBlockEnd
  0
BLOCK
  5
6A4F
330
6A4E
100
AcDbEntity
  8
0
100
AcDbBlockBegin
  2
*D42
 70
     1
 10
0.0
 20
0.0
 30
0.0
  3
*D42
  1

  0
LINE
  5
6A51
330
6A4E
100
AcDbEntity
  8
30
  6
Continuous
 62
     0
370
    -2
100
AcDbLine
 10
75.99999999999998
 20
235.1349134126127
 30
0.0
 11
113.7482752500573
 21
235.1349134126127
 31
0.0
  0
LINE
  5
6A52
330
6A4E
100
AcDbEntity
  8
30
  6
Continuous
 62
     0
370
    -2
100
AcDbLine
 10
8.000000000000012
 20
147.1349134126129
 30
0.0
 11
113.7482752500573
 21
147.1349134126129
 31
0.0
  0
LINE
  5
6A53
330
6A4E
100
AcDbEntity
  8
30
  6
Continuous
 62
     0
370
    -2
100
AcDbLine
 10
113.2482752500573
 20
233.1349134126127
 30
0.0
 11
113.2482752500573
 21
149.1349134126129
 31
0.0
  0
INSERT
  5
6A54
330
6A4E
100
AcDbEntity
  8
30
  6
Continuous
 62
     0
370
    -2
100
AcDbBlockReference
  2
_OPEN
 10
113.2482752500573
 20
235.1349134126127
 30
0.0
 41
2.0
 42
2.0
 43
2.0
 50
90.0
  0
INSERT
  5
6A55
330
6A4E
100
AcDbEntity
  8
30
  6
Continuous
 62
     0
370
    -2
100
AcDbBlockReference
  2
_OPEN
 10
113.2482752500573
 20
147.1349134126129
 30
0.0
 41
2.0
 42
2.0
 43
2.0
 50
270.0
  0
MTEXT
  5
6A56
330
6A4E
100
AcDbEntity
  8
30
  6
Continuous
 62
     0
100
AcDbMText
 10
110.2482752500573
 20
191.1349134126128
 30
0.0
 40
4.0
 41
0.0
 46
0.0
 71
     5
 72
     1
  1
\A1;88
 11
0.0000000000000001
 21
1.0
 31
0.0
 73
     1
 44
1.0
1001
ACAD
1000
MTEXTBEGIN
1070
    73
1070
     1
1070
    44
1040
1.0
1070
    74
1070
     0
1000
MTEXTEND
  0
POINT
  5
6A57
330
6A4E
100
AcDbEntity
  8
DEFPOINTS
  6
Continuous
 62
     0
100
AcDbPoint
 10
74.99999999999999
 20
235.1349134126127
 30
0.0
  0
POINT
  5
6A58
330
6A4E
100
AcDbEntity
  8
DEFPOINTS
  6
Continuous
 62
     0
100
AcDbPoint
 10
7.000000000000013
 20
147.1349134126129
 30
0.0
  0
POINT
  5
6A59
330
6A4E
100
AcDbEntity
  8
DEFPOINTS
  6
Continuous
 62
     0
100
AcDbPoint
 10
113.2482752500573
 20
147.1349134126129
 30
0.0
  0
ENDBLK
  5
6A50
330
6A4E
100
AcDbEntity
  8
0
100
AcDbBlockEnd
  0
BLOCK
  5
6B35
330
6B34
100
AcDbEntity
  8
0
100
AcDbBlockBegin
  2
*D43
 70
     1
 10
0.0
 20
0.0
 30
0.0
  3
*D43
  1

  0
LINE
  5
6B36
330
6B34
100
AcDbEntity
  8
30
  6
Continuous
 62
     0
370
    -2
100
AcDbLine
 10
-29.99999999999998
 20
217.1349134126129
 30
0.0
 11
-29.99999999999998
 21
257.4821974718418
 31
0.0
  0
LINE
  5
6B37
330
6B34
100
AcDbEntity
  8
30
  6
Continuous
 62
     0
370
    -2
100
AcDbLine
 10
0.0000000000000005
 20
217.1349134126129
 30
0.0
 11
0.0000000000000029
 21
257.4821974718418
 31
0.0
  0
LINE
  5
6B38
330
6B34
100
AcDbEntity
  8
30
  6
Continuous
 62
     0
370
    -2
100
AcDbLine
 10
-27.99999999999998
 20
256.9821974718418
 30
0.0
 11
-1.999999999999996
 21
256.9821974718418
 31
0.0
  0
INSERT
  5
6B39
330
6B34
100
AcDbEntity
  8
30
  6
Continuous
 62
     0
370
    -2
100
AcDbBlockReference
  2
_OPEN
 10
-29.99999999999998
 20
256.9821974718418
 30
0.0
 41
2.0
 42
2.0
 43
2.0
 50
180.0
  0
INSERT
  5
6B3A
330
6B34
100
AcDbEntity
  8
30
  6
Continuous
 62
     0
370
    -2
100
AcDbBlockReference
  2
_OPEN
 10
0.0000000000000029
 20
256.9821974718418
 30
0.0
 41
2.0
 42
2.0
 43
2.0
  0
MTEXT
  5
6B3B
330
6B34
100
AcDbEntity
  8
30
  6
Continuous
 62
     0
100
AcDbMText
 10
-14.99999999999999
 20
259.9821974718418
 30
0.0
 40
4.0
 41
0.0
 46
0.0
 71
     5
 72
     1
  1
\A1;30
 73
     1
 44
1.0
1001
ACAD
1000
MTEXTBEGIN
1070
    73
1070
     1
1070
    44
1040
1.0
1070
    74
1070
     0
1000
MTEXTEND
  0
POINT
  5
6B3C
330
6B34
100
AcDbEntity
  8
DEFPOINTS
  6
Continuous
 62
     0
100
AcDbPoint
 10
-29.99999999999998
 20
216.1349134126129
 30
0.0
  0
POINT
  5
6B3D
330
6B34
100
AcDbEntity
  8
DEFPOINTS
  6
Continuous
 62
     0
100
AcDbPoint
 10
0.0000000000000004
 20
216.1349134126129
 30
0.0
  0
POINT
  5
6B3E
330
6B34
100
AcDbEntity
  8
DEFPOINTS
  6
Continuous
 62
     0
100
AcDbPoint
 10
0.0000000000000029
 20
256.9821974718418
 30
0.0
  0
ENDBLK
  5
6B3F
330
6B34
100
AcDbEntity
  8
0
100
AcDbBlockEnd
  0
BLOCK
  5
6B41
330
6B40
100
AcDbEntity
  8
0
100
AcDbBlockBegin
  2
*D44
 70
     1
 10
0.0
 20
0.0
 30
0.0
  3
*D44
  1

  0
LINE
  5
6B42
330
6B40
100
AcDbEntity
  8
30
  6
Continuous
 62
     0
370
    -2
100
AcDbLine
 10
0.0000000000000005
 20
218.1349134126129
 30
0.0
 11
0.0000000000000029
 21
257.4821974718418
 31
0.0
  0
LINE
  5
6B43
330
6B40
100
AcDbEntity
  8
30
  6
Continuous
 62
     0
370
    -2
100
AcDbLine
 10
30.0
 20
217.1349134126129
 30
0.0
 11
30.0
 21
257.4821974718418
 31
0.0
  0
LINE
  5
6B44
330
6B40
100
AcDbEntity
  8
30
  6
Continuous
 62
     0
370
    -2
100
AcDbLine
 10
2.000000000000002
 20
256.9821974718418
 30
0.0
 11
28.00000000000001
 21
256.9821974718418
 31
0.0
  0
INSERT
  5
6B45
330
6B40
100
AcDbEntity
  8
30
  6
Continuous
 62
     0
370
    -2
100
AcDbBlockReference
  2
_OPEN
 10
0.0000000000000028
 20
256.9821974718418
 30
0.0
 41
2.0
 42
2.0
 43
2.0
 50
180.0
  0
INSERT
  5
6B46
330
6B40
100
AcDbEntity
  8
30
  6
Continuous
 62
     0
370
    -2
100
AcDbBlockReference
  2
_OPEN
 10
30.0
 20
256.9821974718418
 30
0.0
 41
2.0
 42
2.0
 43
2.0
  0
MTEXT
  5
6B47
330
6B40
100
AcDbEntity
  8
30
  6
Continuous
 62
     0
100
AcDbMText
 10
15.0
 20
259.9821974718418
 30
0.0
 40
4.0
 41
0.0
 46
0.0
 71
     5
 72
     1
  1
\A1;30
 73
     1
 44
1.0
1001
ACAD
1000
MTEXTBEGIN
1070
    73
1070
     1
1070
    44
1040
1.0
1070
    74
1070
     0
1000
MTEXTEND
  0
POINT
  5
6B48
330
6B40
100
AcDbEntity
  8
DEFPOINTS
  6
Continuous
 62
     0
100
AcDbPoint
 10
0.0000000000000004
 20
217.1349134126129
 30
0.0
  0
POINT
  5
6B49
330
6B40
100
AcDbEntity
  8
DEFPOINTS
  6
Continuous
 62
     0
100
AcDbPoint
 10
30.0
 20
216.1349134126129
 30
0.0
  0
POINT
  5
6B4A
330
6B40
100
AcDbEntity
  8
DEFPOINTS
  6
Continuous
 62
     0
100
AcDbPoint
 10
30.0
 20
256.9821974718418
 30
0.0
  0
ENDBLK
  5
6B4B
330
6B40
100
AcDbEntity
  8
0
100
AcDbBlockEnd
  0
BLOCK
  5
6B4D
330
6B4C
100
AcDbEntity
  8
0
100
AcDbBlockBegin
  2
*D45
 70
     1
 10
0.0
 20
0.0
 30
0.0
  3
*D45
  1

  0
LINE
  5
6B4E
330
6B4C
100
AcDbEntity
  8
30
  6
Continuous
 62
     0
370
    -2
100
AcDbLine
 10
30.0
 20
218.1349134126129
 30
0.0
 11
30.0
 21
257.4821974718418
 31
0.0
  0
LINE
  5
6B4F
330
6B4C
100
AcDbEntity
  8
30
  6
Continuous
 62
     0
370
    -2
100
AcDbLine
 10
60.0
 20
217.1349134126129
 30
0.0
 11
60.0
 21
257.4821974718418
 31
0.0
  0
LINE
  5
6B50
330
6B4C
100
AcDbEntity
  8
30
  6
Continuous
 62
     0
370
    -2
100
AcDbLine
 10
32.0
 20
256.9821974718418
 30
0.0
 11
58.0
 21
256.9821974718418
 31
0.0
  0
INSERT
  5
6B51
330
6B4C
100
AcDbEntity
  8
30
  6
Continuous
 62
     0
370
    -2
100
AcDbBlockReference
  2
_OPEN
 10
30.0
 20
256.9821974718418
 30
0.0
 41
2.0
 42
2.0
 43
2.0
 50
180.0
  0
INSERT
  5
6B52
330
6B4C
100
AcDbEntity
  8
30
  6
Continuous
 62
     0
370
    -2
100
AcDbBlockReference
  2
_OPEN
 10
60.0
 20
256.9821974718418
 30
0.0
 41
2.0
 42
2.0
 43
2.0
  0
MTEXT
  5
6B53
330
6B4C
100
AcDbEntity
  8
30
  6
Continuous
 62
     0
100
AcDbMText
 10
45.0
 20
259.9821974718418
 30
0.0
 40
4.0
 41
0.0
 46
0.0
 71
     5
 72
     1
  1
\A1;30
 73
     1
 44
1.0
1001
ACAD
1000
MTEXTBEGIN
1070
    73
1070
     1
1070
    44
1040
1.0
1070
    74
1070
     0
1000
MTEXTEND
  0
POINT
  5
6B54
330
6B4C
100
AcDbEntity
  8
DEFPOINTS
  6
Continuous
 62
     0
100
AcDbPoint
 10
30.0
 20
217.1349134126129
 30
0.0
  0
POINT
  5
6B55
330
6B4C
100
AcDbEntity
  8
DEFPOINTS
  6
Continuous
 62
     0
100
AcDbPoint
 10
60.0
 20
216.1349134126129
 30
0.0
  0
POINT
  5
6B56
330
6B4C
100
AcDbEntity
  8
DEFPOINTS
  6
Continuous
 62
     0
100
AcDbPoint
 10
60.0
 20
256.9821974718418
 30
0.0
  0
ENDBLK
  5
6B57
330
6B4C
100
AcDbEntity
  8
0
100
AcDbBlockEnd
  0
BLOCK
  5
6B59
330
6B58
100
AcDbEntity
  8
0
100
AcDbBlockBegin
  2
*D46
 70
     1
 10
0.0
 20
0.0
 30
0.0
  3
*D46
  1

  0
LINE
  5
6B5A
330
6B58
100
AcDbEntity
  8
30
  6
Continuous
 62
     0
370
    -2
100
AcDbLine
 10
75.99999999999997
 20
235.1349134126127
 30
0.0
 11
83.03557793199617
 21
235.1349134126127
 31
0.0
  0
LINE
  5
6B5B
330
6B58
100
AcDbEntity
  8
30
  6
Continuous
 62
     0
370
    -2
100
AcDbLine
 10
75.99999999999998
 20
174.1349134126129
 30
0.0
 11
83.03557793199615
 21
174.1349134126129
 31
0.0
  0
LINE
  5
6B5C
330
6B58
100
AcDbEntity
  8
30
  6
Continuous
 62
     0
370
    -2
100
AcDbLine
 10
82.53557793199616
 20
233.1349134126127
 30
0.0
 11
82.53557793199616
 21
176.1349134126129
 31
0.0
  0
INSERT
  5
6B5D
330
6B58
100
AcDbEntity
  8
30
  6
Continuous
 62
     0
370
    -2
100
AcDbBlockReference
  2
_OPEN
 10
82.53557793199616
 20
235.1349134126127
 30
0.0
 41
2.0
 42
2.0
 43
2.0
 50
90.0
  0
INSERT
  5
6B5E
330
6B58
100
AcDbEntity
  8
30
  6
Continuous
 62
     0
370
    -2
100
AcDbBlockReference
  2
_OPEN
 10
82.53557793199616
 20
174.1349134126129
 30
0.0
 41
2.0
 42
2.0
 43
2.0
 50
270.0
  0
MTEXT
  5
6B5F
330
6B58
100
AcDbEntity
  8
30
  6
Continuous
 62
     0
100
AcDbMText
 10
79.53557793199613
 20
204.6349134126128
 30
0.0
 40
4.0
 41
0.0
 46
0.0
 71
     5
 72
     1
  1
\A1;61
 11
0.0000000000000001
 21
1.0
 31
0.0
 73
     1
 44
1.0
1001
ACAD
1000
MTEXTBEGIN
1070
    73
1070
     1
1070
    44
1040
1.0
1070
    74
1070
     0
1000
MTEXTEND
  0
POINT
  5
6B60
330
6B58
100
AcDbEntity
  8
DEFPOINTS
  6
Continuous
 62
     0
100
AcDbPoint
 10
74.99999999999997
 20
235.1349134126127
 30
0.0
  0
POINT
  5
6B61
330
6B58
100
AcDbEntity
  8
DEFPOINTS
  6
Continuous
 62
     0
100
AcDbPoint
 10
74.99999999999999
 20
174.1349134126129
 30
0.0
  0
POINT
  5
6B62
330
6B58
100
AcDbEntity
  8
DEFPOINTS
  6
Continuous
 62
     0
100
AcDbPoint
 10
82.53557793199616
 20
174.1349134126129
 30
0.0
  0
ENDBLK
  5
6B63
330
6B58
100
AcDbEntity
  8
0
100
AcDbBlockEnd
  0
BLOCK
  5
6B65
330
6B64
100
AcDbEntity
  8
0
100
AcDbBlockBegin
  2
*D47
 70
     1
 10
0.0
 20
0.0
 30
0.0
  3
*D47
  1

  0
LINE
  5
6B66
330
6B64
100
AcDbEntity
  8
30
  6
Continuous
 62
     0
370
    -2
100
AcDbLine
 10
75.99999999999998
 20
235.1349134126127
 30
0.0
 11
90.34192661915678
 21
235.1349134126127
 31
0.0
  0
LINE
  5
6B67
330
6B64
100
AcDbEntity
  8
30
  6
Continuous
 62
     0
370
    -2
100
AcDbLine
 10
75.99999999999998
 20
167.1349134126128
 30
0.0
 11
90.34192661915676
 21
167.1349134126128
 31
0.0
  0
LINE
  5
6B68
330
6B64
100
AcDbEntity
  8
30
  6
Continuous
 62
     0
370
    -2
100
AcDbLine
 10
89.84192661915678
 20
233.1349134126127
 30
0.0
 11
89.84192661915676
 21
169.1349134126128
 31
0.0
  0
INSERT
  5
6B69
330
6B64
100
AcDbEntity
  8
30
  6
Continuous
 62
     0
370
    -2
100
AcDbBlockReference
  2
_OPEN
 10
89.84192661915678
 20
235.1349134126127
 30
0.0
 41
2.0
 42
2.0
 43
2.0
 50
90.0
  0
INSERT
  5
6B6A
330
6B64
100
AcDbEntity
  8
30
  6
Continuous
 62
     0
370
    -2
100
AcDbBlockReference
  2
_OPEN
 10
89.84192661915676
 20
167.1349134126128
 30
0.0
 41
2.0
 42
2.0
 43
2.0
 50
270.0
  0
MTEXT
  5
6B6B
330
6B64
100
AcDbEntity
  8
30
  6
Continuous
 62
     0
100
AcDbMText
 10
86.84192661915673
 20
201.1349134126128
 30
0.0
 40
4.0
 41
0.0
 46
0.0
 71
     5
 72
     1
  1
\A1;68
 11
0.0000000000000001
 21
1.0
 31
0.0
 73
     1
 44
1.0
1001
ACAD
1000
MTEXTBEGIN
1070
    73
1070
     1
1070
    44
1040
1.0
1070
    74
1070
     0
1000
MTEXTEND
  0
POINT
  5
6B6C
330
6B64
100
AcDbEntity
  8
DEFPOINTS
  6
Continuous
 62
     0
100
AcDbPoint
 10
74.99999999999999
 20
235.1349134126127
 30
0.0
  0
POINT
  5
6B6D
330
6B64
100
AcDbEntity
  8
DEFPOINTS
  6
Continuous
 62
     0
100
AcDbPoint
 10
74.99999999999999
 20
167.1349134126128
 30
0.0
  0
POINT
  5
6B6E
330
6B64
100
AcDbEntity
  8
DEFPOINTS
  6
Continuous
 62
     0
100
AcDbPoint
 10
89.84192661915676
 20
167.1349134126128
 30
0.0
  0
ENDBLK
  5
6B6F
330
6B64
100
AcDbEntity
  8
0
100
AcDbBlockEnd
  0
BLOCK
  5
6B71
330
6B70
100
AcDbEntity
  8
0
100
AcDbBlockBegin
  2
*D48
 70
     1
 10
0.0
 20
0.0
 30
0.0
  3
*D48
  1

  0
LINE
  5
6B72
330
6B70
100
AcDbEntity
  8
30
  6
Continuous
 62
     0
370
    -2
100
AcDbLine
 10
75.99999999999998
 20
235.1349134126127
 30
0.0
 11
97.6482753063178
 21
235.1349134126127
 31
0.0
  0
LINE
  5
6B73
330
6B70
100
AcDbEntity
  8
30
  6
Continuous
 62
     0
370
    -2
100
AcDbLine
 10
43.49999999999995
 20
163.1349134126129
 30
0.0
 11
97.6482753063178
 21
163.1349134126129
 31
0.0
  0
LINE
  5
6B74
330
6B70
100
AcDbEntity
  8
30
  6
Continuous
 62
     0
370
    -2
100
AcDbLine
 10
97.14827530631779
 20
233.1349134126127
 30
0.0
 11
97.14827530631779
 21
165.1349134126129
 31
0.0
  0
INSERT
  5
6B75
330
6B70
100
AcDbEntity
  8
30
  6
Continuous
 62
     0
370
    -2
100
AcDbBlockReference
  2
_OPEN
 10
97.14827530631779
 20
235.1349134126127
 30
0.0
 41
2.0
 42
2.0
 43
2.0
 50
90.0
  0
INSERT
  5
6B76
330
6B70
100
AcDbEntity
  8
30
  6
Continuous
 62
     0
370
    -2
100
AcDbBlockReference
  2
_OPEN
 10
97.14827530631779
 20
163.1349134126129
 30
0.0
 41
2.0
 42
2.0
 43
2.0
 50
270.0
  0
MTEXT
  5
6B77
330
6B70
100
AcDbEntity
  8
30
  6
Continuous
 62
     0
100
AcDbMText
 10
94.14827530631777
 20
199.1349134126128
 30
0.0
 40
4.0
 41
0.0
 46
0.0
 71
     5
 72
     1
  1
\A1;72
 11
0.0000000000000001
 21
1.0
 31
0.0
 73
     1
 44
1.0
1001
ACAD
1000
MTEXTBEGIN
1070
    73
1070
     1
1070
    44
1040
1.0
1070
    74
1070
     0
1000
MTEXTEND
  0
POINT
  5
6B78
330
6B70
100
AcDbEntity
  8
DEFPOINTS
  6
Continuous
 62
     0
100
AcDbPoint
 10
74.99999999999999
 20
235.1349134126127
 30
0.0
  0
POINT
  5
6B79
330
6B70
100
AcDbEntity
  8
DEFPOINTS
  6
Continuous
 62
     0
100
AcDbPoint
 10
42.49999999999995
 20
163.1349134126129
 30
0.0
  0
POINT
  5
6B7A
330
6B70
100
AcDbEntity
  8
DEFPOINTS
  6
Continuous
 62
     0
100
AcDbPoint
 10
97.14827530631779
 20
163.1349134126129
 30
0.0
  0
ENDBLK
  5
6B7B
330
6B70
100
AcDbEntity
  8
0
100
AcDbBlockEnd
  0
BLOCK
  5
6B7D
330
6B7C
100
AcDbEntity
  8
0
100
AcDbBlockBegin
  2
*D49
 70
     1
 10
0.0
 20
0.0
 30
0.0
  3
*D49
  1

  0
LINE
  5
6B7E
330
6B7C
100
AcDbEntity
  8
30
  6
Continuous
 62
     0
370
    -2
100
AcDbLine
 10
75.99999999999997
 20
235.1349134126127
 30
0.0
 11
104.9546239934789
 21
235.1349134126127
 31
0.0
  0
LINE
  5
6B7F
330
6B7C
100
AcDbEntity
  8
30
  6
Continuous
 62
     0
370
    -2
100
AcDbLine
 10
11.99999999999996
 20
159.1349134126129
 30
0.0
 11
104.9546239934789
 21
159.1349134126129
 31
0.0
  0
LINE
  5
6B80
330
6B7C
100
AcDbEntity
  8
30
  6
Continuous
 62
     0
370
    -2
100
AcDbLine
 10
104.4546239934789
 20
233.1349134126127
 30
0.0
 11
104.4546239934789
 21
161.1349134126129
 31
0.0
  0
INSERT
  5
6B81
330
6B7C
100
AcDbEntity
  8
30
  6
Continuous
 62
     0
370
    -2
100
AcDbBlockReference
  2
_OPEN
 10
104.4546239934789
 20
235.1349134126127
 30
0.0
 41
2.0
 42
2.0
 43
2.0
 50
90.0
  0
INSERT
  5
6B82
330
6B7C
100
AcDbEntity
  8
30
  6
Continuous
 62
     0
370
    -2
100
AcDbBlockReference
  2
_OPEN
 10
104.4546239934789
 20
159.1349134126129
 30
0.0
 41
2.0
 42
2.0
 43
2.0
 50
270.0
  0
MTEXT
  5
6B83
330
6B7C
100
AcDbEntity
  8
30
  6
Continuous
 62
     0
100
AcDbMText
 10
101.4546239934789
 20
197.1349134126128
 30
0.0
 40
4.0
 41
0.0
 46
0.0
 71
     5
 72
     1
  1
\A1;76
 11
0.0000000000000001
 21
1.0
 31
0.0
 73
     1
 44
1.0
1001
ACAD
1000
MTEXTBEGIN
1070
    73
1070
     1
1070
    44
1040
1.0
1070
    74
1070
     0
1000
MTEXTEND
  0
POINT
  5
6B84
330
6B7C
100
AcDbEntity
  8
DEFPOINTS
  6
Continuous
 62
     0
100
AcDbPoint
 10
74.99999999999997
 20
235.1349134126127
 30
0.0
  0
POINT
  5
6B85
330
6B7C
100
AcDbEntity
  8
DEFPOINTS
  6
Continuous
 62
     0
100
AcDbPoint
 10
10.99999999999996
 20
159.1349134126129
 30
0.0
  0
POINT
  5
6B86
330
6B7C
100
AcDbEntity
  8
DEFPOINTS
  6
Continuous
 62
     0
100
AcDbPoint
 10
104.4546239934789
 20
159.1349134126129
 30
0.0
  0
ENDBLK
  5
6B87
330
6B7C
100
AcDbEntity
  8
0
100
AcDbBlockEnd
  0
BLOCK
  5
6C1C
330
6C1B
100
AcDbEntity
  8
0
100
AcDbBlockBegin
  2
*D50
 70
     1
 10
0.0
 20
0.0
 30
0.0
  3
*D50
  1

  0
LINE
  5
6C6F
330
6C1B
100
AcDbEntity
  8
30
  6
Continuous
 62
     0
440
 16777216
370
    -2
100
AcDbLine
 10
-29.99999999999998
 20
217.1349134126129
 30
0.0
 11
-29.99999999999998
 21
257.4821974718418
 31
0.0
  0
LINE
  5
6C70
330
6C1B
100
AcDbEntity
  8
30
  6
Continuous
 62
     0
440
 16777216
370
    -2
100
AcDbLine
 10
0.0000000000000005
 20
217.1349134126129
 30
0.0
 11
0.0000000000000029
 21
257.4821974718418
 31
0.0
  0
LINE
  5
6C71
330
6C1B
100
AcDbEntity
  8
30
  6
Continuous
 62
     0
440
 16777216
370
    -2
100
AcDbLine
 10
-27.99999999999998
 20
256.9821974718418
 30
0.0
 11
-1.999999999999996
 21
256.9821974718418
 31
0.0
  0
INSERT
  5
6C72
330
6C1B
100
AcDbEntity
  8
30
  6
Continuous
 62
     0
440
 16777216
370
    -2
100
AcDbBlockReference
  2
_OPEN
 10
-29.99999999999998
 20
256.9821974718418
 30
0.0
 41
2.0
 42
2.0
 43
2.0
 50
180.0
  0
INSERT
  5
6C73
330
6C1B
100
AcDbEntity
  8
30
  6
Continuous
 62
     0
440
 16777216
370
    -2
100
AcDbBlockReference
  2
_OPEN
 10
0.0000000000000029
 20
256.9821974718418
 30
0.0
 41
2.0
 42
2.0
 43
2.0
  0
MTEXT
  5
6C74
330
6C1B
100
AcDbEntity
  8
30
  6
Continuous
 62
     0
440
 16777216
100
AcDbMText
 10
-14.99999999999999
 20
259.9821974718418
 30
0.0
 40
4.0
 41
0.0
 46
0.0
 71
     5
 72
     1
  1
\A1;30
 73
     1
 44
1.0
1001
ACAD
1000
MTEXTBEGIN
1070
    73
1070
     1
1070
    44
1040
1.0
1070
    74
1070
     0
1000
MTEXTEND
  0
POINT
  5
6C75
330
6C1B
100
AcDbEntity
  8
DEFPOINTS
  6
Continuous
 62
     0
440
 16777216
100
AcDbPoint
 10
-29.99999999999998
 20
216.1349134126129
 30
0.0
  0
POINT
  5
6C76
330
6C1B
100
AcDbEntity
  8
DEFPOINTS
  6
Continuous
 62
     0
440
 16777216
100
AcDbPoint
 10
0.0000000000000004
 20
216.1349134126129
 30
0.0
  0
POINT
  5
6C77
330
6C1B
100
AcDbEntity
  8
DEFPOINTS
  6
Continuous
 62
     0
440
 16777216
100
AcDbPoint
 10
0.0000000000000029
 20
256.9821974718418
 30
0.0
  0
ENDBLK
  5
6C1D
330
6C1B
100
AcDbEntity
  8
0
100
AcDbBlockEnd
  0
BLOCK
  5
6C28
330
6C27
100
AcDbEntity
  8
0
100
AcDbBlockBegin
  2
*D51
 70
     1
 10
0.0
 20
0.0
 30
0.0
  3
*D51
  1

  0
LINE
  5
6C78
330
6C27
100
AcDbEntity
  8
30
  6
Continuous
 62
     0
440
 16777216
370
    -2
100
AcDbLine
 10
0.0000000000000005
 20
218.1349134126129
 30
0.0
 11
0.0000000000000029
 21
257.4821974718418
 31
0.0
  0
LINE
  5
6C79
330
6C27
100
AcDbEntity
  8
30
  6
Continuous
 62
     0
440
 16777216
370
    -2
100
AcDbLine
 10
30.0
 20
217.1349134126129
 30
0.0
 11
30.0
 21
257.4821974718418
 31
0.0
  0
LINE
  5
6C7A
330
6C27
100
AcDbEntity
  8
30
  6
Continuous
 62
     0
440
 16777216
370
    -2
100
AcDbLine
 10
2.000000000000002
 20
256.9821974718418
 30
0.0
 11
28.00000000000001
 21
256.9821974718418
 31
0.0
  0
INSERT
  5
6C7B
330
6C27
100
AcDbEntity
  8
30
  6
Continuous
 62
     0
440
 16777216
370
    -2
100
AcDbBlockReference
  2
_OPEN
 10
0.0000000000000028
 20
256.9821974718418
 30
0.0
 41
2.0
 42
2.0
 43
2.0
 50
180.0
  0
INSERT
  5
6C7C
330
6C27
100
AcDbEntity
  8
30
  6
Continuous
 62
     0
440
 16777216
370
    -2
100
AcDbBlockReference
  2
_OPEN
 10
30.0
 20
256.9821974718418
 30
0.0
 41
2.0
 42
2.0
 43
2.0
  0
MTEXT
  5
6C7D
330
6C27
100
AcDbEntity
  8
30
  6
Continuous
 62
     0
440
 16777216
100
AcDbMText
 10
15.0
 20
259.9821974718418
 30
0.0
 40
4.0
 41
0.0
 46
0.0
 71
     5
 72
     1
  1
\A1;30
 73
     1
 44
1.0
1001
ACAD
1000
MTEXTBEGIN
1070
    73
1070
     1
1070
    44
1040
1.0
1070
    74
1070
     0
1000
MTEXTEND
  0
POINT
  5
6C7E
330
6C27
100
AcDbEntity
  8
DEFPOINTS
  6
Continuous
 62
     0
440
 16777216
100
AcDbPoint
 10
0.0000000000000004
 20
217.1349134126129
 30
0.0
  0
POINT
  5
6C7F
330
6C27
100
AcDbEntity
  8
DEFPOINTS
  6
Continuous
 62
     0
440
 16777216
100
AcDbPoint
 10
30.0
 20
216.1349134126129
 30
0.0
  0
POINT
  5
6C80
330
6C27
100
AcDbEntity
  8
DEFPOINTS
  6
Continuous
 62
     0
440
 16777216
100
AcDbPoint
 10
30.0
 20
256.9821974718418
 30
0.0
  0
ENDBLK
  5
6C29
330
6C27
100
AcDbEntity
  8
0
100
AcDbBlockEnd
  0
BLOCK
  5
6C34
330
6C33
100
AcDbEntity
  8
0
100
AcDbBlockBegin
  2
*D52
 70
     1
 10
0.0
 20
0.0
 30
0.0
  3
*D52
  1

  0
LINE
  5
6C81
330
6C33
100
AcDbEntity
  8
30
  6
Continuous
 62
     0
440
 16777216
370
    -2
100
AcDbLine
 10
30.0
 20
218.1349134126129
 30
0.0
 11
30.0
 21
257.4821974718418
 31
0.0
  0
LINE
  5
6C82
330
6C33
100
AcDbEntity
  8
30
  6
Continuous
 62
     0
440
 16777216
370
    -2
100
AcDbLine
 10
60.0
 20
217.1349134126129
 30
0.0
 11
60.0
 21
257.4821974718418
 31
0.0
  0
LINE
  5
6C83
330
6C33
100
AcDbEntity
  8
30
  6
Continuous
 62
     0
440
 16777216
370
    -2
100
AcDbLine
 10
32.0
 20
256.9821974718418
 30
0.0
 11
58.0
 21
256.9821974718418
 31
0.0
  0
INSERT
  5
6C84
330
6C33
100
AcDbEntity
  8
30
  6
Continuous
 62
     0
440
 16777216
370
    -2
100
AcDbBlockReference
  2
_OPEN
 10
30.0
 20
256.9821974718418
 30
0.0
 41
2.0
 42
2.0
 43
2.0
 50
180.0
  0
INSERT
  5
6C85
330
6C33
100
AcDbEntity
  8
30
  6
Continuous
 62
     0
440
 16777216
370
    -2
100
AcDbBlockReference
  2
_OPEN
 10
60.0
 20
256.9821974718418
 30
0.0
 41
2.0
 42
2.0
 43
2.0
  0
MTEXT
  5
6C86
330
6C33
100
AcDbEntity
  8
30
  6
Continuous
 62
     0
440
 16777216
100
AcDbMText
 10
45.0
 20
259.9821974718418
 30
0.0
 40
4.0
 41
0.0
 46
0.0
 71
     5
 72
     1
  1
\A1;30
 73
     1
 44
1.0
1001
ACAD
1000
MTEXTBEGIN
1070
    73
1070
     1
1070
    44
1040
1.0
1070
    74
1070
     0
1000
MTEXTEND
  0
POINT
  5
6C87
330
6C33
100
AcDbEntity
  8
DEFPOINTS
  6
Continuous
 62
     0
440
 16777216
100
AcDbPoint
 10
30.0
 20
217.1349134126129
 30
0.0
  0
POINT
  5
6C88
330
6C33
100
AcDbEntity
  8
DEFPOINTS
  6
Continuous
 62
     0
440
 16777216
100
AcDbPoint
 10
60.0
 20
216.1349134126129
 30
0.0
  0
POINT
  5
6C89
330
6C33
100
AcDbEntity
  8
DEFPOINTS
  6
Continuous
 62
     0
440
 16777216
100
AcDbPoint
 10
60.0
 20
256.9821974718418
 30
0.0
  0
ENDBLK
  5
6C35
330
6C33
100
AcDbEntity
  8
0
100
AcDbBlockEnd
  0
BLOCK
  5
6C40
330
6C3F
100
AcDbEntity
  8
0
100
AcDbBlockBegin
  2
*D53
 70
     1
 10
0.0
 20
0.0
 30
0.0
  3
*D53
  1

  0
LINE
  5
6C8A
330
6C3F
100
AcDbEntity
  8
30
  6
Continuous
 62
     0
440
 16777216
370
    -2
100
AcDbLine
 10
75.99999999999997
 20
235.1349134126127
 30
0.0
 11
83.03557793199617
 21
235.1349134126127
 31
0.0
  0
LINE
  5
6C8B
330
6C3F
100
AcDbEntity
  8
30
  6
Continuous
 62
     0
440
 16777216
370
    -2
100
AcDbLine
 10
75.99999999999998
 20
174.1349134126129
 30
0.0
 11
83.03557793199615
 21
174.1349134126129
 31
0.0
  0
LINE
  5
6C8C
330
6C3F
100
AcDbEntity
  8
30
  6
Continuous
 62
     0
440
 16777216
370
    -2
100
AcDbLine
 10
82.53557793199616
 20
233.1349134126127
 30
0.0
 11
82.53557793199616
 21
176.1349134126129
 31
0.0
  0
INSERT
  5
6C8D
330
6C3F
100
AcDbEntity
  8
30
  6
Continuous
 62
     0
440
 16777216
370
    -2
100
AcDbBlockReference
  2
_OPEN
 10
82.53557793199616
 20
235.1349134126127
 30
0.0
 41
2.0
 42
2.0
 43
2.0
 50
90.0
  0
INSERT
  5
6C8E
330
6C3F
100
AcDbEntity
  8
30
  6
Continuous
 62
     0
440
 16777216
370
    -2
100
AcDbBlockReference
  2
_OPEN
 10
82.53557793199616
 20
174.1349134126129
 30
0.0
 41
2.0
 42
2.0
 43
2.0
 50
270.0
  0
MTEXT
  5
6C8F
330
6C3F
100
AcDbEntity
  8
30
  6
Continuous
 62
     0
440
 16777216
100
AcDbMText
 10
79.53557793199613
 20
204.6349134126128
 30
0.0
 40
4.0
 41
0.0
 46
0.0
 71
     5
 72
     1
  1
\A1;61
 11
0.0000000000000001
 21
1.0
 31
0.0
 73
     1
 44
1.0
1001
ACAD
1000
MTEXTBEGIN
1070
    73
1070
     1
1070
    44
1040
1.0
1070
    74
1070
     0
1000
MTEXTEND
  0
POINT
  5
6C90
330
6C3F
100
AcDbEntity
  8
DEFPOINTS
  6
Continuous
 62
     0
440
 16777216
100
AcDbPoint
 10
74.99999999999997
 20
235.1349134126127
 30
0.0
  0
POINT
  5
6C91
330
6C3F
100
AcDbEntity
  8
DEFPOINTS
  6
Continuous
 62
     0
440
 16777216
100
AcDbPoint
 10
74.99999999999999
 20
174.1349134126129
 30
0.0
  0
POINT
  5
6C92
330
6C3F
100
AcDbEntity
  8
DEFPOINTS
  6
Continuous
 62
     0
440
 16777216
100
AcDbPoint
 10
82.53557793199616
 20
174.1349134126129
 30
0.0
  0
ENDBLK
  5
6C41
330
6C3F
100
AcDbEntity
  8
0
100
AcDbBlockEnd
  0
BLOCK
  5
6C4C
330
6C4B
100
AcDbEntity
  8
0
100
AcDbBlockBegin
  2
*D54
 70
     1
 10
0.0
 20
0.0
 30
0.0
  3
*D54
  1

  0
LINE
  5
6C93
330
6C4B
100
AcDbEntity
  8
30
  6
Continuous
 62
     0
440
 16777216
370
    -2
100
AcDbLine
 10
75.99999999999998
 20
235.1349134126127
 30
0.0
 11
90.34192661915678
 21
235.1349134126127
 31
0.0
  0
LINE
  5
6C94
330
6C4B
100
AcDbEntity
  8
30
  6
Continuous
 62
     0
440
 16777216
370
    -2
100
AcDbLine
 10
75.99999999999998
 20
167.1349134126128
 30
0.0
 11
90.34192661915676
 21
167.1349134126128
 31
0.0
  0
LINE
  5
6C95
330
6C4B
100
AcDbEntity
  8
30
  6
Continuous
 62
     0
440
 16777216
370
    -2
100
AcDbLine
 10
89.84192661915678
 20
233.1349134126127
 30
0.0
 11
89.84192661915676
 21
169.1349134126128
 31
0.0
  0
INSERT
  5
6C96
330
6C4B
100
AcDbEntity
  8
30
  6
Continuous
 62
     0
440
 16777216
370
    -2
100
AcDbBlockReference
  2
_OPEN
 10
89.84192661915678
 20
235.1349134126127
 30
0.0
 41
2.0
 42
2.0
 43
2.0
 50
90.0
  0
INSERT
  5
6C97
330
6C4B
100
AcDbEntity
  8
30
  6
Continuous
 62
     0
440
 16777216
370
    -2
100
AcDbBlockReference
  2
_OPEN
 10
89.84192661915676
 20
167.1349134126128
 30
0.0
 41
2.0
 42
2.0
 43
2.0
 50
270.0
  0
MTEXT
  5
6C98
330
6C4B
100
AcDbEntity
  8
30
  6
Continuous
 62
     0
440
 16777216
100
AcDbMText
 10
86.84192661915673
 20
201.1349134126128
 30
0.0
 40
4.0
 41
0.0
 46
0.0
 71
     5
 72
     1
  1
\A1;68
 11
0.0000000000000001
 21
1.0
 31
0.0
 73
     1
 44
1.0
1001
ACAD
1000
MTEXTBEGIN
1070
    73
1070
     1
1070
    44
1040
1.0
1070
    74
1070
     0
1000
MTEXTEND
  0
POINT
  5
6C99
330
6C4B
100
AcDbEntity
  8
DEFPOINTS
  6
Continuous
 62
     0
440
 16777216
100
AcDbPoint
 10
74.99999999999999
 20
235.1349134126127
 30
0.0
  0
POINT
  5
6C9A
330
6C4B
100
AcDbEntity
  8
DEFPOINTS
  6
Continuous
 62
     0
440
 16777216
100
AcDbPoint
 10
74.99999999999999
 20
167.1349134126128
 30
0.0
  0
POINT
  5
6C9B
330
6C4B
100
AcDbEntity
  8
DEFPOINTS
  6
Continuous
 62
     0
440
 16777216
100
AcDbPoint
 10
89.84192661915676
 20
167.1349134126128
 30
0.0
  0
ENDBLK
  5
6C4D
330
6C4B
100
AcDbEntity
  8
0
100
AcDbBlockEnd
  0
BLOCK
  5
6C58
330
6C57
100
AcDbEntity
  8
0
100
AcDbBlockBegin
  2
*D55
 70
     1
 10
0.0
 20
0.0
 30
0.0
  3
*D55
  1

  0
LINE
  5
6C9C
330
6C57
100
AcDbEntity
  8
30
  6
Continuous
 62
     0
440
 16777216
370
    -2
100
AcDbLine
 10
75.99999999999998
 20
235.1349134126127
 30
0.0
 11
97.6482753063178
 21
235.1349134126127
 31
0.0
  0
LINE
  5
6C9D
330
6C57
100
AcDbEntity
  8
30
  6
Continuous
 62
     0
440
 16777216
370
    -2
100
AcDbLine
 10
43.49999999999995
 20
163.1349134126129
 30
0.0
 11
97.6482753063178
 21
163.1349134126129
 31
0.0
  0
LINE
  5
6C9E
330
6C57
100
AcDbEntity
  8
30
  6
Continuous
 62
     0
440
 16777216
370
    -2
100
AcDbLine
 10
97.14827530631779
 20
233.1349134126127
 30
0.0
 11
97.14827530631779
 21
165.1349134126129
 31
0.0
  0
INSERT
  5
6C9F
330
6C57
100
AcDbEntity
  8
30
  6
Continuous
 62
     0
440
 16777216
370
    -2
100
AcDbBlockReference
  2
_OPEN
 10
97.14827530631779
 20
235.1349134126127
 30
0.0
 41
2.0
 42
2.0
 43
2.0
 50
90.0
  0
INSERT
  5
6CA0
330
6C57
100
AcDbEntity
  8
30
  6
Continuous
 62
     0
440
 16777216
370
    -2
100
AcDbBlockReference
  2
_OPEN
 10
97.14827530631779
 20
163.1349134126129
 30
0.0
 41
2.0
 42
2.0
 43
2.0
 50
270.0
  0
MTEXT
  5
6CA1
330
6C57
100
AcDbEntity
  8
30
  6
Continuous
 62
     0
440
 16777216
100
AcDbMText
 10
94.14827530631777
 20
199.1349134126128
 30
0.0
 40
4.0
 41
0.0
 46
0.0
 71
     5
 72
     1
  1
\A1;72
 11
0.0000000000000001
 21
1.0
 31
0.0
 73
     1
 44
1.0
1001
ACAD
1000
MTEXTBEGIN
1070
    73
1070
     1
1070
    44
1040
1.0
1070
    74
1070
     0
1000
MTEXTEND
  0
POINT
  5
6CA2
330
6C57
100
AcDbEntity
  8
DEFPOINTS
  6
Continuous
 62
     0
440
 16777216
100
AcDbPoint
 10
74.99999999999999
 20
235.1349134126127
 30
0.0
  0
POINT
  5
6CA3
330
6C57
100
AcDbEntity
  8
DEFPOINTS
  6
Continuous
 62
     0
440
 16777216
100
AcDbPoint
 10
42.49999999999995
 20
163.1349134126129
 30
0.0
  0
POINT
  5
6CA4
330
6C57
100
AcDbEntity
  8
DEFPOINTS
  6
Continuous
 62
     0
440
 16777216
100
AcDbPoint
 10
97.14827530631779
 20
163.1349134126129
 30
0.0
  0
ENDBLK
  5
6C59
330
6C57
100
AcDbEntity
  8
0
100
AcDbBlockEnd
  0
BLOCK
  5
6C64
330
6C63
100
AcDbEntity
  8
0
100
AcDbBlockBegin
  2
*D56
 70
     1
 10
0.0
 20
0.0
 30
0.0
  3
*D56
  1

  0
LINE
  5
6CA5
330
6C63
100
AcDbEntity
  8
30
  6
Continuous
 62
     0
440
 16777216
370
    -2
100
AcDbLine
 10
75.99999999999997
 20
235.1349134126127
 30
0.0
 11
104.9546239934789
 21
235.1349134126127
 31
0.0
  0
LINE
  5
6CA6
330
6C63
100
AcDbEntity
  8
30
  6
Continuous
 62
     0
440
 16777216
370
    -2
100
AcDbLine
 10
11.99999999999996
 20
159.1349134126129
 30
0.0
 11
104.9546239934789
 21
159.1349134126129
 31
0.0
  0
LINE
  5
6CA7
330
6C63
100
AcDbEntity
  8
30
  6
Continuous
 62
     0
440
 16777216
370
    -2
100
AcDbLine
 10
104.4546239934789
 20
233.1349134126127
 30
0.0
 11
104.4546239934789
 21
161.1349134126129
 31
0.0
  0
INSERT
  5
6CA8
330
6C63
100
AcDbEntity
  8
30
  6
Continuous
 62
     0
440
 16777216
370
    -2
100
AcDbBlockReference
  2
_OPEN
 10
104.4546239934789
 20
235.1349134126127
 30
0.0
 41
2.0
 42
2.0
 43
2.0
 50
90.0
  0
INSERT
  5
6CA9
330
6C63
100
AcDbEntity
  8
30
  6
Continuous
 62
     0
440
 16777216
370
    -2
100
AcDbBlockReference
  2
_OPEN
 10
104.4546239934789
 20
159.1349134126129
 30
0.0
 41
2.0
 42
2.0
 43
2.0
 50
270.0
  0
MTEXT
  5
6CAA
330
6C63
100
AcDbEntity
  8
30
  6
Continuous
 62
     0
440
 16777216
100
AcDbMText
 10
101.4546239934789
 20
197.1349134126128
 30
0.0
 40
4.0
 41
0.0
 46
0.0
 71
     5
 72
     1
  1
\A1;76
 11
0.0000000000000001
 21
1.0
 31
0.0
 73
     1
 44
1.0
1001
ACAD
1000
MTEXTBEGIN
1070
    73
1070
     1
1070
    44
1040
1.0
1070
    74
1070
     0
1000
MTEXTEND
  0
POINT
  5
6CAB
330
6C63
100
AcDbEntity
  8
DEFPOINTS
  6
Continuous
 62
     0
440
 16777216
100
AcDbPoint
 10
74.99999999999997
 20
235.1349134126127
 30
0.0
  0
POINT
  5
6CAC
330
6C63
100
AcDbEntity
  8
DEFPOINTS
  6
Continuous
 62
     0
440
 16777216
100
AcDbPoint
 10
10.99999999999996
 20
159.1349134126129
 30
0.0
  0
POINT
  5
6CAD
330
6C63
100
AcDbEntity
  8
DEFPOINTS
  6
Continuous
 62
     0
440
 16777216
100
AcDbPoint
 10
104.4546239934789
 20
159.1349134126129
 30
0.0
  0
ENDBLK
  5
6C65
330
6C63
100
AcDbEntity
  8
0
100
AcDbBlockEnd
  0
ENDSEC
  0
SECTION
  2
ENTITIES
  0
LINE
  5
B4
330
1E
100
AcDbEntity
  8
16
100
AcDbLine
 10
0.0
 20
-101.8246001220914
 30
0.0
 11
0.0
 21
105.6073578546832
 31
0.0
  0
LINE
  5
B5
330
1E
100
AcDbEntity
  8
16
100
AcDbLine
 10
71.77465564206305
 20
-0.0000000000000018
 30
0.0
 11
-83.90588178115756
 21
-0.0000000000000018
 31
0.0
  0
MTEXT
  5
BF3
330
1E
100
AcDbEntity
  8
24
  6
Continuous
100
AcDbMText
 10
140.9820964648283
 20
176.3476821548369
 30
0.0
 40
3.0
 41
0.0
 46
0.0
 71
     1
 72
     1
  1
\A1;
 73
     1
 44
1.0
1001
ACAD
1000
MTEXTBEGIN
1070
    73
1070
     1
1070
    44
1040
1.0
1070
    74
1070
     0
1000
MTEXTEND
  0
LINE
  5
1C9B
330
1E
100
AcDbEntity
  8
16
100
AcDbLine
 10
252.2605240987882
 20
0.0102925531034544
 30
0.0
 11
120.0952764866181
 21
0.0102925531034544
 31
0.0
  0
LINE
  5
2260
330
1E
100
AcDbEntity
  8
16
100
AcDbLine
 10
87.32666213088251
 20
-253.4106968373281
 30
0.0
 11
-80.93000773675209
 21
-252.6631237443548
 31
0.0
  0
LINE
  5
2261
330
1E
100
AcDbEntity
  8
16
100
AcDbLine
 10
-0.3800945351711884
 20
-350.4150635072006
 30
0.0
 11
-0.3800945351711884
 21
-151.2797245348689
 31
0.0
  0
LINE
  5
4C5A
330
1E
100
AcDbEntity
  8
16
100
AcDbLine
 10
88.49441808474184
 20
-0.0000000000000018
 30
0.0
 11
-83.90588178115756
 21
-0.0000000000000018
 31
0.0
  0
DIMENSION
  5
59B9
330
1E
100
AcDbEntity
  8
30
  6
Continuous
100
AcDbDimension
280
     0
  2
*D4
 10
217.9923778520064
 20
-136.2757960792595
 30
0.0
 11
171.9923778520064
 21
-133.2757960792595
 31
0.0
 70
    32
 71
     5
 42
-1.0
 73
     0
 74
     0
 75
     0
  3
STANDARD
100
AcDbAlignedDimension
 13
125.9923778520064
 23
0.0102925531034544
 33
0.0
 14
217.9923778520064
 24
-77.48970744689656
 34
0.0
 50
180.0
100
AcDbRotatedDimension
1001
ACAD
1000
DSTYLE
1002
{
1070
    79
1070
     3
1002
}
  0
DIMENSION
  5
59BA
330
1E
100
AcDbEntity
  8
30
  6
Continuous
100
AcDbDimension
280
     0
  2
*D5
 10
145.9923778520064
 20
-121.8996550098397
 30
0.0
 11
152.3257111853398
 21
-118.8996550098394
 31
0.0
 70
    32
 71
     5
 42
-1.0
 73
     0
 74
     0
 75
     0
  3
STANDARD
100
AcDbAlignedDimension
 13
141.9923778520064
 23
-24.98970744689656
 33
0.0
 14
145.9923778520064
 24
-24.98970744689656
 34
0.0
 50
180.0
100
AcDbRotatedDimension
1001
ACAD
1000
DSTYLE
1002
{
1070
    79
1070
     3
1002
}
  0
DIMENSION
  5
59BB
330
1E
100
AcDbEntity
  8
30
  6
Continuous
100
AcDbDimension
280
     0
  2
*D6
 10
217.9923778520064
 20
-121.8996550098397
 30
0.0
 11
181.9923778520064
 21
-118.8996550098394
 31
0.0
 70
    32
 71
     5
 42
-1.0
 73
     0
 74
     0
 75
     0
  3
STANDARD
100
AcDbAlignedDimension
 13
145.9923778520064
 23
-24.98970744689656
 33
0.0
 14
217.9923778520064
 24
-77.48970744689656
 34
0.0
 50
180.0
100
AcDbRotatedDimension
1001
ACAD
1000
DSTYLE
1002
{
1070
    79
1070
     3
1002
}
  0
DIMENSION
  5
59BE
330
1E
100
AcDbEntity
  8
30
  6
Continuous
100
AcDbDimension
280
     0
  2
*D7
 10
113.3096155908132
 20
25.01029255310343
 30
0.0
 11
110.3096155908132
 21
0.010292553103462
 31
0.0
 70
    32
 71
     5
 42
-1.0
 73
     0
 74
     0
 75
     0
  3
STANDARD
100
AcDbAlignedDimension
 13
141.9923778520064
 23
-24.98970744689656
 33
0.0
 14
141.9923778520064
 24
25.01029255310343
 34
0.0
 50
90.0
100
AcDbRotatedDimension
1001
ACAD
1000
DSTYLE
1002
{
1070
    79
1070
     3
1002
}
  0
LINE
  5
59BF
330
1E
100
AcDbEntity
  8
10
  6
CONTINOUS
100
AcDbLine
 10
141.9923778520064
 20
14.1757293925334
 30
0.0
 11
133.4385826705174
 21
20.16516125891396
 31
0.0
  0
LINE
  5
59C0
330
1E
100
AcDbEntity
  8
10
  6
CONTINOUS
100
AcDbLine
 10
141.9923778520064
 20
6.851081859964692
 30
0.0
 11
129.9971240524111
 21
15.25024899318005
 31
0.0
  0
ARC
  5
59C2
330
1E
100
AcDbEntity
  8
30
  6
Continuous
100
AcDbCircle
 10
156.9923778520063
 20
0.0102925531034544
 30
0.0
 40
31.0
100
AcDbArc
 50
150.5534441956585
 51
180.0
  0
LINE
  5
59C5
330
1E
100
AcDbEntity
  8
10
  6
CONTINOUS
100
AcDbLine
 10
129.9971240524111
 20
15.25024899318005
 30
0.0
 11
133.4385826705174
 21
20.16516125891396
 31
0.0
  0
LINE
  5
59C7
330
1E
100
AcDbEntity
  8
10
  6
CONTINOUS
100
AcDbLine
 10
149.9923778520065
 20
51.01029255310336
 30
0.0
 11
149.9923778520065
 21
-50.98970744689665
 31
0.0
  0
LINE
  5
59C8
330
1E
100
AcDbEntity
  8
10
  6
CONTINOUS
100
AcDbLine
 10
145.9923778520064
 20
25.01029255310344
 30
0.0
 11
145.9923778520064
 21
-24.98970744689656
 31
0.0
  0
LINE
  5
59C9
330
1E
100
AcDbEntity
  8
10
  6
CONTINOUS
100
AcDbLine
 10
217.9923778520064
 20
77.51029255310354
 30
0.0
 11
217.9923778520064
 21
-77.48970744689656
 31
0.0
  0
LINE
  5
59CA
330
1E
100
AcDbEntity
  8
10
  6
CONTINOUS
100
AcDbLine
 10
141.9923778520064
 20
25.01029255310344
 30
0.0
 11
141.9923778520064
 21
-24.98970744689656
 31
0.0
  0
LINE
  5
59CD
330
1E
100
AcDbEntity
  8
12
  6
DASHED
100
AcDbLine
 10
217.9923778520064
 20
-63.73970744689657
 30
0.0
 11
225.9923778520064
 21
-63.73970744689657
 31
0.0
  0
LINE
  5
59CE
330
1E
100
AcDbEntity
  8
12
  6
DASHED
100
AcDbLine
 10
146.9923778520069
 20
-65.9897074468966
 30
0.0
 11
235.9923778520065
 21
-65.9897074468966
 31
0.0
  0
LINE
  5
59CF
330
1E
100
AcDbEntity
  8
12
  6
DASHED
100
AcDbLine
 10
217.9923778520064
 20
-68.23970744689657
 30
0.0
 11
225.9923778520064
 21
-68.23970744689657
 31
0.0
  0
DIMENSION
  5
59D0
330
1E
100
AcDbEntity
  8
30
  6
Continuous
100
AcDbDimension
280
     0
  2
*D8
 10
217.9923778520064
 20
-109.4248887595564
 30
0.0
 11
183.9923778520064
 21
-106.4248887595564
 31
0.0
 70
    32
 71
     5
 42
-1.0
 73
     0
 74
     0
 75
     0
  3
STANDARD
100
AcDbAlignedDimension
 13
149.9923778520065
 23
-50.98970744689665
 33
0.0
 14
217.9923778520064
 24
-77.48970744689656
 34
0.0
 50
180.0
100
AcDbRotatedDimension
1001
ACAD
1000
DSTYLE
1002
{
1070
    79
1070
     3
1002
}
  0
DIMENSION
  5
59D1
330
1E
100
AcDbEntity
  8
30
  6
Continuous
100
AcDbDimension
280
     0
  2
*D9
 10
217.9923778520064
 20
-97.83544422304402
 30
0.0
 11
187.4923778520065
 21
-94.83544422304399
 31
0.0
 70
    32
 71
     5
 42
-1.0
 73
     0
 74
     0
 75
     0
  3
STANDARD
100
AcDbAlignedDimension
 13
156.9923778520063
 23
-77.48970744689656
 33
0.0
 14
217.9923778520064
 24
-77.48970744689656
 34
0.0
 50
180.0
100
AcDbRotatedDimension
1001
ACAD
1000
DSTYLE
1002
{
1070
    79
1070
     3
1002
}
  0
DIMENSION
  5
59D2
330
1E
100
AcDbEntity
  8
30
  6
Continuous
100
AcDbDimension
280
     0
  2
*D10
 10
217.9923778520064
 20
-87.57398143985339
 30
0.0
 11
195.4923778520064
 21
-84.57398143985342
 31
0.0
 70
    32
 71
     5
 42
-1.0
 73
     0
 74
     0
 75
     0
  3
STANDARD
100
AcDbAlignedDimension
 13
172.9923778520064
 23
-70.23970744689655
 33
0.0
 14
217.9923778520064
 24
-77.48970744689656
 34
0.0
 50
180.0
100
AcDbRotatedDimension
1001
ACAD
1000
DSTYLE
1002
{
1070
    79
1070
     3
1002
}
  0
LINE
  5
59D3
330
1E
100
AcDbEntity
  8
12
  6
DASHED
100
AcDbLine
 10
172.9923778520064
 20
-68.23970744689657
 30
0.0
 11
217.9923778520064
 21
-68.23970744689657
 31
0.0
  0
LINE
  5
59D4
330
1E
100
AcDbEntity
  8
12
  6
DASHED
100
AcDbLine
 10
172.9923778520064
 20
-63.73970744689657
 30
0.0
 11
217.9923778520064
 21
-63.73970744689657
 31
0.0
  0
LINE
  5
59D5
330
1E
100
AcDbEntity
  8
10
  6
CONTINOUS
100
AcDbLine
 10
156.9923778520063
 20
-77.48970744689656
 30
0.0
 11
217.9923778520064
 21
-77.48970744689656
 31
0.0
  0
LINE
  5
59D6
330
1E
100
AcDbEntity
  8
10
  6
CONTINOUS
100
AcDbLine
 10
156.9923778520063
 20
-50.98970744689649
 30
0.0
 11
156.9923778520063
 21
-77.48970744689656
 31
0.0
  0
LINE
  5
59D7
330
1E
100
AcDbEntity
  8
12
  6
DASHED
100
AcDbLine
 10
156.9923778520063
 20
-70.23970744689655
 30
0.0
 11
172.9923778520064
 21
-70.23970744689655
 31
0.0
  0
LINE
  5
59D8
330
1E
100
AcDbEntity
  8
12
  6
DASHED
100
AcDbLine
 10
156.9923778520063
 20
-61.73970744689651
 30
0.0
 11
172.9923778520064
 21
-61.73970744689651
 31
0.0
  0
LINE
  5
59D9
330
1E
100
AcDbEntity
  8
12
  6
DASHED
100
AcDbLine
 10
172.9923778520064
 20
-61.73970744689651
 30
0.0
 11
172.9923778520064
 21
-70.23970744689655
 31
0.0
  0
LINE
  5
59DA
330
1E
100
AcDbEntity
  8
12
  6
DASHED
100
AcDbLine
 10
166.9923778520064
 20
-61.73970744689651
 30
0.0
 11
166.9923778520064
 21
-70.23970744689655
 31
0.0
  0
LINE
  5
59DB
330
1E
100
AcDbEntity
  8
12
  6
DASHED
100
AcDbLine
 10
172.9923778520064
 20
-68.23970744689654
 30
0.0
 11
172.9923778520064
 21
-70.23970744689655
 31
0.0
  0
LINE
  5
59DC
330
1E
100
AcDbEntity
  8
12
  6
DASHED
100
AcDbLine
 10
172.9923778520064
 20
-61.73970744689651
 30
0.0
 11
172.9923778520064
 21
-63.73970744689657
 31
0.0
  0
LINE
  5
59DD
330
1E
100
AcDbEntity
  8
10
  6
CONTINOUS
100
AcDbLine
 10
149.9923778520065
 20
-50.98970744689665
 30
0.0
 11
156.9923778520063
 21
-50.98970744689665
 31
0.0
  0
LINE
  5
59DE
330
1E
100
AcDbEntity
  8
10
  6
CONTINOUS
100
AcDbLine
 10
141.9923778520064
 20
-24.98970744689656
 30
0.0
 11
149.9923778520065
 21
-24.98970744689656
 31
0.0
  0
LINE
  5
59DF
330
1E
100
AcDbEntity
  8
12
  6
DASHED
100
AcDbLine
 10
225.9923778520064
 20
-63.73970744689654
 30
0.0
 11
225.9923778520064
 21
-68.23970744689654
 31
0.0
  0
LINE
  5
59E0
330
1E
100
AcDbEntity
  8
10
  6
CONTINOUS
100
AcDbLine
 10
141.9923778520064
 20
25.01029255310344
 30
0.0
 11
149.9923778520065
 21
25.01029255310344
 31
0.0
  0
LINE
  5
59E1
330
1E
100
AcDbEntity
  8
10
  6
CONTINOUS
100
AcDbLine
 10
156.9923778520063
 20
77.51029255310347
 30
0.0
 11
217.9923778520064
 21
77.51029255310354
 31
0.0
  0
LINE
  5
59E2
330
1E
100
AcDbEntity
  8
10
  6
CONTINOUS
100
AcDbLine
 10
156.9923778520063
 20
77.51029255310347
 30
0.0
 11
156.9923778520063
 21
51.01029255310343
 31
0.0
  0
LINE
  5
59E3
330
1E
100
AcDbEntity
  8
10
  6
CONTINOUS
100
AcDbLine
 10
149.9923778520065
 20
51.01029255310343
 30
0.0
 11
156.9923778520063
 21
51.01029255310343
 31
0.0
  0
DIMENSION
  5
59F0
330
1E
100
AcDbEntity
  8
30
  6
Continuous
100
AcDbDimension
280
     0
  2
*D11
 10
274.4923778520064
 20
27.6098009537836
 30
0.0
 11
265.9923778520066
 21
30.6098009537836
 31
0.0
 70
    32
 71
     5
 42
-1.0
 73
     0
 74
     0
 75
     0
  3
STANDARD
100
AcDbAlignedDimension
 13
257.4923778520064
 23
43.01029255310345
 33
0.0
 14
274.4923778520064
 24
43.01029255310345
 34
0.0
 50
180.0
100
AcDbRotatedDimension
1001
ACAD
1000
DSTYLE
1002
{
1070
    79
1070
     3
1002
}
  0
INSERT
  5
59F1
330
1E
100
AcDbEntity
  8
30
  6
Continuous
100
AcDbBlockReference
  2
*U3
 10
-371.545899659955
 20
-244.2651990414663
 30
0.0
 41
2.5
 42
2.5
 43
2.5
  0
INSERT
  5
59F2
330
1E
100
AcDbEntity
  8
30
  6
Continuous
100
AcDbBlockReference
  2
*U2
 10
-371.545899659955
 20
-244.2651990414663
 30
0.0
 41
2.5
 42
2.5
 43
2.5
  0
INSERT
  5
59F3
330
1E
100
AcDbEntity
  8
30
  6
Continuous
100
AcDbBlockReference
  2
*U1
 10
-371.545899659955
 20
-244.2651990414663
 30
0.0
 41
2.5
 42
2.5
 43
2.5
  0
ARC
  5
59F4
330
1E
100
AcDbEntity
  8
24
  6
Continuous
100
AcDbCircle
 10
261.6173778520066
 20
68.65577761767593
 30
0.0
 40
8.0
100
AcDbArc
 50
58.9607599896022
 51
121.0392400103977
  0
CIRCLE
  5
59F5
330
1E
100
AcDbEntity
  8
17
  6
DASHDOT
100
AcDbCircle
 10
265.9923778520066
 20
51.51029255310342
 30
0.0
 40
4.5
  0
LINE
  5
59F6
330
1E
100
AcDbEntity
  8
24
  6
Continuous
100
AcDbLine
 10
265.3169338818679
 20
75.74896344506797
 30
0.0
 11
269.7878198205435
 21
73.41710672571124
 31
0.0
  0
LINE
  5
59F7
330
1E
100
AcDbEntity
  8
17
  6
DASHDOT
100
AcDbLine
 10
259.7423778520066
 20
51.51029255310342
 30
0.0
 11
272.2423778520066
 21
51.51029255310342
 31
0.0
  0
LINE
  5
59F8
330
1E
100
AcDbEntity
  8
24
  6
Continuous
100
AcDbLine
 10
257.4923778520064
 20
43.01029255310345
 30
0.0
 11
274.4923778520064
 21
43.01029255310345
 31
0.0
  0
LINE
  5
59FA
330
1E
100
AcDbEntity
  8
24
  6
Continuous
100
AcDbLine
 10
257.4923778520064
 20
75.51029255310348
 30
0.0
 11
257.4923778520064
 21
43.01029255310345
 31
0.0
  0
LINE
  5
59FC
330
1E
100
AcDbEntity
  8
24
  6
Continuous
100
AcDbLine
 10
274.4923778520064
 20
72.57367041413417
 30
0.0
 11
274.4923778520064
 21
43.01029255310345
 31
0.0
  0
DIMENSION
  5
59FD
330
1E
100
AcDbEntity
  8
30
  6
Continuous
100
AcDbDimension
280
     0
  2
*D12
 10
289.0791003447947
 20
51.51029255310342
 30
0.0
 11
294.0791003447947
 21
56.51029255310345
 31
0.0
 70
    32
 71
     5
 42
-1.0
 73
     0
 74
     0
 75
     0
  3
STANDARD
100
AcDbAlignedDimension
 13
274.4923778520064
 23
43.01029255310345
 33
0.0
 14
268.4923778685063
 24
51.51029255310342
 34
0.0
 50
270.0
100
AcDbRotatedDimension
1001
ACAD
1000
DSTYLE
1002
{
1070
    79
1070
     3
1002
}
  0
LINE
  5
59FE
330
1E
100
AcDbEntity
  8
17
  6
DASHDOT
100
AcDbLine
 10
265.9923778520066
 20
57.76029255310342
 30
0.0
 11
265.9923778520068
 21
45.26029255310342
 31
0.0
  0
ARC
  5
59FF
330
1E
100
AcDbEntity
  8
24
  6
Continuous
100
AcDbCircle
 10
273.487375850405
 20
80.51029255310348
 30
0.0
 40
8.0
100
AcDbArc
 50
242.4550403035893
 51
277.2168646146247
  0
TEXT
  5
5C39
330
1E
100
AcDbEntity
  8
30
  6
Continuous
100
AcDbText
 10
240.5305604766125
 20
76.12678862702907
 30
0.0
 40
5.0
  1
%%c9
  7
STANDARD1
100
AcDbText
  0
MTEXT
  5
5C78
330
1E
100
AcDbEntity
  8
30
  6
Continuous
100
AcDbMText
 10
162.3297648581359
 20
88.99793930010117
 30
0.0
 40
4.0
 41
0.0
 46
0.0
 71
     9
 72
     1
  1

 73
     1
 44
1.0
1001
ACAD
1000
MTEXTBEGIN
1070
    73
1070
     1
1070
    44
1040
1.0
1070
    74
1070
     0
1000
MTEXTEND
  0
LEADER
  5
5C79
330
1E
100
AcDbEntity
  8
30
  6
Continuous
100
AcDbLeader
  3
STANDARD
 76
     3
 10
261.8302485034083
 20
55.12750014792604
 30
0.0
 10
252.4942508748509
 20
74.23450628372655
 30
0.0
 10
239.1571073495833
 20
74.67885470276758
 30
0.0
213
0.0
223
2.0
233
0.0
1001
ACAD
1000
DSTYLE
1002
{
1070
     5
1000
OPEN
1070
    77
1070
     0
1070
    79
1070
     3
1070
   147
1040
1.0
1070
   342
1005
3B2
1002
}
  0
DIMENSION
  5
5E29
330
1E
100
AcDbEntity
  8
30
  6
Continuous
100
AcDbDimension
280
     0
  2
*D13
 10
42.00000000000001
 20
32.59950840068015
 30
0.0
 11
0.0000000000000215
 21
35.59950840068014
 31
0.0
 70
    32
 71
     5
 42
-1.0
 73
     0
 74
     0
 75
     0
  3
STANDARD
100
AcDbAlignedDimension
 13
-41.99999999999996
 23
24.99999999999996
 33
0.0
 14
42.00000000000001
 24
24.99999999999996
 34
0.0
100
AcDbRotatedDimension
1001
ACAD
1000
DSTYLE
1002
{
1070
    79
1070
     3
1002
}
  0
LINE
  5
5E2D
330
1E
100
AcDbEntity
  8
10
  6
CONTINOUS
100
AcDbLine
 10
-41.99999999999996
 20
-25.0
 30
0.0
 11
42.00000000000001
 21
-25.0
 31
0.0
  0
LINE
  5
5E2E
330
1E
100
AcDbEntity
  8
10
  6
CONTINOUS
100
AcDbLine
 10
-44.99999999999997
 20
-51.00000000000008
 30
0.0
 11
75.00000000000003
 21
-51.00000000000008
 31
0.0
  0
LINE
  5
5E2F
330
1E
100
AcDbEntity
  8
10
  6
CONTINOUS
100
AcDbLine
 10
-44.99999999999997
 20
50.99999999999996
 30
0.0
 11
75.00000000000003
 21
50.99999999999996
 31
0.0
  0
LINE
  5
5E32
330
1E
100
AcDbEntity
  8
10
  6
CONTINOUS
100
AcDbLine
 10
-41.99999999999996
 20
25.0
 30
0.0
 11
42.00000000000001
 21
25.0
 31
0.0
  0
LINE
  5
5E33
330
1E
100
AcDbEntity
  8
10
  6
CONTINOUS
100
AcDbLine
 10
-41.99999999999996
 20
25.0
 30
0.0
 11
-41.99999999999996
 21
-25.0
 31
0.0
  0
LINE
  5
5E34
330
1E
100
AcDbEntity
  8
10
  6
CONTINOUS
100
AcDbLine
 10
-44.99999999999997
 20
77.49999999999997
 30
0.0
 11
-44.99999999999997
 21
-77.50000000000003
 31
0.0
  0
LINE
  5
5E38
330
1E
100
AcDbEntity
  8
18
100
AcDbLine
 10
13.50000000000002
 20
124.4999999999996
 30
0.0
 11
13.50000000000002
 21
77.49999999999973
 31
0.0
  0
LINE
  5
5E39
330
1E
100
AcDbEntity
  8
18
100
AcDbLine
 10
16.5
 20
124.4999999999996
 30
0.0
 11
16.5
 21
77.49999999999973
 31
0.0
  0
LINE
  5
5E3A
330
1E
100
AcDbEntity
  8
18
100
AcDbLine
 10
-13.49999999999999
 20
124.4999999999996
 30
0.0
 11
-13.49999999999999
 21
77.49999999999973
 31
0.0
  0
LINE
  5
5E3B
330
1E
100
AcDbEntity
  8
18
100
AcDbLine
 10
-16.5
 20
124.4999999999996
 30
0.0
 11
-16.5
 21
77.49999999999973
 31
0.0
  0
LINE
  5
5E3C
330
1E
100
AcDbEntity
  8
10
  6
CONTINOUS
100
AcDbLine
 10
42.00000000000001
 20
25.0
 30
0.0
 11
42.00000000000001
 21
-25.0
 31
0.0
  0
LINE
  5
5E3E
330
1E
100
AcDbEntity
  8
10
  6
CONTINOUS
100
AcDbLine
 10
11.00000000000002
 20
25.0
 30
0.0
 11
11.00000000000002
 21
-25.0
 31
0.0
  0
LINE
  5
5E3F
330
1E
100
AcDbEntity
  8
10
  6
CONTINOUS
100
AcDbLine
 10
-10.99999999999999
 20
25.0
 30
0.0
 11
-10.99999999999999
 21
-25.0
 31
0.0
  0
LINE
  5
5E40
330
1E
100
AcDbEntity
  8
10
  6
CONTINOUS
100
AcDbLine
 10
75.00000000000003
 20
-77.50000000000003
 30
0.0
 11
75.00000000000003
 21
77.49999999999997
 31
0.0
  0
DIMENSION
  5
5E42
330
1E
100
AcDbEntity
  8
30
  6
Continuous
100
AcDbDimension
280
     0
  2
*D14
 10
11.00000000000002
 20
-41.74941814395149
 30
0.0
 11
0.0000000000000286
 21
-38.74941814395151
 31
0.0
 70
    32
 71
     5
 42
-1.0
 73
     0
 74
     0
 75
     0
  3
STANDARD
100
AcDbAlignedDimension
 13
-10.99999999999999
 23
-25.0
 33
0.0
 14
11.00000000000002
 24
-25.0
 34
0.0
 50
180.0
100
AcDbRotatedDimension
1001
ACAD
1000
DSTYLE
1002
{
1070
    79
1070
     3
1002
}
  0
LINE
  5
5E5B
330
1E
100
AcDbEntity
  8
10
  6
CONTINOUS
100
AcDbLine
 10
7.000000000000026
 20
20.15486870581028
 30
0.0
 11
-7.000000000000909
 21
20.15486870581028
 31
0.0
  0
LINE
  5
5E5C
330
1E
100
AcDbEntity
  8
10
  6
CONTINOUS
100
AcDbLine
 10
7.000000000000026
 20
15.23995644007658
 30
0.0
 11
-6.999999999999997
 21
15.23995644007658
 31
0.0
  0
LINE
  5
5E5D
330
1E
100
AcDbEntity
  8
10
  6
CONTINOUS
100
AcDbLine
 10
7.000000000000026
 20
6.840789306861436
 30
0.0
 11
-6.99999999999903
 21
6.840789306861521
 31
0.0
  0
LINE
  5
5E5E
330
1E
100
AcDbEntity
  8
10
  6
CONTINOUS
100
AcDbLine
 10
-6.999999999999997
 20
-18.50000000000001
 30
0.0
 11
7.000000000000026
 21
-18.50000000000001
 31
0.0
  0
LINE
  5
5E5F
330
1E
100
AcDbEntity
  8
10
  6
CONTINOUS
100
AcDbLine
 10
-6.999999999999997
 20
-18.50000000000001
 30
0.0
 11
-6.999999999999857
 21
20.15486870581028
 31
0.0
  0
LINE
  5
5E60
330
1E
100
AcDbEntity
  8
10
  6
CONTINOUS
100
AcDbLine
 10
7.000000000000026
 20
-18.50000000000001
 30
0.0
 11
7.000000000000082
 21
20.15486870581028
 31
0.0
  0
LINE
  5
5E7A
330
1E
100
AcDbEntity
  8
18
100
AcDbLine
 10
-13.49999999999999
 20
124.4999999999996
 30
0.0
 11
-16.5
 21
124.4999999999996
 31
0.0
  0
LINE
  5
5E7B
330
1E
100
AcDbEntity
  8
18
100
AcDbLine
 10
13.50000000000002
 20
124.4999999999996
 30
0.0
 11
16.5
 21
124.4999999999996
 31
0.0
  0
LINE
  5
5EEE
330
1E
100
AcDbEntity
  8
18
  6
DIVIDE
100
AcDbLine
 10
74.61990546482879
 20
-175.1631237443548
 30
0.0
 11
-45.38009453517117
 21
-175.1631237443548
 31
0.0
  0
LINE
  5
5EEF
330
1E
100
AcDbEntity
  8
18
  6
DIVIDE
100
AcDbLine
 10
-45.38009453517117
 20
-330.1631237443548
 30
0.0
 11
74.61990546482879
 21
-330.1631237443548
 31
0.0
  0
DIMENSION
  5
5EF0
330
1E
100
AcDbEntity
  8
30
  6
Continuous
100
AcDbDimension
280
     0
  2
*D15
 10
14.61990546482881
 20
-354.4125418883063
 30
0.0
 11
-0.3800945351711904
 21
-351.4125418883061
 31
0.0
 70
    32
 71
     5
 42
-1.0
 73
     0
 74
     0
 75
     0
  3
STANDARD
100
AcDbAlignedDimension
 13
-15.38009453517117
 23
-324.1631237443548
 33
0.0
 14
14.61990546482881
 24
-321.163123760855
 34
0.0
 50
180.0
100
AcDbRotatedDimension
1001
ACAD
1000
DSTYLE
1002
{
1070
    79
1070
     3
1002
}
  0
LINE
  5
5EF1
330
1E
100
AcDbEntity
  8
18
  6
DIVIDE
100
AcDbLine
 10
-45.38009453517117
 20
-175.1631237443548
 30
0.0
 11
-45.38009453517117
 21
-330.1631237443548
 31
0.0
  0
LINE
  5
5EF2
330
1E
100
AcDbEntity
  8
12
  6
Continuous
 62
     3
100
AcDbLine
 10
9.119905464828807
 20
-318.6631237443549
 30
0.0
 11
20.1199054648288
 21
-318.6631237443549
 31
0.0
  0
LINE
  5
5EF3
330
1E
100
AcDbEntity
  8
12
  6
Continuous
 62
     3
100
AcDbLine
 10
14.61990546482881
 20
-324.1631237443548
 30
0.0
 11
14.61990546482881
 21
-313.1631237443548
 31
0.0
  0
CIRCLE
  5
5EF4
330
1E
100
AcDbEntity
  8
12
  6
Continuous
 62
     3
100
AcDbCircle
 10
14.61990546482881
 20
-318.6631237443549
 30
0.0
 40
2.0
  0
CIRCLE
  5
5EF5
330
1E
100
AcDbEntity
  8
12
  6
Continuous
 62
     3
100
AcDbCircle
 10
-15.38009453517117
 20
-186.663123744355
 30
0.0
 40
2.0
  0
LINE
  5
5EF6
330
1E
100
AcDbEntity
  8
12
  6
Continuous
 62
     3
100
AcDbLine
 10
-20.88009453517118
 20
-186.663123744355
 30
0.0
 11
-9.880094535171187
 21
-186.663123744355
 31
0.0
  0
LINE
  5
5EF7
330
1E
100
AcDbEntity
  8
12
  6
Continuous
 62
     3
100
AcDbLine
 10
-15.38009453517117
 20
-192.1631237443548
 30
0.0
 11
-15.38009453517117
 21
-181.1631237443551
 31
0.0
  0
LINE
  5
5EF8
330
1E
100
AcDbEntity
  8
18
  6
DIVIDE
100
AcDbLine
 10
74.61990546482879
 20
-330.1631237443548
 30
0.0
 11
74.61990546482879
 21
-175.1631237443548
 31
0.0
  0
LEADER
  5
6067
330
1E
100
AcDbEntity
  8
30
  6
Continuous
100
AcDbLeader
  3
STANDARD
 76
     3
 10
-15.38009453517117
 20
-186.663123744355
 30
0.0
 10
-24.52312241480977
 20
-163.03149535289
 30
0.0
 10
-49.0
 20
-162.9086974155604
 30
0.0
213
-15.87672171467731
223
2.0
233
0.0
1001
ACAD
1000
DSTYLE
1002
{
1070
     5
1000
OPEN
1070
    77
1070
     0
1070
    79
1070
     3
1070
   147
1040
1.0
1070
   342
1005
3B2
1002
}
  0
MTEXT
  5
6068
330
1E
100
AcDbEntity
  8
30
  6
Continuous
100
AcDbMText
 10
-34.12327828532269
 20
-164.9086974155603
 30
0.0
 40
4.0
 41
0.0
 46
0.0
 71
     9
 72
     1
  1

 73
     1
 44
1.0
1001
ACAD
1000
MTEXTBEGIN
1070
    73
1070
     1
1070
    44
1040
1.0
1070
    74
1070
     0
1000
MTEXTEND
  0
MTEXT
  5
606B
330
1E
100
AcDbEntity
  8
30
  6
Continuous
100
AcDbMText
 10
-36.55182671697476
 20
-159.8201476728554
 30
0.0
 40
4.0
 41
0.0
 46
0.0
 71
     5
 72
     1
  1
M4×0.7
 73
     1
 44
1.0
1001
ACAD
1000
MTEXTBEGIN
1070
    73
1070
     1
1070
    44
1040
1.0
1070
    74
1070
     0
1000
MTEXTEND
  0
LINE
  5
60EC
330
1E
100
AcDbEntity
  8
18
100
AcDbLine
 10
46.5
 20
124.4999999999996
 30
0.0
 11
46.5
 21
77.49999999999973
 31
0.0
  0
LINE
  5
60ED
330
1E
100
AcDbEntity
  8
18
100
AcDbLine
 10
43.50000000000006
 20
124.4999999999996
 30
0.0
 11
43.50000000000006
 21
77.49999999999973
 31
0.0
  0
LINE
  5
60EE
330
1E
100
AcDbEntity
  8
18
100
AcDbLine
 10
43.50000000000006
 20
124.4999999999996
 30
0.0
 11
46.5
 21
124.4999999999996
 31
0.0
  0
DIMENSION
  5
6116
330
1E
100
AcDbEntity
  8
30
  6
Continuous
100
AcDbDimension
280
     0
  2
*D19
 10
96.85839195347298
 20
-318.6631237443549
 30
0.0
 11
93.85839195347307
 21
-252.6631237443548
 31
0.0
 70
    32
 71
     5
 42
-1.0
 73
     0
 74
     0
 75
     0
  3
STANDARD
100
AcDbAlignedDimension
 13
20.11990546482878
 23
-186.663123744355
 33
0.0
 14
20.1199054648288
 24
-318.6631237443549
 34
0.0
 50
90.0
100
AcDbRotatedDimension
1001
ACAD
1000
DSTYLE
1002
{
1070
    79
1070
     3
1002
}
  0
DIMENSION
  5
614A
330
1E
100
AcDbEntity
  8
30
  6
Continuous
100
AcDbDimension
280
     0
  2
*D20
 10
-63.92066478230082
 20
77.49999999999997
 30
0.0
 11
-66.92066478230081
 21
100.9999999999997
 31
0.0
 70
    32
 71
     5
 42
-1.0
 73
     0
 74
     0
 75
     0
  3
STANDARD
100
AcDbAlignedDimension
 13
-16.5
 23
124.4999999999996
 33
0.0
 14
-44.99999999999997
 24
77.49999999999997
 34
0.0
 50
90.0
100
AcDbRotatedDimension
1001
ACAD
1000
DSTYLE
1002
{
1070
    79
1070
     3
1002
}
  0
DIMENSION
  5
6157
330
1E
100
AcDbEntity
  8
30
  6
Continuous
100
AcDbDimension
280
     0
  2
*D21
 10
-63.92066478230084
 20
-77.50000000000003
 30
0.0
 11
-66.92066478230081
 21
-0.0000000000000384
 31
0.0
 70
    32
 71
     5
 42
-1.0
 73
     0
 74
     0
 75
     0
  3
STANDARD
100
AcDbAlignedDimension
 13
-44.99999999999997
 23
77.49999999999997
 33
0.0
 14
-44.99999999999997
 24
-77.50000000000003
 34
0.0
 50
90.0
100
AcDbRotatedDimension
1001
ACAD
1000
DSTYLE
1002
{
1070
    79
1070
     3
1002
}
  0
DIMENSION
  5
6398
330
1E
100
AcDbEntity
  8
30
  6
Continuous
100
AcDbDimension
280
     0
  2
*D22
 10
217.9923778520064
 20
-87.74064843985341
 30
0.0
 11
221.9923778520064
 21
-84.74064843985342
 31
0.0
 70
    32
 71
     5
 42
-1.0
 73
     0
 74
     0
 75
     0
  3
STANDARD
100
AcDbAlignedDimension
 13
225.9923778520064
 23
-68.23970744689657
 33
0.0
 14
217.9923778520064
 24
-77.48970744689656
 34
0.0
100
AcDbRotatedDimension
1001
ACAD
1000
DSTYLE
1002
{
1070
    79
1070
     3
1002
}
  0
LINE
  5
6466
330
1E
100
AcDbEntity
  8
16
100
AcDbLine
 10
209.6199054648288
 20
-350.4150635072006
 30
0.0
 11
209.6199054648288
 21
-151.2797245348689
 31
0.0
  0
LINE
  5
6468
330
1E
100
AcDbEntity
  8
18
  6
DIVIDE
100
AcDbLine
 10
164.6199054648288
 20
-175.1631237443548
 30
0.0
 11
164.6199054648288
 21
-330.1631237443548
 31
0.0
  0
LINE
  5
6469
330
1E
100
AcDbEntity
  8
18
  6
DIVIDE
100
AcDbLine
 10
284.6199054648287
 20
-330.1631237443548
 30
0.0
 11
284.6199054648287
 21
-175.1631237443548
 31
0.0
  0
LINE
  5
646A
330
1E
100
AcDbEntity
  8
11
 48
2.0
100
AcDbLine
 10
166.6199054648288
 20
-227.6631237443548
 30
0.0
 11
166.6199054648288
 21
-277.6631237443548
 31
0.0
  0
LINE
  5
646B
330
1E
100
AcDbEntity
  8
11
 48
2.0
100
AcDbLine
 10
252.6199054648289
 20
-227.6631237443548
 30
0.0
 11
252.6199054648289
 21
-277.6631237443548
 31
0.0
  0
DIMENSION
  5
646C
330
1E
100
AcDbEntity
  8
30
  6
Continuous
100
AcDbDimension
280
     0
  2
*D25
 10
272.680795841907
 20
-278.6631237443549
 30
0.0
 11
269.680795841907
 21
-252.6631237443548
 31
0.0
 70
    32
 71
     5
 42
-1.0
 73
     0
 74
     0
 75
     0
  3
STANDARD
100
AcDbAlignedDimension
 13
251.6199054648287
 23
-226.6631237443549
 33
0.0
 14
251.6199054648287
 24
-278.6631237443549
 34
0.0
 50
90.0
100
AcDbRotatedDimension
1001
ACAD
1000
DSTYLE
1002
{
1070
    79
1070
     3
1002
}
  0
LINE
  5
646E
330
1E
100
AcDbEntity
  8
16
100
AcDbLine
 10
297.3266621308825
 20
-253.4106968373281
 30
0.0
 11
129.0699922632479
 21
-252.6631237443548
 31
0.0
  0
LINE
  5
646F
330
1E
100
AcDbEntity
  8
18
  6
DIVIDE
100
AcDbLine
 10
164.6199054648288
 20
-330.1631237443548
 30
0.0
 11
284.6199054648287
 21
-330.1631237443548
 31
0.0
  0
LINE
  5
6471
330
1E
100
AcDbEntity
  8
11
 48
2.0
100
AcDbLine
 10
167.6199054648288
 20
-278.6631237443549
 30
0.0
 11
251.6199054648287
 21
-278.6631237443549
 31
0.0
  0
DIMENSION
  5
6472
330
1E
100
AcDbEntity
  8
30
  6
Continuous
100
AcDbDimension
280
     0
  2
*D23
 10
252.6199054648289
 20
-359.3804450066013
 30
0.0
 11
209.6199054648289
 21
-356.3804450066013
 31
0.0
 70
    32
 71
     5
 42
-1.0
 73
     0
 74
     0
 75
     0
  3
STANDARD
100
AcDbAlignedDimension
 13
166.6199054648288
 23
-277.6631237443548
 33
0.0
 14
252.6199054648289
 24
-277.6631237443548
 34
0.0
100
AcDbRotatedDimension
1001
ACAD
1000
DSTYLE
1002
{
1070
    79
1070
     3
1002
}
  0
ARC
  5
6475
330
1E
100
AcDbEntity
  8
11
 48
2.0
100
AcDbCircle
 10
167.6199054648288
 20
-277.6631237443548
 30
0.0
 40
1.0
100
AcDbArc
 50
180.0
 51
270.0
  0
ARC
  5
6476
330
1E
100
AcDbEntity
  8
11
 48
2.0
100
AcDbCircle
 10
251.6199054648287
 20
-277.6631237443548
 30
0.0
 40
1.0
100
AcDbArc
 50
270.0
 51
0.0
  0
LINE
  5
6477
330
1E
100
AcDbEntity
  8
18
  6
DIVIDE
100
AcDbLine
 10
284.6199054648287
 20
-175.1631237443548
 30
0.0
 11
164.6199054648288
 21
-175.1631237443548
 31
0.0
  0
LINE
  5
6478
330
1E
100
AcDbEntity
  8
11
 48
2.0
100
AcDbLine
 10
167.6199054648288
 20
-226.6631237443549
 30
0.0
 11
251.6199054648287
 21
-226.6631237443549
 31
0.0
  0
ARC
  5
647D
330
1E
100
AcDbEntity
  8
11
 48
2.0
100
AcDbCircle
 10
167.6199054648288
 20
-227.6631237443548
 30
0.0
 40
1.0
100
AcDbArc
 50
90.0
 51
180.0
  0
DIMENSION
  5
647E
330
1E
100
AcDbEntity
  8
30
  6
Continuous
100
AcDbDimension
280
     0
  2
*D24
 10
251.6199054648291
 20
-227.6631237443548
 30
0.0
 11
259.252938708866
 21
-221.6187952184035
 31
0.0
 70
    36
 71
     5
 42
-1.0
 73
     0
 74
     0
 75
     0
  3
STANDARD
100
AcDbRadialDimension
 15
252.413178780303
 25
-227.0542580391643
 35
0.0
 40
0.0
1001
ACAD
1000
DSTYLE
1002
{
1070
   288
1070
     1
1002
}
  0
ARC
  5
647F
330
1E
100
AcDbEntity
  8
11
 48
2.0
100
AcDbCircle
 10
251.6199054648287
 20
-227.6631237443548
 30
0.0
 40
1.0
100
AcDbArc
 50
0.0
 51
90.0
  0
LINE
  5
661E
330
1E
100
AcDbEntity
  8
10
  6
CONTINOUS
100
AcDbLine
 10
75.00000000000003
 20
77.49999999999997
 30
0.0
 11
-44.99999999999997
 21
77.49999999999997
 31
0.0
  0
DIMENSION
  5
66DA
330
1E
100
AcDbEntity
  8
30
  6
Continuous
100
AcDbDimension
280
     0
  2
*D30
 10
75.00000000000003
 20
-106.6830794292267
 30
0.0
 11
15.00000000000001
 21
-103.6830794292267
 31
0.0
 70
    32
 71
     5
 42
-1.0
 73
     0
 74
     0
 75
     0
  3
STANDARD
100
AcDbAlignedDimension
 13
-44.99999999999997
 23
-77.50000000000003
 33
0.0
 14
75.00000000000003
 24
-77.50000000000003
 34
0.0
 50
180.0
100
AcDbRotatedDimension
1001
ACAD
1000
DSTYLE
1002
{
1070
    79
1070
     3
1002
}
  0
LINE
  5
6706
330
1E
100
AcDbEntity
  8
10
  6
CONTINOUS
100
AcDbLine
 10
-44.99999999999997
 20
-77.50000000000003
 30
0.0
 11
75.00000000000003
 21
-77.50000000000003
 31
0.0
  0
LINE
  5
67CE
330
1E
100
AcDbEntity
  8
12
  6
Continuous
 62
     3
100
AcDbLine
 10
-9.880094535171183
 20
-318.6631237443549
 30
0.0
 11
-20.88009453517118
 21
-318.6631237443549
 31
0.0
  0
LINE
  5
67CF
330
1E
100
AcDbEntity
  8
12
  6
Continuous
 62
     3
100
AcDbLine
 10
-15.38009453517117
 20
-324.1631237443548
 30
0.0
 11
-15.38009453517117
 21
-313.1631237443548
 31
0.0
  0
CIRCLE
  5
67D0
330
1E
100
AcDbEntity
  8
12
  6
Continuous
 62
     3
100
AcDbCircle
 10
-15.38009453517117
 20
-318.6631237443549
 30
0.0
 40
2.0
  0
LINE
  5
67D1
330
1E
100
AcDbEntity
  8
12
  6
Continuous
 62
     3
100
AcDbLine
 10
14.6199054648288
 20
-192.1631237443548
 30
0.0
 11
14.6199054648288
 21
-181.1631237443551
 31
0.0
  0
CIRCLE
  5
67D2
330
1E
100
AcDbEntity
  8
12
  6
Continuous
 62
     3
100
AcDbCircle
 10
14.6199054648288
 20
-186.663123744355
 30
0.0
 40
2.0
  0
LINE
  5
67D3
330
1E
100
AcDbEntity
  8
12
  6
Continuous
 62
     3
100
AcDbLine
 10
20.1199054648288
 20
-186.663123744355
 30
0.0
 11
9.119905464828812
 21
-186.663123744355
 31
0.0
  0
LEADER
  5
6835
330
1E
100
AcDbEntity
  8
30
  6
Continuous
100
AcDbLeader
  3
STANDARD
 76
     3
 10
187.0884532058274
 20
73.05749874108335
 30
0.0
 10
179.1779002927033
 20
91.01029255310344
 30
0.0
 10
151.1779002927033
 20
91.01029255310344
 30
0.0
1001
ACAD
1000
DSTYLE
1002
{
1070
     5
1000
OPEN
1070
    77
1070
     0
1070
    79
1070
     3
1070
   147
1040
1.0
1070
   342
1005
3B2
1002
}
  0
ARC
  5
6836
330
1E
100
AcDbEntity
  8
24
  6
CONTINOUS
100
AcDbCircle
 10
188.7923778520066
 20
72.01029255310341
 30
0.0
 40
2.0
100
AcDbArc
 50
90.0
 51
180.0
  0
LINE
  5
6837
330
1E
100
AcDbEntity
  8
24
  6
CONTINOUS
100
AcDbLine
 10
188.7923778520066
 20
74.01029255310341
 30
0.0
 11
191.9923778520063
 21
74.01029255310341
 31
0.0
  0
LINE
  5
6838
330
1E
100
AcDbEntity
  8
24
  6
CONTINOUS
100
AcDbLine
 10
191.9923778520063
 20
74.71029255310337
 30
0.0
 11
193.9923778520064
 21
74.71029255310337
 31
0.0
  0
TEXT
  5
6839
330
1E
100
AcDbEntity
  8
30
  6
Continuous
100
AcDbText
 10
165.6064450230432
 20
94.05011022994845
 30
0.0
 40
5.0
  1
M8
  7
STANDARD1
100
AcDbText
  0
LINE
  5
683A
330
1E
100
AcDbEntity
  8
24
  6
CONTINOUS
100
AcDbLine
 10
193.9923778520064
 20
56.51029255310334
 30
0.0
 11
195.9923778520064
 21
56.51029255310334
 31
0.0
  0
LINE
  5
683B
330
1E
100
AcDbEntity
  8
24
  6
CONTINOUS
100
AcDbLine
 10
181.7923778520063
 20
67.01029255310341
 30
0.0
 11
198.9923778520063
 21
67.01029255310341
 31
0.0
  0
ARC
  5
683C
330
1E
100
AcDbEntity
  8
24
  6
CONTINOUS
100
AcDbCircle
 10
188.7923778520066
 20
62.01029255310341
 30
0.0
 40
2.0
100
AcDbArc
 50
180.0
 51
270.0
  0
LINE
  5
683D
330
1E
100
AcDbEntity
  8
24
  6
CONTINOUS
100
AcDbLine
 10
193.9923778520064
 20
77.51029255310346
 30
0.0
 11
193.9923778520064
 21
56.51029255310334
 31
0.0
  0
LINE
  5
683E
330
1E
100
AcDbEntity
  8
24
  6
CONTINOUS
100
AcDbLine
 10
191.9923778520063
 20
74.71029255310337
 30
0.0
 11
191.9923778520063
 21
59.31029255310343
 31
0.0
  0
LINE
  5
683F
330
1E
100
AcDbEntity
  8
24
  6
CONTINOUS
100
AcDbLine
 10
191.9923778520063
 20
59.31029255310343
 30
0.0
 11
193.9923778520064
 21
59.31029255310343
 31
0.0
  0
LINE
  5
6840
330
1E
100
AcDbEntity
  8
24
  6
CONTINOUS
100
AcDbLine
 10
188.7923778520066
 20
60.01029255310341
 30
0.0
 11
191.9923778520063
 21
60.01029255310341
 31
0.0
  0
LINE
  5
6841
330
1E
100
AcDbEntity
  8
24
  6
CONTINOUS
100
AcDbLine
 10
186.7923778520063
 20
72.01029255310341
 30
0.0
 11
186.7923778520063
 21
62.01029255310341
 31
0.0
  0
LINE
  5
6842
330
1E
100
AcDbEntity
  8
24
  6
CONTINOUS
100
AcDbLine
 10
195.9923778520064
 20
77.51029255310346
 30
0.0
 11
195.9923778520064
 21
56.51029255310334
 31
0.0
  0
DIMENSION
  5
6843
330
1E
100
AcDbEntity
  8
30
  6
Continuous
100
AcDbDimension
280
     0
  2
*D36
 10
217.9923778520064
 20
108.2608744091515
 30
0.0
 11
205.9923778520064
 21
111.2608744091515
 31
0.0
 70
    32
 71
     5
 42
-1.0
 73
     0
 74
     0
 75
     0
  3
STANDARD
100
AcDbAlignedDimension
 13
193.9923778520064
 23
77.51029255310346
 33
0.0
 14
217.9923778520064
 24
77.51029255310354
 34
0.0
100
AcDbRotatedDimension
1001
ACAD
1000
DSTYLE
1002
{
1070
    79
1070
     3
1002
}
  0
CIRCLE
  5
68E9
330
1E
100
AcDbEntity
  8
12
  6
DASHED
100
AcDbCircle
 10
-15.0
 20
65.99999999999974
 30
0.0
 40
4.0
  0
LINE
  5
68EA
330
1E
100
AcDbEntity
  8
12
  6
DASHED
100
AcDbLine
 10
-20.49999999999996
 20
65.99999999999974
 30
0.0
 11
-9.5
 21
65.99999999999974
 31
0.0
  0
ARC
  5
68EC
330
1E
100
AcDbEntity
  8
10
  6
Continuous
100
AcDbCircle
 10
-26.99999999999994
 20
65.99999999999997
 30
0.0
 40
5.0
100
AcDbArc
 50
270.0
 51
0.0
  0
LINE
  5
68ED
330
1E
100
AcDbEntity
  8
24
  6
CONTINOUS
100
AcDbLine
 10
-29.99999999999995
 20
73.99999999999997
 30
0.0
 11
-29.99999999999995
 21
59.99999999999997
 31
0.0
  0
ARC
  5
68EE
330
1E
100
AcDbEntity
  8
10
  6
Continuous
100
AcDbCircle
 10
-32.99999999999994
 20
65.99999999999997
 30
0.0
 40
5.0
100
AcDbArc
 50
180.0
 51
270.0
  0
CIRCLE
  5
68EF
330
1E
100
AcDbEntity
  8
24
  6
CONTINOUS
100
AcDbCircle
 10
-29.99999999999995
 20
66.99999999999997
 30
0.0
 40
5.0
  0
LINE
  5
68F0
330
1E
100
AcDbEntity
  8
24
  6
CONTINOUS
100
AcDbLine
 10
-22.99999999999996
 20
66.99999999999997
 30
0.0
 11
-36.99999999999997
 21
66.99999999999997
 31
0.0
  0
LINE
  5
68F2
330
1E
100
AcDbEntity
  8
10
  6
CONTINOUS
100
AcDbLine
 10
-32.99999999999994
 20
60.99999999999997
 30
0.0
 11
-26.99999999999994
 21
60.99999999999997
 31
0.0
  0
ARC
  5
68F3
330
1E
100
AcDbEntity
  8
10
  6
Continuous
100
AcDbCircle
 10
3.0
 20
65.99999999999997
 30
0.0
 40
5.0
100
AcDbArc
 50
270.0
 51
0.0
  0
LINE
  5
68F4
330
1E
100
AcDbEntity
  8
12
  6
DASHED
100
AcDbLine
 10
-15.0
 20
60.49999999999974
 30
0.0
 11
-15.0
 21
71.49999999999973
 31
0.0
  0
ARC
  5
68F5
330
1E
100
AcDbEntity
  8
10
  6
Continuous
100
AcDbCircle
 10
-3.0
 20
65.99999999999997
 30
0.0
 40
5.0
100
AcDbArc
 50
180.0
 51
270.0
  0
CIRCLE
  5
68F6
330
1E
100
AcDbEntity
  8
24
  6
CONTINOUS
100
AcDbCircle
 10
0.0
 20
66.99999999999997
 30
0.0
 40
5.0
  0
LINE
  5
68F7
330
1E
100
AcDbEntity
  8
24
  6
CONTINOUS
100
AcDbLine
 10
-7.0
 20
66.99999999999997
 30
0.0
 11
7.000000000000027
 21
66.99999999999997
 31
0.0
  0
LINE
  5
68F8
330
1E
100
AcDbEntity
  8
10
  6
CONTINOUS
100
AcDbLine
 10
-3.0
 20
60.99999999999997
 30
0.0
 11
3.0
 21
60.99999999999997
 31
0.0
  0
CIRCLE
  5
68F9
330
1E
100
AcDbEntity
  8
24
  6
CONTINOUS
100
AcDbCircle
 10
60.00000000000007
 20
66.99999999999997
 30
0.0
 40
5.0
  0
LINE
  5
68FA
330
1E
100
AcDbEntity
  8
24
  6
CONTINOUS
100
AcDbLine
 10
67.00000000000001
 20
66.99999999999997
 30
0.0
 11
53.00000000000003
 21
66.99999999999997
 31
0.0
  0
ARC
  5
68FB
330
1E
100
AcDbEntity
  8
10
  6
Continuous
100
AcDbCircle
 10
57.00000000000006
 20
65.99999999999997
 30
0.0
 40
5.0
100
AcDbArc
 50
180.0
 51
270.0
  0
ARC
  5
68FC
330
1E
100
AcDbEntity
  8
10
  6
Continuous
100
AcDbCircle
 10
27.00000000000001
 20
65.99999999999997
 30
0.0
 40
5.0
100
AcDbArc
 50
180.0
 51
270.0
  0
LINE
  5
68FD
330
1E
100
AcDbEntity
  8
24
  6
CONTINOUS
100
AcDbLine
 10
30.00000000000003
 20
73.99999999999997
 30
0.0
 11
30.00000000000003
 21
59.99999999999997
 31
0.0
  0
ARC
  5
68FE
330
1E
100
AcDbEntity
  8
10
  6
Continuous
100
AcDbCircle
 10
33.00000000000002
 20
65.99999999999997
 30
0.0
 40
5.0
100
AcDbArc
 50
270.0
 51
0.0
  0
CIRCLE
  5
68FF
330
1E
100
AcDbEntity
  8
24
  6
CONTINOUS
100
AcDbCircle
 10
30.00000000000003
 20
66.99999999999997
 30
0.0
 40
5.0
  0
LINE
  5
6900
330
1E
100
AcDbEntity
  8
10
  6
CONTINOUS
100
AcDbLine
 10
27.00000000000001
 20
60.99999999999997
 30
0.0
 11
33.00000000000002
 21
60.99999999999997
 31
0.0
  0
LINE
  5
6901
330
1E
100
AcDbEntity
  8
24
  6
CONTINOUS
100
AcDbLine
 10
23.00000000000002
 20
66.99999999999997
 30
0.0
 11
37.00000000000002
 21
66.99999999999997
 31
0.0
  0
ARC
  5
6903
330
1E
100
AcDbEntity
  8
10
  6
Continuous
100
AcDbCircle
 10
63.00000000000006
 20
65.99999999999997
 30
0.0
 40
5.0
100
AcDbArc
 50
270.0
 51
0.0
  0
LINE
  5
6904
330
1E
100
AcDbEntity
  8
24
  6
CONTINOUS
100
AcDbLine
 10
60.00000000000007
 20
73.99999999999997
 30
0.0
 11
60.00000000000007
 21
59.99999999999997
 31
0.0
  0
LINE
  5
6905
330
1E
100
AcDbEntity
  8
10
  6
CONTINOUS
100
AcDbLine
 10
75.00000000000003
 20
77.49999999999997
 30
0.0
 11
68.00000000000007
 21
77.49999999999997
 31
0.0
  0
LINE
  5
6906
330
1E
100
AcDbEntity
  8
10
  6
CONTINOUS
100
AcDbLine
 10
57.00000000000006
 20
60.99999999999997
 30
0.0
 11
63.00000000000006
 21
60.99999999999997
 31
0.0
  0
LINE
  5
6907
330
1E
100
AcDbEntity
  8
10
  6
Continuous
100
AcDbLine
 10
8.0
 20
77.49999999999997
 30
0.0
 11
8.0
 21
65.99999999999997
 31
0.0
  0
LINE
  5
6908
330
1E
100
AcDbEntity
  8
10
  6
Continuous
100
AcDbLine
 10
38.00000000000002
 20
77.49999999999997
 30
0.0
 11
38.00000000000002
 21
65.99999999999997
 31
0.0
  0
LINE
  5
6909
330
1E
100
AcDbEntity
  8
10
  6
Continuous
100
AcDbLine
 10
22.00000000000001
 20
65.99999999999997
 30
0.0
 11
22.00000000000001
 21
77.49999999999997
 31
0.0
  0
LINE
  5
690A
330
1E
100
AcDbEntity
  8
10
  6
Continuous
100
AcDbLine
 10
68.00000000000007
 20
77.49999999999997
 30
0.0
 11
68.00000000000007
 21
65.99999999999997
 31
0.0
  0
LINE
  5
690B
330
1E
100
AcDbEntity
  8
10
  6
Continuous
100
AcDbLine
 10
52.00000000000006
 20
65.99999999999997
 30
0.0
 11
52.00000000000006
 21
77.49999999999997
 31
0.0
  0
LINE
  5
690C
330
1E
100
AcDbEntity
  8
10
  6
Continuous
100
AcDbLine
 10
-37.99999999999993
 20
65.99999999999997
 30
0.0
 11
-37.99999999999993
 21
77.49999999999997
 31
0.0
  0
LINE
  5
690D
330
1E
100
AcDbEntity
  8
10
  6
Continuous
100
AcDbLine
 10
-21.99999999999994
 20
77.49999999999997
 30
0.0
 11
-21.99999999999994
 21
65.99999999999997
 31
0.0
  0
LINE
  5
690E
330
1E
100
AcDbEntity
  8
10
  6
Continuous
100
AcDbLine
 10
-8.0
 20
65.99999999999997
 30
0.0
 11
-8.0
 21
77.49999999999997
 31
0.0
  0
LINE
  5
690F
330
1E
100
AcDbEntity
  8
10
  6
Continuous
100
AcDbLine
 10
8.0
 20
-77.50000000000004
 30
0.0
 11
8.0
 21
-65.99999999999997
 31
0.0
  0
LINE
  5
6910
330
1E
100
AcDbEntity
  8
10
  6
Continuous
100
AcDbLine
 10
52.00000000000006
 20
-65.99999999999997
 30
0.0
 11
52.00000000000006
 21
-77.50000000000004
 31
0.0
  0
LINE
  5
6911
330
1E
100
AcDbEntity
  8
10
  6
Continuous
100
AcDbLine
 10
68.00000000000007
 20
-77.50000000000004
 30
0.0
 11
68.00000000000007
 21
-65.99999999999997
 31
0.0
  0
LINE
  5
6912
330
1E
100
AcDbEntity
  8
10
  6
Continuous
100
AcDbLine
 10
22.00000000000001
 20
-65.99999999999997
 30
0.0
 11
22.00000000000001
 21
-77.50000000000004
 31
0.0
  0
LINE
  5
6913
330
1E
100
AcDbEntity
  8
10
  6
Continuous
100
AcDbLine
 10
38.00000000000002
 20
-77.50000000000004
 30
0.0
 11
38.00000000000002
 21
-65.99999999999997
 31
0.0
  0
LINE
  5
6914
330
1E
100
AcDbEntity
  8
10
  6
Continuous
100
AcDbLine
 10
-8.0
 20
-65.99999999999997
 30
0.0
 11
-8.0
 21
-77.50000000000004
 31
0.0
  0
LINE
  5
6915
330
1E
100
AcDbEntity
  8
10
  6
Continuous
100
AcDbLine
 10
-21.99999999999994
 20
-77.50000000000004
 30
0.0
 11
-21.99999999999994
 21
-65.99999999999997
 31
0.0
  0
LINE
  5
6916
330
1E
100
AcDbEntity
  8
10
  6
Continuous
100
AcDbLine
 10
-37.99999999999993
 20
-65.99999999999997
 30
0.0
 11
-37.99999999999993
 21
-77.50000000000004
 31
0.0
  0
LINE
  5
6917
330
1E
100
AcDbEntity
  8
12
  6
DASHED
100
AcDbLine
 10
9.500000000000083
 20
-66.00000000000004
 30
0.0
 11
20.50000000000014
 21
-66.00000000000004
 31
0.0
  0
LINE
  5
691B
330
1E
100
AcDbEntity
  8
12
  6
DASHED
100
AcDbLine
 10
-20.49999999999996
 20
-65.99999999999974
 30
0.0
 11
-9.5
 21
-65.99999999999974
 31
0.0
  0
CIRCLE
  5
691C
330
1E
100
AcDbEntity
  8
12
  6
DASHED
100
AcDbCircle
 10
-15.0
 20
-65.99999999999974
 30
0.0
 40
4.0
  0
CIRCLE
  5
691D
330
1E
100
AcDbEntity
  8
24
  6
CONTINOUS
100
AcDbCircle
 10
-29.99999999999995
 20
-66.99999999999997
 30
0.0
 40
5.0
  0
ARC
  5
691E
330
1E
100
AcDbEntity
  8
10
  6
Continuous
100
AcDbCircle
 10
-32.99999999999994
 20
-65.99999999999997
 30
0.0
 40
5.0
100
AcDbArc
 50
90.0
 51
180.0
  0
LINE
  5
691F
330
1E
100
AcDbEntity
  8
24
  6
CONTINOUS
100
AcDbLine
 10
-22.99999999999996
 20
-66.99999999999997
 30
0.0
 11
-36.99999999999997
 21
-66.99999999999997
 31
0.0
  0
LINE
  5
6920
330
1E
100
AcDbEntity
  8
24
  6
CONTINOUS
100
AcDbLine
 10
-29.99999999999995
 20
-73.99999999999997
 30
0.0
 11
-29.99999999999995
 21
-59.99999999999997
 31
0.0
  0
ARC
  5
6921
330
1E
100
AcDbEntity
  8
10
  6
Continuous
100
AcDbCircle
 10
-26.99999999999994
 20
-65.99999999999997
 30
0.0
 40
5.0
100
AcDbArc
 50
0.0
 51
90.0
  0
LINE
  5
6922
330
1E
100
AcDbEntity
  8
10
  6
CONTINOUS
100
AcDbLine
 10
-32.99999999999994
 20
-60.99999999999997
 30
0.0
 11
-26.99999999999994
 21
-60.99999999999997
 31
0.0
  0
LINE
  5
6923
330
1E
100
AcDbEntity
  8
10
  6
CONTINOUS
100
AcDbLine
 10
-3.0
 20
-60.99999999999997
 30
0.0
 11
3.0
 21
-60.99999999999997
 31
0.0
  0
LINE
  5
6924
330
1E
100
AcDbEntity
  8
24
  6
CONTINOUS
100
AcDbLine
 10
-7.0
 20
-66.99999999999997
 30
0.0
 11
7.000000000000027
 21
-66.99999999999997
 31
0.0
  0
CIRCLE
  5
6925
330
1E
100
AcDbEntity
  8
24
  6
CONTINOUS
100
AcDbCircle
 10
0.0
 20
-66.99999999999997
 30
0.0
 40
5.0
  0
ARC
  5
6926
330
1E
100
AcDbEntity
  8
10
  6
Continuous
100
AcDbCircle
 10
-3.0
 20
-65.99999999999997
 30
0.0
 40
5.0
100
AcDbArc
 50
90.0
 51
180.0
  0
LINE
  5
6927
330
1E
100
AcDbEntity
  8
12
  6
DASHED
100
AcDbLine
 10
-15.0
 20
-60.49999999999974
 30
0.0
 11
-15.0
 21
-71.49999999999973
 31
0.0
  0
LINE
  5
6928
330
1E
100
AcDbEntity
  8
12
  6
DASHED
100
AcDbLine
 10
15.00000000000005
 20
-71.50000000000003
 30
0.0
 11
15.00000000000005
 21
-60.49999999999997
 31
0.0
  0
ARC
  5
6929
330
1E
100
AcDbEntity
  8
10
  6
Continuous
100
AcDbCircle
 10
3.0
 20
-65.99999999999997
 30
0.0
 40
5.0
100
AcDbArc
 50
0.0
 51
90.0
  0
CIRCLE
  5
692A
330
1E
100
AcDbEntity
  8
12
  6
DASHED
100
AcDbCircle
 10
15.00000000000005
 20
-66.00000000000004
 30
0.0
 40
4.0
  0
LINE
  5
692C
330
1E
100
AcDbEntity
  8
10
  6
CONTINOUS
100
AcDbLine
 10
68.00000000000007
 20
-77.50000000000003
 30
0.0
 11
75.00000000000003
 21
-77.50000000000003
 31
0.0
  0
CIRCLE
  5
692D
330
1E
100
AcDbEntity
  8
24
  6
CONTINOUS
100
AcDbCircle
 10
60.00000000000007
 20
-66.99999999999997
 30
0.0
 40
5.0
  0
ARC
  5
692E
330
1E
100
AcDbEntity
  8
10
  6
Continuous
100
AcDbCircle
 10
57.00000000000006
 20
-65.99999999999997
 30
0.0
 40
5.0
100
AcDbArc
 50
90.0
 51
180.0
  0
LINE
  5
692F
330
1E
100
AcDbEntity
  8
24
  6
CONTINOUS
100
AcDbLine
 10
67.00000000000001
 20
-66.99999999999997
 30
0.0
 11
53.00000000000003
 21
-66.99999999999997
 31
0.0
  0
ARC
  5
6930
330
1E
100
AcDbEntity
  8
10
  6
Continuous
100
AcDbCircle
 10
33.00000000000002
 20
-65.99999999999997
 30
0.0
 40
5.0
100
AcDbArc
 50
0.0
 51
90.0
  0
LINE
  5
6931
330
1E
100
AcDbEntity
  8
24
  6
CONTINOUS
100
AcDbLine
 10
30.00000000000003
 20
-73.99999999999997
 30
0.0
 11
30.00000000000003
 21
-59.99999999999997
 31
0.0
  0
CIRCLE
  5
6932
330
1E
100
AcDbEntity
  8
24
  6
CONTINOUS
100
AcDbCircle
 10
30.00000000000003
 20
-66.99999999999997
 30
0.0
 40
5.0
  0
ARC
  5
6933
330
1E
100
AcDbEntity
  8
10
  6
Continuous
100
AcDbCircle
 10
27.00000000000001
 20
-65.99999999999997
 30
0.0
 40
5.0
100
AcDbArc
 50
90.0
 51
180.0
  0
LINE
  5
6934
330
1E
100
AcDbEntity
  8
24
  6
CONTINOUS
100
AcDbLine
 10
23.00000000000002
 20
-66.99999999999997
 30
0.0
 11
37.00000000000002
 21
-66.99999999999997
 31
0.0
  0
LINE
  5
6935
330
1E
100
AcDbEntity
  8
10
  6
CONTINOUS
100
AcDbLine
 10
27.00000000000001
 20
-60.99999999999997
 30
0.0
 11
33.00000000000002
 21
-60.99999999999997
 31
0.0
  0
LINE
  5
6936
330
1E
100
AcDbEntity
  8
24
  6
CONTINOUS
100
AcDbLine
 10
60.00000000000007
 20
-73.99999999999997
 30
0.0
 11
60.00000000000007
 21
-59.99999999999997
 31
0.0
  0
ARC
  5
6937
330
1E
100
AcDbEntity
  8
10
  6
Continuous
100
AcDbCircle
 10
63.00000000000006
 20
-65.99999999999997
 30
0.0
 40
5.0
100
AcDbArc
 50
0.0
 51
90.0
  0
LINE
  5
6938
330
1E
100
AcDbEntity
  8
10
  6
CONTINOUS
100
AcDbLine
 10
57.00000000000006
 20
-60.99999999999997
 30
0.0
 11
63.00000000000006
 21
-60.99999999999997
 31
0.0
  0
MTEXT
  5
69A6
330
1E
100
AcDbEntity
  8
30
  6
Continuous
100
AcDbMText
 10
123.3058431931535
 20
226.0153377327094
 30
0.0
 40
5.0
 41
146.1228
 46
0.0
 71
     1
 72
     5
  1
S100-GF 4P FC\PS125-GF 4P FC
  7
STANDARD1
 73
     1
 44
1.0
1001
ACAD
1000
MTEXTBEGIN
1070
    73
1070
     1
1070
    44
1040
1.0
1070
    74
1070
     0
1000
MTEXTEND
  0
LINE
  5
6BD4
330
1E
100
AcDbEntity
  8
16
100
AcDbLine
 10
0.000000000000004
 20
137.7384784421552
 30
0.0
 11
0.000000000000004
 21
280.2384784421551
 31
0.0
  0
LINE
  5
6BD5
330
1E
100
AcDbEntity
  8
10
  6
CONTINOUS
100
AcDbLine
 10
74.99999999999999
 20
167.1349134126128
 30
0.0
 11
74.99999999999999
 21
235.1349134126127
 31
0.0
  0
LINE
  5
6BD6
330
1E
100
AcDbEntity
  8
10
  6
CONTINOUS
100
AcDbLine
 10
-11.01790353517128
 20
159.1349134126129
 30
0.0
 11
10.99999999999996
 21
159.1349134126129
 31
0.0
  0
LINE
  5
6BD7
330
1E
100
AcDbEntity
  8
10
  6
CONTINOUS
100
AcDbLine
 10
10.99999999999996
 20
159.1349134126129
 30
0.0
 11
10.99999999999996
 21
163.1349134126129
 31
0.0
  0
LINE
  5
6BD8
330
1E
100
AcDbEntity
  8
10
  6
CONTINOUS
100
AcDbLine
 10
-11.01790353517128
 20
159.1349134126129
 30
0.0
 11
-11.01790353517128
 21
163.1349134126129
 31
0.0
  0
LINE
  5
6BD9
330
1E
100
AcDbEntity
  8
24
  6
CONTINOUS
100
AcDbLine
 10
30.0
 20
198.9349134126126
 30
0.0
 11
30.0
 21
216.1349134126129
 31
0.0
  0
LINE
  5
6BDA
330
1E
100
AcDbEntity
  8
24
  6
CONTINOUS
100
AcDbLine
 10
19.5
 20
211.1349134126129
 30
0.0
 11
40.5000000000001
 21
211.1349134126129
 31
0.0
  0
LINE
  5
6BDB
330
1E
100
AcDbEntity
  8
24
  6
CONTINOUS
100
AcDbLine
 10
22.30000000000007
 20
205.9349134126128
 30
0.0
 11
37.70000000000004
 21
205.9349134126128
 31
0.0
  0
LINE
  5
6BDC
330
1E
100
AcDbEntity
  8
24
  6
CONTINOUS
100
AcDbLine
 10
25.0
 20
200.7349134126128
 30
0.0
 11
35.0
 21
200.7349134126128
 31
0.0
  0
LINE
  5
6BDD
330
1E
100
AcDbEntity
  8
24
  6
CONTINOUS
100
AcDbLine
 10
19.5
 20
213.1349134126129
 30
0.0
 11
40.5000000000001
 21
213.1349134126129
 31
0.0
  0
LINE
  5
6BDE
330
1E
100
AcDbEntity
  8
24
  6
CONTINOUS
100
AcDbLine
 10
37.70000000000004
 20
205.9349134126128
 30
0.0
 11
37.70000000000004
 21
207.9349134126129
 31
0.0
  0
ARC
  5
6BDF
330
1E
100
AcDbEntity
  8
24
  6
CONTINOUS
100
AcDbCircle
 10
35.00000000000003
 20
202.7349134126128
 30
0.0
 40
2.0
100
AcDbArc
 50
270.0
 51
0.0
  0
LINE
  5
6BE0
330
1E
100
AcDbEntity
  8
24
  6
CONTINOUS
100
AcDbLine
 10
37.0
 20
202.7349134126128
 30
0.0
 11
37.0
 21
205.9349134126128
 31
0.0
  0
LINE
  5
6BE1
330
1E
100
AcDbEntity
  8
24
  6
CONTINOUS
100
AcDbLine
 10
22.30000000000007
 20
205.9349134126128
 30
0.0
 11
22.30000000000007
 21
207.9349134126129
 31
0.0
  0
ARC
  5
6BE2
330
1E
100
AcDbEntity
  8
24
  6
CONTINOUS
100
AcDbCircle
 10
25.00000000000003
 20
202.7349134126128
 30
0.0
 40
2.0
100
AcDbArc
 50
180.0
 51
270.0
  0
LINE
  5
6BE3
330
1E
100
AcDbEntity
  8
24
  6
CONTINOUS
100
AcDbLine
 10
23.0
 20
202.7349134126128
 30
0.0
 11
23.0
 21
205.9349134126128
 31
0.0
  0
LINE
  5
6BE4
330
1E
100
AcDbEntity
  8
24
  6
CONTINOUS
100
AcDbLine
 10
-10.49999999999999
 20
213.1349134126129
 30
0.0
 11
10.50000000000011
 21
213.1349134126129
 31
0.0
  0
LINE
  5
6BE5
330
1E
100
AcDbEntity
  8
24
  6
CONTINOUS
100
AcDbLine
 10
-7.699999999999931
 20
205.9349134126128
 30
0.0
 11
7.700000000000045
 21
205.9349134126128
 31
0.0
  0
LINE
  5
6BE6
330
1E
100
AcDbEntity
  8
24
  6
CONTINOUS
100
AcDbLine
 10
-10.49999999999999
 20
211.1349134126129
 30
0.0
 11
10.50000000000011
 21
211.1349134126129
 31
0.0
  0
ARC
  5
6BE7
330
1E
100
AcDbEntity
  8
24
  6
CONTINOUS
100
AcDbCircle
 10
5.000000000000028
 20
202.7349134126128
 30
0.0
 40
2.0
100
AcDbArc
 50
270.0
 51
0.0
  0
LINE
  5
6BE8
330
1E
100
AcDbEntity
  8
24
  6
CONTINOUS
100
AcDbLine
 10
-7.0
 20
202.7349134126128
 30
0.0
 11
-7.0
 21
205.9349134126128
 31
0.0
  0
LINE
  5
6BE9
330
1E
100
AcDbEntity
  8
24
  6
CONTINOUS
100
AcDbLine
 10
0.0000000000000004
 20
198.9349134126126
 30
0.0
 11
0.0000000000000004
 21
216.1349134126129
 31
0.0
  0
LINE
  5
6BEA
330
1E
100
AcDbEntity
  8
24
  6
CONTINOUS
100
AcDbLine
 10
-5.0
 20
200.7349134126128
 30
0.0
 11
5.0
 21
200.7349134126128
 31
0.0
  0
ARC
  5
6BEB
330
1E
100
AcDbEntity
  8
24
  6
CONTINOUS
100
AcDbCircle
 10
-4.999999999999971
 20
202.7349134126128
 30
0.0
 40
2.0
100
AcDbArc
 50
180.0
 51
270.0
  0
LINE
  5
6BEC
330
1E
100
AcDbEntity
  8
24
  6
CONTINOUS
100
AcDbLine
 10
-7.699999999999931
 20
205.9349134126128
 30
0.0
 11
-7.699999999999931
 21
207.9349134126129
 31
0.0
  0
LINE
  5
6BED
330
1E
100
AcDbEntity
  8
24
  6
CONTINOUS
100
AcDbLine
 10
7.0
 20
202.7349134126128
 30
0.0
 11
7.0
 21
205.9349134126128
 31
0.0
  0
LINE
  5
6BEE
330
1E
100
AcDbEntity
  8
24
  6
CONTINOUS
100
AcDbLine
 10
7.700000000000045
 20
205.9349134126128
 30
0.0
 11
7.700000000000045
 21
207.9349134126129
 31
0.0
  0
LINE
  5
6BEF
330
1E
100
AcDbEntity
  8
24
  6
CONTINOUS
100
AcDbLine
 10
-34.99999999999996
 20
200.7349134126128
 30
0.0
 11
-24.99999999999998
 21
200.7349134126128
 31
0.0
  0
LINE
  5
6BF0
330
1E
100
AcDbEntity
  8
24
  6
CONTINOUS
100
AcDbLine
 10
-40.49999999999998
 20
211.1349134126129
 30
0.0
 11
-19.49999999999987
 21
211.1349134126129
 31
0.0
  0
LINE
  5
6BF1
330
1E
100
AcDbEntity
  8
24
  6
CONTINOUS
100
AcDbLine
 10
-37.69999999999993
 20
205.9349134126128
 30
0.0
 11
-22.29999999999995
 21
205.9349134126128
 31
0.0
  0
LINE
  5
6BF2
330
1E
100
AcDbEntity
  8
24
  6
CONTINOUS
100
AcDbLine
 10
-40.49999999999998
 20
213.1349134126129
 30
0.0
 11
-19.49999999999987
 21
213.1349134126129
 31
0.0
  0
LINE
  5
6BF3
330
1E
100
AcDbEntity
  8
24
  6
CONTINOUS
100
AcDbLine
 10
-29.99999999999998
 20
198.9349134126126
 30
0.0
 11
-29.99999999999998
 21
216.1349134126129
 31
0.0
  0
LINE
  5
6BF4
330
1E
100
AcDbEntity
  8
24
  6
CONTINOUS
100
AcDbLine
 10
-36.99999999999997
 20
202.7349134126128
 30
0.0
 11
-36.99999999999997
 21
205.9349134126128
 31
0.0
  0
ARC
  5
6BF5
330
1E
100
AcDbEntity
  8
24
  6
CONTINOUS
100
AcDbCircle
 10
-34.99999999999996
 20
202.7349134126128
 30
0.0
 40
2.0
100
AcDbArc
 50
180.0
 51
270.0
  0
LINE
  5
6BF6
330
1E
100
AcDbEntity
  8
24
  6
CONTINOUS
100
AcDbLine
 10
-37.69999999999993
 20
205.9349134126128
 30
0.0
 11
-37.69999999999993
 21
207.9349134126129
 31
0.0
  0
LINE
  5
6BF7
330
1E
100
AcDbEntity
  8
24
  6
CONTINOUS
100
AcDbLine
 10
-22.99999999999998
 20
202.7349134126128
 30
0.0
 11
-22.99999999999998
 21
205.9349134126128
 31
0.0
  0
ARC
  5
6BF8
330
1E
100
AcDbEntity
  8
24
  6
CONTINOUS
100
AcDbCircle
 10
-24.99999999999996
 20
202.7349134126128
 30
0.0
 40
2.0
100
AcDbArc
 50
270.0
 51
0.0
  0
LINE
  5
6BF9
330
1E
100
AcDbEntity
  8
24
  6
CONTINOUS
100
AcDbLine
 10
-22.29999999999995
 20
205.9349134126128
 30
0.0
 11
-22.29999999999995
 21
207.9349134126129
 31
0.0
  0
DIMENSION
  5
6BFA
330
1E
100
AcDbEntity
  8
30
  6
Continuous
100
AcDbDimension
280
     0
  2
*D50
 10
0.0000000000000029
 20
256.9821974718418
 30
0.0
 11
-14.99999999999999
 21
259.9821974718418
 31
0.0
 70
    32
 71
     5
 42
29.99999999999998
 73
     0
 74
     0
 75
     0
  3
STANDARD
100
AcDbAlignedDimension
 13
-29.99999999999998
 23
216.1349134126129
 33
0.0
 14
0.0000000000000004
 24
216.1349134126129
 34
0.0
100
AcDbRotatedDimension
1001
ACAD
1000
DSTYLE
1002
{
1070
    79
1070
     3
1002
}
  0
DIMENSION
  5
6BFB
330
1E
100
AcDbEntity
  8
30
  6
Continuous
100
AcDbDimension
280
     0
  2
*D51
 10
30.0
 20
256.9821974718418
 30
0.0
 11
15.0
 21
259.9821974718418
 31
0.0
 70
    32
 71
     5
 42
30.0
 73
     0
 74
     0
 75
     0
  3
STANDARD
100
AcDbAlignedDimension
 13
0.0000000000000004
 23
217.1349134126129
 33
0.0
 14
30.0
 24
216.1349134126129
 34
0.0
100
AcDbRotatedDimension
1001
ACAD
1000
DSTYLE
1002
{
1070
    79
1070
     3
1002
}
  0
DIMENSION
  5
6BFC
330
1E
100
AcDbEntity
  8
30
  6
Continuous
100
AcDbDimension
280
     0
  2
*D52
 10
60.0
 20
256.9821974718418
 30
0.0
 11
45.0
 21
259.9821974718418
 31
0.0
 70
    32
 71
     5
 42
30.0
 73
     0
 74
     0
 75
     0
  3
STANDARD
100
AcDbAlignedDimension
 13
30.0
 23
217.1349134126129
 33
0.0
 14
60.0
 24
216.1349134126129
 34
0.0
100
AcDbRotatedDimension
1001
ACAD
1000
DSTYLE
1002
{
1070
    79
1070
     3
1002
}
  0
LINE
  5
6BFD
330
1E
100
AcDbEntity
  8
24
  6
CONTINOUS
100
AcDbLine
 10
49.50000000000001
 20
211.1349134126129
 30
0.0
 11
70.5000000000001
 21
211.1349134126129
 31
0.0
  0
LINE
  5
6BFE
330
1E
100
AcDbEntity
  8
24
  6
CONTINOUS
100
AcDbLine
 10
49.50000000000001
 20
213.1349134126129
 30
0.0
 11
70.5000000000001
 21
213.1349134126129
 31
0.0
  0
LINE
  5
6BFF
330
1E
100
AcDbEntity
  8
24
  6
CONTINOUS
100
AcDbLine
 10
52.30000000000007
 20
205.9349134126128
 30
0.0
 11
67.70000000000003
 21
205.9349134126128
 31
0.0
  0
LINE
  5
6C00
330
1E
100
AcDbEntity
  8
24
  6
CONTINOUS
100
AcDbLine
 10
67.0
 20
202.7349134126128
 30
0.0
 11
67.0
 21
205.9349134126128
 31
0.0
  0
LINE
  5
6C01
330
1E
100
AcDbEntity
  8
24
  6
CONTINOUS
100
AcDbLine
 10
60.0
 20
198.9349134126126
 30
0.0
 11
60.0
 21
216.1349134126129
 31
0.0
  0
LINE
  5
6C02
330
1E
100
AcDbEntity
  8
24
  6
CONTINOUS
100
AcDbLine
 10
53.0
 20
202.7349134126128
 30
0.0
 11
53.0
 21
205.9349134126128
 31
0.0
  0
LINE
  5
6C03
330
1E
100
AcDbEntity
  8
24
  6
CONTINOUS
100
AcDbLine
 10
55.0
 20
200.7349134126128
 30
0.0
 11
65.0
 21
200.7349134126128
 31
0.0
  0
ARC
  5
6C04
330
1E
100
AcDbEntity
  8
24
  6
CONTINOUS
100
AcDbCircle
 10
55.00000000000003
 20
202.7349134126128
 30
0.0
 40
2.0
100
AcDbArc
 50
180.0
 51
270.0
  0
ARC
  5
6C05
330
1E
100
AcDbEntity
  8
24
  6
CONTINOUS
100
AcDbCircle
 10
65.00000000000003
 20
202.7349134126128
 30
0.0
 40
2.0
100
AcDbArc
 50
270.0
 51
0.0
  0
LINE
  5
6C06
330
1E
100
AcDbEntity
  8
24
  6
CONTINOUS
100
AcDbLine
 10
52.30000000000007
 20
205.9349134126128
 30
0.0
 11
52.30000000000007
 21
207.9349134126129
 31
0.0
  0
LINE
  5
6C07
330
1E
100
AcDbEntity
  8
24
  6
CONTINOUS
100
AcDbLine
 10
67.70000000000003
 20
205.9349134126128
 30
0.0
 11
67.70000000000003
 21
207.9349134126129
 31
0.0
  0
LWPOLYLINE
  5
6C08
330
1E
100
AcDbEntity
  8
24
  6
CONTINOUS
100
AcDbPolyline
 90
        4
 70
     1
 43
0.0
 10
-37.99999999999998
 20
207.9349134126129
 10
-21.99999999999998
 20
207.9349134126129
 10
-21.99999999999998
 20
211.1349134126129
 10
-37.99999999999998
 20
211.1349134126129
  0
LWPOLYLINE
  5
6C09
330
1E
100
AcDbEntity
  8
24
  6
CONTINOUS
100
AcDbPolyline
 90
        4
 70
     1
 43
0.0
 10
-8.0
 20
207.9349134126129
 10
8.0
 20
207.9349134126129
 10
8.0
 20
211.1349134126129
 10
-8.0
 20
211.1349134126129
  0
LWPOLYLINE
  5
6C0A
330
1E
100
AcDbEntity
  8
24
  6
CONTINOUS
100
AcDbPolyline
 90
        4
 70
     1
 43
0.0
 10
22.0
 20
207.9349134126129
 10
38.0
 20
207.9349134126129
 10
38.0
 20
211.1349134126129
 10
22.0
 20
211.1349134126129
  0
LWPOLYLINE
  5
6C0B
330
1E
100
AcDbEntity
  8
24
  6
CONTINOUS
100
AcDbPolyline
 90
        4
 70
     1
 43
0.0
 10
52.0
 20
207.9349134126129
 10
68.0
 20
207.9349134126129
 10
68.0
 20
211.1349134126129
 10
52.0
 20
211.1349134126129
  0
DIMENSION
  5
6C0C
330
1E
100
AcDbEntity
  8
30
  6
Continuous
100
AcDbDimension
280
     0
  2
*D53
 10
82.53557793199616
 20
174.1349134126129
 30
0.0
 11
79.53557793199613
 21
204.6349134126128
 31
0.0
 70
    32
 71
     5
 42
60.99999999999977
 73
     0
 74
     0
 75
     0
  3
STANDARD
100
AcDbAlignedDimension
 13
74.99999999999997
 23
235.1349134126127
 33
0.0
 14
74.99999999999999
 24
174.1349134126129
 34
0.0
 50
90.0
100
AcDbRotatedDimension
1001
ACAD
1000
DSTYLE
1002
{
1070
    79
1070
     3
1002
}
  0
DIMENSION
  5
6C0D
330
1E
100
AcDbEntity
  8
30
  6
Continuous
100
AcDbDimension
280
     0
  2
*D54
 10
89.84192661915676
 20
167.1349134126128
 30
0.0
 11
86.84192661915673
 21
201.1349134126128
 31
0.0
 70
    32
 71
     5
 42
67.99999999999986
 73
     0
 74
     0
 75
     0
  3
STANDARD
100
AcDbAlignedDimension
 13
74.99999999999999
 23
235.1349134126127
 33
0.0
 14
74.99999999999999
 24
167.1349134126128
 34
0.0
 50
90.0
100
AcDbRotatedDimension
1001
ACAD
1000
DSTYLE
1002
{
1070
    79
1070
     3
1002
}
  0
DIMENSION
  5
6C0E
330
1E
100
AcDbEntity
  8
30
  6
Continuous
100
AcDbDimension
280
     0
  2
*D55
 10
97.14827530631779
 20
163.1349134126129
 30
0.0
 11
94.14827530631777
 21
199.1349134126128
 31
0.0
 70
    32
 71
     5
 42
71.9999999999998
 73
     0
 74
     0
 75
     0
  3
STANDARD
100
AcDbAlignedDimension
 13
74.99999999999999
 23
235.1349134126127
 33
0.0
 14
42.49999999999995
 24
163.1349134126129
 34
0.0
 50
90.0
100
AcDbRotatedDimension
1001
ACAD
1000
DSTYLE
1002
{
1070
    79
1070
     3
1002
}
  0
DIMENSION
  5
6C0F
330
1E
100
AcDbEntity
  8
30
  6
Continuous
100
AcDbDimension
280
     0
  2
*D56
 10
104.4546239934789
 20
159.1349134126129
 30
0.0
 11
101.4546239934789
 21
197.1349134126128
 31
0.0
 70
    32
 71
     5
 42
75.9999999999998
 73
     0
 74
     0
 75
     0
  3
STANDARD
100
AcDbAlignedDimension
 13
74.99999999999997
 23
235.1349134126127
 33
0.0
 14
10.99999999999996
 24
159.1349134126129
 34
0.0
 50
90.0
100
AcDbRotatedDimension
1001
ACAD
1000
DSTYLE
1002
{
1070
    79
1070
     3
1002
}
  0
LINE
  5
6C10
330
1E
100
AcDbEntity
  8
10
  6
CONTINOUS
100
AcDbLine
 10
-6.999999999999986
 20
159.1349134126129
 30
0.0
 11
-6.999999999999986
 21
147.1349134126129
 31
0.0
  0
LINE
  5
6C11
330
1E
100
AcDbEntity
  8
10
  6
CONTINOUS
100
AcDbLine
 10
-6.999999999999986
 20
147.1349134126129
 30
0.0
 11
7.000000000000013
 21
147.1349134126129
 31
0.0
  0
LINE
  5
6C12
330
1E
100
AcDbEntity
  8
10
  6
CONTINOUS
100
AcDbLine
 10
7.000000000000013
 20
147.1349134126129
 30
0.0
 11
7.000000000000013
 21
159.1349134126129
 31
0.0
  0
LINE
  5
6C13
330
1E
100
AcDbEntity
  8
10
  6
CONTINOUS
100
AcDbLine
 10
42.00000000000001
 20
167.1349134126128
 30
0.0
 11
42.00000000000001
 21
163.1349134126128
 31
0.0
  0
LINE
  5
6C14
330
1E
100
AcDbEntity
  8
10
  6
CONTINOUS
100
AcDbLine
 10
42.00000000000001
 20
163.1349134126128
 30
0.0
 11
-41.99999999999999
 21
163.1349134126128
 31
0.0
  0
LINE
  5
6C15
330
1E
100
AcDbEntity
  8
10
  6
CONTINOUS
100
AcDbLine
 10
74.99999999999999
 20
167.1349134126128
 30
0.0
 11
-45.0
 21
167.1349134126128
 31
0.0
  0
LINE
  5
6C16
330
1E
100
AcDbEntity
  8
10
  6
CONTINOUS
100
AcDbLine
 10
74.99999999999997
 20
174.1349134126129
 30
0.0
 11
74.99999999999997
 21
167.1349134126129
 31
0.0
  0
LINE
  5
6C17
330
1E
100
AcDbEntity
  8
10
  6
CONTINOUS
100
AcDbLine
 10
74.99999999999997
 20
174.1349134126129
 30
0.0
 11
-45.00000000000002
 21
174.1349134126129
 31
0.0
  0
LINE
  5
6C18
330
1E
100
AcDbEntity
  8
10
  6
CONTINOUS
100
AcDbLine
 10
74.99999999999999
 20
235.1349134126127
 30
0.0
 11
-45.0
 21
235.1349134126127
 31
0.0
  0
LINE
  5
6C19
330
1E
100
AcDbEntity
  8
10
  6
CONTINOUS
100
AcDbLine
 10
-45.0
 20
235.1349134126127
 30
0.0
 11
-45.0
 21
167.1349134126127
 31
0.0
  0
LINE
  5
6C1A
330
1E
100
AcDbEntity
  8
10
  6
CONTINOUS
100
AcDbLine
 10
-41.99999999999999
 20
163.1349134126128
 30
0.0
 11
-41.99999999999999
 21
167.1349134126128
 31
0.0
  0
VIEWPORT
  5
9AC
330
1A
100
AcDbEntity
 67
     1
  8
0
  6
Continuous
100
AcDbViewport
 10
171.999535
 20
144.1384739999999
 30
0.0
 40
488.867686
 41
292.351491
 68
    -1
 69
     1
 12
171.999535
 22
144.1384739999999
 13
0.0
 23
0.0
 14
10.0
 24
10.0
 15
10.0
 25
10.0
 16
0.0
 26
0.0
 36
1.0
 17
0.0
 27
0.0
 37
0.0
 42
50.0
 43
0.0
 44
0.0
 45
292.351491
 50
0.0
 51
0.0
 72
   100
 90
    32800
  1

281
     0
 71
     1
 74
     0
110
0.0
120
0.0
130
0.0
111
1.0
121
0.0
131
0.0
112
0.0
122
1.0
132
0.0
 79
     0
146
0.0
170
     0
 61
     5
348
69CF
292
     1
282
     1
141
0.0
142
0.0
 63
   250
421
  3355443
  0
ENDSEC
  0
SECTION
  2
OBJECTS
  0
DICTIONARY
  5
C
330
0
100
AcDbDictionary
281
     1
  3
ACAD_CIP_PREVIOUS_PRODUCT_INFO
350
69FE
  3
ACAD_COLOR
350
69E2
  3
ACAD_DETAILVIEWSTYLE
350
69FB
  3
ACAD_GROUP
350
D
  3
ACAD_LAYOUT
350
19
  3
ACAD_MATERIAL
350
69B0
  3
ACAD_MLEADERSTYLE
350
69F7
  3
ACAD_MLINESTYLE
350
16
  3
ACAD_PLOTSETTINGS
350
18
  3
ACAD_PLOTSTYLENAME
350
E
  3
ACAD_SCALELIST
350
69E5
  3
ACAD_SECTIONVIEWSTYLE
350
69F9
  3
ACAD_TABLESTYLE
350
69E3
  3
ACAD_VISUALSTYLE
350
69C9
  3
ACADDIM
350
5C76
  3
ACDB_RECOMPOSE_DATA
350
6D84
  3
ACDBVARIABLEDICTIONARY
350
5697
  0
DICTIONARY
  5
6A5A
330
10
100
AcDbDictionary
280
     1
281
     1
  3
ADSK_XREC_LAYER_RECONCILED
360
6A5B
  0
DICTIONARY
  5
6A5C
330
2F
100
AcDbDictionary
280
     1
281
     1
  3
ADSK_XREC_LAYER_RECONCILED
360
6A5D
  0
DICTIONARY
  5
6A5E
330
31
100
AcDbDictionary
280
     1
281
     1
  3
ADSK_XREC_LAYER_RECONCILED
360
6A5F
  0
DICTIONARY
  5
6A60
330
35
100
AcDbDictionary
280
     1
281
     1
  3
ADSK_XREC_LAYER_RECONCILED
360
6A61
  0
DICTIONARY
  5
6A62
330
38
100
AcDbDictionary
280
     1
281
     1
  3
ADSK_XREC_LAYER_RECONCILED
360
6A63
  0
DICTIONARY
  5
6A64
330
3C
100
AcDbDictionary
280
     1
281
     1
  3
ADSK_XREC_LAYER_RECONCILED
360
6A65
  0
DICTIONARY
  5
6A66
330
3D
100
AcDbDictionary
280
     1
281
     1
  3
ADSK_XREC_LAYER_RECONCILED
360
6A67
  0
DICTIONARY
  5
6A68
330
3A2
100
AcDbDictionary
280
     1
281
     1
  3
ADSK_XREC_LAYER_RECONCILED
360
6A69
  0
DICTIONARY
  5
6A6A
330
3BBA
100
AcDbDictionary
280
     1
281
     1
  3
ADSK_XREC_LAYER_RECONCILED
360
6A6B
  0
DICTIONARY
  5
6A6C
330
5116
100
AcDbDictionary
280
     1
281
     1
  3
ADSK_XREC_LAYER_RECONCILED
360
6A6D
  0
DICTIONARY
  5
6A6E
330
5117
100
AcDbDictionary
280
     1
281
     1
  3
ADSK_XREC_LAYER_RECONCILED
360
6A6F
  0
DICTIONARY
  5
6A70
330
5C47
100
AcDbDictionary
280
     1
281
     1
  3
ADSK_XREC_LAYER_RECONCILED
360
6A71
  0
DICTIONARY
  5
178
330
1E
100
AcDbDictionary
280
     1
281
     1
  3
ACAD_LAYOUTSELFREF
360
699B
  0
DICTIONARY
  5
17A
330
1A
100
AcDbDictionary
280
     1
281
     1
  3
ACAD_LAYOUTSELFREF
360
699A
  0
XRECORD
  5
69FE
102
{ACAD_REACTORS
330
C
102
}
330
C
100
AcDbXrecord
280
     1
300
ACDLT
300
2014
300
ACDLT_F_S
  0
DICTIONARY
  5
69E2
102
{ACAD_REACTORS
330
C
102
}
330
C
100
AcDbDictionary
281
     1
  0
DICTIONARY
  5
69FB
102
{ACAD_REACTORS
330
C
102
}
330
C
100
AcDbDictionary
281
     1
  3
Imperial24
350
69FC
  0
DICTIONARY
  5
D
102
{ACAD_REACTORS
330
C
102
}
330
C
100
AcDbDictionary
281
     1
  0
DICTIONARY
  5
19
102
{ACAD_REACTORS
330
C
102
}
330
C
100
AcDbDictionary
281
     1
  3
Model
350
69A3
  3
ﾚｲｱｳﾄ1
350
69A4
  0
DICTIONARY
  5
69B0
102
{ACAD_REACTORS
330
C
102
}
330
C
100
AcDbDictionary
281
     1
  3
ByBlock
350
69B9
  3
ByLayer
350
69B1
  3
Global
350
69C1
  0
DICTIONARY
  5
69F7
102
{ACAD_REACTORS
330
C
102
}
330
C
100
AcDbDictionary
281
     1
  3
Standard
350
69F8
  0
DICTIONARY
  5
16
102
{ACAD_REACTORS
330
C
102
}
330
C
100
AcDbDictionary
281
     1
  3
STANDARD
350
17
  0
DICTIONARY
  5
18
102
{ACAD_REACTORS
330
C
102
}
330
C
100
AcDbDictionary
281
     1
  0
ACDBDICTIONARYWDFLT
  5
E
102
{ACAD_REACTORS
330
C
102
}
330
C
100
AcDbDictionary
281
     1
  3
Normal
350
F
100
AcDbDictionaryWithDefault
340
F
  0
DICTIONARY
  5
69E5
102
{ACAD_REACTORS
330
C
102
}
330
C
100
AcDbDictionary
281
     1
  3
A0
350
69E6
  3
A1
350
69E7
  3
A2
350
69E8
  3
A3
350
69E9
  3
A4
350
69EA
  3
A5
350
69EB
  3
A6
350
69EC
  3
A7
350
69ED
  3
A8
350
69EE
  3
A9
350
69EF
  3
B0
350
69F0
  3
B1
350
69F1
  3
B2
350
69F2
  3
B3
350
69F3
  3
B4
350
69F4
  3
B5
350
69F5
  3
B6
350
69F6
  0
DICTIONARY
  5
69F9
102
{ACAD_REACTORS
330
C
102
}
330
C
100
AcDbDictionary
281
     1
  3
Imperial24
350
69FA
  0
DICTIONARY
  5
69E3
102
{ACAD_REACTORS
330
C
102
}
330
C
100
AcDbDictionary
281
     1
  3
Standard
350
69E4
  0
DICTIONARY
  5
69C9
102
{ACAD_REACTORS
330
C
102
}
330
C
100
AcDbDictionary
281
     1
  3
2dWireframe
350
69CF
  3
Basic
350
69CE
  3
Brighten
350
69D5
  3
ColorChange
350
69D9
  3
Conceptual
350
69D2
  3
Dim
350
69D4
  3
EdgeColorOff
350
69E1
  3
Facepattern
350
69D8
  3
Flat
350
69CA
  3
FlatWithEdges
350
69CB
  3
Gouraud
350
69CC
  3
GouraudWithEdges
350
69CD
  3
Hidden
350
69D1
  3
JitterOff
350
69DF
  3
Linepattern
350
69D7
  3
OverhangOff
350
69E0
  3
Realistic
350
69D3
  3
Shaded
350
69DE
  3
Shaded with edges
350
69DD
  3
Shades of Gray
350
69DA
  3
Sketchy
350
69DB
  3
Thicken
350
69D6
  3
Wireframe
350
69D0
  3
X-Ray
350
69DC
  0
XRECORD
  5
5C76
102
{ACAD_REACTORS
330
C
102
}
330
C
100
AcDbXrecord
280
     1
 90
   990106
  3

 60
     0
 61
     0
 62
     1
 63
     3
 64
     0
 65
     0
 66
     0
 67
     3
 68
     1
 69
     0
 70
     0
 71
     0
 72
     0
 40
0.0
170
     0
340
6068
  0
XRECORD
  5
6D84
102
{ACAD_REACTORS
330
C
102
}
330
C
100
AcDbXrecord
280
     1
 90
        1
330
69E4
330
69FA
330
69FC
  0
DICTIONARY
  5
5697
102
{ACAD_REACTORS
330
C
102
}
330
C
100
AcDbDictionary
281
     1
  3
CANNOSCALE
350
6A7F
  3
CMLEADERSTYLE
350
6A7C
  3
CTABLESTYLE
350
6A7B
  3
CVIEWDETAILSTYLE
350
6A7D
  3
CVIEWSECTIONSTYLE
350
6A7E
  3
DIMASSOC
350
5698
  3
INDEXCTL
350
6A81
  3
LAYEREVAL
350
6D7D
  3
LAYERNOTIFY
350
6D7E
  3
LIGHTINGUNITS
350
6D7C
  3
MSLTSCALE
350
6D7B
  3
SORTENTS
350
6A80
  0
XRECORD
  5
6A5B
102
{ACAD_REACTORS
330
6A5A
102
}
330
6A5A
100
AcDbXrecord
280
     1
290
     1
  0
XRECORD
  5
6A5D
102
{ACAD_REACTORS
330
6A5C
102
}
330
6A5C
100
AcDbXrecord
280
     1
290
     1
  0
XRECORD
  5
6A5F
102
{ACAD_REACTORS
330
6A5E
102
}
330
6A5E
100
AcDbXrecord
280
     1
290
     1
  0
XRECORD
  5
6A61
102
{ACAD_REACTORS
330
6A60
102
}
330
6A60
100
AcDbXrecord
280
     1
290
     1
  0
XRECORD
  5
6A63
102
{ACAD_REACTORS
330
6A62
102
}
330
6A62
100
AcDbXrecord
280
     1
290
     1
  0
XRECORD
  5
6A65
102
{ACAD_REACTORS
330
6A64
102
}
330
6A64
100
AcDbXrecord
280
     1
290
     1
  0
XRECORD
  5
6A67
102
{ACAD_REACTORS
330
6A66
102
}
330
6A66
100
AcDbXrecord
280
     1
290
     1
  0
XRECORD
  5
6A69
102
{ACAD_REACTORS
330
6A68
102
}
330
6A68
100
AcDbXrecord
280
     1
290
     1
  0
XRECORD
  5
6A6B
102
{ACAD_REACTORS
330
6A6A
102
}
330
6A6A
100
AcDbXrecord
280
     1
290
     1
  0
XRECORD
  5
6A6D
102
{ACAD_REACTORS
330
6A6C
102
}
330
6A6C
100
AcDbXrecord
280
     1
290
     1
  0
XRECORD
  5
6A6F
102
{ACAD_REACTORS
330
6A6E
102
}
330
6A6E
100
AcDbXrecord
280
     1
290
     1
  0
XRECORD
  5
6A71
102
{ACAD_REACTORS
330
6A70
102
}
330
6A70
100
AcDbXrecord
280
     1
290
     1
  0
XRECORD
  5
699B
102
{ACAD_REACTORS
330
178
102
}
330
178
100
AcDbXrecord
280
     1
340
1E
  0
XRECORD
  5
699A
102
{ACAD_REACTORS
330
17A
102
}
330
17A
100
AcDbXrecord
280
     1
340
1A
  0
ACDBDETAILVIEWSTYLE
  5
69FC
102
{ACAD_XDICTIONARY
360
6D82
102
}
102
{ACAD_REACTORS
330
69FB
102
}
330
69FB
100
AcDbModelDocViewStyle
 70
     0
  3
Imperial24
290
     0
100
AcDbDetailViewStyle
 70
     0
 71
     0
 90
        3
 71
     1
340
11
 62
   256
 40
0.24
340
0
 62
   256
 40
0.24
300

 40
0.36
280
     3
 71
     2
340
15
 90
       25
 62
   256
 71
     3
340
11
 62
   256
 40
0.24
 90
        1
 40
0.75
 90
        1
300
%<\AcVar ViewType \f "%tc1">% %<\AcVar ViewDetailId>%\PSCALE %<\AcVar ViewScale \f "%sn">%
 71
     4
340
15
 90
       25
 62
   256
340
15
 90
       25
 62
   256
280
     0
  0
LAYOUT
  5
69A3
102
{ACAD_REACTORS
330
19
102
}
330
19
100
AcDbPlotSettings
  1

  2
none_device
  4
Letter_(8.50_x_11.00_Inches)
  6

 40
6.349999904632567
 41
6.349999904632567
 42
6.350006103515625
 43
6.350006103515625
 44
215.8999938964844
 45
279.3999938964844
 46
0.0
 47
0.0
 48
0.0
 49
0.0
140
0.0
141
0.0
142
1.0
143
28.2902169459473
 70
 11952
 72
     0
 73
     1
 74
     0
  7
monochrome.ctb
 75
     0
147
0.0353479084982151
 76
     0
 77
     2
 78
   300
148
1154.150941267403
149
-2764.290811430532
100
AcDbLayout
  1
Model
 70
     1
 71
     0
 10
0.0
 20
0.0
 11
12.0
 21
9.0
 12
0.0
 22
0.0
 32
0.0
 14
0.0
 24
0.0
 34
0.0
 15
0.0
 25
0.0
 35
0.0
146
0.0
 13
0.0
 23
0.0
 33
0.0
 16
1.0
 26
0.0
 36
0.0
 17
0.0
 27
1.0
 37
0.0
 76
     0
330
1E
331
69A8
1001
ACAD_PSEXT
1000
なし
1000
なし
1000
適切ではありません
1000
新しいプロッタ環境設定名を選択しない限り、レイアウトは印刷されません。
1070
     0
  0
LAYOUT
  5
69A4
102
{ACAD_REACTORS
330
19
102
}
330
19
100
AcDbPlotSettings
  1

  2
Canon LBP3800 LIPSLX
  4

  6

 40
0.0
 41
0.0
 42
0.0
 43
0.0
 44
0.0
 45
0.0
 46
0.0
 47
0.0
 48
0.0
 49
0.0
140
0.0
141
0.0
142
1.0
143
1.0
 70
   688
 72
     0
 73
     0
 74
     5
  7
monochrome.ctb
 75
    16
147
1.0
 76
     0
 77
     2
 78
   300
148
0.0
149
0.0
100
AcDbLayout
  1
ﾚｲｱｳﾄ1
 70
     1
 71
     1
 10
-5.873749
 20
-5.87375
 11
204.099579
 21
291.1369009999999
 12
0.0
 22
0.0
 32
0.0
 14
4.273573
 24
5.205245999999998
 34
0.0
 15
194.610095
 25
283.0697009999996
 35
0.0
146
0.0
 13
0.0
 23
0.0
 33
0.0
 16
1.0
 26
0.0
 36
0.0
 17
0.0
 27
1.0
 37
0.0
 76
     0
330
1A
  0
MATERIAL
  5
69B9
102
{ACAD_XDICTIONARY
360
69BA
102
}
102
{ACAD_REACTORS
330
69B0
102
}
330
69B0
100
AcDbMaterial
  1
ByBlock
 72
     0
 43
0.0208333333333333
 43
0.0
 43
0.0
 43
0.0
 43
0.0
 43
0.0208333333333333
 43
0.0
 43
0.0
 43
0.0
 43
0.0
 43
1.0
 43
0.0
 43
0.0
 43
0.0
 43
0.0
 43
1.0
 77
     0
 47
0.0208333333333333
 47
0.0
 47
0.0
 47
0.0
 47
0.0
 47
0.0208333333333333
 47
0.0
 47
0.0
 47
0.0
 47
0.0
 47
1.0
 47
0.0
 47
0.0
 47
0.0
 47
0.0
 47
1.0
171
     0
 49
0.0208333333333333
 49
0.0
 49
0.0
 49
0.0
 49
0.0
 49
0.0208333333333333
 49
0.0
 49
0.0
 49
0.0
 49
0.0
 49
1.0
 49
0.0
 49
0.0
 49
0.0
 49
0.0
 49
1.0
175
     0
142
0.0208333333333333
142
0.0
142
0.0
142
0.0
142
0.0
142
0.0208333333333333
142
0.0
142
0.0
142
0.0
142
0.0
142
1.0
142
0.0
142
0.0
142
0.0
142
0.0
142
1.0
179
     0
144
0.0208333333333333
144
0.0
144
0.0
144
0.0
144
0.0
144
0.0208333333333333
144
0.0
144
0.0
144
0.0
144
0.0
144
1.0
144
0.0
144
0.0
144
0.0
144
0.0
144
1.0
147
0.0208333333333333
147
0.0
147
0.0
147
0.0
147
0.0
147
0.0208333333333333
147
0.0
147
0.0
147
0.0
147
0.0
147
1.0
147
0.0
147
0.0
147
0.0
147
0.0
147
1.0
  0
MATERIAL
  5
69B1
102
{ACAD_XDICTIONARY
360
69B2
102
}
102
{ACAD_REACTORS
330
69B0
102
}
330
69B0
100
AcDbMaterial
  1
ByLayer
 72
     0
 43
0.0208333333333333
 43
0.0
 43
0.0
 43
0.0
 43
0.0
 43
0.0208333333333333
 43
0.0
 43
0.0
 43
0.0
 43
0.0
 43
1.0
 43
0.0
 43
0.0
 43
0.0
 43
0.0
 43
1.0
 77
     0
 47
0.0208333333333333
 47
0.0
 47
0.0
 47
0.0
 47
0.0
 47
0.0208333333333333
 47
0.0
 47
0.0
 47
0.0
 47
0.0
 47
1.0
 47
0.0
 47
0.0
 47
0.0
 47
0.0
 47
1.0
171
     0
 49
0.0208333333333333
 49
0.0
 49
0.0
 49
0.0
 49
0.0
 49
0.0208333333333333
 49
0.0
 49
0.0
 49
0.0
 49
0.0
 49
1.0
 49
0.0
 49
0.0
 49
0.0
 49
0.0
 49
1.0
175
     0
142
0.0208333333333333
142
0.0
142
0.0
142
0.0
142
0.0
142
0.0208333333333333
142
0.0
142
0.0
142
0.0
142
0.0
142
1.0
142
0.0
142
0.0
142
0.0
142
0.0
142
1.0
179
     0
144
0.0208333333333333
144
0.0
144
0.0
144
0.0
144
0.0
144
0.0208333333333333
144
0.0
144
0.0
144
0.0
144
0.0
144
1.0
144
0.0
144
0.0
144
0.0
144
0.0
144
1.0
147
0.0208333333333333
147
0.0
147
0.0
147
0.0
147
0.0
147
0.0208333333333333
147
0.0
147
0.0
147
0.0
147
0.0
147
1.0
147
0.0
147
0.0
147
0.0
147
0.0
147
1.0
  0
MATERIAL
  5
69C1
102
{ACAD_XDICTIONARY
360
69C2
102
}
102
{ACAD_REACTORS
330
69B0
102
}
330
69B0
100
AcDbMaterial
  1
Global
 72
     0
 43
0.0208333333333333
 43
0.0
 43
0.0
 43
0.0
 43
0.0
 43
0.0208333333333333
 43
0.0
 43
0.0
 43
0.0
 43
0.0
 43
1.0
 43
0.0
 43
0.0
 43
0.0
 43
0.0
 43
1.0
 77
     0
 47
0.0208333333333333
 47
0.0
 47
0.0
 47
0.0
 47
0.0
 47
0.0208333333333333
 47
0.0
 47
0.0
 47
0.0
 47
0.0
 47
1.0
 47
0.0
 47
0.0
 47
0.0
 47
0.0
 47
1.0
171
     0
 49
0.0208333333333333
 49
0.0
 49
0.0
 49
0.0
 49
0.0
 49
0.0208333333333333
 49
0.0
 49
0.0
 49
0.0
 49
0.0
 49
1.0
 49
0.0
 49
0.0
 49
0.0
 49
0.0
 49
1.0
175
     0
142
0.0208333333333333
142
0.0
142
0.0
142
0.0
142
0.0
142
0.0208333333333333
142
0.0
142
0.0
142
0.0
142
0.0
142
1.0
142
0.0
142
0.0
142
0.0
142
0.0
142
1.0
179
     0
144
0.0208333333333333
144
0.0
144
0.0
144
0.0
144
0.0
144
0.0208333333333333
144
0.0
144
0.0
144
0.0
144
0.0
144
1.0
144
0.0
144
0.0
144
0.0
144
0.0
144
1.0
147
0.0208333333333333
147
0.0
147
0.0
147
0.0
147
0.0
147
0.0208333333333333
147
0.0
147
0.0
147
0.0
147
0.0
147
1.0
147
0.0
147
0.0
147
0.0
147
0.0
147
1.0
  0
MLEADERSTYLE
  5
69F8
102
{ACAD_REACTORS
330
69F7
102
}
330
69F7
100
AcDbMLeaderStyle
179
     2
170
     2
171
     1
172
     0
 90
        2
 40
0.0
 41
0.0
173
     1
 91
-1056964608
340
13
 92
       -2
290
     1
 42
0.09
291
     1
 43
0.36
  3
Standard
 44
0.18
300

342
11
174
     1
178
     6
175
     1
176
     0
 93
-1056964608
 45
0.18
292
     0
297
     0
 46
0.18
 94
-1056964608
 47
1.0
 49
1.0
140
1.0
293
     1
141
0.0
294
     1
177
     0
142
1.0
295
     0
296
     0
143
0.125
271
     0
272
     9
273
     9
298
     0
1001
ACAD_MLEADERVER
1070
     2
  0
MLINESTYLE
  5
17
102
{ACAD_REACTORS
330
16
102
}
330
16
100
AcDbMlineStyle
  2
STANDARD
 70
     0
  3

 62
   256
 51
90.0
 52
90.0
 71
     2
 49
0.5
 62
   256
  6
BYLAYER
 49
-0.5
 62
   256
  6
BYLAYER
  0
ACDBPLACEHOLDER
  5
F
102
{ACAD_REACTORS
330
E
102
}
330
E
  0
SCALE
  5
69E6
102
{ACAD_REACTORS
330
69E5
102
}
330
69E5
100
AcDbScale
 70
     0
300
1:1
140
1.0
141
1.0
290
     1
  0
SCALE
  5
69E7
102
{ACAD_REACTORS
330
69E5
102
}
330
69E5
100
AcDbScale
 70
     0
300
1/128" = 1'-0"
140
0.0078125
141
12.0
290
     0
  0
SCALE
  5
69E8
102
{ACAD_REACTORS
330
69E5
102
}
330
69E5
100
AcDbScale
 70
     0
300
1/64" = 1'-0"
140
0.015625
141
12.0
290
     0
  0
SCALE
  5
69E9
102
{ACAD_REACTORS
330
69E5
102
}
330
69E5
100
AcDbScale
 70
     0
300
1/32" = 1'-0"
140
0.03125
141
12.0
290
     0
  0
SCALE
  5
69EA
102
{ACAD_REACTORS
330
69E5
102
}
330
69E5
100
AcDbScale
 70
     0
300
1/16" = 1'-0"
140
0.0625
141
12.0
290
     0
  0
SCALE
  5
69EB
102
{ACAD_REACTORS
330
69E5
102
}
330
69E5
100
AcDbScale
 70
     0
300
3/32" = 1'-0"
140
0.09375
141
12.0
290
     0
  0
SCALE
  5
69EC
102
{ACAD_REACTORS
330
69E5
102
}
330
69E5
100
AcDbScale
 70
     0
300
1/8" = 1'-0"
140
0.125
141
12.0
290
     0
  0
SCALE
  5
69ED
102
{ACAD_REACTORS
330
69E5
102
}
330
69E5
100
AcDbScale
 70
     0
300
3/16" = 1'-0"
140
0.1875
141
12.0
290
     0
  0
SCALE
  5
69EE
102
{ACAD_REACTORS
330
69E5
102
}
330
69E5
100
AcDbScale
 70
     0
300
1/4" = 1'-0"
140
0.25
141
12.0
290
     0
  0
SCALE
  5
69EF
102
{ACAD_REACTORS
330
69E5
102
}
330
69E5
100
AcDbScale
 70
     0
300
3/8" = 1'-0"
140
0.375
141
12.0
290
     0
  0
SCALE
  5
69F0
102
{ACAD_REACTORS
330
69E5
102
}
330
69E5
100
AcDbScale
 70
     0
300
1/2" = 1'-0"
140
0.5
141
12.0
290
     0
  0
SCALE
  5
69F1
102
{ACAD_REACTORS
330
69E5
102
}
330
69E5
100
AcDbScale
 70
     0
300
3/4" = 1'-0"
140
0.75
141
12.0
290
     0
  0
SCALE
  5
69F2
102
{ACAD_REACTORS
330
69E5
102
}
330
69E5
100
AcDbScale
 70
     0
300
1" = 1'-0"
140
1.0
141
12.0
290
     0
  0
SCALE
  5
69F3
102
{ACAD_REACTORS
330
69E5
102
}
330
69E5
100
AcDbScale
 70
     0
300
1-1/2" = 1'-0"
140
1.5
141
12.0
290
     0
  0
SCALE
  5
69F4
102
{ACAD_REACTORS
330
69E5
102
}
330
69E5
100
AcDbScale
 70
     0
300
3" = 1'-0"
140
3.0
141
12.0
290
     0
  0
SCALE
  5
69F5
102
{ACAD_REACTORS
330
69E5
102
}
330
69E5
100
AcDbScale
 70
     0
300
6" = 1'-0"
140
6.0
141
12.0
290
     0
  0
SCALE
  5
69F6
102
{ACAD_REACTORS
330
69E5
102
}
330
69E5
100
AcDbScale
 70
     0
300
1'-0" = 1'-0"
140
12.0
141
12.0
290
     0
  0
ACDBSECTIONVIEWSTYLE
  5
69FA
102
{ACAD_XDICTIONARY
360
6D80
102
}
102
{ACAD_REACTORS
330
69F9
102
}
330
69F9
100
AcDbModelDocViewStyle
 70
     0
  3
Imperial24
290
     0
100
AcDbSectionViewStyle
 70
     0
 71
     0
 90
       78
 71
     1
340
11
 62
   256
 40
0.24
340
0
340
0
 62
   256
 40
0.24
300
I, O, Q, S, X, Z
 40
0.48
 90
        3
 40
0.18
 90
        1
 71
     2
340
15
 90
       25
 62
   256
340
15
 90
       50
 62
   256
 40
0.24
 40
0.0
 40
0.24
 71
     3
340
11
 62
   256
 40
0.24
 90
        1
 40
0.75
 90
        1
300
%<\AcVar ViewType \f "%tc1">% %<\AcVar ViewSectionStartId>%-%<\AcVar ViewSectionEndId>%\PSCALE %<\AcVar ViewScale \f "%sn">%
 71
     4
 62
   256
 62
   257
300
ANSI31
 40
1.0
 90
        0
290
     0
290
     0
 90
        6
 40
0.0
 40
1.570796326794896
 40
0.2617993877991494
 40
1.308996938995747
 40
-0.2617993877991494
 40
1.832595714594044
  0
TABLESTYLE
  5
69E4
102
{ACAD_XDICTIONARY
360
6ACF
102
}
102
{ACAD_REACTORS
330
69E3
102
}
330
69E3
100
AcDbTableStyle
280
     0
  3
Standard
 70
     0
 71
     0
 40
0.06
 41
0.06
280
     0
281
     0
  7
STANDARD
140
0.18
170
     2
 62
     0
 63
     7
283
     0
 90
      512
 91
        0
  1

274
    -2
284
     1
 64
     0
275
    -2
285
     1
 65
     0
276
    -2
286
     1
 66
     0
277
    -2
287
     1
 67
     0
278
    -2
288
     1
 68
     0
279
    -2
289
     1
 69
     0
  7
STANDARD
140
0.25
170
     5
 62
     0
 63
     7
283
     0
 90
      512
 91
        0
  1

274
    -2
284
     1
 64
     0
275
    -2
285
     1
 65
     0
276
    -2
286
     1
 66
     0
277
    -2
287
     1
 67
     0
278
    -2
288
     1
 68
     0
279
    -2
289
     1
 69
     0
  7
STANDARD
140
0.18
170
     5
 62
     0
 63
     7
283
     0
 90
      512
 91
        0
  1

274
    -2
284
     1
 64
     0
275
    -2
285
     1
 65
     0
276
    -2
286
     1
 66
     0
277
    -2
287
     1
 67
     0
278
    -2
288
     1
 68
     0
279
    -2
289
     1
 69
     0
  0
VISUALSTYLE
  5
69CF
102
{ACAD_REACTORS
330
69C9
102
}
330
69C9
100
AcDbVisualStyle
  2

 70
     4
177
     3
291
     0
 70
    58
 90
        0
176
     1
 90
        2
176
     1
 90
        0
176
     1
 90
        0
176
     1
 40
0.6
176
     1
 40
30.0
176
     1
 62
     7
176
     1
 90
        1
176
     1
 90
        4
176
     1
 62
     7
176
     1
 62
   257
176
     1
 90
        1
176
     1
 90
        1
176
     1
 40
1.0
176
     1
 90
        0
176
     1
 62
   257
176
     1
 40
1.0
176
     1
 90
        1
176
     1
 90
        6
176
     1
 90
        2
176
     1
 62
     7
176
     1
 90
        5
176
     1
 90
        0
176
     1
 90
        0
176
     1
290
     0
176
     1
 90
        1
176
     1
 40
0.0
176
     1
 90
        0
176
     1
290
     1
176
     1
290
     1
176
     1
290
     0
176
     1
290
     0
176
     1
290
     0
176
     1
290
     0
176
     1
290
     0
176
     1
290
     0
176
     1
290
     0
176
     1
 90
       50
176
     1
 40
0.0
176
     1
 40
1.0
176
     1
 90
        0
176
     1
 62
    18
420
        0
176
     1
 90
       50
176
     1
 90
        3
176
     1
 62
     5
420
      255
176
     1
290
     0
176
     1
 90
       50
176
     1
 90
       50
176
     1
 90
       50
176
     1
290
     0
176
     1
 90
       50
176
     1
 62
   256
176
     0
 40
1.0
176
     0
 90
        2
176
     1
  1
strokes_ogs.tif
176
     1
290
     0
176
     1
 40
1.0
176
     1
 40
1.0
176
     1
1001
ACAD
1000
AcDbSavedByObjectVersion
1070
     0
  0
VISUALSTYLE
  5
69CE
102
{ACAD_REACTORS
330
69C9
102
}
330
69C9
100
AcDbVisualStyle
  2

 70
     7
177
     3
291
     1
 70
    58
 90
        1
176
     1
 90
        0
176
     1
 90
        1
176
     1
 90
        0
176
     1
 40
0.6
176
     1
 40
30.0
176
     1
 62
     7
176
     1
 90
        0
176
     1
 90
        4
176
     1
 62
     7
176
     1
 62
   257
176
     1
 90
        1
176
     1
 90
        1
176
     1
 40
1.0
176
     1
 90
        8
176
     1
 62
     7
176
     1
 40
1.0
176
     1
 90
        1
176
     1
 90
        6
176
     1
 90
        2
176
     1
 62
     7
176
     1
 90
        5
176
     1
 90
        0
176
     1
 90
        0
176
     1
290
     0
176
     1
 90
        1
176
     1
 40
0.0
176
     1
 90
        0
176
     1
290
     0
176
     1
290
     1
176
     1
290
     1
176
     1
290
     0
176
     1
290
     0
176
     1
290
     0
176
     1
290
     0
176
     1
290
     0
176
     1
290
     0
176
     1
 90
       50
176
     1
 40
0.0
176
     1
 40
1.0
176
     1
 90
        0
176
     1
 62
    18
420
        0
176
     1
 90
       50
176
     1
 90
        3
176
     1
 62
     5
420
      255
176
     1
290
     0
176
     1
 90
       50
176
     1
 90
       50
176
     1
 90
       50
176
     1
290
     0
176
     1
 90
       50
176
     1
 62
   256
176
     0
 40
1.0
176
     0
 90
        2
176
     1
  1
strokes_ogs.tif
176
     1
290
     0
176
     1
 40
1.0
176
     1
 40
1.0
176
     1
1001
ACAD
1000
AcDbSavedByObjectVersion
1070
     0
  0
VISUALSTYLE
  5
69D5
102
{ACAD_REACTORS
330
69C9
102
}
330
69C9
100
AcDbVisualStyle
  2

 70
    12
177
     3
291
     1
 70
    58
 90
        2
176
     1
 90
        2
176
     1
 90
        0
176
     1
 90
        0
176
     1
 40
0.6
176
     1
 40
30.0
176
     1
 62
     7
176
     1
 90
        1
176
     1
 90
        4
176
     1
 62
     7
176
     1
 62
   257
176
     1
 90
        1
176
     1
 90
        1
176
     1
 40
1.0
176
     1
 90
        8
176
     1
 62
     7
176
     1
 40
1.0
176
     1
 90
        1
176
     1
 90
        6
176
     1
 90
        2
176
     1
 62
     7
176
     1
 90
        5
176
     1
 90
        0
176
     1
 90
        0
176
     1
290
     0
176
     1
 90
        1
176
     1
 40
50.0
176
     1
 90
        0
176
     1
290
     0
176
     1
290
     1
176
     1
290
     1
176
     1
290
     0
176
     1
290
     0
176
     1
290
     0
176
     1
290
     0
176
     1
290
     0
176
     1
290
     0
176
     1
 90
       50
176
     1
 40
0.0
176
     1
 40
1.0
176
     1
 90
        0
176
     1
 62
    18
420
        0
176
     1
 90
       50
176
     1
 90
        3
176
     1
 62
     5
420
      255
176
     1
290
     0
176
     1
 90
       50
176
     1
 90
       50
176
     1
 90
       50
176
     1
290
     0
176
     1
 90
       50
176
     1
 62
   256
176
     0
 40
1.0
176
     0
 90
        2
176
     1
  1
strokes_ogs.tif
176
     1
290
     0
176
     1
 40
1.0
176
     1
 40
1.0
176
     1
1001
ACAD
1000
AcDbSavedByObjectVersion
1070
     0
  0
VISUALSTYLE
  5
69D9
102
{ACAD_REACTORS
330
69C9
102
}
330
69C9
100
AcDbVisualStyle
  2

 70
    16
177
     3
291
     1
 70
    58
 90
        2
176
     1
 90
        2
176
     1
 90
        3
176
     1
 90
        0
176
     1
 40
0.6
176
     1
 40
30.0
176
     1
 62
     8
176
     1
 90
        1
176
     1
 90
        4
176
     1
 62
     7
176
     1
 62
   257
176
     1
 90
        1
176
     1
 90
        1
176
     1
 40
1.0
176
     1
 90
        8
176
     1
 62
     8
176
     1
 40
1.0
176
     1
 90
        1
176
     1
 90
        6
176
     1
 90
        2
176
     1
 62
     7
176
     1
 90
        5
176
     1
 90
        0
176
     1
 90
        0
176
     1
290
     0
176
     1
 90
        1
176
     1
 40
0.0
176
     1
 90
        0
176
     1
290
     0
176
     1
290
     1
176
     1
290
     1
176
     1
290
     0
176
     1
290
     0
176
     1
290
     0
176
     1
290
     0
176
     1
290
     0
176
     1
290
     0
176
     1
 90
       50
176
     1
 40
0.0
176
     1
 40
1.0
176
     1
 90
        0
176
     1
 62
    18
420
        0
176
     1
 90
       50
176
     1
 90
        3
176
     1
 62
     5
420
      255
176
     1
290
     0
176
     1
 90
       50
176
     1
 90
       50
176
     1
 90
       50
176
     1
290
     0
176
     1
 90
       50
176
     1
 62
   256
176
     0
 40
1.0
176
     0
 90
        2
176
     1
  1
strokes_ogs.tif
176
     1
290
     0
176
     1
 40
1.0
176
     1
 40
1.0
176
     1
1001
ACAD
1000
AcDbSavedByObjectVersion
1070
     0
  0
VISUALSTYLE
  5
69D2
102
{ACAD_REACTORS
330
69C9
102
}
330
69C9
100
AcDbVisualStyle
  2

 70
     9
177
     3
291
     0
 70
    58
 90
        3
176
     1
 90
        2
176
     1
 90
        0
176
     1
 90
        0
176
     1
 40
0.6
176
     1
 40
30.0
176
     1
 62
     7
176
     1
 90
        2
176
     1
 90
        2
176
     1
 62
     7
176
     1
 62
   257
176
     1
 90
        1
176
     1
 90
        1
176
     1
 40
179.0
176
     1
 90
        8
176
     1
 62
     7
176
     1
 40
1.0
176
     1
 90
        1
176
     1
 90
        6
176
     1
 90
        2
176
     1
 62
     7
176
     1
 90
        3
176
     1
 90
        0
176
     1
 90
        0
176
     1
290
     0
176
     1
 90
        1
176
     1
 40
0.0
176
     1
 90
        0
176
     1
290
     0
176
     1
290
     1
176
     1
290
     1
176
     1
290
     0
176
     1
290
     0
176
     1
290
     0
176
     1
290
     0
176
     1
290
     0
176
     1
290
     0
176
     1
 90
       50
176
     1
 40
0.0
176
     1
 40
1.0
176
     1
 90
        0
176
     1
 62
    18
420
        0
176
     1
 90
       50
176
     1
 90
        3
176
     1
 62
     5
420
      255
176
     1
290
     0
176
     1
 90
       50
176
     1
 90
       50
176
     1
 90
       50
176
     1
290
     0
176
     1
 90
       50
176
     1
 62
   256
176
     0
 40
1.0
176
     0
 90
        2
176
     1
  1
strokes_ogs.tif
176
     1
290
     0
176
     1
 40
1.0
176
     1
 40
1.0
176
     1
1001
ACAD
1000
AcDbSavedByObjectVersion
1070
     0
  0
VISUALSTYLE
  5
69D4
102
{ACAD_REACTORS
330
69C9
102
}
330
69C9
100
AcDbVisualStyle
  2

 70
    11
177
     3
291
     1
 70
    58
 90
        2
176
     1
 90
        2
176
     1
 90
        0
176
     1
 90
        0
176
     1
 40
0.6
176
     1
 40
30.0
176
     1
 62
     7
176
     1
 90
        1
176
     1
 90
        4
176
     1
 62
     7
176
     1
 62
   257
176
     1
 90
        1
176
     1
 90
        1
176
     1
 40
1.0
176
     1
 90
        8
176
     1
 62
     7
176
     1
 40
1.0
176
     1
 90
        1
176
     1
 90
        6
176
     1
 90
        2
176
     1
 62
     7
176
     1
 90
        5
176
     1
 90
        0
176
     1
 90
        0
176
     1
290
     0
176
     1
 90
        1
176
     1
 40
-50.0
176
     1
 90
        0
176
     1
290
     0
176
     1
290
     1
176
     1
290
     1
176
     1
290
     0
176
     1
290
     0
176
     1
290
     0
176
     1
290
     0
176
     1
290
     0
176
     1
290
     0
176
     1
 90
       50
176
     1
 40
0.0
176
     1
 40
1.0
176
     1
 90
        0
176
     1
 62
    18
420
        0
176
     1
 90
       50
176
     1
 90
        3
176
     1
 62
     5
420
      255
176
     1
290
     0
176
     1
 90
       50
176
     1
 90
       50
176
     1
 90
       50
176
     1
290
     0
176
     1
 90
       50
176
     1
 62
   256
176
     0
 40
1.0
176
     0
 90
        2
176
     1
  1
strokes_ogs.tif
176
     1
290
     0
176
     1
 40
1.0
176
     1
 40
1.0
176
     1
1001
ACAD
1000
AcDbSavedByObjectVersion
1070
     0
  0
VISUALSTYLE
  5
69E1
102
{ACAD_REACTORS
330
69C9
102
}
330
69C9
100
AcDbVisualStyle
  2

 70
    22
177
     3
291
     1
 70
    58
 90
        2
176
     0
 90
        2
176
     0
 90
        0
176
     0
 90
        0
176
     0
 40
0.6
176
     0
 40
30.0
176
     0
 62
     7
176
     0
 90
        1
176
     0
 90
        4
176
     0
 62
     7
176
     0
 62
   257
176
     0
 90
        1
176
     0
 90
        1
176
     0
 40
1.0
176
     0
 90
        8
176
     2
 62
     7
176
     0
 40
1.0
176
     0
 90
        1
176
     0
 90
        6
176
     0
 90
        2
176
     0
 62
     7
176
     0
 90
        5
176
     0
 90
        0
176
     0
 90
        0
176
     0
290
     0
176
     0
 90
        1
176
     0
 40
0.0
176
     0
 90
        0
176
     0
290
     0
176
     1
290
     1
176
     1
290
     1
176
     1
290
     0
176
     1
290
     0
176
     1
290
     0
176
     1
290
     0
176
     1
290
     0
176
     1
290
     0
176
     1
 90
       50
176
     0
 40
0.0
176
     0
 40
1.0
176
     0
 90
        0
176
     0
 62
    18
420
        0
176
     0
 90
       50
176
     0
 90
        3
176
     0
 62
     5
420
      255
176
     0
290
     0
176
     1
 90
       50
176
     0
 90
       50
176
     0
 90
       50
176
     0
290
     0
176
     1
 90
       50
176
     0
 62
   256
176
     0
 40
1.0
176
     0
 90
        2
176
     0
  1
strokes_ogs.tif
176
     0
290
     0
176
     1
 40
1.0
176
     0
 40
1.0
176
     0
1001
ACAD
1000
AcDbSavedByObjectVersion
1070
     0
  0
VISUALSTYLE
  5
69D8
102
{ACAD_REACTORS
330
69C9
102
}
330
69C9
100
AcDbVisualStyle
  2

 70
    15
177
     3
291
     1
 70
    58
 90
        2
176
     1
 90
        2
176
     1
 90
        0
176
     1
 90
        0
176
     1
 40
0.6
176
     1
 40
30.0
176
     1
 62
     7
176
     1
 90
        1
176
     1
 90
        4
176
     1
 62
     7
176
     1
 62
   257
176
     1
 90
        1
176
     1
 90
        1
176
     1
 40
1.0
176
     1
 90
        8
176
     1
 62
     7
176
     1
 40
1.0
176
     1
 90
        1
176
     1
 90
        6
176
     1
 90
        2
176
     1
 62
     7
176
     1
 90
        5
176
     1
 90
        0
176
     1
 90
        0
176
     1
290
     0
176
     1
 90
        1
176
     1
 40
0.0
176
     1
 90
        0
176
     1
290
     0
176
     1
290
     1
176
     1
290
     1
176
     1
290
     0
176
     1
290
     0
176
     1
290
     0
176
     1
290
     0
176
     1
290
     0
176
     1
290
     0
176
     1
 90
       50
176
     1
 40
0.0
176
     1
 40
1.0
176
     1
 90
        0
176
     1
 62
    18
420
        0
176
     1
 90
       50
176
     1
 90
        3
176
     1
 62
     5
420
      255
176
     1
290
     0
176
     1
 90
       50
176
     1
 90
       50
176
     1
 90
       50
176
     1
290
     0
176
     1
 90
       50
176
     1
 62
   256
176
     0
 40
1.0
176
     0
 90
        2
176
     1
  1
strokes_ogs.tif
176
     1
290
     0
176
     1
 40
1.0
176
     1
 40
1.0
176
     1
1001
ACAD
1000
AcDbSavedByObjectVersion
1070
     0
  0
VISUALSTYLE
  5
69CA
102
{ACAD_REACTORS
330
69C9
102
}
330
69C9
100
AcDbVisualStyle
  2

 70
     0
177
     3
291
     1
 70
    58
 90
        2
176
     1
 90
        1
176
     1
 90
        1
176
     1
 90
        2
176
     1
 40
0.6
176
     1
 40
30.0
176
     1
 62
     7
176
     1
 90
        0
176
     1
 90
        0
176
     1
 62
     7
176
     1
 62
   257
176
     1
 90
        1
176
     1
 90
        1
176
     1
 40
1.0
176
     1
 90
        8
176
     1
 62
     7
176
     1
 40
1.0
176
     1
 90
        1
176
     1
 90
        6
176
     1
 90
        2
176
     1
 62
     7
176
     1
 90
        5
176
     1
 90
        0
176
     1
 90
        0
176
     1
290
     0
176
     1
 90
       13
176
     1
 40
0.0
176
     1
 90
        0
176
     1
290
     0
176
     1
290
     1
176
     1
290
     1
176
     1
290
     0
176
     1
290
     0
176
     1
290
     0
176
     1
290
     0
176
     1
290
     0
176
     1
290
     0
176
     1
 90
       50
176
     1
 40
0.0
176
     1
 40
1.0
176
     1
 90
        0
176
     1
 62
    18
420
        0
176
     1
 90
       50
176
     1
 90
        3
176
     1
 62
     5
420
      255
176
     1
290
     0
176
     1
 90
       50
176
     1
 90
       50
176
     1
 90
       50
176
     1
290
     0
176
     1
 90
       50
176
     1
 62
   256
176
     0
 40
1.0
176
     0
 90
        2
176
     1
  1
strokes_ogs.tif
176
     1
290
     0
176
     1
 40
1.0
176
     1
 40
1.0
176
     1
1001
ACAD
1000
AcDbSavedByObjectVersion
1070
     0
  0
VISUALSTYLE
  5
69CB
102
{ACAD_REACTORS
330
69C9
102
}
330
69C9
100
AcDbVisualStyle
  2

 70
     1
177
     3
291
     1
 70
    58
 90
        2
176
     1
 90
        1
176
     1
 90
        1
176
     1
 90
        2
176
     1
 40
0.6
176
     1
 40
30.0
176
     1
 62
     7
176
     1
 90
        1
176
     1
 90
        0
176
     1
 62
     7
176
     1
 62
   257
176
     1
 90
        1
176
     1
 90
        1
176
     1
 40
1.0
176
     1
 90
        0
176
     1
 62
   257
176
     1
 40
1.0
176
     1
 90
        1
176
     1
 90
        6
176
     1
 90
        2
176
     1
 62
     7
176
     1
 90
        5
176
     1
 90
        0
176
     1
 90
        0
176
     1
290
     0
176
     1
 90
       13
176
     1
 40
0.0
176
     1
 90
        0
176
     1
290
     0
176
     1
290
     1
176
     1
290
     1
176
     1
290
     0
176
     1
290
     0
176
     1
290
     0
176
     1
290
     0
176
     1
290
     0
176
     1
290
     0
176
     1
 90
       50
176
     1
 40
0.0
176
     1
 40
1.0
176
     1
 90
        0
176
     1
 62
    18
420
        0
176
     1
 90
       50
176
     1
 90
        3
176
     1
 62
     5
420
      255
176
     1
290
     0
176
     1
 90
       50
176
     1
 90
       50
176
     1
 90
       50
176
     1
290
     0
176
     1
 90
       50
176
     1
 62
   256
176
     0
 40
1.0
176
     0
 90
        2
176
     1
  1
strokes_ogs.tif
176
     1
290
     0
176
     1
 40
1.0
176
     1
 40
1.0
176
     1
1001
ACAD
1000
AcDbSavedByObjectVersion
1070
     0
  0
VISUALSTYLE
  5
69CC
102
{ACAD_REACTORS
330
69C9
102
}
330
69C9
100
AcDbVisualStyle
  2

 70
     2
177
     3
291
     1
 70
    58
 90
        2
176
     1
 90
        2
176
     1
 90
        1
176
     1
 90
        2
176
     1
 40
0.6
176
     1
 40
30.0
176
     1
 62
     7
176
     1
 90
        0
176
     1
 90
        0
176
     1
 62
     7
176
     1
 62
   257
176
     1
 90
        1
176
     1
 90
        1
176
     1
 40
1.0
176
     1
 90
        0
176
     1
 62
     7
176
     1
 40
1.0
176
     1
 90
        1
176
     1
 90
        6
176
     1
 90
        2
176
     1
 62
     7
176
     1
 90
        5
176
     1
 90
        0
176
     1
 90
        0
176
     1
290
     0
176
     1
 90
       13
176
     1
 40
0.0
176
     1
 90
        0
176
     1
290
     0
176
     1
290
     1
176
     1
290
     1
176
     1
290
     0
176
     1
290
     0
176
     1
290
     0
176
     1
290
     0
176
     1
290
     0
176
     1
290
     0
176
     1
 90
       50
176
     1
 40
0.0
176
     1
 40
1.0
176
     1
 90
        0
176
     1
 62
    18
420
        0
176
     1
 90
       50
176
     1
 90
        3
176
     1
 62
     5
420
      255
176
     1
290
     0
176
     1
 90
       50
176
     1
 90
       50
176
     1
 90
       50
176
     1
290
     0
176
     1
 90
       50
176
     1
 62
   256
176
     0
 40
1.0
176
     0
 90
        2
176
     1
  1
strokes_ogs.tif
176
     1
290
     0
176
     1
 40
1.0
176
     1
 40
1.0
176
     1
1001
ACAD
1000
AcDbSavedByObjectVersion
1070
     0
  0
VISUALSTYLE
  5
69CD
102
{ACAD_REACTORS
330
69C9
102
}
330
69C9
100
AcDbVisualStyle
  2

 70
     3
177
     3
291
     1
 70
    58
 90
        2
176
     1
 90
        2
176
     1
 90
        1
176
     1
 90
        2
176
     1
 40
0.6
176
     1
 40
30.0
176
     1
 62
     7
176
     1
 90
        1
176
     1
 90
        0
176
     1
 62
     7
176
     1
 62
   257
176
     1
 90
        1
176
     1
 90
        1
176
     1
 40
1.0
176
     1
 90
        0
176
     1
 62
   257
176
     1
 40
1.0
176
     1
 90
        1
176
     1
 90
        6
176
     1
 90
        2
176
     1
 62
     7
176
     1
 90
        5
176
     1
 90
        0
176
     1
 90
        0
176
     1
290
     0
176
     1
 90
       13
176
     1
 40
0.0
176
     1
 90
        0
176
     1
290
     0
176
     1
290
     1
176
     1
290
     1
176
     1
290
     0
176
     1
290
     0
176
     1
290
     0
176
     1
290
     0
176
     1
290
     0
176
     1
290
     0
176
     1
 90
       50
176
     1
 40
0.0
176
     1
 40
1.0
176
     1
 90
        0
176
     1
 62
    18
420
        0
176
     1
 90
       50
176
     1
 90
        3
176
     1
 62
     5
420
      255
176
     1
290
     0
176
     1
 90
       50
176
     1
 90
       50
176
     1
 90
       50
176
     1
290
     0
176
     1
 90
       50
176
     1
 62
   256
176
     0
 40
1.0
176
     0
 90
        2
176
     1
  1
strokes_ogs.tif
176
     1
290
     0
176
     1
 40
1.0
176
     1
 40
1.0
176
     1
1001
ACAD
1000
AcDbSavedByObjectVersion
1070
     0
  0
VISUALSTYLE
  5
69D1
102
{ACAD_REACTORS
330
69C9
102
}
330
69C9
100
AcDbVisualStyle
  2

 70
     6
177
     3
291
     0
 70
    58
 90
        1
176
     1
 90
        2
176
     1
 90
        2
176
     1
 90
        0
176
     1
 40
0.6
176
     1
 40
30.0
176
     1
 62
     7
176
     1
 90
        2
176
     1
 90
        2
176
     1
 62
     7
176
     1
 62
   257
176
     1
 90
        2
176
     1
 90
        1
176
     1
 40
40.0
176
     1
 90
        0
176
     1
 62
   257
176
     1
 40
1.0
176
     1
 90
        1
176
     1
 90
        6
176
     1
 90
        2
176
     1
 62
     7
176
     1
 90
        3
176
     1
 90
        0
176
     1
 90
        0
176
     1
290
     0
176
     1
 90
        1
176
     1
 40
0.0
176
     1
 90
        0
176
     1
290
     0
176
     1
290
     1
176
     1
290
     1
176
     1
290
     0
176
     1
290
     0
176
     1
290
     0
176
     1
290
     0
176
     1
290
     0
176
     1
290
     0
176
     1
 90
       50
176
     1
 40
0.0
176
     1
 40
1.0
176
     1
 90
        0
176
     1
 62
    18
420
        0
176
     1
 90
       50
176
     1
 90
        3
176
     1
 62
     5
420
      255
176
     1
290
     0
176
     1
 90
       50
176
     1
 90
       50
176
     1
 90
       50
176
     1
290
     0
176
     1
 90
       50
176
     1
 62
   256
176
     0
 40
1.0
176
     0
 90
        2
176
     1
  1
strokes_ogs.tif
176
     1
290
     0
176
     1
 40
1.0
176
     1
 40
1.0
176
     1
1001
ACAD
1000
AcDbSavedByObjectVersion
1070
     0
  0
VISUALSTYLE
  5
69DF
102
{ACAD_REACTORS
330
69C9
102
}
330
69C9
100
AcDbVisualStyle
  2

 70
    20
177
     3
291
     1
 70
    58
 90
        2
176
     0
 90
        2
176
     0
 90
        0
176
     0
 90
        0
176
     0
 40
0.6
176
     0
 40
30.0
176
     0
 62
     7
176
     0
 90
        1
176
     0
 90
        4
176
     0
 62
     7
176
     0
 62
   257
176
     0
 90
        1
176
     0
 90
        1
176
     0
 40
1.0
176
     0
 90
       10
176
     2
 62
     7
176
     0
 40
1.0
176
     0
 90
        1
176
     0
 90
        6
176
     0
 90
        2
176
     0
 62
     7
176
     0
 90
        5
176
     0
 90
        0
176
     0
 90
        0
176
     0
290
     0
176
     0
 90
        1
176
     0
 40
0.0
176
     0
 90
        0
176
     0
290
     0
176
     1
290
     1
176
     1
290
     1
176
     1
290
     0
176
     1
290
     0
176
     1
290
     0
176
     1
290
     0
176
     1
290
     0
176
     1
290
     0
176
     1
 90
       50
176
     0
 40
0.0
176
     0
 40
1.0
176
     0
 90
        0
176
     0
 62
    18
420
        0
176
     0
 90
       50
176
     0
 90
        3
176
     0
 62
     5
420
      255
176
     0
290
     0
176
     1
 90
       50
176
     0
 90
       50
176
     0
 90
       50
176
     0
290
     0
176
     1
 90
       50
176
     0
 62
   256
176
     0
 40
1.0
176
     0
 90
        2
176
     0
  1
strokes_ogs.tif
176
     0
290
     0
176
     1
 40
1.0
176
     0
 40
1.0
176
     0
1001
ACAD
1000
AcDbSavedByObjectVersion
1070
     0
  0
VISUALSTYLE
  5
69D7
102
{ACAD_REACTORS
330
69C9
102
}
330
69C9
100
AcDbVisualStyle
  2

 70
    14
177
     3
291
     1
 70
    58
 90
        2
176
     1
 90
        2
176
     1
 90
        0
176
     1
 90
        0
176
     1
 40
0.6
176
     1
 40
30.0
176
     1
 62
     7
176
     1
 90
        1
176
     1
 90
        4
176
     1
 62
     7
176
     1
 62
   257
176
     1
 90
        7
176
     1
 90
        7
176
     1
 40
1.0
176
     1
 90
        8
176
     1
 62
     7
176
     1
 40
1.0
176
     1
 90
        1
176
     1
 90
        6
176
     1
 90
        2
176
     1
 62
     7
176
     1
 90
        5
176
     1
 90
        0
176
     1
 90
        0
176
     1
290
     0
176
     1
 90
        1
176
     1
 40
0.0
176
     1
 90
        0
176
     1
290
     0
176
     1
290
     1
176
     1
290
     1
176
     1
290
     0
176
     1
290
     0
176
     1
290
     0
176
     1
290
     0
176
     1
290
     0
176
     1
290
     0
176
     1
 90
       50
176
     1
 40
0.0
176
     1
 40
1.0
176
     1
 90
        0
176
     1
 62
    18
420
        0
176
     1
 90
       50
176
     1
 90
        3
176
     1
 62
     5
420
      255
176
     1
290
     0
176
     1
 90
       50
176
     1
 90
       50
176
     1
 90
       50
176
     1
290
     0
176
     1
 90
       50
176
     1
 62
   256
176
     0
 40
1.0
176
     0
 90
        2
176
     1
  1
strokes_ogs.tif
176
     1
290
     0
176
     1
 40
1.0
176
     1
 40
1.0
176
     1
1001
ACAD
1000
AcDbSavedByObjectVersion
1070
     0
  0
VISUALSTYLE
  5
69E0
102
{ACAD_REACTORS
330
69C9
102
}
330
69C9
100
AcDbVisualStyle
  2

 70
    21
177
     3
291
     1
 70
    58
 90
        2
176
     0
 90
        2
176
     0
 90
        0
176
     0
 90
        0
176
     0
 40
0.6
176
     0
 40
30.0
176
     0
 62
     7
176
     0
 90
        1
176
     0
 90
        4
176
     0
 62
     7
176
     0
 62
   257
176
     0
 90
        1
176
     0
 90
        1
176
     0
 40
1.0
176
     0
 90
        9
176
     2
 62
     7
176
     0
 40
1.0
176
     0
 90
        1
176
     0
 90
        6
176
     0
 90
        2
176
     0
 62
     7
176
     0
 90
        5
176
     0
 90
        0
176
     0
 90
        0
176
     0
290
     0
176
     0
 90
        1
176
     0
 40
0.0
176
     0
 90
        0
176
     0
290
     0
176
     1
290
     1
176
     1
290
     1
176
     1
290
     0
176
     1
290
     0
176
     1
290
     0
176
     1
290
     0
176
     1
290
     0
176
     1
290
     0
176
     1
 90
       50
176
     0
 40
0.0
176
     0
 40
1.0
176
     0
 90
        0
176
     0
 62
    18
420
        0
176
     0
 90
       50
176
     0
 90
        3
176
     0
 62
     5
420
      255
176
     0
290
     0
176
     1
 90
       50
176
     0
 90
       50
176
     0
 90
       50
176
     0
290
     0
176
     1
 90
       50
176
     0
 62
   256
176
     0
 40
1.0
176
     0
 90
        2
176
     0
  1
strokes_ogs.tif
176
     0
290
     0
176
     1
 40
1.0
176
     0
 40
1.0
176
     0
1001
ACAD
1000
AcDbSavedByObjectVersion
1070
     0
  0
VISUALSTYLE
  5
69D3
102
{ACAD_REACTORS
330
69C9
102
}
330
69C9
100
AcDbVisualStyle
  2

 70
     8
177
     3
291
     0
 70
    58
 90
        2
176
     1
 90
        3
176
     1
 90
        0
176
     1
 90
        2
176
     1
 40
0.6
176
     1
 40
30.0
176
     1
 62
     7
176
     1
 90
        0
176
     1
 90
        0
176
     1
 62
     7
176
     1
 62
   257
176
     1
 90
        1
176
     1
 90
        1
176
     1
 40
1.0
176
     1
 90
        8
176
     1
 62
   257
176
     1
 40
1.0
176
     1
 90
        1
176
     1
 90
        6
176
     1
 90
        2
176
     1
 62
     7
176
     1
 90
        3
176
     1
 90
        0
176
     1
 90
        0
176
     1
290
     0
176
     1
 90
       13
176
     1
 40
0.0
176
     1
 90
        0
176
     1
290
     0
176
     1
290
     1
176
     1
290
     1
176
     1
290
     0
176
     1
290
     0
176
     1
290
     0
176
     1
290
     0
176
     1
290
     0
176
     1
290
     0
176
     1
 90
       50
176
     1
 40
0.0
176
     1
 40
1.0
176
     1
 90
        0
176
     1
 62
    18
420
        0
176
     1
 90
       50
176
     1
 90
        3
176
     1
 62
     5
420
      255
176
     1
290
     0
176
     1
 90
       50
176
     1
 90
       50
176
     1
 90
       50
176
     1
290
     0
176
     1
 90
       50
176
     1
 62
   256
176
     0
 40
1.0
176
     0
 90
        2
176
     1
  1
strokes_ogs.tif
176
     1
290
     0
176
     1
 40
1.0
176
     1
 40
1.0
176
     1
1001
ACAD
1000
AcDbSavedByObjectVersion
1070
     0
  0
VISUALSTYLE
  5
69DE
102
{ACAD_REACTORS
330
69C9
102
}
330
69C9
100
AcDbVisualStyle
  2

 70
    27
177
     3
291
     0
 70
    58
 90
        2
176
     1
 90
        2
176
     1
 90
        1
176
     1
 90
        2
176
     1
 40
0.6
176
     1
 40
30.0
176
     1
 62
     7
176
     1
 90
        0
176
     1
 90
        4
176
     1
 62
     7
176
     1
 62
   257
176
     1
 90
        1
176
     1
 90
        1
176
     1
 40
1.0
176
     1
 90
        8
176
     1
 62
   257
176
     1
 40
1.0
176
     1
 90
        1
176
     1
 90
        6
176
     1
 90
        2
176
     1
 62
     8
176
     1
 90
        3
176
     1
 90
        0
176
     1
 90
        0
176
     1
290
     0
176
     1
 90
        5
176
     1
 40
0.0
176
     1
 90
        0
176
     1
290
     0
176
     1
290
     1
176
     1
290
     1
176
     1
290
     0
176
     1
290
     0
176
     1
290
     0
176
     1
290
     0
176
     1
290
     0
176
     1
290
     0
176
     1
 90
       50
176
     1
 40
0.0
176
     1
 40
1.0
176
     1
 90
        0
176
     1
 62
    18
420
        0
176
     1
 90
       50
176
     1
 90
        3
176
     1
 62
     5
420
      255
176
     1
290
     0
176
     1
 90
       50
176
     1
 90
       50
176
     1
 90
       50
176
     1
290
     0
176
     1
 90
       50
176
     1
 62
   256
176
     0
 40
1.0
176
     0
 90
        2
176
     1
  1
strokes_ogs.tif
176
     1
290
     0
176
     1
 40
1.0
176
     1
 40
1.0
176
     1
1001
ACAD
1000
AcDbSavedByObjectVersion
1070
     0
  0
VISUALSTYLE
  5
69DD
102
{ACAD_REACTORS
330
69C9
102
}
330
69C9
100
AcDbVisualStyle
  2

 70
    26
177
     3
291
     0
 70
    58
 90
        2
176
     1
 90
        2
176
     1
 90
        1
176
     1
 90
        2
176
     1
 40
0.6
176
     1
 40
30.0
176
     1
 62
     7
176
     1
 90
        1
176
     1
 90
       10
176
     1
 62
     7
176
     1
 62
   257
176
     1
 90
        2
176
     1
 90
        1
176
     1
 40
1.0
176
     1
 90
        8
176
     1
 62
   257
176
     1
 40
1.0
176
     1
 90
        1
176
     1
 90
        6
176
     1
 90
        2
176
     1
 62
     7
176
     1
 90
        3
176
     1
 90
        0
176
     1
 90
        0
176
     1
290
     0
176
     1
 90
        5
176
     1
 40
0.0
176
     1
 90
        0
176
     1
290
     0
176
     1
290
     1
176
     1
290
     1
176
     1
290
     0
176
     1
290
     0
176
     1
290
     0
176
     1
290
     0
176
     1
290
     0
176
     1
290
     0
176
     1
 90
       50
176
     1
 40
0.0
176
     1
 40
1.0
176
     1
 90
        0
176
     1
 62
    18
420
        0
176
     1
 90
       50
176
     1
 90
        3
176
     1
 62
     5
420
      255
176
     1
290
     0
176
     1
 90
       50
176
     1
 90
       50
176
     1
 90
       50
176
     1
290
     0
176
     1
 90
       50
176
     1
 62
   256
176
     0
 40
1.0
176
     0
 90
        2
176
     1
  1
strokes_ogs.tif
176
     1
290
     0
176
     1
 40
1.0
176
     1
 40
1.0
176
     1
1001
ACAD
1000
AcDbSavedByObjectVersion
1070
     0
  0
VISUALSTYLE
  5
69DA
102
{ACAD_REACTORS
330
69C9
102
}
330
69C9
100
AcDbVisualStyle
  2

 70
    23
177
     3
291
     0
 70
    58
 90
        2
176
     1
 90
        2
176
     1
 90
        3
176
     1
 90
        0
176
     1
 40
0.6
176
     1
 40
30.0
176
     1
 62
     7
176
     1
 90
        2
176
     1
 90
        2
176
     1
 62
     7
176
     1
 62
     7
176
     1
 90
        1
176
     1
 90
        1
176
     1
 40
40.0
176
     1
 90
        8
176
     1
 62
     7
176
     1
 40
1.0
176
     1
 90
        1
176
     1
 90
        6
176
     1
 90
        2
176
     1
 62
     7
176
     1
 90
        3
176
     1
 90
        0
176
     1
 90
        0
176
     1
290
     0
176
     1
 90
        1
176
     1
 40
0.0
176
     1
 90
        0
176
     1
290
     0
176
     1
290
     1
176
     1
290
     1
176
     1
290
     0
176
     1
290
     0
176
     1
290
     0
176
     1
290
     0
176
     1
290
     0
176
     1
290
     0
176
     1
 90
       50
176
     1
 40
0.0
176
     1
 40
1.0
176
     1
 90
        0
176
     1
 62
    18
420
        0
176
     1
 90
       50
176
     1
 90
        3
176
     1
 62
     5
420
      255
176
     1
290
     0
176
     1
 90
       50
176
     1
 90
       50
176
     1
 90
       50
176
     1
290
     0
176
     1
 90
       50
176
     1
 62
   256
176
     0
 40
1.0
176
     0
 90
        2
176
     1
  1
strokes_ogs.tif
176
     1
290
     0
176
     1
 40
1.0
176
     1
 40
1.0
176
     1
1001
ACAD
1000
AcDbSavedByObjectVersion
1070
     0
  0
VISUALSTYLE
  5
69DB
102
{ACAD_REACTORS
330
69C9
102
}
330
69C9
100
AcDbVisualStyle
  2

 70
    24
177
     3
291
     0
 70
    58
 90
        1
176
     1
 90
        2
176
     1
 90
        2
176
     1
 90
        0
176
     1
 40
0.6
176
     1
 40
30.0
176
     1
 62
     7
176
     1
 90
        2
176
     1
 90
        2
176
     1
 62
     7
176
     1
 62
     7
176
     1
 90
        1
176
     1
 90
        1
176
     1
 40
40.0
176
     1
 90
       11
176
     1
 62
     7
176
     1
 40
1.0
176
     1
 90
        1
176
     1
 90
        6
176
     1
 90
        2
176
     1
 62
     7
176
     1
 90
        6
176
     1
 90
        0
176
     1
 90
        0
176
     1
290
     0
176
     1
 90
        1
176
     1
 40
0.0
176
     1
 90
        0
176
     1
290
     0
176
     1
290
     1
176
     1
290
     1
176
     1
290
     0
176
     1
290
     0
176
     1
290
     0
176
     1
290
     0
176
     1
290
     0
176
     1
290
     0
176
     1
 90
       50
176
     1
 40
0.0
176
     1
 40
1.0
176
     1
 90
        0
176
     1
 62
    18
420
        0
176
     1
 90
       50
176
     1
 90
        3
176
     1
 62
     5
420
      255
176
     1
290
     0
176
     1
 90
       50
176
     1
 90
       50
176
     1
 90
       50
176
     1
290
     0
176
     1
 90
       50
176
     1
 62
   256
176
     0
 40
1.0
176
     0
 90
        2
176
     1
  1
strokes_ogs.tif
176
     1
290
     0
176
     1
 40
1.0
176
     1
 40
1.0
176
     1
1001
ACAD
1000
AcDbSavedByObjectVersion
1070
     0
  0
VISUALSTYLE
  5
69D6
102
{ACAD_REACTORS
330
69C9
102
}
330
69C9
100
AcDbVisualStyle
  2

 70
    13
177
     3
291
     1
 70
    58
 90
        2
176
     1
 90
        2
176
     1
 90
        0
176
     1
 90
        0
176
     1
 40
0.6
176
     1
 40
30.0
176
     1
 62
     7
176
     1
 90
        1
176
     1
 90
        4
176
     1
 62
     7
176
     1
 62
   257
176
     1
 90
        1
176
     1
 90
        1
176
     1
 40
1.0
176
     1
 90
       12
176
     1
 62
     7
176
     1
 40
1.0
176
     1
 90
        1
176
     1
 90
        6
176
     1
 90
        2
176
     1
 62
     7
176
     1
 90
        5
176
     1
 90
        0
176
     1
 90
        0
176
     1
290
     0
176
     1
 90
        1
176
     1
 40
0.0
176
     1
 90
        0
176
     1
290
     0
176
     1
290
     1
176
     1
290
     1
176
     1
290
     0
176
     1
290
     0
176
     1
290
     0
176
     1
290
     0
176
     1
290
     0
176
     1
290
     0
176
     1
 90
       50
176
     1
 40
0.0
176
     1
 40
1.0
176
     1
 90
        0
176
     1
 62
    18
420
        0
176
     1
 90
       50
176
     1
 90
        3
176
     1
 62
     5
420
      255
176
     1
290
     0
176
     1
 90
       50
176
     1
 90
       50
176
     1
 90
       50
176
     1
290
     0
176
     1
 90
       50
176
     1
 62
   256
176
     0
 40
1.0
176
     0
 90
        2
176
     1
  1
strokes_ogs.tif
176
     1
290
     0
176
     1
 40
1.0
176
     1
 40
1.0
176
     1
1001
ACAD
1000
AcDbSavedByObjectVersion
1070
     0
  0
VISUALSTYLE
  5
69D0
102
{ACAD_REACTORS
330
69C9
102
}
330
69C9
100
AcDbVisualStyle
  2

 70
     5
177
     3
291
     0
 70
    58
 90
        0
176
     1
 90
        2
176
     1
 90
        0
176
     1
 90
        0
176
     1
 40
0.6
176
     1
 40
30.0
176
     1
 62
     7
176
     1
 90
        1
176
     1
 90
        4
176
     1
 62
     7
176
     1
 62
   257
176
     1
 90
        1
176
     1
 90
        1
176
     1
 40
1.0
176
     1
 90
        0
176
     1
 62
   257
176
     1
 40
1.0
176
     1
 90
        1
176
     1
 90
        6
176
     1
 90
        2
176
     1
 62
     7
176
     1
 90
        3
176
     1
 90
        0
176
     1
 90
        0
176
     1
290
     0
176
     1
 90
        1
176
     1
 40
0.0
176
     1
 90
        0
176
     1
290
     0
176
     1
290
     1
176
     1
290
     1
176
     1
290
     0
176
     1
290
     0
176
     1
290
     0
176
     1
290
     0
176
     1
290
     0
176
     1
290
     0
176
     1
 90
       50
176
     1
 40
0.0
176
     1
 40
1.0
176
     1
 90
        0
176
     1
 62
    18
420
        0
176
     1
 90
       50
176
     1
 90
        3
176
     1
 62
     5
420
      255
176
     1
290
     0
176
     1
 90
       50
176
     1
 90
       50
176
     1
 90
       50
176
     1
290
     0
176
     1
 90
       50
176
     1
 62
   256
176
     0
 40
1.0
176
     0
 90
        2
176
     1
  1
strokes_ogs.tif
176
     1
290
     0
176
     1
 40
1.0
176
     1
 40
1.0
176
     1
1001
ACAD
1000
AcDbSavedByObjectVersion
1070
     0
  0
VISUALSTYLE
  5
69DC
102
{ACAD_REACTORS
330
69C9
102
}
330
69C9
100
AcDbVisualStyle
  2

 70
    25
177
     3
291
     0
 70
    58
 90
        2
176
     1
 90
        2
176
     1
 90
        1
176
     1
 90
        1
176
     1
 40
0.5
176
     1
 40
30.0
176
     1
 62
     7
176
     1
 90
        1
176
     1
 90
        0
176
     1
 62
     7
176
     1
 62
   257
176
     1
 90
        1
176
     1
 90
        1
176
     1
 40
1.0
176
     1
 90
        8
176
     1
 62
     7
176
     1
 40
1.0
176
     1
 90
        1
176
     1
 90
        6
176
     1
 90
        2
176
     1
 62
     7
176
     1
 90
        3
176
     1
 90
        0
176
     1
 90
        0
176
     1
290
     0
176
     1
 90
       13
176
     1
 40
0.0
176
     1
 90
        0
176
     1
290
     0
176
     1
290
     1
176
     1
290
     1
176
     1
290
     0
176
     1
290
     0
176
     1
290
     0
176
     1
290
     0
176
     1
290
     0
176
     1
290
     0
176
     1
 90
       50
176
     1
 40
0.0
176
     1
 40
1.0
176
     1
 90
        0
176
     1
 62
    18
420
        0
176
     1
 90
       50
176
     1
 90
        3
176
     1
 62
     5
420
      255
176
     1
290
     0
176
     1
 90
       50
176
     1
 90
       50
176
     1
 90
       50
176
     1
290
     0
176
     1
 90
       50
176
     1
 62
   256
176
     0
 40
1.0
176
     0
 90
        2
176
     1
  1
strokes_ogs.tif
176
     1
290
     0
176
     1
 40
1.0
176
     1
 40
1.0
176
     1
1001
ACAD
1000
AcDbSavedByObjectVersion
1070
     0
  0
DICTIONARYVAR
  5
6A7F
102
{ACAD_REACTORS
330
5697
102
}
330
5697
100
DictionaryVariables
280
     0
  1
1:1
  0
DICTIONARYVAR
  5
6A7C
102
{ACAD_REACTORS
330
5697
102
}
330
5697
100
DictionaryVariables
280
     0
  1
STANDARD
  0
DICTIONARYVAR
  5
6A7B
102
{ACAD_REACTORS
330
5697
102
}
330
5697
100
DictionaryVariables
280
     0
  1
STANDARD
  0
DICTIONARYVAR
  5
6A7D
102
{ACAD_REACTORS
330
5697
102
}
330
5697
100
DictionaryVariables
280
     0
  1
Imperial24
  0
DICTIONARYVAR
  5
6A7E
102
{ACAD_REACTORS
330
5697
102
}
330
5697
100
DictionaryVariables
280
     0
  1
Imperial24
  0
DICTIONARYVAR
  5
5698
102
{ACAD_REACTORS
330
5697
102
}
330
5697
100
DictionaryVariables
280
     0
  1
1
  0
DICTIONARYVAR
  5
6A81
102
{ACAD_REACTORS
330
5697
102
}
330
5697
100
DictionaryVariables
280
     0
  1
0
  0
DICTIONARYVAR
  5
6D7D
102
{ACAD_REACTORS
330
5697
102
}
330
5697
100
DictionaryVariables
280
     0
  1
1
  0
DICTIONARYVAR
  5
6D7E
102
{ACAD_REACTORS
330
5697
102
}
330
5697
100
DictionaryVariables
280
     0
  1
15
  0
DICTIONARYVAR
  5
6D7C
102
{ACAD_REACTORS
330
5697
102
}
330
5697
100
DictionaryVariables
280
     0
  1
0
  0
DICTIONARYVAR
  5
6D7B
102
{ACAD_REACTORS
330
5697
102
}
330
5697
100
DictionaryVariables
280
     0
  1
0
  0
DICTIONARYVAR
  5
6A80
102
{ACAD_REACTORS
330
5697
102
}
330
5697
100
DictionaryVariables
280
     0
  1
127
  0
DICTIONARY
  5
6D82
330
69FC
100
AcDbDictionary
280
     1
281
     1
  3
ACAD_XREC_ROUNDTRIP
360
6D83
  0
DICTIONARY
  5
69BA
330
69B9
100
AcDbDictionary
280
     1
281
     1
  3
ACAD_XREC_ROUNDTRIP
360
6ADA
  3
BUMPTILE
360
69BC
  3
DIFFUSETILE
360
69BB
  3
OPACITYTILE
360
69BF
  3
REFLECTIONTILE
360
69BE
  3
REFRACTIONTILE
360
69C0
  3
SPECULARTILE
360
69BD
  0
DICTIONARY
  5
69B2
330
69B1
100
AcDbDictionary
280
     1
281
     1
  3
ACAD_XREC_ROUNDTRIP
360
6AD9
  3
BUMPTILE
360
69B4
  3
DIFFUSETILE
360
69B3
  3
OPACITYTILE
360
69B7
  3
REFLECTIONTILE
360
69B6
  3
REFRACTIONTILE
360
69B8
  3
SPECULARTILE
360
69B5
  0
DICTIONARY
  5
69C2
330
69C1
100
AcDbDictionary
280
     1
281
     1
  3
ACAD_XREC_ROUNDTRIP
360
6ADB
  3
BUMPTILE
360
69C4
  3
DIFFUSETILE
360
69C3
  3
FBXASSET
360
6A7A
  3
OPACITYTILE
360
69C7
  3
REFLECTIONTILE
360
69C6
  3
REFRACTIONTILE
360
69C8
  3
SPECULARTILE
360
69C5
  0
DICTIONARY
  5
6D80
330
69FA
100
AcDbDictionary
280
     1
281
     1
  3
ACAD_XREC_ROUNDTRIP
360
6D81
  0
DICTIONARY
  5
6ACF
330
69E4
100
AcDbDictionary
280
     1
281
     1
  3
ACAD_ROUNDTRIP_2008_TABLESTYLE_CELLSTYLEMAP
360
6D7F
  0
XRECORD
  5
6D83
102
{ACAD_REACTORS
330
6D82
102
}
330
6D82
100
AcDbXrecord
280
     1
102
DISPLAYNAME
  1
Imperial24
102
FLAGS
 90
        0
  0
XRECORD
  5
6ADA
102
{ACAD_REACTORS
330
69BA
102
}
330
69BA
100
AcDbXrecord
280
     1
102
MATERIAL
148
0.0
149
0.0
149
0.0
 93
        0
 94
      127
282
     0
 72
     0
 77
     0
171
     0
175
     0
179
     0
273
     0
  0
XRECORD
  5
69BC
102
{ACAD_REACTORS
330
69BA
102
}
330
69BA
100
AcDbXrecord
280
     1
270
     1
271
     1
  0
XRECORD
  5
69BB
102
{ACAD_REACTORS
330
69BA
102
}
330
69BA
100
AcDbXrecord
280
     1
270
     1
271
     1
  0
XRECORD
  5
69BF
102
{ACAD_REACTORS
330
69BA
102
}
330
69BA
100
AcDbXrecord
280
     1
270
     1
271
     1
  0
XRECORD
  5
69BE
102
{ACAD_REACTORS
330
69BA
102
}
330
69BA
100
AcDbXrecord
280
     1
270
     1
271
     1
  0
XRECORD
  5
69C0
102
{ACAD_REACTORS
330
69BA
102
}
330
69BA
100
AcDbXrecord
280
     1
270
     1
271
     1
  0
XRECORD
  5
69BD
102
{ACAD_REACTORS
330
69BA
102
}
330
69BA
100
AcDbXrecord
280
     1
270
     1
271
     1
  0
XRECORD
  5
6AD9
102
{ACAD_REACTORS
330
69B2
102
}
330
69B2
100
AcDbXrecord
280
     1
102
MATERIAL
148
0.0
149
0.0
149
0.0
 93
        0
 94
      127
282
     0
 72
     0
 77
     0
171
     0
175
     0
179
     0
273
     0
  0
XRECORD
  5
69B4
102
{ACAD_REACTORS
330
69B2
102
}
330
69B2
100
AcDbXrecord
280
     1
270
     1
271
     1
  0
XRECORD
  5
69B3
102
{ACAD_REACTORS
330
69B2
102
}
330
69B2
100
AcDbXrecord
280
     1
270
     1
271
     1
  0
XRECORD
  5
69B7
102
{ACAD_REACTORS
330
69B2
102
}
330
69B2
100
AcDbXrecord
280
     1
270
     1
271
     1
  0
XRECORD
  5
69B6
102
{ACAD_REACTORS
330
69B2
102
}
330
69B2
100
AcDbXrecord
280
     1
270
     1
271
     1
  0
XRECORD
  5
69B8
102
{ACAD_REACTORS
330
69B2
102
}
330
69B2
100
AcDbXrecord
280
     1
270
     1
271
     1
  0
XRECORD
  5
69B5
102
{ACAD_REACTORS
330
69B2
102
}
330
69B2
100
AcDbXrecord
280
     1
270
     1
271
     1
  0
XRECORD
  5
6ADB
102
{ACAD_REACTORS
330
69C2
102
}
330
69C2
100
AcDbXrecord
280
     1
102
MATERIAL
148
0.0
149
0.0
149
0.0
 93
        0
 94
      127
282
     0
 72
     0
 77
     0
171
     0
175
     0
179
     0
273
     0
  0
XRECORD
  5
69C4
102
{ACAD_REACTORS
330
69C2
102
}
330
69C2
100
AcDbXrecord
280
     1
270
     1
271
     1
  0
XRECORD
  5
69C3
102
{ACAD_REACTORS
330
69C2
102
}
330
69C2
100
AcDbXrecord
280
     1
270
     1
271
     1
  0
XRECORD
  5
6A7A
102
{ACAD_REACTORS
330
69C2
102
}
330
69C2
100
AcDbXrecord
280
     1
 70
     1
 90
652598616
 71
     1
  1
76931DD9-8B40-472D-AA95-C1B391C74F1D
311
504B03041400060808006C7F6A48BBC2DB10DB000000200100004F00000042413844333339322D384533442D343836352D423832412D3842413443394233303533322F4173736574446174612F446566696E6974696F6E4974657261746F7250726F706572746965732E62696E454E3D6FC23010753B5075E8D07F80D88D3F
311
9AA424022A02A453BB94A90B3ACC1122390EB21DA963C7FEEB62AB549CF4EEDDE7BBFB2184FC5E2C84E426E03BF887C0AF68D036EA431DB105328815DDED40DF5D7BB7218CE90A0FD06B1FB7DE1AA7506B30D8F5EEF13A3A6CC10739D0E3B8741FF05F7051A1FE3B16EFBF07C49722C3FE54BC8073E867ECB0FB62EB452957
311
CF554973512D6892494127D9724D9349B5E43917522425B3E8BADE2A744C32BEBD286F4FA6C6D948590C7FEC4773C94546F913157C23D222CD0B997E4E996F5A9C4F9DB78DA98706DA33504B03041400060808006C7F6A48231A115108010000300200004500000042413844333339322D384533442D343836352D42383241
311
2D3842413443394233303533322F4173736574446174612F496E7374616E636550726F706572746965732E62696EEB606060F80F0540260323103700495E20ED9E9A975A94991C9C9C919A9BA802143037B334367471B1D4B5703231D035313772D17574B434D575367432B634743637713374614768046931363471713532
311
B5D435353131D635313332D475727372D13534373670367376B67474B5042A03DBCBA019D37FE8ABC6157B20CD04146B0062181F4C03F940F0C11EA29A8141C08141002C0426541C106CAC2CA046088033B02A030AC2157C6006F21A8018AAF50194E6010A610250382264E08660284CD9E98021862280A91564B406929A0F
311
F62C401E28B6F88038B83CB1243943D7A928312F2535052403033A40862310E7F0F23234F1CAC284516890D9300164F53B786FC184E13400504B03041400060808006C7F6A4828BB58AF800100009E0500003D00000042413844333339322D384533442D343836352D423832412D3842413443394233303533322F53636865
311
6D61732F436F6D6D6F6E536368656D612E786D6CBD544D4FC23018BEFB2B96DE15493C78601010A34B880709DEDFB52FD0D8B54BD70DF6EFED3AC0B12E6442E2716BFB3CEFF3D18E26FB440405EA8C2B1992E1C323095052C5B8DC842437EBFB673219DF8DA659866649B798C078B48AE6410122242F2A4994AC7F93815DF8
311
5C049C8564CA0A901499DD886B2EB9B1E02448F358701A9235880C49A0119892A20C89D1B9FD768815CAD268CB5E0355B40B1E47F3E37A2020464BED06AA57CE8FCC20C3C3446D46761A2632A8C1283D07031EFF2AE7CCB1BFEEE916E406DFAC8E36FFD99A9D60A6944090EEDC3B670C7DC13DE86B6B2C5C240D6E503BB85A
311
CD579D513F1B9F9A69DC9CC22AFA80C426D40AF0B21EA168559156B6276F0F726A6BFF04DCD513A87A62CAD41FB24FCB2858B3952E3D852084DA25B9303C15687973CC8E8AAE11DF2836C38C6A9E765E8C1BA1BFB1DC29CDFE518C8B5A7655A4ED7E77291ABEB80DBD82EC866ADE1B8D05AF9E35CF09D7A061F38A986D9EC4
311
12B8F0F65E5D81534D9B231D1E5A8FE577A241F3A5FD01504B03041400060808006C7F6A482CCEBD668A040000E01200003E00000042413844333339322D384533442D343836352D423832412D3842413443394233303533322F536368656D61732F47656E65726963536368656D612E786D6CD5586D6FDB380CFE7EBF42F0
311
F7A649B70E1B90744856B4970F450FCD7A5F05459613EDE4174872DADCAF3F522F8ED3B88D2F1D06AC4050DBA2493EE4438AF2F8EB73AEC8466823CB62928C06C384888297A92C5693A4B6D9D9E7E4EBD51FE3A931C22EF85AE4EC6AFC38BF261BA626C9AD288496DC3F4FCEAFC63366845F7A10452AF41DB320C0D44EC26E
311
AB20918735565582695670811A6A49643A49A6E9069FA4604A64B29016DC4B48552F95E4932463CA888468C1D2B250DB4962750DF7CE273069CE8363F1FF4EDB00E0A21999574AE4A2B00C353B93F3BD4777B8A61ED8F604ABFEDD79CE56A2B7BDFBDBC50996E0ADDE16FED26223C5D30956C29BDF4A55EA686E5E58B112DA
311
45CE67F76F4FA27EFA3FB672FD7372FC388FAECDCA5209E693CAD167BADCD272F943701B3812F8A3D852008B1D2E32DB927B2F833C6EA95879925356D254582695095A3CE982924720BE5774A3CB9CDCDB350427D2DF20DA1B5532EBE2D5D6288D75D4F7E4FD9890A0EF8E3D93EBB8F8BA4758158EF6FB90A6F9520281C93D
311
E7AAC6D24607DA296BB96018123F821A7D6A5C5884050C475DA4865442732C8B95684A50165CBB3A32F25F783A4A480ED59AD7F924B968AEA50131F46303223E6A397B0E52976030DC1DCA81D7E7C1EDEEA42C19FF27635C505E2BD5198A599020DF50A2330FCB3AAF28CB0124108429553EF1B228802E2265D8F7CC240104
311
2B155BCC7070F1E5C55F13B4A9577362CCCE46C32174E010C3C378C44841A4BDA00FE3A12006CE11EE6AEC59894D3526DDE1CD59D503ECC324017F8061B7F162162FA62EDD81AE3308617770796DCBDAD2B2625C5AE8A63DE20B2C8AA5E95E76E5730823955956E33E705425A2187C185D36489A1B44D3DCEC2172F6BA2105
311
C3546287A7194B2331768EBBE64F6E70A9930ABE0ADEA89E9E2C38523B810287AD67A54A039C1606EAFE68F8304610BB9093DBDDABC0B2AE4E290DCDA15376D7E39F72B556F0B32EAB5D3D498B4C41ABADEC3A1434C422D87E8025A84BDCB2B1417ED750FAE4DA8976863974C577C7F902D3F156AD354DEA3540DE6BEAE2BE
311
A52F7A2EB4CA43802ECE5BF2CE2EDC9347179FFB023CE412E60BE16DA0BE29B374988A553F561DC04615DD35F7D2C8979F60E5955CE93DF29DED8AFA1EE6642D53418086C03C47C377910F75F7E8F5EF665F70B60FFB22AEDF897D119E8423C773E819A3C1E55E550599EE6EDCA34D0C86FD72057DF2CD46F16A470682471C
311
164E4346D5306BF12D7D12D82CFF673D41636C347443FEB51B50D72EA171A8E4A58623A4A16E0FA2B8B10A0D23268D87C33896EE8FB73305A74BF224EDBADFA0BD674AB354D63DB7BD5D83426761C077DE767728235446A552754EB93B755891C3C4CC6CADE37CF0E912A7BB38DBA010F9DE1282EDF470CA69A9CDA482E334
311
C4A6EA4107987980B17E72F31730EBF88BBD39E7C629F56797A3C0009C2C5AE7951D9A05A02773440F02EEB4DE396A3B6A570C72CCFBCD823B0B8ED3F1D5CEDDFED772FA70236C83FB7D86C385D570B87107535572A60A96035F8F7C6A7192F13007246BBE0521855E6AC46F3E27689CEE7D186A6FD679D98CDCAD13333E04
311
EBE7ED6F55FF01504B03041400060808006C7F6A486180134D5F0100006B0300004500000042413844333339322D384533442D343836352D423832412D3842413443394233303533322F536368656D61732F52656E6465724D6174657269616C536368656D612E786D6CA5934D6FC2300C86EFFB1551EEE343DBA41D1A1030
311
09551ADAD40EAE28A4A68D9426284961FCFBE5A340113B2071746D3F765EBF4DC6BFB5407BD0862B49F0B037C0082453059725C18DDD3EBFE3F1E829991803366715D474942CD30FB4A782E00C64017A412D684E454CE3FE28995203B162A6EA5AC94B66997D225E109CD63B0135484BAD1B3C07E9080CA35DB3119C11BCA5
311
C200461A68A1A438126C75E3E230D40FF81FB3F03C91D1E3A3A0AF79FE28E25BC39EC3E17E4C2A2D94A0833A51AF55BCCA7D88572FCBAC529C4140B020FC3AAFA886621DCED7EAD7664CC86024E806DC297DA1BB393E4156543457A4537DB8817349A70F8ACBF09B3EEE2CB2F33E91B65D60786E4E3B39B77E3FEEEF565042
311
4525DA657FB8B46BE6BF064646F0A0F7327C0BC1BC1B4CBBC1C419FA3CCB23500007872A2580CAAE5461865565294E4EDB4617B62FF579DF9A5B2F54E834076A597573A020912FED777F9B3F504B03041400060808006C7F6A488BF72FFD51000000570000004700000042413844333339322D384533442D343836352D4238
311
32412D3842413443394233303533322F4173736574446174612F41737365745461626C654F66436F6E74656E74732E62696E536160603037B334367471B1D4B5703231D035313772D17574B434D575367432B6347436377133741102AACB4D2C492DCA4CCC492C28484D2C4ACC4B4E050A82012F90744FCD03CA26072767A4
311
E6260200504B03041400060808006C7F6A48F865834058000000680000004500000042413844333339322D384533442D343836352D423832412D3842413443394233303533322F4173736574446174612F53747265616D56657273696F6E5461626C652E696E66558CBD0A80300C06F73E4B117FB66E451741D041DC5BF984
311
80A492E4FDD18EAEC7DD4555D89EF28DF51A0B1BD8340C4DE7DD848B988C0ACF0649566493F2408C508DDEBB99D5129FF8F1AF8CF5B9503E20FAE5A16B5AF702504B03041400060808006C7F6A48B7927D96350100009A0400003600000042413844333339322D384533442D343836352D423832412D384241344339423330
311
3533322F4173736574446174612F636E782E786D6CCD94314FC3301085FF4AE43D7652540495E30AC1D209242A06B6AB7369AD3A76645F10FC7BEC3403A888A943D7F3BBF3F327BF93EBCFDE161F18A2F1AE6135AF58814EFBD6B87DC346EACA3B56AC950CDED30F192B1CF4D8B05C664AEE831F87B9D46207A3CD556BDC71
311
2E3EC488B4859DC5E7EED13B42479115DA428C0D8BFA803D7018C9B7188FBC05025EF380D18F41639A44A6C779920E08842D538BAABE2DAB9BB2AEB6F572B5BC5F2D96EF5264A5923BEFEDAC37E9B2E087429F6E65AA92221F2B3906336BF25B98FACB23DF192745522A1929242673077D0DA90386C11A0D94D009AF09A94C
311
22845E8A9358499119FC22F1849D7126B76C9231201F5E923D0C64F0EA88FCE7F5F264362E12388DD7CBE3DCE1E529BC4E3FE8ED14C82931D796937387DCB8EE022911D31A49A1C95B457D03504B03041400060808006C7F6A4836DFA6CD090100004F0300003400000042413844333339322D384533442D343836352D4238
311
32412D3842413443394233303533322F536368656D61732F636E782E786D6CCD93BD4E042114855F65423F30B3668C6E18B6B0B0B2512B3B84BBBB64813BE1C7E8DB0B23C56E62A7C57670F842CE395CF8EED3D9EE034234E86732D28174E0156AE30F33C969DFDF916E2778404C6718E9BC7430932A13C10F01F3D2240D7B
311
996D55ADF1A7263EA073E85FD4119C249DB232C699C4754B654EA8219EA89649D29106889883827243320EDA0D2A804CA089D80CE36D3FDCF4E3F03A4EDBE97EBB99DE38ABA4E0EF88B6F1C62708B8740ACBC2173B0367F558F01C4C636A0622CEBDD1D2066785103CA6503A6864FA5A0A2997C51A2553A98AADE00F2338AB
311
512F023F828760D47526BE30F76F919FC16B084FE5958291F63A93FFE6F16F05B075F6CB08D4AF20BE01504B03041400060808006C7F6A48410A3D5871000000A40000002C00000042413844333339322D384533442D343836352D423832412D3842413443394233303533322F636E782E786D6C55CC4D0E82301086E1AB34
311
B31774E7A22D31F1069E60020334B633A63FC6E34B0909B07DDE2F9FEE7EC1AB2FC5E4840DDC9A2B28E25E06C7938192C7CB1D54677514C9871928C640062A83D55394F2D968A0118BAFEA1DBF377CA444F98919176EAB9FEAAB9F2960DA5BBB1E2ED3FA6FFF504B03041400060808006C7F6A48FE772DD17E000000A30000
311
0007000000636E782E786D6C4D8CD10E822018465F85FDF79481B6DF4D70903D884B742C0447D27AFCA079D1D5B79D7DE774FD6775E46DE2CB062FE072AA8018FF0893F58B80B4CF1481F4B28B21EC7F37207E5C8D808241764B0C693BD064E631B9429DF5CF036A8503E72DA378E703ADF1DA508D4C51D4AABEB59A570D67
311
D9381725CFAF97B7E4E517504B03041400060808006C7F6A4816E99B5DA600000035010000130000005B436F6E74656E745F54797065735D2E786D6C9590410E82301045AFD2740F4517C6180A0BF5065E60AC53688469D30E066F6F91AD9AB89CF9FFFD3F99BA9DC7413C3026E749CB4D59498164FCCD51A7E5C4B6D84BD1
311
36F5E5193089ECA5A465CF1C0E4A25D3E308A9F401292BD6C711388FB15301CC1D3A54DBAADA29E38991B8E0254336F5092D4C038BF39CD76B6FC6A538AEBEA54A4B08617006389FA516557DE4AE8E7E70DE30729138228C5F021CD93F02D4FB0DCD0B504B03041400060808006C7F6A483DEE336E64000000790000001B00
311
00006175746F6465736B2D64657369676E2D7061636B6167652E786D6C35CBC10E83200C00D05F21DCA56CA76D41FC96062B120735B69A7DBE268BB7777961F8D5AF396893C2ADB70FE7ADA196782C2DF776D7A97B5933C430F15651E5469C55D70F80A4992A3ADC954792C525AE70A1E4D6AD9816CC044FEFDF01FE3FDE90
311
7802504B03041400060808006C7F6A483FC90E5DF9000000960100003700000042413844333339322D384533442D343836352D423832412D3842413443394233303533322F4173736574446174612F636F72652E786D6C8550CB6E833010FC15B477836D022591715492E60B7AEACD320EB1126CE447D5CFAF1DA8D49E7ADA
311
D5ECCCECEEB0E3D7FC283E95F3DA9A1E4889A15046DA519BA98718AEA883E2C899B336FCA24161C4AC7AC8307036391B970D92D60465326AECA8365078AF0214F2919A1EBCBCA959942286C4F0F77211F22E26559272E57116A31E37A91E939BBE6AE580373B7CBE505AA38E0E35DA75970E75A7F6845E286EF76F180FC3BE
311
6555167316F4FCB35D3A25821A81534C5A846B44F03B690ECDFE409B0F566526673EB8F4F3B6347F07FC355F7D1641B06A9DFE718DCBF8BF6BD426D474735D151E3849473E079C5539A5549E11A69A13E5DF504B03041400060808006C7F6A489649713BF8000000940100003500000042413844333339322D384533442D34
311
3836352D423832412D3842413443394233303533322F536368656D61732F636F72652E786D6C8550CB6E833010FC15B477836D0225917124D2E607DA536F9671A89560233FAA7E7E6DA0527BEA6957B333B3BBC3CE5FF3A3F854CE6B6B7A202586421969476DA61E62B8A10E8A3367CEDAF08B068511B3EA21C3C0D9E46C5C
311
76485A1394C9A8B1A3DA41E1BD0A50C8476A7AF0F243CDA214312486BF978B907731A992941B8FB318F5B84BF598DCF44D2B07BC39E0E72BA535EAE850A34377ED5077692FE889E2F6F882F1301C5B5665316741CF3FDBA55322A81138C5A445B84604BF91E6D41C4FB47967556672E6834B3FEF4BF377C05FD73B3DABB6D9
311
1FCFB88CFF7B466D424D77CF4DE1819374E23AE0ACCA19A5B206986ACE937F03504B03041400060808006C7F6A48D9CB22FA01010000D70100002D00000042413844333339322D384533442D343836352D423832412D3842413443394233303533322F636F72652E786D6C95914D6EC3201085AF62CD1EFF4088EC0813D94D
311
6FD05577D44C5C94182C03558F5F5CBB6ABB6B57A0C7F7667833E2FC3EDDB3375CBC71B6852A2F21433B386DECD8420C575243769662712EFCC020B36AC2165619A4181717E75D1A9C0D6857D53A8DBBA8BCC700D9704F9716FCF08A93CA550C89F0B77C56C34D8D9857F9C64911CCF4651D16540135485A5647523252954F
311
153FF1E644F9B32856528A686C60746F86D30BEACCCD214502C945B1BD262A1ABD3346A73F9AABC10564DFD517C61A4AEA47762187FAC8495FD38ED47D7778687A56724653916496C287254D662FB2CEE0AFF6CDF82B599CF53F936D0E0FB2FA0E55AC6396A2F8DC413AD795C80F504B03041400060808006C7F6A484E8143
311
E407010000B201000008000000636F72652E786D6C8D50C16E842014FC15F2EE28E26A75836CE2B6FB053DF54685B564158CE0A6FDFBC24A93F6D6D32333F3DE0CC34E9FF384EE6A75DA9A0E8A8C005266B0529BB183CD5F7103E8C4D96AADFF250364C4AC3A88307036AE765B123458E39589A8B152255038A73CA0610A8F
311
0EDCF0A1669189CD0785BB658B186E62545991ED3ACEBC9E7F56875509AF24704A8A1A931217E4B5A88E557BA4D51BCBA392B36DD332596919DCF555AB15787520CF174A4BDCD0BEC487E6D2E0E65C9FF1132575FB4248DFB735CBE33267CEAFE1CFE948C8E99113F7E8CBF29DE2ECDDDA2909422889AC99BE80139647E24F
311
E86D91FF08AD8D2F693AB86F38E04508F42082716C308C47BD61C6B6F937504B010214001400060808006C7F6A48BBC2DB10DB000000200100004F000000000000000000000000000000000042413844333339322D384533442D343836352D423832412D3842413443394233303533322F4173736574446174612F44656669
311
6E6974696F6E4974657261746F7250726F706572746965732E62696E504B010214001400060808006C7F6A48231A1151080100003002000045000000000000000000000000004801000042413844333339322D384533442D343836352D423832412D3842413443394233303533322F4173736574446174612F496E7374616E
311
636550726F706572746965732E62696E504B010214001400060808006C7F6A4828BB58AF800100009E0500003D00000000000000000000000000B302000042413844333339322D384533442D343836352D423832412D3842413443394233303533322F536368656D61732F436F6D6D6F6E536368656D612E786D6C504B0102
311
14001400060808006C7F6A482CCEBD668A040000E01200003E000000000000000000000000008E04000042413844333339322D384533442D343836352D423832412D3842413443394233303533322F536368656D61732F47656E65726963536368656D612E786D6C504B010214001400060808006C7F6A486180134D5F0100
311
006B03000045000000000000000000000000007409000042413844333339322D384533442D343836352D423832412D3842413443394233303533322F536368656D61732F52656E6465724D6174657269616C536368656D612E786D6C504B010214001400060808006C7F6A488BF72FFD510000005700000047000000000000
311
00000000000000360B000042413844333339322D384533442D343836352D423832412D3842413443394233303533322F4173736574446174612F41737365745461626C654F66436F6E74656E74732E62696E504B010214001400060808006C7F6A48F865834058000000680000004500000000000000000000000000EC0B00
311
0042413844333339322D384533442D343836352D423832412D3842413443394233303533322F4173736574446174612F53747265616D56657273696F6E5461626C652E696E66504B010214001400060808006C7F6A48B7927D96350100009A0400003600000000000000000000000000A70C000042413844333339322D3845
311
33442D343836352D423832412D3842413443394233303533322F4173736574446174612F636E782E786D6C504B010214001400060808006C7F6A4836DFA6CD090100004F0300003400000000000000000000000000300E000042413844333339322D384533442D343836352D423832412D3842413443394233303533322F53
311
6368656D61732F636E782E786D6C504B010214001400060808006C7F6A48410A3D5871000000A40000002C000000000000000000000000008B0F000042413844333339322D384533442D343836352D423832412D3842413443394233303533322F636E782E786D6C504B010214001400060808006C7F6A48FE772DD17E0000
311
00A3000000070000000000000000000000000046100000636E782E786D6C504B010214001400060808006C7F6A4816E99B5DA6000000350100001300000000000000000000000000E91000005B436F6E74656E745F54797065735D2E786D6C504B010214001400060808006C7F6A483DEE336E64000000790000001B000000
311
00000000000000000000C01100006175746F6465736B2D64657369676E2D7061636B6167652E786D6C504B010214001400060808006C7F6A483FC90E5DF90000009601000037000000000000000000000000005D12000042413844333339322D384533442D343836352D423832412D3842413443394233303533322F417373
311
6574446174612F636F72652E786D6C504B010214001400060808006C7F6A489649713BF8000000940100003500000000000000000000000000AB13000042413844333339322D384533442D343836352D423832412D3842413443394233303533322F536368656D61732F636F72652E786D6C504B010214001400060808006C
311
7F6A48D9CB22FA01010000D70100002D00000000000000000000000000F614000042413844333339322D384533442D343836352D423832412D3842413443394233303533322F636F72652E786D6C504B010214001400060808006C7F6A484E8143E407010000B2010000080000000000000000000000000042160000636F72
311
652E786D6C504B050600000000110011005A0600006F1700000000
310
504B03041400060808006C7F6A48000000000000000000000000370000006662782F45304246303146302D393532362D343438392D413234432D3837463843393135384242382F617474726962757465732E62696E504B03041400060808006C7F6A48000000000000000000000000350000006662782F4530424630314630
310
2D393532362D343438392D413234432D3837463843393135384242382F76657274696365732E62696E504B03041400060808006C7F6A48F270F1330600000004000000360000006662782F45304246303146302D393532362D343438392D413234432D3837463843393135384242382F747269616E676C65732E62696E6366
310
60600000504B03041400060808006C7F6A4851464CB48900000043010000360000006662782F45304246303146302D393532362D343438392D413234432D3837463843393135384242382F6469726563746F72792E786D6C9D8F310EC2300C45AF127987122606C71DD918B841D4B851A43646695A717C52A85029031293A5
310
A76FBF6FACEF7DA7264E43906840EF0FA03836E242F406C6DCEE4EA06AC22492573150D1F66C60C640E8938CB705396EEDD86DE9B5042FE27813D640EA63BB001C722AF6E55CB61E4863F58284D5D3F53DD715CE1C3985E63FD7F1B7EBDD617E9F1E504B03041400060808006C7F6A48DEE546E02D0700001A1C0000340000
310
006662782F45304246303146302D393532362D343438392D413234432D3837463843393135384242382F6F626A656374732E786D6CDD59596FDB3810FE2B84F6D93A7C2451A1B8F011174691B6A8D1C5BE09B4443BDCE80229E5D85FBF438A942559B6956C0B149B0089C350C3996F66BE198EBC8F2F71849E08E3344D6E0D
310
C7B40D4492200D69B2BF358A7C37B831D0C729F2589AE6B57D064A704C6E0DB16C4CBD3D4B8B4C2D8564878BA8BDBA9AFF8578401262A020C29CDF1A3C782031367191A721E18F6688736CEE772FA663961B9B62F70C670FADA332CC489283AAB09E8014A581D3FC134CB2A69E253634B60DFB6D1B9DD96649C39B8AD284E7
310
38098EB46AC919F6D36AE48C9777C3893B988CC7A3C1F86AE80CE6ABF972E05C8FECC5D562E1CEEE5C034DBD6D9A469503329284E0C55763EA7896F84F65BE42A14BEF204D12122834BB368444C9A584B7316900EB48D36A0E296DAD2D8C7A1A7F625B2F501A2A35D0D6C6E9DFF5E84DB77F0308BC4F94324E4494F39C81AF
310
15F6653ED89E55AE36FC42398A714E18C5118AE89661060E82ADA5831A6244B60851486026BDA8E5D57585C0BE9C4B5D5AEE8A2812F96B4C65A6F9908F24E75233FA0F6107EDEBA7814E606D4193FC46199BBF6620C2F52CB958FE6F3454FF2C8144BB08EF215AC04CB169346CE1B5105CB05E1AD3CFABEDCB46F043F7E119
310
4B33C2721179329955DE690FD6420B82AF072825AE4DDF1D50F90ED07F01E42B5D90079E63F465FC32D6B6339CF05DCA62F00EB2D1C0861F36121F8F3E7956F5F014A106579EC214D2F62761DA30A371760DD2A9F704419FB291326E13E00862FA9E2622CF21505094C212F0FD6EFB624CD740A6B0084FE108AC876FCF121F
310
11FC2AE500DFB43CD445BF3D1CA513A69D67075F7D82986134A85CD5B0F114BE939F82EF6CB9F9BC29D80E07E45E25F692EC68427328A6DD0A35406FA4FC8FF517999147F634760570CE3E15C4D1E1978DF20B928E0155441D2E5D2357EE29A47B14E184A40557EB5D4415A451CAFCEDAB5FE670E7597FEA20280F83FC1611
310
D0496650DD034633018A3155E6554C681E70123CA802705F3AD5DFE2E051C0EB07C058EFD103A216B3B6D022CE7C1CA74522E8FB38BCDBA699235B7E398E3BB4DDE18D7BA58DE552BCCE1E4D0D95F2E29C1867270E5934BCA558434B2EF3680C6CD96541003D5391FB6986039A77C742CB0895A100F6599543BADB151C48BD
310
139696C6E6C89920BBF6B33AE4BCF6EA109FC6784FFC1D1615AEF3BC064095706D412732FB28E59C2684CB0EE588B95AA8D826104119B75A6A471052EEC724C7EF893F59F25AE1C7C82EF2A197CA45377B39FAB482AA7A9E92283AB734F1A5FDAF3EC77116955DDA250C9C61EB844E5C85D2E2882788371FE7BE1D12D9745F
310
925EF182C6B79774F7DDE24FC0C3F02F87471F41A1F5861A79D9B38E39715CF17503A472357146D7DA1197B0D247E5A207890AE89A8257FF99D0FD433F42EB750E27D1CEA75154C47E590F7212430B86F382F5CAD7AB897DE47CC50BAD84A89DB4A31134C8BD4953F61EBAFB00AB64F3718A346BC7805134813B5A2F438EAC
310
E80C61E90B791F15D7AECBDE7FBBD4FFCC97F57BCA23797D4E59D8A969B38DD01D986E18045DAA0A57C591943CF5EAC917CB8BCB651CC65A88E2B7F296A0228491272A0613F206D4797FE0CF380F804837F2F7600E191192F0D05334C4A93187318543B534DDA7D66F3A4076A27C341AAFB520D418A60D58F0ECBDF8107DC7
310
E06AE8FCB8A5BA1AAB5C5F8BC266C260E5A0C719595F3F6D5A5260A5F7D3DF0446E4B92541AD2E44237746D48FF5A15F6D495016FD589F793C7F28E26D82A9A88C222C70987DF828EF92B7165C14ACBBD97CB8BC5ECD07AEB39A95B38B9BABC5DD607CB35AD8AEED0C9DF1DC6284A7050B08B78696EDEBDE294BF63A304AE8
310
FADC2860AA70F9EAA7E3B9EDE0FFF18D224AB7F8542CFEAE178AAADD130D592B17FB5E283A897AFBB6EEDF3922EAEE22F6A6CEB99C15E8003F5FB6808C74BDEFDF5A68D1BA93E8D6B95611DF58784FDE567E798D69107A677D68ECE8A2FC2617C3ECA9A34AE9DBADE4B5EB2B77E42C97EEE0663EB607E3EBE172309BB993C1
310
C2998F5C67713D5E39CB0A71550BFBD695DF8243B5B2B5311A4C83791A5118CA9310ED490A3720983AF4E05716132E6F36D000A832AEDF08F478FAA99CA9E6781BE9A783070C83E94855E42280A128DC3A6E0DB58EFE8031A89844CAE194F908854745BB810A466F0D08819C427D31B730CE92C34329BD35AE04B7E1642FEE
310
4CE553D5DF87C7043A102B07BBAA3D7D70519635A2138603997C4F006CA71B92F79BAED54138878FDB22AF8C392C1CAC5120E81702A57130F57B54F0BE00F19CB7CB31E59E0624BD26F367E3A0943AC831DBCBF17A0DEFD9F29B2526E3EBAF288B8ABD70E7B97ADF9034107D46549443280F0243999961710F5F7CB0BEB114
310
5E31C568452108AC451AC769A2FE98A9575468F3002F9C424B0FFBA065B19D89253B1E35D087891527260EF9232C8053191553D112DC86EB2B62AAB95EFB4278011E6BEC5F2F91A2FF5AF35A6F5A0530729A8F2085C45B1C9130F50DB5D123640168554E68AB0F7AC1B3188CBFA7FF02504B03041400060808006C7F6A4856
310
D746B73E01000046050000300000006662782F45304246303146302D393532362D343438392D413234432D3837463843393135384242382F636E782E786D6CCD94C14E032110865F65C37D61B7A6461B96261E7C020FC61BCB4E572C0B1B188C7D7BA1D2AA31351E9AD81B19FE49FE6FE6CFF0F5DB64AA57F0413BDB919636
310
A402ABDCA0EDD891889BFA86546BC1BD73F845462A2B27E8482E13C147EFE25C4A036C6434B96AB4DD96A244F4BA8F088154CAC8103A12D4334C92CA886E80B0A58344495BEA21B8E815A47ED413947EE541220C442C9AF6BA6EAEEAB6796897ABE5ED6AB17CE22C2B05EF9D3345AF2D827773A55C7AD864A6E12C7F0B1EBD
310
2E9A4C40C4A733DA6BCB59FA173C24B7762C3ADCCD5937CF462B89694CCC2904AC9308E4C4D98758709679BF51DFDF3D1E1C5483F6A0D0F9DD3F0DA03D3580A3319A92F037FEBDF0776CD7BF24DCFFDAF649D862EB6CA887B48614D79FFB4F299276349717FAA3B1F3673E9D12D4EAF2900FBECE44CCF6272F2D3D5F40F10E
310
504B03041400060808006C7F6A489E37EB487E000000A30000000B0000006662782F636E782E786D6C4D8CD10AC22018465F45FE7B4B872B0575E4C8F718CD0D69D361337AFC3476D1D50787EF1CD97DD605BD5D7AF91814D01301E4C2238E3ECC0AF23E610EA8D332C5B8FFDD008561750A2A062DE714F376A0D14D435E2A
310
5D7C781EF04E8C25D4122CDAE68219E302DF1AD6637EB5BC17B4E5C6F0629CAB52E6D72B5BF3FA0B504B03041400060808006C7F6A48A6D797065F0000008200000007000000636E782E786D6C4DCB3B0E80201045D1AD90E9FD7516806B51190811670C8A61F982B1B0BAC9C97B72CA7B1037C6D3332918DA1E04D2CAC693
310
53902EDB8C20262D23F3F59B81A079470595414B17391D1F19B4730A5583A7ED43BBE4025D9592775E5ADFFA01504B03041400060808006C7F6A484FEB6A7CA0000000F4000000130000005B436F6E74656E745F54797065735D2E786D6C7D8F4B0EC2300C44AF1279DFA6B0400835ED02B8011730C16D239A8F121795DB93
310
D02D6269CFBC19BBED573B8B17C564BC53B0AB1B10E4B47F18372A5878A88E20FAAEBDBD032591BD2E299898C349CAA427B2986A1FC86565F0D122E7318E32A07EE24872DF3407A9BD63725C71C980AEBDD080CBCCE2BAE6F5D69B7110E7CD57AA146008B3D1C8F92C5954F993BB1BF787F39A89ABC491D09600F9FDA2FB00
310
504B03041400060808006C7F6A483DEE336E64000000790000001B0000006175746F6465736B2D64657369676E2D7061636B6167652E786D6C35CBC10E83200C00D05F21DCA56CA76D41FC96062B120735B69A7DBE268BB7777961F8D5AF396893C2ADB70FE7ADA196782C2DF776D7A97B5933C430F15651E5469C55D70F80
310
A4992A3ADC954792C525AE70A1E4D6AD9816CC044FEFDF01FE3FDE907802504B03041400060808006C7F6A48FB74DCF5F9000000960100003B0000006662782F45304246303146302D393532362D343438392D413234432D3837463843393135384242382F7265736F75726365732F636F72652E786D6C8550CB6E833010FC
310
15B47703263190C8386A43FA053DF566990DB1126CE447D5CF2F0E546A4F3DED6A76667677F8E96B7A649FE8BCB6A6039A9790A15176D066EC20862B69213B09EEAC0DBF6890193961070906C14767E3BC41CA9A8026A1C60EB881D27B0C90A9C7D274E0D50D2799CB181686BFE7B3547739624EF39527788C7AD8A47A58DC
310
F455A303D19CD9DBA56A5A723ED415D9B7F442DABAAFC9FE853575C99AD7BEA7BC4862C1839E7EB62B8732E000A22A694DCA1DA1E53B6547763856EC83178929B80F6EF9795B9ABE03E1D0DBE8147A5EACD33FAE711EFE778DDA845DB5B9AE0A0F221DF91C085EA49496F28C70A92951F10D504B03041400060808006C7F6A
310
4864EBE969F2000000B1010000310000006662782F45304246303146302D393532362D343438392D413234432D3837463843393135384242382F636F72652E786D6C8D50CB6EC32010FC156BEFD8E0D8298E30511DD55FD0536F08131725068B47D5CF2FC4AED4DE725A343BC3CC0E3B7F2FF7E24B39AFADE98194180A65A4
310
9DB4997B88E18A281467CE9CB5E10F0D0A2316D5438681B3D9D9B8EE90B4262893516327B583C27B15A090F7F4E8C1CB4FB58852C49018FE56AE42DEC4AC4A526E3CCE825E7EA5D22911D404BCC6E488F00111FC4EDA53DB9DEAF6835599C9598C7ADAADF494DCF5552B07FC0D0F232623465D5B1F51D3D00EBDD6CD05D197
310
915E3AD2D261A0ACCA62CE7C70E9E6FD937CDDB3F24DF82F735CA727326B130EF56EB8293C7092F23C169C55B9C0341EEDA699CBE63F504B03041400060808006C7F6A48C4970AEA54010000DD0200000C0000006662782F636F72652E786D6C8D52CB6EC32010FC158B3B7E257E34C2446D927E414FBD11202E8A0D16062B
310
9F5FF043AE0F4D2B4B18CDEECEEC8C40C747DB0403D7BD50B202491883804BAA98907505ACB9C11204478CB452E6471B08246979053C0C30AAB5B2DD0C51250D971E958AF119247DCF0D0868E32E15E8E9176F4948AC711DFD3DEC08BD939A874938F56164AD60F3A8608E4DDC04D70017A7ECFD9216253CBDE429DC97C905
310
96F93987FBD7ACC8E3AC783B9F1314F9618C8C681775AA39319C019CC6490EE31D4CE28F243B642F8734FB4491EFC4A837DA799E45BD3B806FD7078A267CC3673BF6379F15D2ECD2996F9AE801F6EB8D058C229F8FFB8DE16D3374C22E3F43AECD62E1EEA08153A3F4DE5598B26B69208DE58E3A0EC60F4553D5318F04BFF1
310
A44F789E73B8A088ACDD6AC4B8EBD51AAFBEDDA9E31A0EE61148A55BD2ACCB4D2BAEE72AB4B1B48C53D528FD9FE9C5EA1266E41F26FE06504B03041400060808006C7F6A487B9DD60708010000B201000008000000636F72652E786D6C8D50CB6EC32010FC15B4776CE3C48F4498A88DD32FE8A9370AC445B1C132386AFFBE
310
1053A9BDF5B468667667187AFA9C4674578BD3D67440B2029032C24A6D860E567FC52DA013A38BB5FE970C90E193EA20C2C0E8B0D8754E90B0C62B135163A54A20774E7940620C8F0E9CF85013CFF8EA83C2DDB2998B1B1F5446B24DC7A8D7D3CFAA5814F74A022B0B52E3628749F14AAA63753896D51BCDA392D175D53259
310
6919DCF555AB055873AE5E2E65D3E2F3A12EF1BE2517DCD67D8DF74F55531755F3DCF784E6719951E797F0E77424E4F4C8F17BF4A5F94631FA6EED9804219444D68C5FC00A9A47E24FE87596FF08AD8DDF95E9E0B6E180C5400F2218C706C378D41B666C9B7D03504B010214001400060808006C7F6A480000000000000000
310
000000003700000000000000000000000000000000006662782F45304246303146302D393532362D343438392D413234432D3837463843393135384242382F617474726962757465732E62696E504B010214001400060808006C7F6A480000000000000000000000003500000000000000000000000000550000006662782F
310
45304246303146302D393532362D343438392D413234432D3837463843393135384242382F76657274696365732E62696E504B010214001400060808006C7F6A48F270F13306000000040000003600000000000000000000000000A80000006662782F45304246303146302D393532362D343438392D413234432D38374638
310
43393135384242382F747269616E676C65732E62696E504B010214001400060808006C7F6A4851464CB489000000430100003600000000000000000000000000020100006662782F45304246303146302D393532362D343438392D413234432D3837463843393135384242382F6469726563746F72792E786D6C504B010214
310
001400060808006C7F6A48DEE546E02D0700001A1C00003400000000000000000000000000DF0100006662782F45304246303146302D393532362D343438392D413234432D3837463843393135384242382F6F626A656374732E786D6C504B010214001400060808006C7F6A4856D746B73E01000046050000300000000000
310
00000000000000005E0900006662782F45304246303146302D393532362D343438392D413234432D3837463843393135384242382F636E782E786D6C504B010214001400060808006C7F6A489E37EB487E000000A30000000B00000000000000000000000000EA0A00006662782F636E782E786D6C504B0102140014000608
310
08006C7F6A48A6D797065F000000820000000700000000000000000000000000910B0000636E782E786D6C504B010214001400060808006C7F6A484FEB6A7CA0000000F40000001300000000000000000000000000150C00005B436F6E74656E745F54797065735D2E786D6C504B010214001400060808006C7F6A483DEE33
310
6E64000000790000001B00000000000000000000000000E60C00006175746F6465736B2D64657369676E2D7061636B6167652E786D6C504B010214001400060808006C7F6A48FB74DCF5F9000000960100003B00000000000000000000000000830D00006662782F45304246303146302D393532362D343438392D41323443
310
2D3837463843393135384242382F7265736F75726365732F636F72652E786D6C504B010214001400060808006C7F6A4864EBE969F2000000B10100003100000000000000000000000000D50E00006662782F45304246303146302D393532362D343438392D413234432D3837463843393135384242382F636F72652E786D6C
310
504B010214001400060808006C7F6A48C4970AEA54010000DD0200000C00000000000000000000000000161000006662782F636F72652E786D6C504B010214001400060808006C7F6A487B9DD60708010000B2010000080000000000000000000000000094110000636F72652E786D6C504B0506000000000E000E00800400
310
00C21200000000
  0
XRECORD
  5
69C7
102
{ACAD_REACTORS
330
69C2
102
}
330
69C2
100
AcDbXrecord
280
     1
270
     1
271
     1
  0
XRECORD
  5
69C6
102
{ACAD_REACTORS
330
69C2
102
}
330
69C2
100
AcDbXrecord
280
     1
270
     1
271
     1
  0
XRECORD
  5
69C8
102
{ACAD_REACTORS
330
69C2
102
}
330
69C2
100
AcDbXrecord
280
     1
270
     1
271
     1
  0
XRECORD
  5
69C5
102
{ACAD_REACTORS
330
69C2
102
}
330
69C2
100
AcDbXrecord
280
     1
270
     1
271
     1
  0
XRECORD
  5
6D81
102
{ACAD_REACTORS
330
6D80
102
}
330
6D80
100
AcDbXrecord
280
     1
102
DISPLAYNAME
  1
Imperial24
102
FLAGS
 90
        0
  0
CELLSTYLEMAP
  5
6D7F
102
{ACAD_REACTORS
330
6ACF
102
}
330
6ACF
100
AcDbCellStyleMap
 90
        3
300
CELLSTYLE
  1
TABLEFORMAT_BEGIN
 90
        5
170
     1
 91
        0
 92
    32768
 62
   257
 93
        1
300
CONTENTFORMAT
  1
CONTENTFORMAT_BEGIN
 90
        0
 91
        0
 92
      512
 93
        0
300

 40
0.0
140
1.0
 94
        5
 62
     0
340
11
144
0.25
309
CONTENTFORMAT_END
171
     1
301
MARGIN
  1
CELLMARGIN_BEGIN
 40
0.06
 40
0.06
 40
0.06
 40
0.06
 40
0.18
 40
0.18
309
CELLMARGIN_END
 94
        6
 95
        1
302
GRIDFORMAT
  1
GRIDFORMAT_BEGIN
 90
        0
 91
        1
 62
     0
 92
       -2
340
0
 93
        0
 40
0.045
309
GRIDFORMAT_END
 95
        2
302
GRIDFORMAT
  1
GRIDFORMAT_BEGIN
 90
        0
 91
        1
 62
     0
 92
       -2
340
0
 93
        0
 40
0.045
309
GRIDFORMAT_END
 95
        4
302
GRIDFORMAT
  1
GRIDFORMAT_BEGIN
 90
        0
 91
        1
 62
     0
 92
       -2
340
0
 93
        0
 40
0.045
309
GRIDFORMAT_END
 95
        8
302
GRIDFORMAT
  1
GRIDFORMAT_BEGIN
 90
        0
 91
        1
 62
     0
 92
       -2
340
0
 93
        0
 40
0.045
309
GRIDFORMAT_END
 95
       16
302
GRIDFORMAT
  1
GRIDFORMAT_BEGIN
 90
        0
 91
        1
 62
     0
 92
       -2
340
0
 93
        0
 40
0.045
309
GRIDFORMAT_END
 95
       32
302
GRIDFORMAT
  1
GRIDFORMAT_BEGIN
 90
        0
 91
        1
 62
     0
 92
       -2
340
0
 93
        0
 40
0.045
309
GRIDFORMAT_END
309
TABLEFORMAT_END
  1
CELLSTYLE_BEGIN
 90
        1
 91
        1
300
_TITLE
309
CELLSTYLE_END
300
CELLSTYLE
  1
TABLEFORMAT_BEGIN
 90
        5
170
     1
 91
        0
 92
        0
 62
   257
 93
        1
300
CONTENTFORMAT
  1
CONTENTFORMAT_BEGIN
 90
        0
 91
        0
 92
      512
 93
        0
300

 40
0.0
140
1.0
 94
        5
 62
     0
340
11
144
0.18
309
CONTENTFORMAT_END
171
     1
301
MARGIN
  1
CELLMARGIN_BEGIN
 40
0.06
 40
0.06
 40
0.06
 40
0.06
 40
0.18
 40
0.18
309
CELLMARGIN_END
 94
        6
 95
        1
302
GRIDFORMAT
  1
GRIDFORMAT_BEGIN
 90
        0
 91
        1
 62
     0
 92
       -2
340
0
 93
        0
 40
0.045
309
GRIDFORMAT_END
 95
        2
302
GRIDFORMAT
  1
GRIDFORMAT_BEGIN
 90
        0
 91
        1
 62
     0
 92
       -2
340
0
 93
        0
 40
0.045
309
GRIDFORMAT_END
 95
        4
302
GRIDFORMAT
  1
GRIDFORMAT_BEGIN
 90
        0
 91
        1
 62
     0
 92
       -2
340
0
 93
        0
 40
0.045
309
GRIDFORMAT_END
 95
        8
302
GRIDFORMAT
  1
GRIDFORMAT_BEGIN
 90
        0
 91
        1
 62
     0
 92
       -2
340
0
 93
        0
 40
0.045
309
GRIDFORMAT_END
 95
       16
302
GRIDFORMAT
  1
GRIDFORMAT_BEGIN
 90
        0
 91
        1
 62
     0
 92
       -2
340
0
 93
        0
 40
0.045
309
GRIDFORMAT_END
 95
       32
302
GRIDFORMAT
  1
GRIDFORMAT_BEGIN
 90
        0
 91
        1
 62
     0
 92
       -2
340
0
 93
        0
 40
0.045
309
GRIDFORMAT_END
309
TABLEFORMAT_END
  1
CELLSTYLE_BEGIN
 90
        2
 91
        1
300
_HEADER
309
CELLSTYLE_END
300
CELLSTYLE
  1
TABLEFORMAT_BEGIN
 90
        5
170
     1
 91
        0
 92
        0
 62
   257
 93
        1
300
CONTENTFORMAT
  1
CONTENTFORMAT_BEGIN
 90
        0
 91
        0
 92
      512
 93
        0
300

 40
0.0
140
1.0
 94
        2
 62
     0
340
11
144
0.18
309
CONTENTFORMAT_END
171
     1
301
MARGIN
  1
CELLMARGIN_BEGIN
 40
0.06
 40
0.06
 40
0.06
 40
0.06
 40
0.18
 40
0.18
309
CELLMARGIN_END
 94
        6
 95
        1
302
GRIDFORMAT
  1
GRIDFORMAT_BEGIN
 90
        0
 91
        1
 62
     0
 92
       -2
340
0
 93
        0
 40
0.045
309
GRIDFORMAT_END
 95
        2
302
GRIDFORMAT
  1
GRIDFORMAT_BEGIN
 90
        0
 91
        1
 62
     0
 92
       -2
340
0
 93
        0
 40
0.045
309
GRIDFORMAT_END
 95
        4
302
GRIDFORMAT
  1
GRIDFORMAT_BEGIN
 90
        0
 91
        1
 62
     0
 92
       -2
340
0
 93
        0
 40
0.045
309
GRIDFORMAT_END
 95
        8
302
GRIDFORMAT
  1
GRIDFORMAT_BEGIN
 90
        0
 91
        1
 62
     0
 92
       -2
340
0
 93
        0
 40
0.045
309
GRIDFORMAT_END
 95
       16
302
GRIDFORMAT
  1
GRIDFORMAT_BEGIN
 90
        0
 91
        1
 62
     0
 92
       -2
340
0
 93
        0
 40
0.045
309
GRIDFORMAT_END
 95
       32
302
GRIDFORMAT
  1
GRIDFORMAT_BEGIN
 90
        0
 91
        1
 62
     0
 92
       -2
340
0
 93
        0
 40
0.045
309
GRIDFORMAT_END
309
TABLEFORMAT_END
  1
CELLSTYLE_BEGIN
 90
        3
 91
        2
300
_DATA
309
CELLSTYLE_END
  0
ENDSEC
  0
EOF
