  0
SECTION
  2
HEADER
  9
$ACADVER
  1
AC1027
  9
$ACADMAINTVER
 70
    55
  9
$DWGCODEPAGE
  3
ANSI_932
  9
$LASTSAVEDBY
  1
marketing
  9
$REQUIREDVERSIONS
160
                 0
  9
$INSBASE
 10
0.0
 20
0.0
 30
0.0
  9
$EXTMIN
 10
-83.96411608460175
 20
-360.1605568376228
 30
-0.0000000000000058
  9
$EXTMAX
 10
298.1391641800669
 20
294.1804192517536
 30
0.0000000000000104
  9
$LIMMIN
 10
-296.316999476111
 20
-370.7034300441653
  9
$LIMMAX
 10
623.3128432133979
 20
328.6261559379898
  9
$ORTHOMODE
 70
     0
  9
$REGENMODE
 70
     1
  9
$FILLMODE
 70
     1
  9
$QTEXTMODE
 70
     0
  9
$MIRRTEXT
 70
     1
  9
$LTSCALE
 40
10.0
  9
$ATTMODE
 70
     1
  9
$TEXTSIZE
 40
5.0
  9
$TRACEWID
 40
0.05
  9
$TEXTSTYLE
  7
STANDARD1
  9
$CLAYER
  8
30
  9
$CELTYPE
  6
CONTINUOUS
  9
$CECOLOR
 62
   256
  9
$CELTSCALE
 40
1.0
  9
$DISPSILH
 70
     0
  9
$DIMSCALE
 40
1.0
  9
$DIMASZ
 40
2.0
  9
$DIMEXO
 40
1.0
  9
$DIMDLI
 40
0.5
  9
$DIMRND
 40
0.0
  9
$DIMDLE
 40
0.0
  9
$DIMEXE
 40
0.5
  9
$DIMTP
 40
0.0
  9
$DIMTM
 40
0.0
  9
$DIMTXT
 40
4.0
  9
$DIMCEN
 40
0.09
  9
$DIMTSZ
 40
0.0
  9
$DIMTOL
 70
     0
  9
$DIMLIM
 70
     0
  9
$DIMTIH
 70
     0
  9
$DIMTOH
 70
     1
  9
$DIMSE1
 70
     0
  9
$DIMSE2
 70
     0
  9
$DIMTAD
 70
     3
  9
$DIMZIN
 70
    12
  9
$DIMBLK
  1
OPEN
  9
$DIMASO
 70
     1
  9
$DIMSHO
 70
     1
  9
$DIMPOST
  1

  9
$DIMAPOST
  1

  9
$DIMALT
 70
     0
  9
$DIMALTD
 70
     2
  9
$DIMALTF
 40
25.4
  9
$DIMLFAC
 40
1.0
  9
$DIMTOFL
 70
     0
  9
$DIMTVP
 40
0.0
  9
$DIMTIX
 70
     0
  9
$DIMSOXD
 70
     0
  9
$DIMSAH
 70
     0
  9
$DIMBLK1
  1

  9
$DIMBLK2
  1

  9
$DIMSTYLE
  2
STANDARD
  9
$DIMCLRD
 70
     0
  9
$DIMCLRE
 70
     0
  9
$DIMCLRT
 70
     0
  9
$DIMTFAC
 40
1.0
  9
$DIMGAP
 40
1.0
  9
$DIMJUST
 70
     0
  9
$DIMSD1
 70
     0
  9
$DIMSD2
 70
     0
  9
$DIMTOLJ
 70
     1
  9
$DIMTZIN
 70
     0
  9
$DIMALTZ
 70
     0
  9
$DIMALTTZ
 70
     0
  9
$DIMUPT
 70
     0
  9
$DIMDEC
 70
     1
  9
$DIMTDEC
 70
     1
  9
$DIMALTU
 70
     2
  9
$DIMALTTD
 70
     2
  9
$DIMTXSTY
  7
STANDARD
  9
$DIMAUNIT
 70
     0
  9
$DIMADEC
 70
     0
  9
$DIMALTRND
 40
0.0
  9
$DIMAZIN
 70
     3
  9
$DIMDSEP
 70
    46
  9
$DIMATFIT
 70
     3
  9
$DIMFRAC
 70
     0
  9
$DIMLDRBLK
  1
OPEN
  9
$DIMLUNIT
 70
     2
  9
$DIMLWD
 70
    -2
  9
$DIMLWE
 70
    -2
  9
$DIMTMOVE
 70
     0
  9
$DIMFXL
 40
1.0
  9
$DIMFXLON
 70
     0
  9
$DIMJOGANG
 40
0.7853981633974483
  9
$DIMTFILL
 70
     0
  9
$DIMTFILLCLR
 70
     0
  9
$DIMARCSYM
 70
     0
  9
$DIMLTYPE
  6

  9
$DIMLTEX1
  6

  9
$DIMLTEX2
  6

  9
$DIMTXTDIRECTION
 70
     0
  9
$LUNITS
 70
     2
  9
$LUPREC
 70
     4
  9
$SKETCHINC
 40
0.1
  9
$FILLETRAD
 40
0.0
  9
$AUNITS
 70
     0
  9
$AUPREC
 70
     0
  9
$MENU
  1
.
  9
$ELEVATION
 40
0.0
  9
$PELEVATION
 40
0.0
  9
$THICKNESS
 40
0.0
  9
$LIMCHECK
 70
     0
  9
$CHAMFERA
 40
0.0
  9
$CHAMFERB
 40
0.0
  9
$CHAMFERC
 40
0.0
  9
$CHAMFERD
 40
0.0
  9
$SKPOLY
 70
     0
  9
$TDCREATE
 40
2452286.555658658
  9
$TDUCREATE
 40
2452286.180658658
  9
$TDUPDATE
 40
2459278.582227095
  9
$TDUUPDATE
 40
2459278.207227095
  9
$TDINDWG
 40
1.2668189468
  9
$TDUSRTIMER
 40
1.2668180440
  9
$USRTIMER
 70
     1
  9
$ANGBASE
 50
0.0
  9
$ANGDIR
 70
     0
  9
$PDMODE
 70
     0
  9
$PDSIZE
 40
0.0
  9
$PLINEWID
 40
0.0
  9
$SPLFRAME
 70
     0
  9
$SPLINETYPE
 70
     6
  9
$SPLINESEGS
 70
     8
  9
$HANDSEED
  5
66DC
  9
$SURFTAB1
 70
     6
  9
$SURFTAB2
 70
     6
  9
$SURFTYPE
 70
     6
  9
$SURFU
 70
     6
  9
$SURFV
 70
     6
  9
$UCSBASE
  2

  9
$UCSNAME
  2

  9
$UCSORG
 10
0.0
 20
0.0
 30
0.0
  9
$UCSXDIR
 10
1.0
 20
0.0
 30
0.0
  9
$UCSYDIR
 10
0.0
 20
1.0
 30
0.0
  9
$UCSORTHOREF
  2

  9
$UCSORTHOVIEW
 70
     0
  9
$UCSORGTOP
 10
0.0
 20
0.0
 30
0.0
  9
$UCSORGBOTTOM
 10
0.0
 20
0.0
 30
0.0
  9
$UCSORGLEFT
 10
0.0
 20
0.0
 30
0.0
  9
$UCSORGRIGHT
 10
0.0
 20
0.0
 30
0.0
  9
$UCSORGFRONT
 10
0.0
 20
0.0
 30
0.0
  9
$UCSORGBACK
 10
0.0
 20
0.0
 30
0.0
  9
$PUCSBASE
  2

  9
$PUCSNAME
  2

  9
$PUCSORG
 10
0.0
 20
0.0
 30
0.0
  9
$PUCSXDIR
 10
1.0
 20
0.0
 30
0.0
  9
$PUCSYDIR
 10
0.0
 20
1.0
 30
0.0
  9
$PUCSORTHOREF
  2

  9
$PUCSORTHOVIEW
 70
     0
  9
$PUCSORGTOP
 10
0.0
 20
0.0
 30
0.0
  9
$PUCSORGBOTTOM
 10
0.0
 20
0.0
 30
0.0
  9
$PUCSORGLEFT
 10
0.0
 20
0.0
 30
0.0
  9
$PUCSORGRIGHT
 10
0.0
 20
0.0
 30
0.0
  9
$PUCSORGFRONT
 10
0.0
 20
0.0
 30
0.0
  9
$PUCSORGBACK
 10
0.0
 20
0.0
 30
0.0
  9
$USERI1
 70
     0
  9
$USERI2
 70
     0
  9
$USERI3
 70
     0
  9
$USERI4
 70
     0
  9
$USERI5
 70
     0
  9
$USERR1
 40
0.0
  9
$USERR2
 40
0.0
  9
$USERR3
 40
0.0
  9
$USERR4
 40
0.0
  9
$USERR5
 40
0.0
  9
$WORLDVIEW
 70
     1
  9
$SHADEDGE
 70
     3
  9
$SHADEDIF
 70
    70
  9
$TILEMODE
 70
     1
  9
$MAXACTVP
 70
    48
  9
$PINSBASE
 10
0.0
 20
0.0
 30
0.0
  9
$PLIMCHECK
 70
     0
  9
$PEXTMIN
 10
1.122749993181602
 20
0.7804166500962629
 30
0.0
  9
$PEXTMAX
 10
10.10474993863443
 20
7.023749850866361
 30
0.0
  9
$PLIMMIN
 10
-0.2312499519408218
 20
-0.2312499894870548
  9
$PLIMMAX
 10
11.45874984621061
 20
8.035416452903447
  9
$UNITMODE
 70
     0
  9
$VISRETAIN
 70
     1
  9
$PLINEGEN
 70
     0
  9
$PSLTSCALE
 70
     1
  9
$TREEDEPTH
 70
  3020
  9
$CMLSTYLE
  2
STANDARD
  9
$CMLJUST
 70
     0
  9
$CMLSCALE
 40
1.0
  9
$PROXYGRAPHICS
 70
     1
  9
$MEASUREMENT
 70
     0
  9
$CELWEIGHT
370
    -1
  9
$ENDCAPS
280
     0
  9
$JOINSTYLE
280
     0
  9
$LWDISPLAY
290
     0
  9
$INSUNITS
 70
     0
  9
$HYPERLINKBASE
  1

  9
$STYLESHEET
  1
MONOCHROME.CTB
  9
$XEDIT
290
     1
  9
$CEPSNTYPE
380
     0
  9
$PSTYLEMODE
290
     1
  9
$FINGERPRINTGUID
  2

  9
$VERSIONGUID
  2
{EAAD05B1-ACA9-492C-BD9F-5572C13E0E3D}
  9
$EXTNAMES
290
     1
  9
$PSVPSCALE
 40
0.0
  9
$OLESTARTUP
290
     0
  9
$SORTENTS
280
   127
  9
$INDEXCTL
280
     0
  9
$HIDETEXT
280
     0
  9
$XCLIPFRAME
280
     2
  9
$HALOGAP
280
     0
  9
$OBSCOLOR
 70
   257
  9
$OBSLTYPE
280
     0
  9
$INTERSECTIONDISPLAY
280
     0
  9
$INTERSECTIONCOLOR
 70
   257
  9
$DIMASSOC
280
     1
  9
$PROJECTNAME
  1

  9
$CAMERADISPLAY
290
     0
  9
$LENSLENGTH
 40
50.0
  9
$CAMERAHEIGHT
 40
0.0
  9
$STEPSPERSEC
 40
2.0
  9
$STEPSIZE
 40
6.0
  9
$3DDWFPREC
 40
2.0
  9
$PSOLWIDTH
 40
0.25
  9
$PSOLHEIGHT
 40
4.0
  9
$LOFTANG1
 40
1.570796326794896
  9
$LOFTANG2
 40
1.570796326794896
  9
$LOFTMAG1
 40
0.0
  9
$LOFTMAG2
 40
0.0
  9
$LOFTPARAM
 70
     7
  9
$LOFTNORMALS
280
     1
  9
$LATITUDE
 40
37.795
  9
$LONGITUDE
 40
-122.394
  9
$NORTHDIRECTION
 40
0.0
  9
$TIMEZONE
 70
 -8000
  9
$LIGHTGLYPHDISPLAY
280
     1
  9
$TILEMODELIGHTSYNCH
280
     1
  9
$CMATERIAL
347
627F
  9
$SOLIDHIST
280
     0
  9
$SHOWHIST
280
     1
  9
$DWFFRAME
280
     2
  9
$DGNFRAME
280
     0
  9
$REALWORLDSCALE
290
     1
  9
$INTERFERECOLOR
 62
     1
  9
$INTERFEREOBJVS
345
62A1
  9
$INTERFEREVPVS
346
629E
  9
$CSHADOW
280
     0
  9
$SHADOWPLANELOCATION
 40
0.0
  0
ENDSEC
  0
SECTION
  2
CLASSES
  0
CLASS
  1
ACDBDICTIONARYWDFLT
  2
AcDbDictionaryWithDefault
  3
ObjectDBX Classes
 90
        0
 91
        1
280
     0
281
     0
  0
CLASS
  1
DICTIONARYVAR
  2
AcDbDictionaryVar
  3
ObjectDBX Classes
 90
        0
 91
       13
280
     0
281
     0
  0
CLASS
  1
MATERIAL
  2
AcDbMaterial
  3
ObjectDBX Classes
 90
     1153
 91
        3
280
     0
281
     0
  0
CLASS
  1
VISUALSTYLE
  2
AcDbVisualStyle
  3
ObjectDBX Classes
 90
     4095
 91
       24
280
     0
281
     0
  0
CLASS
  1
TABLESTYLE
  2
AcDbTableStyle
  3
ObjectDBX Classes
 90
     4095
 91
        1
280
     0
281
     0
  0
CLASS
  1
SCALE
  2
AcDbScale
  3
ObjectDBX Classes
 90
     1153
 91
       17
280
     0
281
     0
  0
CLASS
  1
MLEADERSTYLE
  2
AcDbMLeaderStyle
  3
ACDB_MLEADERSTYLE_CLASS
 90
     4095
 91
        1
280
     0
281
     0
  0
CLASS
  1
ACDBSECTIONVIEWSTYLE
  2
AcDbSectionViewStyle
  3
ObjectDBX Classes
 90
     1025
 91
        1
280
     0
281
     0
  0
CLASS
  1
ACDBDETAILVIEWSTYLE
  2
AcDbDetailViewStyle
  3
ObjectDBX Classes
 90
     1025
 91
        1
280
     0
281
     0
  0
CLASS
  1
CELLSTYLEMAP
  2
AcDbCellStyleMap
  3
ObjectDBX Classes
 90
     1152
 91
        2
280
     0
281
     0
  0
ENDSEC
  0
SECTION
  2
TABLES
  0
TABLE
  2
VPORT
  5
8
330
0
100
AcDbSymbolTable
 70
     1
  0
VPORT
  5
6275
330
8
100
AcDbSymbolTableRecord
100
AcDbViewportTableRecord
  2
*Active
 70
     0
 10
0.0
 20
0.0
 11
1.0
 21
1.0
 12
107.0875240477326
 22
-32.99006879293461
 13
0.0
 23
0.0
 14
1.0
 24
1.0
 15
10.0
 25
10.0
 16
0.0
 26
0.0
 36
1.0
 17
0.0
 27
0.0
 37
0.0
 40
659.071151820143
 41
2.289505428226779
 42
50.0
 43
0.0
 44
0.0
 50
0.0
 51
0.0
 71
     0
 72
   100
 73
     1
 74
     1
 75
     0
 76
     1
 77
     0
 78
     0
281
     0
 65
     1
110
0.0
120
0.0
130
0.0
111
1.0
121
0.0
131
0.0
112
0.0
122
1.0
132
0.0
 79
     0
146
0.0
348
629D
 60
     3
 61
     5
292
     1
282
     1
141
0.0
142
0.0
 63
   250
421
  3355443
1001
ACAD_NAV_VCDISPLAY
1070
     3
  0
ENDTAB
  0
TABLE
  2
LTYPE
  5
5
330
0
100
AcDbSymbolTable
 70
     6
  0
LTYPE
  5
13
330
5
100
AcDbSymbolTableRecord
100
AcDbLinetypeTableRecord
  2
BYBLOCK
 70
     0
  3

 72
    65
 73
     0
 40
0.0
  0
LTYPE
  5
14
330
5
100
AcDbSymbolTableRecord
100
AcDbLinetypeTableRecord
  2
BYLAYER
 70
     0
  3

 72
    65
 73
     0
 40
0.0
  0
LTYPE
  5
15
330
5
100
AcDbSymbolTableRecord
100
AcDbLinetypeTableRecord
  2
CONTINUOUS
 70
     0
  3
Solid line
 72
    65
 73
     0
 40
0.0
  0
LTYPE
  5
22
330
5
100
AcDbSymbolTableRecord
100
AcDbLinetypeTableRecord
  2
CONTINOUS
 70
     0
  3
Solid line
 72
    65
 73
     0
 40
0.0
  0
LTYPE
  5
23
330
5
100
AcDbSymbolTableRecord
100
AcDbLinetypeTableRecord
  2
DASHED
 70
     0
  3
__ __ __ __ __ __ __ __ __ __ __ __ __ __ __
 72
    65
 73
     2
 40
0.75
 49
0.5
 74
     0
 49
-0.25
 74
     0
  0
LTYPE
  5
24
330
5
100
AcDbSymbolTableRecord
100
AcDbLinetypeTableRecord
  2
DASHDOT
 70
     0
  3
__ . __ . __ . __ . __ . __ . __ . __ . __ . __
 72
    65
 73
     4
 40
1.0
 49
0.5
 74
     0
 49
-0.25
 74
     0
 49
0.0
 74
     0
 49
-0.25
 74
     0
  0
LTYPE
  5
4C47
330
5
100
AcDbSymbolTableRecord
100
AcDbLinetypeTableRecord
  2
DIVIDE
 70
     0
  3
Divide ____ . . ____ . . ____ . . ____ . . ____
 72
    65
 73
     6
 40
1.25
 49
0.5
 74
     0
 49
-0.25
 74
     0
 49
0.0
 74
     0
 49
-0.25
 74
     0
 49
0.0
 74
     0
 49
-0.25
 74
     0
  0
ENDTAB
  0
TABLE
  2
LAYER
  5
2
330
0
100
AcDbSymbolTable
 70
    13
  0
LAYER
  5
10
102
{ACAD_XDICTIONARY
360
6368
102
}
330
2
100
AcDbSymbolTableRecord
100
AcDbLayerTableRecord
  2
0
 70
     0
 62
     7
  6
CONTINOUS
370
    -3
390
F
347
628F
348
0
  0
LAYER
  5
2F
102
{ACAD_XDICTIONARY
360
636A
102
}
330
2
100
AcDbSymbolTableRecord
100
AcDbLayerTableRecord
  2
10
 70
     0
 62
     4
  6
CONTINOUS
370
    -3
390
F
347
628F
348
0
  0
LAYER
  5
31
102
{ACAD_XDICTIONARY
360
636C
102
}
330
2
100
AcDbSymbolTableRecord
100
AcDbLayerTableRecord
  2
12
 70
     0
 62
     3
  6
CONTINOUS
370
    -3
390
F
347
628F
348
0
  0
LAYER
  5
35
102
{ACAD_XDICTIONARY
360
636E
102
}
330
2
100
AcDbSymbolTableRecord
100
AcDbLayerTableRecord
  2
16
 70
     0
 62
     6
  6
DASHDOT
370
    -3
390
F
347
628F
348
0
  0
LAYER
  5
38
102
{ACAD_XDICTIONARY
360
6370
102
}
330
2
100
AcDbSymbolTableRecord
100
AcDbLayerTableRecord
  2
19
 70
     0
 62
     7
  6
CONTINOUS
370
    -3
390
F
347
628F
348
0
  0
LAYER
  5
3C
102
{ACAD_XDICTIONARY
360
6372
102
}
330
2
100
AcDbSymbolTableRecord
100
AcDbLayerTableRecord
  2
11
 70
     0
 62
     1
  6
CONTINOUS
370
    -3
390
F
347
628F
348
0
  0
LAYER
  5
3D
102
{ACAD_XDICTIONARY
360
6374
102
}
330
2
100
AcDbSymbolTableRecord
100
AcDbLayerTableRecord
  2
24
 70
     0
 62
     2
  6
CONTINOUS
370
    -3
390
F
347
628F
348
0
  0
LAYER
  5
3A2
102
{ACAD_XDICTIONARY
360
6376
102
}
330
2
100
AcDbSymbolTableRecord
100
AcDbLayerTableRecord
  2
30
 70
     0
 62
     9
  6
CONTINUOUS
370
    -3
390
F
347
628F
348
0
  0
LAYER
  5
3A4
330
2
100
AcDbSymbolTableRecord
100
AcDbLayerTableRecord
  2
DEFPOINTS
 70
     0
 62
     7
  6
CONTINUOUS
290
     0
370
    -3
390
F
347
628F
348
0
  0
LAYER
  5
3BBA
102
{ACAD_XDICTIONARY
360
6378
102
}
330
2
100
AcDbSymbolTableRecord
100
AcDbLayerTableRecord
  2
18
 70
     0
 62
     5
  6
DIVIDE
370
    -3
390
F
347
628F
348
0
  0
LAYER
  5
5116
102
{ACAD_XDICTIONARY
360
637A
102
}
330
2
100
AcDbSymbolTableRecord
100
AcDbLayerTableRecord
  2
1
 70
     0
 62
     7
  6
CONTINUOUS
370
    -3
390
F
347
628F
348
0
  0
LAYER
  5
5117
102
{ACAD_XDICTIONARY
360
637C
102
}
330
2
100
AcDbSymbolTableRecord
100
AcDbLayerTableRecord
  2
TOP
 70
     0
 62
     7
  6
CONTINUOUS
370
    -3
390
F
347
628F
348
0
  0
LAYER
  5
5C47
102
{ACAD_XDICTIONARY
360
637E
102
}
330
2
100
AcDbSymbolTableRecord
100
AcDbLayerTableRecord
  2
17
 70
     0
 62
     2
  6
DASHDOT
370
    -3
390
F
347
628F
348
0
  0
ENDTAB
  0
TABLE
  2
STYLE
  5
3
330
0
100
AcDbSymbolTable
 70
     3
  0
STYLE
  5
11
330
3
100
AcDbSymbolTableRecord
100
AcDbTextStyleTableRecord
  2
STANDARD
 70
     0
 40
0.0
 41
1.0
 50
0.0
 71
     0
 42
2.0
  3
txt.shx
  4
bigfont.shx
  0
STYLE
  5
42
330
3
100
AcDbSymbolTableRecord
100
AcDbTextStyleTableRecord
  2
STANDARD1
 70
     0
 40
0.0
 41
1.0
 50
0.0
 71
     0
 42
5.0
  3
MONOTXT
  4
BIGFONT
  0
STYLE
  5
5016
330
3
100
AcDbSymbolTableRecord
100
AcDbTextStyleTableRecord
  2
UGMTXT
 70
     0
 40
0.0
 41
1.0
 50
0.0
 71
     0
 42
0.2
  3
ugmtxt
  4
bigfont
  0
ENDTAB
  0
TABLE
  2
VIEW
  5
6
330
0
100
AcDbSymbolTable
 70
     3
  0
VIEW
  5
230C
330
6
100
AcDbSymbolTableRecord
100
AcDbViewTableRecord
  2
OLE1
 70
     0
 40
148.912488
 10
429.497628
 20
2.560627
 41
103.145806
 11
0.0
 21
0.0
 31
1.0
 12
0.0
 22
0.0
 32
0.0
 42
50.0
 43
0.0
 44
0.0
 50
0.0
 71
     0
281
     0
 72
     0
 73
     0
348
629D
  0
VIEW
  5
230E
330
6
100
AcDbSymbolTableRecord
100
AcDbViewTableRecord
  2
OLE2
 70
     0
 40
170.778692
 10
322.66497
 20
-5.978304
 41
102.467215
 11
0.0
 21
0.0
 31
1.0
 12
0.0
 22
0.0
 32
0.0
 42
50.0
 43
0.0
 44
0.0
 50
0.0
 71
     0
281
     0
 72
     0
 73
     0
348
629D
  0
VIEW
  5
23AA
330
6
100
AcDbSymbolTableRecord
100
AcDbViewTableRecord
  2
OLE3
 70
     0
 40
591.7897389999998
 10
84.79698199999999
 20
-46.09335999999998
 41
388.792096
 11
0.0
 21
0.0
 31
1.0
 12
0.0
 22
0.0
 32
0.0
 42
50.0
 43
0.0
 44
0.0
 50
0.0
 71
     0
281
     0
 72
     0
 73
     0
348
629D
  0
ENDTAB
  0
TABLE
  2
UCS
  5
7
330
0
100
AcDbSymbolTable
 70
     0
  0
ENDTAB
  0
TABLE
  2
APPID
  5
9
330
0
100
AcDbSymbolTable
 70
     5
  0
APPID
  5
12
330
9
100
AcDbSymbolTableRecord
100
AcDbRegAppTableRecord
  2
ACAD
 70
     0
  0
APPID
  5
ECD
330
9
100
AcDbSymbolTableRecord
100
AcDbRegAppTableRecord
  2
CONTENTBLOCKICON
 70
     0
  0
APPID
  5
630E
330
9
100
AcDbSymbolTableRecord
100
AcDbRegAppTableRecord
  2
ACAD_EXEMPT_FROM_CAD_STANDARDS
 70
     0
  0
APPID
  5
6329
330
9
100
AcDbSymbolTableRecord
100
AcDbRegAppTableRecord
  2
ACAD_NAV_VCDISPLAY
 70
     0
  0
APPID
  5
64DC
330
9
100
AcDbSymbolTableRecord
100
AcDbRegAppTableRecord
  2
ACAD_MLEADERVER
 70
     0
  0
ENDTAB
  0
TABLE
  2
DIMSTYLE
  5
A
330
0
100
AcDbSymbolTable
 70
     1
100
AcDbDimStyleTable
 71
     1
340
175
  0
DIMSTYLE
105
175
102
{ACAD_REACTORS
330
54D8
330
5844
330
59D1
330
59D0
330
59B9
330
59D2
330
59C6
330
59BE
330
585D
330
59FD
330
59F0
330
59BB
330
59BA
330
5847
330
5E5B
330
5E68
330
5EB9
330
5EC6
330
606B
330
6175
330
6186
330
616E
330
62F4
330
631C
330
633E
330
634B
102
}
330
A
100
AcDbSymbolTableRecord
100
AcDbDimStyleTableRecord
  2
STANDARD
 70
     0
 41
2.0
 42
1.0
 43
0.5
 44
0.5
 73
     0
 77
     3
 78
    12
140
4.0
147
1.0
271
     1
272
     1
340
11
341
3B2
342
3B2
  0
ENDTAB
  0
TABLE
  2
BLOCK_RECORD
  5
1
330
0
100
AcDbSymbolTable
 70
    47
  0
BLOCK_RECORD
  5
1E
102
{ACAD_XDICTIONARY
360
178
102
}
330
1
100
AcDbSymbolTableRecord
100
AcDbBlockTableRecord
  2
*MODEL_SPACE
340
6262
 70
     0
280
     1
281
     0
  0
BLOCK_RECORD
  5
1A
102
{ACAD_XDICTIONARY
360
17A
102
}
330
1
100
AcDbSymbolTableRecord
100
AcDbBlockTableRecord
  2
*PAPER_SPACE
340
6263
 70
     0
280
     1
281
     0
  0
BLOCK_RECORD
  5
3B2
330
1
100
AcDbSymbolTableRecord
100
AcDbBlockTableRecord
  2
_OPEN
340
0
102
{BLKREFS
331
6308
331
6309
331
6168
331
6133
331
6134
331
6120
331
6121
331
6035
331
6036
331
6051
331
6052
331
610D
331
610E
331
60DF
331
60E0
331
60C4
331
60C5
331
62E1
331
62E2
331
62EE
331
62EF
331
6323
331
6324
331
6345
331
6346
331
62D4
331
62D5
331
6145
331
6146
331
614E
331
614F
331
5F5C
331
5F5D
331
5F53
331
5F54
331
6255
331
6256
331
60BB
331
60BC
331
61C6
331
61F1
331
6000
331
6001
331
5FF7
331
5FF8
331
5FEE
331
5FEF
331
613C
331
613D
331
6428
331
6429
331
6438
331
6439
331
6445
331
6446
331
6352
331
6353
331
61F9
331
61FA
331
61D7
331
61DF
331
61E0
331
61E8
331
61E9
331
605A
331
605B
331
6065
331
6066
331
5F88
331
5F89
331
6157
331
6158
331
654E
331
654F
331
64ED
331
64EE
102
}
 70
     0
280
     1
281
     0
  0
BLOCK_RECORD
  5
54D9
330
1
100
AcDbSymbolTableRecord
100
AcDbBlockTableRecord
  2
*D1
340
0
 70
     0
280
     1
281
     0
  0
BLOCK_RECORD
  5
5879
330
1
100
AcDbSymbolTableRecord
100
AcDbBlockTableRecord
  2
*D2
340
0
 70
     0
280
     1
281
     0
  0
BLOCK_RECORD
  5
5885
330
1
100
AcDbSymbolTableRecord
100
AcDbBlockTableRecord
  2
*D3
340
0
 70
     0
280
     1
281
     0
  0
BLOCK_RECORD
  5
5891
330
1
100
AcDbSymbolTableRecord
100
AcDbBlockTableRecord
  2
*D4
340
0
 70
     0
280
     1
281
     0
  0
BLOCK_RECORD
  5
58CA
330
1
100
AcDbSymbolTableRecord
100
AcDbBlockTableRecord
  2
*U5
340
0
102
{BLKREFS
331
59F3
102
}
 70
     0
280
     1
281
     0
  0
BLOCK_RECORD
  5
58CE
330
1
100
AcDbSymbolTableRecord
100
AcDbBlockTableRecord
  2
*U6
340
0
102
{BLKREFS
331
59F2
102
}
 70
     0
280
     1
281
     0
  0
BLOCK_RECORD
  5
58DA
330
1
100
AcDbSymbolTableRecord
100
AcDbBlockTableRecord
  2
*U7
340
0
 70
     0
280
     1
281
     0
  0
BLOCK_RECORD
  5
58DE
330
1
100
AcDbSymbolTableRecord
100
AcDbBlockTableRecord
  2
*U8
340
0
102
{BLKREFS
331
59F1
102
}
 70
     0
280
     1
281
     0
  0
BLOCK_RECORD
  5
58E2
330
1
100
AcDbSymbolTableRecord
100
AcDbBlockTableRecord
  2
*U9
340
0
 70
     0
280
     1
281
     0
  0
BLOCK_RECORD
  5
5A00
330
1
100
AcDbSymbolTableRecord
100
AcDbBlockTableRecord
  2
*D10
340
0
 70
     0
280
     1
281
     0
  0
BLOCK_RECORD
  5
5A0C
330
1
100
AcDbSymbolTableRecord
100
AcDbBlockTableRecord
  2
*D11
340
0
 70
     0
280
     1
281
     0
  0
BLOCK_RECORD
  5
5A19
330
1
100
AcDbSymbolTableRecord
100
AcDbBlockTableRecord
  2
*D12
340
0
 70
     0
280
     1
281
     0
  0
BLOCK_RECORD
  5
5A25
330
1
100
AcDbSymbolTableRecord
100
AcDbBlockTableRecord
  2
*D13
340
0
 70
     0
280
     1
281
     0
  0
BLOCK_RECORD
  5
5A31
330
1
100
AcDbSymbolTableRecord
100
AcDbBlockTableRecord
  2
*D14
340
0
 70
     0
280
     1
281
     0
  0
BLOCK_RECORD
  5
5A3D
330
1
100
AcDbSymbolTableRecord
100
AcDbBlockTableRecord
  2
*D15
340
0
 70
     0
280
     1
281
     0
  0
BLOCK_RECORD
  5
5A49
330
1
100
AcDbSymbolTableRecord
100
AcDbBlockTableRecord
  2
*D16
340
0
 70
     0
280
     1
281
     0
  0
BLOCK_RECORD
  5
5A55
330
1
100
AcDbSymbolTableRecord
100
AcDbBlockTableRecord
  2
*D17
340
0
 70
     0
280
     1
281
     0
  0
BLOCK_RECORD
  5
5A61
330
1
100
AcDbSymbolTableRecord
100
AcDbBlockTableRecord
  2
*D18
340
0
 70
     0
280
     1
281
     0
  0
BLOCK_RECORD
  5
5A6D
330
1
100
AcDbSymbolTableRecord
100
AcDbBlockTableRecord
  2
*D19
340
0
 70
     0
280
     1
281
     0
  0
BLOCK_RECORD
  5
5AF5
330
1
100
AcDbSymbolTableRecord
100
AcDbBlockTableRecord
  2
*U20
340
0
 70
     0
280
     1
281
     0
  0
BLOCK_RECORD
  5
5B4A
330
1
100
AcDbSymbolTableRecord
100
AcDbBlockTableRecord
  2
*D21
340
0
 70
     0
280
     1
281
     0
  0
BLOCK_RECORD
  5
5B56
330
1
100
AcDbSymbolTableRecord
100
AcDbBlockTableRecord
  2
*D22
340
0
 70
     0
280
     1
281
     0
  0
BLOCK_RECORD
  5
5E09
330
1
100
AcDbSymbolTableRecord
100
AcDbBlockTableRecord
  2
*D23
340
0
 70
     0
280
     1
281
     0
  0
BLOCK_RECORD
  5
5E14
330
1
100
AcDbSymbolTableRecord
100
AcDbBlockTableRecord
  2
*D24
340
0
 70
     0
280
     1
281
     0
  0
BLOCK_RECORD
  5
5E5C
330
1
100
AcDbSymbolTableRecord
100
AcDbBlockTableRecord
  2
*D25
340
0
 70
     0
280
     1
281
     0
  0
BLOCK_RECORD
  5
5E69
330
1
100
AcDbSymbolTableRecord
100
AcDbBlockTableRecord
  2
*D26
340
0
 70
     0
280
     1
281
     0
  0
BLOCK_RECORD
  5
5EBA
330
1
100
AcDbSymbolTableRecord
100
AcDbBlockTableRecord
  2
*D27
340
0
 70
     0
280
     1
281
     0
  0
BLOCK_RECORD
  5
5EC7
330
1
100
AcDbSymbolTableRecord
100
AcDbBlockTableRecord
  2
*D28
340
0
 70
     0
280
     1
281
     0
  0
BLOCK_RECORD
  5
606C
330
1
100
AcDbSymbolTableRecord
100
AcDbBlockTableRecord
  2
*D29
340
0
 70
     0
280
     1
281
     0
  0
BLOCK_RECORD
  5
6189
330
1
100
AcDbSymbolTableRecord
100
AcDbBlockTableRecord
  2
*D30
340
0
 70
     0
280
     1
281
     0
  0
BLOCK_RECORD
  5
6194
330
1
100
AcDbSymbolTableRecord
100
AcDbBlockTableRecord
  2
*D31
340
0
 70
     0
280
     1
281
     0
  0
BLOCK_RECORD
  5
61A0
330
1
100
AcDbSymbolTableRecord
100
AcDbBlockTableRecord
  2
*D32
340
0
 70
     0
280
     1
281
     0
  0
BLOCK_RECORD
  5
61AB
330
1
100
AcDbSymbolTableRecord
100
AcDbBlockTableRecord
  2
*D33
340
0
 70
     0
280
     1
281
     0
  0
BLOCK_RECORD
  5
61B7
330
1
100
AcDbSymbolTableRecord
100
AcDbBlockTableRecord
  2
*D34
340
0
 70
     0
280
     1
281
     0
  0
BLOCK_RECORD
  5
62CE
330
1
100
AcDbSymbolTableRecord
100
AcDbBlockTableRecord
  2
*D35
340
0
 70
     0
280
     1
281
     0
  0
BLOCK_RECORD
  5
62DB
330
1
100
AcDbSymbolTableRecord
100
AcDbBlockTableRecord
  2
*D36
340
0
 70
     0
280
     1
281
     0
  0
BLOCK_RECORD
  5
62E8
330
1
100
AcDbSymbolTableRecord
100
AcDbBlockTableRecord
  2
*D37
340
0
 70
     0
280
     1
281
     0
  0
BLOCK_RECORD
  5
62F5
330
1
100
AcDbSymbolTableRecord
100
AcDbBlockTableRecord
  2
*D38
340
0
 70
     0
280
     1
281
     0
  0
BLOCK_RECORD
  5
6302
330
1
100
AcDbSymbolTableRecord
100
AcDbBlockTableRecord
  2
*D39
340
0
 70
     0
280
     1
281
     0
  0
BLOCK_RECORD
  5
631D
330
1
100
AcDbSymbolTableRecord
100
AcDbBlockTableRecord
  2
*D40
340
0
 70
     0
280
     1
281
     0
  0
BLOCK_RECORD
  5
633F
330
1
100
AcDbSymbolTableRecord
100
AcDbBlockTableRecord
  2
*D41
340
0
 70
     0
280
     1
281
     0
  0
BLOCK_RECORD
  5
634C
330
1
100
AcDbSymbolTableRecord
100
AcDbBlockTableRecord
  2
*D42
340
0
 70
     0
280
     1
281
     0
  0
BLOCK_RECORD
  5
6421
330
1
100
AcDbSymbolTableRecord
100
AcDbBlockTableRecord
  2
*D43
340
0
 70
     0
280
     1
281
     0
  0
BLOCK_RECORD
  5
6432
330
1
100
AcDbSymbolTableRecord
100
AcDbBlockTableRecord
  2
*D44
340
0
 70
     0
280
     1
281
     0
  0
BLOCK_RECORD
  5
643F
330
1
100
AcDbSymbolTableRecord
100
AcDbBlockTableRecord
  2
*D45
340
0
 70
     0
280
     1
281
     0
  0
BLOCK_RECORD
  5
6548
330
1
100
AcDbSymbolTableRecord
100
AcDbBlockTableRecord
  2
*D46
340
0
 70
     0
280
     1
281
     0
  0
ENDTAB
  0
ENDSEC
  0
SECTION
  2
BLOCKS
  0
BLOCK
  5
1F
330
1E
100
AcDbEntity
  8
0
100
AcDbBlockBegin
  2
*MODEL_SPACE
 70
     0
 10
0.0
 20
0.0
 30
0.0
  3
*MODEL_SPACE
  1

  0
ENDBLK
  5
20
330
1E
100
AcDbEntity
  8
0
100
AcDbBlockEnd
  0
BLOCK
  5
1B
330
1A
100
AcDbEntity
 67
     1
  8
0
100
AcDbBlockBegin
  2
*PAPER_SPACE
 70
     0
 10
0.0
 20
0.0
 30
0.0
  3
*PAPER_SPACE
  1

  0
ENDBLK
  5
1C
330
1A
100
AcDbEntity
 67
     1
  8
0
100
AcDbBlockEnd
  0
BLOCK
  5
3B6
330
3B2
100
AcDbEntity
  8
0
100
AcDbBlockBegin
  2
_OPEN
 70
     0
 10
0.0
 20
0.0
 30
0.0
  3
_OPEN
  1

  0
LINE
  5
3B3
330
3B2
100
AcDbEntity
  8
30
  6
Continuous
 62
     0
100
AcDbLine
 10
-1.0
 20
0.166667
 30
0.0
 11
0.0
 21
0.0
 31
0.0
  0
LINE
  5
3B4
330
3B2
100
AcDbEntity
  8
30
  6
Continuous
 62
     0
100
AcDbLine
 10
-1.0
 20
-0.166667
 30
0.0
 11
0.0
 21
0.0
 31
0.0
  0
LINE
  5
3B5
330
3B2
100
AcDbEntity
  8
30
  6
Continuous
 62
     0
100
AcDbLine
 10
0.0
 20
0.0
 30
0.0
 11
-1.0
 21
0.0
 31
0.0
  0
ENDBLK
  5
3B7
330
3B2
100
AcDbEntity
  8
0
100
AcDbBlockEnd
  0
BLOCK
  5
54E2
330
54D9
100
AcDbEntity
  8
0
100
AcDbBlockBegin
  2
*D1
 70
     1
 10
0.0
 20
0.0
 30
0.0
  3
*D1
  1

  0
LINE
  5
61EE
330
54D9
100
AcDbEntity
  8
30
  6
Continuous
 62
     0
440
 16777216
100
AcDbLine
 10
36.8038771621271
 20
-169.3084657831921
 30
0.0
 11
15.67054382879376
 21
-169.3084657831921
 31
0.0
  0
LINE
  5
61EF
330
54D9
100
AcDbEntity
  8
30
  6
Continuous
 62
     0
440
 16777216
100
AcDbLine
 10
15.67054382879376
 20
-169.3084657831921
 30
0.0
 11
3.665112045925908
 21
-181.0489814598111
 31
0.0
  0
MTEXT
  5
61F0
330
54D9
100
AcDbEntity
  8
30
  6
Continuous
 62
     0
440
 16777216
100
AcDbMText
 10
26.73721049546045
 20
-166.308465783192
 30
0.0
 40
4.0
 41
0.0
 46
0.0
 71
     5
 72
     1
  1
\A1;M4×0.7
 73
     1
 44
1.0
1001
ACAD
1000
MTEXTBEGIN
1070
    73
1070
     1
1070
    44
1040
1.0
1070
    74
1070
     0
1000
MTEXTEND
  0
INSERT
  5
61F1
330
54D9
100
AcDbEntity
  8
30
  6
Continuous
 62
     0
440
 16777216
100
AcDbBlockReference
  2
_OPEN
 10
2.235210122523779
 20
-182.4473306613523
 30
0.0
 41
2.0
 42
2.0
 43
2.0
 50
224.3608195602196
  0
LINE
  5
61F2
330
54D9
100
AcDbEntity
  8
30
  6
Continuous
 62
     0
440
 16777216
100
AcDbLine
 10
0.0003570475388415
 20
-184.5448546493558
 30
0.0
 11
0.1803570475388483
 21
-184.5448546493558
 31
0.0
  0
LINE
  5
61F3
330
54D9
100
AcDbEntity
  8
30
  6
Continuous
 62
     0
440
 16777216
100
AcDbLine
 10
0.0903570475388449
 20
-184.6348546493558
 30
0.0
 11
0.0903570475388449
 21
-184.4548546493555
 31
0.0
  0
POINT
  5
61F4
330
54D9
100
AcDbEntity
  8
DEFPOINTS
  6
Continuous
 62
     0
440
 16777216
100
AcDbPoint
 10
2.235210122523779
 20
-182.4473306613523
 30
0.0
  0
POINT
  5
61F5
330
54D9
100
AcDbEntity
  8
DEFPOINTS
  6
Continuous
 62
     0
440
 16777216
100
AcDbPoint
 10
-2.054496027446063
 20
-186.6423786373593
 30
0.0
  0
ENDBLK
  5
54E3
330
54D9
100
AcDbEntity
  8
0
100
AcDbBlockEnd
  0
BLOCK
  5
5883
330
5879
100
AcDbEntity
  8
0
100
AcDbBlockBegin
  2
*D2
 70
     1
 10
0.0
 20
0.0
 30
0.0
  3
*D2
  1

  0
LINE
  5
5FFD
330
5879
100
AcDbEntity
  8
30
  6
Continuous
 62
     0
440
 16777216
100
AcDbLine
 10
-29.99999999999999
 20
-78.50000000000003
 30
0.0
 11
-30.0
 21
-122.2494181439514
 31
0.0
  0
LINE
  5
5FFE
330
5879
100
AcDbEntity
  8
30
  6
Continuous
 62
     0
440
 16777216
100
AcDbLine
 10
30.0
 20
-78.50000000000003
 30
0.0
 11
30.0
 21
-122.2494181439514
 31
0.0
  0
LINE
  5
5FFF
330
5879
100
AcDbEntity
  8
30
  6
Continuous
 62
     0
440
 16777216
100
AcDbLine
 10
-27.99999999999998
 20
-121.7494181439514
 30
0.0
 11
27.99999999999998
 21
-121.7494181439514
 31
0.0
  0
INSERT
  5
6000
330
5879
100
AcDbEntity
  8
30
  6
Continuous
 62
     0
440
 16777216
100
AcDbBlockReference
  2
_OPEN
 10
-30.0
 20
-121.7494181439514
 30
0.0
 41
2.0
 42
2.0
 43
2.0
 50
180.0
  0
INSERT
  5
6001
330
5879
100
AcDbEntity
  8
30
  6
Continuous
 62
     0
440
 16777216
100
AcDbBlockReference
  2
_OPEN
 10
30.0
 20
-121.7494181439514
 30
0.0
 41
2.0
 42
2.0
 43
2.0
  0
MTEXT
  5
6002
330
5879
100
AcDbEntity
  8
30
  6
Continuous
 62
     0
440
 16777216
100
AcDbMText
 10
0.0000000000000002
 20
-118.7494181439514
 30
0.0
 40
4.0
 41
0.0
 46
0.0
 71
     5
 72
     1
  1
\A1;60
 73
     1
 44
1.0
1001
ACAD
1000
MTEXTBEGIN
1070
    73
1070
     1
1070
    44
1040
1.0
1070
    74
1070
     0
1000
MTEXTEND
  0
POINT
  5
6003
330
5879
100
AcDbEntity
  8
DEFPOINTS
  6
Continuous
 62
     0
440
 16777216
100
AcDbPoint
 10
-29.99999999999999
 20
-77.50000000000003
 30
0.0
  0
POINT
  5
6004
330
5879
100
AcDbEntity
  8
DEFPOINTS
  6
Continuous
 62
     0
440
 16777216
100
AcDbPoint
 10
30.0
 20
-77.50000000000003
 30
0.0
  0
POINT
  5
6005
330
5879
100
AcDbEntity
  8
DEFPOINTS
  6
Continuous
 62
     0
440
 16777216
100
AcDbPoint
 10
30.0
 20
-121.7494181439514
 30
0.0
  0
ENDBLK
  5
5884
330
5879
100
AcDbEntity
  8
0
100
AcDbBlockEnd
  0
BLOCK
  5
588F
330
5885
100
AcDbEntity
  8
0
100
AcDbBlockBegin
  2
*D3
 70
     1
 10
0.0
 20
0.0
 30
0.0
  3
*D3
  1

  0
LINE
  5
5FF4
330
5885
100
AcDbEntity
  8
30
  6
Continuous
 62
     0
440
 16777216
100
AcDbLine
 10
-14.99999999999998
 20
-70.50000001650004
 30
0.0
 11
-14.99999999999998
 21
-102.2494181439514
 31
0.0
  0
LINE
  5
5FF5
330
5885
100
AcDbEntity
  8
30
  6
Continuous
 62
     0
440
 16777216
100
AcDbLine
 10
15.0
 20
-70.50000001650004
 30
0.0
 11
15.0
 21
-102.2494181439514
 31
0.0
  0
LINE
  5
5FF6
330
5885
100
AcDbEntity
  8
30
  6
Continuous
 62
     0
440
 16777216
100
AcDbLine
 10
-12.99999999999998
 20
-101.7494181439513
 30
0.0
 11
12.99999999999999
 21
-101.7494181439513
 31
0.0
  0
INSERT
  5
5FF7
330
5885
100
AcDbEntity
  8
30
  6
Continuous
 62
     0
440
 16777216
100
AcDbBlockReference
  2
_OPEN
 10
-14.99999999999998
 20
-101.7494181439513
 30
0.0
 41
2.0
 42
2.0
 43
2.0
 50
180.0
  0
INSERT
  5
5FF8
330
5885
100
AcDbEntity
  8
30
  6
Continuous
 62
     0
440
 16777216
100
AcDbBlockReference
  2
_OPEN
 10
15.0
 20
-101.7494181439513
 30
0.0
 41
2.0
 42
2.0
 43
2.0
  0
MTEXT
  5
5FF9
330
5885
100
AcDbEntity
  8
30
  6
Continuous
 62
     0
440
 16777216
100
AcDbMText
 10
0.0000000000000082
 20
-98.7494181439515
 30
0.0
 40
4.0
 41
0.0
 46
0.0
 71
     5
 72
     1
  1
\A1;30
 73
     1
 44
1.0
1001
ACAD
1000
MTEXTBEGIN
1070
    73
1070
     1
1070
    44
1040
1.0
1070
    74
1070
     0
1000
MTEXTEND
  0
POINT
  5
5FFA
330
5885
100
AcDbEntity
  8
DEFPOINTS
  6
Continuous
 62
     0
440
 16777216
100
AcDbPoint
 10
-14.99999999999998
 20
-69.50000001650003
 30
0.0
  0
POINT
  5
5FFB
330
5885
100
AcDbEntity
  8
DEFPOINTS
  6
Continuous
 62
     0
440
 16777216
100
AcDbPoint
 10
15.0
 20
-69.50000001650003
 30
0.0
  0
POINT
  5
5FFC
330
5885
100
AcDbEntity
  8
DEFPOINTS
  6
Continuous
 62
     0
440
 16777216
100
AcDbPoint
 10
15.0
 20
-101.7494181439513
 30
0.0
  0
ENDBLK
  5
5890
330
5885
100
AcDbEntity
  8
0
100
AcDbBlockEnd
  0
BLOCK
  5
589B
330
5891
100
AcDbEntity
  8
0
100
AcDbBlockBegin
  2
*D4
 70
     1
 10
0.0
 20
0.0
 30
0.0
  3
*D4
  1

  0
LINE
  5
5FEB
330
5891
100
AcDbEntity
  8
30
  6
Continuous
 62
     0
440
 16777216
100
AcDbLine
 10
-27.49999999999998
 20
25.99999999999996
 30
0.0
 11
-27.49999999999998
 21
33.09950840068013
 31
0.0
  0
LINE
  5
5FEC
330
5891
100
AcDbEntity
  8
30
  6
Continuous
 62
     0
440
 16777216
100
AcDbLine
 10
27.5
 20
25.99999999999996
 30
0.0
 11
27.5
 21
33.09950840068013
 31
0.0
  0
LINE
  5
5FED
330
5891
100
AcDbEntity
  8
30
  6
Continuous
 62
     0
440
 16777216
100
AcDbLine
 10
-25.49999999999998
 20
32.59950840068013
 30
0.0
 11
25.5
 21
32.59950840068013
 31
0.0
  0
INSERT
  5
5FEE
330
5891
100
AcDbEntity
  8
30
  6
Continuous
 62
     0
440
 16777216
100
AcDbBlockReference
  2
_OPEN
 10
-27.49999999999998
 20
32.59950840068013
 30
0.0
 41
2.0
 42
2.0
 43
2.0
 50
180.0
  0
INSERT
  5
5FEF
330
5891
100
AcDbEntity
  8
30
  6
Continuous
 62
     0
440
 16777216
100
AcDbBlockReference
  2
_OPEN
 10
27.5
 20
32.59950840068013
 30
0.0
 41
2.0
 42
2.0
 43
2.0
  0
MTEXT
  5
5FF0
330
5891
100
AcDbEntity
  8
30
  6
Continuous
 62
     0
440
 16777216
100
AcDbMText
 10
0.0000000000000091
 20
35.59950840068013
 30
0.0
 40
4.0
 41
0.0
 46
0.0
 71
     5
 72
     1
  1
\A1;55
 73
     1
 44
1.0
1001
ACAD
1000
MTEXTBEGIN
1070
    73
1070
     1
1070
    44
1040
1.0
1070
    74
1070
     0
1000
MTEXTEND
  0
POINT
  5
5FF1
330
5891
100
AcDbEntity
  8
DEFPOINTS
  6
Continuous
 62
     0
440
 16777216
100
AcDbPoint
 10
-27.49999999999998
 20
24.99999999999996
 30
0.0
  0
POINT
  5
5FF2
330
5891
100
AcDbEntity
  8
DEFPOINTS
  6
Continuous
 62
     0
440
 16777216
100
AcDbPoint
 10
27.5
 20
24.99999999999996
 30
0.0
  0
POINT
  5
5FF3
330
5891
100
AcDbEntity
  8
DEFPOINTS
  6
Continuous
 62
     0
440
 16777216
100
AcDbPoint
 10
27.5
 20
32.59950840068013
 30
0.0
  0
ENDBLK
  5
589C
330
5891
100
AcDbEntity
  8
0
100
AcDbBlockEnd
  0
BLOCK
  5
58CC
330
58CA
100
AcDbEntity
  8
TOP
  6
Continuous
 62
     4
100
AcDbBlockBegin
  2
*U5
 70
     1
 10
0.0
 20
0.0
 30
0.0
  3
*U5
  1

  0
TEXT
  5
58CB
330
58CA
100
AcDbEntity
  8
TOP
  6
ByBlock
 62
     0
100
AcDbText
 10
249.4949984839538
 20
103.4999999999999
 30
0.0
 40
2.500000003799998
  1
17
 41
0.78325
  7
UGMTXT
100
AcDbText
  0
ENDBLK
  5
58CD
330
58CA
100
AcDbEntity
  8
0
100
AcDbBlockEnd
  0
BLOCK
  5
58D0
330
58CE
100
AcDbEntity
  8
TOP
  6
Continuous
 62
     4
100
AcDbBlockBegin
  2
*U6
 70
     1
 10
0.0
 20
0.0
 30
0.0
  3
*U6
  1

  0
TEXT
  5
58CF
330
58CE
100
AcDbEntity
  8
TOP
  6
ByBlock
 62
     0
100
AcDbText
 10
252.6153110179847
 20
103.4999999999999
 30
0.0
 40
2.500000003799998
  1
(max.)
 41
0.7263970588235275
  7
UGMTXT
100
AcDbText
  0
ENDBLK
  5
58D1
330
58CE
100
AcDbEntity
  8
0
100
AcDbBlockEnd
  0
BLOCK
  5
58DC
330
58DA
100
AcDbEntity
  8
TOP
  6
Continuous
 62
     4
100
AcDbBlockBegin
  2
*U7
 70
     1
 10
0.0
 20
0.0
 30
0.0
  3
*U7
  1

  0
TEXT
  5
58DB
330
58DA
100
AcDbEntity
  8
TOP
  6
ByBlock
 62
     0
100
AcDbText
 10
236.6619255869728
 20
58.26042938214733
 30
0.0
 40
2.500000003799998
  1
8
 41
1.054062499999999
  7
UGMTXT
100
AcDbText
  0
ENDBLK
  5
58DD
330
58DA
100
AcDbEntity
  8
0
100
AcDbBlockEnd
  0
BLOCK
  5
58E0
330
58DE
100
AcDbEntity
  8
TOP
  6
Continuous
 62
     4
100
AcDbBlockBegin
  2
*U8
 70
     1
 10
0.0
 20
0.0
 30
0.0
  3
*U8
  1

  0
TEXT
  5
58DF
330
58DE
100
AcDbEntity
  8
TOP
  6
ByBlock
 62
     0
100
AcDbText
 10
250.6153110179847
 20
99.29999999999997
 30
0.0
 40
2.500000003799998
  1
max.t5
 41
0.7263970588235275
  7
UGMTXT
100
AcDbText
  0
ENDBLK
  5
58E1
330
58DE
100
AcDbEntity
  8
0
100
AcDbBlockEnd
  0
BLOCK
  5
58E9
330
58E2
100
AcDbEntity
  8
TOP
  6
Continuous
 62
     4
100
AcDbBlockBegin
  2
*U9
 70
     1
 10
0.0
 20
0.0
 30
0.0
  3
*U9
  1

  0
LINE
  5
58E3
330
58E2
100
AcDbEntity
  8
1
  6
ByBlock
 62
     0
100
AcDbLine
 10
235.8153110047847
 20
66.71019663782792
 30
0.0
 11
235.8153110047847
 21
56.01042938024733
 31
0.0
  0
LINE
  5
58E4
330
58E2
100
AcDbEntity
  8
1
  6
ByBlock
 62
     0
100
AcDbLine
 10
239.0153110047847
 20
69.41019663122792
 30
0.0
 11
239.0153110047847
 21
56.01042938024733
 31
0.0
  0
LINE
  5
58E5
330
58E2
100
AcDbEntity
  8
1
  6
ByBlock
 62
     0
100
AcDbLine
 10
233.3153110047847
 20
57.01042938024731
 30
0.0
 11
241.5153110047846
 21
57.01042938024731
 31
0.0
  0
SOLID
  5
58E6
330
58E2
100
AcDbEntity
  8
1
  6
ByBlock
 62
     0
100
AcDbTrace
 10
235.8153110047847
 20
57.01042938024731
 30
0.0
 11
233.8153109915847
 21
56.67709604471401
 31
0.0
 12
233.8153109915847
 22
57.34376271578065
 32
0.0
 13
233.8153109915847
 23
57.34376271578065
 33
0.0
  0
SOLID
  5
58E7
330
58E2
100
AcDbEntity
  8
1
  6
ByBlock
 62
     0
100
AcDbTrace
 10
239.0153110047847
 20
57.01042938024731
 30
0.0
 11
241.0153110179845
 21
57.34376271578065
 31
0.0
 12
241.0153110179845
 22
56.67709604471401
 32
0.0
 13
241.0153110179845
 23
56.67709604471401
 33
0.0
  0
TEXT
  5
58E8
330
58E2
100
AcDbEntity
  8
TOP
  6
ByBlock
 62
     0
100
AcDbText
 10
237.1139568381178
 20
57.51042938024731
 30
0.0
 40
1.0
  1
 
 41
1.054062499999999
  7
UGMTXT
100
AcDbText
  0
ENDBLK
  5
58EA
330
58E2
100
AcDbEntity
  8
0
100
AcDbBlockEnd
  0
BLOCK
  5
5A0A
330
5A00
100
AcDbEntity
  8
0
100
AcDbBlockBegin
  2
*D10
 70
     1
 10
0.0
 20
0.0
 30
0.0
  3
*D10
  1

  0
LINE
  5
6139
330
5A00
100
AcDbEntity
  8
30
  6
Continuous
 62
     0
440
 16777216
100
AcDbLine
 10
126.0000000000002
 20
-0.9999999999998999
 30
0.0
 11
126.0000000000001
 21
-133.2076239685596
 31
0.0
  0
LINE
  5
613A
330
5A00
100
AcDbEntity
  8
30
  6
Continuous
 62
     0
440
 16777216
100
AcDbLine
 10
218.0000000000001
 20
-78.49999999999993
 30
0.0
 11
218.0000000000001
 21
-133.2076239685596
 31
0.0
  0
LINE
  5
613B
330
5A00
100
AcDbEntity
  8
30
  6
Continuous
 62
     0
440
 16777216
100
AcDbLine
 10
128.0
 20
-132.7076239685594
 30
0.0
 11
216.0000000000001
 21
-132.7076239685594
 31
0.0
  0
INSERT
  5
613C
330
5A00
100
AcDbEntity
  8
30
  6
Continuous
 62
     0
440
 16777216
100
AcDbBlockReference
  2
_OPEN
 10
126.0000000000001
 20
-132.7076239685594
 30
0.0
 41
2.0
 42
2.0
 43
2.0
 50
180.0
  0
INSERT
  5
613D
330
5A00
100
AcDbEntity
  8
30
  6
Continuous
 62
     0
440
 16777216
100
AcDbBlockReference
  2
_OPEN
 10
218.0000000000001
 20
-132.7076239685594
 30
0.0
 41
2.0
 42
2.0
 43
2.0
  0
MTEXT
  5
613E
330
5A00
100
AcDbEntity
  8
30
  6
Continuous
 62
     0
440
 16777216
100
AcDbMText
 10
172.0
 20
-129.7076239685596
 30
0.0
 40
4.0
 41
0.0
 46
0.0
 71
     5
 72
     1
  1
\A1;92
 73
     1
 44
1.0
1001
ACAD
1000
MTEXTBEGIN
1070
    73
1070
     1
1070
    44
1040
1.0
1070
    74
1070
     0
1000
MTEXTEND
  0
POINT
  5
613F
330
5A00
100
AcDbEntity
  8
DEFPOINTS
  6
Continuous
 62
     0
440
 16777216
100
AcDbPoint
 10
126.0000000000002
 20
0.0000000000000999
 30
0.0
  0
POINT
  5
6140
330
5A00
100
AcDbEntity
  8
DEFPOINTS
  6
Continuous
 62
     0
440
 16777216
100
AcDbPoint
 10
218.0000000000001
 20
-77.49999999999992
 30
0.0
  0
POINT
  5
6141
330
5A00
100
AcDbEntity
  8
DEFPOINTS
  6
Continuous
 62
     0
440
 16777216
100
AcDbPoint
 10
218.0000000000001
 20
-132.7076239685594
 30
0.0
  0
ENDBLK
  5
5A0B
330
5A00
100
AcDbEntity
  8
0
100
AcDbBlockEnd
  0
BLOCK
  5
5A17
330
5A0C
100
AcDbEntity
  8
0
100
AcDbBlockBegin
  2
*D11
 70
     1
 10
0.0
 20
0.0
 30
0.0
  3
*D11
  1

  0
LINE
  5
612F
330
5A0C
100
AcDbEntity
  8
30
  6
Continuous
 62
     0
440
 16777216
100
AcDbLine
 10
142.0
 20
-25.9999999999999
 30
0.0
 11
142.0
 21
-121.7873562020025
 31
0.0
  0
LINE
  5
6130
330
5A0C
100
AcDbEntity
  8
30
  6
Continuous
 62
     0
440
 16777216
100
AcDbLine
 10
146.0
 20
-25.9999999999999
 30
0.0
 11
146.0
 21
-121.7873562020025
 31
0.0
  0
LINE
  5
6131
330
5A0C
100
AcDbEntity
  8
30
  6
Continuous
 62
     0
440
 16777216
100
AcDbLine
 10
140.0
 20
-121.2873562020025
 30
0.0
 11
138.0
 21
-121.2873562020025
 31
0.0
  0
LINE
  5
6132
330
5A0C
100
AcDbEntity
  8
30
  6
Continuous
 62
     0
440
 16777216
100
AcDbLine
 10
148.0
 20
-121.2873562020025
 30
0.0
 11
154.6666666666665
 21
-121.2873562020025
 31
0.0
  0
INSERT
  5
6133
330
5A0C
100
AcDbEntity
  8
30
  6
Continuous
 62
     0
440
 16777216
100
AcDbBlockReference
  2
_OPEN
 10
142.0
 20
-121.2873562020025
 30
0.0
 41
2.0
 42
2.0
 43
2.0
  0
INSERT
  5
6134
330
5A0C
100
AcDbEntity
  8
30
  6
Continuous
 62
     0
440
 16777216
100
AcDbBlockReference
  2
_OPEN
 10
146.0
 20
-121.2873562020025
 30
0.0
 41
2.0
 42
2.0
 43
2.0
 50
180.0
  0
MTEXT
  5
6135
330
5A0C
100
AcDbEntity
  8
30
  6
Continuous
 62
     0
440
 16777216
100
AcDbMText
 10
152.3333333333333
 20
-118.2873562020025
 30
0.0
 40
4.0
 41
0.0
 46
0.0
 71
     5
 72
     1
  1
\A1;4
 73
     1
 44
1.0
1001
ACAD
1000
MTEXTBEGIN
1070
    73
1070
     1
1070
    44
1040
1.0
1070
    74
1070
     0
1000
MTEXTEND
  0
POINT
  5
6136
330
5A0C
100
AcDbEntity
  8
DEFPOINTS
  6
Continuous
 62
     0
440
 16777216
100
AcDbPoint
 10
142.0
 20
-24.9999999999999
 30
0.0
  0
POINT
  5
6137
330
5A0C
100
AcDbEntity
  8
DEFPOINTS
  6
Continuous
 62
     0
440
 16777216
100
AcDbPoint
 10
146.0
 20
-24.9999999999999
 30
0.0
  0
POINT
  5
6138
330
5A0C
100
AcDbEntity
  8
DEFPOINTS
  6
Continuous
 62
     0
440
 16777216
100
AcDbPoint
 10
146.0
 20
-121.2873562020025
 30
0.0
  0
ENDBLK
  5
5A18
330
5A0C
100
AcDbEntity
  8
0
100
AcDbBlockEnd
  0
BLOCK
  5
5A23
330
5A19
100
AcDbEntity
  8
0
100
AcDbBlockBegin
  2
*D12
 70
     1
 10
0.0
 20
0.0
 30
0.0
  3
*D12
  1

  0
LINE
  5
611D
330
5A19
100
AcDbEntity
  8
30
  6
Continuous
 62
     0
440
 16777216
100
AcDbLine
 10
146.0
 20
-25.9999999999999
 30
0.0
 11
146.0
 21
-121.7873562020025
 31
0.0
  0
LINE
  5
611E
330
5A19
100
AcDbEntity
  8
30
  6
Continuous
 62
     0
440
 16777216
100
AcDbLine
 10
218.0000000000001
 20
-78.49999999999993
 30
0.0
 11
218.0000000000001
 21
-121.7873562020025
 31
0.0
  0
LINE
  5
611F
330
5A19
100
AcDbEntity
  8
30
  6
Continuous
 62
     0
440
 16777216
100
AcDbLine
 10
148.0
 20
-121.2873562020025
 30
0.0
 11
216.0000000000001
 21
-121.2873562020025
 31
0.0
  0
INSERT
  5
6120
330
5A19
100
AcDbEntity
  8
30
  6
Continuous
 62
     0
440
 16777216
100
AcDbBlockReference
  2
_OPEN
 10
146.0
 20
-121.2873562020025
 30
0.0
 41
2.0
 42
2.0
 43
2.0
 50
180.0
  0
INSERT
  5
6121
330
5A19
100
AcDbEntity
  8
30
  6
Continuous
 62
     0
440
 16777216
100
AcDbBlockReference
  2
_OPEN
 10
218.0000000000001
 20
-121.2873562020025
 30
0.0
 41
2.0
 42
2.0
 43
2.0
  0
MTEXT
  5
6122
330
5A19
100
AcDbEntity
  8
30
  6
Continuous
 62
     0
440
 16777216
100
AcDbMText
 10
182.0
 20
-118.2873562020025
 30
0.0
 40
4.0
 41
0.0
 46
0.0
 71
     5
 72
     1
  1
\A1;72
 73
     1
 44
1.0
1001
ACAD
1000
MTEXTBEGIN
1070
    73
1070
     1
1070
    44
1040
1.0
1070
    74
1070
     0
1000
MTEXTEND
  0
POINT
  5
6123
330
5A19
100
AcDbEntity
  8
DEFPOINTS
  6
Continuous
 62
     0
440
 16777216
100
AcDbPoint
 10
146.0
 20
-24.9999999999999
 30
0.0
  0
POINT
  5
6124
330
5A19
100
AcDbEntity
  8
DEFPOINTS
  6
Continuous
 62
     0
440
 16777216
100
AcDbPoint
 10
218.0000000000001
 20
-77.49999999999992
 30
0.0
  0
POINT
  5
6125
330
5A19
100
AcDbEntity
  8
DEFPOINTS
  6
Continuous
 62
     0
440
 16777216
100
AcDbPoint
 10
218.0000000000001
 20
-121.2873562020025
 30
0.0
  0
ENDBLK
  5
5A24
330
5A19
100
AcDbEntity
  8
0
100
AcDbBlockEnd
  0
BLOCK
  5
5A2F
330
5A25
100
AcDbEntity
  8
0
100
AcDbBlockBegin
  2
*D13
 70
     1
 10
0.0
 20
0.0
 30
0.0
  3
*D13
  1

  0
LINE
  5
6032
330
5A25
100
AcDbEntity
  8
30
  6
Continuous
 62
     0
440
 16777216
100
AcDbLine
 10
141.0
 20
-24.9999999999999
 30
0.0
 11
101.0443779951804
 21
-24.99999999999989
 31
0.0
  0
LINE
  5
6033
330
5A25
100
AcDbEntity
  8
30
  6
Continuous
 62
     0
440
 16777216
100
AcDbLine
 10
141.0
 20
25.00000000000007
 30
0.0
 11
101.0443779951804
 21
25.00000000000007
 31
0.0
  0
LINE
  5
6034
330
5A25
100
AcDbEntity
  8
30
  6
Continuous
 62
     0
440
 16777216
100
AcDbLine
 10
101.5443779951805
 20
-22.99999999999989
 30
0.0
 11
101.5443779951805
 21
23.00000000000007
 31
0.0
  0
INSERT
  5
6035
330
5A25
100
AcDbEntity
  8
30
  6
Continuous
 62
     0
440
 16777216
100
AcDbBlockReference
  2
_OPEN
 10
101.5443779951805
 20
-24.99999999999989
 30
0.0
 41
2.0
 42
2.0
 43
2.0
 50
270.0
  0
INSERT
  5
6036
330
5A25
100
AcDbEntity
  8
30
  6
Continuous
 62
     0
440
 16777216
100
AcDbBlockReference
  2
_OPEN
 10
101.5443779951805
 20
25.00000000000007
 30
0.0
 41
2.0
 42
2.0
 43
2.0
 50
90.0
  0
MTEXT
  5
6037
330
5A25
100
AcDbEntity
  8
30
  6
Continuous
 62
     0
440
 16777216
100
AcDbMText
 10
98.54437799518066
 20
0.0000000000001114
 30
0.0
 40
4.0
 41
0.0
 46
0.0
 71
     5
 72
     1
  1
\A1;50
 11
0.0000000000000001
 21
1.0
 31
0.0
 73
     1
 44
1.0
1001
ACAD
1000
MTEXTBEGIN
1070
    73
1070
     1
1070
    44
1040
1.0
1070
    74
1070
     0
1000
MTEXTEND
  0
POINT
  5
6038
330
5A25
100
AcDbEntity
  8
DEFPOINTS
  6
Continuous
 62
     0
440
 16777216
100
AcDbPoint
 10
142.0
 20
-24.9999999999999
 30
0.0
  0
POINT
  5
6039
330
5A25
100
AcDbEntity
  8
DEFPOINTS
  6
Continuous
 62
     0
440
 16777216
100
AcDbPoint
 10
142.0
 20
25.00000000000007
 30
0.0
  0
POINT
  5
603A
330
5A25
100
AcDbEntity
  8
DEFPOINTS
  6
Continuous
 62
     0
440
 16777216
100
AcDbPoint
 10
101.5443779951805
 20
25.00000000000007
 30
0.0
  0
ENDBLK
  5
5A30
330
5A25
100
AcDbEntity
  8
0
100
AcDbBlockEnd
  0
BLOCK
  5
5A3B
330
5A31
100
AcDbEntity
  8
0
100
AcDbBlockBegin
  2
*D14
 70
     1
 10
0.0
 20
0.0
 30
0.0
  3
*D14
  1

  0
LINE
  5
604E
330
5A31
100
AcDbEntity
  8
30
  6
Continuous
 62
     0
440
 16777216
100
AcDbLine
 10
194.0
 20
78.50000000000012
 30
0.0
 11
194.0
 21
108.7505818560484
 31
0.0
  0
LINE
  5
604F
330
5A31
100
AcDbEntity
  8
30
  6
Continuous
 62
     0
440
 16777216
100
AcDbLine
 10
218.0000000000001
 20
78.5000000000002
 30
0.0
 11
218.0000000000001
 21
108.7505818560484
 31
0.0
  0
LINE
  5
6050
330
5A31
100
AcDbEntity
  8
30
  6
Continuous
 62
     0
440
 16777216
100
AcDbLine
 10
196.0
 20
108.2505818560484
 30
0.0
 11
216.0000000000001
 21
108.2505818560484
 31
0.0
  0
INSERT
  5
6051
330
5A31
100
AcDbEntity
  8
30
  6
Continuous
 62
     0
440
 16777216
100
AcDbBlockReference
  2
_OPEN
 10
194.0
 20
108.2505818560484
 30
0.0
 41
2.0
 42
2.0
 43
2.0
 50
180.0
  0
INSERT
  5
6052
330
5A31
100
AcDbEntity
  8
30
  6
Continuous
 62
     0
440
 16777216
100
AcDbBlockReference
  2
_OPEN
 10
218.0000000000001
 20
108.2505818560484
 30
0.0
 41
2.0
 42
2.0
 43
2.0
  0
MTEXT
  5
6053
330
5A31
100
AcDbEntity
  8
30
  6
Continuous
 62
     0
440
 16777216
100
AcDbMText
 10
206.0
 20
111.2505818560484
 30
0.0
 40
4.0
 41
0.0
 46
0.0
 71
     5
 72
     1
  1
\A1;24
 73
     1
 44
1.0
1001
ACAD
1000
MTEXTBEGIN
1070
    73
1070
     1
1070
    44
1040
1.0
1070
    74
1070
     0
1000
MTEXTEND
  0
POINT
  5
6054
330
5A31
100
AcDbEntity
  8
DEFPOINTS
  6
Continuous
 62
     0
440
 16777216
100
AcDbPoint
 10
194.0
 20
77.5000000000001
 30
0.0
  0
POINT
  5
6055
330
5A31
100
AcDbEntity
  8
DEFPOINTS
  6
Continuous
 62
     0
440
 16777216
100
AcDbPoint
 10
218.0000000000001
 20
77.5000000000002
 30
0.0
  0
POINT
  5
6056
330
5A31
100
AcDbEntity
  8
DEFPOINTS
  6
Continuous
 62
     0
440
 16777216
100
AcDbPoint
 10
218.0000000000001
 20
108.2505818560484
 30
0.0
  0
ENDBLK
  5
5A3C
330
5A31
100
AcDbEntity
  8
0
100
AcDbBlockEnd
  0
BLOCK
  5
5A47
330
5A3D
100
AcDbEntity
  8
0
100
AcDbBlockBegin
  2
*D15
 70
     1
 10
0.0
 20
0.0
 30
0.0
  3
*D15
  1

  0
LINE
  5
610A
330
5A3D
100
AcDbEntity
  8
30
  6
Continuous
 62
     0
440
 16777216
100
AcDbLine
 10
150.0
 20
-52.0
 30
0.0
 11
150.0
 21
-110.9328908136722
 31
0.0
  0
LINE
  5
610B
330
5A3D
100
AcDbEntity
  8
30
  6
Continuous
 62
     0
440
 16777216
100
AcDbLine
 10
218.0000000000001
 20
-78.49999999999993
 30
0.0
 11
218.0000000000001
 21
-110.9328908136722
 31
0.0
  0
LINE
  5
610C
330
5A3D
100
AcDbEntity
  8
30
  6
Continuous
 62
     0
440
 16777216
100
AcDbLine
 10
152.0
 20
-110.4328908136722
 30
0.0
 11
216.0000000000001
 21
-110.4328908136722
 31
0.0
  0
INSERT
  5
610D
330
5A3D
100
AcDbEntity
  8
30
  6
Continuous
 62
     0
440
 16777216
100
AcDbBlockReference
  2
_OPEN
 10
150.0
 20
-110.4328908136722
 30
0.0
 41
2.0
 42
2.0
 43
2.0
 50
180.0
  0
INSERT
  5
610E
330
5A3D
100
AcDbEntity
  8
30
  6
Continuous
 62
     0
440
 16777216
100
AcDbBlockReference
  2
_OPEN
 10
218.0000000000001
 20
-110.4328908136722
 30
0.0
 41
2.0
 42
2.0
 43
2.0
  0
MTEXT
  5
610F
330
5A3D
100
AcDbEntity
  8
30
  6
Continuous
 62
     0
440
 16777216
100
AcDbMText
 10
184.0
 20
-107.432890813672
 30
0.0
 40
4.0
 41
0.0
 46
0.0
 71
     5
 72
     1
  1
\A1;68
 73
     1
 44
1.0
1001
ACAD
1000
MTEXTBEGIN
1070
    73
1070
     1
1070
    44
1040
1.0
1070
    74
1070
     0
1000
MTEXTEND
  0
POINT
  5
6110
330
5A3D
100
AcDbEntity
  8
DEFPOINTS
  6
Continuous
 62
     0
440
 16777216
100
AcDbPoint
 10
150.0
 20
-51.0
 30
0.0
  0
POINT
  5
6111
330
5A3D
100
AcDbEntity
  8
DEFPOINTS
  6
Continuous
 62
     0
440
 16777216
100
AcDbPoint
 10
218.0000000000001
 20
-77.49999999999992
 30
0.0
  0
POINT
  5
6112
330
5A3D
100
AcDbEntity
  8
DEFPOINTS
  6
Continuous
 62
     0
440
 16777216
100
AcDbPoint
 10
218.0000000000001
 20
-110.4328908136722
 30
0.0
  0
ENDBLK
  5
5A48
330
5A3D
100
AcDbEntity
  8
0
100
AcDbBlockEnd
  0
BLOCK
  5
5A53
330
5A49
100
AcDbEntity
  8
0
100
AcDbBlockBegin
  2
*D16
 70
     1
 10
0.0
 20
0.0
 30
0.0
  3
*D16
  1

  0
LINE
  5
60DC
330
5A49
100
AcDbEntity
  8
30
  6
Continuous
 62
     0
440
 16777216
100
AcDbLine
 10
157.0
 20
-78.49999999999993
 30
0.0
 11
157.0
 21
-100.632701088427
 31
0.0
  0
LINE
  5
60DD
330
5A49
100
AcDbEntity
  8
30
  6
Continuous
 62
     0
440
 16777216
100
AcDbLine
 10
218.0000000000001
 20
-78.49999999999993
 30
0.0
 11
218.0000000000001
 21
-100.632701088427
 31
0.0
  0
LINE
  5
60DE
330
5A49
100
AcDbEntity
  8
30
  6
Continuous
 62
     0
440
 16777216
100
AcDbLine
 10
159.0
 20
-100.1327010884272
 30
0.0
 11
216.0000000000001
 21
-100.1327010884272
 31
0.0
  0
INSERT
  5
60DF
330
5A49
100
AcDbEntity
  8
30
  6
Continuous
 62
     0
440
 16777216
100
AcDbBlockReference
  2
_OPEN
 10
157.0
 20
-100.1327010884272
 30
0.0
 41
2.0
 42
2.0
 43
2.0
 50
180.0
  0
INSERT
  5
60E0
330
5A49
100
AcDbEntity
  8
30
  6
Continuous
 62
     0
440
 16777216
100
AcDbBlockReference
  2
_OPEN
 10
218.0000000000001
 20
-100.1327010884272
 30
0.0
 41
2.0
 42
2.0
 43
2.0
  0
MTEXT
  5
60E1
330
5A49
100
AcDbEntity
  8
30
  6
Continuous
 62
     0
440
 16777216
100
AcDbMText
 10
187.5
 20
-97.13270108842728
 30
0.0
 40
4.0
 41
0.0
 46
0.0
 71
     5
 72
     1
  1
\A1;61
 73
     1
 44
1.0
1001
ACAD
1000
MTEXTBEGIN
1070
    73
1070
     1
1070
    44
1040
1.0
1070
    74
1070
     0
1000
MTEXTEND
  0
POINT
  5
60E2
330
5A49
100
AcDbEntity
  8
DEFPOINTS
  6
Continuous
 62
     0
440
 16777216
100
AcDbPoint
 10
157.0
 20
-77.49999999999992
 30
0.0
  0
POINT
  5
60E3
330
5A49
100
AcDbEntity
  8
DEFPOINTS
  6
Continuous
 62
     0
440
 16777216
100
AcDbPoint
 10
218.0000000000001
 20
-77.49999999999992
 30
0.0
  0
POINT
  5
60E4
330
5A49
100
AcDbEntity
  8
DEFPOINTS
  6
Continuous
 62
     0
440
 16777216
100
AcDbPoint
 10
218.0000000000001
 20
-100.1327010884272
 30
0.0
  0
ENDBLK
  5
5A54
330
5A49
100
AcDbEntity
  8
0
100
AcDbBlockEnd
  0
BLOCK
  5
5A5F
330
5A55
100
AcDbEntity
  8
0
100
AcDbBlockBegin
  2
*D17
 70
     1
 10
0.0
 20
0.0
 30
0.0
  3
*D17
  1

  0
LINE
  5
60C1
330
5A55
100
AcDbEntity
  8
30
  6
Continuous
 62
     0
440
 16777216
100
AcDbLine
 10
173.0
 20
-71.24999999999992
 30
0.0
 11
173.0
 21
-91.16392178464693
 31
0.0
  0
LINE
  5
60C2
330
5A55
100
AcDbEntity
  8
30
  6
Continuous
 62
     0
440
 16777216
100
AcDbLine
 10
218.0000000000001
 20
-78.49999999999993
 30
0.0
 11
218.0000000000001
 21
-91.16392178464693
 31
0.0
  0
LINE
  5
60C3
330
5A55
100
AcDbEntity
  8
30
  6
Continuous
 62
     0
440
 16777216
100
AcDbLine
 10
175.0
 20
-90.66392178464694
 30
0.0
 11
216.0000000000001
 21
-90.66392178464694
 31
0.0
  0
INSERT
  5
60C4
330
5A55
100
AcDbEntity
  8
30
  6
Continuous
 62
     0
440
 16777216
100
AcDbBlockReference
  2
_OPEN
 10
173.0
 20
-90.66392178464694
 30
0.0
 41
2.0
 42
2.0
 43
2.0
 50
180.0
  0
INSERT
  5
60C5
330
5A55
100
AcDbEntity
  8
30
  6
Continuous
 62
     0
440
 16777216
100
AcDbBlockReference
  2
_OPEN
 10
218.0000000000001
 20
-90.66392178464694
 30
0.0
 41
2.0
 42
2.0
 43
2.0
  0
MTEXT
  5
60C6
330
5A55
100
AcDbEntity
  8
30
  6
Continuous
 62
     0
440
 16777216
100
AcDbMText
 10
195.5
 20
-87.66392178464689
 30
0.0
 40
4.0
 41
0.0
 46
0.0
 71
     5
 72
     1
  1
\A1;45
 73
     1
 44
1.0
1001
ACAD
1000
MTEXTBEGIN
1070
    73
1070
     1
1070
    44
1040
1.0
1070
    74
1070
     0
1000
MTEXTEND
  0
POINT
  5
60C7
330
5A55
100
AcDbEntity
  8
DEFPOINTS
  6
Continuous
 62
     0
440
 16777216
100
AcDbPoint
 10
173.0
 20
-70.2499999999999
 30
0.0
  0
POINT
  5
60C8
330
5A55
100
AcDbEntity
  8
DEFPOINTS
  6
Continuous
 62
     0
440
 16777216
100
AcDbPoint
 10
218.0000000000001
 20
-77.49999999999992
 30
0.0
  0
POINT
  5
60C9
330
5A55
100
AcDbEntity
  8
DEFPOINTS
  6
Continuous
 62
     0
440
 16777216
100
AcDbPoint
 10
218.0000000000001
 20
-90.66392178464694
 30
0.0
  0
ENDBLK
  5
5A60
330
5A55
100
AcDbEntity
  8
0
100
AcDbBlockEnd
  0
BLOCK
  5
5A6B
330
5A61
100
AcDbEntity
  8
0
100
AcDbBlockBegin
  2
*D18
 70
     1
 10
0.0
 20
0.0
 30
0.0
  3
*D18
  1

  0
LINE
  5
6057
330
5A61
100
AcDbEntity
  8
30
  6
Continuous
 62
     0
440
 16777216
100
AcDbLine
 10
257.5
 20
42.00000000000009
 30
0.0
 11
257.5
 21
27.09950840068023
 31
0.0
  0
LINE
  5
6058
330
5A61
100
AcDbEntity
  8
30
  6
Continuous
 62
     0
440
 16777216
100
AcDbLine
 10
274.5
 20
42.00000000000009
 30
0.0
 11
274.5
 21
27.09950840068023
 31
0.0
  0
LINE
  5
6059
330
5A61
100
AcDbEntity
  8
30
  6
Continuous
 62
     0
440
 16777216
100
AcDbLine
 10
259.5
 20
27.59950840068023
 30
0.0
 11
272.5
 21
27.59950840068023
 31
0.0
  0
INSERT
  5
605A
330
5A61
100
AcDbEntity
  8
30
  6
Continuous
 62
     0
440
 16777216
100
AcDbBlockReference
  2
_OPEN
 10
257.5
 20
27.59950840068023
 30
0.0
 41
2.0
 42
2.0
 43
2.0
 50
180.0
  0
INSERT
  5
605B
330
5A61
100
AcDbEntity
  8
30
  6
Continuous
 62
     0
440
 16777216
100
AcDbBlockReference
  2
_OPEN
 10
274.5
 20
27.59950840068023
 30
0.0
 41
2.0
 42
2.0
 43
2.0
  0
MTEXT
  5
605C
330
5A61
100
AcDbEntity
  8
30
  6
Continuous
 62
     0
440
 16777216
100
AcDbMText
 10
266.0
 20
30.59950840068023
 30
0.0
 40
4.0
 41
0.0
 46
0.0
 71
     5
 72
     1
  1
\A1;17
 73
     1
 44
1.0
1001
ACAD
1000
MTEXTBEGIN
1070
    73
1070
     1
1070
    44
1040
1.0
1070
    74
1070
     0
1000
MTEXTEND
  0
POINT
  5
605D
330
5A61
100
AcDbEntity
  8
DEFPOINTS
  6
Continuous
 62
     0
440
 16777216
100
AcDbPoint
 10
257.5
 20
43.0000000000001
 30
0.0
  0
POINT
  5
605E
330
5A61
100
AcDbEntity
  8
DEFPOINTS
  6
Continuous
 62
     0
440
 16777216
100
AcDbPoint
 10
274.5
 20
43.0000000000001
 30
0.0
  0
POINT
  5
605F
330
5A61
100
AcDbEntity
  8
DEFPOINTS
  6
Continuous
 62
     0
440
 16777216
100
AcDbPoint
 10
274.5
 20
27.59950840068023
 30
0.0
  0
ENDBLK
  5
5A6C
330
5A61
100
AcDbEntity
  8
0
100
AcDbBlockEnd
  0
BLOCK
  5
5A79
330
5A6D
100
AcDbEntity
  8
0
100
AcDbBlockBegin
  2
*D19
 70
     1
 10
0.0
 20
0.0
 30
0.0
  3
*D19
  1

  0
LINE
  5
6060
330
5A6D
100
AcDbEntity
  8
30
  6
Continuous
 62
     0
440
 16777216
100
AcDbLine
 10
275.4999999999999
 20
43.0000000000001
 30
0.0
 11
289.5867224927883
 21
43.0000000000001
 31
0.0
  0
LINE
  5
6061
330
5A6D
100
AcDbEntity
  8
30
  6
Continuous
 62
     0
440
 16777216
100
AcDbLine
 10
269.5000000164998
 20
51.50000000000006
 30
0.0
 11
289.5867224927883
 21
51.50000000000006
 31
0.0
  0
LINE
  5
6062
330
5A6D
100
AcDbEntity
  8
30
  6
Continuous
 62
     0
440
 16777216
100
AcDbLine
 10
289.0867224927884
 20
45.0000000000001
 30
0.0
 11
289.0867224927884
 21
49.50000000000006
 31
0.0
  0
LINE
  5
6063
330
5A6D
100
AcDbEntity
  8
30
  6
Continuous
 62
     0
440
 16777216
100
AcDbLine
 10
289.0867224927884
 20
51.50000000000006
 30
0.0
 11
289.0867224927884
 21
53.50000000000006
 31
0.0
  0
LINE
  5
6064
330
5A6D
100
AcDbEntity
  8
30
  6
Continuous
 62
     0
440
 16777216
100
AcDbLine
 10
289.0867224927884
 20
53.50000000000006
 30
0.0
 11
298.0867224927883
 21
53.50000000000006
 31
0.0
  0
INSERT
  5
6065
330
5A6D
100
AcDbEntity
  8
30
  6
Continuous
 62
     0
440
 16777216
100
AcDbBlockReference
  2
_OPEN
 10
289.0867224927884
 20
43.0000000000001
 30
0.0
 41
2.0
 42
2.0
 43
2.0
 50
270.0
  0
INSERT
  5
6066
330
5A6D
100
AcDbEntity
  8
30
  6
Continuous
 62
     0
440
 16777216
100
AcDbBlockReference
  2
_OPEN
 10
289.0867224927884
 20
51.50000000000006
 30
0.0
 41
2.0
 42
2.0
 43
2.0
 50
90.0
  0
MTEXT
  5
6067
330
5A6D
100
AcDbEntity
  8
30
  6
Continuous
 62
     0
440
 16777216
100
AcDbMText
 10
294.0867224927883
 20
56.50000000000011
 30
0.0
 40
4.0
 41
0.0
 46
0.0
 71
     5
 72
     1
  1
\A1;8.5
 73
     1
 44
1.0
1001
ACAD
1000
MTEXTBEGIN
1070
    73
1070
     1
1070
    44
1040
1.0
1070
    74
1070
     0
1000
MTEXTEND
  0
POINT
  5
6068
330
5A6D
100
AcDbEntity
  8
DEFPOINTS
  6
Continuous
 62
     0
440
 16777216
100
AcDbPoint
 10
274.5
 20
43.0000000000001
 30
0.0
  0
POINT
  5
6069
330
5A6D
100
AcDbEntity
  8
DEFPOINTS
  6
Continuous
 62
     0
440
 16777216
100
AcDbPoint
 10
268.5000000165
 20
51.50000000000006
 30
0.0
  0
POINT
  5
606A
330
5A6D
100
AcDbEntity
  8
DEFPOINTS
  6
Continuous
 62
     0
440
 16777216
100
AcDbPoint
 10
289.0867224927884
 20
51.50000000000006
 30
0.0
  0
ENDBLK
  5
5A7A
330
5A6D
100
AcDbEntity
  8
0
100
AcDbBlockEnd
  0
BLOCK
  5
5AFC
330
5AF5
100
AcDbEntity
  8
TOP
  6
Continuous
 62
     4
100
AcDbBlockBegin
  2
*U20
 70
     1
 10
0.0
 20
0.0
 30
0.0
  3
*U20
  1

  0
LINE
  5
5AF6
330
5AF5
100
AcDbEntity
  8
1
  6
ByBlock
 62
     0
100
AcDbLine
 10
274.4153110047846
 20
192.7101966312278
 30
0.0
 11
274.4153110047846
 21
162.7499999980995
 31
0.0
  0
LINE
  5
5AF7
330
5AF5
100
AcDbEntity
  8
1
  6
ByBlock
 62
     0
100
AcDbLine
 10
285.8153110047847
 20
192.3101966312279
 30
0.0
 11
285.8153110047847
 21
162.7499999980995
 31
0.0
  0
LINE
  5
5AF8
330
5AF5
100
AcDbEntity
  8
1
  6
ByBlock
 62
     0
100
AcDbLine
 10
274.4153110047846
 20
163.7499999980998
 30
0.0
 11
285.8153110047847
 21
163.7499999980998
 31
0.0
  0
SOLID
  5
5AF9
330
5AF5
100
AcDbEntity
  8
1
  6
ByBlock
 62
     0
100
AcDbTrace
 10
274.4153110047846
 20
163.7499999980998
 30
0.0
 11
276.4153110179845
 21
164.0833333336333
 31
0.0
 12
276.4153110179845
 22
163.4166666625666
 32
0.0
 13
276.4153110179845
 23
163.4166666625666
 33
0.0
  0
SOLID
  5
5AFA
330
5AF5
100
AcDbEntity
  8
1
  6
ByBlock
 62
     0
100
AcDbTrace
 10
285.8153110047847
 20
163.7499999980998
 30
0.0
 11
283.8153109915846
 21
163.4166666625666
 31
0.0
 12
283.8153109915846
 22
164.0833333336333
 32
0.0
 13
283.8153109915846
 23
164.0833333336333
 33
0.0
  0
TEXT
  5
5AFB
330
5AF5
100
AcDbEntity
  8
TOP
  6
ByBlock
 62
     0
100
AcDbText
 10
276.7267693329674
 20
165.0
 30
0.0
 40
2.500000003799998
  1
28.5
 41
0.7393181818181819
  7
UGMTXT
100
AcDbText
  0
ENDBLK
  5
5AFD
330
5AF5
100
AcDbEntity
  8
0
100
AcDbBlockEnd
  0
BLOCK
  5
5B54
330
5B4A
100
AcDbEntity
  8
0
100
AcDbBlockBegin
  2
*D21
 70
     1
 10
0.0
 20
0.0
 30
0.0
  3
*D21
  1

  0
LINE
  5
5F85
330
5B4A
100
AcDbEntity
  8
30
  6
Continuous
 62
     0
100
AcDbLine
 10
-30.38009453517119
 20
-174.1631237443549
 30
0.0
 11
-30.38009453517119
 21
-137.0636153436745
 31
0.0
  0
LINE
  5
5F86
330
5B4A
100
AcDbEntity
  8
30
  6
Continuous
 62
     0
100
AcDbLine
 10
29.61990546482878
 20
-174.1631237443549
 30
0.0
 11
29.6199054648288
 21
-137.0636153436745
 31
0.0
  0
LINE
  5
5F87
330
5B4A
100
AcDbEntity
  8
30
  6
Continuous
 62
     0
100
AcDbLine
 10
-28.38009453517118
 20
-137.5636153436746
 30
0.0
 11
27.61990546482878
 21
-137.5636153436746
 31
0.0
  0
INSERT
  5
5F88
330
5B4A
100
AcDbEntity
  8
30
  6
Continuous
 62
     0
100
AcDbBlockReference
  2
_OPEN
 10
-30.38009453517119
 20
-137.5636153436746
 30
0.0
 41
2.0
 42
2.0
 43
2.0
 50
180.0
  0
INSERT
  5
5F89
330
5B4A
100
AcDbEntity
  8
30
  6
Continuous
 62
     0
100
AcDbBlockReference
  2
_OPEN
 10
29.6199054648288
 20
-137.5636153436746
 30
0.0
 41
2.0
 42
2.0
 43
2.0
  0
MTEXT
  5
5F8A
330
5B4A
100
AcDbEntity
  8
30
  6
Continuous
 62
     0
100
AcDbMText
 10
-0.3800945351711958
 20
-134.5636153436746
 30
0.0
 40
4.0
 41
0.0
 46
0.0
 71
     5
 72
     1
  1
\A1;60
 73
     1
 44
1.0
1001
ACAD
1000
MTEXTBEGIN
1070
    73
1070
     1
1070
    44
1040
1.0
1070
    74
1070
     0
1000
MTEXTEND
  0
POINT
  5
5F8B
330
5B4A
100
AcDbEntity
  8
DEFPOINTS
  6
Continuous
 62
     0
100
AcDbPoint
 10
-30.38009453517119
 20
-175.1631237443548
 30
0.0
  0
POINT
  5
5F8C
330
5B4A
100
AcDbEntity
  8
DEFPOINTS
  6
Continuous
 62
     0
100
AcDbPoint
 10
29.61990546482878
 20
-175.1631237443548
 30
0.0
  0
POINT
  5
5F8D
330
5B4A
100
AcDbEntity
  8
DEFPOINTS
  6
Continuous
 62
     0
100
AcDbPoint
 10
29.6199054648288
 20
-137.5636153436746
 30
0.0
  0
ENDBLK
  5
5B55
330
5B4A
100
AcDbEntity
  8
0
100
AcDbBlockEnd
  0
BLOCK
  5
5B60
330
5B56
100
AcDbEntity
  8
0
100
AcDbBlockBegin
  2
*D22
 70
     1
 10
0.0
 20
0.0
 30
0.0
  3
*D22
  1

  0
LINE
  5
6154
330
5B56
100
AcDbEntity
  8
30
  6
Continuous
 62
     0
100
AcDbLine
 10
-28.8800945351714
 20
-276.8473940210347
 30
0.0
 11
-28.8800945351714
 21
-369.9978856203546
 31
0.0
  0
LINE
  5
6155
330
5B56
100
AcDbEntity
  8
30
  6
Continuous
 62
     0
100
AcDbLine
 10
28.11990546482892
 20
-276.8473940210347
 30
0.0
 11
28.11990546482891
 21
-369.9978856203546
 31
0.0
  0
LINE
  5
6156
330
5B56
100
AcDbEntity
  8
30
  6
Continuous
 62
     0
100
AcDbLine
 10
-26.88009453517141
 20
-369.4978856203547
 30
0.0
 11
26.11990546482891
 21
-369.4978856203547
 31
0.0
  0
INSERT
  5
6157
330
5B56
100
AcDbEntity
  8
30
  6
Continuous
 62
     0
100
AcDbBlockReference
  2
_OPEN
 10
-28.8800945351714
 20
-369.4978856203547
 30
0.0
 41
2.0
 42
2.0
 43
2.0
 50
180.0
  0
INSERT
  5
6158
330
5B56
100
AcDbEntity
  8
30
  6
Continuous
 62
     0
100
AcDbBlockReference
  2
_OPEN
 10
28.11990546482891
 20
-369.4978856203547
 30
0.0
 41
2.0
 42
2.0
 43
2.0
  0
MTEXT
  5
6159
330
5B56
100
AcDbEntity
  8
30
  6
Continuous
 62
     0
100
AcDbMText
 10
-0.3800945351712491
 20
-366.4978856203546
 30
0.0
 40
4.0
 41
0.0
 46
0.0
 71
     5
 72
     1
  1
\A1;57
 73
     1
 44
1.0
1001
ACAD
1000
MTEXTBEGIN
1070
    73
1070
     1
1070
    44
1040
1.0
1070
    74
1070
     0
1000
MTEXTEND
  0
POINT
  5
615A
330
5B56
100
AcDbEntity
  8
DEFPOINTS
  6
Continuous
 62
     0
100
AcDbPoint
 10
-28.8800945351714
 20
-275.8473940210348
 30
0.0
  0
POINT
  5
615B
330
5B56
100
AcDbEntity
  8
DEFPOINTS
  6
Continuous
 62
     0
100
AcDbPoint
 10
28.11990546482892
 20
-275.8473940210348
 30
0.0
  0
POINT
  5
615C
330
5B56
100
AcDbEntity
  8
DEFPOINTS
  6
Continuous
 62
     0
100
AcDbPoint
 10
28.11990546482891
 20
-369.4978856203547
 30
0.0
  0
ENDBLK
  5
5B61
330
5B56
100
AcDbEntity
  8
0
100
AcDbBlockEnd
  0
BLOCK
  5
5E12
330
5E09
100
AcDbEntity
  8
0
100
AcDbBlockBegin
  2
*D23
 70
     1
 10
0.0
 20
0.0
 30
0.0
  3
*D23
  1

  0
LINE
  5
6165
330
5E09
100
AcDbEntity
  8
30
  6
Continuous
 62
     0
100
AcDbLine
 10
38.91960537553249
 20
-222.8030654950833
 30
0.0
 11
32.58627204219917
 21
-222.8030654950833
 31
0.0
  0
LINE
  5
6166
330
5E09
100
AcDbEntity
  8
30
  6
Continuous
 62
     0
100
AcDbLine
 10
32.58627204219917
 20
-222.8030654950833
 30
0.0
 11
30.99972541125106
 21
-224.0207969054639
 31
0.0
  0
MTEXT
  5
6167
330
5E09
100
AcDbEntity
  8
30
  6
Continuous
 62
     0
100
AcDbMText
 10
36.25293870886582
 20
-219.8030654950833
 30
0.0
 40
4.0
 41
0.0
 46
0.0
 71
     5
 72
     1
  1
\A1;R1
 73
     1
 44
1.0
1001
ACAD
1000
MTEXTBEGIN
1070
    73
1070
     1
1070
    44
1040
1.0
1070
    74
1070
     0
1000
MTEXTEND
  0
INSERT
  5
6168
330
5E09
100
AcDbEntity
  8
30
  6
Continuous
 62
     0
100
AcDbBlockReference
  2
_OPEN
 10
29.41317878030295
 20
-225.2385283158443
 30
0.0
 41
2.0
 42
2.0
 43
2.0
 50
217.5075311795302
  0
LINE
  5
6169
330
5E09
100
AcDbEntity
  8
30
  6
Continuous
 62
     0
100
AcDbLine
 10
28.52990546482892
 20
-225.8473940210345
 30
0.0
 11
28.70990546482892
 21
-225.8473940210345
 31
0.0
  0
LINE
  5
616A
330
5E09
100
AcDbEntity
  8
30
  6
Continuous
 62
     0
100
AcDbLine
 10
28.61990546482891
 20
-225.9373940210345
 30
0.0
 11
28.61990546482893
 21
-225.7573940210345
 31
0.0
  0
POINT
  5
616B
330
5E09
100
AcDbEntity
  8
DEFPOINTS
  6
Continuous
 62
     0
100
AcDbPoint
 10
29.41317878030295
 20
-225.2385283158443
 30
0.0
  0
POINT
  5
616C
330
5E09
100
AcDbEntity
  8
DEFPOINTS
  6
Continuous
 62
     0
100
AcDbPoint
 10
28.61990546482891
 20
-225.8473940210345
 30
0.0
  0
ENDBLK
  5
5E13
330
5E09
100
AcDbEntity
  8
0
100
AcDbBlockEnd
  0
BLOCK
  5
5E1E
330
5E14
100
AcDbEntity
  8
0
100
AcDbBlockBegin
  2
*D24
 70
     1
 10
0.0
 20
0.0
 30
0.0
  3
*D24
  1

  0
LINE
  5
6142
330
5E14
100
AcDbEntity
  8
30
  6
Continuous
 62
     0
100
AcDbLine
 10
29.61990546482857
 20
-224.8473940210347
 30
0.0
 11
63.1377358190454
 21
-224.8473940210347
 31
0.0
  0
LINE
  5
6143
330
5E14
100
AcDbEntity
  8
30
  6
Continuous
 62
     0
100
AcDbLine
 10
29.61990546482857
 20
-276.8473940210347
 30
0.0
 11
63.13773581904539
 21
-276.8473940210347
 31
0.0
  0
LINE
  5
6144
330
5E14
100
AcDbEntity
  8
30
  6
Continuous
 62
     0
100
AcDbLine
 10
62.63773581904541
 20
-226.8473940210347
 30
0.0
 11
62.63773581904539
 21
-274.8473940210347
 31
0.0
  0
INSERT
  5
6145
330
5E14
100
AcDbEntity
  8
30
  6
Continuous
 62
     0
100
AcDbBlockReference
  2
_OPEN
 10
62.63773581904541
 20
-224.8473940210347
 30
0.0
 41
2.0
 42
2.0
 43
2.0
 50
90.0
  0
INSERT
  5
6146
330
5E14
100
AcDbEntity
  8
30
  6
Continuous
 62
     0
100
AcDbBlockReference
  2
_OPEN
 10
62.63773581904539
 20
-276.8473940210347
 30
0.0
 41
2.0
 42
2.0
 43
2.0
 50
270.0
  0
MTEXT
  5
6147
330
5E14
100
AcDbEntity
  8
30
  6
Continuous
 62
     0
100
AcDbMText
 10
59.63773581904543
 20
-250.8473940210348
 30
0.0
 40
4.0
 41
0.0
 46
0.0
 71
     5
 72
     1
  1
\A1;52
 11
0.0000000000000001
 21
1.0
 31
0.0
 73
     1
 44
1.0
1001
ACAD
1000
MTEXTBEGIN
1070
    73
1070
     1
1070
    44
1040
1.0
1070
    74
1070
     0
1000
MTEXTEND
  0
POINT
  5
6148
330
5E14
100
AcDbEntity
  8
DEFPOINTS
  6
Continuous
 62
     0
100
AcDbPoint
 10
28.61990546482858
 20
-224.8473940210347
 30
0.0
  0
POINT
  5
6149
330
5E14
100
AcDbEntity
  8
DEFPOINTS
  6
Continuous
 62
     0
100
AcDbPoint
 10
28.61990546482858
 20
-276.8473940210347
 30
0.0
  0
POINT
  5
614A
330
5E14
100
AcDbEntity
  8
DEFPOINTS
  6
Continuous
 62
     0
100
AcDbPoint
 10
62.63773581904539
 20
-276.8473940210347
 30
0.0
  0
ENDBLK
  5
5E1F
330
5E14
100
AcDbEntity
  8
0
100
AcDbBlockEnd
  0
BLOCK
  5
5E66
330
5E5C
100
AcDbEntity
  8
0
100
AcDbBlockBegin
  2
*D25
 70
     1
 10
0.0
 20
0.0
 30
0.0
  3
*D25
  1

  0
LINE
  5
614B
330
5E5C
100
AcDbEntity
  8
30
  6
Continuous
 62
     0
440
 16777216
100
AcDbLine
 10
6.119905464828812
 20
-184.8473940210348
 30
0.0
 11
73.74648431592179
 21
-184.8473940210348
 31
0.0
  0
LINE
  5
614C
330
5E5C
100
AcDbEntity
  8
30
  6
Continuous
 62
     0
440
 16777216
100
AcDbLine
 10
6.119905464828812
 20
-316.8473940210347
 30
0.0
 11
73.74648431592176
 21
-316.8473940210347
 31
0.0
  0
LINE
  5
614D
330
5E5C
100
AcDbEntity
  8
30
  6
Continuous
 62
     0
440
 16777216
100
AcDbLine
 10
73.24648431592179
 20
-186.8473940210348
 30
0.0
 11
73.24648431592176
 21
-314.8473940210346
 31
0.0
  0
INSERT
  5
614E
330
5E5C
100
AcDbEntity
  8
30
  6
Continuous
 62
     0
440
 16777216
100
AcDbBlockReference
  2
_OPEN
 10
73.24648431592179
 20
-184.8473940210348
 30
0.0
 41
2.0
 42
2.0
 43
2.0
 50
90.0
  0
INSERT
  5
614F
330
5E5C
100
AcDbEntity
  8
30
  6
Continuous
 62
     0
440
 16777216
100
AcDbBlockReference
  2
_OPEN
 10
73.24648431592176
 20
-316.8473940210347
 30
0.0
 41
2.0
 42
2.0
 43
2.0
 50
270.0
  0
MTEXT
  5
6150
330
5E5C
100
AcDbEntity
  8
30
  6
Continuous
 62
     0
440
 16777216
100
AcDbMText
 10
70.24648431592182
 20
-250.8473940210348
 30
0.0
 40
4.0
 41
0.0
 46
0.0
 71
     5
 72
     1
  1
\A1;132
 11
0.0000000000000001
 21
1.0
 31
0.0
 73
     1
 44
1.0
1001
ACAD
1000
MTEXTBEGIN
1070
    73
1070
     1
1070
    44
1040
1.0
1070
    74
1070
     0
1000
MTEXTEND
  0
POINT
  5
6151
330
5E5C
100
AcDbEntity
  8
DEFPOINTS
  6
Continuous
 62
     0
440
 16777216
100
AcDbPoint
 10
5.119905464828811
 20
-184.8473940210348
 30
0.0
  0
POINT
  5
6152
330
5E5C
100
AcDbEntity
  8
DEFPOINTS
  6
Continuous
 62
     0
440
 16777216
100
AcDbPoint
 10
5.119905464828811
 20
-316.8473940210347
 30
0.0
  0
POINT
  5
6153
330
5E5C
100
AcDbEntity
  8
DEFPOINTS
  6
Continuous
 62
     0
440
 16777216
100
AcDbPoint
 10
73.24648431592176
 20
-316.8473940210347
 30
0.0
  0
ENDBLK
  5
5E67
330
5E5C
100
AcDbEntity
  8
0
100
AcDbBlockEnd
  0
BLOCK
  5
5E73
330
5E69
100
AcDbEntity
  8
0
100
AcDbBlockBegin
  2
*D26
 70
     1
 10
0.0
 20
0.0
 30
0.0
  3
*D26
  1

  0
LINE
  5
5F59
330
5E69
100
AcDbEntity
  8
30
  6
Continuous
 62
     0
440
 16777216
100
AcDbLine
 10
-14.99999999999998
 20
217.1349134126129
 30
0.0
 11
-14.99999999999998
 21
250.5236353433407
 31
0.0
  0
LINE
  5
5F5A
330
5E69
100
AcDbEntity
  8
30
  6
Continuous
 62
     0
440
 16777216
100
AcDbLine
 10
15.0
 20
217.1349134126129
 30
0.0
 11
15.0
 21
250.5236353433407
 31
0.0
  0
LINE
  5
5F5B
330
5E69
100
AcDbEntity
  8
30
  6
Continuous
 62
     0
440
 16777216
100
AcDbLine
 10
-12.99999999999998
 20
250.0236353433407
 30
0.0
 11
13.0
 21
250.0236353433407
 31
0.0
  0
INSERT
  5
5F5C
330
5E69
100
AcDbEntity
  8
30
  6
Continuous
 62
     0
440
 16777216
100
AcDbBlockReference
  2
_OPEN
 10
-14.99999999999998
 20
250.0236353433407
 30
0.0
 41
2.0
 42
2.0
 43
2.0
 50
180.0
  0
INSERT
  5
5F5D
330
5E69
100
AcDbEntity
  8
30
  6
Continuous
 62
     0
440
 16777216
100
AcDbBlockReference
  2
_OPEN
 10
15.0
 20
250.0236353433407
 30
0.0
 41
2.0
 42
2.0
 43
2.0
  0
MTEXT
  5
5F5E
330
5E69
100
AcDbEntity
  8
30
  6
Continuous
 62
     0
440
 16777216
100
AcDbMText
 10
0.0000000000000117
 20
253.0236353433406
 30
0.0
 40
4.0
 41
0.0
 46
0.0
 71
     5
 72
     1
  1
\A1;30
 73
     1
 44
1.0
1001
ACAD
1000
MTEXTBEGIN
1070
    73
1070
     1
1070
    44
1040
1.0
1070
    74
1070
     0
1000
MTEXTEND
  0
POINT
  5
5F5F
330
5E69
100
AcDbEntity
  8
DEFPOINTS
  6
Continuous
 62
     0
440
 16777216
100
AcDbPoint
 10
-14.99999999999998
 20
216.1349134126129
 30
0.0
  0
POINT
  5
5F60
330
5E69
100
AcDbEntity
  8
DEFPOINTS
  6
Continuous
 62
     0
440
 16777216
100
AcDbPoint
 10
15.0
 20
216.1349134126129
 30
0.0
  0
POINT
  5
5F61
330
5E69
100
AcDbEntity
  8
DEFPOINTS
  6
Continuous
 62
     0
440
 16777216
100
AcDbPoint
 10
15.0
 20
250.0236353433407
 30
0.0
  0
ENDBLK
  5
5E74
330
5E69
100
AcDbEntity
  8
0
100
AcDbBlockEnd
  0
BLOCK
  5
5EC4
330
5EBA
100
AcDbEntity
  8
0
100
AcDbBlockBegin
  2
*D27
 70
     1
 10
0.0
 20
0.0
 30
0.0
  3
*D27
  1

  0
LINE
  5
5F50
330
5EBA
100
AcDbEntity
  8
30
  6
Continuous
 62
     0
440
 16777216
100
AcDbLine
 10
-2.5
 20
124.4999999999996
 30
0.0
 11
-53.96127935959029
 21
124.4999999999996
 31
0.0
  0
LINE
  5
5F51
330
5EBA
100
AcDbEntity
  8
30
  6
Continuous
 62
     0
440
 16777216
100
AcDbLine
 10
-30.99999999999999
 20
77.49999999999997
 30
0.0
 11
-53.9612793595903
 21
77.49999999999999
 31
0.0
  0
LINE
  5
5F52
330
5EBA
100
AcDbEntity
  8
30
  6
Continuous
 62
     0
440
 16777216
100
AcDbLine
 10
-53.46127935959028
 20
122.4999999999996
 30
0.0
 11
-53.4612793595903
 21
79.49999999999999
 31
0.0
  0
INSERT
  5
5F53
330
5EBA
100
AcDbEntity
  8
30
  6
Continuous
 62
     0
440
 16777216
100
AcDbBlockReference
  2
_OPEN
 10
-53.46127935959028
 20
124.4999999999996
 30
0.0
 41
2.0
 42
2.0
 43
2.0
 50
90.0
  0
INSERT
  5
5F54
330
5EBA
100
AcDbEntity
  8
30
  6
Continuous
 62
     0
440
 16777216
100
AcDbBlockReference
  2
_OPEN
 10
-53.4612793595903
 20
77.49999999999999
 30
0.0
 41
2.0
 42
2.0
 43
2.0
 50
270.0
  0
MTEXT
  5
5F55
330
5EBA
100
AcDbEntity
  8
30
  6
Continuous
 62
     0
440
 16777216
100
AcDbMText
 10
-56.46127935959031
 20
100.9999999999999
 30
0.0
 40
4.0
 41
0.0
 46
0.0
 71
     5
 72
     1
  1
\A1;47
 11
0.0000000000000001
 21
1.0
 31
0.0
 73
     1
 44
1.0
1001
ACAD
1000
MTEXTBEGIN
1070
    73
1070
     1
1070
    44
1040
1.0
1070
    74
1070
     0
1000
MTEXTEND
  0
POINT
  5
5F56
330
5EBA
100
AcDbEntity
  8
DEFPOINTS
  6
Continuous
 62
     0
440
 16777216
100
AcDbPoint
 10
-1.5
 20
124.4999999999996
 30
0.0
  0
POINT
  5
5F57
330
5EBA
100
AcDbEntity
  8
DEFPOINTS
  6
Continuous
 62
     0
440
 16777216
100
AcDbPoint
 10
-29.99999999999999
 20
77.49999999999997
 30
0.0
  0
POINT
  5
5F58
330
5EBA
100
AcDbEntity
  8
DEFPOINTS
  6
Continuous
 62
     0
440
 16777216
100
AcDbPoint
 10
-53.4612793595903
 20
77.49999999999999
 30
0.0
  0
ENDBLK
  5
5EC5
330
5EBA
100
AcDbEntity
  8
0
100
AcDbBlockEnd
  0
BLOCK
  5
5ED1
330
5EC7
100
AcDbEntity
  8
0
100
AcDbBlockBegin
  2
*D28
 70
     1
 10
0.0
 20
0.0
 30
0.0
  3
*D28
  1

  0
LINE
  5
6252
330
5EC7
100
AcDbEntity
  8
30
  6
Continuous
 62
     0
440
 16777216
100
AcDbLine
 10
-30.99999999999999
 20
77.49999999999997
 30
0.0
 11
-53.96127935959029
 21
77.49999999999999
 31
0.0
  0
LINE
  5
6253
330
5EC7
100
AcDbEntity
  8
30
  6
Continuous
 62
     0
440
 16777216
100
AcDbLine
 10
-30.99999999999999
 20
-77.50000000000003
 30
0.0
 11
-53.96127935959032
 21
-77.50000000000001
 31
0.0
  0
LINE
  5
6254
330
5EC7
100
AcDbEntity
  8
30
  6
Continuous
 62
     0
440
 16777216
100
AcDbLine
 10
-53.46127935959029
 20
75.49999999999998
 30
0.0
 11
-53.46127935959032
 21
-75.50000000000001
 31
0.0
  0
INSERT
  5
6255
330
5EC7
100
AcDbEntity
  8
30
  6
Continuous
 62
     0
440
 16777216
100
AcDbBlockReference
  2
_OPEN
 10
-53.46127935959029
 20
77.49999999999999
 30
0.0
 41
2.0
 42
2.0
 43
2.0
 50
90.0
  0
INSERT
  5
6256
330
5EC7
100
AcDbEntity
  8
30
  6
Continuous
 62
     0
440
 16777216
100
AcDbBlockReference
  2
_OPEN
 10
-53.46127935959032
 20
-77.50000000000001
 30
0.0
 41
2.0
 42
2.0
 43
2.0
 50
270.0
  0
MTEXT
  5
6257
330
5EC7
100
AcDbEntity
  8
30
  6
Continuous
 62
     0
440
 16777216
100
AcDbMText
 10
-56.46127935959031
 20
-0.0000000000000248
 30
0.0
 40
4.0
 41
0.0
 46
0.0
 71
     5
 72
     1
  1
\A1;155
 11
0.0000000000000001
 21
1.0
 31
0.0
 73
     1
 44
1.0
1001
ACAD
1000
MTEXTBEGIN
1070
    73
1070
     1
1070
    44
1040
1.0
1070
    74
1070
     0
1000
MTEXTEND
  0
POINT
  5
6258
330
5EC7
100
AcDbEntity
  8
DEFPOINTS
  6
Continuous
 62
     0
440
 16777216
100
AcDbPoint
 10
-29.99999999999999
 20
77.49999999999997
 30
0.0
  0
POINT
  5
6259
330
5EC7
100
AcDbEntity
  8
DEFPOINTS
  6
Continuous
 62
     0
440
 16777216
100
AcDbPoint
 10
-29.99999999999999
 20
-77.50000000000003
 30
0.0
  0
POINT
  5
625A
330
5EC7
100
AcDbEntity
  8
DEFPOINTS
  6
Continuous
 62
     0
440
 16777216
100
AcDbPoint
 10
-53.46127935959032
 20
-77.50000000000001
 30
0.0
  0
ENDBLK
  5
5ED2
330
5EC7
100
AcDbEntity
  8
0
100
AcDbBlockEnd
  0
BLOCK
  5
6076
330
606C
100
AcDbEntity
  8
0
100
AcDbBlockBegin
  2
*D29
 70
     1
 10
0.0
 20
0.0
 30
0.0
  3
*D29
  1

  0
LINE
  5
60B8
330
606C
100
AcDbEntity
  8
30
  6
Continuous
 62
     0
440
 16777216
100
AcDbLine
 10
218.0000000000001
 20
-78.49999999999993
 30
0.0
 11
218.0000000000001
 21
-91.16392178464693
 31
0.0
  0
LINE
  5
60B9
330
606C
100
AcDbEntity
  8
30
  6
Continuous
 62
     0
440
 16777216
100
AcDbLine
 10
226.0000000000001
 20
-69.24999999999993
 30
0.0
 11
226.0000000000001
 21
-91.16392178464693
 31
0.0
  0
LINE
  5
60BA
330
606C
100
AcDbEntity
  8
30
  6
Continuous
 62
     0
440
 16777216
100
AcDbLine
 10
220.0000000000001
 20
-90.66392178464694
 30
0.0
 11
224.0000000000001
 21
-90.66392178464694
 31
0.0
  0
INSERT
  5
60BB
330
606C
100
AcDbEntity
  8
30
  6
Continuous
 62
     0
440
 16777216
100
AcDbBlockReference
  2
_OPEN
 10
218.0000000000001
 20
-90.66392178464694
 30
0.0
 41
2.0
 42
2.0
 43
2.0
 50
180.0
  0
INSERT
  5
60BC
330
606C
100
AcDbEntity
  8
30
  6
Continuous
 62
     0
440
 16777216
100
AcDbBlockReference
  2
_OPEN
 10
226.0000000000001
 20
-90.66392178464694
 30
0.0
 41
2.0
 42
2.0
 43
2.0
  0
MTEXT
  5
60BD
330
606C
100
AcDbEntity
  8
30
  6
Continuous
 62
     0
440
 16777216
100
AcDbMText
 10
222.0000000000001
 20
-87.66392178464689
 30
0.0
 40
4.0
 41
0.0
 46
0.0
 71
     5
 72
     1
  1
\A1;8
 73
     1
 44
1.0
1001
ACAD
1000
MTEXTBEGIN
1070
    73
1070
     1
1070
    44
1040
1.0
1070
    74
1070
     0
1000
MTEXTEND
  0
POINT
  5
60BE
330
606C
100
AcDbEntity
  8
DEFPOINTS
  6
Continuous
 62
     0
440
 16777216
100
AcDbPoint
 10
218.0000000000001
 20
-77.49999999999992
 30
0.0
  0
POINT
  5
60BF
330
606C
100
AcDbEntity
  8
DEFPOINTS
  6
Continuous
 62
     0
440
 16777216
100
AcDbPoint
 10
226.0000000000001
 20
-68.24999999999993
 30
0.0
  0
POINT
  5
60C0
330
606C
100
AcDbEntity
  8
DEFPOINTS
  6
Continuous
 62
     0
440
 16777216
100
AcDbPoint
 10
226.0000000000001
 20
-90.66392178464694
 30
0.0
  0
ENDBLK
  5
6077
330
606C
100
AcDbEntity
  8
0
100
AcDbBlockEnd
  0
BLOCK
  5
6192
330
6189
100
AcDbEntity
  8
0
100
AcDbBlockBegin
  2
*D30
 70
     1
 10
0.0
 20
0.0
 30
0.0
  3
*D30
  1

  0
LINE
  5
61C3
330
6189
100
AcDbEntity
  8
30
  6
Continuous
 62
     0
100
AcDbLine
 10
193.9202398254663
 20
-169.3084657831919
 30
0.0
 11
186.2535731587991
 21
-169.3084657831919
 31
0.0
  0
LINE
  5
61C4
330
6189
100
AcDbEntity
  8
30
  6
Continuous
 62
     0
100
AcDbLine
 10
186.2535731587991
 20
-169.3084657831919
 30
0.0
 11
174.2481413759314
 21
-181.0489814598111
 31
0.0
  0
MTEXT
  5
61C5
102
{ACAD_XDICTIONARY
360
64A0
102
}
330
6189
100
AcDbEntity
  8
30
  6
Continuous
 62
     0
100
AcDbMText
 10
190.5869064921329
 20
-166.308465783192
 30
0.0
 40
4.0
 41
0.0
 46
0.0
 71
     5
 72
     1
  1
\A1;∅6
 73
     1
 44
1.0
1001
ACAD
1000
MTEXTBEGIN
1070
    73
1070
     1
1070
    44
1040
1.0
1070
    74
1070
     0
1000
MTEXTEND
  0
INSERT
  5
61C6
330
6189
100
AcDbEntity
  8
30
  6
Continuous
 62
     0
100
AcDbBlockReference
  2
_OPEN
 10
172.818239452529
 20
-182.4473306613523
 30
0.0
 41
2.0
 42
2.0
 43
2.0
 50
224.3608195602198
  0
LINE
  5
61C7
330
6189
100
AcDbEntity
  8
30
  6
Continuous
 62
     0
100
AcDbLine
 10
170.5833863775443
 20
-184.5448546493559
 30
0.0
 11
170.763386377544
 21
-184.5448546493558
 31
0.0
  0
LINE
  5
61C8
330
6189
100
AcDbEntity
  8
30
  6
Continuous
 62
     0
100
AcDbLine
 10
170.6733863775443
 20
-184.6348546493558
 30
0.0
 11
170.6733863775443
 21
-184.4548546493559
 31
0.0
  0
POINT
  5
61C9
330
6189
100
AcDbEntity
  8
DEFPOINTS
  6
Continuous
 62
     0
100
AcDbPoint
 10
172.818239452529
 20
-182.4473306613523
 30
0.0
  0
POINT
  5
61CA
330
6189
100
AcDbEntity
  8
DEFPOINTS
  6
Continuous
 62
     0
100
AcDbPoint
 10
168.5285333025593
 20
-186.6423786373593
 30
0.0
  0
ENDBLK
  5
6193
330
6189
100
AcDbEntity
  8
0
100
AcDbBlockEnd
  0
BLOCK
  5
619E
330
6194
100
AcDbEntity
  8
0
100
AcDbBlockBegin
  2
*D31
 70
     1
 10
0.0
 20
0.0
 30
0.0
  3
*D31
  1

  0
LINE
  5
61F6
330
6194
100
AcDbEntity
  8
30
  6
Continuous
 62
     0
440
 16777216
100
AcDbLine
 10
141.7029347948341
 20
-276.8473940210347
 30
0.0
 11
141.7029347948341
 21
-360.1479697762508
 31
0.0
  0
LINE
  5
61F7
330
6194
100
AcDbEntity
  8
30
  6
Continuous
 62
     0
440
 16777216
100
AcDbLine
 10
198.7029347948343
 20
-276.8473940210347
 30
0.0
 11
198.7029347948343
 21
-360.1479697762508
 31
0.0
  0
LINE
  5
61F8
330
6194
100
AcDbEntity
  8
30
  6
Continuous
 62
     0
440
 16777216
100
AcDbLine
 10
143.7029347948341
 20
-359.6479697762508
 30
0.0
 11
196.7029347948344
 21
-359.6479697762508
 31
0.0
  0
INSERT
  5
61F9
330
6194
100
AcDbEntity
  8
30
  6
Continuous
 62
     0
440
 16777216
100
AcDbBlockReference
  2
_OPEN
 10
141.7029347948341
 20
-359.6479697762508
 30
0.0
 41
2.0
 42
2.0
 43
2.0
 50
180.0
  0
INSERT
  5
61FA
330
6194
100
AcDbEntity
  8
30
  6
Continuous
 62
     0
440
 16777216
100
AcDbBlockReference
  2
_OPEN
 10
198.7029347948343
 20
-359.6479697762508
 30
0.0
 41
2.0
 42
2.0
 43
2.0
  0
MTEXT
  5
61FB
330
6194
100
AcDbEntity
  8
30
  6
Continuous
 62
     0
440
 16777216
100
AcDbMText
 10
170.202934794834
 20
-356.647969776251
 30
0.0
 40
4.0
 41
0.0
 46
0.0
 71
     5
 72
     1
  1
\A1;57
 73
     1
 44
1.0
1001
ACAD
1000
MTEXTBEGIN
1070
    73
1070
     1
1070
    44
1040
1.0
1070
    74
1070
     0
1000
MTEXTEND
  0
POINT
  5
61FC
330
6194
100
AcDbEntity
  8
DEFPOINTS
  6
Continuous
 62
     0
440
 16777216
100
AcDbPoint
 10
141.7029347948341
 20
-275.8473940210348
 30
0.0
  0
POINT
  5
61FD
330
6194
100
AcDbEntity
  8
DEFPOINTS
  6
Continuous
 62
     0
440
 16777216
100
AcDbPoint
 10
198.7029347948343
 20
-275.8473940210348
 30
0.0
  0
POINT
  5
61FE
330
6194
100
AcDbEntity
  8
DEFPOINTS
  6
Continuous
 62
     0
440
 16777216
100
AcDbPoint
 10
198.7029347948343
 20
-359.6479697762508
 30
0.0
  0
ENDBLK
  5
619F
330
6194
100
AcDbEntity
  8
0
100
AcDbBlockEnd
  0
BLOCK
  5
61A9
330
61A0
100
AcDbEntity
  8
0
100
AcDbBlockBegin
  2
*D32
 70
     1
 10
0.0
 20
0.0
 30
0.0
  3
*D32
  1

  0
LINE
  5
61D4
330
61A0
100
AcDbEntity
  8
30
  6
Continuous
 62
     0
440
 16777216
100
AcDbLine
 10
209.5026347055378
 20
-222.8030654950833
 30
0.0
 11
203.1693013722045
 21
-222.8030654950833
 31
0.0
  0
LINE
  5
61D5
330
61A0
100
AcDbEntity
  8
30
  6
Continuous
 62
     0
440
 16777216
100
AcDbLine
 10
203.1693013722045
 20
-222.8030654950833
 30
0.0
 11
201.5827547412563
 21
-224.0207969054639
 31
0.0
  0
MTEXT
  5
61D6
330
61A0
100
AcDbEntity
  8
30
  6
Continuous
 62
     0
440
 16777216
100
AcDbMText
 10
206.8359680388712
 20
-219.8030654950833
 30
0.0
 40
4.0
 41
0.0
 46
0.0
 71
     5
 72
     1
  1
\A1;R1
 73
     1
 44
1.0
1001
ACAD
1000
MTEXTBEGIN
1070
    73
1070
     1
1070
    44
1040
1.0
1070
    74
1070
     0
1000
MTEXTEND
  0
INSERT
  5
61D7
330
61A0
100
AcDbEntity
  8
30
  6
Continuous
 62
     0
440
 16777216
100
AcDbBlockReference
  2
_OPEN
 10
199.9962081103084
 20
-225.2385283158443
 30
0.0
 41
2.0
 42
2.0
 43
2.0
 50
217.5075311795302
  0
LINE
  5
61D8
330
61A0
100
AcDbEntity
  8
30
  6
Continuous
 62
     0
440
 16777216
100
AcDbLine
 10
199.1129347948344
 20
-225.8473940210345
 30
0.0
 11
199.2929347948344
 21
-225.8473940210345
 31
0.0
  0
LINE
  5
61D9
330
61A0
100
AcDbEntity
  8
30
  6
Continuous
 62
     0
440
 16777216
100
AcDbLine
 10
199.2029347948344
 20
-225.9373940210345
 30
0.0
 11
199.2029347948344
 21
-225.7573940210345
 31
0.0
  0
POINT
  5
61DA
330
61A0
100
AcDbEntity
  8
DEFPOINTS
  6
Continuous
 62
     0
440
 16777216
100
AcDbPoint
 10
199.9962081103084
 20
-225.2385283158443
 30
0.0
  0
POINT
  5
61DB
330
61A0
100
AcDbEntity
  8
DEFPOINTS
  6
Continuous
 62
     0
440
 16777216
100
AcDbPoint
 10
199.2029347948344
 20
-225.8473940210345
 30
0.0
  0
ENDBLK
  5
61AA
330
61A0
100
AcDbEntity
  8
0
100
AcDbBlockEnd
  0
BLOCK
  5
61B5
330
61AB
100
AcDbEntity
  8
0
100
AcDbBlockBegin
  2
*D33
 70
     1
 10
0.0
 20
0.0
 30
0.0
  3
*D33
  1

  0
LINE
  5
61DC
330
61AB
100
AcDbEntity
  8
30
  6
Continuous
 62
     0
440
 16777216
100
AcDbLine
 10
200.2029347948339
 20
-224.8473940210347
 30
0.0
 11
233.7207651490508
 21
-224.8473940210347
 31
0.0
  0
LINE
  5
61DD
330
61AB
100
AcDbEntity
  8
30
  6
Continuous
 62
     0
440
 16777216
100
AcDbLine
 10
200.2029347948339
 20
-276.8473940210347
 30
0.0
 11
233.7207651490508
 21
-276.8473940210347
 31
0.0
  0
LINE
  5
61DE
330
61AB
100
AcDbEntity
  8
30
  6
Continuous
 62
     0
440
 16777216
100
AcDbLine
 10
233.2207651490509
 20
-226.8473940210347
 30
0.0
 11
233.2207651490509
 21
-274.8473940210347
 31
0.0
  0
INSERT
  5
61DF
330
61AB
100
AcDbEntity
  8
30
  6
Continuous
 62
     0
440
 16777216
100
AcDbBlockReference
  2
_OPEN
 10
233.2207651490509
 20
-224.8473940210347
 30
0.0
 41
2.0
 42
2.0
 43
2.0
 50
90.0
  0
INSERT
  5
61E0
330
61AB
100
AcDbEntity
  8
30
  6
Continuous
 62
     0
440
 16777216
100
AcDbBlockReference
  2
_OPEN
 10
233.2207651490509
 20
-276.8473940210347
 30
0.0
 41
2.0
 42
2.0
 43
2.0
 50
270.0
  0
MTEXT
  5
61E1
330
61AB
100
AcDbEntity
  8
30
  6
Continuous
 62
     0
440
 16777216
100
AcDbMText
 10
230.2207651490508
 20
-250.8473940210345
 30
0.0
 40
4.0
 41
0.0
 46
0.0
 71
     5
 72
     1
  1
\A1;52
 11
0.0000000000000001
 21
1.0
 31
0.0
 73
     1
 44
1.0
1001
ACAD
1000
MTEXTBEGIN
1070
    73
1070
     1
1070
    44
1040
1.0
1070
    74
1070
     0
1000
MTEXTEND
  0
POINT
  5
61E2
330
61AB
100
AcDbEntity
  8
DEFPOINTS
  6
Continuous
 62
     0
440
 16777216
100
AcDbPoint
 10
199.2029347948339
 20
-224.8473940210347
 30
0.0
  0
POINT
  5
61E3
330
61AB
100
AcDbEntity
  8
DEFPOINTS
  6
Continuous
 62
     0
440
 16777216
100
AcDbPoint
 10
199.2029347948339
 20
-276.8473940210347
 30
0.0
  0
POINT
  5
61E4
330
61AB
100
AcDbEntity
  8
DEFPOINTS
  6
Continuous
 62
     0
440
 16777216
100
AcDbPoint
 10
233.2207651490509
 20
-276.8473940210347
 30
0.0
  0
ENDBLK
  5
61B6
330
61AB
100
AcDbEntity
  8
0
100
AcDbBlockEnd
  0
BLOCK
  5
61C1
330
61B7
100
AcDbEntity
  8
0
100
AcDbBlockBegin
  2
*D34
 70
     1
 10
0.0
 20
0.0
 30
0.0
  3
*D34
  1

  0
LINE
  5
61E5
330
61B7
100
AcDbEntity
  8
30
  6
Continuous
 62
     0
100
AcDbLine
 10
176.7029347948341
 20
-184.8473940210348
 30
0.0
 11
244.329513645927
 21
-184.8473940210348
 31
0.0
  0
LINE
  5
61E6
330
61B7
100
AcDbEntity
  8
30
  6
Continuous
 62
     0
100
AcDbLine
 10
176.7029347948341
 20
-316.8473940210347
 30
0.0
 11
244.329513645927
 21
-316.8473940210347
 31
0.0
  0
LINE
  5
61E7
330
61B7
100
AcDbEntity
  8
30
  6
Continuous
 62
     0
100
AcDbLine
 10
243.829513645927
 20
-186.8473940210348
 30
0.0
 11
243.829513645927
 21
-314.8473940210346
 31
0.0
  0
INSERT
  5
61E8
330
61B7
100
AcDbEntity
  8
30
  6
Continuous
 62
     0
100
AcDbBlockReference
  2
_OPEN
 10
243.829513645927
 20
-184.8473940210348
 30
0.0
 41
2.0
 42
2.0
 43
2.0
 50
90.0
  0
INSERT
  5
61E9
330
61B7
100
AcDbEntity
  8
30
  6
Continuous
 62
     0
100
AcDbBlockReference
  2
_OPEN
 10
243.829513645927
 20
-316.8473940210347
 30
0.0
 41
2.0
 42
2.0
 43
2.0
 50
270.0
  0
MTEXT
  5
61EA
330
61B7
100
AcDbEntity
  8
30
  6
Continuous
 62
     0
100
AcDbMText
 10
240.8295136459272
 20
-250.8473940210348
 30
0.0
 40
4.0
 41
0.0
 46
0.0
 71
     5
 72
     1
  1
\A1;132
 11
0.0000000000000001
 21
1.0
 31
0.0
 73
     1
 44
1.0
1001
ACAD
1000
MTEXTBEGIN
1070
    73
1070
     1
1070
    44
1040
1.0
1070
    74
1070
     0
1000
MTEXTEND
  0
POINT
  5
61EB
330
61B7
100
AcDbEntity
  8
DEFPOINTS
  6
Continuous
 62
     0
100
AcDbPoint
 10
175.7029347948343
 20
-184.8473940210348
 30
0.0
  0
POINT
  5
61EC
330
61B7
100
AcDbEntity
  8
DEFPOINTS
  6
Continuous
 62
     0
100
AcDbPoint
 10
175.7029347948343
 20
-316.8473940210347
 30
0.0
  0
POINT
  5
61ED
330
61B7
100
AcDbEntity
  8
DEFPOINTS
  6
Continuous
 62
     0
100
AcDbPoint
 10
243.829513645927
 20
-316.8473940210347
 30
0.0
  0
ENDBLK
  5
61C2
330
61B7
100
AcDbEntity
  8
0
100
AcDbBlockEnd
  0
BLOCK
  5
62CF
330
62CE
100
AcDbEntity
  8
0
100
AcDbBlockBegin
  2
*D35
 70
     1
 10
0.0
 20
0.0
 30
0.0
  3
*D35
  1

  0
LINE
  5
62D1
330
62CE
100
AcDbEntity
  8
30
  6
Continuous
 62
     0
370
    -2
100
AcDbLine
 10
31.0
 20
235.1349134126127
 30
0.0
 11
41.39783876498042
 21
235.1349134126127
 31
0.0
  0
LINE
  5
62D2
330
62CE
100
AcDbEntity
  8
30
  6
Continuous
 62
     0
370
    -2
100
AcDbLine
 10
31.0
 20
174.1349134126129
 30
0.0
 11
41.39783876498039
 21
174.1349134126129
 31
0.0
  0
LINE
  5
62D3
330
62CE
100
AcDbEntity
  8
30
  6
Continuous
 62
     0
370
    -2
100
AcDbLine
 10
40.8978387649804
 20
233.1349134126127
 30
0.0
 11
40.8978387649804
 21
176.1349134126129
 31
0.0
  0
INSERT
  5
62D4
330
62CE
100
AcDbEntity
  8
30
  6
Continuous
 62
     0
370
    -2
100
AcDbBlockReference
  2
_OPEN
 10
40.8978387649804
 20
235.1349134126127
 30
0.0
 41
2.0
 42
2.0
 43
2.0
 50
90.0
  0
INSERT
  5
62D5
330
62CE
100
AcDbEntity
  8
30
  6
Continuous
 62
     0
370
    -2
100
AcDbBlockReference
  2
_OPEN
 10
40.8978387649804
 20
174.1349134126129
 30
0.0
 41
2.0
 42
2.0
 43
2.0
 50
270.0
  0
MTEXT
  5
62D6
330
62CE
100
AcDbEntity
  8
30
  6
Continuous
 62
     0
100
AcDbMText
 10
37.89783876498038
 20
204.6349134126128
 30
0.0
 40
4.0
 41
0.0
 46
0.0
 71
     5
 72
     1
  1
\A1;61
 11
0.0000000000000001
 21
1.0
 31
0.0
 73
     1
 44
1.0
1001
ACAD
1000
MTEXTBEGIN
1070
    73
1070
     1
1070
    44
1040
1.0
1070
    74
1070
     0
1000
MTEXTEND
  0
POINT
  5
62D7
330
62CE
100
AcDbEntity
  8
DEFPOINTS
  6
Continuous
 62
     0
100
AcDbPoint
 10
30.0
 20
235.1349134126127
 30
0.0
  0
POINT
  5
62D8
330
62CE
100
AcDbEntity
  8
DEFPOINTS
  6
Continuous
 62
     0
100
AcDbPoint
 10
30.0
 20
174.1349134126129
 30
0.0
  0
POINT
  5
62D9
330
62CE
100
AcDbEntity
  8
DEFPOINTS
  6
Continuous
 62
     0
100
AcDbPoint
 10
40.8978387649804
 20
174.1349134126129
 30
0.0
  0
ENDBLK
  5
62D0
330
62CE
100
AcDbEntity
  8
0
100
AcDbBlockEnd
  0
BLOCK
  5
62DC
330
62DB
100
AcDbEntity
  8
0
100
AcDbBlockBegin
  2
*D36
 70
     1
 10
0.0
 20
0.0
 30
0.0
  3
*D36
  1

  0
LINE
  5
62DE
330
62DB
100
AcDbEntity
  8
30
  6
Continuous
 62
     0
370
    -2
100
AcDbLine
 10
31.0
 20
235.1349134126127
 30
0.0
 11
49.21574390189791
 21
235.1349134126127
 31
0.0
  0
LINE
  5
62DF
330
62DB
100
AcDbEntity
  8
30
  6
Continuous
 62
     0
370
    -2
100
AcDbLine
 10
28.5
 20
167.1349134126126
 30
0.0
 11
49.21574390189789
 21
167.1349134126126
 31
0.0
  0
LINE
  5
62E0
330
62DB
100
AcDbEntity
  8
30
  6
Continuous
 62
     0
370
    -2
100
AcDbLine
 10
48.71574390189791
 20
233.1349134126127
 30
0.0
 11
48.71574390189788
 21
169.1349134126126
 31
0.0
  0
INSERT
  5
62E1
330
62DB
100
AcDbEntity
  8
30
  6
Continuous
 62
     0
370
    -2
100
AcDbBlockReference
  2
_OPEN
 10
48.71574390189791
 20
235.1349134126127
 30
0.0
 41
2.0
 42
2.0
 43
2.0
 50
90.0
  0
INSERT
  5
62E2
330
62DB
100
AcDbEntity
  8
30
  6
Continuous
 62
     0
370
    -2
100
AcDbBlockReference
  2
_OPEN
 10
48.71574390189788
 20
167.1349134126126
 30
0.0
 41
2.0
 42
2.0
 43
2.0
 50
270.0
  0
MTEXT
  5
62E3
330
62DB
100
AcDbEntity
  8
30
  6
Continuous
 62
     0
100
AcDbMText
 10
45.71574390189787
 20
201.1349134126127
 30
0.0
 40
4.0
 41
0.0
 46
0.0
 71
     5
 72
     1
  1
\A1;68
 11
0.0000000000000001
 21
1.0
 31
0.0
 73
     1
 44
1.0
1001
ACAD
1000
MTEXTBEGIN
1070
    73
1070
     1
1070
    44
1040
1.0
1070
    74
1070
     0
1000
MTEXTEND
  0
POINT
  5
62E4
330
62DB
100
AcDbEntity
  8
DEFPOINTS
  6
Continuous
 62
     0
100
AcDbPoint
 10
30.0
 20
235.1349134126127
 30
0.0
  0
POINT
  5
62E5
330
62DB
100
AcDbEntity
  8
DEFPOINTS
  6
Continuous
 62
     0
100
AcDbPoint
 10
27.5
 20
167.1349134126126
 30
0.0
  0
POINT
  5
62E6
330
62DB
100
AcDbEntity
  8
DEFPOINTS
  6
Continuous
 62
     0
100
AcDbPoint
 10
48.71574390189788
 20
167.1349134126126
 30
0.0
  0
ENDBLK
  5
62DD
330
62DB
100
AcDbEntity
  8
0
100
AcDbBlockEnd
  0
BLOCK
  5
62E9
330
62E8
100
AcDbEntity
  8
0
100
AcDbBlockBegin
  2
*D37
 70
     1
 10
0.0
 20
0.0
 30
0.0
  3
*D37
  1

  0
LINE
  5
62EB
330
62E8
100
AcDbEntity
  8
30
  6
Continuous
 62
     0
370
    -2
100
AcDbLine
 10
31.0
 20
235.1349134126127
 30
0.0
 11
62.61786831030669
 21
235.1349134126127
 31
0.0
  0
LINE
  5
62EC
330
62E8
100
AcDbEntity
  8
30
  6
Continuous
 62
     0
370
    -2
100
AcDbLine
 10
-2.999999999999998
 20
163.1349134126128
 30
0.0
 11
62.61786831030665
 21
163.1349134126128
 31
0.0
  0
LINE
  5
62ED
330
62E8
100
AcDbEntity
  8
30
  6
Continuous
 62
     0
370
    -2
100
AcDbLine
 10
62.11786831030668
 20
233.1349134126127
 30
0.0
 11
62.11786831030668
 21
165.1349134126128
 31
0.0
  0
INSERT
  5
62EE
330
62E8
100
AcDbEntity
  8
30
  6
Continuous
 62
     0
370
    -2
100
AcDbBlockReference
  2
_OPEN
 10
62.11786831030668
 20
235.1349134126127
 30
0.0
 41
2.0
 42
2.0
 43
2.0
 50
90.0
  0
INSERT
  5
62EF
330
62E8
100
AcDbEntity
  8
30
  6
Continuous
 62
     0
370
    -2
100
AcDbBlockReference
  2
_OPEN
 10
62.11786831030668
 20
163.1349134126128
 30
0.0
 41
2.0
 42
2.0
 43
2.0
 50
270.0
  0
MTEXT
  5
62F0
330
62E8
100
AcDbEntity
  8
30
  6
Continuous
 62
     0
100
AcDbMText
 10
59.11786831030664
 20
199.1349134126128
 30
0.0
 40
4.0
 41
0.0
 46
0.0
 71
     5
 72
     1
  1
\A1;72
 11
0.0000000000000001
 21
1.0
 31
0.0
 73
     1
 44
1.0
1001
ACAD
1000
MTEXTBEGIN
1070
    73
1070
     1
1070
    44
1040
1.0
1070
    74
1070
     0
1000
MTEXTEND
  0
POINT
  5
62F1
330
62E8
100
AcDbEntity
  8
DEFPOINTS
  6
Continuous
 62
     0
100
AcDbPoint
 10
30.0
 20
235.1349134126127
 30
0.0
  0
POINT
  5
62F2
330
62E8
100
AcDbEntity
  8
DEFPOINTS
  6
Continuous
 62
     0
100
AcDbPoint
 10
-3.999999999999998
 20
163.1349134126128
 30
0.0
  0
POINT
  5
62F3
330
62E8
100
AcDbEntity
  8
DEFPOINTS
  6
Continuous
 62
     0
100
AcDbPoint
 10
62.11786831030668
 20
163.1349134126128
 30
0.0
  0
ENDBLK
  5
62EA
330
62E8
100
AcDbEntity
  8
0
100
AcDbBlockEnd
  0
BLOCK
  5
62F6
330
62F5
100
AcDbEntity
  8
0
100
AcDbBlockBegin
  2
*D38
 70
     1
 10
0.0
 20
0.0
 30
0.0
  3
*D38
  1

  0
LINE
  5
64EA
330
62F5
100
AcDbEntity
  8
30
  6
Continuous
 62
     0
440
 16777216
370
    -2
100
AcDbLine
 10
31.0
 20
235.1349134126127
 30
0.0
 11
64.85283869287518
 21
235.1349134126127
 31
0.0
  0
LINE
  5
64EB
330
62F5
100
AcDbEntity
  8
30
  6
Continuous
 62
     0
440
 16777216
370
    -2
100
AcDbLine
 10
-2.999999999999998
 20
159.1349134126128
 30
0.0
 11
64.85283869287515
 21
159.1349134126128
 31
0.0
  0
LINE
  5
64EC
330
62F5
100
AcDbEntity
  8
30
  6
Continuous
 62
     0
440
 16777216
370
    -2
100
AcDbLine
 10
64.35283869287518
 20
233.1349134126126
 30
0.0
 11
64.35283869287515
 21
161.1349134126128
 31
0.0
  0
INSERT
  5
64ED
330
62F5
100
AcDbEntity
  8
30
  6
Continuous
 62
     0
440
 16777216
370
    -2
100
AcDbBlockReference
  2
_OPEN
 10
64.35283869287518
 20
235.1349134126127
 30
0.0
 41
2.0
 42
2.0
 43
2.0
 50
90.0
  0
INSERT
  5
64EE
330
62F5
100
AcDbEntity
  8
30
  6
Continuous
 62
     0
440
 16777216
370
    -2
100
AcDbBlockReference
  2
_OPEN
 10
64.35283869287515
 20
159.1349134126128
 30
0.0
 41
2.0
 42
2.0
 43
2.0
 50
270.0
  0
MTEXT
  5
64EF
330
62F5
100
AcDbEntity
  8
30
  6
Continuous
 62
     0
440
 16777216
100
AcDbMText
 10
61.35283869287514
 20
195.6081477673913
 30
0.0
 40
4.0
 41
0.0
 46
0.0
 71
     5
 72
     1
  1
\A1;76
 11
0.0000000000000001
 21
1.0
 31
0.0
 73
     1
 44
1.0
1001
ACAD
1000
MTEXTBEGIN
1070
    73
1070
     1
1070
    44
1040
1.0
1070
    74
1070
     0
1000
MTEXTEND
  0
POINT
  5
64F0
330
62F5
100
AcDbEntity
  8
DEFPOINTS
  6
Continuous
 62
     0
440
 16777216
100
AcDbPoint
 10
30.0
 20
235.1349134126127
 30
0.0
  0
POINT
  5
64F1
330
62F5
100
AcDbEntity
  8
DEFPOINTS
  6
Continuous
 62
     0
440
 16777216
100
AcDbPoint
 10
-3.999999999999998
 20
159.1349134126128
 30
0.0
  0
POINT
  5
64F2
330
62F5
100
AcDbEntity
  8
DEFPOINTS
  6
Continuous
 62
     0
440
 16777216
100
AcDbPoint
 10
64.35283869287515
 20
159.1349134126128
 30
0.0
  0
ENDBLK
  5
62F7
330
62F5
100
AcDbEntity
  8
0
100
AcDbBlockEnd
  0
BLOCK
  5
6303
330
6302
100
AcDbEntity
  8
0
100
AcDbBlockBegin
  2
*D39
 70
     1
 10
0.0
 20
0.0
 30
0.0
  3
*D39
  1

  0
LINE
  5
6305
330
6302
100
AcDbEntity
  8
30
  6
Continuous
 62
     0
370
    -2
100
AcDbLine
 10
31.0
 20
235.1349134126127
 30
0.0
 11
85.51316148671551
 21
235.1349134126127
 31
0.0
  0
LINE
  5
6306
330
6302
100
AcDbEntity
  8
30
  6
Continuous
 62
     0
370
    -2
100
AcDbLine
 10
-6.999999999999985
 20
151.0628919969166
 30
0.0
 11
85.51316148671547
 21
151.0628919969165
 31
0.0
  0
LINE
  5
6307
330
6302
100
AcDbEntity
  8
30
  6
Continuous
 62
     0
370
    -2
100
AcDbLine
 10
85.0131614867155
 20
233.1349134126126
 30
0.0
 11
85.01316148671547
 21
153.0628919969165
 31
0.0
  0
INSERT
  5
6308
330
6302
100
AcDbEntity
  8
30
  6
Continuous
 62
     0
370
    -2
100
AcDbBlockReference
  2
_OPEN
 10
85.0131614867155
 20
235.1349134126127
 30
0.0
 41
2.0
 42
2.0
 43
2.0
 50
90.0
  0
INSERT
  5
6309
330
6302
100
AcDbEntity
  8
30
  6
Continuous
 62
     0
370
    -2
100
AcDbBlockReference
  2
_OPEN
 10
85.01316148671547
 20
151.0628919969165
 30
0.0
 41
2.0
 42
2.0
 43
2.0
 50
270.0
  0
MTEXT
  5
630A
330
6302
100
AcDbEntity
  8
30
  6
Continuous
 62
     0
100
AcDbMText
 10
82.01316148671544
 20
193.0989027047646
 30
0.0
 40
4.0
 41
0.0
 46
0.0
 71
     5
 72
     1
  1
\A1;84.1
 11
0.0000000000000001
 21
1.0
 31
0.0
 73
     1
 44
1.0
1001
ACAD
1000
MTEXTBEGIN
1070
    73
1070
     1
1070
    44
1040
1.0
1070
    74
1070
     0
1000
MTEXTEND
  0
POINT
  5
630B
330
6302
100
AcDbEntity
  8
DEFPOINTS
  6
Continuous
 62
     0
100
AcDbPoint
 10
30.0
 20
235.1349134126127
 30
0.0
  0
POINT
  5
630C
330
6302
100
AcDbEntity
  8
DEFPOINTS
  6
Continuous
 62
     0
100
AcDbPoint
 10
-7.999999999999985
 20
151.0628919969166
 30
0.0
  0
POINT
  5
630D
330
6302
100
AcDbEntity
  8
DEFPOINTS
  6
Continuous
 62
     0
100
AcDbPoint
 10
85.01316148671547
 20
151.0628919969165
 30
0.0
  0
ENDBLK
  5
6304
330
6302
100
AcDbEntity
  8
0
100
AcDbBlockEnd
  0
BLOCK
  5
631E
330
631D
100
AcDbEntity
  8
0
100
AcDbBlockBegin
  2
*D40
 70
     1
 10
0.0
 20
0.0
 30
0.0
  3
*D40
  1

  0
LINE
  5
6320
330
631D
100
AcDbEntity
  8
30
  6
Continuous
 62
     0
440
 16777216
370
    -2
100
AcDbLine
 10
31.0
 20
235.1349134126127
 30
0.0
 11
37.8385140990936
 21
235.1349134126127
 31
0.0
  0
LINE
  5
6321
330
631D
100
AcDbEntity
  8
30
  6
Continuous
 62
     0
440
 16777216
370
    -2
100
AcDbLine
 10
31.00000000000001
 20
174.1349134126129
 30
0.0
 11
37.83851409909357
 21
174.1349134126129
 31
0.0
  0
LINE
  5
6322
330
631D
100
AcDbEntity
  8
30
  6
Continuous
 62
     0
440
 16777216
370
    -2
100
AcDbLine
 10
37.33851409909359
 20
233.1349134126127
 30
0.0
 11
37.33851409909358
 21
176.1349134126129
 31
0.0
  0
INSERT
  5
6323
330
631D
100
AcDbEntity
  8
30
  6
Continuous
 62
     0
440
 16777216
370
    -2
100
AcDbBlockReference
  2
_OPEN
 10
37.33851409909359
 20
235.1349134126127
 30
0.0
 41
2.0
 42
2.0
 43
2.0
 50
90.0
  0
INSERT
  5
6324
330
631D
100
AcDbEntity
  8
30
  6
Continuous
 62
     0
440
 16777216
370
    -2
100
AcDbBlockReference
  2
_OPEN
 10
37.33851409909358
 20
174.1349134126129
 30
0.0
 41
2.0
 42
2.0
 43
2.0
 50
270.0
  0
MTEXT
  5
6325
330
631D
100
AcDbEntity
  8
30
  6
Continuous
 62
     0
440
 16777216
100
AcDbMText
 10
34.33851409909355
 20
204.6349134126128
 30
0.0
 40
4.0
 41
0.0
 46
0.0
 71
     5
 72
     1
  1
\A1;61
 11
0.0000000000000001
 21
1.0
 31
0.0
 73
     1
 44
1.0
1001
ACAD
1000
MTEXTBEGIN
1070
    73
1070
     1
1070
    44
1040
1.0
1070
    74
1070
     0
1000
MTEXTEND
  0
POINT
  5
6326
330
631D
100
AcDbEntity
  8
DEFPOINTS
  6
Continuous
 62
     0
440
 16777216
100
AcDbPoint
 10
30.0
 20
235.1349134126127
 30
0.0
  0
POINT
  5
6327
330
631D
100
AcDbEntity
  8
DEFPOINTS
  6
Continuous
 62
     0
440
 16777216
100
AcDbPoint
 10
30.00000000000001
 20
174.1349134126129
 30
0.0
  0
POINT
  5
6328
330
631D
100
AcDbEntity
  8
DEFPOINTS
  6
Continuous
 62
     0
440
 16777216
100
AcDbPoint
 10
37.33851409909358
 20
174.1349134126129
 30
0.0
  0
ENDBLK
  5
631F
330
631D
100
AcDbEntity
  8
0
100
AcDbBlockEnd
  0
BLOCK
  5
6340
330
633F
100
AcDbEntity
  8
0
100
AcDbBlockBegin
  2
*D41
 70
     1
 10
0.0
 20
0.0
 30
0.0
  3
*D41
  1

  0
LINE
  5
6342
330
633F
100
AcDbEntity
  8
30
  6
Continuous
 62
     0
440
 16777216
370
    -2
100
AcDbLine
 10
31.0
 20
235.1349134126127
 30
0.0
 11
45.25393535308832
 21
235.1349134126127
 31
0.0
  0
LINE
  5
6343
330
633F
100
AcDbEntity
  8
30
  6
Continuous
 62
     0
440
 16777216
370
    -2
100
AcDbLine
 10
31.00000000000001
 20
167.1349134126129
 30
0.0
 11
45.25393535308831
 21
167.1349134126129
 31
0.0
  0
LINE
  5
6344
330
633F
100
AcDbEntity
  8
30
  6
Continuous
 62
     0
440
 16777216
370
    -2
100
AcDbLine
 10
44.75393535308832
 20
233.1349134126127
 30
0.0
 11
44.75393535308831
 21
169.1349134126129
 31
0.0
  0
INSERT
  5
6345
330
633F
100
AcDbEntity
  8
30
  6
Continuous
 62
     0
440
 16777216
370
    -2
100
AcDbBlockReference
  2
_OPEN
 10
44.75393535308832
 20
235.1349134126127
 30
0.0
 41
2.0
 42
2.0
 43
2.0
 50
90.0
  0
INSERT
  5
6346
330
633F
100
AcDbEntity
  8
30
  6
Continuous
 62
     0
440
 16777216
370
    -2
100
AcDbBlockReference
  2
_OPEN
 10
44.75393535308831
 20
167.1349134126129
 30
0.0
 41
2.0
 42
2.0
 43
2.0
 50
270.0
  0
MTEXT
  5
6347
330
633F
100
AcDbEntity
  8
30
  6
Continuous
 62
     0
440
 16777216
100
AcDbMText
 10
41.75393535308828
 20
201.1349134126128
 30
0.0
 40
4.0
 41
0.0
 46
0.0
 71
     5
 72
     1
  1
\A1;68
 11
0.0000000000000001
 21
1.0
 31
0.0
 73
     1
 44
1.0
1001
ACAD
1000
MTEXTBEGIN
1070
    73
1070
     1
1070
    44
1040
1.0
1070
    74
1070
     0
1000
MTEXTEND
  0
POINT
  5
6348
330
633F
100
AcDbEntity
  8
DEFPOINTS
  6
Continuous
 62
     0
440
 16777216
100
AcDbPoint
 10
30.0
 20
235.1349134126127
 30
0.0
  0
POINT
  5
6349
330
633F
100
AcDbEntity
  8
DEFPOINTS
  6
Continuous
 62
     0
440
 16777216
100
AcDbPoint
 10
30.00000000000001
 20
167.1349134126129
 30
0.0
  0
POINT
  5
634A
330
633F
100
AcDbEntity
  8
DEFPOINTS
  6
Continuous
 62
     0
440
 16777216
100
AcDbPoint
 10
44.75393535308831
 20
167.1349134126129
 30
0.0
  0
ENDBLK
  5
6341
330
633F
100
AcDbEntity
  8
0
100
AcDbBlockEnd
  0
BLOCK
  5
634D
330
634C
100
AcDbEntity
  8
0
100
AcDbBlockBegin
  2
*D42
 70
     1
 10
0.0
 20
0.0
 30
0.0
  3
*D42
  1

  0
LINE
  5
634F
330
634C
100
AcDbEntity
  8
30
  6
Continuous
 62
     0
440
 16777216
370
    -2
100
AcDbLine
 10
31.0
 20
235.1349134126127
 30
0.0
 11
55.03567393546703
 21
235.1349134126127
 31
0.0
  0
LINE
  5
6350
330
634C
100
AcDbEntity
  8
30
  6
Continuous
 62
     0
440
 16777216
370
    -2
100
AcDbLine
 10
28.5
 20
163.1349134126126
 30
0.0
 11
55.03567393546699
 21
163.1349134126126
 31
0.0
  0
LINE
  5
6351
330
634C
100
AcDbEntity
  8
30
  6
Continuous
 62
     0
440
 16777216
370
    -2
100
AcDbLine
 10
54.53567393546702
 20
233.1349134126127
 30
0.0
 11
54.53567393546699
 21
165.1349134126126
 31
0.0
  0
INSERT
  5
6352
330
634C
100
AcDbEntity
  8
30
  6
Continuous
 62
     0
440
 16777216
370
    -2
100
AcDbBlockReference
  2
_OPEN
 10
54.53567393546702
 20
235.1349134126127
 30
0.0
 41
2.0
 42
2.0
 43
2.0
 50
90.0
  0
INSERT
  5
6353
330
634C
100
AcDbEntity
  8
30
  6
Continuous
 62
     0
440
 16777216
370
    -2
100
AcDbBlockReference
  2
_OPEN
 10
54.53567393546699
 20
163.1349134126126
 30
0.0
 41
2.0
 42
2.0
 43
2.0
 50
270.0
  0
MTEXT
  5
6354
330
634C
100
AcDbEntity
  8
30
  6
Continuous
 62
     0
440
 16777216
100
AcDbMText
 10
51.53567393546698
 20
199.1349134126126
 30
0.0
 40
4.0
 41
0.0
 46
0.0
 71
     5
 72
     1
  1
\A1;72
 11
0.0000000000000001
 21
1.0
 31
0.0
 73
     1
 44
1.0
1001
ACAD
1000
MTEXTBEGIN
1070
    73
1070
     1
1070
    44
1040
1.0
1070
    74
1070
     0
1000
MTEXTEND
  0
POINT
  5
6355
330
634C
100
AcDbEntity
  8
DEFPOINTS
  6
Continuous
 62
     0
440
 16777216
100
AcDbPoint
 10
30.0
 20
235.1349134126127
 30
0.0
  0
POINT
  5
6356
330
634C
100
AcDbEntity
  8
DEFPOINTS
  6
Continuous
 62
     0
440
 16777216
100
AcDbPoint
 10
27.5
 20
163.1349134126126
 30
0.0
  0
POINT
  5
6357
330
634C
100
AcDbEntity
  8
DEFPOINTS
  6
Continuous
 62
     0
440
 16777216
100
AcDbPoint
 10
54.53567393546699
 20
163.1349134126126
 30
0.0
  0
ENDBLK
  5
634E
330
634C
100
AcDbEntity
  8
0
100
AcDbBlockEnd
  0
BLOCK
  5
6422
330
6421
100
AcDbEntity
  8
0
100
AcDbBlockBegin
  2
*D43
 70
     1
 10
0.0
 20
0.0
 30
0.0
  3
*D43
  1

  0
LINE
  5
6424
330
6421
100
AcDbEntity
  8
30
  6
Continuous
 62
     0
370
    -2
100
AcDbLine
 10
142.0
 20
26.00000000000007
 30
0.0
 11
142.0
 21
42.47501419388095
 31
0.0
  0
LINE
  5
6425
330
6421
100
AcDbEntity
  8
30
  6
Continuous
 62
     0
370
    -2
100
AcDbLine
 10
133.446204818511
 20
21.1548687058106
 30
0.0
 11
133.446204818511
 21
42.47501419388095
 31
0.0
  0
LINE
  5
6426
330
6421
100
AcDbEntity
  8
30
  6
Continuous
 62
     0
370
    -2
100
AcDbLine
 10
140.0
 20
41.97501419388095
 30
0.0
 11
135.446204818511
 21
41.97501419388095
 31
0.0
  0
LINE
  5
6427
330
6421
100
AcDbEntity
  8
30
  6
Continuous
 62
     0
370
    -2
100
AcDbLine
 10
133.446204818511
 20
41.97501419388095
 30
0.0
 11
121.446204818511
 21
41.97501419388095
 31
0.0
  0
INSERT
  5
6428
330
6421
100
AcDbEntity
  8
30
  6
Continuous
 62
     0
370
    -2
100
AcDbBlockReference
  2
_OPEN
 10
142.0
 20
41.97501419388095
 30
0.0
 41
2.0
 42
2.0
 43
2.0
  0
INSERT
  5
6429
330
6421
100
AcDbEntity
  8
30
  6
Continuous
 62
     0
370
    -2
100
AcDbBlockReference
  2
_OPEN
 10
133.446204818511
 20
41.97501419388095
 30
0.0
 41
2.0
 42
2.0
 43
2.0
 50
180.0
  0
MTEXT
  5
642A
330
6421
100
AcDbEntity
  8
30
  6
Continuous
 62
     0
100
AcDbMText
 10
126.446204818511
 20
44.97501419388095
 30
0.0
 40
4.0
 41
0.0
 46
0.0
 71
     5
 72
     1
  1
\A1;8.6
 73
     1
 44
1.0
1001
ACAD
1000
MTEXTBEGIN
1070
    73
1070
     1
1070
    44
1040
1.0
1070
    74
1070
     0
1000
MTEXTEND
  0
POINT
  5
642B
330
6421
100
AcDbEntity
  8
DEFPOINTS
  6
Continuous
 62
     0
100
AcDbPoint
 10
142.0
 20
25.00000000000007
 30
0.0
  0
POINT
  5
642C
330
6421
100
AcDbEntity
  8
DEFPOINTS
  6
Continuous
 62
     0
100
AcDbPoint
 10
133.446204818511
 20
20.1548687058106
 30
0.0
  0
POINT
  5
642D
330
6421
100
AcDbEntity
  8
DEFPOINTS
  6
Continuous
 62
     0
100
AcDbPoint
 10
133.446204818511
 20
41.97501419388095
 30
0.0
  0
ENDBLK
  5
6423
330
6421
100
AcDbEntity
  8
0
100
AcDbBlockEnd
  0
BLOCK
  5
6433
330
6432
100
AcDbEntity
  8
0
100
AcDbBlockBegin
  2
*D44
 70
     1
 10
0.0
 20
0.0
 30
0.0
  3
*D44
  1

  0
LINE
  5
6435
330
6432
100
AcDbEntity
  8
30
  6
Continuous
 62
     0
370
    -2
100
AcDbLine
 10
31.0
 20
235.1349134126127
 30
0.0
 11
87.9091292813514
 21
235.1349134126127
 31
0.0
  0
LINE
  5
6436
330
6432
100
AcDbEntity
  8
30
  6
Continuous
 62
     0
370
    -2
100
AcDbLine
 10
-6.999999999999943
 20
150.5349134126128
 30
0.0
 11
87.9091292813514
 21
150.5349134126128
 31
0.0
  0
LINE
  5
6437
330
6432
100
AcDbEntity
  8
30
  6
Continuous
 62
     0
370
    -2
100
AcDbLine
 10
87.40912928135143
 20
233.1349134126126
 30
0.0
 11
87.40912928135141
 21
152.5349134126128
 31
0.0
  0
INSERT
  5
6438
330
6432
100
AcDbEntity
  8
30
  6
Continuous
 62
     0
370
    -2
100
AcDbBlockReference
  2
_OPEN
 10
87.40912928135143
 20
235.1349134126127
 30
0.0
 41
2.0
 42
2.0
 43
2.0
 50
90.0
  0
INSERT
  5
6439
330
6432
100
AcDbEntity
  8
30
  6
Continuous
 62
     0
370
    -2
100
AcDbBlockReference
  2
_OPEN
 10
87.40912928135141
 20
150.5349134126128
 30
0.0
 41
2.0
 42
2.0
 43
2.0
 50
270.0
  0
MTEXT
  5
643A
330
6432
100
AcDbEntity
  8
30
  6
Continuous
 62
     0
100
AcDbMText
 10
84.40912928135139
 20
192.8349134126126
 30
0.0
 40
4.0
 41
0.0
 46
0.0
 71
     5
 72
     1
  1
\A1;84.6
 11
0.0000000000000001
 21
1.0
 31
0.0
 73
     1
 44
1.0
1001
ACAD
1000
MTEXTBEGIN
1070
    73
1070
     1
1070
    44
1040
1.0
1070
    74
1070
     0
1000
MTEXTEND
  0
POINT
  5
643B
330
6432
100
AcDbEntity
  8
DEFPOINTS
  6
Continuous
 62
     0
100
AcDbPoint
 10
30.0
 20
235.1349134126127
 30
0.0
  0
POINT
  5
643C
330
6432
100
AcDbEntity
  8
DEFPOINTS
  6
Continuous
 62
     0
100
AcDbPoint
 10
-7.999999999999943
 20
150.5349134126128
 30
0.0
  0
POINT
  5
643D
330
6432
100
AcDbEntity
  8
DEFPOINTS
  6
Continuous
 62
     0
100
AcDbPoint
 10
87.40912928135141
 20
150.5349134126128
 30
0.0
  0
ENDBLK
  5
6434
330
6432
100
AcDbEntity
  8
0
100
AcDbBlockEnd
  0
BLOCK
  5
6440
330
643F
100
AcDbEntity
  8
0
100
AcDbBlockBegin
  2
*D45
 70
     1
 10
0.0
 20
0.0
 30
0.0
  3
*D45
  1

  0
LINE
  5
6442
330
643F
100
AcDbEntity
  8
30
  6
Continuous
 62
     0
370
    -2
100
AcDbLine
 10
133.446204818511
 20
21.1548687058106
 30
0.0
 11
133.446204818511
 21
138.7953623814128
 31
0.0
  0
LINE
  5
6443
330
643F
100
AcDbEntity
  8
30
  6
Continuous
 62
     0
370
    -2
100
AcDbLine
 10
218.0000000000001
 20
78.5000000000002
 30
0.0
 11
218.0000000000001
 21
138.7953623814128
 31
0.0
  0
LINE
  5
6444
330
643F
100
AcDbEntity
  8
30
  6
Continuous
 62
     0
370
    -2
100
AcDbLine
 10
135.446204818511
 20
138.2953623814128
 30
0.0
 11
216.0000000000001
 21
138.2953623814128
 31
0.0
  0
INSERT
  5
6445
330
643F
100
AcDbEntity
  8
30
  6
Continuous
 62
     0
370
    -2
100
AcDbBlockReference
  2
_OPEN
 10
133.446204818511
 20
138.2953623814128
 30
0.0
 41
2.0
 42
2.0
 43
2.0
 50
180.0
  0
INSERT
  5
6446
330
643F
100
AcDbEntity
  8
30
  6
Continuous
 62
     0
370
    -2
100
AcDbBlockReference
  2
_OPEN
 10
218.0000000000001
 20
138.2953623814128
 30
0.0
 41
2.0
 42
2.0
 43
2.0
  0
MTEXT
  5
6447
330
643F
100
AcDbEntity
  8
30
  6
Continuous
 62
     0
100
AcDbMText
 10
175.7231024092555
 20
141.2953623814128
 30
0.0
 40
4.0
 41
0.0
 46
0.0
 71
     5
 72
     1
  1
\A1;84.6
 73
     1
 44
1.0
1001
ACAD
1000
MTEXTBEGIN
1070
    73
1070
     1
1070
    44
1040
1.0
1070
    74
1070
     0
1000
MTEXTEND
  0
POINT
  5
6448
330
643F
100
AcDbEntity
  8
DEFPOINTS
  6
Continuous
 62
     0
100
AcDbPoint
 10
133.446204818511
 20
20.1548687058106
 30
0.0
  0
POINT
  5
6449
330
643F
100
AcDbEntity
  8
DEFPOINTS
  6
Continuous
 62
     0
100
AcDbPoint
 10
218.0000000000001
 20
77.5000000000002
 30
0.0
  0
POINT
  5
644A
330
643F
100
AcDbEntity
  8
DEFPOINTS
  6
Continuous
 62
     0
100
AcDbPoint
 10
218.0000000000001
 20
138.2953623814128
 30
0.0
  0
ENDBLK
  5
6441
330
643F
100
AcDbEntity
  8
0
100
AcDbBlockEnd
  0
BLOCK
  5
6549
330
6548
100
AcDbEntity
  8
0
100
AcDbBlockBegin
  2
*D46
 70
     1
 10
0.0
 20
0.0
 30
0.0
  3
*D46
  1

  0
LINE
  5
654B
330
6548
100
AcDbEntity
  8
30
  6
Continuous
 62
     0
370
    -2
100
AcDbLine
 10
31.0
 20
235.1349134126127
 30
0.0
 11
77.1172737812267
 21
235.1349134126127
 31
0.0
  0
LINE
  5
654C
330
6548
100
AcDbEntity
  8
30
  6
Continuous
 62
     0
370
    -2
100
AcDbLine
 10
-6.999999999999982
 20
147.1349134126128
 30
0.0
 11
77.11727378122668
 21
147.1349134126128
 31
0.0
  0
LINE
  5
654D
330
6548
100
AcDbEntity
  8
30
  6
Continuous
 62
     0
370
    -2
100
AcDbLine
 10
76.6172737812267
 20
233.1349134126126
 30
0.0
 11
76.61727378122669
 21
149.1349134126128
 31
0.0
  0
INSERT
  5
654E
330
6548
100
AcDbEntity
  8
30
  6
Continuous
 62
     0
370
    -2
100
AcDbBlockReference
  2
_OPEN
 10
76.6172737812267
 20
235.1349134126127
 30
0.0
 41
2.0
 42
2.0
 43
2.0
 50
90.0
  0
INSERT
  5
654F
330
6548
100
AcDbEntity
  8
30
  6
Continuous
 62
     0
370
    -2
100
AcDbBlockReference
  2
_OPEN
 10
76.61727378122669
 20
147.1349134126128
 30
0.0
 41
2.0
 42
2.0
 43
2.0
 50
270.0
  0
MTEXT
  5
6550
330
6548
100
AcDbEntity
  8
30
  6
Continuous
 62
     0
100
AcDbMText
 10
73.61727378122667
 20
191.1349134126128
 30
0.0
 40
4.0
 41
0.0
 46
0.0
 71
     5
 72
     1
  1
\A1;88
 11
0.0000000000000001
 21
1.0
 31
0.0
 73
     1
 44
1.0
1001
ACAD
1000
MTEXTBEGIN
1070
    73
1070
     1
1070
    44
1040
1.0
1070
    74
1070
     0
1000
MTEXTEND
  0
POINT
  5
6551
330
6548
100
AcDbEntity
  8
DEFPOINTS
  6
Continuous
 62
     0
100
AcDbPoint
 10
30.0
 20
235.1349134126127
 30
0.0
  0
POINT
  5
6552
330
6548
100
AcDbEntity
  8
DEFPOINTS
  6
Continuous
 62
     0
100
AcDbPoint
 10
-7.999999999999982
 20
147.1349134126128
 30
0.0
  0
POINT
  5
6553
330
6548
100
AcDbEntity
  8
DEFPOINTS
  6
Continuous
 62
     0
100
AcDbPoint
 10
76.61727378122669
 20
147.1349134126128
 30
0.0
  0
ENDBLK
  5
654A
330
6548
100
AcDbEntity
  8
0
100
AcDbBlockEnd
  0
ENDSEC
  0
SECTION
  2
ENTITIES
  0
LINE
  5
B4
330
1E
100
AcDbEntity
  8
16
100
AcDbLine
 10
0.0
 20
-101.8246001220914
 30
0.0
 11
0.0
 21
105.6073578546832
 31
0.0
  0
LINE
  5
B5
330
1E
100
AcDbEntity
  8
16
100
AcDbLine
 10
71.77465564206305
 20
-0.0000000000000027
 30
0.0
 11
-83.90588178115756
 21
-0.0000000000000027
 31
0.0
  0
MTEXT
  5
BF3
330
1E
100
AcDbEntity
  8
24
  6
Continuous
100
AcDbMText
 10
140.9820964648285
 20
176.3476821548369
 30
0.0
 40
3.0
 41
0.0
 46
0.0
 71
     1
 72
     1
  1
\A1;
 73
     1
 44
1.0
1001
ACAD
1000
MTEXTBEGIN
1070
    73
1070
     1
1070
    44
1040
1.0
1070
    74
1070
     0
1000
MTEXTEND
  0
LINE
  5
1C9B
330
1E
100
AcDbEntity
  8
16
100
AcDbLine
 10
252.2681462467815
 20
0.0000000000000999
 30
0.0
 11
120.102898634612
 21
0.0000000000000999
 31
0.0
  0
LINE
  5
2260
330
1E
100
AcDbEntity
  8
16
100
AcDbLine
 10
68.52380301423583
 20
-250.8473940210349
 30
0.0
 11
-80.93000773675209
 21
-250.8473940210349
 31
0.0
  0
LINE
  5
2261
330
1E
100
AcDbEntity
  8
16
100
AcDbLine
 10
-0.3800945351711884
 20
-348.5993337838806
 30
0.0
 11
-0.3800945351711884
 21
-149.4639948115489
 31
0.0
  0
LINE
  5
4C5A
330
1E
100
AcDbEntity
  8
16
100
AcDbLine
 10
88.49441808474184
 20
-0.0000000000000027
 30
0.0
 11
-83.90588178115756
 21
-0.0000000000000027
 31
0.0
  0
DIMENSION
  5
54D8
330
1E
100
AcDbEntity
  8
30
  6
Continuous
100
AcDbDimension
280
     0
  2
*D1
 10
-2.054496027446063
 20
-186.6423786373593
 30
0.0
 11
26.73721049546045
 21
-169.3084657831919
 31
0.0
 70
   163
  1
M4×0.7
 71
     5
 42
-1.0
 73
     0
 74
     0
 75
     0
  3
STANDARD
100
AcDbDiametricDimension
 15
2.235210122523779
 25
-182.4473306613523
 35
0.0
 40
0.0
1001
ACAD
1000
DSTYLE
1002
{
1070
   288
1070
     1
1002
}
  0
LINE
  5
583B
330
1E
100
AcDbEntity
  8
18
100
AcDbLine
 10
-1.5
 20
124.4999999999996
 30
0.0
 11
-1.5
 21
77.49999999999997
 31
0.0
  0
LINE
  5
583C
330
1E
100
AcDbEntity
  8
18
100
AcDbLine
 10
1.5
 20
124.4999999999996
 30
0.0
 11
1.5
 21
77.49999999999997
 31
0.0
  0
LINE
  5
583D
330
1E
100
AcDbEntity
  8
10
  6
CONTINOUS
100
AcDbLine
 10
27.5
 20
25.0
 30
0.0
 11
27.5
 21
-25.0
 31
0.0
  0
LINE
  5
583E
330
1E
100
AcDbEntity
  8
10
  6
CONTINOUS
100
AcDbLine
 10
-27.49999999999998
 20
25.0
 30
0.0
 11
-27.49999999999998
 21
-25.0
 31
0.0
  0
LINE
  5
583F
330
1E
100
AcDbEntity
  8
10
  6
CONTINOUS
100
AcDbLine
 10
-25.99999999999999
 20
25.0
 30
0.0
 11
-25.99999999999999
 21
-25.0
 31
0.0
  0
LINE
  5
5840
330
1E
100
AcDbEntity
  8
10
  6
CONTINOUS
100
AcDbLine
 10
-3.999999999999998
 20
25.0
 30
0.0
 11
-3.999999999999998
 21
-25.0
 31
0.0
  0
LINE
  5
5842
330
1E
100
AcDbEntity
  8
10
  6
CONTINOUS
100
AcDbLine
 10
30.0
 20
-77.50000000000003
 30
0.0
 11
30.0
 21
77.49999999999997
 31
0.0
  0
LINE
  5
5843
330
1E
100
AcDbEntity
  8
10
  6
CONTINOUS
100
AcDbLine
 10
-29.99999999999999
 20
77.49999999999997
 30
0.0
 11
-29.99999999999999
 21
-77.50000000000003
 31
0.0
  0
DIMENSION
  5
5844
330
1E
100
AcDbEntity
  8
30
  6
Continuous
100
AcDbDimension
280
     0
  2
*D2
 10
30.0
 20
-121.7494181439514
 30
0.0
 11
0.0000000000000002
 21
-118.7494181439514
 31
0.0
 70
    32
 71
     5
 42
-1.0
 73
     0
 74
     0
 75
     0
  3
STANDARD
100
AcDbAlignedDimension
 13
-29.99999999999999
 23
-77.50000000000003
 33
0.0
 14
30.0
 24
-77.50000000000003
 34
0.0
 50
180.0
100
AcDbRotatedDimension
1001
ACAD
1000
DSTYLE
1002
{
1070
    79
1070
     3
1002
}
  0
LINE
  5
5845
330
1E
100
AcDbEntity
  8
10
  6
CONTINOUS
100
AcDbLine
 10
-29.99999999999999
 20
-51.00000000000008
 30
0.0
 11
30.0
 21
-51.00000000000008
 31
0.0
  0
LINE
  5
5846
330
1E
100
AcDbEntity
  8
10
  6
CONTINOUS
100
AcDbLine
 10
-29.99999999999999
 20
-77.50000000000003
 30
0.0
 11
30.0
 21
-77.50000000000003
 31
0.0
  0
DIMENSION
  5
5847
330
1E
100
AcDbEntity
  8
30
  6
Continuous
100
AcDbDimension
280
     0
  2
*D3
 10
15.0
 20
-101.7494181439513
 30
0.0
 11
0.0000000000000082
 21
-98.7494181439515
 31
0.0
 70
    32
 71
     5
 42
-1.0
 73
     0
 74
     0
 75
     0
  3
STANDARD
100
AcDbAlignedDimension
 13
-14.99999999999998
 23
-69.50000001650003
 33
0.0
 14
15.0
 24
-69.50000001650003
 34
0.0
 50
180.0
100
AcDbRotatedDimension
1001
ACAD
1000
DSTYLE
1002
{
1070
    79
1070
     3
1002
}
  0
CIRCLE
  5
5848
330
1E
100
AcDbEntity
  8
24
  6
CONTINOUS
100
AcDbCircle
 10
15.0
 20
-67.00000000000001
 30
0.0
 40
5.0
  0
LINE
  5
5849
330
1E
100
AcDbEntity
  8
10
  6
CONTINOUS
100
AcDbLine
 10
-27.49999999999998
 20
-25.0
 30
0.0
 11
27.5
 21
-25.0
 31
0.0
  0
LINE
  5
584A
330
1E
100
AcDbEntity
  8
24
  6
CONTINOUS
100
AcDbLine
 10
7.999999999999992
 20
-67.00000000000001
 30
0.0
 11
22.0
 21
-67.00000000000001
 31
0.0
  0
LINE
  5
584B
330
1E
100
AcDbEntity
  8
10
  6
CONTINOUS
100
AcDbLine
 10
18.75
 20
-61.00000000000008
 30
0.0
 11
11.24999999999999
 21
-61.00000000000008
 31
0.0
  0
ARC
  5
584C
330
1E
100
AcDbEntity
  8
10
  6
CONTINOUS
100
AcDbCircle
 10
-11.24999999999998
 20
-66.00000000000004
 30
0.0
 40
5.0
100
AcDbArc
 50
0.0
 51
90.0
  0
CIRCLE
  5
584D
330
1E
100
AcDbEntity
  8
24
  6
CONTINOUS
100
AcDbCircle
 10
-14.99999999999998
 20
-67.00000000000009
 30
0.0
 40
5.0
  0
LINE
  5
584E
330
1E
100
AcDbEntity
  8
24
  6
CONTINOUS
100
AcDbLine
 10
-14.99999999999998
 20
-74.00000000000003
 30
0.0
 11
-14.99999999999998
 21
-60.00000000000003
 31
0.0
  0
LINE
  5
584F
330
1E
100
AcDbEntity
  8
10
  6
CONTINOUS
100
AcDbLine
 10
-23.74999999999999
 20
-66.00000000000004
 30
0.0
 11
-23.74999999999999
 21
-77.50000000000003
 31
0.0
  0
LINE
  5
5850
330
1E
100
AcDbEntity
  8
10
  6
CONTINOUS
100
AcDbLine
 10
-18.74999999999999
 20
-61.00000000000008
 30
0.0
 11
-11.24999999999998
 21
-61.00000000000008
 31
0.0
  0
LINE
  5
5851
330
1E
100
AcDbEntity
  8
24
  6
CONTINOUS
100
AcDbLine
 10
-7.999999999999985
 20
-67.00000000000001
 30
0.0
 11
-21.99999999999998
 21
-67.00000000000001
 31
0.0
  0
ARC
  5
5852
330
1E
100
AcDbEntity
  8
10
  6
CONTINOUS
100
AcDbCircle
 10
-18.74999999999999
 20
-66.00000000000004
 30
0.0
 40
5.0
100
AcDbArc
 50
90.0
 51
180.0
  0
CIRCLE
  5
5853
330
1E
100
AcDbEntity
  8
12
  6
DASHED
100
AcDbCircle
 10
0.0
 20
-66.00000000000004
 30
0.0
 40
4.0
  0
LINE
  5
5854
330
1E
100
AcDbEntity
  8
10
  6
CONTINOUS
100
AcDbLine
 10
-6.249999999999997
 20
-66.00000000000004
 30
0.0
 11
-6.249999999999997
 21
-77.50000000000003
 31
0.0
  0
LINE
  5
5855
330
1E
100
AcDbEntity
  8
10
  6
CONTINOUS
100
AcDbLine
 10
6.25
 20
-66.00000000000004
 30
0.0
 11
6.25
 21
-77.50000000000003
 31
0.0
  0
LINE
  5
5856
330
1E
100
AcDbEntity
  8
12
  6
DASHED
100
AcDbLine
 10
-5.499999999999983
 20
-66.00000000000004
 30
0.0
 11
5.5
 21
-66.00000000000004
 31
0.0
  0
ARC
  5
5857
330
1E
100
AcDbEntity
  8
10
  6
CONTINOUS
100
AcDbCircle
 10
-11.24999999999999
 20
-66.00000000000004
 30
0.0
 40
5.0
210
0.0
220
0.0
230
-1.0
100
AcDbArc
 50
0.0
 51
90.0
  0
LINE
  5
5858
330
1E
100
AcDbEntity
  8
24
  6
CONTINOUS
100
AcDbLine
 10
15.0
 20
-74.00000000000003
 30
0.0
 11
15.0
 21
-60.00000000000003
 31
0.0
  0
LINE
  5
5859
330
1E
100
AcDbEntity
  8
10
  6
CONTINOUS
100
AcDbLine
 10
23.75
 20
-66.00000000000004
 30
0.0
 11
23.75
 21
-77.50000000000003
 31
0.0
  0
ARC
  5
585A
330
1E
100
AcDbEntity
  8
10
  6
CONTINOUS
100
AcDbCircle
 10
-18.75
 20
-66.00000000000004
 30
0.0
 40
5.0
210
0.0
220
0.0
230
-1.0
100
AcDbArc
 50
90.0
 51
180.0
  0
LINE
  5
585B
330
1E
100
AcDbEntity
  8
10
  6
CONTINOUS
100
AcDbLine
 10
-29.99999999999999
 20
50.99999999999996
 30
0.0
 11
30.0
 21
50.99999999999996
 31
0.0
  0
LINE
  5
585C
330
1E
100
AcDbEntity
  8
10
  6
CONTINOUS
100
AcDbLine
 10
30.0
 20
77.49999999999997
 30
0.0
 11
-29.99999999999999
 21
77.49999999999997
 31
0.0
  0
DIMENSION
  5
585D
330
1E
100
AcDbEntity
  8
30
  6
Continuous
100
AcDbDimension
280
     0
  2
*D4
 10
27.5
 20
32.59950840068013
 30
0.0
 11
0.0000000000000091
 21
35.59950840068013
 31
0.0
 70
    32
 71
     5
 42
-1.0
 73
     0
 74
     0
 75
     0
  3
STANDARD
100
AcDbAlignedDimension
 13
-27.49999999999998
 23
24.99999999999996
 33
0.0
 14
27.5
 24
24.99999999999996
 34
0.0
100
AcDbRotatedDimension
1001
ACAD
1000
DSTYLE
1002
{
1070
    79
1070
     3
1002
}
  0
LINE
  5
585E
330
1E
100
AcDbEntity
  8
10
  6
CONTINOUS
100
AcDbLine
 10
-27.49999999999998
 20
25.0
 30
0.0
 11
27.5
 21
25.0
 31
0.0
  0
LINE
  5
585F
330
1E
100
AcDbEntity
  8
10
  6
CONTINOUS
100
AcDbLine
 10
-21.99999999999998
 20
-18.50000000000001
 30
0.0
 11
-21.99999999999994
 21
20.15486870581028
 31
0.0
  0
LINE
  5
5860
330
1E
100
AcDbEntity
  8
10
  6
CONTINOUS
100
AcDbLine
 10
-7.999999999999985
 20
-18.50000000000001
 30
0.0
 11
-7.999999999999943
 21
20.15486870581028
 31
0.0
  0
LINE
  5
5861
330
1E
100
AcDbEntity
  8
10
  6
CONTINOUS
100
AcDbLine
 10
-21.99999999999998
 20
-18.50000000000001
 30
0.0
 11
-7.999999999999985
 21
-18.50000000000001
 31
0.0
  0
LINE
  5
5862
330
1E
100
AcDbEntity
  8
10
  6
CONTINOUS
100
AcDbLine
 10
-7.999999999999985
 20
6.84078930686144
 30
0.0
 11
-21.99999999999909
 21
6.840789306861521
 31
0.0
  0
LINE
  5
5863
330
1E
100
AcDbEntity
  8
10
  6
CONTINOUS
100
AcDbLine
 10
-7.999999999999985
 20
20.15486870581028
 30
0.0
 11
-22.00000000000091
 21
20.15486870581028
 31
0.0
  0
LINE
  5
5864
330
1E
100
AcDbEntity
  8
10
  6
CONTINOUS
100
AcDbLine
 10
-7.999999999999985
 20
15.23995644007658
 30
0.0
 11
-21.99999999999998
 21
15.23995644007658
 31
0.0
  0
CIRCLE
  5
5865
330
1E
100
AcDbEntity
  8
24
  6
CONTINOUS
100
AcDbCircle
 10
15.0
 20
66.99999999999997
 30
0.0
 40
5.0
  0
LINE
  5
5866
330
1E
100
AcDbEntity
  8
10
  6
CONTINOUS
100
AcDbLine
 10
18.75
 20
60.99999999999996
 30
0.0
 11
11.24999999999999
 21
60.99999999999996
 31
0.0
  0
LINE
  5
5867
330
1E
100
AcDbEntity
  8
24
  6
CONTINOUS
100
AcDbLine
 10
7.999999999999992
 20
66.99999999999997
 30
0.0
 11
22.0
 21
66.99999999999997
 31
0.0
  0
CIRCLE
  5
5868
330
1E
100
AcDbEntity
  8
24
  6
CONTINOUS
100
AcDbCircle
 10
-14.99999999999996
 20
66.99999999999997
 30
0.0
 40
5.0
  0
LINE
  5
5869
330
1E
100
AcDbEntity
  8
24
  6
CONTINOUS
100
AcDbLine
 10
-14.99999999999998
 20
73.99999999999997
 30
0.0
 11
-14.99999999999998
 21
59.99999999999996
 31
0.0
  0
LINE
  5
586A
330
1E
100
AcDbEntity
  8
10
  6
CONTINOUS
100
AcDbLine
 10
-23.74999999999999
 20
65.99999999999997
 30
0.0
 11
-23.74999999999999
 21
77.49999999999997
 31
0.0
  0
LINE
  5
586B
330
1E
100
AcDbEntity
  8
10
  6
CONTINOUS
100
AcDbLine
 10
-6.249999999999997
 20
65.99999999999997
 30
0.0
 11
-6.249999999999997
 21
77.49999999999997
 31
0.0
  0
LINE
  5
586C
330
1E
100
AcDbEntity
  8
10
  6
CONTINOUS
100
AcDbLine
 10
6.25
 20
65.99999999999997
 30
0.0
 11
6.25
 21
77.49999999999997
 31
0.0
  0
ARC
  5
586D
330
1E
100
AcDbEntity
  8
10
  6
CONTINOUS
100
AcDbCircle
 10
11.24999999999998
 20
65.99999999999997
 30
0.0
 40
5.0
210
0.0
220
0.0
230
-1.0
100
AcDbArc
 50
180.0
 51
270.0
  0
LINE
  5
586E
330
1E
100
AcDbEntity
  8
10
  6
CONTINOUS
100
AcDbLine
 10
-18.74999999999999
 20
60.99999999999996
 30
0.0
 11
-11.24999999999998
 21
60.99999999999996
 31
0.0
  0
LINE
  5
586F
330
1E
100
AcDbEntity
  8
24
  6
CONTINOUS
100
AcDbLine
 10
-7.999999999999985
 20
66.99999999999997
 30
0.0
 11
-21.99999999999998
 21
66.99999999999997
 31
0.0
  0
ARC
  5
5870
330
1E
100
AcDbEntity
  8
10
  6
CONTINOUS
100
AcDbCircle
 10
18.74999999999999
 20
65.99999999999997
 30
0.0
 40
5.0
210
0.0
220
0.0
230
-1.0
100
AcDbArc
 50
270.0
 51
0.0
  0
CIRCLE
  5
5871
330
1E
100
AcDbEntity
  8
12
  6
DASHED
100
AcDbCircle
 10
0.0
 20
65.99999999999997
 30
0.0
 40
4.0
  0
LINE
  5
5872
330
1E
100
AcDbEntity
  8
12
  6
DASHED
100
AcDbLine
 10
-5.499999999999983
 20
65.99999999999997
 30
0.0
 11
5.5
 21
65.99999999999997
 31
0.0
  0
ARC
  5
5873
330
1E
100
AcDbEntity
  8
10
  6
CONTINOUS
100
AcDbCircle
 10
11.24999999999999
 20
65.99999999999997
 30
0.0
 40
5.0
100
AcDbArc
 50
180.0
 51
270.0
  0
LINE
  5
5875
330
1E
100
AcDbEntity
  8
10
  6
CONTINOUS
100
AcDbLine
 10
23.75
 20
65.99999999999997
 30
0.0
 11
23.75
 21
77.49999999999997
 31
0.0
  0
LINE
  5
5876
330
1E
100
AcDbEntity
  8
24
  6
CONTINOUS
100
AcDbLine
 10
15.0
 20
73.99999999999997
 30
0.0
 11
15.0
 21
59.99999999999996
 31
0.0
  0
ARC
  5
5877
330
1E
100
AcDbEntity
  8
10
  6
CONTINOUS
100
AcDbCircle
 10
18.75
 20
65.99999999999997
 30
0.0
 40
5.0
100
AcDbArc
 50
270.0
 51
0.0
  0
LINE
  5
5878
330
1E
100
AcDbEntity
  8
18
100
AcDbLine
 10
1.5
 20
124.4999999999996
 30
0.0
 11
-1.5
 21
124.4999999999996
 31
0.0
  0
DIMENSION
  5
59B9
330
1E
100
AcDbEntity
  8
30
  6
Continuous
100
AcDbDimension
280
     0
  2
*D10
 10
218.0000000000001
 20
-132.7076239685594
 30
0.0
 11
172.0
 21
-129.7076239685596
 31
0.0
 70
    32
 71
     5
 42
-1.0
 73
     0
 74
     0
 75
     0
  3
STANDARD
100
AcDbAlignedDimension
 13
126.0000000000002
 23
0.0000000000000999
 33
0.0
 14
218.0000000000001
 24
-77.49999999999992
 34
0.0
 50
180.0
100
AcDbRotatedDimension
1001
ACAD
1000
DSTYLE
1002
{
1070
    79
1070
     3
1002
}
  0
DIMENSION
  5
59BA
330
1E
100
AcDbEntity
  8
30
  6
Continuous
100
AcDbDimension
280
     0
  2
*D11
 10
146.0
 20
-121.2873562020025
 30
0.0
 11
152.3333333333333
 21
-118.2873562020025
 31
0.0
 70
    32
 71
     5
 42
-1.0
 73
     0
 74
     0
 75
     0
  3
STANDARD
100
AcDbAlignedDimension
 13
142.0
 23
-24.9999999999999
 33
0.0
 14
146.0
 24
-24.9999999999999
 34
0.0
 50
180.0
100
AcDbRotatedDimension
1001
ACAD
1000
DSTYLE
1002
{
1070
    79
1070
     3
1002
}
  0
DIMENSION
  5
59BB
330
1E
100
AcDbEntity
  8
30
  6
Continuous
100
AcDbDimension
280
     0
  2
*D12
 10
218.0000000000001
 20
-121.2873562020025
 30
0.0
 11
182.0
 21
-118.2873562020025
 31
0.0
 70
    32
 71
     5
 42
-1.0
 73
     0
 74
     0
 75
     0
  3
STANDARD
100
AcDbAlignedDimension
 13
146.0
 23
-24.9999999999999
 33
0.0
 14
218.0000000000001
 24
-77.49999999999992
 34
0.0
 50
180.0
100
AcDbRotatedDimension
1001
ACAD
1000
DSTYLE
1002
{
1070
    79
1070
     3
1002
}
  0
DIMENSION
  5
59BE
330
1E
100
AcDbEntity
  8
30
  6
Continuous
100
AcDbDimension
280
     0
  2
*D13
 10
101.5443779951805
 20
25.00000000000007
 30
0.0
 11
98.54437799518066
 21
0.0000000000001114
 31
0.0
 70
    32
 71
     5
 42
-1.0
 73
     0
 74
     0
 75
     0
  3
STANDARD
100
AcDbAlignedDimension
 13
142.0
 23
-24.9999999999999
 33
0.0
 14
142.0
 24
25.00000000000007
 34
0.0
 50
90.0
100
AcDbRotatedDimension
1001
ACAD
1000
DSTYLE
1002
{
1070
    79
1070
     3
1002
}
  0
LINE
  5
59BF
330
1E
100
AcDbEntity
  8
10
  6
CONTINOUS
100
AcDbLine
 10
142.0
 20
14.16543683943003
 30
0.0
 11
133.446204818511
 21
20.1548687058106
 31
0.0
  0
LINE
  5
59C0
330
1E
100
AcDbEntity
  8
10
  6
CONTINOUS
100
AcDbLine
 10
142.0
 20
6.840789306861337
 30
0.0
 11
130.0047462004048
 21
15.2399564400767
 31
0.0
  0
ARC
  5
59C2
330
1E
100
AcDbEntity
  8
30
  6
Continuous
100
AcDbCircle
 10
157.0000000000002
 20
0.0000000000000999
 30
0.0
 40
31.0
100
AcDbArc
 50
150.5534441956585
 51
180.0
  0
LINE
  5
59C5
330
1E
100
AcDbEntity
  8
10
  6
CONTINOUS
100
AcDbLine
 10
130.0047462004048
 20
15.2399564400767
 30
0.0
 11
133.446204818511
 21
20.1548687058106
 31
0.0
  0
DIMENSION
  5
59C6
330
1E
100
AcDbEntity
  8
30
  6
Continuous
100
AcDbDimension
280
     0
  2
*D14
 10
218.0000000000001
 20
108.2505818560484
 30
0.0
 11
206.0
 21
111.2505818560484
 31
0.0
 70
    32
 71
     5
 42
-1.0
 73
     0
 74
     0
 75
     0
  3
STANDARD
100
AcDbAlignedDimension
 13
194.0
 23
77.5000000000001
 33
0.0
 14
218.0000000000001
 24
77.5000000000002
 34
0.0
100
AcDbRotatedDimension
1001
ACAD
1000
DSTYLE
1002
{
1070
    79
1070
     3
1002
}
  0
LINE
  5
59C7
330
1E
100
AcDbEntity
  8
10
  6
CONTINOUS
100
AcDbLine
 10
150.0
 20
51.0
 30
0.0
 11
150.0
 21
-51.0
 31
0.0
  0
LINE
  5
59C8
330
1E
100
AcDbEntity
  8
10
  6
CONTINOUS
100
AcDbLine
 10
146.0
 20
25.00000000000007
 30
0.0
 11
146.0
 21
-24.9999999999999
 31
0.0
  0
LINE
  5
59C9
330
1E
100
AcDbEntity
  8
10
  6
CONTINOUS
100
AcDbLine
 10
218.0000000000001
 20
77.5000000000002
 30
0.0
 11
218.0000000000001
 21
-77.49999999999992
 31
0.0
  0
LINE
  5
59CA
330
1E
100
AcDbEntity
  8
10
  6
CONTINOUS
100
AcDbLine
 10
142.0
 20
25.00000000000007
 30
0.0
 11
142.0
 21
-24.9999999999999
 31
0.0
  0
LINE
  5
59CD
330
1E
100
AcDbEntity
  8
12
  6
DASHED
100
AcDbLine
 10
218.0000000000001
 20
-63.74999999999992
 30
0.0
 11
226.0000000000001
 21
-63.74999999999992
 31
0.0
  0
LINE
  5
59CE
330
1E
100
AcDbEntity
  8
12
  6
DASHED
100
AcDbLine
 10
147.0000000000004
 20
-65.99999999999996
 30
0.0
 11
236.0
 21
-65.99999999999996
 31
0.0
  0
LINE
  5
59CF
330
1E
100
AcDbEntity
  8
12
  6
DASHED
100
AcDbLine
 10
218.0000000000001
 20
-68.24999999999993
 30
0.0
 11
226.0000000000001
 21
-68.24999999999993
 31
0.0
  0
DIMENSION
  5
59D0
330
1E
100
AcDbEntity
  8
30
  6
Continuous
100
AcDbDimension
280
     0
  2
*D15
 10
218.0000000000001
 20
-110.4328908136722
 30
0.0
 11
184.0
 21
-107.432890813672
 31
0.0
 70
    32
 71
     5
 42
-1.0
 73
     0
 74
     0
 75
     0
  3
STANDARD
100
AcDbAlignedDimension
 13
150.0
 23
-51.0
 33
0.0
 14
218.0000000000001
 24
-77.49999999999992
 34
0.0
 50
180.0
100
AcDbRotatedDimension
1001
ACAD
1000
DSTYLE
1002
{
1070
    79
1070
     3
1002
}
  0
DIMENSION
  5
59D1
330
1E
100
AcDbEntity
  8
30
  6
Continuous
100
AcDbDimension
280
     0
  2
*D16
 10
218.0000000000001
 20
-100.1327010884272
 30
0.0
 11
187.5
 21
-97.13270108842728
 31
0.0
 70
    32
 71
     5
 42
-1.0
 73
     0
 74
     0
 75
     0
  3
STANDARD
100
AcDbAlignedDimension
 13
157.0
 23
-77.49999999999992
 33
0.0
 14
218.0000000000001
 24
-77.49999999999992
 34
0.0
 50
180.0
100
AcDbRotatedDimension
1001
ACAD
1000
DSTYLE
1002
{
1070
    79
1070
     3
1002
}
  0
DIMENSION
  5
59D2
330
1E
100
AcDbEntity
  8
30
  6
Continuous
100
AcDbDimension
280
     0
  2
*D17
 10
218.0000000000001
 20
-90.66392178464694
 30
0.0
 11
195.5
 21
-87.66392178464689
 31
0.0
 70
    32
 71
     5
 42
-1.0
 73
     0
 74
     0
 75
     0
  3
STANDARD
100
AcDbAlignedDimension
 13
173.0
 23
-70.2499999999999
 33
0.0
 14
218.0000000000001
 24
-77.49999999999992
 34
0.0
 50
180.0
100
AcDbRotatedDimension
1001
ACAD
1000
DSTYLE
1002
{
1070
    79
1070
     3
1002
}
  0
LINE
  5
59D3
330
1E
100
AcDbEntity
  8
12
  6
DASHED
100
AcDbLine
 10
173.0
 20
-68.24999999999993
 30
0.0
 11
218.0000000000001
 21
-68.24999999999993
 31
0.0
  0
LINE
  5
59D4
330
1E
100
AcDbEntity
  8
12
  6
DASHED
100
AcDbLine
 10
173.0
 20
-63.74999999999992
 30
0.0
 11
218.0000000000001
 21
-63.74999999999992
 31
0.0
  0
LINE
  5
59D5
330
1E
100
AcDbEntity
  8
10
  6
CONTINOUS
100
AcDbLine
 10
157.0000000000002
 20
-77.49999999999992
 30
0.0
 11
218.0000000000001
 21
-77.49999999999992
 31
0.0
  0
LINE
  5
59D6
330
1E
100
AcDbEntity
  8
10
  6
CONTINOUS
100
AcDbLine
 10
157.0000000000002
 20
-50.99999999999987
 30
0.0
 11
157.0000000000002
 21
-77.49999999999992
 31
0.0
  0
LINE
  5
59D7
330
1E
100
AcDbEntity
  8
12
  6
DASHED
100
AcDbLine
 10
157.0000000000002
 20
-70.2499999999999
 30
0.0
 11
173.0
 21
-70.2499999999999
 31
0.0
  0
LINE
  5
59D8
330
1E
100
AcDbEntity
  8
12
  6
DASHED
100
AcDbLine
 10
157.0000000000002
 20
-61.74999999999986
 30
0.0
 11
173.0
 21
-61.74999999999986
 31
0.0
  0
LINE
  5
59D9
330
1E
100
AcDbEntity
  8
12
  6
DASHED
100
AcDbLine
 10
173.0
 20
-61.74999999999986
 30
0.0
 11
173.0
 21
-70.2499999999999
 31
0.0
  0
LINE
  5
59DA
330
1E
100
AcDbEntity
  8
12
  6
DASHED
100
AcDbLine
 10
167.0
 20
-61.74999999999986
 30
0.0
 11
167.0
 21
-70.2499999999999
 31
0.0
  0
LINE
  5
59DB
330
1E
100
AcDbEntity
  8
12
  6
DASHED
100
AcDbLine
 10
173.0
 20
-68.2499999999999
 30
0.0
 11
173.0
 21
-70.2499999999999
 31
0.0
  0
LINE
  5
59DC
330
1E
100
AcDbEntity
  8
12
  6
DASHED
100
AcDbLine
 10
173.0
 20
-61.74999999999986
 30
0.0
 11
173.0
 21
-63.74999999999992
 31
0.0
  0
LINE
  5
59DD
330
1E
100
AcDbEntity
  8
10
  6
CONTINOUS
100
AcDbLine
 10
150.0
 20
-51.0
 30
0.0
 11
157.0000000000002
 21
-51.0
 31
0.0
  0
LINE
  5
59DE
330
1E
100
AcDbEntity
  8
10
  6
CONTINOUS
100
AcDbLine
 10
142.0
 20
-24.9999999999999
 30
0.0
 11
150.0
 21
-24.9999999999999
 31
0.0
  0
LINE
  5
59DF
330
1E
100
AcDbEntity
  8
12
  6
DASHED
100
AcDbLine
 10
226.0000000000001
 20
-63.74999999999989
 30
0.0
 11
226.0000000000001
 21
-68.2499999999999
 31
0.0
  0
LINE
  5
59E0
330
1E
100
AcDbEntity
  8
10
  6
CONTINOUS
100
AcDbLine
 10
142.0
 20
25.00000000000007
 30
0.0
 11
150.0
 21
25.00000000000007
 31
0.0
  0
LINE
  5
59E1
330
1E
100
AcDbEntity
  8
10
  6
CONTINOUS
100
AcDbLine
 10
157.0000000000002
 20
77.5000000000001
 30
0.0
 11
218.0000000000001
 21
77.5000000000002
 31
0.0
  0
LINE
  5
59E2
330
1E
100
AcDbEntity
  8
10
  6
CONTINOUS
100
AcDbLine
 10
157.0000000000002
 20
77.5000000000001
 30
0.0
 11
157.0000000000002
 21
51.00000000000006
 31
0.0
  0
LINE
  5
59E3
330
1E
100
AcDbEntity
  8
10
  6
CONTINOUS
100
AcDbLine
 10
150.0
 20
51.00000000000006
 30
0.0
 11
157.0000000000002
 21
51.00000000000006
 31
0.0
  0
LINE
  5
59E4
330
1E
100
AcDbEntity
  8
24
  6
CONTINOUS
100
AcDbLine
 10
196.0
 20
77.5000000000001
 30
0.0
 11
196.0
 21
56.5
 31
0.0
  0
LINE
  5
59E5
330
1E
100
AcDbEntity
  8
24
  6
CONTINOUS
100
AcDbLine
 10
186.8
 20
72.00000000000007
 30
0.0
 11
186.8
 21
62.00000000000006
 31
0.0
  0
LINE
  5
59E6
330
1E
100
AcDbEntity
  8
24
  6
CONTINOUS
100
AcDbLine
 10
192.0
 20
74.70000000000005
 30
0.0
 11
192.0
 21
59.3000000000001
 31
0.0
  0
LINE
  5
59E7
330
1E
100
AcDbEntity
  8
24
  6
CONTINOUS
100
AcDbLine
 10
194.0
 20
77.5000000000001
 30
0.0
 11
194.0
 21
56.5
 31
0.0
  0
LINE
  5
59E8
330
1E
100
AcDbEntity
  8
24
  6
CONTINOUS
100
AcDbLine
 10
188.8
 20
60.00000000000007
 30
0.0
 11
192.0
 21
60.00000000000007
 31
0.0
  0
LINE
  5
59E9
330
1E
100
AcDbEntity
  8
24
  6
CONTINOUS
100
AcDbLine
 10
181.7999999999999
 20
67.00000000000007
 30
0.0
 11
199.0
 21
67.00000000000007
 31
0.0
  0
ARC
  5
59EA
330
1E
100
AcDbEntity
  8
24
  6
CONTINOUS
100
AcDbCircle
 10
188.8
 20
62.00000000000006
 30
0.0
 40
2.0
100
AcDbArc
 50
180.0
 51
270.0
  0
LINE
  5
59EB
330
1E
100
AcDbEntity
  8
24
  6
CONTINOUS
100
AcDbLine
 10
194.0
 20
56.5
 30
0.0
 11
196.0
 21
56.5
 31
0.0
  0
LINE
  5
59EC
330
1E
100
AcDbEntity
  8
24
  6
CONTINOUS
100
AcDbLine
 10
192.0
 20
59.3000000000001
 30
0.0
 11
194.0
 21
59.3000000000001
 31
0.0
  0
LINE
  5
59ED
330
1E
100
AcDbEntity
  8
24
  6
CONTINOUS
100
AcDbLine
 10
188.8
 20
74.00000000000007
 30
0.0
 11
192.0
 21
74.00000000000007
 31
0.0
  0
ARC
  5
59EE
330
1E
100
AcDbEntity
  8
24
  6
CONTINOUS
100
AcDbCircle
 10
188.8
 20
72.00000000000007
 30
0.0
 40
2.0
100
AcDbArc
 50
90.0
 51
180.0
  0
LINE
  5
59EF
330
1E
100
AcDbEntity
  8
24
  6
CONTINOUS
100
AcDbLine
 10
192.0
 20
74.70000000000005
 30
0.0
 11
194.0
 21
74.70000000000005
 31
0.0
  0
DIMENSION
  5
59F0
330
1E
100
AcDbEntity
  8
30
  6
Continuous
100
AcDbDimension
280
     0
  2
*D18
 10
274.5
 20
27.59950840068023
 30
0.0
 11
266.0
 21
30.59950840068023
 31
0.0
 70
    32
 71
     5
 42
-1.0
 73
     0
 74
     0
 75
     0
  3
STANDARD
100
AcDbAlignedDimension
 13
257.5
 23
43.0000000000001
 33
0.0
 14
274.5
 24
43.0000000000001
 34
0.0
 50
180.0
100
AcDbRotatedDimension
1001
ACAD
1000
DSTYLE
1002
{
1070
    79
1070
     3
1002
}
  0
INSERT
  5
59F1
330
1E
100
AcDbEntity
  8
30
  6
Continuous
100
AcDbBlockReference
  2
*U8
 10
-371.5382775119612
 20
-244.2754915945696
 30
0.0
 41
2.5
 42
2.5
 43
2.5
  0
INSERT
  5
59F2
330
1E
100
AcDbEntity
  8
30
  6
Continuous
100
AcDbBlockReference
  2
*U6
 10
-371.5382775119612
 20
-244.2754915945696
 30
0.0
 41
2.5
 42
2.5
 43
2.5
  0
INSERT
  5
59F3
330
1E
100
AcDbEntity
  8
30
  6
Continuous
100
AcDbBlockReference
  2
*U5
 10
-371.5382775119612
 20
-244.2754915945696
 30
0.0
 41
2.5
 42
2.5
 43
2.5
  0
ARC
  5
59F4
330
1E
100
AcDbEntity
  8
24
  6
Continuous
100
AcDbCircle
 10
261.625
 20
68.64548506457257
 30
0.0
 40
8.0
100
AcDbArc
 50
58.9607599896022
 51
121.0392400103977
  0
CIRCLE
  5
59F5
330
1E
100
AcDbEntity
  8
17
  6
DASHDOT
100
AcDbCircle
 10
266.0
 20
51.50000000000006
 30
0.0
 40
4.5
  0
LINE
  5
59F6
330
1E
100
AcDbEntity
  8
24
  6
Continuous
100
AcDbLine
 10
265.3245560298616
 20
75.7386708919646
 30
0.0
 11
269.7954419685371
 21
73.40681417260789
 31
0.0
  0
LINE
  5
59F7
330
1E
100
AcDbEntity
  8
17
  6
DASHDOT
100
AcDbLine
 10
259.75
 20
51.50000000000006
 30
0.0
 11
272.25
 21
51.50000000000006
 31
0.0
  0
LINE
  5
59F8
330
1E
100
AcDbEntity
  8
24
  6
Continuous
100
AcDbLine
 10
257.5
 20
43.0000000000001
 30
0.0
 11
274.5
 21
43.0000000000001
 31
0.0
  0
LINE
  5
59FA
330
1E
100
AcDbEntity
  8
24
  6
Continuous
100
AcDbLine
 10
257.5
 20
75.50000000000013
 30
0.0
 11
257.5
 21
43.0000000000001
 31
0.0
  0
LINE
  5
59FC
330
1E
100
AcDbEntity
  8
24
  6
Continuous
100
AcDbLine
 10
274.5
 20
72.56337786103081
 30
0.0
 11
274.5
 21
43.0000000000001
 31
0.0
  0
DIMENSION
  5
59FD
330
1E
100
AcDbEntity
  8
30
  6
Continuous
100
AcDbDimension
280
     0
  2
*D19
 10
289.0867224927884
 20
51.50000000000006
 30
0.0
 11
294.0867224927883
 21
56.50000000000011
 31
0.0
 70
    32
 71
     5
 42
-1.0
 73
     0
 74
     0
 75
     0
  3
STANDARD
100
AcDbAlignedDimension
 13
274.5
 23
43.0000000000001
 33
0.0
 14
268.5000000165
 24
51.50000000000006
 34
0.0
 50
270.0
100
AcDbRotatedDimension
1001
ACAD
1000
DSTYLE
1002
{
1070
    79
1070
     3
1002
}
  0
LINE
  5
59FE
330
1E
100
AcDbEntity
  8
17
  6
DASHDOT
100
AcDbLine
 10
266.0
 20
57.75000000000006
 30
0.0
 11
266.0000000000004
 21
45.25000000000006
 31
0.0
  0
ARC
  5
59FF
330
1E
100
AcDbEntity
  8
24
  6
Continuous
100
AcDbCircle
 10
273.4949979983984
 20
80.50000000000013
 30
0.0
 40
8.0
100
AcDbArc
 50
242.4550403035893
 51
277.2168646146247
  0
LINE
  5
5AE4
330
1E
100
AcDbEntity
  8
18
  6
DIVIDE
100
AcDbLine
 10
-30.38009453517119
 20
-173.3473940210348
 30
0.0
 11
-30.38009453517119
 21
-328.3473940210348
 31
0.0
  0
LINE
  5
5AE5
330
1E
100
AcDbEntity
  8
18
  6
DIVIDE
100
AcDbLine
 10
29.61990546482878
 20
-328.3473940210348
 30
0.0
 11
29.61990546482878
 21
-173.3473940210348
 31
0.0
  0
LINE
  5
5AE6
330
1E
100
AcDbEntity
  8
18
  6
DIVIDE
100
AcDbLine
 10
-30.38009453517119
 20
-328.3473940210348
 30
0.0
 11
29.61990546482878
 21
-328.3473940210348
 31
0.0
  0
LINE
  5
5AE7
330
1E
100
AcDbEntity
  8
12
  6
Continuous
 62
     3
100
AcDbLine
 10
-5.880094535171187
 20
-316.8473940210347
 30
0.0
 11
5.119905464828811
 21
-316.8473940210347
 31
0.0
  0
CIRCLE
  5
5AE8
330
1E
100
AcDbEntity
  8
12
  6
Continuous
 62
     3
100
AcDbCircle
 10
-0.3800945351711884
 20
-316.8473940210347
 30
0.0
 40
2.0
  0
LINE
  5
5AE9
330
1E
100
AcDbEntity
  8
18
  6
DIVIDE
100
AcDbLine
 10
29.61990546482878
 20
-173.3473940210348
 30
0.0
 11
-30.38009453517119
 21
-173.3473940210348
 31
0.0
  0
LINE
  5
5AEA
330
1E
100
AcDbEntity
  8
12
  6
Continuous
 62
     3
100
AcDbLine
 10
-5.880094535171187
 20
-184.8473940210348
 30
0.0
 11
5.119905464828811
 21
-184.8473940210348
 31
0.0
  0
CIRCLE
  5
5AEB
330
1E
100
AcDbEntity
  8
12
  6
Continuous
 62
     3
100
AcDbCircle
 10
-0.3800945351711884
 20
-184.8473940210348
 30
0.0
 40
2.0
  0
TEXT
  5
5C38
330
1E
100
AcDbEntity
  8
30
  6
Continuous
100
AcDbText
 10
165.3317374453355
 20
95.21252789600428
 30
0.0
 40
5.0
  1
M8
  7
STANDARD1
100
AcDbText
  0
TEXT
  5
5C39
330
1E
100
AcDbEntity
  8
30
  6
Continuous
100
AcDbText
 10
240.5381826246062
 20
76.11649607392573
 30
0.0
 40
5.0
  1
%%c9
  7
STANDARD1
100
AcDbText
  0
MTEXT
  5
5C78
330
1E
100
AcDbEntity
  8
30
  6
Continuous
100
AcDbMText
 10
162.3297648581359
 20
88.99793930010117
 30
0.0
 40
4.0
 41
0.0
 46
0.0
 71
     9
 72
     1
  1

 73
     1
 44
1.0
1001
ACAD
1000
MTEXTBEGIN
1070
    73
1070
     1
1070
    44
1040
1.0
1070
    74
1070
     0
1000
MTEXTEND
  0
LEADER
  5
5C79
330
1E
100
AcDbEntity
  8
30
  6
Continuous
100
AcDbLeader
  3
STANDARD
 76
     3
 10
261.837870651402
 20
55.1172075948227
 30
0.0
 10
252.5018730228445
 20
74.22421373062319
 30
0.0
 10
239.164729497577
 20
74.66856214966423
 30
0.0
213
0.0
223
2.0
233
0.0
1001
ACAD
1000
DSTYLE
1002
{
1070
     5
1000
OPEN
1070
    77
1070
     0
1070
    79
1070
     3
1070
   147
1040
1.0
1070
   342
1005
3B2
1002
}
  0
LINE
  5
5C86
330
1E
100
AcDbEntity
  8
10
  6
CONTINOUS
100
AcDbLine
 10
-29.99999999999999
 20
174.1349134126129
 30
0.0
 11
-30.0000000000001
 21
235.1349134126127
 31
0.0
  0
LINE
  5
5C8A
330
1E
100
AcDbEntity
  8
10
  6
CONTINOUS
100
AcDbLine
 10
30.0
 20
174.1349134126129
 30
0.0
 11
30.0
 21
235.1349134126127
 31
0.0
  0
LINE
  5
5C8E
330
1E
100
AcDbEntity
  8
10
  6
CONTINOUS
100
AcDbLine
 10
-26.01790353517123
 20
159.1349134126128
 30
0.0
 11
-3.999999999999998
 21
159.1349134126128
 31
0.0
  0
LINE
  5
5C98
330
1E
100
AcDbEntity
  8
10
  6
CONTINOUS
100
AcDbLine
 10
-30.0000000000001
 20
235.1349134126127
 30
0.0
 11
30.0
 21
235.1349134126127
 31
0.0
  0
LINE
  5
5CA2
330
1E
100
AcDbEntity
  8
24
  6
CONTINOUS
100
AcDbLine
 10
-14.99999999999998
 20
198.9349134126126
 30
0.0
 11
-14.99999999999998
 21
216.1349134126129
 31
0.0
  0
LINE
  5
5CA3
330
1E
100
AcDbEntity
  8
24
  6
CONTINOUS
100
AcDbLine
 10
-25.49999999999998
 20
211.1349134126129
 30
0.0
 11
-4.499999999999872
 21
211.1349134126129
 31
0.0
  0
LINE
  5
5CA4
330
1E
100
AcDbEntity
  8
24
  6
CONTINOUS
100
AcDbLine
 10
-22.69999999999992
 20
209.1349134126128
 30
0.0
 11
-7.299999999999942
 21
209.1349134126128
 31
0.0
  0
LINE
  5
5CA5
330
1E
100
AcDbEntity
  8
24
  6
CONTINOUS
100
AcDbLine
 10
-19.99999999999999
 20
203.9349134126128
 30
0.0
 11
-9.999999999999991
 21
203.9349134126128
 31
0.0
  0
LINE
  5
5CA6
330
1E
100
AcDbEntity
  8
24
  6
CONTINOUS
100
AcDbLine
 10
-25.49999999999998
 20
213.1349134126129
 30
0.0
 11
-4.499999999999872
 21
213.1349134126129
 31
0.0
  0
LINE
  5
5CA7
330
1E
100
AcDbEntity
  8
24
  6
CONTINOUS
100
AcDbLine
 10
-7.299999999999942
 20
209.1349134126128
 30
0.0
 11
-7.299999999999942
 21
211.1349134126129
 31
0.0
  0
ARC
  5
5CA8
330
1E
100
AcDbEntity
  8
24
  6
CONTINOUS
100
AcDbCircle
 10
-9.99999999999996
 20
205.9349134126128
 30
0.0
 40
2.0
100
AcDbArc
 50
270.0
 51
0.0
  0
LINE
  5
5CA9
330
1E
100
AcDbEntity
  8
24
  6
CONTINOUS
100
AcDbLine
 10
-7.999999999999981
 20
205.9349134126128
 30
0.0
 11
-7.999999999999981
 21
209.1349134126128
 31
0.0
  0
LINE
  5
5CAA
330
1E
100
AcDbEntity
  8
24
  6
CONTINOUS
100
AcDbLine
 10
-4.499999999999872
 20
211.1349134126129
 30
0.0
 11
-4.499999999999872
 21
213.1349134126129
 31
0.0
  0
LINE
  5
5CAB
330
1E
100
AcDbEntity
  8
24
  6
CONTINOUS
100
AcDbLine
 10
-22.69999999999992
 20
209.1349134126128
 30
0.0
 11
-22.69999999999992
 21
211.1349134126129
 31
0.0
  0
ARC
  5
5CAC
330
1E
100
AcDbEntity
  8
24
  6
CONTINOUS
100
AcDbCircle
 10
-19.99999999999995
 20
205.9349134126128
 30
0.0
 40
2.0
100
AcDbArc
 50
180.0
 51
270.0
  0
LINE
  5
5CAD
330
1E
100
AcDbEntity
  8
24
  6
CONTINOUS
100
AcDbLine
 10
-21.99999999999998
 20
205.9349134126128
 30
0.0
 11
-21.99999999999998
 21
209.1349134126128
 31
0.0
  0
LINE
  5
5D3B
330
1E
100
AcDbEntity
  8
24
  6
CONTINOUS
100
AcDbLine
 10
4.500000000000004
 20
213.1349134126129
 30
0.0
 11
25.5000000000001
 21
213.1349134126129
 31
0.0
  0
LINE
  5
5D3C
330
1E
100
AcDbEntity
  8
24
  6
CONTINOUS
100
AcDbLine
 10
9.999999999999998
 20
203.9349134126128
 30
0.0
 11
20.0
 21
203.9349134126128
 31
0.0
  0
LINE
  5
5D3D
330
1E
100
AcDbEntity
  8
24
  6
CONTINOUS
100
AcDbLine
 10
7.300000000000068
 20
209.1349134126128
 30
0.0
 11
22.70000000000004
 21
209.1349134126128
 31
0.0
  0
LINE
  5
5D3E
330
1E
100
AcDbEntity
  8
24
  6
CONTINOUS
100
AcDbLine
 10
4.500000000000004
 20
211.1349134126129
 30
0.0
 11
25.5000000000001
 21
211.1349134126129
 31
0.0
  0
LINE
  5
5D3F
330
1E
100
AcDbEntity
  8
24
  6
CONTINOUS
100
AcDbLine
 10
7.300000000000068
 20
209.1349134126128
 30
0.0
 11
7.300000000000068
 21
211.1349134126129
 31
0.0
  0
LINE
  5
5D40
330
1E
100
AcDbEntity
  8
24
  6
CONTINOUS
100
AcDbLine
 10
15.0
 20
198.9349134126126
 30
0.0
 11
15.0
 21
216.1349134126129
 31
0.0
  0
ARC
  5
5D41
330
1E
100
AcDbEntity
  8
24
  6
CONTINOUS
100
AcDbCircle
 10
10.00000000000003
 20
205.9349134126128
 30
0.0
 40
2.0
100
AcDbArc
 50
180.0
 51
270.0
  0
LINE
  5
5D42
330
1E
100
AcDbEntity
  8
24
  6
CONTINOUS
100
AcDbLine
 10
7.999999999999996
 20
205.9349134126128
 30
0.0
 11
7.999999999999996
 21
209.1349134126128
 31
0.0
  0
LINE
  5
5D43
330
1E
100
AcDbEntity
  8
24
  6
CONTINOUS
100
AcDbLine
 10
22.70000000000004
 20
209.1349134126128
 30
0.0
 11
22.70000000000004
 21
211.1349134126129
 31
0.0
  0
LINE
  5
5D44
330
1E
100
AcDbEntity
  8
24
  6
CONTINOUS
100
AcDbLine
 10
22.0
 20
205.9349134126128
 30
0.0
 11
22.0
 21
209.1349134126128
 31
0.0
  0
ARC
  5
5D45
330
1E
100
AcDbEntity
  8
24
  6
CONTINOUS
100
AcDbCircle
 10
20.00000000000003
 20
205.9349134126128
 30
0.0
 40
2.0
100
AcDbArc
 50
270.0
 51
0.0
  0
LINE
  5
5D46
330
1E
100
AcDbEntity
  8
24
  6
CONTINOUS
100
AcDbLine
 10
25.5000000000001
 20
211.1349134126129
 30
0.0
 11
25.5000000000001
 21
213.1349134126129
 31
0.0
  0
DIMENSION
  5
5E5B
330
1E
100
AcDbEntity
  8
30
  6
Continuous
100
AcDbDimension
280
     0
  2
*D25
 10
73.24648431592176
 20
-316.8473940210347
 30
0.0
 11
70.24648431592182
 21
-250.8473940210348
 31
0.0
 70
    32
 71
     5
 42
-1.0
 73
     0
 74
     0
 75
     0
  3
STANDARD
100
AcDbAlignedDimension
 13
5.119905464828811
 23
-184.8473940210348
 33
0.0
 14
5.119905464828811
 24
-316.8473940210347
 34
0.0
 50
90.0
100
AcDbRotatedDimension
1001
ACAD
1000
DSTYLE
1002
{
1070
    79
1070
     3
1002
}
  0
DIMENSION
  5
5E68
330
1E
100
AcDbEntity
  8
30
  6
Continuous
100
AcDbDimension
280
     0
  2
*D26
 10
15.0
 20
250.0236353433407
 30
0.0
 11
0.0000000000000117
 21
253.0236353433406
 31
0.0
 70
    32
 71
     5
 42
-1.0
 73
     0
 74
     0
 75
     0
  3
STANDARD
100
AcDbAlignedDimension
 13
-14.99999999999998
 23
216.1349134126129
 33
0.0
 14
15.0
 24
216.1349134126129
 34
0.0
100
AcDbRotatedDimension
1001
ACAD
1000
DSTYLE
1002
{
1070
    79
1070
     3
1002
}
  0
DIMENSION
  5
5EB9
330
1E
100
AcDbEntity
  8
30
  6
Continuous
100
AcDbDimension
280
     0
  2
*D27
 10
-53.4612793595903
 20
77.49999999999999
 30
0.0
 11
-56.46127935959031
 21
100.9999999999999
 31
0.0
 70
    32
 71
     5
 42
-1.0
 73
     0
 74
     0
 75
     0
  3
STANDARD
100
AcDbAlignedDimension
 13
-1.5
 23
124.4999999999996
 33
0.0
 14
-29.99999999999999
 24
77.49999999999997
 34
0.0
 50
90.0
100
AcDbRotatedDimension
1001
ACAD
1000
DSTYLE
1002
{
1070
    79
1070
     3
1002
}
  0
DIMENSION
  5
5EC6
330
1E
100
AcDbEntity
  8
30
  6
Continuous
100
AcDbDimension
280
     0
  2
*D28
 10
-53.46127935959032
 20
-77.50000000000001
 30
0.0
 11
-56.46127935959031
 21
-0.0000000000000248
 31
0.0
 70
    32
 71
     5
 42
-1.0
 73
     0
 74
     0
 75
     0
  3
STANDARD
100
AcDbAlignedDimension
 13
-29.99999999999999
 23
77.49999999999997
 33
0.0
 14
-29.99999999999999
 24
-77.50000000000003
 34
0.0
 50
90.0
100
AcDbRotatedDimension
1001
ACAD
1000
DSTYLE
1002
{
1070
   287
1070
     4
1070
   287
1070
     4
1070
   279
1070
     1
1070
    79
1070
     3
1002
}
  0
DIMENSION
  5
606B
330
1E
100
AcDbEntity
  8
30
  6
Continuous
100
AcDbDimension
280
     0
  2
*D29
 10
226.0000000000001
 20
-90.66392178464694
 30
0.0
 11
222.0000000000001
 21
-87.66392178464689
 31
0.0
 70
    32
 71
     5
 42
-1.0
 73
     0
 74
     0
 75
     0
  3
STANDARD
100
AcDbAlignedDimension
 13
218.0000000000001
 23
-77.49999999999992
 33
0.0
 14
226.0000000000001
 24
-68.24999999999993
 34
0.0
100
AcDbRotatedDimension
1001
ACAD
1000
DSTYLE
1002
{
1070
    79
1070
     3
1002
}
  0
DIMENSION
  5
616E
330
1E
100
AcDbEntity
  8
30
  6
Continuous
100
AcDbDimension
280
     0
  2
*D33
 10
233.2207651490509
 20
-276.8473940210347
 30
0.0
 11
230.2207651490508
 21
-250.8473940210345
 31
0.0
 70
    32
 71
     5
 42
-1.0
 73
     0
 74
     0
 75
     0
  3
STANDARD
100
AcDbAlignedDimension
 13
199.2029347948339
 23
-224.8473940210347
 33
0.0
 14
199.2029347948339
 24
-276.8473940210347
 34
0.0
 50
90.0
100
AcDbRotatedDimension
1001
ACAD
1000
DSTYLE
1002
{
1070
    79
1070
     3
1002
}
  0
LINE
  5
616F
330
1E
100
AcDbEntity
  8
11
 48
2.0
100
AcDbLine
 10
198.7029347948343
 20
-225.8473940210349
 30
0.0
 11
198.7029347948343
 21
-275.8473940210348
 31
0.0
  0
LINE
  5
6170
330
1E
100
AcDbEntity
  8
11
 48
2.0
100
AcDbLine
 10
141.7029347948341
 20
-225.8473940210349
 30
0.0
 11
141.7029347948341
 21
-275.8473940210348
 31
0.0
  0
LINE
  5
6171
330
1E
100
AcDbEntity
  8
18
  6
DIVIDE
100
AcDbLine
 10
200.2029347948343
 20
-328.3473940210348
 30
0.0
 11
200.2029347948343
 21
-173.3473940210348
 31
0.0
  0
LINE
  5
6172
330
1E
100
AcDbEntity
  8
18
  6
DIVIDE
100
AcDbLine
 10
140.202934794834
 20
-173.3473940210348
 30
0.0
 11
140.202934794834
 21
-328.3473940210348
 31
0.0
  0
LINE
  5
6173
330
1E
100
AcDbEntity
  8
16
100
AcDbLine
 10
170.2029347948343
 20
-348.5993337838806
 30
0.0
 11
170.2029347948343
 21
-149.4639948115489
 31
0.0
  0
LINE
  5
6174
330
1E
100
AcDbEntity
  8
11
 48
2.0
100
AcDbLine
 10
142.7029347948342
 20
-276.8473940210347
 30
0.0
 11
197.7029347948341
 21
-276.8473940210347
 31
0.0
  0
DIMENSION
  5
6175
330
1E
100
AcDbEntity
  8
30
  6
Continuous
100
AcDbDimension
280
     0
  2
*D31
 10
198.7029347948343
 20
-359.6479697762508
 30
0.0
 11
170.202934794834
 21
-356.647969776251
 31
0.0
 70
    32
 71
     5
 42
-1.0
 73
     0
 74
     0
 75
     0
  3
STANDARD
100
AcDbAlignedDimension
 13
141.7029347948341
 23
-275.8473940210348
 33
0.0
 14
198.7029347948343
 24
-275.8473940210348
 34
0.0
 50
180.0
100
AcDbRotatedDimension
1001
ACAD
1000
DSTYLE
1002
{
1070
    79
1070
     3
1002
}
  0
LINE
  5
6176
330
1E
100
AcDbEntity
  8
18
  6
DIVIDE
100
AcDbLine
 10
140.202934794834
 20
-328.3473940210348
 30
0.0
 11
200.2029347948343
 21
-328.3473940210348
 31
0.0
  0
LINE
  5
6177
330
1E
100
AcDbEntity
  8
16
100
AcDbLine
 10
239.1068323442413
 20
-250.8473940210349
 30
0.0
 11
89.65302159325338
 21
-250.8473940210349
 31
0.0
  0
ARC
  5
617B
330
1E
100
AcDbEntity
  8
11
 48
2.0
100
AcDbCircle
 10
142.7029347948343
 20
-275.8473940210348
 30
0.0
 40
1.0
100
AcDbArc
 50
180.0
 51
270.0
  0
ARC
  5
617C
330
1E
100
AcDbEntity
  8
11
 48
2.0
100
AcDbCircle
 10
142.7029347948342
 20
-275.8473940210348
 30
0.0
 40
1.0
100
AcDbArc
 50
180.0
 51
270.0
  0
ARC
  5
617D
330
1E
100
AcDbEntity
  8
11
 48
2.0
100
AcDbCircle
 10
197.7029347948343
 20
-275.8473940210348
 30
0.0
 40
1.0
100
AcDbArc
 50
270.0
 51
0.0
  0
ARC
  5
617E
330
1E
100
AcDbEntity
  8
11
 48
2.0
100
AcDbCircle
 10
197.7029347948341
 20
-275.8473940210348
 30
0.0
 40
1.0
100
AcDbArc
 50
270.0
 51
0.0
  0
LINE
  5
617F
330
1E
100
AcDbEntity
  8
11
 48
2.0
100
AcDbLine
 10
142.7029347948342
 20
-224.8473940210347
 30
0.0
 11
197.7029347948341
 21
-224.8473940210347
 31
0.0
  0
LINE
  5
6180
330
1E
100
AcDbEntity
  8
18
  6
DIVIDE
100
AcDbLine
 10
200.2029347948343
 20
-173.3473940210348
 30
0.0
 11
140.202934794834
 21
-173.3473940210348
 31
0.0
  0
ARC
  5
6183
330
1E
100
AcDbEntity
  8
11
 48
2.0
100
AcDbCircle
 10
142.7029347948343
 20
-225.8473940210349
 30
0.0
 40
1.0
100
AcDbArc
 50
90.0
 51
180.0
  0
ARC
  5
6184
330
1E
100
AcDbEntity
  8
11
 48
2.0
100
AcDbCircle
 10
142.7029347948342
 20
-225.8473940210349
 30
0.0
 40
1.0
100
AcDbArc
 50
90.0
 51
180.0
  0
DIMENSION
  5
6186
330
1E
100
AcDbEntity
  8
30
  6
Continuous
100
AcDbDimension
280
     0
  2
*D32
 10
199.2029347948344
 20
-225.8473940210345
 30
0.0
 11
206.8359680388712
 21
-219.8030654950833
 31
0.0
 70
    36
 71
     5
 42
-1.0
 73
     0
 74
     0
 75
     0
  3
STANDARD
100
AcDbRadialDimension
 15
199.9962081103084
 25
-225.2385283158443
 35
0.0
 40
0.0
1001
ACAD
1000
DSTYLE
1002
{
1070
   288
1070
     1
1002
}
  0
ARC
  5
6187
330
1E
100
AcDbEntity
  8
11
 48
2.0
100
AcDbCircle
 10
197.7029347948343
 20
-225.8473940210349
 30
0.0
 40
1.0
100
AcDbArc
 50
0.0
 51
90.0
  0
ARC
  5
6188
330
1E
100
AcDbEntity
  8
11
 48
2.0
100
AcDbCircle
 10
197.7029347948341
 20
-225.8473940210349
 30
0.0
 40
1.0
100
AcDbArc
 50
0.0
 51
90.0
  0
LEADER
  5
61FF
330
1E
100
AcDbEntity
  8
30
  6
Continuous
100
AcDbLeader
  3
STANDARD
 76
     3
 10
186.8
 20
72.00000000000007
 30
0.0
 10
178.9044201393806
 20
93.2377397662035
 30
0.0
 10
161.6290066227675
 20
93.2377397662035
 30
0.0
213
0.0
223
2.0
233
0.0
1001
ACAD
1000
DSTYLE
1002
{
1070
     5
1000
OPEN
1070
    77
1070
     0
1070
    79
1070
     3
1070
   147
1040
1.0
1002
}
  0
MTEXT
  5
6200
330
1E
100
AcDbEntity
  8
30
  6
Continuous
100
AcDbMText
 10
160.6290066227675
 20
91.2377397662035
 30
0.0
 40
4.0
 41
0.0
 46
0.0
 71
     9
 72
     1
  1

 73
     1
 44
1.0
1001
ACAD
1000
MTEXTBEGIN
1070
    73
1070
     1
1070
    44
1040
1.0
1070
    74
1070
     0
1000
MTEXTEND
  0
MTEXT
  5
6269
330
1E
100
AcDbEntity
  8
30
  6
Continuous
100
AcDbMText
 10
134.1806706399479
 20
218.0981872932211
 30
0.0
 40
5.0
 41
98.031
 46
0.0
 71
     1
 72
     5
  1
S100-GF 2P FC\PS125-GF 2P FC
  7
STANDARD1
 73
     1
 44
1.0
1001
ACAD
1000
MTEXTBEGIN
1070
    73
1070
     1
1070
    44
1040
1.0
1070
    74
1070
     0
1000
MTEXTEND
  0
DIMENSION
  5
62F4
330
1E
100
AcDbEntity
  8
30
  6
Continuous
100
AcDbDimension
280
     0
  2
*D38
 10
64.35283869287515
 20
159.1349134126128
 30
0.0
 11
64.35283869287514
 21
195.6081477673913
 31
0.0
 70
   160
 71
     5
 42
75.99999999999986
 73
     0
 74
     0
 75
     0
  3
STANDARD
100
AcDbAlignedDimension
 13
30.0
 23
235.1349134126127
 33
0.0
 14
-3.999999999999998
 24
159.1349134126128
 34
0.0
 50
90.0
100
AcDbRotatedDimension
1001
ACAD
1000
DSTYLE
1002
{
1070
    79
1070
     3
1002
}
  0
LINE
  5
6317
330
1E
100
AcDbEntity
  8
10
  6
CONTINOUS
100
AcDbLine
 10
-29.99999999999999
 20
174.1349134126129
 30
0.0
 11
30.00000000000001
 21
174.1349134126129
 31
0.0
  0
DIMENSION
  5
631C
330
1E
100
AcDbEntity
  8
30
  6
Continuous
100
AcDbDimension
280
     0
  2
*D40
 10
37.33851409909358
 20
174.1349134126129
 30
0.0
 11
34.33851409909355
 21
204.6349134126128
 31
0.0
 70
    32
 71
     5
 42
60.99999999999977
 73
     0
 74
     0
 75
     0
  3
STANDARD
100
AcDbAlignedDimension
 13
30.0
 23
235.1349134126127
 33
0.0
 14
30.00000000000001
 24
174.1349134126129
 34
0.0
 50
90.0
100
AcDbRotatedDimension
1001
ACAD
1000
DSTYLE
1002
{
1070
    79
1070
     3
1002
}
  0
LINE
  5
6338
330
1E
100
AcDbEntity
  8
10
  6
CONTINOUS
100
AcDbLine
 10
-29.99999999999999
 20
174.1349134126129
 30
0.0
 11
-29.99999999999999
 21
167.1349134126129
 31
0.0
  0
LINE
  5
6339
330
1E
100
AcDbEntity
  8
10
  6
CONTINOUS
100
AcDbLine
 10
30.00000000000001
 20
174.1349134126129
 30
0.0
 11
30.00000000000001
 21
167.1349134126129
 31
0.0
  0
LINE
  5
633A
330
1E
100
AcDbEntity
  8
10
  6
CONTINOUS
100
AcDbLine
 10
-29.99999999999999
 20
167.1349134126129
 30
0.0
 11
30.00000000000001
 21
167.1349134126129
 31
0.0
  0
LINE
  5
633B
330
1E
100
AcDbEntity
  8
10
  6
CONTINOUS
100
AcDbLine
 10
-27.5000000000001
 20
167.1349134126126
 30
0.0
 11
-27.5000000000001
 21
163.1349134126126
 31
0.0
  0
LINE
  5
633C
330
1E
100
AcDbEntity
  8
10
  6
CONTINOUS
100
AcDbLine
 10
27.5
 20
167.1349134126126
 30
0.0
 11
27.5
 21
163.1349134126126
 31
0.0
  0
LINE
  5
633D
330
1E
100
AcDbEntity
  8
10
  6
CONTINOUS
100
AcDbLine
 10
-27.5000000000001
 20
163.1349134126126
 30
0.0
 11
27.4999999999999
 21
163.1349134126126
 31
0.0
  0
DIMENSION
  5
633E
330
1E
100
AcDbEntity
  8
30
  6
Continuous
100
AcDbDimension
280
     0
  2
*D41
 10
44.75393535308831
 20
167.1349134126129
 30
0.0
 11
41.75393535308828
 21
201.1349134126128
 31
0.0
 70
    32
 71
     5
 42
67.99999999999977
 73
     0
 74
     0
 75
     0
  3
STANDARD
100
AcDbAlignedDimension
 13
30.0
 23
235.1349134126127
 33
0.0
 14
30.00000000000001
 24
167.1349134126129
 34
0.0
 50
90.0
100
AcDbRotatedDimension
1001
ACAD
1000
DSTYLE
1002
{
1070
    79
1070
     3
1002
}
  0
DIMENSION
  5
634B
330
1E
100
AcDbEntity
  8
30
  6
Continuous
100
AcDbDimension
280
     0
  2
*D42
 10
54.53567393546699
 20
163.1349134126126
 30
0.0
 11
51.53567393546698
 21
199.1349134126126
 31
0.0
 70
    32
 71
     5
 42
72.00000000000009
 73
     0
 74
     0
 75
     0
  3
STANDARD
100
AcDbAlignedDimension
 13
30.0
 23
235.1349134126127
 33
0.0
 14
27.5
 24
163.1349134126126
 34
0.0
 50
90.0
100
AcDbRotatedDimension
1001
ACAD
1000
DSTYLE
1002
{
1070
    79
1070
     3
1002
}
  0
LINE
  5
6366
330
1E
100
AcDbEntity
  8
10
  6
CONTINOUS
100
AcDbLine
 10
-26.01790353517123
 20
159.1349134126128
 30
0.0
 11
-26.01790353517123
 21
163.1349134126128
 31
0.0
  0
LINE
  5
6367
330
1E
100
AcDbEntity
  8
10
  6
CONTINOUS
100
AcDbLine
 10
-3.999999999999998
 20
159.1349134126128
 30
0.0
 11
-3.999999999999998
 21
163.1349134126128
 31
0.0
  0
LINE
  5
6544
330
1E
100
AcDbEntity
  8
10
  6
CONTINOUS
100
AcDbLine
 10
-7.999999999999985
 20
159.1349134126128
 30
0.0
 11
-7.999999999999985
 21
147.1349134126128
 31
0.0
  0
LINE
  5
6545
330
1E
100
AcDbEntity
  8
10
  6
CONTINOUS
100
AcDbLine
 10
-7.999999999999985
 20
147.1349134126128
 30
0.0
 11
-21.99999999999999
 21
147.1349134126128
 31
0.0
  0
LINE
  5
6546
330
1E
100
AcDbEntity
  8
10
  6
CONTINOUS
100
AcDbLine
 10
-21.99999999999999
 20
147.1349134126128
 30
0.0
 11
-21.99999999999999
 21
159.1349134126128
 31
0.0
  0
LINE
  5
663A
330
1E
100
AcDbEntity
  8
16
100
AcDbLine
 10
0.0000000000000107
 20
144.1349134126129
 30
0.0
 11
0.0000000000000107
 21
294.1349134126129
 31
0.0
  0
VIEWPORT
  5
9AC
330
1A
100
AcDbEntity
 67
     1
  8
0
  6
Continuous
100
AcDbViewport
 10
5.613749947134903
 20
3.902083231708196
 30
0.0
 40
14.87469589274309
 41
8.746133096049151
 68
     1
 69
     1
 12
5.613749947134903
 22
3.902083231708196
 13
0.0
 23
0.0
 14
10.0
 24
10.0
 15
10.0
 25
10.0
 16
0.0
 26
0.0
 36
1.0
 17
0.0
 27
0.0
 37
0.0
 42
50.0
 43
0.0
 44
0.0
 45
8.746133096049151
 50
0.0
 51
0.0
 72
   100
 90
    32800
  1

281
     0
 71
     1
 74
     0
110
0.0
120
0.0
130
0.0
111
1.0
121
0.0
131
0.0
112
0.0
122
1.0
132
0.0
 79
     0
146
0.0
170
     0
 61
     5
348
629D
292
     1
282
     1
141
0.0
142
0.0
 63
   250
421
  3355443
  0
VIEWPORT
  5
6267
330
1A
100
AcDbEntity
 67
     1
  8
30
  6
Continuous
100
AcDbViewport
 10
5.613749965908018
 20
3.902083250481312
 30
0.0
 40
8.981999945452834
 41
6.243333200770099
 68
     2
 69
     2
 12
107.0904203558153
 22
-39.95474566704796
 13
0.0
 23
0.0
 14
1.0
 24
1.0
 15
10.0
 25
10.0
 16
0.0
 26
0.0
 36
1.0
 17
0.0
 27
0.0
 37
0.0
 42
50.0
 43
0.0
 44
0.0
 45
650.0648328262407
 50
0.0
 51
0.0
 72
   100
 90
    33312
  1

281
     0
 71
     1
 74
     0
110
0.0
120
0.0
130
0.0
111
1.0
121
0.0
131
0.0
112
0.0
122
1.0
132
0.0
 79
     0
146
0.0
170
     0
 61
     5
348
629D
292
     1
282
     1
141
0.0
142
0.0
 63
   250
421
  3355443
  0
ENDSEC
  0
SECTION
  2
OBJECTS
  0
DICTIONARY
  5
C
330
0
100
AcDbDictionary
281
     1
  3
ACAD_CIP_PREVIOUS_PRODUCT_INFO
350
62CC
  3
ACAD_COLOR
350
62B0
  3
ACAD_DETAILVIEWSTYLE
350
62C9
  3
ACAD_GROUP
350
D
  3
ACAD_LAYOUT
350
19
  3
ACAD_MATERIAL
350
627E
  3
ACAD_MLEADERSTYLE
350
62C5
  3
ACAD_MLINESTYLE
350
16
  3
ACAD_PLOTSETTINGS
350
18
  3
ACAD_PLOTSTYLENAME
350
E
  3
ACAD_SCALELIST
350
62B3
  3
ACAD_SECTIONVIEWSTYLE
350
62C7
  3
ACAD_TABLESTYLE
350
62B1
  3
ACAD_VISUALSTYLE
350
6297
  3
ACADDIM
350
5C76
  3
ACDB_RECOMPOSE_DATA
350
66DB
  3
ACDBVARIABLEDICTIONARY
350
5697
  0
DICTIONARY
  5
6368
330
10
100
AcDbDictionary
280
     1
281
     1
  3
ADSK_XREC_LAYER_RECONCILED
360
6369
  0
DICTIONARY
  5
636A
330
2F
100
AcDbDictionary
280
     1
281
     1
  3
ADSK_XREC_LAYER_RECONCILED
360
636B
  0
DICTIONARY
  5
636C
330
31
100
AcDbDictionary
280
     1
281
     1
  3
ADSK_XREC_LAYER_RECONCILED
360
636D
  0
DICTIONARY
  5
636E
330
35
100
AcDbDictionary
280
     1
281
     1
  3
ADSK_XREC_LAYER_RECONCILED
360
636F
  0
DICTIONARY
  5
6370
330
38
100
AcDbDictionary
280
     1
281
     1
  3
ADSK_XREC_LAYER_RECONCILED
360
6371
  0
DICTIONARY
  5
6372
330
3C
100
AcDbDictionary
280
     1
281
     1
  3
ADSK_XREC_LAYER_RECONCILED
360
6373
  0
DICTIONARY
  5
6374
330
3D
100
AcDbDictionary
280
     1
281
     1
  3
ADSK_XREC_LAYER_RECONCILED
360
6375
  0
DICTIONARY
  5
6376
330
3A2
100
AcDbDictionary
280
     1
281
     1
  3
ADSK_XREC_LAYER_RECONCILED
360
6377
  0
DICTIONARY
  5
6378
330
3BBA
100
AcDbDictionary
280
     1
281
     1
  3
ADSK_XREC_LAYER_RECONCILED
360
6379
  0
DICTIONARY
  5
637A
330
5116
100
AcDbDictionary
280
     1
281
     1
  3
ADSK_XREC_LAYER_RECONCILED
360
637B
  0
DICTIONARY
  5
637C
330
5117
100
AcDbDictionary
280
     1
281
     1
  3
ADSK_XREC_LAYER_RECONCILED
360
637D
  0
DICTIONARY
  5
637E
330
5C47
100
AcDbDictionary
280
     1
281
     1
  3
ADSK_XREC_LAYER_RECONCILED
360
637F
  0
DICTIONARY
  5
178
330
1E
100
AcDbDictionary
280
     1
281
     1
  3
ACAD_LAYOUTSELFREF
360
6251
  0
DICTIONARY
  5
17A
330
1A
100
AcDbDictionary
280
     1
281
     1
  3
ACAD_LAYOUTSELFREF
360
6250
  0
DICTIONARY
  5
64A0
330
61C5
100
AcDbDictionary
280
     1
281
     1
  0
XRECORD
  5
62CC
102
{ACAD_REACTORS
330
C
102
}
330
C
100
AcDbXrecord
280
     1
300
ACDLT
300
2014
300
ACDLT_F_S
  0
DICTIONARY
  5
62B0
102
{ACAD_REACTORS
330
C
102
}
330
C
100
AcDbDictionary
281
     1
  0
DICTIONARY
  5
62C9
102
{ACAD_REACTORS
330
C
102
}
330
C
100
AcDbDictionary
281
     1
  3
Imperial24
350
62CA
  0
DICTIONARY
  5
D
102
{ACAD_REACTORS
330
C
102
}
330
C
100
AcDbDictionary
281
     1
  0
DICTIONARY
  5
19
102
{ACAD_REACTORS
330
C
102
}
330
C
100
AcDbDictionary
281
     1
  3
Model
350
6262
  3
ﾚｲｱｳﾄ1
350
6263
  0
DICTIONARY
  5
627E
102
{ACAD_REACTORS
330
C
102
}
330
C
100
AcDbDictionary
281
     1
  3
ByBlock
350
6287
  3
ByLayer
350
627F
  3
Global
350
628F
  0
DICTIONARY
  5
62C5
102
{ACAD_REACTORS
330
C
102
}
330
C
100
AcDbDictionary
281
     1
  3
Standard
350
62C6
  0
DICTIONARY
  5
16
102
{ACAD_REACTORS
330
C
102
}
330
C
100
AcDbDictionary
281
     1
  3
STANDARD
350
17
  0
DICTIONARY
  5
18
102
{ACAD_REACTORS
330
C
102
}
330
C
100
AcDbDictionary
281
     1
  0
ACDBDICTIONARYWDFLT
  5
E
102
{ACAD_REACTORS
330
C
102
}
330
C
100
AcDbDictionary
281
     1
  3
Normal
350
F
100
AcDbDictionaryWithDefault
340
F
  0
DICTIONARY
  5
62B3
102
{ACAD_REACTORS
330
C
102
}
330
C
100
AcDbDictionary
281
     1
  3
A0
350
62B4
  3
A1
350
62B5
  3
A2
350
62B6
  3
A3
350
62B7
  3
A4
350
62B8
  3
A5
350
62B9
  3
A6
350
62BA
  3
A7
350
62BB
  3
A8
350
62BC
  3
A9
350
62BD
  3
B0
350
62BE
  3
B1
350
62BF
  3
B2
350
62C0
  3
B3
350
62C1
  3
B4
350
62C2
  3
B5
350
62C3
  3
B6
350
62C4
  0
DICTIONARY
  5
62C7
102
{ACAD_REACTORS
330
C
102
}
330
C
100
AcDbDictionary
281
     1
  3
Imperial24
350
62C8
  0
DICTIONARY
  5
62B1
102
{ACAD_REACTORS
330
C
102
}
330
C
100
AcDbDictionary
281
     1
  3
Standard
350
62B2
  0
DICTIONARY
  5
6297
102
{ACAD_REACTORS
330
C
102
}
330
C
100
AcDbDictionary
281
     1
  3
2dWireframe
350
629D
  3
Basic
350
629C
  3
Brighten
350
62A3
  3
ColorChange
350
62A7
  3
Conceptual
350
62A0
  3
Dim
350
62A2
  3
EdgeColorOff
350
62AF
  3
Facepattern
350
62A6
  3
Flat
350
6298
  3
FlatWithEdges
350
6299
  3
Gouraud
350
629A
  3
GouraudWithEdges
350
629B
  3
Hidden
350
629F
  3
JitterOff
350
62AD
  3
Linepattern
350
62A5
  3
OverhangOff
350
62AE
  3
Realistic
350
62A1
  3
Shaded
350
62AC
  3
Shaded with edges
350
62AB
  3
Shades of Gray
350
62A8
  3
Sketchy
350
62A9
  3
Thicken
350
62A4
  3
Wireframe
350
629E
  3
X-Ray
350
62AA
  0
XRECORD
  5
5C76
102
{ACAD_REACTORS
330
C
102
}
330
C
100
AcDbXrecord
280
     1
 90
   990106
  3

 60
     0
 61
     0
 62
     1
 63
     3
 64
     0
 65
     0
 66
     0
 67
     3
 68
     1
 69
     0
 70
     0
 71
     0
 72
     0
 40
0.0
170
     0
340
6200
  0
XRECORD
  5
66DB
102
{ACAD_REACTORS
330
C
102
}
330
C
100
AcDbXrecord
280
     1
 90
        1
330
62B2
330
62C8
330
62CA
  0
DICTIONARY
  5
5697
102
{ACAD_REACTORS
330
C
102
}
330
C
100
AcDbDictionary
281
     1
  3
CANNOSCALE
350
6384
  3
CMLEADERSTYLE
350
6381
  3
CTABLESTYLE
350
6380
  3
CVIEWDETAILSTYLE
350
6382
  3
CVIEWSECTIONSTYLE
350
6383
  3
DIMASSOC
350
5698
  3
INDEXCTL
350
6386
  3
LAYEREVAL
350
66D4
  3
LAYERNOTIFY
350
66D5
  3
LIGHTINGUNITS
350
66D3
  3
MSLTSCALE
350
66D2
  3
SORTENTS
350
6385
  0
XRECORD
  5
6369
102
{ACAD_REACTORS
330
6368
102
}
330
6368
100
AcDbXrecord
280
     1
290
     1
  0
XRECORD
  5
636B
102
{ACAD_REACTORS
330
636A
102
}
330
636A
100
AcDbXrecord
280
     1
290
     1
  0
XRECORD
  5
636D
102
{ACAD_REACTORS
330
636C
102
}
330
636C
100
AcDbXrecord
280
     1
290
     1
  0
XRECORD
  5
636F
102
{ACAD_REACTORS
330
636E
102
}
330
636E
100
AcDbXrecord
280
     1
290
     1
  0
XRECORD
  5
6371
102
{ACAD_REACTORS
330
6370
102
}
330
6370
100
AcDbXrecord
280
     1
290
     1
  0
XRECORD
  5
6373
102
{ACAD_REACTORS
330
6372
102
}
330
6372
100
AcDbXrecord
280
     1
290
     1
  0
XRECORD
  5
6375
102
{ACAD_REACTORS
330
6374
102
}
330
6374
100
AcDbXrecord
280
     1
290
     1
  0
XRECORD
  5
6377
102
{ACAD_REACTORS
330
6376
102
}
330
6376
100
AcDbXrecord
280
     1
290
     1
  0
XRECORD
  5
6379
102
{ACAD_REACTORS
330
6378
102
}
330
6378
100
AcDbXrecord
280
     1
290
     1
  0
XRECORD
  5
637B
102
{ACAD_REACTORS
330
637A
102
}
330
637A
100
AcDbXrecord
280
     1
290
     1
  0
XRECORD
  5
637D
102
{ACAD_REACTORS
330
637C
102
}
330
637C
100
AcDbXrecord
280
     1
290
     1
  0
XRECORD
  5
637F
102
{ACAD_REACTORS
330
637E
102
}
330
637E
100
AcDbXrecord
280
     1
290
     1
  0
XRECORD
  5
6251
102
{ACAD_REACTORS
330
178
102
}
330
178
100
AcDbXrecord
280
     1
340
1E
  0
XRECORD
  5
6250
102
{ACAD_REACTORS
330
17A
102
}
330
17A
100
AcDbXrecord
280
     1
340
1A
  0
ACDBDETAILVIEWSTYLE
  5
62CA
102
{ACAD_XDICTIONARY
360
66D9
102
}
102
{ACAD_REACTORS
330
62C9
102
}
330
62C9
100
AcDbModelDocViewStyle
 70
     0
  3
Imperial24
290
     0
100
AcDbDetailViewStyle
 70
     0
 71
     0
 90
        3
 71
     1
340
11
 62
   256
 40
0.24
340
0
 62
   256
 40
0.24
300

 40
0.36
280
     3
 71
     2
340
15
 90
       25
 62
   256
 71
     3
340
11
 62
   256
 40
0.24
 90
        1
 40
0.75
 90
        1
300
%<\AcVar ViewType \f "%tc1">% %<\AcVar ViewDetailId>%\PSCALE %<\AcVar ViewScale \f "%sn">%
 71
     4
340
15
 90
       25
 62
   256
340
15
 90
       25
 62
   256
280
     0
  0
LAYOUT
  5
6262
102
{ACAD_REACTORS
330
19
102
}
330
19
100
AcDbPlotSettings
  1

  2
Canon LBP3800 LIPSLX
  4
A4
  6
OLE1
 40
5.873749732971191
 41
5.873747825622557
 42
5.873748779296875
 43
5.873748779296875
 44
209.9733276367186
 45
296.9259948730469
 46
13.97
 47
0.0
 48
0.0
 49
0.0
140
0.0
141
0.0
142
1.0
143
57.03989542820892
 70
 11956
 72
     0
 73
     0
 74
     1
  7
monochrome.ctb
 75
     0
147
0.0175315889430164
 76
     0
 77
     2
 78
   300
148
2132.688548548884
149
9148.078143675617
100
AcDbLayout
  1
Model
 70
     1
 71
     0
 10
0.0
 20
0.0
 11
12.0
 21
9.0
 12
0.0
 22
0.0
 32
0.0
 14
0.0
 24
0.0
 34
0.0
 15
0.0
 25
0.0
 35
0.0
146
0.0
 13
0.0
 23
0.0
 33
0.0
 16
1.0
 26
0.0
 36
0.0
 17
0.0
 27
1.0
 37
0.0
 76
     0
330
1E
331
6275
  0
LAYOUT
  5
6263
102
{ACAD_REACTORS
330
19
102
}
330
19
100
AcDbPlotSettings
  1

  2
Canon LBP3800 LIPSLX
  4
A4
  6

 40
5.873749732971191
 41
5.873747825622557
 42
5.873748779296875
 43
5.873748779296875
 44
209.9733276367186
 45
296.9259948730469
 46
0.0
 47
0.0
 48
0.0
 49
0.0
140
0.0
141
0.0
142
1.0
143
1.0
 70
   688
 72
     0
 73
     1
 74
     5
  7
monochrome.ctb
 75
    16
147
1.0
 76
     0
 77
     2
 78
   300
148
0.0
149
0.0
100
AcDbLayout
  1
ﾚｲｱｳﾄ1
 70
     1
 71
     1
 10
-0.2312499519408218
 20
-0.2312499894870548
 11
11.45874984621061
 21
8.035416452903447
 12
0.0
 22
0.0
 32
0.0
 14
1.122749993181602
 24
0.7804166500962629
 34
0.0
 15
10.10474993863443
 25
7.023749850866361
 35
0.0
146
0.0
 13
0.0
 23
0.0
 33
0.0
 16
1.0
 26
0.0
 36
0.0
 17
0.0
 27
1.0
 37
0.0
 76
     0
330
1A
331
9AC
  0
MATERIAL
  5
6287
102
{ACAD_XDICTIONARY
360
6288
102
}
102
{ACAD_REACTORS
330
627E
102
}
330
627E
100
AcDbMaterial
  1
ByBlock
 72
     0
 43
0.0208333333333333
 43
0.0
 43
0.0
 43
0.0
 43
0.0
 43
0.0208333333333333
 43
0.0
 43
0.0
 43
0.0
 43
0.0
 43
1.0
 43
0.0
 43
0.0
 43
0.0
 43
0.0
 43
1.0
 77
     0
 47
0.0208333333333333
 47
0.0
 47
0.0
 47
0.0
 47
0.0
 47
0.0208333333333333
 47
0.0
 47
0.0
 47
0.0
 47
0.0
 47
1.0
 47
0.0
 47
0.0
 47
0.0
 47
0.0
 47
1.0
171
     0
 49
0.0208333333333333
 49
0.0
 49
0.0
 49
0.0
 49
0.0
 49
0.0208333333333333
 49
0.0
 49
0.0
 49
0.0
 49
0.0
 49
1.0
 49
0.0
 49
0.0
 49
0.0
 49
0.0
 49
1.0
175
     0
142
0.0208333333333333
142
0.0
142
0.0
142
0.0
142
0.0
142
0.0208333333333333
142
0.0
142
0.0
142
0.0
142
0.0
142
1.0
142
0.0
142
0.0
142
0.0
142
0.0
142
1.0
179
     0
144
0.0208333333333333
144
0.0
144
0.0
144
0.0
144
0.0
144
0.0208333333333333
144
0.0
144
0.0
144
0.0
144
0.0
144
1.0
144
0.0
144
0.0
144
0.0
144
0.0
144
1.0
147
0.0208333333333333
147
0.0
147
0.0
147
0.0
147
0.0
147
0.0208333333333333
147
0.0
147
0.0
147
0.0
147
0.0
147
1.0
147
0.0
147
0.0
147
0.0
147
0.0
147
1.0
  0
MATERIAL
  5
627F
102
{ACAD_XDICTIONARY
360
6280
102
}
102
{ACAD_REACTORS
330
627E
102
}
330
627E
100
AcDbMaterial
  1
ByLayer
 72
     0
 43
0.0208333333333333
 43
0.0
 43
0.0
 43
0.0
 43
0.0
 43
0.0208333333333333
 43
0.0
 43
0.0
 43
0.0
 43
0.0
 43
1.0
 43
0.0
 43
0.0
 43
0.0
 43
0.0
 43
1.0
 77
     0
 47
0.0208333333333333
 47
0.0
 47
0.0
 47
0.0
 47
0.0
 47
0.0208333333333333
 47
0.0
 47
0.0
 47
0.0
 47
0.0
 47
1.0
 47
0.0
 47
0.0
 47
0.0
 47
0.0
 47
1.0
171
     0
 49
0.0208333333333333
 49
0.0
 49
0.0
 49
0.0
 49
0.0
 49
0.0208333333333333
 49
0.0
 49
0.0
 49
0.0
 49
0.0
 49
1.0
 49
0.0
 49
0.0
 49
0.0
 49
0.0
 49
1.0
175
     0
142
0.0208333333333333
142
0.0
142
0.0
142
0.0
142
0.0
142
0.0208333333333333
142
0.0
142
0.0
142
0.0
142
0.0
142
1.0
142
0.0
142
0.0
142
0.0
142
0.0
142
1.0
179
     0
144
0.0208333333333333
144
0.0
144
0.0
144
0.0
144
0.0
144
0.0208333333333333
144
0.0
144
0.0
144
0.0
144
0.0
144
1.0
144
0.0
144
0.0
144
0.0
144
0.0
144
1.0
147
0.0208333333333333
147
0.0
147
0.0
147
0.0
147
0.0
147
0.0208333333333333
147
0.0
147
0.0
147
0.0
147
0.0
147
1.0
147
0.0
147
0.0
147
0.0
147
0.0
147
1.0
  0
MATERIAL
  5
628F
102
{ACAD_XDICTIONARY
360
6290
102
}
102
{ACAD_REACTORS
330
627E
102
}
330
627E
100
AcDbMaterial
  1
Global
 72
     0
 43
0.0208333333333333
 43
0.0
 43
0.0
 43
0.0
 43
0.0
 43
0.0208333333333333
 43
0.0
 43
0.0
 43
0.0
 43
0.0
 43
1.0
 43
0.0
 43
0.0
 43
0.0
 43
0.0
 43
1.0
 77
     0
 47
0.0208333333333333
 47
0.0
 47
0.0
 47
0.0
 47
0.0
 47
0.0208333333333333
 47
0.0
 47
0.0
 47
0.0
 47
0.0
 47
1.0
 47
0.0
 47
0.0
 47
0.0
 47
0.0
 47
1.0
171
     0
 49
0.0208333333333333
 49
0.0
 49
0.0
 49
0.0
 49
0.0
 49
0.0208333333333333
 49
0.0
 49
0.0
 49
0.0
 49
0.0
 49
1.0
 49
0.0
 49
0.0
 49
0.0
 49
0.0
 49
1.0
175
     0
142
0.0208333333333333
142
0.0
142
0.0
142
0.0
142
0.0
142
0.0208333333333333
142
0.0
142
0.0
142
0.0
142
0.0
142
1.0
142
0.0
142
0.0
142
0.0
142
0.0
142
1.0
179
     0
144
0.0208333333333333
144
0.0
144
0.0
144
0.0
144
0.0
144
0.0208333333333333
144
0.0
144
0.0
144
0.0
144
0.0
144
1.0
144
0.0
144
0.0
144
0.0
144
0.0
144
1.0
147
0.0208333333333333
147
0.0
147
0.0
147
0.0
147
0.0
147
0.0208333333333333
147
0.0
147
0.0
147
0.0
147
0.0
147
1.0
147
0.0
147
0.0
147
0.0
147
0.0
147
1.0
  0
MLEADERSTYLE
  5
62C6
102
{ACAD_REACTORS
330
62C5
102
}
330
62C5
100
AcDbMLeaderStyle
179
     2
170
     2
171
     1
172
     0
 90
        2
 40
0.0
 41
0.0
173
     1
 91
-1056964608
340
13
 92
       -2
290
     1
 42
0.09
291
     1
 43
0.36
  3
Standard
 44
0.18
300

342
11
174
     1
178
     6
175
     1
176
     0
 93
-1056964608
 45
0.18
292
     0
297
     0
 46
0.18
 94
-1056964608
 47
1.0
 49
1.0
140
1.0
293
     1
141
0.0
294
     1
177
     0
142
1.0
295
     0
296
     0
143
0.125
271
     0
272
     9
273
     9
298
     0
1001
ACAD_MLEADERVER
1070
     2
  0
MLINESTYLE
  5
17
102
{ACAD_REACTORS
330
16
102
}
330
16
100
AcDbMlineStyle
  2
STANDARD
 70
     0
  3

 62
   256
 51
90.0
 52
90.0
 71
     2
 49
0.5
 62
   256
  6
BYLAYER
 49
-0.5
 62
   256
  6
BYLAYER
  0
ACDBPLACEHOLDER
  5
F
102
{ACAD_REACTORS
330
E
102
}
330
E
  0
SCALE
  5
62B4
102
{ACAD_REACTORS
330
62B3
102
}
330
62B3
100
AcDbScale
 70
     0
300
1:1
140
1.0
141
1.0
290
     1
  0
SCALE
  5
62B5
102
{ACAD_REACTORS
330
62B3
102
}
330
62B3
100
AcDbScale
 70
     0
300
1/128" = 1'-0"
140
0.0078125
141
12.0
290
     0
  0
SCALE
  5
62B6
102
{ACAD_REACTORS
330
62B3
102
}
330
62B3
100
AcDbScale
 70
     0
300
1/64" = 1'-0"
140
0.015625
141
12.0
290
     0
  0
SCALE
  5
62B7
102
{ACAD_REACTORS
330
62B3
102
}
330
62B3
100
AcDbScale
 70
     0
300
1/32" = 1'-0"
140
0.03125
141
12.0
290
     0
  0
SCALE
  5
62B8
102
{ACAD_REACTORS
330
62B3
102
}
330
62B3
100
AcDbScale
 70
     0
300
1/16" = 1'-0"
140
0.0625
141
12.0
290
     0
  0
SCALE
  5
62B9
102
{ACAD_REACTORS
330
62B3
102
}
330
62B3
100
AcDbScale
 70
     0
300
3/32" = 1'-0"
140
0.09375
141
12.0
290
     0
  0
SCALE
  5
62BA
102
{ACAD_REACTORS
330
62B3
102
}
330
62B3
100
AcDbScale
 70
     0
300
1/8" = 1'-0"
140
0.125
141
12.0
290
     0
  0
SCALE
  5
62BB
102
{ACAD_REACTORS
330
62B3
102
}
330
62B3
100
AcDbScale
 70
     0
300
3/16" = 1'-0"
140
0.1875
141
12.0
290
     0
  0
SCALE
  5
62BC
102
{ACAD_REACTORS
330
62B3
102
}
330
62B3
100
AcDbScale
 70
     0
300
1/4" = 1'-0"
140
0.25
141
12.0
290
     0
  0
SCALE
  5
62BD
102
{ACAD_REACTORS
330
62B3
102
}
330
62B3
100
AcDbScale
 70
     0
300
3/8" = 1'-0"
140
0.375
141
12.0
290
     0
  0
SCALE
  5
62BE
102
{ACAD_REACTORS
330
62B3
102
}
330
62B3
100
AcDbScale
 70
     0
300
1/2" = 1'-0"
140
0.5
141
12.0
290
     0
  0
SCALE
  5
62BF
102
{ACAD_REACTORS
330
62B3
102
}
330
62B3
100
AcDbScale
 70
     0
300
3/4" = 1'-0"
140
0.75
141
12.0
290
     0
  0
SCALE
  5
62C0
102
{ACAD_REACTORS
330
62B3
102
}
330
62B3
100
AcDbScale
 70
     0
300
1" = 1'-0"
140
1.0
141
12.0
290
     0
  0
SCALE
  5
62C1
102
{ACAD_REACTORS
330
62B3
102
}
330
62B3
100
AcDbScale
 70
     0
300
1-1/2" = 1'-0"
140
1.5
141
12.0
290
     0
  0
SCALE
  5
62C2
102
{ACAD_REACTORS
330
62B3
102
}
330
62B3
100
AcDbScale
 70
     0
300
3" = 1'-0"
140
3.0
141
12.0
290
     0
  0
SCALE
  5
62C3
102
{ACAD_REACTORS
330
62B3
102
}
330
62B3
100
AcDbScale
 70
     0
300
6" = 1'-0"
140
6.0
141
12.0
290
     0
  0
SCALE
  5
62C4
102
{ACAD_REACTORS
330
62B3
102
}
330
62B3
100
AcDbScale
 70
     0
300
1'-0" = 1'-0"
140
12.0
141
12.0
290
     0
  0
ACDBSECTIONVIEWSTYLE
  5
62C8
102
{ACAD_XDICTIONARY
360
66D7
102
}
102
{ACAD_REACTORS
330
62C7
102
}
330
62C7
100
AcDbModelDocViewStyle
 70
     0
  3
Imperial24
290
     0
100
AcDbSectionViewStyle
 70
     0
 71
     0
 90
       78
 71
     1
340
11
 62
   256
 40
0.24
340
0
340
0
 62
   256
 40
0.24
300
I, O, Q, S, X, Z
 40
0.48
 90
        3
 40
0.18
 90
        1
 71
     2
340
15
 90
       25
 62
   256
340
15
 90
       50
 62
   256
 40
0.24
 40
0.0
 40
0.24
 71
     3
340
11
 62
   256
 40
0.24
 90
        1
 40
0.75
 90
        1
300
%<\AcVar ViewType \f "%tc1">% %<\AcVar ViewSectionStartId>%-%<\AcVar ViewSectionEndId>%\PSCALE %<\AcVar ViewScale \f "%sn">%
 71
     4
 62
   256
 62
   257
300
ANSI31
 40
1.0
 90
        0
290
     0
290
     0
 90
        6
 40
0.0
 40
1.570796326794896
 40
0.2617993877991494
 40
1.308996938995747
 40
-0.2617993877991494
 40
1.832595714594044
  0
TABLESTYLE
  5
62B2
102
{ACAD_XDICTIONARY
360
649A
102
}
102
{ACAD_REACTORS
330
62B1
102
}
330
62B1
100
AcDbTableStyle
280
     0
  3
Standard
 70
     0
 71
     0
 40
0.06
 41
0.06
280
     0
281
     0
  7
STANDARD
140
0.18
170
     2
 62
     0
 63
     7
283
     0
 90
      512
 91
        0
  1

274
    -2
284
     1
 64
     0
275
    -2
285
     1
 65
     0
276
    -2
286
     1
 66
     0
277
    -2
287
     1
 67
     0
278
    -2
288
     1
 68
     0
279
    -2
289
     1
 69
     0
  7
STANDARD
140
0.25
170
     5
 62
     0
 63
     7
283
     0
 90
      512
 91
        0
  1

274
    -2
284
     1
 64
     0
275
    -2
285
     1
 65
     0
276
    -2
286
     1
 66
     0
277
    -2
287
     1
 67
     0
278
    -2
288
     1
 68
     0
279
    -2
289
     1
 69
     0
  7
STANDARD
140
0.18
170
     5
 62
     0
 63
     7
283
     0
 90
      512
 91
        0
  1

274
    -2
284
     1
 64
     0
275
    -2
285
     1
 65
     0
276
    -2
286
     1
 66
     0
277
    -2
287
     1
 67
     0
278
    -2
288
     1
 68
     0
279
    -2
289
     1
 69
     0
  0
VISUALSTYLE
  5
629D
102
{ACAD_REACTORS
330
6297
102
}
330
6297
100
AcDbVisualStyle
  2

 70
     4
177
     3
291
     0
 70
    58
 90
        0
176
     1
 90
        2
176
     1
 90
        0
176
     1
 90
        0
176
     1
 40
0.6
176
     1
 40
30.0
176
     1
 62
     7
176
     1
 90
        1
176
     1
 90
        4
176
     1
 62
     7
176
     1
 62
   257
176
     1
 90
        1
176
     1
 90
        1
176
     1
 40
1.0
176
     1
 90
        0
176
     1
 62
   257
176
     1
 40
1.0
176
     1
 90
        1
176
     1
 90
        6
176
     1
 90
        2
176
     1
 62
     7
176
     1
 90
        5
176
     1
 90
        0
176
     1
 90
        0
176
     1
290
     0
176
     1
 90
        1
176
     1
 40
0.0
176
     1
 90
        0
176
     1
290
     1
176
     1
290
     1
176
     1
290
     0
176
     1
290
     0
176
     1
290
     0
176
     1
290
     0
176
     1
290
     0
176
     1
290
     0
176
     1
290
     0
176
     1
 90
       50
176
     1
 40
0.0
176
     1
 40
1.0
176
     1
 90
        0
176
     1
 62
    18
420
        0
176
     1
 90
       50
176
     1
 90
        3
176
     1
 62
     5
420
      255
176
     1
290
     0
176
     1
 90
       50
176
     1
 90
       50
176
     1
 90
       50
176
     1
290
     0
176
     1
 90
       50
176
     1
 62
   256
176
     0
 40
1.0
176
     0
 90
        2
176
     1
  1
strokes_ogs.tif
176
     1
290
     0
176
     1
 40
1.0
176
     1
 40
1.0
176
     1
1001
ACAD
1000
AcDbSavedByObjectVersion
1070
     0
  0
VISUALSTYLE
  5
629C
102
{ACAD_REACTORS
330
6297
102
}
330
6297
100
AcDbVisualStyle
  2

 70
     7
177
     3
291
     1
 70
    58
 90
        1
176
     1
 90
        0
176
     1
 90
        1
176
     1
 90
        0
176
     1
 40
0.6
176
     1
 40
30.0
176
     1
 62
     7
176
     1
 90
        0
176
     1
 90
        4
176
     1
 62
     7
176
     1
 62
   257
176
     1
 90
        1
176
     1
 90
        1
176
     1
 40
1.0
176
     1
 90
        8
176
     1
 62
     7
176
     1
 40
1.0
176
     1
 90
        1
176
     1
 90
        6
176
     1
 90
        2
176
     1
 62
     7
176
     1
 90
        5
176
     1
 90
        0
176
     1
 90
        0
176
     1
290
     0
176
     1
 90
        1
176
     1
 40
0.0
176
     1
 90
        0
176
     1
290
     0
176
     1
290
     1
176
     1
290
     1
176
     1
290
     0
176
     1
290
     0
176
     1
290
     0
176
     1
290
     0
176
     1
290
     0
176
     1
290
     0
176
     1
 90
       50
176
     1
 40
0.0
176
     1
 40
1.0
176
     1
 90
        0
176
     1
 62
    18
420
        0
176
     1
 90
       50
176
     1
 90
        3
176
     1
 62
     5
420
      255
176
     1
290
     0
176
     1
 90
       50
176
     1
 90
       50
176
     1
 90
       50
176
     1
290
     0
176
     1
 90
       50
176
     1
 62
   256
176
     0
 40
1.0
176
     0
 90
        2
176
     1
  1
strokes_ogs.tif
176
     1
290
     0
176
     1
 40
1.0
176
     1
 40
1.0
176
     1
1001
ACAD
1000
AcDbSavedByObjectVersion
1070
     0
  0
VISUALSTYLE
  5
62A3
102
{ACAD_REACTORS
330
6297
102
}
330
6297
100
AcDbVisualStyle
  2

 70
    12
177
     3
291
     1
 70
    58
 90
        2
176
     1
 90
        2
176
     1
 90
        0
176
     1
 90
        0
176
     1
 40
0.6
176
     1
 40
30.0
176
     1
 62
     7
176
     1
 90
        1
176
     1
 90
        4
176
     1
 62
     7
176
     1
 62
   257
176
     1
 90
        1
176
     1
 90
        1
176
     1
 40
1.0
176
     1
 90
        8
176
     1
 62
     7
176
     1
 40
1.0
176
     1
 90
        1
176
     1
 90
        6
176
     1
 90
        2
176
     1
 62
     7
176
     1
 90
        5
176
     1
 90
        0
176
     1
 90
        0
176
     1
290
     0
176
     1
 90
        1
176
     1
 40
50.0
176
     1
 90
        0
176
     1
290
     0
176
     1
290
     1
176
     1
290
     1
176
     1
290
     0
176
     1
290
     0
176
     1
290
     0
176
     1
290
     0
176
     1
290
     0
176
     1
290
     0
176
     1
 90
       50
176
     1
 40
0.0
176
     1
 40
1.0
176
     1
 90
        0
176
     1
 62
    18
420
        0
176
     1
 90
       50
176
     1
 90
        3
176
     1
 62
     5
420
      255
176
     1
290
     0
176
     1
 90
       50
176
     1
 90
       50
176
     1
 90
       50
176
     1
290
     0
176
     1
 90
       50
176
     1
 62
   256
176
     0
 40
1.0
176
     0
 90
        2
176
     1
  1
strokes_ogs.tif
176
     1
290
     0
176
     1
 40
1.0
176
     1
 40
1.0
176
     1
1001
ACAD
1000
AcDbSavedByObjectVersion
1070
     0
  0
VISUALSTYLE
  5
62A7
102
{ACAD_REACTORS
330
6297
102
}
330
6297
100
AcDbVisualStyle
  2

 70
    16
177
     3
291
     1
 70
    58
 90
        2
176
     1
 90
        2
176
     1
 90
        3
176
     1
 90
        0
176
     1
 40
0.6
176
     1
 40
30.0
176
     1
 62
     8
176
     1
 90
        1
176
     1
 90
        4
176
     1
 62
     7
176
     1
 62
   257
176
     1
 90
        1
176
     1
 90
        1
176
     1
 40
1.0
176
     1
 90
        8
176
     1
 62
     8
176
     1
 40
1.0
176
     1
 90
        1
176
     1
 90
        6
176
     1
 90
        2
176
     1
 62
     7
176
     1
 90
        5
176
     1
 90
        0
176
     1
 90
        0
176
     1
290
     0
176
     1
 90
        1
176
     1
 40
0.0
176
     1
 90
        0
176
     1
290
     0
176
     1
290
     1
176
     1
290
     1
176
     1
290
     0
176
     1
290
     0
176
     1
290
     0
176
     1
290
     0
176
     1
290
     0
176
     1
290
     0
176
     1
 90
       50
176
     1
 40
0.0
176
     1
 40
1.0
176
     1
 90
        0
176
     1
 62
    18
420
        0
176
     1
 90
       50
176
     1
 90
        3
176
     1
 62
     5
420
      255
176
     1
290
     0
176
     1
 90
       50
176
     1
 90
       50
176
     1
 90
       50
176
     1
290
     0
176
     1
 90
       50
176
     1
 62
   256
176
     0
 40
1.0
176
     0
 90
        2
176
     1
  1
strokes_ogs.tif
176
     1
290
     0
176
     1
 40
1.0
176
     1
 40
1.0
176
     1
1001
ACAD
1000
AcDbSavedByObjectVersion
1070
     0
  0
VISUALSTYLE
  5
62A0
102
{ACAD_REACTORS
330
6297
102
}
330
6297
100
AcDbVisualStyle
  2

 70
     9
177
     3
291
     0
 70
    58
 90
        3
176
     1
 90
        2
176
     1
 90
        0
176
     1
 90
        0
176
     1
 40
0.6
176
     1
 40
30.0
176
     1
 62
     7
176
     1
 90
        2
176
     1
 90
        2
176
     1
 62
     7
176
     1
 62
   257
176
     1
 90
        1
176
     1
 90
        1
176
     1
 40
179.0
176
     1
 90
        8
176
     1
 62
     7
176
     1
 40
1.0
176
     1
 90
        1
176
     1
 90
        6
176
     1
 90
        2
176
     1
 62
     7
176
     1
 90
        3
176
     1
 90
        0
176
     1
 90
        0
176
     1
290
     0
176
     1
 90
        1
176
     1
 40
0.0
176
     1
 90
        0
176
     1
290
     0
176
     1
290
     1
176
     1
290
     1
176
     1
290
     0
176
     1
290
     0
176
     1
290
     0
176
     1
290
     0
176
     1
290
     0
176
     1
290
     0
176
     1
 90
       50
176
     1
 40
0.0
176
     1
 40
1.0
176
     1
 90
        0
176
     1
 62
    18
420
        0
176
     1
 90
       50
176
     1
 90
        3
176
     1
 62
     5
420
      255
176
     1
290
     0
176
     1
 90
       50
176
     1
 90
       50
176
     1
 90
       50
176
     1
290
     0
176
     1
 90
       50
176
     1
 62
   256
176
     0
 40
1.0
176
     0
 90
        2
176
     1
  1
strokes_ogs.tif
176
     1
290
     0
176
     1
 40
1.0
176
     1
 40
1.0
176
     1
1001
ACAD
1000
AcDbSavedByObjectVersion
1070
     0
  0
VISUALSTYLE
  5
62A2
102
{ACAD_REACTORS
330
6297
102
}
330
6297
100
AcDbVisualStyle
  2

 70
    11
177
     3
291
     1
 70
    58
 90
        2
176
     1
 90
        2
176
     1
 90
        0
176
     1
 90
        0
176
     1
 40
0.6
176
     1
 40
30.0
176
     1
 62
     7
176
     1
 90
        1
176
     1
 90
        4
176
     1
 62
     7
176
     1
 62
   257
176
     1
 90
        1
176
     1
 90
        1
176
     1
 40
1.0
176
     1
 90
        8
176
     1
 62
     7
176
     1
 40
1.0
176
     1
 90
        1
176
     1
 90
        6
176
     1
 90
        2
176
     1
 62
     7
176
     1
 90
        5
176
     1
 90
        0
176
     1
 90
        0
176
     1
290
     0
176
     1
 90
        1
176
     1
 40
-50.0
176
     1
 90
        0
176
     1
290
     0
176
     1
290
     1
176
     1
290
     1
176
     1
290
     0
176
     1
290
     0
176
     1
290
     0
176
     1
290
     0
176
     1
290
     0
176
     1
290
     0
176
     1
 90
       50
176
     1
 40
0.0
176
     1
 40
1.0
176
     1
 90
        0
176
     1
 62
    18
420
        0
176
     1
 90
       50
176
     1
 90
        3
176
     1
 62
     5
420
      255
176
     1
290
     0
176
     1
 90
       50
176
     1
 90
       50
176
     1
 90
       50
176
     1
290
     0
176
     1
 90
       50
176
     1
 62
   256
176
     0
 40
1.0
176
     0
 90
        2
176
     1
  1
strokes_ogs.tif
176
     1
290
     0
176
     1
 40
1.0
176
     1
 40
1.0
176
     1
1001
ACAD
1000
AcDbSavedByObjectVersion
1070
     0
  0
VISUALSTYLE
  5
62AF
102
{ACAD_REACTORS
330
6297
102
}
330
6297
100
AcDbVisualStyle
  2

 70
    22
177
     3
291
     1
 70
    58
 90
        2
176
     0
 90
        2
176
     0
 90
        0
176
     0
 90
        0
176
     0
 40
0.6
176
     0
 40
30.0
176
     0
 62
     7
176
     0
 90
        1
176
     0
 90
        4
176
     0
 62
     7
176
     0
 62
   257
176
     0
 90
        1
176
     0
 90
        1
176
     0
 40
1.0
176
     0
 90
        8
176
     2
 62
     7
176
     0
 40
1.0
176
     0
 90
        1
176
     0
 90
        6
176
     0
 90
        2
176
     0
 62
     7
176
     0
 90
        5
176
     0
 90
        0
176
     0
 90
        0
176
     0
290
     0
176
     0
 90
        1
176
     0
 40
0.0
176
     0
 90
        0
176
     0
290
     0
176
     1
290
     1
176
     1
290
     1
176
     1
290
     0
176
     1
290
     0
176
     1
290
     0
176
     1
290
     0
176
     1
290
     0
176
     1
290
     0
176
     1
 90
       50
176
     0
 40
0.0
176
     0
 40
1.0
176
     0
 90
        0
176
     0
 62
    18
420
        0
176
     0
 90
       50
176
     0
 90
        3
176
     0
 62
     5
420
      255
176
     0
290
     0
176
     1
 90
       50
176
     0
 90
       50
176
     0
 90
       50
176
     0
290
     0
176
     1
 90
       50
176
     0
 62
   256
176
     0
 40
1.0
176
     0
 90
        2
176
     0
  1
strokes_ogs.tif
176
     0
290
     0
176
     1
 40
1.0
176
     0
 40
1.0
176
     0
1001
ACAD
1000
AcDbSavedByObjectVersion
1070
     0
  0
VISUALSTYLE
  5
62A6
102
{ACAD_REACTORS
330
6297
102
}
330
6297
100
AcDbVisualStyle
  2

 70
    15
177
     3
291
     1
 70
    58
 90
        2
176
     1
 90
        2
176
     1
 90
        0
176
     1
 90
        0
176
     1
 40
0.6
176
     1
 40
30.0
176
     1
 62
     7
176
     1
 90
        1
176
     1
 90
        4
176
     1
 62
     7
176
     1
 62
   257
176
     1
 90
        1
176
     1
 90
        1
176
     1
 40
1.0
176
     1
 90
        8
176
     1
 62
     7
176
     1
 40
1.0
176
     1
 90
        1
176
     1
 90
        6
176
     1
 90
        2
176
     1
 62
     7
176
     1
 90
        5
176
     1
 90
        0
176
     1
 90
        0
176
     1
290
     0
176
     1
 90
        1
176
     1
 40
0.0
176
     1
 90
        0
176
     1
290
     0
176
     1
290
     1
176
     1
290
     1
176
     1
290
     0
176
     1
290
     0
176
     1
290
     0
176
     1
290
     0
176
     1
290
     0
176
     1
290
     0
176
     1
 90
       50
176
     1
 40
0.0
176
     1
 40
1.0
176
     1
 90
        0
176
     1
 62
    18
420
        0
176
     1
 90
       50
176
     1
 90
        3
176
     1
 62
     5
420
      255
176
     1
290
     0
176
     1
 90
       50
176
     1
 90
       50
176
     1
 90
       50
176
     1
290
     0
176
     1
 90
       50
176
     1
 62
   256
176
     0
 40
1.0
176
     0
 90
        2
176
     1
  1
strokes_ogs.tif
176
     1
290
     0
176
     1
 40
1.0
176
     1
 40
1.0
176
     1
1001
ACAD
1000
AcDbSavedByObjectVersion
1070
     0
  0
VISUALSTYLE
  5
6298
102
{ACAD_REACTORS
330
6297
102
}
330
6297
100
AcDbVisualStyle
  2

 70
     0
177
     3
291
     1
 70
    58
 90
        2
176
     1
 90
        1
176
     1
 90
        1
176
     1
 90
        2
176
     1
 40
0.6
176
     1
 40
30.0
176
     1
 62
     7
176
     1
 90
        0
176
     1
 90
        0
176
     1
 62
     7
176
     1
 62
   257
176
     1
 90
        1
176
     1
 90
        1
176
     1
 40
1.0
176
     1
 90
        8
176
     1
 62
     7
176
     1
 40
1.0
176
     1
 90
        1
176
     1
 90
        6
176
     1
 90
        2
176
     1
 62
     7
176
     1
 90
        5
176
     1
 90
        0
176
     1
 90
        0
176
     1
290
     0
176
     1
 90
       13
176
     1
 40
0.0
176
     1
 90
        0
176
     1
290
     0
176
     1
290
     1
176
     1
290
     1
176
     1
290
     0
176
     1
290
     0
176
     1
290
     0
176
     1
290
     0
176
     1
290
     0
176
     1
290
     0
176
     1
 90
       50
176
     1
 40
0.0
176
     1
 40
1.0
176
     1
 90
        0
176
     1
 62
    18
420
        0
176
     1
 90
       50
176
     1
 90
        3
176
     1
 62
     5
420
      255
176
     1
290
     0
176
     1
 90
       50
176
     1
 90
       50
176
     1
 90
       50
176
     1
290
     0
176
     1
 90
       50
176
     1
 62
   256
176
     0
 40
1.0
176
     0
 90
        2
176
     1
  1
strokes_ogs.tif
176
     1
290
     0
176
     1
 40
1.0
176
     1
 40
1.0
176
     1
1001
ACAD
1000
AcDbSavedByObjectVersion
1070
     0
  0
VISUALSTYLE
  5
6299
102
{ACAD_REACTORS
330
6297
102
}
330
6297
100
AcDbVisualStyle
  2

 70
     1
177
     3
291
     1
 70
    58
 90
        2
176
     1
 90
        1
176
     1
 90
        1
176
     1
 90
        2
176
     1
 40
0.6
176
     1
 40
30.0
176
     1
 62
     7
176
     1
 90
        1
176
     1
 90
        0
176
     1
 62
     7
176
     1
 62
   257
176
     1
 90
        1
176
     1
 90
        1
176
     1
 40
1.0
176
     1
 90
        0
176
     1
 62
   257
176
     1
 40
1.0
176
     1
 90
        1
176
     1
 90
        6
176
     1
 90
        2
176
     1
 62
     7
176
     1
 90
        5
176
     1
 90
        0
176
     1
 90
        0
176
     1
290
     0
176
     1
 90
       13
176
     1
 40
0.0
176
     1
 90
        0
176
     1
290
     0
176
     1
290
     1
176
     1
290
     1
176
     1
290
     0
176
     1
290
     0
176
     1
290
     0
176
     1
290
     0
176
     1
290
     0
176
     1
290
     0
176
     1
 90
       50
176
     1
 40
0.0
176
     1
 40
1.0
176
     1
 90
        0
176
     1
 62
    18
420
        0
176
     1
 90
       50
176
     1
 90
        3
176
     1
 62
     5
420
      255
176
     1
290
     0
176
     1
 90
       50
176
     1
 90
       50
176
     1
 90
       50
176
     1
290
     0
176
     1
 90
       50
176
     1
 62
   256
176
     0
 40
1.0
176
     0
 90
        2
176
     1
  1
strokes_ogs.tif
176
     1
290
     0
176
     1
 40
1.0
176
     1
 40
1.0
176
     1
1001
ACAD
1000
AcDbSavedByObjectVersion
1070
     0
  0
VISUALSTYLE
  5
629A
102
{ACAD_REACTORS
330
6297
102
}
330
6297
100
AcDbVisualStyle
  2

 70
     2
177
     3
291
     1
 70
    58
 90
        2
176
     1
 90
        2
176
     1
 90
        1
176
     1
 90
        2
176
     1
 40
0.6
176
     1
 40
30.0
176
     1
 62
     7
176
     1
 90
        0
176
     1
 90
        0
176
     1
 62
     7
176
     1
 62
   257
176
     1
 90
        1
176
     1
 90
        1
176
     1
 40
1.0
176
     1
 90
        0
176
     1
 62
     7
176
     1
 40
1.0
176
     1
 90
        1
176
     1
 90
        6
176
     1
 90
        2
176
     1
 62
     7
176
     1
 90
        5
176
     1
 90
        0
176
     1
 90
        0
176
     1
290
     0
176
     1
 90
       13
176
     1
 40
0.0
176
     1
 90
        0
176
     1
290
     0
176
     1
290
     1
176
     1
290
     1
176
     1
290
     0
176
     1
290
     0
176
     1
290
     0
176
     1
290
     0
176
     1
290
     0
176
     1
290
     0
176
     1
 90
       50
176
     1
 40
0.0
176
     1
 40
1.0
176
     1
 90
        0
176
     1
 62
    18
420
        0
176
     1
 90
       50
176
     1
 90
        3
176
     1
 62
     5
420
      255
176
     1
290
     0
176
     1
 90
       50
176
     1
 90
       50
176
     1
 90
       50
176
     1
290
     0
176
     1
 90
       50
176
     1
 62
   256
176
     0
 40
1.0
176
     0
 90
        2
176
     1
  1
strokes_ogs.tif
176
     1
290
     0
176
     1
 40
1.0
176
     1
 40
1.0
176
     1
1001
ACAD
1000
AcDbSavedByObjectVersion
1070
     0
  0
VISUALSTYLE
  5
629B
102
{ACAD_REACTORS
330
6297
102
}
330
6297
100
AcDbVisualStyle
  2

 70
     3
177
     3
291
     1
 70
    58
 90
        2
176
     1
 90
        2
176
     1
 90
        1
176
     1
 90
        2
176
     1
 40
0.6
176
     1
 40
30.0
176
     1
 62
     7
176
     1
 90
        1
176
     1
 90
        0
176
     1
 62
     7
176
     1
 62
   257
176
     1
 90
        1
176
     1
 90
        1
176
     1
 40
1.0
176
     1
 90
        0
176
     1
 62
   257
176
     1
 40
1.0
176
     1
 90
        1
176
     1
 90
        6
176
     1
 90
        2
176
     1
 62
     7
176
     1
 90
        5
176
     1
 90
        0
176
     1
 90
        0
176
     1
290
     0
176
     1
 90
       13
176
     1
 40
0.0
176
     1
 90
        0
176
     1
290
     0
176
     1
290
     1
176
     1
290
     1
176
     1
290
     0
176
     1
290
     0
176
     1
290
     0
176
     1
290
     0
176
     1
290
     0
176
     1
290
     0
176
     1
 90
       50
176
     1
 40
0.0
176
     1
 40
1.0
176
     1
 90
        0
176
     1
 62
    18
420
        0
176
     1
 90
       50
176
     1
 90
        3
176
     1
 62
     5
420
      255
176
     1
290
     0
176
     1
 90
       50
176
     1
 90
       50
176
     1
 90
       50
176
     1
290
     0
176
     1
 90
       50
176
     1
 62
   256
176
     0
 40
1.0
176
     0
 90
        2
176
     1
  1
strokes_ogs.tif
176
     1
290
     0
176
     1
 40
1.0
176
     1
 40
1.0
176
     1
1001
ACAD
1000
AcDbSavedByObjectVersion
1070
     0
  0
VISUALSTYLE
  5
629F
102
{ACAD_REACTORS
330
6297
102
}
330
6297
100
AcDbVisualStyle
  2

 70
     6
177
     3
291
     0
 70
    58
 90
        1
176
     1
 90
        2
176
     1
 90
        2
176
     1
 90
        0
176
     1
 40
0.6
176
     1
 40
30.0
176
     1
 62
     7
176
     1
 90
        2
176
     1
 90
        2
176
     1
 62
     7
176
     1
 62
   257
176
     1
 90
        2
176
     1
 90
        1
176
     1
 40
40.0
176
     1
 90
        0
176
     1
 62
   257
176
     1
 40
1.0
176
     1
 90
        1
176
     1
 90
        6
176
     1
 90
        2
176
     1
 62
     7
176
     1
 90
        3
176
     1
 90
        0
176
     1
 90
        0
176
     1
290
     0
176
     1
 90
        1
176
     1
 40
0.0
176
     1
 90
        0
176
     1
290
     0
176
     1
290
     1
176
     1
290
     1
176
     1
290
     0
176
     1
290
     0
176
     1
290
     0
176
     1
290
     0
176
     1
290
     0
176
     1
290
     0
176
     1
 90
       50
176
     1
 40
0.0
176
     1
 40
1.0
176
     1
 90
        0
176
     1
 62
    18
420
        0
176
     1
 90
       50
176
     1
 90
        3
176
     1
 62
     5
420
      255
176
     1
290
     0
176
     1
 90
       50
176
     1
 90
       50
176
     1
 90
       50
176
     1
290
     0
176
     1
 90
       50
176
     1
 62
   256
176
     0
 40
1.0
176
     0
 90
        2
176
     1
  1
strokes_ogs.tif
176
     1
290
     0
176
     1
 40
1.0
176
     1
 40
1.0
176
     1
1001
ACAD
1000
AcDbSavedByObjectVersion
1070
     0
  0
VISUALSTYLE
  5
62AD
102
{ACAD_REACTORS
330
6297
102
}
330
6297
100
AcDbVisualStyle
  2

 70
    20
177
     3
291
     1
 70
    58
 90
        2
176
     0
 90
        2
176
     0
 90
        0
176
     0
 90
        0
176
     0
 40
0.6
176
     0
 40
30.0
176
     0
 62
     7
176
     0
 90
        1
176
     0
 90
        4
176
     0
 62
     7
176
     0
 62
   257
176
     0
 90
        1
176
     0
 90
        1
176
     0
 40
1.0
176
     0
 90
       10
176
     2
 62
     7
176
     0
 40
1.0
176
     0
 90
        1
176
     0
 90
        6
176
     0
 90
        2
176
     0
 62
     7
176
     0
 90
        5
176
     0
 90
        0
176
     0
 90
        0
176
     0
290
     0
176
     0
 90
        1
176
     0
 40
0.0
176
     0
 90
        0
176
     0
290
     0
176
     1
290
     1
176
     1
290
     1
176
     1
290
     0
176
     1
290
     0
176
     1
290
     0
176
     1
290
     0
176
     1
290
     0
176
     1
290
     0
176
     1
 90
       50
176
     0
 40
0.0
176
     0
 40
1.0
176
     0
 90
        0
176
     0
 62
    18
420
        0
176
     0
 90
       50
176
     0
 90
        3
176
     0
 62
     5
420
      255
176
     0
290
     0
176
     1
 90
       50
176
     0
 90
       50
176
     0
 90
       50
176
     0
290
     0
176
     1
 90
       50
176
     0
 62
   256
176
     0
 40
1.0
176
     0
 90
        2
176
     0
  1
strokes_ogs.tif
176
     0
290
     0
176
     1
 40
1.0
176
     0
 40
1.0
176
     0
1001
ACAD
1000
AcDbSavedByObjectVersion
1070
     0
  0
VISUALSTYLE
  5
62A5
102
{ACAD_REACTORS
330
6297
102
}
330
6297
100
AcDbVisualStyle
  2

 70
    14
177
     3
291
     1
 70
    58
 90
        2
176
     1
 90
        2
176
     1
 90
        0
176
     1
 90
        0
176
     1
 40
0.6
176
     1
 40
30.0
176
     1
 62
     7
176
     1
 90
        1
176
     1
 90
        4
176
     1
 62
     7
176
     1
 62
   257
176
     1
 90
        7
176
     1
 90
        7
176
     1
 40
1.0
176
     1
 90
        8
176
     1
 62
     7
176
     1
 40
1.0
176
     1
 90
        1
176
     1
 90
        6
176
     1
 90
        2
176
     1
 62
     7
176
     1
 90
        5
176
     1
 90
        0
176
     1
 90
        0
176
     1
290
     0
176
     1
 90
        1
176
     1
 40
0.0
176
     1
 90
        0
176
     1
290
     0
176
     1
290
     1
176
     1
290
     1
176
     1
290
     0
176
     1
290
     0
176
     1
290
     0
176
     1
290
     0
176
     1
290
     0
176
     1
290
     0
176
     1
 90
       50
176
     1
 40
0.0
176
     1
 40
1.0
176
     1
 90
        0
176
     1
 62
    18
420
        0
176
     1
 90
       50
176
     1
 90
        3
176
     1
 62
     5
420
      255
176
     1
290
     0
176
     1
 90
       50
176
     1
 90
       50
176
     1
 90
       50
176
     1
290
     0
176
     1
 90
       50
176
     1
 62
   256
176
     0
 40
1.0
176
     0
 90
        2
176
     1
  1
strokes_ogs.tif
176
     1
290
     0
176
     1
 40
1.0
176
     1
 40
1.0
176
     1
1001
ACAD
1000
AcDbSavedByObjectVersion
1070
     0
  0
VISUALSTYLE
  5
62AE
102
{ACAD_REACTORS
330
6297
102
}
330
6297
100
AcDbVisualStyle
  2

 70
    21
177
     3
291
     1
 70
    58
 90
        2
176
     0
 90
        2
176
     0
 90
        0
176
     0
 90
        0
176
     0
 40
0.6
176
     0
 40
30.0
176
     0
 62
     7
176
     0
 90
        1
176
     0
 90
        4
176
     0
 62
     7
176
     0
 62
   257
176
     0
 90
        1
176
     0
 90
        1
176
     0
 40
1.0
176
     0
 90
        9
176
     2
 62
     7
176
     0
 40
1.0
176
     0
 90
        1
176
     0
 90
        6
176
     0
 90
        2
176
     0
 62
     7
176
     0
 90
        5
176
     0
 90
        0
176
     0
 90
        0
176
     0
290
     0
176
     0
 90
        1
176
     0
 40
0.0
176
     0
 90
        0
176
     0
290
     0
176
     1
290
     1
176
     1
290
     1
176
     1
290
     0
176
     1
290
     0
176
     1
290
     0
176
     1
290
     0
176
     1
290
     0
176
     1
290
     0
176
     1
 90
       50
176
     0
 40
0.0
176
     0
 40
1.0
176
     0
 90
        0
176
     0
 62
    18
420
        0
176
     0
 90
       50
176
     0
 90
        3
176
     0
 62
     5
420
      255
176
     0
290
     0
176
     1
 90
       50
176
     0
 90
       50
176
     0
 90
       50
176
     0
290
     0
176
     1
 90
       50
176
     0
 62
   256
176
     0
 40
1.0
176
     0
 90
        2
176
     0
  1
strokes_ogs.tif
176
     0
290
     0
176
     1
 40
1.0
176
     0
 40
1.0
176
     0
1001
ACAD
1000
AcDbSavedByObjectVersion
1070
     0
  0
VISUALSTYLE
  5
62A1
102
{ACAD_REACTORS
330
6297
102
}
330
6297
100
AcDbVisualStyle
  2

 70
     8
177
     3
291
     0
 70
    58
 90
        2
176
     1
 90
        3
176
     1
 90
        0
176
     1
 90
        2
176
     1
 40
0.6
176
     1
 40
30.0
176
     1
 62
     7
176
     1
 90
        0
176
     1
 90
        0
176
     1
 62
     7
176
     1
 62
   257
176
     1
 90
        1
176
     1
 90
        1
176
     1
 40
1.0
176
     1
 90
        8
176
     1
 62
   257
176
     1
 40
1.0
176
     1
 90
        1
176
     1
 90
        6
176
     1
 90
        2
176
     1
 62
     7
176
     1
 90
        3
176
     1
 90
        0
176
     1
 90
        0
176
     1
290
     0
176
     1
 90
       13
176
     1
 40
0.0
176
     1
 90
        0
176
     1
290
     0
176
     1
290
     1
176
     1
290
     1
176
     1
290
     0
176
     1
290
     0
176
     1
290
     0
176
     1
290
     0
176
     1
290
     0
176
     1
290
     0
176
     1
 90
       50
176
     1
 40
0.0
176
     1
 40
1.0
176
     1
 90
        0
176
     1
 62
    18
420
        0
176
     1
 90
       50
176
     1
 90
        3
176
     1
 62
     5
420
      255
176
     1
290
     0
176
     1
 90
       50
176
     1
 90
       50
176
     1
 90
       50
176
     1
290
     0
176
     1
 90
       50
176
     1
 62
   256
176
     0
 40
1.0
176
     0
 90
        2
176
     1
  1
strokes_ogs.tif
176
     1
290
     0
176
     1
 40
1.0
176
     1
 40
1.0
176
     1
1001
ACAD
1000
AcDbSavedByObjectVersion
1070
     0
  0
VISUALSTYLE
  5
62AC
102
{ACAD_REACTORS
330
6297
102
}
330
6297
100
AcDbVisualStyle
  2

 70
    27
177
     3
291
     0
 70
    58
 90
        2
176
     1
 90
        2
176
     1
 90
        1
176
     1
 90
        2
176
     1
 40
0.6
176
     1
 40
30.0
176
     1
 62
     7
176
     1
 90
        0
176
     1
 90
        4
176
     1
 62
     7
176
     1
 62
   257
176
     1
 90
        1
176
     1
 90
        1
176
     1
 40
1.0
176
     1
 90
        8
176
     1
 62
   257
176
     1
 40
1.0
176
     1
 90
        1
176
     1
 90
        6
176
     1
 90
        2
176
     1
 62
     8
176
     1
 90
        3
176
     1
 90
        0
176
     1
 90
        0
176
     1
290
     0
176
     1
 90
        5
176
     1
 40
0.0
176
     1
 90
        0
176
     1
290
     0
176
     1
290
     1
176
     1
290
     1
176
     1
290
     0
176
     1
290
     0
176
     1
290
     0
176
     1
290
     0
176
     1
290
     0
176
     1
290
     0
176
     1
 90
       50
176
     1
 40
0.0
176
     1
 40
1.0
176
     1
 90
        0
176
     1
 62
    18
420
        0
176
     1
 90
       50
176
     1
 90
        3
176
     1
 62
     5
420
      255
176
     1
290
     0
176
     1
 90
       50
176
     1
 90
       50
176
     1
 90
       50
176
     1
290
     0
176
     1
 90
       50
176
     1
 62
   256
176
     0
 40
1.0
176
     0
 90
        2
176
     1
  1
strokes_ogs.tif
176
     1
290
     0
176
     1
 40
1.0
176
     1
 40
1.0
176
     1
1001
ACAD
1000
AcDbSavedByObjectVersion
1070
     0
  0
VISUALSTYLE
  5
62AB
102
{ACAD_REACTORS
330
6297
102
}
330
6297
100
AcDbVisualStyle
  2

 70
    26
177
     3
291
     0
 70
    58
 90
        2
176
     1
 90
        2
176
     1
 90
        1
176
     1
 90
        2
176
     1
 40
0.6
176
     1
 40
30.0
176
     1
 62
     7
176
     1
 90
        1
176
     1
 90
       10
176
     1
 62
     7
176
     1
 62
   257
176
     1
 90
        2
176
     1
 90
        1
176
     1
 40
1.0
176
     1
 90
        8
176
     1
 62
   257
176
     1
 40
1.0
176
     1
 90
        1
176
     1
 90
        6
176
     1
 90
        2
176
     1
 62
     7
176
     1
 90
        3
176
     1
 90
        0
176
     1
 90
        0
176
     1
290
     0
176
     1
 90
        5
176
     1
 40
0.0
176
     1
 90
        0
176
     1
290
     0
176
     1
290
     1
176
     1
290
     1
176
     1
290
     0
176
     1
290
     0
176
     1
290
     0
176
     1
290
     0
176
     1
290
     0
176
     1
290
     0
176
     1
 90
       50
176
     1
 40
0.0
176
     1
 40
1.0
176
     1
 90
        0
176
     1
 62
    18
420
        0
176
     1
 90
       50
176
     1
 90
        3
176
     1
 62
     5
420
      255
176
     1
290
     0
176
     1
 90
       50
176
     1
 90
       50
176
     1
 90
       50
176
     1
290
     0
176
     1
 90
       50
176
     1
 62
   256
176
     0
 40
1.0
176
     0
 90
        2
176
     1
  1
strokes_ogs.tif
176
     1
290
     0
176
     1
 40
1.0
176
     1
 40
1.0
176
     1
1001
ACAD
1000
AcDbSavedByObjectVersion
1070
     0
  0
VISUALSTYLE
  5
62A8
102
{ACAD_REACTORS
330
6297
102
}
330
6297
100
AcDbVisualStyle
  2

 70
    23
177
     3
291
     0
 70
    58
 90
        2
176
     1
 90
        2
176
     1
 90
        3
176
     1
 90
        0
176
     1
 40
0.6
176
     1
 40
30.0
176
     1
 62
     7
176
     1
 90
        2
176
     1
 90
        2
176
     1
 62
     7
176
     1
 62
     7
176
     1
 90
        1
176
     1
 90
        1
176
     1
 40
40.0
176
     1
 90
        8
176
     1
 62
     7
176
     1
 40
1.0
176
     1
 90
        1
176
     1
 90
        6
176
     1
 90
        2
176
     1
 62
     7
176
     1
 90
        3
176
     1
 90
        0
176
     1
 90
        0
176
     1
290
     0
176
     1
 90
        1
176
     1
 40
0.0
176
     1
 90
        0
176
     1
290
     0
176
     1
290
     1
176
     1
290
     1
176
     1
290
     0
176
     1
290
     0
176
     1
290
     0
176
     1
290
     0
176
     1
290
     0
176
     1
290
     0
176
     1
 90
       50
176
     1
 40
0.0
176
     1
 40
1.0
176
     1
 90
        0
176
     1
 62
    18
420
        0
176
     1
 90
       50
176
     1
 90
        3
176
     1
 62
     5
420
      255
176
     1
290
     0
176
     1
 90
       50
176
     1
 90
       50
176
     1
 90
       50
176
     1
290
     0
176
     1
 90
       50
176
     1
 62
   256
176
     0
 40
1.0
176
     0
 90
        2
176
     1
  1
strokes_ogs.tif
176
     1
290
     0
176
     1
 40
1.0
176
     1
 40
1.0
176
     1
1001
ACAD
1000
AcDbSavedByObjectVersion
1070
     0
  0
VISUALSTYLE
  5
62A9
102
{ACAD_REACTORS
330
6297
102
}
330
6297
100
AcDbVisualStyle
  2

 70
    24
177
     3
291
     0
 70
    58
 90
        1
176
     1
 90
        2
176
     1
 90
        2
176
     1
 90
        0
176
     1
 40
0.6
176
     1
 40
30.0
176
     1
 62
     7
176
     1
 90
        2
176
     1
 90
        2
176
     1
 62
     7
176
     1
 62
     7
176
     1
 90
        1
176
     1
 90
        1
176
     1
 40
40.0
176
     1
 90
       11
176
     1
 62
     7
176
     1
 40
1.0
176
     1
 90
        1
176
     1
 90
        6
176
     1
 90
        2
176
     1
 62
     7
176
     1
 90
        6
176
     1
 90
        0
176
     1
 90
        0
176
     1
290
     0
176
     1
 90
        1
176
     1
 40
0.0
176
     1
 90
        0
176
     1
290
     0
176
     1
290
     1
176
     1
290
     1
176
     1
290
     0
176
     1
290
     0
176
     1
290
     0
176
     1
290
     0
176
     1
290
     0
176
     1
290
     0
176
     1
 90
       50
176
     1
 40
0.0
176
     1
 40
1.0
176
     1
 90
        0
176
     1
 62
    18
420
        0
176
     1
 90
       50
176
     1
 90
        3
176
     1
 62
     5
420
      255
176
     1
290
     0
176
     1
 90
       50
176
     1
 90
       50
176
     1
 90
       50
176
     1
290
     0
176
     1
 90
       50
176
     1
 62
   256
176
     0
 40
1.0
176
     0
 90
        2
176
     1
  1
strokes_ogs.tif
176
     1
290
     0
176
     1
 40
1.0
176
     1
 40
1.0
176
     1
1001
ACAD
1000
AcDbSavedByObjectVersion
1070
     0
  0
VISUALSTYLE
  5
62A4
102
{ACAD_REACTORS
330
6297
102
}
330
6297
100
AcDbVisualStyle
  2

 70
    13
177
     3
291
     1
 70
    58
 90
        2
176
     1
 90
        2
176
     1
 90
        0
176
     1
 90
        0
176
     1
 40
0.6
176
     1
 40
30.0
176
     1
 62
     7
176
     1
 90
        1
176
     1
 90
        4
176
     1
 62
     7
176
     1
 62
   257
176
     1
 90
        1
176
     1
 90
        1
176
     1
 40
1.0
176
     1
 90
       12
176
     1
 62
     7
176
     1
 40
1.0
176
     1
 90
        1
176
     1
 90
        6
176
     1
 90
        2
176
     1
 62
     7
176
     1
 90
        5
176
     1
 90
        0
176
     1
 90
        0
176
     1
290
     0
176
     1
 90
        1
176
     1
 40
0.0
176
     1
 90
        0
176
     1
290
     0
176
     1
290
     1
176
     1
290
     1
176
     1
290
     0
176
     1
290
     0
176
     1
290
     0
176
     1
290
     0
176
     1
290
     0
176
     1
290
     0
176
     1
 90
       50
176
     1
 40
0.0
176
     1
 40
1.0
176
     1
 90
        0
176
     1
 62
    18
420
        0
176
     1
 90
       50
176
     1
 90
        3
176
     1
 62
     5
420
      255
176
     1
290
     0
176
     1
 90
       50
176
     1
 90
       50
176
     1
 90
       50
176
     1
290
     0
176
     1
 90
       50
176
     1
 62
   256
176
     0
 40
1.0
176
     0
 90
        2
176
     1
  1
strokes_ogs.tif
176
     1
290
     0
176
     1
 40
1.0
176
     1
 40
1.0
176
     1
1001
ACAD
1000
AcDbSavedByObjectVersion
1070
     0
  0
VISUALSTYLE
  5
629E
102
{ACAD_REACTORS
330
6297
102
}
330
6297
100
AcDbVisualStyle
  2

 70
     5
177
     3
291
     0
 70
    58
 90
        0
176
     1
 90
        2
176
     1
 90
        0
176
     1
 90
        0
176
     1
 40
0.6
176
     1
 40
30.0
176
     1
 62
     7
176
     1
 90
        1
176
     1
 90
        4
176
     1
 62
     7
176
     1
 62
   257
176
     1
 90
        1
176
     1
 90
        1
176
     1
 40
1.0
176
     1
 90
        0
176
     1
 62
   257
176
     1
 40
1.0
176
     1
 90
        1
176
     1
 90
        6
176
     1
 90
        2
176
     1
 62
     7
176
     1
 90
        3
176
     1
 90
        0
176
     1
 90
        0
176
     1
290
     0
176
     1
 90
        1
176
     1
 40
0.0
176
     1
 90
        0
176
     1
290
     0
176
     1
290
     1
176
     1
290
     1
176
     1
290
     0
176
     1
290
     0
176
     1
290
     0
176
     1
290
     0
176
     1
290
     0
176
     1
290
     0
176
     1
 90
       50
176
     1
 40
0.0
176
     1
 40
1.0
176
     1
 90
        0
176
     1
 62
    18
420
        0
176
     1
 90
       50
176
     1
 90
        3
176
     1
 62
     5
420
      255
176
     1
290
     0
176
     1
 90
       50
176
     1
 90
       50
176
     1
 90
       50
176
     1
290
     0
176
     1
 90
       50
176
     1
 62
   256
176
     0
 40
1.0
176
     0
 90
        2
176
     1
  1
strokes_ogs.tif
176
     1
290
     0
176
     1
 40
1.0
176
     1
 40
1.0
176
     1
1001
ACAD
1000
AcDbSavedByObjectVersion
1070
     0
  0
VISUALSTYLE
  5
62AA
102
{ACAD_REACTORS
330
6297
102
}
330
6297
100
AcDbVisualStyle
  2

 70
    25
177
     3
291
     0
 70
    58
 90
        2
176
     1
 90
        2
176
     1
 90
        1
176
     1
 90
        1
176
     1
 40
0.5
176
     1
 40
30.0
176
     1
 62
     7
176
     1
 90
        1
176
     1
 90
        0
176
     1
 62
     7
176
     1
 62
   257
176
     1
 90
        1
176
     1
 90
        1
176
     1
 40
1.0
176
     1
 90
        8
176
     1
 62
     7
176
     1
 40
1.0
176
     1
 90
        1
176
     1
 90
        6
176
     1
 90
        2
176
     1
 62
     7
176
     1
 90
        3
176
     1
 90
        0
176
     1
 90
        0
176
     1
290
     0
176
     1
 90
       13
176
     1
 40
0.0
176
     1
 90
        0
176
     1
290
     0
176
     1
290
     1
176
     1
290
     1
176
     1
290
     0
176
     1
290
     0
176
     1
290
     0
176
     1
290
     0
176
     1
290
     0
176
     1
290
     0
176
     1
 90
       50
176
     1
 40
0.0
176
     1
 40
1.0
176
     1
 90
        0
176
     1
 62
    18
420
        0
176
     1
 90
       50
176
     1
 90
        3
176
     1
 62
     5
420
      255
176
     1
290
     0
176
     1
 90
       50
176
     1
 90
       50
176
     1
 90
       50
176
     1
290
     0
176
     1
 90
       50
176
     1
 62
   256
176
     0
 40
1.0
176
     0
 90
        2
176
     1
  1
strokes_ogs.tif
176
     1
290
     0
176
     1
 40
1.0
176
     1
 40
1.0
176
     1
1001
ACAD
1000
AcDbSavedByObjectVersion
1070
     0
  0
DICTIONARYVAR
  5
6384
102
{ACAD_REACTORS
330
5697
102
}
330
5697
100
DictionaryVariables
280
     0
  1
1:1
  0
DICTIONARYVAR
  5
6381
102
{ACAD_REACTORS
330
5697
102
}
330
5697
100
DictionaryVariables
280
     0
  1
STANDARD
  0
DICTIONARYVAR
  5
6380
102
{ACAD_REACTORS
330
5697
102
}
330
5697
100
DictionaryVariables
280
     0
  1
STANDARD
  0
DICTIONARYVAR
  5
6382
102
{ACAD_REACTORS
330
5697
102
}
330
5697
100
DictionaryVariables
280
     0
  1
Imperial24
  0
DICTIONARYVAR
  5
6383
102
{ACAD_REACTORS
330
5697
102
}
330
5697
100
DictionaryVariables
280
     0
  1
Imperial24
  0
DICTIONARYVAR
  5
5698
102
{ACAD_REACTORS
330
5697
102
}
330
5697
100
DictionaryVariables
280
     0
  1
1
  0
DICTIONARYVAR
  5
6386
102
{ACAD_REACTORS
330
5697
102
}
330
5697
100
DictionaryVariables
280
     0
  1
0
  0
DICTIONARYVAR
  5
66D4
102
{ACAD_REACTORS
330
5697
102
}
330
5697
100
DictionaryVariables
280
     0
  1
1
  0
DICTIONARYVAR
  5
66D5
102
{ACAD_REACTORS
330
5697
102
}
330
5697
100
DictionaryVariables
280
     0
  1
15
  0
DICTIONARYVAR
  5
66D3
102
{ACAD_REACTORS
330
5697
102
}
330
5697
100
DictionaryVariables
280
     0
  1
0
  0
DICTIONARYVAR
  5
66D2
102
{ACAD_REACTORS
330
5697
102
}
330
5697
100
DictionaryVariables
280
     0
  1
0
  0
DICTIONARYVAR
  5
6385
102
{ACAD_REACTORS
330
5697
102
}
330
5697
100
DictionaryVariables
280
     0
  1
127
  0
DICTIONARY
  5
66D9
330
62CA
100
AcDbDictionary
280
     1
281
     1
  3
ACAD_XREC_ROUNDTRIP
360
66DA
  0
DICTIONARY
  5
6288
330
6287
100
AcDbDictionary
280
     1
281
     1
  3
ACAD_XREC_ROUNDTRIP
360
64A9
  3
BUMPTILE
360
628A
  3
DIFFUSETILE
360
6289
  3
OPACITYTILE
360
628D
  3
REFLECTIONTILE
360
628C
  3
REFRACTIONTILE
360
628E
  3
SPECULARTILE
360
628B
  0
DICTIONARY
  5
6280
330
627F
100
AcDbDictionary
280
     1
281
     1
  3
ACAD_XREC_ROUNDTRIP
360
64A8
  3
BUMPTILE
360
6282
  3
DIFFUSETILE
360
6281
  3
OPACITYTILE
360
6285
  3
REFLECTIONTILE
360
6284
  3
REFRACTIONTILE
360
6286
  3
SPECULARTILE
360
6283
  0
DICTIONARY
  5
6290
330
628F
100
AcDbDictionary
280
     1
281
     1
  3
ACAD_XREC_ROUNDTRIP
360
64AA
  3
BUMPTILE
360
6292
  3
DIFFUSETILE
360
6291
  3
FBXASSET
360
63D7
  3
OPACITYTILE
360
6295
  3
REFLECTIONTILE
360
6294
  3
REFRACTIONTILE
360
6296
  3
SPECULARTILE
360
6293
  0
DICTIONARY
  5
66D7
330
62C8
100
AcDbDictionary
280
     1
281
     1
  3
ACAD_XREC_ROUNDTRIP
360
66D8
  0
DICTIONARY
  5
649A
330
62B2
100
AcDbDictionary
280
     1
281
     1
  3
ACAD_ROUNDTRIP_2008_TABLESTYLE_CELLSTYLEMAP
360
66D6
  0
XRECORD
  5
66DA
102
{ACAD_REACTORS
330
66D9
102
}
330
66D9
100
AcDbXrecord
280
     1
102
DISPLAYNAME
  1
Imperial24
102
FLAGS
 90
        0
  0
XRECORD
  5
64A9
102
{ACAD_REACTORS
330
6288
102
}
330
6288
100
AcDbXrecord
280
     1
102
MATERIAL
148
0.0
149
0.0
149
0.0
 93
        0
 94
      127
282
     0
 72
     0
 77
     0
171
     0
175
     0
179
     0
273
     0
  0
XRECORD
  5
628A
102
{ACAD_REACTORS
330
6288
102
}
330
6288
100
AcDbXrecord
280
     1
270
     1
271
     1
  0
XRECORD
  5
6289
102
{ACAD_REACTORS
330
6288
102
}
330
6288
100
AcDbXrecord
280
     1
270
     1
271
     1
  0
XRECORD
  5
628D
102
{ACAD_REACTORS
330
6288
102
}
330
6288
100
AcDbXrecord
280
     1
270
     1
271
     1
  0
XRECORD
  5
628C
102
{ACAD_REACTORS
330
6288
102
}
330
6288
100
AcDbXrecord
280
     1
270
     1
271
     1
  0
XRECORD
  5
628E
102
{ACAD_REACTORS
330
6288
102
}
330
6288
100
AcDbXrecord
280
     1
270
     1
271
     1
  0
XRECORD
  5
628B
102
{ACAD_REACTORS
330
6288
102
}
330
6288
100
AcDbXrecord
280
     1
270
     1
271
     1
  0
XRECORD
  5
64A8
102
{ACAD_REACTORS
330
6280
102
}
330
6280
100
AcDbXrecord
280
     1
102
MATERIAL
148
0.0
149
0.0
149
0.0
 93
        0
 94
      127
282
     0
 72
     0
 77
     0
171
     0
175
     0
179
     0
273
     0
  0
XRECORD
  5
6282
102
{ACAD_REACTORS
330
6280
102
}
330
6280
100
AcDbXrecord
280
     1
270
     1
271
     1
  0
XRECORD
  5
6281
102
{ACAD_REACTORS
330
6280
102
}
330
6280
100
AcDbXrecord
280
     1
270
     1
271
     1
  0
XRECORD
  5
6285
102
{ACAD_REACTORS
330
6280
102
}
330
6280
100
AcDbXrecord
280
     1
270
     1
271
     1
  0
XRECORD
  5
6284
102
{ACAD_REACTORS
330
6280
102
}
330
6280
100
AcDbXrecord
280
     1
270
     1
271
     1
  0
XRECORD
  5
6286
102
{ACAD_REACTORS
330
6280
102
}
330
6280
100
AcDbXrecord
280
     1
270
     1
271
     1
  0
XRECORD
  5
6283
102
{ACAD_REACTORS
330
6280
102
}
330
6280
100
AcDbXrecord
280
     1
270
     1
271
     1
  0
XRECORD
  5
64AA
102
{ACAD_REACTORS
330
6290
102
}
330
6290
100
AcDbXrecord
280
     1
102
MATERIAL
148
0.0
149
0.0
149
0.0
 93
        0
 94
      127
282
     0
 72
     0
 77
     0
171
     0
175
     0
179
     0
273
     0
  0
XRECORD
  5
6292
102
{ACAD_REACTORS
330
6290
102
}
330
6290
100
AcDbXrecord
280
     1
270
     1
271
     1
  0
XRECORD
  5
6291
102
{ACAD_REACTORS
330
6290
102
}
330
6290
100
AcDbXrecord
280
     1
270
     1
271
     1
  0
XRECORD
  5
63D7
102
{ACAD_REACTORS
330
6290
102
}
330
6290
100
AcDbXrecord
280
     1
 70
     1
 90
652598616
 71
     1
  1
E9D7140A-5182-4D1A-8DAF-B29BB4741B8E
311
504B030414000608080054756A488F956FB8DA000000200100004F00000046353733343737332D383136372D343130432D424146432D4533333435423933463535312F4173736574446174612F446566696E6974696F6E4974657261746F7250726F706572746965732E62696E454E3D6FC23010753B5075E8C03F40ECAE3F
311
B00244404580742A0B9DBAA0C31C6924C741B62375ECD87FDDDA828A93DEBDFB7C773F8490DFABC590DC457C47FF14F9152DBA5AEFF42736407AA962DA0398875BEF3E86295DE3093A13D2D65BED351A0316DBCEF76FA38306429403F39C961E23FE0B3E29549763E9FE3622BD94188EE7FC05BCC73067A7C317DB2C0BB91E
311
97059D8A72495526059D64AB0D559372C5A75C48A10AE6D0B79DD3E899647C7F55DE9F6D85F3A17618FF380E17928B8CF21115FC5DA85CC95C898F190B75838B990FAEB6D5C042F307504B030414000608080054756A4803B7991C25010000300200004500000046353733343737332D383136372D343130432D424146432D
311
4533333435423933463535312F4173736574446174612F496E7374616E636550726F706572746965732E62696EEB606060F80F0540260323103700495E20ED9E9A975A94991C9C9C919A9BA8021470B5743137343170D43535B430D235713174D4B5707174D37532B274723231373174B270654768046931363471713532B5
311
D435353131D635313332D475727372D13534373670367376B67474B5042A03DBCBA019D37FE8ABC6157B20CD04146B0062181F4C03F940F0C11EA29A8141C08141002C0426541C106CAC2CA046088033B02A030AC2157C6006F21A8018AAF50194E6010A610250382264E08660284CD9E98021862280A91564B406929A0FF6
311
2C401E28B6F88038B83CB1243943D7A928312F25350524B3C02C4569470543830283ACF88FBF3DB61C40311088E1284984B018181CCA2FD882D8E5AC3011042D9DFC8661F2C4979ED316F5CD64ADB3B90D930100504B030414000608080054756A4828BB58AF800100009E0500003D00000046353733343737332D38313637
311
2D343130432D424146432D4533333435423933463535312F536368656D61732F436F6D6D6F6E536368656D612E786D6CBD544D4FC23018BEFB2B96DE15493C78601010A34B880709DEDFB52FD0D8B54BD70DF6EFED3AC0B12E6442E2716BFB3CEFF3D18E26FB440405EA8C2B1992E1C323095052C5B8DC842437EBFB673219
311
DF8DA659866649B798C078B48AE6410122242F2A4994AC7F93815DF85C049C8564CA0A901499DD886B2EB9B1E02448F358701A9235880C49A0119892A20C89D1B9FD768815CAD268CB5E0355B40B1E47F3E37A2020464BED06AA57CE8FCC20C3C3446D46761A2632A8C1283D07031EFF2AE7CCB1BFEEE916E406DFAC8E36FF
311
D99A9D60A6944090EEDC3B670C7DC13DE86B6B2C5C240D6E503BB85ACD579D513F1B9F9A69DC9CC22AFA80C426D40AF0B21EA168559156B6276F0F726A6BFF04DCD513A87A62CAD41FB24FCB2858B3952E3D852084DA25B9303C15687973CC8E8AAE11DF2836C38C6A9E765E8C1BA1BFB1DC29CDFE518C8B5A7655A4ED7E77
311
291ABEB80DBD82EC866ADE1B8D05AF9E35CF09D7A061F38A986D9EC412B8F0F65E5D81534D9B231D1E5A8FE577A241F3A5FD01504B030414000608080054756A482CCEBD668A040000E01200003E00000046353733343737332D383136372D343130432D424146432D4533333435423933463535312F536368656D61732F47
311
656E65726963536368656D612E786D6CD5586D6FDB380CFE7EBF42F0F7A649B70E1B90744856B4970F450FCD7A5F05459613EDE4174872DADCAF3F522F8ED3B88D2F1D06AC4050DBA2493EE4438AF2F8EB73AEC8466823CB62928C06C384888297A92C5693A4B6D9D9E7E4EBD51FE3A931C22EF85AE4EC6AFC38BF261BA626
311
C9AD288496DC3F4FCEAFC63366845F7A10452AF41DB320C0D44EC26EAB20918735565582695670811A6A49643A49A6E9069FA4604A64B29016DC4B48552F95E4932463CA888468C1D2B250DB4962750DF7CE273069CE8363F1FF4EDB00E0A21999574AE4A2B00C353B93F3BD4777B8A61ED8F604ABFEDD79CE56A2B7BDFBDB
311
C50996E0ADDE16FED26223C5D30956C29BDF4A55EA686E5E58B112DA45CE67F76F4FA27EFA3FB672FD7372FC388FAECDCA5209E693CAD167BADCD272F943701B3812F8A3D852008B1D2E32DB927B2F833C6EA95879925356D254582695095A3CE982924720BE5774A3CB9CDCDB350427D2DF20DA1B5532EBE2D5D6288D75D4
311
F7E4FD9890A0EF8E3D93EBB8F8BA4758158EF6FB90A6F9520281C93DE7AAC6D24607DA296BB96018123F821A7D6A5C5884050C475DA4865442732C8B95684A50165CBB3A32F25F783A4A480ED59AD7F924B968AEA50131F46303223E6A397B0E52976030DC1DCA81D7E7C1EDEEA42C19FF27635C505E2BD5198A599020DF50
311
A2330FCB3AAF28CB0124108429553EF1B228802E2265D8F7CC2401042B155BCC7070F1E5C55F13B4A9577362CCCE46C32174E010C3C378C44841A4BDA00FE3A12006CE11EE6AEC59894D3526DDE1CD59D503ECC324017F8061B7F162162FA62EDD81AE3308617770796DCBDAD2B2625C5AE8A63DE20B2C8AA5E95E76E57308
311
23955956E33E705425A2187C185D36489A1B44D3DCEC2172F6BA2105C3546287A7194B2331768EBBE64F6E70A9930ABE0ADEA89E9E2C38523B810287AD67A54A039C1606EAFE68F8304610BB9093DBDDABC0B2AE4E290DCDA15376D7E39F72B556F0B32EAB5D3D498B4C41ABADEC3A1434C422D87E8025A84BDCB2B1417ED7
311
50FAE4DA8976863974C577C7F902D3F156AD354DEA3540DE6BEAE2BEA52F7A2EB4CA43802ECE5BF2CE2EDC9347179FFB023CE412E60BE16DA0BE29B374988A553F561DC04615DD35F7D2C8979F60E5955CE93DF29DED8AFA1EE6642D53418086C03C47C377910F75F7E8F5EF665F70B60FFB22AEDF897D119E8423C773E819
311
A3C1E55E550599EE6EDCA34D0C86FD72057DF2CD46F16A470682471C164E4346D5306BF12D7D12D82CFF673D41636C347443FEB51B50D72EA171A8E4A58623A4A16E0FA2B8B10A0D23268D87C33896EE8FB73305A74BF224EDBADFA0BD674AB354D63DB7BD5D83426761C077DE767728235446A552754EB93B755891C3C4CC
311
6CADE37CF0E912A7BB38DBA010F9DE1282EDF470CA69A9CDA482E334C4A6EA4107987980B17E72F31730EBF88BBD39E7C629F56797A3C0009C2C5AE7951D9A05A02773440F02EEB4DE396A3B6A570C72CCFBCD823B0B8ED3F1D5CEDDFED772FA70236C83FB7D86C385D570B87107535572A60A96035F8F7C6A7192F1300724
311
6BBE0521855E6AC46F3E27689CEE7D186A6FD679D98CDCAD13333E04EBE7ED6F55FF01504B030414000608080054756A486180134D5F0100006B0300004500000046353733343737332D383136372D343130432D424146432D4533333435423933463535312F536368656D61732F52656E6465724D6174657269616C536368
311
656D612E786D6CA5934D6FC2300C86EFFB1551EEE343DBA41D1A103009551ADAD40EAE28A4A68D9426284961FCFBE5A340113B2071746D3F765EBF4DC6BFB5407BD0862B49F0B037C0082453059725C18DDD3EBFE3F1E829991803366715D474942CD30FB4A782E00C64017A412D684E454CE3FE28995203B162A6EA5AC94B
311
66997D225E109CD63B0135484BAD1B3C07E9080CA35DB3119C11BCA5C200461A68A1A438126C75E3E230D40FF81FB3F03C91D1E3A3A0AF79FE28E25BC39EC3E17E4C2A2D94A0833A51AF55BCCA7D88572FCBAC529C4140B020FC3AAFA886621DCED7EAD7664CC86024E806DC297DA1BB393E4156543457A4537DB8817349A7
311
0F8ACBF09B3EEE2CB2F33E91B65D60786E4E3B39B77E3FEEEF5650424525DA657FB8B46BE6BF064646F0A0F7327C0BC1BC1B4CBBC1C419FA3CCB23500007872A2580CAAE5461865565294E4EDB4617B62FF579DF9A5B2F54E834076A597573A020912FED777F9B3F504B030414000608080054756A4801B3D6125100000057
311
0000004700000046353733343737332D383136372D343130432D424146432D4533333435423933463535312F4173736574446174612F41737365745461626C654F66436F6E74656E74732E62696E5361606070B5743137343170D43535B430D235713174D4B5707174D37532B274723231373174B2701502AACB4D2C492DCA
311
4CCC492C28484D2C4ACC4B4E050A82012F90744FCD03CA26072767A4E6260200504B030414000608080054756A48F865834058000000680000004500000046353733343737332D383136372D343130432D424146432D4533333435423933463535312F4173736574446174612F53747265616D56657273696F6E5461626C65
311
2E696E66558CBD0A80300C06F73E4B117FB66E451741D041DC5BF98480A492E4FDD18EAEC7DD4555D89EF28DF51A0B1BD8340C4DE7DD848B988C0ACF0649566493F2408C508DDEBB99D5129FF8F1AF8CF5B9503E20FAE5A16B5AF702504B030414000608080054756A48204BF1A8340100009A040000360000004635373334
311
3737332D383136372D343130432D424146432D4533333435423933463535312F4173736574446174612F636E782E786D6CCD94314FC3301085FF4AE43D76522A842AC71582A51348540C6C57E752AC3A76645F10FC7BEC3603A8882943D6F3BBF3F327BF93DBCFDE161F18A2F1AE6135AF58814EFBD6B863C346EACA3B566C
311
950CDED30F192B1CF4D8B05C664A1E831F87A9D46207A3CD556BDC692ADEC788B48783C5A7EEC13B42479115DA428C0D8BFA1D7BE030926F319E780B04BCE601A31F83C634894C8FD3241D10085BA656557D5B5637655DEDEBF566BDDAACEB3729B252C983F776D29B7459F043A12FB7325549918F951C839934F92D4CFDE5
311
911F8C932229958C141293A983BE86D401C3608D064AE884D784542611422FC545ACA4C80C7E9178C4CE38935B76C918900FCFC91E0632B83822FF799D9FCCCE4502A771B93CAE1DCE4FE1E5FC835E2F813C27666939B976C88DEB66488938AF91149ABC55D437504B030414000608080054756A48EB7DE2A2080100004F03
311
00003400000046353733343737332D383136372D343130432D424146432D4533333435423933463535312F536368656D61732F636E782E786D6CCD93BD4E042114855F85D0EF30AC1363360C5B5858D9A8951DC2DD952C7027FC187D7B61A4D84DECB4D80E0E5FC839878BD87F7A473E20268B61A67C182981A0D1D8709C69
311
C987CD1D257B2922623EC32809CAC34C9B4CA538462C4B970C1C54714D75369CBA788FDE6378D6EFE01525DAA994669AD6EDA04A4603E9341895D5C08708094BD4506FC8D643BF414750190C95DB91DF6EC69B0D1F5FF8B49BB6BB89BF0AD64829DE105DE76DC81071211AEB22543BA360ED588A126D675A062ACFBD0DB50D
311
C12A2145CAB176D0C9FCB554522D8BB35AE55A155BC11F460AD6A25E047E8000D1EAEB4C7C61EEDF223F4130101FEB2B45ABDC7526FFCDE3DF0A60EBECD711685F417E03504B030414000608080054756A48410A3D5871000000A40000002C00000046353733343737332D383136372D343130432D424146432D4533333435
311
423933463535312F636E782E786D6C55CC4D0E82301086E1AB34B31774E7A22D31F1069E60020334B633A63FC6E34B0909B07DDE2F9FEE7EC1AB2FC5E4840DDC9A2B28E25E06C7938192C7CB1D54677514C9871928C640062A83D55394F2D968A0118BAFEA1DBF377CA444F98919176EAB9FEAAB9F2960DA5BBB1E2ED3FA6F
311
FF504B030414000608080054756A486F2552EE7E000000A300000007000000636E782E786D6C4D8CD10AC22018465F45FE7B6BA2E60275B491EF319A1B92D361337AFC3476D1D50787EF1CD97D568FDE36BD5C0C0AC8A90164C3234E2E2C0AF23EE31650A7658A71FFBB010AE36A15540C5A2E29E6ED40939DC7EC2BF52E3C
311
0F68B8A04C088A5B7211989166C0FDCD0CF84E29E3FD951ACE4931CE5529F3EB95AD79FD05504B030414000608080054756A4816E99B5DA600000035010000130000005B436F6E74656E745F54797065735D2E786D6C9590410E82301045AFD2740F4517C6180A0BF5065E60AC53688469D30E066F6F91AD9AB89CF9FFFD3F
311
99BA9DC7413C3026E749CB4D59498164FCCD51A7E5C4B6D84BD136F5E5193089ECA5A465CF1C0E4A25D3E308A9F401292BD6C711388FB15301CC1D3A54DBAADA29E38991B8E0254336F5092D4C038BF39CD76B6FC6A538AEBEA54A4B08617006389FA516557DE4AE8E7E70DE30729138228C5F021CD93F02D4FB0DCD0B504B
311
030414000608080054756A483DEE336E64000000790000001B0000006175746F6465736B2D64657369676E2D7061636B6167652E786D6C35CBC10E83200C00D05F21DCA56CA76D41FC96062B120735B69A7DBE268BB7777961F8D5AF396893C2ADB70FE7ADA196782C2DF776D7A97B5933C430F15651E5469C55D70F80A499
311
2A3ADC954792C525AE70A1E4D6AD9816CC044FEFDF01FE3FDE907802504B030414000608080054756A48B1D018FAF8000000960100003700000046353733343737332D383136372D343130432D424146432D4533333435423933463535312F4173736574446174612F636F72652E786D6C8550CB6E833010FC15B47703C66E
311
4191714403F9829E7AB38C43AC041BF951F5F36B27546A4F3DED6A76667677D8F16BBD179FCA796D4D0FB8ACA15046DA599BA587182EA883E2C899B336FCA24161C4AA7AC83070B6381BB71D92D60465326AECAC765078AF0214F29E9A1EBCBCAA55942286C4F0B77213F2261655E2F2C9E32C463DEF523D27377DD1CA016F
311
68DB4E5D8BD1899033A20399D05B3B4E88BC8C434771DD9DA633ABB298B3A0D79FEDD22911D49CF4357E453541B87EC7F4409B03C51FACCA4CCE7C70E9E77D69FE0EF890AF1E4510AC7A4EFFB8C66DFEDF356A1348B3BB3E151E384E473E069C5539A5541E11A69A13E5DF504B030414000608080054756A485F72CBB6F700
311
0000940100003500000046353733343737332D383136372D343130432D424146432D4533333435423933463535312F536368656D61732F636F72652E786D6C8550CB6E833010FC15B47703C66E4191719426E407DA536F9671A89560233FAA7E7E6DA0527BEA6957B333B3BBC38E5FF3A3F854CE6B6B7AC0650D8532D28EDA
311
4C3DC470431D1447CE9CB5E1170D0A2366D5438681B3C9D9B8EC90B4262893516347B583C27B15A0908FD4F4E0E5879A452962480C7F2F1721EF6252252E371E6731EA7197EA31B9E99B560E7843DB76E85A8CCE845C113D9101BDB4970191A7CBA9A3B8EECEC3955559CC59D0F3CF76E994086A4CFA1A3FA39A205CBF617A
311
A0CD81E277566526673EB8F4F3BE347F07FC75BDD3B36A9BFDF18CCBF8BF67D4269066F7DC141E384E27AE03CEAA9C512A6B80A9E63CF937504B030414000608080054756A487484BDB102010000D70100002D00000046353733343737332D383136372D343130432D424146432D4533333435423933463535312F636F7265
311
2E786D6C9551416E833010FC8AB57703C610D2C8386AA2F2829E7A73F186580936C2A6EAF36B072AB5B7F6B4D678667767561C3FC73BF9C0D91B675B605901046DEFB4B1430B4BB8D03D90A314B373E1070D885523B69060906298DD326D50EF6C409B50EB346EA0F21E0390FE1E1F2DF8FE8AA3CAD41222C3DFB249F53735
311
60C6B295274530E3B7B49F5105D420CB82ED68C1292B5E5975A8CA43C5DE449E98522CC6065E6EC3707C474DDC14A22590B5C8D7DFC85A8CDE3846C71DCDC5E00CB2AB1B5E350DA77BB66B68C58A333D3D7767FAC279559F9E7857D72C368962297C9863325B9394C15FE5ABF097B365D2FF74B62A3CC8B4CFC3B214798A39
311
96C70D624D27915F504B030414000608080054756A48ED4D471007010000B201000008000000636F72652E786D6C8D50CB6EC32010FC15B4776C63DCDA8A30519A385FD0536FD41017C506CB40D4FE7D21A1527BEB69D13C768665FBCF654637B5396D4D0FA4A80029335AA9CDD443F017DC01DA73B659EB7FC90019B1A81E
311
120C9C4D9B0D6B86466BBC32093556AA0C0AE7940734CEF1D1831B3FD4220A117C54B86BB18AF12A265590E2A1E3CCEBE5C73A6E4A782581D71579C615C5A47A25CDAEA9770D7963655272168296394ACB98AE2F5A6DD1D2B4EDD0B5041F293DE3E64007FCD29E064C9F4E87AE2155771CCEAC4C66CE9CDFE29FF392D8D323
311
276E2997950F8AB3776BE72C88A524B266FE025EB132117F4A8755FEA3B4369ED679E1C3E1809358E84EC4E074C138EEE78D335D9B7F03504B0102140014000608080054756A488F956FB8DA000000200100004F000000000000000000000000000000000046353733343737332D383136372D343130432D424146432D4533
311
333435423933463535312F4173736574446174612F446566696E6974696F6E4974657261746F7250726F706572746965732E62696E504B0102140014000608080054756A4803B7991C250100003002000045000000000000000000000000004701000046353733343737332D383136372D343130432D424146432D45333334
311
35423933463535312F4173736574446174612F496E7374616E636550726F706572746965732E62696E504B0102140014000608080054756A4828BB58AF800100009E0500003D00000000000000000000000000CF02000046353733343737332D383136372D343130432D424146432D4533333435423933463535312F536368
311
656D61732F436F6D6D6F6E536368656D612E786D6C504B0102140014000608080054756A482CCEBD668A040000E01200003E00000000000000000000000000AA04000046353733343737332D383136372D343130432D424146432D4533333435423933463535312F536368656D61732F47656E65726963536368656D612E78
311
6D6C504B0102140014000608080054756A486180134D5F0100006B03000045000000000000000000000000009009000046353733343737332D383136372D343130432D424146432D4533333435423933463535312F536368656D61732F52656E6465724D6174657269616C536368656D612E786D6C504B0102140014000608
311
080054756A4801B3D61251000000570000004700000000000000000000000000520B000046353733343737332D383136372D343130432D424146432D4533333435423933463535312F4173736574446174612F41737365745461626C654F66436F6E74656E74732E62696E504B0102140014000608080054756A48F8658340
311
58000000680000004500000000000000000000000000080C000046353733343737332D383136372D343130432D424146432D4533333435423933463535312F4173736574446174612F53747265616D56657273696F6E5461626C652E696E66504B0102140014000608080054756A48204BF1A8340100009A04000036000000
311
00000000000000000000C30C000046353733343737332D383136372D343130432D424146432D4533333435423933463535312F4173736574446174612F636E782E786D6C504B0102140014000608080054756A48EB7DE2A2080100004F03000034000000000000000000000000004B0E000046353733343737332D38313637
311
2D343130432D424146432D4533333435423933463535312F536368656D61732F636E782E786D6C504B0102140014000608080054756A48410A3D5871000000A40000002C00000000000000000000000000A50F000046353733343737332D383136372D343130432D424146432D4533333435423933463535312F636E782E78
311
6D6C504B0102140014000608080054756A486F2552EE7E000000A3000000070000000000000000000000000060100000636E782E786D6C504B0102140014000608080054756A4816E99B5DA6000000350100001300000000000000000000000000031100005B436F6E74656E745F54797065735D2E786D6C504B0102140014
311
000608080054756A483DEE336E64000000790000001B00000000000000000000000000DA1100006175746F6465736B2D64657369676E2D7061636B6167652E786D6C504B0102140014000608080054756A48B1D018FAF80000009601000037000000000000000000000000007712000046353733343737332D383136372D34
311
3130432D424146432D4533333435423933463535312F4173736574446174612F636F72652E786D6C504B0102140014000608080054756A485F72CBB6F7000000940100003500000000000000000000000000C413000046353733343737332D383136372D343130432D424146432D4533333435423933463535312F53636865
311
6D61732F636F72652E786D6C504B0102140014000608080054756A487484BDB102010000D70100002D000000000000000000000000000E15000046353733343737332D383136372D343130432D424146432D4533333435423933463535312F636F72652E786D6C504B0102140014000608080054756A48ED4D471007010000
311
B201000008000000000000000000000000005B160000636F72652E786D6C504B050600000000110011005A060000881700000000
310
504B030414000608080054756A48000000000000000000000000370000006662782F43363831343245362D363635422D343444322D414445432D3430463439343138333745452F617474726962757465732E62696E504B030414000608080054756A48000000000000000000000000350000006662782F4336383134324536
310
2D363635422D343444322D414445432D3430463439343138333745452F76657274696365732E62696E504B030414000608080054756A48F270F1330600000004000000360000006662782F43363831343245362D363635422D343444322D414445432D3430463439343138333745452F747269616E676C65732E62696E6366
310
60600000504B030414000608080054756A4851464CB48900000043010000360000006662782F43363831343245362D363635422D343444322D414445432D3430463439343138333745452F6469726563746F72792E786D6C9D8F310EC2300C45AF127987122606C71DD918B841D4B851A43646695A717C52A85029031293A5
310
A76FBF6FACEF7DA7264E43906840EF0FA03836E242F406C6DCEE4EA06AC22492573150D1F66C60C640E8938CB705396EEDD86DE9B5042FE27813D640EA63BB001C722AF6E55CB61E4863F58284D5D3F53DD715CE1C3985E63FD7F1B7EBDD617E9F1E504B030414000608080054756A48F8B497E8320700001A1C0000340000
310
006662782F43363831343245362D363635422D343444322D414445432D3430463439343138333745452F6F626A656374732E786D6CDD59596FDB3810FE2B84F6D93A7C2476E1B8F01107C6226D51A38B7D13688976B8A10E50528EFDF53BA4485954645BE90114EB00B14C51C3996FEED1F4E34BC4D013E1194DE21BCBB35D
310
0B913848421A1F6EAC22DFF7C616FA3843539E24796D9F85621C911B4B2C5BB3E9812745AA9642B2C7056BAEAE177FA32C2031B150C07096DD5859F040226CE3224F42923DDA21CEB17DD8BFD89E5D6E34C91E384E1F1A47A59893380756613D062A8A03CFFC092239B3A9233618DB06DDB6F5CF6C73A4E026A334CE721C07
310
6FB86A1CD73FC155E3B881375CDDF64793DE68381CF486577DAFB7582F563DEF7AE02EAF96CBC9FC7662A1D9749724AC52404AE210B4F86ACDBCA923EE54E22B14DAF80E9238268142B36D4348145D4AB2262606B09E14ADA69052D6DAC2A0A3F027B67502C560C9405B0BA7BFEBD69BECFE0110B22E56CA3322AC3CCB39E8
310
5A615FFA833B75CA55432F344311CE09A7982146771C7350106C2D15649011DE2248218199D4A2A657E7150CFBB22FB571B92F1813FE6BCDA4A7F9E08F24CF2467F45FC28FDCD74F039E40DA82C6F958099BBFA640623275E462796FD057374B20D19EE103580B8829360DFA0DBC9622166C56D6ECCFF5EE652BE243FBE129
310
4F52C2736179D29995DF690DD64C0B8CAF032825AEA6EE8EA87C05E83F01F2152F680A9AE3F465F832D4B2731C67FB8447A01DE4A29E0BFF5C242EDF5C4D9DEAE1194246AC3C8529B8ED4FC2D410C338BB06E96CFA04469FF081126E1B6006367D4F63E1E760288825B004F17EBF7BB1661B08A6B0084F6106D2C3DFD41197
310
08BE4A3A106F1A1A6A0BBF1D14A51DA6E967475DDD81CD701A54AA32643C85EFE8A7E03B5F6DFFDC167C8F0372AF1C7B45F634A63924D376860CD00D97FFB6F9243DF28E253BCC8E4F1B9B0238E69088B8D1A296AD520B927A014E441A2E352357EE29783B6338264991A9F5B63815242CE1FEEED52F5DB8F5ACBFB40D9487
310
2903688D6590DC034E5381893553DAAA02A15D13142C0C7365818752ABFEAE88521F4749118B50FBD6149B7C409C1196085425356DD8DA6B35D990EEF74506C1AB95E4D20052F9B3265C5AF810E2581BBF9CEC3986249AC43E851C0CCED27A82714005DE799E33C2F63E65AC88FC3D659047FC08A727E87794A09EB91EC9EB
310
73C2C35682A665699FD436240057C06A9074B62A63BED229274F549499329FE96C60EC5075A8351B9E48172253B400AA8D519AF9ED6475ED0DDD796FE48DFBBDE1CA9BF7C6ABF9BAB7E84F168BE1F5D05B8C6F9B7CEA6855CF77A04A51E618FE973F14D12EC694C10D21360ED30F1F65F6BC7120343AB7F3457F75BD5EF426
310
DE7A5E566BE3ABE56D6F385E2FDD89EBF5BDE1C2E1244B0A1E90CCE93BAEAF4D328D0FA7B8D2DCBD8DA150D65C4E765A5F4D61FEC731B499130C25FEAE41B48A5D2D0561D7202A1E6D86501C3C8A14E50750F5B5BA4F238836F9688B73EF8CCBAE3D70E5C7F3267D77D21F4FAE2A633F1BA8E5393F1CE7DA2408A0EF2C723F
310
497140F3F684DAC0A5639C7E576EB107DE08013AD5FFEA90F379461DE2D3081F88BFC7A24B68098C972468CD61079664198D4926BBBC37D55F83A66B433165E6DC1623A4991F911C7F8FFDC9B6A161D3109B990FFD682E260217AB82CAA05507728AA2E87E21714BF95FFD0C47292B3BDD4B18787D0D81EE71DA2C4E302D8E
310
78027BF371EEBB2191838B4BD42BF6757DD0AAB526F5C977933F018FAE6B7E213CFA88EEA5933DF226E23386A07235F206D75A1197B0D247E5A28F6305749EC1ABFF4CE8E1A153A1D94D27B592AD2CAA7312411B8BF38277F2D7AB91FBE62015171A0E513BE99DC5A1ECDF740707E8C906EE54795B3B06EA501AC39CAB9320
310
6FA4683561A90B39D313A3AB77F8F55965D7A9FE70BCFCE51573DDF92239FCB98C0354CB650056D1C7A8A95BAB6EA31ECA9E711E4020DDCAEFDE023C2224E1B13133C8B595E8BA3EBD543D6F44408D60628B459CBD1717EC2B065543F79C397765D1E694EB1B91D86C184E1FF9309836697DBEDB36A8C04AE7A7BF088CC873
310
83825A5D8A6EF80CA96F9B63CFDFA0A024FAB639F3F86FD1516805D6C668300DCE124661284F42742009646F183B74E8367844329995C1785590D26F043A3CFD54CE5473BC63FAE9E001C3609AA95EAC0860280A19F3C652EBE80F18838A49A41C4ED98FD086A91866A182D31B0B2C36A7D06DD93B1867C9E1A1A4DE185782
310
63E3F820F27DF954F5FBF8984007A2D251AE6A4F175C9464863341619BCAF70450F5953766D3EF175DB383700E97BB22AF84392E1CA55120E81702A57030F57B54F0BE4041715E2ECF967B0C483A4DE6CFDA4149B597637E90E3F51ADEF3D517474CC6379F51CA8A8350E7B9EED7A0D4135D372BCA29D4140C438999625143
310
2E3F385F7802AF9822B4A66004CE3289A224563FE6EA1515DA3EC00BA7D0D1C33E68E05D6FE4C8FE5F0DF4FD1DCE888DC3EC111640A99C8AA96809AEA1FA2A8ED654AF7521B4008F19FB372BA4AAA2DA6CA41E700530729A8FC085C45B1CE130F50DB5D123780170256F1E2FF4C2D4E130FE9EFD07504B0304140006080800
310
54756A48FEC0F66F3E01000046050000300000006662782F43363831343245362D363635422D343444322D414445432D3430463439343138333745452F636E782E786D6CCD94C14A033110865F65C97D379B5A444A36050F3E8107F196CD4ED7D86CB22413B16F6F52D3AA48C543A1BD85C93FF07F333FC3D7EF93A9DEC007
310
ED6C4758D3920AAC7283B66347226EEA3B52AD05F7CEE13719A9AC9CA023B94C041FBD8B73290DB091D1E4AAD1765B8A12D1EB3E220452292343E848502F30C946467403846D3348940D6B3C0417BD82D48F7A82D2AF3C4884818845CB6EEBF6A666ED235BAE968BD5923D739A9582F7CE99A2D716C1BBB9522E3D6C32D372
310
9ABF058F5E174D2620E2CB59D36BCB69FA173C24B7762C3ADCCD5937CF462B89694CD42904AC9308E4C4E9A758709A797F503FDC3F1D1C5483F6A0D0F9DD8506C04E0DE068AC4949F81FFF5EF837B6EB5F13EEA5B67D12B6D83A1BEA21AD21C5F5F7FE538AA41DCDF585FE68ECFC994FA704B5BA3EE483AF3311D3FDC94B4B
310
CF17507C00504B030414000608080054756A4856BE3CF97F000000A30000000B0000006662782F636E782E786D6C4D8C410EC2201405AF42FE1E6DEB1731011A6DF11E8DA50D9182C1623CBE60BA70F592C99B11ED6771E46DE2CB062FA1DE55408CBF87D1FA59425A27CA81B44AC410D6BF1B103F2C4642C1A0C41C437A6E
310
6834D3905CA1CEFAC7063BC66B6C34A38C1DAF14B16FE8A5D71DC5EA8667ACF9E1A47536F645C9F3EBE52D79F505504B030414000608080054756A48A6D797065F0000008200000007000000636E782E786D6C4DCB3B0E80201045D1AD90E9FD7516806B51190811670C8A61F982B1B0BAC9C97B72CA7B1037C6D3332918DA
310
1E04D2CAC69353902EDB8C20262D23F3F59B81A079470595414B17391D1F19B4730A5583A7ED43BBE4025D9592775E5ADFFA01504B030414000608080054756A484FEB6A7CA0000000F4000000130000005B436F6E74656E745F54797065735D2E786D6C7D8F4B0EC2300C44AF1279DFA6B0400835ED02B8011730C16D239A
310
8F121795DB93D02D6269CFBC19BBED573B8B17C564BC53B0AB1B10E4B47F18372A5878A88E20FAAEBDBD032591BD2E299898C349CAA427B2986A1FC86565F0D122E7318E32A07EE24872DF3407A9BD63725C71C980AEBDD080CBCCE2BAE6F5D69B7110E7CD57AA146008B3D1C8F92C5954F993BB1BF787F39A89ABC491D096
310
00F9FDA2FB00504B030414000608080054756A483DEE336E64000000790000001B0000006175746F6465736B2D64657369676E2D7061636B6167652E786D6C35CBC10E83200C00D05F21DCA56CA76D41FC96062B120735B69A7DBE268BB7777961F8D5AF396893C2ADB70FE7ADA196782C2DF776D7A97B5933C430F15651E5
310
469C55D70F80A4992A3ADC954792C525AE70A1E4D6AD9816CC044FEFDF01FE3FDE907802504B030414000608080054756A482C338BCDF8000000960100003B0000006662782F43363831343245362D363635422D343444322D414445432D3430463439343138333745452F7265736F75726365732F636F72652E786D6C8550
310
CB6E833010FC15B47703063740649C43D27E414FBD596643AC041BF951F5F36B072AB5A79E76353B33BB3BFCF4B53C8A4F745E5B33022D6B28D0283B69338F10C395F4509C0477D6865F34288C5C70840C83E0B3B371DD21654D4093516327DC41E93D0628D42335237875C345963286C4F0F77295EA2E672C69B9F1048F51
310
4FBB544FC94D5F353A1097BE6E3B7A6EC8850E03612D7B257D7FEE4877606C78A1ACAFDF065E65B1E0412F3FDB9543197002D1D4F440EA96D0FA9DB2236B8E8C7EF02A3305F7C1A59FF7A5F93B100EBD8D4EA1E7D536FDE31AD7E97FD7A84D689BDD75537810341DF91C085EE594527946986A4E547C03504B030414000608
310
080054756A482EDAC884F2000000B1010000310000006662782F43363831343245362D363635422D343444322D414445432D3430463439343138333745452F636F72652E786D6C8D50CB6EC32010FC156BEFD8C6A6AE1B61A23CDC2FE8A93704C44189C1E251F5F30BB12BB5B79C16CDCE30B343F7DFF3BDF852CE6B6B06C0
310
650D8532C24A6DA60162B8A01E8A3DA3CEDAF0870685E1B31A20C3C0E8E46C5C3648581394C9A8B1526D20F75E0528C43D3D06F0E2AA665EF21812C3DFCA858B1B9F5489CB95C768D0F3AF5438C58392C09A1A77A86E11AE3F30D9916647F027AD3293D118B5DCACB44CEEFAA2950376EA7A4C9AB1435DF77244849C1B7438
310
8F2744EA77F24670DFBE8E23ADB298511F5CBA79FB245FF7AC7C15FECB1C17F944666D42DB6C86ABC203C329CF63C168950B4CE3D16E9AB96CF603504B030414000608080054756A485AAC720052010000DD0200000C0000006662782F636F72652E786D6C8D52CB8E832014FD15C31E15655A6D902EDA992F98D5EC285287
310
54C120987EFE808F382EE6111324E7DE7BCE3D2790F3B36BA35198416A550114A720128AEB5AAAA602CEDE6101A23325466BFBAD0D448A75A2020106943446BB7E81B85656A8802A5D8B0564C3202C8878EB2F1518F8A7E858CC9CF51DC323EE197FB046C4289EFB28714ED6CBA8AC3D9BBC4B6100BD16697E44970C5E5159
310
429CE357581497233C1E302E5F102ED2B792246198122BBB559D1BC1ACA801CD527480690E51FA8EF00967278C3E48123A2919ACF19E17D1E00ED0FBED499219DFF1B9BEFE9BCF4965F36CE19B270640915F6F2A5092847CFC6F0A6F9FA117F6F959766B570B0F0F8D825B6DB0AFD4DA6DA591B54E78EA349A3E92CC55CF3C
310
11FCC493FDC2F33B870F8AA9C6AFC6ACBFDE9C0DEAFB9D7A61E0689F91D2A663EDB6DCBCE2766E423B4BEB38D7AD36FF995EADAE6126E161D22F504B030414000608080054756A48B811851D06010000B201000008000000636F72652E786D6C8D50C172832014FC15E6DD51501A3583E490B45FD0536F548865A2E00866DA
310
BF2F443AD3DE7A7ACCEEBEB7CBF2D3E73CA1BB5EBD71B6075A1040DA0E4E193BF6B0852B6E019D045F9D0BBF6480AC9C750F0906C1C7D56D4B86066783B609B54EE90C4AEF7500344CF1D1831F3EF42C0BB985A8F0B76291C34D8EBAA0C5AE133C98F9677558B50C5A81A8083D6052634A5E293BB2EAC8E81B2F9352F06D33
310
2A5B1915DDCDD5E815C4A5257543CF15BED0AEC3AC66CFB86DCF0D6E0E8C754F94B5E4A5E3655A16DC8735FE391F893903F2F29E7C79B95382BF3B3765410CA590B3D31708C2CB44FC09BD2DEA1FA18D0D75950FEE1B1E048D811E44344E0DC6F1A837CED4B6F806504B0102140014000608080054756A4800000000000000
310
00000000003700000000000000000000000000000000006662782F43363831343245362D363635422D343444322D414445432D3430463439343138333745452F617474726962757465732E62696E504B0102140014000608080054756A48000000000000000000000000350000000000000000000000000055000000666278
310
2F43363831343245362D363635422D343444322D414445432D3430463439343138333745452F76657274696365732E62696E504B0102140014000608080054756A48F270F13306000000040000003600000000000000000000000000A80000006662782F43363831343245362D363635422D343444322D414445432D343046
310
3439343138333745452F747269616E676C65732E62696E504B0102140014000608080054756A4851464CB489000000430100003600000000000000000000000000020100006662782F43363831343245362D363635422D343444322D414445432D3430463439343138333745452F6469726563746F72792E786D6C504B0102
310
140014000608080054756A48F8B497E8320700001A1C00003400000000000000000000000000DF0100006662782F43363831343245362D363635422D343444322D414445432D3430463439343138333745452F6F626A656374732E786D6C504B0102140014000608080054756A48FEC0F66F3E010000460500003000000000
310
000000000000000000630900006662782F43363831343245362D363635422D343444322D414445432D3430463439343138333745452F636E782E786D6C504B0102140014000608080054756A4856BE3CF97F000000A30000000B00000000000000000000000000EF0A00006662782F636E782E786D6C504B01021400140006
310
08080054756A48A6D797065F000000820000000700000000000000000000000000970B0000636E782E786D6C504B0102140014000608080054756A484FEB6A7CA0000000F400000013000000000000000000000000001B0C00005B436F6E74656E745F54797065735D2E786D6C504B0102140014000608080054756A483DEE
310
336E64000000790000001B00000000000000000000000000EC0C00006175746F6465736B2D64657369676E2D7061636B6167652E786D6C504B0102140014000608080054756A482C338BCDF8000000960100003B00000000000000000000000000890D00006662782F43363831343245362D363635422D343444322D414445
310
432D3430463439343138333745452F7265736F75726365732F636F72652E786D6C504B0102140014000608080054756A482EDAC884F2000000B10100003100000000000000000000000000DA0E00006662782F43363831343245362D363635422D343444322D414445432D3430463439343138333745452F636F72652E786D
310
6C504B0102140014000608080054756A485AAC720052010000DD0200000C000000000000000000000000001B1000006662782F636F72652E786D6C504B0102140014000608080054756A48B811851D06010000B2010000080000000000000000000000000097110000636F72652E786D6C504B0506000000000E000E008004
310
0000C31200000000
  0
XRECORD
  5
6295
102
{ACAD_REACTORS
330
6290
102
}
330
6290
100
AcDbXrecord
280
     1
270
     1
271
     1
  0
XRECORD
  5
6294
102
{ACAD_REACTORS
330
6290
102
}
330
6290
100
AcDbXrecord
280
     1
270
     1
271
     1
  0
XRECORD
  5
6296
102
{ACAD_REACTORS
330
6290
102
}
330
6290
100
AcDbXrecord
280
     1
270
     1
271
     1
  0
XRECORD
  5
6293
102
{ACAD_REACTORS
330
6290
102
}
330
6290
100
AcDbXrecord
280
     1
270
     1
271
     1
  0
XRECORD
  5
66D8
102
{ACAD_REACTORS
330
66D7
102
}
330
66D7
100
AcDbXrecord
280
     1
102
DISPLAYNAME
  1
Imperial24
102
FLAGS
 90
        0
  0
CELLSTYLEMAP
  5
66D6
102
{ACAD_REACTORS
330
649A
102
}
330
649A
100
AcDbCellStyleMap
 90
        3
300
CELLSTYLE
  1
TABLEFORMAT_BEGIN
 90
        5
170
     1
 91
        0
 92
    32768
 62
   257
 93
        1
300
CONTENTFORMAT
  1
CONTENTFORMAT_BEGIN
 90
        0
 91
        0
 92
      512
 93
        0
300

 40
0.0
140
1.0
 94
        5
 62
     0
340
11
144
0.25
309
CONTENTFORMAT_END
171
     1
301
MARGIN
  1
CELLMARGIN_BEGIN
 40
0.06
 40
0.06
 40
0.06
 40
0.06
 40
0.18
 40
0.18
309
CELLMARGIN_END
 94
        6
 95
        1
302
GRIDFORMAT
  1
GRIDFORMAT_BEGIN
 90
        0
 91
        1
 62
     0
 92
       -2
340
0
 93
        0
 40
0.045
309
GRIDFORMAT_END
 95
        2
302
GRIDFORMAT
  1
GRIDFORMAT_BEGIN
 90
        0
 91
        1
 62
     0
 92
       -2
340
0
 93
        0
 40
0.045
309
GRIDFORMAT_END
 95
        4
302
GRIDFORMAT
  1
GRIDFORMAT_BEGIN
 90
        0
 91
        1
 62
     0
 92
       -2
340
0
 93
        0
 40
0.045
309
GRIDFORMAT_END
 95
        8
302
GRIDFORMAT
  1
GRIDFORMAT_BEGIN
 90
        0
 91
        1
 62
     0
 92
       -2
340
0
 93
        0
 40
0.045
309
GRIDFORMAT_END
 95
       16
302
GRIDFORMAT
  1
GRIDFORMAT_BEGIN
 90
        0
 91
        1
 62
     0
 92
       -2
340
0
 93
        0
 40
0.045
309
GRIDFORMAT_END
 95
       32
302
GRIDFORMAT
  1
GRIDFORMAT_BEGIN
 90
        0
 91
        1
 62
     0
 92
       -2
340
0
 93
        0
 40
0.045
309
GRIDFORMAT_END
309
TABLEFORMAT_END
  1
CELLSTYLE_BEGIN
 90
        1
 91
        1
300
_TITLE
309
CELLSTYLE_END
300
CELLSTYLE
  1
TABLEFORMAT_BEGIN
 90
        5
170
     1
 91
        0
 92
        0
 62
   257
 93
        1
300
CONTENTFORMAT
  1
CONTENTFORMAT_BEGIN
 90
        0
 91
        0
 92
      512
 93
        0
300

 40
0.0
140
1.0
 94
        5
 62
     0
340
11
144
0.18
309
CONTENTFORMAT_END
171
     1
301
MARGIN
  1
CELLMARGIN_BEGIN
 40
0.06
 40
0.06
 40
0.06
 40
0.06
 40
0.18
 40
0.18
309
CELLMARGIN_END
 94
        6
 95
        1
302
GRIDFORMAT
  1
GRIDFORMAT_BEGIN
 90
        0
 91
        1
 62
     0
 92
       -2
340
0
 93
        0
 40
0.045
309
GRIDFORMAT_END
 95
        2
302
GRIDFORMAT
  1
GRIDFORMAT_BEGIN
 90
        0
 91
        1
 62
     0
 92
       -2
340
0
 93
        0
 40
0.045
309
GRIDFORMAT_END
 95
        4
302
GRIDFORMAT
  1
GRIDFORMAT_BEGIN
 90
        0
 91
        1
 62
     0
 92
       -2
340
0
 93
        0
 40
0.045
309
GRIDFORMAT_END
 95
        8
302
GRIDFORMAT
  1
GRIDFORMAT_BEGIN
 90
        0
 91
        1
 62
     0
 92
       -2
340
0
 93
        0
 40
0.045
309
GRIDFORMAT_END
 95
       16
302
GRIDFORMAT
  1
GRIDFORMAT_BEGIN
 90
        0
 91
        1
 62
     0
 92
       -2
340
0
 93
        0
 40
0.045
309
GRIDFORMAT_END
 95
       32
302
GRIDFORMAT
  1
GRIDFORMAT_BEGIN
 90
        0
 91
        1
 62
     0
 92
       -2
340
0
 93
        0
 40
0.045
309
GRIDFORMAT_END
309
TABLEFORMAT_END
  1
CELLSTYLE_BEGIN
 90
        2
 91
        1
300
_HEADER
309
CELLSTYLE_END
300
CELLSTYLE
  1
TABLEFORMAT_BEGIN
 90
        5
170
     1
 91
        0
 92
        0
 62
   257
 93
        1
300
CONTENTFORMAT
  1
CONTENTFORMAT_BEGIN
 90
        0
 91
        0
 92
      512
 93
        0
300

 40
0.0
140
1.0
 94
        2
 62
     0
340
11
144
0.18
309
CONTENTFORMAT_END
171
     1
301
MARGIN
  1
CELLMARGIN_BEGIN
 40
0.06
 40
0.06
 40
0.06
 40
0.06
 40
0.18
 40
0.18
309
CELLMARGIN_END
 94
        6
 95
        1
302
GRIDFORMAT
  1
GRIDFORMAT_BEGIN
 90
        0
 91
        1
 62
     0
 92
       -2
340
0
 93
        0
 40
0.045
309
GRIDFORMAT_END
 95
        2
302
GRIDFORMAT
  1
GRIDFORMAT_BEGIN
 90
        0
 91
        1
 62
     0
 92
       -2
340
0
 93
        0
 40
0.045
309
GRIDFORMAT_END
 95
        4
302
GRIDFORMAT
  1
GRIDFORMAT_BEGIN
 90
        0
 91
        1
 62
     0
 92
       -2
340
0
 93
        0
 40
0.045
309
GRIDFORMAT_END
 95
        8
302
GRIDFORMAT
  1
GRIDFORMAT_BEGIN
 90
        0
 91
        1
 62
     0
 92
       -2
340
0
 93
        0
 40
0.045
309
GRIDFORMAT_END
 95
       16
302
GRIDFORMAT
  1
GRIDFORMAT_BEGIN
 90
        0
 91
        1
 62
     0
 92
       -2
340
0
 93
        0
 40
0.045
309
GRIDFORMAT_END
 95
       32
302
GRIDFORMAT
  1
GRIDFORMAT_BEGIN
 90
        0
 91
        1
 62
     0
 92
       -2
340
0
 93
        0
 40
0.045
309
GRIDFORMAT_END
309
TABLEFORMAT_END
  1
CELLSTYLE_BEGIN
 90
        3
 91
        2
300
_DATA
309
CELLSTYLE_END
  0
ENDSEC
  0
EOF
