  0
SECTION
  2
HEADER
  9
$ACADVER
  1
AC1027
  9
$ACADMAINTVER
 70
    55
  9
$DWGCODEPAGE
  3
ANSI_932
  9
$LASTSAVEDBY
  1
marketing
  9
$REQUIREDVERSIONS
160
                 0
  9
$INSBASE
 10
161.0
 20
990.4727197007549
 30
0.0
  9
$EXTMIN
 10
-0.0501380315408824
 20
-0.0169173970937209
 30
-0.0015258207003583
  9
$EXTMAX
 10
840.0017498855754
 20
1305.623822640511
 30
0.0000000349246037
  9
$LIMMIN
 10
-296.316999476111
 20
-370.7034300441653
  9
$LIMMAX
 10
623.3128432133979
 20
328.6261559379898
  9
$ORTHOMODE
 70
     1
  9
$REGENMODE
 70
     1
  9
$FILLMODE
 70
     1
  9
$QTEXTMODE
 70
     0
  9
$MIRRTEXT
 70
     1
  9
$LTSCALE
 40
10.0
  9
$ATTMODE
 70
     1
  9
$TEXTSIZE
 40
5.0
  9
$TRACEWID
 40
0.05
  9
$TEXTSTYLE
  7
STANDARD1
  9
$CLAYER
  8
30
  9
$CELTYPE
  6
BYLAYER
  9
$CECOLOR
 62
   256
  9
$CELTSCALE
 40
1.0
  9
$DISPSILH
 70
     0
  9
$DIMSCALE
 40
1.0
  9
$DIMASZ
 40
2.0
  9
$DIMEXO
 40
1.0
  9
$DIMDLI
 40
0.5
  9
$DIMRND
 40
0.0
  9
$DIMDLE
 40
0.0
  9
$DIMEXE
 40
0.5
  9
$DIMTP
 40
0.0
  9
$DIMTM
 40
0.0
  9
$DIMTXT
 40
8.0
  9
$DIMCEN
 40
0.09
  9
$DIMTSZ
 40
0.0
  9
$DIMTOL
 70
     0
  9
$DIMLIM
 70
     0
  9
$DIMTIH
 70
     0
  9
$DIMTOH
 70
     0
  9
$DIMSE1
 70
     0
  9
$DIMSE2
 70
     0
  9
$DIMTAD
 70
     3
  9
$DIMZIN
 70
    12
  9
$DIMBLK
  1
OPEN
  9
$DIMASO
 70
     1
  9
$DIMSHO
 70
     1
  9
$DIMPOST
  1

  9
$DIMAPOST
  1

  9
$DIMALT
 70
     0
  9
$DIMALTD
 70
     2
  9
$DIMALTF
 40
25.4
  9
$DIMLFAC
 40
1.0
  9
$DIMTOFL
 70
     0
  9
$DIMTVP
 40
0.0
  9
$DIMTIX
 70
     0
  9
$DIMSOXD
 70
     0
  9
$DIMSAH
 70
     0
  9
$DIMBLK1
  1

  9
$DIMBLK2
  1

  9
$DIMSTYLE
  2
STANDARD
  9
$DIMCLRD
 70
     0
  9
$DIMCLRE
 70
     0
  9
$DIMCLRT
 70
   256
  9
$DIMTFAC
 40
1.0
  9
$DIMGAP
 40
3.0
  9
$DIMJUST
 70
     0
  9
$DIMSD1
 70
     0
  9
$DIMSD2
 70
     0
  9
$DIMTOLJ
 70
     1
  9
$DIMTZIN
 70
     0
  9
$DIMALTZ
 70
     0
  9
$DIMALTTZ
 70
     0
  9
$DIMUPT
 70
     0
  9
$DIMDEC
 70
     1
  9
$DIMTDEC
 70
     1
  9
$DIMALTU
 70
     2
  9
$DIMALTTD
 70
     2
  9
$DIMTXSTY
  7
STANDARD
  9
$DIMAUNIT
 70
     0
  9
$DIMADEC
 70
     0
  9
$DIMALTRND
 40
0.0
  9
$DIMAZIN
 70
     0
  9
$DIMDSEP
 70
    46
  9
$DIMATFIT
 70
     3
  9
$DIMFRAC
 70
     0
  9
$DIMLDRBLK
  1
OPEN
  9
$DIMLUNIT
 70
     2
  9
$DIMLWD
 70
    -2
  9
$DIMLWE
 70
    -2
  9
$DIMTMOVE
 70
     0
  9
$DIMFXL
 40
1.0
  9
$DIMFXLON
 70
     0
  9
$DIMJOGANG
 40
0.7853981633974483
  9
$DIMTFILL
 70
     1
  9
$DIMTFILLCLR
 70
     0
  9
$DIMARCSYM
 70
     0
  9
$DIMLTYPE
  6

  9
$DIMLTEX1
  6

  9
$DIMLTEX2
  6

  9
$DIMTXTDIRECTION
 70
     0
  9
$LUNITS
 70
     2
  9
$LUPREC
 70
     4
  9
$SKETCHINC
 40
0.1
  9
$FILLETRAD
 40
0.0
  9
$AUNITS
 70
     0
  9
$AUPREC
 70
     0
  9
$MENU
  1
.
  9
$ELEVATION
 40
0.0
  9
$PELEVATION
 40
0.0
  9
$THICKNESS
 40
0.0
  9
$LIMCHECK
 70
     0
  9
$CHAMFERA
 40
0.0
  9
$CHAMFERB
 40
0.0
  9
$CHAMFERC
 40
0.0
  9
$CHAMFERD
 40
0.0
  9
$SKPOLY
 70
     0
  9
$TDCREATE
 40
2452286.555658658
  9
$TDUCREATE
 40
2452286.180658658
  9
$TDUPDATE
 40
2459244.457465429
  9
$TDUUPDATE
 40
2459244.082465428
  9
$TDINDWG
 40
1.9786761458
  9
$TDUSRTIMER
 40
1.9786738194
  9
$USRTIMER
 70
     1
  9
$ANGBASE
 50
0.0
  9
$ANGDIR
 70
     0
  9
$PDMODE
 70
     0
  9
$PDSIZE
 40
0.0
  9
$PLINEWID
 40
0.0
  9
$SPLFRAME
 70
     0
  9
$SPLINETYPE
 70
     6
  9
$SPLINESEGS
 70
     8
  9
$HANDSEED
  5
1CEC0
  9
$SURFTAB1
 70
     6
  9
$SURFTAB2
 70
     6
  9
$SURFTYPE
 70
     6
  9
$SURFU
 70
     6
  9
$SURFV
 70
     6
  9
$UCSBASE
  2

  9
$UCSNAME
  2

  9
$UCSORG
 10
0.0
 20
0.0
 30
0.0
  9
$UCSXDIR
 10
1.0
 20
0.0
 30
0.0
  9
$UCSYDIR
 10
0.0
 20
1.0
 30
0.0
  9
$UCSORTHOREF
  2

  9
$UCSORTHOVIEW
 70
     0
  9
$UCSORGTOP
 10
0.0
 20
0.0
 30
0.0
  9
$UCSORGBOTTOM
 10
0.0
 20
0.0
 30
0.0
  9
$UCSORGLEFT
 10
0.0
 20
0.0
 30
0.0
  9
$UCSORGRIGHT
 10
0.0
 20
0.0
 30
0.0
  9
$UCSORGFRONT
 10
0.0
 20
0.0
 30
0.0
  9
$UCSORGBACK
 10
0.0
 20
0.0
 30
0.0
  9
$PUCSBASE
  2

  9
$PUCSNAME
  2

  9
$PUCSORG
 10
0.0
 20
0.0
 30
0.0
  9
$PUCSXDIR
 10
1.0
 20
0.0
 30
0.0
  9
$PUCSYDIR
 10
0.0
 20
1.0
 30
0.0
  9
$PUCSORTHOREF
  2

  9
$PUCSORTHOVIEW
 70
     0
  9
$PUCSORGTOP
 10
0.0
 20
0.0
 30
0.0
  9
$PUCSORGBOTTOM
 10
0.0
 20
0.0
 30
0.0
  9
$PUCSORGLEFT
 10
0.0
 20
0.0
 30
0.0
  9
$PUCSORGRIGHT
 10
0.0
 20
0.0
 30
0.0
  9
$PUCSORGFRONT
 10
0.0
 20
0.0
 30
0.0
  9
$PUCSORGBACK
 10
0.0
 20
0.0
 30
0.0
  9
$USERI1
 70
     0
  9
$USERI2
 70
     0
  9
$USERI3
 70
     0
  9
$USERI4
 70
     0
  9
$USERI5
 70
     0
  9
$USERR1
 40
0.0
  9
$USERR2
 40
0.0
  9
$USERR3
 40
0.0
  9
$USERR4
 40
0.0
  9
$USERR5
 40
0.0
  9
$WORLDVIEW
 70
     1
  9
$SHADEDGE
 70
     3
  9
$SHADEDIF
 70
    70
  9
$TILEMODE
 70
     1
  9
$MAXACTVP
 70
    48
  9
$PINSBASE
 10
0.0
 20
0.0
 30
0.0
  9
$PLIMCHECK
 70
     0
  9
$PEXTMIN
 10
4.273573
 20
5.205245999999998
 30
0.0
  9
$PEXTMAX
 10
194.610095
 20
283.0697009999996
 30
0.0
  9
$PLIMMIN
 10
-5.873749
 20
-5.87375
  9
$PLIMMAX
 10
204.099579
 20
291.1369009999999
  9
$UNITMODE
 70
     0
  9
$VISRETAIN
 70
     1
  9
$PLINEGEN
 70
     0
  9
$PSLTSCALE
 70
     1
  9
$TREEDEPTH
 70
  3020
  9
$CMLSTYLE
  2
STANDARD
  9
$CMLJUST
 70
     0
  9
$CMLSCALE
 40
1.0
  9
$PROXYGRAPHICS
 70
     1
  9
$MEASUREMENT
 70
     0
  9
$CELWEIGHT
370
    -1
  9
$ENDCAPS
280
     0
  9
$JOINSTYLE
280
     0
  9
$LWDISPLAY
290
     0
  9
$INSUNITS
 70
     0
  9
$HYPERLINKBASE
  1

  9
$STYLESHEET
  1
MONOCHROME.CTB
  9
$XEDIT
290
     1
  9
$CEPSNTYPE
380
     0
  9
$PSTYLEMODE
290
     1
  9
$FINGERPRINTGUID
  2

  9
$VERSIONGUID
  2
{1AA827D1-789C-4AEC-9DB4-989FA62AC302}
  9
$EXTNAMES
290
     1
  9
$PSVPSCALE
 40
0.0
  9
$OLESTARTUP
290
     0
  9
$SORTENTS
280
   127
  9
$INDEXCTL
280
     0
  9
$HIDETEXT
280
     0
  9
$XCLIPFRAME
280
     2
  9
$HALOGAP
280
     0
  9
$OBSCOLOR
 70
   257
  9
$OBSLTYPE
280
     0
  9
$INTERSECTIONDISPLAY
280
     0
  9
$INTERSECTIONCOLOR
 70
   257
  9
$DIMASSOC
280
     1
  9
$PROJECTNAME
  1

  9
$CAMERADISPLAY
290
     0
  9
$LENSLENGTH
 40
50.0
  9
$CAMERAHEIGHT
 40
0.0
  9
$STEPSPERSEC
 40
2.0
  9
$STEPSIZE
 40
6.0
  9
$3DDWFPREC
 40
2.0
  9
$PSOLWIDTH
 40
0.25
  9
$PSOLHEIGHT
 40
4.0
  9
$LOFTANG1
 40
1.570796326794896
  9
$LOFTANG2
 40
1.570796326794896
  9
$LOFTMAG1
 40
0.0
  9
$LOFTMAG2
 40
0.0
  9
$LOFTPARAM
 70
     7
  9
$LOFTNORMALS
280
     1
  9
$LATITUDE
 40
37.795
  9
$LONGITUDE
 40
-122.394
  9
$NORTHDIRECTION
 40
0.0
  9
$TIMEZONE
 70
 -8000
  9
$LIGHTGLYPHDISPLAY
280
     1
  9
$TILEMODELIGHTSYNCH
280
     1
  9
$CMATERIAL
347
8A59
  9
$SOLIDHIST
280
     0
  9
$SHOWHIST
280
     1
  9
$DWFFRAME
280
     2
  9
$DGNFRAME
280
     0
  9
$REALWORLDSCALE
290
     1
  9
$INTERFERECOLOR
 62
     1
  9
$INTERFEREOBJVS
345
8A7B
  9
$INTERFEREVPVS
346
8A78
  9
$CSHADOW
280
     0
  9
$SHADOWPLANELOCATION
 40
0.0
  0
ENDSEC
  0
SECTION
  2
CLASSES
  0
CLASS
  1
ACDBDICTIONARYWDFLT
  2
AcDbDictionaryWithDefault
  3
ObjectDBX Classes
 90
        0
 91
        1
280
     0
281
     0
  0
CLASS
  1
DICTIONARYVAR
  2
AcDbDictionaryVar
  3
ObjectDBX Classes
 90
        0
 91
       10
280
     0
281
     0
  0
CLASS
  1
MATERIAL
  2
AcDbMaterial
  3
ObjectDBX Classes
 90
     1153
 91
        3
280
     0
281
     0
  0
CLASS
  1
VISUALSTYLE
  2
AcDbVisualStyle
  3
ObjectDBX Classes
 90
     4095
 91
       26
280
     0
281
     0
  0
CLASS
  1
TABLESTYLE
  2
AcDbTableStyle
  3
ObjectDBX Classes
 90
     4095
 91
        1
280
     0
281
     0
  0
CLASS
  1
SCALE
  2
AcDbScale
  3
ObjectDBX Classes
 90
     1153
 91
       17
280
     0
281
     0
  0
CLASS
  1
MLEADERSTYLE
  2
AcDbMLeaderStyle
  3
ACDB_MLEADERSTYLE_CLASS
 90
     4095
 91
        1
280
     0
281
     0
  0
CLASS
  1
ACDBSECTIONVIEWSTYLE
  2
AcDbSectionViewStyle
  3
ObjectDBX Classes
 90
     1025
 91
        1
280
     0
281
     0
  0
CLASS
  1
ACDBDETAILVIEWSTYLE
  2
AcDbDetailViewStyle
  3
ObjectDBX Classes
 90
     1025
 91
        1
280
     0
281
     0
  0
CLASS
  1
CELLSTYLEMAP
  2
AcDbCellStyleMap
  3
ObjectDBX Classes
 90
     1152
 91
        2
280
     0
281
     0
  0
CLASS
  1
AEC_REFEDIT_STATUS_TRACKER
  2
AecDbRefEditStatusTracker
  3
AecArchBase70|Product Desc: Autodesk Architectural Desktop 2007 |Company: Autodesk,Inc. |WEB Address: www.autodesk.com
 90
      129
 91
        0
280
     0
281
     0
  0
CLASS
  1
NPOCOLLECTION
  2
AcDbImpNonPersistentObjectsCollection
  3
ObjectDBX Classes
 90
     1153
 91
        0
280
     0
281
     0
  0
CLASS
  1
SORTENTSTABLE
  2
AcDbSortentsTable
  3
ObjectDBX Classes
 90
        0
 91
        5
280
     0
281
     0
  0
CLASS
  1
ACAD_EVALUATION_GRAPH
  2
AcDbEvalGraph
  3
ObjectDBX Classes
 90
     1153
 91
        2
280
     0
281
     0
  0
CLASS
  1
ACAECUSTOBJ
  2
AcAeEditorObj
  3
AcAeEditorObj
 90
     1024
 91
        2
280
     0
281
     0
  0
CLASS
  1
ACDB_DYNAMICBLOCKPURGEPREVENTER_VERSION
  2
AcDbDynamicBlockPurgePreventer
  3
ObjectDBX Classes
 90
     1153
 91
        2
280
     0
281
     0
  0
ENDSEC
  0
SECTION
  2
TABLES
  0
TABLE
  2
VPORT
  5
8
330
0
100
AcDbSymbolTable
 70
     1
  0
VPORT
  5
8A51
330
8
100
AcDbSymbolTableRecord
100
AcDbViewportTableRecord
  2
*Active
 70
     0
 10
0.0
 20
0.0
 11
1.0
 21
1.0
 12
419.9758059270172
 22
652.8034526217086
 13
0.0
 23
0.0
 14
1.0
 24
1.0
 15
10.0
 25
10.0
 16
0.0
 26
0.0
 36
1.0
 17
0.0
 27
0.0
 37
0.0
 40
1315.079106833057
 41
2.289505428226779
 42
50.0
 43
0.0
 44
0.0
 50
0.0
 51
0.0
 71
     0
 72
   100
 73
     1
 74
     1
 75
     0
 76
     0
 77
     0
 78
     0
281
     0
 65
     1
110
0.0
120
0.0
130
0.0
111
1.0
121
0.0
131
0.0
112
0.0
122
1.0
132
0.0
 79
     0
146
0.0
348
8A77
 60
     3
 61
     5
292
     1
282
     1
141
0.0
142
0.0
 63
   250
421
  3355443
1001
ACAD_NAV_VCDISPLAY
1070
     3
  0
ENDTAB
  0
TABLE
  2
LTYPE
  5
5
330
0
100
AcDbSymbolTable
 70
     6
  0
LTYPE
  5
13
330
5
100
AcDbSymbolTableRecord
100
AcDbLinetypeTableRecord
  2
BYBLOCK
 70
     0
  3

 72
    65
 73
     0
 40
0.0
  0
LTYPE
  5
14
330
5
100
AcDbSymbolTableRecord
100
AcDbLinetypeTableRecord
  2
BYLAYER
 70
     0
  3

 72
    65
 73
     0
 40
0.0
  0
LTYPE
  5
15
330
5
100
AcDbSymbolTableRecord
100
AcDbLinetypeTableRecord
  2
CONTINUOUS
 70
     0
  3
Solid line
 72
    65
 73
     0
 40
0.0
  0
LTYPE
  5
22
330
5
100
AcDbSymbolTableRecord
100
AcDbLinetypeTableRecord
  2
CONTINOUS
 70
     0
  3
Solid line
 72
    65
 73
     0
 40
0.0
  0
LTYPE
  5
24
330
5
100
AcDbSymbolTableRecord
100
AcDbLinetypeTableRecord
  2
DASHDOT
 70
     0
  3
__ . __ . __ . __ . __ . __ . __ . __ . __ . __
 72
    65
 73
     4
 40
1.0
 49
0.5
 74
     0
 49
-0.25
 74
     0
 49
0.0
 74
     0
 49
-0.25
 74
     0
  0
LTYPE
  5
4C47
330
5
100
AcDbSymbolTableRecord
100
AcDbLinetypeTableRecord
  2
DIVIDE
 70
     0
  3
Divide ____ . . ____ . . ____ . . ____ . . ____
 72
    65
 73
     6
 40
1.25
 49
0.5
 74
     0
 49
-0.25
 74
     0
 49
0.0
 74
     0
 49
-0.25
 74
     0
 49
0.0
 74
     0
 49
-0.25
 74
     0
  0
LTYPE
  5
912E
330
5
100
AcDbSymbolTableRecord
100
AcDbLinetypeTableRecord
  2
SLD-実線
 70
     0
  3
SolidWorks Line Style
 72
    65
 73
     0
 40
0.0
  0
ENDTAB
  0
TABLE
  2
LAYER
  5
2
102
{ACAD_XDICTIONARY
360
F3CC
102
}
330
0
100
AcDbSymbolTable
 70
    15
  0
LAYER
  5
10
102
{ACAD_XDICTIONARY
360
8ACC
102
}
330
2
100
AcDbSymbolTableRecord
100
AcDbLayerTableRecord
  2
0
 70
     0
 62
     7
  6
CONTINOUS
370
    -3
390
F
347
8A69
348
0
  0
LAYER
  5
2F
102
{ACAD_XDICTIONARY
360
8ACE
102
}
330
2
100
AcDbSymbolTableRecord
100
AcDbLayerTableRecord
  2
10
 70
     0
 62
     4
  6
CONTINOUS
370
    -3
390
F
347
8A69
348
0
  0
LAYER
  5
35
102
{ACAD_XDICTIONARY
360
8AD2
102
}
330
2
100
AcDbSymbolTableRecord
100
AcDbLayerTableRecord
  2
16
 70
     0
 62
     6
  6
DASHDOT
370
    -3
390
F
347
8A69
348
0
  0
LAYER
  5
38
102
{ACAD_XDICTIONARY
360
8AD4
102
}
330
2
100
AcDbSymbolTableRecord
100
AcDbLayerTableRecord
  2
19
 70
     0
 62
     7
  6
CONTINOUS
370
    -3
390
F
347
8A69
348
0
  0
LAYER
  5
3D
102
{ACAD_XDICTIONARY
360
8AD6
102
}
330
2
100
AcDbSymbolTableRecord
100
AcDbLayerTableRecord
  2
24
 70
     0
 62
     7
  6
CONTINOUS
370
    -3
390
F
347
8A69
348
0
  0
LAYER
  5
3A2
102
{ACAD_XDICTIONARY
360
8AD8
102
}
330
2
100
AcDbSymbolTableRecord
100
AcDbLayerTableRecord
  2
30
 70
     0
 62
     9
  6
CONTINUOUS
370
    -3
390
F
347
8A69
348
0
  0
LAYER
  5
3A4
330
2
100
AcDbSymbolTableRecord
100
AcDbLayerTableRecord
  2
DEFPOINTS
 70
     0
 62
     7
  6
CONTINUOUS
290
     0
370
    -3
390
F
347
8A69
348
0
  0
LAYER
  5
3BBA
102
{ACAD_XDICTIONARY
360
8ADA
102
}
330
2
100
AcDbSymbolTableRecord
100
AcDbLayerTableRecord
  2
18
 70
     0
 62
     5
  6
DIVIDE
370
    -3
390
F
347
8A69
348
0
  0
LAYER
  5
67A8
102
{ACAD_XDICTIONARY
360
8ADC
102
}
330
2
100
AcDbSymbolTableRecord
100
AcDbLayerTableRecord
  2
11
 70
     0
 62
     1
  6
CONTINOUS
370
    -3
390
F
347
8A69
348
0
  0
LAYER
  5
7837
102
{ACAD_XDICTIONARY
360
8ADE
102
}
330
2
100
AcDbSymbolTableRecord
100
AcDbLayerTableRecord
  2
17
 70
     0
 62
     2
  6
DASHDOT
370
    -3
390
F
347
8A69
348
0
  0
LAYER
  5
9133
102
{ACAD_XDICTIONARY
360
9134
102
}
330
2
100
AcDbSymbolTableRecord
100
AcDbLayerTableRecord
  2
240
 70
     0
 62
     7
  6
SLD-実線
370
    -3
390
F
347
8A69
348
0
  0
LAYER
  5
1391C
102
{ACAD_XDICTIONARY
360
1391D
102
}
330
2
100
AcDbSymbolTableRecord
100
AcDbLayerTableRecord
  2
21
 70
     0
 62
     7
  6
CONTINUOUS
370
    -3
390
F
347
8A69
348
0
  0
LAYER
  5
16BBC
102
{ACAD_XDICTIONARY
360
16BBD
102
}
330
2
100
AcDbSymbolTableRecord
100
AcDbLayerTableRecord
  2
SLD-0
 70
     0
 62
     7
  6
SLD-実線
370
    -3
390
F
347
8A69
348
0
  0
LAYER
  5
17E9F
102
{ACAD_XDICTIONARY
360
17EA0
102
}
330
2
100
AcDbSymbolTableRecord
100
AcDbLayerTableRecord
  2
L10_
 70
     0
 62
     7
  6
CONTINUOUS
370
    -3
390
F
347
8A69
348
0
  0
LAYER
  5
1CEB7
330
2
100
AcDbSymbolTableRecord
100
AcDbLayerTableRecord
  2
12
 70
     0
 62
     3
  6
CONTINUOUS
370
    -3
390
F
347
8A69
348
0
1001
AcAecLayerStandard
1000

1000

1001
AcCmTransparency
1071
        0
  0
ENDTAB
  0
TABLE
  2
STYLE
  5
3
330
0
100
AcDbSymbolTable
 70
     2
  0
STYLE
  5
11
330
3
100
AcDbSymbolTableRecord
100
AcDbTextStyleTableRecord
  2
STANDARD
 70
     0
 40
0.0
 41
1.0
 50
0.0
 71
     0
 42
2.0
  3
txt.shx
  4
bigfont.shx
  0
STYLE
  5
42
330
3
100
AcDbSymbolTableRecord
100
AcDbTextStyleTableRecord
  2
STANDARD1
 70
     0
 40
0.0
 41
1.0
 50
0.0
 71
     0
 42
5.0
  3
MONOTXT
  4
BIGFONT
  0
ENDTAB
  0
TABLE
  2
VIEW
  5
6
330
0
100
AcDbSymbolTable
 70
     3
  0
VIEW
  5
230C
330
6
100
AcDbSymbolTableRecord
100
AcDbViewTableRecord
  2
OLE1
 70
     0
 40
148.912488
 10
429.497628
 20
2.560627
 41
103.145806
 11
0.0
 21
0.0
 31
1.0
 12
0.0
 22
0.0
 32
0.0
 42
50.0
 43
0.0
 44
0.0
 50
0.0
 71
     0
281
     0
 72
     0
 73
     0
348
8A77
  0
VIEW
  5
230E
330
6
100
AcDbSymbolTableRecord
100
AcDbViewTableRecord
  2
OLE2
 70
     0
 40
170.778692
 10
322.66497
 20
-5.978304
 41
102.467215
 11
0.0
 21
0.0
 31
1.0
 12
0.0
 22
0.0
 32
0.0
 42
50.0
 43
0.0
 44
0.0
 50
0.0
 71
     0
281
     0
 72
     0
 73
     0
348
8A77
  0
VIEW
  5
23AA
330
6
100
AcDbSymbolTableRecord
100
AcDbViewTableRecord
  2
OLE3
 70
     0
 40
591.7897389999998
 10
84.79698199999999
 20
-46.09335999999998
 41
388.792096
 11
0.0
 21
0.0
 31
1.0
 12
0.0
 22
0.0
 32
0.0
 42
50.0
 43
0.0
 44
0.0
 50
0.0
 71
     0
281
     0
 72
     0
 73
     0
348
8A77
  0
ENDTAB
  0
TABLE
  2
UCS
  5
7
330
0
100
AcDbSymbolTable
 70
     0
  0
ENDTAB
  0
TABLE
  2
APPID
  5
9
330
0
100
AcDbSymbolTable
 70
    16
  0
APPID
  5
12
330
9
100
AcDbSymbolTableRecord
100
AcDbRegAppTableRecord
  2
ACAD
 70
     0
  0
APPID
  5
ECD
330
9
100
AcDbSymbolTableRecord
100
AcDbRegAppTableRecord
  2
CONTENTBLOCKICON
 70
     0
  0
APPID
  5
8AA9
330
9
100
AcDbSymbolTableRecord
100
AcDbRegAppTableRecord
  2
ACAD_NAV_VCDISPLAY
 70
     0
  0
APPID
  5
1038A
330
9
100
AcDbSymbolTableRecord
100
AcDbRegAppTableRecord
  2
ACAD_EXEMPT_FROM_CAD_STANDARDS
 70
     0
  0
APPID
  5
10D03
330
9
100
AcDbSymbolTableRecord
100
AcDbRegAppTableRecord
  2
ACAD_PSEXT
 70
     0
  0
APPID
  5
1147C
330
9
100
AcDbSymbolTableRecord
100
AcDbRegAppTableRecord
  2
ACAD_DSTYLE_DIMJAG
 70
     0
  0
APPID
  5
1147D
330
9
100
AcDbSymbolTableRecord
100
AcDbRegAppTableRecord
  2
ACAD_DSTYLE_DIMTALN
 70
     0
  0
APPID
  5
16BC0
330
9
100
AcDbSymbolTableRecord
100
AcDbRegAppTableRecord
  2
DCO15
 70
     0
  0
APPID
  5
16BC1
330
9
100
AcDbSymbolTableRecord
100
AcDbRegAppTableRecord
  2
ACAD_MLEADERVER
 70
     0
  0
APPID
  5
16BC2
330
9
100
AcDbSymbolTableRecord
100
AcDbRegAppTableRecord
  2
ACAD_DSTYLE_DIMBREAK
 70
     0
  0
APPID
  5
17476
330
9
100
AcDbSymbolTableRecord
100
AcDbRegAppTableRecord
  2
ACAUTHENVIRON
 70
     0
  0
APPID
  5
1C02E
330
9
100
AcDbSymbolTableRecord
100
AcDbRegAppTableRecord
  2
ACAD_DSTYLE_DIMRADIAL_EXTENSION
 70
     0
  0
APPID
  5
1CEA0
330
9
100
AcDbSymbolTableRecord
100
AcDbRegAppTableRecord
  2
AcDbDynamicBlockTrueName
 70
     0
  0
APPID
  5
1CEA1
330
9
100
AcDbSymbolTableRecord
100
AcDbRegAppTableRecord
  2
AcDbDynamicBlockGUID
 70
     0
  0
APPID
  5
1CEB8
330
9
100
AcDbSymbolTableRecord
100
AcDbRegAppTableRecord
  2
AcAecLayerStandard
 70
     0
  0
APPID
  5
1CEB9
330
9
100
AcDbSymbolTableRecord
100
AcDbRegAppTableRecord
  2
AcCmTransparency
 70
     0
  0
ENDTAB
  0
TABLE
  2
DIMSTYLE
  5
A
330
0
100
AcDbSymbolTable
 70
     4
100
AcDbDimStyleTable
 71
     2
340
175
340
1171B
  0
DIMSTYLE
105
175
102
{ACAD_REACTORS
330
1C6B2
330
1C6C6
330
1C6C7
330
1C6C8
330
1C6CB
330
1C65E
330
1C65F
330
1C660
330
1C691
330
1C692
330
1C693
330
1C694
330
1C695
330
1C6B0
330
1CC93
330
1CC94
330
1CC95
330
1CCA2
330
1CCA3
330
1CCA4
330
1CCA5
330
1CCA6
330
1CCAB
330
1CD90
330
1CD91
330
1CE4B
102
}
330
A
100
AcDbSymbolTableRecord
100
AcDbDimStyleTableRecord
  2
STANDARD
 70
     0
 41
2.0
 42
1.0
 43
0.5
 44
0.5
 69
     1
 73
     0
 74
     0
 77
     3
 78
    12
140
8.0
147
3.0
178
   256
271
     1
272
     1
340
11
341
3B2
342
3B2
1001
ACAD_DSTYLE_DIMJAG
1070
   388
1040
1.5
1001
ACAD_DSTYLE_DIMTALN
1070
   392
1070
     0
  0
DIMSTYLE
105
1171B
102
{ACAD_REACTORS
330
1C6BA
330
1C69F
102
}
330
A
100
AcDbSymbolTableRecord
100
AcDbDimStyleTableRecord
  2
STANDARD1
 70
     0
 41
2.0
 42
3.0
 43
0.5
 44
0.5
 77
     3
 78
    12
140
8.0
147
3.0
172
     1
271
     1
272
     1
289
     2
340
11
341
3B2
342
3B2
1001
ACAD_DSTYLE_DIMJAG
1070
   388
1040
1.5
1001
ACAD_DSTYLE_DIMTALN
1070
   392
1070
     0
  0
DIMSTYLE
105
1CDE4
330
A
100
AcDbSymbolTableRecord
100
AcDbDimStyleTableRecord
  2
ISO-25
 70
     0
 41
2.5
 42
0.625
 43
3.75
 44
1.25
 73
     0
 74
     0
 77
     1
 78
     8
140
2.5
141
2.5
143
0.0393700787
147
0.625
171
     3
172
     1
271
     2
272
     2
274
     3
278
    44
283
     0
284
     8
340
11
  0
ENDTAB
  0
TABLE
  2
BLOCK_RECORD
  5
1
330
0
100
AcDbSymbolTable
 70
    45
  0
BLOCK_RECORD
  5
1E
102
{ACAD_XDICTIONARY
360
178
102
}
330
1
100
AcDbSymbolTableRecord
100
AcDbBlockTableRecord
  2
*MODEL_SPACE
340
8A4C
 70
     0
280
     1
281
     0
  0
BLOCK_RECORD
  5
1A
102
{ACAD_XDICTIONARY
360
17A
102
}
330
1
100
AcDbSymbolTableRecord
100
AcDbBlockTableRecord
  2
*PAPER_SPACE
340
8A4D
 70
     0
280
     1
281
     0
  0
BLOCK_RECORD
  5
3B2
330
1
100
AcDbSymbolTableRecord
100
AcDbBlockTableRecord
  2
_OPEN
340
0
102
{BLKREFS
331
1CE5B
331
1CE5C
331
1CE64
331
1CE65
331
1C831
331
1C832
331
1C844
331
1C845
331
1C88E
331
1C88F
331
1C897
331
1C898
331
1C8A0
331
1C8A1
331
1C8AB
331
1C8AC
331
1C8E2
331
1C8E3
331
1C8EB
331
1C8EC
331
1C8F4
331
1C8F5
331
1C8FD
331
1C8FE
331
1C906
331
1C907
331
1C910
331
1C911
331
1C91A
331
1C91B
331
1C922
331
1C923
331
1C95D
331
1C95E
331
1C967
331
1C968
331
1CD1F
331
1CD20
331
1CD28
331
1CD29
331
1CD31
331
1CD32
331
1CD45
331
1CD46
331
1CD4E
331
1CD4F
331
1CD57
331
1CD58
331
1CDAD
331
1CDAE
331
1CDB6
331
1CDB7
331
1CE01
331
1CE02
331
1CE45
331
1CE46
102
}
 70
     0
280
     1
281
     0
  0
BLOCK_RECORD
  5
175B4
330
1
100
AcDbSymbolTableRecord
100
AcDbBlockTableRecord
  2
SW_CENTERMARKSYMBOL_28
340
0
102
{BLKREFS
331
1C6B6
102
}
 70
     0
280
     1
281
     0
  0
BLOCK_RECORD
  5
178FC
330
1
100
AcDbSymbolTableRecord
100
AcDbBlockTableRecord
  2
SW_CENTERMARKSYMBOL_27
340
0
102
{BLKREFS
331
1C6B5
102
}
 70
     0
280
     1
281
     0
  0
BLOCK_RECORD
  5
17CD4
330
1
100
AcDbSymbolTableRecord
100
AcDbBlockTableRecord
  2
SW_CENTERMARKSYMBOL_4
340
0
102
{BLKREFS
331
1C696
102
}
 70
     0
280
     1
281
     0
  0
BLOCK_RECORD
  5
17CDF
330
1
100
AcDbSymbolTableRecord
100
AcDbBlockTableRecord
  2
SW_CENTERMARKSYMBOL_5
340
0
102
{BLKREFS
331
1C697
102
}
 70
     0
280
     1
281
     0
  0
BLOCK_RECORD
  5
17CEA
330
1
100
AcDbSymbolTableRecord
100
AcDbBlockTableRecord
  2
SW_CENTERMARKSYMBOL_6
340
0
102
{BLKREFS
331
1C698
102
}
 70
     0
280
     1
281
     0
  0
BLOCK_RECORD
  5
17CF5
330
1
100
AcDbSymbolTableRecord
100
AcDbBlockTableRecord
  2
SW_CENTERMARKSYMBOL_7
340
0
102
{BLKREFS
331
1C699
102
}
 70
     0
280
     1
281
     0
  0
BLOCK_RECORD
  5
17D00
330
1
100
AcDbSymbolTableRecord
100
AcDbBlockTableRecord
  2
SW_CENTERMARKSYMBOL_26
340
0
102
{BLKREFS
331
1C6B4
102
}
 70
     0
280
     1
281
     0
  0
BLOCK_RECORD
  5
17D0B
330
1
100
AcDbSymbolTableRecord
100
AcDbBlockTableRecord
  2
SW_CENTERMARKSYMBOL_29
340
0
102
{BLKREFS
331
1C6B7
102
}
 70
     0
280
     1
281
     0
  0
BLOCK_RECORD
  5
1C48A
330
1
100
AcDbSymbolTableRecord
100
AcDbBlockTableRecord
  2
SW_CENTERMARKSYMBOL_30
340
0
102
{BLKREFS
331
1CE97
331
1CEA8
102
}
 70
     0
280
     1
281
     0
  0
BLOCK_RECORD
  5
1C495
330
1
100
AcDbSymbolTableRecord
100
AcDbBlockTableRecord
  2
SW_CENTERMARKSYMBOL_31
340
0
102
{BLKREFS
331
1CE98
331
1CEAB
102
}
 70
     0
280
     1
281
     0
  0
BLOCK_RECORD
  5
1C4A0
102
{ACAD_XDICTIONARY
360
1CEAC
102
}
330
1
100
AcDbSymbolTableRecord
100
AcDbBlockTableRecord
  2
L-BAR
340
0
102
{BLKREFS
331
1C6CD
331
1CCA7
331
1CCA8
102
}
 70
     4
280
     1
281
     0
1001
AcDbDynamicBlockGUID
1000
{19D6F1BB-8519-46BB-9B61-D520F6529817}
  0
BLOCK_RECORD
  5
1C4AB
102
{ACAD_XDICTIONARY
360
1CE9C
102
}
330
1
100
AcDbSymbolTableRecord
100
AcDbBlockTableRecord
  2
S-BAR
340
0
102
{BLKREFS
331
1C6CC
331
1CCA9
331
1CCAA
102
}
 70
     4
280
     1
281
     0
1001
AcDbDynamicBlockGUID
1000
{BBE56FC1-D0B5-461A-8A9A-38A7238FF331}
  0
BLOCK_RECORD
  5
1C6D7
330
1
100
AcDbSymbolTableRecord
100
AcDbBlockTableRecord
  2
*D13
340
0
 70
     0
280
     1
281
     0
  0
BLOCK_RECORD
  5
1C6EF
330
1
100
AcDbSymbolTableRecord
100
AcDbBlockTableRecord
  2
*D14
340
0
 70
     0
280
     1
281
     0
  0
BLOCK_RECORD
  5
1C752
330
1
100
AcDbSymbolTableRecord
100
AcDbBlockTableRecord
  2
*D15
340
0
 70
     0
280
     1
281
     0
  0
BLOCK_RECORD
  5
1C75E
330
1
100
AcDbSymbolTableRecord
100
AcDbBlockTableRecord
  2
*D16
340
0
 70
     0
280
     1
281
     0
  0
BLOCK_RECORD
  5
1C76A
330
1
100
AcDbSymbolTableRecord
100
AcDbBlockTableRecord
  2
*D17
340
0
 70
     0
280
     1
281
     0
  0
BLOCK_RECORD
  5
1C776
330
1
100
AcDbSymbolTableRecord
100
AcDbBlockTableRecord
  2
*D18
340
0
 70
     0
280
     1
281
     0
  0
BLOCK_RECORD
  5
1C7A8
330
1
100
AcDbSymbolTableRecord
100
AcDbBlockTableRecord
  2
*D19
340
0
 70
     0
280
     1
281
     0
  0
BLOCK_RECORD
  5
1C7B4
330
1
100
AcDbSymbolTableRecord
100
AcDbBlockTableRecord
  2
*D20
340
0
 70
     0
280
     1
281
     0
  0
BLOCK_RECORD
  5
1C7C1
330
1
100
AcDbSymbolTableRecord
100
AcDbBlockTableRecord
  2
*D21
340
0
 70
     0
280
     1
281
     0
  0
BLOCK_RECORD
  5
1C7CD
330
1
100
AcDbSymbolTableRecord
100
AcDbBlockTableRecord
  2
*D22
340
0
 70
     0
280
     1
281
     0
  0
BLOCK_RECORD
  5
1C7D9
330
1
100
AcDbSymbolTableRecord
100
AcDbBlockTableRecord
  2
*D23
340
0
 70
     0
280
     1
281
     0
  0
BLOCK_RECORD
  5
1C7E5
330
1
100
AcDbSymbolTableRecord
100
AcDbBlockTableRecord
  2
*D24
340
0
 70
     0
280
     1
281
     0
  0
BLOCK_RECORD
  5
1C7F1
330
1
100
AcDbSymbolTableRecord
100
AcDbBlockTableRecord
  2
*D25
340
0
 70
     0
280
     1
281
     0
  0
BLOCK_RECORD
  5
1C7FD
330
1
100
AcDbSymbolTableRecord
100
AcDbBlockTableRecord
  2
*D26
340
0
 70
     0
280
     1
281
     0
  0
BLOCK_RECORD
  5
1C80A
330
1
100
AcDbSymbolTableRecord
100
AcDbBlockTableRecord
  2
*D27
340
0
 70
     0
280
     1
281
     0
  0
BLOCK_RECORD
  5
1C816
330
1
100
AcDbSymbolTableRecord
100
AcDbBlockTableRecord
  2
*D28
340
0
 70
     0
280
     1
281
     0
  0
BLOCK_RECORD
  5
1CCAD
330
1
100
AcDbSymbolTableRecord
100
AcDbBlockTableRecord
  2
*D29
340
0
 70
     0
280
     1
281
     0
  0
BLOCK_RECORD
  5
1CCB9
330
1
100
AcDbSymbolTableRecord
100
AcDbBlockTableRecord
  2
*D30
340
0
 70
     0
280
     1
281
     0
  0
BLOCK_RECORD
  5
1CCC5
330
1
100
AcDbSymbolTableRecord
100
AcDbBlockTableRecord
  2
*D31
340
0
 70
     0
280
     1
281
     0
  0
BLOCK_RECORD
  5
1CCD1
330
1
100
AcDbSymbolTableRecord
100
AcDbBlockTableRecord
  2
*D32
340
0
 70
     0
280
     1
281
     0
  0
BLOCK_RECORD
  5
1CCDE
330
1
100
AcDbSymbolTableRecord
100
AcDbBlockTableRecord
  2
*D33
340
0
 70
     0
280
     1
281
     0
  0
BLOCK_RECORD
  5
1CCEB
330
1
100
AcDbSymbolTableRecord
100
AcDbBlockTableRecord
  2
*D34
340
0
 70
     0
280
     1
281
     0
  0
BLOCK_RECORD
  5
1CCF7
330
1
100
AcDbSymbolTableRecord
100
AcDbBlockTableRecord
  2
*D35
340
0
 70
     0
280
     1
281
     0
  0
BLOCK_RECORD
  5
1CD03
330
1
100
AcDbSymbolTableRecord
100
AcDbBlockTableRecord
  2
*D36
340
0
 70
     0
280
     1
281
     0
  0
BLOCK_RECORD
  5
1CD0F
330
1
100
AcDbSymbolTableRecord
100
AcDbBlockTableRecord
  2
*D37
340
0
 70
     0
280
     1
281
     0
  0
BLOCK_RECORD
  5
1CD92
330
1
100
AcDbSymbolTableRecord
100
AcDbBlockTableRecord
  2
*D38
340
0
 70
     0
280
     1
281
     0
  0
BLOCK_RECORD
  5
1CD9E
330
1
100
AcDbSymbolTableRecord
100
AcDbBlockTableRecord
  2
*D39
340
0
 70
     0
280
     1
281
     0
  0
BLOCK_RECORD
  5
1CDBC
330
1
100
AcDbSymbolTableRecord
100
AcDbBlockTableRecord
  2
4pbase
340
0
310
2800000020000000200000000100080000000000000400000000000000000000000000000000000000000000000080000080000000808000800000008000800080800000C0C0C000C0DCC000F0CAA6000020400000206000002080000020A0000020C0000020E00000400000004020000040400000406000004080000040A0
310
000040C0000040E00000600000006020000060400000606000006080000060A0000060C0000060E00000800000008020000080400000806000008080000080A0000080C0000080E00000A0000000A0200000A0400000A0600000A0800000A0A00000A0C00000A0E00000C0000000C0200000C0400000C0600000C0800000C0
310
A00000C0C00000C0E00000E0000000E0200000E0400000E0600000E0800000E0A00000E0C00000E0E00040000000400020004000400040006000400080004000A0004000C0004000E00040200000402020004020400040206000402080004020A0004020C0004020E000404000004040200040404000404060004040800040
310
40A0004040C0004040E00040600000406020004060400040606000406080004060A0004060C0004060E00040800000408020004080400040806000408080004080A0004080C0004080E00040A0000040A0200040A0400040A0600040A0800040A0A00040A0C00040A0E00040C0000040C0200040C0400040C0600040C08000
310
40C0A00040C0C00040C0E00040E0000040E0200040E0400040E0600040E0800040E0A00040E0C00040E0E00080000000800020008000400080006000800080008000A0008000C0008000E00080200000802020008020400080206000802080008020A0008020C0008020E00080400000804020008040400080406000804080
310
008040A0008040C0008040E00080600000806020008060400080606000806080008060A0008060C0008060E00080800000808020008080400080806000808080008080A0008080C0008080E00080A0000080A0200080A0400080A0600080A0800080A0A00080A0C00080A0E00080C0000080C0200080C0400080C0600080C0
310
800080C0A00080C0C00080C0E00080E0000080E0200080E0400080E0600080E0800080E0A00080E0C00080E0E000C0000000C0002000C0004000C0006000C0008000C000A000C000C000C000E000C0200000C0202000C0204000C0206000C0208000C020A000C020C000C020E000C0400000C0402000C0404000C0406000C0
310
408000C040A000C040C000C040E000C0600000C0602000C0604000C0606000C0608000C060A000C060C000C060E000C0800000C0802000C0804000C0806000C0808000C080A000C080C000C080E000C0A00000C0A02000C0A04000C0A06000C0A08000C0A0A000C0A0C000C0A0E000C0C00000C0C02000C0C04000C0C06000
310
C0C08000C0C0A000F0FBFF00A4A0A000808080000000FF0000FF000000FFFF00FF000000FF00FF00FFFF0000FFFFFF0000000000000000000000000000000000000000000000000000000000000000000000000000000000000000000000000000000000000000000000000000000000000000000000000000000000000000
310
00000000000000000000000000000000000000000000000000000000000000000000000000000000000000000000000000000000000000000000000000000000000000000000000000000000000000000000000000000000000000000000000000000000000000000000000000000000000000000000000000000000000000
310
00000000000000000000000000000000000000000000000000000000000000000000000000000000000000000000000000000000000000000000000000000000000000000000000000000000000000000000000000000000000000000000000000000000000000000000000000000000000000000000000000000000000000
310
0000000000000000000000000000000000000000000000000000000000000000000000000000000000000000000000000000000000000000000000000000FEFEFEFEFE000000000000000000000000000000000000000000000000000000FE000000FE000000000000000000000000000000000000000000000000000000FE
310
000000FE000000000000000000000000000000000000000000000000000000FEFEFEFEFE0000000000000000000000000000000000000000000000000000FEFEFEFEFEFEFE00000000000000000000000000000000FEFEFEFEFEFEFEFEFEFEFEFEFEFEFEFEFEFEFEFEFEFEFEFEFEFEFEFEFEFE0000FE000000000000000000
310
00000000000000000000000000000000000000FE0000FEFEFEFEFEFEFEFEFEFEFEFEFEFEFEFEFEFEFEFEFEFEFEFEFEFEFEFEFEFE000000000000000000000000000000000000000000000000000000000000000000000000000000000000000000000000000000000000000000000000000000000000000000000000000000
310
00000000000000000000000000000000000000000000000000000000000000000000000000000000000000000000000000000000000000000000000000000000000000000000000000000000000000000000000000000000000000000000000000000000000000000000000000000000000000000000000000000000000000
310
00000000000000000000000000000000000000000000000000000000000000000000000000000000000000000000000000000000000000000000000000000000000000000000000000000000000000000000000000000000000000000000000000000000000000000000000000000000000000000000000000000000000000
310
0000000000000000000000000000000000000000000000000000000000000000000000000000000000000000000000000000000000000000
102
{BLKREFS
331
1CDD4
102
}
 70
     0
280
     1
281
     0
  0
BLOCK_RECORD
  5
1CE4C
330
1
100
AcDbSymbolTableRecord
100
AcDbBlockTableRecord
  2
*D41
340
0
 70
     0
280
     1
281
     0
  0
ENDTAB
  0
ENDSEC
  0
SECTION
  2
BLOCKS
  0
BLOCK
  5
1F
330
1E
100
AcDbEntity
  8
0
100
AcDbBlockBegin
  2
*MODEL_SPACE
 70
     0
 10
0.0
 20
0.0
 30
0.0
  3
*MODEL_SPACE
  1

  0
ENDBLK
  5
20
330
1E
100
AcDbEntity
  8
0
100
AcDbBlockEnd
  0
BLOCK
  5
1B
330
1A
100
AcDbEntity
 67
     1
  8
0
100
AcDbBlockBegin
  2
*PAPER_SPACE
 70
     0
 10
0.0
 20
0.0
 30
0.0
  3
*PAPER_SPACE
  1

  0
ENDBLK
  5
1C
330
1A
100
AcDbEntity
 67
     1
  8
0
100
AcDbBlockEnd
  0
BLOCK
  5
3B6
330
3B2
100
AcDbEntity
  8
0
100
AcDbBlockBegin
  2
_OPEN
 70
     0
 10
0.0
 20
0.0
 30
0.0
  3
_OPEN
  1

  0
LINE
  5
3B3
330
3B2
100
AcDbEntity
  8
30
  6
Continuous
 62
     0
100
AcDbLine
 10
-1.0
 20
0.166667
 30
0.0
 11
0.0
 21
0.0
 31
0.0
  0
LINE
  5
3B4
330
3B2
100
AcDbEntity
  8
30
  6
Continuous
 62
     0
100
AcDbLine
 10
-1.0
 20
-0.166667
 30
0.0
 11
0.0
 21
0.0
 31
0.0
  0
LINE
  5
3B5
330
3B2
100
AcDbEntity
  8
30
  6
Continuous
 62
     0
100
AcDbLine
 10
0.0
 20
0.0
 30
0.0
 11
-1.0
 21
0.0
 31
0.0
  0
ENDBLK
  5
3B7
330
3B2
100
AcDbEntity
  8
0
100
AcDbBlockEnd
  0
BLOCK
  5
175B5
330
175B4
100
AcDbEntity
  8
0
100
AcDbBlockBegin
  2
SW_CENTERMARKSYMBOL_28
 70
     0
 10
0.0
 20
0.0
 30
0.0
  3
SW_CENTERMARKSYMBOL_28
  1
SW_CENTERMARKSYMBOL_28
  0
LINE
  5
175B6
330
175B4
100
AcDbEntity
  8
240
 62
     0
100
AcDbLine
 10
0.0
 20
0.0
 30
0.0
 11
0.0
 21
0.5
 31
0.0
  0
LINE
  5
175B7
330
175B4
100
AcDbEntity
  8
240
 62
     0
100
AcDbLine
 10
0.0
 20
0.0
 30
0.0
 11
-0.5
 21
0.0
 31
0.0
  0
LINE
  5
175B8
330
175B4
100
AcDbEntity
  8
240
 62
     0
100
AcDbLine
 10
0.0
 20
0.0
 30
0.0
 11
0.0
 21
-0.5
 31
0.0
  0
LINE
  5
175B9
330
175B4
100
AcDbEntity
  8
240
 62
     0
100
AcDbLine
 10
0.0
 20
0.0
 30
0.0
 11
0.5
 21
0.0
 31
0.0
  0
LINE
  5
175BA
330
175B4
100
AcDbEntity
  8
240
 62
     0
100
AcDbLine
 10
0.0
 20
1.0
 30
0.0
 11
0.0
 21
1.423760430699999
 31
0.0
  0
LINE
  5
175BB
330
175B4
100
AcDbEntity
  8
240
 62
     0
100
AcDbLine
 10
-1.0
 20
0.0
 30
0.0
 11
-1.423760430699999
 21
0.0
 31
0.0
  0
LINE
  5
175BC
330
175B4
100
AcDbEntity
  8
240
 62
     0
100
AcDbLine
 10
0.0
 20
-1.0
 30
0.0
 11
0.0
 21
-1.423760430699999
 31
0.0
  0
LINE
  5
175BD
330
175B4
100
AcDbEntity
  8
240
 62
     0
100
AcDbLine
 10
1.0
 20
0.0
 30
0.0
 11
1.423760430699999
 21
0.0
 31
0.0
  0
ENDBLK
  5
175BE
330
175B4
100
AcDbEntity
  8
0
100
AcDbBlockEnd
  0
BLOCK
  5
178FD
330
178FC
100
AcDbEntity
  8
0
100
AcDbBlockBegin
  2
SW_CENTERMARKSYMBOL_27
 70
     0
 10
0.0
 20
0.0
 30
0.0
  3
SW_CENTERMARKSYMBOL_27
  1
SW_CENTERMARKSYMBOL_27
  0
LINE
  5
178FE
330
178FC
100
AcDbEntity
  8
240
 62
     0
100
AcDbLine
 10
0.0
 20
0.0
 30
0.0
 11
0.0
 21
0.5
 31
0.0
  0
LINE
  5
178FF
330
178FC
100
AcDbEntity
  8
240
 62
     0
100
AcDbLine
 10
0.0
 20
0.0
 30
0.0
 11
-0.5
 21
0.0
 31
0.0
  0
LINE
  5
17900
330
178FC
100
AcDbEntity
  8
240
 62
     0
100
AcDbLine
 10
0.0
 20
0.0
 30
0.0
 11
0.0
 21
-0.5
 31
0.0
  0
LINE
  5
17901
330
178FC
100
AcDbEntity
  8
240
 62
     0
100
AcDbLine
 10
0.0
 20
0.0
 30
0.0
 11
0.5
 21
0.0
 31
0.0
  0
LINE
  5
17902
330
178FC
100
AcDbEntity
  8
240
 62
     0
100
AcDbLine
 10
0.0
 20
1.0
 30
0.0
 11
0.0
 21
1.9
 31
0.0
  0
LINE
  5
17903
330
178FC
100
AcDbEntity
  8
240
 62
     0
100
AcDbLine
 10
-1.0
 20
0.0
 30
0.0
 11
-1.9
 21
0.0
 31
0.0
  0
LINE
  5
17904
330
178FC
100
AcDbEntity
  8
240
 62
     0
100
AcDbLine
 10
0.0
 20
-1.0
 30
0.0
 11
0.0
 21
-1.9
 31
0.0
  0
LINE
  5
17905
330
178FC
100
AcDbEntity
  8
240
 62
     0
100
AcDbLine
 10
1.0
 20
0.0
 30
0.0
 11
1.9
 21
0.0
 31
0.0
  0
ENDBLK
  5
17906
330
178FC
100
AcDbEntity
  8
0
100
AcDbBlockEnd
  0
BLOCK
  5
17CD5
330
17CD4
100
AcDbEntity
  8
0
100
AcDbBlockBegin
  2
SW_CENTERMARKSYMBOL_4
 70
     0
 10
0.0
 20
0.0
 30
0.0
  3
SW_CENTERMARKSYMBOL_4
  1
SW_CENTERMARKSYMBOL_4
  0
LINE
  5
17CD6
330
17CD4
100
AcDbEntity
  8
SLD-0
 62
     0
100
AcDbLine
 10
0.0
 20
0.0
 30
0.0
 11
0.0
 21
0.5
 31
0.0
  0
LINE
  5
17CD7
330
17CD4
100
AcDbEntity
  8
SLD-0
 62
     0
100
AcDbLine
 10
0.0
 20
0.0
 30
0.0
 11
-0.5
 21
0.0
 31
0.0
  0
LINE
  5
17CD8
330
17CD4
100
AcDbEntity
  8
SLD-0
 62
     0
100
AcDbLine
 10
0.0
 20
0.0
 30
0.0
 11
0.0
 21
-0.5
 31
0.0
  0
LINE
  5
17CD9
330
17CD4
100
AcDbEntity
  8
SLD-0
 62
     0
100
AcDbLine
 10
0.0
 20
0.0
 30
0.0
 11
0.5
 21
0.0
 31
0.0
  0
LINE
  5
17CDA
330
17CD4
100
AcDbEntity
  8
SLD-0
 62
     0
100
AcDbLine
 10
0.0
 20
1.0
 30
0.0
 11
0.0
 21
1.1
 31
0.0
  0
LINE
  5
17CDB
330
17CD4
100
AcDbEntity
  8
SLD-0
 62
     0
100
AcDbLine
 10
-1.0
 20
0.0
 30
0.0
 11
-1.1
 21
0.0
 31
0.0
  0
LINE
  5
17CDC
330
17CD4
100
AcDbEntity
  8
SLD-0
 62
     0
100
AcDbLine
 10
0.0
 20
-1.0
 30
0.0
 11
0.0
 21
-1.1
 31
0.0
  0
LINE
  5
17CDD
330
17CD4
100
AcDbEntity
  8
SLD-0
 62
     0
100
AcDbLine
 10
1.0
 20
0.0
 30
0.0
 11
1.1
 21
0.0
 31
0.0
  0
ENDBLK
  5
17CDE
330
17CD4
100
AcDbEntity
  8
0
100
AcDbBlockEnd
  0
BLOCK
  5
17CE0
330
17CDF
100
AcDbEntity
  8
0
100
AcDbBlockBegin
  2
SW_CENTERMARKSYMBOL_5
 70
     0
 10
0.0
 20
0.0
 30
0.0
  3
SW_CENTERMARKSYMBOL_5
  1
SW_CENTERMARKSYMBOL_5
  0
LINE
  5
17CE1
330
17CDF
100
AcDbEntity
  8
SLD-0
 62
     0
100
AcDbLine
 10
0.0
 20
0.0
 30
0.0
 11
0.0
 21
0.5
 31
0.0
  0
LINE
  5
17CE2
330
17CDF
100
AcDbEntity
  8
SLD-0
 62
     0
100
AcDbLine
 10
0.0
 20
0.0
 30
0.0
 11
-0.5
 21
0.0
 31
0.0
  0
LINE
  5
17CE3
330
17CDF
100
AcDbEntity
  8
SLD-0
 62
     0
100
AcDbLine
 10
0.0
 20
0.0
 30
0.0
 11
0.0
 21
-0.5
 31
0.0
  0
LINE
  5
17CE4
330
17CDF
100
AcDbEntity
  8
SLD-0
 62
     0
100
AcDbLine
 10
0.0
 20
0.0
 30
0.0
 11
0.5
 21
0.0
 31
0.0
  0
LINE
  5
17CE5
330
17CDF
100
AcDbEntity
  8
SLD-0
 62
     0
100
AcDbLine
 10
0.0
 20
1.0
 30
0.0
 11
0.0
 21
1.1
 31
0.0
  0
LINE
  5
17CE6
330
17CDF
100
AcDbEntity
  8
SLD-0
 62
     0
100
AcDbLine
 10
-1.0
 20
0.0
 30
0.0
 11
-1.1
 21
0.0
 31
0.0
  0
LINE
  5
17CE7
330
17CDF
100
AcDbEntity
  8
SLD-0
 62
     0
100
AcDbLine
 10
0.0
 20
-1.0
 30
0.0
 11
0.0
 21
-1.1
 31
0.0
  0
LINE
  5
17CE8
330
17CDF
100
AcDbEntity
  8
SLD-0
 62
     0
100
AcDbLine
 10
1.0
 20
0.0
 30
0.0
 11
1.1
 21
0.0
 31
0.0
  0
ENDBLK
  5
17CE9
330
17CDF
100
AcDbEntity
  8
0
100
AcDbBlockEnd
  0
BLOCK
  5
17CEB
330
17CEA
100
AcDbEntity
  8
0
100
AcDbBlockBegin
  2
SW_CENTERMARKSYMBOL_6
 70
     0
 10
0.0
 20
0.0
 30
0.0
  3
SW_CENTERMARKSYMBOL_6
  1
SW_CENTERMARKSYMBOL_6
  0
LINE
  5
17CEC
330
17CEA
100
AcDbEntity
  8
SLD-0
 62
     0
100
AcDbLine
 10
0.0
 20
0.0
 30
0.0
 11
0.0
 21
0.5
 31
0.0
  0
LINE
  5
17CED
330
17CEA
100
AcDbEntity
  8
SLD-0
 62
     0
100
AcDbLine
 10
0.0
 20
0.0
 30
0.0
 11
-0.5
 21
0.0
 31
0.0
  0
LINE
  5
17CEE
330
17CEA
100
AcDbEntity
  8
SLD-0
 62
     0
100
AcDbLine
 10
0.0
 20
0.0
 30
0.0
 11
0.0
 21
-0.5
 31
0.0
  0
LINE
  5
17CEF
330
17CEA
100
AcDbEntity
  8
SLD-0
 62
     0
100
AcDbLine
 10
0.0
 20
0.0
 30
0.0
 11
0.5
 21
0.0
 31
0.0
  0
LINE
  5
17CF0
330
17CEA
100
AcDbEntity
  8
SLD-0
 62
     0
100
AcDbLine
 10
0.0
 20
1.0
 30
0.0
 11
0.0
 21
1.1
 31
0.0
  0
LINE
  5
17CF1
330
17CEA
100
AcDbEntity
  8
SLD-0
 62
     0
100
AcDbLine
 10
-1.0
 20
0.0
 30
0.0
 11
-1.1
 21
0.0
 31
0.0
  0
LINE
  5
17CF2
330
17CEA
100
AcDbEntity
  8
SLD-0
 62
     0
100
AcDbLine
 10
0.0
 20
-1.0
 30
0.0
 11
0.0
 21
-1.1
 31
0.0
  0
LINE
  5
17CF3
330
17CEA
100
AcDbEntity
  8
SLD-0
 62
     0
100
AcDbLine
 10
1.0
 20
0.0
 30
0.0
 11
1.1
 21
0.0
 31
0.0
  0
ENDBLK
  5
17CF4
330
17CEA
100
AcDbEntity
  8
0
100
AcDbBlockEnd
  0
BLOCK
  5
17CF6
330
17CF5
100
AcDbEntity
  8
0
100
AcDbBlockBegin
  2
SW_CENTERMARKSYMBOL_7
 70
     0
 10
0.0
 20
0.0
 30
0.0
  3
SW_CENTERMARKSYMBOL_7
  1
SW_CENTERMARKSYMBOL_7
  0
LINE
  5
17CF7
330
17CF5
100
AcDbEntity
  8
SLD-0
 62
     0
100
AcDbLine
 10
0.0
 20
0.0
 30
0.0
 11
0.0
 21
0.5
 31
0.0
  0
LINE
  5
17CF8
330
17CF5
100
AcDbEntity
  8
SLD-0
 62
     0
100
AcDbLine
 10
0.0
 20
0.0
 30
0.0
 11
-0.5
 21
0.0
 31
0.0
  0
LINE
  5
17CF9
330
17CF5
100
AcDbEntity
  8
SLD-0
 62
     0
100
AcDbLine
 10
0.0
 20
0.0
 30
0.0
 11
0.0
 21
-0.5
 31
0.0
  0
LINE
  5
17CFA
330
17CF5
100
AcDbEntity
  8
SLD-0
 62
     0
100
AcDbLine
 10
0.0
 20
0.0
 30
0.0
 11
0.5
 21
0.0
 31
0.0
  0
LINE
  5
17CFB
330
17CF5
100
AcDbEntity
  8
SLD-0
 62
     0
100
AcDbLine
 10
0.0
 20
1.0
 30
0.0
 11
0.0
 21
1.1
 31
0.0
  0
LINE
  5
17CFC
330
17CF5
100
AcDbEntity
  8
SLD-0
 62
     0
100
AcDbLine
 10
-1.0
 20
0.0
 30
0.0
 11
-1.1
 21
0.0
 31
0.0
  0
LINE
  5
17CFD
330
17CF5
100
AcDbEntity
  8
SLD-0
 62
     0
100
AcDbLine
 10
0.0
 20
-1.0
 30
0.0
 11
0.0
 21
-1.1
 31
0.0
  0
LINE
  5
17CFE
330
17CF5
100
AcDbEntity
  8
SLD-0
 62
     0
100
AcDbLine
 10
1.0
 20
0.0
 30
0.0
 11
1.1
 21
0.0
 31
0.0
  0
ENDBLK
  5
17CFF
330
17CF5
100
AcDbEntity
  8
0
100
AcDbBlockEnd
  0
BLOCK
  5
17D01
330
17D00
100
AcDbEntity
  8
0
100
AcDbBlockBegin
  2
SW_CENTERMARKSYMBOL_26
 70
     0
 10
0.0
 20
0.0
 30
0.0
  3
SW_CENTERMARKSYMBOL_26
  1
SW_CENTERMARKSYMBOL_26
  0
LINE
  5
17D02
330
17D00
100
AcDbEntity
  8
SLD-0
 62
     0
100
AcDbLine
 10
0.0
 20
0.0
 30
0.0
 11
0.0
 21
0.5
 31
0.0
  0
LINE
  5
17D03
330
17D00
100
AcDbEntity
  8
SLD-0
 62
     0
100
AcDbLine
 10
0.0
 20
0.0
 30
0.0
 11
-0.5
 21
0.0
 31
0.0
  0
LINE
  5
17D04
330
17D00
100
AcDbEntity
  8
SLD-0
 62
     0
100
AcDbLine
 10
0.0
 20
0.0
 30
0.0
 11
0.0
 21
-0.5
 31
0.0
  0
LINE
  5
17D05
330
17D00
100
AcDbEntity
  8
SLD-0
 62
     0
100
AcDbLine
 10
0.0
 20
0.0
 30
0.0
 11
0.5
 21
0.0
 31
0.0
  0
LINE
  5
17D06
330
17D00
100
AcDbEntity
  8
SLD-0
 62
     0
100
AcDbLine
 10
0.0
 20
1.0
 30
0.0
 11
0.0
 21
1.199999999999999
 31
0.0
  0
LINE
  5
17D07
330
17D00
100
AcDbEntity
  8
SLD-0
 62
     0
100
AcDbLine
 10
-1.0
 20
0.0
 30
0.0
 11
-1.199999999999999
 21
0.0
 31
0.0
  0
LINE
  5
17D08
330
17D00
100
AcDbEntity
  8
SLD-0
 62
     0
100
AcDbLine
 10
0.0
 20
-1.0
 30
0.0
 11
0.0
 21
-1.199999999999999
 31
0.0
  0
LINE
  5
17D09
330
17D00
100
AcDbEntity
  8
SLD-0
 62
     0
100
AcDbLine
 10
1.0
 20
0.0
 30
0.0
 11
1.199999999999999
 21
0.0
 31
0.0
  0
ENDBLK
  5
17D0A
330
17D00
100
AcDbEntity
  8
0
100
AcDbBlockEnd
  0
BLOCK
  5
17D0C
330
17D0B
100
AcDbEntity
  8
0
100
AcDbBlockBegin
  2
SW_CENTERMARKSYMBOL_29
 70
     0
 10
0.0
 20
0.0
 30
0.0
  3
SW_CENTERMARKSYMBOL_29
  1
SW_CENTERMARKSYMBOL_29
  0
LINE
  5
17D0D
330
17D0B
100
AcDbEntity
  8
SLD-0
 62
     0
100
AcDbLine
 10
0.0
 20
0.0
 30
0.0
 11
0.0
 21
0.5
 31
0.0
  0
LINE
  5
17D0E
330
17D0B
100
AcDbEntity
  8
SLD-0
 62
     0
100
AcDbLine
 10
0.0
 20
0.0
 30
0.0
 11
-0.5
 21
0.0
 31
0.0
  0
LINE
  5
17D0F
330
17D0B
100
AcDbEntity
  8
SLD-0
 62
     0
100
AcDbLine
 10
0.0
 20
0.0
 30
0.0
 11
0.0
 21
-0.5
 31
0.0
  0
LINE
  5
17D10
330
17D0B
100
AcDbEntity
  8
SLD-0
 62
     0
100
AcDbLine
 10
0.0
 20
0.0
 30
0.0
 11
0.5
 21
0.0
 31
0.0
  0
LINE
  5
17D11
330
17D0B
100
AcDbEntity
  8
SLD-0
 62
     0
100
AcDbLine
 10
0.0
 20
1.0
 30
0.0
 11
0.0
 21
1.199999999999999
 31
0.0
  0
LINE
  5
17D12
330
17D0B
100
AcDbEntity
  8
SLD-0
 62
     0
100
AcDbLine
 10
-1.0
 20
0.0
 30
0.0
 11
-1.199999999999999
 21
0.0
 31
0.0
  0
LINE
  5
17D13
330
17D0B
100
AcDbEntity
  8
SLD-0
 62
     0
100
AcDbLine
 10
0.0
 20
-1.0
 30
0.0
 11
0.0
 21
-1.199999999999999
 31
0.0
  0
LINE
  5
17D14
330
17D0B
100
AcDbEntity
  8
SLD-0
 62
     0
100
AcDbLine
 10
1.0
 20
0.0
 30
0.0
 11
1.199999999999999
 21
0.0
 31
0.0
  0
ENDBLK
  5
17D15
330
17D0B
100
AcDbEntity
  8
0
100
AcDbBlockEnd
  0
BLOCK
  5
1C48B
330
1C48A
100
AcDbEntity
  8
0
100
AcDbBlockBegin
  2
SW_CENTERMARKSYMBOL_30
 70
     0
 10
0.0
 20
0.0
 30
0.0
  3
SW_CENTERMARKSYMBOL_30
  1
SW_CENTERMARKSYMBOL_30
  0
LINE
  5
1C48C
330
1C48A
100
AcDbEntity
  8
SLD-0
 62
     0
100
AcDbLine
 10
0.0
 20
0.0
 30
0.0
 11
0.0
 21
0.5
 31
0.0
  0
LINE
  5
1C48D
330
1C48A
100
AcDbEntity
  8
SLD-0
 62
     0
100
AcDbLine
 10
0.0
 20
0.0
 30
0.0
 11
-0.5
 21
0.0
 31
0.0
  0
LINE
  5
1C48E
330
1C48A
100
AcDbEntity
  8
SLD-0
 62
     0
100
AcDbLine
 10
0.0
 20
0.0
 30
0.0
 11
0.0
 21
-0.5
 31
0.0
  0
LINE
  5
1C48F
330
1C48A
100
AcDbEntity
  8
SLD-0
 62
     0
100
AcDbLine
 10
0.0
 20
0.0
 30
0.0
 11
0.5
 21
0.0
 31
0.0
  0
LINE
  5
1C490
330
1C48A
100
AcDbEntity
  8
SLD-0
 62
     0
100
AcDbLine
 10
0.0
 20
1.0
 30
0.0
 11
0.0
 21
1.8
 31
0.0
  0
LINE
  5
1C491
330
1C48A
100
AcDbEntity
  8
SLD-0
 62
     0
100
AcDbLine
 10
-1.0
 20
0.0
 30
0.0
 11
-1.8
 21
0.0
 31
0.0
  0
LINE
  5
1C492
330
1C48A
100
AcDbEntity
  8
SLD-0
 62
     0
100
AcDbLine
 10
0.0
 20
-1.0
 30
0.0
 11
0.0
 21
-1.8
 31
0.0
  0
LINE
  5
1C493
330
1C48A
100
AcDbEntity
  8
SLD-0
 62
     0
100
AcDbLine
 10
1.0
 20
0.0
 30
0.0
 11
1.8
 21
0.0
 31
0.0
  0
ENDBLK
  5
1C494
330
1C48A
100
AcDbEntity
  8
0
100
AcDbBlockEnd
  0
BLOCK
  5
1C496
330
1C495
100
AcDbEntity
  8
0
100
AcDbBlockBegin
  2
SW_CENTERMARKSYMBOL_31
 70
     0
 10
0.0
 20
0.0
 30
0.0
  3
SW_CENTERMARKSYMBOL_31
  1
SW_CENTERMARKSYMBOL_31
  0
LINE
  5
1C497
330
1C495
100
AcDbEntity
  8
SLD-0
 62
     0
100
AcDbLine
 10
0.0
 20
0.0
 30
0.0
 11
0.0
 21
0.5
 31
0.0
  0
LINE
  5
1C498
330
1C495
100
AcDbEntity
  8
SLD-0
 62
     0
100
AcDbLine
 10
0.0
 20
0.0
 30
0.0
 11
-0.5
 21
0.0
 31
0.0
  0
LINE
  5
1C499
330
1C495
100
AcDbEntity
  8
SLD-0
 62
     0
100
AcDbLine
 10
0.0
 20
0.0
 30
0.0
 11
0.0
 21
-0.5
 31
0.0
  0
LINE
  5
1C49A
330
1C495
100
AcDbEntity
  8
SLD-0
 62
     0
100
AcDbLine
 10
0.0
 20
0.0
 30
0.0
 11
0.5
 21
0.0
 31
0.0
  0
LINE
  5
1C49B
330
1C495
100
AcDbEntity
  8
SLD-0
 62
     0
100
AcDbLine
 10
0.0
 20
1.0
 30
0.0
 11
0.0
 21
1.8
 31
0.0
  0
LINE
  5
1C49C
330
1C495
100
AcDbEntity
  8
SLD-0
 62
     0
100
AcDbLine
 10
-1.0
 20
0.0
 30
0.0
 11
-1.8
 21
0.0
 31
0.0
  0
LINE
  5
1C49D
330
1C495
100
AcDbEntity
  8
SLD-0
 62
     0
100
AcDbLine
 10
0.0
 20
-1.0
 30
0.0
 11
0.0
 21
-1.8
 31
0.0
  0
LINE
  5
1C49E
330
1C495
100
AcDbEntity
  8
SLD-0
 62
     0
100
AcDbLine
 10
1.0
 20
0.0
 30
0.0
 11
1.8
 21
0.0
 31
0.0
  0
ENDBLK
  5
1C49F
330
1C495
100
AcDbEntity
  8
0
100
AcDbBlockEnd
  0
BLOCK
  5
1C4A3
330
1C4A0
100
AcDbEntity
  8
0
100
AcDbBlockBegin
  2
L-BAR
 70
     0
 10
0.0
 20
0.0
 30
0.0
  3
L-BAR
  1

  0
LWPOLYLINE
  5
1CEA6
330
1C4A0
100
AcDbEntity
  8
24
100
AcDbPolyline
 90
        4
 70
     0
 43
0.0
 10
-14.49999958259968
 20
0.0
 10
-14.49999958259968
 20
89.00000154959991
 10
14.49999958299986
 20
89.00000154959991
 10
14.49999958299986
 20
0.0
  0
LWPOLYLINE
  5
1CEA7
330
1C4A0
100
AcDbEntity
  8
24
  6
CONTINOUS
100
AcDbPolyline
 90
        5
 70
     0
 43
0.0
 10
6.525000000200178
 20
115.999999709449
 42
1.0
 10
-6.47499999979982
 20
115.999999709449
 10
-6.47499999979982
 20
115.0000000968501
 42
1.0
 10
6.525000000200178
 20
114.9999999031496
 10
6.525000208599975
 20
115.9999987558491
  0
INSERT
  5
1CEA8
330
1C4A0
100
AcDbEntity
  8
17
100
AcDbBlockReference
  2
SW_CENTERMARKSYMBOL_30
 10
-0.0250000002001798
 20
115.999999709449
 30
0.0
 41
4.0
 42
4.0
 43
-4.0
 50
180.0
210
0.0
220
0.0
230
-1.0
  0
LWPOLYLINE
  5
1CEA9
330
1C4A0
100
AcDbEntity
  8
24
100
AcDbPolyline
 90
      146
 70
     0
 43
0.0
 10
12.00316724840009
 20
130.999997258
 10
11.11687564320005
 20
130.999997258
 10
-10.60687564279988
 20
130.999997258
 10
-11.99170284373913
 20
130.999997258
 42
0.4143565783038863
 10
-14.99316763040015
 20
127.9999976155999
 10
-14.9931140718224
 20
115.9416990655066
 10
-14.99302464606144
 20
115.8866740434581
 10
-14.99268278083782
 20
115.7787693426513
 10
-14.99134877740034
 20
115.5643600043362
 10
-14.98607821226933
 20
115.1364052728375
 10
-14.97732926005501
 20
114.7087723412395
 10
-14.96508646805905
 20
114.2814348249402
 10
-14.94933233481351
 20
113.8544318988148
 10
-14.93003311682623
 20
113.4277978991557
 10
-14.90714700875578
 20
113.0015775773662
 10
-14.88063220526073
 20
112.5758156848491
 10
-14.85046269339973
 20
112.1505683976314
 10
-14.81657494760402
 20
111.7259323866027
 10
-14.77887089359246
 20
111.3020131454613
 10
-14.73725245708574
 20
110.8789161679063
 10
-14.69162156380271
 20
110.4567469476368
 10
-14.64188013946223
 20
110.0356109783509
 10
-14.58793010978452
 20
109.6156137537479
 10
-14.52967340048844
 20
109.1968607675259
 10
-14.44131881412495
 20
108.6171175837225
 10
-14.39370118873121
 20
108.3280176295325
 10
-14.34366547729105
 20
108.0394600317974
 10
-14.29111828137702
 20
107.7514657390027
 10
-14.23596620256075
 20
107.4640556996338
 10
-14.17811584241481
 20
107.1772508621762
 10
-14.11747380251081
 20
106.8910721751155
 10
-14.05397142041529
 20
106.6055350388602
 10
-13.98743951190927
 20
106.3206774000144
 10
-13.91763389588386
 20
106.0365540263566
 10
-13.8443103912311
 20
105.7532196856648
 10
-13.76722481684164
 20
105.4707291457174
 10
-13.68613299160752
 20
105.1891371742925
 10
-13.60079073441984
 20
104.9084985391687
 10
-13.51095386417018
 20
104.6288680081242
 10
-13.41638688352186
 20
104.3506483538551
 10
-13.31666941158819
 20
104.0743854620299
 10
-13.01127994193575
 20
103.8003487698843
 10
-12.89969696812977
 20
103.5288077146541
 10
-12.78129637766551
 20
103.2599187636433
 10
-12.1552380924918
 20
102.9944595135887
 10
-12.08907310977884
 20
102.8633913799779
 10
-12.02067665785671
 20
102.7336310958757
 10
-11.9499430548808
 20
102.6053288027053
 10
-11.87676661900787
 20
102.4786346418899
 10
-11.80097363421464
 20
102.3536643565628
 10
-11.72226144225169
 20
102.2305611248952
 10
-11.64033094793558
 20
102.1095162408668
 10
-11.55488305608287
 20
101.9907209984574
 10
-11.46541106842232
 20
101.8742045816469
 10
-11.37156447588677
 20
101.7605025560214
 10
-11.27327846709795
 20
101.6505657879693
 10
-11.17048823067853
 20
101.5453451438793
 10
-11.0631218014114
 20
101.4456926077139
 10
-10.95062036847457
 20
101.3524922713281
 10
-10.86219220763951
 20
101.2650456930838
 10
-10.83218885208225
 20
101.2214675117933
 10
-10.79999841720018
 20
101.176448166
 10
-10.79999841720018
 20
101.176448166
 10
-10.79999841720018
 20
101.176448166
 10
-10.79999841720018
 20
101.176448166
 10
-10.79999841720018
 20
101.176448166
 10
-10.79999841720018
 20
101.176448166
 10
-10.79999841720018
 20
101.176448166
 10
-10.79999841720018
 20
101.176448166
 10
-10.79999841720018
 20
101.176448166
 10
-10.79999841720018
 20
101.176448166
 10
-10.79999841720018
 20
101.176448166
 10
-10.79999841720018
 20
101.176448166
 10
-10.79999841720018
 20
101.176448166
 10
-10.79999841720018
 20
101.176448166
 10
10.79999841759991
 20
101.176448166
 10
10.79999841759991
 20
101.176448166
 10
10.79999841759991
 20
101.176448166
 10
10.79999841759991
 20
101.176448166
 10
10.79999841759991
 20
101.176448166
 10
10.79999841759991
 20
101.176448166
 10
10.79999841759991
 20
101.176448166
 10
10.79999841759991
 20
101.176448166
 10
10.79999841759991
 20
101.176448166
 10
10.79999841759991
 20
101.176448166
 10
10.79999841759991
 20
101.176448166
 10
10.79999841759991
 20
101.176448166
 10
10.79999841759991
 20
101.176448166
 10
10.79999841759991
 20
101.176448166
 10
10.79999841759991
 20
101.176448166
 10
10.79999841759991
 20
101.176448166
 10
11.56235330691425
 20
101.4451541479638
 10
11.67011353482211
 20
101.5449793483863
 10
11.7725491060728
 20
101.6495835645313
 10
11.87045243503917
 20
101.7586035645503
 10
11.96407841206337
 20
101.8715665242582
 10
12.05368192748801
 20
101.9879996194705
 10
12.13951787165479
 20
102.1074300260025
 10
12.22184113490584
 20
102.2293849196694
 10
12.30090660758378
 20
102.3533914762867
 10
12.3769691800303
 20
102.4789768716695
 10
12.4503308831413
 20
102.606013877043
 10
12.52119693931263
 20
102.7345890216101
 10
12.58967702613563
 20
102.8645501181531
 10
12.65588082120075
 20
102.9957449794547
 10
12.78189824642186
 20
103.2612272474625
 10
12.90012663570405
 20
103.5298183278927
 10
13.01143130694891
 20
103.8007210500307
 10
13.12646455242726
 20
104.0738196817876
 10
13.22578425442112
 20
104.3489188833614
 10
13.31994829521205
 20
104.6258233149497
 10
13.40949526376858
 20
104.9044018162142
 10
13.49472892229074
 20
105.1845454231571
 10
13.57585491290844
 20
105.4660920904863
 10
13.65307887775293
 20
105.7488797729095
 10
13.72660645895463
 20
106.0327464251346
 10
13.79664329864432
 20
106.3175300018697
 10
13.86339503895284
 20
106.6030684578223
 10
13.9270673220101
 20
106.8891997477008
 10
14.18782834746022
 20
107.1758558804099
 10
14.24577316930205
 20
107.463064352765
 10
14.30099771120145
 20
107.7508063513385
 10
14.35359789682203
 20
108.0390630627025
 10
14.40366964982919
 20
108.3278156734297
 10
14.45130889388789
 20
108.6170453700926
 10
14.53967354981974
 20
109.1968607675206
 10
14.59793025912446
 20
109.6156137538056
 10
14.65188028880853
 20
110.0356109784562
 10
14.70162171315311
 20
110.4567469477819
 10
14.74725260643932
 20
110.8789161680914
 10
14.78887104294832
 20
111.3020131456943
 10
14.8265750969617
 20
111.7259323869001
 10
14.86046284276059
 20
112.150568398018
 10
14.89063235462569
 20
112.5758156853575
 10
14.91714715812392
 20
113.0015775780081
 10
14.94003326619482
 20
113.4277978999174
 10
14.95933248417983
 20
113.8544318996811
 10
14.97508661742127
 20
114.2814348258952
 10
14.98732940941132
 20
114.7087723422649
 10
14.99607836161836
 20
115.1364052739176
 10
15.00134892674074
 20
115.5643600054208
 10
15.00268293017276
 20
115.7787693436167
 10
15.0030247953941
 20
115.8866740441743
 10
15.00311422115415
 20
115.941699065857
 10
15.0031677800002
 20
127.9999976155999
 42
0.4142135623730912
 10
12.0031677800002
 20
130.9999976155999
  0
LWPOLYLINE
  5
1CEAA
330
1C4A0
100
AcDbEntity
  8
24
100
AcDbPolyline
 90
        4
 70
     1
 43
0.0
 10
-10.79999841720018
 20
101.176448166
 10
10.79999841759991
 20
101.176448166
 10
10.80000028020004
 20
89.00000154959991
 10
-10.80000028020004
 20
89.00000154959991
  0
INSERT
  5
1CEAB
330
1C4A0
100
AcDbEntity
  8
17
100
AcDbBlockReference
  2
SW_CENTERMARKSYMBOL_31
 10
-0.0250000002001798
 20
114.999999709449
 30
0.0
 41
4.0
 42
4.0
 43
-4.0
 50
180.0
210
0.0
220
0.0
230
-1.0
  0
ENDBLK
  5
1C4AA
330
1C4A0
100
AcDbEntity
  8
0
100
AcDbBlockEnd
  0
BLOCK
  5
1C4AE
330
1C4AB
100
AcDbEntity
  8
0
100
AcDbBlockBegin
  2
S-BAR
 70
     0
 10
0.0
 20
0.0
 30
0.0
  3
S-BAR
  1

  0
LINE
  5
1CE95
330
1C4AB
100
AcDbEntity
  8
24
  6
SLD-実線
370
    15
100
AcDbLine
 10
-14.19999729840037
 20
24.49999935919993
 30
0.0
 11
14.19999916079996
 21
24.49999935919993
 31
0.0
  0
LWPOLYLINE
  5
1CE96
330
1C4AB
100
AcDbEntity
  8
24
  6
CONTINOUS
100
AcDbPolyline
 90
        5
 70
     0
 43
0.0
 10
6.499999143200057
 20
50.99999970944917
 42
1.0
 10
-6.500000856799942
 20
50.99999970944917
 10
-6.500000856799942
 20
50.00000009685016
 42
1.0
 10
6.499999143200057
 20
49.99999990314961
 10
6.499999351599853
 20
50.9999987558491
  0
INSERT
  5
1CE97
330
1C4AB
100
AcDbEntity
  8
17
100
AcDbBlockReference
  2
SW_CENTERMARKSYMBOL_30
 10
0.000000856799943
 20
50.99999970944917
 30
0.0
 41
4.0
 42
4.0
 43
-4.0
 50
180.0
210
0.0
220
0.0
230
-1.0
  0
INSERT
  5
1CE98
330
1C4AB
100
AcDbEntity
  8
17
100
AcDbBlockReference
  2
SW_CENTERMARKSYMBOL_31
 10
0.000000856799943
 20
49.99999970944918
 30
0.0
 41
4.0
 42
4.0
 43
-4.0
 50
180.0
210
0.0
220
0.0
230
-1.0
  0
LWPOLYLINE
  5
1CE99
330
1C4AB
100
AcDbEntity
  8
24
100
AcDbPolyline
 90
      146
 70
     0
 43
0.0
 10
11.89316631680012
 20
65.99999964239998
 10
11.20687471160008
 20
65.99999964239998
 10
-10.80687657439985
 20
65.99999964239998
 10
-12.0917037753391
 20
65.99999964239998
 42
0.4143565783038863
 10
-15.09316856200011
 20
63.0
 10
-15.09311500342237
 20
50.94170144990653
 10
-15.0930255776614
 20
50.88667642785811
 10
-15.09268371243779
 20
50.77877172705132
 10
-15.09134970900031
 20
50.56436238873629
 10
-15.0860791438693
 20
50.13640765723743
 10
-15.07733019165498
 20
49.70877472563961
 10
-15.06508739965902
 20
49.28143720934031
 10
-15.04933326641348
 20
48.8544342832148
 10
-15.0300340484262
 20
48.42780028355559
 10
-15.00714794035575
 20
48.00157996176608
 10
-14.9806331368607
 20
47.57581806924918
 10
-14.9504636249997
 20
47.15057078203142
 10
-14.91657587920399
 20
46.72593477100257
 10
-14.87887182519243
 20
46.30201552986124
 10
-14.83725338868571
 20
45.87891855230646
 10
-14.79162249540268
 20
45.45674933203679
 10
-14.74188107106219
 20
45.03561336275106
 10
-14.68793104138448
 20
44.61561613814786
 10
-14.62967433208841
 20
44.19686315192587
 10
-14.54131974572492
 20
43.61711996812255
 10
-14.49370212033118
 20
43.32802001393246
 10
-14.44366640889102
 20
43.03946241619734
 10
-14.39111921297699
 20
42.75146812340267
 10
-14.33596713416072
 20
42.4640580840338
 10
-14.27811677401478
 20
42.17725324657624
 10
-14.21747473411078
 20
41.89107455951557
 10
-14.15397235201526
 20
41.60553742326022
 10
-14.08744044350924
 20
41.32067978441443
 10
-14.01763482748383
 20
41.03655641075659
 10
-13.94431132283107
 20
40.75322207006478
 10
-13.86722574844161
 20
40.4707315301174
 10
-13.78613392320749
 20
40.18913955869254
 10
-13.10079166601981
 20
39.90850092356868
 10
-13.01095479577015
 20
39.62887039252417
 10
-12.91638781512183
 20
39.35065073825512
 10
-12.61667034318816
 20
39.0743878464299
 10
-12.51128087353572
 20
38.80035115428427
 10
-12.39969789972974
 20
38.52881009905411
 10
-12.28129730926548
 20
38.25992114804331
 10
-12.15523902409177
 20
37.99446189798869
 10
-12.08907404137881
 20
37.86339376437786
 10
-12.02067758945668
 20
37.73363348027567
 10
-11.94994398648077
 20
37.60533118710532
 10
-11.87676755060784
 20
37.4786370262899
 10
-11.80097456581461
 20
37.35366674096281
 10
-11.72226237385166
 20
37.23056350929518
 10
-11.64033187953555
 20
37.10951862526679
 10
-11.55488398768284
 20
36.99072338285737
 10
-11.46541200002229
 20
36.87420696604693
 10
-11.37156540748674
 20
36.76050494042136
 10
-11.27327939869792
 20
36.65056817236929
 10
-11.1704891622785
 20
36.54534752827931
 10
-11.06312273301137
 20
36.44569499211389
 10
-10.95062130007454
 20
36.35249465572815
 10
-10.86219313923948
 20
36.26504807748381
 10
-10.83218978368222
 20
36.22146989619329
 10
-10.79999934880015
 20
36.17645055039998
 10
-10.79999934880015
 20
36.17645055039998
 10
-10.79999934880015
 20
36.17645055039998
 10
-10.79999934880015
 20
36.17645055039998
 10
-10.79999934880015
 20
36.17645055039998
 10
-10.79999934880015
 20
36.17645055039998
 10
-10.79999934880015
 20
36.17645055039998
 10
-10.79999934880015
 20
36.17645055039998
 10
-10.79999934880015
 20
36.17645055039998
 10
-10.79999934880015
 20
36.17645055039998
 10
-10.79999934880015
 20
36.17645055039998
 10
-10.79999934880015
 20
36.17645055039998
 10
-10.79999934880015
 20
36.17645055039998
 10
-10.79999934880015
 20
36.17645055039998
 10
10.79999748599994
 20
36.17645055039998
 10
10.79999748599994
 20
36.17645055039998
 10
10.79999748599994
 20
36.17645055039998
 10
10.79999748599994
 20
36.17645055039998
 10
10.79999748599994
 20
36.17645055039998
 10
10.79999748599994
 20
36.17645055039998
 10
10.79999748599994
 20
36.17645055039998
 10
10.79999748599994
 20
36.17645055039998
 10
10.79999748599994
 20
36.17645055039998
 10
10.79999748599994
 20
36.17645055039998
 10
10.79999748599994
 20
36.17645055039998
 10
10.79999748599994
 20
36.17645055039998
 10
10.79999748599994
 20
36.17645055039998
 10
10.79999748599994
 20
36.17645055039998
 10
10.79999748599994
 20
36.17645055039998
 10
10.79999748599994
 20
36.17645055039998
 10
11.06235237531427
 20
36.44515653236386
 10
11.17011260322215
 20
36.54498173278625
 10
11.27254817447283
 20
36.64958594893131
 10
11.3704515034392
 20
36.75860594895028
 10
11.4640774804634
 20
36.87156890865822
 10
11.55368099588804
 20
36.98800200387053
 10
11.63951694005482
 20
37.10743241040245
 10
11.72184020330587
 20
37.22938730406941
 10
11.80090567598381
 20
37.35339386068665
 10
11.87696824843033
 20
37.47897925606948
 10
11.95032995154133
 20
37.60601626144296
 10
12.02119600771266
 20
37.73459140601005
 10
12.08967609453566
 20
37.86455250255313
 10
12.15587988960078
 20
37.99574736385466
 10
12.68189731482189
 20
38.26122963186254
 10
12.80012570410408
 20
38.52982071229268
 10
12.91143037534893
 20
38.80072343443067
 10
13.01646362082729
 20
39.07382206618763
 10
13.11578332282115
 20
39.3489212677614
 10
13.20994736361208
 20
39.62582569934966
 10
13.29949433216861
 20
39.90440420061418
 10
13.38472799069077
 20
40.18454780755711
 10
13.66585398130846
 20
40.46609447488629
 10
13.74307794615297
 20
40.74888215730947
 10
13.81660552735465
 20
41.03274880953461
 10
13.88664236704435
 20
41.3175323862697
 10
13.95339410735287
 20
41.60307084222234
 10
14.01706639041012
 20
41.88920213210075
 10
14.07782741586024
 20
42.1758582648099
 10
14.13577223770207
 20
42.46306673716502
 10
14.19099677960148
 20
42.75080873573847
 10
14.24359696522206
 20
43.03906544710253
 10
14.29366871822922
 20
43.32781805782974
 10
14.34130796228792
 20
43.61704775449253
 10
14.42967261821977
 20
44.19686315192051
 10
14.48792932752448
 20
44.61561613820562
 10
14.54187935720856
 20
45.03561336285621
 10
14.59162078155313
 20
45.45674933218173
 10
14.63725167483935
 20
45.87891855249131
 10
14.67887011134835
 20
46.3020155300943
 10
14.71657416536172
 20
46.7259347713002
 10
14.75046191116061
 20
47.15057078241807
 10
14.78063142302571
 20
47.57581806975747
 10
14.80714622652394
 20
48.00157996240806
 10
14.83003233459485
 20
48.42780028431729
 10
14.84933155257986
 20
48.85443428408109
 10
14.8650856858213
 20
49.28143721029528
 10
14.87732847781135
 20
49.70877472666495
 10
14.88607743001839
 20
50.13640765831757
 10
14.89134799514076
 20
50.56436238982087
 10
14.89268199857279
 20
50.77877172801675
 10
14.89302386379413
 20
50.88667642857434
 10
14.89311328955418
 20
50.94170145025703
 10
14.89316684840023
 20
63.0
 42
0.4142135623730951
 10
11.89316684840023
 20
66.0
  0
LWPOLYLINE
  5
1CE9A
330
1C4AB
100
AcDbEntity
  8
24
100
AcDbPolyline
 90
        4
 70
     1
 43
0.0
 10
-10.79999934880015
 20
36.17645055039998
 10
10.79999748599994
 20
36.17645055039998
 10
10.79999748599994
 20
27.49999985080001
 10
-10.79999934880015
 20
27.49999985080001
  0
LWPOLYLINE
  5
1CE9B
330
1C4AB
100
AcDbEntity
  8
24
  6
SLD-実線
370
    15
100
AcDbPolyline
 90
        7
 70
     0
 43
0.0
 10
-14.19999729840037
 20
0.0
 10
-14.19999729840037
 20
24.49999935920005
 10
-13.69999628520054
 20
27.49999985080001
 10
0.0000009311997928
 20
27.49999985080001
 10
13.70000187319965
 20
27.49999985080001
 10
14.20000288639949
 20
24.49999935919993
 10
14.20000288639949
 20
0.0
  0
ENDBLK
  5
1C4B6
330
1C4AB
100
AcDbEntity
  8
0
100
AcDbBlockEnd
  0
BLOCK
  5
1C6D8
330
1C6D7
100
AcDbEntity
  8
0
100
AcDbBlockBegin
  2
*D13
 70
     1
 10
0.0
 20
0.0
 30
0.0
  3
*D13
  1

  0
LINE
  5
1C82E
330
1C6D7
100
AcDbEntity
  8
30
  6
Continuous
 62
     0
440
 16777216
370
    -2
100
AcDbLine
 10
75.0
 20
161.0
 30
0.0
 11
75.0
 21
46.66599564199986
 31
0.0
  0
LINE
  5
1C82F
330
1C6D7
100
AcDbEntity
  8
30
  6
Continuous
 62
     0
440
 16777216
370
    -2
100
AcDbLine
 10
292.0
 20
156.0
 30
0.0
 11
292.0
 21
46.66599564199986
 31
0.0
  0
LINE
  5
1C830
330
1C6D7
100
AcDbEntity
  8
30
  6
Continuous
 62
     0
440
 16777216
370
    -2
100
AcDbLine
 10
77.0
 20
47.16599564199986
 30
0.0
 11
290.0
 21
47.16599564199986
 31
0.0
  0
INSERT
  5
1C831
330
1C6D7
100
AcDbEntity
  8
30
  6
Continuous
 62
     0
440
 16777216
370
    -2
100
AcDbBlockReference
  2
_OPEN
 10
75.0
 20
47.16599564199986
 30
0.0
 41
2.0
 42
2.0
 43
2.0
 50
180.0
  0
INSERT
  5
1C832
330
1C6D7
100
AcDbEntity
  8
30
  6
Continuous
 62
     0
440
 16777216
370
    -2
100
AcDbBlockReference
  2
_OPEN
 10
292.0
 20
47.16599564199986
 30
0.0
 41
2.0
 42
2.0
 43
2.0
  0
MTEXT
  5
1C833
330
1C6D7
100
AcDbEntity
  8
30
  6
Continuous
440
 16777216
100
AcDbMText
 10
183.5
 20
58.16599564199986
 30
0.0
 40
8.0
 41
0.0
 46
0.0
 71
     2
 72
     1
  1
\A1;217
 73
     1
 44
1.0
 90
        3
 63
     9
421
 13158600
 45
1.25
441
        0
  0
POINT
  5
1C834
330
1C6D7
100
AcDbEntity
  8
DEFPOINTS
  6
Continuous
 62
     0
440
 16777216
100
AcDbPoint
 10
75.0
 20
162.0
 30
0.0
  0
POINT
  5
1C835
330
1C6D7
100
AcDbEntity
  8
DEFPOINTS
  6
Continuous
 62
     0
440
 16777216
100
AcDbPoint
 10
292.0
 20
157.0
 30
0.0
  0
POINT
  5
1C836
330
1C6D7
100
AcDbEntity
  8
DEFPOINTS
  6
Continuous
 62
     0
440
 16777216
100
AcDbPoint
 10
292.0
 20
47.16599564199986
 30
0.0
  0
ENDBLK
  5
1C6D9
330
1C6D7
100
AcDbEntity
  8
0
100
AcDbBlockEnd
  0
BLOCK
  5
1C6F0
330
1C6EF
100
AcDbEntity
  8
0
100
AcDbBlockBegin
  2
*D14
 70
     1
 10
0.0
 20
0.0
 30
0.0
  3
*D14
  1

  0
LINE
  5
1C840
330
1C6EF
100
AcDbEntity
  8
30
  6
Continuous
 62
     0
440
 16777216
370
    -2
100
AcDbLine
 10
289.7656930798671
 20
323.9742788988396
 30
0.0
 11
288.9532178361825
 21
322.1467439529632
 31
0.0
  0
LINE
  5
1C841
330
1C6EF
100
AcDbEntity
  8
30
  6
Continuous
 62
     0
440
 16777216
370
    -2
100
AcDbLine
 10
294.2343069201322
 20
334.02572110116
 30
0.0
 11
303.0736322997721
 21
353.9083897176279
 31
0.0
  0
LINE
  5
1C842
330
1C6EF
100
AcDbEntity
  8
30
  6
Continuous
 62
     0
440
 16777216
370
    -2
100
AcDbLine
 10
303.0736322997721
 20
353.9083897176279
 30
0.0
 11
319.4069656331055
 21
353.9083897176281
 31
0.0
  0
LINE
  5
1C843
330
1C6EF
100
AcDbEntity
  8
30
  6
Continuous
 62
     0
440
 16777216
370
    -2
100
AcDbLine
 10
290.5781683235517
 20
325.801813844716
 30
0.0
 11
293.4218316764476
 21
332.1981861552836
 31
0.0
  0
INSERT
  5
1C844
330
1C6EF
100
AcDbEntity
  8
30
  6
Continuous
 62
     0
440
 16777216
370
    -2
100
AcDbBlockReference
  2
_OPEN
 10
290.5781683235517
 20
325.801813844716
 30
0.0
 41
2.0
 42
2.0
 43
2.0
 50
66.03129382973019
  0
INSERT
  5
1C845
330
1C6EF
100
AcDbEntity
  8
30
  6
Continuous
 62
     0
440
 16777216
370
    -2
100
AcDbBlockReference
  2
_OPEN
 10
293.4218316764476
 20
332.1981861552836
 30
0.0
 41
2.0
 42
2.0
 43
2.0
 50
246.0312938297302
  0
MTEXT
  5
1C846
330
1C6EF
100
AcDbEntity
  8
30
  6
Continuous
 62
     0
440
 16777216
100
AcDbMText
 10
312.7402989664387
 20
360.9083897176281
 30
0.0
 40
8.0
 41
0.0
 46
0.0
 71
     5
 72
     1
  1
\A1;∅7
 73
     1
 44
1.0
  0
POINT
  5
1C847
330
1C6EF
100
AcDbEntity
  8
DEFPOINTS
  6
Continuous
 62
     0
440
 16777216
100
AcDbPoint
 10
293.4218316764476
 20
332.1981861552836
 30
0.0
  0
POINT
  5
1C848
330
1C6EF
100
AcDbEntity
  8
DEFPOINTS
  6
Continuous
 62
     0
440
 16777216
100
AcDbPoint
 10
290.5781683235517
 20
325.801813844716
 30
0.0
  0
ENDBLK
  5
1C6F1
330
1C6EF
100
AcDbEntity
  8
0
100
AcDbBlockEnd
  0
BLOCK
  5
1C753
330
1C752
100
AcDbEntity
  8
0
100
AcDbBlockBegin
  2
*D15
 70
     1
 10
0.0
 20
0.0
 30
0.0
  3
*D15
  1

  0
LINE
  5
1C88B
330
1C752
100
AcDbEntity
  8
30
  6
Continuous
 62
     0
440
 16777216
370
    -2
100
AcDbLine
 10
548.2444162702521
 20
514.7251032693912
 30
0.0
 11
548.2444162702521
 21
455.2318383455321
 31
0.0
  0
LINE
  5
1C88C
330
1C752
100
AcDbEntity
  8
30
  6
Continuous
 62
     0
440
 16777216
370
    -2
100
AcDbLine
 10
770.2444135282522
 20
587.9999999999991
 30
0.0
 11
770.2444135282522
 21
455.2318383455321
 31
0.0
  0
LINE
  5
1C88D
330
1C752
100
AcDbEntity
  8
30
  6
Continuous
 62
     0
440
 16777216
370
    -2
100
AcDbLine
 10
550.2444162702523
 20
455.7318383455321
 30
0.0
 11
768.2444135282523
 21
455.7318383455321
 31
0.0
  0
INSERT
  5
1C88E
330
1C752
100
AcDbEntity
  8
30
  6
Continuous
 62
     0
440
 16777216
370
    -2
100
AcDbBlockReference
  2
_OPEN
 10
548.2444162702521
 20
455.7318383455321
 30
0.0
 41
2.0
 42
2.0
 43
2.0
 50
180.0
  0
INSERT
  5
1C88F
330
1C752
100
AcDbEntity
  8
30
  6
Continuous
 62
     0
440
 16777216
370
    -2
100
AcDbBlockReference
  2
_OPEN
 10
770.2444135282522
 20
455.7318383455321
 30
0.0
 41
2.0
 42
2.0
 43
2.0
  0
MTEXT
  5
1C890
330
1C752
100
AcDbEntity
  8
30
  6
Continuous
440
 16777216
100
AcDbMText
 10
647.6529521070823
 20
466.7318383455321
 30
0.0
 40
8.0
 41
0.0
 46
0.0
 71
     2
 72
     1
  1
\A1;222
 73
     1
 44
1.0
 90
        3
 63
     9
421
 13158600
 45
1.25
441
        0
  0
POINT
  5
1C891
330
1C752
100
AcDbEntity
  8
DEFPOINTS
  6
Continuous
 62
     0
440
 16777216
100
AcDbPoint
 10
548.2444162702521
 20
515.7251032693912
 30
0.0
  0
POINT
  5
1C892
330
1C752
100
AcDbEntity
  8
DEFPOINTS
  6
Continuous
 62
     0
440
 16777216
100
AcDbPoint
 10
770.2444135282522
 20
588.9999999999992
 30
0.0
  0
POINT
  5
1C893
330
1C752
100
AcDbEntity
  8
DEFPOINTS
  6
Continuous
 62
     0
440
 16777216
100
AcDbPoint
 10
770.2444135282522
 20
455.7318383455321
 30
0.0
  0
ENDBLK
  5
1C754
330
1C752
100
AcDbEntity
  8
0
100
AcDbBlockEnd
  0
BLOCK
  5
1C75F
330
1C75E
100
AcDbEntity
  8
0
100
AcDbBlockBegin
  2
*D16
 70
     1
 10
0.0
 20
0.0
 30
0.0
  3
*D16
  1

  0
LINE
  5
1C894
330
1C75E
100
AcDbEntity
  8
30
  6
Continuous
 62
     0
440
 16777216
370
    -2
100
AcDbLine
 10
705.2444159126523
 20
587.9999999999991
 30
0.0
 11
705.2444159126523
 21
482.0417058482816
 31
0.0
  0
LINE
  5
1C895
330
1C75E
100
AcDbEntity
  8
30
  6
Continuous
 62
     0
440
 16777216
370
    -2
100
AcDbLine
 10
548.2444162702521
 20
514.7251032693912
 30
0.0
 11
548.2444162702521
 21
482.0417058482816
 31
0.0
  0
LINE
  5
1C896
330
1C75E
100
AcDbEntity
  8
30
  6
Continuous
 62
     0
440
 16777216
370
    -2
100
AcDbLine
 10
703.2444159126522
 20
482.5417058482817
 30
0.0
 11
550.2444162702523
 21
482.5417058482817
 31
0.0
  0
INSERT
  5
1C897
330
1C75E
100
AcDbEntity
  8
30
  6
Continuous
 62
     0
440
 16777216
370
    -2
100
AcDbBlockReference
  2
_OPEN
 10
705.2444159126523
 20
482.5417058482817
 30
0.0
 41
2.0
 42
2.0
 43
2.0
  0
INSERT
  5
1C898
330
1C75E
100
AcDbEntity
  8
30
  6
Continuous
 62
     0
440
 16777216
370
    -2
100
AcDbBlockReference
  2
_OPEN
 10
548.2444162702521
 20
482.5417058482817
 30
0.0
 41
2.0
 42
2.0
 43
2.0
 50
180.0
  0
MTEXT
  5
1C899
330
1C75E
100
AcDbEntity
  8
30
  6
Continuous
440
 16777216
100
AcDbMText
 10
629.4794521591077
 20
493.5417058482816
 30
0.0
 40
8.0
 41
0.0
 46
0.0
 71
     2
 72
     1
  1
\A1;157
 73
     1
 44
1.0
 90
        3
 63
     9
421
 13158600
 45
1.25
441
        0
  0
POINT
  5
1C89A
330
1C75E
100
AcDbEntity
  8
DEFPOINTS
  6
Continuous
 62
     0
440
 16777216
100
AcDbPoint
 10
705.2444159126523
 20
588.9999999999992
 30
0.0
  0
POINT
  5
1C89B
330
1C75E
100
AcDbEntity
  8
DEFPOINTS
  6
Continuous
 62
     0
440
 16777216
100
AcDbPoint
 10
548.2444162702521
 20
515.7251032693912
 30
0.0
  0
POINT
  5
1C89C
330
1C75E
100
AcDbEntity
  8
DEFPOINTS
  6
Continuous
 62
     0
440
 16777216
100
AcDbPoint
 10
548.2444162702521
 20
482.5417058482817
 30
0.0
  0
ENDBLK
  5
1C760
330
1C75E
100
AcDbEntity
  8
0
100
AcDbBlockEnd
  0
BLOCK
  5
1C76B
330
1C76A
100
AcDbEntity
  8
0
100
AcDbBlockBegin
  2
*D17
 70
     1
 10
0.0
 20
0.0
 30
0.0
  3
*D17
  1

  0
LINE
  5
1C89D
330
1C76A
100
AcDbEntity
  8
30
  6
Continuous
 62
     0
440
 16777216
370
    -2
100
AcDbLine
 10
773.9978368750071
 20
816.9838920533909
 30
0.0
 11
811.0091498567529
 21
816.9838920533909
 31
0.0
  0
LINE
  5
1C89E
330
1C76A
100
AcDbEntity
  8
30
  6
Continuous
 62
     0
440
 16777216
370
    -2
100
AcDbLine
 10
757.5041539577522
 20
588.9838920533916
 30
0.0
 11
811.0091498567527
 21
588.9838920533915
 31
0.0
  0
LINE
  5
1C89F
330
1C76A
100
AcDbEntity
  8
30
  6
Continuous
 62
     0
440
 16777216
370
    -2
100
AcDbLine
 10
810.5091498567528
 20
814.9838920533907
 30
0.0
 11
810.5091498567528
 21
590.9838920533915
 31
0.0
  0
INSERT
  5
1C8A0
330
1C76A
100
AcDbEntity
  8
30
  6
Continuous
 62
     0
440
 16777216
370
    -2
100
AcDbBlockReference
  2
_OPEN
 10
810.5091498567528
 20
816.9838920533909
 30
0.0
 41
2.0
 42
2.0
 43
2.0
 50
90.0
  0
INSERT
  5
1C8A1
330
1C76A
100
AcDbEntity
  8
30
  6
Continuous
 62
     0
440
 16777216
370
    -2
100
AcDbBlockReference
  2
_OPEN
 10
810.5091498567528
 20
588.9838920533915
 30
0.0
 41
2.0
 42
2.0
 43
2.0
 50
270.0
  0
MTEXT
  5
1C8A2
330
1C76A
100
AcDbEntity
  8
30
  6
Continuous
440
 16777216
100
AcDbMText
 10
799.5091498567526
 20
702.9838920533912
 30
0.0
 40
8.0
 41
0.0
 46
0.0
 71
     2
 72
     1
  1
\A1;228
 11
0.0000000000000001
 21
1.0
 31
0.0
 73
     1
 44
1.0
 90
        3
 63
     9
421
 13158600
 45
1.25
441
        0
  0
POINT
  5
1C8A3
330
1C76A
100
AcDbEntity
  8
DEFPOINTS
  6
Continuous
 62
     0
440
 16777216
100
AcDbPoint
 10
772.9978368750071
 20
816.9838920533909
 30
0.0
  0
POINT
  5
1C8A4
330
1C76A
100
AcDbEntity
  8
DEFPOINTS
  6
Continuous
 62
     0
440
 16777216
100
AcDbPoint
 10
756.5041539577522
 20
588.9838920533916
 30
0.0
  0
POINT
  5
1C8A5
330
1C76A
100
AcDbEntity
  8
DEFPOINTS
  6
Continuous
 62
     0
440
 16777216
100
AcDbPoint
 10
810.5091498567528
 20
588.9838920533915
 30
0.0
  0
ENDBLK
  5
1C76C
330
1C76A
100
AcDbEntity
  8
0
100
AcDbBlockEnd
  0
BLOCK
  5
1C777
330
1C776
100
AcDbEntity
  8
0
100
AcDbBlockBegin
  2
*D18
 70
     1
 10
0.0
 20
0.0
 30
0.0
  3
*D18
  1

  0
LINE
  5
1C8A6
330
1C776
100
AcDbEntity
  8
30
  6
Continuous
 62
     0
440
 16777216
370
    -2
100
AcDbLine
 10
771.2444135282522
 20
820.9838872848916
 30
0.0
 11
787.8946976982597
 21
820.9838872848916
 31
0.0
  0
LINE
  5
1C8A7
330
1C776
100
AcDbEntity
  8
30
  6
Continuous
 62
     0
440
 16777216
370
    -2
100
AcDbLine
 10
771.2444135282522
 20
812.9838872848917
 30
0.0
 11
787.8946976982597
 21
812.9838872848917
 31
0.0
  0
LINE
  5
1C8A8
330
1C776
100
AcDbEntity
  8
30
  6
Continuous
 62
     0
440
 16777216
370
    -2
100
AcDbLine
 10
787.3946976982597
 20
822.9838872848917
 30
0.0
 11
787.3946976982597
 21
824.9838872848918
 31
0.0
  0
LINE
  5
1C8A9
330
1C776
100
AcDbEntity
  8
30
  6
Continuous
 62
     0
440
 16777216
370
    -2
100
AcDbLine
 10
787.3946976982597
 20
810.9838872848916
 30
0.0
 11
787.3946976982597
 21
797.6505539515581
 31
0.0
  0
LINE
  5
1C8AA
330
1C776
100
AcDbEntity
  8
30
  6
Continuous
 62
     0
440
 16777216
370
    -2
100
AcDbLine
 10
787.3946976982597
 20
820.9838872848916
 30
0.0
 11
787.3946976982597
 21
812.9838872848917
 31
0.0
  0
INSERT
  5
1C8AB
330
1C776
100
AcDbEntity
  8
30
  6
Continuous
 62
     0
440
 16777216
370
    -2
100
AcDbBlockReference
  2
_OPEN
 10
787.3946976982597
 20
820.9838872848916
 30
0.0
 41
2.0
 42
2.0
 43
2.0
 50
270.0
  0
INSERT
  5
1C8AC
330
1C776
100
AcDbEntity
  8
30
  6
Continuous
 62
     0
440
 16777216
370
    -2
100
AcDbBlockReference
  2
_OPEN
 10
787.3946976982597
 20
812.9838872848917
 30
0.0
 41
2.0
 42
2.0
 43
2.0
 50
90.0
  0
MTEXT
  5
1C8AD
330
1C776
100
AcDbEntity
  8
30
  6
Continuous
440
 16777216
100
AcDbMText
 10
780.3946976982594
 20
803.3172206182253
 30
0.0
 40
8.0
 41
0.0
 46
0.0
 71
     5
 72
     1
  1
\A1;8
 11
0.0000000000000001
 21
1.0
 31
0.0
 73
     1
 44
1.0
 90
        3
 63
     9
421
 13158600
 45
1.25
441
        0
  0
POINT
  5
1C8AE
330
1C776
100
AcDbEntity
  8
DEFPOINTS
  6
Continuous
 62
     0
440
 16777216
100
AcDbPoint
 10
770.2444135282522
 20
820.9838872848916
 30
0.0
  0
POINT
  5
1C8AF
330
1C776
100
AcDbEntity
  8
DEFPOINTS
  6
Continuous
 62
     0
440
 16777216
100
AcDbPoint
 10
770.2444135282522
 20
812.9838872848917
 30
0.0
  0
POINT
  5
1C8B0
330
1C776
100
AcDbEntity
  8
DEFPOINTS
  6
Continuous
 62
     0
440
 16777216
100
AcDbPoint
 10
787.3946976982597
 20
812.9838872848917
 30
0.0
  0
ENDBLK
  5
1C778
330
1C776
100
AcDbEntity
  8
0
100
AcDbBlockEnd
  0
BLOCK
  5
1C7A9
330
1C7A8
100
AcDbEntity
  8
0
100
AcDbBlockBegin
  2
*D19
 70
     1
 10
0.0
 20
0.0
 30
0.0
  3
*D19
  1

  0
LINE
  5
1C95A
330
1C7A8
100
AcDbEntity
  8
30
  6
Continuous
 62
     0
440
 16777216
370
    -2
100
AcDbLine
 10
488.2444162702523
 20
706.839221577391
 30
0.0
 11
488.2444162702523
 21
454.7318383455321
 31
0.0
  0
LINE
  5
1C95B
330
1C7A8
100
AcDbEntity
  8
30
  6
Continuous
 62
     0
440
 16777216
370
    -2
100
AcDbLine
 10
548.2444162702521
 20
514.7251032693912
 30
0.0
 11
548.2444162702521
 21
454.7318383455321
 31
0.0
  0
LINE
  5
1C95C
330
1C7A8
100
AcDbEntity
  8
30
  6
Continuous
 62
     0
440
 16777216
370
    -2
100
AcDbLine
 10
490.2444162702521
 20
455.2318383455321
 30
0.0
 11
546.2444162702523
 21
455.2318383455321
 31
0.0
  0
INSERT
  5
1C95D
330
1C7A8
100
AcDbEntity
  8
30
  6
Continuous
 62
     0
440
 16777216
370
    -2
100
AcDbBlockReference
  2
_OPEN
 10
488.2444162702523
 20
455.2318383455321
 30
0.0
 41
2.0
 42
2.0
 43
2.0
 50
180.0
  0
INSERT
  5
1C95E
330
1C7A8
100
AcDbEntity
  8
30
  6
Continuous
 62
     0
440
 16777216
370
    -2
100
AcDbBlockReference
  2
_OPEN
 10
548.2444162702521
 20
455.2318383455321
 30
0.0
 41
2.0
 42
2.0
 43
2.0
  0
MTEXT
  5
1C95F
330
1C7A8
100
AcDbEntity
  8
30
  6
Continuous
440
 16777216
100
AcDbMText
 10
518.2444162702521
 20
466.2318383455321
 30
0.0
 40
8.0
 41
0.0
 46
0.0
 71
     2
 72
     1
  1
\A1;60
 73
     1
 44
1.0
 90
        3
 63
     9
421
 13158600
 45
1.25
441
        0
  0
POINT
  5
1C960
330
1C7A8
100
AcDbEntity
  8
DEFPOINTS
  6
Continuous
 62
     0
440
 16777216
100
AcDbPoint
 10
488.2444162702523
 20
707.839221577391
 30
0.0
  0
POINT
  5
1C961
330
1C7A8
100
AcDbEntity
  8
DEFPOINTS
  6
Continuous
 62
     0
440
 16777216
100
AcDbPoint
 10
548.2444162702521
 20
515.7251032693912
 30
0.0
  0
POINT
  5
1C962
330
1C7A8
100
AcDbEntity
  8
DEFPOINTS
  6
Continuous
 62
     0
440
 16777216
100
AcDbPoint
 10
548.2444162702521
 20
455.2318383455321
 30
0.0
  0
ENDBLK
  5
1C7AA
330
1C7A8
100
AcDbEntity
  8
0
100
AcDbBlockEnd
  0
BLOCK
  5
1C7B5
330
1C7B4
100
AcDbEntity
  8
0
100
AcDbBlockBegin
  2
*D20
 70
     1
 10
0.0
 20
0.0
 30
0.0
  3
*D20
  1

  0
LINE
  5
1C963
330
1C7B4
100
AcDbEntity
  8
30
  6
Continuous
 62
     0
440
 16777216
370
    -2
100
AcDbLine
 10
533.2444162702521
 20
564.9838920533913
 30
0.0
 11
533.2444162702521
 21
482.0417058482816
 31
0.0
  0
LINE
  5
1C964
330
1C7B4
100
AcDbEntity
  8
30
  6
Continuous
 62
     0
440
 16777216
370
    -2
100
AcDbLine
 10
548.2444162702521
 20
514.7251032693912
 30
0.0
 11
548.2444162702521
 21
482.0417058482816
 31
0.0
  0
LINE
  5
1C965
330
1C7B4
100
AcDbEntity
  8
30
  6
Continuous
 62
     0
440
 16777216
370
    -2
100
AcDbLine
 10
546.2444162702523
 20
482.5417058482817
 30
0.0
 11
535.2444162702521
 21
482.5417058482817
 31
0.0
  0
LINE
  5
1C966
330
1C7B4
100
AcDbEntity
  8
30
  6
Continuous
 62
     0
440
 16777216
370
    -2
100
AcDbLine
 10
533.2444162702521
 20
482.5417058482817
 30
0.0
 11
511.2253969501104
 21
482.5417058482817
 31
0.0
  0
INSERT
  5
1C967
330
1C7B4
100
AcDbEntity
  8
30
  6
Continuous
 62
     0
440
 16777216
370
    -2
100
AcDbBlockReference
  2
_OPEN
 10
548.2444162702521
 20
482.5417058482817
 30
0.0
 41
2.0
 42
2.0
 43
2.0
  0
INSERT
  5
1C968
330
1C7B4
100
AcDbEntity
  8
30
  6
Continuous
 62
     0
440
 16777216
370
    -2
100
AcDbBlockReference
  2
_OPEN
 10
533.2444162702521
 20
482.5417058482817
 30
0.0
 41
2.0
 42
2.0
 43
2.0
 50
180.0
  0
MTEXT
  5
1C969
330
1C7B4
100
AcDbEntity
  8
30
  6
Continuous
440
 16777216
100
AcDbMText
 10
519.5587302834439
 20
493.5417058482816
 30
0.0
 40
8.0
 41
0.0
 46
0.0
 71
     2
 72
     1
  1
\A1;15
 73
     1
 44
1.0
 90
        3
 63
     9
421
 13158600
 45
1.25
441
        0
  0
POINT
  5
1C96A
330
1C7B4
100
AcDbEntity
  8
DEFPOINTS
  6
Continuous
 62
     0
440
 16777216
100
AcDbPoint
 10
533.2444162702521
 20
565.9838920533911
 30
0.0
  0
POINT
  5
1C96B
330
1C7B4
100
AcDbEntity
  8
DEFPOINTS
  6
Continuous
 62
     0
440
 16777216
100
AcDbPoint
 10
548.2444162702521
 20
515.7251032693912
 30
0.0
  0
POINT
  5
1C96C
330
1C7B4
100
AcDbEntity
  8
DEFPOINTS
  6
Continuous
 62
     0
440
 16777216
100
AcDbPoint
 10
548.2444162702521
 20
482.5417058482817
 30
0.0
  0
ENDBLK
  5
1C7B6
330
1C7B4
100
AcDbEntity
  8
0
100
AcDbBlockEnd
  0
BLOCK
  5
1C7C2
330
1C7C1
100
AcDbEntity
  8
0
100
AcDbBlockBegin
  2
*D21
 70
     1
 10
0.0
 20
0.0
 30
0.0
  3
*D21
  1

  0
LINE
  5
1C8DF
330
1C7C1
100
AcDbEntity
  8
30
  6
Continuous
 62
     0
440
 16777216
370
    -2
100
AcDbLine
 10
773.9978368750071
 20
816.9838920533909
 30
0.0
 11
811.0091498567529
 21
816.9838920533909
 31
0.0
  0
LINE
  5
1C8E0
330
1C7C1
100
AcDbEntity
  8
30
  6
Continuous
 62
     0
440
 16777216
370
    -2
100
AcDbLine
 10
757.5041539577522
 20
588.9838920533916
 30
0.0
 11
811.0091498567527
 21
588.9838920533915
 31
0.0
  0
LINE
  5
1C8E1
330
1C7C1
100
AcDbEntity
  8
30
  6
Continuous
 62
     0
440
 16777216
370
    -2
100
AcDbLine
 10
810.5091498567528
 20
814.9838920533907
 30
0.0
 11
810.5091498567528
 21
590.9838920533915
 31
0.0
  0
INSERT
  5
1C8E2
330
1C7C1
100
AcDbEntity
  8
30
  6
Continuous
 62
     0
440
 16777216
370
    -2
100
AcDbBlockReference
  2
_OPEN
 10
810.5091498567528
 20
816.9838920533909
 30
0.0
 41
2.0
 42
2.0
 43
2.0
 50
90.0
  0
INSERT
  5
1C8E3
330
1C7C1
100
AcDbEntity
  8
30
  6
Continuous
 62
     0
440
 16777216
370
    -2
100
AcDbBlockReference
  2
_OPEN
 10
810.5091498567528
 20
588.9838920533915
 30
0.0
 41
2.0
 42
2.0
 43
2.0
 50
270.0
  0
MTEXT
  5
1C8E4
330
1C7C1
100
AcDbEntity
  8
30
  6
Continuous
440
 16777216
100
AcDbMText
 10
799.5091498567526
 20
702.9838920533912
 30
0.0
 40
8.0
 41
0.0
 46
0.0
 71
     2
 72
     1
  1
\A1;228
 11
0.0000000000000001
 21
1.0
 31
0.0
 73
     1
 44
1.0
 90
        3
 63
     9
421
 13158600
 45
1.25
441
        0
  0
POINT
  5
1C8E5
330
1C7C1
100
AcDbEntity
  8
DEFPOINTS
  6
Continuous
 62
     0
440
 16777216
100
AcDbPoint
 10
772.9978368750071
 20
816.9838920533909
 30
0.0
  0
POINT
  5
1C8E6
330
1C7C1
100
AcDbEntity
  8
DEFPOINTS
  6
Continuous
 62
     0
440
 16777216
100
AcDbPoint
 10
756.5041539577522
 20
588.9838920533916
 30
0.0
  0
POINT
  5
1C8E7
330
1C7C1
100
AcDbEntity
  8
DEFPOINTS
  6
Continuous
 62
     0
440
 16777216
100
AcDbPoint
 10
810.5091498567528
 20
588.9838920533915
 30
0.0
  0
ENDBLK
  5
1C7C3
330
1C7C1
100
AcDbEntity
  8
0
100
AcDbBlockEnd
  0
BLOCK
  5
1C7CE
330
1C7CD
100
AcDbEntity
  8
0
100
AcDbBlockBegin
  2
*D22
 70
     1
 10
0.0
 20
0.0
 30
0.0
  3
*D22
  1

  0
LINE
  5
1C8E8
330
1C7CD
100
AcDbEntity
  8
30
  6
Continuous
 62
     0
440
 16777216
370
    -2
100
AcDbLine
 10
218.9999998795003
 20
657.4222084225002
 30
0.0
 11
218.9999998795003
 21
471.0882040644995
 31
0.0
  0
LINE
  5
1C8E9
330
1C7CD
100
AcDbEntity
  8
30
  6
Continuous
 62
     0
440
 16777216
370
    -2
100
AcDbLine
 10
102.9999998794999
 20
657.4222084225002
 30
0.0
 11
102.9999998794999
 21
471.0882040644995
 31
0.0
  0
LINE
  5
1C8EA
330
1C7CD
100
AcDbEntity
  8
30
  6
Continuous
 62
     0
440
 16777216
370
    -2
100
AcDbLine
 10
216.9999998795003
 20
471.5882040644997
 30
0.0
 11
104.9999998794999
 21
471.5882040644997
 31
0.0
  0
INSERT
  5
1C8EB
330
1C7CD
100
AcDbEntity
  8
30
  6
Continuous
 62
     0
440
 16777216
370
    -2
100
AcDbBlockReference
  2
_OPEN
 10
218.9999998795003
 20
471.5882040644997
 30
0.0
 41
2.0
 42
2.0
 43
2.0
  0
INSERT
  5
1C8EC
330
1C7CD
100
AcDbEntity
  8
30
  6
Continuous
 62
     0
440
 16777216
370
    -2
100
AcDbBlockReference
  2
_OPEN
 10
102.9999998794999
 20
471.5882040644997
 30
0.0
 41
2.0
 42
2.0
 43
2.0
 50
180.0
  0
MTEXT
  5
1C8ED
330
1C7CD
100
AcDbEntity
  8
30
  6
Continuous
440
 16777216
100
AcDbMText
 10
160.9999998794992
 20
482.5882040644995
 30
0.0
 40
8.0
 41
0.0
 46
0.0
 71
     2
 72
     1
  1
\A1;116
 73
     1
 44
1.0
 90
        3
 63
     9
421
 13158600
 45
1.25
441
        0
  0
POINT
  5
1C8EE
330
1C7CD
100
AcDbEntity
  8
DEFPOINTS
  6
Continuous
 62
     0
440
 16777216
100
AcDbPoint
 10
218.9999998795003
 20
658.4222084225002
 30
0.0
  0
POINT
  5
1C8EF
330
1C7CD
100
AcDbEntity
  8
DEFPOINTS
  6
Continuous
 62
     0
440
 16777216
100
AcDbPoint
 10
102.9999998794999
 20
658.4222084225002
 30
0.0
  0
POINT
  5
1C8F0
330
1C7CD
100
AcDbEntity
  8
DEFPOINTS
  6
Continuous
 62
     0
440
 16777216
100
AcDbPoint
 10
102.9999998794999
 20
471.5882040644997
 30
0.0
  0
ENDBLK
  5
1C7CF
330
1C7CD
100
AcDbEntity
  8
0
100
AcDbBlockEnd
  0
BLOCK
  5
1C7DA
330
1C7D9
100
AcDbEntity
  8
0
100
AcDbBlockBegin
  2
*D23
 70
     1
 10
0.0
 20
0.0
 30
0.0
  3
*D23
  1

  0
LINE
  5
1C8F1
330
1C7D9
100
AcDbEntity
  8
30
  6
Continuous
 62
     0
440
 16777216
370
    -2
100
AcDbLine
 10
186.4999998794992
 20
667.2222084224994
 30
0.0
 11
186.4999998794992
 21
496.0882040644995
 31
0.0
  0
LINE
  5
1C8F2
330
1C7D9
100
AcDbEntity
  8
30
  6
Continuous
 62
     0
440
 16777216
370
    -2
100
AcDbLine
 10
135.4999998794992
 20
656.4222084224998
 30
0.0
 11
135.4999998794992
 21
496.0882040644995
 31
0.0
  0
LINE
  5
1C8F3
330
1C7D9
100
AcDbEntity
  8
30
  6
Continuous
 62
     0
440
 16777216
370
    -2
100
AcDbLine
 10
184.4999998794992
 20
496.5882040644997
 30
0.0
 11
137.4999998794992
 21
496.5882040644997
 31
0.0
  0
INSERT
  5
1C8F4
330
1C7D9
100
AcDbEntity
  8
30
  6
Continuous
 62
     0
440
 16777216
370
    -2
100
AcDbBlockReference
  2
_OPEN
 10
186.4999998794992
 20
496.5882040644997
 30
0.0
 41
2.0
 42
2.0
 43
2.0
  0
INSERT
  5
1C8F5
330
1C7D9
100
AcDbEntity
  8
30
  6
Continuous
 62
     0
440
 16777216
370
    -2
100
AcDbBlockReference
  2
_OPEN
 10
135.4999998794992
 20
496.5882040644997
 30
0.0
 41
2.0
 42
2.0
 43
2.0
 50
180.0
  0
MTEXT
  5
1C8F6
330
1C7D9
100
AcDbEntity
  8
30
  6
Continuous
440
 16777216
100
AcDbMText
 10
160.9999998794992
 20
507.5882040644995
 30
0.0
 40
8.0
 41
0.0
 46
0.0
 71
     2
 72
     1
  1
\A1;51
 73
     1
 44
1.0
 90
        3
 63
     9
421
 13158600
 45
1.25
441
        0
  0
POINT
  5
1C8F7
330
1C7D9
100
AcDbEntity
  8
DEFPOINTS
  6
Continuous
 62
     0
440
 16777216
100
AcDbPoint
 10
186.4999998794992
 20
668.2222084224994
 30
0.0
  0
POINT
  5
1C8F8
330
1C7D9
100
AcDbEntity
  8
DEFPOINTS
  6
Continuous
 62
     0
440
 16777216
100
AcDbPoint
 10
135.4999998794992
 20
657.4222084224998
 30
0.0
  0
POINT
  5
1C8F9
330
1C7D9
100
AcDbEntity
  8
DEFPOINTS
  6
Continuous
 62
     0
440
 16777216
100
AcDbPoint
 10
135.4999998794992
 20
496.5882040644997
 30
0.0
  0
ENDBLK
  5
1C7DB
330
1C7D9
100
AcDbEntity
  8
0
100
AcDbBlockEnd
  0
BLOCK
  5
1C7E6
330
1C7E5
100
AcDbEntity
  8
0
100
AcDbBlockBegin
  2
*D24
 70
     1
 10
0.0
 20
0.0
 30
0.0
  3
*D24
  1

  0
LINE
  5
1C8FA
330
1C7E5
100
AcDbEntity
  8
30
  6
Continuous
 62
     0
440
 16777216
370
    -2
100
AcDbLine
 10
305.5013457885016
 20
557.4222084224998
 30
0.0
 11
346.5000498794998
 21
557.4222084224998
 31
0.0
  0
LINE
  5
1C8FB
330
1C7E5
100
AcDbEntity
  8
30
  6
Continuous
 62
     0
440
 16777216
370
    -2
100
AcDbLine
 10
303.9999998794992
 20
847.4222084224997
 30
0.0
 11
346.5000498794999
 21
847.4222084224997
 31
0.0
  0
LINE
  5
1C8FC
330
1C7E5
100
AcDbEntity
  8
30
  6
Continuous
 62
     0
440
 16777216
370
    -2
100
AcDbLine
 10
346.0000498794999
 20
559.4222084224997
 30
0.0
 11
346.0000498794999
 21
845.4222084224996
 31
0.0
  0
INSERT
  5
1C8FD
330
1C7E5
100
AcDbEntity
  8
30
  6
Continuous
 62
     0
440
 16777216
370
    -2
100
AcDbBlockReference
  2
_OPEN
 10
346.0000498794999
 20
557.4222084224998
 30
0.0
 41
2.0
 42
2.0
 43
2.0
 50
270.0
  0
INSERT
  5
1C8FE
330
1C7E5
100
AcDbEntity
  8
30
  6
Continuous
 62
     0
440
 16777216
370
    -2
100
AcDbBlockReference
  2
_OPEN
 10
346.0000498794999
 20
847.4222084224997
 30
0.0
 41
2.0
 42
2.0
 43
2.0
 50
90.0
  0
MTEXT
  5
1C8FF
330
1C7E5
100
AcDbEntity
  8
30
  6
Continuous
440
 16777216
100
AcDbMText
 10
335.0000498794998
 20
702.4222084224996
 30
0.0
 40
8.0
 41
0.0
 46
0.0
 71
     2
 72
     1
  1
\A1;290
 11
0.0000000000000001
 21
1.0
 31
0.0
 73
     1
 44
1.0
 90
        3
 63
     9
421
 13158600
 45
1.25
441
        0
  0
POINT
  5
1C900
330
1C7E5
100
AcDbEntity
  8
DEFPOINTS
  6
Continuous
 62
     0
440
 16777216
100
AcDbPoint
 10
304.5013457885016
 20
557.4222084224998
 30
0.0
  0
POINT
  5
1C901
330
1C7E5
100
AcDbEntity
  8
DEFPOINTS
  6
Continuous
 62
     0
440
 16777216
100
AcDbPoint
 10
302.9999998794992
 20
847.4222084224997
 30
0.0
  0
POINT
  5
1C902
330
1C7E5
100
AcDbEntity
  8
DEFPOINTS
  6
Continuous
 62
     0
440
 16777216
100
AcDbPoint
 10
346.0000498794999
 20
847.4222084224997
 30
0.0
  0
ENDBLK
  5
1C7E7
330
1C7E5
100
AcDbEntity
  8
0
100
AcDbBlockEnd
  0
BLOCK
  5
1C7F2
330
1C7F1
100
AcDbEntity
  8
0
100
AcDbBlockBegin
  2
*D25
 70
     1
 10
0.0
 20
0.0
 30
0.0
  3
*D25
  1

  0
LINE
  5
1C903
330
1C7F1
100
AcDbEntity
  8
30
  6
Continuous
 62
     0
440
 16777216
370
    -2
100
AcDbLine
 10
63.99999987949922
 20
556.4222084224998
 30
0.0
 11
63.99999987949922
 21
446.0882040644995
 31
0.0
  0
LINE
  5
1C904
330
1C7F1
100
AcDbEntity
  8
30
  6
Continuous
 62
     0
440
 16777216
370
    -2
100
AcDbLine
 10
302.9999998794992
 20
555.1817983749097
 30
0.0
 11
302.9999998794992
 21
446.0882040644995
 31
0.0
  0
LINE
  5
1C905
330
1C7F1
100
AcDbEntity
  8
30
  6
Continuous
 62
     0
440
 16777216
370
    -2
100
AcDbLine
 10
65.99999987949923
 20
446.5882040644997
 30
0.0
 11
300.9999998794992
 21
446.5882040644997
 31
0.0
  0
INSERT
  5
1C906
330
1C7F1
100
AcDbEntity
  8
30
  6
Continuous
 62
     0
440
 16777216
370
    -2
100
AcDbBlockReference
  2
_OPEN
 10
63.99999987949922
 20
446.5882040644997
 30
0.0
 41
2.0
 42
2.0
 43
2.0
 50
180.0
  0
INSERT
  5
1C907
330
1C7F1
100
AcDbEntity
  8
30
  6
Continuous
 62
     0
440
 16777216
370
    -2
100
AcDbBlockReference
  2
_OPEN
 10
302.9999998794992
 20
446.5882040644997
 30
0.0
 41
2.0
 42
2.0
 43
2.0
  0
MTEXT
  5
1C908
330
1C7F1
100
AcDbEntity
  8
30
  6
Continuous
440
 16777216
100
AcDbMText
 10
183.4999998794992
 20
457.5882040644995
 30
0.0
 40
8.0
 41
0.0
 46
0.0
 71
     2
 72
     1
  1
\A1;239
 73
     1
 44
1.0
 90
        3
 63
     9
421
 13158600
 45
1.25
441
        0
  0
POINT
  5
1C909
330
1C7F1
100
AcDbEntity
  8
DEFPOINTS
  6
Continuous
 62
     0
440
 16777216
100
AcDbPoint
 10
63.99999987949922
 20
557.4222084224998
 30
0.0
  0
POINT
  5
1C90A
330
1C7F1
100
AcDbEntity
  8
DEFPOINTS
  6
Continuous
 62
     0
440
 16777216
100
AcDbPoint
 10
302.9999998794992
 20
556.1817983749095
 30
0.0
  0
POINT
  5
1C90B
330
1C7F1
100
AcDbEntity
  8
DEFPOINTS
  6
Continuous
 62
     0
440
 16777216
100
AcDbPoint
 10
302.9999998794992
 20
446.5882040644997
 30
0.0
  0
ENDBLK
  5
1C7F3
330
1C7F1
100
AcDbEntity
  8
0
100
AcDbBlockEnd
  0
BLOCK
  5
1C7FE
330
1C7FD
100
AcDbEntity
  8
0
100
AcDbBlockBegin
  2
*D26
 70
     1
 10
0.0
 20
0.0
 30
0.0
  3
*D26
  1

  0
LINE
  5
1C90C
330
1C7FD
100
AcDbEntity
  8
30
  6
Continuous
 62
     0
440
 16777216
370
    -2
100
AcDbLine
 10
183.4999998794992
 20
532.0
 30
0.0
 11
183.4999998794992
 21
515.7384221018851
 31
0.0
  0
LINE
  5
1C90D
330
1C7FD
100
AcDbEntity
  8
30
  6
Continuous
 62
     0
440
 16777216
370
    -2
100
AcDbLine
 10
161.0
 20
531.9727197007554
 30
0.0
 11
161.0
 21
515.7384221018851
 31
0.0
  0
LINE
  5
1C90E
330
1C7FD
100
AcDbEntity
  8
30
  6
Continuous
 62
     0
440
 16777216
370
    -2
100
AcDbLine
 10
163.0
 20
516.2384221018851
 30
0.0
 11
181.4999998794992
 21
516.2384221018851
 31
0.0
  0
LINE
  5
1C90F
330
1C7FD
100
AcDbEntity
  8
30
  6
Continuous
 62
     0
440
 16777216
370
    -2
100
AcDbLine
 10
183.4999998794992
 20
516.2384221018851
 30
0.0
 11
216.3216658958181
 21
516.2384221018851
 31
0.0
  0
INSERT
  5
1C910
330
1C7FD
100
AcDbEntity
  8
30
  6
Continuous
 62
     0
440
 16777216
370
    -2
100
AcDbBlockReference
  2
_OPEN
 10
161.0
 20
516.2384221018851
 30
0.0
 41
2.0
 42
2.0
 43
2.0
 50
180.0
  0
INSERT
  5
1C911
330
1C7FD
100
AcDbEntity
  8
30
  6
Continuous
 62
     0
440
 16777216
370
    -2
100
AcDbBlockReference
  2
_OPEN
 10
183.4999998794992
 20
516.2384221018851
 30
0.0
 41
2.0
 42
2.0
 43
2.0
  0
MTEXT
  5
1C912
330
1C7FD
100
AcDbEntity
  8
30
  6
Continuous
440
 16777216
100
AcDbMText
 10
202.8216658958181
 20
526.2384221018851
 30
0.0
 40
7.0
 41
0.0
 46
0.0
 71
     2
 72
     1
  1
\A1;22.5
 73
     1
 44
1.0
 90
        3
 63
     9
421
 13158600
 45
1.25
441
        0
  0
POINT
  5
1C913
330
1C7FD
100
AcDbEntity
  8
DEFPOINTS
  6
Continuous
 62
     0
440
 16777216
100
AcDbPoint
 10
183.4999998794992
 20
533.0
 30
0.0
  0
POINT
  5
1C914
330
1C7FD
100
AcDbEntity
  8
DEFPOINTS
  6
Continuous
 62
     0
440
 16777216
100
AcDbPoint
 10
161.0
 20
532.9727197007554
 30
0.0
  0
POINT
  5
1C915
330
1C7FD
100
AcDbEntity
  8
DEFPOINTS
  6
Continuous
 62
     0
440
 16777216
100
AcDbPoint
 10
161.0
 20
516.2384221018851
 30
0.0
  0
ENDBLK
  5
1C7FF
330
1C7FD
100
AcDbEntity
  8
0
100
AcDbBlockEnd
  0
BLOCK
  5
1C80B
330
1C80A
100
AcDbEntity
  8
0
100
AcDbBlockBegin
  2
*D27
 70
     1
 10
0.0
 20
0.0
 30
0.0
  3
*D27
  1

  0
LINE
  5
1C916
330
1C80A
100
AcDbEntity
  8
30
  6
Continuous
 62
     0
440
 16777216
370
    -2
100
AcDbLine
 10
288.9829319528171
 20
775.0420310049787
 30
0.0
 11
287.4312708885689
 21
773.7801483076983
 31
0.0
  0
LINE
  5
1C917
330
1C80A
100
AcDbEntity
  8
30
  6
Continuous
 62
     0
440
 16777216
370
    -2
100
AcDbLine
 10
297.517067806183
 20
781.9823858400218
 30
0.0
 11
314.3752099653795
 21
795.6922084225013
 31
0.0
  0
LINE
  5
1C918
330
1C80A
100
AcDbEntity
  8
30
  6
Continuous
 62
     0
440
 16777216
370
    -2
100
AcDbLine
 10
314.3752099653795
 20
795.6922084225013
 30
0.0
 11
330.7085432987129
 21
795.6922084225014
 31
0.0
  0
LINE
  5
1C919
330
1C80A
100
AcDbEntity
  8
30
  6
Continuous
 62
     0
440
 16777216
370
    -2
100
AcDbLine
 10
290.5345930170654
 20
776.3039137022592
 30
0.0
 11
295.9654067419348
 21
780.7205031427412
 31
0.0
  0
INSERT
  5
1C91A
330
1C80A
100
AcDbEntity
  8
30
  6
Continuous
 62
     0
440
 16777216
370
    -2
100
AcDbBlockReference
  2
_OPEN
 10
290.5345930170654
 20
776.3039137022592
 30
0.0
 41
2.0
 42
2.0
 43
2.0
 50
39.11960772794245
  0
INSERT
  5
1C91B
330
1C80A
100
AcDbEntity
  8
30
  6
Continuous
 62
     0
440
 16777216
370
    -2
100
AcDbBlockReference
  2
_OPEN
 10
295.9654067419348
 20
780.7205031427412
 30
0.0
 41
2.0
 42
2.0
 43
2.0
 50
219.1196077279425
  0
MTEXT
  5
1C91C
330
1C80A
100
AcDbEntity
  8
30
  6
Continuous
 62
     0
440
 16777216
100
AcDbMText
 10
324.0418766320463
 20
802.6922084225013
 30
0.0
 40
8.0
 41
0.0
 46
0.0
 71
     5
 72
     1
  1
\A1;M6
 73
     1
 44
1.0
  0
POINT
  5
1C91D
330
1C80A
100
AcDbEntity
  8
DEFPOINTS
  6
Continuous
 62
     0
440
 16777216
100
AcDbPoint
 10
295.9654067419348
 20
780.7205031427412
 30
0.0
  0
POINT
  5
1C91E
330
1C80A
100
AcDbEntity
  8
DEFPOINTS
  6
Continuous
 62
     0
440
 16777216
100
AcDbPoint
 10
290.5345930170654
 20
776.3039137022592
 30
0.0
  0
ENDBLK
  5
1C80C
330
1C80A
100
AcDbEntity
  8
0
100
AcDbBlockEnd
  0
BLOCK
  5
1C817
330
1C816
100
AcDbEntity
  8
0
100
AcDbBlockBegin
  2
*D28
 70
     1
 10
0.0
 20
0.0
 30
0.0
  3
*D28
  1

  0
LINE
  5
1C91F
330
1C816
100
AcDbEntity
  8
30
  6
Continuous
 62
     0
440
 16777216
370
    -2
100
AcDbLine
 10
81.5
 20
117.0
 30
0.0
 11
81.5
 21
71.66599564199987
 31
0.0
  0
LINE
  5
1C920
330
1C816
100
AcDbEntity
  8
30
  6
Continuous
 62
     0
440
 16777216
370
    -2
100
AcDbLine
 10
285.5
 20
117.0
 30
0.0
 11
285.5
 21
71.66599564199987
 31
0.0
  0
LINE
  5
1C921
330
1C816
100
AcDbEntity
  8
30
  6
Continuous
 62
     0
440
 16777216
370
    -2
100
AcDbLine
 10
83.49999999999999
 20
72.16599564199987
 30
0.0
 11
283.5
 21
72.16599564199987
 31
0.0
  0
INSERT
  5
1C922
330
1C816
100
AcDbEntity
  8
30
  6
Continuous
 62
     0
440
 16777216
370
    -2
100
AcDbBlockReference
  2
_OPEN
 10
81.5
 20
72.16599564199987
 30
0.0
 41
2.0
 42
2.0
 43
2.0
 50
180.0
  0
INSERT
  5
1C923
330
1C816
100
AcDbEntity
  8
30
  6
Continuous
 62
     0
440
 16777216
370
    -2
100
AcDbBlockReference
  2
_OPEN
 10
285.5
 20
72.16599564199987
 30
0.0
 41
2.0
 42
2.0
 43
2.0
  0
MTEXT
  5
1C924
330
1C816
100
AcDbEntity
  8
30
  6
Continuous
440
 16777216
100
AcDbMText
 10
183.5
 20
83.16599564199988
 30
0.0
 40
8.0
 41
0.0
 46
0.0
 71
     2
 72
     1
  1
\A1;204
 73
     1
 44
1.0
 90
        3
 63
     9
421
 13158600
 45
1.25
441
        0
  0
POINT
  5
1C925
330
1C816
100
AcDbEntity
  8
DEFPOINTS
  6
Continuous
 62
     0
440
 16777216
100
AcDbPoint
 10
81.5
 20
118.0
 30
0.0
  0
POINT
  5
1C926
330
1C816
100
AcDbEntity
  8
DEFPOINTS
  6
Continuous
 62
     0
440
 16777216
100
AcDbPoint
 10
285.5
 20
118.0
 30
0.0
  0
POINT
  5
1C927
330
1C816
100
AcDbEntity
  8
DEFPOINTS
  6
Continuous
 62
     0
440
 16777216
100
AcDbPoint
 10
285.5
 20
72.16599564199987
 30
0.0
  0
ENDBLK
  5
1C818
330
1C816
100
AcDbEntity
  8
0
100
AcDbBlockEnd
  0
BLOCK
  5
1CCAE
330
1CCAD
100
AcDbEntity
  8
0
100
AcDbBlockBegin
  2
*D29
 70
     1
 10
0.0
 20
0.0
 30
0.0
  3
*D29
  1

  0
LINE
  5
1CD1C
330
1CCAD
100
AcDbEntity
  8
30
  6
Continuous
 62
     0
440
 16777216
370
    -2
100
AcDbLine
 10
116.0
 20
1144.972719700755
 30
0.0
 11
116.0
 21
1236.65237897493
 31
0.0
  0
LINE
  5
1CD1D
330
1CCAD
100
AcDbEntity
  8
30
  6
Continuous
 62
     0
440
 16777216
370
    -2
100
AcDbLine
 10
161.0
 20
1184.972719700755
 30
0.0
 11
161.0
 21
1236.65237897493
 31
0.0
  0
LINE
  5
1CD1E
330
1CCAD
100
AcDbEntity
  8
30
  6
Continuous
 62
     0
440
 16777216
370
    -2
100
AcDbLine
 10
118.0
 20
1236.15237897493
 30
0.0
 11
159.0
 21
1236.15237897493
 31
0.0
  0
INSERT
  5
1CD1F
330
1CCAD
100
AcDbEntity
  8
30
  6
Continuous
 62
     0
440
 16777216
370
    -2
100
AcDbBlockReference
  2
_OPEN
 10
116.0
 20
1236.15237897493
 30
0.0
 41
2.0
 42
2.0
 43
2.0
 50
180.0
  0
INSERT
  5
1CD20
330
1CCAD
100
AcDbEntity
  8
30
  6
Continuous
 62
     0
440
 16777216
370
    -2
100
AcDbBlockReference
  2
_OPEN
 10
161.0
 20
1236.15237897493
 30
0.0
 41
2.0
 42
2.0
 43
2.0
  0
MTEXT
  5
1CD21
330
1CCAD
100
AcDbEntity
  8
30
  6
Continuous
440
 16777216
100
AcDbMText
 10
138.5
 20
1243.15237897493
 30
0.0
 40
8.0
 41
0.0
 46
0.0
 71
     5
 72
     1
  1
\A1;45
 73
     1
 44
1.0
 90
        3
 63
     9
421
 13158600
 45
1.25
441
        0
  0
POINT
  5
1CD22
330
1CCAD
100
AcDbEntity
  8
DEFPOINTS
  6
Continuous
 62
     0
440
 16777216
100
AcDbPoint
 10
116.0
 20
1143.972719700755
 30
0.0
  0
POINT
  5
1CD23
330
1CCAD
100
AcDbEntity
  8
DEFPOINTS
  6
Continuous
 62
     0
440
 16777216
100
AcDbPoint
 10
161.0
 20
1183.972719700755
 30
0.0
  0
POINT
  5
1CD24
330
1CCAD
100
AcDbEntity
  8
DEFPOINTS
  6
Continuous
 62
     0
440
 16777216
100
AcDbPoint
 10
161.0
 20
1236.15237897493
 30
0.0
  0
ENDBLK
  5
1CCAF
330
1CCAD
100
AcDbEntity
  8
0
100
AcDbBlockEnd
  0
BLOCK
  5
1CCBA
330
1CCB9
100
AcDbEntity
  8
0
100
AcDbBlockBegin
  2
*D30
 70
     1
 10
0.0
 20
0.0
 30
0.0
  3
*D30
  1

  0
LINE
  5
1CD25
330
1CCB9
100
AcDbEntity
  8
30
  6
Continuous
 62
     0
440
 16777216
370
    -2
100
AcDbLine
 10
161.0
 20
1184.972719700755
 30
0.0
 11
161.0
 21
1236.65237897493
 31
0.0
  0
LINE
  5
1CD26
330
1CCB9
100
AcDbEntity
  8
30
  6
Continuous
 62
     0
440
 16777216
370
    -2
100
AcDbLine
 10
206.0
 20
1144.972719700755
 30
0.0
 11
206.0
 21
1236.65237897493
 31
0.0
  0
LINE
  5
1CD27
330
1CCB9
100
AcDbEntity
  8
30
  6
Continuous
 62
     0
440
 16777216
370
    -2
100
AcDbLine
 10
163.0
 20
1236.15237897493
 30
0.0
 11
204.0
 21
1236.15237897493
 31
0.0
  0
INSERT
  5
1CD28
330
1CCB9
100
AcDbEntity
  8
30
  6
Continuous
 62
     0
440
 16777216
370
    -2
100
AcDbBlockReference
  2
_OPEN
 10
161.0
 20
1236.15237897493
 30
0.0
 41
2.0
 42
2.0
 43
2.0
 50
180.0
  0
INSERT
  5
1CD29
330
1CCB9
100
AcDbEntity
  8
30
  6
Continuous
 62
     0
440
 16777216
370
    -2
100
AcDbBlockReference
  2
_OPEN
 10
206.0
 20
1236.15237897493
 30
0.0
 41
2.0
 42
2.0
 43
2.0
  0
MTEXT
  5
1CD2A
330
1CCB9
100
AcDbEntity
  8
30
  6
Continuous
440
 16777216
100
AcDbMText
 10
183.5
 20
1243.15237897493
 30
0.0
 40
8.0
 41
0.0
 46
0.0
 71
     5
 72
     1
  1
\A1;45
 73
     1
 44
1.0
 90
        3
 63
     9
421
 13158600
 45
1.25
441
        0
  0
POINT
  5
1CD2B
330
1CCB9
100
AcDbEntity
  8
DEFPOINTS
  6
Continuous
 62
     0
440
 16777216
100
AcDbPoint
 10
161.0
 20
1183.972719700755
 30
0.0
  0
POINT
  5
1CD2C
330
1CCB9
100
AcDbEntity
  8
DEFPOINTS
  6
Continuous
 62
     0
440
 16777216
100
AcDbPoint
 10
206.0
 20
1143.972719700755
 30
0.0
  0
POINT
  5
1CD2D
330
1CCB9
100
AcDbEntity
  8
DEFPOINTS
  6
Continuous
 62
     0
440
 16777216
100
AcDbPoint
 10
206.0
 20
1236.15237897493
 30
0.0
  0
ENDBLK
  5
1CCBB
330
1CCB9
100
AcDbEntity
  8
0
100
AcDbBlockEnd
  0
BLOCK
  5
1CCC6
330
1CCC5
100
AcDbEntity
  8
0
100
AcDbBlockBegin
  2
*D31
 70
     1
 10
0.0
 20
0.0
 30
0.0
  3
*D31
  1

  0
LINE
  5
1CD2E
330
1CCC5
100
AcDbEntity
  8
30
  6
Continuous
 62
     0
440
 16777216
370
    -2
100
AcDbLine
 10
206.0
 20
1144.972719700755
 30
0.0
 11
206.0
 21
1236.65237897493
 31
0.0
  0
LINE
  5
1CD2F
330
1CCC5
100
AcDbEntity
  8
30
  6
Continuous
 62
     0
440
 16777216
370
    -2
100
AcDbLine
 10
251.0
 20
1184.972719700755
 30
0.0
 11
251.0
 21
1236.65237897493
 31
0.0
  0
LINE
  5
1CD30
330
1CCC5
100
AcDbEntity
  8
30
  6
Continuous
 62
     0
440
 16777216
370
    -2
100
AcDbLine
 10
208.0
 20
1236.15237897493
 30
0.0
 11
249.0
 21
1236.15237897493
 31
0.0
  0
INSERT
  5
1CD31
330
1CCC5
100
AcDbEntity
  8
30
  6
Continuous
 62
     0
440
 16777216
370
    -2
100
AcDbBlockReference
  2
_OPEN
 10
206.0
 20
1236.15237897493
 30
0.0
 41
2.0
 42
2.0
 43
2.0
 50
180.0
  0
INSERT
  5
1CD32
330
1CCC5
100
AcDbEntity
  8
30
  6
Continuous
 62
     0
440
 16777216
370
    -2
100
AcDbBlockReference
  2
_OPEN
 10
251.0
 20
1236.15237897493
 30
0.0
 41
2.0
 42
2.0
 43
2.0
  0
MTEXT
  5
1CD33
330
1CCC5
100
AcDbEntity
  8
30
  6
Continuous
440
 16777216
100
AcDbMText
 10
228.5
 20
1243.15237897493
 30
0.0
 40
8.0
 41
0.0
 46
0.0
 71
     5
 72
     1
  1
\A1;45
 73
     1
 44
1.0
 90
        3
 63
     9
421
 13158600
 45
1.25
441
        0
  0
POINT
  5
1CD34
330
1CCC5
100
AcDbEntity
  8
DEFPOINTS
  6
Continuous
 62
     0
440
 16777216
100
AcDbPoint
 10
206.0
 20
1143.972719700755
 30
0.0
  0
POINT
  5
1CD35
330
1CCC5
100
AcDbEntity
  8
DEFPOINTS
  6
Continuous
 62
     0
440
 16777216
100
AcDbPoint
 10
251.0
 20
1183.972719700755
 30
0.0
  0
POINT
  5
1CD36
330
1CCC5
100
AcDbEntity
  8
DEFPOINTS
  6
Continuous
 62
     0
440
 16777216
100
AcDbPoint
 10
251.0
 20
1236.15237897493
 30
0.0
  0
ENDBLK
  5
1CCC7
330
1CCC5
100
AcDbEntity
  8
0
100
AcDbBlockEnd
  0
BLOCK
  5
1CCD2
330
1CCD1
100
AcDbEntity
  8
0
100
AcDbBlockBegin
  2
*D32
 70
     1
 10
0.0
 20
0.0
 30
0.0
  3
*D32
  1

  0
LINE
  5
1CE41
330
1CCD1
100
AcDbEntity
  8
30
  6
Continuous
 62
     0
440
 16777216
370
    -2
100
AcDbLine
 10
116.0
 20
1135.972719410204
 30
0.0
 11
91.04821711052318
 21
1135.972719410204
 31
0.0
  0
LINE
  5
1CE42
330
1CCD1
100
AcDbEntity
  8
30
  6
Continuous
 62
     0
440
 16777216
370
    -2
100
AcDbLine
 10
116.0
 20
1121.972719410204
 30
0.0
 11
91.04821711052318
 21
1121.972719410204
 31
0.0
  0
LINE
  5
1CE43
330
1CCD1
100
AcDbEntity
  8
30
  6
Continuous
 62
     0
440
 16777216
370
    -2
100
AcDbLine
 10
91.54821711052321
 20
1133.972719410204
 30
0.0
 11
91.54821711052321
 21
1123.972719410204
 31
0.0
  0
LINE
  5
1CE44
330
1CCD1
100
AcDbEntity
  8
30
  6
Continuous
 62
     0
440
 16777216
370
    -2
100
AcDbLine
 10
91.54821711052321
 20
1121.972719410204
 30
0.0
 11
91.54821711052315
 21
1103.306052743537
 31
0.0
  0
INSERT
  5
1CE45
330
1CCD1
100
AcDbEntity
  8
30
  6
Continuous
 62
     0
440
 16777216
370
    -2
100
AcDbBlockReference
  2
_OPEN
 10
91.54821711052321
 20
1135.972719410204
 30
0.0
 41
2.0
 42
2.0
 43
2.0
 50
90.0
  0
INSERT
  5
1CE46
330
1CCD1
100
AcDbEntity
  8
30
  6
Continuous
 62
     0
440
 16777216
370
    -2
100
AcDbBlockReference
  2
_OPEN
 10
91.54821711052321
 20
1121.972719410204
 30
0.0
 41
2.0
 42
2.0
 43
2.0
 50
270.0
  0
MTEXT
  5
1CE47
330
1CCD1
100
AcDbEntity
  8
30
  6
Continuous
440
 16777216
100
AcDbMText
 10
84.548217110523
 20
1111.639386076871
 30
0.0
 40
8.0
 41
0.0
 46
0.0
 71
     5
 72
     1
  1
\A1;14
 11
0.0000000000000001
 21
1.0
 31
0.0
 73
     1
 44
1.0
 90
        3
 63
     9
421
 13158600
 45
1.25
441
        0
  0
POINT
  5
1CE48
330
1CCD1
100
AcDbEntity
  8
DEFPOINTS
  6
Continuous
 62
     0
440
 16777216
100
AcDbPoint
 10
117.0
 20
1135.972719410204
 30
0.0
  0
POINT
  5
1CE49
330
1CCD1
100
AcDbEntity
  8
DEFPOINTS
  6
Continuous
 62
     0
440
 16777216
100
AcDbPoint
 10
117.0
 20
1121.972719410204
 30
0.0
  0
POINT
  5
1CE4A
330
1CCD1
100
AcDbEntity
  8
DEFPOINTS
  6
Continuous
 62
     0
440
 16777216
100
AcDbPoint
 10
91.54821711052321
 20
1121.972719410204
 30
0.0
  0
ENDBLK
  5
1CCD3
330
1CCD1
100
AcDbEntity
  8
0
100
AcDbBlockEnd
  0
BLOCK
  5
1CCDF
330
1CCDE
100
AcDbEntity
  8
0
100
AcDbBlockBegin
  2
*D33
 70
     1
 10
0.0
 20
0.0
 30
0.0
  3
*D33
  1

  0
LINE
  5
1CD41
330
1CCDE
100
AcDbEntity
  8
30
 62
     0
440
 16777216
370
    -2
100
AcDbLine
 10
122.5
 20
1134.472719700755
 30
0.0
 11
122.5
 21
1159.284617615105
 31
0.0
  0
LINE
  5
1CD42
330
1CCDE
100
AcDbEntity
  8
30
 62
     0
440
 16777216
370
    -2
100
AcDbLine
 10
109.5
 20
1134.472719700755
 30
0.0
 11
109.5
 21
1159.284617615105
 31
0.0
  0
LINE
  5
1CD43
330
1CCDE
100
AcDbEntity
  8
30
 62
     0
440
 16777216
370
    -2
100
AcDbLine
 10
120.5
 20
1158.784617615104
 30
0.0
 11
111.5
 21
1158.784617615104
 31
0.0
  0
LINE
  5
1CD44
330
1CCDE
100
AcDbEntity
  8
30
 62
     0
440
 16777216
370
    -2
100
AcDbLine
 10
109.5
 20
1158.784617615104
 30
0.0
 11
82.5
 21
1158.784617615104
 31
0.0
  0
INSERT
  5
1CD45
330
1CCDE
100
AcDbEntity
  8
30
 62
     0
440
 16777216
370
    -2
100
AcDbBlockReference
  2
_OPEN
 10
122.5
 20
1158.784617615104
 30
0.0
 41
2.0
 42
2.0
 43
2.0
  0
INSERT
  5
1CD46
330
1CCDE
100
AcDbEntity
  8
30
 62
     0
440
 16777216
370
    -2
100
AcDbBlockReference
  2
_OPEN
 10
109.5
 20
1158.784617615104
 30
0.0
 41
2.0
 42
2.0
 43
2.0
 50
180.0
  0
MTEXT
  5
1CD47
330
1CCDE
100
AcDbEntity
  8
30
440
 16777216
100
AcDbMText
 10
90.83333333333332
 20
1165.784617615104
 30
0.0
 40
8.0
 41
0.0
 46
0.0
 71
     5
 72
     1
  1
\A1;13
 73
     1
 44
1.0
 90
        3
 63
     9
421
 13158600
 45
1.25
441
        0
  0
POINT
  5
1CD48
330
1CCDE
100
AcDbEntity
  8
DEFPOINTS
 62
     0
440
 16777216
100
AcDbPoint
 10
122.5
 20
1133.472719700755
 30
0.0
  0
POINT
  5
1CD49
330
1CCDE
100
AcDbEntity
  8
DEFPOINTS
 62
     0
440
 16777216
100
AcDbPoint
 10
109.5
 20
1133.472719700755
 30
0.0
  0
POINT
  5
1CD4A
330
1CCDE
100
AcDbEntity
  8
DEFPOINTS
 62
     0
440
 16777216
100
AcDbPoint
 10
109.5
 20
1158.784617615104
 30
0.0
  0
ENDBLK
  5
1CCE0
330
1CCDE
100
AcDbEntity
  8
0
100
AcDbBlockEnd
  0
BLOCK
  5
1CCEC
330
1CCEB
100
AcDbEntity
  8
0
100
AcDbBlockBegin
  2
*D34
 70
     1
 10
0.0
 20
0.0
 30
0.0
  3
*D34
  1

  0
LINE
  5
1CD4B
330
1CCEB
100
AcDbEntity
  8
30
 62
     0
440
 16777216
370
    -2
100
AcDbLine
 10
277.0
 20
1078.472719700755
 30
0.0
 11
304.4010360014028
 21
1078.472719700755
 31
0.0
  0
LINE
  5
1CD4C
330
1CCEB
100
AcDbEntity
  8
30
 62
     0
440
 16777216
370
    -2
100
AcDbLine
 10
252.0000000002001
 20
1209.472716958755
 30
0.0
 11
304.4010360014029
 21
1209.472716958755
 31
0.0
  0
LINE
  5
1CD4D
330
1CCEB
100
AcDbEntity
  8
30
 62
     0
440
 16777216
370
    -2
100
AcDbLine
 10
303.9010360014028
 20
1080.472719700755
 30
0.0
 11
303.9010360014029
 21
1207.472716958755
 31
0.0
  0
INSERT
  5
1CD4E
330
1CCEB
100
AcDbEntity
  8
30
 62
     0
440
 16777216
370
    -2
100
AcDbBlockReference
  2
_OPEN
 10
303.9010360014028
 20
1078.472719700755
 30
0.0
 41
2.0
 42
2.0
 43
2.0
 50
270.0
  0
INSERT
  5
1CD4F
330
1CCEB
100
AcDbEntity
  8
30
 62
     0
440
 16777216
370
    -2
100
AcDbBlockReference
  2
_OPEN
 10
303.9010360014029
 20
1209.472716958755
 30
0.0
 41
2.0
 42
2.0
 43
2.0
 50
90.0
  0
MTEXT
  5
1CD50
330
1CCEB
100
AcDbEntity
  8
30
440
 16777216
100
AcDbMText
 10
296.9010360014026
 20
1134.472719700755
 30
0.0
 40
8.0
 41
0.0
 46
0.0
 71
     5
 72
     1
  1
\A1;131
 11
0.0000000000000001
 21
1.0
 31
0.0
 73
     1
 44
1.0
 90
        3
 63
     9
421
 13158600
 45
1.25
441
        0
  0
POINT
  5
1CD51
330
1CCEB
100
AcDbEntity
  8
DEFPOINTS
 62
     0
440
 16777216
100
AcDbPoint
 10
276.0
 20
1078.472719700755
 30
0.0
  0
POINT
  5
1CD52
330
1CCEB
100
AcDbEntity
  8
DEFPOINTS
 62
     0
440
 16777216
100
AcDbPoint
 10
251.0000000002001
 20
1209.472716958755
 30
0.0
  0
POINT
  5
1CD53
330
1CCEB
100
AcDbEntity
  8
DEFPOINTS
 62
     0
440
 16777216
100
AcDbPoint
 10
303.9010360014029
 20
1209.472716958755
 30
0.0
  0
ENDBLK
  5
1CCED
330
1CCEB
100
AcDbEntity
  8
0
100
AcDbBlockEnd
  0
BLOCK
  5
1CCF8
330
1CCF7
100
AcDbEntity
  8
0
100
AcDbBlockBegin
  2
*D35
 70
     1
 10
0.0
 20
0.0
 30
0.0
  3
*D35
  1

  0
LINE
  5
1CD54
330
1CCF7
100
AcDbEntity
  8
30
 62
     0
440
 16777216
370
    -2
100
AcDbLine
 10
283.0
 20
1078.472719700755
 30
0.0
 11
286.4010360014028
 21
1078.472719700755
 31
0.0
  0
LINE
  5
1CD55
330
1CCF7
100
AcDbEntity
  8
30
 62
     0
440
 16777216
370
    -2
100
AcDbLine
 10
259.2250000002002
 20
1193.472719410204
 30
0.0
 11
286.4010360014029
 21
1193.472719410204
 31
0.0
  0
LINE
  5
1CD56
330
1CCF7
100
AcDbEntity
  8
30
 62
     0
440
 16777216
370
    -2
100
AcDbLine
 10
285.9010360014028
 20
1080.472719700755
 30
0.0
 11
285.9010360014029
 21
1191.472719410204
 31
0.0
  0
INSERT
  5
1CD57
330
1CCF7
100
AcDbEntity
  8
30
 62
     0
440
 16777216
370
    -2
100
AcDbBlockReference
  2
_OPEN
 10
285.9010360014028
 20
1078.472719700755
 30
0.0
 41
2.0
 42
2.0
 43
2.0
 50
270.0
  0
INSERT
  5
1CD58
330
1CCF7
100
AcDbEntity
  8
30
 62
     0
440
 16777216
370
    -2
100
AcDbBlockReference
  2
_OPEN
 10
285.9010360014029
 20
1193.472719410204
 30
0.0
 41
2.0
 42
2.0
 43
2.0
 50
90.0
  0
MTEXT
  5
1CD59
330
1CCF7
100
AcDbEntity
  8
30
440
 16777216
100
AcDbMText
 10
278.9010360014026
 20
1133.472719700755
 30
0.0
 40
8.0
 41
0.0
 46
0.0
 71
     5
 72
     1
  1
\A1;115
 11
0.0000000000000001
 21
1.0
 31
0.0
 73
     1
 44
1.0
 90
        3
 63
     9
421
 13158600
 45
1.25
441
        0
  0
POINT
  5
1CD5A
330
1CCF7
100
AcDbEntity
  8
DEFPOINTS
 62
     0
440
 16777216
100
AcDbPoint
 10
282.0
 20
1078.472719700755
 30
0.0
  0
POINT
  5
1CD5B
330
1CCF7
100
AcDbEntity
  8
DEFPOINTS
 62
     0
440
 16777216
100
AcDbPoint
 10
258.2250000002002
 20
1193.472719410204
 30
0.0
  0
POINT
  5
1CD5C
330
1CCF7
100
AcDbEntity
  8
DEFPOINTS
 62
     0
440
 16777216
100
AcDbPoint
 10
285.9010360014029
 20
1193.472719410204
 30
0.0
  0
ENDBLK
  5
1CCF9
330
1CCF7
100
AcDbEntity
  8
0
100
AcDbBlockEnd
  0
BLOCK
  5
1CD04
330
1CD03
100
AcDbEntity
  8
0
100
AcDbBlockBegin
  2
*D36
 70
     1
 10
0.0
 20
0.0
 30
0.0
  3
*D36
  1

  0
LINE
  5
1CE61
330
1CD03
100
AcDbEntity
  8
30
 62
     0
440
 16777216
370
    -2
100
AcDbLine
 10
103.0
 20
1078.472719700755
 30
0.0
 11
53.94239416880918
 21
1078.472719700755
 31
0.0
  0
LINE
  5
1CE62
330
1CD03
100
AcDbEntity
  8
30
 62
     0
440
 16777216
370
    -2
100
AcDbLine
 10
104.3931234256001
 20
1144.472719343155
 30
0.0
 11
53.94239416880918
 21
1144.472719343155
 31
0.0
  0
LINE
  5
1CE63
330
1CD03
100
AcDbEntity
  8
30
 62
     0
440
 16777216
370
    -2
100
AcDbLine
 10
54.44239416880917
 20
1080.472719700755
 30
0.0
 11
54.44239416880917
 21
1142.472719343155
 31
0.0
  0
INSERT
  5
1CE64
330
1CD03
100
AcDbEntity
  8
30
 62
     0
440
 16777216
370
    -2
100
AcDbBlockReference
  2
_OPEN
 10
54.44239416880917
 20
1078.472719700755
 30
0.0
 41
2.0
 42
2.0
 43
2.0
 50
270.0
  0
INSERT
  5
1CE65
330
1CD03
100
AcDbEntity
  8
30
 62
     0
440
 16777216
370
    -2
100
AcDbBlockReference
  2
_OPEN
 10
54.44239416880917
 20
1144.472719343155
 30
0.0
 41
2.0
 42
2.0
 43
2.0
 50
90.0
  0
MTEXT
  5
1CE66
330
1CD03
100
AcDbEntity
  8
30
440
 16777216
100
AcDbMText
 10
47.442394168809
 20
1110.933276308419
 30
0.0
 40
8.0
 41
0.0
 46
0.0
 71
     5
 72
     1
  1
\A1;66
 11
0.0000000000000001
 21
1.0
 31
0.0
 73
     1
 44
1.0
 90
        3
 63
     9
421
 13158600
 45
1.25
441
        0
  0
POINT
  5
1CE67
330
1CD03
100
AcDbEntity
  8
DEFPOINTS
 62
     0
440
 16777216
100
AcDbPoint
 10
104.0
 20
1078.472719700755
 30
0.0
  0
POINT
  5
1CE68
330
1CD03
100
AcDbEntity
  8
DEFPOINTS
 62
     0
440
 16777216
100
AcDbPoint
 10
105.3931234256001
 20
1144.472719343155
 30
0.0
  0
POINT
  5
1CE69
330
1CD03
100
AcDbEntity
  8
DEFPOINTS
 62
     0
440
 16777216
100
AcDbPoint
 10
54.44239416880917
 20
1144.472719343155
 30
0.0
  0
ENDBLK
  5
1CD05
330
1CD03
100
AcDbEntity
  8
0
100
AcDbBlockEnd
  0
BLOCK
  5
1CD10
330
1CD0F
100
AcDbEntity
  8
0
100
AcDbBlockBegin
  2
*D37
 70
     1
 10
0.0
 20
0.0
 30
0.0
  3
*D37
  1

  0
LINE
  5
1CDFE
330
1CD0F
100
AcDbEntity
  8
30
 62
     0
440
 16777216
370
    -2
100
AcDbLine
 10
130.8931400689772
 20
1136.443570425883
 30
0.0
 11
130.8931400689772
 21
1174.284617548055
 31
0.0
  0
LINE
  5
1CDFF
330
1CD0F
100
AcDbEntity
  8
30
 62
     0
440
 16777216
370
    -2
100
AcDbLine
 10
100.9068582172887
 20
1136.443570425708
 30
0.0
 11
100.9068582172887
 21
1174.284617548055
 31
0.0
  0
LINE
  5
1CE00
330
1CD0F
100
AcDbEntity
  8
30
 62
     0
440
 16777216
370
    -2
100
AcDbLine
 10
128.8931400689772
 20
1173.784617548055
 30
0.0
 11
102.9068582172887
 21
1173.784617548055
 31
0.0
  0
INSERT
  5
1CE01
330
1CD0F
100
AcDbEntity
  8
30
 62
     0
440
 16777216
370
    -2
100
AcDbBlockReference
  2
_OPEN
 10
130.8931400689772
 20
1173.784617548055
 30
0.0
 41
2.0
 42
2.0
 43
2.0
  0
INSERT
  5
1CE02
330
1CD0F
100
AcDbEntity
  8
30
 62
     0
440
 16777216
370
    -2
100
AcDbBlockReference
  2
_OPEN
 10
100.9068582172887
 20
1173.784617548055
 30
0.0
 41
2.0
 42
2.0
 43
2.0
 50
180.0
  0
MTEXT
  5
1CE03
330
1CD0F
100
AcDbEntity
  8
30
440
 16777216
100
AcDbMText
 10
115.899999143133
 20
1180.784617548055
 30
0.0
 40
8.0
 41
0.0
 46
0.0
 71
     5
 72
     1
  1
\A1;30
 73
     1
 44
1.0
 90
        3
 63
     9
421
 13158600
 45
1.25
441
        0
  0
POINT
  5
1CE04
330
1CD0F
100
AcDbEntity
  8
DEFPOINTS
 62
     0
440
 16777216
100
AcDbPoint
 10
130.8931400689772
 20
1135.443570425883
 30
0.0
  0
POINT
  5
1CE05
330
1CD0F
100
AcDbEntity
  8
DEFPOINTS
 62
     0
440
 16777216
100
AcDbPoint
 10
100.9068582172887
 20
1135.443570425708
 30
0.0
  0
POINT
  5
1CE06
330
1CD0F
100
AcDbEntity
  8
DEFPOINTS
 62
     0
440
 16777216
100
AcDbPoint
 10
100.9068582172887
 20
1173.784617548055
 30
0.0
  0
ENDBLK
  5
1CD11
330
1CD0F
100
AcDbEntity
  8
0
100
AcDbBlockEnd
  0
BLOCK
  5
1CD93
330
1CD92
100
AcDbEntity
  8
0
100
AcDbBlockBegin
  2
*D38
 70
     1
 10
0.0
 20
0.0
 30
0.0
  3
*D38
  1

  0
LINE
  5
1CDAA
330
1CD92
100
AcDbEntity
  8
30
  6
Continuous
 62
     0
440
 16777216
370
    -2
100
AcDbLine
 10
289.2600543248846
 20
387.0
 30
0.0
 11
371.8556837894539
 21
387.0
 31
0.0
  0
LINE
  5
1CDAB
330
1CD92
100
AcDbEntity
  8
30
  6
Continuous
 62
     0
440
 16777216
370
    -2
100
AcDbLine
 10
290.2600543248847
 20
119.0
 30
0.0
 11
371.8556837894539
 21
119.0
 31
0.0
  0
LINE
  5
1CDAC
330
1CD92
100
AcDbEntity
  8
30
  6
Continuous
 62
     0
440
 16777216
370
    -2
100
AcDbLine
 10
371.355683789454
 20
385.0
 30
0.0
 11
371.3556837894539
 21
121.0
 31
0.0
  0
INSERT
  5
1CDAD
330
1CD92
100
AcDbEntity
  8
30
  6
Continuous
 62
     0
440
 16777216
370
    -2
100
AcDbBlockReference
  2
_OPEN
 10
371.355683789454
 20
387.0
 30
0.0
 41
2.0
 42
2.0
 43
2.0
 50
90.0
  0
INSERT
  5
1CDAE
330
1CD92
100
AcDbEntity
  8
30
  6
Continuous
 62
     0
440
 16777216
370
    -2
100
AcDbBlockReference
  2
_OPEN
 10
371.3556837894539
 20
119.0
 30
0.0
 41
2.0
 42
2.0
 43
2.0
 50
270.0
  0
MTEXT
  5
1CDAF
330
1CD92
100
AcDbEntity
  8
30
  6
Continuous
440
 16777216
100
AcDbMText
 10
360.3556837894539
 20
253.0
 30
0.0
 40
8.0
 41
0.0
 46
0.0
 71
     2
 72
     1
  1
\A1;268
 11
0.0000000000000001
 21
1.0
 31
0.0
 73
     1
 44
1.0
 90
        3
 63
     9
421
 13158600
 45
1.25
441
        0
  0
POINT
  5
1CDB0
330
1CD92
100
AcDbEntity
  8
DEFPOINTS
  6
Continuous
 62
     0
440
 16777216
100
AcDbPoint
 10
288.2600543248845
 20
387.0
 30
0.0
  0
POINT
  5
1CDB1
330
1CD92
100
AcDbEntity
  8
DEFPOINTS
  6
Continuous
 62
     0
440
 16777216
100
AcDbPoint
 10
289.2600543248846
 20
119.0
 30
0.0
  0
POINT
  5
1CDB2
330
1CD92
100
AcDbEntity
  8
DEFPOINTS
  6
Continuous
 62
     0
440
 16777216
100
AcDbPoint
 10
371.3556837894539
 20
119.0
 30
0.0
  0
ENDBLK
  5
1CD94
330
1CD92
100
AcDbEntity
  8
0
100
AcDbBlockEnd
  0
BLOCK
  5
1CD9F
330
1CD9E
100
AcDbEntity
  8
0
100
AcDbBlockBegin
  2
*D39
 70
     1
 10
0.0
 20
0.0
 30
0.0
  3
*D39
  1

  0
LINE
  5
1CDB3
330
1CD9E
100
AcDbEntity
  8
30
  6
Continuous
 62
     0
440
 16777216
370
    -2
100
AcDbLine
 10
301.8476035637495
 20
329.0
 30
0.0
 11
341.4566568944075
 21
329.0
 31
0.0
  0
LINE
  5
1CDB4
330
1CD9E
100
AcDbEntity
  8
30
  6
Continuous
 62
     0
440
 16777216
370
    -2
100
AcDbLine
 10
307.8476035637495
 20
177.0
 30
0.0
 11
341.4566568944075
 21
177.0
 31
0.0
  0
LINE
  5
1CDB5
330
1CD9E
100
AcDbEntity
  8
30
  6
Continuous
 62
     0
440
 16777216
370
    -2
100
AcDbLine
 10
340.9566568944074
 20
327.0
 30
0.0
 11
340.9566568944074
 21
179.0
 31
0.0
  0
INSERT
  5
1CDB6
330
1CD9E
100
AcDbEntity
  8
30
  6
Continuous
 62
     0
440
 16777216
370
    -2
100
AcDbBlockReference
  2
_OPEN
 10
340.9566568944074
 20
329.0
 30
0.0
 41
2.0
 42
2.0
 43
2.0
 50
90.0
  0
INSERT
  5
1CDB7
330
1CD9E
100
AcDbEntity
  8
30
  6
Continuous
 62
     0
440
 16777216
370
    -2
100
AcDbBlockReference
  2
_OPEN
 10
340.9566568944074
 20
177.0
 30
0.0
 41
2.0
 42
2.0
 43
2.0
 50
270.0
  0
MTEXT
  5
1CDB8
330
1CD9E
100
AcDbEntity
  8
30
  6
Continuous
440
 16777216
100
AcDbMText
 10
329.9566568944074
 20
253.0
 30
0.0
 40
8.0
 41
0.0
 46
0.0
 71
     2
 72
     1
  1
\A1;152
 11
0.0000000000000001
 21
1.0
 31
0.0
 73
     1
 44
1.0
 90
        3
 63
     9
421
 13158600
 45
1.25
441
        0
  0
POINT
  5
1CDB9
330
1CD9E
100
AcDbEntity
  8
DEFPOINTS
  6
Continuous
 62
     0
440
 16777216
100
AcDbPoint
 10
300.8476035637495
 20
329.0
 30
0.0
  0
POINT
  5
1CDBA
330
1CD9E
100
AcDbEntity
  8
DEFPOINTS
  6
Continuous
 62
     0
440
 16777216
100
AcDbPoint
 10
306.8476035637496
 20
177.0
 30
0.0
  0
POINT
  5
1CDBB
330
1CD9E
100
AcDbEntity
  8
DEFPOINTS
  6
Continuous
 62
     0
440
 16777216
100
AcDbPoint
 10
340.9566568944074
 20
177.0
 30
0.0
  0
ENDBLK
  5
1CDA0
330
1CD9E
100
AcDbEntity
  8
0
100
AcDbBlockEnd
  0
BLOCK
  5
1CDBD
330
1CDBC
100
AcDbEntity
  8
0
100
AcDbBlockBegin
  2
4pbase
 70
     0
 10
0.0
 20
0.0
 30
0.0
  3
4pbase
  1

  0
LINE
  5
1CDBF
330
1CDBC
100
AcDbEntity
  8
10
  6
Continuous
100
AcDbLine
 10
-97.0
 20
0.0
 30
0.0
 11
142.0
 21
0.0000000000001137
 31
0.0
  0
LINE
  5
1CDC0
330
1CDBC
100
AcDbEntity
  8
10
  6
Continuous
100
AcDbLine
 10
-95.0
 20
-14.5
 30
0.0
 11
140.0
 21
-14.49999999999988
 31
0.0
  0
ARC
  5
1CDC1
330
1CDBC
100
AcDbEntity
  8
10
  6
Continuous
100
AcDbCircle
 10
-95.0
 20
-12.5
 30
0.0
 40
2.0
100
AcDbArc
 50
180.0
 51
270.0
  0
LINE
  5
1CDC2
330
1CDBC
100
AcDbEntity
  8
10
  6
Continuous
100
AcDbLine
 10
-97.0
 20
0.0
 30
0.0
 11
-97.0
 21
-12.5
 31
0.0
  0
LINE
  5
1CDC3
330
1CDBC
100
AcDbEntity
  8
10
  6
Continuous
100
AcDbLine
 10
142.0
 20
0.0000000000001137
 30
0.0
 11
142.0
 21
-12.49999999999988
 31
0.0
  0
ARC
  5
1CDC4
330
1CDBC
100
AcDbEntity
  8
10
  6
Continuous
100
AcDbCircle
 10
140.0
 20
-12.49999999999988
 30
0.0
 40
2.0
100
AcDbArc
 50
270.0
 51
0.0
  0
LINE
  5
1CDC5
330
1CDBC
100
AcDbEntity
  8
10
  6
Continuous
100
AcDbLine
 10
-17.0
 20
-32.83244593050028
 30
0.0
 11
17.0
 21
-32.83244593050028
 31
0.0
  0
LINE
  5
1CDC6
330
1CDBC
100
AcDbEntity
  8
10
  6
Continuous
100
AcDbLine
 10
17.0
 20
-57.46169626400011
 30
0.0
 11
17.0
 21
-32.83244593050028
 31
0.0
  0
LINE
  5
1CDC7
330
1CDBC
100
AcDbEntity
  8
10
  6
Continuous
100
AcDbLine
 10
-17.0
 20
-32.83244593050028
 30
0.0
 11
-17.0
 21
-57.46169626400011
 31
0.0
  0
LINE
  5
1CDC8
330
1CDBC
100
AcDbEntity
  8
10
  6
Continuous
100
AcDbLine
 10
-17.0
 20
-57.46169626400011
 30
0.0
 11
17.0
 21
-57.46169626400011
 31
0.0
  0
LINE
  5
1CDC9
330
1CDBC
100
AcDbEntity
  8
10
  6
Continuous
100
AcDbLine
 10
13.80000000000018
 20
-32.83244593050028
 30
0.0
 11
13.80000000000018
 21
-23.22489287099995
 31
0.0
  0
LINE
  5
1CDCA
330
1CDBC
100
AcDbEntity
  8
10
  6
Continuous
100
AcDbLine
 10
-13.79999999999927
 20
-23.22489287099995
 30
0.0
 11
-13.79999999999927
 21
-32.83244593050028
 31
0.0
  0
LINE
  5
1CDCB
330
1CDBC
100
AcDbEntity
  8
10
  6
Continuous
100
AcDbLine
 10
-25.5
 20
-15.50000000000045
 30
0.0
 11
-25.5
 21
-23.00000000000046
 31
0.0
  0
LINE
  5
1CDCC
330
1CDBC
100
AcDbEntity
  8
10
  6
Continuous
100
AcDbLine
 10
-25.5
 20
-23.00000000000046
 30
0.0
 11
25.5
 21
-23.00000000000034
 31
0.0
  0
LINE
  5
1CDCD
330
1CDBC
100
AcDbEntity
  8
10
  6
Continuous
100
AcDbLine
 10
25.5
 20
-15.50000000000034
 30
0.0
 11
25.5
 21
-23.00000000000034
 31
0.0
  0
LINE
  5
1CDCE
330
1CDBC
100
AcDbEntity
  8
10
  6
Continuous
100
AcDbLine
 10
56.80000000000018
 20
-15.50000000000034
 30
0.0
 11
25.5
 21
-15.50000000000034
 31
0.0
  0
LINE
  5
1CDCF
330
1CDBC
100
AcDbEntity
  8
10
  6
Continuous
100
AcDbLine
 10
-25.5
 20
-15.50000000000045
 30
0.0
 11
-56.80000000000018
 21
-15.50000000000045
 31
0.0
  0
LINE
  5
1CDD0
330
1CDBC
100
AcDbEntity
  8
10
  6
Continuous
100
AcDbLine
 10
-57.80000000000018
 20
-14.5
 30
0.0
 11
-57.80000000000018
 21
-15.50000000000045
 31
0.0
  0
LINE
  5
1CDD1
330
1CDBC
100
AcDbEntity
  8
10
  6
Continuous
100
AcDbLine
 10
-57.80000000000018
 20
-15.50000000000045
 30
0.0
 11
-56.80000000000018
 21
-15.50000000000045
 31
0.0
  0
LINE
  5
1CDD2
330
1CDBC
100
AcDbEntity
  8
10
  6
Continuous
100
AcDbLine
 10
57.80000000000018
 20
-15.50000000000034
 30
0.0
 11
57.80000000000018
 21
-14.49999999999988
 31
0.0
  0
LINE
  5
1CDD3
330
1CDBC
100
AcDbEntity
  8
10
  6
Continuous
100
AcDbLine
 10
56.80000000000018
 20
-15.50000000000034
 30
0.0
 11
57.80000000000018
 21
-15.50000000000034
 31
0.0
  0
ENDBLK
  5
1CDBE
330
1CDBC
100
AcDbEntity
  8
0
100
AcDbBlockEnd
  0
BLOCK
  5
1CE4D
330
1CE4C
100
AcDbEntity
  8
0
100
AcDbBlockBegin
  2
*D41
 70
     1
 10
0.0
 20
0.0
 30
0.0
  3
*D41
  1

  0
LINE
  5
1CE58
330
1CE4C
100
AcDbEntity
  8
30
 62
     0
440
 16777216
370
    -2
100
AcDbLine
 10
107.7999991432
 20
1128.472719410204
 30
0.0
 11
74.34717082775025
 21
1128.472719410204
 31
0.0
  0
LINE
  5
1CE59
330
1CE4C
100
AcDbEntity
  8
30
 62
     0
440
 16777216
370
    -2
100
AcDbLine
 10
100.8000027015996
 20
1078.472719700755
 30
0.0
 11
74.34717082775023
 21
1078.472719700755
 31
0.0
  0
LINE
  5
1CE5A
330
1CE4C
100
AcDbEntity
  8
30
 62
     0
440
 16777216
370
    -2
100
AcDbLine
 10
74.84717082775024
 20
1126.472719410204
 30
0.0
 11
74.84717082775024
 21
1080.472719700755
 31
0.0
  0
INSERT
  5
1CE5B
330
1CE4C
100
AcDbEntity
  8
30
 62
     0
440
 16777216
370
    -2
100
AcDbBlockReference
  2
_OPEN
 10
74.84717082775024
 20
1128.472719410204
 30
0.0
 41
2.0
 42
2.0
 43
2.0
 50
90.0
  0
INSERT
  5
1CE5C
330
1CE4C
100
AcDbEntity
  8
30
 62
     0
440
 16777216
370
    -2
100
AcDbBlockReference
  2
_OPEN
 10
74.84717082775024
 20
1078.472719700755
 30
0.0
 41
2.0
 42
2.0
 43
2.0
 50
270.0
  0
MTEXT
  5
1CE5D
330
1CE4C
100
AcDbEntity
  8
30
440
 16777216
100
AcDbMText
 10
67.84717082775006
 20
1103.47271955548
 30
0.0
 40
8.0
 41
0.0
 46
0.0
 71
     5
 72
     1
  1
\A1;50
 11
0.0000000000000001
 21
1.0
 31
0.0
 73
     1
 44
1.0
 90
        3
 63
     9
421
 13158600
 45
1.25
441
        0
  0
POINT
  5
1CE5E
330
1CE4C
100
AcDbEntity
  8
DEFPOINTS
 62
     0
440
 16777216
100
AcDbPoint
 10
108.7999991432
 20
1128.472719410204
 30
0.0
  0
POINT
  5
1CE5F
330
1CE4C
100
AcDbEntity
  8
DEFPOINTS
 62
     0
440
 16777216
100
AcDbPoint
 10
101.8000027015996
 20
1078.472719700755
 30
0.0
  0
POINT
  5
1CE60
330
1CE4C
100
AcDbEntity
  8
DEFPOINTS
 62
     0
440
 16777216
100
AcDbPoint
 10
74.84717082775024
 20
1078.472719700755
 30
0.0
  0
ENDBLK
  5
1CE4E
330
1CE4C
100
AcDbEntity
  8
0
100
AcDbBlockEnd
  0
ENDSEC
  0
SECTION
  2
ENTITIES
  0
LWPOLYLINE
  5
180E5
330
1E
100
AcDbEntity
  8
10
380
     2
100
AcDbPolyline
 90
        4
 70
     1
 43
0.0
 10
840.0
 20
0.0
 10
840.0
 20
1305.6
 10
0.0
 20
1305.6
 10
0.0
 20
0.0
  0
LINE
  5
1C5E4
330
1E
100
AcDbEntity
  8
16
 48
2.0
100
AcDbLine
 10
161.0
 20
532.9727197007554
 30
0.0
 11
161.0
 21
863.3991523324143
 31
0.0
  0
LINE
  5
1C5E5
330
1E
100
AcDbEntity
  8
16
 48
2.0
100
AcDbLine
 10
325.8497158299924
 20
703.0
 30
0.0
 11
20.89349508295527
 21
703.0
 31
0.0
  0
MTEXT
  5
1C5E6
330
1E
100
AcDbEntity
  8
19
  6
Continuous
100
AcDbMText
 10
563.0
 20
1194.639821059567
 30
0.0
 40
10.0
 41
178.0
 46
0.0
 71
     1
 72
     5
  1
PS630-CF 4P FP\PPS630-NF 4P FP\PPS630-GF 4P FP\PPS630-NE 4P FP\PPS630-GE 4P FP\PPH630-CF 4P FP\PPH630-CE 4P FP
  7
STANDARD1
 73
     1
 44
1.0
  0
LINE
  5
1C5E7
330
1E
100
AcDbEntity
  8
16
 48
2.0
100
AcDbLine
 10
161.0
 20
912.972719700755
 30
0.0
 11
161.0
 21
1157.45
 31
0.0
  0
LINE
  5
1C5E8
330
1E
100
AcDbEntity
  8
18
100
AcDbLine
 10
40.11812957477377
 20
994.4727197007553
 30
0.0
 11
396.5
 21
994.4727197007553
 31
0.0
  0
LINE
  5
1C5E9
330
1E
100
AcDbEntity
  8
18
100
AcDbLine
 10
396.5
 20
994.4727197007553
 30
0.0
 11
396.5
 21
990.4727197007549
 31
0.0
  0
LINE
  5
1C5EA
330
1E
100
AcDbEntity
  8
18
100
AcDbLine
 10
396.5
 20
990.4727197007549
 30
0.0
 11
316.5
 21
990.4727197007549
 31
0.0
  0
LINE
  5
1C5EB
330
1E
100
AcDbEntity
  8
18
100
AcDbLine
 10
40.11812957477377
 20
990.4727197007549
 30
0.0
 11
48.49993896486012
 21
990.4727197007549
 31
0.0
  0
LINE
  5
1C5EC
330
1E
100
AcDbEntity
  8
16
 48
2.0
100
AcDbLine
 10
183.5
 20
532.9727197007551
 30
0.0
 11
183.5
 21
863.5894848367186
 31
0.0
  0
LINE
  5
1C5F4
330
1E
100
AcDbEntity
  8
10
  6
Continuous
100
AcDbLine
 10
282.0
 20
1084.172719700755
 30
0.0
 11
282.0
 21
990.4727197007552
 31
0.0
  0
LINE
  5
1C5F7
330
1E
100
AcDbEntity
  8
10
  6
Continuous
100
AcDbLine
 10
85.0
 20
1084.172719700755
 30
0.0
 11
85.0
 21
990.4727197007549
 31
0.0
  0
LINE
  5
1C607
330
1E
100
AcDbEntity
  8
10
  6
Continuous
100
AcDbLine
 10
91.0
 20
990.4727197007549
 30
0.0
 11
91.0
 21
1078.472719700755
 31
0.0
  0
LINE
  5
1C608
330
1E
100
AcDbEntity
  8
10
  6
Continuous
100
AcDbLine
 10
276.0
 20
1078.472719700755
 30
0.0
 11
276.0
 21
990.4727197007549
 31
0.0
  0
LINE
  5
1C643
330
1E
100
AcDbEntity
  8
10
  6
Continuous
100
AcDbLine
 10
535.2444141247523
 20
557.9838962258913
 30
0.0
 11
547.7444171047518
 21
557.9838962258913
 31
0.0
  0
ARC
  5
1C644
330
1E
100
AcDbEntity
  8
10
  6
Continuous
100
AcDbCircle
 10
535.2444162702521
 20
559.983892053391
 30
0.0
 40
2.00000000000017
100
AcDbArc
 50
180.0
 51
270.0
  0
LINE
  5
1C645
330
1E
100
AcDbEntity
  8
10
  6
Continuous
100
AcDbLine
 10
533.2444162702521
 20
559.983892053391
 30
0.0
 11
533.2444162702521
 21
845.9838920533909
 31
0.0
  0
LINE
  5
1C646
330
1E
100
AcDbEntity
  8
10
  6
Continuous
100
AcDbLine
 10
535.2444141247523
 20
847.9838878813911
 30
0.0
 11
547.7444171047518
 21
847.9838878813911
 31
0.0
  0
LINE
  5
1C647
330
1E
100
AcDbEntity
  8
10
  6
Continuous
100
AcDbLine
 10
547.7444171047518
 20
557.9838962258913
 30
0.0
 11
547.7444171047518
 21
847.9838878813911
 31
0.0
  0
ARC
  5
1C648
330
1E
100
AcDbEntity
  8
10
  6
Continuous
100
AcDbCircle
 10
535.2444162702521
 20
845.9838920533909
 30
0.0
 40
2.00000000000017
100
AcDbArc
 50
90.0
 51
180.0
  0
LINE
  5
1C649
330
1E
100
AcDbEntity
  8
10
  6
Continuous
100
AcDbLine
 10
510.8241239072293
 20
717.2999878508894
 30
0.0
 11
524.7444151977523
 21
713.570049222416
 31
0.0
  0
LINE
  5
1C64A
330
1E
100
AcDbEntity
  8
10
  6
Continuous
100
AcDbLine
 10
524.7444151977523
 20
727.028646166009
 30
0.0
 11
514.1887701862279
 21
729.8570187127256
 31
0.0
  0
LINE
  5
1C64B
330
1E
100
AcDbEntity
  8
10
  6
Continuous
100
AcDbLine
 10
639.2444162702522
 20
572.9838968218914
 30
0.0
 11
547.7444171047518
 21
572.9838968218914
 31
0.0
  0
LINE
  5
1C64C
330
1E
100
AcDbEntity
  8
0
  6
SLD-実線
 62
     7
370
    15
100
AcDbLine
 10
554.9944131707525
 20
618.9838931858907
 30
0.0
 11
554.9944131707525
 21
618.7338889538908
 31
0.0
  0
LINE
  5
1C64D
330
1E
100
AcDbEntity
  8
10
  6
Continuous
100
AcDbLine
 10
548.2444162702521
 20
832.9838872848908
 30
0.0
 11
639.2444162702522
 21
832.9838872848908
 31
0.0
  0
LINE
  5
1C64E
330
1E
100
AcDbEntity
  8
24
  6
Continuous
100
AcDbLine
 10
639.2444162702522
 20
832.9838872848908
 30
0.0
 11
639.2444162702522
 21
798.9838928878907
 31
0.0
  0
LINE
  5
1C64F
330
1E
100
AcDbEntity
  8
10
  6
Continuous
100
AcDbLine
 10
639.2444162702522
 20
572.9838968218914
 30
0.0
 11
639.2444162702522
 21
618.9838931858907
 31
0.0
  0
LINE
  5
1C650
330
1E
100
AcDbEntity
  8
10
  6
Continuous
100
AcDbLine
 10
533.2444162702521
 20
657.983890265391
 30
0.0
 11
524.7444151977523
 21
657.983890265391
 31
0.0
  0
LINE
  5
1C651
330
1E
100
AcDbEntity
  8
10
  6
Continuous
100
AcDbLine
 10
524.7444151977523
 20
657.983890265391
 30
0.0
 11
524.7444151977523
 21
747.9838938418911
 31
0.0
  0
LINE
  5
1C652
330
1E
100
AcDbEntity
  8
10
  6
Continuous
100
AcDbLine
 10
524.7444151977523
 20
747.9838938418911
 30
0.0
 11
533.2444162702521
 21
747.9838938418911
 31
0.0
  0
LINE
  5
1C653
330
1E
100
AcDbEntity
  8
0
  6
SLD-実線
 62
     7
370
    15
100
AcDbLine
 10
548.4444140532523
 20
825.9838954508907
 30
0.0
 11
548.2444181182517
 21
825.9838954508907
 31
0.0
  0
LINE
  5
1C654
330
1E
100
AcDbEntity
  8
10
100
AcDbLine
 10
644.4444162847521
 20
798.9838928878907
 30
0.0
 11
644.4444162847521
 21
618.9838931858907
 31
0.0
  0
LINE
  5
1C655
330
1E
100
AcDbEntity
  8
10
  6
Continuous
100
AcDbLine
 10
644.4444162847521
 20
798.9838928878907
 30
0.0
 11
547.7444171047518
 21
798.9838928878907
 31
0.0
  0
LINE
  5
1C656
330
1E
100
AcDbEntity
  8
10
  6
Continuous
100
AcDbLine
 10
644.4444162847521
 20
618.9838931858907
 30
0.0
 11
547.7444171047518
 21
618.9838931858907
 31
0.0
  0
LWPOLYLINE
  5
1C657
330
1E
100
AcDbEntity
  8
10
  6
Continuous
100
AcDbPolyline
 90
        4
 70
     0
 43
0.0
 10
506.2515824177526
 20
731.4661447853909
 10
493.3885424472519
 20
734.9127852323909
 10
490.2827232217522
 20
723.3216748538913
 10
503.1457631922521
 20
719.8750344068907
  0
LWPOLYLINE
  5
1C658
330
1E
100
AcDbEntity
  8
10
  6
Continuous
100
AcDbPolyline
 90
        3
 70
     0
 43
0.0
 10
513.9809637407514
 20
731.3586031048908
 10
507.5960901246452
 20
731.2960282867144
 42
-0.0680752126951837
 10
506.25158578624
 20
731.4661450409452
  0
LWPOLYLINE
  5
1C659
330
1E
100
AcDbEntity
  8
10
  6
Continuous
100
AcDbPolyline
 90
        8
 70
     0
 43
0.0
 10
503.1457572447643
 20
719.8750351253366
 42
-0.0682353784346023
 10
504.3979351289927
 20
719.3484855017098
 10
509.8884744797168
 20
716.1063722108617
 42
0.1119594399650148
 10
511.9934858161103
 20
715.4284938976343
 10
514.9119733907528
 20
715.1693734303912
 10
518.7942548727513
 20
729.6582614033914
 10
516.138511371676
 20
730.8924953000626
 42
0.1117445099478536
 10
513.9809574488217
 20
731.3586030938189
  0
LINE
  5
1C65A
330
1E
100
AcDbEntity
  8
10
  6
Continuous
100
AcDbLine
 10
514.1887701862279
 20
729.8570187127256
 30
0.0
 11
510.8241239072293
 21
717.2999878508894
 31
0.0
  0
LINE
  5
1C65B
330
1E
100
AcDbEntity
  8
18
100
AcDbLine
 10
548.2444162702521
 20
892.7675694548909
 30
0.0
 11
548.2444162702521
 21
515.7251032693912
 31
0.0
  0
LINE
  5
1C65C
330
1E
100
AcDbEntity
  8
18
100
AcDbLine
 10
552.2444162702521
 20
892.7675694548909
 30
0.0
 11
552.2444162702521
 21
515.7251032693912
 31
0.0
  0
ARC
  5
1C65D
330
1E
100
AcDbEntity
  8
30
370
     0
100
AcDbCircle
 10
548.0640249167527
 20
707.839221577391
 30
0.0
 40
59.81960864609329
100
AcDbArc
 50
165.0000000000055
 51
180.4369424226018
  0
DIMENSION
  5
1C65E
330
1E
100
AcDbEntity
  8
30
  6
Continuous
100
AcDbDimension
280
     0
  2
*D19
 10
548.2444162702521
 20
455.2318383455321
 30
0.0
 11
518.2444162702521
 21
455.2318383455321
 31
0.0
 70
   160
  1
<>
 71
     2
 42
60.0
 73
     0
 74
     0
 75
     0
  3
STANDARD
100
AcDbAlignedDimension
 13
488.2444162702523
 23
707.839221577391
 33
0.0
 14
548.2444162702521
 24
515.7251032693912
 34
0.0
100
AcDbRotatedDimension
  0
DIMENSION
  5
1C65F
330
1E
100
AcDbEntity
  8
30
  6
Continuous
100
AcDbDimension
280
     0
  2
*D20
 10
548.2444162702521
 20
482.5417058482817
 30
0.0
 11
519.5587302834439
 21
482.5417058482817
 31
0.0
 70
   160
  1
<>
 71
     2
 42
15.0
 73
     0
 74
     0
 75
     0
  3
STANDARD
100
AcDbAlignedDimension
 13
533.2444162702521
 23
565.9838920533911
 33
0.0
 14
548.2444162702521
 24
515.7251032693912
 34
0.0
100
AcDbRotatedDimension
  0
DIMENSION
  5
1C660
330
1E
100
AcDbEntity
  8
30
  6
Continuous
100
AcDbDimension
280
     0
  2
*D21
 10
810.5091498567528
 20
588.9838920533915
 30
0.0
 11
810.5091498567526
 21
702.9838920533912
 31
0.0
 70
   160
  1
<>
 71
     2
 42
227.9999999999992
 73
     0
 74
     0
 75
     0
  3
STANDARD
100
AcDbAlignedDimension
 13
772.9978368750071
 23
816.9838920533909
 33
0.0
 14
756.5041539577522
 24
588.9838920533916
 34
0.0
 50
90.0
100
AcDbRotatedDimension
  0
LINE
  5
1C661
330
1E
100
AcDbEntity
  8
16
 48
2.0
100
AcDbLine
 10
510.6497155388324
 20
702.9838920533912
 30
0.0
 11
677.9808116015155
 21
702.9838920533912
 31
0.0
  0
LWPOLYLINE
  5
1C662
330
1E
100
AcDbEntity
  8
10
100
AcDbPolyline
 90
        4
 70
     1
 43
0.0
 10
651.0444162847525
 20
794.9088920533908
 10
644.4444162847521
 20
794.9088920533908
 10
644.4444162847521
 20
782.9088920533908
 10
651.0444162847525
 20
782.9088920533908
  0
LWPOLYLINE
  5
1C663
330
1E
100
AcDbEntity
  8
10
100
AcDbPolyline
 90
        4
 70
     0
 43
0.0
 10
651.0444162847525
 20
785.9088920533907
 10
654.0444162847525
 20
785.9088920533907
 10
654.0444162847525
 20
791.9088920533908
 10
651.0444162847525
 20
791.9088920533908
  0
LWPOLYLINE
  5
1C664
330
1E
100
AcDbEntity
  8
10
100
AcDbPolyline
 90
        4
 70
     1
 43
0.0
 10
651.0444162847525
 20
623.0588940203906
 10
644.4444162847521
 20
623.0588940203906
 10
644.4444162847521
 20
635.0588940203906
 10
651.0444162847525
 20
635.0588940203906
  0
LWPOLYLINE
  5
1C665
330
1E
100
AcDbEntity
  8
10
100
AcDbPolyline
 90
        4
 70
     0
 43
0.0
 10
651.0444162847525
 20
632.0588940203906
 10
654.0444162847525
 20
632.0588940203906
 10
654.0444162847525
 20
626.0588940203906
 10
651.0444162847525
 20
626.0588940203906
  0
LWPOLYLINE
  5
1C666
330
1E
100
AcDbEntity
  8
10
  6
Continuous
100
AcDbPolyline
 90
        4
 70
     1
 43
0.0
 10
63.99999987949922
 20
847.4222084224997
 10
302.9999998794992
 20
847.4222084224997
 10
302.9999998794992
 20
557.4222084224998
 10
63.99999987949922
 20
557.4222084224998
  0
ARC
  5
1C667
330
1E
100
AcDbEntity
  8
10
  6
Continuous
100
AcDbCircle
 10
301.9999998794992
 20
558.4222084224998
 30
0.0
 40
1.0
100
AcDbArc
 50
270.0
 51
0.0
  0
LINE
  5
1C668
330
1E
100
AcDbEntity
  8
0
  6
SLD-実線
 62
     7
370
    15
100
AcDbLine
 10
143.9999998794992
 20
722.759991935
 30
0.0
 11
177.9999998794992
 21
722.759991935
 31
0.0
  0
LINE
  5
1C669
330
1E
100
AcDbEntity
  8
0
  6
SLD-実線
 62
     7
370
    15
100
AcDbLine
 10
143.9999998794992
 20
722.759991935
 30
0.0
 11
143.9999998794992
 21
719.3133514944998
 31
0.0
  0
LINE
  5
1C66A
330
1E
100
AcDbEntity
  8
0
  6
SLD-実線
 62
     7
370
    15
100
AcDbLine
 10
177.9999998794992
 20
722.759991935
 30
0.0
 11
177.9999998794992
 21
719.3133514944998
 31
0.0
  0
LINE
  5
1C66B
330
1E
100
AcDbEntity
  8
0
  6
SLD-実線
 62
     7
370
    15
100
AcDbLine
 10
143.9999998794992
 20
718.7891413244998
 30
0.0
 11
143.9999998794992
 21
719.3133514944998
 31
0.0
  0
LINE
  5
1C66C
330
1E
100
AcDbEntity
  8
0
  6
SLD-実線
 62
     7
370
    15
100
AcDbLine
 10
177.9999998794992
 20
719.3133514944998
 30
0.0
 11
177.9999998794992
 21
718.7891413244998
 31
0.0
  0
LINE
  5
1C66D
330
1E
100
AcDbEntity
  8
0
  6
SLD-実線
 62
     7
370
    15
100
AcDbLine
 10
143.9999998794992
 20
718.7891413244998
 30
0.0
 11
143.9999998794992
 21
715.5417997214999
 31
0.0
  0
LINE
  5
1C66E
330
1E
100
AcDbEntity
  8
0
  6
SLD-実線
 62
     7
370
    15
100
AcDbLine
 10
177.9999998794992
 20
718.7891413244998
 30
0.0
 11
177.9999998794992
 21
715.5417997214999
 31
0.0
  0
LINE
  5
1C66F
330
1E
100
AcDbEntity
  8
0
  6
SLD-実線
 62
     7
370
    15
100
AcDbLine
 10
143.9999998794992
 20
714.8668102794998
 30
0.0
 11
143.9999998794992
 21
715.5417997214999
 31
0.0
  0
LINE
  5
1C670
330
1E
100
AcDbEntity
  8
0
  6
SLD-実線
 62
     7
370
    15
100
AcDbLine
 10
177.9999998794992
 20
715.5417997214999
 30
0.0
 11
177.9999998794992
 21
714.8668102794998
 31
0.0
  0
LINE
  5
1C671
330
1E
100
AcDbEntity
  8
0
  6
SLD-実線
 62
     7
370
    15
100
AcDbLine
 10
143.9999998794992
 20
714.6076899269997
 30
0.0
 11
177.9999998794992
 21
714.6076899269997
 31
0.0
  0
LINE
  5
1C672
330
1E
100
AcDbEntity
  8
0
  6
SLD-実線
 62
     7
370
    15
100
AcDbLine
 10
143.9999998794992
 20
714.8668102794998
 30
0.0
 11
143.9999998794992
 21
714.6076899269997
 31
0.0
  0
LINE
  5
1C673
330
1E
100
AcDbEntity
  8
0
  6
SLD-実線
 62
     7
370
    15
100
AcDbLine
 10
177.9999998794992
 20
714.8668102794998
 30
0.0
 11
177.9999998794992
 21
714.6076899269997
 31
0.0
  0
SPLINE
  5
1C674
330
1E
100
AcDbEntity
  8
0
  6
SLD-実線
 62
     7
370
    15
100
AcDbSpline
210
0.0
220
0.0
230
1.0
 70
     8
 71
     3
 72
    10
 73
     6
 74
     0
 42
0.000000001
 43
0.0000000001
 40
0.0
 40
0.0
 40
0.0
 40
0.0
 40
0.0549524182025154
 40
0.5991790915272667
 40
1.0
 40
1.0
 40
1.0
 40
1.0
 10
175.3159942565653
 20
690.3295290358733
 30
0.0
 10
175.3162301416996
 20
690.7734801352083
 30
0.0
 10
175.3188021384449
 20
695.6141445696985
 30
0.0
 10
175.3170937066461
 20
703.7289380638802
 30
0.0
 10
175.3173628775239
 20
711.3678256786352
 30
0.0
 10
175.3174770403639
 20
714.6076899272093
 30
0.0
  0
LINE
  5
1C675
330
1E
100
AcDbEntity
  8
0
  6
SLD-実線
 62
     7
370
    15
100
AcDbLine
 10
175.3122736210007
 20
695.6386679094999
 30
0.0
 11
175.3159942564998
 21
690.329529036
 31
0.0
  0
LINE
  5
1C676
330
1E
100
AcDbEntity
  8
0
  6
SLD-実線
 62
     7
370
    15
100
AcDbLine
 10
175.2999998795003
 20
695.6683458989999
 30
0.0
 11
175.3122736210007
 21
695.6386679094999
 31
0.0
  0
SPLINE
  5
1C677
330
1E
100
AcDbEntity
  8
0
  6
SLD-実線
 62
     7
370
    15
100
AcDbSpline
210
0.0
220
0.0
230
1.0
 70
     8
 71
     3
 72
    10
 73
     6
 74
     0
 42
0.000000001
 43
0.0000000001
 40
0.0
 40
0.0
 40
0.0
 40
0.0
 40
0.1037573332374767
 40
0.5512410042426052
 40
1.0
 40
1.0
 40
1.0
 40
1.0
 10
175.3000072265622
 20
714.6076899272093
 30
0.0
 10
175.3000077158012
 20
713.9560239368356
 30
0.0
 10
175.3000103150225
 20
710.4938588661316
 30
0.0
 10
175.3000056011333
 20
704.1632323148838
 30
0.0
 10
175.3000017885442
 20
698.5026596425877
 30
0.0
 10
175.2999998795367
 20
695.6683458991824
 30
0.0
  0
SPLINE
  5
1C678
330
1E
100
AcDbEntity
  8
0
  6
SLD-実線
 62
     7
370
    15
100
AcDbSpline
210
0.0
220
0.0
230
1.0
 70
     8
 71
     3
 72
    11
 73
     7
 74
     0
 42
0.000000001
 43
0.0000000001
 40
0.0
 40
0.0
 40
0.0
 40
0.0
 40
0.2207587343771531
 40
0.4964412195536669
 40
0.7702227915301769
 40
1.0
 40
1.0
 40
1.0
 40
1.0
 10
179.7930163020937
 20
678.7222084226117
 30
0.0
 10
179.7930409160471
 20
682.2582234705927
 30
0.0
 10
179.7930962677947
 20
690.2099977355264
 30
0.0
 10
179.7931539049696
 20
702.6740135580488
 30
0.0
 10
179.7931708429169
 20
715.2817598370156
 30
0.0
 10
179.7931292655921
 20
723.3435569682233
 30
0.0
 10
179.7931102935853
 20
727.0222084226117
 30
0.0
  0
LINE
  5
1C679
330
1E
100
AcDbEntity
  8
0
  6
SLD-実線
 62
     7
370
    15
100
AcDbLine
 10
146.6877261379995
 20
695.6386679094999
 30
0.0
 11
146.6999998794999
 21
695.6683458989999
 31
0.0
  0
LINE
  5
1C67A
330
1E
100
AcDbEntity
  8
0
  6
SLD-実線
 62
     7
370
    15
100
AcDbLine
 10
146.6840055025004
 20
690.329529036
 30
0.0
 11
146.6877261379995
 21
695.6386679094999
 31
0.0
  0
SPLINE
  5
1C67B
330
1E
100
AcDbEntity
  8
0
  6
SLD-実線
 62
     7
370
    15
100
AcDbSpline
210
0.0
220
0.0
230
1.0
 70
     8
 71
     3
 72
     9
 73
     5
 74
     0
 42
0.000000001
 43
0.0000000001
 40
0.0
 40
0.0
 40
0.0
 40
0.0
 40
0.4557108991456318
 40
1.0
 40
1.0
 40
1.0
 40
1.0
 10
146.6825255518579
 20
714.6076899272093
 30
0.0
 10
146.6824294848156
 20
710.9213995440332
 30
0.0
 10
146.6822186778263
 20
702.8323009727955
 30
0.0
 10
146.6833757310414
 20
694.7361666867958
 30
0.0
 10
146.684005502495
 20
690.3295290358728
 30
0.0
  0
LINE
  5
1C67C
330
1E
100
AcDbEntity
  8
0
  6
SLD-実線
 62
     7
370
    15
100
AcDbLine
 10
175.3159942564998
 20
690.329529036
 30
0.0
 11
146.6840055025004
 21
690.329529036
 31
0.0
  0
LINE
  5
1C67D
330
1E
100
AcDbEntity
  8
10
  6
Continuous
100
AcDbLine
 10
135.4999998794992
 20
735.5846872199998
 30
0.0
 11
186.4999998794992
 21
735.5846872199998
 31
0.0
  0
LINE
  5
1C67E
330
1E
100
AcDbEntity
  8
10
  6
Continuous
100
AcDbLine
 10
135.4999998794992
 20
669.2597296249996
 30
0.0
 11
186.4999998794992
 21
669.2597296249996
 31
0.0
  0
LINE
  5
1C67F
330
1E
100
AcDbEntity
  8
0
  6
SLD-実線
 62
     7
370
    15
100
AcDbLine
 10
143.9999998794992
 20
727.0222084224997
 30
0.0
 11
141.9999998794992
 21
727.0222084224997
 31
0.0
  0
LINE
  5
1C680
330
1E
100
AcDbEntity
  8
0
  6
SLD-実線
 62
     7
370
    15
100
AcDbLine
 10
179.9999998794992
 20
678.7222084224993
 30
0.0
 11
141.9999998794992
 21
678.7222084224993
 31
0.0
  0
LINE
  5
1C681
330
1E
100
AcDbEntity
  8
0
  6
SLD-実線
 62
     7
370
    15
100
AcDbLine
 10
135.4999998794992
 20
669.2597296249996
 30
0.0
 11
135.4999998794992
 21
671.9222084224997
 31
0.0
  0
LINE
  5
1C682
330
1E
100
AcDbEntity
  8
0
  6
SLD-実線
 62
     7
370
    15
100
AcDbLine
 10
135.4999998794992
 20
680.5222084224997
 30
0.0
 11
135.4999998794992
 21
735.5846872199998
 31
0.0
  0
LINE
  5
1C683
330
1E
100
AcDbEntity
  8
0
  6
SLD-実線
 62
     7
370
    15
100
AcDbLine
 10
141.9999998794992
 20
678.7222084224993
 30
0.0
 11
141.9999998794992
 21
727.0222084224997
 31
0.0
  0
LINE
  5
1C684
330
1E
100
AcDbEntity
  8
0
  6
SLD-実線
 62
     7
370
    15
100
AcDbLine
 10
186.4999998794992
 20
669.2597296249996
 30
0.0
 11
186.4999998794992
 21
724.6222084224999
 31
0.0
  0
LINE
  5
1C685
330
1E
100
AcDbEntity
  8
0
  6
SLD-実線
 62
     7
370
    15
100
AcDbLine
 10
179.9999998794992
 20
659.3222084224999
 30
0.0
 11
186.4999998794992
 21
659.3222084224999
 31
0.0
  0
LINE
  5
1C686
330
1E
100
AcDbEntity
  8
0
  6
SLD-実線
 62
     7
370
    15
100
AcDbLine
 10
179.9999998794992
 20
668.2222084224994
 30
0.0
 11
179.9999998794992
 21
659.3222084224999
 31
0.0
  0
LINE
  5
1C687
330
1E
100
AcDbEntity
  8
0
  6
SLD-実線
 62
     7
370
    15
100
AcDbLine
 10
186.4999998794992
 20
657.4222084224998
 30
0.0
 11
186.4999998794992
 21
659.3222084224999
 31
0.0
  0
LINE
  5
1C688
330
1E
100
AcDbEntity
  8
0
  6
SLD-実線
 62
     7
370
    15
100
AcDbLine
 10
135.4999998794992
 20
657.4222084224998
 30
0.0
 11
135.4999998794992
 21
669.2597296249996
 31
0.0
  0
LINE
  5
1C689
330
1E
100
AcDbEntity
  8
0
  6
SLD-実線
 62
     7
370
    15
100
AcDbLine
 10
135.4999998794992
 20
747.4222084224996
 30
0.0
 11
186.4999998794992
 21
747.4222084224996
 31
0.0
  0
LINE
  5
1C68A
330
1E
100
AcDbEntity
  8
0
  6
SLD-実線
 62
     7
370
    15
100
AcDbLine
 10
135.4999998794992
 20
735.5846872199998
 30
0.0
 11
135.4999998794992
 21
747.4222084224996
 31
0.0
  0
LINE
  5
1C68B
330
1E
100
AcDbEntity
  8
0
  6
SLD-実線
 62
     7
370
    15
100
AcDbLine
 10
186.4999998794992
 20
735.5846872199998
 30
0.0
 11
186.4999998794992
 21
747.4222084224996
 31
0.0
  0
LINE
  5
1C68C
330
1E
100
AcDbEntity
  8
0
  6
SLD-実線
 62
     7
370
    15
100
AcDbLine
 10
186.4999998794992
 20
724.6222084224999
 30
0.0
 11
186.4999998794992
 21
733.2222084224995
 31
0.0
  0
CIRCLE
  5
1C68D
330
1E
100
AcDbEntity
  8
L10_
  6
Continuous
 62
     3
100
AcDbCircle
 10
74.99999987949924
 20
778.4222084225002
 30
0.0
 40
2.999999999999993
  0
CIRCLE
  5
1C68E
330
1E
100
AcDbEntity
  8
L10_
  6
Continuous
 62
     3
100
AcDbCircle
 10
74.99999987949924
 20
626.4222084224992
 30
0.0
 40
3.000000000000036
  0
CIRCLE
  5
1C68F
330
1E
100
AcDbEntity
  8
L10_
  6
Continuous
 62
     3
100
AcDbCircle
 10
291.9999998794992
 20
778.4222084225002
 30
0.0
 40
2.999999999999993
  0
CIRCLE
  5
1C690
330
1E
100
AcDbEntity
  8
L10_
  6
Continuous
 62
     3
100
AcDbCircle
 10
291.9999998794992
 20
626.4222084224992
 30
0.0
 40
2.9999999999999
  0
DIMENSION
  5
1C691
330
1E
100
AcDbEntity
  8
30
  6
Continuous
100
AcDbDimension
280
     0
  2
*D22
 10
102.9999998794999
 20
471.5882040644997
 30
0.0
 11
160.9999998794992
 21
471.5882040644997
 31
0.0
 70
   160
  1
<>
 71
     2
 42
116.0000000000003
 73
     0
 74
     0
 75
     0
  3
STANDARD
100
AcDbAlignedDimension
 13
218.9999998795003
 23
658.4222084225002
 33
0.0
 14
102.9999998794999
 24
658.4222084225002
 34
0.0
100
AcDbRotatedDimension
  0
DIMENSION
  5
1C692
330
1E
100
AcDbEntity
  8
30
  6
Continuous
100
AcDbDimension
280
     0
  2
*D23
 10
135.4999998794992
 20
496.5882040644997
 30
0.0
 11
160.9999998794992
 21
496.5882040644997
 31
0.0
 70
   160
  1
<>
 71
     2
 42
51.0
 73
     0
 74
     0
 75
     0
  3
STANDARD
100
AcDbAlignedDimension
 13
186.4999998794992
 23
668.2222084224994
 33
0.0
 14
135.4999998794992
 24
657.4222084224998
 34
0.0
100
AcDbRotatedDimension
  0
DIMENSION
  5
1C693
330
1E
100
AcDbEntity
  8
30
  6
Continuous
100
AcDbDimension
280
     0
  2
*D24
 10
346.0000498794999
 20
847.4222084224997
 30
0.0
 11
346.0000498794999
 21
702.4222084224996
 31
0.0
 70
   160
  1
<>
 71
     2
 42
290.0
 73
     0
 74
     0
 75
     0
  3
STANDARD
100
AcDbAlignedDimension
 13
304.5013457885016
 23
557.4222084224998
 33
0.0
 14
302.9999998794992
 24
847.4222084224997
 34
0.0
 50
90.0
100
AcDbRotatedDimension
  0
DIMENSION
  5
1C694
330
1E
100
AcDbEntity
  8
30
  6
Continuous
100
AcDbDimension
280
     0
  2
*D25
 10
302.9999998794992
 20
446.5882040644997
 30
0.0
 11
183.4999998794992
 21
446.5882040644997
 31
0.0
 70
   160
  1
<>
 71
     2
 42
239.0
 73
     0
 74
     0
 75
     0
  3
STANDARD
100
AcDbAlignedDimension
 13
63.99999987949922
 23
557.4222084224998
 33
0.0
 14
302.9999998794992
 24
556.1817983749095
 34
0.0
100
AcDbRotatedDimension
  0
DIMENSION
  5
1C695
330
1E
100
AcDbEntity
  8
30
  6
Continuous
100
AcDbDimension
280
     0
  2
*D26
 10
161.0
 20
516.2384221018851
 30
0.0
 11
202.8216658958181
 21
516.2384221018851
 31
0.0
 70
   160
  1
<>
 71
     2
 42
22.49999987949923
 73
     0
 74
     0
 75
     0
  3
STANDARD
100
AcDbAlignedDimension
 13
183.4999998794992
 23
533.0
 33
0.0
 14
161.0
 24
532.9727197007554
 34
0.0
100
AcDbRotatedDimension
1001
ACAD
1000
DSTYLE
1002
{
1070
   140
1040
7.0
1002
}
  0
INSERT
  5
1C696
330
1E
100
AcDbEntity
  8
L10_
  6
Continuous
 62
     3
100
AcDbBlockReference
  2
SW_CENTERMARKSYMBOL_4
 10
74.99999987949924
 20
626.4222084224992
 30
0.0
 41
5.0
 42
5.0
 43
5.0
  0
INSERT
  5
1C697
330
1E
100
AcDbEntity
  8
L10_
  6
Continuous
 62
     3
100
AcDbBlockReference
  2
SW_CENTERMARKSYMBOL_5
 10
291.9999998794992
 20
778.4222084225002
 30
0.0
 41
5.0
 42
5.0
 43
5.0
  0
INSERT
  5
1C698
330
1E
100
AcDbEntity
  8
L10_
  6
Continuous
 62
     3
100
AcDbBlockReference
  2
SW_CENTERMARKSYMBOL_6
 10
74.99999987949924
 20
778.4222084225002
 30
0.0
 41
5.0
 42
5.0
 43
5.0
  0
INSERT
  5
1C699
330
1E
100
AcDbEntity
  8
L10_
  6
Continuous
 62
     3
100
AcDbBlockReference
  2
SW_CENTERMARKSYMBOL_7
 10
291.9999998794992
 20
626.4222084224992
 30
0.0
 41
5.0
 42
5.0
 43
5.0
  0
LWPOLYLINE
  5
1C69A
330
1E
100
AcDbEntity
  8
10
  6
Continuous
100
AcDbPolyline
 90
        4
 70
     1
 43
0.0
 10
135.4999998794992
 20
747.4222084224996
 10
186.4999998794992
 20
747.4222084224996
 10
186.4999998794992
 20
657.4222084224998
 10
135.4999998794992
 20
657.4222084224998
  0
LWPOLYLINE
  5
1C69B
330
1E
100
AcDbEntity
  8
10
  6
Continuous
100
AcDbPolyline
 90
        4
 70
     1
 43
0.0
 10
141.9999998794992
 20
727.0222084224997
 10
179.7930163020937
 20
727.0222084224997
 10
179.7930163020937
 20
678.7222084226117
 10
141.9999998794992
 20
678.7222084226117
  0
LWPOLYLINE
  5
1C69C
330
1E
100
AcDbEntity
  8
10
  6
Continuous
100
AcDbPolyline
 90
        4
 70
     1
 43
0.0
 10
143.9999998794992
 20
722.759991935
 10
177.9999998794992
 20
722.759991935
 10
177.9999998794992
 20
714.6076899269997
 10
143.9999998794992
 20
714.6076899269997
  0
LWPOLYLINE
  5
1C69D
330
1E
100
AcDbEntity
  8
10
  6
Continuous
100
AcDbPolyline
 90
        4
 70
     1
 43
0.0
 10
146.6825255518579
 20
714.6076899269997
 10
175.3159942564998
 20
714.6076899269997
 10
175.3159942564998
 20
690.329529036
 10
146.6825255518579
 20
690.329529036
  0
LWPOLYLINE
  5
1C69E
330
1E
100
AcDbEntity
  8
10
  6
Continuous
100
AcDbPolyline
 90
        4
 70
     1
 43
0.0
 10
186.4999998794992
 20
659.3222084224999
 10
179.9999998794992
 20
659.3222084224999
 10
179.9999998794992
 20
668.2222084224994
 10
186.4999998794992
 20
668.2222084224994
  0
DIMENSION
  5
1C69F
330
1E
100
AcDbEntity
  8
30
  6
Continuous
100
AcDbDimension
280
     0
  2
*D27
 10
290.5345930170654
 20
776.3039137022592
 30
0.0
 11
324.0418766320463
 21
795.6922084225014
 31
0.0
 70
   163
  1
M6
 71
     5
 42
7.000000000000567
 73
     0
 74
     0
 75
     0
  3
STANDARD1
100
AcDbDiametricDimension
 15
295.9654067419348
 25
780.7205031427412
 35
0.0
 40
0.0
  0
LWPOLYLINE
  5
1C6A0
330
1E
100
AcDbEntity
  8
18
100
AcDbPolyline
 90
        4
 70
     1
 43
0.0
 10
64.0
 20
398.0000000000002
 10
303.0
 20
398.0
 10
303.0
 20
108.0
 10
64.0
 20
108.0
  0
LINE
  5
1C6A1
330
1E
100
AcDbEntity
  8
16
 48
2.0
100
AcDbLine
 10
183.5
 20
411.9535396429996
 30
0.0
 11
183.5
 21
95.74490701349985
 31
0.0
  0
LINE
  5
1C6A2
330
1E
100
AcDbEntity
  8
11
  6
Continuous
100
AcDbLine
 10
81.5
 20
387.0
 30
0.0
 11
81.5
 21
119.0
 31
0.0
  0
LINE
  5
1C6A3
330
1E
100
AcDbEntity
  8
11
  6
Continuous
100
AcDbLine
 10
81.5
 20
387.0
 30
0.0
 11
285.5
 21
387.0
 31
0.0
  0
LINE
  5
1C6A4
330
1E
100
AcDbEntity
  8
11
  6
Continuous
100
AcDbLine
 10
285.5
 20
387.0
 30
0.0
 11
285.5
 21
119.0
 31
0.0
  0
LINE
  5
1C6A5
330
1E
100
AcDbEntity
  8
11
  6
Continuous
100
AcDbLine
 10
81.5
 20
119.0
 30
0.0
 11
285.5
 21
119.0
 31
0.0
  0
LINE
  5
1C6A6
330
1E
100
AcDbEntity
  8
16
 48
2.0
100
AcDbLine
 10
54.78861980400052
 20
253.0
 30
0.0
 11
306.0
 21
253.0
 31
0.0
  0
LINE
  5
1C6A7
330
1E
100
AcDbEntity
  8
16
 48
2.0
100
AcDbLine
 10
161.0
 20
411.9535396429996
 30
0.0
 11
161.0
 21
95.74490701349985
 31
0.0
  0
ARC
  5
1C6A8
330
1E
100
AcDbEntity
  8
18
100
AcDbCircle
 10
65.20000000000073
 20
109.1999999999998
 30
0.0
 40
1.200000000000044
100
AcDbArc
 50
180.0
 51
270.0
  0
ARC
  5
1C6A9
330
1E
100
AcDbEntity
  8
18
100
AcDbCircle
 10
301.8000000000002
 20
109.1999999999998
 30
0.0
 40
1.200000000000044
100
AcDbArc
 50
270.0
 51
0.0
  0
ARC
  5
1C6AA
330
1E
100
AcDbEntity
  8
18
100
AcDbCircle
 10
301.8000000000002
 20
396.7999999999997
 30
0.0
 40
1.200000000000044
100
AcDbArc
 50
0.0
 51
90.0
  0
ARC
  5
1C6AB
330
1E
100
AcDbEntity
  8
18
100
AcDbCircle
 10
65.20000000000073
 20
396.7999999999997
 30
0.0
 40
1.199999999999903
100
AcDbArc
 50
90.0
 51
180.0
  0
CIRCLE
  5
1C6AC
330
1E
100
AcDbEntity
  8
12
100
AcDbCircle
 10
75.0
 20
329.0
 30
0.0
 40
3.500000000000057
  0
CIRCLE
  5
1C6AD
330
1E
100
AcDbEntity
  8
12
100
AcDbCircle
 10
75.0
 20
177.0
 30
0.0
 40
3.499999999999907
  0
CIRCLE
  5
1C6AE
330
1E
100
AcDbEntity
  8
12
100
AcDbCircle
 10
292.0
 20
329.0
 30
0.0
 40
3.500000000000141
  0
CIRCLE
  5
1C6AF
330
1E
100
AcDbEntity
  8
12
100
AcDbCircle
 10
292.0
 20
177.0
 30
0.0
 40
3.500000000000073
  0
DIMENSION
  5
1C6B0
330
1E
100
AcDbEntity
  8
30
  6
Continuous
100
AcDbDimension
280
     0
  2
*D28
 10
285.5
 20
72.16599564199987
 30
0.0
 11
183.5
 21
72.16599564199987
 31
0.0
 70
   160
  1
<>
 71
     2
 42
204.0
 73
     0
 74
     0
 75
     0
  3
STANDARD
100
AcDbAlignedDimension
 13
81.5
 23
118.0
 33
0.0
 14
285.5
 24
118.0
 34
0.0
100
AcDbRotatedDimension
  0
DIMENSION
  5
1C6B2
330
1E
100
AcDbEntity
  8
30
  6
Continuous
100
AcDbDimension
280
     0
  2
*D13
 10
292.0
 20
47.16599564199986
 30
0.0
 11
183.5
 21
47.16599564199986
 31
0.0
 70
   160
  1
<>
 71
     2
 42
217.0
 73
     0
 74
     0
 75
     0
  3
STANDARD
100
AcDbAlignedDimension
 13
75.0
 23
162.0
 33
0.0
 14
292.0
 24
157.0
 34
0.0
100
AcDbRotatedDimension
  0
INSERT
  5
1C6B4
330
1E
100
AcDbEntity
  8
12
  6
DASHDOT
100
AcDbBlockReference
  2
SW_CENTERMARKSYMBOL_26
 10
75.0
 20
177.0
 30
0.0
 41
5.0
 42
5.0
 43
5.0
  0
INSERT
  5
1C6B5
330
1E
100
AcDbEntity
  8
12
  6
DASHDOT
100
AcDbBlockReference
  2
SW_CENTERMARKSYMBOL_27
 10
75.0
 20
329.0
 30
0.0
 41
5.0
 42
5.0
 43
5.0
  0
INSERT
  5
1C6B6
330
1E
100
AcDbEntity
  8
12
  6
DASHDOT
100
AcDbBlockReference
  2
SW_CENTERMARKSYMBOL_28
 10
292.0
 20
329.0
 30
0.0
 41
5.0
 42
5.0
 43
5.0
  0
INSERT
  5
1C6B7
330
1E
100
AcDbEntity
  8
12
  6
DASHDOT
100
AcDbBlockReference
  2
SW_CENTERMARKSYMBOL_29
 10
292.0
 20
177.0
 30
0.0
 41
5.0
 42
5.0
 43
5.0
  0
LWPOLYLINE
  5
1C6B9
330
1E
100
AcDbEntity
  8
10
  6
Continuous
100
AcDbPolyline
 90
        8
 70
     1
 43
0.0
 10
102.9999998794999
 20
662.4222084224998
 10
102.9999998794999
 20
742.4222084224997
 42
-0.4142135623730957
 10
110.9999998794999
 20
750.4222084224997
 10
210.9999998795003
 20
750.4222084224997
 42
-0.4142135623730957
 10
218.9999998795003
 20
742.4222084224997
 10
218.9999998795003
 20
662.4222084224998
 42
-0.4142135623730957
 10
210.9999998795003
 20
654.4222084224998
 10
110.9999998794999
 20
654.4222084224998
 42
-0.4142135623730961
  0
DIMENSION
  5
1C6BA
330
1E
100
AcDbEntity
  8
30
  6
Continuous
100
AcDbDimension
280
     0
  2
*D14
 10
290.5781683235517
 20
325.801813844716
 30
0.0
 11
312.7402989664387
 21
353.9083897176281
 31
0.0
 70
   163
 71
     5
 42
6.999999999999829
 73
     0
 74
     0
 75
     0
  3
STANDARD1
100
AcDbDiametricDimension
 15
293.4218316764476
 25
332.1981861552836
 35
0.0
 40
0.0
1001
ACAD_DSTYLE_DIMRADIAL_EXTENSION
1070
   387
1070
     1
1070
   388
1040
0.0
1070
   390
1040
0.0
  0
DIMENSION
  5
1C6C6
330
1E
100
AcDbEntity
  8
30
  6
Continuous
100
AcDbDimension
280
     0
  2
*D15
 10
770.2444135282522
 20
455.7318383455321
 30
0.0
 11
647.6529521070823
 21
455.7318383455321
 31
0.0
 70
   160
  1
<>
 71
     2
 42
221.999997258
 73
     0
 74
     0
 75
     0
  3
STANDARD
100
AcDbAlignedDimension
 13
548.2444162702521
 23
515.7251032693912
 33
0.0
 14
770.2444135282522
 24
588.9999999999992
 34
0.0
100
AcDbRotatedDimension
  0
DIMENSION
  5
1C6C7
330
1E
100
AcDbEntity
  8
30
  6
Continuous
100
AcDbDimension
280
     0
  2
*D16
 10
548.2444162702521
 20
482.5417058482817
 30
0.0
 11
629.4794521591077
 21
482.5417058482817
 31
0.0
 70
   160
  1
<>
 71
     2
 42
156.9999996424
 73
     0
 74
     0
 75
     0
  3
STANDARD
100
AcDbAlignedDimension
 13
705.2444159126523
 23
588.9999999999992
 33
0.0
 14
548.2444162702521
 24
515.7251032693912
 34
0.0
100
AcDbRotatedDimension
  0
DIMENSION
  5
1C6C8
330
1E
100
AcDbEntity
  8
30
  6
Continuous
100
AcDbDimension
280
     0
  2
*D17
 10
810.5091498567528
 20
588.9838920533915
 30
0.0
 11
810.5091498567526
 21
702.9838920533912
 31
0.0
 70
   160
  1
<>
 71
     2
 42
227.9999999999992
 73
     0
 74
     0
 75
     0
  3
STANDARD
100
AcDbAlignedDimension
 13
772.9978368750071
 23
816.9838920533909
 33
0.0
 14
756.5041539577522
 24
588.9838920533916
 34
0.0
 50
90.0
100
AcDbRotatedDimension
  0
LWPOLYLINE
  5
1C6C9
330
1E
100
AcDbEntity
  8
24
  6
Continuous
100
AcDbPolyline
 90
        4
 70
     0
 43
0.0
 10
740.4208644362523
 20
820.9838872848916
 10
770.2444135282522
 20
820.9838872848916
 10
770.2444135282522
 20
812.9838872848917
 10
740.4208644362523
 20
812.9838872848917
  0
LINE
  5
1C6CA
330
1E
100
AcDbEntity
  8
17
100
AcDbLine
 10
754.7444159797012
 20
828.9838872848916
 30
0.0
 11
754.7444159797012
 21
804.9838872848917
 31
0.0
  0
DIMENSION
  5
1C6CB
330
1E
100
AcDbEntity
  8
30
  6
Continuous
100
AcDbDimension
280
     0
  2
*D18
 10
787.3946976982597
 20
812.9838872848917
 30
0.0
 11
780.3946976982594
 21
803.3172206182253
 31
0.0
 70
    32
 71
     5
 42
8.0
 73
     0
 74
     0
 75
     0
  3
STANDARD
100
AcDbAlignedDimension
 13
770.2444135282522
 23
820.9838872848916
 33
0.0
 14
770.2444135282522
 24
812.9838872848917
 34
0.0
 50
90.0
100
AcDbRotatedDimension
1001
ACAD
1000
DSTYLE
1002
{
1070
   172
1070
     1
1002
}
  0
INSERT
  5
1C6CC
330
1E
100
AcDbEntity
  8
0
100
AcDbBlockReference
  2
S-BAR
 10
639.2444162702522
 20
589.0000027939987
 30
0.0
 50
270.0
  0
INSERT
  5
1C6CD
330
1E
100
AcDbEntity
  8
0
100
AcDbBlockReference
  2
L-BAR
 10
639.2444162702522
 20
589.0250000001993
 30
0.0
 50
270.0
  0
LWPOLYLINE
  5
1C6CE
330
1E
100
AcDbEntity
  8
24
100
AcDbPolyline
 90
        4
 70
     0
 43
0.0
 10
639.2444162702522
 20
831.4838868676915
 10
728.2444178198521
 20
831.4838868676915
 10
728.2444178198521
 20
802.4838877020917
 10
639.2444162702522
 20
802.4838877020917
  0
LWPOLYLINE
  5
1C6CF
330
1E
100
AcDbEntity
  8
24
100
AcDbPolyline
 90
        4
 70
     1
 43
0.0
 10
740.4208644362523
 20
826.783888503791
 10
740.4208644362523
 20
805.1838916689909
 10
728.2444178198521
 20
805.1838898063909
 10
728.2444178198521
 20
826.7838903667909
  0
LINE
  5
1C6D0
330
1E
100
AcDbEntity
  8
24
100
AcDbLine
 10
639.2444162702522
 20
831.4838868676915
 30
0.0
 11
639.2444162702522
 21
802.4838877020917
 31
0.0
  0
LINE
  5
1C6D1
330
1E
100
AcDbEntity
  8
24
100
AcDbLine
 10
639.2444162702522
 20
831.4838868676915
 30
0.0
 11
639.2444162702522
 21
802.4838877020917
 31
0.0
  0
LINE
  5
1C6D2
330
1E
100
AcDbEntity
  8
24
  6
SLD-実線
370
    15
100
AcDbLine
 10
663.744415629452
 20
831.1838873772915
 30
0.0
 11
663.744415629452
 21
802.7838909180912
 31
0.0
  0
LWPOLYLINE
  5
1C6D3
330
1E
100
AcDbEntity
  8
24
100
AcDbPolyline
 90
        4
 70
     1
 43
0.0
 10
675.4208668206522
 20
827.7838894276912
 10
675.4208668206522
 20
806.1838925928912
 10
666.7444161210522
 20
806.1838925928912
 10
666.7444161210522
 20
827.7838894276912
  0
LWPOLYLINE
  5
1C6D4
330
1E
100
AcDbEntity
  8
24
  6
SLD-実線
370
    15
100
AcDbPolyline
 90
        7
 70
     0
 43
0.0
 10
639.2444162702522
 20
831.1838873772915
 10
663.7444156294523
 20
831.1838873772915
 10
666.7444161210522
 20
830.6838863640917
 10
666.7444161210522
 20
816.9838891476914
 10
666.7444161210522
 20
803.2838882056918
 10
663.744415629452
 20
802.7838871924917
 10
639.2444162702522
 20
802.7838871924917
  0
LWPOLYLINE
  5
1C6D5
330
1E
100
AcDbEntity
  8
24
  6
Continuous
100
AcDbPolyline
 90
        4
 70
     0
 43
0.0
 10
675.4208668206522
 20
820.9838910102913
 10
705.2444159126523
 20
820.9838910102913
 10
705.2444159126523
 20
812.9838910102913
 10
675.4208668206522
 20
812.9838910102913
  0
LINE
  5
1C6D6
330
1E
100
AcDbEntity
  8
17
100
AcDbLine
 10
689.7444183641013
 20
828.9838910102911
 30
0.0
 11
689.7444183641013
 21
804.9838910102913
 31
0.0
  0
LINE
  5
1CC8E
330
1E
100
AcDbEntity
  8
10
  6
Continuous
100
AcDbLine
 10
95.0010914860004
 20
1095.472719700755
 30
0.0
 11
101.0010914860004
 21
1095.472719700755
 31
0.0
  0
LINE
  5
1CC8F
330
1E
100
AcDbEntity
  8
10
  6
Continuous
100
AcDbLine
 10
101.8000027015996
 20
1087.172719700755
 30
0.0
 11
88.0
 21
1087.172719700755
 31
0.0
  0
ARC
  5
1CC90
330
1E
100
AcDbEntity
  8
10
  6
Continuous
100
AcDbCircle
 10
88.0
 20
1084.172719700755
 30
0.0
 40
2.999999999999971
100
AcDbArc
 50
90.0
 51
180.0
  0
LINE
  5
1CC91
330
1E
100
AcDbEntity
  8
10
  6
Continuous
100
AcDbLine
 10
175.4999995829998
 20
1081.672719700755
 30
0.0
 11
191.8000027015995
 21
1081.672719700755
 31
0.0
  0
LINE
  5
1CC92
330
1E
100
AcDbEntity
  8
10
  6
Continuous
100
AcDbLine
 10
220.2000028863995
 20
1081.672719700755
 30
0.0
 11
236.5000004174003
 21
1081.672719700755
 31
0.0
  0
DIMENSION
  5
1CC93
330
1E
100
AcDbEntity
  8
30
  6
Continuous
100
AcDbDimension
280
     0
  2
*D29
 10
161.0
 20
1236.15237897493
 30
0.0
 11
138.5
 21
1243.15237897493
 31
0.0
 70
    32
 71
     5
 42
45.0
 73
     0
 74
     0
 75
     0
  3
STANDARD
100
AcDbAlignedDimension
 13
116.0
 23
1143.972719700755
 33
0.0
 14
161.0
 24
1183.972719700755
 34
0.0
100
AcDbRotatedDimension
  0
DIMENSION
  5
1CC94
330
1E
100
AcDbEntity
  8
30
  6
Continuous
100
AcDbDimension
280
     0
  2
*D30
 10
206.0
 20
1236.15237897493
 30
0.0
 11
183.5
 21
1243.15237897493
 31
0.0
 70
    32
 71
     5
 42
45.0
 73
     0
 74
     0
 75
     0
  3
STANDARD
100
AcDbAlignedDimension
 13
161.0
 23
1183.972719700755
 33
0.0
 14
206.0
 24
1143.972719700755
 34
0.0
100
AcDbRotatedDimension
1001
ACAD
1000
DSTYLE
1002
{
1070
   287
1070
     4
1070
   287
1070
     4
1070
   287
1070
     4
1070
   279
1070
     1
1002
}
  0
DIMENSION
  5
1CC95
330
1E
100
AcDbEntity
  8
30
  6
Continuous
100
AcDbDimension
280
     0
  2
*D31
 10
251.0
 20
1236.15237897493
 30
0.0
 11
228.5
 21
1243.15237897493
 31
0.0
 70
    32
 71
     5
 42
45.0
 73
     0
 74
     0
 75
     0
  3
STANDARD
100
AcDbAlignedDimension
 13
206.0
 23
1143.972719700755
 33
0.0
 14
251.0
 24
1183.972719700755
 34
0.0
100
AcDbRotatedDimension
1001
ACAD
1000
DSTYLE
1002
{
1070
   287
1070
     4
1070
   287
1070
     4
1070
   287
1070
     4
1070
   279
1070
     1
1002
}
  0
LINE
  5
1CC96
330
1E
100
AcDbEntity
  8
10
  6
Continuous
100
AcDbLine
 10
91.0
 20
1078.472719700755
 30
0.0
 11
276.0
 21
1078.472719700755
 31
0.0
  0
LINE
  5
1CC97
330
1E
100
AcDbEntity
  8
10
  6
Continuous
100
AcDbLine
 10
92.0010914860004
 20
1087.172719700755
 30
0.0
 11
92.0010914860004
 21
1093.947719700755
 31
0.0
  0
LINE
  5
1CC98
330
1E
100
AcDbEntity
  8
10
  6
Continuous
100
AcDbLine
 10
95.0010914860004
 20
1093.947719700755
 30
0.0
 11
95.0010914860004
 21
1095.472719700755
 31
0.0
  0
LINE
  5
1CC99
330
1E
100
AcDbEntity
  8
10
  6
Continuous
100
AcDbLine
 10
101.0010914860004
 20
1093.947719700755
 30
0.0
 11
101.0010914860004
 21
1095.472719700755
 31
0.0
  0
LINE
  5
1CC9A
330
1E
100
AcDbEntity
  8
10
  6
Continuous
100
AcDbLine
 10
92.0010914860004
 20
1093.947719700755
 30
0.0
 11
101.8000027015996
 21
1093.947719700755
 31
0.0
  0
LINE
  5
1CC9B
330
1E
100
AcDbEntity
  8
10
  6
Continuous
100
AcDbLine
 10
130.2000028863995
 20
1081.672719700755
 30
0.0
 11
146.5000004174003
 21
1081.672719700755
 31
0.0
  0
LINE
  5
1CC9C
330
1E
100
AcDbEntity
  8
10
  6
Continuous
100
AcDbLine
 10
273.0
 20
1095.472719700755
 30
0.0
 11
267.0
 21
1095.472719700755
 31
0.0
  0
ARC
  5
1CC9D
330
1E
100
AcDbEntity
  8
10
  6
Continuous
100
AcDbCircle
 10
279.0
 20
1084.172719700755
 30
0.0
 40
2.999999999999971
100
AcDbArc
 50
0.0
 51
90.0
  0
LINE
  5
1CC9E
330
1E
100
AcDbEntity
  8
10
  6
Continuous
100
AcDbLine
 10
276.0
 20
1087.172719700755
 30
0.0
 11
276.0
 21
1093.947719700755
 31
0.0
  0
LINE
  5
1CC9F
330
1E
100
AcDbEntity
  8
10
  6
Continuous
100
AcDbLine
 10
273.0
 20
1093.947719700755
 30
0.0
 11
273.0
 21
1095.472719700755
 31
0.0
  0
LINE
  5
1CCA0
330
1E
100
AcDbEntity
  8
10
  6
Continuous
100
AcDbLine
 10
267.0
 20
1093.947719700755
 30
0.0
 11
267.0
 21
1095.472719700755
 31
0.0
  0
LINE
  5
1CCA1
330
1E
100
AcDbEntity
  8
10
  6
Continuous
100
AcDbLine
 10
276.0
 20
1093.947719700755
 30
0.0
 11
265.4999995829999
 21
1093.947719700755
 31
0.0
  0
DIMENSION
  5
1CCA2
330
1E
100
AcDbEntity
  8
30
  6
Continuous
100
AcDbDimension
280
     0
  2
*D32
 10
91.54821711052321
 20
1121.972719410204
 30
0.0
 11
84.548217110523
 21
1111.639386076871
 31
0.0
 70
    32
 71
     5
 42
14.0
 73
     0
 74
     0
 75
     0
  3
STANDARD
100
AcDbAlignedDimension
 13
117.0
 23
1135.972719410204
 33
0.0
 14
117.0
 24
1121.972719410204
 34
0.0
 50
90.0
100
AcDbRotatedDimension
  0
DIMENSION
  5
1CCA3
330
1E
100
AcDbEntity
  8
30
100
AcDbDimension
280
     0
  2
*D33
 10
109.5
 20
1158.784617615104
 30
0.0
 11
90.83333333333332
 21
1158.784617615104
 31
0.0
 70
   160
 71
     5
 42
13.0
 73
     0
 74
     0
 75
     0
  3
STANDARD
100
AcDbAlignedDimension
 13
122.5
 23
1133.472719700755
 33
0.0
 14
109.5
 24
1133.472719700755
 34
0.0
100
AcDbRotatedDimension
  0
DIMENSION
  5
1CCA4
330
1E
100
AcDbEntity
  8
30
100
AcDbDimension
280
     0
  2
*D34
 10
303.9010360014029
 20
1209.472716958755
 30
0.0
 11
303.9010360014026
 21
1134.472719700755
 31
0.0
 70
   160
 71
     5
 42
130.9999972579999
 73
     0
 74
     0
 75
     0
  3
STANDARD
100
AcDbAlignedDimension
 13
276.0
 23
1078.472719700755
 33
0.0
 14
251.0000000002001
 24
1209.472716958755
 34
0.0
 50
90.0
100
AcDbRotatedDimension
  0
DIMENSION
  5
1CCA5
330
1E
100
AcDbEntity
  8
30
100
AcDbDimension
280
     0
  2
*D35
 10
285.9010360014029
 20
1193.472719410204
 30
0.0
 11
285.9010360014027
 21
1133.472719700755
 31
0.0
 70
   160
 71
     5
 42
114.9999997094492
 73
     0
 74
     0
 75
     0
  3
STANDARD
100
AcDbAlignedDimension
 13
282.0
 23
1078.472719700755
 33
0.0
 14
258.2250000002002
 24
1193.472719410204
 34
0.0
 50
90.0
100
AcDbRotatedDimension
  0
DIMENSION
  5
1CCA6
330
1E
100
AcDbEntity
  8
30
100
AcDbDimension
280
     0
  2
*D36
 10
54.44239416880917
 20
1144.472719343155
 30
0.0
 11
54.442394168809
 21
1110.933276308419
 31
0.0
 70
   160
 71
     5
 42
65.99999964239987
 73
     0
 74
     0
 75
     0
  3
STANDARD
100
AcDbAlignedDimension
 13
104.0
 23
1078.472719700755
 33
0.0
 14
105.3931234256001
 24
1144.472719343155
 34
0.0
 50
90.0
100
AcDbRotatedDimension
  0
INSERT
  5
1CCA7
330
1E
100
AcDbEntity
  8
0
100
AcDbBlockReference
  2
L-BAR
 10
161.0
 20
1078.472719700755
 30
0.0
  0
INSERT
  5
1CCA8
330
1E
100
AcDbEntity
  8
0
100
AcDbBlockReference
  2
L-BAR
 10
251.0
 20
1078.472719700755
 30
0.0
  0
INSERT
  5
1CCA9
330
1E
100
AcDbEntity
  8
0
100
AcDbBlockReference
  2
S-BAR
 10
206.0
 20
1078.472719700755
 30
0.0
  0
INSERT
  5
1CCAA
330
1E
100
AcDbEntity
  8
0
100
AcDbBlockReference
  2
S-BAR
 10
116.0
 20
1078.472719700755
 30
0.0
  0
DIMENSION
  5
1CCAB
330
1E
100
AcDbEntity
  8
30
100
AcDbDimension
280
     0
  2
*D37
 10
100.9068582172887
 20
1173.784617548055
 30
0.0
 11
115.899999143133
 21
1180.784617548055
 31
0.0
 70
    32
 71
     5
 42
29.98628185168845
 73
     0
 74
     0
 75
     0
  3
STANDARD
100
AcDbAlignedDimension
 13
130.8931400689772
 23
1135.443570425883
 33
0.0
 14
100.9068582172887
 24
1135.443570425708
 34
0.0
100
AcDbRotatedDimension
  0
LINE
  5
1CCAC
330
1E
100
AcDbEntity
  8
10
  6
Continuous
100
AcDbLine
 10
279.0
 20
1087.172719700755
 30
0.0
 11
265.1999972984004
 21
1087.172719700755
 31
0.0
  0
DIMENSION
  5
1CD90
330
1E
100
AcDbEntity
  8
30
  6
Continuous
100
AcDbDimension
280
     0
  2
*D38
 10
371.3556837894539
 20
119.0
 30
0.0
 11
371.3556837894539
 21
253.0
 31
0.0
 70
   160
  1
<>
 71
     2
 42
268.0
 73
     0
 74
     0
 75
     0
  3
STANDARD
100
AcDbAlignedDimension
 13
288.2600543248845
 23
387.0
 33
0.0
 14
289.2600543248846
 24
119.0
 34
0.0
 50
90.0
100
AcDbRotatedDimension
  0
DIMENSION
  5
1CD91
330
1E
100
AcDbEntity
  8
30
  6
Continuous
100
AcDbDimension
280
     0
  2
*D39
 10
340.9566568944074
 20
177.0
 30
0.0
 11
340.9566568944074
 21
253.0
 31
0.0
 70
   160
  1
<>
 71
     2
 42
152.0
 73
     0
 74
     0
 75
     0
  3
STANDARD
100
AcDbAlignedDimension
 13
300.8476035637495
 23
329.0
 33
0.0
 14
306.8476035637496
 24
177.0
 34
0.0
 50
90.0
100
AcDbRotatedDimension
  0
INSERT
  5
1CDD4
330
1E
100
AcDbEntity
  8
30
100
AcDbBlockReference
  2
4pbase
 10
161.0
 20
990.4727197007549
 30
0.0
  0
DIMENSION
  5
1CE4B
330
1E
100
AcDbEntity
  8
30
100
AcDbDimension
280
     0
  2
*D41
 10
74.84717082775024
 20
1078.472719700755
 30
0.0
 11
67.84717082775006
 21
1103.47271955548
 31
0.0
 70
    32
 71
     5
 42
49.99999970944918
 73
     0
 74
     0
 75
     0
  3
STANDARD
100
AcDbAlignedDimension
 13
108.7999991432
 23
1128.472719410204
 33
0.0
 14
101.8000027015996
 24
1078.472719700755
 34
0.0
 50
90.0
100
AcDbRotatedDimension
  0
VIEWPORT
  5
9AC
330
1A
100
AcDbEntity
 67
     1
  8
0
  6
Continuous
348
8A77
100
AcDbViewport
 10
171.999535
 20
144.1384739999999
 30
0.0
 40
488.867686
 41
292.351491
 68
     1
 69
     1
 12
171.999535
 22
144.1384739999999
 13
0.0
 23
0.0
 14
10.0
 24
10.0
 15
10.0
 25
10.0
 16
0.0
 26
0.0
 36
1.0
 17
0.0
 27
0.0
 37
0.0
 42
50.0
 43
0.0
 44
0.0
 45
292.351491
 50
0.0
 51
0.0
 72
   100
 90
    32800
  1

281
     0
 71
     1
 74
     0
110
0.0
120
0.0
130
0.0
111
1.0
121
0.0
131
0.0
112
0.0
122
1.0
132
0.0
 79
     0
146
0.0
170
     0
 61
     5
348
8A77
292
     1
282
     1
141
0.0
142
0.0
 63
   250
421
  3355443
  0
ENDSEC
  0
SECTION
  2
OBJECTS
  0
DICTIONARY
  5
C
330
0
100
AcDbDictionary
281
     1
  3
ACAD_CIP_PREVIOUS_PRODUCT_INFO
350
8AA8
  3
ACAD_COLOR
350
8A8A
  3
ACAD_DETAILVIEWSTYLE
350
8AA3
  3
ACAD_GROUP
350
D
  3
ACAD_LAYOUT
350
19
  3
ACAD_MATERIAL
350
8A58
  3
ACAD_MLEADERSTYLE
350
8A9F
  3
ACAD_MLINESTYLE
350
16
  3
ACAD_PLOTSETTINGS
350
18
  3
ACAD_PLOTSTYLENAME
350
E
  3
ACAD_SCALELIST
350
8A8D
  3
ACAD_SECTIONVIEWSTYLE
350
8AA1
  3
ACAD_TABLESTYLE
350
8A8B
  3
ACAD_VISUALSTYLE
350
8A71
  3
ACADDIM
350
6D5E
  3
ACDB_RECOMPOSE_DATA
350
1CEBF
  3
ACDBVARIABLEDICTIONARY
350
5697
  3
AEC_PROPERTY_SET_DEFS
350
BFC4
  0
DICTIONARY
  5
F3CC
330
2
100
AcDbDictionary
280
     1
281
     1
  3
ACAD_LAYERSTATES
360
F3CD
  0
DICTIONARY
  5
8ACC
330
10
100
AcDbDictionary
280
     1
281
     1
  3
ADSK_XREC_LAYER_RECONCILED
360
8ACD
  0
DICTIONARY
  5
8ACE
330
2F
100
AcDbDictionary
280
     1
281
     1
  3
ADSK_XREC_LAYER_RECONCILED
360
8ACF
  0
DICTIONARY
  5
8AD2
330
35
100
AcDbDictionary
280
     1
281
     1
  3
ADSK_XREC_LAYER_RECONCILED
360
8AD3
  0
DICTIONARY
  5
8AD4
330
38
100
AcDbDictionary
280
     1
281
     1
  3
ADSK_XREC_LAYER_RECONCILED
360
8AD5
  0
DICTIONARY
  5
8AD6
330
3D
100
AcDbDictionary
280
     1
281
     1
  3
ADSK_XREC_LAYER_RECONCILED
360
8AD7
  0
DICTIONARY
  5
8AD8
330
3A2
100
AcDbDictionary
280
     1
281
     1
  3
ADSK_XREC_LAYER_RECONCILED
360
8AD9
  0
DICTIONARY
  5
8ADA
330
3BBA
100
AcDbDictionary
280
     1
281
     1
  3
ADSK_XREC_LAYER_RECONCILED
360
8ADB
  0
DICTIONARY
  5
8ADC
330
67A8
100
AcDbDictionary
280
     1
281
     1
  3
ADSK_XREC_LAYER_RECONCILED
360
8ADD
  0
DICTIONARY
  5
8ADE
330
7837
100
AcDbDictionary
280
     1
281
     1
  3
ADSK_XREC_LAYER_RECONCILED
360
8ADF
  0
DICTIONARY
  5
9134
330
9133
100
AcDbDictionary
280
     1
281
     1
  0
DICTIONARY
  5
1391D
330
1391C
100
AcDbDictionary
280
     1
281
     1
  0
DICTIONARY
  5
16BBD
330
16BBC
100
AcDbDictionary
280
     1
281
     1
  0
DICTIONARY
  5
17EA0
330
17E9F
100
AcDbDictionary
280
     1
281
     1
  0
DICTIONARY
  5
178
330
1E
100
AcDbDictionary
280
     1
281
     1
  3
ACAD_LAYOUTSELFREF
360
8A0F
  3
ACAD_SORTENTS
360
10338
  0
DICTIONARY
  5
17A
330
1A
100
AcDbDictionary
280
     1
281
     1
  3
ACAD_LAYOUTSELFREF
360
8A0E
  0
DICTIONARY
  5
1CEAC
330
1C4A0
100
AcDbDictionary
280
     1
281
     1
  3
ACAD_SORTENTS
360
1CEAD
  0
DICTIONARY
  5
1CE9C
330
1C4AB
100
AcDbDictionary
280
     1
281
     1
  3
ACAD_SORTENTS
360
1CE9D
  0
XRECORD
  5
8AA8
102
{ACAD_REACTORS
330
C
102
}
330
C
100
AcDbXrecord
280
     1
300
ACDLT
300
2014
300
ACDLT_F_S
  0
DICTIONARY
  5
8A8A
102
{ACAD_REACTORS
330
C
102
}
330
C
100
AcDbDictionary
281
     1
  0
DICTIONARY
  5
8AA3
102
{ACAD_REACTORS
330
C
102
}
330
C
100
AcDbDictionary
281
     1
  3
Imperial24
350
8AA4
  0
DICTIONARY
  5
D
102
{ACAD_REACTORS
330
C
102
}
330
C
100
AcDbDictionary
281
     1
  0
DICTIONARY
  5
19
102
{ACAD_REACTORS
330
C
102
}
330
C
100
AcDbDictionary
281
     1
  3
Model
350
8A4C
  3
ﾚｲｱｳﾄ1
350
8A4D
  0
DICTIONARY
  5
8A58
102
{ACAD_REACTORS
330
C
102
}
330
C
100
AcDbDictionary
281
     1
  3
ByBlock
350
8A61
  3
ByLayer
350
8A59
  3
Global
350
8A69
  0
DICTIONARY
  5
8A9F
102
{ACAD_REACTORS
330
C
102
}
330
C
100
AcDbDictionary
281
     1
  3
Standard
350
8AA0
  0
DICTIONARY
  5
16
102
{ACAD_REACTORS
330
C
102
}
330
C
100
AcDbDictionary
281
     1
  3
STANDARD
350
17
  0
DICTIONARY
  5
18
102
{ACAD_REACTORS
330
C
102
}
330
C
100
AcDbDictionary
281
     1
  0
ACDBDICTIONARYWDFLT
  5
E
102
{ACAD_REACTORS
330
C
102
}
330
C
100
AcDbDictionary
281
     1
  3
Normal
350
F
100
AcDbDictionaryWithDefault
340
F
  0
DICTIONARY
  5
8A8D
102
{ACAD_REACTORS
330
C
102
}
330
C
100
AcDbDictionary
281
     1
  3
A0
350
8A8E
  3
A1
350
8A8F
  3
A2
350
8A90
  3
A3
350
8A91
  3
A4
350
8A92
  3
A5
350
8A93
  3
A6
350
8A94
  3
A7
350
8A95
  3
A8
350
8A96
  3
A9
350
8A97
  3
B0
350
8A98
  3
B1
350
8A99
  3
B2
350
8A9A
  3
B3
350
8A9B
  3
B4
350
8A9C
  3
B5
350
8A9D
  3
B6
350
8A9E
  0
DICTIONARY
  5
8AA1
102
{ACAD_REACTORS
330
C
102
}
330
C
100
AcDbDictionary
281
     1
  3
Imperial24
350
8AA2
  0
DICTIONARY
  5
8A8B
102
{ACAD_REACTORS
330
C
102
}
330
C
100
AcDbDictionary
281
     1
  3
Standard
350
8A8C
  0
DICTIONARY
  5
8A71
102
{ACAD_REACTORS
330
C
102
}
330
C
100
AcDbDictionary
281
     1
  3
2dWireframe
350
8A77
  3
3D Hidden
350
8B2B
  3
3dWireframe
350
8B2A
  3
Basic
350
8A76
  3
Brighten
350
8A7D
  3
ColorChange
350
8A81
  3
Conceptual
350
8A7A
  3
Dim
350
8A7C
  3
EdgeColorOff
350
8A89
  3
Facepattern
350
8A80
  3
Flat
350
8A72
  3
FlatWithEdges
350
8A73
  3
Gouraud
350
8A74
  3
GouraudWithEdges
350
8A75
  3
Hidden
350
8A79
  3
JitterOff
350
8A87
  3
Linepattern
350
8A7F
  3
OverhangOff
350
8A88
  3
Realistic
350
8A7B
  3
Shaded
350
8A86
  3
Shaded with edges
350
8A85
  3
Shades of Gray
350
8A82
  3
Sketchy
350
8A83
  3
Thicken
350
8A7E
  3
Wireframe
350
8A78
  3
X-Ray
350
8A84
  0
XRECORD
  5
6D5E
102
{ACAD_REACTORS
330
C
102
}
330
C
100
AcDbXrecord
280
     1
 90
   990106
  3

 60
     0
 61
     0
 62
     1
 63
     3
 64
     0
 65
     0
 66
     0
 67
     3
 68
     1
 69
     0
 70
     0
 71
     0
 72
     0
 40
0.0
170
     0
340
0
  0
XRECORD
  5
1CEBF
102
{ACAD_REACTORS
330
C
102
}
330
C
100
AcDbXrecord
280
     1
 90
        1
330
8A8C
330
8AA2
330
8AA4
  0
DICTIONARY
  5
5697
102
{ACAD_REACTORS
330
C
102
}
330
C
100
AcDbDictionary
281
     1
  3
CANNOSCALE
350
8AE9
  3
CMLEADERSTYLE
350
8AE5
  3
CTABLESTYLE
350
8AE4
  3
CVIEWDETAILSTYLE
350
8AE6
  3
CVIEWSECTIONSTYLE
350
8AE7
  3
DIMASSOC
350
5698
  3
LAYEREVAL
350
8AEB
  3
LAYERNOTIFY
350
8AEC
  3
LIGHTINGUNITS
350
8AEA
  3
MSLTSCALE
350
8AE8
  0
DICTIONARY
  5
BFC4
102
{ACAD_REACTORS
330
C
102
}
330
C
100
AcDbDictionary
281
     1
  0
DICTIONARY
  5
F3CD
102
{ACAD_REACTORS
330
F3CC
102
}
330
F3CC
100
AcDbDictionary
281
     1
  0
XRECORD
  5
8ACD
102
{ACAD_REACTORS
330
8ACC
102
}
330
8ACC
100
AcDbXrecord
280
     1
290
     1
  0
XRECORD
  5
8ACF
102
{ACAD_REACTORS
330
8ACE
102
}
330
8ACE
100
AcDbXrecord
280
     1
290
     1
  0
XRECORD
  5
8AD3
102
{ACAD_REACTORS
330
8AD2
102
}
330
8AD2
100
AcDbXrecord
280
     1
290
     1
  0
XRECORD
  5
8AD5
102
{ACAD_REACTORS
330
8AD4
102
}
330
8AD4
100
AcDbXrecord
280
     1
290
     1
  0
XRECORD
  5
8AD7
102
{ACAD_REACTORS
330
8AD6
102
}
330
8AD6
100
AcDbXrecord
280
     1
290
     1
  0
XRECORD
  5
8AD9
102
{ACAD_REACTORS
330
8AD8
102
}
330
8AD8
100
AcDbXrecord
280
     1
290
     1
  0
XRECORD
  5
8ADB
102
{ACAD_REACTORS
330
8ADA
102
}
330
8ADA
100
AcDbXrecord
280
     1
290
     1
  0
XRECORD
  5
8ADD
102
{ACAD_REACTORS
330
8ADC
102
}
330
8ADC
100
AcDbXrecord
280
     1
290
     1
  0
XRECORD
  5
8ADF
102
{ACAD_REACTORS
330
8ADE
102
}
330
8ADE
100
AcDbXrecord
280
     1
290
     1
  0
XRECORD
  5
8A0F
102
{ACAD_REACTORS
330
178
102
}
330
178
100
AcDbXrecord
280
     1
340
1E
  0
SORTENTSTABLE
  5
10338
102
{ACAD_REACTORS
330
178
102
}
330
178
100
AcDbSortentsTable
330
1E
331
180E5
  5
19436
  0
XRECORD
  5
8A0E
102
{ACAD_REACTORS
330
17A
102
}
330
17A
100
AcDbXrecord
280
     1
340
1A
  0
SORTENTSTABLE
  5
1CEAD
102
{ACAD_REACTORS
330
1CEAC
102
}
330
1CEAC
100
AcDbSortentsTable
330
1C4A0
  0
SORTENTSTABLE
  5
1CE9D
102
{ACAD_REACTORS
330
1CE9C
102
}
330
1CE9C
100
AcDbSortentsTable
330
1C4AB
  0
ACDBDETAILVIEWSTYLE
  5
8AA4
102
{ACAD_XDICTIONARY
360
1CEBD
102
}
102
{ACAD_REACTORS
330
8AA3
102
}
330
8AA3
100
AcDbModelDocViewStyle
 70
     0
  3
Imperial24
290
     0
100
AcDbDetailViewStyle
 70
     0
 71
     0
 90
        3
 71
     1
340
11
 62
   256
 40
0.24
340
0
 62
   256
 40
0.24
300

 40
0.36
280
     3
 71
     2
340
15
 90
       25
 62
   256
 71
     3
340
11
 62
   256
 40
0.24
 90
        1
 40
0.75
 90
        1
300
%<\AcVar ViewType \f "%tc1">% %<\AcVar ViewDetailId>%\PSCALE %<\AcVar ViewScale \f "%sn">%
 71
     4
340
15
 90
       25
 62
   256
340
15
 90
       25
 62
   256
280
     0
  0
LAYOUT
  5
8A4C
102
{ACAD_XDICTIONARY
360
F3D2
102
}
102
{ACAD_REACTORS
330
19
102
}
330
19
100
AcDbPlotSettings
  1

  2
none_device
  4
Letter_(8.50_x_11.00_Inches)
  6

 40
6.349999904632567
 41
6.349999904632567
 42
6.350006103515625
 43
6.350006103515625
 44
215.8999938964844
 45
279.3999938964844
 46
0.0
 47
0.0
 48
0.0
 49
0.0
140
0.0
141
0.0
142
1.0
143
317.0449279872537
 70
 11952
 72
     0
 73
     1
 74
     0
  7
monochrome.ctb
 75
     0
147
0.0031541271022642
 76
     0
 77
     2
 78
   300
148
21198.07971653447
149
42574.72085005308
100
AcDbLayout
  1
Model
 70
     1
 71
     0
 10
0.0
 20
0.0
 11
12.0
 21
9.0
 12
0.0
 22
0.0
 32
0.0
 14
0.0
 24
0.0
 34
0.0
 15
0.0
 25
0.0
 35
0.0
146
0.0
 13
0.0
 23
0.0
 33
0.0
 16
1.0
 26
0.0
 36
0.0
 17
0.0
 27
1.0
 37
0.0
 76
     0
330
1E
331
8A51
1001
ACAD_PSEXT
1000
なし
1000
なし
1000
適切ではありません
1000
新しいプロッタ環境設定名を選択しない限り、レイアウトは印刷されません。
1070
     0
  0
LAYOUT
  5
8A4D
102
{ACAD_REACTORS
330
19
102
}
330
19
100
AcDbPlotSettings
  1

  2
Canon LBP3800 LIPSLX
  4

  6

 40
0.0
 41
0.0
 42
0.0
 43
0.0
 44
0.0
 45
0.0
 46
0.0
 47
0.0
 48
0.0
 49
0.0
140
0.0
141
0.0
142
1.0
143
1.0
 70
   688
 72
     0
 73
     0
 74
     5
  7
monochrome.ctb
 75
    16
147
1.0
 76
     0
 77
     2
 78
   300
148
0.0
149
0.0
100
AcDbLayout
  1
ﾚｲｱｳﾄ1
 70
     1
 71
     1
 10
-5.873749
 20
-5.87375
 11
204.099579
 21
291.1369009999999
 12
0.0
 22
0.0
 32
0.0
 14
4.273573
 24
5.205245999999998
 34
0.0
 15
194.610095
 25
283.0697009999996
 35
0.0
146
0.0
 13
0.0
 23
0.0
 33
0.0
 16
1.0
 26
0.0
 36
0.0
 17
0.0
 27
1.0
 37
0.0
 76
     0
330
1A
331
9AC
  0
MATERIAL
  5
8A61
102
{ACAD_XDICTIONARY
360
8A62
102
}
102
{ACAD_REACTORS
330
8A58
102
}
330
8A58
100
AcDbMaterial
  1
ByBlock
 72
     0
 43
0.0208333333333333
 43
0.0
 43
0.0
 43
0.0
 43
0.0
 43
0.0208333333333333
 43
0.0
 43
0.0
 43
0.0
 43
0.0
 43
1.0
 43
0.0
 43
0.0
 43
0.0
 43
0.0
 43
1.0
 77
     0
 47
0.0208333333333333
 47
0.0
 47
0.0
 47
0.0
 47
0.0
 47
0.0208333333333333
 47
0.0
 47
0.0
 47
0.0
 47
0.0
 47
1.0
 47
0.0
 47
0.0
 47
0.0
 47
0.0
 47
1.0
171
     0
 49
0.0208333333333333
 49
0.0
 49
0.0
 49
0.0
 49
0.0
 49
0.0208333333333333
 49
0.0
 49
0.0
 49
0.0
 49
0.0
 49
1.0
 49
0.0
 49
0.0
 49
0.0
 49
0.0
 49
1.0
175
     0
142
0.0208333333333333
142
0.0
142
0.0
142
0.0
142
0.0
142
0.0208333333333333
142
0.0
142
0.0
142
0.0
142
0.0
142
1.0
142
0.0
142
0.0
142
0.0
142
0.0
142
1.0
179
     0
144
0.0208333333333333
144
0.0
144
0.0
144
0.0
144
0.0
144
0.0208333333333333
144
0.0
144
0.0
144
0.0
144
0.0
144
1.0
144
0.0
144
0.0
144
0.0
144
0.0
144
1.0
147
0.0208333333333333
147
0.0
147
0.0
147
0.0
147
0.0
147
0.0208333333333333
147
0.0
147
0.0
147
0.0
147
0.0
147
1.0
147
0.0
147
0.0
147
0.0
147
0.0
147
1.0
  0
MATERIAL
  5
8A59
102
{ACAD_XDICTIONARY
360
8A5A
102
}
102
{ACAD_REACTORS
330
8A58
102
}
330
8A58
100
AcDbMaterial
  1
ByLayer
 72
     0
 43
0.0208333333333333
 43
0.0
 43
0.0
 43
0.0
 43
0.0
 43
0.0208333333333333
 43
0.0
 43
0.0
 43
0.0
 43
0.0
 43
1.0
 43
0.0
 43
0.0
 43
0.0
 43
0.0
 43
1.0
 77
     0
 47
0.0208333333333333
 47
0.0
 47
0.0
 47
0.0
 47
0.0
 47
0.0208333333333333
 47
0.0
 47
0.0
 47
0.0
 47
0.0
 47
1.0
 47
0.0
 47
0.0
 47
0.0
 47
0.0
 47
1.0
171
     0
 49
0.0208333333333333
 49
0.0
 49
0.0
 49
0.0
 49
0.0
 49
0.0208333333333333
 49
0.0
 49
0.0
 49
0.0
 49
0.0
 49
1.0
 49
0.0
 49
0.0
 49
0.0
 49
0.0
 49
1.0
175
     0
142
0.0208333333333333
142
0.0
142
0.0
142
0.0
142
0.0
142
0.0208333333333333
142
0.0
142
0.0
142
0.0
142
0.0
142
1.0
142
0.0
142
0.0
142
0.0
142
0.0
142
1.0
179
     0
144
0.0208333333333333
144
0.0
144
0.0
144
0.0
144
0.0
144
0.0208333333333333
144
0.0
144
0.0
144
0.0
144
0.0
144
1.0
144
0.0
144
0.0
144
0.0
144
0.0
144
1.0
147
0.0208333333333333
147
0.0
147
0.0
147
0.0
147
0.0
147
0.0208333333333333
147
0.0
147
0.0
147
0.0
147
0.0
147
1.0
147
0.0
147
0.0
147
0.0
147
0.0
147
1.0
  0
MATERIAL
  5
8A69
102
{ACAD_XDICTIONARY
360
8A6A
102
}
102
{ACAD_REACTORS
330
8A58
102
}
330
8A58
100
AcDbMaterial
  1
Global
 72
     0
 43
0.0208333333333333
 43
0.0
 43
0.0
 43
0.0
 43
0.0
 43
0.0208333333333333
 43
0.0
 43
0.0
 43
0.0
 43
0.0
 43
1.0
 43
0.0
 43
0.0
 43
0.0
 43
0.0
 43
1.0
 77
     0
 47
0.0208333333333333
 47
0.0
 47
0.0
 47
0.0
 47
0.0
 47
0.0208333333333333
 47
0.0
 47
0.0
 47
0.0
 47
0.0
 47
1.0
 47
0.0
 47
0.0
 47
0.0
 47
0.0
 47
1.0
171
     0
 49
0.0208333333333333
 49
0.0
 49
0.0
 49
0.0
 49
0.0
 49
0.0208333333333333
 49
0.0
 49
0.0
 49
0.0
 49
0.0
 49
1.0
 49
0.0
 49
0.0
 49
0.0
 49
0.0
 49
1.0
175
     0
142
0.0208333333333333
142
0.0
142
0.0
142
0.0
142
0.0
142
0.0208333333333333
142
0.0
142
0.0
142
0.0
142
0.0
142
1.0
142
0.0
142
0.0
142
0.0
142
0.0
142
1.0
179
     0
144
0.0208333333333333
144
0.0
144
0.0
144
0.0
144
0.0
144
0.0208333333333333
144
0.0
144
0.0
144
0.0
144
0.0
144
1.0
144
0.0
144
0.0
144
0.0
144
0.0
144
1.0
147
0.0208333333333333
147
0.0
147
0.0
147
0.0
147
0.0
147
0.0208333333333333
147
0.0
147
0.0
147
0.0
147
0.0
147
1.0
147
0.0
147
0.0
147
0.0
147
0.0
147
1.0
  0
MLEADERSTYLE
  5
8AA0
102
{ACAD_REACTORS
330
8A9F
102
}
330
8A9F
100
AcDbMLeaderStyle
179
     2
170
     2
171
     1
172
     0
 90
        2
 40
0.0
 41
0.0
173
     1
 91
-1056964608
340
13
 92
       -2
290
     1
 42
0.09
291
     1
 43
0.36
  3
Standard
 44
0.18
300

342
11
174
     1
178
     6
175
     1
176
     0
 93
-1056964608
 45
0.18
292
     0
297
     0
 46
0.18
 94
-1056964608
 47
1.0
 49
1.0
140
1.0
293
     1
141
0.0
294
     1
177
     0
142
1.0
295
     0
296
     0
143
0.125
271
     0
272
     9
273
     9
298
     0
  0
MLINESTYLE
  5
17
102
{ACAD_REACTORS
330
16
102
}
330
16
100
AcDbMlineStyle
  2
STANDARD
 70
     0
  3

 62
   256
 51
90.0
 52
90.0
 71
     2
 49
0.5
 62
   256
  6
BYLAYER
 49
-0.5
 62
   256
  6
BYLAYER
  0
ACDBPLACEHOLDER
  5
F
102
{ACAD_REACTORS
330
E
102
}
330
E
  0
SCALE
  5
8A8E
102
{ACAD_REACTORS
330
8A8D
102
}
330
8A8D
100
AcDbScale
 70
     0
300
1:1
140
1.0
141
1.0
290
     1
  0
SCALE
  5
8A8F
102
{ACAD_REACTORS
330
8A8D
102
}
330
8A8D
100
AcDbScale
 70
     0
300
1/128" = 1'-0"
140
0.0078125
141
12.0
290
     0
  0
SCALE
  5
8A90
102
{ACAD_REACTORS
330
8A8D
102
}
330
8A8D
100
AcDbScale
 70
     0
300
1/64" = 1'-0"
140
0.015625
141
12.0
290
     0
  0
SCALE
  5
8A91
102
{ACAD_REACTORS
330
8A8D
102
}
330
8A8D
100
AcDbScale
 70
     0
300
1/32" = 1'-0"
140
0.03125
141
12.0
290
     0
  0
SCALE
  5
8A92
102
{ACAD_REACTORS
330
8A8D
102
}
330
8A8D
100
AcDbScale
 70
     0
300
1/16" = 1'-0"
140
0.0625
141
12.0
290
     0
  0
SCALE
  5
8A93
102
{ACAD_REACTORS
330
8A8D
102
}
330
8A8D
100
AcDbScale
 70
     0
300
3/32" = 1'-0"
140
0.09375
141
12.0
290
     0
  0
SCALE
  5
8A94
102
{ACAD_REACTORS
330
8A8D
102
}
330
8A8D
100
AcDbScale
 70
     0
300
1/8" = 1'-0"
140
0.125
141
12.0
290
     0
  0
SCALE
  5
8A95
102
{ACAD_REACTORS
330
8A8D
102
}
330
8A8D
100
AcDbScale
 70
     0
300
3/16" = 1'-0"
140
0.1875
141
12.0
290
     0
  0
SCALE
  5
8A96
102
{ACAD_REACTORS
330
8A8D
102
}
330
8A8D
100
AcDbScale
 70
     0
300
1/4" = 1'-0"
140
0.25
141
12.0
290
     0
  0
SCALE
  5
8A97
102
{ACAD_REACTORS
330
8A8D
102
}
330
8A8D
100
AcDbScale
 70
     0
300
3/8" = 1'-0"
140
0.375
141
12.0
290
     0
  0
SCALE
  5
8A98
102
{ACAD_REACTORS
330
8A8D
102
}
330
8A8D
100
AcDbScale
 70
     0
300
1/2" = 1'-0"
140
0.5
141
12.0
290
     0
  0
SCALE
  5
8A99
102
{ACAD_REACTORS
330
8A8D
102
}
330
8A8D
100
AcDbScale
 70
     0
300
3/4" = 1'-0"
140
0.75
141
12.0
290
     0
  0
SCALE
  5
8A9A
102
{ACAD_REACTORS
330
8A8D
102
}
330
8A8D
100
AcDbScale
 70
     0
300
1" = 1'-0"
140
1.0
141
12.0
290
     0
  0
SCALE
  5
8A9B
102
{ACAD_REACTORS
330
8A8D
102
}
330
8A8D
100
AcDbScale
 70
     0
300
1-1/2" = 1'-0"
140
1.5
141
12.0
290
     0
  0
SCALE
  5
8A9C
102
{ACAD_REACTORS
330
8A8D
102
}
330
8A8D
100
AcDbScale
 70
     0
300
3" = 1'-0"
140
3.0
141
12.0
290
     0
  0
SCALE
  5
8A9D
102
{ACAD_REACTORS
330
8A8D
102
}
330
8A8D
100
AcDbScale
 70
     0
300
6" = 1'-0"
140
6.0
141
12.0
290
     0
  0
SCALE
  5
8A9E
102
{ACAD_REACTORS
330
8A8D
102
}
330
8A8D
100
AcDbScale
 70
     0
300
1'-0" = 1'-0"
140
12.0
141
12.0
290
     0
  0
ACDBSECTIONVIEWSTYLE
  5
8AA2
102
{ACAD_XDICTIONARY
360
1CEBB
102
}
102
{ACAD_REACTORS
330
8AA1
102
}
330
8AA1
100
AcDbModelDocViewStyle
 70
     0
  3
Imperial24
290
     0
100
AcDbSectionViewStyle
 70
     0
 71
     0
 90
       78
 71
     1
340
11
 62
   256
 40
0.24
340
0
340
0
 62
   256
 40
0.24
300
I, O, Q, S, X, Z
 40
0.48
 90
        3
 40
0.18
 90
        1
 71
     2
340
15
 90
       25
 62
   256
340
15
 90
       50
 62
   256
 40
0.24
 40
0.0
 40
0.24
 71
     3
340
11
 62
   256
 40
0.24
 90
        1
 40
0.75
 90
        1
300
%<\AcVar ViewType \f "%tc1">% %<\AcVar ViewSectionStartId>%-%<\AcVar ViewSectionEndId>%\PSCALE %<\AcVar ViewScale \f "%sn">%
 71
     4
 62
   256
 62
   257
300
ANSI31
 40
1.0
 90
        0
290
     0
290
     0
 90
        6
 40
0.0
 40
1.570796326794896
 40
0.2617993877991494
 40
1.308996938995747
 40
-0.2617993877991494
 40
1.832595714594044
  0
TABLESTYLE
  5
8A8C
102
{ACAD_XDICTIONARY
360
8AED
102
}
102
{ACAD_REACTORS
330
8A8B
102
}
330
8A8B
100
AcDbTableStyle
280
     0
  3
Standard
 70
     0
 71
     0
 40
0.06
 41
0.06
280
     0
281
     0
  7
STANDARD
140
0.18
170
     2
 62
     0
 63
     7
283
     0
 90
      512
 91
        0
  1

274
    -2
284
     1
 64
     0
275
    -2
285
     1
 65
     0
276
    -2
286
     1
 66
     0
277
    -2
287
     1
 67
     0
278
    -2
288
     1
 68
     0
279
    -2
289
     1
 69
     0
  7
STANDARD
140
0.25
170
     5
 62
     0
 63
     7
283
     0
 90
      512
 91
        0
  1

274
    -2
284
     1
 64
     0
275
    -2
285
     1
 65
     0
276
    -2
286
     1
 66
     0
277
    -2
287
     1
 67
     0
278
    -2
288
     1
 68
     0
279
    -2
289
     1
 69
     0
  7
STANDARD
140
0.18
170
     5
 62
     0
 63
     7
283
     0
 90
      512
 91
        0
  1

274
    -2
284
     1
 64
     0
275
    -2
285
     1
 65
     0
276
    -2
286
     1
 66
     0
277
    -2
287
     1
 67
     0
278
    -2
288
     1
 68
     0
279
    -2
289
     1
 69
     0
  0
VISUALSTYLE
  5
8A77
102
{ACAD_REACTORS
330
8A71
102
}
330
8A71
100
AcDbVisualStyle
  2
2dWireframe
 70
     4
177
     3
291
     0
 70
    58
 90
        0
176
     1
 90
        2
176
     1
 90
        0
176
     1
 90
        0
176
     1
 40
0.6
176
     1
 40
30.0
176
     1
 62
     7
420
 16777215
176
     1
 90
        1
176
     1
 90
        4
176
     1
 62
     7
176
     1
 62
   257
176
     1
 90
        1
176
     1
 90
        1
176
     1
 40
1.0
176
     1
 90
        0
176
     1
 62
   257
176
     1
 40
1.0
176
     1
 90
        1
176
     1
 90
        6
176
     1
 90
        2
176
     1
 62
     7
176
     1
 90
        5
176
     1
 90
        0
176
     1
 90
        0
176
     1
290
     0
176
     1
 90
        1
176
     1
 40
0.0
176
     1
 90
        0
176
     1
290
     1
176
     1
290
     1
176
     1
290
     0
176
     1
290
     0
176
     1
290
     0
176
     1
290
     0
176
     1
290
     0
176
     1
290
     0
176
     1
290
     0
176
     1
 90
       50
176
     1
 40
0.0
176
     1
 40
1.0
176
     1
 90
        0
176
     1
 62
    18
420
        0
176
     1
 90
       50
176
     1
 90
        3
176
     1
 62
     5
420
      255
176
     1
290
     0
176
     1
 90
       50
176
     1
 90
       50
176
     1
 90
       50
176
     1
290
     0
176
     1
 90
       50
176
     1
 62
   256
176
     0
 40
1.0
176
     0
 90
        2
176
     1
  1
strokes_ogs.tif
176
     1
290
     0
176
     1
 40
1.0
176
     1
 40
1.0
176
     1
  0
VISUALSTYLE
  5
8B2B
102
{ACAD_REACTORS
330
8A71
102
}
330
8A71
100
AcDbVisualStyle
  2
3D Hidden
 70
     6
177
     3
291
     0
 70
    58
 90
        1
176
     1
 90
        2
176
     1
 90
        2
176
     1
 90
        0
176
     1
 40
0.6
176
     1
 40
30.0
176
     1
 62
     7
420
 16777215
176
     1
 90
        2
176
     1
 90
        2
176
     1
 62
     7
176
     1
 62
   257
176
     1
 90
        2
176
     1
 90
        1
176
     1
 40
179.0
176
     1
 90
        0
176
     1
 62
   257
176
     1
 40
1.0
176
     1
 90
        1
176
     1
 90
        6
176
     1
 90
        2
176
     1
 62
     7
176
     1
 90
        3
176
     1
 90
        0
176
     1
 90
        0
176
     1
290
     0
176
     1
 90
        1
176
     1
 40
0.0
176
     1
 90
        0
176
     1
290
     0
176
     1
290
     1
176
     1
290
     1
176
     1
290
     0
176
     1
290
     0
176
     1
290
     0
176
     1
290
     0
176
     1
290
     0
176
     1
290
     0
176
     1
 90
       50
176
     1
 40
0.0
176
     1
 40
1.0
176
     1
 90
        0
176
     1
 62
    18
420
        0
176
     1
 90
       50
176
     1
 90
        3
176
     1
 62
     5
420
      255
176
     1
290
     0
176
     1
 90
       50
176
     1
 90
       50
176
     1
 90
       50
176
     1
290
     0
176
     1
 90
       50
176
     1
 62
   256
176
     0
 40
1.0
176
     0
 90
        2
176
     1
  1
strokes_ogs.tif
176
     1
290
     0
176
     1
 40
1.0
176
     1
 40
1.0
176
     1
  0
VISUALSTYLE
  5
8B2A
102
{ACAD_REACTORS
330
8A71
102
}
330
8A71
100
AcDbVisualStyle
  2
3dWireframe
 70
     5
177
     3
291
     0
 70
    58
 90
        0
176
     1
 90
        2
176
     1
 90
        0
176
     1
 90
        0
176
     1
 40
0.6
176
     1
 40
30.0
176
     1
 62
     7
420
 16777215
176
     1
 90
        1
176
     1
 90
        4
176
     1
 62
     7
176
     1
 62
   257
176
     1
 90
        1
176
     1
 90
        1
176
     1
 40
1.0
176
     1
 90
        0
176
     1
 62
   257
176
     1
 40
1.0
176
     1
 90
        1
176
     1
 90
        6
176
     1
 90
        2
176
     1
 62
     7
176
     1
 90
        5
176
     1
 90
        0
176
     1
 90
        0
176
     1
290
     0
176
     1
 90
        1
176
     1
 40
0.0
176
     1
 90
        0
176
     1
290
     0
176
     1
290
     1
176
     1
290
     1
176
     1
290
     0
176
     1
290
     0
176
     1
290
     0
176
     1
290
     0
176
     1
290
     0
176
     1
290
     0
176
     1
 90
       50
176
     1
 40
0.0
176
     1
 40
1.0
176
     1
 90
        0
176
     1
 62
    18
420
        0
176
     1
 90
       50
176
     1
 90
        3
176
     1
 62
     5
420
      255
176
     1
290
     0
176
     1
 90
       50
176
     1
 90
       50
176
     1
 90
       50
176
     1
290
     0
176
     1
 90
       50
176
     1
 62
   256
176
     0
 40
1.0
176
     0
 90
        2
176
     1
  1
strokes_ogs.tif
176
     1
290
     0
176
     1
 40
1.0
176
     1
 40
1.0
176
     1
  0
VISUALSTYLE
  5
8A76
102
{ACAD_REACTORS
330
8A71
102
}
330
8A71
100
AcDbVisualStyle
  2
Basic
 70
     7
177
     3
291
     1
 70
    58
 90
        1
176
     1
 90
        0
176
     1
 90
        1
176
     1
 90
        0
176
     1
 40
0.6
176
     1
 40
30.0
176
     1
 62
     7
420
 16777215
176
     1
 90
        0
176
     1
 90
        4
176
     1
 62
     7
176
     1
 62
   257
176
     1
 90
        1
176
     1
 90
        1
176
     1
 40
1.0
176
     1
 90
        8
176
     1
 62
     7
176
     1
 40
1.0
176
     1
 90
        1
176
     1
 90
        6
176
     1
 90
        2
176
     1
 62
     7
176
     1
 90
        5
176
     1
 90
        0
176
     1
 90
        0
176
     1
290
     0
176
     1
 90
        1
176
     1
 40
0.0
176
     1
 90
        0
176
     1
290
     0
176
     1
290
     1
176
     1
290
     1
176
     1
290
     0
176
     1
290
     0
176
     1
290
     0
176
     1
290
     0
176
     1
290
     0
176
     1
290
     0
176
     1
 90
       50
176
     1
 40
0.0
176
     1
 40
1.0
176
     1
 90
        0
176
     1
 62
    18
420
        0
176
     1
 90
       50
176
     1
 90
        3
176
     1
 62
     5
420
      255
176
     1
290
     0
176
     1
 90
       50
176
     1
 90
       50
176
     1
 90
       50
176
     1
290
     0
176
     1
 90
       50
176
     1
 62
   256
176
     0
 40
1.0
176
     0
 90
        2
176
     1
  1
strokes_ogs.tif
176
     1
290
     0
176
     1
 40
1.0
176
     1
 40
1.0
176
     1
  0
VISUALSTYLE
  5
8A7D
102
{ACAD_REACTORS
330
8A71
102
}
330
8A71
100
AcDbVisualStyle
  2
Brighten
 70
    12
177
     3
291
     1
 70
    58
 90
        2
176
     1
 90
        2
176
     1
 90
        0
176
     1
 90
        0
176
     1
 40
0.6
176
     1
 40
30.0
176
     1
 62
     7
420
 16777215
176
     1
 90
        1
176
     1
 90
        4
176
     1
 62
     7
176
     1
 62
   257
176
     1
 90
        1
176
     1
 90
        1
176
     1
 40
1.0
176
     1
 90
        8
176
     1
 62
     7
176
     1
 40
1.0
176
     1
 90
        1
176
     1
 90
        6
176
     1
 90
        2
176
     1
 62
     7
176
     1
 90
        5
176
     1
 90
        0
176
     1
 90
        0
176
     1
290
     0
176
     1
 90
        1
176
     1
 40
50.0
176
     1
 90
        0
176
     1
290
     0
176
     1
290
     1
176
     1
290
     1
176
     1
290
     0
176
     1
290
     0
176
     1
290
     0
176
     1
290
     0
176
     1
290
     0
176
     1
290
     0
176
     1
 90
       50
176
     1
 40
0.0
176
     1
 40
1.0
176
     1
 90
        0
176
     1
 62
    18
420
        0
176
     1
 90
       50
176
     1
 90
        3
176
     1
 62
     5
420
      255
176
     1
290
     0
176
     1
 90
       50
176
     1
 90
       50
176
     1
 90
       50
176
     1
290
     0
176
     1
 90
       50
176
     1
 62
   256
176
     0
 40
1.0
176
     0
 90
        2
176
     1
  1
strokes_ogs.tif
176
     1
290
     0
176
     1
 40
1.0
176
     1
 40
1.0
176
     1
  0
VISUALSTYLE
  5
8A81
102
{ACAD_REACTORS
330
8A71
102
}
330
8A71
100
AcDbVisualStyle
  2
ColorChange
 70
    16
177
     3
291
     1
 70
    58
 90
        2
176
     1
 90
        2
176
     1
 90
        3
176
     1
 90
        0
176
     1
 40
0.6
176
     1
 40
30.0
176
     1
 62
     8
420
  8421504
176
     1
 90
        1
176
     1
 90
        4
176
     1
 62
     7
176
     1
 62
   257
176
     1
 90
        1
176
     1
 90
        1
176
     1
 40
1.0
176
     1
 90
        8
176
     1
 62
     8
420
  8421504
176
     1
 40
1.0
176
     1
 90
        1
176
     1
 90
        6
176
     1
 90
        2
176
     1
 62
     7
176
     1
 90
        5
176
     1
 90
        0
176
     1
 90
        0
176
     1
290
     0
176
     1
 90
        1
176
     1
 40
0.0
176
     1
 90
        0
176
     1
290
     0
176
     1
290
     1
176
     1
290
     1
176
     1
290
     0
176
     1
290
     0
176
     1
290
     0
176
     1
290
     0
176
     1
290
     0
176
     1
290
     0
176
     1
 90
       50
176
     1
 40
0.0
176
     1
 40
1.0
176
     1
 90
        0
176
     1
 62
    18
420
        0
176
     1
 90
       50
176
     1
 90
        3
176
     1
 62
     5
420
      255
176
     1
290
     0
176
     1
 90
       50
176
     1
 90
       50
176
     1
 90
       50
176
     1
290
     0
176
     1
 90
       50
176
     1
 62
   256
176
     0
 40
1.0
176
     0
 90
        2
176
     1
  1
strokes_ogs.tif
176
     1
290
     0
176
     1
 40
1.0
176
     1
 40
1.0
176
     1
  0
VISUALSTYLE
  5
8A7A
102
{ACAD_REACTORS
330
8A71
102
}
330
8A71
100
AcDbVisualStyle
  2
Conceptual
 70
     9
177
     3
291
     0
 70
    58
 90
        3
176
     1
 90
        2
176
     1
 90
        0
176
     1
 90
        0
176
     1
 40
0.6
176
     1
 40
30.0
176
     1
 62
     7
420
 16777215
176
     1
 90
        2
176
     1
 90
        2
176
     1
 62
     7
176
     1
 62
   257
176
     1
 90
        1
176
     1
 90
        1
176
     1
 40
179.0
176
     1
 90
        8
176
     1
 62
     7
176
     1
 40
1.0
176
     1
 90
        1
176
     1
 90
        6
176
     1
 90
        2
176
     1
 62
     7
176
     1
 90
        3
176
     1
 90
        0
176
     1
 90
        0
176
     1
290
     0
176
     1
 90
        1
176
     1
 40
0.0
176
     1
 90
        0
176
     1
290
     0
176
     1
290
     1
176
     1
290
     1
176
     1
290
     0
176
     1
290
     0
176
     1
290
     0
176
     1
290
     0
176
     1
290
     0
176
     1
290
     0
176
     1
 90
       50
176
     1
 40
0.0
176
     1
 40
1.0
176
     1
 90
        0
176
     1
 62
    18
420
        0
176
     1
 90
       50
176
     1
 90
        3
176
     1
 62
     5
420
      255
176
     1
290
     0
176
     1
 90
       50
176
     1
 90
       50
176
     1
 90
       50
176
     1
290
     0
176
     1
 90
       50
176
     1
 62
   256
176
     0
 40
1.0
176
     0
 90
        2
176
     1
  1
strokes_ogs.tif
176
     1
290
     0
176
     1
 40
1.0
176
     1
 40
1.0
176
     1
  0
VISUALSTYLE
  5
8A7C
102
{ACAD_REACTORS
330
8A71
102
}
330
8A71
100
AcDbVisualStyle
  2
Dim
 70
    11
177
     3
291
     1
 70
    58
 90
        2
176
     1
 90
        2
176
     1
 90
        0
176
     1
 90
        0
176
     1
 40
0.6
176
     1
 40
30.0
176
     1
 62
     7
420
 16777215
176
     1
 90
        1
176
     1
 90
        4
176
     1
 62
     7
176
     1
 62
   257
176
     1
 90
        1
176
     1
 90
        1
176
     1
 40
1.0
176
     1
 90
        8
176
     1
 62
     7
176
     1
 40
1.0
176
     1
 90
        1
176
     1
 90
        6
176
     1
 90
        2
176
     1
 62
     7
176
     1
 90
        5
176
     1
 90
        0
176
     1
 90
        0
176
     1
290
     0
176
     1
 90
        1
176
     1
 40
-50.0
176
     1
 90
        0
176
     1
290
     0
176
     1
290
     1
176
     1
290
     1
176
     1
290
     0
176
     1
290
     0
176
     1
290
     0
176
     1
290
     0
176
     1
290
     0
176
     1
290
     0
176
     1
 90
       50
176
     1
 40
0.0
176
     1
 40
1.0
176
     1
 90
        0
176
     1
 62
    18
420
        0
176
     1
 90
       50
176
     1
 90
        3
176
     1
 62
     5
420
      255
176
     1
290
     0
176
     1
 90
       50
176
     1
 90
       50
176
     1
 90
       50
176
     1
290
     0
176
     1
 90
       50
176
     1
 62
   256
176
     0
 40
1.0
176
     0
 90
        2
176
     1
  1
strokes_ogs.tif
176
     1
290
     0
176
     1
 40
1.0
176
     1
 40
1.0
176
     1
  0
VISUALSTYLE
  5
8A89
102
{ACAD_REACTORS
330
8A71
102
}
330
8A71
100
AcDbVisualStyle
  2
EdgeColorOff
 70
    22
177
     3
291
     1
 70
    58
 90
        2
176
     0
 90
        2
176
     0
 90
        0
176
     0
 90
        0
176
     0
 40
0.6
176
     0
 40
30.0
176
     0
 62
     7
420
 16777215
176
     0
 90
        1
176
     0
 90
        4
176
     0
 62
     7
176
     0
 62
   257
176
     0
 90
        1
176
     0
 90
        1
176
     0
 40
1.0
176
     0
 90
        8
176
     2
 62
     7
176
     0
 40
1.0
176
     0
 90
        1
176
     0
 90
        6
176
     0
 90
        2
176
     0
 62
     7
176
     0
 90
        5
176
     0
 90
        0
176
     0
 90
        0
176
     0
290
     0
176
     0
 90
        1
176
     0
 40
0.0
176
     0
 90
        0
176
     0
290
     0
176
     1
290
     1
176
     1
290
     1
176
     1
290
     0
176
     1
290
     0
176
     1
290
     0
176
     1
290
     0
176
     1
290
     0
176
     1
290
     0
176
     1
 90
       50
176
     0
 40
0.0
176
     0
 40
1.0
176
     0
 90
        0
176
     0
 62
    18
420
        0
176
     0
 90
       50
176
     0
 90
        3
176
     0
 62
     5
420
      255
176
     0
290
     0
176
     1
 90
       50
176
     0
 90
       50
176
     0
 90
       50
176
     0
290
     0
176
     1
 90
       50
176
     0
 62
   256
176
     0
 40
1.0
176
     0
 90
        2
176
     0
  1
strokes_ogs.tif
176
     0
290
     0
176
     1
 40
1.0
176
     0
 40
1.0
176
     0
  0
VISUALSTYLE
  5
8A80
102
{ACAD_REACTORS
330
8A71
102
}
330
8A71
100
AcDbVisualStyle
  2
Facepattern
 70
    15
177
     3
291
     1
 70
    58
 90
        2
176
     1
 90
        2
176
     1
 90
        0
176
     1
 90
        0
176
     1
 40
0.6
176
     1
 40
30.0
176
     1
 62
     7
420
 16777215
176
     1
 90
        1
176
     1
 90
        4
176
     1
 62
     7
176
     1
 62
   257
176
     1
 90
        1
176
     1
 90
        1
176
     1
 40
1.0
176
     1
 90
        8
176
     1
 62
     7
176
     1
 40
1.0
176
     1
 90
        1
176
     1
 90
        6
176
     1
 90
        2
176
     1
 62
     7
176
     1
 90
        5
176
     1
 90
        0
176
     1
 90
        0
176
     1
290
     0
176
     1
 90
        1
176
     1
 40
0.0
176
     1
 90
        0
176
     1
290
     0
176
     1
290
     1
176
     1
290
     1
176
     1
290
     0
176
     1
290
     0
176
     1
290
     0
176
     1
290
     0
176
     1
290
     0
176
     1
290
     0
176
     1
 90
       50
176
     1
 40
0.0
176
     1
 40
1.0
176
     1
 90
        0
176
     1
 62
    18
420
        0
176
     1
 90
       50
176
     1
 90
        3
176
     1
 62
     5
420
      255
176
     1
290
     0
176
     1
 90
       50
176
     1
 90
       50
176
     1
 90
       50
176
     1
290
     0
176
     1
 90
       50
176
     1
 62
   256
176
     0
 40
1.0
176
     0
 90
        2
176
     1
  1
strokes_ogs.tif
176
     1
290
     0
176
     1
 40
1.0
176
     1
 40
1.0
176
     1
  0
VISUALSTYLE
  5
8A72
102
{ACAD_REACTORS
330
8A71
102
}
330
8A71
100
AcDbVisualStyle
  2
Flat
 70
     0
177
     3
291
     1
 70
    58
 90
        2
176
     1
 90
        1
176
     1
 90
        1
176
     1
 90
        2
176
     1
 40
0.6
176
     1
 40
30.0
176
     1
 62
     7
420
 16777215
176
     1
 90
        0
176
     1
 90
        0
176
     1
 62
     7
176
     1
 62
   257
176
     1
 90
        1
176
     1
 90
        1
176
     1
 40
1.0
176
     1
 90
        8
176
     1
 62
     7
176
     1
 40
1.0
176
     1
 90
        1
176
     1
 90
        6
176
     1
 90
        2
176
     1
 62
     7
176
     1
 90
        5
176
     1
 90
        0
176
     1
 90
        0
176
     1
290
     0
176
     1
 90
       13
176
     1
 40
0.0
176
     1
 90
        0
176
     1
290
     0
176
     1
290
     1
176
     1
290
     1
176
     1
290
     0
176
     1
290
     0
176
     1
290
     0
176
     1
290
     0
176
     1
290
     0
176
     1
290
     0
176
     1
 90
       50
176
     1
 40
0.0
176
     1
 40
1.0
176
     1
 90
        0
176
     1
 62
    18
420
        0
176
     1
 90
       50
176
     1
 90
        3
176
     1
 62
     5
420
      255
176
     1
290
     0
176
     1
 90
       50
176
     1
 90
       50
176
     1
 90
       50
176
     1
290
     0
176
     1
 90
       50
176
     1
 62
   256
176
     0
 40
1.0
176
     0
 90
        2
176
     1
  1
strokes_ogs.tif
176
     1
290
     0
176
     1
 40
1.0
176
     1
 40
1.0
176
     1
  0
VISUALSTYLE
  5
8A73
102
{ACAD_REACTORS
330
8A71
102
}
330
8A71
100
AcDbVisualStyle
  2
FlatWithEdges
 70
     1
177
     3
291
     1
 70
    58
 90
        2
176
     1
 90
        1
176
     1
 90
        1
176
     1
 90
        2
176
     1
 40
0.6
176
     1
 40
30.0
176
     1
 62
     7
420
 16777215
176
     1
 90
        1
176
     1
 90
        0
176
     1
 62
     7
176
     1
 62
   257
176
     1
 90
        1
176
     1
 90
        1
176
     1
 40
1.0
176
     1
 90
        0
176
     1
 62
   257
176
     1
 40
1.0
176
     1
 90
        1
176
     1
 90
        6
176
     1
 90
        2
176
     1
 62
     7
176
     1
 90
        5
176
     1
 90
        0
176
     1
 90
        0
176
     1
290
     0
176
     1
 90
       13
176
     1
 40
0.0
176
     1
 90
        0
176
     1
290
     0
176
     1
290
     1
176
     1
290
     1
176
     1
290
     0
176
     1
290
     0
176
     1
290
     0
176
     1
290
     0
176
     1
290
     0
176
     1
290
     0
176
     1
 90
       50
176
     1
 40
0.0
176
     1
 40
1.0
176
     1
 90
        0
176
     1
 62
    18
420
        0
176
     1
 90
       50
176
     1
 90
        3
176
     1
 62
     5
420
      255
176
     1
290
     0
176
     1
 90
       50
176
     1
 90
       50
176
     1
 90
       50
176
     1
290
     0
176
     1
 90
       50
176
     1
 62
   256
176
     0
 40
1.0
176
     0
 90
        2
176
     1
  1
strokes_ogs.tif
176
     1
290
     0
176
     1
 40
1.0
176
     1
 40
1.0
176
     1
  0
VISUALSTYLE
  5
8A74
102
{ACAD_REACTORS
330
8A71
102
}
330
8A71
100
AcDbVisualStyle
  2
Gouraud
 70
     2
177
     3
291
     1
 70
    58
 90
        2
176
     1
 90
        2
176
     1
 90
        1
176
     1
 90
        2
176
     1
 40
0.6
176
     1
 40
30.0
176
     1
 62
     7
420
 16777215
176
     1
 90
        0
176
     1
 90
        0
176
     1
 62
     7
176
     1
 62
   257
176
     1
 90
        1
176
     1
 90
        1
176
     1
 40
1.0
176
     1
 90
        0
176
     1
 62
     7
176
     1
 40
1.0
176
     1
 90
        1
176
     1
 90
        6
176
     1
 90
        2
176
     1
 62
     7
176
     1
 90
        5
176
     1
 90
        0
176
     1
 90
        0
176
     1
290
     0
176
     1
 90
       13
176
     1
 40
0.0
176
     1
 90
        0
176
     1
290
     0
176
     1
290
     1
176
     1
290
     1
176
     1
290
     0
176
     1
290
     0
176
     1
290
     0
176
     1
290
     0
176
     1
290
     0
176
     1
290
     0
176
     1
 90
       50
176
     1
 40
0.0
176
     1
 40
1.0
176
     1
 90
        0
176
     1
 62
    18
420
        0
176
     1
 90
       50
176
     1
 90
        3
176
     1
 62
     5
420
      255
176
     1
290
     0
176
     1
 90
       50
176
     1
 90
       50
176
     1
 90
       50
176
     1
290
     0
176
     1
 90
       50
176
     1
 62
   256
176
     0
 40
1.0
176
     0
 90
        2
176
     1
  1
strokes_ogs.tif
176
     1
290
     0
176
     1
 40
1.0
176
     1
 40
1.0
176
     1
  0
VISUALSTYLE
  5
8A75
102
{ACAD_REACTORS
330
8A71
102
}
330
8A71
100
AcDbVisualStyle
  2
GouraudWithEdges
 70
     3
177
     3
291
     1
 70
    58
 90
        2
176
     1
 90
        2
176
     1
 90
        1
176
     1
 90
        2
176
     1
 40
0.6
176
     1
 40
30.0
176
     1
 62
     7
420
 16777215
176
     1
 90
        1
176
     1
 90
        0
176
     1
 62
     7
176
     1
 62
   257
176
     1
 90
        1
176
     1
 90
        1
176
     1
 40
1.0
176
     1
 90
        0
176
     1
 62
   257
176
     1
 40
1.0
176
     1
 90
        1
176
     1
 90
        6
176
     1
 90
        2
176
     1
 62
     7
176
     1
 90
        5
176
     1
 90
        0
176
     1
 90
        0
176
     1
290
     0
176
     1
 90
       13
176
     1
 40
0.0
176
     1
 90
        0
176
     1
290
     0
176
     1
290
     1
176
     1
290
     1
176
     1
290
     0
176
     1
290
     0
176
     1
290
     0
176
     1
290
     0
176
     1
290
     0
176
     1
290
     0
176
     1
 90
       50
176
     1
 40
0.0
176
     1
 40
1.0
176
     1
 90
        0
176
     1
 62
    18
420
        0
176
     1
 90
       50
176
     1
 90
        3
176
     1
 62
     5
420
      255
176
     1
290
     0
176
     1
 90
       50
176
     1
 90
       50
176
     1
 90
       50
176
     1
290
     0
176
     1
 90
       50
176
     1
 62
   256
176
     0
 40
1.0
176
     0
 90
        2
176
     1
  1
strokes_ogs.tif
176
     1
290
     0
176
     1
 40
1.0
176
     1
 40
1.0
176
     1
  0
VISUALSTYLE
  5
8A79
102
{ACAD_REACTORS
330
8A71
102
}
330
8A71
100
AcDbVisualStyle
  2
Hidden
 70
     6
177
     3
291
     0
 70
    58
 90
        1
176
     1
 90
        2
176
     1
 90
        2
176
     1
 90
        0
176
     1
 40
0.6
176
     1
 40
30.0
176
     1
 62
     7
420
 16777215
176
     1
 90
        2
176
     1
 90
        2
176
     1
 62
     7
176
     1
 62
   257
176
     1
 90
        2
176
     1
 90
        1
176
     1
 40
40.0
176
     1
 90
        0
176
     1
 62
   257
176
     1
 40
1.0
176
     1
 90
        1
176
     1
 90
        6
176
     1
 90
        2
176
     1
 62
     7
176
     1
 90
        3
176
     1
 90
        0
176
     1
 90
        0
176
     1
290
     0
176
     1
 90
        1
176
     1
 40
0.0
176
     1
 90
        0
176
     1
290
     0
176
     1
290
     1
176
     1
290
     1
176
     1
290
     0
176
     1
290
     0
176
     1
290
     0
176
     1
290
     0
176
     1
290
     0
176
     1
290
     0
176
     1
 90
       50
176
     1
 40
0.0
176
     1
 40
1.0
176
     1
 90
        0
176
     1
 62
    18
420
        0
176
     1
 90
       50
176
     1
 90
        3
176
     1
 62
     5
420
      255
176
     1
290
     0
176
     1
 90
       50
176
     1
 90
       50
176
     1
 90
       50
176
     1
290
     0
176
     1
 90
       50
176
     1
 62
   256
176
     0
 40
1.0
176
     0
 90
        2
176
     1
  1
strokes_ogs.tif
176
     1
290
     0
176
     1
 40
1.0
176
     1
 40
1.0
176
     1
  0
VISUALSTYLE
  5
8A87
102
{ACAD_REACTORS
330
8A71
102
}
330
8A71
100
AcDbVisualStyle
  2
JitterOff
 70
    20
177
     3
291
     1
 70
    58
 90
        2
176
     0
 90
        2
176
     0
 90
        0
176
     0
 90
        0
176
     0
 40
0.6
176
     0
 40
30.0
176
     0
 62
     7
420
 16777215
176
     0
 90
        1
176
     0
 90
        4
176
     0
 62
     7
176
     0
 62
   257
176
     0
 90
        1
176
     0
 90
        1
176
     0
 40
1.0
176
     0
 90
       10
176
     2
 62
     7
176
     0
 40
1.0
176
     0
 90
        1
176
     0
 90
        6
176
     0
 90
        2
176
     0
 62
     7
176
     0
 90
        5
176
     0
 90
        0
176
     0
 90
        0
176
     0
290
     0
176
     0
 90
        1
176
     0
 40
0.0
176
     0
 90
        0
176
     0
290
     0
176
     1
290
     1
176
     1
290
     1
176
     1
290
     0
176
     1
290
     0
176
     1
290
     0
176
     1
290
     0
176
     1
290
     0
176
     1
290
     0
176
     1
 90
       50
176
     0
 40
0.0
176
     0
 40
1.0
176
     0
 90
        0
176
     0
 62
    18
420
        0
176
     0
 90
       50
176
     0
 90
        3
176
     0
 62
     5
420
      255
176
     0
290
     0
176
     1
 90
       50
176
     0
 90
       50
176
     0
 90
       50
176
     0
290
     0
176
     1
 90
       50
176
     0
 62
   256
176
     0
 40
1.0
176
     0
 90
        2
176
     0
  1
strokes_ogs.tif
176
     0
290
     0
176
     1
 40
1.0
176
     0
 40
1.0
176
     0
  0
VISUALSTYLE
  5
8A7F
102
{ACAD_REACTORS
330
8A71
102
}
330
8A71
100
AcDbVisualStyle
  2
Linepattern
 70
    14
177
     3
291
     1
 70
    58
 90
        2
176
     1
 90
        2
176
     1
 90
        0
176
     1
 90
        0
176
     1
 40
0.6
176
     1
 40
30.0
176
     1
 62
     7
420
 16777215
176
     1
 90
        1
176
     1
 90
        4
176
     1
 62
     7
176
     1
 62
   257
176
     1
 90
        7
176
     1
 90
        7
176
     1
 40
1.0
176
     1
 90
        8
176
     1
 62
     7
176
     1
 40
1.0
176
     1
 90
        1
176
     1
 90
        6
176
     1
 90
        2
176
     1
 62
     7
176
     1
 90
        5
176
     1
 90
        0
176
     1
 90
        0
176
     1
290
     0
176
     1
 90
        1
176
     1
 40
0.0
176
     1
 90
        0
176
     1
290
     0
176
     1
290
     1
176
     1
290
     1
176
     1
290
     0
176
     1
290
     0
176
     1
290
     0
176
     1
290
     0
176
     1
290
     0
176
     1
290
     0
176
     1
 90
       50
176
     1
 40
0.0
176
     1
 40
1.0
176
     1
 90
        0
176
     1
 62
    18
420
        0
176
     1
 90
       50
176
     1
 90
        3
176
     1
 62
     5
420
      255
176
     1
290
     0
176
     1
 90
       50
176
     1
 90
       50
176
     1
 90
       50
176
     1
290
     0
176
     1
 90
       50
176
     1
 62
   256
176
     0
 40
1.0
176
     0
 90
        2
176
     1
  1
strokes_ogs.tif
176
     1
290
     0
176
     1
 40
1.0
176
     1
 40
1.0
176
     1
  0
VISUALSTYLE
  5
8A88
102
{ACAD_REACTORS
330
8A71
102
}
330
8A71
100
AcDbVisualStyle
  2
OverhangOff
 70
    21
177
     3
291
     1
 70
    58
 90
        2
176
     0
 90
        2
176
     0
 90
        0
176
     0
 90
        0
176
     0
 40
0.6
176
     0
 40
30.0
176
     0
 62
     7
420
 16777215
176
     0
 90
        1
176
     0
 90
        4
176
     0
 62
     7
176
     0
 62
   257
176
     0
 90
        1
176
     0
 90
        1
176
     0
 40
1.0
176
     0
 90
        9
176
     2
 62
     7
176
     0
 40
1.0
176
     0
 90
        1
176
     0
 90
        6
176
     0
 90
        2
176
     0
 62
     7
176
     0
 90
        5
176
     0
 90
        0
176
     0
 90
        0
176
     0
290
     0
176
     0
 90
        1
176
     0
 40
0.0
176
     0
 90
        0
176
     0
290
     0
176
     1
290
     1
176
     1
290
     1
176
     1
290
     0
176
     1
290
     0
176
     1
290
     0
176
     1
290
     0
176
     1
290
     0
176
     1
290
     0
176
     1
 90
       50
176
     0
 40
0.0
176
     0
 40
1.0
176
     0
 90
        0
176
     0
 62
    18
420
        0
176
     0
 90
       50
176
     0
 90
        3
176
     0
 62
     5
420
      255
176
     0
290
     0
176
     1
 90
       50
176
     0
 90
       50
176
     0
 90
       50
176
     0
290
     0
176
     1
 90
       50
176
     0
 62
   256
176
     0
 40
1.0
176
     0
 90
        2
176
     0
  1
strokes_ogs.tif
176
     0
290
     0
176
     1
 40
1.0
176
     0
 40
1.0
176
     0
  0
VISUALSTYLE
  5
8A7B
102
{ACAD_REACTORS
330
8A71
102
}
330
8A71
100
AcDbVisualStyle
  2
Realistic
 70
     8
177
     3
291
     0
 70
    58
 90
        2
176
     1
 90
        3
176
     1
 90
        0
176
     1
 90
        2
176
     1
 40
0.6
176
     1
 40
30.0
176
     1
 62
     7
420
 16777215
176
     1
 90
        0
176
     1
 90
        0
176
     1
 62
     7
176
     1
 62
   257
176
     1
 90
        1
176
     1
 90
        1
176
     1
 40
1.0
176
     1
 90
        8
176
     1
 62
   257
176
     1
 40
1.0
176
     1
 90
        1
176
     1
 90
        6
176
     1
 90
        2
176
     1
 62
     7
176
     1
 90
        3
176
     1
 90
        0
176
     1
 90
        0
176
     1
290
     0
176
     1
 90
       13
176
     1
 40
0.0
176
     1
 90
        0
176
     1
290
     0
176
     1
290
     1
176
     1
290
     1
176
     1
290
     0
176
     1
290
     0
176
     1
290
     0
176
     1
290
     0
176
     1
290
     0
176
     1
290
     0
176
     1
 90
       50
176
     1
 40
0.0
176
     1
 40
1.0
176
     1
 90
        0
176
     1
 62
    18
420
        0
176
     1
 90
       50
176
     1
 90
        3
176
     1
 62
     5
420
      255
176
     1
290
     0
176
     1
 90
       50
176
     1
 90
       50
176
     1
 90
       50
176
     1
290
     0
176
     1
 90
       50
176
     1
 62
   256
176
     0
 40
1.0
176
     0
 90
        2
176
     1
  1
strokes_ogs.tif
176
     1
290
     0
176
     1
 40
1.0
176
     1
 40
1.0
176
     1
  0
VISUALSTYLE
  5
8A86
102
{ACAD_REACTORS
330
8A71
102
}
330
8A71
100
AcDbVisualStyle
  2
Shaded
 70
    27
177
     3
291
     0
 70
    58
 90
        2
176
     1
 90
        2
176
     1
 90
        1
176
     1
 90
        2
176
     1
 40
0.6
176
     1
 40
30.0
176
     1
 62
     7
420
 16777215
176
     1
 90
        0
176
     1
 90
        4
176
     1
 62
     7
176
     1
 62
   257
176
     1
 90
        1
176
     1
 90
        1
176
     1
 40
1.0
176
     1
 90
        8
176
     1
 62
   257
176
     1
 40
1.0
176
     1
 90
        1
176
     1
 90
        6
176
     1
 90
        2
176
     1
 62
     8
420
  7895160
176
     1
 90
        3
176
     1
 90
        0
176
     1
 90
        0
176
     1
290
     0
176
     1
 90
        5
176
     1
 40
0.0
176
     1
 90
        0
176
     1
290
     0
176
     1
290
     1
176
     1
290
     1
176
     1
290
     0
176
     1
290
     0
176
     1
290
     0
176
     1
290
     0
176
     1
290
     0
176
     1
290
     0
176
     1
 90
       50
176
     1
 40
0.0
176
     1
 40
1.0
176
     1
 90
        0
176
     1
 62
    18
420
        0
176
     1
 90
       50
176
     1
 90
        3
176
     1
 62
     5
420
      255
176
     1
290
     0
176
     1
 90
       50
176
     1
 90
       50
176
     1
 90
       50
176
     1
290
     0
176
     1
 90
       50
176
     1
 62
   256
176
     0
 40
1.0
176
     0
 90
        2
176
     1
  1
strokes_ogs.tif
176
     1
290
     0
176
     1
 40
1.0
176
     1
 40
1.0
176
     1
  0
VISUALSTYLE
  5
8A85
102
{ACAD_REACTORS
330
8A71
102
}
330
8A71
100
AcDbVisualStyle
  2
Shaded with edges
 70
    26
177
     3
291
     0
 70
    58
 90
        2
176
     1
 90
        2
176
     1
 90
        1
176
     1
 90
        2
176
     1
 40
0.6
176
     1
 40
30.0
176
     1
 62
     7
420
 16777215
176
     1
 90
        1
176
     1
 90
       10
176
     1
 62
     7
176
     1
 62
   257
176
     1
 90
        2
176
     1
 90
        1
176
     1
 40
1.0
176
     1
 90
        8
176
     1
 62
   257
176
     1
 40
1.0
176
     1
 90
        1
176
     1
 90
        6
176
     1
 90
        2
176
     1
 62
     7
176
     1
 90
        3
176
     1
 90
        0
176
     1
 90
        0
176
     1
290
     0
176
     1
 90
        5
176
     1
 40
0.0
176
     1
 90
        0
176
     1
290
     0
176
     1
290
     1
176
     1
290
     1
176
     1
290
     0
176
     1
290
     0
176
     1
290
     0
176
     1
290
     0
176
     1
290
     0
176
     1
290
     0
176
     1
 90
       50
176
     1
 40
0.0
176
     1
 40
1.0
176
     1
 90
        0
176
     1
 62
    18
420
        0
176
     1
 90
       50
176
     1
 90
        3
176
     1
 62
     5
420
      255
176
     1
290
     0
176
     1
 90
       50
176
     1
 90
       50
176
     1
 90
       50
176
     1
290
     0
176
     1
 90
       50
176
     1
 62
   256
176
     0
 40
1.0
176
     0
 90
        2
176
     1
  1
strokes_ogs.tif
176
     1
290
     0
176
     1
 40
1.0
176
     1
 40
1.0
176
     1
  0
VISUALSTYLE
  5
8A82
102
{ACAD_REACTORS
330
8A71
102
}
330
8A71
100
AcDbVisualStyle
  2
Shades of Gray
 70
    23
177
     3
291
     0
 70
    58
 90
        2
176
     1
 90
        2
176
     1
 90
        3
176
     1
 90
        0
176
     1
 40
0.6
176
     1
 40
30.0
176
     1
 62
     7
420
 16777215
176
     1
 90
        2
176
     1
 90
        2
176
     1
 62
     7
176
     1
 62
     7
176
     1
 90
        1
176
     1
 90
        1
176
     1
 40
40.0
176
     1
 90
        8
176
     1
 62
     7
176
     1
 40
1.0
176
     1
 90
        1
176
     1
 90
        6
176
     1
 90
        2
176
     1
 62
     7
176
     1
 90
        3
176
     1
 90
        0
176
     1
 90
        0
176
     1
290
     0
176
     1
 90
        1
176
     1
 40
0.0
176
     1
 90
        0
176
     1
290
     0
176
     1
290
     1
176
     1
290
     1
176
     1
290
     0
176
     1
290
     0
176
     1
290
     0
176
     1
290
     0
176
     1
290
     0
176
     1
290
     0
176
     1
 90
       50
176
     1
 40
0.0
176
     1
 40
1.0
176
     1
 90
        0
176
     1
 62
    18
420
        0
176
     1
 90
       50
176
     1
 90
        3
176
     1
 62
     5
420
      255
176
     1
290
     0
176
     1
 90
       50
176
     1
 90
       50
176
     1
 90
       50
176
     1
290
     0
176
     1
 90
       50
176
     1
 62
   256
176
     0
 40
1.0
176
     0
 90
        2
176
     1
  1
strokes_ogs.tif
176
     1
290
     0
176
     1
 40
1.0
176
     1
 40
1.0
176
     1
  0
VISUALSTYLE
  5
8A83
102
{ACAD_REACTORS
330
8A71
102
}
330
8A71
100
AcDbVisualStyle
  2
Sketchy
 70
    24
177
     3
291
     0
 70
    58
 90
        1
176
     1
 90
        2
176
     1
 90
        2
176
     1
 90
        0
176
     1
 40
0.6
176
     1
 40
30.0
176
     1
 62
     7
420
 16777215
176
     1
 90
        2
176
     1
 90
        2
176
     1
 62
     7
176
     1
 62
     7
176
     1
 90
        1
176
     1
 90
        1
176
     1
 40
40.0
176
     1
 90
       11
176
     1
 62
     7
176
     1
 40
1.0
176
     1
 90
        1
176
     1
 90
        6
176
     1
 90
        2
176
     1
 62
     7
176
     1
 90
        6
176
     1
 90
        0
176
     1
 90
        0
176
     1
290
     0
176
     1
 90
        1
176
     1
 40
0.0
176
     1
 90
        0
176
     1
290
     0
176
     1
290
     1
176
     1
290
     1
176
     1
290
     0
176
     1
290
     0
176
     1
290
     0
176
     1
290
     0
176
     1
290
     0
176
     1
290
     0
176
     1
 90
       50
176
     1
 40
0.0
176
     1
 40
1.0
176
     1
 90
        0
176
     1
 62
    18
420
        0
176
     1
 90
       50
176
     1
 90
        3
176
     1
 62
     5
420
      255
176
     1
290
     0
176
     1
 90
       50
176
     1
 90
       50
176
     1
 90
       50
176
     1
290
     0
176
     1
 90
       50
176
     1
 62
   256
176
     0
 40
1.0
176
     0
 90
        2
176
     1
  1
strokes_ogs.tif
176
     1
290
     0
176
     1
 40
1.0
176
     1
 40
1.0
176
     1
  0
VISUALSTYLE
  5
8A7E
102
{ACAD_REACTORS
330
8A71
102
}
330
8A71
100
AcDbVisualStyle
  2
Thicken
 70
    13
177
     3
291
     1
 70
    58
 90
        2
176
     1
 90
        2
176
     1
 90
        0
176
     1
 90
        0
176
     1
 40
0.6
176
     1
 40
30.0
176
     1
 62
     7
420
 16777215
176
     1
 90
        1
176
     1
 90
        4
176
     1
 62
     7
176
     1
 62
   257
176
     1
 90
        1
176
     1
 90
        1
176
     1
 40
1.0
176
     1
 90
       12
176
     1
 62
     7
176
     1
 40
1.0
176
     1
 90
        1
176
     1
 90
        6
176
     1
 90
        2
176
     1
 62
     7
176
     1
 90
        5
176
     1
 90
        0
176
     1
 90
        0
176
     1
290
     0
176
     1
 90
        1
176
     1
 40
0.0
176
     1
 90
        0
176
     1
290
     0
176
     1
290
     1
176
     1
290
     1
176
     1
290
     0
176
     1
290
     0
176
     1
290
     0
176
     1
290
     0
176
     1
290
     0
176
     1
290
     0
176
     1
 90
       50
176
     1
 40
0.0
176
     1
 40
1.0
176
     1
 90
        0
176
     1
 62
    18
420
        0
176
     1
 90
       50
176
     1
 90
        3
176
     1
 62
     5
420
      255
176
     1
290
     0
176
     1
 90
       50
176
     1
 90
       50
176
     1
 90
       50
176
     1
290
     0
176
     1
 90
       50
176
     1
 62
   256
176
     0
 40
1.0
176
     0
 90
        2
176
     1
  1
strokes_ogs.tif
176
     1
290
     0
176
     1
 40
1.0
176
     1
 40
1.0
176
     1
  0
VISUALSTYLE
  5
8A78
102
{ACAD_REACTORS
330
8A71
102
}
330
8A71
100
AcDbVisualStyle
  2
Wireframe
 70
     5
177
     3
291
     0
 70
    58
 90
        0
176
     1
 90
        2
176
     1
 90
        0
176
     1
 90
        0
176
     1
 40
0.6
176
     1
 40
30.0
176
     1
 62
     7
420
 16777215
176
     1
 90
        1
176
     1
 90
        4
176
     1
 62
     7
176
     1
 62
   257
176
     1
 90
        1
176
     1
 90
        1
176
     1
 40
1.0
176
     1
 90
        0
176
     1
 62
   257
176
     1
 40
1.0
176
     1
 90
        1
176
     1
 90
        6
176
     1
 90
        2
176
     1
 62
     7
176
     1
 90
        3
176
     1
 90
        0
176
     1
 90
        0
176
     1
290
     0
176
     1
 90
        1
176
     1
 40
0.0
176
     1
 90
        0
176
     1
290
     0
176
     1
290
     1
176
     1
290
     1
176
     1
290
     0
176
     1
290
     0
176
     1
290
     0
176
     1
290
     0
176
     1
290
     0
176
     1
290
     0
176
     1
 90
       50
176
     1
 40
0.0
176
     1
 40
1.0
176
     1
 90
        0
176
     1
 62
    18
420
        0
176
     1
 90
       50
176
     1
 90
        3
176
     1
 62
     5
420
      255
176
     1
290
     0
176
     1
 90
       50
176
     1
 90
       50
176
     1
 90
       50
176
     1
290
     0
176
     1
 90
       50
176
     1
 62
   256
176
     0
 40
1.0
176
     0
 90
        2
176
     1
  1
strokes_ogs.tif
176
     1
290
     0
176
     1
 40
1.0
176
     1
 40
1.0
176
     1
  0
VISUALSTYLE
  5
8A84
102
{ACAD_REACTORS
330
8A71
102
}
330
8A71
100
AcDbVisualStyle
  2
X-Ray
 70
    25
177
     3
291
     0
 70
    58
 90
        2
176
     1
 90
        2
176
     1
 90
        1
176
     1
 90
        1
176
     1
 40
0.5
176
     1
 40
30.0
176
     1
 62
     7
420
 16777215
176
     1
 90
        1
176
     1
 90
        0
176
     1
 62
     7
176
     1
 62
   257
176
     1
 90
        1
176
     1
 90
        1
176
     1
 40
1.0
176
     1
 90
        8
176
     1
 62
     7
176
     1
 40
1.0
176
     1
 90
        1
176
     1
 90
        6
176
     1
 90
        2
176
     1
 62
     7
176
     1
 90
        3
176
     1
 90
        0
176
     1
 90
        0
176
     1
290
     0
176
     1
 90
       13
176
     1
 40
0.0
176
     1
 90
        0
176
     1
290
     0
176
     1
290
     1
176
     1
290
     1
176
     1
290
     0
176
     1
290
     0
176
     1
290
     0
176
     1
290
     0
176
     1
290
     0
176
     1
290
     0
176
     1
 90
       50
176
     1
 40
0.0
176
     1
 40
1.0
176
     1
 90
        0
176
     1
 62
    18
420
        0
176
     1
 90
       50
176
     1
 90
        3
176
     1
 62
     5
420
      255
176
     1
290
     0
176
     1
 90
       50
176
     1
 90
       50
176
     1
 90
       50
176
     1
290
     0
176
     1
 90
       50
176
     1
 62
   256
176
     0
 40
1.0
176
     0
 90
        2
176
     1
  1
strokes_ogs.tif
176
     1
290
     0
176
     1
 40
1.0
176
     1
 40
1.0
176
     1
  0
DICTIONARYVAR
  5
8AE9
102
{ACAD_REACTORS
330
5697
102
}
330
5697
100
DictionaryVariables
280
     0
  1
1:1
  0
DICTIONARYVAR
  5
8AE5
102
{ACAD_REACTORS
330
5697
102
}
330
5697
100
DictionaryVariables
280
     0
  1
STANDARD
  0
DICTIONARYVAR
  5
8AE4
102
{ACAD_REACTORS
330
5697
102
}
330
5697
100
DictionaryVariables
280
     0
  1
STANDARD
  0
DICTIONARYVAR
  5
8AE6
102
{ACAD_REACTORS
330
5697
102
}
330
5697
100
DictionaryVariables
280
     0
  1
Imperial24
  0
DICTIONARYVAR
  5
8AE7
102
{ACAD_REACTORS
330
5697
102
}
330
5697
100
DictionaryVariables
280
     0
  1
Imperial24
  0
DICTIONARYVAR
  5
5698
102
{ACAD_REACTORS
330
5697
102
}
330
5697
100
DictionaryVariables
280
     0
  1
1
  0
DICTIONARYVAR
  5
8AEB
102
{ACAD_REACTORS
330
5697
102
}
330
5697
100
DictionaryVariables
280
     0
  1
1
  0
DICTIONARYVAR
  5
8AEC
102
{ACAD_REACTORS
330
5697
102
}
330
5697
100
DictionaryVariables
280
     0
  1
15
  0
DICTIONARYVAR
  5
8AEA
102
{ACAD_REACTORS
330
5697
102
}
330
5697
100
DictionaryVariables
280
     0
  1
0
  0
DICTIONARYVAR
  5
8AE8
102
{ACAD_REACTORS
330
5697
102
}
330
5697
100
DictionaryVariables
280
     0
  1
0
  0
DICTIONARY
  5
1CEBD
330
8AA4
100
AcDbDictionary
280
     1
281
     1
  3
ACAD_XREC_ROUNDTRIP
360
1CEBE
  0
DICTIONARY
  5
F3D2
330
8A4C
100
AcDbDictionary
280
     1
281
     1
  0
DICTIONARY
  5
8A62
330
8A61
100
AcDbDictionary
280
     1
281
     1
  3
BUMPTILE
360
8A64
  3
DIFFUSETILE
360
8A63
  3
OPACITYTILE
360
8A67
  3
REFLECTIONTILE
360
8A66
  3
REFRACTIONTILE
360
8A68
  3
SPECULARTILE
360
8A65
  0
DICTIONARY
  5
8A5A
330
8A59
100
AcDbDictionary
280
     1
281
     1
  3
BUMPTILE
360
8A5C
  3
DIFFUSETILE
360
8A5B
  3
OPACITYTILE
360
8A5F
  3
REFLECTIONTILE
360
8A5E
  3
REFRACTIONTILE
360
8A60
  3
SPECULARTILE
360
8A5D
  0
DICTIONARY
  5
8A6A
330
8A69
100
AcDbDictionary
280
     1
281
     1
  3
BUMPTILE
360
8A6C
  3
DIFFUSETILE
360
8A6B
  3
OPACITYTILE
360
8A6F
  3
REFLECTIONTILE
360
8A6E
  3
REFRACTIONTILE
360
8A70
  3
SPECULARTILE
360
8A6D
  0
DICTIONARY
  5
1CEBB
330
8AA2
100
AcDbDictionary
280
     1
281
     1
  3
ACAD_XREC_ROUNDTRIP
360
1CEBC
  0
DICTIONARY
  5
8AED
330
8A8C
100
AcDbDictionary
280
     1
281
     1
  3
ACAD_ROUNDTRIP_2008_TABLESTYLE_CELLSTYLEMAP
360
1CEBA
  0
XRECORD
  5
1CEBE
102
{ACAD_REACTORS
330
1CEBD
102
}
330
1CEBD
100
AcDbXrecord
280
     1
102
DISPLAYNAME
  1
Imperial24
102
FLAGS
 90
        0
  0
XRECORD
  5
8A64
102
{ACAD_REACTORS
330
8A62
102
}
330
8A62
100
AcDbXrecord
280
     1
270
     1
271
     1
  0
XRECORD
  5
8A63
102
{ACAD_REACTORS
330
8A62
102
}
330
8A62
100
AcDbXrecord
280
     1
270
     1
271
     1
  0
XRECORD
  5
8A67
102
{ACAD_REACTORS
330
8A62
102
}
330
8A62
100
AcDbXrecord
280
     1
270
     1
271
     1
  0
XRECORD
  5
8A66
102
{ACAD_REACTORS
330
8A62
102
}
330
8A62
100
AcDbXrecord
280
     1
270
     1
271
     1
  0
XRECORD
  5
8A68
102
{ACAD_REACTORS
330
8A62
102
}
330
8A62
100
AcDbXrecord
280
     1
270
     1
271
     1
  0
XRECORD
  5
8A65
102
{ACAD_REACTORS
330
8A62
102
}
330
8A62
100
AcDbXrecord
280
     1
270
     1
271
     1
  0
XRECORD
  5
8A5C
102
{ACAD_REACTORS
330
8A5A
102
}
330
8A5A
100
AcDbXrecord
280
     1
270
     1
271
     1
  0
XRECORD
  5
8A5B
102
{ACAD_REACTORS
330
8A5A
102
}
330
8A5A
100
AcDbXrecord
280
     1
270
     1
271
     1
  0
XRECORD
  5
8A5F
102
{ACAD_REACTORS
330
8A5A
102
}
330
8A5A
100
AcDbXrecord
280
     1
270
     1
271
     1
  0
XRECORD
  5
8A5E
102
{ACAD_REACTORS
330
8A5A
102
}
330
8A5A
100
AcDbXrecord
280
     1
270
     1
271
     1
  0
XRECORD
  5
8A60
102
{ACAD_REACTORS
330
8A5A
102
}
330
8A5A
100
AcDbXrecord
280
     1
270
     1
271
     1
  0
XRECORD
  5
8A5D
102
{ACAD_REACTORS
330
8A5A
102
}
330
8A5A
100
AcDbXrecord
280
     1
270
     1
271
     1
  0
XRECORD
  5
8A6C
102
{ACAD_REACTORS
330
8A6A
102
}
330
8A6A
100
AcDbXrecord
280
     1
270
     1
271
     1
  0
XRECORD
  5
8A6B
102
{ACAD_REACTORS
330
8A6A
102
}
330
8A6A
100
AcDbXrecord
280
     1
270
     1
271
     1
  0
XRECORD
  5
8A6F
102
{ACAD_REACTORS
330
8A6A
102
}
330
8A6A
100
AcDbXrecord
280
     1
270
     1
271
     1
  0
XRECORD
  5
8A6E
102
{ACAD_REACTORS
330
8A6A
102
}
330
8A6A
100
AcDbXrecord
280
     1
270
     1
271
     1
  0
XRECORD
  5
8A70
102
{ACAD_REACTORS
330
8A6A
102
}
330
8A6A
100
AcDbXrecord
280
     1
270
     1
271
     1
  0
XRECORD
  5
8A6D
102
{ACAD_REACTORS
330
8A6A
102
}
330
8A6A
100
AcDbXrecord
280
     1
270
     1
271
     1
  0
XRECORD
  5
1CEBC
102
{ACAD_REACTORS
330
1CEBB
102
}
330
1CEBB
100
AcDbXrecord
280
     1
102
DISPLAYNAME
  1
Imperial24
102
FLAGS
 90
        0
  0
CELLSTYLEMAP
  5
1CEBA
102
{ACAD_REACTORS
330
8AED
102
}
330
8AED
100
AcDbCellStyleMap
 90
        3
300
CELLSTYLE
  1
TABLEFORMAT_BEGIN
 90
        5
170
     1
 91
        0
 92
    32768
 62
   257
 93
        1
300
CONTENTFORMAT
  1
CONTENTFORMAT_BEGIN
 90
        0
 91
        0
 92
      512
 93
        0
300

 40
0.0
140
1.0
 94
        5
 62
     0
340
11
144
0.25
309
CONTENTFORMAT_END
171
     1
301
MARGIN
  1
CELLMARGIN_BEGIN
 40
0.06
 40
0.06
 40
0.06
 40
0.06
 40
0.18
 40
0.18
309
CELLMARGIN_END
 94
        6
 95
        1
302
GRIDFORMAT
  1
GRIDFORMAT_BEGIN
 90
        0
 91
        1
 62
     0
 92
       -2
340
0
 93
        0
 40
0.045
309
GRIDFORMAT_END
 95
        2
302
GRIDFORMAT
  1
GRIDFORMAT_BEGIN
 90
        0
 91
        1
 62
     0
 92
       -2
340
0
 93
        0
 40
0.045
309
GRIDFORMAT_END
 95
        4
302
GRIDFORMAT
  1
GRIDFORMAT_BEGIN
 90
        0
 91
        1
 62
     0
 92
       -2
340
0
 93
        0
 40
0.045
309
GRIDFORMAT_END
 95
        8
302
GRIDFORMAT
  1
GRIDFORMAT_BEGIN
 90
        0
 91
        1
 62
     0
 92
       -2
340
0
 93
        0
 40
0.045
309
GRIDFORMAT_END
 95
       16
302
GRIDFORMAT
  1
GRIDFORMAT_BEGIN
 90
        0
 91
        1
 62
     0
 92
       -2
340
0
 93
        0
 40
0.045
309
GRIDFORMAT_END
 95
       32
302
GRIDFORMAT
  1
GRIDFORMAT_BEGIN
 90
        0
 91
        1
 62
     0
 92
       -2
340
0
 93
        0
 40
0.045
309
GRIDFORMAT_END
309
TABLEFORMAT_END
  1
CELLSTYLE_BEGIN
 90
        1
 91
        1
300
_TITLE
309
CELLSTYLE_END
300
CELLSTYLE
  1
TABLEFORMAT_BEGIN
 90
        5
170
     1
 91
        0
 92
        0
 62
   257
 93
        1
300
CONTENTFORMAT
  1
CONTENTFORMAT_BEGIN
 90
        0
 91
        0
 92
      512
 93
        0
300

 40
0.0
140
1.0
 94
        5
 62
     0
340
11
144
0.18
309
CONTENTFORMAT_END
171
     1
301
MARGIN
  1
CELLMARGIN_BEGIN
 40
0.06
 40
0.06
 40
0.06
 40
0.06
 40
0.18
 40
0.18
309
CELLMARGIN_END
 94
        6
 95
        1
302
GRIDFORMAT
  1
GRIDFORMAT_BEGIN
 90
        0
 91
        1
 62
     0
 92
       -2
340
0
 93
        0
 40
0.045
309
GRIDFORMAT_END
 95
        2
302
GRIDFORMAT
  1
GRIDFORMAT_BEGIN
 90
        0
 91
        1
 62
     0
 92
       -2
340
0
 93
        0
 40
0.045
309
GRIDFORMAT_END
 95
        4
302
GRIDFORMAT
  1
GRIDFORMAT_BEGIN
 90
        0
 91
        1
 62
     0
 92
       -2
340
0
 93
        0
 40
0.045
309
GRIDFORMAT_END
 95
        8
302
GRIDFORMAT
  1
GRIDFORMAT_BEGIN
 90
        0
 91
        1
 62
     0
 92
       -2
340
0
 93
        0
 40
0.045
309
GRIDFORMAT_END
 95
       16
302
GRIDFORMAT
  1
GRIDFORMAT_BEGIN
 90
        0
 91
        1
 62
     0
 92
       -2
340
0
 93
        0
 40
0.045
309
GRIDFORMAT_END
 95
       32
302
GRIDFORMAT
  1
GRIDFORMAT_BEGIN
 90
        0
 91
        1
 62
     0
 92
       -2
340
0
 93
        0
 40
0.045
309
GRIDFORMAT_END
309
TABLEFORMAT_END
  1
CELLSTYLE_BEGIN
 90
        2
 91
        1
300
_HEADER
309
CELLSTYLE_END
300
CELLSTYLE
  1
TABLEFORMAT_BEGIN
 90
        5
170
     1
 91
        0
 92
        0
 62
   257
 93
        1
300
CONTENTFORMAT
  1
CONTENTFORMAT_BEGIN
 90
        0
 91
        0
 92
      512
 93
        0
300

 40
0.0
140
1.0
 94
        2
 62
     0
340
11
144
0.18
309
CONTENTFORMAT_END
171
     1
301
MARGIN
  1
CELLMARGIN_BEGIN
 40
0.06
 40
0.06
 40
0.06
 40
0.06
 40
0.18
 40
0.18
309
CELLMARGIN_END
 94
        6
 95
        1
302
GRIDFORMAT
  1
GRIDFORMAT_BEGIN
 90
        0
 91
        1
 62
     0
 92
       -2
340
0
 93
        0
 40
0.045
309
GRIDFORMAT_END
 95
        2
302
GRIDFORMAT
  1
GRIDFORMAT_BEGIN
 90
        0
 91
        1
 62
     0
 92
       -2
340
0
 93
        0
 40
0.045
309
GRIDFORMAT_END
 95
        4
302
GRIDFORMAT
  1
GRIDFORMAT_BEGIN
 90
        0
 91
        1
 62
     0
 92
       -2
340
0
 93
        0
 40
0.045
309
GRIDFORMAT_END
 95
        8
302
GRIDFORMAT
  1
GRIDFORMAT_BEGIN
 90
        0
 91
        1
 62
     0
 92
       -2
340
0
 93
        0
 40
0.045
309
GRIDFORMAT_END
 95
       16
302
GRIDFORMAT
  1
GRIDFORMAT_BEGIN
 90
        0
 91
        1
 62
     0
 92
       -2
340
0
 93
        0
 40
0.045
309
GRIDFORMAT_END
 95
       32
302
GRIDFORMAT
  1
GRIDFORMAT_BEGIN
 90
        0
 91
        1
 62
     0
 92
       -2
340
0
 93
        0
 40
0.045
309
GRIDFORMAT_END
309
TABLEFORMAT_END
  1
CELLSTYLE_BEGIN
 90
        3
 91
        2
300
_DATA
309
CELLSTYLE_END
  0
ENDSEC
  0
SECTION
  2
ACDSDATA
 70
     2
 71
     6
  0
ACDSSCHEMA
 90
        0
  1
AcDb_Thumbnail_Schema
  2
AcDbDs::ID
280
    10
 91
        8
  2
Thumbnail_Data
280
    15
 91
        0
101
ACDSRECORD
 95
        0
 90
        1
  2
AcDbDs::TreatedAsObjectData
280
     1
291
     1
101
ACDSRECORD
 95
        0
 90
        2
  2
AcDbDs::Legacy
280
     1
291
     1
101
ACDSRECORD
  1
AcDbDs::ID
 90
        3
  2
AcDs:Indexable
280
     1
291
     1
101
ACDSRECORD
  1
AcDbDs::ID
 90
        4
  2
AcDbDs::HandleAttribute
280
     7
282
     1
  0
ACDSSCHEMA
 90
        1
  1
AcDbDs::TreatedAsObjectDataSchema
  2
AcDbDs::TreatedAsObjectData
280
     1
 91
        0
  0
ACDSSCHEMA
 90
        2
  1
AcDbDs::LegacySchema
  2
AcDbDs::Legacy
280
     1
 91
        0
  0
ACDSSCHEMA
 90
        3
  1
AcDbDs::IndexedPropertySchema
  2
AcDs:Indexable
280
     1
 91
        0
  0
ACDSSCHEMA
 90
        4
  1
AcDbDs::HandleAttributeSchema
  2
AcDbDs::HandleAttribute
280
     7
 91
        1
284
     1
  0
ACDSRECORD
 90
        0
  2
AcDbDs::ID
280
    10
320
8A4C
  2
Thumbnail_Data
280
    15
 94
     1457
310
89504E470D0A1A0A0000000D49484452000001000000008A080300000072F0645E00000300504C5445000000000000FFFFFF0000000000000000000000000000000000000000000000000000330000660000990000CC0000FF0033000033330033660033990033CC0033FF0066000066330066660066990066CC0066FF0099
310
000099330099660099990099CC0099FF00CC0000CC3300CC6600CC9900CCCC00CCFF00FF0000FF3300FF6600FF9900FFCC00FFFF3300003300333300663300993300CC3300FF3333003333333333663333993333CC3333FF3366003366333366663366993366CC3366FF3399003399333399663399993399CC3399FF33CC00
310
33CC3333CC6633CC9933CCCC33CCFF33FF0033FF3333FF6633FF9933FFCC33FFFF6600006600336600666600996600CC6600FF6633006633336633666633996633CC6633FF6666006666336666666666996666CC6666FF6699006699336699666699996699CC6699FF66CC0066CC3366CC6666CC9966CCCC66CCFF66FF0066
310
FF3366FF6666FF9966FFCC66FFFF9900009900339900669900999900CC9900FF9933009933339933669933999933CC9933FF9966009966339966669966999966CC9966FF9999009999339999669999999999CC9999FF99CC0099CC3399CC6699CC9999CCCC99CCFF99FF0099FF3399FF6699FF9999FFCC99FFFFCC0000CC00
310
33CC0066CC0099CC00CCCC00FFCC3300CC3333CC3366CC3399CC33CCCC33FFCC6600CC6633CC6666CC6699CC66CCCC66FFCC9900CC9933CC9966CC9999CC99CCCC99FFCCCC00CCCC33CCCC66CCCC99CCCCCCCCCCFFCCFF00CCFF33CCFF66CCFF99CCFFCCCCFFFFFF0000FF0033FF0066FF0099FF00CCFF00FFFF3300FF3333
310
FF3366FF3399FF33CCFF33FFFF6600FF6633FF6666FF6699FF66CCFF66FFFF9900FF9933FF9966FF9999FF99CCFF99FFFFCC00FFCC33FFCC66FFCC99FFCCCCFFCCFFFFFF00FFFF33FFFF66FFFF99FFFFCCFFFFFF0000000D0D0D1A1A1A2828283535354343435050505D5D5D6B6B6B787878868686939393A1A1A1AEAEAEBB
310
BBBBC9C9C9D6D6D6E4E4E4F1F1F1FFFFFF000000000000000000000000000000000000000000000000000000000000C11FEF660000026C4944415478DAEDDC3D72C2301086616EE06BB8D1FD3B1A5D43954EB08DFB20C9C23F086228F77B7780100626A3272B6BF593DCB278DC0000000000000000000000B818E1D77003F0
310
E30F0200006F00D66FEA00260A605FE6804380252DEDD14C10E0D1E85401D20860798657007B44699E95B6CA02C40A90F500AC36BF00D4262A6640EB00B200ED02902B806417C8EA00B68E01A1DE43F800E0B50E68B3FBD85708F42A410000004018609A5E163CA71A3A19F0CB8AAFBF15A12F97BA1D02E4280EA09E01CF51
310
4017E06D8C0604003C7681A80A702E03CAF478FF16FF00A70C08C7ED91B0D68ACA007D5524957B4D10DF00C32EB003C87200B50BCCFD057700F37C00301B76813C6F2F99E23560DF667F008789B024409B0C0D00EAFA881CC07611B41180AB6130C618CAAD009467F5FB0D200E229B52068CAE0126740D30F5514005A01477
310
B19F917B03E0B7107A54827B8052186A01FC9F01E7ED02C92ED0CF08A4451D20795C0FF80460DB8A503923D2CE89F83A23148285FE705A136C00BBCEBFE2F8026819603D03F653412D001B03980680BDCD00CB1A1990C7006B5EAC8F6E01D61803ECC22B40FB1D5B7E0518843F80510B2F7CCE0DC02F21B53BEC1EA09D8A9B
310
625C9F4C7200F71AB17DB95FBA103803387481FB36D8012002900E00ADF45702482780DDB440B30B4C17FE881A00005C0368D501C3ED5FA30B0000806A2598E4004E9560D2AB044D7C2E000000E22B42F99401973FE70C60B431A402F0DCF5BABA2FE212E09B8D217686007003A0FE5F65BD05000000000000000000000000
310
000000000000000000000000000000000000000000000000000000000000000000000000E037FE00D11F260940772C9D0000000049454E44AE426082
  0
ENDSEC
  0
EOF
