  0
SECTION
  2
HEADER
  9
$ACADVER
  1
AC1027
  9
$ACADMAINTVER
 70
    55
  9
$DWGCODEPAGE
  3
ANSI_932
  9
$LASTSAVEDBY
  1
marketing
  9
$REQUIREDVERSIONS
160
                 0
  9
$INSBASE
 10
0.0
 20
0.0
 30
0.0
  9
$EXTMIN
 10
-0.0418579765869254
 20
-0.0129125747575927
 30
-0.0000000349181948
  9
$EXTMAX
 10
700.0541055200747
 20
1088.040429141417
 30
0.0000000814935747
  9
$LIMMIN
 10
-296.316999476111
 20
-370.7034300441653
  9
$LIMMAX
 10
623.3128432133979
 20
328.6261559379898
  9
$ORTHOMODE
 70
     1
  9
$REGENMODE
 70
     1
  9
$FILLMODE
 70
     1
  9
$QTEXTMODE
 70
     0
  9
$MIRRTEXT
 70
     1
  9
$LTSCALE
 40
10.0
  9
$ATTMODE
 70
     1
  9
$TEXTSIZE
 40
5.0
  9
$TRACEWID
 40
0.05
  9
$TEXTSTYLE
  7
STANDARD1
  9
$CLAYER
  8
30
  9
$CELTYPE
  6
BYLAYER
  9
$CECOLOR
 62
   256
  9
$CELTSCALE
 40
1.0
  9
$DISPSILH
 70
     0
  9
$DIMSCALE
 40
1.0
  9
$DIMASZ
 40
2.0
  9
$DIMEXO
 40
1.0
  9
$DIMDLI
 40
0.5
  9
$DIMRND
 40
0.0
  9
$DIMDLE
 40
0.0
  9
$DIMEXE
 40
0.5
  9
$DIMTP
 40
0.0
  9
$DIMTM
 40
0.0
  9
$DIMTXT
 40
8.0
  9
$DIMCEN
 40
0.09
  9
$DIMTSZ
 40
0.0
  9
$DIMTOL
 70
     0
  9
$DIMLIM
 70
     0
  9
$DIMTIH
 70
     0
  9
$DIMTOH
 70
     0
  9
$DIMSE1
 70
     0
  9
$DIMSE2
 70
     0
  9
$DIMTAD
 70
     3
  9
$DIMZIN
 70
    12
  9
$DIMBLK
  1
OPEN
  9
$DIMASO
 70
     1
  9
$DIMSHO
 70
     1
  9
$DIMPOST
  1

  9
$DIMAPOST
  1

  9
$DIMALT
 70
     0
  9
$DIMALTD
 70
     2
  9
$DIMALTF
 40
25.4
  9
$DIMLFAC
 40
1.0
  9
$DIMTOFL
 70
     0
  9
$DIMTVP
 40
0.0
  9
$DIMTIX
 70
     0
  9
$DIMSOXD
 70
     0
  9
$DIMSAH
 70
     0
  9
$DIMBLK1
  1

  9
$DIMBLK2
  1

  9
$DIMSTYLE
  2
STANDARD
  9
$DIMCLRD
 70
     0
  9
$DIMCLRE
 70
     0
  9
$DIMCLRT
 70
   256
  9
$DIMTFAC
 40
1.0
  9
$DIMGAP
 40
3.0
  9
$DIMJUST
 70
     0
  9
$DIMSD1
 70
     0
  9
$DIMSD2
 70
     0
  9
$DIMTOLJ
 70
     1
  9
$DIMTZIN
 70
     0
  9
$DIMALTZ
 70
     0
  9
$DIMALTTZ
 70
     0
  9
$DIMUPT
 70
     0
  9
$DIMDEC
 70
     1
  9
$DIMTDEC
 70
     1
  9
$DIMALTU
 70
     2
  9
$DIMALTTD
 70
     2
  9
$DIMTXSTY
  7
STANDARD
  9
$DIMAUNIT
 70
     0
  9
$DIMADEC
 70
     0
  9
$DIMALTRND
 40
0.0
  9
$DIMAZIN
 70
     0
  9
$DIMDSEP
 70
    46
  9
$DIMATFIT
 70
     3
  9
$DIMFRAC
 70
     0
  9
$DIMLDRBLK
  1
OPEN
  9
$DIMLUNIT
 70
     2
  9
$DIMLWD
 70
    -2
  9
$DIMLWE
 70
    -2
  9
$DIMTMOVE
 70
     0
  9
$DIMFXL
 40
1.0
  9
$DIMFXLON
 70
     0
  9
$DIMJOGANG
 40
0.7853981633974483
  9
$DIMTFILL
 70
     1
  9
$DIMTFILLCLR
 70
     0
  9
$DIMARCSYM
 70
     0
  9
$DIMLTYPE
  6

  9
$DIMLTEX1
  6

  9
$DIMLTEX2
  6

  9
$DIMTXTDIRECTION
 70
     0
  9
$LUNITS
 70
     2
  9
$LUPREC
 70
     4
  9
$SKETCHINC
 40
0.1
  9
$FILLETRAD
 40
0.0
  9
$AUNITS
 70
     0
  9
$AUPREC
 70
     0
  9
$MENU
  1
.
  9
$ELEVATION
 40
0.0
  9
$PELEVATION
 40
0.0
  9
$THICKNESS
 40
0.0
  9
$LIMCHECK
 70
     0
  9
$CHAMFERA
 40
0.0
  9
$CHAMFERB
 40
0.0
  9
$CHAMFERC
 40
0.0
  9
$CHAMFERD
 40
0.0
  9
$SKPOLY
 70
     0
  9
$TDCREATE
 40
2452286.555658658
  9
$TDUCREATE
 40
2452286.180658658
  9
$TDUPDATE
 40
2459244.431176736
  9
$TDUUPDATE
 40
2459244.056176736
  9
$TDINDWG
 40
1.9333285995
  9
$TDUSRTIMER
 40
1.9333259722
  9
$USRTIMER
 70
     1
  9
$ANGBASE
 50
0.0
  9
$ANGDIR
 70
     0
  9
$PDMODE
 70
     0
  9
$PDSIZE
 40
0.0
  9
$PLINEWID
 40
0.0
  9
$SPLFRAME
 70
     0
  9
$SPLINETYPE
 70
     6
  9
$SPLINESEGS
 70
     8
  9
$HANDSEED
  5
1DB07
  9
$SURFTAB1
 70
     6
  9
$SURFTAB2
 70
     6
  9
$SURFTYPE
 70
     6
  9
$SURFU
 70
     6
  9
$SURFV
 70
     6
  9
$UCSBASE
  2

  9
$UCSNAME
  2

  9
$UCSORG
 10
0.0
 20
0.0
 30
0.0
  9
$UCSXDIR
 10
1.0
 20
0.0
 30
0.0
  9
$UCSYDIR
 10
0.0
 20
1.0
 30
0.0
  9
$UCSORTHOREF
  2

  9
$UCSORTHOVIEW
 70
     0
  9
$UCSORGTOP
 10
0.0
 20
0.0
 30
0.0
  9
$UCSORGBOTTOM
 10
0.0
 20
0.0
 30
0.0
  9
$UCSORGLEFT
 10
0.0
 20
0.0
 30
0.0
  9
$UCSORGRIGHT
 10
0.0
 20
0.0
 30
0.0
  9
$UCSORGFRONT
 10
0.0
 20
0.0
 30
0.0
  9
$UCSORGBACK
 10
0.0
 20
0.0
 30
0.0
  9
$PUCSBASE
  2

  9
$PUCSNAME
  2

  9
$PUCSORG
 10
0.0
 20
0.0
 30
0.0
  9
$PUCSXDIR
 10
1.0
 20
0.0
 30
0.0
  9
$PUCSYDIR
 10
0.0
 20
1.0
 30
0.0
  9
$PUCSORTHOREF
  2

  9
$PUCSORTHOVIEW
 70
     0
  9
$PUCSORGTOP
 10
0.0
 20
0.0
 30
0.0
  9
$PUCSORGBOTTOM
 10
0.0
 20
0.0
 30
0.0
  9
$PUCSORGLEFT
 10
0.0
 20
0.0
 30
0.0
  9
$PUCSORGRIGHT
 10
0.0
 20
0.0
 30
0.0
  9
$PUCSORGFRONT
 10
0.0
 20
0.0
 30
0.0
  9
$PUCSORGBACK
 10
0.0
 20
0.0
 30
0.0
  9
$USERI1
 70
     0
  9
$USERI2
 70
     0
  9
$USERI3
 70
     0
  9
$USERI4
 70
     0
  9
$USERI5
 70
     0
  9
$USERR1
 40
0.0
  9
$USERR2
 40
0.0
  9
$USERR3
 40
0.0
  9
$USERR4
 40
0.0
  9
$USERR5
 40
0.0
  9
$WORLDVIEW
 70
     1
  9
$SHADEDGE
 70
     3
  9
$SHADEDIF
 70
    70
  9
$TILEMODE
 70
     1
  9
$MAXACTVP
 70
    48
  9
$PINSBASE
 10
0.0
 20
0.0
 30
0.0
  9
$PLIMCHECK
 70
     0
  9
$PEXTMIN
 10
4.273573
 20
5.205245999999998
 30
0.0
  9
$PEXTMAX
 10
194.610095
 20
283.0697009999996
 30
0.0
  9
$PLIMMIN
 10
-5.873749
 20
-5.87375
  9
$PLIMMAX
 10
204.099579
 20
291.1369009999999
  9
$UNITMODE
 70
     0
  9
$VISRETAIN
 70
     1
  9
$PLINEGEN
 70
     0
  9
$PSLTSCALE
 70
     1
  9
$TREEDEPTH
 70
  3020
  9
$CMLSTYLE
  2
STANDARD
  9
$CMLJUST
 70
     0
  9
$CMLSCALE
 40
1.0
  9
$PROXYGRAPHICS
 70
     1
  9
$MEASUREMENT
 70
     0
  9
$CELWEIGHT
370
    -1
  9
$ENDCAPS
280
     0
  9
$JOINSTYLE
280
     0
  9
$LWDISPLAY
290
     0
  9
$INSUNITS
 70
     0
  9
$HYPERLINKBASE
  1

  9
$STYLESHEET
  1
MONOCHROME.CTB
  9
$XEDIT
290
     1
  9
$CEPSNTYPE
380
     0
  9
$PSTYLEMODE
290
     1
  9
$FINGERPRINTGUID
  2

  9
$VERSIONGUID
  2
{8927286E-7F25-4AB3-B8C7-9CDAD3235D85}
  9
$EXTNAMES
290
     1
  9
$PSVPSCALE
 40
0.0
  9
$OLESTARTUP
290
     0
  9
$SORTENTS
280
   127
  9
$INDEXCTL
280
     0
  9
$HIDETEXT
280
     0
  9
$XCLIPFRAME
280
     2
  9
$HALOGAP
280
     0
  9
$OBSCOLOR
 70
   257
  9
$OBSLTYPE
280
     0
  9
$INTERSECTIONDISPLAY
280
     0
  9
$INTERSECTIONCOLOR
 70
   257
  9
$DIMASSOC
280
     1
  9
$PROJECTNAME
  1

  9
$CAMERADISPLAY
290
     0
  9
$LENSLENGTH
 40
50.0
  9
$CAMERAHEIGHT
 40
0.0
  9
$STEPSPERSEC
 40
2.0
  9
$STEPSIZE
 40
6.0
  9
$3DDWFPREC
 40
2.0
  9
$PSOLWIDTH
 40
0.25
  9
$PSOLHEIGHT
 40
4.0
  9
$LOFTANG1
 40
1.570796326794896
  9
$LOFTANG2
 40
1.570796326794896
  9
$LOFTMAG1
 40
0.0
  9
$LOFTMAG2
 40
0.0
  9
$LOFTPARAM
 70
     7
  9
$LOFTNORMALS
280
     1
  9
$LATITUDE
 40
37.795
  9
$LONGITUDE
 40
-122.394
  9
$NORTHDIRECTION
 40
0.0
  9
$TIMEZONE
 70
 -8000
  9
$LIGHTGLYPHDISPLAY
280
     1
  9
$TILEMODELIGHTSYNCH
280
     1
  9
$CMATERIAL
347
8A59
  9
$SOLIDHIST
280
     0
  9
$SHOWHIST
280
     1
  9
$DWFFRAME
280
     2
  9
$DGNFRAME
280
     0
  9
$REALWORLDSCALE
290
     1
  9
$INTERFERECOLOR
 62
     1
  9
$INTERFEREOBJVS
345
8A7B
  9
$INTERFEREVPVS
346
8A78
  9
$CSHADOW
280
     0
  9
$SHADOWPLANELOCATION
 40
0.0
  0
ENDSEC
  0
SECTION
  2
CLASSES
  0
CLASS
  1
ACDBDICTIONARYWDFLT
  2
AcDbDictionaryWithDefault
  3
ObjectDBX Classes
 90
        0
 91
        1
280
     0
281
     0
  0
CLASS
  1
DICTIONARYVAR
  2
AcDbDictionaryVar
  3
ObjectDBX Classes
 90
        0
 91
       10
280
     0
281
     0
  0
CLASS
  1
MATERIAL
  2
AcDbMaterial
  3
ObjectDBX Classes
 90
     1153
 91
        3
280
     0
281
     0
  0
CLASS
  1
VISUALSTYLE
  2
AcDbVisualStyle
  3
ObjectDBX Classes
 90
     4095
 91
       26
280
     0
281
     0
  0
CLASS
  1
TABLESTYLE
  2
AcDbTableStyle
  3
ObjectDBX Classes
 90
     4095
 91
        1
280
     0
281
     0
  0
CLASS
  1
SCALE
  2
AcDbScale
  3
ObjectDBX Classes
 90
     1153
 91
       17
280
     0
281
     0
  0
CLASS
  1
MLEADERSTYLE
  2
AcDbMLeaderStyle
  3
ACDB_MLEADERSTYLE_CLASS
 90
     4095
 91
        1
280
     0
281
     0
  0
CLASS
  1
ACDBSECTIONVIEWSTYLE
  2
AcDbSectionViewStyle
  3
ObjectDBX Classes
 90
     1025
 91
        1
280
     0
281
     0
  0
CLASS
  1
ACDBDETAILVIEWSTYLE
  2
AcDbDetailViewStyle
  3
ObjectDBX Classes
 90
     1025
 91
        1
280
     0
281
     0
  0
CLASS
  1
CELLSTYLEMAP
  2
AcDbCellStyleMap
  3
ObjectDBX Classes
 90
     1152
 91
        2
280
     0
281
     0
  0
CLASS
  1
AEC_REFEDIT_STATUS_TRACKER
  2
AecDbRefEditStatusTracker
  3
AecArchBase70|Product Desc: Autodesk Architectural Desktop 2007 |Company: Autodesk,Inc. |WEB Address: www.autodesk.com
 90
      129
 91
        0
280
     0
281
     0
  0
CLASS
  1
NPOCOLLECTION
  2
AcDbImpNonPersistentObjectsCollection
  3
ObjectDBX Classes
 90
     1153
 91
        0
280
     0
281
     0
  0
CLASS
  1
SORTENTSTABLE
  2
AcDbSortentsTable
  3
ObjectDBX Classes
 90
        0
 91
        4
280
     0
281
     0
  0
ENDSEC
  0
SECTION
  2
TABLES
  0
TABLE
  2
VPORT
  5
8
330
0
100
AcDbSymbolTable
 70
     1
  0
VPORT
  5
8A51
330
8
100
AcDbSymbolTableRecord
100
AcDbViewportTableRecord
  2
*Active
 70
     0
 10
0.0
 20
0.0
 11
1.0
 21
1.0
 12
350.0061237717438
 22
544.0137582833297
 13
0.0
 23
0.0
 14
1.0
 24
1.0
 15
10.0
 25
10.0
 16
0.0
 26
0.0
 36
1.0
 17
0.0
 27
0.0
 37
0.0
 40
1095.918787559906
 41
2.289505428226779
 42
50.0
 43
0.0
 44
0.0
 50
0.0
 51
0.0
 71
     0
 72
   100
 73
     1
 74
     1
 75
     0
 76
     0
 77
     0
 78
     0
281
     0
 65
     1
110
0.0
120
0.0
130
0.0
111
1.0
121
0.0
131
0.0
112
0.0
122
1.0
132
0.0
 79
     0
146
0.0
348
8A77
 60
     3
 61
     5
292
     1
282
     1
141
0.0
142
0.0
 63
   250
421
  3355443
1001
ACAD_NAV_VCDISPLAY
1070
     3
  0
ENDTAB
  0
TABLE
  2
LTYPE
  5
5
330
0
100
AcDbSymbolTable
 70
     8
  0
LTYPE
  5
13
330
5
100
AcDbSymbolTableRecord
100
AcDbLinetypeTableRecord
  2
BYBLOCK
 70
     0
  3

 72
    65
 73
     0
 40
0.0
  0
LTYPE
  5
14
330
5
100
AcDbSymbolTableRecord
100
AcDbLinetypeTableRecord
  2
BYLAYER
 70
     0
  3

 72
    65
 73
     0
 40
0.0
  0
LTYPE
  5
15
330
5
100
AcDbSymbolTableRecord
100
AcDbLinetypeTableRecord
  2
CONTINUOUS
 70
     0
  3
Solid line
 72
    65
 73
     0
 40
0.0
  0
LTYPE
  5
22
330
5
100
AcDbSymbolTableRecord
100
AcDbLinetypeTableRecord
  2
CONTINOUS
 70
     0
  3
Solid line
 72
    65
 73
     0
 40
0.0
  0
LTYPE
  5
24
330
5
100
AcDbSymbolTableRecord
100
AcDbLinetypeTableRecord
  2
DASHDOT
 70
     0
  3
__ . __ . __ . __ . __ . __ . __ . __ . __ . __
 72
    65
 73
     4
 40
1.0
 49
0.5
 74
     0
 49
-0.25
 74
     0
 49
0.0
 74
     0
 49
-0.25
 74
     0
  0
LTYPE
  5
4C47
330
5
100
AcDbSymbolTableRecord
100
AcDbLinetypeTableRecord
  2
DIVIDE
 70
     0
  3
Divide ____ . . ____ . . ____ . . ____ . . ____
 72
    65
 73
     6
 40
1.25
 49
0.5
 74
     0
 49
-0.25
 74
     0
 49
0.0
 74
     0
 49
-0.25
 74
     0
 49
0.0
 74
     0
 49
-0.25
 74
     0
  0
LTYPE
  5
912E
330
5
100
AcDbSymbolTableRecord
100
AcDbLinetypeTableRecord
  2
SLD-実線
 70
     0
  3
SolidWorks Line Style
 72
    65
 73
     0
 40
0.0
  0
LTYPE
  5
1CA7E
330
5
100
AcDbSymbolTableRecord
100
AcDbLinetypeTableRecord
  2
DASHED
 70
     0
  3
__ __ __ __ __ __ __ __ __ __ __ __ __ __ __
 72
    65
 73
     2
 40
0.75
 49
0.5
 74
     0
 49
-0.25
 74
     0
  0
LTYPE
  5
1CA7F
330
5
100
AcDbSymbolTableRecord
100
AcDbLinetypeTableRecord
  2
SLD-破線
 70
     0
  3
SolidWorks Line Style
 72
    65
 73
     2
 40
1.905
 49
1.27
 74
     0
 49
-0.635
 74
     0
  0
ENDTAB
  0
TABLE
  2
LAYER
  5
2
102
{ACAD_XDICTIONARY
360
F3CC
102
}
330
0
100
AcDbSymbolTable
 70
    12
  0
LAYER
  5
10
102
{ACAD_XDICTIONARY
360
8ACC
102
}
330
2
100
AcDbSymbolTableRecord
100
AcDbLayerTableRecord
  2
0
 70
     0
 62
     7
  6
CONTINOUS
370
    -3
390
F
347
8A69
348
0
  0
LAYER
  5
2F
102
{ACAD_XDICTIONARY
360
8ACE
102
}
330
2
100
AcDbSymbolTableRecord
100
AcDbLayerTableRecord
  2
10
 70
     0
 62
     4
  6
CONTINOUS
370
    -3
390
F
347
8A69
348
0
  0
LAYER
  5
35
102
{ACAD_XDICTIONARY
360
8AD2
102
}
330
2
100
AcDbSymbolTableRecord
100
AcDbLayerTableRecord
  2
16
 70
     0
 62
     6
  6
DASHDOT
370
    -3
390
F
347
8A69
348
0
  0
LAYER
  5
38
102
{ACAD_XDICTIONARY
360
8AD4
102
}
330
2
100
AcDbSymbolTableRecord
100
AcDbLayerTableRecord
  2
19
 70
     0
 62
     7
  6
CONTINOUS
370
    -3
390
F
347
8A69
348
0
  0
LAYER
  5
3D
102
{ACAD_XDICTIONARY
360
8AD6
102
}
330
2
100
AcDbSymbolTableRecord
100
AcDbLayerTableRecord
  2
24
 70
     0
 62
     7
  6
CONTINOUS
370
    -3
390
F
347
8A69
348
0
  0
LAYER
  5
3A2
102
{ACAD_XDICTIONARY
360
8AD8
102
}
330
2
100
AcDbSymbolTableRecord
100
AcDbLayerTableRecord
  2
30
 70
     0
 62
     9
  6
CONTINUOUS
370
    -3
390
F
347
8A69
348
0
  0
LAYER
  5
3A4
330
2
100
AcDbSymbolTableRecord
100
AcDbLayerTableRecord
  2
DEFPOINTS
 70
     0
 62
     7
  6
CONTINUOUS
290
     0
370
    -3
390
F
347
8A69
348
0
  0
LAYER
  5
3BBA
102
{ACAD_XDICTIONARY
360
8ADA
102
}
330
2
100
AcDbSymbolTableRecord
100
AcDbLayerTableRecord
  2
18
 70
     0
 62
     5
  6
DIVIDE
370
    -3
390
F
347
8A69
348
0
  0
LAYER
  5
67A8
102
{ACAD_XDICTIONARY
360
8ADC
102
}
330
2
100
AcDbSymbolTableRecord
100
AcDbLayerTableRecord
  2
11
 70
     0
 62
     1
  6
CONTINOUS
370
    -3
390
F
347
8A69
348
0
  0
LAYER
  5
7837
102
{ACAD_XDICTIONARY
360
8ADE
102
}
330
2
100
AcDbSymbolTableRecord
100
AcDbLayerTableRecord
  2
17
 70
     0
 62
     2
  6
DASHDOT
370
    -3
390
F
347
8A69
348
0
  0
LAYER
  5
9133
102
{ACAD_XDICTIONARY
360
9134
102
}
330
2
100
AcDbSymbolTableRecord
100
AcDbLayerTableRecord
  2
240
 70
     0
 62
     7
  6
SLD-実線
370
    -3
390
F
347
8A69
348
0
  0
LAYER
  5
1CA80
102
{ACAD_XDICTIONARY
360
1CA81
102
}
330
2
100
AcDbSymbolTableRecord
100
AcDbLayerTableRecord
  2
12
 70
     0
 62
     3
  6
CONTINOUS
370
    -3
390
F
347
8A69
348
0
  0
ENDTAB
  0
TABLE
  2
STYLE
  5
3
330
0
100
AcDbSymbolTable
 70
     3
  0
STYLE
  5
11
330
3
100
AcDbSymbolTableRecord
100
AcDbTextStyleTableRecord
  2
STANDARD
 70
     0
 40
0.0
 41
1.0
 50
0.0
 71
     0
 42
2.0
  3
txt.shx
  4
bigfont.shx
  0
STYLE
  5
42
330
3
100
AcDbSymbolTableRecord
100
AcDbTextStyleTableRecord
  2
STANDARD1
 70
     0
 40
0.0
 41
1.0
 50
0.0
 71
     0
 42
5.0
  3
MONOTXT
  4
BIGFONT
  0
STYLE
  5
1CFC3
330
3
100
AcDbSymbolTableRecord
100
AcDbTextStyleTableRecord
  2
SLDTEXTSTYLE0
 70
     0
 40
0.0
 41
1.0
 50
0.0
 71
     0
 42
3.5
  3
MS UI Gothic.ttf
  4

1001
ACAD
1000
MS UI Gothic
1071
      306
  0
ENDTAB
  0
TABLE
  2
VIEW
  5
6
330
0
100
AcDbSymbolTable
 70
     3
  0
VIEW
  5
230C
330
6
100
AcDbSymbolTableRecord
100
AcDbViewTableRecord
  2
OLE1
 70
     0
 40
148.912488
 10
429.497628
 20
2.560627
 41
103.145806
 11
0.0
 21
0.0
 31
1.0
 12
0.0
 22
0.0
 32
0.0
 42
50.0
 43
0.0
 44
0.0
 50
0.0
 71
     0
281
     0
 72
     0
 73
     0
348
8A77
  0
VIEW
  5
230E
330
6
100
AcDbSymbolTableRecord
100
AcDbViewTableRecord
  2
OLE2
 70
     0
 40
170.778692
 10
322.66497
 20
-5.978304
 41
102.467215
 11
0.0
 21
0.0
 31
1.0
 12
0.0
 22
0.0
 32
0.0
 42
50.0
 43
0.0
 44
0.0
 50
0.0
 71
     0
281
     0
 72
     0
 73
     0
348
8A77
  0
VIEW
  5
23AA
330
6
100
AcDbSymbolTableRecord
100
AcDbViewTableRecord
  2
OLE3
 70
     0
 40
591.7897389999998
 10
84.79698199999999
 20
-46.09335999999998
 41
388.792096
 11
0.0
 21
0.0
 31
1.0
 12
0.0
 22
0.0
 32
0.0
 42
50.0
 43
0.0
 44
0.0
 50
0.0
 71
     0
281
     0
 72
     0
 73
     0
348
8A77
  0
ENDTAB
  0
TABLE
  2
UCS
  5
7
330
0
100
AcDbSymbolTable
 70
     0
  0
ENDTAB
  0
TABLE
  2
APPID
  5
9
330
0
100
AcDbSymbolTable
 70
    13
  0
APPID
  5
12
330
9
100
AcDbSymbolTableRecord
100
AcDbRegAppTableRecord
  2
ACAD
 70
     0
  0
APPID
  5
ECD
330
9
100
AcDbSymbolTableRecord
100
AcDbRegAppTableRecord
  2
CONTENTBLOCKICON
 70
     0
  0
APPID
  5
8AA9
330
9
100
AcDbSymbolTableRecord
100
AcDbRegAppTableRecord
  2
ACAD_NAV_VCDISPLAY
 70
     0
  0
APPID
  5
1038A
330
9
100
AcDbSymbolTableRecord
100
AcDbRegAppTableRecord
  2
ACAD_EXEMPT_FROM_CAD_STANDARDS
 70
     0
  0
APPID
  5
10D03
330
9
100
AcDbSymbolTableRecord
100
AcDbRegAppTableRecord
  2
ACAD_PSEXT
 70
     0
  0
APPID
  5
1147C
330
9
100
AcDbSymbolTableRecord
100
AcDbRegAppTableRecord
  2
ACAD_DSTYLE_DIMJAG
 70
     0
  0
APPID
  5
1147D
330
9
100
AcDbSymbolTableRecord
100
AcDbRegAppTableRecord
  2
ACAD_DSTYLE_DIMTALN
 70
     0
  0
APPID
  5
16BC0
330
9
100
AcDbSymbolTableRecord
100
AcDbRegAppTableRecord
  2
DCO15
 70
     0
  0
APPID
  5
16BC1
330
9
100
AcDbSymbolTableRecord
100
AcDbRegAppTableRecord
  2
ACAD_MLEADERVER
 70
     0
  0
APPID
  5
16BC2
330
9
100
AcDbSymbolTableRecord
100
AcDbRegAppTableRecord
  2
ACAD_DSTYLE_DIMBREAK
 70
     0
  0
APPID
  5
17476
330
9
100
AcDbSymbolTableRecord
100
AcDbRegAppTableRecord
  2
ACAUTHENVIRON
 70
     0
  0
APPID
  5
1C1A7
330
9
100
AcDbSymbolTableRecord
100
AcDbRegAppTableRecord
  2
ACAD_DSTYLE_DIMRADIAL_EXTENSION
 70
     0
  0
APPID
  5
1D6F3
330
9
100
AcDbSymbolTableRecord
100
AcDbRegAppTableRecord
  2
AcadAnnoMonitorAlertIconDisabled
 70
     0
  0
ENDTAB
  0
TABLE
  2
DIMSTYLE
  5
A
330
0
100
AcDbSymbolTable
 70
     3
100
AcDbDimStyleTable
 71
     2
340
175
340
1171B
  0
DIMSTYLE
105
175
102
{ACAD_REACTORS
330
1D2EC
330
1D2EE
330
1D307
330
1D308
330
1D309
330
1D30A
330
1D31A
330
1D31E
330
1D320
330
1D323
330
1D324
330
1D35D
330
1D35E
330
1D35F
330
1D360
330
1D361
330
1D362
330
1D375
330
1D376
330
1D377
330
1D379
330
1D37A
330
1D37B
330
1D380
330
1D381
330
1D1BF
330
1D1C0
330
1D1C1
330
1D1C3
330
1D1D2
330
1D1D3
330
1D1D5
330
1D20B
330
1D6E6
330
1D31D
330
1D31F
330
1D7D2
330
1DAF6
102
}
330
A
100
AcDbSymbolTableRecord
100
AcDbDimStyleTableRecord
  2
STANDARD
 70
     0
 41
2.0
 42
1.0
 43
0.5
 44
0.5
 69
     1
 73
     0
 74
     0
 77
     3
 78
    12
140
8.0
147
3.0
178
   256
271
     1
272
     1
340
11
341
3B2
342
3B2
1001
ACAD_DSTYLE_DIMJAG
1070
   388
1040
1.5
1001
ACAD_DSTYLE_DIMTALN
1070
   392
1070
     0
  0
DIMSTYLE
105
1171B
102
{ACAD_REACTORS
330
1D31C
330
1D382
102
}
330
A
100
AcDbSymbolTableRecord
100
AcDbDimStyleTableRecord
  2
STANDARD1
 70
     0
 41
2.0
 42
3.0
 43
0.5
 44
0.5
 77
     3
 78
    12
140
8.0
147
3.0
172
     1
271
     1
272
     1
289
     2
340
11
341
3B2
342
3B2
1001
ACAD_DSTYLE_DIMJAG
1070
   388
1040
1.5
1001
ACAD_DSTYLE_DIMTALN
1070
   392
1070
     0
  0
ENDTAB
  0
TABLE
  2
BLOCK_RECORD
  5
1
330
0
100
AcDbSymbolTable
 70
    53
  0
BLOCK_RECORD
  5
1E
102
{ACAD_XDICTIONARY
360
178
102
}
330
1
100
AcDbSymbolTableRecord
100
AcDbBlockTableRecord
  2
*MODEL_SPACE
340
8A4C
 70
     0
280
     1
281
     0
  0
BLOCK_RECORD
  5
1A
102
{ACAD_XDICTIONARY
360
17A
102
}
330
1
100
AcDbSymbolTableRecord
100
AcDbBlockTableRecord
  2
*PAPER_SPACE
340
8A4D
 70
     0
280
     1
281
     0
  0
BLOCK_RECORD
  5
3B2
330
1
100
AcDbSymbolTableRecord
100
AcDbBlockTableRecord
  2
_OPEN
340
0
102
{BLKREFS
331
1DAF0
331
1DAF1
331
1DAFD
331
1DAFE
331
1D570
331
1D571
331
1D579
331
1D57A
331
1D581
331
1D5E2
331
1D5E3
331
1D5EC
331
1D5ED
331
1D62B
331
1D62C
331
1D7B1
331
1D7B2
331
1D7BA
331
1D7BB
331
1D7CC
331
1D7CD
331
1D7E2
331
1D7E3
331
1D7F9
331
1D800
331
1D807
331
1D808
331
1D810
331
1D811
331
1D819
331
1D81A
331
1D82B
331
1D82C
331
1D834
331
1D835
331
1D83E
331
1D83F
331
1D847
331
1D848
331
1D859
331
1D85A
331
1D863
331
1D864
331
1D86D
331
1D86E
331
1D66C
331
1D66D
331
1D685
331
1D686
331
1D697
331
1D698
331
1D69F
331
1D6A7
331
1D6A8
331
1D6B0
331
1D6B1
331
1D6BA
331
1D6BB
331
1D6C2
331
1D6C3
331
1D748
331
1D749
331
1D751
331
1D752
331
1D760
331
1D768
331
1D769
331
1D78D
331
1D78E
331
1D796
331
1D797
331
1D79F
331
1D7A0
331
1D715
331
1D716
331
1D724
331
1D725
331
1D72D
331
1D72E
331
1D736
331
1D737
331
1D73F
331
1D740
102
}
 70
     0
280
     1
281
     0
  0
BLOCK_RECORD
  5
1C95B
330
1
100
AcDbSymbolTableRecord
100
AcDbBlockTableRecord
  2
SW_CENTERMARKSYMBOL_20
340
0
102
{BLKREFS
331
1D363
331
1D36F
102
}
 70
     0
280
     1
281
     0
  0
BLOCK_RECORD
  5
1C966
330
1
100
AcDbSymbolTableRecord
100
AcDbBlockTableRecord
  2
SW_CENTERMARKSYMBOL_21
340
0
102
{BLKREFS
331
1D364
331
1D370
102
}
 70
     0
280
     1
281
     0
  0
BLOCK_RECORD
  5
1C971
330
1
100
AcDbSymbolTableRecord
100
AcDbBlockTableRecord
  2
SW_CENTERMARKSYMBOL_22
340
0
102
{BLKREFS
331
1D365
331
1D371
102
}
 70
     0
280
     1
281
     0
  0
BLOCK_RECORD
  5
1C97C
330
1
100
AcDbSymbolTableRecord
100
AcDbBlockTableRecord
  2
SW_CENTERMARKSYMBOL_23
340
0
102
{BLKREFS
331
1D366
331
1D372
102
}
 70
     0
280
     1
281
     0
  0
BLOCK_RECORD
  5
1D385
330
1
100
AcDbSymbolTableRecord
100
AcDbBlockTableRecord
  2
*D5
340
0
 70
     0
280
     1
281
     0
  0
BLOCK_RECORD
  5
1D391
330
1
100
AcDbSymbolTableRecord
100
AcDbBlockTableRecord
  2
*D6
340
0
 70
     0
280
     1
281
     0
  0
BLOCK_RECORD
  5
1D39D
330
1
100
AcDbSymbolTableRecord
100
AcDbBlockTableRecord
  2
*D7
340
0
 70
     0
280
     1
281
     0
  0
BLOCK_RECORD
  5
1D3A7
330
1
100
AcDbSymbolTableRecord
100
AcDbBlockTableRecord
  2
*D8
340
0
 70
     0
280
     1
281
     0
  0
BLOCK_RECORD
  5
1D3B3
330
1
100
AcDbSymbolTableRecord
100
AcDbBlockTableRecord
  2
*D9
340
0
 70
     0
280
     1
281
     0
  0
BLOCK_RECORD
  5
1D3C0
330
1
100
AcDbSymbolTableRecord
100
AcDbBlockTableRecord
  2
*D10
340
0
 70
     0
280
     1
281
     0
  0
BLOCK_RECORD
  5
1D3CC
330
1
100
AcDbSymbolTableRecord
100
AcDbBlockTableRecord
  2
*D11
340
0
 70
     0
280
     1
281
     0
  0
BLOCK_RECORD
  5
1D3D8
330
1
100
AcDbSymbolTableRecord
100
AcDbBlockTableRecord
  2
*D12
340
0
 70
     0
280
     1
281
     0
  0
BLOCK_RECORD
  5
1D3E4
330
1
100
AcDbSymbolTableRecord
100
AcDbBlockTableRecord
  2
*D13
340
0
 70
     0
280
     1
281
     0
  0
BLOCK_RECORD
  5
1D3EE
330
1
100
AcDbSymbolTableRecord
100
AcDbBlockTableRecord
  2
*D14
340
0
 70
     0
280
     1
281
     0
  0
BLOCK_RECORD
  5
1D3F9
330
1
100
AcDbSymbolTableRecord
100
AcDbBlockTableRecord
  2
*D15
340
0
 70
     0
280
     1
281
     0
  0
BLOCK_RECORD
  5
1D406
330
1
100
AcDbSymbolTableRecord
100
AcDbBlockTableRecord
  2
*D16
340
0
 70
     0
280
     1
281
     0
  0
BLOCK_RECORD
  5
1D412
330
1
100
AcDbSymbolTableRecord
100
AcDbBlockTableRecord
  2
*D17
340
0
 70
     0
280
     1
281
     0
  0
BLOCK_RECORD
  5
1D41E
330
1
100
AcDbSymbolTableRecord
100
AcDbBlockTableRecord
  2
*D18
340
0
 70
     0
280
     1
281
     0
  0
BLOCK_RECORD
  5
1D42A
330
1
100
AcDbSymbolTableRecord
100
AcDbBlockTableRecord
  2
*D19
340
0
 70
     0
280
     1
281
     0
  0
BLOCK_RECORD
  5
1D437
330
1
100
AcDbSymbolTableRecord
100
AcDbBlockTableRecord
  2
*D20
340
0
 70
     0
280
     1
281
     0
  0
BLOCK_RECORD
  5
1D443
330
1
100
AcDbSymbolTableRecord
100
AcDbBlockTableRecord
  2
*D21
340
0
 70
     0
280
     1
281
     0
  0
BLOCK_RECORD
  5
1D44F
330
1
100
AcDbSymbolTableRecord
100
AcDbBlockTableRecord
  2
*D22
340
0
 70
     0
280
     1
281
     0
  0
BLOCK_RECORD
  5
1D45B
330
1
100
AcDbSymbolTableRecord
100
AcDbBlockTableRecord
  2
*D23
340
0
 70
     0
280
     1
281
     0
  0
BLOCK_RECORD
  5
1D467
330
1
100
AcDbSymbolTableRecord
100
AcDbBlockTableRecord
  2
*D24
340
0
 70
     0
280
     1
281
     0
  0
BLOCK_RECORD
  5
1D473
330
1
100
AcDbSymbolTableRecord
100
AcDbBlockTableRecord
  2
*D25
340
0
 70
     0
280
     1
281
     0
  0
BLOCK_RECORD
  5
1D47F
330
1
100
AcDbSymbolTableRecord
100
AcDbBlockTableRecord
  2
*D26
340
0
 70
     0
280
     1
281
     0
  0
BLOCK_RECORD
  5
1D48B
330
1
100
AcDbSymbolTableRecord
100
AcDbBlockTableRecord
  2
*D27
340
0
 70
     0
280
     1
281
     0
  0
BLOCK_RECORD
  5
1D497
330
1
100
AcDbSymbolTableRecord
100
AcDbBlockTableRecord
  2
*D28
340
0
 70
     0
280
     1
281
     0
  0
BLOCK_RECORD
  5
1D4A4
330
1
100
AcDbSymbolTableRecord
100
AcDbBlockTableRecord
  2
*D29
340
0
 70
     0
280
     1
281
     0
  0
BLOCK_RECORD
  5
1D4B0
330
1
100
AcDbSymbolTableRecord
100
AcDbBlockTableRecord
  2
*D30
340
0
 70
     0
280
     1
281
     0
  0
BLOCK_RECORD
  5
1D4BC
330
1
100
AcDbSymbolTableRecord
100
AcDbBlockTableRecord
  2
*D31
340
0
 70
     0
280
     1
281
     0
  0
BLOCK_RECORD
  5
1D4C9
330
1
100
AcDbSymbolTableRecord
100
AcDbBlockTableRecord
  2
*D32
340
0
 70
     0
280
     1
281
     0
  0
BLOCK_RECORD
  5
1D4D5
330
1
100
AcDbSymbolTableRecord
100
AcDbBlockTableRecord
  2
*D33
340
0
 70
     0
280
     1
281
     0
  0
BLOCK_RECORD
  5
1D4E1
330
1
100
AcDbSymbolTableRecord
100
AcDbBlockTableRecord
  2
*D34
340
0
 70
     0
280
     1
281
     0
  0
BLOCK_RECORD
  5
1D4EB
330
1
100
AcDbSymbolTableRecord
100
AcDbBlockTableRecord
  2
*D35
340
0
 70
     0
280
     1
281
     0
  0
BLOCK_RECORD
  5
1D4F7
330
1
100
AcDbSymbolTableRecord
100
AcDbBlockTableRecord
  2
*D36
340
0
 70
     0
280
     1
281
     0
  0
BLOCK_RECORD
  5
1D503
330
1
100
AcDbSymbolTableRecord
100
AcDbBlockTableRecord
  2
*D37
340
0
 70
     0
280
     1
281
     0
  0
BLOCK_RECORD
  5
1D50F
330
1
100
AcDbSymbolTableRecord
100
AcDbBlockTableRecord
  2
*D38
340
0
 70
     0
280
     1
281
     0
  0
BLOCK_RECORD
  5
1D51B
330
1
100
AcDbSymbolTableRecord
100
AcDbBlockTableRecord
  2
*D39
340
0
 70
     0
280
     1
281
     0
  0
BLOCK_RECORD
  5
1D525
330
1
100
AcDbSymbolTableRecord
100
AcDbBlockTableRecord
  2
*D40
340
0
 70
     0
280
     1
281
     0
  0
BLOCK_RECORD
  5
1D531
330
1
100
AcDbSymbolTableRecord
100
AcDbBlockTableRecord
  2
*D41
340
0
 70
     0
280
     1
281
     0
  0
BLOCK_RECORD
  5
1D53D
330
1
100
AcDbSymbolTableRecord
100
AcDbBlockTableRecord
  2
*D42
340
0
 70
     0
280
     1
281
     0
  0
BLOCK_RECORD
  5
1D549
330
1
100
AcDbSymbolTableRecord
100
AcDbBlockTableRecord
  2
*D43
340
0
 70
     0
280
     1
281
     0
  0
BLOCK_RECORD
  5
1D555
330
1
100
AcDbSymbolTableRecord
100
AcDbBlockTableRecord
  2
*D44
340
0
 70
     0
280
     1
281
     0
  0
BLOCK_RECORD
  5
1D561
330
1
100
AcDbSymbolTableRecord
100
AcDbBlockTableRecord
  2
*D45
340
0
 70
     0
280
     1
281
     0
  0
BLOCK_RECORD
  5
1D6E7
330
1
100
AcDbSymbolTableRecord
100
AcDbBlockTableRecord
  2
*D46
340
0
 70
     0
280
     1
281
     0
  0
BLOCK_RECORD
  5
1D7D3
330
1
100
AcDbSymbolTableRecord
100
AcDbBlockTableRecord
  2
*D47
340
0
 70
     0
280
     1
281
     0
  0
BLOCK_RECORD
  5
1DAF7
330
1
100
AcDbSymbolTableRecord
100
AcDbBlockTableRecord
  2
*D52
340
0
 70
     0
280
     1
281
     0
  0
ENDTAB
  0
ENDSEC
  0
SECTION
  2
BLOCKS
  0
BLOCK
  5
1F
330
1E
100
AcDbEntity
  8
0
100
AcDbBlockBegin
  2
*MODEL_SPACE
 70
     0
 10
0.0
 20
0.0
 30
0.0
  3
*MODEL_SPACE
  1

  0
ENDBLK
  5
20
330
1E
100
AcDbEntity
  8
0
100
AcDbBlockEnd
  0
BLOCK
  5
1B
330
1A
100
AcDbEntity
 67
     1
  8
0
100
AcDbBlockBegin
  2
*PAPER_SPACE
 70
     0
 10
0.0
 20
0.0
 30
0.0
  3
*PAPER_SPACE
  1

  0
ENDBLK
  5
1C
330
1A
100
AcDbEntity
 67
     1
  8
0
100
AcDbBlockEnd
  0
BLOCK
  5
3B6
330
3B2
100
AcDbEntity
  8
0
100
AcDbBlockBegin
  2
_OPEN
 70
     0
 10
0.0
 20
0.0
 30
0.0
  3
_OPEN
  1

  0
LINE
  5
3B3
330
3B2
100
AcDbEntity
  8
30
  6
Continuous
 62
     0
100
AcDbLine
 10
-1.0
 20
0.166667
 30
0.0
 11
0.0
 21
0.0
 31
0.0
  0
LINE
  5
3B4
330
3B2
100
AcDbEntity
  8
30
  6
Continuous
 62
     0
100
AcDbLine
 10
-1.0
 20
-0.166667
 30
0.0
 11
0.0
 21
0.0
 31
0.0
  0
LINE
  5
3B5
330
3B2
100
AcDbEntity
  8
30
  6
Continuous
 62
     0
100
AcDbLine
 10
0.0
 20
0.0
 30
0.0
 11
-1.0
 21
0.0
 31
0.0
  0
ENDBLK
  5
3B7
330
3B2
100
AcDbEntity
  8
0
100
AcDbBlockEnd
  0
BLOCK
  5
1C95C
330
1C95B
100
AcDbEntity
  8
0
100
AcDbBlockBegin
  2
SW_CENTERMARKSYMBOL_20
 70
     0
 10
0.0
 20
0.0
 30
0.0
  3
SW_CENTERMARKSYMBOL_20
  1
SW_CENTERMARKSYMBOL_20
  0
LINE
  5
1C95D
330
1C95B
100
AcDbEntity
  8
240
 62
     0
100
AcDbLine
 10
0.0
 20
0.0
 30
0.0
 11
0.0
 21
0.5
 31
0.0
  0
LINE
  5
1C95E
330
1C95B
100
AcDbEntity
  8
240
 62
     0
100
AcDbLine
 10
0.0
 20
0.0
 30
0.0
 11
-0.5
 21
0.0
 31
0.0
  0
LINE
  5
1C95F
330
1C95B
100
AcDbEntity
  8
240
 62
     0
100
AcDbLine
 10
0.0
 20
0.0
 30
0.0
 11
0.0
 21
-0.5
 31
0.0
  0
LINE
  5
1C960
330
1C95B
100
AcDbEntity
  8
240
 62
     0
100
AcDbLine
 10
0.0
 20
0.0
 30
0.0
 11
0.5
 21
0.0
 31
0.0
  0
LINE
  5
1C961
330
1C95B
100
AcDbEntity
  8
240
 62
     0
100
AcDbLine
 10
0.0
 20
1.0
 30
0.0
 11
0.0
 21
1.9
 31
0.0
  0
LINE
  5
1C962
330
1C95B
100
AcDbEntity
  8
240
 62
     0
100
AcDbLine
 10
-1.0
 20
0.0
 30
0.0
 11
-1.9
 21
0.0
 31
0.0
  0
LINE
  5
1C963
330
1C95B
100
AcDbEntity
  8
240
 62
     0
100
AcDbLine
 10
0.0
 20
-1.0
 30
0.0
 11
0.0
 21
-1.9
 31
0.0
  0
LINE
  5
1C964
330
1C95B
100
AcDbEntity
  8
240
 62
     0
100
AcDbLine
 10
1.0
 20
0.0
 30
0.0
 11
1.9
 21
0.0
 31
0.0
  0
ENDBLK
  5
1C965
330
1C95B
100
AcDbEntity
  8
0
100
AcDbBlockEnd
  0
BLOCK
  5
1C967
330
1C966
100
AcDbEntity
  8
0
100
AcDbBlockBegin
  2
SW_CENTERMARKSYMBOL_21
 70
     0
 10
0.0
 20
0.0
 30
0.0
  3
SW_CENTERMARKSYMBOL_21
  1
SW_CENTERMARKSYMBOL_21
  0
LINE
  5
1C968
330
1C966
100
AcDbEntity
  8
240
 62
     0
100
AcDbLine
 10
0.0
 20
0.0
 30
0.0
 11
0.0
 21
0.5
 31
0.0
  0
LINE
  5
1C969
330
1C966
100
AcDbEntity
  8
240
 62
     0
100
AcDbLine
 10
0.0
 20
0.0
 30
0.0
 11
-0.5
 21
0.0
 31
0.0
  0
LINE
  5
1C96A
330
1C966
100
AcDbEntity
  8
240
 62
     0
100
AcDbLine
 10
0.0
 20
0.0
 30
0.0
 11
0.0
 21
-0.5
 31
0.0
  0
LINE
  5
1C96B
330
1C966
100
AcDbEntity
  8
240
 62
     0
100
AcDbLine
 10
0.0
 20
0.0
 30
0.0
 11
0.5
 21
0.0
 31
0.0
  0
LINE
  5
1C96C
330
1C966
100
AcDbEntity
  8
240
 62
     0
100
AcDbLine
 10
0.0
 20
1.0
 30
0.0
 11
0.0
 21
1.9
 31
0.0
  0
LINE
  5
1C96D
330
1C966
100
AcDbEntity
  8
240
 62
     0
100
AcDbLine
 10
-1.0
 20
0.0
 30
0.0
 11
-1.9
 21
0.0
 31
0.0
  0
LINE
  5
1C96E
330
1C966
100
AcDbEntity
  8
240
 62
     0
100
AcDbLine
 10
0.0
 20
-1.0
 30
0.0
 11
0.0
 21
-1.9
 31
0.0
  0
LINE
  5
1C96F
330
1C966
100
AcDbEntity
  8
240
 62
     0
100
AcDbLine
 10
1.0
 20
0.0
 30
0.0
 11
1.9
 21
0.0
 31
0.0
  0
ENDBLK
  5
1C970
330
1C966
100
AcDbEntity
  8
0
100
AcDbBlockEnd
  0
BLOCK
  5
1C972
330
1C971
100
AcDbEntity
  8
0
100
AcDbBlockBegin
  2
SW_CENTERMARKSYMBOL_22
 70
     0
 10
0.0
 20
0.0
 30
0.0
  3
SW_CENTERMARKSYMBOL_22
  1
SW_CENTERMARKSYMBOL_22
  0
LINE
  5
1C973
330
1C971
100
AcDbEntity
  8
240
 62
     0
100
AcDbLine
 10
0.0
 20
0.0
 30
0.0
 11
0.0
 21
0.5
 31
0.0
  0
LINE
  5
1C974
330
1C971
100
AcDbEntity
  8
240
 62
     0
100
AcDbLine
 10
0.0
 20
0.0
 30
0.0
 11
-0.5
 21
0.0
 31
0.0
  0
LINE
  5
1C975
330
1C971
100
AcDbEntity
  8
240
 62
     0
100
AcDbLine
 10
0.0
 20
0.0
 30
0.0
 11
0.0
 21
-0.5
 31
0.0
  0
LINE
  5
1C976
330
1C971
100
AcDbEntity
  8
240
 62
     0
100
AcDbLine
 10
0.0
 20
0.0
 30
0.0
 11
0.5
 21
0.0
 31
0.0
  0
LINE
  5
1C977
330
1C971
100
AcDbEntity
  8
240
 62
     0
100
AcDbLine
 10
0.0
 20
1.0
 30
0.0
 11
0.0
 21
1.9
 31
0.0
  0
LINE
  5
1C978
330
1C971
100
AcDbEntity
  8
240
 62
     0
100
AcDbLine
 10
-1.0
 20
0.0
 30
0.0
 11
-1.9
 21
0.0
 31
0.0
  0
LINE
  5
1C979
330
1C971
100
AcDbEntity
  8
240
 62
     0
100
AcDbLine
 10
0.0
 20
-1.0
 30
0.0
 11
0.0
 21
-1.9
 31
0.0
  0
LINE
  5
1C97A
330
1C971
100
AcDbEntity
  8
240
 62
     0
100
AcDbLine
 10
1.0
 20
0.0
 30
0.0
 11
1.9
 21
0.0
 31
0.0
  0
ENDBLK
  5
1C97B
330
1C971
100
AcDbEntity
  8
0
100
AcDbBlockEnd
  0
BLOCK
  5
1C97D
330
1C97C
100
AcDbEntity
  8
0
100
AcDbBlockBegin
  2
SW_CENTERMARKSYMBOL_23
 70
     0
 10
0.0
 20
0.0
 30
0.0
  3
SW_CENTERMARKSYMBOL_23
  1
SW_CENTERMARKSYMBOL_23
  0
LINE
  5
1C97E
330
1C97C
100
AcDbEntity
  8
240
 62
     0
100
AcDbLine
 10
0.0
 20
0.0
 30
0.0
 11
0.0
 21
0.5
 31
0.0
  0
LINE
  5
1C97F
330
1C97C
100
AcDbEntity
  8
240
 62
     0
100
AcDbLine
 10
0.0
 20
0.0
 30
0.0
 11
-0.5
 21
0.0
 31
0.0
  0
LINE
  5
1C980
330
1C97C
100
AcDbEntity
  8
240
 62
     0
100
AcDbLine
 10
0.0
 20
0.0
 30
0.0
 11
0.0
 21
-0.5
 31
0.0
  0
LINE
  5
1C981
330
1C97C
100
AcDbEntity
  8
240
 62
     0
100
AcDbLine
 10
0.0
 20
0.0
 30
0.0
 11
0.5
 21
0.0
 31
0.0
  0
LINE
  5
1C982
330
1C97C
100
AcDbEntity
  8
240
 62
     0
100
AcDbLine
 10
0.0
 20
1.0
 30
0.0
 11
0.0
 21
1.9
 31
0.0
  0
LINE
  5
1C983
330
1C97C
100
AcDbEntity
  8
240
 62
     0
100
AcDbLine
 10
-1.0
 20
0.0
 30
0.0
 11
-1.9
 21
0.0
 31
0.0
  0
LINE
  5
1C984
330
1C97C
100
AcDbEntity
  8
240
 62
     0
100
AcDbLine
 10
0.0
 20
-1.0
 30
0.0
 11
0.0
 21
-1.9
 31
0.0
  0
LINE
  5
1C985
330
1C97C
100
AcDbEntity
  8
240
 62
     0
100
AcDbLine
 10
1.0
 20
0.0
 30
0.0
 11
1.9
 21
0.0
 31
0.0
  0
ENDBLK
  5
1C986
330
1C97C
100
AcDbEntity
  8
0
100
AcDbBlockEnd
  0
BLOCK
  5
1D386
330
1D385
100
AcDbEntity
  8
0
100
AcDbBlockBegin
  2
*D5
 70
     1
 10
0.0
 20
0.0
 30
0.0
  3
*D5
  1

  0
LINE
  5
1D56D
330
1D385
100
AcDbEntity
  8
30
  6
Continuous
 62
     0
440
 16777216
370
    -2
100
AcDbLine
 10
552.1598456858654
 20
854.8358036458772
 30
0.0
 11
510.5450423250323
 21
854.8358036458772
 31
0.0
  0
LINE
  5
1D56E
330
1D385
100
AcDbEntity
  8
30
  6
Continuous
 62
     0
440
 16777216
370
    -2
100
AcDbLine
 10
536.159845685866
 20
842.8358036458773
 30
0.0
 11
510.5450423250323
 21
842.8358036458773
 31
0.0
  0
LINE
  5
1D56F
330
1D385
100
AcDbEntity
  8
30
  6
Continuous
 62
     0
440
 16777216
370
    -2
100
AcDbLine
 10
511.0450423250325
 20
852.8358036458772
 30
0.0
 11
511.0450423250325
 21
844.8358036458772
 31
0.0
  0
INSERT
  5
1D570
330
1D385
100
AcDbEntity
  8
30
  6
Continuous
 62
     0
440
 16777216
370
    -2
100
AcDbBlockReference
  2
_OPEN
 10
511.0450423250325
 20
854.8358036458772
 30
0.0
 41
2.0
 42
2.0
 43
2.0
 50
90.0
  0
INSERT
  5
1D571
330
1D385
100
AcDbEntity
  8
30
  6
Continuous
 62
     0
440
 16777216
370
    -2
100
AcDbBlockReference
  2
_OPEN
 10
511.0450423250325
 20
842.8358036458773
 30
0.0
 41
2.0
 42
2.0
 43
2.0
 50
270.0
  0
MTEXT
  5
1D572
330
1D385
100
AcDbEntity
  8
30
  6
Continuous
440
 16777216
100
AcDbMText
 10
486.7117089916988
 20
848.8358036458773
 30
0.0
 40
8.0
 41
0.0
 46
0.0
 71
     2
 72
     1
  1
\A1;12\P(MAX.)
 11
0.0000000000000001
 21
1.0
 31
0.0
 73
     1
 44
1.0
 90
        3
 63
     9
421
 13158600
 45
1.25
441
        0
  0
POINT
  5
1D573
330
1D385
100
AcDbEntity
  8
DEFPOINTS
  6
Continuous
 62
     0
440
 16777216
100
AcDbPoint
 10
553.1598456858654
 20
854.8358036458772
 30
0.0
  0
POINT
  5
1D574
330
1D385
100
AcDbEntity
  8
DEFPOINTS
  6
Continuous
 62
     0
440
 16777216
100
AcDbPoint
 10
537.1598456858658
 20
842.8358036458773
 30
0.0
  0
POINT
  5
1D575
330
1D385
100
AcDbEntity
  8
DEFPOINTS
  6
Continuous
 62
     0
440
 16777216
100
AcDbPoint
 10
511.0450423250325
 20
842.8358036458773
 30
0.0
  0
ENDBLK
  5
1D387
330
1D385
100
AcDbEntity
  8
0
100
AcDbBlockEnd
  0
BLOCK
  5
1D392
330
1D391
100
AcDbEntity
  8
0
100
AcDbBlockBegin
  2
*D6
 70
     1
 10
0.0
 20
0.0
 30
0.0
  3
*D6
  1

  0
LINE
  5
1D576
330
1D391
100
AcDbEntity
  8
30
  6
Continuous
 62
     0
440
 16777216
370
    -2
100
AcDbLine
 10
537.1598456858658
 20
841.8358036458773
 30
0.0
 11
537.1598456858658
 21
816.6336942048589
 31
0.0
  0
LINE
  5
1D577
330
1D391
100
AcDbEntity
  8
30
  6
Continuous
 62
     0
440
 16777216
370
    -2
100
AcDbLine
 10
569.1598456858654
 20
841.8358036458773
 30
0.0
 11
569.1598456858654
 21
816.6336942048589
 31
0.0
  0
LINE
  5
1D578
330
1D391
100
AcDbEntity
  8
30
  6
Continuous
 62
     0
440
 16777216
370
    -2
100
AcDbLine
 10
539.159845685866
 20
817.133694204859
 30
0.0
 11
567.1598456858654
 21
817.133694204859
 31
0.0
  0
INSERT
  5
1D579
330
1D391
100
AcDbEntity
  8
30
  6
Continuous
 62
     0
440
 16777216
370
    -2
100
AcDbBlockReference
  2
_OPEN
 10
537.1598456858658
 20
817.133694204859
 30
0.0
 41
2.0
 42
2.0
 43
2.0
 50
180.0
  0
INSERT
  5
1D57A
330
1D391
100
AcDbEntity
  8
30
  6
Continuous
 62
     0
440
 16777216
370
    -2
100
AcDbBlockReference
  2
_OPEN
 10
569.1598456858654
 20
817.133694204859
 30
0.0
 41
2.0
 42
2.0
 43
2.0
  0
MTEXT
  5
1D57B
330
1D391
100
AcDbEntity
  8
30
  6
Continuous
440
 16777216
100
AcDbMText
 10
553.1598456858658
 20
841.4670275381922
 30
0.0
 40
8.0
 41
0.0
 46
0.0
 71
     2
 72
     1
  1
\A1;32\P(MAX.)
 73
     1
 44
1.0
 90
        3
 63
     9
421
 13158600
 45
1.25
441
        0
  0
POINT
  5
1D57C
330
1D391
100
AcDbEntity
  8
DEFPOINTS
  6
Continuous
 62
     0
440
 16777216
100
AcDbPoint
 10
537.1598456858658
 20
842.8358036458773
 30
0.0
  0
POINT
  5
1D57D
330
1D391
100
AcDbEntity
  8
DEFPOINTS
  6
Continuous
 62
     0
440
 16777216
100
AcDbPoint
 10
569.1598456858654
 20
842.8358036458773
 30
0.0
  0
POINT
  5
1D57E
330
1D391
100
AcDbEntity
  8
DEFPOINTS
  6
Continuous
 62
     0
440
 16777216
100
AcDbPoint
 10
569.1598456858654
 20
817.133694204859
 30
0.0
  0
ENDBLK
  5
1D393
330
1D391
100
AcDbEntity
  8
0
100
AcDbBlockEnd
  0
BLOCK
  5
1D39E
330
1D39D
100
AcDbEntity
  8
0
100
AcDbBlockBegin
  2
*D7
 70
     1
 10
0.0
 20
0.0
 30
0.0
  3
*D7
  1

  0
LINE
  5
1D57F
330
1D39D
100
AcDbEntity
  8
30
  6
Continuous
 62
     0
440
 16777216
370
    -2
100
AcDbLine
 10
603.027945514232
 20
887.5446662331176
 30
0.0
 11
559.4311899926244
 21
858.9492256504433
 31
0.0
  0
MTEXT
  5
1D580
330
1D39D
100
AcDbEntity
  8
30
  6
Continuous
440
 16777216
100
AcDbMText
 10
581.1075209974068
 20
886.3219688044127
 30
0.0
 40
8.0
 41
0.0
 46
0.0
 71
     1
 72
     1
  1
\A1;∅11
 11
0.8361792408795219
 21
0.5484562672831322
 31
0.0
 73
     1
 44
1.0
 90
        3
 63
     9
421
 13158600
 45
1.25
441
        0
  0
INSERT
  5
1D581
330
1D39D
100
AcDbEntity
  8
30
  6
Continuous
 62
     0
440
 16777216
370
    -2
100
AcDbBlockReference
  2
_OPEN
 10
557.7588315108653
 20
857.8523131158769
 30
0.0
 41
2.0
 42
2.0
 43
2.0
 50
213.2611707850247
  0
LINE
  5
1D582
330
1D39D
100
AcDbEntity
  8
30
  6
Continuous
 62
     0
440
 16777216
370
    -2
100
AcDbLine
 10
553.0698456861151
 20
854.8358036458772
 30
0.0
 11
553.2498456861153
 21
854.8358036458772
 31
0.0
  0
LINE
  5
1D583
330
1D39D
100
AcDbEntity
  8
30
  6
Continuous
 62
     0
440
 16777216
370
    -2
100
AcDbLine
 10
553.1598456861155
 20
854.745803645877
 30
0.0
 11
553.1598456861153
 21
854.9258036458772
 31
0.0
  0
POINT
  5
1D584
330
1D39D
100
AcDbEntity
  8
DEFPOINTS
  6
Continuous
 62
     0
440
 16777216
100
AcDbPoint
 10
557.7588315108653
 20
857.8523131158769
 30
0.0
  0
POINT
  5
1D585
330
1D39D
100
AcDbEntity
  8
DEFPOINTS
  6
Continuous
 62
     0
440
 16777216
100
AcDbPoint
 10
548.5608598613652
 20
851.8192941758771
 30
0.0
  0
ENDBLK
  5
1D39F
330
1D39D
100
AcDbEntity
  8
0
100
AcDbBlockEnd
  0
BLOCK
  5
1D3A8
330
1D3A7
100
AcDbEntity
  8
0
100
AcDbBlockBegin
  2
*D8
 70
     1
 10
0.0
 20
0.0
 30
0.0
  3
*D8
  1

  0
LINE
  5
1D828
330
1D3A7
100
AcDbEntity
  8
30
  6
Continuous
 62
     0
440
 16777216
370
    -2
100
AcDbLine
 10
471.8414797030712
 20
582.5166654762173
 30
0.0
 11
471.8414797030712
 21
340.2099935750211
 31
0.0
  0
LINE
  5
1D829
330
1D3A7
100
AcDbEntity
  8
30
  6
Continuous
 62
     0
440
 16777216
370
    -2
100
AcDbLine
 10
601.8414797030714
 20
463.2376198117171
 30
0.0
 11
601.8414797030714
 21
340.2099935750211
 31
0.0
  0
LINE
  5
1D82A
330
1D3A7
100
AcDbEntity
  8
30
  6
Continuous
 62
     0
440
 16777216
370
    -2
100
AcDbLine
 10
473.8414797030713
 20
340.7099935750212
 30
0.0
 11
599.8414797030712
 21
340.7099935750212
 31
0.0
  0
INSERT
  5
1D82B
330
1D3A7
100
AcDbEntity
  8
30
  6
Continuous
 62
     0
440
 16777216
370
    -2
100
AcDbBlockReference
  2
_OPEN
 10
471.8414797030712
 20
340.7099935750212
 30
0.0
 41
2.0
 42
2.0
 43
2.0
 50
180.0
  0
INSERT
  5
1D82C
330
1D3A7
100
AcDbEntity
  8
30
  6
Continuous
 62
     0
440
 16777216
370
    -2
100
AcDbBlockReference
  2
_OPEN
 10
601.8414797030714
 20
340.7099935750212
 30
0.0
 41
2.0
 42
2.0
 43
2.0
  0
MTEXT
  5
1D82D
330
1D3A7
100
AcDbEntity
  8
30
  6
Continuous
440
 16777216
100
AcDbMText
 10
536.8414797030713
 20
351.7099935750211
 30
0.0
 40
8.0
 41
0.0
 46
0.0
 71
     2
 72
     1
  1
\A1;130
 73
     1
 44
1.0
 90
        3
 63
     9
421
 13158600
 45
1.25
441
        0
  0
POINT
  5
1D82E
330
1D3A7
100
AcDbEntity
  8
DEFPOINTS
  6
Continuous
 62
     0
440
 16777216
100
AcDbPoint
 10
471.8414797030712
 20
583.5166654762173
 30
0.0
  0
POINT
  5
1D82F
330
1D3A7
100
AcDbEntity
  8
DEFPOINTS
  6
Continuous
 62
     0
440
 16777216
100
AcDbPoint
 10
601.8414797030714
 20
464.2376198117171
 30
0.0
  0
POINT
  5
1D830
330
1D3A7
100
AcDbEntity
  8
DEFPOINTS
  6
Continuous
 62
     0
440
 16777216
100
AcDbPoint
 10
601.8414797030714
 20
340.7099935750212
 30
0.0
  0
ENDBLK
  5
1D3A9
330
1D3A7
100
AcDbEntity
  8
0
100
AcDbBlockEnd
  0
BLOCK
  5
1D3B4
330
1D3B3
100
AcDbEntity
  8
0
100
AcDbBlockBegin
  2
*D9
 70
     1
 10
0.0
 20
0.0
 30
0.0
  3
*D9
  1

  0
LINE
  5
1D869
330
1D3B3
100
AcDbEntity
  8
30
  6
Continuous
 62
     0
440
 16777216
370
    -2
100
AcDbLine
 10
601.8414768420711
 20
452.1093561932173
 30
0.0
 11
601.8414768420711
 21
391.1176353940441
 31
0.0
  0
LINE
  5
1D86A
330
1D3B3
100
AcDbEntity
  8
30
  6
Continuous
 62
     0
440
 16777216
370
    -2
100
AcDbLine
 10
616.5414797030712
 20
471.9107108987171
 30
0.0
 11
616.5414797030712
 21
391.1176353940441
 31
0.0
  0
LINE
  5
1D86B
330
1D3B3
100
AcDbEntity
  8
30
  6
Continuous
 62
     0
440
 16777216
370
    -2
100
AcDbLine
 10
603.8414768420712
 20
391.6176353940441
 30
0.0
 11
614.5414797030712
 21
391.6176353940441
 31
0.0
  0
LINE
  5
1D86C
330
1D3B3
100
AcDbEntity
  8
30
  6
Continuous
 62
     0
440
 16777216
370
    -2
100
AcDbLine
 10
616.5414797030712
 20
391.6176353940441
 30
0.0
 11
645.8748158974048
 21
391.6176353940441
 31
0.0
  0
INSERT
  5
1D86D
330
1D3B3
100
AcDbEntity
  8
30
  6
Continuous
 62
     0
440
 16777216
370
    -2
100
AcDbBlockReference
  2
_OPEN
 10
601.8414768420711
 20
391.6176353940441
 30
0.0
 41
2.0
 42
2.0
 43
2.0
 50
180.0
  0
INSERT
  5
1D86E
330
1D3B3
100
AcDbEntity
  8
30
  6
Continuous
 62
     0
440
 16777216
370
    -2
100
AcDbBlockReference
  2
_OPEN
 10
616.5414797030712
 20
391.6176353940441
 30
0.0
 41
2.0
 42
2.0
 43
2.0
  0
MTEXT
  5
1D86F
330
1D3B3
100
AcDbEntity
  8
30
  6
Continuous
440
 16777216
100
AcDbMText
 10
632.2081492307379
 20
402.617635394044
 30
0.0
 40
8.0
 41
0.0
 46
0.0
 71
     2
 72
     1
  1
\A1;14.7
 73
     1
 44
1.0
 90
        3
 63
     9
421
 13158600
 45
1.25
441
        0
  0
POINT
  5
1D870
330
1D3B3
100
AcDbEntity
  8
DEFPOINTS
  6
Continuous
 62
     0
440
 16777216
100
AcDbPoint
 10
601.8414768420711
 20
453.1093561932173
 30
0.0
  0
POINT
  5
1D871
330
1D3B3
100
AcDbEntity
  8
DEFPOINTS
  6
Continuous
 62
     0
440
 16777216
100
AcDbPoint
 10
616.5414797030712
 20
472.9107108987171
 30
0.0
  0
POINT
  5
1D872
330
1D3B3
100
AcDbEntity
  8
DEFPOINTS
  6
Continuous
 62
     0
440
 16777216
100
AcDbPoint
 10
616.5414797030712
 20
391.6176353940441
 30
0.0
  0
ENDBLK
  5
1D3B5
330
1D3B3
100
AcDbEntity
  8
0
100
AcDbBlockEnd
  0
BLOCK
  5
1D3C1
330
1D3C0
100
AcDbEntity
  8
0
100
AcDbBlockBegin
  2
*D10
 70
     1
 10
0.0
 20
0.0
 30
0.0
  3
*D10
  1

  0
LINE
  5
1D831
330
1D3C0
100
AcDbEntity
  8
30
  6
Continuous
 62
     0
440
 16777216
370
    -2
100
AcDbLine
 10
494.8414789285711
 20
538.1408276842168
 30
0.0
 11
494.8414789285711
 21
358.5763091176955
 31
0.0
  0
LINE
  5
1D832
330
1D3C0
100
AcDbEntity
  8
30
  6
Continuous
 62
     0
440
 16777216
370
    -2
100
AcDbLine
 10
601.8414768420711
 20
452.1093561932173
 30
0.0
 11
601.8414768420711
 21
358.5763091176955
 31
0.0
  0
LINE
  5
1D833
330
1D3C0
100
AcDbEntity
  8
30
  6
Continuous
 62
     0
440
 16777216
370
    -2
100
AcDbLine
 10
496.8414789285709
 20
359.0763091176955
 30
0.0
 11
599.8414768420712
 21
359.0763091176955
 31
0.0
  0
INSERT
  5
1D834
330
1D3C0
100
AcDbEntity
  8
30
  6
Continuous
 62
     0
440
 16777216
370
    -2
100
AcDbBlockReference
  2
_OPEN
 10
494.8414789285711
 20
359.0763091176955
 30
0.0
 41
2.0
 42
2.0
 43
2.0
 50
180.0
  0
INSERT
  5
1D835
330
1D3C0
100
AcDbEntity
  8
30
  6
Continuous
 62
     0
440
 16777216
370
    -2
100
AcDbBlockReference
  2
_OPEN
 10
601.8414768420711
 20
359.0763091176955
 30
0.0
 41
2.0
 42
2.0
 43
2.0
  0
MTEXT
  5
1D836
330
1D3C0
100
AcDbEntity
  8
30
  6
Continuous
440
 16777216
100
AcDbMText
 10
546.3414797030709
 20
370.0763091176955
 30
0.0
 40
8.0
 41
0.0
 46
0.0
 71
     2
 72
     1
  1
\A1;107
 73
     1
 44
1.0
 90
        3
 63
     9
421
 13158600
 45
1.25
441
        0
  0
POINT
  5
1D837
330
1D3C0
100
AcDbEntity
  8
DEFPOINTS
  6
Continuous
 62
     0
440
 16777216
100
AcDbPoint
 10
494.8414789285711
 20
539.1408276842168
 30
0.0
  0
POINT
  5
1D838
330
1D3C0
100
AcDbEntity
  8
DEFPOINTS
  6
Continuous
 62
     0
440
 16777216
100
AcDbPoint
 10
601.8414768420711
 20
453.1093561932173
 30
0.0
  0
POINT
  5
1D839
330
1D3C0
100
AcDbEntity
  8
DEFPOINTS
  6
Continuous
 62
     0
440
 16777216
100
AcDbPoint
 10
601.8414768420711
 20
359.0763091176955
 30
0.0
  0
ENDBLK
  5
1D3C2
330
1D3C0
100
AcDbEntity
  8
0
100
AcDbBlockEnd
  0
BLOCK
  5
1D3CD
330
1D3CC
100
AcDbEntity
  8
0
100
AcDbBlockBegin
  2
*D11
 70
     1
 10
0.0
 20
0.0
 30
0.0
  3
*D11
  1

  0
LINE
  5
1D844
330
1D3CC
100
AcDbEntity
  8
30
  6
Continuous
 62
     0
440
 16777216
370
    -2
100
AcDbLine
 10
504.8414797030712
 20
453.695142630717
 30
0.0
 11
504.8414797030712
 21
372.8919776661096
 31
0.0
  0
LINE
  5
1D845
330
1D3CC
100
AcDbEntity
  8
30
  6
Continuous
 62
     0
440
 16777216
370
    -2
100
AcDbLine
 10
601.8414768420711
 20
452.1093561932173
 30
0.0
 11
601.8414768420711
 21
372.8919776661096
 31
0.0
  0
LINE
  5
1D846
330
1D3CC
100
AcDbEntity
  8
30
  6
Continuous
 62
     0
440
 16777216
370
    -2
100
AcDbLine
 10
506.8414797030713
 20
373.3919776661096
 30
0.0
 11
599.8414768420712
 21
373.3919776661096
 31
0.0
  0
INSERT
  5
1D847
330
1D3CC
100
AcDbEntity
  8
30
  6
Continuous
 62
     0
440
 16777216
370
    -2
100
AcDbBlockReference
  2
_OPEN
 10
504.8414797030712
 20
373.3919776661096
 30
0.0
 41
2.0
 42
2.0
 43
2.0
 50
180.0
  0
INSERT
  5
1D848
330
1D3CC
100
AcDbEntity
  8
30
  6
Continuous
 62
     0
440
 16777216
370
    -2
100
AcDbBlockReference
  2
_OPEN
 10
601.8414768420711
 20
373.3919776661096
 30
0.0
 41
2.0
 42
2.0
 43
2.0
  0
MTEXT
  5
1D849
330
1D3CC
100
AcDbEntity
  8
30
  6
Continuous
440
 16777216
100
AcDbMText
 10
549.3414797030713
 20
384.3919776661096
 30
0.0
 40
8.0
 41
0.0
 46
0.0
 71
     2
 72
     1
  1
\A1;97
 73
     1
 44
1.0
 90
        3
 63
     9
421
 13158600
 45
1.25
441
        0
  0
POINT
  5
1D84A
330
1D3CC
100
AcDbEntity
  8
DEFPOINTS
  6
Continuous
 62
     0
440
 16777216
100
AcDbPoint
 10
504.8414797030712
 20
454.6951426307169
 30
0.0
  0
POINT
  5
1D84B
330
1D3CC
100
AcDbEntity
  8
DEFPOINTS
  6
Continuous
 62
     0
440
 16777216
100
AcDbPoint
 10
601.8414768420711
 20
453.1093561932173
 30
0.0
  0
POINT
  5
1D84C
330
1D3CC
100
AcDbEntity
  8
DEFPOINTS
  6
Continuous
 62
     0
440
 16777216
100
AcDbPoint
 10
601.8414768420711
 20
373.3919776661096
 30
0.0
  0
ENDBLK
  5
1D3CE
330
1D3CC
100
AcDbEntity
  8
0
100
AcDbBlockEnd
  0
BLOCK
  5
1D3D9
330
1D3D8
100
AcDbEntity
  8
0
100
AcDbBlockBegin
  2
*D12
 70
     1
 10
0.0
 20
0.0
 30
0.0
  3
*D12
  1

  0
LINE
  5
1D7B7
330
1D3D8
100
AcDbEntity
  8
30
  6
Continuous
 62
     0
440
 16777216
370
    -2
100
AcDbLine
 10
483.7700523499842
 20
628.1093561932172
 30
0.0
 11
420.5778523626586
 21
628.1093561932172
 31
0.0
  0
LINE
  5
1D7B8
330
1D3D8
100
AcDbEntity
  8
30
  6
Continuous
 62
     0
440
 16777216
370
    -2
100
AcDbLine
 10
481.8989514073
 20
538.1093561932173
 30
0.0
 11
420.5778523626586
 21
538.1093561932173
 31
0.0
  0
LINE
  5
1D7B9
330
1D3D8
100
AcDbEntity
  8
30
  6
Continuous
 62
     0
440
 16777216
370
    -2
100
AcDbLine
 10
421.0778523626586
 20
626.1093561932171
 30
0.0
 11
421.0778523626586
 21
540.1093561932173
 31
0.0
  0
INSERT
  5
1D7BA
330
1D3D8
100
AcDbEntity
  8
30
  6
Continuous
 62
     0
440
 16777216
370
    -2
100
AcDbBlockReference
  2
_OPEN
 10
421.0778523626586
 20
628.1093561932172
 30
0.0
 41
2.0
 42
2.0
 43
2.0
 50
90.0
  0
INSERT
  5
1D7BB
330
1D3D8
100
AcDbEntity
  8
30
  6
Continuous
 62
     0
440
 16777216
370
    -2
100
AcDbBlockReference
  2
_OPEN
 10
421.0778523626586
 20
538.1093561932173
 30
0.0
 41
2.0
 42
2.0
 43
2.0
 50
270.0
  0
MTEXT
  5
1D7BC
330
1D3D8
100
AcDbEntity
  8
30
  6
Continuous
440
 16777216
100
AcDbMText
 10
414.0778523626586
 20
583.1093561932174
 30
0.0
 40
8.0
 41
0.0
 46
0.0
 71
     5
 72
     1
  1
\A1;90
 11
0.0000000000000001
 21
1.0
 31
0.0
 73
     1
 44
1.0
 90
        3
 63
     9
421
 13158600
 45
1.25
441
        0
  0
POINT
  5
1D7BD
330
1D3D8
100
AcDbEntity
  8
DEFPOINTS
  6
Continuous
 62
     0
440
 16777216
100
AcDbPoint
 10
484.7700523499843
 20
628.1093561932172
 30
0.0
  0
POINT
  5
1D7BE
330
1D3D8
100
AcDbEntity
  8
DEFPOINTS
  6
Continuous
 62
     0
440
 16777216
100
AcDbPoint
 10
482.8989514073
 20
538.1093561932173
 30
0.0
  0
POINT
  5
1D7BF
330
1D3D8
100
AcDbEntity
  8
DEFPOINTS
  6
Continuous
 62
     0
440
 16777216
100
AcDbPoint
 10
421.0778523626586
 20
538.1093561932173
 30
0.0
  0
ENDBLK
  5
1D3DA
330
1D3D8
100
AcDbEntity
  8
0
100
AcDbBlockEnd
  0
BLOCK
  5
1D3E5
330
1D3E4
100
AcDbEntity
  8
0
100
AcDbBlockBegin
  2
*D13
 70
     1
 10
0.0
 20
0.0
 30
0.0
  3
*D13
  1

  0
LINE
  5
1D7FD
330
1D3E4
100
AcDbEntity
  8
30
  6
Continuous
 62
     0
440
 16777216
370
    -2
100
AcDbLine
 10
576.7575356209522
 20
226.1268330060723
 30
0.0
 11
591.6598612518144
 21
249.1422143058664
 31
0.0
  0
LINE
  5
1D7FE
330
1D3E4
100
AcDbEntity
  8
30
  6
Continuous
 62
     0
440
 16777216
370
    -2
100
AcDbLine
 10
591.6598612518144
 20
249.1422143058664
 30
0.0
 11
607.9931945851476
 21
249.1422143058665
 31
0.0
  0
LINE
  5
1D7FF
330
1D3E4
100
AcDbEntity
  8
30
  6
Continuous
 62
     0
440
 16777216
370
    -2
100
AcDbLine
 10
574.5835002293526
 20
222.7692192525998
 30
0.0
 11
575.6705179252012
 21
224.4480261294113
 31
0.0
  0
INSERT
  5
1D800
330
1D3E4
100
AcDbEntity
  8
30
  6
Continuous
 62
     0
440
 16777216
370
    -2
100
AcDbBlockReference
  2
_OPEN
 10
575.6705179252012
 20
224.4480261294113
 30
0.0
 41
2.0
 42
2.0
 43
2.0
 50
237.077177696719
  0
MTEXT
  5
1D801
330
1D3E4
100
AcDbEntity
  8
30
  6
Continuous
 62
     0
440
 16777216
100
AcDbMText
 10
601.3265279184812
 20
256.1422143058664
 30
0.0
 40
8.0
 41
0.0
 46
0.0
 71
     5
 72
     1
  1
\A1;R2
 73
     1
 44
1.0
  0
POINT
  5
1D802
330
1D3E4
100
AcDbEntity
  8
DEFPOINTS
  6
Continuous
 62
     0
440
 16777216
100
AcDbPoint
 10
575.6705179252012
 20
224.4480261294113
 30
0.0
  0
POINT
  5
1D803
330
1D3E4
100
AcDbEntity
  8
DEFPOINTS
  6
Continuous
 62
     0
440
 16777216
100
AcDbPoint
 10
574.5835002293526
 20
222.7692192525998
 30
0.0
  0
ENDBLK
  5
1D3E6
330
1D3E4
100
AcDbEntity
  8
0
100
AcDbBlockEnd
  0
BLOCK
  5
1D3EF
330
1D3EE
100
AcDbEntity
  8
0
100
AcDbBlockBegin
  2
*D14
 70
     1
 10
0.0
 20
0.0
 30
0.0
  3
*D14
  1

  0
LINE
  5
1D75E
330
1D3EE
100
AcDbEntity
  8
30
  6
Continuous
 62
     0
440
 16777216
370
    -2
100
AcDbLine
 10
136.0154170435084
 20
786.4733625735235
 30
0.0
 11
162.613196406737
 21
750.3562775646607
 31
0.0
  0
MTEXT
  5
1D75F
330
1D3EE
100
AcDbEntity
  8
30
  6
Continuous
440
 16777216
100
AcDbMText
 10
148.9653934448644
 20
780.6932914394082
 30
0.0
 40
8.0
 41
0.0
 46
0.0
 71
     5
 72
     1
  1
\A1;∅14
 11
0.5929850271277683
 21
-0.8052134857305111
 31
0.0
 73
     1
 44
1.0
 90
        3
 63
     9
421
 13158600
 45
1.25
441
        0
  0
INSERT
  5
1D760
330
1D3EE
100
AcDbEntity
  8
30
  6
Continuous
 62
     0
440
 16777216
370
    -2
100
AcDbBlockReference
  2
_OPEN
 10
163.7991664609925
 20
748.7458505931997
 30
0.0
 41
2.0
 42
2.0
 43
2.0
 50
306.36912216157
  0
LINE
  5
1D761
330
1D3EE
100
AcDbEntity
  8
30
  6
Continuous
 62
     0
440
 16777216
370
    -2
100
AcDbLine
 10
167.8600616507902
 20
743.1093561932177
 30
0.0
 11
168.0400616507903
 21
743.1093561932177
 31
0.0
  0
LINE
  5
1D762
330
1D3EE
100
AcDbEntity
  8
30
  6
Continuous
 62
     0
440
 16777216
370
    -2
100
AcDbLine
 10
167.9500616507902
 20
743.0193561932177
 30
0.0
 11
167.9500616507902
 21
743.1993561932175
 31
0.0
  0
POINT
  5
1D763
330
1D3EE
100
AcDbEntity
  8
DEFPOINTS
  6
Continuous
 62
     0
440
 16777216
100
AcDbPoint
 10
163.7991664609925
 20
748.7458505931997
 30
0.0
  0
POINT
  5
1D764
330
1D3EE
100
AcDbEntity
  8
DEFPOINTS
  6
Continuous
 62
     0
440
 16777216
100
AcDbPoint
 10
172.1009568405878
 20
737.4728617932353
 30
0.0
  0
ENDBLK
  5
1D3F0
330
1D3EE
100
AcDbEntity
  8
0
100
AcDbBlockEnd
  0
BLOCK
  5
1D3FA
330
1D3F9
100
AcDbEntity
  8
0
100
AcDbBlockBegin
  2
*D15
 70
     1
 10
0.0
 20
0.0
 30
0.0
  3
*D15
  1

  0
LINE
  5
1D789
330
1D3F9
100
AcDbEntity
  8
30
  6
Continuous
 62
     0
440
 16777216
370
    -2
100
AcDbLine
 10
101.3839548768724
 20
757.6093561932172
 30
0.0
 11
65.13569395114976
 21
757.6093561932172
 31
0.0
  0
LINE
  5
1D78A
330
1D3F9
100
AcDbEntity
  8
30
  6
Continuous
 62
     0
440
 16777216
370
    -2
100
AcDbLine
 10
105.7839548768725
 20
743.1093561932173
 30
0.0
 11
65.13569395114976
 21
743.1093561932173
 31
0.0
  0
LINE
  5
1D78B
330
1D3F9
100
AcDbEntity
  8
30
  6
Continuous
 62
     0
440
 16777216
370
    -2
100
AcDbLine
 10
65.63569395114976
 20
745.1093561932172
 30
0.0
 11
65.63569395114976
 21
755.6093561932173
 31
0.0
  0
LINE
  5
1D78C
330
1D3F9
100
AcDbEntity
  8
30
  6
Continuous
 62
     0
440
 16777216
370
    -2
100
AcDbLine
 10
65.63569395114976
 20
757.6093561932172
 30
0.0
 11
65.63569395114976
 21
795.4407639738693
 31
0.0
  0
INSERT
  5
1D78D
330
1D3F9
100
AcDbEntity
  8
30
  6
Continuous
 62
     0
440
 16777216
370
    -2
100
AcDbBlockReference
  2
_OPEN
 10
65.63569395114976
 20
743.1093561932173
 30
0.0
 41
2.0
 42
2.0
 43
2.0
 50
270.0
  0
INSERT
  5
1D78E
330
1D3F9
100
AcDbEntity
  8
30
  6
Continuous
 62
     0
440
 16777216
370
    -2
100
AcDbBlockReference
  2
_OPEN
 10
65.63569395114976
 20
757.6093561932172
 30
0.0
 41
2.0
 42
2.0
 43
2.0
 50
90.0
  0
MTEXT
  5
1D78F
330
1D3F9
100
AcDbEntity
  8
30
  6
Continuous
440
 16777216
100
AcDbMText
 10
54.63569395114965
 20
781.7740973072027
 30
0.0
 40
8.0
 41
0.0
 46
0.0
 71
     2
 72
     1
  1
\A1;14.5
 11
0.0000000000000001
 21
1.0
 31
0.0
 73
     1
 44
1.0
 90
        3
 63
     9
421
 13158600
 45
1.25
441
        0
  0
POINT
  5
1D790
330
1D3F9
100
AcDbEntity
  8
DEFPOINTS
  6
Continuous
 62
     0
440
 16777216
100
AcDbPoint
 10
102.3839548768724
 20
757.6093561932172
 30
0.0
  0
POINT
  5
1D791
330
1D3F9
100
AcDbEntity
  8
DEFPOINTS
  6
Continuous
 62
     0
440
 16777216
100
AcDbPoint
 10
106.7839548768725
 20
743.1093561932173
 30
0.0
  0
POINT
  5
1D792
330
1D3F9
100
AcDbEntity
  8
DEFPOINTS
  6
Continuous
 62
     0
440
 16777216
100
AcDbPoint
 10
65.63569395114976
 20
743.1093561932173
 30
0.0
  0
ENDBLK
  5
1D3FB
330
1D3F9
100
AcDbEntity
  8
0
100
AcDbBlockEnd
  0
BLOCK
  5
1D407
330
1D406
100
AcDbEntity
  8
0
100
AcDbBlockBegin
  2
*D16
 70
     1
 10
0.0
 20
0.0
 30
0.0
  3
*D16
  1

  0
LINE
  5
1D79C
330
1D406
100
AcDbEntity
  8
30
  6
Continuous
 62
     0
440
 16777216
370
    -2
100
AcDbLine
 10
105.7839548768725
 20
743.1093561932173
 30
0.0
 11
65.13569395114976
 21
743.1093561932173
 31
0.0
  0
LINE
  5
1D79D
330
1D406
100
AcDbEntity
  8
30
  6
Continuous
 62
     0
440
 16777216
370
    -2
100
AcDbLine
 10
105.2839548768724
 20
713.1093561932161
 30
0.0
 11
65.13569395114974
 21
713.1093561932161
 31
0.0
  0
LINE
  5
1D79E
330
1D406
100
AcDbEntity
  8
30
  6
Continuous
 62
     0
440
 16777216
370
    -2
100
AcDbLine
 10
65.63569395114976
 20
741.1093561932172
 30
0.0
 11
65.63569395114974
 21
715.1093561932159
 31
0.0
  0
INSERT
  5
1D79F
330
1D406
100
AcDbEntity
  8
30
  6
Continuous
 62
     0
440
 16777216
370
    -2
100
AcDbBlockReference
  2
_OPEN
 10
65.63569395114976
 20
743.1093561932173
 30
0.0
 41
2.0
 42
2.0
 43
2.0
 50
90.0
  0
INSERT
  5
1D7A0
330
1D406
100
AcDbEntity
  8
30
  6
Continuous
 62
     0
440
 16777216
370
    -2
100
AcDbBlockReference
  2
_OPEN
 10
65.63569395114974
 20
713.1093561932161
 30
0.0
 41
2.0
 42
2.0
 43
2.0
 50
270.0
  0
MTEXT
  5
1D7A1
330
1D406
100
AcDbEntity
  8
30
  6
Continuous
440
 16777216
100
AcDbMText
 10
54.63569395114963
 20
724.4788679767029
 30
0.0
 40
8.0
 41
0.0
 46
0.0
 71
     2
 72
     1
  1
\A1;30
 11
0.0000000000000001
 21
1.0
 31
0.0
 73
     1
 44
1.0
 90
        3
 63
     9
421
 13158600
 45
1.25
441
        0
  0
POINT
  5
1D7A2
330
1D406
100
AcDbEntity
  8
DEFPOINTS
  6
Continuous
 62
     0
440
 16777216
100
AcDbPoint
 10
106.7839548768725
 20
743.1093561932173
 30
0.0
  0
POINT
  5
1D7A3
330
1D406
100
AcDbEntity
  8
DEFPOINTS
  6
Continuous
 62
     0
440
 16777216
100
AcDbPoint
 10
106.2839548768724
 20
713.1093561932161
 30
0.0
  0
POINT
  5
1D7A4
330
1D406
100
AcDbEntity
  8
DEFPOINTS
  6
Continuous
 62
     0
440
 16777216
100
AcDbPoint
 10
65.63569395114974
 20
713.1093561932161
 30
0.0
  0
ENDBLK
  5
1D408
330
1D406
100
AcDbEntity
  8
0
100
AcDbBlockEnd
  0
BLOCK
  5
1D413
330
1D412
100
AcDbEntity
  8
0
100
AcDbBlockBegin
  2
*D17
 70
     1
 10
0.0
 20
0.0
 30
0.0
  3
*D17
  1

  0
LINE
  5
1D793
330
1D412
100
AcDbEntity
  8
30
  6
Continuous
 62
     0
440
 16777216
370
    -2
100
AcDbLine
 10
101.3839548768724
 20
757.6093561932172
 30
0.0
 11
37.68409491484
 21
757.6093561932172
 31
0.0
  0
LINE
  5
1D794
330
1D412
100
AcDbEntity
  8
30
  6
Continuous
 62
     0
440
 16777216
370
    -2
100
AcDbLine
 10
105.2839548768724
 20
713.1093561932171
 30
0.0
 11
37.68409491484
 21
713.1093561932171
 31
0.0
  0
LINE
  5
1D795
330
1D412
100
AcDbEntity
  8
30
  6
Continuous
 62
     0
440
 16777216
370
    -2
100
AcDbLine
 10
38.18409491484
 20
755.6093561932173
 30
0.0
 11
38.18409491484
 21
715.1093561932173
 31
0.0
  0
INSERT
  5
1D796
330
1D412
100
AcDbEntity
  8
30
  6
Continuous
 62
     0
440
 16777216
370
    -2
100
AcDbBlockReference
  2
_OPEN
 10
38.18409491484
 20
757.6093561932172
 30
0.0
 41
2.0
 42
2.0
 43
2.0
 50
90.0
  0
INSERT
  5
1D797
330
1D412
100
AcDbEntity
  8
30
  6
Continuous
 62
     0
440
 16777216
370
    -2
100
AcDbBlockReference
  2
_OPEN
 10
38.18409491484
 20
713.1093561932171
 30
0.0
 41
2.0
 42
2.0
 43
2.0
 50
270.0
  0
MTEXT
  5
1D798
330
1D412
100
AcDbEntity
  8
30
  6
Continuous
440
 16777216
100
AcDbMText
 10
27.18409491483988
 20
732.2897321859122
 30
0.0
 40
8.0
 41
0.0
 46
0.0
 71
     2
 72
     1
  1
\A1;44.5
 11
0.0000000000000001
 21
1.0
 31
0.0
 73
     1
 44
1.0
 90
        3
 63
     9
421
 13158600
 45
1.25
441
        0
  0
POINT
  5
1D799
330
1D412
100
AcDbEntity
  8
DEFPOINTS
  6
Continuous
 62
     0
440
 16777216
100
AcDbPoint
 10
102.3839548768724
 20
757.6093561932172
 30
0.0
  0
POINT
  5
1D79A
330
1D412
100
AcDbEntity
  8
DEFPOINTS
  6
Continuous
 62
     0
440
 16777216
100
AcDbPoint
 10
106.2839548768724
 20
713.1093561932171
 30
0.0
  0
POINT
  5
1D79B
330
1D412
100
AcDbEntity
  8
DEFPOINTS
  6
Continuous
 62
     0
440
 16777216
100
AcDbPoint
 10
38.18409491484
 20
713.1093561932171
 30
0.0
  0
ENDBLK
  5
1D414
330
1D412
100
AcDbEntity
  8
0
100
AcDbBlockEnd
  0
BLOCK
  5
1D41F
330
1D41E
100
AcDbEntity
  8
0
100
AcDbBlockBegin
  2
*D18
 70
     1
 10
0.0
 20
0.0
 30
0.0
  3
*D18
  1

  0
LINE
  5
1D5DF
330
1D41E
100
AcDbEntity
  8
30
  6
Continuous
 62
     0
440
 16777216
370
    -2
100
AcDbLine
 10
601.8414768420711
 20
714.1093561932173
 30
0.0
 11
601.8414768420711
 21
776.2157766283417
 31
0.0
  0
LINE
  5
1D5E0
330
1D41E
100
AcDbEntity
  8
30
  6
Continuous
 62
     0
440
 16777216
370
    -2
100
AcDbLine
 10
565.8414768420711
 20
758.6093561932173
 30
0.0
 11
565.8414768420711
 21
776.2157766283417
 31
0.0
  0
LINE
  5
1D5E1
330
1D41E
100
AcDbEntity
  8
30
  6
Continuous
 62
     0
440
 16777216
370
    -2
100
AcDbLine
 10
599.8414768420712
 20
775.7157766283413
 30
0.0
 11
567.8414768420712
 21
775.7157766283413
 31
0.0
  0
INSERT
  5
1D5E2
330
1D41E
100
AcDbEntity
  8
30
  6
Continuous
 62
     0
440
 16777216
370
    -2
100
AcDbBlockReference
  2
_OPEN
 10
601.8414768420711
 20
775.7157766283413
 30
0.0
 41
2.0
 42
2.0
 43
2.0
  0
INSERT
  5
1D5E3
330
1D41E
100
AcDbEntity
  8
30
  6
Continuous
 62
     0
440
 16777216
370
    -2
100
AcDbBlockReference
  2
_OPEN
 10
565.8414768420711
 20
775.7157766283413
 30
0.0
 41
2.0
 42
2.0
 43
2.0
 50
180.0
  0
MTEXT
  5
1D5E4
330
1D41E
100
AcDbEntity
  8
30
  6
Continuous
440
 16777216
100
AcDbMText
 10
583.8414768420712
 20
782.7157766283415
 30
0.0
 40
8.0
 41
0.0
 46
0.0
 71
     5
 72
     1
  1
\A1;36
 73
     1
 44
1.0
 90
        3
 63
     9
421
 13158600
 45
1.25
441
        0
  0
POINT
  5
1D5E5
330
1D41E
100
AcDbEntity
  8
DEFPOINTS
  6
Continuous
 62
     0
440
 16777216
100
AcDbPoint
 10
601.8414768420711
 20
713.1093561932173
 30
0.0
  0
POINT
  5
1D5E6
330
1D41E
100
AcDbEntity
  8
DEFPOINTS
  6
Continuous
 62
     0
440
 16777216
100
AcDbPoint
 10
565.8414768420711
 20
757.6093561932172
 30
0.0
  0
POINT
  5
1D5E7
330
1D41E
100
AcDbEntity
  8
DEFPOINTS
  6
Continuous
 62
     0
440
 16777216
100
AcDbPoint
 10
565.8414768420711
 20
775.7157766283413
 30
0.0
  0
ENDBLK
  5
1D420
330
1D41E
100
AcDbEntity
  8
0
100
AcDbBlockEnd
  0
BLOCK
  5
1D42B
330
1D42A
100
AcDbEntity
  8
0
100
AcDbBlockBegin
  2
*D19
 70
     1
 10
0.0
 20
0.0
 30
0.0
  3
*D19
  1

  0
LINE
  5
1D5E8
330
1D42A
100
AcDbEntity
  8
30
  6
Continuous
 62
     0
440
 16777216
370
    -2
100
AcDbLine
 10
565.8414768420711
 20
758.6093561932173
 30
0.0
 11
565.8414768420711
 21
776.2157766283417
 31
0.0
  0
LINE
  5
1D5E9
330
1D42A
100
AcDbEntity
  8
30
  6
Continuous
 62
     0
440
 16777216
370
    -2
100
AcDbLine
 10
553.8414768420712
 20
758.6093561932173
 30
0.0
 11
553.8414768420712
 21
776.2157766283417
 31
0.0
  0
LINE
  5
1D5EA
330
1D42A
100
AcDbEntity
  8
30
  6
Continuous
 62
     0
440
 16777216
370
    -2
100
AcDbLine
 10
563.8414768420711
 20
775.7157766283413
 30
0.0
 11
555.8414768420711
 21
775.7157766283413
 31
0.0
  0
LINE
  5
1D5EB
330
1D42A
100
AcDbEntity
  8
30
  6
Continuous
 62
     0
440
 16777216
370
    -2
100
AcDbLine
 10
553.8414768420712
 20
775.7157766283413
 30
0.0
 11
535.1748101754045
 21
775.7157766283413
 31
0.0
  0
INSERT
  5
1D5EC
330
1D42A
100
AcDbEntity
  8
30
  6
Continuous
 62
     0
440
 16777216
370
    -2
100
AcDbBlockReference
  2
_OPEN
 10
565.8414768420711
 20
775.7157766283413
 30
0.0
 41
2.0
 42
2.0
 43
2.0
  0
INSERT
  5
1D5ED
330
1D42A
100
AcDbEntity
  8
30
  6
Continuous
 62
     0
440
 16777216
370
    -2
100
AcDbBlockReference
  2
_OPEN
 10
553.8414768420712
 20
775.7157766283413
 30
0.0
 41
2.0
 42
2.0
 43
2.0
 50
180.0
  0
MTEXT
  5
1D5EE
330
1D42A
100
AcDbEntity
  8
30
  6
Continuous
440
 16777216
100
AcDbMText
 10
543.5081435087377
 20
782.7157766283415
 30
0.0
 40
8.0
 41
0.0
 46
0.0
 71
     5
 72
     1
  1
\A1;12
 73
     1
 44
1.0
 90
        3
 63
     9
421
 13158600
 45
1.25
441
        0
  0
POINT
  5
1D5EF
330
1D42A
100
AcDbEntity
  8
DEFPOINTS
  6
Continuous
 62
     0
440
 16777216
100
AcDbPoint
 10
565.8414768420711
 20
757.6093561932172
 30
0.0
  0
POINT
  5
1D5F0
330
1D42A
100
AcDbEntity
  8
DEFPOINTS
  6
Continuous
 62
     0
440
 16777216
100
AcDbPoint
 10
553.8414768420712
 20
757.6093561932172
 30
0.0
  0
POINT
  5
1D5F1
330
1D42A
100
AcDbEntity
  8
DEFPOINTS
  6
Continuous
 62
     0
440
 16777216
100
AcDbPoint
 10
553.8414768420712
 20
775.7157766283413
 30
0.0
  0
ENDBLK
  5
1D42C
330
1D42A
100
AcDbEntity
  8
0
100
AcDbBlockEnd
  0
BLOCK
  5
1D438
330
1D437
100
AcDbEntity
  8
0
100
AcDbBlockBegin
  2
*D20
 70
     1
 10
0.0
 20
0.0
 30
0.0
  3
*D20
  1

  0
LINE
  5
1D733
330
1D437
100
AcDbEntity
  8
30
  6
Continuous
 62
     0
440
 16777216
370
    -2
100
AcDbLine
 10
108.7839548768725
 20
753.6093561932172
 30
0.0
 11
108.7839548768725
 21
827.7298554295834
 31
0.0
  0
LINE
  5
1D734
330
1D437
100
AcDbEntity
  8
30
  6
Continuous
 62
     0
440
 16777216
370
    -2
100
AcDbLine
 10
168.7839548768725
 20
753.6093561932172
 30
0.0
 11
168.7839548768725
 21
827.7298554295834
 31
0.0
  0
LINE
  5
1D735
330
1D437
100
AcDbEntity
  8
30
  6
Continuous
 62
     0
440
 16777216
370
    -2
100
AcDbLine
 10
110.7839548768725
 20
827.2298554295833
 30
0.0
 11
166.7839548768725
 21
827.2298554295833
 31
0.0
  0
INSERT
  5
1D736
330
1D437
100
AcDbEntity
  8
30
  6
Continuous
 62
     0
440
 16777216
370
    -2
100
AcDbBlockReference
  2
_OPEN
 10
108.7839548768725
 20
827.2298554295833
 30
0.0
 41
2.0
 42
2.0
 43
2.0
 50
180.0
  0
INSERT
  5
1D737
330
1D437
100
AcDbEntity
  8
30
  6
Continuous
 62
     0
440
 16777216
370
    -2
100
AcDbBlockReference
  2
_OPEN
 10
168.7839548768725
 20
827.2298554295833
 30
0.0
 41
2.0
 42
2.0
 43
2.0
  0
MTEXT
  5
1D738
330
1D437
100
AcDbEntity
  8
30
  6
Continuous
440
 16777216
100
AcDbMText
 10
138.7839548768725
 20
838.2298554295834
 30
0.0
 40
8.0
 41
0.0
 46
0.0
 71
     2
 72
     1
  1
\A1;60
 73
     1
 44
1.0
 90
        3
 63
     9
421
 13158600
 45
1.25
441
        0
  0
POINT
  5
1D739
330
1D437
100
AcDbEntity
  8
DEFPOINTS
  6
Continuous
 62
     0
440
 16777216
100
AcDbPoint
 10
108.7839548768725
 20
752.6093561932173
 30
0.0
  0
POINT
  5
1D73A
330
1D437
100
AcDbEntity
  8
DEFPOINTS
  6
Continuous
 62
     0
440
 16777216
100
AcDbPoint
 10
168.7839548768725
 20
752.6093561932173
 30
0.0
  0
POINT
  5
1D73B
330
1D437
100
AcDbEntity
  8
DEFPOINTS
  6
Continuous
 62
     0
440
 16777216
100
AcDbPoint
 10
168.7839548768725
 20
827.2298554295833
 30
0.0
  0
ENDBLK
  5
1D439
330
1D437
100
AcDbEntity
  8
0
100
AcDbBlockEnd
  0
BLOCK
  5
1D444
330
1D443
100
AcDbEntity
  8
0
100
AcDbBlockBegin
  2
*D21
 70
     1
 10
0.0
 20
0.0
 30
0.0
  3
*D21
  1

  0
LINE
  5
1D73C
330
1D443
100
AcDbEntity
  8
30
  6
Continuous
 62
     0
440
 16777216
370
    -2
100
AcDbLine
 10
168.7839548768725
 20
753.6093561932172
 30
0.0
 11
168.7839548768725
 21
827.7298554295834
 31
0.0
  0
LINE
  5
1D73D
330
1D443
100
AcDbEntity
  8
30
  6
Continuous
 62
     0
440
 16777216
370
    -2
100
AcDbLine
 10
228.7839548768725
 20
753.6093561932172
 30
0.0
 11
228.7839548768725
 21
827.7298554295834
 31
0.0
  0
LINE
  5
1D73E
330
1D443
100
AcDbEntity
  8
30
  6
Continuous
 62
     0
440
 16777216
370
    -2
100
AcDbLine
 10
170.7839548768725
 20
827.2298554295833
 30
0.0
 11
226.7839548768725
 21
827.2298554295833
 31
0.0
  0
INSERT
  5
1D73F
330
1D443
100
AcDbEntity
  8
30
  6
Continuous
 62
     0
440
 16777216
370
    -2
100
AcDbBlockReference
  2
_OPEN
 10
168.7839548768725
 20
827.2298554295833
 30
0.0
 41
2.0
 42
2.0
 43
2.0
 50
180.0
  0
INSERT
  5
1D740
330
1D443
100
AcDbEntity
  8
30
  6
Continuous
 62
     0
440
 16777216
370
    -2
100
AcDbBlockReference
  2
_OPEN
 10
228.7839548768725
 20
827.2298554295833
 30
0.0
 41
2.0
 42
2.0
 43
2.0
  0
MTEXT
  5
1D741
330
1D443
100
AcDbEntity
  8
30
  6
Continuous
440
 16777216
100
AcDbMText
 10
198.7839548768724
 20
838.2298554295834
 30
0.0
 40
8.0
 41
0.0
 46
0.0
 71
     2
 72
     1
  1
\A1;60
 73
     1
 44
1.0
 90
        3
 63
     9
421
 13158600
 45
1.25
441
        0
  0
POINT
  5
1D742
330
1D443
100
AcDbEntity
  8
DEFPOINTS
  6
Continuous
 62
     0
440
 16777216
100
AcDbPoint
 10
168.7839548768725
 20
752.6093561932173
 30
0.0
  0
POINT
  5
1D743
330
1D443
100
AcDbEntity
  8
DEFPOINTS
  6
Continuous
 62
     0
440
 16777216
100
AcDbPoint
 10
228.7839548768725
 20
752.6093561932173
 30
0.0
  0
POINT
  5
1D744
330
1D443
100
AcDbEntity
  8
DEFPOINTS
  6
Continuous
 62
     0
440
 16777216
100
AcDbPoint
 10
228.7839548768725
 20
827.2298554295833
 30
0.0
  0
ENDBLK
  5
1D445
330
1D443
100
AcDbEntity
  8
0
100
AcDbBlockEnd
  0
BLOCK
  5
1D450
330
1D44F
100
AcDbEntity
  8
0
100
AcDbBlockBegin
  2
*D22
 70
     1
 10
0.0
 20
0.0
 30
0.0
  3
*D22
  1

  0
LINE
  5
1D745
330
1D44F
100
AcDbEntity
  8
30
  6
Continuous
 62
     0
440
 16777216
370
    -2
100
AcDbLine
 10
228.7839548768725
 20
753.6093561932172
 30
0.0
 11
228.7839548768725
 21
827.7298554295834
 31
0.0
  0
LINE
  5
1D746
330
1D44F
100
AcDbEntity
  8
30
  6
Continuous
 62
     0
440
 16777216
370
    -2
100
AcDbLine
 10
288.7839548768725
 20
753.6093561932172
 30
0.0
 11
288.7839548768725
 21
827.7298554295834
 31
0.0
  0
LINE
  5
1D747
330
1D44F
100
AcDbEntity
  8
30
  6
Continuous
 62
     0
440
 16777216
370
    -2
100
AcDbLine
 10
230.7839548768725
 20
827.2298554295833
 30
0.0
 11
286.7839548768725
 21
827.2298554295833
 31
0.0
  0
INSERT
  5
1D748
330
1D44F
100
AcDbEntity
  8
30
  6
Continuous
 62
     0
440
 16777216
370
    -2
100
AcDbBlockReference
  2
_OPEN
 10
228.7839548768725
 20
827.2298554295833
 30
0.0
 41
2.0
 42
2.0
 43
2.0
 50
180.0
  0
INSERT
  5
1D749
330
1D44F
100
AcDbEntity
  8
30
  6
Continuous
 62
     0
440
 16777216
370
    -2
100
AcDbBlockReference
  2
_OPEN
 10
288.7839548768725
 20
827.2298554295833
 30
0.0
 41
2.0
 42
2.0
 43
2.0
  0
MTEXT
  5
1D74A
330
1D44F
100
AcDbEntity
  8
30
  6
Continuous
440
 16777216
100
AcDbMText
 10
258.7839548768725
 20
838.2298554295834
 30
0.0
 40
8.0
 41
0.0
 46
0.0
 71
     2
 72
     1
  1
\A1;60
 73
     1
 44
1.0
 90
        3
 63
     9
421
 13158600
 45
1.25
441
        0
  0
POINT
  5
1D74B
330
1D44F
100
AcDbEntity
  8
DEFPOINTS
  6
Continuous
 62
     0
440
 16777216
100
AcDbPoint
 10
228.7839548768725
 20
752.6093561932173
 30
0.0
  0
POINT
  5
1D74C
330
1D44F
100
AcDbEntity
  8
DEFPOINTS
  6
Continuous
 62
     0
440
 16777216
100
AcDbPoint
 10
288.7839548768725
 20
752.6093561932173
 30
0.0
  0
POINT
  5
1D74D
330
1D44F
100
AcDbEntity
  8
DEFPOINTS
  6
Continuous
 62
     0
440
 16777216
100
AcDbPoint
 10
288.7839548768725
 20
827.2298554295833
 30
0.0
  0
ENDBLK
  5
1D451
330
1D44F
100
AcDbEntity
  8
0
100
AcDbBlockEnd
  0
BLOCK
  5
1D45C
330
1D45B
100
AcDbEntity
  8
0
100
AcDbBlockBegin
  2
*D23
 70
     1
 10
0.0
 20
0.0
 30
0.0
  3
*D23
  1

  0
LINE
  5
1D72A
330
1D45B
100
AcDbEntity
  8
30
  6
Continuous
 62
     0
440
 16777216
370
    -2
100
AcDbLine
 10
94.7839548768724
 20
758.6093561932173
 30
0.0
 11
94.7839548768724
 21
851.0220002837755
 31
0.0
  0
LINE
  5
1D72B
330
1D45B
100
AcDbEntity
  8
30
  6
Continuous
 62
     0
440
 16777216
370
    -2
100
AcDbLine
 10
176.2839548768725
 20
759.7389586619307
 30
0.0
 11
176.2839548768725
 21
851.0220002837755
 31
0.0
  0
LINE
  5
1D72C
330
1D45B
100
AcDbEntity
  8
30
  6
Continuous
 62
     0
440
 16777216
370
    -2
100
AcDbLine
 10
96.7839548768724
 20
850.5220002837754
 30
0.0
 11
174.2839548768725
 21
850.5220002837754
 31
0.0
  0
INSERT
  5
1D72D
330
1D45B
100
AcDbEntity
  8
30
  6
Continuous
 62
     0
440
 16777216
370
    -2
100
AcDbBlockReference
  2
_OPEN
 10
94.7839548768724
 20
850.5220002837754
 30
0.0
 41
2.0
 42
2.0
 43
2.0
 50
180.0
  0
INSERT
  5
1D72E
330
1D45B
100
AcDbEntity
  8
30
  6
Continuous
 62
     0
440
 16777216
370
    -2
100
AcDbBlockReference
  2
_OPEN
 10
176.2839548768725
 20
850.5220002837754
 30
0.0
 41
2.0
 42
2.0
 43
2.0
  0
MTEXT
  5
1D72F
330
1D45B
100
AcDbEntity
  8
30
  6
Continuous
440
 16777216
100
AcDbMText
 10
135.4839548768724
 20
861.5220002837755
 30
0.0
 40
8.0
 41
0.0
 46
0.0
 71
     2
 72
     1
  1
\A1;81.5
 73
     1
 44
1.0
 90
        3
 63
     9
421
 13158600
 45
1.25
441
        0
  0
POINT
  5
1D730
330
1D45B
100
AcDbEntity
  8
DEFPOINTS
  6
Continuous
 62
     0
440
 16777216
100
AcDbPoint
 10
94.7839548768724
 20
757.6093561932172
 30
0.0
  0
POINT
  5
1D731
330
1D45B
100
AcDbEntity
  8
DEFPOINTS
  6
Continuous
 62
     0
440
 16777216
100
AcDbPoint
 10
176.2839548768725
 20
758.7389586619307
 30
0.0
  0
POINT
  5
1D732
330
1D45B
100
AcDbEntity
  8
DEFPOINTS
  6
Continuous
 62
     0
440
 16777216
100
AcDbPoint
 10
176.2839548768725
 20
850.5220002837754
 30
0.0
  0
ENDBLK
  5
1D45D
330
1D45B
100
AcDbEntity
  8
0
100
AcDbBlockEnd
  0
BLOCK
  5
1D468
330
1D467
100
AcDbEntity
  8
0
100
AcDbBlockBegin
  2
*D24
 70
     1
 10
0.0
 20
0.0
 30
0.0
  3
*D24
  1

  0
LINE
  5
1D721
330
1D467
100
AcDbEntity
  8
30
  6
Continuous
 62
     0
440
 16777216
370
    -2
100
AcDbLine
 10
176.2839548768725
 20
759.7389586619307
 30
0.0
 11
176.2839548768725
 21
851.0220002837755
 31
0.0
  0
LINE
  5
1D722
330
1D467
100
AcDbEntity
  8
30
  6
Continuous
 62
     0
440
 16777216
370
    -2
100
AcDbLine
 10
302.7839548768724
 20
758.6093561932173
 30
0.0
 11
302.7839548768724
 21
851.0220002837755
 31
0.0
  0
LINE
  5
1D723
330
1D467
100
AcDbEntity
  8
30
  6
Continuous
 62
     0
440
 16777216
370
    -2
100
AcDbLine
 10
178.2839548768725
 20
850.5220002837754
 30
0.0
 11
300.7839548768724
 21
850.5220002837754
 31
0.0
  0
INSERT
  5
1D724
330
1D467
100
AcDbEntity
  8
30
  6
Continuous
 62
     0
440
 16777216
370
    -2
100
AcDbBlockReference
  2
_OPEN
 10
176.2839548768725
 20
850.5220002837754
 30
0.0
 41
2.0
 42
2.0
 43
2.0
 50
180.0
  0
INSERT
  5
1D725
330
1D467
100
AcDbEntity
  8
30
  6
Continuous
 62
     0
440
 16777216
370
    -2
100
AcDbBlockReference
  2
_OPEN
 10
302.7839548768724
 20
850.5220002837754
 30
0.0
 41
2.0
 42
2.0
 43
2.0
  0
MTEXT
  5
1D726
330
1D467
100
AcDbEntity
  8
30
  6
Continuous
440
 16777216
100
AcDbMText
 10
239.5839548768726
 20
861.5220002837755
 30
0.0
 40
8.0
 41
0.0
 46
0.0
 71
     2
 72
     1
  1
\A1;126.5
 73
     1
 44
1.0
 90
        3
 63
     9
421
 13158600
 45
1.25
441
        0
  0
POINT
  5
1D727
330
1D467
100
AcDbEntity
  8
DEFPOINTS
  6
Continuous
 62
     0
440
 16777216
100
AcDbPoint
 10
176.2839548768725
 20
758.7389586619307
 30
0.0
  0
POINT
  5
1D728
330
1D467
100
AcDbEntity
  8
DEFPOINTS
  6
Continuous
 62
     0
440
 16777216
100
AcDbPoint
 10
302.7839548768724
 20
757.6093561932172
 30
0.0
  0
POINT
  5
1D729
330
1D467
100
AcDbEntity
  8
DEFPOINTS
  6
Continuous
 62
     0
440
 16777216
100
AcDbPoint
 10
302.7839548768724
 20
850.5220002837754
 30
0.0
  0
ENDBLK
  5
1D469
330
1D467
100
AcDbEntity
  8
0
100
AcDbBlockEnd
  0
BLOCK
  5
1D474
330
1D473
100
AcDbEntity
  8
0
100
AcDbBlockBegin
  2
*D25
 70
     1
 10
0.0
 20
0.0
 30
0.0
  3
*D25
  1

  0
LINE
  5
1D765
330
1D473
100
AcDbEntity
  8
30
  6
Continuous
 62
     0
440
 16777216
370
    -2
100
AcDbLine
 10
176.2839548768725
 20
759.7389586619307
 30
0.0
 11
176.2839548768725
 21
801.8496920512202
 31
0.0
  0
LINE
  5
1D766
330
1D473
100
AcDbEntity
  8
30
  6
Continuous
 62
     0
440
 16777216
370
    -2
100
AcDbLine
 10
228.7839548768725
 20
753.6093561932172
 30
0.0
 11
228.7839548768725
 21
801.8496920512202
 31
0.0
  0
LINE
  5
1D767
330
1D473
100
AcDbEntity
  8
30
  6
Continuous
 62
     0
440
 16777216
370
    -2
100
AcDbLine
 10
178.2839548768725
 20
801.3496920512203
 30
0.0
 11
226.7839548768725
 21
801.3496920512203
 31
0.0
  0
INSERT
  5
1D768
330
1D473
100
AcDbEntity
  8
30
  6
Continuous
 62
     0
440
 16777216
370
    -2
100
AcDbBlockReference
  2
_OPEN
 10
176.2839548768725
 20
801.3496920512203
 30
0.0
 41
2.0
 42
2.0
 43
2.0
 50
180.0
  0
INSERT
  5
1D769
330
1D473
100
AcDbEntity
  8
30
  6
Continuous
 62
     0
440
 16777216
370
    -2
100
AcDbBlockReference
  2
_OPEN
 10
228.7839548768725
 20
801.3496920512203
 30
0.0
 41
2.0
 42
2.0
 43
2.0
  0
MTEXT
  5
1D76A
330
1D473
100
AcDbEntity
  8
30
  6
Continuous
440
 16777216
100
AcDbMText
 10
202.5339548768725
 20
812.3496920512202
 30
0.0
 40
8.0
 41
0.0
 46
0.0
 71
     2
 72
     1
  1
\A1;52.5
 73
     1
 44
1.0
 90
        3
 63
     9
421
 13158600
 45
1.25
441
        0
  0
POINT
  5
1D76B
330
1D473
100
AcDbEntity
  8
DEFPOINTS
  6
Continuous
 62
     0
440
 16777216
100
AcDbPoint
 10
176.2839548768725
 20
758.7389586619307
 30
0.0
  0
POINT
  5
1D76C
330
1D473
100
AcDbEntity
  8
DEFPOINTS
  6
Continuous
 62
     0
440
 16777216
100
AcDbPoint
 10
228.7839548768725
 20
752.6093561932173
 30
0.0
  0
POINT
  5
1D76D
330
1D473
100
AcDbEntity
  8
DEFPOINTS
  6
Continuous
 62
     0
440
 16777216
100
AcDbPoint
 10
228.7839548768725
 20
801.3496920512203
 30
0.0
  0
ENDBLK
  5
1D475
330
1D473
100
AcDbEntity
  8
0
100
AcDbBlockEnd
  0
BLOCK
  5
1D480
330
1D47F
100
AcDbEntity
  8
0
100
AcDbBlockBegin
  2
*D26
 70
     1
 10
0.0
 20
0.0
 30
0.0
  3
*D26
  1

  0
LINE
  5
1D628
330
1D47F
100
AcDbEntity
  8
30
  6
Continuous
 62
     0
440
 16777216
370
    -2
100
AcDbLine
 10
118.2839548768725
 20
535.4474611851951
 30
0.0
 11
118.2839548768725
 21
517.1037329229533
 31
0.0
  0
LINE
  5
1D629
330
1D47F
100
AcDbEntity
  8
30
  6
Continuous
 62
     0
440
 16777216
370
    -2
100
AcDbLine
 10
234.2839548768725
 20
535.66053287164
 30
0.0
 11
234.2839548768725
 21
517.1037329229533
 31
0.0
  0
LINE
  5
1D62A
330
1D47F
100
AcDbEntity
  8
30
  6
Continuous
 62
     0
440
 16777216
370
    -2
100
AcDbLine
 10
120.2839548768725
 20
517.6037329229536
 30
0.0
 11
232.2839548768725
 21
517.6037329229536
 31
0.0
  0
INSERT
  5
1D62B
330
1D47F
100
AcDbEntity
  8
30
  6
Continuous
 62
     0
440
 16777216
370
    -2
100
AcDbBlockReference
  2
_OPEN
 10
118.2839548768725
 20
517.6037329229536
 30
0.0
 41
2.0
 42
2.0
 43
2.0
 50
180.0
  0
INSERT
  5
1D62C
330
1D47F
100
AcDbEntity
  8
30
  6
Continuous
 62
     0
440
 16777216
370
    -2
100
AcDbBlockReference
  2
_OPEN
 10
234.2839548768725
 20
517.6037329229536
 30
0.0
 41
2.0
 42
2.0
 43
2.0
  0
MTEXT
  5
1D62D
330
1D47F
100
AcDbEntity
  8
30
  6
Continuous
440
 16777216
100
AcDbMText
 10
181.1238836239154
 20
524.6037329229533
 30
0.0
 40
8.0
 41
0.0
 46
0.0
 71
     5
 72
     1
  1
\A1;116
 73
     1
 44
1.0
 90
        3
 63
     9
421
 13158600
 45
1.25
441
        0
  0
POINT
  5
1D62E
330
1D47F
100
AcDbEntity
  8
DEFPOINTS
  6
Continuous
 62
     0
440
 16777216
100
AcDbPoint
 10
118.2839548768725
 20
536.4474611851951
 30
0.0
  0
POINT
  5
1D62F
330
1D47F
100
AcDbEntity
  8
DEFPOINTS
  6
Continuous
 62
     0
440
 16777216
100
AcDbPoint
 10
234.2839548768725
 20
536.66053287164
 30
0.0
  0
POINT
  5
1D630
330
1D47F
100
AcDbEntity
  8
DEFPOINTS
  6
Continuous
 62
     0
440
 16777216
100
AcDbPoint
 10
234.2839548768725
 20
517.6037329229536
 30
0.0
  0
ENDBLK
  5
1D481
330
1D47F
100
AcDbEntity
  8
0
100
AcDbBlockEnd
  0
BLOCK
  5
1D48C
330
1D48B
100
AcDbEntity
  8
0
100
AcDbBlockBegin
  2
*D27
 70
     1
 10
0.0
 20
0.0
 30
0.0
  3
*D27
  1

  0
LINE
  5
1D856
330
1D48B
100
AcDbEntity
  8
30
  6
Continuous
 62
     0
440
 16777216
370
    -2
100
AcDbLine
 10
601.8414797030714
 20
452.1093561932173
 30
0.0
 11
601.8414797030714
 21
391.1176353940441
 31
0.0
  0
LINE
  5
1D857
330
1D48B
100
AcDbEntity
  8
30
  6
Continuous
 62
     0
440
 16777216
370
    -2
100
AcDbLine
 10
566.8414768420712
 20
407.6093561932171
 30
0.0
 11
566.8414768420712
 21
391.1176353940441
 31
0.0
  0
LINE
  5
1D858
330
1D48B
100
AcDbEntity
  8
30
  6
Continuous
 62
     0
440
 16777216
370
    -2
100
AcDbLine
 10
599.8414797030712
 20
391.6176353940441
 30
0.0
 11
568.8414768420711
 21
391.6176353940441
 31
0.0
  0
INSERT
  5
1D859
330
1D48B
100
AcDbEntity
  8
30
  6
Continuous
 62
     0
440
 16777216
370
    -2
100
AcDbBlockReference
  2
_OPEN
 10
601.8414797030714
 20
391.6176353940441
 30
0.0
 41
2.0
 42
2.0
 43
2.0
  0
INSERT
  5
1D85A
330
1D48B
100
AcDbEntity
  8
30
  6
Continuous
 62
     0
440
 16777216
370
    -2
100
AcDbBlockReference
  2
_OPEN
 10
566.8414768420712
 20
391.6176353940441
 30
0.0
 41
2.0
 42
2.0
 43
2.0
 50
180.0
  0
MTEXT
  5
1D85B
330
1D48B
100
AcDbEntity
  8
30
  6
Continuous
440
 16777216
100
AcDbMText
 10
584.3414782725712
 20
398.6176353940441
 30
0.0
 40
8.0
 41
0.0
 46
0.0
 71
     5
 72
     1
  1
\A1;35
 73
     1
 44
1.0
 90
        3
 63
     9
421
 13158600
 45
1.25
441
        0
  0
POINT
  5
1D85C
330
1D48B
100
AcDbEntity
  8
DEFPOINTS
  6
Continuous
 62
     0
440
 16777216
100
AcDbPoint
 10
601.8414797030714
 20
453.1093561932173
 30
0.0
  0
POINT
  5
1D85D
330
1D48B
100
AcDbEntity
  8
DEFPOINTS
  6
Continuous
 62
     0
440
 16777216
100
AcDbPoint
 10
566.8414768420712
 20
408.6093561932171
 30
0.0
  0
POINT
  5
1D85E
330
1D48B
100
AcDbEntity
  8
DEFPOINTS
  6
Continuous
 62
     0
440
 16777216
100
AcDbPoint
 10
566.8414768420712
 20
391.6176353940441
 30
0.0
  0
ENDBLK
  5
1D48D
330
1D48B
100
AcDbEntity
  8
0
100
AcDbBlockEnd
  0
BLOCK
  5
1D498
330
1D497
100
AcDbEntity
  8
0
100
AcDbBlockBegin
  2
*D28
 70
     1
 10
0.0
 20
0.0
 30
0.0
  3
*D28
  1

  0
LINE
  5
1D85F
330
1D497
100
AcDbEntity
  8
30
  6
Continuous
 62
     0
440
 16777216
370
    -2
100
AcDbLine
 10
566.8414768420712
 20
407.6093561932171
 30
0.0
 11
566.8414768420712
 21
391.1176353940441
 31
0.0
  0
LINE
  5
1D860
330
1D497
100
AcDbEntity
  8
30
  6
Continuous
 62
     0
440
 16777216
370
    -2
100
AcDbLine
 10
554.8414768420712
 20
407.6093561932171
 30
0.0
 11
554.8414768420712
 21
391.1176353940441
 31
0.0
  0
LINE
  5
1D861
330
1D497
100
AcDbEntity
  8
30
  6
Continuous
 62
     0
440
 16777216
370
    -2
100
AcDbLine
 10
564.8414768420711
 20
391.6176353940441
 30
0.0
 11
556.8414768420711
 21
391.6176353940441
 31
0.0
  0
LINE
  5
1D862
330
1D497
100
AcDbEntity
  8
30
  6
Continuous
 62
     0
440
 16777216
370
    -2
100
AcDbLine
 10
554.8414768420712
 20
391.6176353940441
 30
0.0
 11
536.1748101754045
 21
391.6176353940441
 31
0.0
  0
INSERT
  5
1D863
330
1D497
100
AcDbEntity
  8
30
  6
Continuous
 62
     0
440
 16777216
370
    -2
100
AcDbBlockReference
  2
_OPEN
 10
566.8414768420712
 20
391.6176353940441
 30
0.0
 41
2.0
 42
2.0
 43
2.0
  0
INSERT
  5
1D864
330
1D497
100
AcDbEntity
  8
30
  6
Continuous
 62
     0
440
 16777216
370
    -2
100
AcDbBlockReference
  2
_OPEN
 10
554.8414768420712
 20
391.6176353940441
 30
0.0
 41
2.0
 42
2.0
 43
2.0
 50
180.0
  0
MTEXT
  5
1D865
330
1D497
100
AcDbEntity
  8
30
  6
Continuous
440
 16777216
100
AcDbMText
 10
544.5081435087378
 20
398.6176353940441
 30
0.0
 40
8.0
 41
0.0
 46
0.0
 71
     5
 72
     1
  1
\A1;12
 73
     1
 44
1.0
 90
        3
 63
     9
421
 13158600
 45
1.25
441
        0
  0
POINT
  5
1D866
330
1D497
100
AcDbEntity
  8
DEFPOINTS
  6
Continuous
 62
     0
440
 16777216
100
AcDbPoint
 10
566.8414768420712
 20
408.6093561932171
 30
0.0
  0
POINT
  5
1D867
330
1D497
100
AcDbEntity
  8
DEFPOINTS
  6
Continuous
 62
     0
440
 16777216
100
AcDbPoint
 10
554.8414768420712
 20
408.6093561932171
 30
0.0
  0
POINT
  5
1D868
330
1D497
100
AcDbEntity
  8
DEFPOINTS
  6
Continuous
 62
     0
440
 16777216
100
AcDbPoint
 10
554.8414768420712
 20
391.6176353940441
 30
0.0
  0
ENDBLK
  5
1D499
330
1D497
100
AcDbEntity
  8
0
100
AcDbBlockEnd
  0
BLOCK
  5
1D4A5
330
1D4A4
100
AcDbEntity
  8
0
100
AcDbBlockBegin
  2
*D29
 70
     1
 10
0.0
 20
0.0
 30
0.0
  3
*D29
  1

  0
LINE
  5
1D816
330
1D4A4
100
AcDbEntity
  8
30
  6
Continuous
 62
     0
440
 16777216
370
    -2
100
AcDbLine
 10
450.8414797030712
 20
582.505581553713
 30
0.0
 11
450.8414797030712
 21
321.8436780323473
 31
0.0
  0
LINE
  5
1D817
330
1D4A4
100
AcDbEntity
  8
30
  6
Continuous
 62
     0
440
 16777216
370
    -2
100
AcDbLine
 10
601.8414768420711
 20
452.1093561932173
 30
0.0
 11
601.8414768420711
 21
321.8436780323473
 31
0.0
  0
LINE
  5
1D818
330
1D4A4
100
AcDbEntity
  8
30
  6
Continuous
 62
     0
440
 16777216
370
    -2
100
AcDbLine
 10
452.8414797030713
 20
322.3436780323473
 30
0.0
 11
599.8414768420712
 21
322.3436780323473
 31
0.0
  0
INSERT
  5
1D819
330
1D4A4
100
AcDbEntity
  8
30
  6
Continuous
 62
     0
440
 16777216
370
    -2
100
AcDbBlockReference
  2
_OPEN
 10
450.8414797030712
 20
322.3436780323473
 30
0.0
 41
2.0
 42
2.0
 43
2.0
 50
180.0
  0
INSERT
  5
1D81A
330
1D4A4
100
AcDbEntity
  8
30
  6
Continuous
 62
     0
440
 16777216
370
    -2
100
AcDbBlockReference
  2
_OPEN
 10
601.8414768420711
 20
322.3436780323473
 30
0.0
 41
2.0
 42
2.0
 43
2.0
  0
MTEXT
  5
1D81B
330
1D4A4
100
AcDbEntity
  8
30
  6
Continuous
440
 16777216
100
AcDbMText
 10
526.3414797030714
 20
333.3436780323473
 30
0.0
 40
8.0
 41
0.0
 46
0.0
 71
     2
 72
     1
  1
\A1;151
 73
     1
 44
1.0
 90
        3
 63
     9
421
 13158600
 45
1.25
441
        0
  0
POINT
  5
1D81C
330
1D4A4
100
AcDbEntity
  8
DEFPOINTS
  6
Continuous
 62
     0
440
 16777216
100
AcDbPoint
 10
450.8414797030712
 20
583.5055815537129
 30
0.0
  0
POINT
  5
1D81D
330
1D4A4
100
AcDbEntity
  8
DEFPOINTS
  6
Continuous
 62
     0
440
 16777216
100
AcDbPoint
 10
601.8414768420711
 20
453.1093561932173
 30
0.0
  0
POINT
  5
1D81E
330
1D4A4
100
AcDbEntity
  8
DEFPOINTS
  6
Continuous
 62
     0
440
 16777216
100
AcDbPoint
 10
601.8414768420711
 20
322.3436780323473
 30
0.0
  0
ENDBLK
  5
1D4A6
330
1D4A4
100
AcDbEntity
  8
0
100
AcDbBlockEnd
  0
BLOCK
  5
1D4B1
330
1D4B0
100
AcDbEntity
  8
0
100
AcDbBlockBegin
  2
*D30
 70
     1
 10
0.0
 20
0.0
 30
0.0
  3
*D30
  1

  0
LINE
  5
1D74E
330
1D4B0
100
AcDbEntity
  8
30
  6
Continuous
 62
     0
440
 16777216
370
    -2
100
AcDbLine
 10
94.78395531787253
 20
758.6093596502172
 30
0.0
 11
94.78395531787253
 21
793.0504363568211
 31
0.0
  0
LINE
  5
1D74F
330
1D4B0
100
AcDbEntity
  8
30
  6
Continuous
 62
     0
440
 16777216
370
    -2
100
AcDbLine
 10
122.7839565218724
 20
758.6093596502172
 30
0.0
 11
122.7839565218724
 21
793.0504363568211
 31
0.0
  0
LINE
  5
1D750
330
1D4B0
100
AcDbEntity
  8
30
  6
Continuous
 62
     0
440
 16777216
370
    -2
100
AcDbLine
 10
96.78395531787252
 20
792.5504363568211
 30
0.0
 11
120.7839565218724
 21
792.5504363568211
 31
0.0
  0
INSERT
  5
1D751
330
1D4B0
100
AcDbEntity
  8
30
  6
Continuous
 62
     0
440
 16777216
370
    -2
100
AcDbBlockReference
  2
_OPEN
 10
94.78395531787253
 20
792.5504363568211
 30
0.0
 41
2.0
 42
2.0
 43
2.0
 50
180.0
  0
INSERT
  5
1D752
330
1D4B0
100
AcDbEntity
  8
30
  6
Continuous
 62
     0
440
 16777216
370
    -2
100
AcDbBlockReference
  2
_OPEN
 10
122.7839565218724
 20
792.5504363568211
 30
0.0
 41
2.0
 42
2.0
 43
2.0
  0
MTEXT
  5
1D753
330
1D4B0
100
AcDbEntity
  8
30
  6
Continuous
440
 16777216
100
AcDbMText
 10
108.7839559198724
 20
799.5504363568211
 30
0.0
 40
8.0
 41
0.0
 46
0.0
 71
     5
 72
     1
  1
\A1;28
 73
     1
 44
1.0
 90
        3
 63
     9
421
 13158600
 45
1.25
441
        0
  0
POINT
  5
1D754
330
1D4B0
100
AcDbEntity
  8
DEFPOINTS
  6
Continuous
 62
     0
440
 16777216
100
AcDbPoint
 10
94.78395531787253
 20
757.6093596502172
 30
0.0
  0
POINT
  5
1D755
330
1D4B0
100
AcDbEntity
  8
DEFPOINTS
  6
Continuous
 62
     0
440
 16777216
100
AcDbPoint
 10
122.7839565218724
 20
757.6093596502172
 30
0.0
  0
POINT
  5
1D756
330
1D4B0
100
AcDbEntity
  8
DEFPOINTS
  6
Continuous
 62
     0
440
 16777216
100
AcDbPoint
 10
122.7839565218724
 20
792.5504363568211
 30
0.0
  0
ENDBLK
  5
1D4B2
330
1D4B0
100
AcDbEntity
  8
0
100
AcDbBlockEnd
  0
BLOCK
  5
1D4BD
330
1D4BC
100
AcDbEntity
  8
0
100
AcDbBlockBegin
  2
*D31
 70
     1
 10
0.0
 20
0.0
 30
0.0
  3
*D31
  1

  0
LINE
  5
1D83A
330
1D4BC
100
AcDbEntity
  8
30
  6
Continuous
 62
     0
440
 16777216
370
    -2
100
AcDbLine
 10
494.8414768420711
 20
537.1093561932172
 30
0.0
 11
494.8414768420711
 21
358.5763091176955
 31
0.0
  0
LINE
  5
1D83B
330
1D4BC
100
AcDbEntity
  8
30
  6
Continuous
 62
     0
440
 16777216
370
    -2
100
AcDbLine
 10
486.8414768420711
 20
537.1093561932172
 30
0.0
 11
486.8414768420711
 21
358.5763091176955
 31
0.0
  0
LINE
  5
1D83C
330
1D4BC
100
AcDbEntity
  8
30
  6
Continuous
 62
     0
440
 16777216
370
    -2
100
AcDbLine
 10
496.8414768420711
 20
359.0763091176955
 30
0.0
 11
498.8414768420711
 21
359.0763091176955
 31
0.0
  0
LINE
  5
1D83D
330
1D4BC
100
AcDbEntity
  8
30
  6
Continuous
 62
     0
440
 16777216
370
    -2
100
AcDbLine
 10
484.8414768420711
 20
359.0763091176955
 30
0.0
 11
471.5081435087378
 21
359.0763091176955
 31
0.0
  0
INSERT
  5
1D83E
330
1D4BC
100
AcDbEntity
  8
30
  6
Continuous
 62
     0
440
 16777216
370
    -2
100
AcDbBlockReference
  2
_OPEN
 10
494.8414768420711
 20
359.0763091176955
 30
0.0
 41
2.0
 42
2.0
 43
2.0
 50
180.0
  0
INSERT
  5
1D83F
330
1D4BC
100
AcDbEntity
  8
30
  6
Continuous
 62
     0
440
 16777216
370
    -2
100
AcDbBlockReference
  2
_OPEN
 10
486.8414768420711
 20
359.0763091176955
 30
0.0
 41
2.0
 42
2.0
 43
2.0
  0
MTEXT
  5
1D840
330
1D4BC
100
AcDbEntity
  8
30
  6
Continuous
440
 16777216
100
AcDbMText
 10
477.1748101754043
 20
366.0763091176955
 30
0.0
 40
8.0
 41
0.0
 46
0.0
 71
     5
 72
     1
  1
\A1;8
 73
     1
 44
1.0
 90
        3
 63
     9
421
 13158600
 45
1.25
441
        0
  0
POINT
  5
1D841
330
1D4BC
100
AcDbEntity
  8
DEFPOINTS
  6
Continuous
 62
     0
440
 16777216
100
AcDbPoint
 10
494.8414768420711
 20
538.1093561932173
 30
0.0
  0
POINT
  5
1D842
330
1D4BC
100
AcDbEntity
  8
DEFPOINTS
  6
Continuous
 62
     0
440
 16777216
100
AcDbPoint
 10
486.8414768420711
 20
538.1093561932173
 30
0.0
  0
POINT
  5
1D843
330
1D4BC
100
AcDbEntity
  8
DEFPOINTS
  6
Continuous
 62
     0
440
 16777216
100
AcDbPoint
 10
486.8414768420711
 20
359.0763091176955
 30
0.0
  0
ENDBLK
  5
1D4BE
330
1D4BC
100
AcDbEntity
  8
0
100
AcDbBlockEnd
  0
BLOCK
  5
1D4CA
330
1D4C9
100
AcDbEntity
  8
0
100
AcDbBlockBegin
  2
*D32
 70
     1
 10
0.0
 20
0.0
 30
0.0
  3
*D32
  1

  0
LINE
  5
1D804
330
1D4C9
100
AcDbEntity
  8
30
  6
Continuous
 62
     0
440
 16777216
370
    -2
100
AcDbLine
 10
269.2470976605682
 20
130.6032381936653
 30
0.0
 11
269.2470976605682
 21
21.8294466417683
 31
0.0
  0
LINE
  5
1D805
330
1D4C9
100
AcDbEntity
  8
30
  6
Continuous
 62
     0
440
 16777216
370
    -2
100
AcDbLine
 10
387.2470976605681
 20
130.6032381936653
 30
0.0
 11
387.2470976605681
 21
21.8294466417683
 31
0.0
  0
LINE
  5
1D806
330
1D4C9
100
AcDbEntity
  8
30
  6
Continuous
 62
     0
440
 16777216
370
    -2
100
AcDbLine
 10
271.2470976605682
 20
22.3294466417683
 30
0.0
 11
385.2470976605681
 21
22.3294466417683
 31
0.0
  0
INSERT
  5
1D807
330
1D4C9
100
AcDbEntity
  8
30
  6
Continuous
 62
     0
440
 16777216
370
    -2
100
AcDbBlockReference
  2
_OPEN
 10
269.2470976605682
 20
22.3294466417683
 30
0.0
 41
2.0
 42
2.0
 43
2.0
 50
180.0
  0
INSERT
  5
1D808
330
1D4C9
100
AcDbEntity
  8
30
  6
Continuous
 62
     0
440
 16777216
370
    -2
100
AcDbBlockReference
  2
_OPEN
 10
387.2470976605681
 20
22.3294466417683
 30
0.0
 41
2.0
 42
2.0
 43
2.0
  0
MTEXT
  5
1D809
330
1D4C9
100
AcDbEntity
  8
30
  6
Continuous
440
 16777216
100
AcDbMText
 10
328.2470976605682
 20
29.3294466417683
 30
0.0
 40
8.0
 41
0.0
 46
0.0
 71
     5
 72
     1
  1
\A1;118
 73
     1
 44
1.0
 90
        3
 63
     9
421
 13158600
 45
1.25
441
        0
  0
POINT
  5
1D80A
330
1D4C9
100
AcDbEntity
  8
DEFPOINTS
  6
Continuous
 62
     0
440
 16777216
100
AcDbPoint
 10
269.2470976605682
 20
131.6032381936653
 30
0.0
  0
POINT
  5
1D80B
330
1D4C9
100
AcDbEntity
  8
DEFPOINTS
  6
Continuous
 62
     0
440
 16777216
100
AcDbPoint
 10
387.2470976605681
 20
131.6032381936653
 30
0.0
  0
POINT
  5
1D80C
330
1D4C9
100
AcDbEntity
  8
DEFPOINTS
  6
Continuous
 62
     0
440
 16777216
100
AcDbPoint
 10
387.2470976605681
 20
22.3294466417683
 30
0.0
  0
ENDBLK
  5
1D4CB
330
1D4C9
100
AcDbEntity
  8
0
100
AcDbBlockEnd
  0
BLOCK
  5
1D4D6
330
1D4D5
100
AcDbEntity
  8
0
100
AcDbBlockBegin
  2
*D33
 70
     1
 10
0.0
 20
0.0
 30
0.0
  3
*D33
  1

  0
LINE
  5
1D669
330
1D4D5
100
AcDbEntity
  8
30
  6
Continuous
 62
     0
440
 16777216
370
    -2
100
AcDbLine
 10
388.2890802736665
 20
224.9840419920354
 30
0.0
 11
458.1868535687537
 21
224.9840419920354
 31
0.0
  0
LINE
  5
1D66A
330
1D4D5
100
AcDbEntity
  8
30
  6
Continuous
 62
     0
440
 16777216
370
    -2
100
AcDbLine
 10
388.2890802736665
 20
132.9840419920352
 30
0.0
 11
458.1868535687537
 21
132.9840419920352
 31
0.0
  0
LINE
  5
1D66B
330
1D4D5
100
AcDbEntity
  8
30
  6
Continuous
 62
     0
440
 16777216
370
    -2
100
AcDbLine
 10
457.6868535687537
 20
222.9840419920354
 30
0.0
 11
457.6868535687537
 21
134.9840419920352
 31
0.0
  0
INSERT
  5
1D66C
330
1D4D5
100
AcDbEntity
  8
30
  6
Continuous
 62
     0
440
 16777216
370
    -2
100
AcDbBlockReference
  2
_OPEN
 10
457.6868535687537
 20
224.9840419920354
 30
0.0
 41
2.0
 42
2.0
 43
2.0
 50
90.0
  0
INSERT
  5
1D66D
330
1D4D5
100
AcDbEntity
  8
30
  6
Continuous
 62
     0
440
 16777216
370
    -2
100
AcDbBlockReference
  2
_OPEN
 10
457.6868535687537
 20
132.9840419920352
 30
0.0
 41
2.0
 42
2.0
 43
2.0
 50
270.0
  0
MTEXT
  5
1D66E
330
1D4D5
100
AcDbEntity
  8
30
  6
Continuous
440
 16777216
100
AcDbMText
 10
450.6868535687536
 20
178.9840419920354
 30
0.0
 40
8.0
 41
0.0
 46
0.0
 71
     5
 72
     1
  1
\A1;92
 11
0.0000000000000001
 21
1.0
 31
0.0
 73
     1
 44
1.0
 90
        3
 63
     9
421
 13158600
 45
1.25
441
        0
  0
POINT
  5
1D66F
330
1D4D5
100
AcDbEntity
  8
DEFPOINTS
  6
Continuous
 62
     0
440
 16777216
100
AcDbPoint
 10
387.2890802736665
 20
224.9840419920354
 30
0.0
  0
POINT
  5
1D670
330
1D4D5
100
AcDbEntity
  8
DEFPOINTS
  6
Continuous
 62
     0
440
 16777216
100
AcDbPoint
 10
387.2890802736665
 20
132.9840419920352
 30
0.0
  0
POINT
  5
1D671
330
1D4D5
100
AcDbEntity
  8
DEFPOINTS
  6
Continuous
 62
     0
440
 16777216
100
AcDbPoint
 10
457.6868535687537
 20
132.9840419920352
 30
0.0
  0
ENDBLK
  5
1D4D7
330
1D4D5
100
AcDbEntity
  8
0
100
AcDbBlockEnd
  0
BLOCK
  5
1D4E2
330
1D4E1
100
AcDbEntity
  8
0
100
AcDbBlockBegin
  2
*D34
 70
     1
 10
0.0
 20
0.0
 30
0.0
  3
*D34
  1

  0
LINE
  5
1D7F6
330
1D4E1
100
AcDbEntity
  8
30
  6
Continuous
 62
     0
440
 16777216
370
    -2
100
AcDbLine
 10
387.4848380664453
 20
226.1268330060726
 30
0.0
 11
402.3871636973076
 21
249.1422143058666
 31
0.0
  0
LINE
  5
1D7F7
330
1D4E1
100
AcDbEntity
  8
30
  6
Continuous
 62
     0
440
 16777216
370
    -2
100
AcDbLine
 10
402.3871636973076
 20
249.1422143058666
 30
0.0
 11
418.7204970306408
 21
249.1422143058666
 31
0.0
  0
LINE
  5
1D7F8
330
1D4E1
100
AcDbEntity
  8
30
  6
Continuous
 62
     0
440
 16777216
370
    -2
100
AcDbLine
 10
385.310802674846
 20
222.7692192526002
 30
0.0
 11
386.3978203706943
 21
224.4480261294116
 31
0.0
  0
INSERT
  5
1D7F9
330
1D4E1
100
AcDbEntity
  8
30
  6
Continuous
 62
     0
440
 16777216
370
    -2
100
AcDbBlockReference
  2
_OPEN
 10
386.3978203706943
 20
224.4480261294116
 30
0.0
 41
2.0
 42
2.0
 43
2.0
 50
237.0771776967185
  0
MTEXT
  5
1D7FA
330
1D4E1
100
AcDbEntity
  8
30
  6
Continuous
 62
     0
440
 16777216
100
AcDbMText
 10
412.0538303639746
 20
256.1422143058665
 30
0.0
 40
8.0
 41
0.0
 46
0.0
 71
     5
 72
     1
  1
\A1;R2
 73
     1
 44
1.0
  0
POINT
  5
1D7FB
330
1D4E1
100
AcDbEntity
  8
DEFPOINTS
  6
Continuous
 62
     0
440
 16777216
100
AcDbPoint
 10
386.3978203706943
 20
224.4480261294116
 30
0.0
  0
POINT
  5
1D7FC
330
1D4E1
100
AcDbEntity
  8
DEFPOINTS
  6
Continuous
 62
     0
440
 16777216
100
AcDbPoint
 10
385.310802674846
 20
222.7692192526002
 30
0.0
  0
ENDBLK
  5
1D4E3
330
1D4E1
100
AcDbEntity
  8
0
100
AcDbBlockEnd
  0
BLOCK
  5
1D4EC
330
1D4EB
100
AcDbEntity
  8
0
100
AcDbBlockBegin
  2
*D35
 70
     1
 10
0.0
 20
0.0
 30
0.0
  3
*D35
  1

  0
LINE
  5
1D7C9
330
1D4EB
100
AcDbEntity
  8
30
  6
Continuous
 62
     0
440
 16777216
370
    -2
100
AcDbLine
 10
89.56428802228305
 20
286.0740419920353
 30
0.0
 11
15.46459259136285
 21
286.0740419920353
 31
0.0
  0
LINE
  5
1D7CA
330
1D4EB
100
AcDbEntity
  8
30
  6
Continuous
 62
     0
440
 16777216
370
    -2
100
AcDbLine
 10
89.56428802228309
 20
71.98404199203544
 30
0.0
 11
15.4645925913628
 21
71.98404199203546
 31
0.0
  0
LINE
  5
1D7CB
330
1D4EB
100
AcDbEntity
  8
30
  6
Continuous
 62
     0
440
 16777216
370
    -2
100
AcDbLine
 10
15.96459259136286
 20
284.0740419920353
 30
0.0
 11
15.96459259136281
 21
73.98404199203546
 31
0.0
  0
INSERT
  5
1D7CC
330
1D4EB
100
AcDbEntity
  8
30
  6
Continuous
 62
     0
440
 16777216
370
    -2
100
AcDbBlockReference
  2
_OPEN
 10
15.96459259136286
 20
286.0740419920353
 30
0.0
 41
2.0
 42
2.0
 43
2.0
 50
90.0
  0
INSERT
  5
1D7CD
330
1D4EB
100
AcDbEntity
  8
30
  6
Continuous
 62
     0
440
 16777216
370
    -2
100
AcDbBlockReference
  2
_OPEN
 10
15.96459259136281
 20
71.98404199203546
 30
0.0
 41
2.0
 42
2.0
 43
2.0
 50
270.0
  0
MTEXT
  5
1D7CE
330
1D4EB
100
AcDbEntity
  8
30
  6
Continuous
440
 16777216
100
AcDbMText
 10
8.964592591362803
 20
179.0290419920354
 30
0.0
 40
8.0
 41
0.0
 46
0.0
 71
     5
 72
     1
  1
\A1;214.1
 11
0.0000000000000001
 21
1.0
 31
0.0
 73
     1
 44
1.0
 90
        3
 63
     9
421
 13158600
 45
1.25
441
        0
  0
POINT
  5
1D7CF
330
1D4EB
100
AcDbEntity
  8
DEFPOINTS
  6
Continuous
 62
     0
440
 16777216
100
AcDbPoint
 10
90.56428802228309
 20
286.0740419920353
 30
0.0
  0
POINT
  5
1D7D0
330
1D4EB
100
AcDbEntity
  8
DEFPOINTS
  6
Continuous
 62
     0
440
 16777216
100
AcDbPoint
 10
90.56428802228309
 20
71.98404199203544
 30
0.0
  0
POINT
  5
1D7D1
330
1D4EB
100
AcDbEntity
  8
DEFPOINTS
  6
Continuous
 62
     0
440
 16777216
100
AcDbPoint
 10
15.96459259136281
 20
71.98404199203546
 30
0.0
  0
ENDBLK
  5
1D4ED
330
1D4EB
100
AcDbEntity
  8
0
100
AcDbBlockEnd
  0
BLOCK
  5
1D4F8
330
1D4F7
100
AcDbEntity
  8
0
100
AcDbBlockBegin
  2
*D36
 70
     1
 10
0.0
 20
0.0
 30
0.0
  3
*D36
  1

  0
LINE
  5
1D682
330
1D4F7
100
AcDbEntity
  8
30
  6
Continuous
 62
     0
440
 16777216
370
    -2
100
AcDbLine
 10
90.56428802228309
 20
63.98404199203547
 30
0.0
 11
90.56428802228309
 21
19.77997556156458
 31
0.0
  0
LINE
  5
1D683
330
1D4F7
100
AcDbEntity
  8
30
  6
Continuous
 62
     0
440
 16777216
370
    -2
100
AcDbLine
 10
135.5642880222831
 20
63.98404199203547
 30
0.0
 11
135.5642880222831
 21
19.77997556156458
 31
0.0
  0
LINE
  5
1D684
330
1D4F7
100
AcDbEntity
  8
30
  6
Continuous
 62
     0
440
 16777216
370
    -2
100
AcDbLine
 10
92.56428802228313
 20
20.27997556156458
 30
0.0
 11
133.5642880222831
 21
20.27997556156458
 31
0.0
  0
INSERT
  5
1D685
330
1D4F7
100
AcDbEntity
  8
30
  6
Continuous
 62
     0
440
 16777216
370
    -2
100
AcDbBlockReference
  2
_OPEN
 10
90.56428802228309
 20
20.27997556156458
 30
0.0
 41
2.0
 42
2.0
 43
2.0
 50
180.0
  0
INSERT
  5
1D686
330
1D4F7
100
AcDbEntity
  8
30
  6
Continuous
 62
     0
440
 16777216
370
    -2
100
AcDbBlockReference
  2
_OPEN
 10
135.5642880222831
 20
20.27997556156458
 30
0.0
 41
2.0
 42
2.0
 43
2.0
  0
MTEXT
  5
1D687
330
1D4F7
100
AcDbEntity
  8
30
  6
Continuous
440
 16777216
100
AcDbMText
 10
113.0642880222831
 20
27.27997556156458
 30
0.0
 40
8.0
 41
0.0
 46
0.0
 71
     5
 72
     1
  1
\A1;45
 73
     1
 44
1.0
 90
        3
 63
     9
421
 13158600
 45
1.25
441
        0
  0
POINT
  5
1D688
330
1D4F7
100
AcDbEntity
  8
DEFPOINTS
  6
Continuous
 62
     0
440
 16777216
100
AcDbPoint
 10
90.56428802228309
 20
64.98404199203547
 30
0.0
  0
POINT
  5
1D689
330
1D4F7
100
AcDbEntity
  8
DEFPOINTS
  6
Continuous
 62
     0
440
 16777216
100
AcDbPoint
 10
135.5642880222831
 20
64.98404199203547
 30
0.0
  0
POINT
  5
1D68A
330
1D4F7
100
AcDbEntity
  8
DEFPOINTS
  6
Continuous
 62
     0
440
 16777216
100
AcDbPoint
 10
135.5642880222831
 20
20.27997556156458
 30
0.0
  0
ENDBLK
  5
1D4F9
330
1D4F7
100
AcDbEntity
  8
0
100
AcDbBlockEnd
  0
BLOCK
  5
1D504
330
1D503
100
AcDbEntity
  8
0
100
AcDbBlockBegin
  2
*D37
 70
     1
 10
0.0
 20
0.0
 30
0.0
  3
*D37
  1

  0
LINE
  5
1D80D
330
1D503
100
AcDbEntity
  8
30
  6
Continuous
 62
     0
440
 16777216
370
    -2
100
AcDbLine
 10
523.5197952150747
 20
130.6032381936653
 30
0.0
 11
523.5197952150747
 21
21.8294466417683
 31
0.0
  0
LINE
  5
1D80E
330
1D503
100
AcDbEntity
  8
30
  6
Continuous
 62
     0
440
 16777216
370
    -2
100
AcDbLine
 10
576.5197952150747
 20
130.6032381936653
 30
0.0
 11
576.5197952150747
 21
21.8294466417683
 31
0.0
  0
LINE
  5
1D80F
330
1D503
100
AcDbEntity
  8
30
  6
Continuous
 62
     0
440
 16777216
370
    -2
100
AcDbLine
 10
525.5197952150747
 20
22.3294466417683
 30
0.0
 11
574.5197952150747
 21
22.3294466417683
 31
0.0
  0
INSERT
  5
1D810
330
1D503
100
AcDbEntity
  8
30
  6
Continuous
 62
     0
440
 16777216
370
    -2
100
AcDbBlockReference
  2
_OPEN
 10
523.5197952150747
 20
22.3294466417683
 30
0.0
 41
2.0
 42
2.0
 43
2.0
 50
180.0
  0
INSERT
  5
1D811
330
1D503
100
AcDbEntity
  8
30
  6
Continuous
 62
     0
440
 16777216
370
    -2
100
AcDbBlockReference
  2
_OPEN
 10
576.5197952150747
 20
22.3294466417683
 30
0.0
 41
2.0
 42
2.0
 43
2.0
  0
MTEXT
  5
1D812
330
1D503
100
AcDbEntity
  8
30
  6
Continuous
440
 16777216
100
AcDbMText
 10
550.0197952150747
 20
29.3294466417683
 30
0.0
 40
8.0
 41
0.0
 46
0.0
 71
     5
 72
     1
  1
\A1;53
 73
     1
 44
1.0
 90
        3
 63
     9
421
 13158600
 45
1.25
441
        0
  0
POINT
  5
1D813
330
1D503
100
AcDbEntity
  8
DEFPOINTS
  6
Continuous
 62
     0
440
 16777216
100
AcDbPoint
 10
523.5197952150747
 20
131.6032381936653
 30
0.0
  0
POINT
  5
1D814
330
1D503
100
AcDbEntity
  8
DEFPOINTS
  6
Continuous
 62
     0
440
 16777216
100
AcDbPoint
 10
576.5197952150747
 20
131.6032381936653
 30
0.0
  0
POINT
  5
1D815
330
1D503
100
AcDbEntity
  8
DEFPOINTS
  6
Continuous
 62
     0
440
 16777216
100
AcDbPoint
 10
576.5197952150747
 20
22.3294466417683
 30
0.0
  0
ENDBLK
  5
1D505
330
1D503
100
AcDbEntity
  8
0
100
AcDbBlockEnd
  0
BLOCK
  5
1D510
330
1D50F
100
AcDbEntity
  8
0
100
AcDbBlockBegin
  2
*D38
 70
     1
 10
0.0
 20
0.0
 30
0.0
  3
*D38
  1

  0
LINE
  5
1D694
330
1D50F
100
AcDbEntity
  8
30
  6
Continuous
 62
     0
440
 16777216
370
    -2
100
AcDbLine
 10
577.561777828173
 20
224.9840419920354
 30
0.0
 11
686.9718388908967
 21
224.9840419920354
 31
0.0
  0
LINE
  5
1D695
330
1D50F
100
AcDbEntity
  8
30
  6
Continuous
 62
     0
440
 16777216
370
    -2
100
AcDbLine
 10
577.561777828173
 20
132.9840419920352
 30
0.0
 11
686.9718388908967
 21
132.9840419920352
 31
0.0
  0
LINE
  5
1D696
330
1D50F
100
AcDbEntity
  8
30
  6
Continuous
 62
     0
440
 16777216
370
    -2
100
AcDbLine
 10
686.4718388908967
 20
222.9840419920354
 30
0.0
 11
686.4718388908967
 21
134.9840419920352
 31
0.0
  0
INSERT
  5
1D697
330
1D50F
100
AcDbEntity
  8
30
  6
Continuous
 62
     0
440
 16777216
370
    -2
100
AcDbBlockReference
  2
_OPEN
 10
686.4718388908967
 20
224.9840419920354
 30
0.0
 41
2.0
 42
2.0
 43
2.0
 50
90.0
  0
INSERT
  5
1D698
330
1D50F
100
AcDbEntity
  8
30
  6
Continuous
 62
     0
440
 16777216
370
    -2
100
AcDbBlockReference
  2
_OPEN
 10
686.4718388908967
 20
132.9840419920352
 30
0.0
 41
2.0
 42
2.0
 43
2.0
 50
270.0
  0
MTEXT
  5
1D699
330
1D50F
100
AcDbEntity
  8
30
  6
Continuous
440
 16777216
100
AcDbMText
 10
679.4718388908967
 20
178.9840419920354
 30
0.0
 40
8.0
 41
0.0
 46
0.0
 71
     5
 72
     1
  1
\A1;92
 11
0.0000000000000001
 21
1.0
 31
0.0
 73
     1
 44
1.0
 90
        3
 63
     9
421
 13158600
 45
1.25
441
        0
  0
POINT
  5
1D69A
330
1D50F
100
AcDbEntity
  8
DEFPOINTS
  6
Continuous
 62
     0
440
 16777216
100
AcDbPoint
 10
576.561777828173
 20
224.9840419920354
 30
0.0
  0
POINT
  5
1D69B
330
1D50F
100
AcDbEntity
  8
DEFPOINTS
  6
Continuous
 62
     0
440
 16777216
100
AcDbPoint
 10
576.561777828173
 20
132.9840419920352
 30
0.0
  0
POINT
  5
1D69C
330
1D50F
100
AcDbEntity
  8
DEFPOINTS
  6
Continuous
 62
     0
440
 16777216
100
AcDbPoint
 10
686.4718388908967
 20
132.9840419920352
 30
0.0
  0
ENDBLK
  5
1D511
330
1D50F
100
AcDbEntity
  8
0
100
AcDbBlockEnd
  0
BLOCK
  5
1D51C
330
1D51B
100
AcDbEntity
  8
0
100
AcDbBlockBegin
  2
*D39
 70
     1
 10
0.0
 20
0.0
 30
0.0
  3
*D39
  1

  0
LINE
  5
1D69D
330
1D51B
100
AcDbEntity
  8
30
  6
Continuous
 62
     0
440
 16777216
370
    -2
100
AcDbLine
 10
56.56800556834829
 20
331.1525257521504
 30
0.0
 11
87.55750435467762
 21
289.9789452419553
 31
0.0
  0
MTEXT
  5
1D69E
330
1D51B
100
AcDbEntity
  8
30
  6
Continuous
440
 16777216
100
AcDbMText
 10
67.97398520894026
 20
327.6385432702863
 30
0.0
 40
8.0
 41
0.0
 46
0.0
 71
     5
 72
     1
  1
\A1;M6
 11
0.6013567335211058
 21
-0.7989806499839817
 31
0.0
 73
     1
 44
1.0
 90
        3
 63
     9
421
 13158600
 45
1.25
441
        0
  0
INSERT
  5
1D69F
330
1D51B
100
AcDbEntity
  8
30
  6
Continuous
 62
     0
440
 16777216
370
    -2
100
AcDbBlockReference
  2
_OPEN
 10
88.76021782171982
 20
288.3809839419873
 30
0.0
 41
2.0
 42
2.0
 43
2.0
 50
306.9671284485169
  0
LINE
  5
1D6A0
330
1D51B
100
AcDbEntity
  8
30
  6
Continuous
 62
     0
440
 16777216
370
    -2
100
AcDbLine
 10
90.47428802228314
 20
285.9840419920354
 30
0.0
 11
90.65428802228314
 21
285.9840419920354
 31
0.0
  0
LINE
  5
1D6A1
330
1D51B
100
AcDbEntity
  8
30
  6
Continuous
 62
     0
440
 16777216
370
    -2
100
AcDbLine
 10
90.56428802228309
 20
285.8940419920354
 30
0.0
 11
90.56428802228309
 21
286.0740419920353
 31
0.0
  0
POINT
  5
1D6A2
330
1D51B
100
AcDbEntity
  8
DEFPOINTS
  6
Continuous
 62
     0
440
 16777216
100
AcDbPoint
 10
88.76021782171982
 20
288.3809839419873
 30
0.0
  0
POINT
  5
1D6A3
330
1D51B
100
AcDbEntity
  8
DEFPOINTS
  6
Continuous
 62
     0
440
 16777216
100
AcDbPoint
 10
92.36835822284641
 20
283.5871000420835
 30
0.0
  0
ENDBLK
  5
1D51D
330
1D51B
100
AcDbEntity
  8
0
100
AcDbBlockEnd
  0
BLOCK
  5
1D526
330
1D525
100
AcDbEntity
  8
0
100
AcDbBlockBegin
  2
*D40
 70
     1
 10
0.0
 20
0.0
 30
0.0
  3
*D40
  1

  0
LINE
  5
1D6A4
330
1D525
100
AcDbEntity
  8
30
  6
Continuous
 62
     0
440
 16777216
370
    -2
100
AcDbLine
 10
131.2839548768724
 20
1009.560804545807
 30
0.0
 11
131.2839548768724
 21
1053.793017183538
 31
0.0
  0
LINE
  5
1D6A5
330
1D525
100
AcDbEntity
  8
30
  6
Continuous
 62
     0
440
 16777216
370
    -2
100
AcDbLine
 10
176.283934272398
 20
1009.560804545807
 30
0.0
 11
176.283934272398
 21
1053.793017183538
 31
0.0
  0
LINE
  5
1D6A6
330
1D525
100
AcDbEntity
  8
30
  6
Continuous
 62
     0
440
 16777216
370
    -2
100
AcDbLine
 10
133.2839548768725
 20
1053.293017183538
 30
0.0
 11
174.283934272398
 21
1053.293017183538
 31
0.0
  0
INSERT
  5
1D6A7
330
1D525
100
AcDbEntity
  8
30
  6
Continuous
 62
     0
440
 16777216
370
    -2
100
AcDbBlockReference
  2
_OPEN
 10
131.2839548768724
 20
1053.293017183538
 30
0.0
 41
2.0
 42
2.0
 43
2.0
 50
180.0
  0
INSERT
  5
1D6A8
330
1D525
100
AcDbEntity
  8
30
  6
Continuous
 62
     0
440
 16777216
370
    -2
100
AcDbBlockReference
  2
_OPEN
 10
176.283934272398
 20
1053.293017183538
 30
0.0
 41
2.0
 42
2.0
 43
2.0
  0
MTEXT
  5
1D6A9
330
1D525
100
AcDbEntity
  8
30
  6
Continuous
440
 16777216
100
AcDbMText
 10
153.7839445746351
 20
1060.293017183538
 30
0.0
 40
8.0
 41
0.0
 46
0.0
 71
     5
 72
     1
  1
\A1;45
 73
     1
 44
1.0
 90
        3
 63
     9
421
 13158600
 45
1.25
441
        0
  0
POINT
  5
1D6AA
330
1D525
100
AcDbEntity
  8
DEFPOINTS
  6
Continuous
 62
     0
440
 16777216
100
AcDbPoint
 10
131.2839548768724
 20
1008.560804545807
 30
0.0
  0
POINT
  5
1D6AB
330
1D525
100
AcDbEntity
  8
DEFPOINTS
  6
Continuous
 62
     0
440
 16777216
100
AcDbPoint
 10
176.283934272398
 20
1008.560804545807
 30
0.0
  0
POINT
  5
1D6AC
330
1D525
100
AcDbEntity
  8
DEFPOINTS
  6
Continuous
 62
     0
440
 16777216
100
AcDbPoint
 10
176.283934272398
 20
1053.293017183538
 30
0.0
  0
ENDBLK
  5
1D527
330
1D525
100
AcDbEntity
  8
0
100
AcDbBlockEnd
  0
BLOCK
  5
1D532
330
1D531
100
AcDbEntity
  8
0
100
AcDbBlockBegin
  2
*D41
 70
     1
 10
0.0
 20
0.0
 30
0.0
  3
*D41
  1

  0
LINE
  5
1D6AD
330
1D531
100
AcDbEntity
  8
30
  6
Continuous
 62
     0
440
 16777216
370
    -2
100
AcDbLine
 10
176.283934272398
 20
1009.560804545807
 30
0.0
 11
176.283934272398
 21
1053.793017183538
 31
0.0
  0
LINE
  5
1D6AE
330
1D531
100
AcDbEntity
  8
30
  6
Continuous
 62
     0
440
 16777216
370
    -2
100
AcDbLine
 10
221.2839548768725
 20
1003.478820795729
 30
0.0
 11
221.2839548768725
 21
1053.793017183538
 31
0.0
  0
LINE
  5
1D6AF
330
1D531
100
AcDbEntity
  8
30
  6
Continuous
 62
     0
440
 16777216
370
    -2
100
AcDbLine
 10
178.283934272398
 20
1053.293017183538
 30
0.0
 11
219.2839548768725
 21
1053.293017183538
 31
0.0
  0
INSERT
  5
1D6B0
330
1D531
100
AcDbEntity
  8
30
  6
Continuous
 62
     0
440
 16777216
370
    -2
100
AcDbBlockReference
  2
_OPEN
 10
176.283934272398
 20
1053.293017183538
 30
0.0
 41
2.0
 42
2.0
 43
2.0
 50
180.0
  0
INSERT
  5
1D6B1
330
1D531
100
AcDbEntity
  8
30
  6
Continuous
 62
     0
440
 16777216
370
    -2
100
AcDbBlockReference
  2
_OPEN
 10
221.2839548768725
 20
1053.293017183538
 30
0.0
 41
2.0
 42
2.0
 43
2.0
  0
MTEXT
  5
1D6B2
330
1D531
100
AcDbEntity
  8
30
  6
Continuous
440
 16777216
100
AcDbMText
 10
198.7839445746352
 20
1060.293017183538
 30
0.0
 40
8.0
 41
0.0
 46
0.0
 71
     5
 72
     1
  1
\A1;45
 73
     1
 44
1.0
 90
        3
 63
     9
421
 13158600
 45
1.25
441
        0
  0
POINT
  5
1D6B3
330
1D531
100
AcDbEntity
  8
DEFPOINTS
  6
Continuous
 62
     0
440
 16777216
100
AcDbPoint
 10
176.283934272398
 20
1008.560804545807
 30
0.0
  0
POINT
  5
1D6B4
330
1D531
100
AcDbEntity
  8
DEFPOINTS
  6
Continuous
 62
     0
440
 16777216
100
AcDbPoint
 10
221.2839548768725
 20
1002.478820795729
 30
0.0
  0
POINT
  5
1D6B5
330
1D531
100
AcDbEntity
  8
DEFPOINTS
  6
Continuous
 62
     0
440
 16777216
100
AcDbPoint
 10
221.2839548768725
 20
1053.293017183538
 30
0.0
  0
ENDBLK
  5
1D533
330
1D531
100
AcDbEntity
  8
0
100
AcDbBlockEnd
  0
BLOCK
  5
1D53E
330
1D53D
100
AcDbEntity
  8
0
100
AcDbBlockBegin
  2
*D42
 70
     1
 10
0.0
 20
0.0
 30
0.0
  3
*D42
  1

  0
LINE
  5
1D6B6
330
1D53D
100
AcDbEntity
  8
30
  6
Continuous
 62
     0
440
 16777216
370
    -2
100
AcDbLine
 10
292.2839000803351
 20
1038.478820795728
 30
0.0
 11
315.3615292225627
 21
1038.478820795728
 31
0.0
  0
LINE
  5
1D6B7
330
1D53D
100
AcDbEntity
  8
30
  6
Continuous
 62
     0
440
 16777216
370
    -2
100
AcDbLine
 10
285.788794698429
 20
1002.478820795729
 30
0.0
 11
315.3615292225627
 21
1002.478820795729
 31
0.0
  0
LINE
  5
1D6B8
330
1D53D
100
AcDbEntity
  8
30
  6
Continuous
 62
     0
440
 16777216
370
    -2
100
AcDbLine
 10
314.8615292225627
 20
1036.478820795728
 30
0.0
 11
314.8615292225627
 21
1004.478820795728
 31
0.0
  0
MTEXT
  5
1D6B9
330
1D53D
100
AcDbEntity
  8
30
  6
Continuous
440
 16777216
100
AcDbMText
 10
336.3236925280964
 20
1019.78928580781
 30
0.0
 40
8.0
 41
0.0
 46
0.0
 71
     5
 72
     1
  1
\A1;ON SIDE 36\POFF SIDE 35
 11
0.0000000000000001
 21
1.0
 31
0.0
 73
     1
 44
1.0
 90
        3
 63
     9
421
 13158600
 45
1.25
441
        0
  0
INSERT
  5
1D6BA
330
1D53D
100
AcDbEntity
  8
30
  6
Continuous
 62
     0
440
 16777216
370
    -2
100
AcDbBlockReference
  2
_OPEN
 10
314.8615292225627
 20
1038.478820795728
 30
0.0
 41
2.0
 42
2.0
 43
2.0
 50
90.0
  0
INSERT
  5
1D6BB
330
1D53D
100
AcDbEntity
  8
30
  6
Continuous
 62
     0
440
 16777216
370
    -2
100
AcDbBlockReference
  2
_OPEN
 10
314.8615292225627
 20
1002.478820795729
 30
0.0
 41
2.0
 42
2.0
 43
2.0
 50
270.0
  0
POINT
  5
1D6BC
330
1D53D
100
AcDbEntity
  8
DEFPOINTS
  6
Continuous
 62
     0
440
 16777216
100
AcDbPoint
 10
291.2839000803351
 20
1038.478820795728
 30
0.0
  0
POINT
  5
1D6BD
330
1D53D
100
AcDbEntity
  8
DEFPOINTS
  6
Continuous
 62
     0
440
 16777216
100
AcDbPoint
 10
284.788794698429
 20
1002.478820795729
 30
0.0
  0
POINT
  5
1D6BE
330
1D53D
100
AcDbEntity
  8
DEFPOINTS
  6
Continuous
 62
     0
440
 16777216
100
AcDbPoint
 10
314.8615292225627
 20
1002.478820795729
 30
0.0
  0
ENDBLK
  5
1D53F
330
1D53D
100
AcDbEntity
  8
0
100
AcDbBlockEnd
  0
BLOCK
  5
1D54A
330
1D549
100
AcDbEntity
  8
0
100
AcDbBlockBegin
  2
*D43
 70
     1
 10
0.0
 20
0.0
 30
0.0
  3
*D43
  1

  0
LINE
  5
1D6BF
330
1D549
100
AcDbEntity
  8
30
  6
Continuous
 62
     0
440
 16777216
370
    -2
100
AcDbLine
 10
221.283934272398
 20
1009.560804545807
 30
0.0
 11
221.283934272398
 21
1053.793017183538
 31
0.0
  0
LINE
  5
1D6C0
330
1D549
100
AcDbEntity
  8
30
  6
Continuous
 62
     0
440
 16777216
370
    -2
100
AcDbLine
 10
266.2839548768725
 20
1003.478820795729
 30
0.0
 11
266.2839548768725
 21
1053.793017183538
 31
0.0
  0
LINE
  5
1D6C1
330
1D549
100
AcDbEntity
  8
30
  6
Continuous
 62
     0
440
 16777216
370
    -2
100
AcDbLine
 10
223.283934272398
 20
1053.293017183538
 30
0.0
 11
264.2839548768725
 21
1053.293017183538
 31
0.0
  0
INSERT
  5
1D6C2
330
1D549
100
AcDbEntity
  8
30
  6
Continuous
 62
     0
440
 16777216
370
    -2
100
AcDbBlockReference
  2
_OPEN
 10
221.283934272398
 20
1053.293017183538
 30
0.0
 41
2.0
 42
2.0
 43
2.0
 50
180.0
  0
INSERT
  5
1D6C3
330
1D549
100
AcDbEntity
  8
30
  6
Continuous
 62
     0
440
 16777216
370
    -2
100
AcDbBlockReference
  2
_OPEN
 10
266.2839548768725
 20
1053.293017183538
 30
0.0
 41
2.0
 42
2.0
 43
2.0
  0
MTEXT
  5
1D6C4
330
1D549
100
AcDbEntity
  8
30
  6
Continuous
440
 16777216
100
AcDbMText
 10
243.7839445746353
 20
1060.293017183538
 30
0.0
 40
8.0
 41
0.0
 46
0.0
 71
     5
 72
     1
  1
\A1;45
 73
     1
 44
1.0
 90
        3
 63
     9
421
 13158600
 45
1.25
441
        0
  0
POINT
  5
1D6C5
330
1D549
100
AcDbEntity
  8
DEFPOINTS
  6
Continuous
 62
     0
440
 16777216
100
AcDbPoint
 10
221.283934272398
 20
1008.560804545807
 30
0.0
  0
POINT
  5
1D6C6
330
1D549
100
AcDbEntity
  8
DEFPOINTS
  6
Continuous
 62
     0
440
 16777216
100
AcDbPoint
 10
266.2839548768725
 20
1002.478820795729
 30
0.0
  0
POINT
  5
1D6C7
330
1D549
100
AcDbEntity
  8
DEFPOINTS
  6
Continuous
 62
     0
440
 16777216
100
AcDbPoint
 10
266.2839548768725
 20
1053.293017183538
 30
0.0
  0
ENDBLK
  5
1D54B
330
1D549
100
AcDbEntity
  8
0
100
AcDbBlockEnd
  0
BLOCK
  5
1D556
330
1D555
100
AcDbEntity
  8
0
100
AcDbBlockBegin
  2
*D44
 70
     1
 10
0.0
 20
0.0
 30
0.0
  3
*D44
  1

  0
LINE
  5
1D7AE
330
1D555
100
AcDbEntity
  8
30
  6
Continuous
 62
     0
440
 16777216
370
    -2
100
AcDbLine
 10
267.1626653823723
 20
697.1093561932171
 30
0.0
 11
335.1671630034535
 21
697.1093561932171
 31
0.0
  0
LINE
  5
1D7AF
330
1D555
100
AcDbEntity
  8
30
  6
Continuous
 62
     0
440
 16777216
370
    -2
100
AcDbLine
 10
276.6626653823723
 20
469.1093561932171
 30
0.0
 11
335.1671630034535
 21
469.1093561932171
 31
0.0
  0
LINE
  5
1D7B0
330
1D555
100
AcDbEntity
  8
30
  6
Continuous
 62
     0
440
 16777216
370
    -2
100
AcDbLine
 10
334.6671630034535
 20
695.1093561932172
 30
0.0
 11
334.6671630034535
 21
471.1093561932171
 31
0.0
  0
INSERT
  5
1D7B1
330
1D555
100
AcDbEntity
  8
30
  6
Continuous
 62
     0
440
 16777216
370
    -2
100
AcDbBlockReference
  2
_OPEN
 10
334.6671630034535
 20
697.1093561932171
 30
0.0
 41
2.0
 42
2.0
 43
2.0
 50
90.0
  0
INSERT
  5
1D7B2
330
1D555
100
AcDbEntity
  8
30
  6
Continuous
 62
     0
440
 16777216
370
    -2
100
AcDbBlockReference
  2
_OPEN
 10
334.6671630034535
 20
469.1093561932171
 30
0.0
 41
2.0
 42
2.0
 43
2.0
 50
270.0
  0
MTEXT
  5
1D7B3
330
1D555
100
AcDbEntity
  8
30
  6
Continuous
440
 16777216
100
AcDbMText
 10
323.6671630034534
 20
583.1093561932171
 30
0.0
 40
8.0
 41
0.0
 46
0.0
 71
     2
 72
     1
  1
\A1;228
 11
0.0000000000000001
 21
1.0
 31
0.0
 73
     1
 44
1.0
 90
        3
 63
     9
421
 13158600
 45
1.25
441
        0
  0
POINT
  5
1D7B4
330
1D555
100
AcDbEntity
  8
DEFPOINTS
  6
Continuous
 62
     0
440
 16777216
100
AcDbPoint
 10
266.1626653823723
 20
697.1093561932171
 30
0.0
  0
POINT
  5
1D7B5
330
1D555
100
AcDbEntity
  8
DEFPOINTS
  6
Continuous
 62
     0
440
 16777216
100
AcDbPoint
 10
275.6626653823723
 20
469.1093561932171
 30
0.0
  0
POINT
  5
1D7B6
330
1D555
100
AcDbEntity
  8
DEFPOINTS
  6
Continuous
 62
     0
440
 16777216
100
AcDbPoint
 10
334.6671630034535
 20
469.1093561932171
 30
0.0
  0
ENDBLK
  5
1D557
330
1D555
100
AcDbEntity
  8
0
100
AcDbBlockEnd
  0
BLOCK
  5
1D562
330
1D561
100
AcDbEntity
  8
0
100
AcDbBlockBegin
  2
*D45
 70
     1
 10
0.0
 20
0.0
 30
0.0
  3
*D45
  1

  0
LINE
  5
1DAED
330
1D561
100
AcDbEntity
  8
30
  6
Continuous
 62
     0
440
 16777216
370
    -2
100
AcDbLine
 10
292.3122054098261
 20
713.1093561932171
 30
0.0
 11
369.2329160975396
 21
713.1093561932171
 31
0.0
  0
LINE
  5
1DAEE
330
1D561
100
AcDbEntity
  8
30
  6
Continuous
 62
     0
440
 16777216
370
    -2
100
AcDbLine
 10
292.3122054098261
 20
453.1093561932171
 30
0.0
 11
369.2329160975396
 21
453.1093561932171
 31
0.0
  0
LINE
  5
1DAEF
330
1D561
100
AcDbEntity
  8
30
  6
Continuous
 62
     0
440
 16777216
370
    -2
100
AcDbLine
 10
368.7329160975397
 20
711.1093561932172
 30
0.0
 11
368.7329160975396
 21
455.109356193217
 31
0.0
  0
INSERT
  5
1DAF0
330
1D561
100
AcDbEntity
  8
30
  6
Continuous
 62
     0
440
 16777216
370
    -2
100
AcDbBlockReference
  2
_OPEN
 10
368.7329160975397
 20
713.1093561932171
 30
0.0
 41
2.0
 42
2.0
 43
2.0
 50
90.0
  0
INSERT
  5
1DAF1
330
1D561
100
AcDbEntity
  8
30
  6
Continuous
 62
     0
440
 16777216
370
    -2
100
AcDbBlockReference
  2
_OPEN
 10
368.7329160975396
 20
453.1093561932171
 30
0.0
 41
2.0
 42
2.0
 43
2.0
 50
270.0
  0
MTEXT
  5
1DAF2
330
1D561
100
AcDbEntity
  8
30
  6
Continuous
440
 16777216
100
AcDbMText
 10
357.7329160975395
 20
583.1093561932171
 30
0.0
 40
8.0
 41
0.0
 46
0.0
 71
     2
 72
     1
  1
\A1;260
 11
0.0000000000000001
 21
1.0
 31
0.0
 73
     1
 44
1.0
 90
        3
 63
     9
421
 13158600
 45
1.25
441
        0
  0
POINT
  5
1DAF3
330
1D561
100
AcDbEntity
  8
DEFPOINTS
  6
Continuous
 62
     0
440
 16777216
100
AcDbPoint
 10
291.3122054098261
 20
713.1093561932171
 30
0.0
  0
POINT
  5
1DAF4
330
1D561
100
AcDbEntity
  8
DEFPOINTS
  6
Continuous
 62
     0
440
 16777216
100
AcDbPoint
 10
291.3122054098261
 20
453.1093561932171
 30
0.0
  0
POINT
  5
1DAF5
330
1D561
100
AcDbEntity
  8
DEFPOINTS
  6
Continuous
 62
     0
440
 16777216
100
AcDbPoint
 10
368.7329160975396
 20
453.1093561932171
 30
0.0
  0
ENDBLK
  5
1D563
330
1D561
100
AcDbEntity
  8
0
100
AcDbBlockEnd
  0
BLOCK
  5
1D6E8
330
1D6E7
100
AcDbEntity
  8
0
100
AcDbBlockBegin
  2
*D46
 70
     1
 10
0.0
 20
0.0
 30
0.0
  3
*D46
  1

  0
LINE
  5
1D711
330
1D6E7
100
AcDbEntity
  8
30
 62
     0
440
 16777216
370
    -2
100
AcDbLine
 10
537.1598456858658
 20
841.8358036458773
 30
0.0
 11
537.1598456858658
 21
814.4077229000764
 31
0.0
  0
LINE
  5
1D712
330
1D6E7
100
AcDbEntity
  8
30
 62
     0
440
 16777216
370
    -2
100
AcDbLine
 10
569.1598456858654
 20
841.8358036458773
 30
0.0
 11
569.1598456858654
 21
814.4077229000764
 31
0.0
  0
LINE
  5
1D713
330
1D6E7
100
AcDbEntity
  8
30
 62
     0
440
 16777216
370
    -2
100
AcDbLine
 10
539.1598456858657
 20
814.9077229000763
 30
0.0
 11
567.1598456858654
 21
814.9077229000763
 31
0.0
  0
LINE
  5
1D714
330
1D6E7
100
AcDbEntity
  8
30
 62
     0
440
 16777216
370
    -2
100
AcDbLine
 10
569.1598456858654
 20
814.9077229000763
 30
0.0
 11
611.8265123525319
 21
814.9077229000763
 31
0.0
  0
INSERT
  5
1D715
330
1D6E7
100
AcDbEntity
  8
30
 62
     0
440
 16777216
370
    -2
100
AcDbBlockReference
  2
_OPEN
 10
537.1598456858658
 20
814.9077229000763
 30
0.0
 41
2.0
 42
2.0
 43
2.0
 50
180.0
  0
INSERT
  5
1D716
330
1D6E7
100
AcDbEntity
  8
30
 62
     0
440
 16777216
370
    -2
100
AcDbBlockReference
  2
_OPEN
 10
569.1598456858654
 20
814.9077229000763
 30
0.0
 41
2.0
 42
2.0
 43
2.0
  0
MTEXT
  5
1D717
330
1D6E7
100
AcDbEntity
  8
30
440
 16777216
100
AcDbMText
 10
591.4931790191988
 20
828.574389566743
 30
0.0
 40
8.0
 41
0.0
 46
0.0
 71
     5
 72
     1
  1
\A1;32\P(MAX.)
 73
     1
 44
1.0
 90
        3
 63
     9
421
 13158600
 45
1.25
441
        0
  0
POINT
  5
1D718
330
1D6E7
100
AcDbEntity
  8
DEFPOINTS
 62
     0
440
 16777216
100
AcDbPoint
 10
537.1598456858658
 20
842.8358036458773
 30
0.0
  0
POINT
  5
1D719
330
1D6E7
100
AcDbEntity
  8
DEFPOINTS
 62
     0
440
 16777216
100
AcDbPoint
 10
569.1598456858654
 20
842.8358036458773
 30
0.0
  0
POINT
  5
1D71A
330
1D6E7
100
AcDbEntity
  8
DEFPOINTS
 62
     0
440
 16777216
100
AcDbPoint
 10
569.1598456858654
 20
814.9077229000763
 30
0.0
  0
ENDBLK
  5
1D6E9
330
1D6E7
100
AcDbEntity
  8
0
100
AcDbBlockEnd
  0
BLOCK
  5
1D7D4
330
1D7D3
100
AcDbEntity
  8
0
100
AcDbBlockBegin
  2
*D47
 70
     1
 10
0.0
 20
0.0
 30
0.0
  3
*D47
  1

  0
LINE
  5
1D7DF
330
1D7D3
100
AcDbEntity
  8
30
 62
     0
440
 16777216
370
    -2
100
AcDbLine
 10
89.56428802228309
 20
285.9840419920352
 30
0.0
 11
18.53667579821108
 21
285.9840419920352
 31
0.0
  0
LINE
  5
1D7E0
330
1D7D3
100
AcDbEntity
  8
30
 62
     0
440
 16777216
370
    -2
100
AcDbLine
 10
89.56428802228309
 20
71.98404199203544
 30
0.0
 11
18.53667579821103
 21
71.98404199203546
 31
0.0
  0
LINE
  5
1D7E1
330
1D7D3
100
AcDbEntity
  8
30
 62
     0
440
 16777216
370
    -2
100
AcDbLine
 10
19.03667579821108
 20
283.9840419920352
 30
0.0
 11
19.03667579821104
 21
73.98404199203546
 31
0.0
  0
INSERT
  5
1D7E2
330
1D7D3
100
AcDbEntity
  8
30
 62
     0
440
 16777216
370
    -2
100
AcDbBlockReference
  2
_OPEN
 10
19.03667579821108
 20
285.9840419920352
 30
0.0
 41
2.0
 42
2.0
 43
2.0
 50
90.0
  0
INSERT
  5
1D7E3
330
1D7D3
100
AcDbEntity
  8
30
 62
     0
440
 16777216
370
    -2
100
AcDbBlockReference
  2
_OPEN
 10
19.03667579821103
 20
71.98404199203546
 30
0.0
 41
2.0
 42
2.0
 43
2.0
 50
270.0
  0
MTEXT
  5
1D7E4
330
1D7D3
100
AcDbEntity
  8
30
440
 16777216
100
AcDbMText
 10
12.03667579821103
 20
178.9840419920353
 30
0.0
 40
8.0
 41
0.0
 46
0.0
 71
     5
 72
     1
  1
\A1;214
 11
0.0000000000000001
 21
1.0
 31
0.0
 73
     1
 44
1.0
 90
        3
 63
     9
421
 13158600
 45
1.25
441
        0
  0
POINT
  5
1D7E5
330
1D7D3
100
AcDbEntity
  8
DEFPOINTS
 62
     0
440
 16777216
100
AcDbPoint
 10
90.56428802228309
 20
285.9840419920352
 30
0.0
  0
POINT
  5
1D7E6
330
1D7D3
100
AcDbEntity
  8
DEFPOINTS
 62
     0
440
 16777216
100
AcDbPoint
 10
90.56428802228309
 20
71.98404199203544
 30
0.0
  0
POINT
  5
1D7E7
330
1D7D3
100
AcDbEntity
  8
DEFPOINTS
 62
     0
440
 16777216
100
AcDbPoint
 10
19.03667579821103
 20
71.98404199203546
 30
0.0
  0
ENDBLK
  5
1D7D5
330
1D7D3
100
AcDbEntity
  8
0
100
AcDbBlockEnd
  0
BLOCK
  5
1DAF8
330
1DAF7
100
AcDbEntity
  8
0
100
AcDbBlockBegin
  2
*D52
 70
     1
 10
0.0
 20
0.0
 30
0.0
  3
*D52
  1

  0
LINE
  5
1DAFA
330
1DAF7
100
AcDbEntity
  8
30
 62
     0
440
 16777216
370
    -2
100
AcDbLine
 10
267.270880052575
 20
697.1093561932173
 30
0.0
 11
341.9553292359524
 21
697.1093561932173
 31
0.0
  0
LINE
  5
1DAFB
330
1DAF7
100
AcDbEntity
  8
30
 62
     0
440
 16777216
370
    -2
100
AcDbLine
 10
267.4708800525749
 20
469.0747842760298
 30
0.0
 11
341.9553292359524
 21
469.0747842760298
 31
0.0
  0
LINE
  5
1DAFC
330
1DAF7
100
AcDbEntity
  8
30
 62
     0
440
 16777216
370
    -2
100
AcDbLine
 10
341.4553292359524
 20
695.1093561932172
 30
0.0
 11
341.4553292359524
 21
471.0747842760298
 31
0.0
  0
INSERT
  5
1DAFD
330
1DAF7
100
AcDbEntity
  8
30
 62
     0
440
 16777216
370
    -2
100
AcDbBlockReference
  2
_OPEN
 10
341.4553292359524
 20
697.1093561932173
 30
0.0
 41
2.0
 42
2.0
 43
2.0
 50
90.0
  0
INSERT
  5
1DAFE
330
1DAF7
100
AcDbEntity
  8
30
 62
     0
440
 16777216
370
    -2
100
AcDbBlockReference
  2
_OPEN
 10
341.4553292359524
 20
469.0747842760298
 30
0.0
 41
2.0
 42
2.0
 43
2.0
 50
270.0
  0
MTEXT
  5
1DAFF
330
1DAF7
100
AcDbEntity
  8
30
440
 16777216
100
AcDbMText
 10
334.4553292359523
 20
583.0920702346236
 30
0.0
 40
8.0
 41
0.0
 46
0.0
 71
     5
 72
     1
  1
\A1;228
 11
0.0000000000000001
 21
1.0
 31
0.0
 73
     1
 44
1.0
 90
        3
 63
     9
421
 13158600
 45
1.25
441
        0
  0
POINT
  5
1DB00
330
1DAF7
100
AcDbEntity
  8
DEFPOINTS
 62
     0
440
 16777216
100
AcDbPoint
 10
266.2708800525749
 20
697.1093561932173
 30
0.0
  0
POINT
  5
1DB01
330
1DAF7
100
AcDbEntity
  8
DEFPOINTS
 62
     0
440
 16777216
100
AcDbPoint
 10
266.470880052575
 20
469.0747842760298
 30
0.0
  0
POINT
  5
1DB02
330
1DAF7
100
AcDbEntity
  8
DEFPOINTS
 62
     0
440
 16777216
100
AcDbPoint
 10
341.4553292359524
 20
469.0747842760298
 30
0.0
  0
ENDBLK
  5
1DAF9
330
1DAF7
100
AcDbEntity
  8
0
100
AcDbBlockEnd
  0
ENDSEC
  0
SECTION
  2
ENTITIES
  0
LINE
  5
1D1A8
330
1E
100
AcDbEntity
  8
16
100
AcDbLine
 10
176.2839548768725
 20
481.2847560711258
 30
0.0
 11
176.2839548768725
 21
688.7167140479004
 31
0.0
  0
LINE
  5
1D1A9
330
1E
100
AcDbEntity
  8
16
100
AcDbLine
 10
248.0586105189354
 20
583.1093561932171
 30
0.0
 11
92.37807309571484
 21
583.1093561932171
 31
0.0
  0
LINE
  5
1D1AA
330
1E
100
AcDbEntity
  8
16
100
AcDbLine
 10
581.1096241500231
 20
583.1093561932171
 30
0.0
 11
440.912072196822
 21
583.1093561932171
 31
0.0
  0
LINE
  5
1D1AB
330
1E
100
AcDbEntity
  8
16
100
AcDbLine
 10
674.1841582486186
 20
178.9840419920351
 30
0.0
 11
463.1206931487766
 21
178.9840419920351
 31
0.0
  0
LINE
  5
1D1AC
330
1E
100
AcDbEntity
  8
16
100
AcDbLine
 10
113.0642880222831
 20
42.98029564971828
 30
0.0
 11
113.0642880222831
 21
316.6840785036297
 31
0.0
  0
LINE
  5
1D1AD
330
1E
100
AcDbEntity
  8
16
100
AcDbLine
 10
234.7403369003178
 20
178.9840419920351
 30
0.0
 11
35.37443671663277
 21
178.9840419920351
 31
0.0
  0
LINE
  5
1D1AE
330
1E
100
AcDbEntity
  8
16
100
AcDbLine
 10
550.0197952150747
 20
40.81329622733995
 30
0.0
 11
550.0197952150747
 21
315.6997689555788
 31
0.0
  0
CIRCLE
  5
1D1AF
330
1E
100
AcDbEntity
  8
12
100
AcDbCircle
 10
-135.5642880222831
 20
285.9840419920352
 30
0.0
 40
3.0
210
0.0
220
0.0
230
-1.0
  0
CIRCLE
  5
1D1B0
330
1E
100
AcDbEntity
  8
12
100
AcDbCircle
 10
90.56428802228309
 20
285.9840419920352
 30
0.0
 40
3.0
  0
LWPOLYLINE
  5
1D1B1
330
1E
100
AcDbEntity
  8
18
  6
DIVIDE
100
AcDbPolyline
 90
        4
 70
     1
 43
0.0
 10
228.0642880222831
 20
48.98404199203547
 10
228.0642880222831
 20
308.9840419920353
 10
43.0642880222831
 20
308.9840419920353
 10
43.0642880222831
 20
48.98404199203547
  0
LINE
  5
1D1B2
330
1E
100
AcDbEntity
  8
12
  6
DASHDOT
100
AcDbLine
 10
135.5642880222831
 20
292.9840419920353
 30
0.0
 11
135.5642880222831
 21
278.9840419920353
 31
0.0
  0
LINE
  5
1D1B3
330
1E
100
AcDbEntity
  8
12
  6
DASHDOT
100
AcDbLine
 10
90.56428802228309
 20
292.9840419920353
 30
0.0
 11
90.56428802228309
 21
278.9840419920353
 31
0.0
  0
LINE
  5
1D1B4
330
1E
100
AcDbEntity
  8
12
  6
DASHDOT
100
AcDbLine
 10
83.56428802228311
 20
71.98404199203544
 30
0.0
 11
97.56428802228313
 21
71.98404199203544
 31
0.0
  0
CIRCLE
  5
1D1B5
330
1E
100
AcDbEntity
  8
12
100
AcDbCircle
 10
-90.56428802228309
 20
71.98404199203544
 30
0.0
 40
3.0
210
0.0
220
0.0
230
-1.0
  0
LINE
  5
1D1B6
330
1E
100
AcDbEntity
  8
12
  6
DASHDOT
100
AcDbLine
 10
90.56428802228309
 20
78.98404199203544
 30
0.0
 11
90.56428802228309
 21
64.98404199203547
 31
0.0
  0
LINE
  5
1D1B7
330
1E
100
AcDbEntity
  8
12
  6
DASHDOT
100
AcDbLine
 10
128.5642880222831
 20
71.98404199203544
 30
0.0
 11
142.5642880222831
 21
71.98404199203544
 31
0.0
  0
CIRCLE
  5
1D1B8
330
1E
100
AcDbEntity
  8
12
100
AcDbCircle
 10
135.5642880222831
 20
71.98404199203544
 30
0.0
 40
3.0
  0
LINE
  5
1D1B9
330
1E
100
AcDbEntity
  8
12
  6
DASHDOT
100
AcDbLine
 10
135.5642880222831
 20
78.98404199203544
 30
0.0
 11
135.5642880222831
 21
64.98404199203547
 31
0.0
  0
LINE
  5
1D1BA
330
1E
100
AcDbEntity
  8
12
  6
DASHDOT
100
AcDbLine
 10
83.56428802228311
 20
285.9840419920352
 30
0.0
 11
97.56428802228313
 21
285.9840419920352
 31
0.0
  0
LINE
  5
1D1BB
330
1E
100
AcDbEntity
  8
12
  6
DASHDOT
100
AcDbLine
 10
128.5642880222831
 20
285.9840419920352
 30
0.0
 11
142.5642880222831
 21
285.9840419920352
 31
0.0
  0
LWPOLYLINE
  5
1D1BC
330
1E
100
AcDbEntity
  8
18
  6
DIVIDE
100
AcDbPolyline
 90
        4
 70
     1
 43
0.0
 10
665.0197952150747
 20
48.98404199203524
 10
665.0197952150747
 20
308.9840419920357
 10
480.0197952150746
 20
308.9840419920357
 10
480.0197952150746
 20
48.98404199203524
  0
LWPOLYLINE
  5
1D1BD
330
1E
100
AcDbEntity
  8
11
 48
2.0
100
AcDbPolyline
 90
        8
 70
     1
 43
0.0
 10
574.5197952150747
 20
132.9840419920352
 42
0.4142135623730951
 10
576.5197952150747
 20
134.9840419920352
 10
576.5197952150747
 20
222.9840419920354
 42
0.4142135623730951
 10
574.5197952150747
 20
224.9840419920354
 10
525.5197952150747
 20
224.9840419920354
 42
0.4142135623730951
 10
523.5197952150747
 20
222.9840419920354
 10
523.5197952150747
 20
134.9840419920352
 42
0.4142135623730951
 10
525.5197952150747
 20
132.9840419920352
  0
DIMENSION
  5
1D1BF
330
1E
100
AcDbEntity
  8
30
  6
Continuous
100
AcDbDimension
280
     0
  2
*D36
 10
135.5642880222831
 20
20.27997556156458
 30
0.0
 11
113.0642880222831
 21
27.27997556156458
 31
0.0
 70
    32
 71
     5
 42
45.0
 73
     0
 74
     0
 75
     0
  3
STANDARD
100
AcDbAlignedDimension
 13
90.56428802228309
 23
64.98404199203547
 33
0.0
 14
135.5642880222831
 24
64.98404199203547
 34
0.0
100
AcDbRotatedDimension
1001
ACAD
1000
DSTYLE
1002
{
1070
    79
1070
     3
1002
}
  0
DIMENSION
  5
1D1C0
330
1E
100
AcDbEntity
  8
30
  6
Continuous
100
AcDbDimension
280
     0
  2
*D37
 10
576.5197952150747
 20
22.3294466417683
 30
0.0
 11
550.0197952150747
 21
22.3294466417683
 31
0.0
 70
   160
 71
     5
 42
53.0
 73
     0
 74
     0
 75
     0
  3
STANDARD
100
AcDbAlignedDimension
 13
523.5197952150747
 23
131.6032381936653
 33
0.0
 14
576.5197952150747
 24
131.6032381936653
 34
0.0
100
AcDbRotatedDimension
1001
ACAD
1000
DSTYLE
1002
{
1070
    79
1070
     3
1002
}
  0
DIMENSION
  5
1D1C1
330
1E
100
AcDbEntity
  8
30
  6
Continuous
100
AcDbDimension
280
     0
  2
*D38
 10
686.4718388908967
 20
132.9840419920352
 30
0.0
 11
686.4718388908967
 21
178.9840419920354
 31
0.0
 70
   160
 71
     5
 42
92.00000000000015
 73
     0
 74
     0
 75
     0
  3
STANDARD
100
AcDbAlignedDimension
 13
576.561777828173
 23
224.9840419920354
 33
0.0
 14
576.561777828173
 24
132.9840419920352
 34
0.0
 50
90.0
100
AcDbRotatedDimension
1001
ACAD
1000
DSTYLE
1002
{
1070
    79
1070
     3
1002
}
  0
LINE
  5
1D1C2
330
1E
100
AcDbEntity
  8
16
100
AcDbLine
 10
176.2838938417123
 20
887.2758692743222
 30
0.0
 11
176.2839548768725
 21
1055.95542479125
 31
0.0
  0
DIMENSION
  5
1D1C3
330
1E
100
AcDbEntity
  8
30
  6
Continuous
100
AcDbDimension
280
     0
  2
*D39
 10
92.36835822284641
 20
283.5871000420835
 30
0.0
 11
62.38112065905236
 21
323.4290461356386
 31
0.0
 70
   163
  1
M6
 71
     5
 42
5.999999999999886
 73
     0
 74
     0
 75
     0
  3
STANDARD
100
AcDbDiametricDimension
 15
88.76021782171982
 25
288.3809839419873
 35
0.0
 40
0.0
1001
ACAD
1000
DSTYLE
1002
{
1070
    79
1070
     3
1070
   288
1070
     1
1002
}
  0
LINE
  5
1D1C4
330
1E
100
AcDbEntity
  8
10
  6
CONTINOUS
100
AcDbLine
 10
291.2839548768725
 20
941.4788207957283
 30
0.0
 11
106.2839486382495
 21
941.4788207957283
 31
0.0
  0
LINE
  5
1D1C5
330
1E
100
AcDbEntity
  8
10
  6
CONTINOUS
100
AcDbLine
 10
291.2839548768725
 20
935.4788207957286
 30
0.0
 11
106.2839486382495
 21
935.4788207957286
 31
0.0
  0
LINE
  5
1D1C6
330
1E
100
AcDbEntity
  8
10
  6
CONTINOUS
100
AcDbLine
 10
234.2839486382495
 20
931.4788207957288
 30
0.0
 11
118.2839486382495
 21
931.4788207957288
 31
0.0
  0
LINE
  5
1D1C7
330
1E
100
AcDbEntity
  8
10
  6
CONTINOUS
100
AcDbLine
 10
291.2839548768725
 20
1038.478820795728
 30
0.0
 11
106.2839486382495
 21
1038.478820795728
 31
0.0
  0
LINE
  5
1D1C8
330
1E
100
AcDbEntity
  8
10
  6
CONTINOUS
100
AcDbLine
 10
106.2839486382495
 20
935.4788207957286
 30
0.0
 11
106.2839486382495
 21
1038.478820795728
 31
0.0
  0
LINE
  5
1D1C9
330
1E
100
AcDbEntity
  8
10
  6
CONTINOUS
100
AcDbLine
 10
118.2839486382495
 20
931.4788207957288
 30
0.0
 11
118.2839486382495
 21
935.4788207957286
 31
0.0
  0
LINE
  5
1D1CA
330
1E
100
AcDbEntity
  8
10
  6
CONTINOUS
100
AcDbLine
 10
193.2839486382495
 20
898.9788207957287
 30
0.0
 11
159.2839486382493
 21
898.9788207957287
 31
0.0
  0
LINE
  5
1D1CB
330
1E
100
AcDbEntity
  8
10
  6
CONTINOUS
100
AcDbLine
 10
194.2839486382495
 20
927.4788207957287
 30
0.0
 11
158.2839486382495
 21
927.4788207957287
 31
0.0
  0
LINE
  5
1D1CC
330
1E
100
AcDbEntity
  8
10
  6
CONTINOUS
100
AcDbLine
 10
159.2839486382493
 20
898.9788207957287
 30
0.0
 11
159.2839486382493
 21
927.4788207957287
 31
0.0
  0
LINE
  5
1D1CD
330
1E
100
AcDbEntity
  8
10
  6
CONTINOUS
100
AcDbLine
 10
158.2839486382495
 20
927.4788207957287
 30
0.0
 11
158.2839486382495
 21
931.4788207957288
 31
0.0
  0
LINE
  5
1D1CE
330
1E
100
AcDbEntity
  8
10
  6
CONTINOUS
100
AcDbLine
 10
193.2839486382495
 20
898.9788207957287
 30
0.0
 11
193.2839486382495
 21
927.4788207957287
 31
0.0
  0
LINE
  5
1D1CF
330
1E
100
AcDbEntity
  8
10
  6
CONTINOUS
100
AcDbLine
 10
194.2839486382495
 20
927.4788207957287
 30
0.0
 11
194.2839486382495
 21
931.4788207957288
 31
0.0
  0
LINE
  5
1D1D0
330
1E
100
AcDbEntity
  8
10
  6
CONTINOUS
100
AcDbLine
 10
291.2839548768725
 20
935.4788207957286
 30
0.0
 11
291.2839548768725
 21
1038.478820795728
 31
0.0
  0
LINE
  5
1D1D1
330
1E
100
AcDbEntity
  8
10
  6
CONTINOUS
100
AcDbLine
 10
234.2839486382495
 20
931.4788207957288
 30
0.0
 11
234.2839486382495
 21
935.4788207957286
 31
0.0
  0
DIMENSION
  5
1D1D2
330
1E
100
AcDbEntity
  8
30
  6
Continuous
100
AcDbDimension
280
     0
  2
*D40
 10
176.283934272398
 20
1053.293017183538
 30
0.0
 11
153.7839445746351
 21
1060.293017183538
 31
0.0
 70
    32
 71
     5
 42
44.99997939552554
 73
     0
 74
     0
 75
     0
  3
STANDARD
100
AcDbAlignedDimension
 13
131.2839548768724
 23
1008.560804545807
 33
0.0
 14
176.283934272398
 24
1008.560804545807
 34
0.0
100
AcDbRotatedDimension
1001
ACAD
1000
DSTYLE
1002
{
1070
   287
1070
     4
1070
   287
1070
     4
1070
   287
1070
     4
1070
   287
1070
     4
1070
   287
1070
     4
1070
   287
1070
     4
1070
   287
1070
     4
1070
   279
1070
     1
1070
    79
1070
     3
1002
}
  0
DIMENSION
  5
1D1D3
330
1E
100
AcDbEntity
  8
30
  6
Continuous
100
AcDbDimension
280
     0
  2
*D41
 10
221.2839548768725
 20
1053.293017183538
 30
0.0
 11
198.7839445746352
 21
1060.293017183538
 31
0.0
 70
    32
 71
     5
 42
45.00002060447445
 73
     0
 74
     0
 75
     0
  3
STANDARD
100
AcDbAlignedDimension
 13
176.283934272398
 23
1008.560804545807
 33
0.0
 14
221.2839548768725
 24
1002.478820795729
 34
0.0
100
AcDbRotatedDimension
1001
ACAD
1000
DSTYLE
1002
{
1070
   287
1070
     4
1070
   287
1070
     4
1070
   287
1070
     4
1070
   287
1070
     4
1070
   287
1070
     4
1070
   287
1070
     4
1070
   287
1070
     4
1070
   279
1070
     1
1070
    79
1070
     3
1002
}
  0
DIMENSION
  5
1D1D5
330
1E
100
AcDbEntity
  8
30
  6
Continuous
100
AcDbDimension
280
     0
  2
*D43
 10
266.2839548768725
 20
1053.293017183538
 30
0.0
 11
243.7839445746353
 21
1060.293017183538
 31
0.0
 70
    32
 71
     5
 42
45.00002060447445
 73
     0
 74
     0
 75
     0
  3
STANDARD
100
AcDbAlignedDimension
 13
221.283934272398
 23
1008.560804545807
 33
0.0
 14
266.2839548768725
 24
1002.478820795729
 34
0.0
100
AcDbRotatedDimension
1001
ACAD
1000
DSTYLE
1002
{
1070
   287
1070
     4
1070
   287
1070
     4
1070
   287
1070
     4
1070
   287
1070
     4
1070
   287
1070
     4
1070
   287
1070
     4
1070
   287
1070
     4
1070
   279
1070
     1
1070
    79
1070
     3
1002
}
  0
MTEXT
  5
1D1D6
330
1E
100
AcDbEntity
  8
19
  6
Continuous
100
AcDbMText
 10
506.6642399872643
 20
997.6832743351927
 30
0.0
 40
5.0
 41
94.44410000000001
 46
0.0
 71
     1
 72
     5
  1
PS630-CF 4P FC+BAR\PPS630-NF 4P FC+BAR\PPS630-GF 4P FC+BAR\PPS630-NE 4P FC+BAR\PPS630-GE 4P FC+BAR\PPH630-CF 4P FC+BAR\PPH630-CE 4P FC+BAR
  7
STANDARD1
 73
     1
 44
1.0
  0
ELLIPSE
  5
1D1D7
330
1E
100
AcDbEntity
  8
10
  6
Continuous
100
AcDbEllipse
 10
176.0413758883724
 20
583.1093561932171
 30
0.0
 11
0.0
 21
1100.0
 31
0.0
210
0.0
220
0.0
230
1.0
 40
0.0174550649
 41
4.690677605249396
 42
4.734986455434412
  0
LINE
  5
1D1D8
330
1E
100
AcDbEntity
  8
0
  6
SLD-実線
 62
     7
370
    30
100
AcDbLine
 10
195.2236496363723
 20
559.4624278232171
 30
0.0
 11
195.2374220348722
 21
559.2287198737168
 31
0.0
  0
LINE
  5
1D1D9
330
1E
100
AcDbEntity
  8
0
  6
SLD-実線
 62
     7
370
    30
100
AcDbLine
 10
157.0879087303722
 20
559.2287198737168
 30
0.0
 11
157.1016811288723
 21
559.4624278232171
 31
0.0
  0
ELLIPSE
  5
1D1DA
330
1E
100
AcDbEntity
  8
10
  6
Continuous
100
AcDbEllipse
 10
176.2839548768725
 20
583.1093561932171
 30
0.0
 11
0.0
 21
1100.0
 31
0.0
210
0.0
220
0.0
230
1.0
 40
0.0174550649
 41
1.548198852438138
 42
1.59250770193019
  0
LINE
  5
1D1DB
330
1E
100
AcDbEntity
  8
10
  6
Continuous
100
AcDbLine
 10
195.2374220348722
 20
559.2287198737168
 30
0.0
 11
157.0879087303722
 21
559.2287198737168
 31
0.0
  0
LINE
  5
1D1DC
330
1E
100
AcDbEntity
  8
10
  6
Continuous
100
AcDbLine
 10
195.2370451406586
 20
607.9644632622171
 30
0.0
 11
157.0882849848724
 21
607.9644632622171
 31
0.0
  0
LINE
  5
1D1DD
330
1E
100
AcDbEntity
  8
0
  6
SLD-実線
 62
     7
370
    30
100
AcDbLine
 10
151.7044991708724
 20
538.1093544052171
 30
0.0
 11
200.6452415588722
 21
538.1093544052171
 31
0.0
  0
LINE
  5
1D1F3
330
1E
100
AcDbEntity
  8
10
  6
Continuous
100
AcDbLine
 10
159.1626644588723
 20
603.0589115902171
 30
0.0
 11
193.1626663063723
 21
603.0589115902171
 31
0.0
  0
LINE
  5
1D1F4
330
1E
100
AcDbEntity
  8
0
  6
SLD-実線
 62
     7
370
    30
100
AcDbLine
 10
159.1626644588723
 20
603.0589115902171
 30
0.0
 11
159.1626644588723
 21
599.6122711432171
 31
0.0
  0
LINE
  5
1D1F5
330
1E
100
AcDbEntity
  8
0
  6
SLD-実線
 62
     7
370
    30
100
AcDbLine
 10
193.1626663063723
 20
603.0589115902171
 30
0.0
 11
193.1626663063723
 21
599.6122711432171
 31
0.0
  0
LINE
  5
1D1F6
330
1E
100
AcDbEntity
  8
0
  6
SLD-実線
 62
     7
370
    30
100
AcDbLine
 10
159.1626644588723
 20
599.0880613312171
 30
0.0
 11
159.1626644588723
 21
599.6122711432171
 31
0.0
  0
LINE
  5
1D1F7
330
1E
100
AcDbEntity
  8
0
  6
SLD-実線
 62
     7
370
    30
100
AcDbLine
 10
193.1626663063723
 20
599.6122711432171
 30
0.0
 11
193.1626663063723
 21
599.0880613312171
 31
0.0
  0
LINE
  5
1D1F8
330
1E
100
AcDbEntity
  8
0
  6
SLD-実線
 62
     7
370
    30
100
AcDbLine
 10
159.1626644588723
 20
599.0880613312171
 30
0.0
 11
159.1626644588723
 21
595.8407192587169
 31
0.0
  0
LINE
  5
1D1F9
330
1E
100
AcDbEntity
  8
0
  6
SLD-実線
 62
     7
370
    30
100
AcDbLine
 10
193.1626663063723
 20
599.0880613312171
 30
0.0
 11
193.1626663063723
 21
595.8407192587169
 31
0.0
  0
LINE
  5
1D1FA
330
1E
100
AcDbEntity
  8
0
  6
SLD-実線
 62
     7
370
    30
100
AcDbLine
 10
159.1626644588723
 20
595.1657292527171
 30
0.0
 11
159.1626644588723
 21
595.8407192587169
 31
0.0
  0
LINE
  5
1D1FB
330
1E
100
AcDbEntity
  8
0
  6
SLD-実線
 62
     7
370
    30
100
AcDbLine
 10
159.1626644588723
 20
594.9066092357171
 30
0.0
 11
193.1626663063723
 21
594.9066092357171
 31
0.0
  0
LINE
  5
1D1FC
330
1E
100
AcDbEntity
  8
0
  6
SLD-実線
 62
     7
370
    30
100
AcDbLine
 10
159.1626644588723
 20
595.1657292527171
 30
0.0
 11
159.1626644588723
 21
594.9066092357171
 31
0.0
  0
LINE
  5
1D203
330
1E
100
AcDbEntity
  8
0
  6
SLD-実線
 62
     7
370
    30
100
AcDbLine
 10
213.4939894533722
 20
538.1093544052171
 30
0.0
 11
232.9626657518722
 21
538.1093544052171
 31
0.0
  0
ELLIPSE
  5
1D204
330
1E
100
AcDbEntity
  8
0
  6
SLD-実線
 62
     7
370
    30
100
AcDbEllipse
 10
213.1645707358723
 20
538.1042817157172
 30
0.0
 11
0.50001900419673
 21
-0.0000375365147676
 31
0.0
210
0.0
220
0.0
230
1.0
 40
0.0135556861
 41
0.8515556230107677
 42
1.576334180670649
  0
LINE
  5
1D205
330
1E
100
AcDbEntity
  8
0
  6
SLD-実線
 62
     7
370
    30
100
AcDbLine
 10
202.3637701278724
 20
538.1110605877171
 30
0.0
 11
213.1618015918723
 21
538.1110605877171
 31
0.0
  0
LINE
  5
1D206
330
1E
100
AcDbEntity
  8
0
  6
SLD-実線
 62
     7
370
    30
100
AcDbLine
 10
232.9626657518722
 20
628.1093579812169
 30
0.0
 11
202.1626659188723
 21
628.1093579812169
 31
0.0
  0
LINE
  5
1D207
330
1E
100
AcDbEntity
  8
0
  6
SLD-実線
 62
     7
370
    30
100
AcDbLine
 10
150.1626648458723
 20
628.1093579812169
 30
0.0
 11
119.3626650128724
 21
628.1093579812169
 31
0.0
  0
LINE
  5
1D208
330
1E
100
AcDbEntity
  8
10
  6
Continuous
100
AcDbLine
 10
246.0126631413727
 20
675.6377805290327
 30
0.0
 11
246.0126631413725
 21
491.1825823223786
 31
0.0
  0
LINE
  5
1D209
330
1E
100
AcDbEntity
  8
240
370
    30
100
AcDbLine
 10
150.6626653823723
 20
628.1093561932172
 30
0.0
 11
201.6626653823723
 21
628.1093561932172
 31
0.0
  0
DIMENSION
  5
1D20B
330
1E
100
AcDbEntity
  8
30
  6
Continuous
100
AcDbDimension
280
     0
  2
*D45
 10
368.7329160975396
 20
453.1093561932171
 30
0.0
 11
368.7329160975395
 21
583.1093561932171
 31
0.0
 70
   160
  1
<>
 71
     2
 42
260.0000000000002
 73
     0
 74
     0
 75
     0
  3
STANDARD
100
AcDbAlignedDimension
 13
291.3122054098261
 23
713.1093561932171
 33
0.0
 14
291.3122054098261
 24
453.1093561932171
 34
0.0
 50
90.0
100
AcDbRotatedDimension
1001
ACAD
1000
DSTYLE
1002
{
1070
    79
1070
     3
1002
}
  0
LINE
  5
1D20C
330
1E
100
AcDbEntity
  8
16
100
AcDbLine
 10
176.2839548768725
 20
481.2847560711258
 30
0.0
 11
176.2839548768725
 21
763.7477044321846
 31
0.0
  0
LINE
  5
1D20D
330
1E
100
AcDbEntity
  8
16
100
AcDbLine
 10
299.680051317775
 20
583.1093561932171
 30
0.0
 11
92.37807309571508
 21
583.1093561932171
 31
0.0
  0
LWPOLYLINE
  5
1D20F
330
1E
100
AcDbEntity
  8
10
  6
Continuous
100
AcDbPolyline
 90
        8
 70
     1
 43
0.0
 10
233.2839548768725
 20
538.1093561932171
 10
119.2839548768725
 20
538.1093561932171
 42
-0.4142135623730951
 10
118.2839548768725
 20
539.1093561932172
 10
118.2839548768725
 20
627.1093561932172
 42
-0.4142135623730951
 10
119.2839548768725
 20
628.1093561932172
 10
233.2839548768725
 20
628.1093561932172
 42
-0.4142135623730951
 10
234.2839548768725
 20
627.1093561932172
 10
234.2839548768725
 20
539.1093561932172
 42
-0.4142135623730951
  0
LINE
  5
1D210
330
1E
100
AcDbEntity
  8
10
  6
Continuous
100
AcDbLine
 10
106.2839548768724
 20
675.6377805290327
 30
0.0
 11
291.2839548768725
 21
675.6377805290327
 31
0.0
  0
LINE
  5
1D211
330
1E
100
AcDbEntity
  8
10
  6
Continuous
100
AcDbLine
 10
106.2839548768724
 20
491.1825823223786
 30
0.0
 11
291.2839548768725
 21
491.1825823223786
 31
0.0
  0
CIRCLE
  5
1D214
330
1E
100
AcDbEntity
  8
10
  6
Continuous
100
AcDbCircle
 10
266.2839548768725
 20
656.7135031525919
 30
0.0
 40
8.0
  0
LINE
  5
1D215
330
1E
100
AcDbEntity
  8
10
  6
Continuous
100
AcDbLine
 10
201.7839548768722
 20
538.1093561932171
 30
0.0
 11
201.7839548768725
 21
628.1093561932172
 31
0.0
  0
LINE
  5
1D216
330
1E
100
AcDbEntity
  8
10
  6
Continuous
100
AcDbLine
 10
150.7839548768727
 20
538.1093561932171
 30
0.0
 11
150.7839548768725
 21
628.1093561932172
 31
0.0
  0
LINE
  5
1D217
330
1E
100
AcDbEntity
  8
10
  6
Continuous
100
AcDbLine
 10
267.8528128650787
 20
653.600380625459
 30
0.0
 11
268.5708455483573
 21
654.3184133087375
 31
0.0
  0
LINE
  5
1D218
330
1E
100
AcDbEntity
  8
10
  6
Continuous
100
AcDbLine
 10
268.7839548768725
 20
654.8850760278456
 30
0.0
 11
269.7839548768725
 21
655.8850760278455
 31
0.0
  0
LINE
  5
1D219
330
1E
100
AcDbEntity
  8
10
  6
Continuous
100
AcDbLine
 10
268.7839548768725
 20
656.2992895902189
 30
0.0
 11
269.7839548768725
 21
657.2992895902189
 31
0.0
  0
LINE
  5
1D21A
330
1E
100
AcDbEntity
  8
10
  6
Continuous
100
AcDbLine
 10
268.5807169045356
 20
652.5605177119492
 30
0.0
 11
269.7839548768725
 21
653.7637556842862
 31
0.0
  0
LINE
  5
1D21B
330
1E
100
AcDbEntity
  8
10
  6
Continuous
100
AcDbLine
 10
268.7839548768725
 20
654.5315226372523
 30
0.0
 11
269.7839548768725
 21
655.5315226372527
 31
0.0
  0
LINE
  5
1D21C
330
1E
100
AcDbEntity
  8
10
  6
Continuous
100
AcDbLine
 10
268.7839548768725
 20
657.0063963714054
 30
0.0
 11
269.7839548768725
 21
658.0063963714056
 31
0.0
  0
LINE
  5
1D21D
330
1E
100
AcDbEntity
  8
10
  6
Continuous
100
AcDbLine
 10
268.7839548768725
 20
655.9457361996257
 30
0.0
 11
269.7839548768725
 21
656.9457361996255
 31
0.0
  0
LINE
  5
1D21E
330
1E
100
AcDbEntity
  8
10
  6
Continuous
100
AcDbLine
 10
266.979328017731
 20
654.8482161216703
 30
0.0
 11
267.6973607010091
 21
655.5662488049486
 31
0.0
  0
LINE
  5
1D21F
330
1E
100
AcDbEntity
  8
10
  6
Continuous
100
AcDbLine
 10
266.6881664019479
 20
655.2641612870743
 30
0.0
 11
267.4061990852265
 21
655.9821939703526
 31
0.0
  0
LINE
  5
1D220
330
1E
100
AcDbEntity
  8
10
  6
Continuous
100
AcDbLine
 10
267.1249088256222
 20
654.6402435389685
 30
0.0
 11
267.8429415089006
 21
655.3582762222467
 31
0.0
  0
LINE
  5
1D221
330
1E
100
AcDbEntity
  8
10
  6
Continuous
100
AcDbLine
 10
267.9983936729702
 20
653.3924080427572
 30
0.0
 11
268.7164263562486
 21
654.1104407260355
 31
0.0
  0
LINE
  5
1D222
330
1E
100
AcDbEntity
  8
10
  6
Continuous
100
AcDbLine
 10
268.4351360966443
 20
652.7684902946512
 30
0.0
 11
269.7839548768725
 21
654.1173090748798
 31
0.0
  0
LINE
  5
1D223
330
1E
100
AcDbEntity
  8
10
  6
Continuous
100
AcDbLine
 10
268.7839548768725
 20
656.652842980812
 30
0.0
 11
269.7839548768725
 21
657.652842980812
 31
0.0
  0
LINE
  5
1D224
330
1E
100
AcDbEntity
  8
10
  6
Continuous
100
AcDbLine
 10
267.2704896335135
 20
654.4322709562666
 30
0.0
 11
267.9885223167917
 21
655.1503036395451
 31
0.0
  0
LINE
  5
1D225
330
1E
100
AcDbEntity
  8
10
  6
Continuous
100
AcDbLine
 10
268.289555288753
 20
652.9764628773532
 30
0.0
 11
269.7839548768725
 21
654.4708624654727
 31
0.0
  0
LINE
  5
1D226
330
1E
100
AcDbEntity
  8
10
  6
Continuous
100
AcDbLine
 10
268.7839548768725
 20
655.238629418439
 30
0.0
 11
269.7839548768725
 21
656.238629418439
 31
0.0
  0
LINE
  5
1D227
330
1E
100
AcDbEntity
  8
10
  6
Continuous
100
AcDbLine
 10
268.7839548768725
 20
658.7741633243716
 30
0.0
 11
269.7839548768725
 21
659.7741633243717
 31
0.0
  0
LINE
  5
1D228
330
1E
100
AcDbEntity
  8
10
  6
Continuous
100
AcDbLine
 10
267.7072320571876
 20
653.8083532081606
 30
0.0
 11
268.425264740466
 21
654.5263858914394
 31
0.0
  0
LINE
  5
1D229
330
1E
100
AcDbEntity
  8
10
  6
Continuous
100
AcDbLine
 10
268.7839548768725
 20
657.7135031525918
 30
0.0
 11
269.7839548768725
 21
658.7135031525917
 31
0.0
  0
LINE
  5
1D22A
330
1E
100
AcDbEntity
  8
10
  6
Continuous
100
AcDbLine
 10
266.3970047861653
 20
655.6801064524781
 30
0.0
 11
267.1150374694439
 21
656.3981391357562
 31
0.0
  0
LINE
  5
1D22B
330
1E
100
AcDbEntity
  8
10
  6
Continuous
100
AcDbLine
 10
268.7839548768725
 20
654.1779692466595
 30
0.0
 11
269.7839548768725
 21
655.1779692466594
 31
0.0
  0
LINE
  5
1D22C
330
1E
100
AcDbEntity
  8
10
  6
Continuous
100
AcDbLine
 10
268.7839548768725
 20
654.0139714108581
 30
0.0
 11
268.7839548768725
 21
661.7135031525918
 31
0.0
  0
LINE
  5
1D22D
330
1E
100
AcDbEntity
  8
10
  6
Continuous
100
AcDbLine
 10
267.5616512492961
 20
654.0163257908627
 30
0.0
 11
268.2796839325745
 21
654.7343584741411
 31
0.0
  0
LINE
  5
1D22E
330
1E
100
AcDbEntity
  8
10
  6
Continuous
100
AcDbLine
 10
268.7839548768725
 20
657.3599497619987
 30
0.0
 11
269.7839548768725
 21
658.3599497619988
 31
0.0
  0
LINE
  5
1D22F
330
1E
100
AcDbEntity
  8
10
  6
Continuous
100
AcDbLine
 10
266.5425855940565
 20
655.4721338697766
 30
0.0
 11
267.2606182773352
 21
656.1901665530547
 31
0.0
  0
LINE
  5
1D230
330
1E
100
AcDbEntity
  8
10
  6
Continuous
100
AcDbLine
 10
268.7839548768725
 20
655.5921828090323
 30
0.0
 11
269.7839548768725
 21
656.5921828090323
 31
0.0
  0
LINE
  5
1D231
330
1E
100
AcDbEntity
  8
10
  6
Continuous
100
AcDbLine
 10
268.7839548768725
 20
658.067056543185
 30
0.0
 11
269.7839548768725
 21
659.067056543185
 31
0.0
  0
LINE
  5
1D232
330
1E
100
AcDbEntity
  8
10
  6
Continuous
100
AcDbLine
 10
266.8337472098394
 20
655.0561887043722
 30
0.0
 11
267.5517798931178
 21
655.7742213876506
 31
0.0
  0
LINE
  5
1D233
330
1E
100
AcDbEntity
  8
10
  6
Continuous
100
AcDbLine
 10
267.4160704414048
 20
654.2242983735648
 30
0.0
 11
268.1341031246834
 21
654.942331056843
 31
0.0
  0
LINE
  5
1D234
330
1E
100
AcDbEntity
  8
10
  6
Continuous
100
AcDbLine
 10
268.7839548768725
 20
658.4206099337782
 30
0.0
 11
269.7839548768725
 21
659.4206099337782
 31
0.0
  0
LINE
  5
1D235
330
1E
100
AcDbEntity
  8
10
  6
Continuous
100
AcDbLine
 10
268.1439744808615
 20
653.1844354600552
 30
0.0
 11
269.7839548768725
 21
654.8244158560662
 31
0.0
  0
LINE
  5
1D236
330
1E
100
AcDbEntity
  8
10
  6
Continuous
100
AcDbLine
 10
265.5235199388176
 20
656.9279419486895
 30
0.0
 11
266.2415526220957
 21
657.6459746319677
 31
0.0
  0
LINE
  5
1D237
330
1E
100
AcDbEntity
  8
10
  6
Continuous
100
AcDbLine
 10
262.7839548768725
 20
658.7845709644567
 30
0.0
 11
264.3490021195084
 21
660.3496182070927
 31
0.0
  0
LINE
  5
1D238
330
1E
100
AcDbEntity
  8
10
  6
Continuous
100
AcDbLine
 10
262.7839548768725
 20
655.2490370585241
 30
0.0
 11
263.7839548768725
 21
656.2490370585241
 31
0.0
  0
LINE
  5
1D239
330
1E
100
AcDbEntity
  8
10
  6
Continuous
100
AcDbLine
 10
264.2132926677955
 20
658.7996951930067
 30
0.0
 11
264.9313253510738
 21
659.5177278762852
 31
0.0
  0
LINE
  5
1D23A
330
1E
100
AcDbEntity
  8
10
  6
Continuous
100
AcDbLine
 10
262.7839548768725
 20
658.0774641832703
 30
0.0
 11
263.7839548768725
 21
659.0774641832703
 31
0.0
  0
LINE
  5
1D23B
330
1E
100
AcDbEntity
  8
10
  6
Continuous
100
AcDbLine
 10
262.7839548768725
 20
653.8348234961513
 30
0.0
 11
263.7839548768725
 21
654.8348234961513
 31
0.0
  0
LINE
  5
1D23C
330
1E
100
AcDbEntity
  8
10
  6
Continuous
100
AcDbLine
 10
265.3779391309263
 20
657.1359145313915
 30
0.0
 11
266.0959718142044
 21
657.8539472146696
 31
0.0
  0
LINE
  5
1D23D
330
1E
100
AcDbEntity
  8
10
  6
Continuous
100
AcDbLine
 10
262.7839548768725
 20
657.7239107926772
 30
0.0
 11
263.7839548768725
 21
658.723910792677
 31
0.0
  0
LINE
  5
1D23E
330
1E
100
AcDbEntity
  8
10
  6
Continuous
100
AcDbLine
 10
262.7839548768725
 20
657.0168040114904
 30
0.0
 11
263.7839548768725
 21
658.0168040114904
 31
0.0
  0
LINE
  5
1D23F
330
1E
100
AcDbEntity
  8
10
  6
Continuous
100
AcDbLine
 10
262.7839548768725
 20
658.4310175738634
 30
0.0
 11
264.4945829273997
 21
660.141645624391
 31
0.0
  0
LINE
  5
1D240
330
1E
100
AcDbEntity
  8
10
  6
Continuous
100
AcDbLine
 10
262.7839548768725
 20
656.663250620897
 30
0.0
 11
263.7839548768725
 21
657.6632506208972
 31
0.0
  0
LINE
  5
1D241
330
1E
100
AcDbEntity
  8
10
  6
Continuous
100
AcDbLine
 10
262.7839548768725
 20
652.4206099337781
 30
0.0
 11
263.7839548768725
 21
653.4206099337782
 31
0.0
  0
LINE
  5
1D242
330
1E
100
AcDbEntity
  8
10
  6
Continuous
100
AcDbLine
 10
264.6500350914694
 20
658.1757774449012
 30
0.0
 11
265.3680677747479
 21
658.8938101281796
 31
0.0
  0
LINE
  5
1D243
330
1E
100
AcDbEntity
  8
10
  6
Continuous
100
AcDbLine
 10
262.7839548768725
 20
652.7741633243716
 30
0.0
 11
263.7839548768725
 21
653.7741633243716
 31
0.0
  0
LINE
  5
1D244
330
1E
100
AcDbEntity
  8
10
  6
Continuous
100
AcDbLine
 10
262.7839548768725
 20
656.3096972303041
 30
0.0
 11
263.7839548768725
 21
657.3096972303041
 31
0.0
  0
LINE
  5
1D245
330
1E
100
AcDbEntity
  8
10
  6
Continuous
100
AcDbLine
 10
264.7956158993606
 20
657.967804862199
 30
0.0
 11
265.5136485826393
 21
658.6858375454775
 31
0.0
  0
LINE
  5
1D246
330
1E
100
AcDbEntity
  8
10
  6
Continuous
100
AcDbLine
 10
262.7839548768725
 20
653.1277167149645
 30
0.0
 11
263.7839548768725
 21
654.1277167149647
 31
0.0
  0
LINE
  5
1D247
330
1E
100
AcDbEntity
  8
10
  6
Continuous
100
AcDbLine
 10
265.0867775151435
 20
657.5518596967953
 30
0.0
 11
265.8048101984218
 21
658.2698923800736
 31
0.0
  0
LINE
  5
1D248
330
1E
100
AcDbEntity
  8
10
  6
Continuous
100
AcDbLine
 10
262.7839548768725
 20
657.3703574020838
 30
0.0
 11
263.7839548768725
 21
658.3703574020837
 31
0.0
  0
LINE
  5
1D249
330
1E
100
AcDbEntity
  8
10
  6
Continuous
100
AcDbLine
 10
264.941196707252
 20
657.759832279497
 30
0.0
 11
265.6592293905305
 21
658.4778649627756
 31
0.0
  0
LINE
  5
1D24A
330
1E
100
AcDbEntity
  8
10
  6
Continuous
100
AcDbLine
 10
262.7839548768725
 20
654.5419302773377
 30
0.0
 11
263.7839548768725
 21
655.5419302773379
 31
0.0
  0
LINE
  5
1D24B
330
1E
100
AcDbEntity
  8
10
  6
Continuous
100
AcDbLine
 10
262.7839548768725
 20
654.8954836679309
 30
0.0
 11
263.7839548768725
 21
655.8954836679308
 31
0.0
  0
LINE
  5
1D24C
330
1E
100
AcDbEntity
  8
10
  6
Continuous
100
AcDbLine
 10
262.7839548768725
 20
655.6025904491177
 30
0.0
 11
263.7839548768725
 21
656.6025904491176
 31
0.0
  0
LINE
  5
1D24D
330
1E
100
AcDbEntity
  8
10
  6
Continuous
100
AcDbLine
 10
262.7839548768725
 20
654.1883768867446
 30
0.0
 11
263.7839548768725
 21
655.1883768867448
 31
0.0
  0
LINE
  5
1D24E
330
1E
100
AcDbEntity
  8
10
  6
Continuous
100
AcDbLine
 10
264.3588734756868
 20
658.5917226103044
 30
0.0
 11
265.0769061589654
 21
659.3097552935831
 31
0.0
  0
LINE
  5
1D24F
330
1E
100
AcDbEntity
  8
10
  6
Continuous
100
AcDbLine
 10
265.2323583230348
 20
657.3438871140936
 30
0.0
 11
265.9503910063131
 21
658.0619197973719
 31
0.0
  0
LINE
  5
1D250
330
1E
100
AcDbEntity
  8
10
  6
Continuous
100
AcDbLine
 10
262.7839548768725
 20
653.4812701055581
 30
0.0
 11
263.7839548768725
 21
654.481270105558
 31
0.0
  0
LINE
  5
1D251
330
1E
100
AcDbEntity
  8
10
  6
Continuous
100
AcDbLine
 10
262.7839548768725
 20
655.956143839711
 30
0.0
 11
263.7839548768725
 21
656.9561438397109
 31
0.0
  0
LINE
  5
1D252
330
1E
100
AcDbEntity
  8
10
  6
Continuous
100
AcDbLine
 10
264.5044542835781
 20
658.3837500276031
 30
0.0
 11
265.2224869668566
 21
659.1017827108815
 31
0.0
  0
LINE
  5
1D253
330
1E
100
AcDbEntity
  8
10
  6
Continuous
100
AcDbLine
 10
266.2514239782741
 20
655.8880790351799
 30
0.0
 11
266.9694566615525
 21
656.6061117184585
 31
0.0
  0
LINE
  5
1D254
330
1E
100
AcDbEntity
  8
10
  6
Continuous
100
AcDbLine
 10
263.394282657659
 20
661.7135031525918
 30
0.0
 11
268.7839548768725
 21
654.0139714108581
 31
0.0
  0
LINE
  5
1D255
330
1E
100
AcDbEntity
  8
10
  6
Continuous
100
AcDbLine
 10
266.1058431703827
 20
656.0960516178818
 30
0.0
 11
266.8238758536613
 21
656.8140843011604
 31
0.0
  0
LINE
  5
1D256
330
1E
100
AcDbEntity
  8
10
  6
Continuous
100
AcDbLine
 10
265.8146815546002
 20
656.5119967832857
 30
0.0
 11
266.5327142378787
 21
657.230029466564
 31
0.0
  0
LINE
  5
1D257
330
1E
100
AcDbEntity
  8
10
  6
Continuous
100
AcDbLine
 10
265.9602623624914
 20
656.3040242005837
 30
0.0
 11
266.67829504577
 21
657.0220568838622
 31
0.0
  0
LINE
  5
1D258
330
1E
100
AcDbEntity
  8
10
  6
Continuous
100
AcDbLine
 10
265.6691007467089
 20
656.7199693659873
 30
0.0
 11
266.3871334299872
 21
657.4380020492659
 31
0.0
  0
LINE
  5
1D259
330
1E
100
AcDbEntity
  8
10
  6
Continuous
100
AcDbLine
 10
269.7839548768725
 20
651.7135031525919
 30
0.0
 11
269.173627096086
 21
651.7135031525919
 31
0.0
  0
LINE
  5
1D25A
330
1E
100
AcDbEntity
  8
10
  6
Continuous
100
AcDbLine
 10
269.5014692981442
 20
651.7135031525919
 30
0.0
 11
269.7839548768725
 21
651.9959887313201
 31
0.0
  0
LINE
  5
1D25B
330
1E
100
AcDbEntity
  8
10
  6
Continuous
100
AcDbLine
 10
269.1479159075511
 20
651.7135031525919
 30
0.0
 11
269.7839548768725
 21
652.3495421219132
 31
0.0
  0
LINE
  5
1D25C
330
1E
100
AcDbEntity
  8
10
  6
Continuous
100
AcDbLine
 10
262.7839548768725
 20
651.7135031525919
 30
0.0
 11
263.7839548768725
 21
651.7135031525919
 31
0.0
  0
LINE
  5
1D25D
330
1E
100
AcDbEntity
  8
10
  6
Continuous
100
AcDbLine
 10
263.4910616580592
 20
651.7135031525919
 30
0.0
 11
263.7839548768725
 21
652.0063963714054
 31
0.0
  0
LINE
  5
1D25E
330
1E
100
AcDbEntity
  8
10
  6
Continuous
100
AcDbLine
 10
263.1375082674658
 20
651.7135031525919
 30
0.0
 11
263.7839548768725
 21
652.3599497619986
 31
0.0
  0
LINE
  5
1D25F
330
1E
100
AcDbEntity
  8
10
  6
Continuous
100
AcDbLine
 10
263.7839548768725
 20
659.4130348943251
 30
0.0
 11
263.7839548768725
 21
651.7135031525919
 31
0.0
  0
LINE
  5
1D260
330
1E
100
AcDbEntity
  8
10
  6
Continuous
100
AcDbLine
 10
262.7839548768725
 20
652.0670565431847
 30
0.0
 11
263.7839548768725
 21
653.067056543185
 31
0.0
  0
LINE
  5
1D261
330
1E
100
AcDbEntity
  8
10
  6
Continuous
100
AcDbLine
 10
263.7839548768725
 20
659.4130348943251
 30
0.0
 11
269.173627096086
 21
651.7135031525919
 31
0.0
  0
LINE
  5
1D262
330
1E
100
AcDbEntity
  8
10
  6
Continuous
100
AcDbLine
 10
268.8718785203182
 20
652.1445725465456
 30
0.0
 11
269.7839548768725
 21
653.0566489030999
 31
0.0
  0
LINE
  5
1D263
330
1E
100
AcDbEntity
  8
10
  6
Continuous
100
AcDbLine
 10
262.7839548768725
 20
651.7135031525919
 30
0.0
 11
262.7839548768725
 21
661.7135031525918
 31
0.0
  0
LINE
  5
1D264
330
1E
100
AcDbEntity
  8
10
  6
Continuous
100
AcDbLine
 10
269.7839548768725
 20
651.7135031525919
 30
0.0
 11
269.7839548768725
 21
661.7135031525918
 31
0.0
  0
LINE
  5
1D265
330
1E
100
AcDbEntity
  8
10
  6
Continuous
100
AcDbLine
 10
269.0174593282095
 20
651.9365999638437
 30
0.0
 11
269.7839548768725
 21
652.7030955125066
 31
0.0
  0
LINE
  5
1D266
330
1E
100
AcDbEntity
  8
10
  6
Continuous
100
AcDbLine
 10
262.7839548768725
 20
651.7135031525919
 30
0.0
 11
263.7839548768725
 21
652.7135031525919
 31
0.0
  0
LINE
  5
1D267
330
1E
100
AcDbEntity
  8
10
  6
Continuous
100
AcDbLine
 10
268.7262977124269
 20
652.3525451292473
 30
0.0
 11
269.7839548768725
 21
653.4102022936931
 31
0.0
  0
LINE
  5
1D2A5
330
1E
100
AcDbEntity
  8
0
  6
SLD-実線
 62
     7
370
    30
100
AcDbLine
 10
288.7627460513725
 20
453.1093609617171
 30
0.0
 11
283.7626688633725
 21
453.1093609617171
 31
0.0
  0
LINE
  5
1D2AD
330
1E
100
AcDbEntity
  8
0
  6
SLD-実線
 62
     7
370
    30
100
AcDbLine
 10
287.1634416733723
 20
453.1093609617171
 30
0.0
 11
284.3406104003723
 21
453.1093609617171
 31
0.0
  0
LWPOLYLINE
  5
1D2E5
330
1E
100
AcDbEntity
  8
10
  6
Continuous
100
AcDbPolyline
 90
        4
 70
     1
 43
0.0
 10
200.5839548768727
 20
542.6593561932171
 10
195.2839548768725
 20
542.6593561932171
 10
195.2839548768725
 20
549.2593561932173
 10
200.5839548768727
 20
549.2593561932173
  0
LWPOLYLINE
  5
1D2E6
330
1E
100
AcDbEntity
  8
10
  6
Continuous
100
AcDbPolyline
 90
        4
 70
     1
 43
0.0
 10
159.1626644588723
 20
603.0589115902171
 10
193.1626663063723
 20
603.0589115902171
 10
193.1626663063723
 20
594.9066092357171
 10
159.1626644588723
 20
594.9066092357171
  0
LINE
  5
1D2E7
330
1E
100
AcDbEntity
  8
24
  6
CONTINOUS
100
AcDbLine
 10
537.1598456858658
 20
888.1448487273772
 30
0.0
 11
537.1598456858658
 21
842.8358036458773
 31
0.0
  0
LINE
  5
1D2E8
330
1E
100
AcDbEntity
  8
24
  6
CONTINOUS
100
AcDbLine
 10
537.1598456858658
 20
842.8358036458773
 30
0.0
 11
569.1598456858654
 21
842.8358036458773
 31
0.0
  0
LINE
  5
1D2E9
330
1E
100
AcDbEntity
  8
24
  6
CONTINOUS
100
AcDbLine
 10
569.1598456858654
 20
880.3408828318771
 30
0.0
 11
569.1598456858654
 21
842.8358036458773
 31
0.0
  0
CIRCLE
  5
1D2EA
330
1E
100
AcDbEntity
  8
24
  6
CONTINOUS
100
AcDbCircle
 10
553.1598456858654
 20
854.8358036458772
 30
0.0
 40
5.499999999999785
  0
SPLINE
  5
1D2EB
330
1E
100
AcDbEntity
  8
24
  6
CONTINOUS
100
AcDbSpline
210
0.0
220
0.0
230
1.0
 70
     8
 71
     3
 72
     8
 73
     4
 74
     0
 42
0.000000001
 43
0.0000000001
 40
0.0
 40
0.0
 40
0.0
 40
0.0
 40
1.0
 40
1.0
 40
1.0
 40
1.0
 10
521.5912494194293
 20
881.4230997567461
 30
0.0
 10
541.1271277122831
 20
902.5525310165027
 30
0.0
 10
560.6371054766173
 20
865.6168490454941
 30
0.0
 10
579.1110294320051
 20
886.7678580764986
 30
0.0
  0
DIMENSION
  5
1D2EC
330
1E
100
AcDbEntity
  8
30
  6
Continuous
100
AcDbDimension
280
     0
  2
*D5
 10
511.0450423250325
 20
842.8358036458773
 30
0.0
 11
511.0450423250323
 21
848.8358036458773
 31
0.0
 70
   160
  1
<>\P(MAX.)
 71
     2
 42
12.0
 73
     0
 74
     0
 75
     0
  3
STANDARD
100
AcDbAlignedDimension
 13
553.1598456858654
 23
854.8358036458772
 33
0.0
 14
537.1598456858658
 24
842.8358036458773
 34
0.0
 50
90.0
100
AcDbRotatedDimension
1001
ACAD
1000
DSTYLE
1002
{
1070
    79
1070
     3
1002
}
  0
DIMENSION
  5
1D2EE
330
1E
100
AcDbEntity
  8
30
  6
Continuous
100
AcDbDimension
280
     0
  2
*D7
 10
548.5608598613652
 20
851.8192941758771
 30
0.0
 11
593.8299738645572
 21
881.5116472930032
 31
0.0
 70
   163
  1
<>
 71
     5
 42
10.99999999979081
 73
     0
 74
     0
 75
     0
  3
STANDARD
100
AcDbDiametricDimension
 15
557.7588315108653
 25
857.8523131158769
 35
0.0
 40
0.0
1001
ACAD
1000
DSTYLE
1002
{
1070
    79
1070
     3
1002
}
  0
LINE
  5
1D2EF
330
1E
100
AcDbEntity
  8
24
  6
CONTINOUS
100
AcDbLine
 10
553.1598456861156
 20
862.2458036458771
 30
0.0
 11
553.1598456861156
 21
847.2458036458771
 31
0.0
  0
LINE
  5
1D2F0
330
1E
100
AcDbEntity
  8
24
  6
CONTINOUS
100
AcDbLine
 10
545.6598456861156
 20
854.7458036458772
 30
0.0
 11
560.6598456861156
 21
854.7458036458772
 31
0.0
  0
LINE
  5
1D2F1
330
1E
100
AcDbEntity
  8
10
  6
CONTINOUS
100
AcDbLine
 10
454.3286712610711
 20
603.0589115902171
 30
0.0
 11
468.4399368010713
 21
599.0880613312171
 31
0.0
  0
LINE
  5
1D2F2
330
1E
100
AcDbEntity
  8
10
  6
CONTINOUS
100
AcDbLine
 10
457.4345053875709
 20
614.6500219687169
 30
0.0
 11
454.3286712610711
 21
603.0589115902171
 31
0.0
  0
LINE
  5
1D2F3
330
1E
100
AcDbEntity
  8
10
  6
CONTINOUS
100
AcDbLine
 10
471.5916331840713
 20
611.033009744217
 30
0.0
 11
457.4345053875709
 21
614.6500219687169
 31
0.0
  0
LINE
  5
1D2F4
330
1E
100
AcDbEntity
  8
10
  6
CONTINOUS
100
AcDbLine
 10
478.0269117795708
 20
611.0958379787168
 30
0.0
 11
471.6406317200712
 21
611.0332493767169
 31
0.0
  0
LINE
  5
1D2F5
330
1E
100
AcDbEntity
  8
10
  6
CONTINOUS
100
AcDbLine
 10
482.8402103625708
 20
609.395496277217
 30
0.0
 11
478.0269096211411
 21
611.0958386656448
 31
0.0
  0
LINE
  5
1D2F6
330
1E
100
AcDbEntity
  8
10
  6
CONTINOUS
100
AcDbLine
 10
478.9579214300711
 20
594.906609235717
 30
0.0
 11
482.8402103625708
 21
609.395496277217
 31
0.0
  0
LINE
  5
1D2F7
330
1E
100
AcDbEntity
  8
10
  6
CONTINOUS
100
AcDbLine
 10
473.939312605933
 20
595.8407189242006
 30
0.0
 11
478.9579214300711
 21
594.906609235717
 31
0.0
  0
LINE
  5
1D2F8
330
1E
100
AcDbEntity
  8
10
  6
CONTINOUS
100
AcDbLine
 10
468.4399368010713
 20
599.0880613312171
 30
0.0
 11
473.9393146480709
 21
595.8407192587169
 31
0.0
  0
ARC
  5
1D2F9
330
1E
100
AcDbEntity
  8
10
  6
CONTINOUS
100
AcDbCircle
 10
531.9395891927479
 20
783.1384890755838
 30
0.0
 40
181.6640122735105
100
AcDbArc
 50
252.8048349791452
 51
255.6260127289898
  0
ARC
  5
1D2FA
330
1E
100
AcDbEntity
  8
10
  6
CONTINOUS
100
AcDbCircle
 10
473.6978106053197
 20
549.2970733727814
 30
0.0
 40
46.90130289725614
100
AcDbArc
 50
73.72541341298006
 51
83.24228441301221
  0
LINE
  5
1D2FB
330
1E
100
AcDbEntity
  8
0
  6
SLD-実線
 62
     7
370
    30
100
AcDbLine
 10
501.8194990005713
 20
491.1462363882168
 30
0.0
 11
501.8194766485708
 21
491.1462587402171
 31
0.0
  0
LINE
  5
1D2FC
330
1E
100
AcDbEntity
  8
0
  6
SLD-実線
 62
     7
370
    30
100
AcDbLine
 10
494.8414789285711
 20
539.1408276842168
 30
0.0
 11
494.8414789285711
 21
627.077884702217
 31
0.0
  0
LINE
  5
1D2FD
330
1E
100
AcDbEntity
  8
0
  6
SLD-実線
 62
     7
370
    30
100
AcDbLine
 10
504.8414768420711
 20
464.2821622177168
 30
0.0
 11
504.8414768420711
 21
486.0133824032168
 31
0.0
  0
LINE
  5
1D2FE
330
1E
100
AcDbEntity
  8
0
  6
SLD-実線
 62
     7
370
    30
100
AcDbLine
 10
504.8414768420711
 20
454.695142535717
 30
0.0
 11
504.8414768420711
 21
462.523571877217
 31
0.0
  0
LWPOLYLINE
  5
1D2FF
330
1E
100
AcDbEntity
  8
10
  6
CONTINOUS
100
AcDbPolyline
 90
       17
 70
     0
 43
0.0
 10
501.8194732281967
 20
491.1462553895576
 42
-0.2548527937776183
 10
498.841479703071
 20
496.6093561932168
 10
498.8414788001699
 20
538.1093561932173
 10
487.8476346056599
 20
538.1093561932173
 42
-0.4098794420300011
 10
486.8414768420711
 20
539.1093561932173
 10
486.8414768420711
 20
627.1093561932172
 42
-0.4142135623730951
 10
487.8414768420711
 20
628.1093561932172
 10
498.8414768420711
 20
628.1093561932172
 10
498.8414797030708
 20
669.6093561932172
 42
-0.2520627036336429
 10
501.762378132686
 20
675.0352231238438
 10
504.8414768420711
 20
675.0674678453921
 10
504.8414768420711
 20
713.1093561932173
 10
601.8414768420711
 20
713.1093561932173
 10
601.8414768420711
 20
453.1093561932173
 10
504.8414768420711
 20
453.1093561932173
 10
504.8414768420711
 20
491.109356014217
 10
501.8277691445714
 20
491.1409166737171
  0
LINE
  5
1D300
330
1E
100
AcDbEntity
  8
0
  6
SLD-実線
 62
     7
370
    30
100
AcDbLine
 10
501.8277691445714
 20
491.1409166737171
 30
0.0
 11
501.8277020895712
 21
491.140961377217
 31
0.0
  0
LINE
  5
1D301
330
1E
100
AcDbEntity
  8
10
  6
CONTINOUS
100
AcDbLine
 10
478.234722925571
 20
609.5942564012171
 30
0.0
 11
474.8700753390711
 21
597.0372206592172
 31
0.0
  0
LINE
  5
1D302
330
1E
100
AcDbEntity
  8
10
  6
CONTINOUS
100
AcDbLine
 10
474.8700753390711
 20
597.0372206592172
 30
0.0
 11
479.2167415570711
 21
595.8725349562171
 31
0.0
  0
LINE
  5
1D303
330
1E
100
AcDbEntity
  8
10
  6
CONTINOUS
100
AcDbLine
 10
504.8414797030712
 20
482.9186988942168
 30
0.0
 11
519.8414797030713
 21
482.9186988942168
 31
0.0
  0
LINE
  5
1D304
330
1E
100
AcDbEntity
  8
10
  6
CONTINOUS
100
AcDbLine
 10
504.8414797030712
 20
469.300013492217
 30
0.0
 11
519.8414797030713
 21
469.300013492217
 31
0.0
  0
LINE
  5
1D305
330
1E
100
AcDbEntity
  8
240
  6
SLD-破線
370
     0
100
AcDbLine
 10
519.8414797030713
 20
482.9186988942168
 30
0.0
 11
519.8414797030713
 21
469.300013492217
 31
0.0
  0
LINE
  5
1D306
330
1E
100
AcDbEntity
  8
10
  6
CONTINOUS
100
AcDbLine
 10
519.8414797030713
 20
469.300013492217
 30
0.0
 11
519.8414797030713
 21
482.9186988942168
 31
0.0
  0
DIMENSION
  5
1D307
330
1E
100
AcDbEntity
  8
30
  6
Continuous
100
AcDbDimension
280
     0
  2
*D8
 10
601.8414797030714
 20
340.7099935750212
 30
0.0
 11
536.8414797030713
 21
340.7099935750212
 31
0.0
 70
   160
  1
<>
 71
     2
 42
130.0
 73
     0
 74
     0
 75
     0
  3
STANDARD
100
AcDbAlignedDimension
 13
471.8414797030712
 23
583.5166654762173
 33
0.0
 14
601.8414797030714
 24
464.2376198117171
 34
0.0
100
AcDbRotatedDimension
1001
ACAD
1000
DSTYLE
1002
{
1070
    79
1070
     3
1002
}
  0
DIMENSION
  5
1D308
330
1E
100
AcDbEntity
  8
30
  6
Continuous
100
AcDbDimension
280
     0
  2
*D9
 10
616.5414797030712
 20
391.6176353940441
 30
0.0
 11
632.2081492307379
 21
391.6176353940441
 31
0.0
 70
   160
  1
<>
 71
     2
 42
14.70000286100003
 73
     0
 74
     0
 75
     0
  3
STANDARD
100
AcDbAlignedDimension
 13
601.8414768420711
 23
453.1093561932173
 33
0.0
 14
616.5414797030712
 24
472.9107108987171
 34
0.0
100
AcDbRotatedDimension
1001
ACAD
1000
DSTYLE
1002
{
1070
    79
1070
     3
1002
}
  0
DIMENSION
  5
1D309
330
1E
100
AcDbEntity
  8
30
  6
Continuous
100
AcDbDimension
280
     0
  2
*D10
 10
601.8414768420711
 20
359.0763091176955
 30
0.0
 11
546.3414797030709
 21
359.0763091176955
 31
0.0
 70
   160
  1
<>
 71
     2
 42
106.9999979135001
 73
     0
 74
     0
 75
     0
  3
STANDARD
100
AcDbAlignedDimension
 13
494.8414789285711
 23
539.1408276842168
 33
0.0
 14
601.8414768420711
 24
453.1093561932173
 34
0.0
100
AcDbRotatedDimension
1001
ACAD
1000
DSTYLE
1002
{
1070
    79
1070
     3
1002
}
  0
DIMENSION
  5
1D30A
330
1E
100
AcDbEntity
  8
30
  6
Continuous
100
AcDbDimension
280
     0
  2
*D11
 10
601.8414768420711
 20
373.3919776661096
 30
0.0
 11
549.3414797030713
 21
373.3919776661096
 31
0.0
 70
   160
  1
<>
 71
     2
 42
96.99999713899984
 73
     0
 74
     0
 75
     0
  3
STANDARD
100
AcDbAlignedDimension
 13
504.8414797030712
 23
454.6951426307169
 33
0.0
 14
601.8414768420711
 24
453.1093561932173
 34
0.0
100
AcDbRotatedDimension
1001
ACAD
1000
DSTYLE
1002
{
1070
    79
1070
     3
1002
}
  0
LINE
  5
1D30B
330
1E
100
AcDbEntity
  8
16
100
AcDbLine
 10
629.851094748908
 20
583.1093561932171
 30
0.0
 11
446.0701004578011
 21
583.1093561932171
 31
0.0
  0
LINE
  5
1D30C
330
1E
100
AcDbEntity
  8
10
  6
CONTINOUS
100
AcDbLine
 10
494.8414768420711
 20
628.1093561932172
 30
0.0
 11
494.8414768420711
 21
538.1093561932173
 31
0.0
  0
LINE
  5
1D30D
330
1E
100
AcDbEntity
  8
10
  6
CONTINOUS
100
AcDbLine
 10
498.8414768420711
 20
628.1093561932172
 30
0.0
 11
498.8414788001699
 21
538.1093561932173
 31
0.0
  0
LINE
  5
1D30E
330
1E
100
AcDbEntity
  8
12
  6
DASHED
100
AcDbLine
 10
516.5414768420704
 20
473.8593561932175
 30
0.0
 11
601.8414768420711
 21
473.8593561932175
 31
0.0
  0
LINE
  5
1D30F
330
1E
100
AcDbEntity
  8
12
  6
DASHED
100
AcDbLine
 10
516.5414768420704
 20
478.3593561932176
 30
0.0
 11
601.8414768420711
 21
478.3593561932176
 31
0.0
  0
LINE
  5
1D310
330
1E
100
AcDbEntity
  8
12
  6
DASHED
100
AcDbLine
 10
500.8414768420711
 20
476.1093561932177
 30
0.0
 11
625.8414768420712
 21
476.1093561932177
 31
0.0
  0
LINE
  5
1D311
330
1E
100
AcDbEntity
  8
12
  6
DASHED
100
AcDbLine
 10
504.8414768420711
 20
471.8593561932174
 30
0.0
 11
516.5414768420704
 21
471.8593561932174
 31
0.0
  0
LINE
  5
1D312
330
1E
100
AcDbEntity
  8
12
  6
DASHED
100
AcDbLine
 10
504.8414768420711
 20
480.3593561932174
 30
0.0
 11
516.5414768420704
 21
480.3593561932174
 31
0.0
  0
LINE
  5
1D313
330
1E
100
AcDbEntity
  8
12
  6
DASHED
100
AcDbLine
 10
510.5414768420703
 20
480.3593561932174
 30
0.0
 11
510.5414768420703
 21
471.8593561932174
 31
0.0
  0
LINE
  5
1D314
330
1E
100
AcDbEntity
  8
12
  6
DASHED
100
AcDbLine
 10
516.5414768420704
 20
480.3593561932174
 30
0.0
 11
516.5414768420704
 21
471.8593561932174
 31
0.0
  0
LINE
  5
1D315
330
1E
100
AcDbEntity
  8
12
  6
DASHED
100
AcDbLine
 10
516.5414768420704
 20
473.8593561932175
 30
0.0
 11
516.5414768420704
 21
471.8593561932174
 31
0.0
  0
LINE
  5
1D316
330
1E
100
AcDbEntity
  8
12
  6
DASHED
100
AcDbLine
 10
516.5414768420704
 20
480.3593561932174
 30
0.0
 11
516.5414768420704
 21
478.3593561932176
 31
0.0
  0
LINE
  5
1D317
330
1E
100
AcDbEntity
  8
12
  6
DASHED
100
AcDbLine
 10
601.8414768420711
 20
473.8593561932175
 30
0.0
 11
616.541476842071
 21
473.8593561932175
 31
0.0
  0
LINE
  5
1D318
330
1E
100
AcDbEntity
  8
12
  6
DASHED
100
AcDbLine
 10
601.8414768420711
 20
478.3593561932176
 30
0.0
 11
616.541476842071
 21
478.3593561932176
 31
0.0
  0
LINE
  5
1D319
330
1E
100
AcDbEntity
  8
10
  6
Continuous
100
AcDbLine
 10
616.541476842071
 20
478.3593561932176
 30
0.0
 11
616.541476842071
 21
473.8593561932175
 31
0.0
  0
DIMENSION
  5
1D31A
330
1E
100
AcDbEntity
  8
30
  6
Continuous
100
AcDbDimension
280
     0
  2
*D12
 10
421.0778523626586
 20
538.1093561932173
 30
0.0
 11
421.0778523626586
 21
583.1093561932174
 31
0.0
 70
   160
 71
     5
 42
89.99999999999989
 73
     0
 74
     0
 75
     0
  3
STANDARD
100
AcDbAlignedDimension
 13
484.7700523499843
 23
628.1093561932172
 33
0.0
 14
482.8989514073
 24
538.1093561932173
 34
0.0
 50
90.0
100
AcDbRotatedDimension
1001
ACAD
1000
DSTYLE
1002
{
1070
    79
1070
     3
1002
}
  0
LWPOLYLINE
  5
1D31B
330
1E
100
AcDbEntity
  8
10
380
     2
100
AcDbPolyline
 90
        4
 70
     1
 43
0.0
 10
700.0
 20
0.0
 10
700.0
 20
1088.0
 10
0.0
 20
1088.0
 10
0.0
 20
0.0
  0
DIMENSION
  5
1D31C
330
1E
100
AcDbEntity
  8
30
  6
Continuous
100
AcDbDimension
280
     0
  2
*D13
 10
574.5835002293526
 20
222.7692192525998
 30
0.0
 11
601.3265279184812
 21
249.1422143058664
 31
0.0
 70
   164
 71
     5
 42
2.000000000179284
 73
     0
 74
     0
 75
     0
  3
STANDARD1
100
AcDbRadialDimension
 15
575.6705179252012
 25
224.4480261294113
 35
0.0
 40
0.0
1001
ACAD
1000
DSTYLE
1002
{
1070
   140
1040
8.0
1002
}
  0
DIMENSION
  5
1D31D
330
1E
100
AcDbEntity
  8
30
  6
Continuous
100
AcDbDimension
280
     0
  2
*D14
 10
172.1009568405878
 20
737.4728617932353
 30
0.0
 11
143.3288990447509
 21
776.542396249514
 31
0.0
 70
   163
  1
<>
 71
     5
 42
13.99999999967366
 73
     0
 74
     0
 75
     0
  3
STANDARD
100
AcDbDiametricDimension
 15
163.7991664609925
 25
748.7458505931997
 35
0.0
 40
0.0
  0
DIMENSION
  5
1D31E
330
1E
100
AcDbEntity
  8
30
  6
Continuous
100
AcDbDimension
280
     0
  2
*D15
 10
65.63569395114976
 20
743.1093561932173
 30
0.0
 11
65.63569395114964
 21
781.7740973072027
 31
0.0
 70
   160
  1
<>
 71
     2
 42
14.5
 73
     0
 74
     0
 75
     0
  3
STANDARD
100
AcDbAlignedDimension
 13
102.3839548768724
 23
757.6093561932172
 33
0.0
 14
106.7839548768725
 24
743.1093561932173
 34
0.0
 50
90.0
100
AcDbRotatedDimension
1001
ACAD
1000
DSTYLE
1002
{
1070
    79
1070
     3
1002
}
  0
DIMENSION
  5
1D31F
330
1E
100
AcDbEntity
  8
30
  6
Continuous
100
AcDbDimension
280
     0
  2
*D16
 10
65.63569395114974
 20
713.1093561932161
 30
0.0
 11
65.63569395114964
 21
724.4788679767029
 31
0.0
 70
   160
  1
<>
 71
     2
 42
30.00000000000125
 73
     0
 74
     0
 75
     0
  3
STANDARD
100
AcDbAlignedDimension
 13
106.7839548768725
 23
743.1093561932173
 33
0.0
 14
106.2839548768724
 24
713.1093561932161
 34
0.0
 50
90.0
100
AcDbRotatedDimension
  0
DIMENSION
  5
1D320
330
1E
100
AcDbEntity
  8
30
  6
Continuous
100
AcDbDimension
280
     0
  2
*D17
 10
38.18409491484
 20
713.1093561932171
 30
0.0
 11
38.18409491483988
 21
732.2897321859122
 31
0.0
 70
   160
  1
<>
 71
     2
 42
44.5000000000001
 73
     0
 74
     0
 75
     0
  3
STANDARD
100
AcDbAlignedDimension
 13
102.3839548768724
 23
757.6093561932172
 33
0.0
 14
106.2839548768724
 24
713.1093561932171
 34
0.0
 50
90.0
100
AcDbRotatedDimension
1001
ACAD
1000
DSTYLE
1002
{
1070
    79
1070
     3
1002
}
  0
LINE
  5
1D321
330
1E
100
AcDbEntity
  8
17
100
AcDbLine
 10
544.8414768420711
 20
743.1093561932173
 30
0.0
 11
572.8414768420711
 21
743.1093561932173
 31
0.0
  0
LWPOLYLINE
  5
1D322
330
1E
100
AcDbEntity
  8
24
  6
Continuous
100
AcDbPolyline
 90
        4
 70
     0
 43
0.0
 10
565.8414768420711
 20
713.1093561932173
 10
565.8414768420711
 20
757.6093561932172
 10
553.8414768420712
 20
757.6093561932172
 10
553.8414768420712
 20
713.1093561932173
  0
DIMENSION
  5
1D323
330
1E
100
AcDbEntity
  8
30
  6
Continuous
100
AcDbDimension
280
     0
  2
*D18
 10
565.8414768420711
 20
775.7157766283413
 30
0.0
 11
583.8414768420712
 21
782.7157766283415
 31
0.0
 70
    32
 71
     5
 42
36.0
 73
     0
 74
     0
 75
     0
  3
STANDARD
100
AcDbAlignedDimension
 13
601.8414768420711
 23
713.1093561932173
 33
0.0
 14
565.8414768420711
 24
757.6093561932172
 34
0.0
100
AcDbRotatedDimension
  0
DIMENSION
  5
1D324
330
1E
100
AcDbEntity
  8
30
  6
Continuous
100
AcDbDimension
280
     0
  2
*D19
 10
553.8414768420712
 20
775.7157766283413
 30
0.0
 11
543.5081435087377
 21
782.7157766283415
 31
0.0
 70
    32
 71
     5
 42
12.0
 73
     0
 74
     0
 75
     0
  3
STANDARD
100
AcDbAlignedDimension
 13
565.8414768420711
 23
757.6093561932172
 33
0.0
 14
553.8414768420712
 24
757.6093561932172
 34
0.0
100
AcDbRotatedDimension
  0
LINE
  5
1D325
330
1E
100
AcDbEntity
  8
17
  6
DASHDOT
100
AcDbLine
 10
143.6432896959975
 20
1005.545385628211
 30
0.0
 11
118.9245396959975
 21
1005.545385628211
 31
0.0
  0
LINE
  5
1D326
330
1E
100
AcDbEntity
  8
17
  6
DASHDOT
100
AcDbLine
 10
143.9497130754375
 20
1005.545385628211
 30
0.0
 11
118.9497130754375
 21
1005.545385628211
 31
0.0
  0
LINE
  5
1D327
330
1E
100
AcDbEntity
  8
24
  6
CONTINOUS
100
AcDbLine
 10
117.1496642473375
 20
1005.545385628211
 30
0.0
 11
145.1496642473375
 21
1005.545385628211
 31
0.0
  0
LWPOLYLINE
  5
1D328
330
1E
100
AcDbEntity
  8
24
  6
CONTINOUS
100
AcDbPolyline
 90
        2
 70
     0
 43
0.001
 10
117.1496642473375
 20
1002.478820795728
 10
145.1496642473375
 20
1002.478820795728
  0
LWPOLYLINE
  5
1D329
330
1E
100
AcDbEntity
  8
24
  6
CONTINOUS
100
AcDbPolyline
 90
        4
 70
     1
 43
0.0
 10
145.1496642473375
 20
1002.478820795728
 10
94.73390845737455
 20
1002.478820795728
 10
94.73390845737455
 20
994.4788207957286
 10
145.1496642473375
 20
994.4788207957286
  0
LWPOLYLINE
  5
1D32A
330
1E
100
AcDbEntity
  8
10
  6
CONTINOUS
100
AcDbPolyline
 90
        2
 70
     0
 43
0.0
 10
117.1496642473375
 20
1003.545385628211
 10
117.1496642473375
 20
1002.478820795728
  0
LWPOLYLINE
  5
1D32B
330
1E
100
AcDbEntity
  8
24
  6
CONTINOUS
100
AcDbPolyline
 90
        2
 70
     0
 43
0.001
 10
117.1496642473375
 20
1005.545385628211
 10
117.1496642473375
 20
1002.478820795728
  0
LWPOLYLINE
  5
1D32C
330
1E
100
AcDbEntity
  8
10
  6
CONTINOUS
100
AcDbPolyline
 90
        2
 70
     0
 43
0.0
 10
162.1496642473374
 20
1003.545385628211
 10
162.1496642473374
 20
1002.478820795728
  0
LINE
  5
1D32D
330
1E
100
AcDbEntity
  8
24
  6
CONTINOUS
100
AcDbLine
 10
141.1859630754375
 20
1005.545385628211
 30
0.0
 11
127.7134630754374
 21
1005.545385628211
 31
0.0
  0
LINE
  5
1D32E
330
1E
100
AcDbEntity
  8
24
  6
CONTINOUS
100
AcDbLine
 10
125.4666541180147
 20
1005.545385628211
 30
0.0
 11
125.4666541180147
 21
1002.478820795728
 31
0.0
  0
LINE
  5
1D32F
330
1E
100
AcDbEntity
  8
24
  6
CONTINOUS
100
AcDbLine
 10
137.1011752739803
 20
1005.545385628211
 30
0.0
 11
137.1011752739803
 21
1002.478820795728
 31
0.0
  0
LWPOLYLINE
  5
1D330
330
1E
100
AcDbEntity
  8
24
  6
CONTINOUS
100
AcDbPolyline
 90
        2
 70
     0
 43
0.001
 10
145.1496642473375
 20
1005.545385628211
 10
145.1496642473375
 20
1002.478820795728
  0
LINE
  5
1D331
330
1E
100
AcDbEntity
  8
17
  6
DASHDOT
100
AcDbLine
 10
182.6432896959975
 20
1005.545385628211
 30
0.0
 11
163.9245396959975
 21
1005.545385628211
 31
0.0
  0
LINE
  5
1D332
330
1E
100
AcDbEntity
  8
17
  6
DASHDOT
100
AcDbLine
 10
182.9497130754375
 20
1005.545385628211
 30
0.0
 11
163.9497130754375
 21
1005.545385628211
 31
0.0
  0
LINE
  5
1D333
330
1E
100
AcDbEntity
  8
24
  6
CONTINOUS
100
AcDbLine
 10
162.1496642473374
 20
1005.545385628211
 30
0.0
 11
190.1496642473374
 21
1005.545385628211
 31
0.0
  0
LWPOLYLINE
  5
1D334
330
1E
100
AcDbEntity
  8
24
  6
CONTINOUS
100
AcDbPolyline
 90
        2
 70
     0
 43
0.001
 10
162.1496642473374
 20
1002.478820795728
 10
190.1496642473374
 20
1002.478820795728
  0
LINE
  5
1D335
330
1E
100
AcDbEntity
  8
24
  6
CONTINOUS
100
AcDbLine
 10
180.1859630754375
 20
1005.545385628211
 30
0.0
 11
166.7134630754374
 21
1005.545385628211
 31
0.0
  0
LWPOLYLINE
  5
1D336
330
1E
100
AcDbEntity
  8
24
  6
CONTINOUS
100
AcDbPolyline
 90
        2
 70
     0
 43
0.001
 10
162.1496642473374
 20
1005.545385628211
 10
162.1496642473374
 20
1002.478820795728
  0
LINE
  5
1D337
330
1E
100
AcDbEntity
  8
24
  6
CONTINOUS
100
AcDbLine
 10
170.4666541180146
 20
1005.545385628211
 30
0.0
 11
170.4666541180146
 21
1002.478820795728
 31
0.0
  0
LINE
  5
1D338
330
1E
100
AcDbEntity
  8
24
  6
CONTINOUS
100
AcDbLine
 10
182.1011752739803
 20
1005.545385628211
 30
0.0
 11
182.1011752739803
 21
1002.478820795728
 31
0.0
  0
LWPOLYLINE
  5
1D339
330
1E
100
AcDbEntity
  8
24
  6
CONTINOUS
100
AcDbPolyline
 90
        2
 70
     0
 43
0.001
 10
190.1496642473374
 20
1005.545385628211
 10
190.1496642473374
 20
1002.478820795728
  0
LWPOLYLINE
  5
1D33A
330
1E
100
AcDbEntity
  8
10
  6
CONTINOUS
100
AcDbPolyline
 90
        4
 70
     0
 43
0.0
 10
207.1496642473376
 20
1003.545385628211
 10
207.1496642473376
 20
947.4788207957287
 10
235.1496642473376
 20
947.4788207957287
 10
235.1496642473376
 20
994.4788207957286
  0
LINE
  5
1D33B
330
1E
100
AcDbEntity
  8
24
  6
CONTINOUS
100
AcDbLine
 10
207.1496642473376
 20
1005.545385628211
 30
0.0
 11
235.1496642473376
 21
1005.545385628211
 31
0.0
  0
LWPOLYLINE
  5
1D33C
330
1E
100
AcDbEntity
  8
24
  6
CONTINOUS
100
AcDbPolyline
 90
        2
 70
     0
 43
0.001
 10
207.1496642473376
 20
1002.478820795728
 10
235.1496642473376
 20
1002.478820795728
  0
LWPOLYLINE
  5
1D33F
330
1E
100
AcDbEntity
  8
24
  6
CONTINOUS
100
AcDbPolyline
 90
        2
 70
     0
 43
0.001
 10
207.1496642473376
 20
1005.545385628211
 10
207.1496642473376
 20
1002.478820795728
  0
LINE
  5
1D340
330
1E
100
AcDbEntity
  8
24
  6
CONTINOUS
100
AcDbLine
 10
225.1859630754375
 20
1005.545385628211
 30
0.0
 11
217.7134630754374
 21
1005.545385628211
 31
0.0
  0
LINE
  5
1D341
330
1E
100
AcDbEntity
  8
24
  6
CONTINOUS
100
AcDbLine
 10
215.4666541180147
 20
1005.545385628211
 30
0.0
 11
215.4666541180147
 21
1002.478820795728
 31
0.0
  0
LINE
  5
1D342
330
1E
100
AcDbEntity
  8
24
  6
CONTINOUS
100
AcDbLine
 10
227.1011752739803
 20
1005.545385628211
 30
0.0
 11
227.1011752739803
 21
1002.478820795728
 31
0.0
  0
LWPOLYLINE
  5
1D343
330
1E
100
AcDbEntity
  8
24
  6
CONTINOUS
100
AcDbPolyline
 90
        2
 70
     0
 43
0.001
 10
235.1496642473376
 20
1005.545385628211
 10
235.1496642473376
 20
1002.478820795728
  0
LINE
  5
1D344
330
1E
100
AcDbEntity
  8
17
100
AcDbLine
 10
131.2839146959975
 20
1014.912255963246
 30
0.0
 11
131.2839146959975
 21
940.5787963816287
 31
0.0
  0
LINE
  5
1D346
330
1E
100
AcDbEntity
  8
17
100
AcDbLine
 10
221.2839146959975
 20
1014.912255963246
 30
0.0
 11
221.2839146959975
 21
940.5787963816287
 31
0.0
  0
LINE
  5
1D347
330
1E
100
AcDbEntity
  8
17
100
AcDbLine
 10
266.2839209346207
 20
1014.912255963246
 30
0.0
 11
266.2839209346207
 21
940.5787963816287
 31
0.0
  0
LWPOLYLINE
  5
1D348
330
1E
100
AcDbEntity
  8
10
  6
CONTINOUS
100
AcDbPolyline
 90
        4
 70
     0
 43
0.0
 10
252.1496704859605
 20
1003.545385628211
 10
252.1496704859605
 20
947.4788207957287
 10
280.1496704859605
 20
947.4788207957287
 10
280.1496704859605
 20
994.4788207957286
  0
LINE
  5
1D349
330
1E
100
AcDbEntity
  8
17
  6
DASHDOT
100
AcDbLine
 10
278.9497193140605
 20
1005.545385628211
 30
0.0
 11
253.9497193140605
 21
1005.545385628211
 31
0.0
  0
LINE
  5
1D34A
330
1E
100
AcDbEntity
  8
17
  6
DASHDOT
100
AcDbLine
 10
278.6432959346206
 20
1005.545385628211
 30
0.0
 11
253.9245459346207
 21
1005.545385628211
 31
0.0
  0
LWPOLYLINE
  5
1D34B
330
1E
100
AcDbEntity
  8
24
  6
CONTINOUS
100
AcDbPolyline
 90
        2
 70
     0
 43
0.001
 10
252.1496704859605
 20
1002.478820795728
 10
280.1496704859605
 20
1002.478820795728
  0
LINE
  5
1D34C
330
1E
100
AcDbEntity
  8
24
  6
CONTINOUS
100
AcDbLine
 10
252.1496704859605
 20
1005.545385628211
 30
0.0
 11
280.1496704859605
 21
1005.545385628211
 31
0.0
  0
LWPOLYLINE
  5
1D34D
330
1E
100
AcDbEntity
  8
24
  6
CONTINOUS
100
AcDbPolyline
 90
        2
 70
     0
 43
0.001
 10
252.1496704859605
 20
1005.545385628211
 10
252.1496704859605
 20
1002.478820795728
  0
LINE
  5
1D34E
330
1E
100
AcDbEntity
  8
24
  6
CONTINOUS
100
AcDbLine
 10
270.1859693140605
 20
1005.545385628211
 30
0.0
 11
262.7134693140606
 21
1005.545385628211
 31
0.0
  0
LINE
  5
1D34F
330
1E
100
AcDbEntity
  8
24
  6
CONTINOUS
100
AcDbLine
 10
260.4666603566379
 20
1005.545385628211
 30
0.0
 11
260.4666603566379
 21
1002.478820795728
 31
0.0
  0
LWPOLYLINE
  5
1D350
330
1E
100
AcDbEntity
  8
24
  6
CONTINOUS
100
AcDbPolyline
 90
        2
 70
     0
 43
0.001
 10
280.1496704859605
 20
1005.545385628211
 10
280.1496704859605
 20
1002.478820795728
  0
LINE
  5
1D351
330
1E
100
AcDbEntity
  8
24
  6
CONTINOUS
100
AcDbLine
 10
272.1011815126035
 20
1005.545385628211
 30
0.0
 11
272.1011815126035
 21
1002.478820795728
 31
0.0
  0
LWPOLYLINE
  5
1D352
330
1E
100
AcDbEntity
  8
24
  6
CONTINOUS
100
AcDbPolyline
 90
        4
 70
     1
 43
0.0
 10
154.5996642473376
 20
1002.478820795728
 10
190.1496642473374
 20
1002.478820795728
 10
190.1496642473374
 20
994.4788207957286
 10
154.5996642473376
 20
994.4788207957286
  0
LWPOLYLINE
  5
1D353
330
1E
100
AcDbEntity
  8
24
  6
CONTINOUS
100
AcDbPolyline
 90
        4
 70
     1
 43
0.0
 10
207.1496642473376
 20
1002.478820795728
 10
242.6496642473373
 20
1002.478820795728
 10
242.6496642473373
 20
994.4788207957286
 10
207.1496642473376
 20
994.4788207957286
  0
LWPOLYLINE
  5
1D354
330
1E
100
AcDbEntity
  8
24
  6
CONTINOUS
100
AcDbPolyline
 90
        4
 70
     1
 43
0.0
 10
252.1496704859605
 20
1002.478820795728
 10
302.6496704859603
 20
1002.478820795728
 10
302.6496704859603
 20
994.4788207957286
 10
252.1496704859605
 20
994.4788207957286
  0
CIRCLE
  5
1D355
330
1E
100
AcDbEntity
  8
24
  6
CONTINOUS
100
AcDbCircle
 10
288.7839548768725
 20
743.1093561932173
 30
0.0
 40
7.000000000000027
  0
LWPOLYLINE
  5
1D356
330
1E
100
AcDbEntity
  8
24
  6
CONTINOUS
100
AcDbPolyline
 90
        8
 70
     0
 43
0.0
 10
280.1839553298726
 20
713.1093561932161
 10
280.1839553298726
 20
716.109357504717
 10
302.7839487733726
 20
739.1093594117172
 10
302.7839487733726
 20
757.6093596502172
 10
274.7839550198725
 20
757.6093596502172
 10
274.7839550198725
 20
739.1093594117172
 10
252.3839541258724
 20
716.109357504717
 10
252.3839541258724
 20
713.1093561932161
  0
LWPOLYLINE
  5
1D357
330
1E
100
AcDbEntity
  8
24
  6
CONTINOUS
100
AcDbPolyline
 90
        8
 70
     0
 43
0.0
 10
190.1839545478724
 20
713.1093561932161
 10
190.1839545478724
 20
723.1093567892172
 10
182.6839547153723
 20
734.1093492792171
 10
182.6839547153723
 20
757.6093596502172
 10
154.8839539768726
 20
757.6093596502172
 10
154.8839539768726
 20
734.1093492792171
 10
162.3839552063725
 20
723.1093567892172
 10
162.3839552063725
 20
713.1093561932161
  0
CIRCLE
  5
1D358
330
1E
100
AcDbEntity
  8
24
  6
CONTINOUS
100
AcDbCircle
 10
168.7839548768725
 20
743.1093561932173
 30
0.0
 40
7.000000000000027
  0
CIRCLE
  5
1D359
330
1E
100
AcDbEntity
  8
24
  6
CONTINOUS
100
AcDbCircle
 10
108.7839548768725
 20
743.1093561932173
 30
0.0
 40
6.999999999999953
  0
LWPOLYLINE
  5
1D35A
330
1E
100
AcDbEntity
  8
24
  6
CONTINOUS
100
AcDbPolyline
 90
        8
 70
     0
 43
0.0
 10
145.1839555533724
 20
713.1093561932161
 10
145.1839555533724
 20
716.109357504717
 10
122.7839565218724
 20
739.1093594117172
 10
122.7839565218724
 20
757.6093596502172
 10
94.78395531787253
 20
757.6093596502172
 10
94.78395531787253
 20
739.1093594117172
 10
117.3839562123726
 20
716.109357504717
 10
117.3839562123726
 20
713.1093561932161
  0
LWPOLYLINE
  5
1D35B
330
1E
100
AcDbEntity
  8
24
  6
CONTINOUS
100
AcDbPolyline
 90
        8
 70
     0
 43
0.0
 10
235.1839535418724
 20
713.1093561932161
 10
235.1839535418724
 20
723.1093567892172
 10
242.6839538398724
 20
734.1093492792171
 10
242.6839538398724
 20
757.6093596502172
 10
214.8839563613724
 20
757.6093596502172
 10
214.8839563613724
 20
734.1093492792171
 10
207.3839542003725
 20
723.1093567892172
 10
207.3839542003725
 20
713.1093561932161
  0
CIRCLE
  5
1D35C
330
1E
100
AcDbEntity
  8
24
  6
CONTINOUS
100
AcDbCircle
 10
228.7839548768725
 20
743.1093561932173
 30
0.0
 40
6.999999999999884
  0
DIMENSION
  5
1D35D
330
1E
100
AcDbEntity
  8
30
  6
Continuous
100
AcDbDimension
280
     0
  2
*D20
 10
168.7839548768725
 20
827.2298554295833
 30
0.0
 11
138.7839548768725
 21
827.2298554295833
 31
0.0
 70
   160
  1
<>
 71
     2
 42
60.0
 73
     0
 74
     0
 75
     0
  3
STANDARD
100
AcDbAlignedDimension
 13
108.7839548768725
 23
752.6093561932173
 33
0.0
 14
168.7839548768725
 24
752.6093561932173
 34
0.0
100
AcDbRotatedDimension
1001
ACAD
1000
DSTYLE
1002
{
1070
    79
1070
     3
1002
}
  0
DIMENSION
  5
1D35E
330
1E
100
AcDbEntity
  8
30
  6
Continuous
100
AcDbDimension
280
     0
  2
*D21
 10
228.7839548768725
 20
827.2298554295833
 30
0.0
 11
198.7839548768724
 21
827.2298554295833
 31
0.0
 70
   160
  1
<>
 71
     2
 42
59.99999999999997
 73
     0
 74
     0
 75
     0
  3
STANDARD
100
AcDbAlignedDimension
 13
168.7839548768725
 23
752.6093561932173
 33
0.0
 14
228.7839548768725
 24
752.6093561932173
 34
0.0
100
AcDbRotatedDimension
1001
ACAD
1000
DSTYLE
1002
{
1070
    79
1070
     3
1002
}
  0
DIMENSION
  5
1D35F
330
1E
100
AcDbEntity
  8
30
  6
Continuous
100
AcDbDimension
280
     0
  2
*D22
 10
288.7839548768725
 20
827.2298554295833
 30
0.0
 11
258.7839548768725
 21
827.2298554295833
 31
0.0
 70
   160
  1
<>
 71
     2
 42
60.0
 73
     0
 74
     0
 75
     0
  3
STANDARD
100
AcDbAlignedDimension
 13
228.7839548768725
 23
752.6093561932173
 33
0.0
 14
288.7839548768725
 24
752.6093561932173
 34
0.0
100
AcDbRotatedDimension
1001
ACAD
1000
DSTYLE
1002
{
1070
    79
1070
     3
1002
}
  0
DIMENSION
  5
1D360
330
1E
100
AcDbEntity
  8
30
  6
Continuous
100
AcDbDimension
280
     0
  2
*D23
 10
176.2839548768725
 20
850.5220002837754
 30
0.0
 11
135.4839548768724
 21
850.5220002837754
 31
0.0
 70
   160
  1
<>
 71
     2
 42
81.50000000000011
 73
     0
 74
     0
 75
     0
  3
STANDARD
100
AcDbAlignedDimension
 13
94.7839548768724
 23
757.6093561932172
 33
0.0
 14
176.2839548768725
 24
758.7389586619307
 34
0.0
100
AcDbRotatedDimension
1001
ACAD
1000
DSTYLE
1002
{
1070
    79
1070
     3
1002
}
  0
DIMENSION
  5
1D361
330
1E
100
AcDbEntity
  8
30
  6
Continuous
100
AcDbDimension
280
     0
  2
*D24
 10
302.7839548768724
 20
850.5220002837754
 30
0.0
 11
239.5839548768726
 21
850.5220002837754
 31
0.0
 70
   160
  1
<>
 71
     2
 42
126.4999999999999
 73
     0
 74
     0
 75
     0
  3
STANDARD
100
AcDbAlignedDimension
 13
176.2839548768725
 23
758.7389586619307
 33
0.0
 14
302.7839548768724
 24
757.6093561932172
 34
0.0
100
AcDbRotatedDimension
1001
ACAD
1000
DSTYLE
1002
{
1070
    79
1070
     3
1002
}
  0
DIMENSION
  5
1D362
330
1E
100
AcDbEntity
  8
30
  6
Continuous
100
AcDbDimension
280
     0
  2
*D25
 10
228.7839548768725
 20
801.3496920512203
 30
0.0
 11
202.5339548768725
 21
801.3496920512203
 31
0.0
 70
   160
  1
<>
 71
     2
 42
52.5
 73
     0
 74
     0
 75
     0
  3
STANDARD
100
AcDbAlignedDimension
 13
176.2839548768725
 23
758.7389586619307
 33
0.0
 14
228.7839548768725
 24
752.6093561932173
 34
0.0
100
AcDbRotatedDimension
1001
ACAD
1000
DSTYLE
1002
{
1070
    79
1070
     3
1002
}
  0
INSERT
  5
1D363
330
1E
100
AcDbEntity
  8
17
100
AcDbBlockReference
  2
SW_CENTERMARKSYMBOL_20
 10
108.7839548768725
 20
743.1093561932173
 30
0.0
 41
5.0
 42
5.0
 43
5.0
  0
INSERT
  5
1D364
330
1E
100
AcDbEntity
  8
17
100
AcDbBlockReference
  2
SW_CENTERMARKSYMBOL_21
 10
168.7839548768725
 20
743.1093561932173
 30
0.0
 41
5.0
 42
5.0
 43
5.0
  0
INSERT
  5
1D365
330
1E
100
AcDbEntity
  8
17
100
AcDbBlockReference
  2
SW_CENTERMARKSYMBOL_22
 10
228.7839548768725
 20
743.1093561932173
 30
0.0
 41
5.0
 42
5.0
 43
5.0
  0
INSERT
  5
1D366
330
1E
100
AcDbEntity
  8
17
100
AcDbBlockReference
  2
SW_CENTERMARKSYMBOL_23
 10
288.7839548768725
 20
743.1093561932173
 30
0.0
 41
5.0
 42
5.0
 43
5.0
  0
CIRCLE
  5
1D367
330
1E
100
AcDbEntity
  8
24
  6
CONTINOUS
100
AcDbCircle
 10
288.7839548768725
 20
423.1093561932171
 30
0.0
 40
7.000000000000027
  0
LWPOLYLINE
  5
1D368
330
1E
100
AcDbEntity
  8
24
  6
CONTINOUS
100
AcDbPolyline
 90
        8
 70
     0
 43
0.0
 10
280.1839553298726
 20
453.1093561932181
 10
280.1839553298726
 20
450.1093548817173
 10
302.6839487733726
 20
427.1093529747171
 10
302.6839487733726
 20
408.6093527362169
 10
274.7839550198725
 20
408.6093527362169
 10
274.7839550198725
 20
427.1093529747171
 10
252.3839541258724
 20
450.1093548817173
 10
252.3839541258724
 20
453.1093561932181
  0
LWPOLYLINE
  5
1D369
330
1E
100
AcDbEntity
  8
24
  6
CONTINOUS
100
AcDbPolyline
 90
        8
 70
     0
 43
0.0
 10
190.1839545478724
 20
453.1093561932181
 10
190.1839545478724
 20
443.1093555972171
 10
182.6839547153723
 20
432.1093631072171
 10
182.6839547153723
 20
408.6093527362169
 10
154.8839539768726
 20
408.6093527362169
 10
154.8839539768726
 20
432.1093631072171
 10
162.3839552063725
 20
443.1093555972171
 10
162.3839552063725
 20
453.1093561932181
  0
CIRCLE
  5
1D36A
330
1E
100
AcDbEntity
  8
24
  6
CONTINOUS
100
AcDbCircle
 10
168.7839548768725
 20
423.1093561932171
 30
0.0
 40
7.000000000000027
  0
CIRCLE
  5
1D36B
330
1E
100
AcDbEntity
  8
24
  6
CONTINOUS
100
AcDbCircle
 10
108.7839548768725
 20
423.1093561932171
 30
0.0
 40
6.999999999999953
  0
LWPOLYLINE
  5
1D36C
330
1E
100
AcDbEntity
  8
24
  6
CONTINOUS
100
AcDbPolyline
 90
        8
 70
     0
 43
0.0
 10
145.1839555533724
 20
453.1093561932181
 10
145.1839555533724
 20
450.1093548817173
 10
122.7839565218724
 20
427.1093529747171
 10
122.7839565218724
 20
408.6093527362169
 10
94.88395531787253
 20
408.6093527362169
 10
94.88395531787253
 20
427.1093529747171
 10
117.3839562123726
 20
450.1093548817173
 10
117.3839562123726
 20
453.1093561932181
  0
LWPOLYLINE
  5
1D36D
330
1E
100
AcDbEntity
  8
24
  6
CONTINOUS
100
AcDbPolyline
 90
        8
 70
     0
 43
0.0
 10
235.1839535418724
 20
453.1093561932181
 10
235.1839535418724
 20
443.1093555972171
 10
242.6839538398724
 20
432.1093631072171
 10
242.6839538398724
 20
408.6093527362169
 10
214.8839563613724
 20
408.6093527362169
 10
214.8839563613724
 20
432.1093631072171
 10
207.3839542003725
 20
443.1093555972171
 10
207.3839542003725
 20
453.1093561932181
  0
CIRCLE
  5
1D36E
330
1E
100
AcDbEntity
  8
24
  6
CONTINOUS
100
AcDbCircle
 10
228.7839548768725
 20
423.1093561932171
 30
0.0
 40
6.999999999999884
  0
INSERT
  5
1D36F
330
1E
100
AcDbEntity
  8
17
100
AcDbBlockReference
  2
SW_CENTERMARKSYMBOL_20
 10
108.7839548768725
 20
423.1093561932171
 30
0.0
 41
-5.0
 42
5.0
 43
5.0
 50
180.0
  0
INSERT
  5
1D370
330
1E
100
AcDbEntity
  8
17
100
AcDbBlockReference
  2
SW_CENTERMARKSYMBOL_21
 10
168.7839548768725
 20
423.1093561932171
 30
0.0
 41
-5.0
 42
5.0
 43
5.0
 50
180.0
  0
INSERT
  5
1D371
330
1E
100
AcDbEntity
  8
17
100
AcDbBlockReference
  2
SW_CENTERMARKSYMBOL_22
 10
228.7839548768725
 20
423.1093561932171
 30
0.0
 41
-5.0
 42
5.0
 43
5.0
 50
180.0
  0
INSERT
  5
1D372
330
1E
100
AcDbEntity
  8
17
100
AcDbBlockReference
  2
SW_CENTERMARKSYMBOL_23
 10
288.7839548768725
 20
423.1093561932171
 30
0.0
 41
-5.0
 42
5.0
 43
5.0
 50
180.0
  0
LINE
  5
1D373
330
1E
100
AcDbEntity
  8
17
100
AcDbLine
 10
545.8414768420712
 20
423.1093561932171
 30
0.0
 11
573.8414768420711
 21
423.1093561932171
 31
0.0
  0
LWPOLYLINE
  5
1D374
330
1E
100
AcDbEntity
  8
24
  6
CONTINOUS
100
AcDbPolyline
 90
        4
 70
     0
 43
0.0
 10
566.8414768420712
 20
453.1093561932171
 10
566.8414768420712
 20
408.6093561932171
 10
554.8414768420712
 20
408.6093561932171
 10
554.8414768420712
 20
453.1093561932171
  0
DIMENSION
  5
1D375
330
1E
100
AcDbEntity
  8
30
  6
Continuous
100
AcDbDimension
280
     0
  2
*D26
 10
234.2839548768725
 20
517.6037329229536
 30
0.0
 11
181.1238836239154
 21
517.6037329229536
 31
0.0
 70
   160
 71
     5
 42
116.0
 73
     0
 74
     0
 75
     0
  3
STANDARD
100
AcDbAlignedDimension
 13
118.2839548768725
 23
536.4474611851951
 33
0.0
 14
234.2839548768725
 24
536.66053287164
 34
0.0
100
AcDbRotatedDimension
  0
DIMENSION
  5
1D376
330
1E
100
AcDbEntity
  8
30
  6
Continuous
100
AcDbDimension
280
     0
  2
*D27
 10
566.8414768420712
 20
391.6176353940441
 30
0.0
 11
584.3414782725712
 21
398.6176353940441
 31
0.0
 70
    32
 71
     5
 42
35.00000286100021
 73
     0
 74
     0
 75
     0
  3
STANDARD
100
AcDbAlignedDimension
 13
601.8414797030714
 23
453.1093561932173
 33
0.0
 14
566.8414768420712
 24
408.6093561932171
 34
0.0
100
AcDbRotatedDimension
1001
ACAD
1000
DSTYLE
1002
{
1070
    79
1070
     3
1002
}
  0
DIMENSION
  5
1D377
330
1E
100
AcDbEntity
  8
30
  6
Continuous
100
AcDbDimension
280
     0
  2
*D28
 10
554.8414768420712
 20
391.6176353940441
 30
0.0
 11
544.5081435087378
 21
398.6176353940441
 31
0.0
 70
    32
 71
     5
 42
12.0
 73
     0
 74
     0
 75
     0
  3
STANDARD
100
AcDbAlignedDimension
 13
566.8414768420712
 23
408.6093561932171
 33
0.0
 14
554.8414768420712
 24
408.6093561932171
 34
0.0
100
AcDbRotatedDimension
1001
ACAD
1000
DSTYLE
1002
{
1070
    79
1070
     3
1002
}
  0
ARC
  5
1D378
330
1E
100
AcDbEntity
  8
30
370
     0
100
AcDbCircle
 10
532.9176156900716
 20
580.1511590087172
 30
0.0
 40
82.1446793917693
100
AcDbArc
 50
159.8121802381008
 51
177.6592180929981
  0
DIMENSION
  5
1D379
330
1E
100
AcDbEntity
  8
30
  6
Continuous
100
AcDbDimension
280
     0
  2
*D29
 10
601.8414768420711
 20
322.3436780323473
 30
0.0
 11
526.3414797030714
 21
322.3436780323473
 31
0.0
 70
   160
 71
     2
 42
150.9999971389998
 73
     0
 74
     0
 75
     0
  3
STANDARD
100
AcDbAlignedDimension
 13
450.8414797030712
 23
583.5055815537129
 33
0.0
 14
601.8414768420711
 24
453.1093561932173
 34
0.0
100
AcDbRotatedDimension
1001
ACAD
1000
DSTYLE
1002
{
1070
    79
1070
     3
1002
}
  0
DIMENSION
  5
1D37A
330
1E
100
AcDbEntity
  8
30
  6
Continuous
100
AcDbDimension
280
     0
  2
*D30
 10
122.7839565218724
 20
792.5504363568211
 30
0.0
 11
108.7839559198724
 21
799.5504363568211
 31
0.0
 70
    32
 71
     5
 42
28.00000120399989
 73
     0
 74
     0
 75
     0
  3
STANDARD
100
AcDbAlignedDimension
 13
94.78395531787253
 23
757.6093596502172
 33
0.0
 14
122.7839565218724
 24
757.6093596502172
 34
0.0
100
AcDbRotatedDimension
1001
ACAD
1000
DSTYLE
1002
{
1070
    79
1070
     3
1002
}
  0
DIMENSION
  5
1D37B
330
1E
100
AcDbEntity
  8
30
  6
Continuous
100
AcDbDimension
280
     0
  2
*D31
 10
486.8414768420711
 20
359.0763091176955
 30
0.0
 11
477.1748101754043
 21
366.0763091176955
 31
0.0
 70
    33
 71
     5
 42
8.0
 73
     0
 74
     0
 75
     0
  3
STANDARD
100
AcDbAlignedDimension
 13
494.8414768420711
 23
538.1093561932173
 33
0.0
 14
486.8414768420711
 24
538.1093561932173
 34
0.0
1001
ACAD
1000
DSTYLE
1002
{
1070
    79
1070
     3
1002
}
  0
LINE
  5
1D37C
330
1E
100
AcDbEntity
  8
16
100
AcDbLine
 10
446.5222645299582
 20
178.9840419920351
 30
0.0
 11
247.6120626271231
 21
178.9840419920351
 31
0.0
  0
LINE
  5
1D37D
330
1E
100
AcDbEntity
  8
16
100
AcDbLine
 10
328.2470976605682
 20
45.81222162414678
 30
0.0
 11
328.2470976605682
 21
314.5869794746268
 31
0.0
  0
LWPOLYLINE
  5
1D37E
330
1E
100
AcDbEntity
  8
18
  6
DIVIDE
100
AcDbPolyline
 90
        4
 70
     1
 43
0.0
 10
443.2470976605682
 20
48.98404199203524
 10
443.2470976605682
 20
308.9840419920357
 10
258.2470976605682
 20
308.9840419920357
 10
258.2470976605682
 20
48.98404199203524
  0
LWPOLYLINE
  5
1D37F
330
1E
100
AcDbEntity
  8
11
 48
2.0
100
AcDbPolyline
 90
        8
 70
     1
 43
0.0
 10
385.2470976605681
 20
132.9840419920352
 42
0.4142135623730951
 10
387.2470976605681
 20
134.9840419920352
 10
387.2470976605681
 20
222.9840419920354
 42
0.4142135623730951
 10
385.2470976605681
 20
224.9840419920354
 10
271.2470976605682
 20
224.9840419920354
 42
0.4142135623730951
 10
269.2470976605682
 20
222.9840419920354
 10
269.2470976605682
 20
134.9840419920352
 42
0.4142135623730951
 10
271.2470976605682
 20
132.9840419920352
  0
DIMENSION
  5
1D380
330
1E
100
AcDbEntity
  8
30
  6
Continuous
100
AcDbDimension
280
     0
  2
*D32
 10
387.2470976605681
 20
22.3294466417683
 30
0.0
 11
328.2470976605682
 21
22.3294466417683
 31
0.0
 70
   160
 71
     5
 42
117.9999999999999
 73
     0
 74
     0
 75
     0
  3
STANDARD
100
AcDbAlignedDimension
 13
269.2470976605682
 23
131.6032381936653
 33
0.0
 14
387.2470976605681
 24
131.6032381936653
 34
0.0
100
AcDbRotatedDimension
1001
ACAD
1000
DSTYLE
1002
{
1070
    79
1070
     3
1002
}
  0
DIMENSION
  5
1D381
330
1E
100
AcDbEntity
  8
30
  6
Continuous
100
AcDbDimension
280
     0
  2
*D33
 10
457.6868535687537
 20
132.9840419920352
 30
0.0
 11
457.6868535687537
 21
178.9840419920354
 31
0.0
 70
   160
 71
     5
 42
92.00000000000015
 73
     0
 74
     0
 75
     0
  3
STANDARD
100
AcDbAlignedDimension
 13
387.2890802736665
 23
224.9840419920354
 33
0.0
 14
387.2890802736665
 24
132.9840419920352
 34
0.0
 50
90.0
100
AcDbRotatedDimension
1001
ACAD
1000
DSTYLE
1002
{
1070
    79
1070
     3
1002
}
  0
DIMENSION
  5
1D382
330
1E
100
AcDbEntity
  8
30
  6
Continuous
100
AcDbDimension
280
     0
  2
*D34
 10
385.310802674846
 20
222.7692192526002
 30
0.0
 11
412.0538303639746
 21
249.1422143058665
 31
0.0
 70
   164
 71
     5
 42
2.000000000179169
 73
     0
 74
     0
 75
     0
  3
STANDARD1
100
AcDbRadialDimension
 15
386.3978203706943
 25
224.4480261294116
 35
0.0
 40
0.0
1001
ACAD
1000
DSTYLE
1002
{
1070
   140
1040
8.0
1002
}
  0
MTEXT
  5
1D383
330
1E
100
AcDbEntity
  8
240
100
AcDbMText
 10
308.6945584464528
 20
19.02327515005493
 30
0.0
 40
10.0
 41
0.0
 46
0.0
 71
     1
 72
     1
  1
[Cutout A]
  7
SLDTEXTSTYLE0
 73
     1
 44
1.0
  0
MTEXT
  5
1D384
330
1E
100
AcDbEntity
  8
240
100
AcDbMText
 10
521.6121988986515
 20
19.02327515005493
 30
0.0
 40
10.0
 41
0.0
 46
0.0
 71
     1
 72
     1
  1
[Cutout B]
  7
SLDTEXTSTYLE0
 73
     1
 44
1.0
  0
DIMENSION
  5
1D6E6
330
1E
100
AcDbEntity
  8
30
100
AcDbDimension
280
     0
  2
*D46
 10
569.1598456858654
 20
814.9077229000763
 30
0.0
 11
591.4931790191988
 21
828.574389566743
 31
0.0
 70
    32
  1
<>\P(MAX.)
 71
     5
 42
31.99999999999955
 73
     0
 74
     0
 75
     0
  3
STANDARD
100
AcDbAlignedDimension
 13
537.1598456858658
 23
842.8358036458773
 33
0.0
 14
569.1598456858654
 24
842.8358036458773
 34
0.0
100
AcDbRotatedDimension
  0
DIMENSION
  5
1D7D2
330
1E
100
AcDbEntity
  8
30
100
AcDbDimension
280
     0
  2
*D47
 10
19.03667579821103
 20
71.98404199203546
 30
0.0
 11
12.03667579821103
 21
178.9840419920353
 31
0.0
 70
    32
 71
     5
 42
213.9999999999997
 73
     0
 74
     0
 75
     0
  3
STANDARD
100
AcDbAlignedDimension
 13
90.56428802228309
 23
285.9840419920352
 33
0.0
 14
90.56428802228309
 24
71.98404199203544
 34
0.0
 50
90.0
100
AcDbRotatedDimension
  0
LINE
  5
1DA54
330
1E
100
AcDbEntity
  8
10
  6
Continuous
100
AcDbLine
 10
106.4541422705354
 20
675.6377805290327
 30
0.0
 11
291.4541422705355
 21
675.6377805290327
 31
0.0
  0
LINE
  5
1DA55
330
1E
100
AcDbEntity
  8
10
  6
Continuous
100
AcDbLine
 10
106.4541422705354
 20
713.1093561932162
 30
0.0
 11
119.6323950719128
 21
713.1093561932162
 31
0.0
  0
ELLIPSE
  5
1DA56
330
1E
100
AcDbEntity
  8
10
  6
Continuous
100
AcDbEllipse
 10
142.6342251220351
 20
712.1092038652117
 30
0.0
 11
0.9502067146544844
 21
-0.3164782046945192
 31
0.0
210
0.0
220
0.0
230
1.0
 40
0.9984778550999999
 41
1.892760065825351
 42
3.462643004113758
  0
ELLIPSE
  5
1DA57
330
1E
100
AcDbEntity
  8
10
  6
Continuous
100
AcDbEllipse
 10
187.6342251220351
 20
712.1092038652117
 30
0.0
 11
0.9502067146544844
 21
-0.3164782046945192
 31
0.0
210
0.0
220
0.0
230
1.0
 40
0.9984778550999999
 41
1.892760065825479
 42
3.462643004113771
  0
ELLIPSE
  5
1DA58
330
1E
100
AcDbEntity
  8
10
  6
Continuous
100
AcDbEllipse
 10
164.6314804300354
 20
712.1092038652117
 30
0.0
 11
-0.9502067146544844
 21
-0.316478204694448
 31
0.0
210
0.0
220
0.0
230
1.0
 40
0.9984778551000005
 41
2.820542303065916
 42
4.39042524135431
  0
ELLIPSE
  5
1DA59
330
1E
100
AcDbEntity
  8
10
  6
Continuous
100
AcDbEllipse
 10
119.6314804300353
 20
712.1092038652117
 30
0.0
 11
-0.9502067146544844
 21
-0.316478204694448
 31
0.0
210
0.0
220
0.0
230
1.0
 40
0.9984778551000005
 41
2.820542303065916
 42
4.39042524135431
  0
LINE
  5
1DA5A
330
1E
100
AcDbEntity
  8
10
  6
Continuous
100
AcDbLine
 10
165.6328529175354
 20
687.5980991437117
 30
0.0
 11
165.632852776029
 21
712.1101173927391
 31
0.0
  0
LINE
  5
1DA5B
330
1E
100
AcDbEntity
  8
10
  6
Continuous
100
AcDbLine
 10
186.6328527760416
 20
712.1101173927391
 30
0.0
 11
186.6328526345353
 21
687.5980991437117
 31
0.0
  0
ARC
  5
1DA5C
330
1E
100
AcDbEntity
  8
10
  6
Continuous
100
AcDbCircle
 10
185.6328526345354
 20
687.5980991437117
 30
0.0
 40
1.0
100
AcDbArc
 50
270.0
 51
0.0
  0
LINE
  5
1DA5D
330
1E
100
AcDbEntity
  8
10
  6
Continuous
100
AcDbLine
 10
141.6328527760416
 20
712.1101173927391
 30
0.0
 11
141.6328536405351
 21
687.5980991437117
 31
0.0
  0
ARC
  5
1DA5E
330
1E
100
AcDbEntity
  8
0
  6
SLD-実線
 62
     7
370
    30
100
AcDbCircle
 10
140.6328527760352
 20
687.5980980112118
 30
0.0
 40
1.000000000000011
100
AcDbArc
 50
270.0
 51
0.0
  0
LINE
  5
1DA5F
330
1E
100
AcDbEntity
  8
10
  6
Continuous
100
AcDbLine
 10
185.6328526345354
 20
686.5980991437116
 30
0.0
 11
166.6328529175354
 21
686.5980991437116
 31
0.0
  0
ARC
  5
1DA60
330
1E
100
AcDbEntity
  8
10
  6
Continuous
100
AcDbCircle
 10
166.6328529175354
 20
687.5980991437117
 30
0.0
 40
1.0
100
AcDbArc
 50
180.0
 51
270.0
  0
LINE
  5
1DA61
330
1E
100
AcDbEntity
  8
10
  6
Continuous
100
AcDbLine
 10
140.6328536405353
 20
686.5980991437116
 30
0.0
 11
121.6328520610353
 21
686.5980991437116
 31
0.0
  0
ARC
  5
1DA62
330
1E
100
AcDbEntity
  8
10
  6
Continuous
100
AcDbCircle
 10
121.6328520610353
 20
687.5980991437117
 30
0.0
 40
1.0
100
AcDbArc
 50
180.0
 51
270.0
  0
ARC
  5
1DA63
330
1E
100
AcDbEntity
  8
10
  6
Continuous
100
AcDbCircle
 10
140.6328536405353
 20
687.5980991437117
 30
0.0
 40
1.0
100
AcDbArc
 50
270.0
 51
0.0
  0
LINE
  5
1DA64
330
1E
100
AcDbEntity
  8
10
  6
Continuous
100
AcDbLine
 10
120.6328520610353
 20
687.5980991437117
 30
0.0
 11
120.6328527760289
 21
712.1101173927391
 31
0.0
  0
LINE
  5
1DA65
330
1E
100
AcDbEntity
  8
24
  6
CONTINOUS
100
AcDbLine
 10
122.2541422705355
 20
697.1093561932173
 30
0.0
 11
140.2541422705354
 21
697.1093561932173
 31
0.0
  0
LINE
  5
1DA66
330
1E
100
AcDbEntity
  8
24
  6
CONTINOUS
100
AcDbLine
 10
131.2541422705355
 20
706.1093561932173
 30
0.0
 11
131.2541422705355
 21
688.1093561932173
 31
0.0
  0
LINE
  5
1DA67
330
1E
100
AcDbEntity
  8
12
  6
DASHDOT
100
AcDbLine
 10
161.7541422705355
 20
690.1093561932173
 30
0.0
 11
145.7541422705355
 21
690.1093561932173
 31
0.0
  0
LINE
  5
1DA68
330
1E
100
AcDbEntity
  8
12
  6
DASHDOT
100
AcDbLine
 10
153.7541422705355
 20
682.1093561932173
 30
0.0
 11
153.7541422705355
 21
698.1093561932173
 31
0.0
  0
CIRCLE
  5
1DA69
330
1E
100
AcDbEntity
  8
12
100
AcDbCircle
 10
153.7541422705355
 20
690.1093561932173
 30
0.0
 40
4.0
  0
LINE
  5
1DA6A
330
1E
100
AcDbEntity
  8
24
  6
CONTINOUS
100
AcDbLine
 10
176.2541422705354
 20
706.1093561932173
 30
0.0
 11
176.2541422705354
 21
688.1093561932173
 31
0.0
  0
LINE
  5
1DA6B
330
1E
100
AcDbEntity
  8
24
  6
CONTINOUS
100
AcDbLine
 10
167.2541422705354
 20
697.1093561932173
 30
0.0
 11
185.2541422705355
 21
697.1093561932173
 31
0.0
  0
LINE
  5
1DA6C
330
1E
100
AcDbEntity
  8
12
  6
DASHDOT
100
AcDbLine
 10
206.9541422705355
 20
690.1093561932173
 30
0.0
 11
190.9541422705354
 21
690.1093561932173
 31
0.0
  0
CIRCLE
  5
1DA6D
330
1E
100
AcDbEntity
  8
24
  6
CONTINOUS
100
AcDbCircle
 10
131.2541422705355
 20
697.1093561932173
 30
0.0
 40
4.618802153517049
  0
CIRCLE
  5
1DA6E
330
1E
100
AcDbEntity
  8
24
  6
CONTINOUS
100
AcDbCircle
 10
176.2541422705354
 20
697.1093561932173
 30
0.0
 40
4.618802153517049
  0
ELLIPSE
  5
1DA6F
330
1E
100
AcDbEntity
  8
10
  6
Continuous
100
AcDbEllipse
 10
209.731480027913
 20
712.1092038652116
 30
0.0
 11
-0.9502067146544844
 21
-0.3164782046945192
 31
0.0
210
0.0
220
0.0
230
-1.0
 40
0.9984778550999999
 41
1.892760065825479
 42
3.462643004113771
  0
ELLIPSE
  5
1DA70
330
1E
100
AcDbEntity
  8
10
  6
Continuous
100
AcDbEllipse
 10
232.7342247199131
 20
712.1092038652116
 30
0.0
 11
0.9502067146544844
 21
-0.316478204694448
 31
0.0
210
0.0
220
0.0
230
-1.0
 40
0.9984778551000005
 41
2.820542303065916
 42
4.39042524135431
  0
LINE
  5
1DA71
330
1E
100
AcDbEntity
  8
10
  6
Continuous
100
AcDbLine
 10
231.732852232413
 20
687.5980991437114
 30
0.0
 11
231.7328523739195
 21
712.1101173927388
 31
0.0
  0
LINE
  5
1DA72
330
1E
100
AcDbEntity
  8
10
  6
Continuous
100
AcDbLine
 10
210.7328523739067
 20
712.1101173927388
 30
0.0
 11
210.732852515413
 21
687.5980991437114
 31
0.0
  0
ARC
  5
1DA73
330
1E
100
AcDbEntity
  8
10
  6
Continuous
100
AcDbCircle
 10
211.732852515413
 20
687.5980991437114
 30
0.0
 40
1.0
100
AcDbArc
 50
180.0
 51
270.0
  0
LINE
  5
1DA74
330
1E
100
AcDbEntity
  8
10
  6
Continuous
100
AcDbLine
 10
211.732852515413
 20
686.5980991437116
 30
0.0
 11
230.7328522324131
 21
686.5980991437116
 31
0.0
  0
ARC
  5
1DA75
330
1E
100
AcDbEntity
  8
10
  6
Continuous
100
AcDbCircle
 10
230.7328522324131
 20
687.5980991437114
 30
0.0
 40
1.0
100
AcDbArc
 50
270.0
 51
0.0
  0
LINE
  5
1DA76
330
1E
100
AcDbEntity
  8
24
  6
CONTINOUS
100
AcDbLine
 10
221.270880052575
 20
706.1093561932173
 30
0.0
 11
221.270880052575
 21
688.1093561932173
 31
0.0
  0
LINE
  5
1DA77
330
1E
100
AcDbEntity
  8
24
  6
CONTINOUS
100
AcDbLine
 10
230.270880052575
 20
697.1093561932173
 30
0.0
 11
212.2708800525749
 21
697.1093561932173
 31
0.0
  0
LINE
  5
1DA78
330
1E
100
AcDbEntity
  8
12
  6
DASHDOT
100
AcDbLine
 10
198.7115628794129
 20
682.1093561932173
 30
0.0
 11
198.7115628794129
 21
698.1093561932173
 31
0.0
  0
LINE
  5
1DA79
330
1E
100
AcDbEntity
  8
12
100
AcDbLine
 10
190.7115628794129
 20
690.1093561932173
 30
0.0
 11
206.7115628794129
 21
690.1093561932173
 31
0.0
  0
CIRCLE
  5
1DA7A
330
1E
100
AcDbEntity
  8
12
100
AcDbCircle
 10
198.7115628794129
 20
690.1093561932173
 30
0.0
 40
4.0
  0
CIRCLE
  5
1DA7B
330
1E
100
AcDbEntity
  8
24
  6
CONTINOUS
100
AcDbCircle
 10
221.270880052575
 20
697.1093561932173
 30
0.0
 40
4.618802153517049
  0
ELLIPSE
  5
1DA7C
330
1E
100
AcDbEntity
  8
10
  6
Continuous
100
AcDbEllipse
 10
254.7314800279131
 20
712.1092038652116
 30
0.0
 11
-0.9502067146544844
 21
-0.3164782046945192
 31
0.0
210
0.0
220
0.0
230
-1.0
 40
0.9984778550999999
 41
1.892760065825479
 42
3.462643004113771
  0
ELLIPSE
  5
1DA7D
330
1E
100
AcDbEntity
  8
10
  6
Continuous
100
AcDbEllipse
 10
277.7342247199131
 20
712.1092038652116
 30
0.0
 11
0.9502067146544844
 21
-0.316478204694448
 31
0.0
210
0.0
220
0.0
230
-1.0
 40
0.9984778551000005
 41
2.820542303065916
 42
4.39042524135431
  0
LINE
  5
1DA7E
330
1E
100
AcDbEntity
  8
10
  6
Continuous
100
AcDbLine
 10
276.732852232413
 20
687.5980991437114
 30
0.0
 11
276.7328523739195
 21
712.1101173927388
 31
0.0
  0
LINE
  5
1DA7F
330
1E
100
AcDbEntity
  8
10
  6
Continuous
100
AcDbLine
 10
255.7328523739067
 20
712.1101173927388
 30
0.0
 11
255.732852515413
 21
687.5980991437114
 31
0.0
  0
ARC
  5
1DA80
330
1E
100
AcDbEntity
  8
10
  6
Continuous
100
AcDbCircle
 10
256.732852515413
 20
687.5980991437114
 30
0.0
 40
1.0
100
AcDbArc
 50
180.0
 51
270.0
  0
LINE
  5
1DA81
330
1E
100
AcDbEntity
  8
10
  6
Continuous
100
AcDbLine
 10
256.732852515413
 20
686.5980991437116
 30
0.0
 11
275.732852232413
 21
686.5980991437116
 31
0.0
  0
ARC
  5
1DA82
330
1E
100
AcDbEntity
  8
10
  6
Continuous
100
AcDbCircle
 10
275.732852232413
 20
687.5980991437114
 30
0.0
 40
1.0
100
AcDbArc
 50
270.0
 51
0.0
  0
LINE
  5
1DA83
330
1E
100
AcDbEntity
  8
24
  6
CONTINOUS
100
AcDbLine
 10
266.2708800525749
 20
706.1093561932173
 30
0.0
 11
266.2708800525749
 21
688.1093561932173
 31
0.0
  0
LINE
  5
1DA84
330
1E
100
AcDbEntity
  8
24
  6
CONTINOUS
100
AcDbLine
 10
275.270880052575
 20
697.1093561932173
 30
0.0
 11
257.270880052575
 21
697.1093561932173
 31
0.0
  0
CIRCLE
  5
1DA85
330
1E
100
AcDbEntity
  8
24
  6
CONTINOUS
100
AcDbCircle
 10
266.2708800525749
 20
697.1093561932173
 30
0.0
 40
4.618802153517049
  0
ELLIPSE
  5
1DA86
330
1E
100
AcDbEntity
  8
10
  6
Continuous
100
AcDbEllipse
 10
142.9182784204904
 20
454.1095023847181
 30
0.0
 11
0.9502067146544844
 21
0.3164782046945192
 31
0.0
210
0.0
220
0.0
230
-1.0
 40
0.9984778550999999
 41
1.892760065825351
 42
3.462643004113758
  0
ELLIPSE
  5
1DA87
330
1E
100
AcDbEntity
  8
10
  6
Continuous
100
AcDbEllipse
 10
187.9182784204904
 20
454.1095023847181
 30
0.0
 11
0.9502067146544844
 21
0.3164782046945192
 31
0.0
210
0.0
220
0.0
230
-1.0
 40
0.9984778550999999
 41
1.892760065825479
 42
3.462643004113771
  0
ELLIPSE
  5
1DA88
330
1E
100
AcDbEntity
  8
10
  6
Continuous
100
AcDbEllipse
 10
164.9155337284905
 20
454.1095023847181
 30
0.0
 11
-0.9502067146544844
 21
0.316478204694448
 31
0.0
210
0.0
220
0.0
230
-1.0
 40
0.9984778551000005
 41
2.820542303065916
 42
4.39042524135431
  0
ELLIPSE
  5
1DA89
330
1E
100
AcDbEntity
  8
10
  6
Continuous
100
AcDbEllipse
 10
119.9155337284905
 20
454.1095023847181
 30
0.0
 11
-0.9502067146544844
 21
0.316478204694448
 31
0.0
210
0.0
220
0.0
230
-1.0
 40
0.9984778551000005
 41
2.820542303065916
 42
4.39042524135431
  0
LINE
  5
1DA8A
330
1E
100
AcDbEntity
  8
10
  6
Continuous
100
AcDbLine
 10
165.9169062159906
 20
478.5206071062181
 30
0.0
 11
165.9169062159906
 21
454.1085888571908
 31
0.0
  0
LINE
  5
1DA8B
330
1E
100
AcDbEntity
  8
10
  6
Continuous
100
AcDbLine
 10
186.9169060744967
 20
454.1085888571908
 30
0.0
 11
186.9169059329905
 21
478.5206071062181
 31
0.0
  0
ARC
  5
1DA8C
330
1E
100
AcDbEntity
  8
10
  6
Continuous
100
AcDbCircle
 10
185.9169059329904
 20
478.5206071062181
 30
0.0
 40
1.0
100
AcDbArc
 50
0.0
 51
90.0
  0
LINE
  5
1DA8D
330
1E
100
AcDbEntity
  8
10
  6
Continuous
100
AcDbLine
 10
141.9169060744967
 20
454.1085888571908
 30
0.0
 11
141.9169069389905
 21
478.5206071062181
 31
0.0
  0
ARC
  5
1DA8E
330
1E
100
AcDbEntity
  8
0
  6
SLD-実線
 62
     7
370
    30
100
AcDbCircle
 10
140.9169060744904
 20
478.5206082387181
 30
0.0
 40
1.000000000000011
100
AcDbArc
 50
0.0
 51
90.0
  0
LINE
  5
1DA8F
330
1E
100
AcDbEntity
  8
10
  6
Continuous
100
AcDbLine
 10
185.9169059329904
 20
479.5206071062181
 30
0.0
 11
166.9169062159905
 21
479.5206071062181
 31
0.0
  0
ARC
  5
1DA90
330
1E
100
AcDbEntity
  8
10
  6
Continuous
100
AcDbCircle
 10
166.9169062159905
 20
478.5206071062181
 30
0.0
 40
1.0
100
AcDbArc
 50
90.0
 51
180.0
  0
LINE
  5
1DA91
330
1E
100
AcDbEntity
  8
10
  6
Continuous
100
AcDbLine
 10
140.9169069389905
 20
479.5206071062181
 30
0.0
 11
121.9169053594903
 21
479.5206071062181
 31
0.0
  0
ARC
  5
1DA92
330
1E
100
AcDbEntity
  8
10
  6
Continuous
100
AcDbCircle
 10
121.9169053594903
 20
478.5206071062181
 30
0.0
 40
1.0
100
AcDbArc
 50
90.0
 51
180.0
  0
ARC
  5
1DA93
330
1E
100
AcDbEntity
  8
10
  6
Continuous
100
AcDbCircle
 10
140.9169069389905
 20
478.5206071062181
 30
0.0
 40
1.0
100
AcDbArc
 50
0.0
 51
90.0
  0
LINE
  5
1DA94
330
1E
100
AcDbEntity
  8
10
  6
Continuous
100
AcDbLine
 10
120.9169053594903
 20
478.5206071062181
 30
0.0
 11
120.9169053594903
 21
454.1073936754028
 31
0.0
  0
LINE
  5
1DA95
330
1E
100
AcDbEntity
  8
10
  6
Continuous
100
AcDbLine
 10
209.9164479682461
 20
453.1093500567136
 30
0.0
 11
187.9173637786126
 21
453.1093561932182
 31
0.0
  0
LINE
  5
1DA96
330
1E
100
AcDbEntity
  8
24
  6
CONTINOUS
100
AcDbLine
 10
122.4328527760353
 20
469.0763770784498
 30
0.0
 11
140.4328527760351
 21
469.0763770784498
 31
0.0
  0
LINE
  5
1DA97
330
1E
100
AcDbEntity
  8
24
  6
CONTINOUS
100
AcDbLine
 10
131.4328527760352
 20
460.0763770784498
 30
0.0
 11
131.4328527760352
 21
478.0763770784497
 31
0.0
  0
LINE
  5
1DA98
330
1E
100
AcDbEntity
  8
12
  6
DASHDOT
100
AcDbLine
 10
161.9541422705355
 20
476.0747842760298
 30
0.0
 11
145.9541422705354
 21
476.0747842760298
 31
0.0
  0
CIRCLE
  5
1DA99
330
1E
100
AcDbEntity
  8
12
100
AcDbCircle
 10
153.9541422705354
 20
476.0747842760298
 30
0.0
 40
4.0
  0
LINE
  5
1DA9A
330
1E
100
AcDbEntity
  8
24
  6
CONTINOUS
100
AcDbLine
 10
176.4328527760352
 20
460.0747842760297
 30
0.0
 11
176.4328527760352
 21
478.0747842760298
 31
0.0
  0
LINE
  5
1DA9B
330
1E
100
AcDbEntity
  8
24
  6
CONTINOUS
100
AcDbLine
 10
167.4328527760351
 20
469.0747842760298
 30
0.0
 11
185.4328527760351
 21
469.0747842760298
 31
0.0
  0
LINE
  5
1DA9C
330
1E
100
AcDbEntity
  8
12
  6
DASHED
100
AcDbLine
 10
206.9541422705355
 20
476.0747842760298
 30
0.0
 11
190.9541422705354
 21
476.0747842760298
 31
0.0
  0
CIRCLE
  5
1DA9D
330
1E
100
AcDbEntity
  8
12
100
AcDbCircle
 10
198.9541422705354
 20
476.0747842760298
 30
0.0
 40
4.0
  0
CIRCLE
  5
1DA9E
330
1E
100
AcDbEntity
  8
24
  6
CONTINOUS
100
AcDbCircle
 10
131.4328527760352
 20
469.0763770784498
 30
0.0
 40
4.618802153517049
  0
CIRCLE
  5
1DA9F
330
1E
100
AcDbEntity
  8
24
  6
CONTINOUS
100
AcDbCircle
 10
176.4328527760352
 20
469.0747842760298
 30
0.0
 40
4.618802153517049
  0
ELLIPSE
  5
1DAA0
330
1E
100
AcDbEntity
  8
10
  6
Continuous
100
AcDbEllipse
 10
254.9155333263684
 20
454.1095023847181
 30
0.0
 11
-0.9502067146544844
 21
0.3164782046945192
 31
0.0
210
0.0
220
0.0
230
1.0
 40
0.9984778550999999
 41
1.892760065825479
 42
3.462643004113771
  0
ELLIPSE
  5
1DAA1
330
1E
100
AcDbEntity
  8
10
  6
Continuous
100
AcDbEllipse
 10
277.9182780183684
 20
454.1095023847181
 30
0.0
 11
0.9502067146544844
 21
0.316478204694448
 31
0.0
210
0.0
220
0.0
230
1.0
 40
0.9984778551000005
 41
2.820542303065916
 42
4.39042524135431
  0
LINE
  5
1DAA2
330
1E
100
AcDbEntity
  8
10
  6
Continuous
100
AcDbLine
 10
276.9169055308682
 20
478.5206071062181
 30
0.0
 11
276.9169056723746
 21
454.1085888571906
 31
0.0
  0
LINE
  5
1DAA3
330
1E
100
AcDbEntity
  8
10
  6
Continuous
100
AcDbLine
 10
255.916905672362
 20
454.1085888571908
 30
0.0
 11
255.9169058138682
 21
478.5206071062181
 31
0.0
  0
ARC
  5
1DAA4
330
1E
100
AcDbEntity
  8
10
  6
Continuous
100
AcDbCircle
 10
256.9169058138681
 20
478.5206071062181
 30
0.0
 40
1.0
100
AcDbArc
 50
90.0
 51
180.0
  0
LINE
  5
1DAA5
330
1E
100
AcDbEntity
  8
10
  6
Continuous
100
AcDbLine
 10
256.9169058138681
 20
479.5206071062181
 30
0.0
 11
275.9169055308683
 21
479.5206071062181
 31
0.0
  0
ARC
  5
1DAA6
330
1E
100
AcDbEntity
  8
10
  6
Continuous
100
AcDbCircle
 10
275.9169055308683
 20
478.5206071062181
 30
0.0
 40
1.0
100
AcDbArc
 50
0.0
 51
90.0
  0
LINE
  5
1DAA7
330
1E
100
AcDbEntity
  8
24
  6
CONTINOUS
100
AcDbLine
 10
266.470880052575
 20
460.0747842760297
 30
0.0
 11
266.470880052575
 21
478.0747842760298
 31
0.0
  0
LINE
  5
1DAA8
330
1E
100
AcDbEntity
  8
24
  6
CONTINOUS
100
AcDbLine
 10
275.311562879413
 20
469.0747842760298
 30
0.0
 11
257.311562879413
 21
469.0747842760298
 31
0.0
  0
LINE
  5
1DAA9
330
1E
100
AcDbEntity
  8
12
  6
DASHDOT
100
AcDbLine
 10
190.7115628794129
 20
476.0747842760298
 30
0.0
 11
206.7115628794129
 21
476.0747842760298
 31
0.0
  0
CIRCLE
  5
1DAAA
330
1E
100
AcDbEntity
  8
24
  6
CONTINOUS
100
AcDbCircle
 10
266.470880052575
 20
469.0747842760298
 30
0.0
 40
4.618802153517049
  0
LINE
  5
1DAAB
330
1E
100
AcDbEntity
  8
12
  6
DASHDOT
100
AcDbLine
 10
198.9115628794129
 20
468.0747842760298
 30
0.0
 11
198.9115628794129
 21
484.0747842760297
 31
0.0
  0
LINE
  5
1DAAC
330
1E
100
AcDbEntity
  8
12
  6
DASHDOT
100
AcDbLine
 10
153.9541422705354
 20
468.0747842760298
 30
0.0
 11
153.9541422705354
 21
484.0747842760297
 31
0.0
  0
ELLIPSE
  5
1DAAD
330
1E
100
AcDbEntity
  8
10
  6
Continuous
100
AcDbEllipse
 10
209.9155333263684
 20
454.1095023847181
 30
0.0
 11
-0.9502067146544844
 21
0.3164782046945192
 31
0.0
210
0.0
220
0.0
230
1.0
 40
0.9984778550999999
 41
1.892760065825479
 42
3.462643004113771
  0
ELLIPSE
  5
1DAAE
330
1E
100
AcDbEntity
  8
10
  6
Continuous
100
AcDbEllipse
 10
232.9182780183683
 20
454.1095023847181
 30
0.0
 11
0.9502067146544844
 21
0.316478204694448
 31
0.0
210
0.0
220
0.0
230
1.0
 40
0.9984778551000005
 41
2.820542303065916
 42
4.39042524135431
  0
LINE
  5
1DAAF
330
1E
100
AcDbEntity
  8
10
  6
Continuous
100
AcDbLine
 10
231.9169055308682
 20
478.5206071062181
 30
0.0
 11
231.9169056723747
 21
454.1085888571906
 31
0.0
  0
LINE
  5
1DAB0
330
1E
100
AcDbEntity
  8
10
  6
Continuous
100
AcDbLine
 10
210.916905672362
 20
454.1085888571908
 30
0.0
 11
210.9169058138681
 21
478.5206071062181
 31
0.0
  0
ARC
  5
1DAB1
330
1E
100
AcDbEntity
  8
10
  6
Continuous
100
AcDbCircle
 10
211.9169058138681
 20
478.5206071062181
 30
0.0
 40
1.0
100
AcDbArc
 50
90.0
 51
180.0
  0
LINE
  5
1DAB2
330
1E
100
AcDbEntity
  8
10
  6
Continuous
100
AcDbLine
 10
211.9169058138681
 20
479.5206071062181
 30
0.0
 11
230.9169055308683
 21
479.5206071062181
 31
0.0
  0
ARC
  5
1DAB3
330
1E
100
AcDbEntity
  8
10
  6
Continuous
100
AcDbCircle
 10
230.9169055308683
 20
478.5206071062181
 30
0.0
 40
1.0
100
AcDbArc
 50
0.0
 51
90.0
  0
LINE
  5
1DAB4
330
1E
100
AcDbEntity
  8
24
  6
CONTINOUS
100
AcDbLine
 10
221.470880052575
 20
460.0747842760297
 30
0.0
 11
221.470880052575
 21
478.0747842760298
 31
0.0
  0
LINE
  5
1DAB5
330
1E
100
AcDbEntity
  8
24
  6
CONTINOUS
100
AcDbLine
 10
230.311562879413
 20
469.0747842760298
 30
0.0
 11
212.311562879413
 21
469.0747842760298
 31
0.0
  0
CIRCLE
  5
1DAB6
330
1E
100
AcDbEntity
  8
24
  6
CONTINOUS
100
AcDbCircle
 10
221.470880052575
 20
469.0747842760298
 30
0.0
 40
4.618802153517049
  0
LINE
  5
1DAB7
330
1E
100
AcDbEntity
  8
10
100
AcDbLine
 10
142.6333104801575
 20
713.1093561932162
 30
0.0
 11
164.6323950719129
 21
713.1093561932162
 31
0.0
  0
LINE
  5
1DAB8
330
1E
100
AcDbEntity
  8
10
100
AcDbLine
 10
184.4234888499178
 20
696.4186104991608
 30
0.0
 11
206.4225734416731
 21
696.4186104991608
 31
0.0
  0
LINE
  5
1DAB9
330
1E
100
AcDbEntity
  8
10
100
AcDbLine
 10
187.6333104801575
 20
713.1093561932161
 30
0.0
 11
209.632395071913
 21
713.1093561932161
 31
0.0
  0
LINE
  5
1DABA
330
1E
100
AcDbEntity
  8
10
100
AcDbLine
 10
232.6333104801575
 20
713.1093561932161
 30
0.0
 11
254.6323950719129
 21
713.1093561932161
 31
0.0
  0
LINE
  5
1DABB
330
1E
100
AcDbEntity
  8
10
100
AcDbLine
 10
277.7333100780355
 20
713.1093561932161
 30
0.0
 11
291.3122054098261
 21
713.1093561932173
 31
0.0
  0
LINE
  5
1DABC
330
1E
100
AcDbEntity
  8
10
  6
Continuous
100
AcDbLine
 10
106.4541422705354
 20
453.1093561932182
 30
0.0
 11
119.9164483703681
 21
453.1093500567136
 31
0.0
  0
LINE
  5
1DABD
330
1E
100
AcDbEntity
  8
10
100
AcDbLine
 10
142.9138559650325
 20
453.1093561932182
 30
0.0
 11
164.916448370368
 21
453.1093500567136
 31
0.0
  0
LINE
  5
1DABE
330
1E
100
AcDbEntity
  8
10
100
AcDbLine
 10
232.6333104801575
 20
453.1093561932182
 30
0.0
 11
254.6323950719129
 21
453.1093561932182
 31
0.0
  0
LINE
  5
1DABF
330
1E
100
AcDbEntity
  8
10
100
AcDbLine
 10
277.7333100780355
 20
453.1093561932182
 30
0.0
 11
291.3122054098261
 21
453.1093561932171
 31
0.0
  0
LINE
  5
1DAC0
330
1E
100
AcDbEntity
  8
10
100
AcDbLine
 10
106.2839548768724
 20
713.1093561932171
 30
0.0
 11
106.2839548768724
 21
453.1093561932181
 31
0.0
  0
LINE
  5
1DAC1
330
1E
100
AcDbEntity
  8
10
100
AcDbLine
 10
291.3122054098261
 20
713.1093561932171
 30
0.0
 11
291.3122054098261
 21
453.1093561932171
 31
0.0
  0
LWPOLYLINE
  5
1DAC2
330
1E
100
AcDbEntity
  8
10
  6
CONTINOUS
100
AcDbPolyline
 90
        4
 70
     0
 43
0.0
 10
117.1496642473375
 20
994.4788207957286
 10
117.1496642473375
 20
947.4788207957287
 10
145.1496642473375
 20
947.4788207957287
 10
145.1496642473375
 20
1003.545385628211
  0
LWPOLYLINE
  5
1DAC3
330
1E
100
AcDbEntity
  8
10
  6
CONTINOUS
100
AcDbPolyline
 90
        4
 70
     0
 43
0.0
 10
162.1496642473374
 20
994.4788207957286
 10
162.1496642473374
 20
947.4788207957287
 10
190.1496642473374
 20
947.4788207957287
 10
190.1496642473374
 20
1003.545385628211
  0
LWPOLYLINE
  5
1DAC4
330
1E
100
AcDbEntity
  8
10
  6
CONTINOUS
100
AcDbPolyline
 90
        2
 70
     0
 43
0.0
 10
235.1496642473376
 20
1002.478820795728
 10
235.1496642473376
 20
1003.545385628211
  0
LWPOLYLINE
  5
1DAC5
330
1E
100
AcDbEntity
  8
10
  6
CONTINOUS
100
AcDbPolyline
 90
        2
 70
     0
 43
0.0
 10
280.1496704859605
 20
1002.478820795728
 10
280.1496704859605
 20
1003.545385628211
  0
DIMENSION
  5
1DAF6
330
1E
100
AcDbEntity
  8
30
100
AcDbDimension
280
     0
  2
*D52
 10
341.4553292359524
 20
469.0747842760298
 30
0.0
 11
334.4553292359523
 21
583.0920702346236
 31
0.0
 70
    32
 71
     5
 42
228.0345719171875
 73
     0
 74
     0
 75
     0
  3
STANDARD
100
AcDbAlignedDimension
 13
266.2708800525749
 23
697.1093561932173
 33
0.0
 14
266.470880052575
 24
469.0747842760298
 34
0.0
 50
90.0
100
AcDbRotatedDimension
  0
VIEWPORT
  5
9AC
330
1A
100
AcDbEntity
 67
     1
  8
0
  6
Continuous
348
8A77
100
AcDbViewport
 10
171.999535
 20
144.1384739999999
 30
0.0
 40
488.867686
 41
292.351491
 68
     1
 69
     1
 12
171.999535
 22
144.1384739999999
 13
0.0
 23
0.0
 14
10.0
 24
10.0
 15
10.0
 25
10.0
 16
0.0
 26
0.0
 36
1.0
 17
0.0
 27
0.0
 37
0.0
 42
50.0
 43
0.0
 44
0.0
 45
292.351491
 50
0.0
 51
0.0
 72
   100
 90
    32800
  1

281
     0
 71
     1
 74
     0
110
0.0
120
0.0
130
0.0
111
1.0
121
0.0
131
0.0
112
0.0
122
1.0
132
0.0
 79
     0
146
0.0
170
     0
 61
     5
348
8A77
292
     1
282
     1
141
0.0
142
0.0
 63
   250
421
  3355443
  0
ENDSEC
  0
SECTION
  2
OBJECTS
  0
DICTIONARY
  5
C
330
0
100
AcDbDictionary
281
     1
  3
ACAD_CIP_PREVIOUS_PRODUCT_INFO
350
8AA8
  3
ACAD_COLOR
350
8A8A
  3
ACAD_DETAILVIEWSTYLE
350
8AA3
  3
ACAD_GROUP
350
D
  3
ACAD_LAYOUT
350
19
  3
ACAD_MATERIAL
350
8A58
  3
ACAD_MLEADERSTYLE
350
8A9F
  3
ACAD_MLINESTYLE
350
16
  3
ACAD_PLOTSETTINGS
350
18
  3
ACAD_PLOTSTYLENAME
350
E
  3
ACAD_SCALELIST
350
8A8D
  3
ACAD_SECTIONVIEWSTYLE
350
8AA1
  3
ACAD_TABLESTYLE
350
8A8B
  3
ACAD_VISUALSTYLE
350
8A71
  3
ACADDIM
350
6D5E
  3
ACDB_RECOMPOSE_DATA
350
1DB06
  3
ACDBVARIABLEDICTIONARY
350
5697
  3
AEC_PROPERTY_SET_DEFS
350
BFC4
  0
DICTIONARY
  5
F3CC
330
2
100
AcDbDictionary
280
     1
281
     1
  3
ACAD_LAYERSTATES
360
F3CD
  0
DICTIONARY
  5
8ACC
330
10
100
AcDbDictionary
280
     1
281
     1
  3
ADSK_XREC_LAYER_RECONCILED
360
8ACD
  0
DICTIONARY
  5
8ACE
330
2F
100
AcDbDictionary
280
     1
281
     1
  3
ADSK_XREC_LAYER_RECONCILED
360
8ACF
  0
DICTIONARY
  5
8AD2
330
35
100
AcDbDictionary
280
     1
281
     1
  3
ADSK_XREC_LAYER_RECONCILED
360
8AD3
  0
DICTIONARY
  5
8AD4
330
38
100
AcDbDictionary
280
     1
281
     1
  3
ADSK_XREC_LAYER_RECONCILED
360
8AD5
  0
DICTIONARY
  5
8AD6
330
3D
100
AcDbDictionary
280
     1
281
     1
  3
ADSK_XREC_LAYER_RECONCILED
360
8AD7
  0
DICTIONARY
  5
8AD8
330
3A2
100
AcDbDictionary
280
     1
281
     1
  3
ADSK_XREC_LAYER_RECONCILED
360
8AD9
  0
DICTIONARY
  5
8ADA
330
3BBA
100
AcDbDictionary
280
     1
281
     1
  3
ADSK_XREC_LAYER_RECONCILED
360
8ADB
  0
DICTIONARY
  5
8ADC
330
67A8
100
AcDbDictionary
280
     1
281
     1
  3
ADSK_XREC_LAYER_RECONCILED
360
8ADD
  0
DICTIONARY
  5
8ADE
330
7837
100
AcDbDictionary
280
     1
281
     1
  3
ADSK_XREC_LAYER_RECONCILED
360
8ADF
  0
DICTIONARY
  5
9134
330
9133
100
AcDbDictionary
280
     1
281
     1
  0
DICTIONARY
  5
1CA81
330
1CA80
100
AcDbDictionary
280
     1
281
     1
  0
DICTIONARY
  5
178
330
1E
100
AcDbDictionary
280
     1
281
     1
  3
ACAD_LAYOUTSELFREF
360
8A0F
  3
ACAD_SORTENTS
360
10338
  0
DICTIONARY
  5
17A
330
1A
100
AcDbDictionary
280
     1
281
     1
  3
ACAD_LAYOUTSELFREF
360
8A0E
  0
XRECORD
  5
8AA8
102
{ACAD_REACTORS
330
C
102
}
330
C
100
AcDbXrecord
280
     1
300
ACDLT
300
2014
300
ACDLT_F_S
  0
DICTIONARY
  5
8A8A
102
{ACAD_REACTORS
330
C
102
}
330
C
100
AcDbDictionary
281
     1
  0
DICTIONARY
  5
8AA3
102
{ACAD_REACTORS
330
C
102
}
330
C
100
AcDbDictionary
281
     1
  3
Imperial24
350
8AA4
  0
DICTIONARY
  5
D
102
{ACAD_REACTORS
330
C
102
}
330
C
100
AcDbDictionary
281
     1
  0
DICTIONARY
  5
19
102
{ACAD_REACTORS
330
C
102
}
330
C
100
AcDbDictionary
281
     1
  3
Model
350
8A4C
  3
ﾚｲｱｳﾄ1
350
8A4D
  0
DICTIONARY
  5
8A58
102
{ACAD_REACTORS
330
C
102
}
330
C
100
AcDbDictionary
281
     1
  3
ByBlock
350
8A61
  3
ByLayer
350
8A59
  3
Global
350
8A69
  0
DICTIONARY
  5
8A9F
102
{ACAD_REACTORS
330
C
102
}
330
C
100
AcDbDictionary
281
     1
  3
Standard
350
8AA0
  0
DICTIONARY
  5
16
102
{ACAD_REACTORS
330
C
102
}
330
C
100
AcDbDictionary
281
     1
  3
STANDARD
350
17
  0
DICTIONARY
  5
18
102
{ACAD_REACTORS
330
C
102
}
330
C
100
AcDbDictionary
281
     1
  0
ACDBDICTIONARYWDFLT
  5
E
102
{ACAD_REACTORS
330
C
102
}
330
C
100
AcDbDictionary
281
     1
  3
Normal
350
F
100
AcDbDictionaryWithDefault
340
F
  0
DICTIONARY
  5
8A8D
102
{ACAD_REACTORS
330
C
102
}
330
C
100
AcDbDictionary
281
     1
  3
A0
350
8A8E
  3
A1
350
8A8F
  3
A2
350
8A90
  3
A3
350
8A91
  3
A4
350
8A92
  3
A5
350
8A93
  3
A6
350
8A94
  3
A7
350
8A95
  3
A8
350
8A96
  3
A9
350
8A97
  3
B0
350
8A98
  3
B1
350
8A99
  3
B2
350
8A9A
  3
B3
350
8A9B
  3
B4
350
8A9C
  3
B5
350
8A9D
  3
B6
350
8A9E
  0
DICTIONARY
  5
8AA1
102
{ACAD_REACTORS
330
C
102
}
330
C
100
AcDbDictionary
281
     1
  3
Imperial24
350
8AA2
  0
DICTIONARY
  5
8A8B
102
{ACAD_REACTORS
330
C
102
}
330
C
100
AcDbDictionary
281
     1
  3
Standard
350
8A8C
  0
DICTIONARY
  5
8A71
102
{ACAD_REACTORS
330
C
102
}
330
C
100
AcDbDictionary
281
     1
  3
2dWireframe
350
8A77
  3
3D Hidden
350
8B2B
  3
3dWireframe
350
8B2A
  3
Basic
350
8A76
  3
Brighten
350
8A7D
  3
ColorChange
350
8A81
  3
Conceptual
350
8A7A
  3
Dim
350
8A7C
  3
EdgeColorOff
350
8A89
  3
Facepattern
350
8A80
  3
Flat
350
8A72
  3
FlatWithEdges
350
8A73
  3
Gouraud
350
8A74
  3
GouraudWithEdges
350
8A75
  3
Hidden
350
8A79
  3
JitterOff
350
8A87
  3
Linepattern
350
8A7F
  3
OverhangOff
350
8A88
  3
Realistic
350
8A7B
  3
Shaded
350
8A86
  3
Shaded with edges
350
8A85
  3
Shades of Gray
350
8A82
  3
Sketchy
350
8A83
  3
Thicken
350
8A7E
  3
Wireframe
350
8A78
  3
X-Ray
350
8A84
  0
XRECORD
  5
6D5E
102
{ACAD_REACTORS
330
C
102
}
330
C
100
AcDbXrecord
280
     1
 90
   990106
  3

 60
     0
 61
     0
 62
     1
 63
     3
 64
     0
 65
     0
 66
     0
 67
     3
 68
     1
 69
     0
 70
     0
 71
     0
 72
     0
 40
0.0
170
     0
340
0
  0
XRECORD
  5
1DB06
102
{ACAD_REACTORS
330
C
102
}
330
C
100
AcDbXrecord
280
     1
 90
        1
330
8A8C
330
8AA2
330
8AA4
  0
DICTIONARY
  5
5697
102
{ACAD_REACTORS
330
C
102
}
330
C
100
AcDbDictionary
281
     1
  3
CANNOSCALE
350
8AE9
  3
CMLEADERSTYLE
350
8AE5
  3
CTABLESTYLE
350
8AE4
  3
CVIEWDETAILSTYLE
350
8AE6
  3
CVIEWSECTIONSTYLE
350
8AE7
  3
DIMASSOC
350
5698
  3
LAYEREVAL
350
8AEB
  3
LAYERNOTIFY
350
8AEC
  3
LIGHTINGUNITS
350
8AEA
  3
MSLTSCALE
350
8AE8
  0
DICTIONARY
  5
BFC4
102
{ACAD_REACTORS
330
C
102
}
330
C
100
AcDbDictionary
281
     1
  0
DICTIONARY
  5
F3CD
102
{ACAD_REACTORS
330
F3CC
102
}
330
F3CC
100
AcDbDictionary
281
     1
  0
XRECORD
  5
8ACD
102
{ACAD_REACTORS
330
8ACC
102
}
330
8ACC
100
AcDbXrecord
280
     1
290
     1
  0
XRECORD
  5
8ACF
102
{ACAD_REACTORS
330
8ACE
102
}
330
8ACE
100
AcDbXrecord
280
     1
290
     1
  0
XRECORD
  5
8AD3
102
{ACAD_REACTORS
330
8AD2
102
}
330
8AD2
100
AcDbXrecord
280
     1
290
     1
  0
XRECORD
  5
8AD5
102
{ACAD_REACTORS
330
8AD4
102
}
330
8AD4
100
AcDbXrecord
280
     1
290
     1
  0
XRECORD
  5
8AD7
102
{ACAD_REACTORS
330
8AD6
102
}
330
8AD6
100
AcDbXrecord
280
     1
290
     1
  0
XRECORD
  5
8AD9
102
{ACAD_REACTORS
330
8AD8
102
}
330
8AD8
100
AcDbXrecord
280
     1
290
     1
  0
XRECORD
  5
8ADB
102
{ACAD_REACTORS
330
8ADA
102
}
330
8ADA
100
AcDbXrecord
280
     1
290
     1
  0
XRECORD
  5
8ADD
102
{ACAD_REACTORS
330
8ADC
102
}
330
8ADC
100
AcDbXrecord
280
     1
290
     1
  0
XRECORD
  5
8ADF
102
{ACAD_REACTORS
330
8ADE
102
}
330
8ADE
100
AcDbXrecord
280
     1
290
     1
  0
XRECORD
  5
8A0F
102
{ACAD_REACTORS
330
178
102
}
330
178
100
AcDbXrecord
280
     1
340
1E
  0
SORTENTSTABLE
  5
10338
102
{ACAD_REACTORS
330
178
102
}
330
178
100
AcDbSortentsTable
330
1E
331
1DA79
  5
1DA7D
331
1DA9B
  5
1DA9F
331
1D343
  5
1D347
331
1D311
  5
1D311
331
1DAB5
  5
1DAB9
331
1D381
  5
1D6E6
331
1D327
  5
1D327
331
1D246
  5
1D246
331
1D22C
  5
1D22C
331
1D1C4
  5
1D1C4
331
1DA68
  5
1DA6C
331
1DA8A
  5
1DA8E
331
1D332
  5
1D334
331
1D2F0
  5
1D2F0
331
1DAAC
  5
1DAB0
331
1D354
  5
1D358
331
1D30E
  5
1D30E
331
1D370
  5
1D374
331
1D257
  5
1D257
331
1D23D
  5
1D23D
331
1D21B
  5
1D21B
331
1DA57
  5
1DA5B
331
1D20D
  5
1D20D
331
1D1B7
  5
1D1B7
331
1DA99
  5
1DA9D
331
1D341
  5
1D344
331
1DAB3
  5
1DAB7
331
1D2EB
  5
1D2EB
331
1D325
  5
1D325
331
1D37F
  5
1D383
331
1D266
  5
1D266
331
1D244
  5
1D244
331
1D22A
  5
1D22A
331
1D1C2
  5
1D1C2
331
1DA66
  5
1DA6A
331
1DA88
  5
1DA8C
331
1D330
  5
1D332
331
1D2E6
  5
1D2E6
331
1DAAA
  5
1DAAE
331
1D352
  5
1D356
331
1DAC4
  5
1D33D
331
1D30C
  5
1D30C
331
1D366
  5
1D36A
331
1D255
  5
1D255
331
1D23B
  5
1D23B
331
1D219
  5
1D219
331
1DA55
  5
1DA59
331
1DA77
  5
1DA7B
331
1D2FF
  5
1D2FF
331
1D20B
  5
1D20B
331
1D1B5
  5
1D1B5
331
1DAB1
  5
1DAB5
331
1D2E9
  5
1D2E9
331
1D323
  5
1D323
331
1D37D
  5
1D381
331
1D36F
  5
1D373
331
1D264
  5
1D264
331
1D242
  5
1D242
331
1D228
  5
1D228
331
1D7D2
  5
1DA57
331
1D1C0
  5
1D1C0
331
1DA64
  5
1DA68
331
1DA86
  5
1DA8A
331
1D32E
  5
1D330
331
1DAA8
  5
1DAAC
331
1D350
  5
1D354
331
1DAC2
  5
1D32B
331
1D30A
  5
1D30A
331
1D364
  5
1D368
331
1D253
  5
1D253
331
1D239
  5
1D239
331
1D217
  5
1D217
331
1D209
  5
1D209
331
1DA75
  5
1DA79
331
1DA97
  5
1DA9B
331
1D33F
  5
1D342
331
1D2FD
  5
1D2FD
331
1D1DC
  5
1D1DC
331
1D1B3
  5
1D1B3
331
1D321
  5
1D321
331
1D37B
  5
1D37F
331
1D36D
  5
1D371
331
1D262
  5
1D262
331
1D240
  5
1D240
331
1DA62
  5
1DA66
331
1DA84
  5
1DA88
331
1D32C
  5
1D32D
331
1DAA6
  5
1DAAA
331
1D34E
  5
1D352
331
1DAC0
  5
1DAC4
331
1D308
  5
1D308
331
1D362
  5
1D366
331
1D251
  5
1D251
331
1D237
  5
1D237
331
1D215
  5
1D215
331
1DA73
  5
1DA77
331
1D2FB
  5
1D2FB
331
1DA95
  5
1DA99
331
1D226
  5
1D226
331
1D1FC
  5
1D1FC
331
1D1DA
  5
1D1DA
331
1D1D7
  5
1D1D7
331
1D1BC
  5
1D1BC
331
1D1B1
  5
1D1B1
331
1D379
  5
1D37D
331
1D6E6
  5
1DA56
331
1D36B
  5
1D36F
331
1D260
  5
1D260
331
1DA60
  5
1DA64
331
1DA82
  5
1DA86
331
1DAA4
  5
1DAA8
331
1D34C
  5
1D350
331
1D32A
  5
1D32A
331
1DABE
  5
1DAC2
331
1D306
  5
1D306
331
1D360
  5
1D364
331
1D24F
  5
1D24F
331
1D235
  5
1D235
331
1DA71
  5
1DA75
331
1D2F9
  5
1D2F9
331
1DA93
  5
1DA97
331
1D33B
  5
1D33E
331
1D31F
  5
1D31F
331
1D224
  5
1D224
331
1D1FA
  5
1D1FA
331
1D1D8
  5
1D1D8
331
1D1D5
  5
1D1D5
331
1D1BA
  5
1D1BA
331
1D1AF
  5
1D1AF
331
1D369
  5
1D36D
331
1DA5E
  5
1DA62
331
1DA80
  5
1DA84
331
1D328
  5
1D328
331
1DAA2
  5
1DAA6
331
1D34A
  5
1D34E
331
1DABC
  5
1DAC0
331
1D304
  5
1D304
331
1D35E
  5
1D362
331
1D24D
  5
1D24D
331
1D233
  5
1D233
331
1D211
  5
1D211
331
1D1D3
  5
1D1D3
331
1DA6F
  5
1DA73
331
1D2F7
  5
1D2F7
331
1DA91
  5
1DA95
331
1D339
  5
1D33B
331
1D31D
  5
1D31D
331
1D377
  5
1D37B
331
1D25E
  5
1D25E
331
1D222
  5
1D222
331
1D1F8
  5
1D1F8
331
1D1CE
  5
1D1CE
331
1D1B8
  5
1D1B8
331
1D1AD
  5
1D1AD
331
1DA5C
  5
1DA60
331
1DA7E
  5
1DA82
331
1D316
  5
1D316
331
1DAA0
  5
1DAA4
331
1D348
  5
1D34B
331
1DABA
  5
1DABE
331
1D302
  5
1D302
331
1D35C
  5
1D360
331
1D24B
  5
1D24B
331
1D231
  5
1D231
331
1D207
  5
1D207
331
1D1D1
  5
1D1D1
331
1DA6D
  5
1DA71
331
1D2F5
  5
1D2F5
331
1DA8F
  5
1DA93
331
1D337
  5
1D339
331
1D31B
  5
1D31B
331
1D375
  5
1D379
331
1D25C
  5
1D25C
331
1D220
  5
1D220
331
1D1F6
  5
1D1F6
331
1D1CC
  5
1D1CC
331
1D1AB
  5
1D1AB
331
1DA5A
  5
1DA5E
331
1DA7C
  5
1DA80
331
1D314
  5
1D314
331
1DA9E
  5
1DAA2
331
1D346
  5
1D349
331
1DAB8
  5
1DABC
331
1D300
  5
1D300
331
1D384
  5
1DA55
331
1D35A
  5
1D35E
331
1D249
  5
1D249
331
1D22F
  5
1D22F
331
1D205
  5
1D205
331
1DA6B
  5
1DA6F
331
1D2F3
  5
1D2F3
331
1DA8D
  5
1DA91
331
1D335
  5
1D337
331
1DAAF
  5
1DAB3
331
1D357
  5
1D35B
331
1D319
  5
1D319
331
1D373
  5
1D377
331
1D25A
  5
1D25A
331
1D21E
  5
1D21E
331
1D1F4
  5
1D1F4
331
1D1CA
  5
1D1CA
331
1D1C7
  5
1D1C7
331
1D1A9
  5
1D1A9
331
1DA58
  5
1DA5C
331
1DA7A
  5
1DA7E
331
1D312
  5
1D312
331
1DA9C
  5
1DAA0
331
1D344
  5
1D348
331
1DAB6
  5
1DABA
331
1D2EE
  5
1D2EE
331
1D382
  5
1D7D2
331
1D358
  5
1D35C
331
1D2AD
  5
1D2AD
331
1D247
  5
1D247
331
1D22D
  5
1D22D
331
1D203
  5
1D203
331
1DA69
  5
1DA6D
331
1DA8B
  5
1DA8F
331
1D333
  5
1D335
331
1D2F1
  5
1D2F1
331
1DAAD
  5
1DAB1
331
1D355
  5
1D359
331
1D30F
  5
1D30F
331
1D371
  5
1D375
331
1D258
  5
1D258
331
1D23E
  5
1D23E
331
1D21C
  5
1D21C
331
1D1C8
  5
1D1C8
331
1D1C5
  5
1D1C5
331
1DA78
  5
1DA7C
331
1DA9A
  5
1DA9E
331
1D342
  5
1D346
331
1D310
  5
1D310
331
1DAB4
  5
1DAB8
331
1D2EC
  5
1D2EC
331
1D326
  5
1D326
331
1D380
  5
1D384
331
1D267
  5
1D267
331
1D245
  5
1D245
331
1D22B
  5
1D22B
331
1D1C3
  5
1D1C3
331
1DA67
  5
1DA6B
331
1DA89
  5
1DA8D
331
1D331
  5
1D333
331
1D2E7
  5
1D2E7
331
1DAAB
  5
1DAAF
331
1D353
  5
1D357
331
1DAC5
  5
1D34C
331
1D30D
  5
1D30D
331
1D367
  5
1D36B
331
1D256
  5
1D256
331
1D23C
  5
1D23C
331
1D21A
  5
1D21A
331
1DA56
  5
1DA5A
331
1D20C
  5
1D20C
331
1D1B6
  5
1D1B6
331
1DA98
  5
1DA9C
331
1D340
  5
1D343
331
1DAB2
  5
1DAB6
331
1D2EA
  5
1D2EA
331
1D324
  5
1D324
331
1D37E
  5
1D382
331
1D265
  5
1D265
331
1D243
  5
1D243
331
1D229
  5
1D229
331
1D1C1
  5
1D1C1
331
1DA65
  5
1DA69
331
1DA87
  5
1DA8B
331
1D32F
  5
1D331
331
1D2E5
  5
1D2E5
331
1DAA9
  5
1DAAD
331
1D351
  5
1D355
331
1DAC3
  5
1D32E
331
1D30B
  5
1D30B
331
1D365
  5
1D369
331
1D254
  5
1D254
331
1D23A
  5
1D23A
331
1D218
  5
1D218
331
1DA54
  5
1DA58
331
1DA76
  5
1DA7A
331
1D2FE
  5
1D2FE
331
1D1DD
  5
1D1DD
331
1D1BF
  5
1D1BF
331
1D1B4
  5
1D1B4
331
1DAB0
  5
1DAB4
331
1D2E8
  5
1D2E8
331
1D322
  5
1D322
331
1D37C
  5
1D380
331
1D36E
  5
1D372
331
1D263
  5
1D263
331
1D241
  5
1D241
331
1DA63
  5
1DA67
331
1DA85
  5
1DA89
331
1D32D
  5
1D32F
331
1DAA7
  5
1DAAB
331
1D34F
  5
1D353
331
1DAC1
  5
1DAC5
331
1D309
  5
1D309
331
1D363
  5
1D367
331
1D252
  5
1D252
331
1D238
  5
1D238
331
1D216
  5
1D216
331
1D208
  5
1D208
331
1DA74
  5
1DA78
331
1DA96
  5
1DA9A
331
1D2FC
  5
1D2FC
331
1D227
  5
1D227
331
1D1DB
  5
1D1DB
331
1D1BD
  5
1D1BD
331
1D1B2
  5
1D1B2
331
1D320
  5
1D320
331
1D37A
  5
1D37E
331
1D36C
  5
1D370
331
1D2A5
  5
1D2A5
331
1D261
  5
1D261
331
1DA61
  5
1DA65
331
1DA83
  5
1DA87
331
1D32B
  5
1D32C
331
1DAA5
  5
1DAA9
331
1D34D
  5
1D351
331
1DABF
  5
1DAC3
331
1D307
  5
1D307
331
1D361
  5
1D365
331
1D250
  5
1D250
331
1D236
  5
1D236
331
1D214
  5
1D214
331
1DA72
  5
1DA76
331
1D2FA
  5
1D2FA
331
1DA94
  5
1DA98
331
1D33C
  5
1D33F
331
1D225
  5
1D225
331
1D1FB
  5
1D1FB
331
1D1D9
  5
1D1D9
331
1D1D6
  5
1D1D6
331
1D1BB
  5
1D1BB
331
1D1B0
  5
1D1B0
331
1D378
  5
1D37C
331
1D36A
  5
1D36E
331
1DA5F
  5
1DA63
331
1DA81
  5
1DA85
331
1DAA3
  5
1DAA7
331
1D34B
  5
1D34F
331
1D329
  5
1D329
331
1DABD
  5
1DAC1
331
1D305
  5
1D305
331
1D35F
  5
1D363
331
1D24E
  5
1D24E
331
1D234
  5
1D234
331
1DA70
  5
1DA74
331
1D2F8
  5
1D2F8
331
1DA92
  5
1DA96
331
1D33A
  5
1D33C
331
1D31E
  5
1D31E
331
1D25F
  5
1D25F
331
1D223
  5
1D223
331
1D1F9
  5
1D1F9
331
1D1CF
  5
1D1CF
331
1D1B9
  5
1D1B9
331
1D1AE
  5
1D1AE
331
1D368
  5
1D36C
331
1DA5D
  5
1DA61
331
1DA7F
  5
1DA83
331
1D317
  5
1D317
331
1DAA1
  5
1DAA5
331
1D349
  5
1D34D
331
1DABB
  5
1DABF
331
1D303
  5
1D303
331
1D35D
  5
1D361
331
1D24C
  5
1D24C
331
1D232
  5
1D232
331
1D210
  5
1D210
331
1D1D2
  5
1D1D2
331
1DA6E
  5
1DA72
331
1D2F6
  5
1D2F6
331
1DA90
  5
1DA94
331
1D338
  5
1D33A
331
1D31C
  5
1D31C
331
1D376
  5
1D37A
331
1D25D
  5
1D25D
331
1D221
  5
1D221
331
1D1F7
  5
1D1F7
331
1D1CD
  5
1D1CD
331
1D1AC
  5
1D1AC
331
1DA5B
  5
1DA5F
331
1DA7D
  5
1DA81
331
1D315
  5
1D315
331
1DA9F
  5
1DAA3
331
1D347
  5
1D34A
331
1DAB9
  5
1DABD
331
1D301
  5
1D301
331
1D35B
  5
1D35F
331
1D24A
  5
1D24A
331
1D230
  5
1D230
331
1D206
  5
1D206
331
1D1D0
  5
1D1D0
331
1DA6C
  5
1DA70
331
1D2F4
  5
1D2F4
331
1DA8E
  5
1DA92
331
1D336
  5
1D338
331
1D31A
  5
1D31A
331
1D374
  5
1D378
331
1D25B
  5
1D25B
331
1D21F
  5
1D21F
331
1D1F5
  5
1D1F5
331
1D1CB
  5
1D1CB
331
1D1AA
  5
1D1AA
331
1DA59
  5
1DA5D
331
1DA7B
  5
1DA7F
331
1D313
  5
1D313
331
1DA9D
  5
1DAA1
331
1DAB7
  5
1DABB
331
1D2EF
  5
1D2EF
331
1D383
  5
1DA54
331
1D359
  5
1D35D
331
1D248
  5
1D248
331
1D22E
  5
1D22E
331
1D204
  5
1D204
331
1DA6A
  5
1DA6E
331
1D2F2
  5
1D2F2
331
1DA8C
  5
1DA90
331
1D334
  5
1D336
331
1DAAE
  5
1DAB2
331
1D356
  5
1D35A
331
1D318
  5
1D318
331
1D372
  5
1D376
331
1D259
  5
1D259
331
1D23F
  5
1D23F
331
1D21D
  5
1D21D
331
1D20F
  5
1D20F
331
1D1F3
  5
1D1F3
331
1D1C9
  5
1D1C9
331
1D1C6
  5
1D1C6
331
1D1A8
  5
1D1A8
  0
XRECORD
  5
8A0E
102
{ACAD_REACTORS
330
17A
102
}
330
17A
100
AcDbXrecord
280
     1
340
1A
  0
ACDBDETAILVIEWSTYLE
  5
8AA4
102
{ACAD_XDICTIONARY
360
1D87B
102
}
102
{ACAD_REACTORS
330
8AA3
102
}
330
8AA3
100
AcDbModelDocViewStyle
 70
     0
  3
Imperial24
290
     0
100
AcDbDetailViewStyle
 70
     0
 71
     0
 90
        3
 71
     1
340
11
 62
   256
 40
0.24
340
0
 62
   256
 40
0.24
300

 40
0.36
280
     3
 71
     2
340
15
 90
       25
 62
   256
 71
     3
340
11
 62
   256
 40
0.24
 90
        1
 40
0.75
 90
        1
300
%<\AcVar ViewType \f "%tc1">% %<\AcVar ViewDetailId>%\PSCALE %<\AcVar ViewScale \f "%sn">%
 71
     4
340
15
 90
       25
 62
   256
340
15
 90
       25
 62
   256
280
     0
  0
LAYOUT
  5
8A4C
102
{ACAD_XDICTIONARY
360
F3D2
102
}
102
{ACAD_REACTORS
330
19
102
}
330
19
100
AcDbPlotSettings
  1

  2
none_device
  4
Letter_(8.50_x_11.00_Inches)
  6

 40
6.349999904632567
 41
6.349999904632567
 42
6.350006103515625
 43
6.350006103515625
 44
215.8999938964844
 45
279.3999938964844
 46
0.0
 47
0.0
 48
0.0
 49
0.0
140
0.0
141
0.0
142
1.0
143
317.0449279872537
 70
 11952
 72
     0
 73
     1
 74
     0
  7
monochrome.ctb
 75
     0
147
0.0031541271022642
 76
     0
 77
     2
 78
   300
148
21198.07971653447
149
42574.72085005308
100
AcDbLayout
  1
Model
 70
     1
 71
     0
 10
0.0
 20
0.0
 11
12.0
 21
9.0
 12
0.0
 22
0.0
 32
0.0
 14
0.0
 24
0.0
 34
0.0
 15
0.0
 25
0.0
 35
0.0
146
0.0
 13
0.0
 23
0.0
 33
0.0
 16
1.0
 26
0.0
 36
0.0
 17
0.0
 27
1.0
 37
0.0
 76
     0
330
1E
331
8A51
1001
ACAD_PSEXT
1000
なし
1000
なし
1000
適切ではありません
1000
新しいプロッタ環境設定名を選択しない限り、レイアウトは印刷されません。
1070
     0
  0
LAYOUT
  5
8A4D
102
{ACAD_REACTORS
330
19
102
}
330
19
100
AcDbPlotSettings
  1

  2
Canon LBP3800 LIPSLX
  4

  6

 40
0.0
 41
0.0
 42
0.0
 43
0.0
 44
0.0
 45
0.0
 46
0.0
 47
0.0
 48
0.0
 49
0.0
140
0.0
141
0.0
142
1.0
143
1.0
 70
   688
 72
     0
 73
     0
 74
     5
  7
monochrome.ctb
 75
    16
147
1.0
 76
     0
 77
     2
 78
   300
148
0.0
149
0.0
100
AcDbLayout
  1
ﾚｲｱｳﾄ1
 70
     1
 71
     1
 10
-5.873749
 20
-5.87375
 11
204.099579
 21
291.1369009999999
 12
0.0
 22
0.0
 32
0.0
 14
4.273573
 24
5.205245999999998
 34
0.0
 15
194.610095
 25
283.0697009999996
 35
0.0
146
0.0
 13
0.0
 23
0.0
 33
0.0
 16
1.0
 26
0.0
 36
0.0
 17
0.0
 27
1.0
 37
0.0
 76
     0
330
1A
331
9AC
  0
MATERIAL
  5
8A61
102
{ACAD_XDICTIONARY
360
8A62
102
}
102
{ACAD_REACTORS
330
8A58
102
}
330
8A58
100
AcDbMaterial
  1
ByBlock
 72
     0
 43
0.0208333333333333
 43
0.0
 43
0.0
 43
0.0
 43
0.0
 43
0.0208333333333333
 43
0.0
 43
0.0
 43
0.0
 43
0.0
 43
1.0
 43
0.0
 43
0.0
 43
0.0
 43
0.0
 43
1.0
 77
     0
 47
0.0208333333333333
 47
0.0
 47
0.0
 47
0.0
 47
0.0
 47
0.0208333333333333
 47
0.0
 47
0.0
 47
0.0
 47
0.0
 47
1.0
 47
0.0
 47
0.0
 47
0.0
 47
0.0
 47
1.0
171
     0
 49
0.0208333333333333
 49
0.0
 49
0.0
 49
0.0
 49
0.0
 49
0.0208333333333333
 49
0.0
 49
0.0
 49
0.0
 49
0.0
 49
1.0
 49
0.0
 49
0.0
 49
0.0
 49
0.0
 49
1.0
175
     0
142
0.0208333333333333
142
0.0
142
0.0
142
0.0
142
0.0
142
0.0208333333333333
142
0.0
142
0.0
142
0.0
142
0.0
142
1.0
142
0.0
142
0.0
142
0.0
142
0.0
142
1.0
179
     0
144
0.0208333333333333
144
0.0
144
0.0
144
0.0
144
0.0
144
0.0208333333333333
144
0.0
144
0.0
144
0.0
144
0.0
144
1.0
144
0.0
144
0.0
144
0.0
144
0.0
144
1.0
147
0.0208333333333333
147
0.0
147
0.0
147
0.0
147
0.0
147
0.0208333333333333
147
0.0
147
0.0
147
0.0
147
0.0
147
1.0
147
0.0
147
0.0
147
0.0
147
0.0
147
1.0
  0
MATERIAL
  5
8A59
102
{ACAD_XDICTIONARY
360
8A5A
102
}
102
{ACAD_REACTORS
330
8A58
102
}
330
8A58
100
AcDbMaterial
  1
ByLayer
 72
     0
 43
0.0208333333333333
 43
0.0
 43
0.0
 43
0.0
 43
0.0
 43
0.0208333333333333
 43
0.0
 43
0.0
 43
0.0
 43
0.0
 43
1.0
 43
0.0
 43
0.0
 43
0.0
 43
0.0
 43
1.0
 77
     0
 47
0.0208333333333333
 47
0.0
 47
0.0
 47
0.0
 47
0.0
 47
0.0208333333333333
 47
0.0
 47
0.0
 47
0.0
 47
0.0
 47
1.0
 47
0.0
 47
0.0
 47
0.0
 47
0.0
 47
1.0
171
     0
 49
0.0208333333333333
 49
0.0
 49
0.0
 49
0.0
 49
0.0
 49
0.0208333333333333
 49
0.0
 49
0.0
 49
0.0
 49
0.0
 49
1.0
 49
0.0
 49
0.0
 49
0.0
 49
0.0
 49
1.0
175
     0
142
0.0208333333333333
142
0.0
142
0.0
142
0.0
142
0.0
142
0.0208333333333333
142
0.0
142
0.0
142
0.0
142
0.0
142
1.0
142
0.0
142
0.0
142
0.0
142
0.0
142
1.0
179
     0
144
0.0208333333333333
144
0.0
144
0.0
144
0.0
144
0.0
144
0.0208333333333333
144
0.0
144
0.0
144
0.0
144
0.0
144
1.0
144
0.0
144
0.0
144
0.0
144
0.0
144
1.0
147
0.0208333333333333
147
0.0
147
0.0
147
0.0
147
0.0
147
0.0208333333333333
147
0.0
147
0.0
147
0.0
147
0.0
147
1.0
147
0.0
147
0.0
147
0.0
147
0.0
147
1.0
  0
MATERIAL
  5
8A69
102
{ACAD_XDICTIONARY
360
8A6A
102
}
102
{ACAD_REACTORS
330
8A58
102
}
330
8A58
100
AcDbMaterial
  1
Global
 72
     0
 43
0.0208333333333333
 43
0.0
 43
0.0
 43
0.0
 43
0.0
 43
0.0208333333333333
 43
0.0
 43
0.0
 43
0.0
 43
0.0
 43
1.0
 43
0.0
 43
0.0
 43
0.0
 43
0.0
 43
1.0
 77
     0
 47
0.0208333333333333
 47
0.0
 47
0.0
 47
0.0
 47
0.0
 47
0.0208333333333333
 47
0.0
 47
0.0
 47
0.0
 47
0.0
 47
1.0
 47
0.0
 47
0.0
 47
0.0
 47
0.0
 47
1.0
171
     0
 49
0.0208333333333333
 49
0.0
 49
0.0
 49
0.0
 49
0.0
 49
0.0208333333333333
 49
0.0
 49
0.0
 49
0.0
 49
0.0
 49
1.0
 49
0.0
 49
0.0
 49
0.0
 49
0.0
 49
1.0
175
     0
142
0.0208333333333333
142
0.0
142
0.0
142
0.0
142
0.0
142
0.0208333333333333
142
0.0
142
0.0
142
0.0
142
0.0
142
1.0
142
0.0
142
0.0
142
0.0
142
0.0
142
1.0
179
     0
144
0.0208333333333333
144
0.0
144
0.0
144
0.0
144
0.0
144
0.0208333333333333
144
0.0
144
0.0
144
0.0
144
0.0
144
1.0
144
0.0
144
0.0
144
0.0
144
0.0
144
1.0
147
0.0208333333333333
147
0.0
147
0.0
147
0.0
147
0.0
147
0.0208333333333333
147
0.0
147
0.0
147
0.0
147
0.0
147
1.0
147
0.0
147
0.0
147
0.0
147
0.0
147
1.0
  0
MLEADERSTYLE
  5
8AA0
102
{ACAD_REACTORS
330
8A9F
102
}
330
8A9F
100
AcDbMLeaderStyle
179
     2
170
     2
171
     1
172
     0
 90
        2
 40
0.0
 41
0.0
173
     1
 91
-1056964608
340
13
 92
       -2
290
     1
 42
0.09
291
     1
 43
0.36
  3
Standard
 44
0.18
300

342
11
174
     1
178
     6
175
     1
176
     0
 93
-1056964608
 45
0.18
292
     0
297
     0
 46
0.18
 94
-1056964608
 47
1.0
 49
1.0
140
1.0
293
     1
141
0.0
294
     1
177
     0
142
1.0
295
     0
296
     0
143
0.125
271
     0
272
     9
273
     9
298
     0
  0
MLINESTYLE
  5
17
102
{ACAD_REACTORS
330
16
102
}
330
16
100
AcDbMlineStyle
  2
STANDARD
 70
     0
  3

 62
   256
 51
90.0
 52
90.0
 71
     2
 49
0.5
 62
   256
  6
BYLAYER
 49
-0.5
 62
   256
  6
BYLAYER
  0
ACDBPLACEHOLDER
  5
F
102
{ACAD_REACTORS
330
E
102
}
330
E
  0
SCALE
  5
8A8E
102
{ACAD_REACTORS
330
8A8D
102
}
330
8A8D
100
AcDbScale
 70
     0
300
1:1
140
1.0
141
1.0
290
     1
  0
SCALE
  5
8A8F
102
{ACAD_REACTORS
330
8A8D
102
}
330
8A8D
100
AcDbScale
 70
     0
300
1/128" = 1'-0"
140
0.0078125
141
12.0
290
     0
  0
SCALE
  5
8A90
102
{ACAD_REACTORS
330
8A8D
102
}
330
8A8D
100
AcDbScale
 70
     0
300
1/64" = 1'-0"
140
0.015625
141
12.0
290
     0
  0
SCALE
  5
8A91
102
{ACAD_REACTORS
330
8A8D
102
}
330
8A8D
100
AcDbScale
 70
     0
300
1/32" = 1'-0"
140
0.03125
141
12.0
290
     0
  0
SCALE
  5
8A92
102
{ACAD_REACTORS
330
8A8D
102
}
330
8A8D
100
AcDbScale
 70
     0
300
1/16" = 1'-0"
140
0.0625
141
12.0
290
     0
  0
SCALE
  5
8A93
102
{ACAD_REACTORS
330
8A8D
102
}
330
8A8D
100
AcDbScale
 70
     0
300
3/32" = 1'-0"
140
0.09375
141
12.0
290
     0
  0
SCALE
  5
8A94
102
{ACAD_REACTORS
330
8A8D
102
}
330
8A8D
100
AcDbScale
 70
     0
300
1/8" = 1'-0"
140
0.125
141
12.0
290
     0
  0
SCALE
  5
8A95
102
{ACAD_REACTORS
330
8A8D
102
}
330
8A8D
100
AcDbScale
 70
     0
300
3/16" = 1'-0"
140
0.1875
141
12.0
290
     0
  0
SCALE
  5
8A96
102
{ACAD_REACTORS
330
8A8D
102
}
330
8A8D
100
AcDbScale
 70
     0
300
1/4" = 1'-0"
140
0.25
141
12.0
290
     0
  0
SCALE
  5
8A97
102
{ACAD_REACTORS
330
8A8D
102
}
330
8A8D
100
AcDbScale
 70
     0
300
3/8" = 1'-0"
140
0.375
141
12.0
290
     0
  0
SCALE
  5
8A98
102
{ACAD_REACTORS
330
8A8D
102
}
330
8A8D
100
AcDbScale
 70
     0
300
1/2" = 1'-0"
140
0.5
141
12.0
290
     0
  0
SCALE
  5
8A99
102
{ACAD_REACTORS
330
8A8D
102
}
330
8A8D
100
AcDbScale
 70
     0
300
3/4" = 1'-0"
140
0.75
141
12.0
290
     0
  0
SCALE
  5
8A9A
102
{ACAD_REACTORS
330
8A8D
102
}
330
8A8D
100
AcDbScale
 70
     0
300
1" = 1'-0"
140
1.0
141
12.0
290
     0
  0
SCALE
  5
8A9B
102
{ACAD_REACTORS
330
8A8D
102
}
330
8A8D
100
AcDbScale
 70
     0
300
1-1/2" = 1'-0"
140
1.5
141
12.0
290
     0
  0
SCALE
  5
8A9C
102
{ACAD_REACTORS
330
8A8D
102
}
330
8A8D
100
AcDbScale
 70
     0
300
3" = 1'-0"
140
3.0
141
12.0
290
     0
  0
SCALE
  5
8A9D
102
{ACAD_REACTORS
330
8A8D
102
}
330
8A8D
100
AcDbScale
 70
     0
300
6" = 1'-0"
140
6.0
141
12.0
290
     0
  0
SCALE
  5
8A9E
102
{ACAD_REACTORS
330
8A8D
102
}
330
8A8D
100
AcDbScale
 70
     0
300
1'-0" = 1'-0"
140
12.0
141
12.0
290
     0
  0
ACDBSECTIONVIEWSTYLE
  5
8AA2
102
{ACAD_XDICTIONARY
360
1D879
102
}
102
{ACAD_REACTORS
330
8AA1
102
}
330
8AA1
100
AcDbModelDocViewStyle
 70
     0
  3
Imperial24
290
     0
100
AcDbSectionViewStyle
 70
     0
 71
     0
 90
       78
 71
     1
340
11
 62
   256
 40
0.24
340
0
340
0
 62
   256
 40
0.24
300
I, O, Q, S, X, Z
 40
0.48
 90
        3
 40
0.18
 90
        1
 71
     2
340
15
 90
       25
 62
   256
340
15
 90
       50
 62
   256
 40
0.24
 40
0.0
 40
0.24
 71
     3
340
11
 62
   256
 40
0.24
 90
        1
 40
0.75
 90
        1
300
%<\AcVar ViewType \f "%tc1">% %<\AcVar ViewSectionStartId>%-%<\AcVar ViewSectionEndId>%\PSCALE %<\AcVar ViewScale \f "%sn">%
 71
     4
 62
   256
 62
   257
300
ANSI31
 40
1.0
 90
        0
290
     0
290
     0
 90
        6
 40
0.0
 40
1.570796326794896
 40
0.2617993877991494
 40
1.308996938995747
 40
-0.2617993877991494
 40
1.832595714594044
  0
TABLESTYLE
  5
8A8C
102
{ACAD_XDICTIONARY
360
8AED
102
}
102
{ACAD_REACTORS
330
8A8B
102
}
330
8A8B
100
AcDbTableStyle
280
     0
  3
Standard
 70
     0
 71
     0
 40
0.06
 41
0.06
280
     0
281
     0
  7
STANDARD
140
0.18
170
     2
 62
     0
 63
     7
283
     0
 90
      512
 91
        0
  1

274
    -2
284
     1
 64
     0
275
    -2
285
     1
 65
     0
276
    -2
286
     1
 66
     0
277
    -2
287
     1
 67
     0
278
    -2
288
     1
 68
     0
279
    -2
289
     1
 69
     0
  7
STANDARD
140
0.25
170
     5
 62
     0
 63
     7
283
     0
 90
      512
 91
        0
  1

274
    -2
284
     1
 64
     0
275
    -2
285
     1
 65
     0
276
    -2
286
     1
 66
     0
277
    -2
287
     1
 67
     0
278
    -2
288
     1
 68
     0
279
    -2
289
     1
 69
     0
  7
STANDARD
140
0.18
170
     5
 62
     0
 63
     7
283
     0
 90
      512
 91
        0
  1

274
    -2
284
     1
 64
     0
275
    -2
285
     1
 65
     0
276
    -2
286
     1
 66
     0
277
    -2
287
     1
 67
     0
278
    -2
288
     1
 68
     0
279
    -2
289
     1
 69
     0
  0
VISUALSTYLE
  5
8A77
102
{ACAD_REACTORS
330
8A71
102
}
330
8A71
100
AcDbVisualStyle
  2
2dWireframe
 70
     4
177
     3
291
     0
 70
    58
 90
        0
176
     1
 90
        2
176
     1
 90
        0
176
     1
 90
        0
176
     1
 40
0.6
176
     1
 40
30.0
176
     1
 62
     7
420
 16777215
176
     1
 90
        1
176
     1
 90
        4
176
     1
 62
     7
176
     1
 62
   257
176
     1
 90
        1
176
     1
 90
        1
176
     1
 40
1.0
176
     1
 90
        0
176
     1
 62
   257
176
     1
 40
1.0
176
     1
 90
        1
176
     1
 90
        6
176
     1
 90
        2
176
     1
 62
     7
176
     1
 90
        5
176
     1
 90
        0
176
     1
 90
        0
176
     1
290
     0
176
     1
 90
        1
176
     1
 40
0.0
176
     1
 90
        0
176
     1
290
     1
176
     1
290
     1
176
     1
290
     0
176
     1
290
     0
176
     1
290
     0
176
     1
290
     0
176
     1
290
     0
176
     1
290
     0
176
     1
290
     0
176
     1
 90
       50
176
     1
 40
0.0
176
     1
 40
1.0
176
     1
 90
        0
176
     1
 62
    18
176
     1
 90
       50
176
     1
 90
        3
176
     1
 62
     5
420
      255
176
     1
290
     0
176
     1
 90
       50
176
     1
 90
       50
176
     1
 90
       50
176
     1
290
     0
176
     1
 90
       50
176
     1
 62
   256
176
     0
 40
1.0
176
     0
 90
        2
176
     1
  1
strokes_ogs.tif
176
     1
290
     0
176
     1
 40
1.0
176
     1
 40
1.0
176
     1
  0
VISUALSTYLE
  5
8B2B
102
{ACAD_REACTORS
330
8A71
102
}
330
8A71
100
AcDbVisualStyle
  2
3D Hidden
 70
     6
177
     3
291
     0
 70
    58
 90
        1
176
     1
 90
        2
176
     1
 90
        2
176
     1
 90
        0
176
     1
 40
0.6
176
     1
 40
30.0
176
     1
 62
     7
420
 16777215
176
     1
 90
        2
176
     1
 90
        2
176
     1
 62
     7
176
     1
 62
   257
176
     1
 90
        2
176
     1
 90
        1
176
     1
 40
179.0
176
     1
 90
        0
176
     1
 62
   257
176
     1
 40
1.0
176
     1
 90
        1
176
     1
 90
        6
176
     1
 90
        2
176
     1
 62
     7
176
     1
 90
        3
176
     1
 90
        0
176
     1
 90
        0
176
     1
290
     0
176
     1
 90
        1
176
     1
 40
0.0
176
     1
 90
        0
176
     1
290
     0
176
     1
290
     1
176
     1
290
     1
176
     1
290
     0
176
     1
290
     0
176
     1
290
     0
176
     1
290
     0
176
     1
290
     0
176
     1
290
     0
176
     1
 90
       50
176
     1
 40
0.0
176
     1
 40
1.0
176
     1
 90
        0
176
     1
 62
    18
176
     1
 90
       50
176
     1
 90
        3
176
     1
 62
     5
420
      255
176
     1
290
     0
176
     1
 90
       50
176
     1
 90
       50
176
     1
 90
       50
176
     1
290
     0
176
     1
 90
       50
176
     1
 62
   256
176
     0
 40
1.0
176
     0
 90
        2
176
     1
  1
strokes_ogs.tif
176
     1
290
     0
176
     1
 40
1.0
176
     1
 40
1.0
176
     1
  0
VISUALSTYLE
  5
8B2A
102
{ACAD_REACTORS
330
8A71
102
}
330
8A71
100
AcDbVisualStyle
  2
3dWireframe
 70
     5
177
     3
291
     0
 70
    58
 90
        0
176
     1
 90
        2
176
     1
 90
        0
176
     1
 90
        0
176
     1
 40
0.6
176
     1
 40
30.0
176
     1
 62
     7
420
 16777215
176
     1
 90
        1
176
     1
 90
        4
176
     1
 62
     7
176
     1
 62
   257
176
     1
 90
        1
176
     1
 90
        1
176
     1
 40
1.0
176
     1
 90
        0
176
     1
 62
   257
176
     1
 40
1.0
176
     1
 90
        1
176
     1
 90
        6
176
     1
 90
        2
176
     1
 62
     7
176
     1
 90
        5
176
     1
 90
        0
176
     1
 90
        0
176
     1
290
     0
176
     1
 90
        1
176
     1
 40
0.0
176
     1
 90
        0
176
     1
290
     0
176
     1
290
     1
176
     1
290
     1
176
     1
290
     0
176
     1
290
     0
176
     1
290
     0
176
     1
290
     0
176
     1
290
     0
176
     1
290
     0
176
     1
 90
       50
176
     1
 40
0.0
176
     1
 40
1.0
176
     1
 90
        0
176
     1
 62
    18
176
     1
 90
       50
176
     1
 90
        3
176
     1
 62
     5
420
      255
176
     1
290
     0
176
     1
 90
       50
176
     1
 90
       50
176
     1
 90
       50
176
     1
290
     0
176
     1
 90
       50
176
     1
 62
   256
176
     0
 40
1.0
176
     0
 90
        2
176
     1
  1
strokes_ogs.tif
176
     1
290
     0
176
     1
 40
1.0
176
     1
 40
1.0
176
     1
  0
VISUALSTYLE
  5
8A76
102
{ACAD_REACTORS
330
8A71
102
}
330
8A71
100
AcDbVisualStyle
  2
Basic
 70
     7
177
     3
291
     1
 70
    58
 90
        1
176
     1
 90
        0
176
     1
 90
        1
176
     1
 90
        0
176
     1
 40
0.6
176
     1
 40
30.0
176
     1
 62
     7
420
 16777215
176
     1
 90
        0
176
     1
 90
        4
176
     1
 62
     7
176
     1
 62
   257
176
     1
 90
        1
176
     1
 90
        1
176
     1
 40
1.0
176
     1
 90
        8
176
     1
 62
     7
176
     1
 40
1.0
176
     1
 90
        1
176
     1
 90
        6
176
     1
 90
        2
176
     1
 62
     7
176
     1
 90
        5
176
     1
 90
        0
176
     1
 90
        0
176
     1
290
     0
176
     1
 90
        1
176
     1
 40
0.0
176
     1
 90
        0
176
     1
290
     0
176
     1
290
     1
176
     1
290
     1
176
     1
290
     0
176
     1
290
     0
176
     1
290
     0
176
     1
290
     0
176
     1
290
     0
176
     1
290
     0
176
     1
 90
       50
176
     1
 40
0.0
176
     1
 40
1.0
176
     1
 90
        0
176
     1
 62
    18
176
     1
 90
       50
176
     1
 90
        3
176
     1
 62
     5
420
      255
176
     1
290
     0
176
     1
 90
       50
176
     1
 90
       50
176
     1
 90
       50
176
     1
290
     0
176
     1
 90
       50
176
     1
 62
   256
176
     0
 40
1.0
176
     0
 90
        2
176
     1
  1
strokes_ogs.tif
176
     1
290
     0
176
     1
 40
1.0
176
     1
 40
1.0
176
     1
  0
VISUALSTYLE
  5
8A7D
102
{ACAD_REACTORS
330
8A71
102
}
330
8A71
100
AcDbVisualStyle
  2
Brighten
 70
    12
177
     3
291
     1
 70
    58
 90
        2
176
     1
 90
        2
176
     1
 90
        0
176
     1
 90
        0
176
     1
 40
0.6
176
     1
 40
30.0
176
     1
 62
     7
420
 16777215
176
     1
 90
        1
176
     1
 90
        4
176
     1
 62
     7
176
     1
 62
   257
176
     1
 90
        1
176
     1
 90
        1
176
     1
 40
1.0
176
     1
 90
        8
176
     1
 62
     7
176
     1
 40
1.0
176
     1
 90
        1
176
     1
 90
        6
176
     1
 90
        2
176
     1
 62
     7
176
     1
 90
        5
176
     1
 90
        0
176
     1
 90
        0
176
     1
290
     0
176
     1
 90
        1
176
     1
 40
50.0
176
     1
 90
        0
176
     1
290
     0
176
     1
290
     1
176
     1
290
     1
176
     1
290
     0
176
     1
290
     0
176
     1
290
     0
176
     1
290
     0
176
     1
290
     0
176
     1
290
     0
176
     1
 90
       50
176
     1
 40
0.0
176
     1
 40
1.0
176
     1
 90
        0
176
     1
 62
    18
176
     1
 90
       50
176
     1
 90
        3
176
     1
 62
     5
420
      255
176
     1
290
     0
176
     1
 90
       50
176
     1
 90
       50
176
     1
 90
       50
176
     1
290
     0
176
     1
 90
       50
176
     1
 62
   256
176
     0
 40
1.0
176
     0
 90
        2
176
     1
  1
strokes_ogs.tif
176
     1
290
     0
176
     1
 40
1.0
176
     1
 40
1.0
176
     1
  0
VISUALSTYLE
  5
8A81
102
{ACAD_REACTORS
330
8A71
102
}
330
8A71
100
AcDbVisualStyle
  2
ColorChange
 70
    16
177
     3
291
     1
 70
    58
 90
        2
176
     1
 90
        2
176
     1
 90
        3
176
     1
 90
        0
176
     1
 40
0.6
176
     1
 40
30.0
176
     1
 62
     8
420
  8421504
176
     1
 90
        1
176
     1
 90
        4
176
     1
 62
     7
176
     1
 62
   257
176
     1
 90
        1
176
     1
 90
        1
176
     1
 40
1.0
176
     1
 90
        8
176
     1
 62
     8
420
  8421504
176
     1
 40
1.0
176
     1
 90
        1
176
     1
 90
        6
176
     1
 90
        2
176
     1
 62
     7
176
     1
 90
        5
176
     1
 90
        0
176
     1
 90
        0
176
     1
290
     0
176
     1
 90
        1
176
     1
 40
0.0
176
     1
 90
        0
176
     1
290
     0
176
     1
290
     1
176
     1
290
     1
176
     1
290
     0
176
     1
290
     0
176
     1
290
     0
176
     1
290
     0
176
     1
290
     0
176
     1
290
     0
176
     1
 90
       50
176
     1
 40
0.0
176
     1
 40
1.0
176
     1
 90
        0
176
     1
 62
    18
176
     1
 90
       50
176
     1
 90
        3
176
     1
 62
     5
420
      255
176
     1
290
     0
176
     1
 90
       50
176
     1
 90
       50
176
     1
 90
       50
176
     1
290
     0
176
     1
 90
       50
176
     1
 62
   256
176
     0
 40
1.0
176
     0
 90
        2
176
     1
  1
strokes_ogs.tif
176
     1
290
     0
176
     1
 40
1.0
176
     1
 40
1.0
176
     1
  0
VISUALSTYLE
  5
8A7A
102
{ACAD_REACTORS
330
8A71
102
}
330
8A71
100
AcDbVisualStyle
  2
Conceptual
 70
     9
177
     3
291
     0
 70
    58
 90
        3
176
     1
 90
        2
176
     1
 90
        0
176
     1
 90
        0
176
     1
 40
0.6
176
     1
 40
30.0
176
     1
 62
     7
420
 16777215
176
     1
 90
        2
176
     1
 90
        2
176
     1
 62
     7
176
     1
 62
   257
176
     1
 90
        1
176
     1
 90
        1
176
     1
 40
179.0
176
     1
 90
        8
176
     1
 62
     7
176
     1
 40
1.0
176
     1
 90
        1
176
     1
 90
        6
176
     1
 90
        2
176
     1
 62
     7
176
     1
 90
        3
176
     1
 90
        0
176
     1
 90
        0
176
     1
290
     0
176
     1
 90
        1
176
     1
 40
0.0
176
     1
 90
        0
176
     1
290
     0
176
     1
290
     1
176
     1
290
     1
176
     1
290
     0
176
     1
290
     0
176
     1
290
     0
176
     1
290
     0
176
     1
290
     0
176
     1
290
     0
176
     1
 90
       50
176
     1
 40
0.0
176
     1
 40
1.0
176
     1
 90
        0
176
     1
 62
    18
176
     1
 90
       50
176
     1
 90
        3
176
     1
 62
     5
420
      255
176
     1
290
     0
176
     1
 90
       50
176
     1
 90
       50
176
     1
 90
       50
176
     1
290
     0
176
     1
 90
       50
176
     1
 62
   256
176
     0
 40
1.0
176
     0
 90
        2
176
     1
  1
strokes_ogs.tif
176
     1
290
     0
176
     1
 40
1.0
176
     1
 40
1.0
176
     1
  0
VISUALSTYLE
  5
8A7C
102
{ACAD_REACTORS
330
8A71
102
}
330
8A71
100
AcDbVisualStyle
  2
Dim
 70
    11
177
     3
291
     1
 70
    58
 90
        2
176
     1
 90
        2
176
     1
 90
        0
176
     1
 90
        0
176
     1
 40
0.6
176
     1
 40
30.0
176
     1
 62
     7
420
 16777215
176
     1
 90
        1
176
     1
 90
        4
176
     1
 62
     7
176
     1
 62
   257
176
     1
 90
        1
176
     1
 90
        1
176
     1
 40
1.0
176
     1
 90
        8
176
     1
 62
     7
176
     1
 40
1.0
176
     1
 90
        1
176
     1
 90
        6
176
     1
 90
        2
176
     1
 62
     7
176
     1
 90
        5
176
     1
 90
        0
176
     1
 90
        0
176
     1
290
     0
176
     1
 90
        1
176
     1
 40
-50.0
176
     1
 90
        0
176
     1
290
     0
176
     1
290
     1
176
     1
290
     1
176
     1
290
     0
176
     1
290
     0
176
     1
290
     0
176
     1
290
     0
176
     1
290
     0
176
     1
290
     0
176
     1
 90
       50
176
     1
 40
0.0
176
     1
 40
1.0
176
     1
 90
        0
176
     1
 62
    18
176
     1
 90
       50
176
     1
 90
        3
176
     1
 62
     5
420
      255
176
     1
290
     0
176
     1
 90
       50
176
     1
 90
       50
176
     1
 90
       50
176
     1
290
     0
176
     1
 90
       50
176
     1
 62
   256
176
     0
 40
1.0
176
     0
 90
        2
176
     1
  1
strokes_ogs.tif
176
     1
290
     0
176
     1
 40
1.0
176
     1
 40
1.0
176
     1
  0
VISUALSTYLE
  5
8A89
102
{ACAD_REACTORS
330
8A71
102
}
330
8A71
100
AcDbVisualStyle
  2
EdgeColorOff
 70
    22
177
     3
291
     1
 70
    58
 90
        2
176
     0
 90
        2
176
     0
 90
        0
176
     0
 90
        0
176
     0
 40
0.6
176
     0
 40
30.0
176
     0
 62
     7
420
 16777215
176
     0
 90
        1
176
     0
 90
        4
176
     0
 62
     7
176
     0
 62
   257
176
     0
 90
        1
176
     0
 90
        1
176
     0
 40
1.0
176
     0
 90
        8
176
     2
 62
     7
176
     0
 40
1.0
176
     0
 90
        1
176
     0
 90
        6
176
     0
 90
        2
176
     0
 62
     7
176
     0
 90
        5
176
     0
 90
        0
176
     0
 90
        0
176
     0
290
     0
176
     0
 90
        1
176
     0
 40
0.0
176
     0
 90
        0
176
     0
290
     0
176
     1
290
     1
176
     1
290
     1
176
     1
290
     0
176
     1
290
     0
176
     1
290
     0
176
     1
290
     0
176
     1
290
     0
176
     1
290
     0
176
     1
 90
       50
176
     0
 40
0.0
176
     0
 40
1.0
176
     0
 90
        0
176
     0
 62
    18
176
     0
 90
       50
176
     0
 90
        3
176
     0
 62
     5
420
      255
176
     0
290
     0
176
     1
 90
       50
176
     0
 90
       50
176
     0
 90
       50
176
     0
290
     0
176
     1
 90
       50
176
     0
 62
   256
176
     0
 40
1.0
176
     0
 90
        2
176
     0
  1
strokes_ogs.tif
176
     0
290
     0
176
     1
 40
1.0
176
     0
 40
1.0
176
     0
  0
VISUALSTYLE
  5
8A80
102
{ACAD_REACTORS
330
8A71
102
}
330
8A71
100
AcDbVisualStyle
  2
Facepattern
 70
    15
177
     3
291
     1
 70
    58
 90
        2
176
     1
 90
        2
176
     1
 90
        0
176
     1
 90
        0
176
     1
 40
0.6
176
     1
 40
30.0
176
     1
 62
     7
420
 16777215
176
     1
 90
        1
176
     1
 90
        4
176
     1
 62
     7
176
     1
 62
   257
176
     1
 90
        1
176
     1
 90
        1
176
     1
 40
1.0
176
     1
 90
        8
176
     1
 62
     7
176
     1
 40
1.0
176
     1
 90
        1
176
     1
 90
        6
176
     1
 90
        2
176
     1
 62
     7
176
     1
 90
        5
176
     1
 90
        0
176
     1
 90
        0
176
     1
290
     0
176
     1
 90
        1
176
     1
 40
0.0
176
     1
 90
        0
176
     1
290
     0
176
     1
290
     1
176
     1
290
     1
176
     1
290
     0
176
     1
290
     0
176
     1
290
     0
176
     1
290
     0
176
     1
290
     0
176
     1
290
     0
176
     1
 90
       50
176
     1
 40
0.0
176
     1
 40
1.0
176
     1
 90
        0
176
     1
 62
    18
176
     1
 90
       50
176
     1
 90
        3
176
     1
 62
     5
420
      255
176
     1
290
     0
176
     1
 90
       50
176
     1
 90
       50
176
     1
 90
       50
176
     1
290
     0
176
     1
 90
       50
176
     1
 62
   256
176
     0
 40
1.0
176
     0
 90
        2
176
     1
  1
strokes_ogs.tif
176
     1
290
     0
176
     1
 40
1.0
176
     1
 40
1.0
176
     1
  0
VISUALSTYLE
  5
8A72
102
{ACAD_REACTORS
330
8A71
102
}
330
8A71
100
AcDbVisualStyle
  2
Flat
 70
     0
177
     3
291
     1
 70
    58
 90
        2
176
     1
 90
        1
176
     1
 90
        1
176
     1
 90
        2
176
     1
 40
0.6
176
     1
 40
30.0
176
     1
 62
     7
420
 16777215
176
     1
 90
        0
176
     1
 90
        0
176
     1
 62
     7
176
     1
 62
   257
176
     1
 90
        1
176
     1
 90
        1
176
     1
 40
1.0
176
     1
 90
        8
176
     1
 62
     7
176
     1
 40
1.0
176
     1
 90
        1
176
     1
 90
        6
176
     1
 90
        2
176
     1
 62
     7
176
     1
 90
        5
176
     1
 90
        0
176
     1
 90
        0
176
     1
290
     0
176
     1
 90
       13
176
     1
 40
0.0
176
     1
 90
        0
176
     1
290
     0
176
     1
290
     1
176
     1
290
     1
176
     1
290
     0
176
     1
290
     0
176
     1
290
     0
176
     1
290
     0
176
     1
290
     0
176
     1
290
     0
176
     1
 90
       50
176
     1
 40
0.0
176
     1
 40
1.0
176
     1
 90
        0
176
     1
 62
    18
176
     1
 90
       50
176
     1
 90
        3
176
     1
 62
     5
420
      255
176
     1
290
     0
176
     1
 90
       50
176
     1
 90
       50
176
     1
 90
       50
176
     1
290
     0
176
     1
 90
       50
176
     1
 62
   256
176
     0
 40
1.0
176
     0
 90
        2
176
     1
  1
strokes_ogs.tif
176
     1
290
     0
176
     1
 40
1.0
176
     1
 40
1.0
176
     1
  0
VISUALSTYLE
  5
8A73
102
{ACAD_REACTORS
330
8A71
102
}
330
8A71
100
AcDbVisualStyle
  2
FlatWithEdges
 70
     1
177
     3
291
     1
 70
    58
 90
        2
176
     1
 90
        1
176
     1
 90
        1
176
     1
 90
        2
176
     1
 40
0.6
176
     1
 40
30.0
176
     1
 62
     7
420
 16777215
176
     1
 90
        1
176
     1
 90
        0
176
     1
 62
     7
176
     1
 62
   257
176
     1
 90
        1
176
     1
 90
        1
176
     1
 40
1.0
176
     1
 90
        0
176
     1
 62
   257
176
     1
 40
1.0
176
     1
 90
        1
176
     1
 90
        6
176
     1
 90
        2
176
     1
 62
     7
176
     1
 90
        5
176
     1
 90
        0
176
     1
 90
        0
176
     1
290
     0
176
     1
 90
       13
176
     1
 40
0.0
176
     1
 90
        0
176
     1
290
     0
176
     1
290
     1
176
     1
290
     1
176
     1
290
     0
176
     1
290
     0
176
     1
290
     0
176
     1
290
     0
176
     1
290
     0
176
     1
290
     0
176
     1
 90
       50
176
     1
 40
0.0
176
     1
 40
1.0
176
     1
 90
        0
176
     1
 62
    18
176
     1
 90
       50
176
     1
 90
        3
176
     1
 62
     5
420
      255
176
     1
290
     0
176
     1
 90
       50
176
     1
 90
       50
176
     1
 90
       50
176
     1
290
     0
176
     1
 90
       50
176
     1
 62
   256
176
     0
 40
1.0
176
     0
 90
        2
176
     1
  1
strokes_ogs.tif
176
     1
290
     0
176
     1
 40
1.0
176
     1
 40
1.0
176
     1
  0
VISUALSTYLE
  5
8A74
102
{ACAD_REACTORS
330
8A71
102
}
330
8A71
100
AcDbVisualStyle
  2
Gouraud
 70
     2
177
     3
291
     1
 70
    58
 90
        2
176
     1
 90
        2
176
     1
 90
        1
176
     1
 90
        2
176
     1
 40
0.6
176
     1
 40
30.0
176
     1
 62
     7
420
 16777215
176
     1
 90
        0
176
     1
 90
        0
176
     1
 62
     7
176
     1
 62
   257
176
     1
 90
        1
176
     1
 90
        1
176
     1
 40
1.0
176
     1
 90
        0
176
     1
 62
     7
176
     1
 40
1.0
176
     1
 90
        1
176
     1
 90
        6
176
     1
 90
        2
176
     1
 62
     7
176
     1
 90
        5
176
     1
 90
        0
176
     1
 90
        0
176
     1
290
     0
176
     1
 90
       13
176
     1
 40
0.0
176
     1
 90
        0
176
     1
290
     0
176
     1
290
     1
176
     1
290
     1
176
     1
290
     0
176
     1
290
     0
176
     1
290
     0
176
     1
290
     0
176
     1
290
     0
176
     1
290
     0
176
     1
 90
       50
176
     1
 40
0.0
176
     1
 40
1.0
176
     1
 90
        0
176
     1
 62
    18
176
     1
 90
       50
176
     1
 90
        3
176
     1
 62
     5
420
      255
176
     1
290
     0
176
     1
 90
       50
176
     1
 90
       50
176
     1
 90
       50
176
     1
290
     0
176
     1
 90
       50
176
     1
 62
   256
176
     0
 40
1.0
176
     0
 90
        2
176
     1
  1
strokes_ogs.tif
176
     1
290
     0
176
     1
 40
1.0
176
     1
 40
1.0
176
     1
  0
VISUALSTYLE
  5
8A75
102
{ACAD_REACTORS
330
8A71
102
}
330
8A71
100
AcDbVisualStyle
  2
GouraudWithEdges
 70
     3
177
     3
291
     1
 70
    58
 90
        2
176
     1
 90
        2
176
     1
 90
        1
176
     1
 90
        2
176
     1
 40
0.6
176
     1
 40
30.0
176
     1
 62
     7
420
 16777215
176
     1
 90
        1
176
     1
 90
        0
176
     1
 62
     7
176
     1
 62
   257
176
     1
 90
        1
176
     1
 90
        1
176
     1
 40
1.0
176
     1
 90
        0
176
     1
 62
   257
176
     1
 40
1.0
176
     1
 90
        1
176
     1
 90
        6
176
     1
 90
        2
176
     1
 62
     7
176
     1
 90
        5
176
     1
 90
        0
176
     1
 90
        0
176
     1
290
     0
176
     1
 90
       13
176
     1
 40
0.0
176
     1
 90
        0
176
     1
290
     0
176
     1
290
     1
176
     1
290
     1
176
     1
290
     0
176
     1
290
     0
176
     1
290
     0
176
     1
290
     0
176
     1
290
     0
176
     1
290
     0
176
     1
 90
       50
176
     1
 40
0.0
176
     1
 40
1.0
176
     1
 90
        0
176
     1
 62
    18
176
     1
 90
       50
176
     1
 90
        3
176
     1
 62
     5
420
      255
176
     1
290
     0
176
     1
 90
       50
176
     1
 90
       50
176
     1
 90
       50
176
     1
290
     0
176
     1
 90
       50
176
     1
 62
   256
176
     0
 40
1.0
176
     0
 90
        2
176
     1
  1
strokes_ogs.tif
176
     1
290
     0
176
     1
 40
1.0
176
     1
 40
1.0
176
     1
  0
VISUALSTYLE
  5
8A79
102
{ACAD_REACTORS
330
8A71
102
}
330
8A71
100
AcDbVisualStyle
  2
Hidden
 70
     6
177
     3
291
     0
 70
    58
 90
        1
176
     1
 90
        2
176
     1
 90
        2
176
     1
 90
        0
176
     1
 40
0.6
176
     1
 40
30.0
176
     1
 62
     7
420
 16777215
176
     1
 90
        2
176
     1
 90
        2
176
     1
 62
     7
176
     1
 62
   257
176
     1
 90
        2
176
     1
 90
        1
176
     1
 40
40.0
176
     1
 90
        0
176
     1
 62
   257
176
     1
 40
1.0
176
     1
 90
        1
176
     1
 90
        6
176
     1
 90
        2
176
     1
 62
     7
176
     1
 90
        3
176
     1
 90
        0
176
     1
 90
        0
176
     1
290
     0
176
     1
 90
        1
176
     1
 40
0.0
176
     1
 90
        0
176
     1
290
     0
176
     1
290
     1
176
     1
290
     1
176
     1
290
     0
176
     1
290
     0
176
     1
290
     0
176
     1
290
     0
176
     1
290
     0
176
     1
290
     0
176
     1
 90
       50
176
     1
 40
0.0
176
     1
 40
1.0
176
     1
 90
        0
176
     1
 62
    18
176
     1
 90
       50
176
     1
 90
        3
176
     1
 62
     5
420
      255
176
     1
290
     0
176
     1
 90
       50
176
     1
 90
       50
176
     1
 90
       50
176
     1
290
     0
176
     1
 90
       50
176
     1
 62
   256
176
     0
 40
1.0
176
     0
 90
        2
176
     1
  1
strokes_ogs.tif
176
     1
290
     0
176
     1
 40
1.0
176
     1
 40
1.0
176
     1
  0
VISUALSTYLE
  5
8A87
102
{ACAD_REACTORS
330
8A71
102
}
330
8A71
100
AcDbVisualStyle
  2
JitterOff
 70
    20
177
     3
291
     1
 70
    58
 90
        2
176
     0
 90
        2
176
     0
 90
        0
176
     0
 90
        0
176
     0
 40
0.6
176
     0
 40
30.0
176
     0
 62
     7
420
 16777215
176
     0
 90
        1
176
     0
 90
        4
176
     0
 62
     7
176
     0
 62
   257
176
     0
 90
        1
176
     0
 90
        1
176
     0
 40
1.0
176
     0
 90
       10
176
     2
 62
     7
176
     0
 40
1.0
176
     0
 90
        1
176
     0
 90
        6
176
     0
 90
        2
176
     0
 62
     7
176
     0
 90
        5
176
     0
 90
        0
176
     0
 90
        0
176
     0
290
     0
176
     0
 90
        1
176
     0
 40
0.0
176
     0
 90
        0
176
     0
290
     0
176
     1
290
     1
176
     1
290
     1
176
     1
290
     0
176
     1
290
     0
176
     1
290
     0
176
     1
290
     0
176
     1
290
     0
176
     1
290
     0
176
     1
 90
       50
176
     0
 40
0.0
176
     0
 40
1.0
176
     0
 90
        0
176
     0
 62
    18
176
     0
 90
       50
176
     0
 90
        3
176
     0
 62
     5
420
      255
176
     0
290
     0
176
     1
 90
       50
176
     0
 90
       50
176
     0
 90
       50
176
     0
290
     0
176
     1
 90
       50
176
     0
 62
   256
176
     0
 40
1.0
176
     0
 90
        2
176
     0
  1
strokes_ogs.tif
176
     0
290
     0
176
     1
 40
1.0
176
     0
 40
1.0
176
     0
  0
VISUALSTYLE
  5
8A7F
102
{ACAD_REACTORS
330
8A71
102
}
330
8A71
100
AcDbVisualStyle
  2
Linepattern
 70
    14
177
     3
291
     1
 70
    58
 90
        2
176
     1
 90
        2
176
     1
 90
        0
176
     1
 90
        0
176
     1
 40
0.6
176
     1
 40
30.0
176
     1
 62
     7
420
 16777215
176
     1
 90
        1
176
     1
 90
        4
176
     1
 62
     7
176
     1
 62
   257
176
     1
 90
        7
176
     1
 90
        7
176
     1
 40
1.0
176
     1
 90
        8
176
     1
 62
     7
176
     1
 40
1.0
176
     1
 90
        1
176
     1
 90
        6
176
     1
 90
        2
176
     1
 62
     7
176
     1
 90
        5
176
     1
 90
        0
176
     1
 90
        0
176
     1
290
     0
176
     1
 90
        1
176
     1
 40
0.0
176
     1
 90
        0
176
     1
290
     0
176
     1
290
     1
176
     1
290
     1
176
     1
290
     0
176
     1
290
     0
176
     1
290
     0
176
     1
290
     0
176
     1
290
     0
176
     1
290
     0
176
     1
 90
       50
176
     1
 40
0.0
176
     1
 40
1.0
176
     1
 90
        0
176
     1
 62
    18
176
     1
 90
       50
176
     1
 90
        3
176
     1
 62
     5
420
      255
176
     1
290
     0
176
     1
 90
       50
176
     1
 90
       50
176
     1
 90
       50
176
     1
290
     0
176
     1
 90
       50
176
     1
 62
   256
176
     0
 40
1.0
176
     0
 90
        2
176
     1
  1
strokes_ogs.tif
176
     1
290
     0
176
     1
 40
1.0
176
     1
 40
1.0
176
     1
  0
VISUALSTYLE
  5
8A88
102
{ACAD_REACTORS
330
8A71
102
}
330
8A71
100
AcDbVisualStyle
  2
OverhangOff
 70
    21
177
     3
291
     1
 70
    58
 90
        2
176
     0
 90
        2
176
     0
 90
        0
176
     0
 90
        0
176
     0
 40
0.6
176
     0
 40
30.0
176
     0
 62
     7
420
 16777215
176
     0
 90
        1
176
     0
 90
        4
176
     0
 62
     7
176
     0
 62
   257
176
     0
 90
        1
176
     0
 90
        1
176
     0
 40
1.0
176
     0
 90
        9
176
     2
 62
     7
176
     0
 40
1.0
176
     0
 90
        1
176
     0
 90
        6
176
     0
 90
        2
176
     0
 62
     7
176
     0
 90
        5
176
     0
 90
        0
176
     0
 90
        0
176
     0
290
     0
176
     0
 90
        1
176
     0
 40
0.0
176
     0
 90
        0
176
     0
290
     0
176
     1
290
     1
176
     1
290
     1
176
     1
290
     0
176
     1
290
     0
176
     1
290
     0
176
     1
290
     0
176
     1
290
     0
176
     1
290
     0
176
     1
 90
       50
176
     0
 40
0.0
176
     0
 40
1.0
176
     0
 90
        0
176
     0
 62
    18
176
     0
 90
       50
176
     0
 90
        3
176
     0
 62
     5
420
      255
176
     0
290
     0
176
     1
 90
       50
176
     0
 90
       50
176
     0
 90
       50
176
     0
290
     0
176
     1
 90
       50
176
     0
 62
   256
176
     0
 40
1.0
176
     0
 90
        2
176
     0
  1
strokes_ogs.tif
176
     0
290
     0
176
     1
 40
1.0
176
     0
 40
1.0
176
     0
  0
VISUALSTYLE
  5
8A7B
102
{ACAD_REACTORS
330
8A71
102
}
330
8A71
100
AcDbVisualStyle
  2
Realistic
 70
     8
177
     3
291
     0
 70
    58
 90
        2
176
     1
 90
        3
176
     1
 90
        0
176
     1
 90
        2
176
     1
 40
0.6
176
     1
 40
30.0
176
     1
 62
     7
420
 16777215
176
     1
 90
        0
176
     1
 90
        0
176
     1
 62
     7
176
     1
 62
   257
176
     1
 90
        1
176
     1
 90
        1
176
     1
 40
1.0
176
     1
 90
        8
176
     1
 62
   257
176
     1
 40
1.0
176
     1
 90
        1
176
     1
 90
        6
176
     1
 90
        2
176
     1
 62
     7
176
     1
 90
        3
176
     1
 90
        0
176
     1
 90
        0
176
     1
290
     0
176
     1
 90
       13
176
     1
 40
0.0
176
     1
 90
        0
176
     1
290
     0
176
     1
290
     1
176
     1
290
     1
176
     1
290
     0
176
     1
290
     0
176
     1
290
     0
176
     1
290
     0
176
     1
290
     0
176
     1
290
     0
176
     1
 90
       50
176
     1
 40
0.0
176
     1
 40
1.0
176
     1
 90
        0
176
     1
 62
    18
176
     1
 90
       50
176
     1
 90
        3
176
     1
 62
     5
420
      255
176
     1
290
     0
176
     1
 90
       50
176
     1
 90
       50
176
     1
 90
       50
176
     1
290
     0
176
     1
 90
       50
176
     1
 62
   256
176
     0
 40
1.0
176
     0
 90
        2
176
     1
  1
strokes_ogs.tif
176
     1
290
     0
176
     1
 40
1.0
176
     1
 40
1.0
176
     1
  0
VISUALSTYLE
  5
8A86
102
{ACAD_REACTORS
330
8A71
102
}
330
8A71
100
AcDbVisualStyle
  2
Shaded
 70
    27
177
     3
291
     0
 70
    58
 90
        2
176
     1
 90
        2
176
     1
 90
        1
176
     1
 90
        2
176
     1
 40
0.6
176
     1
 40
30.0
176
     1
 62
     7
420
 16777215
176
     1
 90
        0
176
     1
 90
        4
176
     1
 62
     7
176
     1
 62
   257
176
     1
 90
        1
176
     1
 90
        1
176
     1
 40
1.0
176
     1
 90
        8
176
     1
 62
   257
176
     1
 40
1.0
176
     1
 90
        1
176
     1
 90
        6
176
     1
 90
        2
176
     1
 62
     8
420
  7895160
176
     1
 90
        3
176
     1
 90
        0
176
     1
 90
        0
176
     1
290
     0
176
     1
 90
        5
176
     1
 40
0.0
176
     1
 90
        0
176
     1
290
     0
176
     1
290
     1
176
     1
290
     1
176
     1
290
     0
176
     1
290
     0
176
     1
290
     0
176
     1
290
     0
176
     1
290
     0
176
     1
290
     0
176
     1
 90
       50
176
     1
 40
0.0
176
     1
 40
1.0
176
     1
 90
        0
176
     1
 62
    18
176
     1
 90
       50
176
     1
 90
        3
176
     1
 62
     5
420
      255
176
     1
290
     0
176
     1
 90
       50
176
     1
 90
       50
176
     1
 90
       50
176
     1
290
     0
176
     1
 90
       50
176
     1
 62
   256
176
     0
 40
1.0
176
     0
 90
        2
176
     1
  1
strokes_ogs.tif
176
     1
290
     0
176
     1
 40
1.0
176
     1
 40
1.0
176
     1
  0
VISUALSTYLE
  5
8A85
102
{ACAD_REACTORS
330
8A71
102
}
330
8A71
100
AcDbVisualStyle
  2
Shaded with edges
 70
    26
177
     3
291
     0
 70
    58
 90
        2
176
     1
 90
        2
176
     1
 90
        1
176
     1
 90
        2
176
     1
 40
0.6
176
     1
 40
30.0
176
     1
 62
     7
420
 16777215
176
     1
 90
        1
176
     1
 90
       10
176
     1
 62
     7
176
     1
 62
   257
176
     1
 90
        2
176
     1
 90
        1
176
     1
 40
1.0
176
     1
 90
        8
176
     1
 62
   257
176
     1
 40
1.0
176
     1
 90
        1
176
     1
 90
        6
176
     1
 90
        2
176
     1
 62
     7
176
     1
 90
        3
176
     1
 90
        0
176
     1
 90
        0
176
     1
290
     0
176
     1
 90
        5
176
     1
 40
0.0
176
     1
 90
        0
176
     1
290
     0
176
     1
290
     1
176
     1
290
     1
176
     1
290
     0
176
     1
290
     0
176
     1
290
     0
176
     1
290
     0
176
     1
290
     0
176
     1
290
     0
176
     1
 90
       50
176
     1
 40
0.0
176
     1
 40
1.0
176
     1
 90
        0
176
     1
 62
    18
176
     1
 90
       50
176
     1
 90
        3
176
     1
 62
     5
420
      255
176
     1
290
     0
176
     1
 90
       50
176
     1
 90
       50
176
     1
 90
       50
176
     1
290
     0
176
     1
 90
       50
176
     1
 62
   256
176
     0
 40
1.0
176
     0
 90
        2
176
     1
  1
strokes_ogs.tif
176
     1
290
     0
176
     1
 40
1.0
176
     1
 40
1.0
176
     1
  0
VISUALSTYLE
  5
8A82
102
{ACAD_REACTORS
330
8A71
102
}
330
8A71
100
AcDbVisualStyle
  2
Shades of Gray
 70
    23
177
     3
291
     0
 70
    58
 90
        2
176
     1
 90
        2
176
     1
 90
        3
176
     1
 90
        0
176
     1
 40
0.6
176
     1
 40
30.0
176
     1
 62
     7
420
 16777215
176
     1
 90
        2
176
     1
 90
        2
176
     1
 62
     7
176
     1
 62
     7
176
     1
 90
        1
176
     1
 90
        1
176
     1
 40
40.0
176
     1
 90
        8
176
     1
 62
     7
176
     1
 40
1.0
176
     1
 90
        1
176
     1
 90
        6
176
     1
 90
        2
176
     1
 62
     7
176
     1
 90
        3
176
     1
 90
        0
176
     1
 90
        0
176
     1
290
     0
176
     1
 90
        1
176
     1
 40
0.0
176
     1
 90
        0
176
     1
290
     0
176
     1
290
     1
176
     1
290
     1
176
     1
290
     0
176
     1
290
     0
176
     1
290
     0
176
     1
290
     0
176
     1
290
     0
176
     1
290
     0
176
     1
 90
       50
176
     1
 40
0.0
176
     1
 40
1.0
176
     1
 90
        0
176
     1
 62
    18
176
     1
 90
       50
176
     1
 90
        3
176
     1
 62
     5
420
      255
176
     1
290
     0
176
     1
 90
       50
176
     1
 90
       50
176
     1
 90
       50
176
     1
290
     0
176
     1
 90
       50
176
     1
 62
   256
176
     0
 40
1.0
176
     0
 90
        2
176
     1
  1
strokes_ogs.tif
176
     1
290
     0
176
     1
 40
1.0
176
     1
 40
1.0
176
     1
  0
VISUALSTYLE
  5
8A83
102
{ACAD_REACTORS
330
8A71
102
}
330
8A71
100
AcDbVisualStyle
  2
Sketchy
 70
    24
177
     3
291
     0
 70
    58
 90
        1
176
     1
 90
        2
176
     1
 90
        2
176
     1
 90
        0
176
     1
 40
0.6
176
     1
 40
30.0
176
     1
 62
     7
420
 16777215
176
     1
 90
        2
176
     1
 90
        2
176
     1
 62
     7
176
     1
 62
     7
176
     1
 90
        1
176
     1
 90
        1
176
     1
 40
40.0
176
     1
 90
       11
176
     1
 62
     7
176
     1
 40
1.0
176
     1
 90
        1
176
     1
 90
        6
176
     1
 90
        2
176
     1
 62
     7
176
     1
 90
        6
176
     1
 90
        0
176
     1
 90
        0
176
     1
290
     0
176
     1
 90
        1
176
     1
 40
0.0
176
     1
 90
        0
176
     1
290
     0
176
     1
290
     1
176
     1
290
     1
176
     1
290
     0
176
     1
290
     0
176
     1
290
     0
176
     1
290
     0
176
     1
290
     0
176
     1
290
     0
176
     1
 90
       50
176
     1
 40
0.0
176
     1
 40
1.0
176
     1
 90
        0
176
     1
 62
    18
176
     1
 90
       50
176
     1
 90
        3
176
     1
 62
     5
420
      255
176
     1
290
     0
176
     1
 90
       50
176
     1
 90
       50
176
     1
 90
       50
176
     1
290
     0
176
     1
 90
       50
176
     1
 62
   256
176
     0
 40
1.0
176
     0
 90
        2
176
     1
  1
strokes_ogs.tif
176
     1
290
     0
176
     1
 40
1.0
176
     1
 40
1.0
176
     1
  0
VISUALSTYLE
  5
8A7E
102
{ACAD_REACTORS
330
8A71
102
}
330
8A71
100
AcDbVisualStyle
  2
Thicken
 70
    13
177
     3
291
     1
 70
    58
 90
        2
176
     1
 90
        2
176
     1
 90
        0
176
     1
 90
        0
176
     1
 40
0.6
176
     1
 40
30.0
176
     1
 62
     7
420
 16777215
176
     1
 90
        1
176
     1
 90
        4
176
     1
 62
     7
176
     1
 62
   257
176
     1
 90
        1
176
     1
 90
        1
176
     1
 40
1.0
176
     1
 90
       12
176
     1
 62
     7
176
     1
 40
1.0
176
     1
 90
        1
176
     1
 90
        6
176
     1
 90
        2
176
     1
 62
     7
176
     1
 90
        5
176
     1
 90
        0
176
     1
 90
        0
176
     1
290
     0
176
     1
 90
        1
176
     1
 40
0.0
176
     1
 90
        0
176
     1
290
     0
176
     1
290
     1
176
     1
290
     1
176
     1
290
     0
176
     1
290
     0
176
     1
290
     0
176
     1
290
     0
176
     1
290
     0
176
     1
290
     0
176
     1
 90
       50
176
     1
 40
0.0
176
     1
 40
1.0
176
     1
 90
        0
176
     1
 62
    18
176
     1
 90
       50
176
     1
 90
        3
176
     1
 62
     5
420
      255
176
     1
290
     0
176
     1
 90
       50
176
     1
 90
       50
176
     1
 90
       50
176
     1
290
     0
176
     1
 90
       50
176
     1
 62
   256
176
     0
 40
1.0
176
     0
 90
        2
176
     1
  1
strokes_ogs.tif
176
     1
290
     0
176
     1
 40
1.0
176
     1
 40
1.0
176
     1
  0
VISUALSTYLE
  5
8A78
102
{ACAD_REACTORS
330
8A71
102
}
330
8A71
100
AcDbVisualStyle
  2
Wireframe
 70
     5
177
     3
291
     0
 70
    58
 90
        0
176
     1
 90
        2
176
     1
 90
        0
176
     1
 90
        0
176
     1
 40
0.6
176
     1
 40
30.0
176
     1
 62
     7
420
 16777215
176
     1
 90
        1
176
     1
 90
        4
176
     1
 62
     7
176
     1
 62
   257
176
     1
 90
        1
176
     1
 90
        1
176
     1
 40
1.0
176
     1
 90
        0
176
     1
 62
   257
176
     1
 40
1.0
176
     1
 90
        1
176
     1
 90
        6
176
     1
 90
        2
176
     1
 62
     7
176
     1
 90
        3
176
     1
 90
        0
176
     1
 90
        0
176
     1
290
     0
176
     1
 90
        1
176
     1
 40
0.0
176
     1
 90
        0
176
     1
290
     0
176
     1
290
     1
176
     1
290
     1
176
     1
290
     0
176
     1
290
     0
176
     1
290
     0
176
     1
290
     0
176
     1
290
     0
176
     1
290
     0
176
     1
 90
       50
176
     1
 40
0.0
176
     1
 40
1.0
176
     1
 90
        0
176
     1
 62
    18
176
     1
 90
       50
176
     1
 90
        3
176
     1
 62
     5
420
      255
176
     1
290
     0
176
     1
 90
       50
176
     1
 90
       50
176
     1
 90
       50
176
     1
290
     0
176
     1
 90
       50
176
     1
 62
   256
176
     0
 40
1.0
176
     0
 90
        2
176
     1
  1
strokes_ogs.tif
176
     1
290
     0
176
     1
 40
1.0
176
     1
 40
1.0
176
     1
  0
VISUALSTYLE
  5
8A84
102
{ACAD_REACTORS
330
8A71
102
}
330
8A71
100
AcDbVisualStyle
  2
X-Ray
 70
    25
177
     3
291
     0
 70
    58
 90
        2
176
     1
 90
        2
176
     1
 90
        1
176
     1
 90
        1
176
     1
 40
0.5
176
     1
 40
30.0
176
     1
 62
     7
420
 16777215
176
     1
 90
        1
176
     1
 90
        0
176
     1
 62
     7
176
     1
 62
   257
176
     1
 90
        1
176
     1
 90
        1
176
     1
 40
1.0
176
     1
 90
        8
176
     1
 62
     7
176
     1
 40
1.0
176
     1
 90
        1
176
     1
 90
        6
176
     1
 90
        2
176
     1
 62
     7
176
     1
 90
        3
176
     1
 90
        0
176
     1
 90
        0
176
     1
290
     0
176
     1
 90
       13
176
     1
 40
0.0
176
     1
 90
        0
176
     1
290
     0
176
     1
290
     1
176
     1
290
     1
176
     1
290
     0
176
     1
290
     0
176
     1
290
     0
176
     1
290
     0
176
     1
290
     0
176
     1
290
     0
176
     1
 90
       50
176
     1
 40
0.0
176
     1
 40
1.0
176
     1
 90
        0
176
     1
 62
    18
176
     1
 90
       50
176
     1
 90
        3
176
     1
 62
     5
420
      255
176
     1
290
     0
176
     1
 90
       50
176
     1
 90
       50
176
     1
 90
       50
176
     1
290
     0
176
     1
 90
       50
176
     1
 62
   256
176
     0
 40
1.0
176
     0
 90
        2
176
     1
  1
strokes_ogs.tif
176
     1
290
     0
176
     1
 40
1.0
176
     1
 40
1.0
176
     1
  0
DICTIONARYVAR
  5
8AE9
102
{ACAD_REACTORS
330
5697
102
}
330
5697
100
DictionaryVariables
280
     0
  1
1:1
  0
DICTIONARYVAR
  5
8AE5
102
{ACAD_REACTORS
330
5697
102
}
330
5697
100
DictionaryVariables
280
     0
  1
STANDARD
  0
DICTIONARYVAR
  5
8AE4
102
{ACAD_REACTORS
330
5697
102
}
330
5697
100
DictionaryVariables
280
     0
  1
STANDARD
  0
DICTIONARYVAR
  5
8AE6
102
{ACAD_REACTORS
330
5697
102
}
330
5697
100
DictionaryVariables
280
     0
  1
Imperial24
  0
DICTIONARYVAR
  5
8AE7
102
{ACAD_REACTORS
330
5697
102
}
330
5697
100
DictionaryVariables
280
     0
  1
Imperial24
  0
DICTIONARYVAR
  5
5698
102
{ACAD_REACTORS
330
5697
102
}
330
5697
100
DictionaryVariables
280
     0
  1
1
  0
DICTIONARYVAR
  5
8AEB
102
{ACAD_REACTORS
330
5697
102
}
330
5697
100
DictionaryVariables
280
     0
  1
1
  0
DICTIONARYVAR
  5
8AEC
102
{ACAD_REACTORS
330
5697
102
}
330
5697
100
DictionaryVariables
280
     0
  1
15
  0
DICTIONARYVAR
  5
8AEA
102
{ACAD_REACTORS
330
5697
102
}
330
5697
100
DictionaryVariables
280
     0
  1
0
  0
DICTIONARYVAR
  5
8AE8
102
{ACAD_REACTORS
330
5697
102
}
330
5697
100
DictionaryVariables
280
     0
  1
0
  0
DICTIONARY
  5
1D87B
330
8AA4
100
AcDbDictionary
280
     1
281
     1
  3
ACAD_XREC_ROUNDTRIP
360
1DB05
  0
DICTIONARY
  5
F3D2
330
8A4C
100
AcDbDictionary
280
     1
281
     1
  0
DICTIONARY
  5
8A62
330
8A61
100
AcDbDictionary
280
     1
281
     1
  3
BUMPTILE
360
8A64
  3
DIFFUSETILE
360
8A63
  3
OPACITYTILE
360
8A67
  3
REFLECTIONTILE
360
8A66
  3
REFRACTIONTILE
360
8A68
  3
SPECULARTILE
360
8A65
  0
DICTIONARY
  5
8A5A
330
8A59
100
AcDbDictionary
280
     1
281
     1
  3
BUMPTILE
360
8A5C
  3
DIFFUSETILE
360
8A5B
  3
OPACITYTILE
360
8A5F
  3
REFLECTIONTILE
360
8A5E
  3
REFRACTIONTILE
360
8A60
  3
SPECULARTILE
360
8A5D
  0
DICTIONARY
  5
8A6A
330
8A69
100
AcDbDictionary
280
     1
281
     1
  3
BUMPTILE
360
8A6C
  3
DIFFUSETILE
360
8A6B
  3
OPACITYTILE
360
8A6F
  3
REFLECTIONTILE
360
8A6E
  3
REFRACTIONTILE
360
8A70
  3
SPECULARTILE
360
8A6D
  0
DICTIONARY
  5
1D879
330
8AA2
100
AcDbDictionary
280
     1
281
     1
  3
ACAD_XREC_ROUNDTRIP
360
1DB04
  0
DICTIONARY
  5
8AED
330
8A8C
100
AcDbDictionary
280
     1
281
     1
  3
ACAD_ROUNDTRIP_2008_TABLESTYLE_CELLSTYLEMAP
360
1DB03
  0
XRECORD
  5
1DB05
102
{ACAD_REACTORS
330
1D87B
102
}
330
1D87B
100
AcDbXrecord
280
     1
102
DISPLAYNAME
  1
Imperial24
102
FLAGS
 90
        0
  0
XRECORD
  5
8A64
102
{ACAD_REACTORS
330
8A62
102
}
330
8A62
100
AcDbXrecord
280
     1
270
     1
271
     1
  0
XRECORD
  5
8A63
102
{ACAD_REACTORS
330
8A62
102
}
330
8A62
100
AcDbXrecord
280
     1
270
     1
271
     1
  0
XRECORD
  5
8A67
102
{ACAD_REACTORS
330
8A62
102
}
330
8A62
100
AcDbXrecord
280
     1
270
     1
271
     1
  0
XRECORD
  5
8A66
102
{ACAD_REACTORS
330
8A62
102
}
330
8A62
100
AcDbXrecord
280
     1
270
     1
271
     1
  0
XRECORD
  5
8A68
102
{ACAD_REACTORS
330
8A62
102
}
330
8A62
100
AcDbXrecord
280
     1
270
     1
271
     1
  0
XRECORD
  5
8A65
102
{ACAD_REACTORS
330
8A62
102
}
330
8A62
100
AcDbXrecord
280
     1
270
     1
271
     1
  0
XRECORD
  5
8A5C
102
{ACAD_REACTORS
330
8A5A
102
}
330
8A5A
100
AcDbXrecord
280
     1
270
     1
271
     1
  0
XRECORD
  5
8A5B
102
{ACAD_REACTORS
330
8A5A
102
}
330
8A5A
100
AcDbXrecord
280
     1
270
     1
271
     1
  0
XRECORD
  5
8A5F
102
{ACAD_REACTORS
330
8A5A
102
}
330
8A5A
100
AcDbXrecord
280
     1
270
     1
271
     1
  0
XRECORD
  5
8A5E
102
{ACAD_REACTORS
330
8A5A
102
}
330
8A5A
100
AcDbXrecord
280
     1
270
     1
271
     1
  0
XRECORD
  5
8A60
102
{ACAD_REACTORS
330
8A5A
102
}
330
8A5A
100
AcDbXrecord
280
     1
270
     1
271
     1
  0
XRECORD
  5
8A5D
102
{ACAD_REACTORS
330
8A5A
102
}
330
8A5A
100
AcDbXrecord
280
     1
270
     1
271
     1
  0
XRECORD
  5
8A6C
102
{ACAD_REACTORS
330
8A6A
102
}
330
8A6A
100
AcDbXrecord
280
     1
270
     1
271
     1
  0
XRECORD
  5
8A6B
102
{ACAD_REACTORS
330
8A6A
102
}
330
8A6A
100
AcDbXrecord
280
     1
270
     1
271
     1
  0
XRECORD
  5
8A6F
102
{ACAD_REACTORS
330
8A6A
102
}
330
8A6A
100
AcDbXrecord
280
     1
270
     1
271
     1
  0
XRECORD
  5
8A6E
102
{ACAD_REACTORS
330
8A6A
102
}
330
8A6A
100
AcDbXrecord
280
     1
270
     1
271
     1
  0
XRECORD
  5
8A70
102
{ACAD_REACTORS
330
8A6A
102
}
330
8A6A
100
AcDbXrecord
280
     1
270
     1
271
     1
  0
XRECORD
  5
8A6D
102
{ACAD_REACTORS
330
8A6A
102
}
330
8A6A
100
AcDbXrecord
280
     1
270
     1
271
     1
  0
XRECORD
  5
1DB04
102
{ACAD_REACTORS
330
1D879
102
}
330
1D879
100
AcDbXrecord
280
     1
102
DISPLAYNAME
  1
Imperial24
102
FLAGS
 90
        0
  0
CELLSTYLEMAP
  5
1DB03
102
{ACAD_REACTORS
330
8AED
102
}
330
8AED
100
AcDbCellStyleMap
 90
        3
300
CELLSTYLE
  1
TABLEFORMAT_BEGIN
 90
        5
170
     1
 91
        0
 92
    32768
 62
   257
 93
        1
300
CONTENTFORMAT
  1
CONTENTFORMAT_BEGIN
 90
        0
 91
        0
 92
      512
 93
        0
300

 40
0.0
140
1.0
 94
        5
 62
     0
340
11
144
0.25
309
CONTENTFORMAT_END
171
     1
301
MARGIN
  1
CELLMARGIN_BEGIN
 40
0.06
 40
0.06
 40
0.06
 40
0.06
 40
0.18
 40
0.18
309
CELLMARGIN_END
 94
        6
 95
        1
302
GRIDFORMAT
  1
GRIDFORMAT_BEGIN
 90
        0
 91
        1
 62
     0
 92
       -2
340
0
 93
        0
 40
0.045
309
GRIDFORMAT_END
 95
        2
302
GRIDFORMAT
  1
GRIDFORMAT_BEGIN
 90
        0
 91
        1
 62
     0
 92
       -2
340
0
 93
        0
 40
0.045
309
GRIDFORMAT_END
 95
        4
302
GRIDFORMAT
  1
GRIDFORMAT_BEGIN
 90
        0
 91
        1
 62
     0
 92
       -2
340
0
 93
        0
 40
0.045
309
GRIDFORMAT_END
 95
        8
302
GRIDFORMAT
  1
GRIDFORMAT_BEGIN
 90
        0
 91
        1
 62
     0
 92
       -2
340
0
 93
        0
 40
0.045
309
GRIDFORMAT_END
 95
       16
302
GRIDFORMAT
  1
GRIDFORMAT_BEGIN
 90
        0
 91
        1
 62
     0
 92
       -2
340
0
 93
        0
 40
0.045
309
GRIDFORMAT_END
 95
       32
302
GRIDFORMAT
  1
GRIDFORMAT_BEGIN
 90
        0
 91
        1
 62
     0
 92
       -2
340
0
 93
        0
 40
0.045
309
GRIDFORMAT_END
309
TABLEFORMAT_END
  1
CELLSTYLE_BEGIN
 90
        1
 91
        1
300
_TITLE
309
CELLSTYLE_END
300
CELLSTYLE
  1
TABLEFORMAT_BEGIN
 90
        5
170
     1
 91
        0
 92
        0
 62
   257
 93
        1
300
CONTENTFORMAT
  1
CONTENTFORMAT_BEGIN
 90
        0
 91
        0
 92
      512
 93
        0
300

 40
0.0
140
1.0
 94
        5
 62
     0
340
11
144
0.18
309
CONTENTFORMAT_END
171
     1
301
MARGIN
  1
CELLMARGIN_BEGIN
 40
0.06
 40
0.06
 40
0.06
 40
0.06
 40
0.18
 40
0.18
309
CELLMARGIN_END
 94
        6
 95
        1
302
GRIDFORMAT
  1
GRIDFORMAT_BEGIN
 90
        0
 91
        1
 62
     0
 92
       -2
340
0
 93
        0
 40
0.045
309
GRIDFORMAT_END
 95
        2
302
GRIDFORMAT
  1
GRIDFORMAT_BEGIN
 90
        0
 91
        1
 62
     0
 92
       -2
340
0
 93
        0
 40
0.045
309
GRIDFORMAT_END
 95
        4
302
GRIDFORMAT
  1
GRIDFORMAT_BEGIN
 90
        0
 91
        1
 62
     0
 92
       -2
340
0
 93
        0
 40
0.045
309
GRIDFORMAT_END
 95
        8
302
GRIDFORMAT
  1
GRIDFORMAT_BEGIN
 90
        0
 91
        1
 62
     0
 92
       -2
340
0
 93
        0
 40
0.045
309
GRIDFORMAT_END
 95
       16
302
GRIDFORMAT
  1
GRIDFORMAT_BEGIN
 90
        0
 91
        1
 62
     0
 92
       -2
340
0
 93
        0
 40
0.045
309
GRIDFORMAT_END
 95
       32
302
GRIDFORMAT
  1
GRIDFORMAT_BEGIN
 90
        0
 91
        1
 62
     0
 92
       -2
340
0
 93
        0
 40
0.045
309
GRIDFORMAT_END
309
TABLEFORMAT_END
  1
CELLSTYLE_BEGIN
 90
        2
 91
        1
300
_HEADER
309
CELLSTYLE_END
300
CELLSTYLE
  1
TABLEFORMAT_BEGIN
 90
        5
170
     1
 91
        0
 92
        0
 62
   257
 93
        1
300
CONTENTFORMAT
  1
CONTENTFORMAT_BEGIN
 90
        0
 91
        0
 92
      512
 93
        0
300

 40
0.0
140
1.0
 94
        2
 62
     0
340
11
144
0.18
309
CONTENTFORMAT_END
171
     1
301
MARGIN
  1
CELLMARGIN_BEGIN
 40
0.06
 40
0.06
 40
0.06
 40
0.06
 40
0.18
 40
0.18
309
CELLMARGIN_END
 94
        6
 95
        1
302
GRIDFORMAT
  1
GRIDFORMAT_BEGIN
 90
        0
 91
        1
 62
     0
 92
       -2
340
0
 93
        0
 40
0.045
309
GRIDFORMAT_END
 95
        2
302
GRIDFORMAT
  1
GRIDFORMAT_BEGIN
 90
        0
 91
        1
 62
     0
 92
       -2
340
0
 93
        0
 40
0.045
309
GRIDFORMAT_END
 95
        4
302
GRIDFORMAT
  1
GRIDFORMAT_BEGIN
 90
        0
 91
        1
 62
     0
 92
       -2
340
0
 93
        0
 40
0.045
309
GRIDFORMAT_END
 95
        8
302
GRIDFORMAT
  1
GRIDFORMAT_BEGIN
 90
        0
 91
        1
 62
     0
 92
       -2
340
0
 93
        0
 40
0.045
309
GRIDFORMAT_END
 95
       16
302
GRIDFORMAT
  1
GRIDFORMAT_BEGIN
 90
        0
 91
        1
 62
     0
 92
       -2
340
0
 93
        0
 40
0.045
309
GRIDFORMAT_END
 95
       32
302
GRIDFORMAT
  1
GRIDFORMAT_BEGIN
 90
        0
 91
        1
 62
     0
 92
       -2
340
0
 93
        0
 40
0.045
309
GRIDFORMAT_END
309
TABLEFORMAT_END
  1
CELLSTYLE_BEGIN
 90
        3
 91
        2
300
_DATA
309
CELLSTYLE_END
  0
ENDSEC
  0
SECTION
  2
ACDSDATA
 70
     2
 71
     6
  0
ACDSSCHEMA
 90
        0
  1
AcDb_Thumbnail_Schema
  2
AcDbDs::ID
280
    10
 91
        8
  2
Thumbnail_Data
280
    15
 91
        0
101
ACDSRECORD
 95
        0
 90
        1
  2
AcDbDs::TreatedAsObjectData
280
     1
291
     1
101
ACDSRECORD
 95
        0
 90
        2
  2
AcDbDs::Legacy
280
     1
291
     1
101
ACDSRECORD
  1
AcDbDs::ID
 90
        3
  2
AcDs:Indexable
280
     1
291
     1
101
ACDSRECORD
  1
AcDbDs::ID
 90
        4
  2
AcDbDs::HandleAttribute
280
     7
282
     1
  0
ACDSSCHEMA
 90
        1
  1
AcDbDs::TreatedAsObjectDataSchema
  2
AcDbDs::TreatedAsObjectData
280
     1
 91
        0
  0
ACDSSCHEMA
 90
        2
  1
AcDbDs::LegacySchema
  2
AcDbDs::Legacy
280
     1
 91
        0
  0
ACDSSCHEMA
 90
        3
  1
AcDbDs::IndexedPropertySchema
  2
AcDs:Indexable
280
     1
 91
        0
  0
ACDSSCHEMA
 90
        4
  1
AcDbDs::HandleAttributeSchema
  2
AcDbDs::HandleAttribute
280
     7
 91
        1
284
     1
  0
ACDSRECORD
 90
        0
  2
AcDbDs::ID
280
    10
320
8A4C
  2
Thumbnail_Data
280
    15
 94
     1526
310
89504E470D0A1A0A0000000D49484452000001000000008608030000000532A42500000300504C5445000000000000FFFFFF0000000000000000000000000000000000000000000000000000330000660000990000CC0000FF0033000033330033660033990033CC0033FF0066000066330066660066990066CC0066FF0099
310
000099330099660099990099CC0099FF00CC0000CC3300CC6600CC9900CCCC00CCFF00FF0000FF3300FF6600FF9900FFCC00FFFF3300003300333300663300993300CC3300FF3333003333333333663333993333CC3333FF3366003366333366663366993366CC3366FF3399003399333399663399993399CC3399FF33CC00
310
33CC3333CC6633CC9933CCCC33CCFF33FF0033FF3333FF6633FF9933FFCC33FFFF6600006600336600666600996600CC6600FF6633006633336633666633996633CC6633FF6666006666336666666666996666CC6666FF6699006699336699666699996699CC6699FF66CC0066CC3366CC6666CC9966CCCC66CCFF66FF0066
310
FF3366FF6666FF9966FFCC66FFFF9900009900339900669900999900CC9900FF9933009933339933669933999933CC9933FF9966009966339966669966999966CC9966FF9999009999339999669999999999CC9999FF99CC0099CC3399CC6699CC9999CCCC99CCFF99FF0099FF3399FF6699FF9999FFCC99FFFFCC0000CC00
310
33CC0066CC0099CC00CCCC00FFCC3300CC3333CC3366CC3399CC33CCCC33FFCC6600CC6633CC6666CC6699CC66CCCC66FFCC9900CC9933CC9966CC9999CC99CCCC99FFCCCC00CCCC33CCCC66CCCC99CCCCCCCCCCFFCCFF00CCFF33CCFF66CCFF99CCFFCCCCFFFFFF0000FF0033FF0066FF0099FF00CCFF00FFFF3300FF3333
310
FF3366FF3399FF33CCFF33FFFF6600FF6633FF6666FF6699FF66CCFF66FFFF9900FF9933FF9966FF9999FF99CCFF99FFFFCC00FFCC33FFCC66FFCC99FFCCCCFFCCFFFFFF00FFFF33FFFF66FFFF99FFFFCCFFFFFF0000000D0D0D1A1A1A2828283535354343435050505D5D5D6B6B6B787878868686939393A1A1A1AEAEAEBB
310
BBBBC9C9C9D6D6D6E4E4E4F1F1F1FFFFFF000000000000000000000000000000000000000000000000000000000000C11FEF66000002B14944415478DAEDDD3D72C320100560DF806BB8E1FE9D1BAE41B527D8863E20401212D6F8278DF7BDB562C9994C3C7C591002E4DC043C6E0420000108400002108000042000010840
310
0002ECC2FF53FC2EC0FFBC01010840000210C002806AFD4205D0F2A8810A209D001620E916CF7F61DAC210C052E418632F3E22806680A4B52DC40258B37E2994263C80852066809052CE02B93E1D5AAC02A5FC31AE00608D604BFFF208B558608D606DF74A7132C0B2076C03C47B6900E510F22CE07381EA10176247A80DEC
310
854F4A44000210800004F86500E7DC69B2C78165403F0A9F94C904C037D37D7686C53F9CE8340420011C003D03B6469000A800C20C781ECE1180000440E90A4FE647BD6D80D9C5D009A0E294C1D0580644231C403D285388312D4F354D2C02A8BE08206601F4B20AB439013B00F7FB00A05755A0FF6CCF073880D3C21AB446
310
D02AC0301C7606F0F6019A417F31007870005D46CAD100765DE1B27C600E60A1231472F8BAF9B2B5177B80F0246C00BC94016238035E6903D0CF021000BA0D068002942DD4DD04C0784F305F0BEC01EE5700262F86FC4B00B586D80478A30AA4619D20641BD047849631316C8049AB6816404F436229A91980DC09A85BDB1D
310
E6051AC0D8F6ADCF26000E1970582A4D001800B9005000803ACEFF0C40A0017A9BD8F63601642DDC1460BDA9743D43D802D84A37AD02B3BB884C01C8BE9E1F0174480019EFB03672E3E418EFBC0197C911C00E00EC4A51778CFC2D2C80478D5077EADE69086D00ECABC063F9F343034C3A4304B00D100780A8020D10355E7F
310
8684F90C50272AE067010210001B00AC2718DC61F513BBC2BC166023480002205F0C8103C4E8E02E86F478312404200016C07E5458014785D1E70564A8026F7EB8B82180BEFC0311E0F3D9715B19305408660010C037410002FC2C00FA3F5B0309021080000420000108801B7F035C212370210E250000000049454E44AE42
310
6082
  0
ENDSEC
  0
EOF
