  0
SECTION
  2
HEADER
  9
$ACADVER
  1
AC1027
  9
$ACADMAINTVER
 70
    55
  9
$DWGCODEPAGE
  3
ANSI_932
  9
$LASTSAVEDBY
  1
marketing
  9
$REQUIREDVERSIONS
160
                 0
  9
$INSBASE
 10
0.0
 20
0.0
 30
0.0
  9
$EXTMIN
 10
-0.0443824721628516
 20
-0.0344960370257468
 30
-0.0000000000000058
  9
$EXTMAX
 10
700.0456156601626
 20
1088.066785691679
 30
0.0000000000000104
  9
$LIMMIN
 10
-296.316999476111
 20
-370.7034300441653
  9
$LIMMAX
 10
623.3128432133979
 20
328.6261559379898
  9
$ORTHOMODE
 70
     1
  9
$REGENMODE
 70
     1
  9
$FILLMODE
 70
     1
  9
$QTEXTMODE
 70
     0
  9
$MIRRTEXT
 70
     1
  9
$LTSCALE
 40
10.0
  9
$ATTMODE
 70
     1
  9
$TEXTSIZE
 40
5.0
  9
$TRACEWID
 40
0.05
  9
$TEXTSTYLE
  7
STANDARD1
  9
$CLAYER
  8
30
  9
$CELTYPE
  6
BYLAYER
  9
$CECOLOR
 62
   256
  9
$CELTSCALE
 40
1.0
  9
$DISPSILH
 70
     0
  9
$DIMSCALE
 40
1.0
  9
$DIMASZ
 40
2.0
  9
$DIMEXO
 40
1.0
  9
$DIMDLI
 40
0.5
  9
$DIMRND
 40
0.0
  9
$DIMDLE
 40
0.0
  9
$DIMEXE
 40
0.5
  9
$DIMTP
 40
0.0
  9
$DIMTM
 40
0.0
  9
$DIMTXT
 40
8.0
  9
$DIMCEN
 40
0.09
  9
$DIMTSZ
 40
0.0
  9
$DIMTOL
 70
     0
  9
$DIMLIM
 70
     0
  9
$DIMTIH
 70
     0
  9
$DIMTOH
 70
     0
  9
$DIMSE1
 70
     0
  9
$DIMSE2
 70
     0
  9
$DIMTAD
 70
     3
  9
$DIMZIN
 70
    12
  9
$DIMBLK
  1
OPEN
  9
$DIMASO
 70
     1
  9
$DIMSHO
 70
     1
  9
$DIMPOST
  1

  9
$DIMAPOST
  1

  9
$DIMALT
 70
     0
  9
$DIMALTD
 70
     2
  9
$DIMALTF
 40
25.4
  9
$DIMLFAC
 40
1.0
  9
$DIMTOFL
 70
     0
  9
$DIMTVP
 40
0.0
  9
$DIMTIX
 70
     0
  9
$DIMSOXD
 70
     0
  9
$DIMSAH
 70
     0
  9
$DIMBLK1
  1

  9
$DIMBLK2
  1

  9
$DIMSTYLE
  2
STANDARD
  9
$DIMCLRD
 70
     0
  9
$DIMCLRE
 70
     0
  9
$DIMCLRT
 70
   256
  9
$DIMTFAC
 40
1.0
  9
$DIMGAP
 40
3.0
  9
$DIMJUST
 70
     0
  9
$DIMSD1
 70
     0
  9
$DIMSD2
 70
     0
  9
$DIMTOLJ
 70
     1
  9
$DIMTZIN
 70
     0
  9
$DIMALTZ
 70
     0
  9
$DIMALTTZ
 70
     0
  9
$DIMUPT
 70
     0
  9
$DIMDEC
 70
     1
  9
$DIMTDEC
 70
     1
  9
$DIMALTU
 70
     2
  9
$DIMALTTD
 70
     2
  9
$DIMTXSTY
  7
STANDARD
  9
$DIMAUNIT
 70
     0
  9
$DIMADEC
 70
     0
  9
$DIMALTRND
 40
0.0
  9
$DIMAZIN
 70
     0
  9
$DIMDSEP
 70
    46
  9
$DIMATFIT
 70
     3
  9
$DIMFRAC
 70
     0
  9
$DIMLDRBLK
  1
OPEN
  9
$DIMLUNIT
 70
     2
  9
$DIMLWD
 70
    -2
  9
$DIMLWE
 70
    -2
  9
$DIMTMOVE
 70
     0
  9
$DIMFXL
 40
1.0
  9
$DIMFXLON
 70
     0
  9
$DIMJOGANG
 40
0.7853981633974483
  9
$DIMTFILL
 70
     1
  9
$DIMTFILLCLR
 70
     0
  9
$DIMARCSYM
 70
     0
  9
$DIMLTYPE
  6

  9
$DIMLTEX1
  6

  9
$DIMLTEX2
  6

  9
$DIMTXTDIRECTION
 70
     0
  9
$LUNITS
 70
     2
  9
$LUPREC
 70
     4
  9
$SKETCHINC
 40
0.1
  9
$FILLETRAD
 40
0.0
  9
$AUNITS
 70
     0
  9
$AUPREC
 70
     0
  9
$MENU
  1
.
  9
$ELEVATION
 40
0.0
  9
$PELEVATION
 40
0.0
  9
$THICKNESS
 40
0.0
  9
$LIMCHECK
 70
     0
  9
$CHAMFERA
 40
0.0
  9
$CHAMFERB
 40
0.0
  9
$CHAMFERC
 40
0.0
  9
$CHAMFERD
 40
0.0
  9
$SKPOLY
 70
     0
  9
$TDCREATE
 40
2452286.555658658
  9
$TDUCREATE
 40
2452286.180658658
  9
$TDUPDATE
 40
2459244.411067361
  9
$TDUUPDATE
 40
2459244.036067361
  9
$TDINDWG
 40
1.9221215625
  9
$TDUSRTIMER
 40
1.9221187384
  9
$USRTIMER
 70
     1
  9
$ANGBASE
 50
0.0
  9
$ANGDIR
 70
     0
  9
$PDMODE
 70
     0
  9
$PDSIZE
 40
0.0
  9
$PLINEWID
 40
0.0
  9
$SPLFRAME
 70
     0
  9
$SPLINETYPE
 70
     6
  9
$SPLINESEGS
 70
     8
  9
$HANDSEED
  5
1C440
  9
$SURFTAB1
 70
     6
  9
$SURFTAB2
 70
     6
  9
$SURFTYPE
 70
     6
  9
$SURFU
 70
     6
  9
$SURFV
 70
     6
  9
$UCSBASE
  2

  9
$UCSNAME
  2

  9
$UCSORG
 10
0.0
 20
0.0
 30
0.0
  9
$UCSXDIR
 10
1.0
 20
0.0
 30
0.0
  9
$UCSYDIR
 10
0.0
 20
1.0
 30
0.0
  9
$UCSORTHOREF
  2

  9
$UCSORTHOVIEW
 70
     0
  9
$UCSORGTOP
 10
0.0
 20
0.0
 30
0.0
  9
$UCSORGBOTTOM
 10
0.0
 20
0.0
 30
0.0
  9
$UCSORGLEFT
 10
0.0
 20
0.0
 30
0.0
  9
$UCSORGRIGHT
 10
0.0
 20
0.0
 30
0.0
  9
$UCSORGFRONT
 10
0.0
 20
0.0
 30
0.0
  9
$UCSORGBACK
 10
0.0
 20
0.0
 30
0.0
  9
$PUCSBASE
  2

  9
$PUCSNAME
  2

  9
$PUCSORG
 10
0.0
 20
0.0
 30
0.0
  9
$PUCSXDIR
 10
1.0
 20
0.0
 30
0.0
  9
$PUCSYDIR
 10
0.0
 20
1.0
 30
0.0
  9
$PUCSORTHOREF
  2

  9
$PUCSORTHOVIEW
 70
     0
  9
$PUCSORGTOP
 10
0.0
 20
0.0
 30
0.0
  9
$PUCSORGBOTTOM
 10
0.0
 20
0.0
 30
0.0
  9
$PUCSORGLEFT
 10
0.0
 20
0.0
 30
0.0
  9
$PUCSORGRIGHT
 10
0.0
 20
0.0
 30
0.0
  9
$PUCSORGFRONT
 10
0.0
 20
0.0
 30
0.0
  9
$PUCSORGBACK
 10
0.0
 20
0.0
 30
0.0
  9
$USERI1
 70
     0
  9
$USERI2
 70
     0
  9
$USERI3
 70
     0
  9
$USERI4
 70
     0
  9
$USERI5
 70
     0
  9
$USERR1
 40
0.0
  9
$USERR2
 40
0.0
  9
$USERR3
 40
0.0
  9
$USERR4
 40
0.0
  9
$USERR5
 40
0.0
  9
$WORLDVIEW
 70
     1
  9
$SHADEDGE
 70
     3
  9
$SHADEDIF
 70
    70
  9
$TILEMODE
 70
     1
  9
$MAXACTVP
 70
    48
  9
$PINSBASE
 10
0.0
 20
0.0
 30
0.0
  9
$PLIMCHECK
 70
     0
  9
$PEXTMIN
 10
4.273573
 20
5.205245999999998
 30
0.0
  9
$PEXTMAX
 10
194.610095
 20
283.0697009999996
 30
0.0
  9
$PLIMMIN
 10
-5.873749
 20
-5.87375
  9
$PLIMMAX
 10
204.099579
 20
291.1369009999999
  9
$UNITMODE
 70
     0
  9
$VISRETAIN
 70
     1
  9
$PLINEGEN
 70
     0
  9
$PSLTSCALE
 70
     1
  9
$TREEDEPTH
 70
  3020
  9
$CMLSTYLE
  2
STANDARD
  9
$CMLJUST
 70
     0
  9
$CMLSCALE
 40
1.0
  9
$PROXYGRAPHICS
 70
     1
  9
$MEASUREMENT
 70
     0
  9
$CELWEIGHT
370
    -1
  9
$ENDCAPS
280
     0
  9
$JOINSTYLE
280
     0
  9
$LWDISPLAY
290
     0
  9
$INSUNITS
 70
     0
  9
$HYPERLINKBASE
  1

  9
$STYLESHEET
  1
MONOCHROME.CTB
  9
$XEDIT
290
     1
  9
$CEPSNTYPE
380
     0
  9
$PSTYLEMODE
290
     1
  9
$FINGERPRINTGUID
  2

  9
$VERSIONGUID
  2
{20465692-2130-415C-B4AD-750D09AE7EE7}
  9
$EXTNAMES
290
     1
  9
$PSVPSCALE
 40
0.0
  9
$OLESTARTUP
290
     0
  9
$SORTENTS
280
   127
  9
$INDEXCTL
280
     0
  9
$HIDETEXT
280
     0
  9
$XCLIPFRAME
280
     2
  9
$HALOGAP
280
     0
  9
$OBSCOLOR
 70
   257
  9
$OBSLTYPE
280
     0
  9
$INTERSECTIONDISPLAY
280
     0
  9
$INTERSECTIONCOLOR
 70
   257
  9
$DIMASSOC
280
     1
  9
$PROJECTNAME
  1

  9
$CAMERADISPLAY
290
     0
  9
$LENSLENGTH
 40
50.0
  9
$CAMERAHEIGHT
 40
0.0
  9
$STEPSPERSEC
 40
2.0
  9
$STEPSIZE
 40
6.0
  9
$3DDWFPREC
 40
2.0
  9
$PSOLWIDTH
 40
0.25
  9
$PSOLHEIGHT
 40
4.0
  9
$LOFTANG1
 40
1.570796326794896
  9
$LOFTANG2
 40
1.570796326794896
  9
$LOFTMAG1
 40
0.0
  9
$LOFTMAG2
 40
0.0
  9
$LOFTPARAM
 70
     7
  9
$LOFTNORMALS
280
     1
  9
$LATITUDE
 40
37.795
  9
$LONGITUDE
 40
-122.394
  9
$NORTHDIRECTION
 40
0.0
  9
$TIMEZONE
 70
 -8000
  9
$LIGHTGLYPHDISPLAY
280
     1
  9
$TILEMODELIGHTSYNCH
280
     1
  9
$CMATERIAL
347
8A59
  9
$SOLIDHIST
280
     0
  9
$SHOWHIST
280
     1
  9
$DWFFRAME
280
     2
  9
$DGNFRAME
280
     0
  9
$REALWORLDSCALE
290
     1
  9
$INTERFERECOLOR
 62
     1
  9
$INTERFEREOBJVS
345
8A7B
  9
$INTERFEREVPVS
346
8A78
  9
$CSHADOW
280
     0
  9
$SHADOWPLANELOCATION
 40
0.0
  0
ENDSEC
  0
SECTION
  2
CLASSES
  0
CLASS
  1
ACDBDICTIONARYWDFLT
  2
AcDbDictionaryWithDefault
  3
ObjectDBX Classes
 90
        0
 91
        1
280
     0
281
     0
  0
CLASS
  1
DICTIONARYVAR
  2
AcDbDictionaryVar
  3
ObjectDBX Classes
 90
        0
 91
       10
280
     0
281
     0
  0
CLASS
  1
MATERIAL
  2
AcDbMaterial
  3
ObjectDBX Classes
 90
     1153
 91
        3
280
     0
281
     0
  0
CLASS
  1
VISUALSTYLE
  2
AcDbVisualStyle
  3
ObjectDBX Classes
 90
     4095
 91
       26
280
     0
281
     0
  0
CLASS
  1
TABLESTYLE
  2
AcDbTableStyle
  3
ObjectDBX Classes
 90
     4095
 91
        1
280
     0
281
     0
  0
CLASS
  1
SCALE
  2
AcDbScale
  3
ObjectDBX Classes
 90
     1153
 91
       17
280
     0
281
     0
  0
CLASS
  1
MLEADERSTYLE
  2
AcDbMLeaderStyle
  3
ACDB_MLEADERSTYLE_CLASS
 90
     4095
 91
        1
280
     0
281
     0
  0
CLASS
  1
ACDBSECTIONVIEWSTYLE
  2
AcDbSectionViewStyle
  3
ObjectDBX Classes
 90
     1025
 91
        1
280
     0
281
     0
  0
CLASS
  1
ACDBDETAILVIEWSTYLE
  2
AcDbDetailViewStyle
  3
ObjectDBX Classes
 90
     1025
 91
        1
280
     0
281
     0
  0
CLASS
  1
CELLSTYLEMAP
  2
AcDbCellStyleMap
  3
ObjectDBX Classes
 90
     1152
 91
        2
280
     0
281
     0
  0
CLASS
  1
AEC_REFEDIT_STATUS_TRACKER
  2
AecDbRefEditStatusTracker
  3
AecArchBase70|Product Desc: Autodesk Architectural Desktop 2007 |Company: Autodesk,Inc. |WEB Address: www.autodesk.com
 90
      129
 91
        0
280
     0
281
     0
  0
CLASS
  1
NPOCOLLECTION
  2
AcDbImpNonPersistentObjectsCollection
  3
ObjectDBX Classes
 90
     1153
 91
        0
280
     0
281
     0
  0
CLASS
  1
SORTENTSTABLE
  2
AcDbSortentsTable
  3
ObjectDBX Classes
 90
        0
 91
        2
280
     0
281
     0
  0
ENDSEC
  0
SECTION
  2
TABLES
  0
TABLE
  2
VPORT
  5
8
330
0
100
AcDbSymbolTable
 70
     1
  0
VPORT
  5
8A51
330
8
100
AcDbSymbolTableRecord
100
AcDbViewportTableRecord
  2
*Active
 70
     0
 10
0.0
 20
0.0
 11
1.0
 21
1.0
 12
350.0006165939997
 22
544.0161448273267
 13
0.0
 23
0.0
 14
1.0
 24
1.0
 15
10.0
 25
10.0
 16
0.0
 26
0.0
 36
1.0
 17
0.0
 27
0.0
 37
0.0
 40
1095.967074126743
 41
2.289505428226779
 42
50.0
 43
0.0
 44
0.0
 50
0.0
 51
0.0
 71
     0
 72
   100
 73
     1
 74
     1
 75
     0
 76
     0
 77
     0
 78
     0
281
     0
 65
     1
110
0.0
120
0.0
130
0.0
111
1.0
121
0.0
131
0.0
112
0.0
122
1.0
132
0.0
 79
     0
146
0.0
348
8A77
 60
     3
 61
     5
292
     1
282
     1
141
0.0
142
0.0
 63
   250
421
  3355443
1001
ACAD_NAV_VCDISPLAY
1070
     3
  0
ENDTAB
  0
TABLE
  2
LTYPE
  5
5
330
0
100
AcDbSymbolTable
 70
     8
  0
LTYPE
  5
13
330
5
100
AcDbSymbolTableRecord
100
AcDbLinetypeTableRecord
  2
BYBLOCK
 70
     0
  3

 72
    65
 73
     0
 40
0.0
  0
LTYPE
  5
14
330
5
100
AcDbSymbolTableRecord
100
AcDbLinetypeTableRecord
  2
BYLAYER
 70
     0
  3

 72
    65
 73
     0
 40
0.0
  0
LTYPE
  5
15
330
5
100
AcDbSymbolTableRecord
100
AcDbLinetypeTableRecord
  2
CONTINUOUS
 70
     0
  3
Solid line
 72
    65
 73
     0
 40
0.0
  0
LTYPE
  5
22
330
5
100
AcDbSymbolTableRecord
100
AcDbLinetypeTableRecord
  2
CONTINOUS
 70
     0
  3
Solid line
 72
    65
 73
     0
 40
0.0
  0
LTYPE
  5
23
330
5
100
AcDbSymbolTableRecord
100
AcDbLinetypeTableRecord
  2
DASHED
 70
     0
  3
__ __ __ __ __ __ __ __ __ __ __ __ __ __ __
 72
    65
 73
     2
 40
0.75
 49
0.5
 74
     0
 49
-0.25
 74
     0
  0
LTYPE
  5
24
330
5
100
AcDbSymbolTableRecord
100
AcDbLinetypeTableRecord
  2
DASHDOT
 70
     0
  3
__ . __ . __ . __ . __ . __ . __ . __ . __ . __
 72
    65
 73
     4
 40
1.0
 49
0.5
 74
     0
 49
-0.25
 74
     0
 49
0.0
 74
     0
 49
-0.25
 74
     0
  0
LTYPE
  5
4C47
330
5
100
AcDbSymbolTableRecord
100
AcDbLinetypeTableRecord
  2
DIVIDE
 70
     0
  3
Divide ____ . . ____ . . ____ . . ____ . . ____
 72
    65
 73
     6
 40
1.25
 49
0.5
 74
     0
 49
-0.25
 74
     0
 49
0.0
 74
     0
 49
-0.25
 74
     0
 49
0.0
 74
     0
 49
-0.25
 74
     0
  0
LTYPE
  5
912E
330
5
100
AcDbSymbolTableRecord
100
AcDbLinetypeTableRecord
  2
SLD-実線
 70
     0
  3
SolidWorks Line Style
 72
    65
 73
     0
 40
0.0
  0
LTYPE
  5
1391B
330
5
100
AcDbSymbolTableRecord
100
AcDbLinetypeTableRecord
  2
CENTER
 70
     0
  3
Center ____ _ ____ _ ____ _ ____ _ ____ _ ____
 72
    65
 73
     4
 40
50.8
 49
31.75
 74
     0
 49
-6.349999999999997
 74
     0
 49
6.349999999999997
 74
     0
 49
-6.349999999999997
 74
     0
  0
ENDTAB
  0
TABLE
  2
LAYER
  5
2
102
{ACAD_XDICTIONARY
360
F3CC
102
}
330
0
100
AcDbSymbolTable
 70
    14
  0
LAYER
  5
10
102
{ACAD_XDICTIONARY
360
8ACC
102
}
330
2
100
AcDbSymbolTableRecord
100
AcDbLayerTableRecord
  2
0
 70
     0
 62
     7
  6
CONTINOUS
370
    -3
390
F
347
8A69
348
0
  0
LAYER
  5
2F
102
{ACAD_XDICTIONARY
360
8ACE
102
}
330
2
100
AcDbSymbolTableRecord
100
AcDbLayerTableRecord
  2
10
 70
     0
 62
     4
  6
CONTINOUS
370
    -3
390
F
347
8A69
348
0
  0
LAYER
  5
31
102
{ACAD_XDICTIONARY
360
8AD0
102
}
330
2
100
AcDbSymbolTableRecord
100
AcDbLayerTableRecord
  2
12
 70
     0
 62
     3
  6
CONTINOUS
370
    -3
390
F
347
8A69
348
0
  0
LAYER
  5
35
102
{ACAD_XDICTIONARY
360
8AD2
102
}
330
2
100
AcDbSymbolTableRecord
100
AcDbLayerTableRecord
  2
16
 70
     0
 62
     6
  6
DASHDOT
370
    -3
390
F
347
8A69
348
0
  0
LAYER
  5
38
102
{ACAD_XDICTIONARY
360
8AD4
102
}
330
2
100
AcDbSymbolTableRecord
100
AcDbLayerTableRecord
  2
19
 70
     0
 62
     7
  6
CONTINOUS
370
    -3
390
F
347
8A69
348
0
  0
LAYER
  5
3A2
102
{ACAD_XDICTIONARY
360
8AD8
102
}
330
2
100
AcDbSymbolTableRecord
100
AcDbLayerTableRecord
  2
30
 70
     0
 62
     9
  6
CONTINUOUS
370
    -3
390
F
347
8A69
348
0
  0
LAYER
  5
3A4
330
2
100
AcDbSymbolTableRecord
100
AcDbLayerTableRecord
  2
DEFPOINTS
 70
     0
 62
     7
  6
CONTINUOUS
290
     0
370
    -3
390
F
347
8A69
348
0
  0
LAYER
  5
3BBA
102
{ACAD_XDICTIONARY
360
8ADA
102
}
330
2
100
AcDbSymbolTableRecord
100
AcDbLayerTableRecord
  2
18
 70
     0
 62
     5
  6
DIVIDE
370
    -3
390
F
347
8A69
348
0
  0
LAYER
  5
67A8
102
{ACAD_XDICTIONARY
360
8ADC
102
}
330
2
100
AcDbSymbolTableRecord
100
AcDbLayerTableRecord
  2
11
 70
     0
 62
     1
  6
CONTINOUS
370
    -3
390
F
347
8A69
348
0
  0
LAYER
  5
7837
102
{ACAD_XDICTIONARY
360
8ADE
102
}
330
2
100
AcDbSymbolTableRecord
100
AcDbLayerTableRecord
  2
17
 70
     0
 62
     2
  6
DASHDOT
370
    -3
390
F
347
8A69
348
0
  0
LAYER
  5
9133
102
{ACAD_XDICTIONARY
360
9134
102
}
330
2
100
AcDbSymbolTableRecord
100
AcDbLayerTableRecord
  2
240
 70
     0
 62
     7
  6
SLD-実線
370
    -3
390
F
347
8A69
348
0
  0
LAYER
  5
1391C
102
{ACAD_XDICTIONARY
360
1391D
102
}
330
2
100
AcDbSymbolTableRecord
100
AcDbLayerTableRecord
  2
21
 70
     0
 62
     7
  6
CONTINUOUS
370
    -3
390
F
347
8A69
348
0
  0
LAYER
  5
1391E
102
{ACAD_XDICTIONARY
360
1391F
102
}
330
2
100
AcDbSymbolTableRecord
100
AcDbLayerTableRecord
  2
22
 70
     0
 62
     3
  6
CONTINUOUS
370
    -3
390
F
347
8A69
348
0
  0
LAYER
  5
1C416
330
2
100
AcDbSymbolTableRecord
100
AcDbLayerTableRecord
  2
24
 70
     0
 62
     7
  6
CONTINOUS
370
    -3
390
F
347
8A69
348
0
1001
AcAecLayerStandard
1000

1000

1001
AcCmTransparency
1071
        0
  0
ENDTAB
  0
TABLE
  2
STYLE
  5
3
330
0
100
AcDbSymbolTable
 70
     3
  0
STYLE
  5
11
330
3
100
AcDbSymbolTableRecord
100
AcDbTextStyleTableRecord
  2
STANDARD
 70
     0
 40
0.0
 41
1.0
 50
0.0
 71
     0
 42
2.0
  3
txt.shx
  4
bigfont.shx
  0
STYLE
  5
42
330
3
100
AcDbSymbolTableRecord
100
AcDbTextStyleTableRecord
  2
STANDARD1
 70
     0
 40
0.0
 41
1.0
 50
0.0
 71
     0
 42
5.0
  3
MONOTXT
  4
BIGFONT
  0
STYLE
  5
1171A
330
3
100
AcDbSymbolTableRecord
100
AcDbTextStyleTableRecord
  2
SLDTEXTSTYLE0
 70
     0
 40
0.0
 41
1.0
 50
0.0
 71
     0
 42
3.0
  3
MS UI Gothic.ttf
  4

1001
ACAD
1000
MS UI Gothic
1071
      306
  0
ENDTAB
  0
TABLE
  2
VIEW
  5
6
330
0
100
AcDbSymbolTable
 70
     3
  0
VIEW
  5
230C
330
6
100
AcDbSymbolTableRecord
100
AcDbViewTableRecord
  2
OLE1
 70
     0
 40
148.912488
 10
429.497628
 20
2.560627
 41
103.145806
 11
0.0
 21
0.0
 31
1.0
 12
0.0
 22
0.0
 32
0.0
 42
50.0
 43
0.0
 44
0.0
 50
0.0
 71
     0
281
     0
 72
     0
 73
     0
348
8A77
  0
VIEW
  5
230E
330
6
100
AcDbSymbolTableRecord
100
AcDbViewTableRecord
  2
OLE2
 70
     0
 40
170.778692
 10
322.66497
 20
-5.978304
 41
102.467215
 11
0.0
 21
0.0
 31
1.0
 12
0.0
 22
0.0
 32
0.0
 42
50.0
 43
0.0
 44
0.0
 50
0.0
 71
     0
281
     0
 72
     0
 73
     0
348
8A77
  0
VIEW
  5
23AA
330
6
100
AcDbSymbolTableRecord
100
AcDbViewTableRecord
  2
OLE3
 70
     0
 40
591.7897389999998
 10
84.79698199999999
 20
-46.09335999999998
 41
388.792096
 11
0.0
 21
0.0
 31
1.0
 12
0.0
 22
0.0
 32
0.0
 42
50.0
 43
0.0
 44
0.0
 50
0.0
 71
     0
281
     0
 72
     0
 73
     0
348
8A77
  0
ENDTAB
  0
TABLE
  2
UCS
  5
7
330
0
100
AcDbSymbolTable
 70
     0
  0
ENDTAB
  0
TABLE
  2
APPID
  5
9
330
0
100
AcDbSymbolTable
 70
    14
  0
APPID
  5
12
330
9
100
AcDbSymbolTableRecord
100
AcDbRegAppTableRecord
  2
ACAD
 70
     0
  0
APPID
  5
ECD
330
9
100
AcDbSymbolTableRecord
100
AcDbRegAppTableRecord
  2
CONTENTBLOCKICON
 70
     0
  0
APPID
  5
8AA9
330
9
100
AcDbSymbolTableRecord
100
AcDbRegAppTableRecord
  2
ACAD_NAV_VCDISPLAY
 70
     0
  0
APPID
  5
1038A
330
9
100
AcDbSymbolTableRecord
100
AcDbRegAppTableRecord
  2
ACAD_EXEMPT_FROM_CAD_STANDARDS
 70
     0
  0
APPID
  5
10D03
330
9
100
AcDbSymbolTableRecord
100
AcDbRegAppTableRecord
  2
ACAD_PSEXT
 70
     0
  0
APPID
  5
1147C
330
9
100
AcDbSymbolTableRecord
100
AcDbRegAppTableRecord
  2
ACAD_DSTYLE_DIMJAG
 70
     0
  0
APPID
  5
1147D
330
9
100
AcDbSymbolTableRecord
100
AcDbRegAppTableRecord
  2
ACAD_DSTYLE_DIMTALN
 70
     0
  0
APPID
  5
16BC0
330
9
100
AcDbSymbolTableRecord
100
AcDbRegAppTableRecord
  2
DCO15
 70
     0
  0
APPID
  5
16BC1
330
9
100
AcDbSymbolTableRecord
100
AcDbRegAppTableRecord
  2
ACAD_MLEADERVER
 70
     0
  0
APPID
  5
16BC2
330
9
100
AcDbSymbolTableRecord
100
AcDbRegAppTableRecord
  2
ACAD_DSTYLE_DIMBREAK
 70
     0
  0
APPID
  5
17476
330
9
100
AcDbSymbolTableRecord
100
AcDbRegAppTableRecord
  2
ACAUTHENVIRON
 70
     0
  0
APPID
  5
1C3D6
330
9
100
AcDbSymbolTableRecord
100
AcDbRegAppTableRecord
  2
AcadAnnoMonitorAlertIconDisabled
 70
     0
  0
APPID
  5
1C417
330
9
100
AcDbSymbolTableRecord
100
AcDbRegAppTableRecord
  2
AcAecLayerStandard
 70
     0
  0
APPID
  5
1C418
330
9
100
AcDbSymbolTableRecord
100
AcDbRegAppTableRecord
  2
AcCmTransparency
 70
     0
  0
ENDTAB
  0
TABLE
  2
DIMSTYLE
  5
A
330
0
100
AcDbSymbolTable
 70
     3
100
AcDbDimStyleTable
 71
     2
340
175
340
1171B
  0
DIMSTYLE
105
175
102
{ACAD_REACTORS
330
14078
330
14083
330
14084
330
14086
330
14087
330
14144
330
14145
330
14146
330
14147
330
14169
330
1416A
330
14172
330
14173
330
15DED
330
15DEE
330
19BC5
330
1A074
330
1A287
330
1A288
330
1A2B3
330
1A2B4
330
1413A
330
1A515
330
1A516
330
1A517
330
1A519
330
1BCBC
330
1BCBD
330
1BDE3
330
1C1EE
330
1C2AD
102
}
330
A
100
AcDbSymbolTableRecord
100
AcDbDimStyleTableRecord
  2
STANDARD
 70
     0
 41
2.0
 42
1.0
 43
0.5
 44
0.5
 69
     1
 73
     0
 74
     0
 77
     3
 78
    12
140
8.0
147
3.0
178
   256
271
     1
272
     1
340
11
341
3B2
342
3B2
1001
ACAD_DSTYLE_DIMJAG
1070
   388
1040
1.5
1001
ACAD_DSTYLE_DIMTALN
1070
   392
1070
     0
  0
DIMSTYLE
105
1171B
102
{ACAD_REACTORS
330
14687
330
146AA
330
14143
330
14085
330
1A518
102
}
330
A
100
AcDbSymbolTableRecord
100
AcDbDimStyleTableRecord
  2
STANDARD1
 70
     0
 41
2.0
 42
3.0
 43
0.5
 44
0.5
 77
     3
 78
    12
140
8.0
147
3.0
172
     1
271
     1
272
     1
289
     2
340
11
341
3B2
342
3B2
1001
ACAD_DSTYLE_DIMJAG
1070
   388
1040
1.5
1001
ACAD_DSTYLE_DIMTALN
1070
   392
1070
     0
  0
ENDTAB
  0
TABLE
  2
BLOCK_RECORD
  5
1
330
0
100
AcDbSymbolTable
 70
    39
  0
BLOCK_RECORD
  5
1E
102
{ACAD_XDICTIONARY
360
178
102
}
330
1
100
AcDbSymbolTableRecord
100
AcDbBlockTableRecord
  2
*MODEL_SPACE
340
8A4C
 70
     0
280
     1
281
     0
  0
BLOCK_RECORD
  5
1A
102
{ACAD_XDICTIONARY
360
17A
102
}
330
1
100
AcDbSymbolTableRecord
100
AcDbBlockTableRecord
  2
*PAPER_SPACE
340
8A4D
 70
     0
280
     1
281
     0
  0
BLOCK_RECORD
  5
3B2
330
1
100
AcDbSymbolTableRecord
100
AcDbBlockTableRecord
  2
_OPEN
340
0
102
{BLKREFS
331
1C430
331
1C431
331
1C062
331
1C063
331
1C143
331
1C144
331
1C15E
331
1C15F
331
1C227
331
1C228
331
1C230
331
1C231
331
1C243
331
1C244
331
1C29E
331
1C29F
331
1BF25
331
1BF26
331
1BF9A
331
1BFA1
331
1BFA8
331
1BFA9
331
1C179
331
1C17A
331
1C182
331
1C183
331
1C18B
331
1C18C
331
1C194
331
1C195
331
1C19D
331
1C19E
331
1C1A6
331
1C1A7
331
1C1AF
331
1C1B0
331
1C1C1
331
1C1C2
331
1C3E5
331
1C3E6
331
1C3C6
331
1C3C7
331
1C303
331
1C304
331
1C30C
331
1C30D
331
1C315
331
1C316
331
1C338
331
1C339
331
1C342
331
1C343
331
1BFB1
331
1BFB2
331
1C2A7
331
1C2B4
331
1C2B5
331
1C2E6
331
1C2E7
331
1C2A8
331
1C2EF
331
1C2F0
331
1C2F8
331
1C2F9
331
1C058
331
1C059
331
1C366
331
1C367
331
1C3BC
331
1C3BD
102
}
 70
     0
280
     1
281
     0
  0
BLOCK_RECORD
  5
1418D
330
1
100
AcDbSymbolTableRecord
100
AcDbBlockTableRecord
  2
*D1
340
0
 70
     0
280
     1
281
     0
  0
BLOCK_RECORD
  5
14212
330
1
100
AcDbSymbolTableRecord
100
AcDbBlockTableRecord
  2
*D2
340
0
 70
     0
280
     1
281
     0
  0
BLOCK_RECORD
  5
1421E
330
1
100
AcDbSymbolTableRecord
100
AcDbBlockTableRecord
  2
*D3
340
0
 70
     0
280
     1
281
     0
  0
BLOCK_RECORD
  5
1422A
330
1
100
AcDbSymbolTableRecord
100
AcDbBlockTableRecord
  2
*D4
340
0
 70
     0
280
     1
281
     0
  0
BLOCK_RECORD
  5
14234
330
1
100
AcDbSymbolTableRecord
100
AcDbBlockTableRecord
  2
*D5
340
0
 70
     0
280
     1
281
     0
  0
BLOCK_RECORD
  5
14240
330
1
100
AcDbSymbolTableRecord
100
AcDbBlockTableRecord
  2
*D6
340
0
 70
     0
280
     1
281
     0
  0
BLOCK_RECORD
  5
1424C
330
1
100
AcDbSymbolTableRecord
100
AcDbBlockTableRecord
  2
*D7
340
0
 70
     0
280
     1
281
     0
  0
BLOCK_RECORD
  5
14259
330
1
100
AcDbSymbolTableRecord
100
AcDbBlockTableRecord
  2
*D8
340
0
 70
     0
280
     1
281
     0
  0
BLOCK_RECORD
  5
14263
330
1
100
AcDbSymbolTableRecord
100
AcDbBlockTableRecord
  2
*D9
340
0
 70
     0
280
     1
281
     0
  0
BLOCK_RECORD
  5
1426F
330
1
100
AcDbSymbolTableRecord
100
AcDbBlockTableRecord
  2
*D10
340
0
 70
     0
280
     1
281
     0
  0
BLOCK_RECORD
  5
1427B
330
1
100
AcDbSymbolTableRecord
100
AcDbBlockTableRecord
  2
*D11
340
0
 70
     0
280
     1
281
     0
  0
BLOCK_RECORD
  5
14287
330
1
100
AcDbSymbolTableRecord
100
AcDbBlockTableRecord
  2
*D12
340
0
 70
     0
280
     1
281
     0
  0
BLOCK_RECORD
  5
14293
330
1
100
AcDbSymbolTableRecord
100
AcDbBlockTableRecord
  2
*D13
340
0
 70
     0
280
     1
281
     0
  0
BLOCK_RECORD
  5
1429F
330
1
100
AcDbSymbolTableRecord
100
AcDbBlockTableRecord
  2
*D14
340
0
 70
     0
280
     1
281
     0
  0
BLOCK_RECORD
  5
142B5
330
1
100
AcDbSymbolTableRecord
100
AcDbBlockTableRecord
  2
*D15
340
0
 70
     0
280
     1
281
     0
  0
BLOCK_RECORD
  5
142C1
330
1
100
AcDbSymbolTableRecord
100
AcDbBlockTableRecord
  2
*D16
340
0
 70
     0
280
     1
281
     0
  0
BLOCK_RECORD
  5
14688
330
1
100
AcDbSymbolTableRecord
100
AcDbBlockTableRecord
  2
*D17
340
0
 70
     0
280
     1
281
     0
  0
BLOCK_RECORD
  5
146AB
330
1
100
AcDbSymbolTableRecord
100
AcDbBlockTableRecord
  2
*D18
340
0
 70
     0
280
     1
281
     0
  0
BLOCK_RECORD
  5
15DEF
330
1
100
AcDbSymbolTableRecord
100
AcDbBlockTableRecord
  2
*D19
340
0
 70
     0
280
     1
281
     0
  0
BLOCK_RECORD
  5
15DFB
330
1
100
AcDbSymbolTableRecord
100
AcDbBlockTableRecord
  2
*D20
340
0
 70
     0
280
     1
281
     0
  0
BLOCK_RECORD
  5
19BC6
330
1
100
AcDbSymbolTableRecord
100
AcDbBlockTableRecord
  2
*D21
340
0
 70
     0
280
     1
281
     0
  0
BLOCK_RECORD
  5
1A076
330
1
100
AcDbSymbolTableRecord
100
AcDbBlockTableRecord
  2
*D22
340
0
 70
     0
280
     1
281
     0
  0
BLOCK_RECORD
  5
1A289
330
1
100
AcDbSymbolTableRecord
100
AcDbBlockTableRecord
  2
*D23
340
0
 70
     0
280
     1
281
     0
  0
BLOCK_RECORD
  5
1A295
330
1
100
AcDbSymbolTableRecord
100
AcDbBlockTableRecord
  2
*D24
340
0
 70
     0
280
     1
281
     0
  0
BLOCK_RECORD
  5
1A2B5
330
1
100
AcDbSymbolTableRecord
100
AcDbBlockTableRecord
  2
*D25
340
0
 70
     0
280
     1
281
     0
  0
BLOCK_RECORD
  5
1A2C1
330
1
100
AcDbSymbolTableRecord
100
AcDbBlockTableRecord
  2
*D26
340
0
 70
     0
280
     1
281
     0
  0
BLOCK_RECORD
  5
1A51C
330
1
100
AcDbSymbolTableRecord
100
AcDbBlockTableRecord
  2
*D27
340
0
 70
     0
280
     1
281
     0
  0
BLOCK_RECORD
  5
1A528
330
1
100
AcDbSymbolTableRecord
100
AcDbBlockTableRecord
  2
*D28
340
0
 70
     0
280
     1
281
     0
  0
BLOCK_RECORD
  5
1A534
330
1
100
AcDbSymbolTableRecord
100
AcDbBlockTableRecord
  2
*D29
340
0
 70
     0
280
     1
281
     0
  0
BLOCK_RECORD
  5
1A540
330
1
100
AcDbSymbolTableRecord
100
AcDbBlockTableRecord
  2
*D30
340
0
 70
     0
280
     1
281
     0
  0
BLOCK_RECORD
  5
1A54E
330
1
100
AcDbSymbolTableRecord
100
AcDbBlockTableRecord
  2
*D31
340
0
 70
     0
280
     1
281
     0
  0
BLOCK_RECORD
  5
1BCBE
330
1
100
AcDbSymbolTableRecord
100
AcDbBlockTableRecord
  2
*D32
340
0
 70
     0
280
     1
281
     0
  0
BLOCK_RECORD
  5
1BCCB
330
1
100
AcDbSymbolTableRecord
100
AcDbBlockTableRecord
  2
*D33
340
0
 70
     0
280
     1
281
     0
  0
BLOCK_RECORD
  5
1BDE5
330
1
100
AcDbSymbolTableRecord
100
AcDbBlockTableRecord
  2
*D34
340
0
 70
     0
280
     1
281
     0
  0
BLOCK_RECORD
  5
1C085
102
{ACAD_XDICTIONARY
360
1C087
102
}
330
1
100
AcDbSymbolTableRecord
100
AcDbBlockTableRecord
  2
A$C302D3D1A
340
0
 70
     0
280
     1
281
     0
  0
BLOCK_RECORD
  5
1C1EF
330
1
100
AcDbSymbolTableRecord
100
AcDbBlockTableRecord
  2
*D36
340
0
 70
     0
280
     1
281
     0
  0
BLOCK_RECORD
  5
1C2AE
330
1
100
AcDbSymbolTableRecord
100
AcDbBlockTableRecord
  2
*D37
340
0
 70
     0
280
     1
281
     0
  0
ENDTAB
  0
ENDSEC
  0
SECTION
  2
BLOCKS
  0
BLOCK
  5
1F
330
1E
100
AcDbEntity
  8
0
100
AcDbBlockBegin
  2
*MODEL_SPACE
 70
     0
 10
0.0
 20
0.0
 30
0.0
  3
*MODEL_SPACE
  1

  0
ENDBLK
  5
20
330
1E
100
AcDbEntity
  8
0
100
AcDbBlockEnd
  0
BLOCK
  5
1B
330
1A
100
AcDbEntity
 67
     1
  8
0
100
AcDbBlockBegin
  2
*PAPER_SPACE
 70
     0
 10
0.0
 20
0.0
 30
0.0
  3
*PAPER_SPACE
  1

  0
ENDBLK
  5
1C
330
1A
100
AcDbEntity
 67
     1
  8
0
100
AcDbBlockEnd
  0
BLOCK
  5
3B6
330
3B2
100
AcDbEntity
  8
0
100
AcDbBlockBegin
  2
_OPEN
 70
     0
 10
0.0
 20
0.0
 30
0.0
  3
_OPEN
  1

  0
LINE
  5
3B3
330
3B2
100
AcDbEntity
  8
30
  6
Continuous
 62
     0
100
AcDbLine
 10
-1.0
 20
0.166667
 30
0.0
 11
0.0
 21
0.0
 31
0.0
  0
LINE
  5
3B4
330
3B2
100
AcDbEntity
  8
30
  6
Continuous
 62
     0
100
AcDbLine
 10
-1.0
 20
-0.166667
 30
0.0
 11
0.0
 21
0.0
 31
0.0
  0
LINE
  5
3B5
330
3B2
100
AcDbEntity
  8
30
  6
Continuous
 62
     0
100
AcDbLine
 10
0.0
 20
0.0
 30
0.0
 11
-1.0
 21
0.0
 31
0.0
  0
ENDBLK
  5
3B7
330
3B2
100
AcDbEntity
  8
0
100
AcDbBlockEnd
  0
BLOCK
  5
1418E
330
1418D
100
AcDbEntity
  8
0
100
AcDbBlockBegin
  2
*D1
 70
     1
 10
0.0
 20
0.0
 30
0.0
  3
*D1
  1

  0
LINE
  5
1C140
330
1418D
100
AcDbEntity
  8
30
  6
Continuous
 62
     0
440
 16777216
370
    -2
100
AcDbLine
 10
652.0623810060897
 20
723.4938972774823
 30
0.0
 11
676.035802806794
 21
723.4938972774823
 31
0.0
  0
LINE
  5
1C141
330
1418D
100
AcDbEntity
  8
30
  6
Continuous
 62
     0
440
 16777216
370
    -2
100
AcDbLine
 10
652.0623810060897
 20
495.4938972774816
 30
0.0
 11
676.035802806794
 21
495.4938972774816
 31
0.0
  0
LINE
  5
1C142
330
1418D
100
AcDbEntity
  8
30
  6
Continuous
 62
     0
440
 16777216
370
    -2
100
AcDbLine
 10
675.535802806794
 20
721.4938972774823
 30
0.0
 11
675.535802806794
 21
497.4938972774817
 31
0.0
  0
INSERT
  5
1C143
330
1418D
100
AcDbEntity
  8
30
  6
Continuous
 62
     0
440
 16777216
370
    -2
100
AcDbBlockReference
  2
_OPEN
 10
675.535802806794
 20
723.4938972774823
 30
0.0
 41
2.0
 42
2.0
 43
2.0
 50
90.0
  0
INSERT
  5
1C144
330
1418D
100
AcDbEntity
  8
30
  6
Continuous
 62
     0
440
 16777216
370
    -2
100
AcDbBlockReference
  2
_OPEN
 10
675.535802806794
 20
495.4938972774816
 30
0.0
 41
2.0
 42
2.0
 43
2.0
 50
270.0
  0
MTEXT
  5
1C145
330
1418D
100
AcDbEntity
  8
30
  6
Continuous
440
 16777216
100
AcDbMText
 10
668.5358028067938
 20
609.4938972774822
 30
0.0
 40
8.0
 41
0.0
 46
0.0
 71
     5
 72
     1
  1
\A1;228
 11
0.0000000000000001
 21
1.0
 31
0.0
 73
     1
 44
1.0
 90
        3
 63
     9
421
 13158600
 45
1.25
441
        0
  0
POINT
  5
1C146
330
1418D
100
AcDbEntity
  8
DEFPOINTS
  6
Continuous
 62
     0
440
 16777216
100
AcDbPoint
 10
651.0623810060898
 20
723.4938972774823
 30
0.0
  0
POINT
  5
1C147
330
1418D
100
AcDbEntity
  8
DEFPOINTS
  6
Continuous
 62
     0
440
 16777216
100
AcDbPoint
 10
651.0623810060898
 20
495.4938972774816
 30
0.0
  0
POINT
  5
1C148
330
1418D
100
AcDbEntity
  8
DEFPOINTS
  6
Continuous
 62
     0
440
 16777216
100
AcDbPoint
 10
675.535802806794
 20
495.4938972774816
 30
0.0
  0
ENDBLK
  5
1418F
330
1418D
100
AcDbEntity
  8
0
100
AcDbBlockEnd
  0
BLOCK
  5
14213
330
14212
100
AcDbEntity
  8
0
100
AcDbBlockBegin
  2
*D2
 70
     1
 10
0.0
 20
0.0
 30
0.0
  3
*D2
  1

  0
LINE
  5
1C2A4
330
14212
100
AcDbEntity
  8
30
  6
Continuous
 62
     0
440
 16777216
370
    -2
100
AcDbLine
 10
233.3506714840314
 20
739.4938972774824
 30
0.0
 11
277.6020367190995
 21
739.4938972774824
 31
0.0
  0
LINE
  5
1C2A5
330
14212
100
AcDbEntity
  8
30
  6
Continuous
 62
     0
440
 16777216
370
    -2
100
AcDbLine
 10
233.3506714840314
 20
479.4938972774822
 30
0.0
 11
277.6020367190995
 21
479.4938972774822
 31
0.0
  0
LINE
  5
1C2A6
330
14212
100
AcDbEntity
  8
30
  6
Continuous
 62
     0
440
 16777216
370
    -2
100
AcDbLine
 10
277.1020367190995
 20
737.4938972774823
 30
0.0
 11
277.1020367190995
 21
481.4938972774823
 31
0.0
  0
INSERT
  5
1C2A7
330
14212
100
AcDbEntity
  8
30
  6
Continuous
 62
     0
440
 16777216
370
    -2
100
AcDbBlockReference
  2
_OPEN
 10
277.1020367190995
 20
739.4938972774824
 30
0.0
 41
2.0
 42
2.0
 43
2.0
 50
90.0
  0
INSERT
  5
1C2A8
330
14212
100
AcDbEntity
  8
30
  6
Continuous
 62
     0
440
 16777216
370
    -2
100
AcDbBlockReference
  2
_OPEN
 10
277.1020367190995
 20
479.4938972774822
 30
0.0
 41
2.0
 42
2.0
 43
2.0
 50
270.0
  0
MTEXT
  5
1C2A9
330
14212
100
AcDbEntity
  8
30
  6
Continuous
440
 16777216
100
AcDbMText
 10
270.1020367190994
 20
609.4938972774822
 30
0.0
 40
8.0
 41
0.0
 46
0.0
 71
     5
 72
     1
  1
\A1;260
 11
0.0000000000000001
 21
1.0
 31
0.0
 73
     1
 44
1.0
 90
        3
 63
     9
421
 13158600
 45
1.25
441
        0
  0
POINT
  5
1C2AA
330
14212
100
AcDbEntity
  8
DEFPOINTS
  6
Continuous
 62
     0
440
 16777216
100
AcDbPoint
 10
232.3506714840314
 20
739.4938972774824
 30
0.0
  0
POINT
  5
1C2AB
330
14212
100
AcDbEntity
  8
DEFPOINTS
  6
Continuous
 62
     0
440
 16777216
100
AcDbPoint
 10
232.3506714840314
 20
479.4938972774822
 30
0.0
  0
POINT
  5
1C2AC
330
14212
100
AcDbEntity
  8
DEFPOINTS
  6
Continuous
 62
     0
440
 16777216
100
AcDbPoint
 10
277.1020367190995
 20
479.4938972774822
 30
0.0
  0
ENDBLK
  5
14214
330
14212
100
AcDbEntity
  8
0
100
AcDbBlockEnd
  0
BLOCK
  5
1421F
330
1421E
100
AcDbEntity
  8
0
100
AcDbBlockBegin
  2
*D3
 70
     1
 10
0.0
 20
0.0
 30
0.0
  3
*D3
  1

  0
LINE
  5
1C29B
330
1421E
100
AcDbEntity
  8
30
  6
Continuous
 62
     0
440
 16777216
370
    -2
100
AcDbLine
 10
172.6824956866894
 20
654.4938972774822
 30
0.0
 11
259.6369653781304
 21
654.4938972774822
 31
0.0
  0
LINE
  5
1C29C
330
1421E
100
AcDbEntity
  8
30
  6
Continuous
 62
     0
440
 16777216
370
    -2
100
AcDbLine
 10
172.6824956866894
 20
564.4938972774822
 30
0.0
 11
259.6369653781303
 21
564.4938972774822
 31
0.0
  0
LINE
  5
1C29D
330
1421E
100
AcDbEntity
  8
30
  6
Continuous
 62
     0
440
 16777216
370
    -2
100
AcDbLine
 10
259.1369653781304
 20
652.4938972774822
 30
0.0
 11
259.1369653781304
 21
566.4938972774822
 31
0.0
  0
INSERT
  5
1C29E
330
1421E
100
AcDbEntity
  8
30
  6
Continuous
 62
     0
440
 16777216
370
    -2
100
AcDbBlockReference
  2
_OPEN
 10
259.1369653781304
 20
654.4938972774822
 30
0.0
 41
2.0
 42
2.0
 43
2.0
 50
90.0
  0
INSERT
  5
1C29F
330
1421E
100
AcDbEntity
  8
30
  6
Continuous
 62
     0
440
 16777216
370
    -2
100
AcDbBlockReference
  2
_OPEN
 10
259.1369653781304
 20
564.4938972774822
 30
0.0
 41
2.0
 42
2.0
 43
2.0
 50
270.0
  0
MTEXT
  5
1C2A0
330
1421E
100
AcDbEntity
  8
30
  6
Continuous
440
 16777216
100
AcDbMText
 10
252.1369653781303
 20
607.2779716203072
 30
0.0
 40
8.0
 41
0.0
 46
0.0
 71
     5
 72
     1
  1
\A1;90
 11
0.0000000000000001
 21
1.0
 31
0.0
 73
     1
 44
1.0
 90
        3
 63
     9
421
 13158600
 45
1.25
441
        0
  0
POINT
  5
1C2A1
330
1421E
100
AcDbEntity
  8
DEFPOINTS
  6
Continuous
 62
     0
440
 16777216
100
AcDbPoint
 10
171.6824956866894
 20
654.4938972774822
 30
0.0
  0
POINT
  5
1C2A2
330
1421E
100
AcDbEntity
  8
DEFPOINTS
  6
Continuous
 62
     0
440
 16777216
100
AcDbPoint
 10
171.6824956866894
 20
564.4938972774822
 30
0.0
  0
POINT
  5
1C2A3
330
1421E
100
AcDbEntity
  8
DEFPOINTS
  6
Continuous
 62
     0
440
 16777216
100
AcDbPoint
 10
259.1369653781304
 20
564.4938972774822
 30
0.0
  0
ENDBLK
  5
14220
330
1421E
100
AcDbEntity
  8
0
100
AcDbBlockEnd
  0
BLOCK
  5
1422B
330
1422A
100
AcDbEntity
  8
0
100
AcDbBlockBegin
  2
*D4
 70
     1
 10
0.0
 20
0.0
 30
0.0
  3
*D4
  1

  0
LINE
  5
1BF22
330
1422A
100
AcDbEntity
  8
30
  6
Continuous
 62
     0
440
 16777216
370
    -2
100
AcDbLine
 10
73.7139328118691
 20
108.3877595176103
 30
0.0
 11
50.18573997375021
 21
86.69849623430938
 31
0.0
  0
LINE
  5
1BF23
330
1422A
100
AcDbEntity
  8
30
  6
Continuous
 62
     0
440
 16777216
370
    -2
100
AcDbLine
 10
48.71522792136779
 20
85.34291727910312
 30
0.0
 11
35.03486125843092
 21
72.73178830689369
 31
0.0
  0
LINE
  5
1BF24
330
1422A
100
AcDbEntity
  8
30
  6
Continuous
 62
     0
440
 16777216
370
    -2
100
AcDbLine
 10
35.03486125843092
 20
72.73178830689369
 30
0.0
 11
10.70152792509759
 21
72.73178830689369
 31
0.0
  0
INSERT
  5
1BF25
330
1422A
100
AcDbEntity
  8
30
  6
Continuous
 62
     0
440
 16777216
370
    -2
100
AcDbBlockReference
  2
_OPEN
 10
75.1844448642515
 20
109.7433384728166
 30
0.0
 41
2.0
 42
2.0
 43
2.0
 50
42.67114558863714
  0
INSERT
  5
1BF26
330
1422A
100
AcDbEntity
  8
30
  6
Continuous
 62
     0
440
 16777216
370
    -2
100
AcDbBlockReference
  2
_OPEN
 10
48.71522792136779
 20
85.34291727910312
 30
0.0
 41
2.0
 42
2.0
 43
2.0
 50
222.6711455886372
  0
MTEXT
  5
1BF27
330
1422A
100
AcDbEntity
  8
30
  6
Continuous
 62
     0
440
 16777216
100
AcDbMText
 10
21.36819459176423
 20
79.7317883068937
 30
0.0
 40
8.0
 41
0.0
 46
0.0
 71
     5
 72
     1
  1
\A1;∅36
 73
     1
 44
1.0
  0
POINT
  5
1BF28
330
1422A
100
AcDbEntity
  8
DEFPOINTS
  6
Continuous
 62
     0
440
 16777216
100
AcDbPoint
 10
48.71522792136779
 20
85.34291727910312
 30
0.0
  0
POINT
  5
1BF29
330
1422A
100
AcDbEntity
  8
DEFPOINTS
  6
Continuous
 62
     0
440
 16777216
100
AcDbPoint
 10
75.1844448642515
 20
109.7433384728166
 30
0.0
  0
ENDBLK
  5
1422C
330
1422A
100
AcDbEntity
  8
0
100
AcDbBlockEnd
  0
BLOCK
  5
14235
330
14234
100
AcDbEntity
  8
0
100
AcDbBlockBegin
  2
*D5
 70
     1
 10
0.0
 20
0.0
 30
0.0
  3
*D5
  1

  0
LINE
  5
1C15B
330
14234
100
AcDbEntity
  8
30
  6
Continuous
 62
     0
440
 16777216
370
    -2
100
AcDbLine
 10
221.5566936394175
 20
325.4531278759599
 30
0.0
 11
265.5361388275497
 21
325.4531278759599
 31
0.0
  0
LINE
  5
1C15C
330
14234
100
AcDbEntity
  8
30
  6
Continuous
 62
     0
440
 16777216
370
    -2
100
AcDbLine
 10
221.5566936394175
 20
97.45312787595993
 30
0.0
 11
265.5361388275496
 21
97.45312787595993
 31
0.0
  0
LINE
  5
1C15D
330
14234
100
AcDbEntity
  8
30
  6
Continuous
 62
     0
440
 16777216
370
    -2
100
AcDbLine
 10
265.0361388275497
 20
323.4531278759599
 30
0.0
 11
265.0361388275495
 21
99.45312787595995
 31
0.0
  0
INSERT
  5
1C15E
330
14234
100
AcDbEntity
  8
30
  6
Continuous
 62
     0
440
 16777216
370
    -2
100
AcDbBlockReference
  2
_OPEN
 10
265.0361388275497
 20
325.4531278759599
 30
0.0
 41
2.0
 42
2.0
 43
2.0
 50
90.0
  0
INSERT
  5
1C15F
330
14234
100
AcDbEntity
  8
30
  6
Continuous
 62
     0
440
 16777216
370
    -2
100
AcDbBlockReference
  2
_OPEN
 10
265.0361388275495
 20
97.45312787595993
 30
0.0
 41
2.0
 42
2.0
 43
2.0
 50
270.0
  0
MTEXT
  5
1C160
330
14234
100
AcDbEntity
  8
30
  6
Continuous
440
 16777216
100
AcDbMText
 10
258.0361388275496
 20
211.4531278759599
 30
0.0
 40
8.0
 41
0.0
 46
0.0
 71
     5
 72
     1
  1
\A1;228
 11
0.0000000000000001
 21
1.0
 31
0.0
 73
     1
 44
1.0
 90
        3
 63
     9
421
 13158600
 45
1.25
441
        0
  0
POINT
  5
1C161
330
14234
100
AcDbEntity
  8
DEFPOINTS
  6
Continuous
 62
     0
440
 16777216
100
AcDbPoint
 10
220.5566936394175
 20
325.4531278759599
 30
0.0
  0
POINT
  5
1C162
330
14234
100
AcDbEntity
  8
DEFPOINTS
  6
Continuous
 62
     0
440
 16777216
100
AcDbPoint
 10
220.5566936394175
 20
97.45312787595993
 30
0.0
  0
POINT
  5
1C163
330
14234
100
AcDbEntity
  8
DEFPOINTS
  6
Continuous
 62
     0
440
 16777216
100
AcDbPoint
 10
265.0361388275495
 20
97.45312787595993
 30
0.0
  0
ENDBLK
  5
14236
330
14234
100
AcDbEntity
  8
0
100
AcDbBlockEnd
  0
BLOCK
  5
14241
330
14240
100
AcDbEntity
  8
0
100
AcDbBlockBegin
  2
*D6
 70
     1
 10
0.0
 20
0.0
 30
0.0
  3
*D6
  1

  0
LINE
  5
1C312
330
14240
100
AcDbEntity
  8
30
  6
Continuous
 62
     0
440
 16777216
370
    -2
100
AcDbLine
 10
137.8206195513994
 20
318.4531278759599
 30
0.0
 11
248.7618694366202
 21
318.4531278759599
 31
0.0
  0
LINE
  5
1C313
330
14240
100
AcDbEntity
  8
30
  6
Continuous
 62
     0
440
 16777216
370
    -2
100
AcDbLine
 10
137.4498363928092
 20
104.4531278759599
 30
0.0
 11
248.7618694366202
 21
104.4531278759599
 31
0.0
  0
LINE
  5
1C314
330
14240
100
AcDbEntity
  8
30
  6
Continuous
 62
     0
440
 16777216
370
    -2
100
AcDbLine
 10
248.2618694366202
 20
316.4531278759599
 30
0.0
 11
248.2618694366202
 21
106.4531278759599
 31
0.0
  0
INSERT
  5
1C315
330
14240
100
AcDbEntity
  8
30
  6
Continuous
 62
     0
440
 16777216
370
    -2
100
AcDbBlockReference
  2
_OPEN
 10
248.2618694366202
 20
318.4531278759599
 30
0.0
 41
2.0
 42
2.0
 43
2.0
 50
90.0
  0
INSERT
  5
1C316
330
14240
100
AcDbEntity
  8
30
  6
Continuous
 62
     0
440
 16777216
370
    -2
100
AcDbBlockReference
  2
_OPEN
 10
248.2618694366202
 20
104.4531278759599
 30
0.0
 41
2.0
 42
2.0
 43
2.0
 50
270.0
  0
MTEXT
  5
1C317
330
14240
100
AcDbEntity
  8
30
  6
Continuous
440
 16777216
100
AcDbMText
 10
241.2618694366202
 20
211.4531278759599
 30
0.0
 40
8.0
 41
0.0
 46
0.0
 71
     5
 72
     1
  1
\A1;214
 11
0.0000000000000001
 21
1.0
 31
0.0
 73
     1
 44
1.0
 90
        3
 63
     9
421
 13158600
 45
1.25
441
        0
  0
POINT
  5
1C318
330
14240
100
AcDbEntity
  8
DEFPOINTS
  6
Continuous
 62
     0
440
 16777216
100
AcDbPoint
 10
136.8206195513994
 20
318.4531278759599
 30
0.0
  0
POINT
  5
1C319
330
14240
100
AcDbEntity
  8
DEFPOINTS
  6
Continuous
 62
     0
440
 16777216
100
AcDbPoint
 10
136.4498363928092
 20
104.4531278759599
 30
0.0
  0
POINT
  5
1C31A
330
14240
100
AcDbEntity
  8
DEFPOINTS
  6
Continuous
 62
     0
440
 16777216
100
AcDbPoint
 10
248.2618694366202
 20
104.4531278759599
 30
0.0
  0
ENDBLK
  5
14242
330
14240
100
AcDbEntity
  8
0
100
AcDbBlockEnd
  0
BLOCK
  5
1424D
330
1424C
100
AcDbEntity
  8
0
100
AcDbBlockBegin
  2
*D7
 70
     1
 10
0.0
 20
0.0
 30
0.0
  3
*D7
  1

  0
LINE
  5
1C3C2
330
1424C
100
AcDbEntity
  8
30
  6
Continuous
 62
     0
440
 16777216
370
    -2
100
AcDbLine
 10
143.4498540228696
 20
927.4358928866996
 30
0.0
 11
270.0342260169755
 21
927.4358928866996
 31
0.0
  0
LINE
  5
1C3C3
330
1424C
100
AcDbEntity
  8
30
  6
Continuous
 62
     0
440
 16777216
370
    -2
100
AcDbLine
 10
230.5065382793023
 20
912.7359342129096
 30
0.0
 11
270.0342260169755
 21
912.7359342129096
 31
0.0
  0
LINE
  5
1C3C4
330
1424C
100
AcDbEntity
  8
30
  6
Continuous
 62
     0
440
 16777216
370
    -2
100
AcDbLine
 10
269.5342260169756
 20
925.4358928866997
 30
0.0
 11
269.5342260169756
 21
914.7359342129096
 31
0.0
  0
LINE
  5
1C3C5
330
1424C
100
AcDbEntity
  8
30
  6
Continuous
 62
     0
440
 16777216
370
    -2
100
AcDbLine
 10
269.5342260169756
 20
912.7359342129096
 30
0.0
 11
269.5342260169754
 21
883.4026008795763
 31
0.0
  0
INSERT
  5
1C3C6
330
1424C
100
AcDbEntity
  8
30
  6
Continuous
 62
     0
440
 16777216
370
    -2
100
AcDbBlockReference
  2
_OPEN
 10
269.5342260169756
 20
927.4358928866996
 30
0.0
 41
2.0
 42
2.0
 43
2.0
 50
90.0
  0
INSERT
  5
1C3C7
330
1424C
100
AcDbEntity
  8
30
  6
Continuous
 62
     0
440
 16777216
370
    -2
100
AcDbBlockReference
  2
_OPEN
 10
269.5342260169756
 20
912.7359342129096
 30
0.0
 41
2.0
 42
2.0
 43
2.0
 50
270.0
  0
MTEXT
  5
1C3C8
330
1424C
100
AcDbEntity
  8
30
  6
Continuous
440
 16777216
100
AcDbMText
 10
262.5342260169753
 20
897.0692675462426
 30
0.0
 40
8.0
 41
0.0
 46
0.0
 71
     5
 72
     1
  1
\A1;14.7
 11
0.0000000000000001
 21
1.0
 31
0.0
 73
     1
 44
1.0
 90
        3
 63
     9
421
 13158600
 45
1.25
441
        0
  0
POINT
  5
1C3C9
330
1424C
100
AcDbEntity
  8
DEFPOINTS
  6
Continuous
 62
     0
440
 16777216
100
AcDbPoint
 10
142.4498540228696
 20
927.4358928866996
 30
0.0
  0
POINT
  5
1C3CA
330
1424C
100
AcDbEntity
  8
DEFPOINTS
  6
Continuous
 62
     0
440
 16777216
100
AcDbPoint
 10
229.5065382793023
 20
912.7359342129096
 30
0.0
  0
POINT
  5
1C3CB
330
1424C
100
AcDbEntity
  8
DEFPOINTS
  6
Continuous
 62
     0
440
 16777216
100
AcDbPoint
 10
269.5342260169756
 20
912.7359342129096
 30
0.0
  0
ENDBLK
  5
1424E
330
1424C
100
AcDbEntity
  8
0
100
AcDbBlockEnd
  0
BLOCK
  5
1425A
330
14259
100
AcDbEntity
  8
0
100
AcDbBlockBegin
  2
*D8
 70
     1
 10
0.0
 20
0.0
 30
0.0
  3
*D8
  1

  0
LINE
  5
1C3E1
330
14259
100
AcDbEntity
  8
30
  6
Continuous
 62
     0
440
 16777216
370
    -2
100
AcDbLine
 10
84.44847582925318
 20
313.4531280610738
 30
0.0
 11
84.4479316038312
 21
311.4531281351191
 31
0.0
  0
LINE
  5
1C3E2
330
14259
100
AcDbEntity
  8
30
  6
Continuous
 62
     0
440
 16777216
370
    -2
100
AcDbLine
 10
84.451196956363
 20
323.4531276908465
 30
0.0
 11
84.46091649962708
 21
359.1719401971551
 31
0.0
  0
LINE
  5
1C3E3
330
14259
100
AcDbEntity
  8
30
  6
Continuous
 62
     0
440
 16777216
370
    -2
100
AcDbLine
 10
84.46091649962708
 20
359.1719401971551
 30
0.0
 11
68.12758316629374
 21
359.1719401971551
 31
0.0
  0
LINE
  5
1C3E4
330
14259
100
AcDbEntity
  8
30
  6
Continuous
 62
     0
440
 16777216
370
    -2
100
AcDbLine
 10
84.44902005467517
 20
315.4531279870284
 30
0.0
 11
84.45065273094103
 21
321.4531277648918
 31
0.0
  0
INSERT
  5
1C3E5
330
14259
100
AcDbEntity
  8
30
  6
Continuous
 62
     0
440
 16777216
370
    -2
100
AcDbBlockReference
  2
_OPEN
 10
84.44902005467517
 20
315.4531279870284
 30
0.0
 41
2.0
 42
2.0
 43
2.0
 50
89.98440908991637
  0
INSERT
  5
1C3E6
330
14259
100
AcDbEntity
  8
30
  6
Continuous
 62
     0
440
 16777216
370
    -2
100
AcDbBlockReference
  2
_OPEN
 10
84.45065273094103
 20
321.4531277648918
 30
0.0
 41
2.0
 42
2.0
 43
2.0
 50
269.9844090899164
  0
MTEXT
  5
1C3E7
330
14259
100
AcDbEntity
  8
30
  6
Continuous
 62
     0
440
 16777216
100
AcDbMText
 10
74.79424983296031
 20
366.1719401971552
 30
0.0
 40
8.0
 41
0.0
 46
0.0
 71
     5
 72
     1
  1
\A1;M6
 73
     1
 44
1.0
  0
POINT
  5
1C3E8
330
14259
100
AcDbEntity
  8
DEFPOINTS
  6
Continuous
 62
     0
440
 16777216
100
AcDbPoint
 10
84.45065273094103
 20
321.4531277648918
 30
0.0
  0
POINT
  5
1C3E9
330
14259
100
AcDbEntity
  8
DEFPOINTS
  6
Continuous
 62
     0
440
 16777216
100
AcDbPoint
 10
84.44902005467517
 20
315.4531279870284
 30
0.0
  0
ENDBLK
  5
1425B
330
14259
100
AcDbEntity
  8
0
100
AcDbBlockEnd
  0
BLOCK
  5
14264
330
14263
100
AcDbEntity
  8
0
100
AcDbBlockBegin
  2
*D9
 70
     1
 10
0.0
 20
0.0
 30
0.0
  3
*D9
  1

  0
LINE
  5
1C335
330
14263
100
AcDbEntity
  8
30
  6
Continuous
 62
     0
440
 16777216
370
    -2
100
AcDbLine
 10
47.35067148403141
 20
478.4938972774822
 30
0.0
 11
47.3506714840314
 21
418.5210374778773
 31
0.0
  0
LINE
  5
1C336
330
14263
100
AcDbEntity
  8
30
  6
Continuous
 62
     0
440
 16777216
370
    -2
100
AcDbLine
 10
232.3506714840314
 20
478.4938972774822
 30
0.0
 11
232.3506714840314
 21
418.5210374778773
 31
0.0
  0
LINE
  5
1C337
330
14263
100
AcDbEntity
  8
30
  6
Continuous
 62
     0
440
 16777216
370
    -2
100
AcDbLine
 10
49.3506714840314
 20
419.0210374778776
 30
0.0
 11
230.3506714840314
 21
419.0210374778776
 31
0.0
  0
INSERT
  5
1C338
330
14263
100
AcDbEntity
  8
30
  6
Continuous
 62
     0
440
 16777216
370
    -2
100
AcDbBlockReference
  2
_OPEN
 10
47.3506714840314
 20
419.0210374778776
 30
0.0
 41
2.0
 42
2.0
 43
2.0
 50
180.0
  0
INSERT
  5
1C339
330
14263
100
AcDbEntity
  8
30
  6
Continuous
 62
     0
440
 16777216
370
    -2
100
AcDbBlockReference
  2
_OPEN
 10
232.3506714840314
 20
419.0210374778776
 30
0.0
 41
2.0
 42
2.0
 43
2.0
  0
MTEXT
  5
1C33A
330
14263
100
AcDbEntity
  8
30
  6
Continuous
440
 16777216
100
AcDbMText
 10
139.8506714840314
 20
426.0210374778774
 30
0.0
 40
8.0
 41
0.0
 46
0.0
 71
     5
 72
     1
  1
\A1;185
 73
     1
 44
1.0
 90
        3
 63
     9
421
 13158600
 45
1.25
441
        0
  0
POINT
  5
1C33B
330
14263
100
AcDbEntity
  8
DEFPOINTS
  6
Continuous
 62
     0
440
 16777216
100
AcDbPoint
 10
47.35067148403141
 20
479.4938972774822
 30
0.0
  0
POINT
  5
1C33C
330
14263
100
AcDbEntity
  8
DEFPOINTS
  6
Continuous
 62
     0
440
 16777216
100
AcDbPoint
 10
232.3506714840314
 20
479.4938972774822
 30
0.0
  0
POINT
  5
1C33D
330
14263
100
AcDbEntity
  8
DEFPOINTS
  6
Continuous
 62
     0
440
 16777216
100
AcDbPoint
 10
232.3506714840314
 20
419.0210374778776
 30
0.0
  0
ENDBLK
  5
14265
330
14263
100
AcDbEntity
  8
0
100
AcDbBlockEnd
  0
BLOCK
  5
14270
330
1426F
100
AcDbEntity
  8
0
100
AcDbBlockBegin
  2
*D10
 70
     1
 10
0.0
 20
0.0
 30
0.0
  3
*D10
  1

  0
LINE
  5
1C176
330
1426F
100
AcDbEntity
  8
30
  6
Continuous
 62
     0
440
 16777216
370
    -2
100
AcDbLine
 10
71.94983342088199
 20
979.2359342129097
 30
0.0
 11
71.94983342088199
 21
1053.799470425412
 31
0.0
  0
LINE
  5
1C177
330
1426F
100
AcDbEntity
  8
30
  6
Continuous
 62
     0
440
 16777216
370
    -2
100
AcDbLine
 10
116.949833420882
 20
1019.23593421291
 30
0.0
 11
116.949833420882
 21
1053.799470425412
 31
0.0
  0
LINE
  5
1C178
330
1426F
100
AcDbEntity
  8
30
  6
Continuous
 62
     0
440
 16777216
370
    -2
100
AcDbLine
 10
73.94983342088199
 20
1053.299470425412
 30
0.0
 11
114.949833420882
 21
1053.299470425412
 31
0.0
  0
INSERT
  5
1C179
330
1426F
100
AcDbEntity
  8
30
  6
Continuous
 62
     0
440
 16777216
370
    -2
100
AcDbBlockReference
  2
_OPEN
 10
71.94983342088199
 20
1053.299470425412
 30
0.0
 41
2.0
 42
2.0
 43
2.0
 50
180.0
  0
INSERT
  5
1C17A
330
1426F
100
AcDbEntity
  8
30
  6
Continuous
 62
     0
440
 16777216
370
    -2
100
AcDbBlockReference
  2
_OPEN
 10
116.949833420882
 20
1053.299470425412
 30
0.0
 41
2.0
 42
2.0
 43
2.0
  0
MTEXT
  5
1C17B
330
1426F
100
AcDbEntity
  8
30
  6
Continuous
440
 16777216
100
AcDbMText
 10
94.44983342088198
 20
1060.299470425412
 30
0.0
 40
8.0
 41
0.0
 46
0.0
 71
     5
 72
     1
  1
\A1;45
 73
     1
 44
1.0
 90
        3
 63
     9
421
 13158600
 45
1.25
441
        0
  0
POINT
  5
1C17C
330
1426F
100
AcDbEntity
  8
DEFPOINTS
  6
Continuous
 62
     0
440
 16777216
100
AcDbPoint
 10
71.94983342088199
 20
978.2359342129096
 30
0.0
  0
POINT
  5
1C17D
330
1426F
100
AcDbEntity
  8
DEFPOINTS
  6
Continuous
 62
     0
440
 16777216
100
AcDbPoint
 10
116.949833420882
 20
1018.23593421291
 30
0.0
  0
POINT
  5
1C17E
330
1426F
100
AcDbEntity
  8
DEFPOINTS
  6
Continuous
 62
     0
440
 16777216
100
AcDbPoint
 10
116.949833420882
 20
1053.299470425412
 30
0.0
  0
ENDBLK
  5
14271
330
1426F
100
AcDbEntity
  8
0
100
AcDbBlockEnd
  0
BLOCK
  5
1427C
330
1427B
100
AcDbEntity
  8
0
100
AcDbBlockBegin
  2
*D11
 70
     1
 10
0.0
 20
0.0
 30
0.0
  3
*D11
  1

  0
LINE
  5
1C17F
330
1427B
100
AcDbEntity
  8
30
  6
Continuous
 62
     0
440
 16777216
370
    -2
100
AcDbLine
 10
116.949833420882
 20
1019.23593421291
 30
0.0
 11
116.949833420882
 21
1053.799470425412
 31
0.0
  0
LINE
  5
1C180
330
1427B
100
AcDbEntity
  8
30
  6
Continuous
 62
     0
440
 16777216
370
    -2
100
AcDbLine
 10
161.949833420882
 20
979.2359342129097
 30
0.0
 11
161.949833420882
 21
1053.799470425412
 31
0.0
  0
LINE
  5
1C181
330
1427B
100
AcDbEntity
  8
30
  6
Continuous
 62
     0
440
 16777216
370
    -2
100
AcDbLine
 10
118.949833420882
 20
1053.299470425412
 30
0.0
 11
159.949833420882
 21
1053.299470425412
 31
0.0
  0
INSERT
  5
1C182
330
1427B
100
AcDbEntity
  8
30
  6
Continuous
 62
     0
440
 16777216
370
    -2
100
AcDbBlockReference
  2
_OPEN
 10
116.949833420882
 20
1053.299470425412
 30
0.0
 41
2.0
 42
2.0
 43
2.0
 50
180.0
  0
INSERT
  5
1C183
330
1427B
100
AcDbEntity
  8
30
  6
Continuous
 62
     0
440
 16777216
370
    -2
100
AcDbBlockReference
  2
_OPEN
 10
161.949833420882
 20
1053.299470425412
 30
0.0
 41
2.0
 42
2.0
 43
2.0
  0
MTEXT
  5
1C184
330
1427B
100
AcDbEntity
  8
30
  6
Continuous
440
 16777216
100
AcDbMText
 10
139.449833420882
 20
1060.299470425412
 30
0.0
 40
8.0
 41
0.0
 46
0.0
 71
     5
 72
     1
  1
\A1;45
 73
     1
 44
1.0
 90
        3
 63
     9
421
 13158600
 45
1.25
441
        0
  0
POINT
  5
1C185
330
1427B
100
AcDbEntity
  8
DEFPOINTS
  6
Continuous
 62
     0
440
 16777216
100
AcDbPoint
 10
116.949833420882
 20
1018.23593421291
 30
0.0
  0
POINT
  5
1C186
330
1427B
100
AcDbEntity
  8
DEFPOINTS
  6
Continuous
 62
     0
440
 16777216
100
AcDbPoint
 10
161.949833420882
 20
978.2359342129096
 30
0.0
  0
POINT
  5
1C187
330
1427B
100
AcDbEntity
  8
DEFPOINTS
  6
Continuous
 62
     0
440
 16777216
100
AcDbPoint
 10
161.949833420882
 20
1053.299470425412
 30
0.0
  0
ENDBLK
  5
1427D
330
1427B
100
AcDbEntity
  8
0
100
AcDbBlockEnd
  0
BLOCK
  5
14288
330
14287
100
AcDbEntity
  8
0
100
AcDbBlockBegin
  2
*D12
 70
     1
 10
0.0
 20
0.0
 30
0.0
  3
*D12
  1

  0
LINE
  5
1C188
330
14287
100
AcDbEntity
  8
30
  6
Continuous
 62
     0
440
 16777216
370
    -2
100
AcDbLine
 10
161.949833420882
 20
984.7359342129101
 30
0.0
 11
161.949833420882
 21
1053.799470425412
 31
0.0
  0
LINE
  5
1C189
330
14287
100
AcDbEntity
  8
30
  6
Continuous
 62
     0
440
 16777216
370
    -2
100
AcDbLine
 10
206.949833420882
 20
1019.23593421291
 30
0.0
 11
206.949833420882
 21
1053.799470425412
 31
0.0
  0
LINE
  5
1C18A
330
14287
100
AcDbEntity
  8
30
  6
Continuous
 62
     0
440
 16777216
370
    -2
100
AcDbLine
 10
163.949833420882
 20
1053.299470425412
 30
0.0
 11
204.949833420882
 21
1053.299470425412
 31
0.0
  0
INSERT
  5
1C18B
330
14287
100
AcDbEntity
  8
30
  6
Continuous
 62
     0
440
 16777216
370
    -2
100
AcDbBlockReference
  2
_OPEN
 10
161.949833420882
 20
1053.299470425412
 30
0.0
 41
2.0
 42
2.0
 43
2.0
 50
180.0
  0
INSERT
  5
1C18C
330
14287
100
AcDbEntity
  8
30
  6
Continuous
 62
     0
440
 16777216
370
    -2
100
AcDbBlockReference
  2
_OPEN
 10
206.949833420882
 20
1053.299470425412
 30
0.0
 41
2.0
 42
2.0
 43
2.0
  0
MTEXT
  5
1C18D
330
14287
100
AcDbEntity
  8
30
  6
Continuous
440
 16777216
100
AcDbMText
 10
184.449833420882
 20
1060.299470425412
 30
0.0
 40
8.0
 41
0.0
 46
0.0
 71
     5
 72
     1
  1
\A1;45
 73
     1
 44
1.0
 90
        3
 63
     9
421
 13158600
 45
1.25
441
        0
  0
POINT
  5
1C18E
330
14287
100
AcDbEntity
  8
DEFPOINTS
  6
Continuous
 62
     0
440
 16777216
100
AcDbPoint
 10
161.949833420882
 20
983.7359342129101
 30
0.0
  0
POINT
  5
1C18F
330
14287
100
AcDbEntity
  8
DEFPOINTS
  6
Continuous
 62
     0
440
 16777216
100
AcDbPoint
 10
206.949833420882
 20
1018.23593421291
 30
0.0
  0
POINT
  5
1C190
330
14287
100
AcDbEntity
  8
DEFPOINTS
  6
Continuous
 62
     0
440
 16777216
100
AcDbPoint
 10
206.949833420882
 20
1053.299470425412
 30
0.0
  0
ENDBLK
  5
14289
330
14287
100
AcDbEntity
  8
0
100
AcDbBlockEnd
  0
BLOCK
  5
14294
330
14293
100
AcDbEntity
  8
0
100
AcDbBlockBegin
  2
*D13
 70
     1
 10
0.0
 20
0.0
 30
0.0
  3
*D13
  1

  0
LINE
  5
1C191
330
14293
100
AcDbEntity
  8
30
  6
Continuous
 62
     0
440
 16777216
370
    -2
100
AcDbLine
 10
527.6008571329676
 20
163.07232407759
 30
0.0
 11
527.6008571329676
 21
48.86550365985056
 31
0.0
  0
LINE
  5
1C192
330
14293
100
AcDbEntity
  8
30
  6
Continuous
 62
     0
440
 16777216
370
    -2
100
AcDbLine
 10
580.6008571329676
 20
163.07232407759
 30
0.0
 11
580.6008571329676
 21
48.86550365985056
 31
0.0
  0
LINE
  5
1C193
330
14293
100
AcDbEntity
  8
30
  6
Continuous
 62
     0
440
 16777216
370
    -2
100
AcDbLine
 10
529.6008571329675
 20
49.36550365985056
 30
0.0
 11
578.6008571329675
 21
49.36550365985056
 31
0.0
  0
INSERT
  5
1C194
330
14293
100
AcDbEntity
  8
30
  6
Continuous
 62
     0
440
 16777216
370
    -2
100
AcDbBlockReference
  2
_OPEN
 10
527.6008571329676
 20
49.36550365985056
 30
0.0
 41
2.0
 42
2.0
 43
2.0
 50
180.0
  0
INSERT
  5
1C195
330
14293
100
AcDbEntity
  8
30
  6
Continuous
 62
     0
440
 16777216
370
    -2
100
AcDbBlockReference
  2
_OPEN
 10
580.6008571329676
 20
49.36550365985056
 30
0.0
 41
2.0
 42
2.0
 43
2.0
  0
MTEXT
  5
1C196
330
14293
100
AcDbEntity
  8
30
  6
Continuous
440
 16777216
100
AcDbMText
 10
554.1008571329675
 20
56.36550365985056
 30
0.0
 40
8.0
 41
0.0
 46
0.0
 71
     5
 72
     1
  1
\A1;53
 73
     1
 44
1.0
 90
        3
 63
     9
421
 13158600
 45
1.25
441
        0
  0
POINT
  5
1C197
330
14293
100
AcDbEntity
  8
DEFPOINTS
  6
Continuous
 62
     0
440
 16777216
100
AcDbPoint
 10
527.6008571329676
 20
164.07232407759
 30
0.0
  0
POINT
  5
1C198
330
14293
100
AcDbEntity
  8
DEFPOINTS
  6
Continuous
 62
     0
440
 16777216
100
AcDbPoint
 10
580.6008571329676
 20
164.07232407759
 30
0.0
  0
POINT
  5
1C199
330
14293
100
AcDbEntity
  8
DEFPOINTS
  6
Continuous
 62
     0
440
 16777216
100
AcDbPoint
 10
580.6008571329676
 20
49.36550365985056
 30
0.0
  0
ENDBLK
  5
14295
330
14293
100
AcDbEntity
  8
0
100
AcDbBlockEnd
  0
BLOCK
  5
142A0
330
1429F
100
AcDbEntity
  8
0
100
AcDbBlockBegin
  2
*D14
 70
     1
 10
0.0
 20
0.0
 30
0.0
  3
*D14
  1

  0
LINE
  5
1C19A
330
1429F
100
AcDbEntity
  8
30
  6
Continuous
 62
     0
440
 16777216
370
    -2
100
AcDbLine
 10
581.6428397460659
 20
257.4531278759601
 30
0.0
 11
690.375384002422
 21
257.45312787596
 31
0.0
  0
LINE
  5
1C19B
330
1429F
100
AcDbEntity
  8
30
  6
Continuous
 62
     0
440
 16777216
370
    -2
100
AcDbLine
 10
581.6428397460659
 20
165.4531278759599
 30
0.0
 11
690.3753840024219
 21
165.4531278759599
 31
0.0
  0
LINE
  5
1C19C
330
1429F
100
AcDbEntity
  8
30
  6
Continuous
 62
     0
440
 16777216
370
    -2
100
AcDbLine
 10
689.8753840024219
 20
255.4531278759601
 30
0.0
 11
689.8753840024219
 21
167.4531278759599
 31
0.0
  0
INSERT
  5
1C19D
330
1429F
100
AcDbEntity
  8
30
  6
Continuous
 62
     0
440
 16777216
370
    -2
100
AcDbBlockReference
  2
_OPEN
 10
689.875384002422
 20
257.45312787596
 30
0.0
 41
2.0
 42
2.0
 43
2.0
 50
90.0
  0
INSERT
  5
1C19E
330
1429F
100
AcDbEntity
  8
30
  6
Continuous
 62
     0
440
 16777216
370
    -2
100
AcDbBlockReference
  2
_OPEN
 10
689.8753840024219
 20
165.4531278759599
 30
0.0
 41
2.0
 42
2.0
 43
2.0
 50
270.0
  0
MTEXT
  5
1C19F
330
1429F
100
AcDbEntity
  8
30
  6
Continuous
440
 16777216
100
AcDbMText
 10
682.8753840024219
 20
211.45312787596
 30
0.0
 40
8.0
 41
0.0
 46
0.0
 71
     5
 72
     1
  1
\A1;92
 11
0.0000000000000001
 21
1.0
 31
0.0
 73
     1
 44
1.0
 90
        3
 63
     9
421
 13158600
 45
1.25
441
        0
  0
POINT
  5
1C1A0
330
1429F
100
AcDbEntity
  8
DEFPOINTS
  6
Continuous
 62
     0
440
 16777216
100
AcDbPoint
 10
580.6428397460657
 20
257.4531278759601
 30
0.0
  0
POINT
  5
1C1A1
330
1429F
100
AcDbEntity
  8
DEFPOINTS
  6
Continuous
 62
     0
440
 16777216
100
AcDbPoint
 10
580.6428397460657
 20
165.4531278759599
 30
0.0
  0
POINT
  5
1C1A2
330
1429F
100
AcDbEntity
  8
DEFPOINTS
  6
Continuous
 62
     0
440
 16777216
100
AcDbPoint
 10
689.8753840024219
 20
165.4531278759599
 30
0.0
  0
ENDBLK
  5
142A1
330
1429F
100
AcDbEntity
  8
0
100
AcDbBlockEnd
  0
BLOCK
  5
142B6
330
142B5
100
AcDbEntity
  8
0
100
AcDbBlockBegin
  2
*D15
 70
     1
 10
0.0
 20
0.0
 30
0.0
  3
*D15
  1

  0
LINE
  5
1C1A3
330
142B5
100
AcDbEntity
  8
30
  6
Continuous
 62
     0
440
 16777216
370
    -2
100
AcDbLine
 10
297.0516664120451
 20
163.07232407759
 30
0.0
 11
297.0516664120451
 21
48.86550365985056
 31
0.0
  0
LINE
  5
1C1A4
330
142B5
100
AcDbEntity
  8
30
  6
Continuous
 62
     0
440
 16777216
370
    -2
100
AcDbLine
 10
415.0516664120448
 20
163.07232407759
 30
0.0
 11
415.0516664120448
 21
48.86550365985056
 31
0.0
  0
LINE
  5
1C1A5
330
142B5
100
AcDbEntity
  8
30
  6
Continuous
 62
     0
440
 16777216
370
    -2
100
AcDbLine
 10
299.051666412045
 20
49.36550365985056
 30
0.0
 11
413.051666412045
 21
49.36550365985056
 31
0.0
  0
INSERT
  5
1C1A6
330
142B5
100
AcDbEntity
  8
30
  6
Continuous
 62
     0
440
 16777216
370
    -2
100
AcDbBlockReference
  2
_OPEN
 10
297.0516664120451
 20
49.36550365985056
 30
0.0
 41
2.0
 42
2.0
 43
2.0
 50
180.0
  0
INSERT
  5
1C1A7
330
142B5
100
AcDbEntity
  8
30
  6
Continuous
 62
     0
440
 16777216
370
    -2
100
AcDbBlockReference
  2
_OPEN
 10
415.0516664120448
 20
49.36550365985056
 30
0.0
 41
2.0
 42
2.0
 43
2.0
  0
MTEXT
  5
1C1A8
330
142B5
100
AcDbEntity
  8
30
  6
Continuous
440
 16777216
100
AcDbMText
 10
356.051666412045
 20
56.36550365985056
 30
0.0
 40
8.0
 41
0.0
 46
0.0
 71
     5
 72
     1
  1
\A1;118
 73
     1
 44
1.0
 90
        3
 63
     9
421
 13158600
 45
1.25
441
        0
  0
POINT
  5
1C1A9
330
142B5
100
AcDbEntity
  8
DEFPOINTS
  6
Continuous
 62
     0
440
 16777216
100
AcDbPoint
 10
297.0516664120451
 20
164.07232407759
 30
0.0
  0
POINT
  5
1C1AA
330
142B5
100
AcDbEntity
  8
DEFPOINTS
  6
Continuous
 62
     0
440
 16777216
100
AcDbPoint
 10
415.0516664120448
 20
164.07232407759
 30
0.0
  0
POINT
  5
1C1AB
330
142B5
100
AcDbEntity
  8
DEFPOINTS
  6
Continuous
 62
     0
440
 16777216
100
AcDbPoint
 10
415.0516664120448
 20
49.36550365985056
 30
0.0
  0
ENDBLK
  5
142B7
330
142B5
100
AcDbEntity
  8
0
100
AcDbBlockEnd
  0
BLOCK
  5
142C2
330
142C1
100
AcDbEntity
  8
0
100
AcDbBlockBegin
  2
*D16
 70
     1
 10
0.0
 20
0.0
 30
0.0
  3
*D16
  1

  0
LINE
  5
1C1AC
330
142C1
100
AcDbEntity
  8
30
  6
Continuous
 62
     0
440
 16777216
370
    -2
100
AcDbLine
 10
416.0936490251429
 20
257.4531278759601
 30
0.0
 11
443.6840474903775
 21
257.4531278759601
 31
0.0
  0
LINE
  5
1C1AD
330
142C1
100
AcDbEntity
  8
30
  6
Continuous
 62
     0
440
 16777216
370
    -2
100
AcDbLine
 10
416.0936490251429
 20
165.4531278759599
 30
0.0
 11
443.6840474903775
 21
165.4531278759599
 31
0.0
  0
LINE
  5
1C1AE
330
142C1
100
AcDbEntity
  8
30
  6
Continuous
 62
     0
440
 16777216
370
    -2
100
AcDbLine
 10
443.1840474903775
 20
255.4531278759601
 30
0.0
 11
443.1840474903775
 21
167.4531278759599
 31
0.0
  0
INSERT
  5
1C1AF
330
142C1
100
AcDbEntity
  8
30
  6
Continuous
 62
     0
440
 16777216
370
    -2
100
AcDbBlockReference
  2
_OPEN
 10
443.1840474903775
 20
257.4531278759601
 30
0.0
 41
2.0
 42
2.0
 43
2.0
 50
90.0
  0
INSERT
  5
1C1B0
330
142C1
100
AcDbEntity
  8
30
  6
Continuous
 62
     0
440
 16777216
370
    -2
100
AcDbBlockReference
  2
_OPEN
 10
443.1840474903775
 20
165.4531278759599
 30
0.0
 41
2.0
 42
2.0
 43
2.0
 50
270.0
  0
MTEXT
  5
1C1B1
330
142C1
100
AcDbEntity
  8
30
  6
Continuous
440
 16777216
100
AcDbMText
 10
436.1840474903773
 20
222.2934255048501
 30
0.0
 40
8.0
 41
0.0
 46
0.0
 71
     5
 72
     1
  1
\A1;92
 11
0.0000000000000001
 21
1.0
 31
0.0
 73
     1
 44
1.0
 90
        3
 63
     9
421
 13158600
 45
1.25
441
        0
  0
POINT
  5
1C1B2
330
142C1
100
AcDbEntity
  8
DEFPOINTS
  6
Continuous
 62
     0
440
 16777216
100
AcDbPoint
 10
415.0936490251432
 20
257.4531278759601
 30
0.0
  0
POINT
  5
1C1B3
330
142C1
100
AcDbEntity
  8
DEFPOINTS
  6
Continuous
 62
     0
440
 16777216
100
AcDbPoint
 10
415.0936490251432
 20
165.4531278759599
 30
0.0
  0
POINT
  5
1C1B4
330
142C1
100
AcDbEntity
  8
DEFPOINTS
  6
Continuous
 62
     0
440
 16777216
100
AcDbPoint
 10
443.1840474903775
 20
165.4531278759599
 30
0.0
  0
ENDBLK
  5
142C3
330
142C1
100
AcDbEntity
  8
0
100
AcDbBlockEnd
  0
BLOCK
  5
14689
330
14688
100
AcDbEntity
  8
0
100
AcDbBlockBegin
  2
*D17
 70
     1
 10
0.0
 20
0.0
 30
0.0
  3
*D17
  1

  0
LINE
  5
1BF97
330
14688
100
AcDbEntity
  8
30
  6
Continuous
 62
     0
440
 16777216
370
    -2
100
AcDbLine
 10
415.5517045838936
 20
258.3896929417411
 30
0.0
 11
436.1523459539208
 21
287.2722740576481
 31
0.0
  0
LINE
  5
1BF98
330
14688
100
AcDbEntity
  8
30
  6
Continuous
 62
     0
440
 16777216
370
    -2
100
AcDbLine
 10
436.1523459539208
 20
287.2722740576481
 30
0.0
 11
452.4856792872541
 21
287.2722740576481
 31
0.0
  0
LINE
  5
1BF99
330
14688
100
AcDbEntity
  8
30
  6
Continuous
 62
     0
440
 16777216
370
    -2
100
AcDbLine
 10
413.2289752269995
 20
255.1331720472802
 30
0.0
 11
414.3903399054988
 21
256.7614324945838
 31
0.0
  0
INSERT
  5
1BF9A
330
14688
100
AcDbEntity
  8
30
  6
Continuous
 62
     0
440
 16777216
370
    -2
100
AcDbBlockReference
  2
_OPEN
 10
414.3903399054988
 20
256.7614324945838
 30
0.0
 41
2.0
 42
2.0
 43
2.0
 50
234.5014509348104
  0
MTEXT
  5
1BF9B
330
14688
100
AcDbEntity
  8
30
  6
Continuous
 62
     0
440
 16777216
100
AcDbMText
 10
439.1523459539206
 20
298.2722740576479
 30
0.0
 40
8.0
 41
0.0
 46
0.0
 71
     1
 72
     1
  1
\A1;R2
 73
     1
 44
1.0
  0
POINT
  5
1BF9C
330
14688
100
AcDbEntity
  8
DEFPOINTS
  6
Continuous
 62
     0
440
 16777216
100
AcDbPoint
 10
414.3903399054988
 20
256.7614324945838
 30
0.0
  0
POINT
  5
1BF9D
330
14688
100
AcDbEntity
  8
DEFPOINTS
  6
Continuous
 62
     0
440
 16777216
100
AcDbPoint
 10
413.2289752269995
 20
255.1331720472802
 30
0.0
  0
ENDBLK
  5
1468A
330
14688
100
AcDbEntity
  8
0
100
AcDbBlockEnd
  0
BLOCK
  5
146AC
330
146AB
100
AcDbEntity
  8
0
100
AcDbBlockBegin
  2
*D18
 70
     1
 10
0.0
 20
0.0
 30
0.0
  3
*D18
  1

  0
LINE
  5
1BF9E
330
146AB
100
AcDbEntity
  8
30
  6
Continuous
 62
     0
440
 16777216
370
    -2
100
AcDbLine
 10
581.1008953048152
 20
258.3896929417416
 30
0.0
 11
601.7015366748418
 21
287.2722740576478
 31
0.0
  0
LINE
  5
1BF9F
330
146AB
100
AcDbEntity
  8
30
  6
Continuous
 62
     0
440
 16777216
370
    -2
100
AcDbLine
 10
601.7015366748418
 20
287.2722740576478
 30
0.0
 11
618.0348700081749
 21
287.2722740576478
 31
0.0
  0
LINE
  5
1BFA0
330
146AB
100
AcDbEntity
  8
30
  6
Continuous
 62
     0
440
 16777216
370
    -2
100
AcDbLine
 10
578.7781659479215
 20
255.1331720472806
 30
0.0
 11
579.9395306264202
 21
256.7614324945842
 31
0.0
  0
INSERT
  5
1BFA1
330
146AB
100
AcDbEntity
  8
30
  6
Continuous
 62
     0
440
 16777216
370
    -2
100
AcDbBlockReference
  2
_OPEN
 10
579.9395306264202
 20
256.7614324945842
 30
0.0
 41
2.0
 42
2.0
 43
2.0
 50
234.501450934811
  0
MTEXT
  5
1BFA2
330
146AB
100
AcDbEntity
  8
30
  6
Continuous
 62
     0
440
 16777216
100
AcDbMText
 10
604.7015366748412
 20
298.2722740576481
 30
0.0
 40
8.0
 41
0.0
 46
0.0
 71
     1
 72
     1
  1
\A1;R2
 73
     1
 44
1.0
  0
POINT
  5
1BFA3
330
146AB
100
AcDbEntity
  8
DEFPOINTS
  6
Continuous
 62
     0
440
 16777216
100
AcDbPoint
 10
579.9395306264202
 20
256.7614324945842
 30
0.0
  0
POINT
  5
1BFA4
330
146AB
100
AcDbEntity
  8
DEFPOINTS
  6
Continuous
 62
     0
440
 16777216
100
AcDbPoint
 10
578.7781659479215
 20
255.1331720472806
 30
0.0
  0
ENDBLK
  5
146AD
330
146AB
100
AcDbEntity
  8
0
100
AcDbBlockEnd
  0
BLOCK
  5
15DF0
330
15DEF
100
AcDbEntity
  8
0
100
AcDbBlockBegin
  2
*D19
 70
     1
 10
0.0
 20
0.0
 30
0.0
  3
*D19
  1

  0
LINE
  5
1BFA5
330
15DEF
100
AcDbEntity
  8
30
  6
Continuous
 62
     0
440
 16777216
370
    -2
100
AcDbLine
 10
59.59325047253151
 20
564.4938972774822
 30
0.0
 11
59.59325047253151
 21
540.1551184310098
 31
0.0
  0
LINE
  5
1BFA6
330
15DEF
100
AcDbEntity
  8
30
  6
Continuous
 62
     0
440
 16777216
370
    -2
100
AcDbLine
 10
175.5932504725315
 20
564.4938972774822
 30
0.0
 11
175.5932504725315
 21
540.1551184310098
 31
0.0
  0
LINE
  5
1BFA7
330
15DEF
100
AcDbEntity
  8
30
  6
Continuous
 62
     0
440
 16777216
370
    -2
100
AcDbLine
 10
61.59325047253151
 20
540.6551184310098
 30
0.0
 11
173.5932504725315
 21
540.6551184310098
 31
0.0
  0
INSERT
  5
1BFA8
330
15DEF
100
AcDbEntity
  8
30
  6
Continuous
 62
     0
440
 16777216
370
    -2
100
AcDbBlockReference
  2
_OPEN
 10
59.59325047253151
 20
540.6551184310098
 30
0.0
 41
2.0
 42
2.0
 43
2.0
 50
180.0
  0
INSERT
  5
1BFA9
330
15DEF
100
AcDbEntity
  8
30
  6
Continuous
 62
     0
440
 16777216
370
    -2
100
AcDbBlockReference
  2
_OPEN
 10
175.5932504725315
 20
540.6551184310098
 30
0.0
 41
2.0
 42
2.0
 43
2.0
  0
MTEXT
  5
1BFAA
330
15DEF
100
AcDbEntity
  8
30
  6
Continuous
440
 16777216
100
AcDbMText
 10
117.5932504725315
 20
547.6551184310095
 30
0.0
 40
8.0
 41
0.0
 46
0.0
 71
     5
 72
     1
  1
\A1;116
 73
     1
 44
1.0
 90
        3
 63
     9
421
 13158600
 45
1.25
441
        0
  0
POINT
  5
1BFAB
330
15DEF
100
AcDbEntity
  8
DEFPOINTS
  6
Continuous
 62
     0
440
 16777216
100
AcDbPoint
 10
59.59325047253151
 20
565.4938972774822
 30
0.0
  0
POINT
  5
1BFAC
330
15DEF
100
AcDbEntity
  8
DEFPOINTS
  6
Continuous
 62
     0
440
 16777216
100
AcDbPoint
 10
175.5932504725315
 20
565.4938972774822
 30
0.0
  0
POINT
  5
1BFAD
330
15DEF
100
AcDbEntity
  8
DEFPOINTS
  6
Continuous
 62
     0
440
 16777216
100
AcDbPoint
 10
175.5932504725315
 20
540.6551184310098
 30
0.0
  0
ENDBLK
  5
15DF1
330
15DEF
100
AcDbEntity
  8
0
100
AcDbBlockEnd
  0
BLOCK
  5
15DFC
330
15DFB
100
AcDbEntity
  8
0
100
AcDbBlockBegin
  2
*D20
 70
     1
 10
0.0
 20
0.0
 30
0.0
  3
*D20
  1

  0
LINE
  5
1BFAE
330
15DFB
100
AcDbEntity
  8
30
  6
Continuous
 62
     0
440
 16777216
370
    -2
100
AcDbLine
 10
143.0719609780312
 20
655.4938972774822
 30
0.0
 11
143.0719609780312
 21
667.0210103932864
 31
0.0
  0
LINE
  5
1BFAF
330
15DFB
100
AcDbEntity
  8
30
  6
Continuous
 62
     0
440
 16777216
370
    -2
100
AcDbLine
 10
92.0932504725315
 20
655.4938972774822
 30
0.0
 11
92.0932504725315
 21
667.0210103932864
 31
0.0
  0
LINE
  5
1BFB0
330
15DFB
100
AcDbEntity
  8
30
  6
Continuous
 62
     0
440
 16777216
370
    -2
100
AcDbLine
 10
141.0719609780312
 20
666.5210103932865
 30
0.0
 11
94.09325047253151
 21
666.5210103932865
 31
0.0
  0
INSERT
  5
1BFB1
330
15DFB
100
AcDbEntity
  8
30
  6
Continuous
 62
     0
440
 16777216
370
    -2
100
AcDbBlockReference
  2
_OPEN
 10
143.0719609780312
 20
666.5210103932865
 30
0.0
 41
2.0
 42
2.0
 43
2.0
  0
INSERT
  5
1BFB2
330
15DFB
100
AcDbEntity
  8
30
  6
Continuous
 62
     0
440
 16777216
370
    -2
100
AcDbBlockReference
  2
_OPEN
 10
92.0932504725315
 20
666.5210103932865
 30
0.0
 41
2.0
 42
2.0
 43
2.0
 50
180.0
  0
MTEXT
  5
1BFB3
330
15DFB
100
AcDbEntity
  8
30
  6
Continuous
440
 16777216
100
AcDbMText
 10
117.5826057252814
 20
673.5210103932862
 30
0.0
 40
8.0
 41
0.0
 46
0.0
 71
     5
 72
     1
  1
\A1;51
 73
     1
 44
1.0
 90
        3
 63
     9
421
 13158600
 45
1.25
441
        0
  0
POINT
  5
1BFB4
330
15DFB
100
AcDbEntity
  8
DEFPOINTS
  6
Continuous
 62
     0
440
 16777216
100
AcDbPoint
 10
143.0719609780312
 20
654.4938972774822
 30
0.0
  0
POINT
  5
1BFB5
330
15DFB
100
AcDbEntity
  8
DEFPOINTS
  6
Continuous
 62
     0
440
 16777216
100
AcDbPoint
 10
92.0932504725315
 20
654.4938972774822
 30
0.0
  0
POINT
  5
1BFB6
330
15DFB
100
AcDbEntity
  8
DEFPOINTS
  6
Continuous
 62
     0
440
 16777216
100
AcDbPoint
 10
92.0932504725315
 20
666.5210103932865
 30
0.0
  0
ENDBLK
  5
15DFD
330
15DFB
100
AcDbEntity
  8
0
100
AcDbBlockEnd
  0
BLOCK
  5
19BC7
330
19BC6
100
AcDbEntity
  8
0
100
AcDbBlockBegin
  2
*D21
 70
     1
 10
0.0
 20
0.0
 30
0.0
  3
*D21
  1

  0
LINE
  5
1C42C
330
19BC6
100
AcDbEntity
  8
30
  6
Continuous
 62
     0
440
 16777216
370
    -2
100
AcDbLine
 10
645.0623810060898
 20
727.4938972774823
 30
0.0
 11
661.7126651760973
 21
727.4938972774823
 31
0.0
  0
LINE
  5
1C42D
330
19BC6
100
AcDbEntity
  8
30
  6
Continuous
 62
     0
440
 16777216
370
    -2
100
AcDbLine
 10
645.0623810060898
 20
719.4938972774823
 30
0.0
 11
661.7126651760973
 21
719.4938972774823
 31
0.0
  0
LINE
  5
1C42E
330
19BC6
100
AcDbEntity
  8
30
  6
Continuous
 62
     0
440
 16777216
370
    -2
100
AcDbLine
 10
661.2126651760973
 20
729.4938972774823
 30
0.0
 11
661.2126651760973
 21
731.4938972774823
 31
0.0
  0
LINE
  5
1C42F
330
19BC6
100
AcDbEntity
  8
30
  6
Continuous
 62
     0
440
 16777216
370
    -2
100
AcDbLine
 10
661.2126651760973
 20
717.4938972774823
 30
0.0
 11
661.2126651760973
 21
704.1605639441489
 31
0.0
  0
INSERT
  5
1C430
330
19BC6
100
AcDbEntity
  8
30
  6
Continuous
 62
     0
440
 16777216
370
    -2
100
AcDbBlockReference
  2
_OPEN
 10
661.2126651760973
 20
727.4938972774823
 30
0.0
 41
2.0
 42
2.0
 43
2.0
 50
270.0
  0
INSERT
  5
1C431
330
19BC6
100
AcDbEntity
  8
30
  6
Continuous
 62
     0
440
 16777216
370
    -2
100
AcDbBlockReference
  2
_OPEN
 10
661.2126651760973
 20
719.4938972774823
 30
0.0
 41
2.0
 42
2.0
 43
2.0
 50
90.0
  0
MTEXT
  5
1C432
330
19BC6
100
AcDbEntity
  8
30
  6
Continuous
440
 16777216
100
AcDbMText
 10
654.2126651760971
 20
709.8272306108158
 30
0.0
 40
8.0
 41
0.0
 46
0.0
 71
     5
 72
     1
  1
\A1;8
 11
0.0000000000000001
 21
1.0
 31
0.0
 73
     1
 44
1.0
 90
        3
 63
     9
421
 13158600
 45
1.25
441
        0
  0
POINT
  5
1C433
330
19BC6
100
AcDbEntity
  8
DEFPOINTS
  6
Continuous
 62
     0
440
 16777216
100
AcDbPoint
 10
644.0623810060898
 20
727.4938972774823
 30
0.0
  0
POINT
  5
1C434
330
19BC6
100
AcDbEntity
  8
DEFPOINTS
  6
Continuous
 62
     0
440
 16777216
100
AcDbPoint
 10
644.0623810060898
 20
719.4938972774823
 30
0.0
  0
POINT
  5
1C435
330
19BC6
100
AcDbEntity
  8
DEFPOINTS
  6
Continuous
 62
     0
440
 16777216
100
AcDbPoint
 10
661.2126651760973
 20
719.4938972774823
 30
0.0
  0
ENDBLK
  5
19BC8
330
19BC6
100
AcDbEntity
  8
0
100
AcDbBlockEnd
  0
BLOCK
  5
1A077
330
1A076
100
AcDbEntity
  8
0
100
AcDbBlockBegin
  2
*D22
 70
     1
 10
0.0
 20
0.0
 30
0.0
  3
*D22
  1

  0
LINE
  5
1C1BE
330
1A076
100
AcDbEntity
  8
30
  6
Continuous
 62
     0
440
 16777216
370
    -2
100
AcDbLine
 10
418.5623827940899
 20
654.4938972774822
 30
0.0
 11
361.0644749064946
 21
654.4938972774822
 31
0.0
  0
LINE
  5
1C1BF
330
1A076
100
AcDbEntity
  8
30
  6
Continuous
 62
     0
440
 16777216
370
    -2
100
AcDbLine
 10
410.8486461786737
 20
564.4938972774822
 30
0.0
 11
361.0644749064946
 21
564.4938972774822
 31
0.0
  0
LINE
  5
1C1C0
330
1A076
100
AcDbEntity
  8
30
  6
Continuous
 62
     0
440
 16777216
370
    -2
100
AcDbLine
 10
361.5644749064947
 20
652.4938972774822
 30
0.0
 11
361.5644749064946
 21
566.4938972774822
 31
0.0
  0
INSERT
  5
1C1C1
330
1A076
100
AcDbEntity
  8
30
  6
Continuous
 62
     0
440
 16777216
370
    -2
100
AcDbBlockReference
  2
_OPEN
 10
361.5644749064947
 20
654.4938972774822
 30
0.0
 41
2.0
 42
2.0
 43
2.0
 50
90.0
  0
INSERT
  5
1C1C2
330
1A076
100
AcDbEntity
  8
30
  6
Continuous
 62
     0
440
 16777216
370
    -2
100
AcDbBlockReference
  2
_OPEN
 10
361.5644749064946
 20
564.4938972774822
 30
0.0
 41
2.0
 42
2.0
 43
2.0
 50
270.0
  0
MTEXT
  5
1C1C3
330
1A076
100
AcDbEntity
  8
30
  6
Continuous
440
 16777216
100
AcDbMText
 10
354.5644749064945
 20
609.4938972774825
 30
0.0
 40
8.0
 41
0.0
 46
0.0
 71
     5
 72
     1
  1
\A1;90
 11
0.0000000000000001
 21
1.0
 31
0.0
 73
     1
 44
1.0
 90
        3
 63
     9
421
 13158600
 45
1.25
441
        0
  0
POINT
  5
1C1C4
330
1A076
100
AcDbEntity
  8
DEFPOINTS
  6
Continuous
 62
     0
440
 16777216
100
AcDbPoint
 10
419.5623827940899
 20
654.4938972774822
 30
0.0
  0
POINT
  5
1C1C5
330
1A076
100
AcDbEntity
  8
DEFPOINTS
  6
Continuous
 62
     0
440
 16777216
100
AcDbPoint
 10
411.8486461786737
 20
564.4938972774822
 30
0.0
  0
POINT
  5
1C1C6
330
1A076
100
AcDbEntity
  8
DEFPOINTS
  6
Continuous
 62
     0
440
 16777216
100
AcDbPoint
 10
361.5644749064946
 20
564.4938972774822
 30
0.0
  0
ENDBLK
  5
1A078
330
1A076
100
AcDbEntity
  8
0
100
AcDbBlockEnd
  0
BLOCK
  5
1A28A
330
1A289
100
AcDbEntity
  8
0
100
AcDbBlockBegin
  2
*D23
 70
     1
 10
0.0
 20
0.0
 30
0.0
  3
*D23
  1

  0
LINE
  5
1C22D
330
1A289
100
AcDbEntity
  8
30
 62
     0
440
 16777216
370
    -2
100
AcDbLine
 10
45.94983342088196
 20
912.7359342129096
 30
0.0
 11
34.73619203160433
 21
912.7359342129096
 31
0.0
  0
LINE
  5
1C22E
330
1A289
100
AcDbEntity
  8
30
 62
     0
440
 16777216
370
    -2
100
AcDbLine
 10
60.44983342088197
 20
967.7359342129101
 30
0.0
 11
34.73619203160434
 21
967.7359342129101
 31
0.0
  0
LINE
  5
1C22F
330
1A289
100
AcDbEntity
  8
30
 62
     0
440
 16777216
370
    -2
100
AcDbLine
 10
35.23619203160432
 20
914.7359342129099
 30
0.0
 11
35.23619203160432
 21
965.7359342129099
 31
0.0
  0
INSERT
  5
1C230
330
1A289
100
AcDbEntity
  8
30
 62
     0
440
 16777216
370
    -2
100
AcDbBlockReference
  2
_OPEN
 10
35.23619203160432
 20
912.7359342129096
 30
0.0
 41
2.0
 42
2.0
 43
2.0
 50
270.0
  0
INSERT
  5
1C231
330
1A289
100
AcDbEntity
  8
30
 62
     0
440
 16777216
370
    -2
100
AcDbBlockReference
  2
_OPEN
 10
35.23619203160432
 20
967.7359342129101
 30
0.0
 41
2.0
 42
2.0
 43
2.0
 50
90.0
  0
MTEXT
  5
1C232
330
1A289
100
AcDbEntity
  8
30
440
 16777216
100
AcDbMText
 10
28.23619203160418
 20
940.2359342129097
 30
0.0
 40
8.0
 41
0.0
 46
0.0
 71
     5
 72
     1
  1
\A1;55
 11
0.0000000000000001
 21
1.0
 31
0.0
 73
     1
 44
1.0
 90
        3
 63
     9
421
 13158600
 45
1.25
441
        0
  0
POINT
  5
1C233
330
1A289
100
AcDbEntity
  8
DEFPOINTS
 62
     0
440
 16777216
100
AcDbPoint
 10
46.94983342088199
 20
912.7359342129096
 30
0.0
  0
POINT
  5
1C234
330
1A289
100
AcDbEntity
  8
DEFPOINTS
 62
     0
440
 16777216
100
AcDbPoint
 10
61.44983342088199
 20
967.7359342129101
 30
0.0
  0
POINT
  5
1C235
330
1A289
100
AcDbEntity
  8
DEFPOINTS
 62
     0
440
 16777216
100
AcDbPoint
 10
35.23619203160432
 20
967.7359342129101
 30
0.0
  0
ENDBLK
  5
1A28B
330
1A289
100
AcDbEntity
  8
0
100
AcDbBlockEnd
  0
BLOCK
  5
1A296
330
1A295
100
AcDbEntity
  8
0
100
AcDbBlockBegin
  2
*D24
 70
     1
 10
0.0
 20
0.0
 30
0.0
  3
*D24
  1

  0
LINE
  5
1C224
330
1A295
100
AcDbEntity
  8
30
 62
     0
440
 16777216
370
    -2
100
AcDbLine
 10
45.94983342088196
 20
912.7359342129096
 30
0.0
 11
19.51597697909891
 21
912.7359342129096
 31
0.0
  0
LINE
  5
1C225
330
1A295
100
AcDbEntity
  8
30
 62
     0
440
 16777216
370
    -2
100
AcDbLine
 10
55.94983342088198
 20
983.7359342129101
 30
0.0
 11
19.51597697909892
 21
983.7359342129101
 31
0.0
  0
LINE
  5
1C226
330
1A295
100
AcDbEntity
  8
30
 62
     0
440
 16777216
370
    -2
100
AcDbLine
 10
20.01597697909891
 20
914.7359342129099
 30
0.0
 11
20.01597697909892
 21
981.7359342129099
 31
0.0
  0
INSERT
  5
1C227
330
1A295
100
AcDbEntity
  8
30
 62
     0
440
 16777216
370
    -2
100
AcDbBlockReference
  2
_OPEN
 10
20.01597697909891
 20
912.7359342129096
 30
0.0
 41
2.0
 42
2.0
 43
2.0
 50
270.0
  0
INSERT
  5
1C228
330
1A295
100
AcDbEntity
  8
30
 62
     0
440
 16777216
370
    -2
100
AcDbBlockReference
  2
_OPEN
 10
20.01597697909892
 20
983.7359342129101
 30
0.0
 41
2.0
 42
2.0
 43
2.0
 50
90.0
  0
MTEXT
  5
1C229
330
1A295
100
AcDbEntity
  8
30
440
 16777216
100
AcDbMText
 10
13.01597697909876
 20
948.23593421291
 30
0.0
 40
8.0
 41
0.0
 46
0.0
 71
     5
 72
     1
  1
\A1;71
 11
0.0000000000000001
 21
1.0
 31
0.0
 73
     1
 44
1.0
 90
        3
 63
     9
421
 13158600
 45
1.25
441
        0
  0
POINT
  5
1C22A
330
1A295
100
AcDbEntity
  8
DEFPOINTS
 62
     0
440
 16777216
100
AcDbPoint
 10
46.94983342088199
 20
912.7359342129096
 30
0.0
  0
POINT
  5
1C22B
330
1A295
100
AcDbEntity
  8
DEFPOINTS
 62
     0
440
 16777216
100
AcDbPoint
 10
56.949833420882
 20
983.7359342129101
 30
0.0
  0
POINT
  5
1C22C
330
1A295
100
AcDbEntity
  8
DEFPOINTS
 62
     0
440
 16777216
100
AcDbPoint
 10
20.01597697909892
 20
983.7359342129101
 30
0.0
  0
ENDBLK
  5
1A297
330
1A295
100
AcDbEntity
  8
0
100
AcDbBlockEnd
  0
BLOCK
  5
1A2B6
330
1A2B5
100
AcDbEntity
  8
0
100
AcDbBlockBegin
  2
*D25
 70
     1
 10
0.0
 20
0.0
 30
0.0
  3
*D25
  1

  0
LINE
  5
1C3B9
330
1A2B5
100
AcDbEntity
  8
30
 62
     0
440
 16777216
370
    -2
100
AcDbLine
 10
249.5723390344438
 20
912.7359342129096
 30
0.0
 11
287.18485774692
 21
912.7359342129096
 31
0.0
  0
LINE
  5
1C3BA
330
1A2B5
100
AcDbEntity
  8
30
 62
     0
440
 16777216
370
    -2
100
AcDbLine
 10
218.4498334208815
 20
1007.73593421291
 30
0.0
 11
287.18485774692
 21
1007.73593421291
 31
0.0
  0
LINE
  5
1C3BB
330
1A2B5
100
AcDbEntity
  8
30
 62
     0
440
 16777216
370
    -2
100
AcDbLine
 10
286.68485774692
 20
914.7359342129096
 30
0.0
 11
286.68485774692
 21
1005.73593421291
 31
0.0
  0
INSERT
  5
1C3BC
330
1A2B5
100
AcDbEntity
  8
30
 62
     0
440
 16777216
370
    -2
100
AcDbBlockReference
  2
_OPEN
 10
286.68485774692
 20
912.7359342129096
 30
0.0
 41
2.0
 42
2.0
 43
2.0
 50
270.0
  0
INSERT
  5
1C3BD
330
1A2B5
100
AcDbEntity
  8
30
 62
     0
440
 16777216
370
    -2
100
AcDbBlockReference
  2
_OPEN
 10
286.68485774692
 20
1007.73593421291
 30
0.0
 41
2.0
 42
2.0
 43
2.0
 50
90.0
  0
MTEXT
  5
1C3BE
330
1A2B5
100
AcDbEntity
  8
30
440
 16777216
100
AcDbMText
 10
279.6848577469198
 20
960.2359342129096
 30
0.0
 40
8.0
 41
0.0
 46
0.0
 71
     5
 72
     1
  1
\A1;95
 11
0.0000000000000001
 21
1.0
 31
0.0
 73
     1
 44
1.0
 90
        3
 63
     9
421
 13158600
 45
1.25
441
        0
  0
POINT
  5
1C3BF
330
1A2B5
100
AcDbEntity
  8
DEFPOINTS
 62
     0
440
 16777216
100
AcDbPoint
 10
248.5723390344438
 20
912.7359342129096
 30
0.0
  0
POINT
  5
1C3C0
330
1A2B5
100
AcDbEntity
  8
DEFPOINTS
 62
     0
440
 16777216
100
AcDbPoint
 10
217.4498334208815
 20
1007.73593421291
 30
0.0
  0
POINT
  5
1C3C1
330
1A2B5
100
AcDbEntity
  8
DEFPOINTS
 62
     0
440
 16777216
100
AcDbPoint
 10
286.68485774692
 20
1007.73593421291
 30
0.0
  0
ENDBLK
  5
1A2B7
330
1A2B5
100
AcDbEntity
  8
0
100
AcDbBlockEnd
  0
BLOCK
  5
1A2C2
330
1A2C1
100
AcDbEntity
  8
0
100
AcDbBlockBegin
  2
*D26
 70
     1
 10
0.0
 20
0.0
 30
0.0
  3
*D26
  1

  0
LINE
  5
1C363
330
1A2C1
100
AcDbEntity
  8
30
 62
     0
440
 16777216
370
    -2
100
AcDbLine
 10
231.0
 20
912.7359342129096
 30
0.0
 11
306.2411227387256
 21
912.7359342129096
 31
0.0
  0
LINE
  5
1C364
330
1A2C1
100
AcDbEntity
  8
30
 62
     0
440
 16777216
370
    -2
100
AcDbLine
 10
222.9498334208815
 20
1023.73593421291
 30
0.0
 11
306.2411227387256
 21
1023.73593421291
 31
0.0
  0
LINE
  5
1C365
330
1A2C1
100
AcDbEntity
  8
30
 62
     0
440
 16777216
370
    -2
100
AcDbLine
 10
305.7411227387256
 20
914.7359342129096
 30
0.0
 11
305.7411227387256
 21
1021.73593421291
 31
0.0
  0
INSERT
  5
1C366
330
1A2C1
100
AcDbEntity
  8
30
 62
     0
440
 16777216
370
    -2
100
AcDbBlockReference
  2
_OPEN
 10
305.7411227387256
 20
912.7359342129096
 30
0.0
 41
2.0
 42
2.0
 43
2.0
 50
270.0
  0
INSERT
  5
1C367
330
1A2C1
100
AcDbEntity
  8
30
 62
     0
440
 16777216
370
    -2
100
AcDbBlockReference
  2
_OPEN
 10
305.7411227387256
 20
1023.73593421291
 30
0.0
 41
2.0
 42
2.0
 43
2.0
 50
90.0
  0
MTEXT
  5
1C368
330
1A2C1
100
AcDbEntity
  8
30
440
 16777216
100
AcDbMText
 10
298.7411227387255
 20
968.2359342129096
 30
0.0
 40
8.0
 41
0.0
 46
0.0
 71
     5
 72
     1
  1
\A1;111
 11
0.0000000000000001
 21
1.0
 31
0.0
 73
     1
 44
1.0
 90
        3
 63
     9
421
 13158600
 45
1.25
441
        0
  0
POINT
  5
1C369
330
1A2C1
100
AcDbEntity
  8
DEFPOINTS
 62
     0
440
 16777216
100
AcDbPoint
 10
230.0
 20
912.7359342129096
 30
0.0
  0
POINT
  5
1C36A
330
1A2C1
100
AcDbEntity
  8
DEFPOINTS
 62
     0
440
 16777216
100
AcDbPoint
 10
221.9498334208815
 20
1023.73593421291
 30
0.0
  0
POINT
  5
1C36B
330
1A2C1
100
AcDbEntity
  8
DEFPOINTS
 62
     0
440
 16777216
100
AcDbPoint
 10
305.7411227387256
 20
1023.73593421291
 30
0.0
  0
ENDBLK
  5
1A2C3
330
1A2C1
100
AcDbEntity
  8
0
100
AcDbBlockEnd
  0
BLOCK
  5
1A51D
330
1A51C
100
AcDbEntity
  8
0
100
AcDbBlockBegin
  2
*D27
 70
     1
 10
0.0
 20
0.0
 30
0.0
  3
*D27
  1

  0
LINE
  5
1C2E3
330
1A51C
100
AcDbEntity
  8
30
  6
Continuous
 62
     0
440
 16777216
370
    -2
100
AcDbLine
 10
403.0623810060896
 20
611.0000000000001
 30
0.0
 11
403.0623810060896
 21
424.7947567027348
 31
0.0
  0
LINE
  5
1C2E4
330
1A51C
100
AcDbEntity
  8
30
  6
Continuous
 62
     0
440
 16777216
370
    -2
100
AcDbLine
 10
533.0623810060897
 20
478.4938972774822
 30
0.0
 11
533.0623810060897
 21
424.7947567027348
 31
0.0
  0
LINE
  5
1C2E5
330
1A51C
100
AcDbEntity
  8
30
  6
Continuous
 62
     0
440
 16777216
370
    -2
100
AcDbLine
 10
405.0623810060897
 20
425.2947567027348
 30
0.0
 11
531.0623810060897
 21
425.2947567027348
 31
0.0
  0
INSERT
  5
1C2E6
330
1A51C
100
AcDbEntity
  8
30
  6
Continuous
 62
     0
440
 16777216
370
    -2
100
AcDbBlockReference
  2
_OPEN
 10
403.0623810060896
 20
425.2947567027348
 30
0.0
 41
2.0
 42
2.0
 43
2.0
 50
180.0
  0
INSERT
  5
1C2E7
330
1A51C
100
AcDbEntity
  8
30
  6
Continuous
 62
     0
440
 16777216
370
    -2
100
AcDbBlockReference
  2
_OPEN
 10
533.0623810060897
 20
425.2947567027348
 30
0.0
 41
2.0
 42
2.0
 43
2.0
  0
MTEXT
  5
1C2E8
330
1A51C
100
AcDbEntity
  8
30
  6
Continuous
440
 16777216
100
AcDbMText
 10
468.0623810060897
 20
436.2947567027348
 30
0.0
 40
8.0
 41
0.0
 46
0.0
 71
     2
 72
     1
  1
\A1;130
 73
     1
 44
1.0
 90
        3
 63
     9
421
 13158600
 45
1.25
441
        0
  0
POINT
  5
1C2E9
330
1A51C
100
AcDbEntity
  8
DEFPOINTS
  6
Continuous
 62
     0
440
 16777216
100
AcDbPoint
 10
403.0623810060896
 20
612.0
 30
0.0
  0
POINT
  5
1C2EA
330
1A51C
100
AcDbEntity
  8
DEFPOINTS
  6
Continuous
 62
     0
440
 16777216
100
AcDbPoint
 10
533.0623810060897
 20
479.4938972774824
 30
0.0
  0
POINT
  5
1C2EB
330
1A51C
100
AcDbEntity
  8
DEFPOINTS
  6
Continuous
 62
     0
440
 16777216
100
AcDbPoint
 10
533.0623810060897
 20
425.2947567027348
 30
0.0
  0
ENDBLK
  5
1A51E
330
1A51C
100
AcDbEntity
  8
0
100
AcDbBlockEnd
  0
BLOCK
  5
1A529
330
1A528
100
AcDbEntity
  8
0
100
AcDbBlockBegin
  2
*D28
 70
     1
 10
0.0
 20
0.0
 30
0.0
  3
*D28
  1

  0
LINE
  5
1C2EC
330
1A528
100
AcDbEntity
  8
30
  6
Continuous
 62
     0
440
 16777216
370
    -2
100
AcDbLine
 10
430.0623810060897
 20
528.3264926460256
 30
0.0
 11
430.0623810060897
 21
456.8348303280521
 31
0.0
  0
LINE
  5
1C2ED
330
1A528
100
AcDbEntity
  8
30
  6
Continuous
 62
     0
440
 16777216
370
    -2
100
AcDbLine
 10
533.0623810060897
 20
478.4938972774822
 30
0.0
 11
533.0623810060897
 21
456.8348303280521
 31
0.0
  0
LINE
  5
1C2EE
330
1A528
100
AcDbEntity
  8
30
  6
Continuous
 62
     0
440
 16777216
370
    -2
100
AcDbLine
 10
432.0623810060896
 20
457.3348303280521
 30
0.0
 11
531.0623810060897
 21
457.3348303280521
 31
0.0
  0
INSERT
  5
1C2EF
330
1A528
100
AcDbEntity
  8
30
  6
Continuous
 62
     0
440
 16777216
370
    -2
100
AcDbBlockReference
  2
_OPEN
 10
430.0623810060897
 20
457.3348303280521
 30
0.0
 41
2.0
 42
2.0
 43
2.0
 50
180.0
  0
INSERT
  5
1C2F0
330
1A528
100
AcDbEntity
  8
30
  6
Continuous
 62
     0
440
 16777216
370
    -2
100
AcDbBlockReference
  2
_OPEN
 10
533.0623810060897
 20
457.3348303280521
 30
0.0
 41
2.0
 42
2.0
 43
2.0
  0
MTEXT
  5
1C2F1
330
1A528
100
AcDbEntity
  8
30
  6
Continuous
440
 16777216
100
AcDbMText
 10
481.562381006089
 20
468.3348303280521
 30
0.0
 40
8.0
 41
0.0
 46
0.0
 71
     2
 72
     1
  1
\A1;103
 73
     1
 44
1.0
 90
        3
 63
     9
421
 13158600
 45
1.25
441
        0
  0
POINT
  5
1C2F2
330
1A528
100
AcDbEntity
  8
DEFPOINTS
  6
Continuous
 62
     0
440
 16777216
100
AcDbPoint
 10
430.0623810060897
 20
529.3264926460254
 30
0.0
  0
POINT
  5
1C2F3
330
1A528
100
AcDbEntity
  8
DEFPOINTS
  6
Continuous
 62
     0
440
 16777216
100
AcDbPoint
 10
533.0623810060897
 20
479.4938972774824
 30
0.0
  0
POINT
  5
1C2F4
330
1A528
100
AcDbEntity
  8
DEFPOINTS
  6
Continuous
 62
     0
440
 16777216
100
AcDbPoint
 10
533.0623810060897
 20
457.3348303280521
 30
0.0
  0
ENDBLK
  5
1A52A
330
1A528
100
AcDbEntity
  8
0
100
AcDbBlockEnd
  0
BLOCK
  5
1A535
330
1A534
100
AcDbEntity
  8
0
100
AcDbBlockBegin
  2
*D29
 70
     1
 10
0.0
 20
0.0
 30
0.0
  3
*D29
  1

  0
LINE
  5
1C2F5
330
1A534
100
AcDbEntity
  8
30
  6
Continuous
 62
     0
440
 16777216
370
    -2
100
AcDbLine
 10
382.0688852365742
 20
621.0
 30
0.0
 11
382.0688852365742
 21
407.4706853769622
 31
0.0
  0
LINE
  5
1C2F6
330
1A534
100
AcDbEntity
  8
30
  6
Continuous
 62
     0
440
 16777216
370
    -2
100
AcDbLine
 10
533.0623810060897
 20
423.7947567027348
 30
0.0
 11
533.0623810060897
 21
407.4706853769622
 31
0.0
  0
LINE
  5
1C2F7
330
1A534
100
AcDbEntity
  8
30
  6
Continuous
 62
     0
440
 16777216
370
    -2
100
AcDbLine
 10
384.0688852365742
 20
407.9706853769621
 30
0.0
 11
531.0623810060897
 21
407.9706853769621
 31
0.0
  0
INSERT
  5
1C2F8
330
1A534
100
AcDbEntity
  8
30
  6
Continuous
 62
     0
440
 16777216
370
    -2
100
AcDbBlockReference
  2
_OPEN
 10
382.0688852365742
 20
407.9706853769621
 30
0.0
 41
2.0
 42
2.0
 43
2.0
 50
180.0
  0
INSERT
  5
1C2F9
330
1A534
100
AcDbEntity
  8
30
  6
Continuous
 62
     0
440
 16777216
370
    -2
100
AcDbBlockReference
  2
_OPEN
 10
533.0623810060897
 20
407.9706853769621
 30
0.0
 41
2.0
 42
2.0
 43
2.0
  0
MTEXT
  5
1C2FA
330
1A534
100
AcDbEntity
  8
30
  6
Continuous
440
 16777216
100
AcDbMText
 10
457.565633121332
 20
414.9706853769624
 30
0.0
 40
8.0
 41
0.0
 46
0.0
 71
     5
 72
     1
  1
\A1;151
 73
     1
 44
1.0
 90
        3
 63
     9
421
 13158600
 45
1.25
441
        0
  0
POINT
  5
1C2FB
330
1A534
100
AcDbEntity
  8
DEFPOINTS
  6
Continuous
 62
     0
440
 16777216
100
AcDbPoint
 10
382.0688852365742
 20
622.0000000000001
 30
0.0
  0
POINT
  5
1C2FC
330
1A534
100
AcDbEntity
  8
DEFPOINTS
  6
Continuous
 62
     0
440
 16777216
100
AcDbPoint
 10
533.0623810060897
 20
424.7947567027348
 30
0.0
  0
POINT
  5
1C2FD
330
1A534
100
AcDbEntity
  8
DEFPOINTS
  6
Continuous
 62
     0
440
 16777216
100
AcDbPoint
 10
533.0623810060897
 20
407.9706853769621
 30
0.0
  0
ENDBLK
  5
1A536
330
1A534
100
AcDbEntity
  8
0
100
AcDbBlockEnd
  0
BLOCK
  5
1A541
330
1A540
100
AcDbEntity
  8
0
100
AcDbBlockBegin
  2
*D30
 70
     1
 10
0.0
 20
0.0
 30
0.0
  3
*D30
  1

  0
LINE
  5
1C2FE
330
1A540
100
AcDbEntity
  8
30
  6
Continuous
 62
     0
440
 16777216
370
    -2
100
AcDbLine
 10
426.0623808870896
 20
556.0000000000001
 30
0.0
 11
426.0623808870896
 21
440.595349439777
 31
0.0
  0
LINE
  5
1C2FF
330
1A540
100
AcDbEntity
  8
30
  6
Continuous
 62
     0
440
 16777216
370
    -2
100
AcDbLine
 10
418.0623808870896
 20
556.0000000000001
 30
0.0
 11
418.0623808870896
 21
440.595349439777
 31
0.0
  0
LINE
  5
1C300
330
1A540
100
AcDbEntity
  8
30
  6
Continuous
 62
     0
440
 16777216
370
    -2
100
AcDbLine
 10
428.0623808870894
 20
441.0953494397771
 30
0.0
 11
430.0623808870896
 21
441.0953494397771
 31
0.0
  0
LINE
  5
1C301
330
1A540
100
AcDbEntity
  8
30
  6
Continuous
 62
     0
440
 16777216
370
    -2
100
AcDbLine
 10
416.0623808870894
 20
441.0953494397771
 30
0.0
 11
402.7290475537562
 21
441.0953494397771
 31
0.0
  0
LINE
  5
1C302
330
1A540
100
AcDbEntity
  8
30
  6
Continuous
 62
     0
440
 16777216
370
    -2
100
AcDbLine
 10
426.0623808870896
 20
441.0953494397771
 30
0.0
 11
418.0623808870896
 21
441.0953494397771
 31
0.0
  0
INSERT
  5
1C303
330
1A540
100
AcDbEntity
  8
30
  6
Continuous
 62
     0
440
 16777216
370
    -2
100
AcDbBlockReference
  2
_OPEN
 10
426.0623808870896
 20
441.0953494397771
 30
0.0
 41
2.0
 42
2.0
 43
2.0
 50
180.0
  0
INSERT
  5
1C304
330
1A540
100
AcDbEntity
  8
30
  6
Continuous
 62
     0
440
 16777216
370
    -2
100
AcDbBlockReference
  2
_OPEN
 10
418.0623808870896
 20
441.0953494397771
 30
0.0
 41
2.0
 42
2.0
 43
2.0
  0
MTEXT
  5
1C305
330
1A540
100
AcDbEntity
  8
30
  6
Continuous
 62
     0
440
 16777216
100
AcDbMText
 10
408.3957142204229
 20
448.0953494397771
 30
0.0
 40
8.0
 41
0.0
 46
0.0
 71
     5
 72
     1
  1
\A1;8
 73
     1
 44
1.0
  0
POINT
  5
1C306
330
1A540
100
AcDbEntity
  8
DEFPOINTS
  6
Continuous
 62
     0
440
 16777216
100
AcDbPoint
 10
426.0623808870896
 20
559.0000000000001
 30
0.0
  0
POINT
  5
1C307
330
1A540
100
AcDbEntity
  8
DEFPOINTS
  6
Continuous
 62
     0
440
 16777216
100
AcDbPoint
 10
418.0623808870896
 20
559.0000000000001
 30
0.0
  0
POINT
  5
1C308
330
1A540
100
AcDbEntity
  8
DEFPOINTS
  6
Continuous
 62
     0
440
 16777216
100
AcDbPoint
 10
418.0623808870896
 20
441.0953494397771
 30
0.0
  0
ENDBLK
  5
1A542
330
1A540
100
AcDbEntity
  8
0
100
AcDbBlockEnd
  0
BLOCK
  5
1A54F
330
1A54E
100
AcDbEntity
  8
0
100
AcDbBlockBegin
  2
*D31
 70
     1
 10
0.0
 20
0.0
 30
0.0
  3
*D31
  1

  0
LINE
  5
1C309
330
1A54E
100
AcDbEntity
  8
30
  6
Continuous
 62
     0
440
 16777216
370
    -2
100
AcDbLine
 10
426.0623808870896
 20
442.0953494397771
 30
0.0
 11
426.0623808870896
 21
441.5953494397771
 31
0.0
  0
LINE
  5
1C30A
330
1A54E
100
AcDbEntity
  8
30
  6
Continuous
 62
     0
440
 16777216
370
    -2
100
AcDbLine
 10
533.0623810060897
 20
456.3348303280521
 30
0.0
 11
533.0623810060897
 21
440.595349439777
 31
0.0
  0
LINE
  5
1C30B
330
1A54E
100
AcDbEntity
  8
30
  6
Continuous
 62
     0
440
 16777216
370
    -2
100
AcDbLine
 10
428.0623808870894
 20
441.0953494397771
 30
0.0
 11
531.0623810060897
 21
441.0953494397771
 31
0.0
  0
INSERT
  5
1C30C
330
1A54E
100
AcDbEntity
  8
30
  6
Continuous
 62
     0
440
 16777216
370
    -2
100
AcDbBlockReference
  2
_OPEN
 10
426.0623808870896
 20
441.0953494397771
 30
0.0
 41
2.0
 42
2.0
 43
2.0
 50
180.0
  0
INSERT
  5
1C30D
330
1A54E
100
AcDbEntity
  8
30
  6
Continuous
 62
     0
440
 16777216
370
    -2
100
AcDbBlockReference
  2
_OPEN
 10
533.0623810060897
 20
441.0953494397771
 30
0.0
 41
2.0
 42
2.0
 43
2.0
  0
MTEXT
  5
1C30E
330
1A54E
100
AcDbEntity
  8
30
  6
Continuous
440
 16777216
100
AcDbMText
 10
479.5623809465896
 20
448.0953494397771
 30
0.0
 40
8.0
 41
0.0
 46
0.0
 71
     5
 72
     1
  1
\A1;107
 73
     1
 44
1.0
 90
        3
 63
     9
421
 13158600
 45
1.25
441
        0
  0
POINT
  5
1C30F
330
1A54E
100
AcDbEntity
  8
DEFPOINTS
  6
Continuous
 62
     0
440
 16777216
100
AcDbPoint
 10
426.0623808870896
 20
441.0953494397771
 30
0.0
  0
POINT
  5
1C310
330
1A54E
100
AcDbEntity
  8
DEFPOINTS
  6
Continuous
 62
     0
440
 16777216
100
AcDbPoint
 10
533.0623810060897
 20
457.3348303280521
 30
0.0
  0
POINT
  5
1C311
330
1A54E
100
AcDbEntity
  8
DEFPOINTS
  6
Continuous
 62
     0
440
 16777216
100
AcDbPoint
 10
533.0623810060897
 20
441.0953494397771
 30
0.0
  0
ENDBLK
  5
1A550
330
1A54E
100
AcDbEntity
  8
0
100
AcDbBlockEnd
  0
BLOCK
  5
1BCBF
330
1BCBE
100
AcDbEntity
  8
0
100
AcDbBlockBegin
  2
*D32
 70
     1
 10
0.0
 20
0.0
 30
0.0
  3
*D32
  1

  0
LINE
  5
1C054
330
1BCBE
100
AcDbEntity
  8
30
  6
Continuous
 62
     0
440
 16777216
370
    -2
100
AcDbLine
 10
56.949833420882
 20
984.2359342129093
 30
0.0
 11
56.949833420882
 21
1014.016297317981
 31
0.0
  0
LINE
  5
1C055
330
1BCBE
100
AcDbEntity
  8
30
  6
Continuous
 62
     0
440
 16777216
370
    -2
100
AcDbLine
 10
86.94983342088198
 20
984.2359342129096
 30
0.0
 11
86.94983342088198
 21
1014.016297317981
 31
0.0
  0
LINE
  5
1C056
330
1BCBE
100
AcDbEntity
  8
30
  6
Continuous
 62
     0
440
 16777216
370
    -2
100
AcDbLine
 10
84.94983342088199
 20
1013.516297317981
 30
0.0
 11
58.94983342088199
 21
1013.516297317981
 31
0.0
  0
LINE
  5
1C057
330
1BCBE
100
AcDbEntity
  8
30
  6
Continuous
 62
     0
440
 16777216
370
    -2
100
AcDbLine
 10
56.949833420882
 20
1013.516297317981
 30
0.0
 11
29.13305644484353
 21
1013.516297317981
 31
0.0
  0
INSERT
  5
1C058
330
1BCBE
100
AcDbEntity
  8
30
  6
Continuous
 62
     0
440
 16777216
370
    -2
100
AcDbBlockReference
  2
_OPEN
 10
86.94983342088198
 20
1013.516297317981
 30
0.0
 41
2.0
 42
2.0
 43
2.0
  0
INSERT
  5
1C059
330
1BCBE
100
AcDbEntity
  8
30
  6
Continuous
 62
     0
440
 16777216
370
    -2
100
AcDbBlockReference
  2
_OPEN
 10
56.949833420882
 20
1013.516297317981
 30
0.0
 41
2.0
 42
2.0
 43
2.0
 50
180.0
  0
MTEXT
  5
1C05A
330
1BCBE
100
AcDbEntity
  8
30
  6
Continuous
440
 16777216
100
AcDbMText
 10
38.13305644484353
 20
1024.516297317981
 30
0.0
 40
8.0
 41
0.0
 46
0.0
 71
     2
 72
     1
  1
\A1;30
 73
     1
 44
1.0
 90
        3
 63
     9
421
 13158600
 45
1.25
441
        0
  0
POINT
  5
1C05B
330
1BCBE
100
AcDbEntity
  8
DEFPOINTS
  6
Continuous
 62
     0
440
 16777216
100
AcDbPoint
 10
56.949833420882
 20
983.2359342129096
 30
0.0
  0
POINT
  5
1C05C
330
1BCBE
100
AcDbEntity
  8
DEFPOINTS
  6
Continuous
 62
     0
440
 16777216
100
AcDbPoint
 10
86.94983342088198
 20
983.2359342129096
 30
0.0
  0
POINT
  5
1C05D
330
1BCBE
100
AcDbEntity
  8
DEFPOINTS
  6
Continuous
 62
     0
440
 16777216
100
AcDbPoint
 10
86.94983342088198
 20
1013.516297317981
 30
0.0
  0
ENDBLK
  5
1BCC0
330
1BCBE
100
AcDbEntity
  8
0
100
AcDbBlockEnd
  0
BLOCK
  5
1BCCC
330
1BCCB
100
AcDbEntity
  8
0
100
AcDbBlockBegin
  2
*D33
 70
     1
 10
0.0
 20
0.0
 30
0.0
  3
*D33
  1

  0
LINE
  5
1C05E
330
1BCCB
100
AcDbEntity
  8
30
  6
Continuous
 62
     0
440
 16777216
370
    -2
100
AcDbLine
 10
65.44983342088197
 20
973.2359342129097
 30
0.0
 11
65.44983342088197
 21
997.14243479751
 31
0.0
  0
LINE
  5
1C05F
330
1BCCB
100
AcDbEntity
  8
30
  6
Continuous
 62
     0
440
 16777216
370
    -2
100
AcDbLine
 10
78.44983342088198
 20
973.23593421291
 30
0.0
 11
78.44983342088198
 21
997.14243479751
 31
0.0
  0
LINE
  5
1C060
330
1BCCB
100
AcDbEntity
  8
30
  6
Continuous
 62
     0
440
 16777216
370
    -2
100
AcDbLine
 10
76.44983342088199
 20
996.6424347975101
 30
0.0
 11
67.449833420882
 21
996.6424347975101
 31
0.0
  0
LINE
  5
1C061
330
1BCCB
100
AcDbEntity
  8
30
  6
Continuous
 62
     0
440
 16777216
370
    -2
100
AcDbLine
 10
65.44983342088197
 20
996.6424347975101
 30
0.0
 11
30.09810026633446
 21
996.6424347975101
 31
0.0
  0
INSERT
  5
1C062
330
1BCCB
100
AcDbEntity
  8
30
  6
Continuous
 62
     0
440
 16777216
370
    -2
100
AcDbBlockReference
  2
_OPEN
 10
78.44983342088198
 20
996.6424347975101
 30
0.0
 41
2.0
 42
2.0
 43
2.0
  0
INSERT
  5
1C063
330
1BCCB
100
AcDbEntity
  8
30
  6
Continuous
 62
     0
440
 16777216
370
    -2
100
AcDbBlockReference
  2
_OPEN
 10
65.44983342088197
 20
996.6424347975101
 30
0.0
 41
2.0
 42
2.0
 43
2.0
 50
180.0
  0
MTEXT
  5
1C064
330
1BCCB
100
AcDbEntity
  8
30
  6
Continuous
440
 16777216
100
AcDbMText
 10
38.4314335996678
 20
1007.64243479751
 30
0.0
 40
8.0
 41
0.0
 46
0.0
 71
     2
 72
     1
  1
\A1;13
 73
     1
 44
1.0
 90
        3
 63
     9
421
 13158600
 45
1.25
441
        0
  0
POINT
  5
1C065
330
1BCCB
100
AcDbEntity
  8
DEFPOINTS
  6
Continuous
 62
     0
440
 16777216
100
AcDbPoint
 10
65.44983342088197
 20
972.2359342129092
 30
0.0
  0
POINT
  5
1C066
330
1BCCB
100
AcDbEntity
  8
DEFPOINTS
  6
Continuous
 62
     0
440
 16777216
100
AcDbPoint
 10
78.44983342088198
 20
972.2359342129101
 30
0.0
  0
POINT
  5
1C067
330
1BCCB
100
AcDbEntity
  8
DEFPOINTS
  6
Continuous
 62
     0
440
 16777216
100
AcDbPoint
 10
78.44983342088198
 20
996.6424347975101
 30
0.0
  0
ENDBLK
  5
1BCCD
330
1BCCB
100
AcDbEntity
  8
0
100
AcDbBlockEnd
  0
BLOCK
  5
1BDE6
330
1BDE5
100
AcDbEntity
  8
0
100
AcDbBlockBegin
  2
*D34
 70
     1
 10
0.0
 20
0.0
 30
0.0
  3
*D34
  1

  0
LINE
  5
1C33E
330
1BDE5
100
AcDbEntity
  8
30
  6
Continuous
 62
     0
440
 16777216
370
    -2
100
AcDbLine
 10
139.8506714840314
 20
448.5840344571223
 30
0.0
 11
139.8506714840314
 21
452.2830900999223
 31
0.0
  0
LINE
  5
1C33F
330
1BDE5
100
AcDbEntity
  8
30
  6
Continuous
 62
     0
440
 16777216
370
    -2
100
AcDbLine
 10
117.3506714840314
 20
470.3990331162878
 30
0.0
 11
117.3506714840314
 21
451.2830900999223
 31
0.0
  0
LINE
  5
1C340
330
1BDE5
100
AcDbEntity
  8
30
  6
Continuous
 62
     0
440
 16777216
370
    -2
100
AcDbLine
 10
137.8506714840314
 20
451.7830900999223
 30
0.0
 11
119.3506714840314
 21
451.7830900999223
 31
0.0
  0
LINE
  5
1C341
330
1BDE5
100
AcDbEntity
  8
30
  6
Continuous
 62
     0
440
 16777216
370
    -2
100
AcDbLine
 10
117.3506714840314
 20
451.7830900999223
 30
0.0
 11
85.35067148403141
 21
451.7830900999223
 31
0.0
  0
INSERT
  5
1C342
330
1BDE5
100
AcDbEntity
  8
30
  6
Continuous
 62
     0
440
 16777216
370
    -2
100
AcDbBlockReference
  2
_OPEN
 10
139.8506714840314
 20
451.7830900999223
 30
0.0
 41
2.0
 42
2.0
 43
2.0
  0
INSERT
  5
1C343
330
1BDE5
100
AcDbEntity
  8
30
  6
Continuous
 62
     0
440
 16777216
370
    -2
100
AcDbBlockReference
  2
_OPEN
 10
117.3506714840314
 20
451.7830900999223
 30
0.0
 41
2.0
 42
2.0
 43
2.0
 50
180.0
  0
MTEXT
  5
1C344
330
1BDE5
100
AcDbEntity
  8
30
  6
Continuous
440
 16777216
100
AcDbMText
 10
100.3506714840314
 20
458.7830900999223
 30
0.0
 40
8.0
 41
0.0
 46
0.0
 71
     5
 72
     1
  1
\A1;22.5
 73
     1
 44
1.0
 90
        3
 63
     9
421
 13158600
 45
1.25
441
        0
  0
POINT
  5
1C345
330
1BDE5
100
AcDbEntity
  8
DEFPOINTS
  6
Continuous
 62
     0
440
 16777216
100
AcDbPoint
 10
139.8506714840314
 20
447.5840344571223
 30
0.0
  0
POINT
  5
1C346
330
1BDE5
100
AcDbEntity
  8
DEFPOINTS
  6
Continuous
 62
     0
440
 16777216
100
AcDbPoint
 10
117.3506714840314
 20
471.3990331162878
 30
0.0
  0
POINT
  5
1C347
330
1BDE5
100
AcDbEntity
  8
DEFPOINTS
  6
Continuous
 62
     0
440
 16777216
100
AcDbPoint
 10
117.3506714840314
 20
451.7830900999223
 30
0.0
  0
ENDBLK
  5
1BDE7
330
1BDE5
100
AcDbEntity
  8
0
100
AcDbBlockEnd
  0
BLOCK
  5
1C089
330
1C085
100
AcDbEntity
  8
0
100
AcDbBlockBegin
  2
A$C302D3D1A
 70
     0
 10
0.0
 20
0.0
 30
0.0
  3
A$C302D3D1A
  1

  0
ELLIPSE
  5
1C086
330
1C085
100
AcDbEntity
  8
17
100
AcDbEllipse
 10
0.0
 20
-0.0000000000001137
 30
0.0
 11
0.0
 21
-7.0
 31
0.0
210
0.0
220
0.0
230
1.0
 40
0.9285714285714286
 41
0.0
 42
6.283185307179584
  0
ENDBLK
  5
1C08A
330
1C085
100
AcDbEntity
  8
0
100
AcDbBlockEnd
  0
BLOCK
  5
1C1F0
330
1C1EF
100
AcDbEntity
  8
0
100
AcDbBlockBegin
  2
*D36
 70
     1
 10
0.0
 20
0.0
 30
0.0
  3
*D36
  1

  0
LINE
  5
1C23F
330
1C1EF
100
AcDbEntity
  8
30
 62
     0
440
 16777216
370
    -2
100
AcDbLine
 10
70.94983342088198
 20
974.7359342129097
 30
0.0
 11
49.80596879930637
 21
974.7359342129097
 31
0.0
  0
LINE
  5
1C240
330
1C1EF
100
AcDbEntity
  8
30
 62
     0
440
 16777216
370
    -2
100
AcDbLine
 10
70.94983342088198
 20
960.73593421291
 30
0.0
 11
49.80596879930637
 21
960.73593421291
 31
0.0
  0
LINE
  5
1C241
330
1C1EF
100
AcDbEntity
  8
30
 62
     0
440
 16777216
370
    -2
100
AcDbLine
 10
50.30596879930635
 20
972.7359342129096
 30
0.0
 11
50.30596879930635
 21
962.7359342129096
 31
0.0
  0
LINE
  5
1C242
330
1C1EF
100
AcDbEntity
  8
30
 62
     0
440
 16777216
370
    -2
100
AcDbLine
 10
50.30596879930635
 20
960.73593421291
 30
0.0
 11
50.30596879930635
 21
938.575373185403
 31
0.0
  0
INSERT
  5
1C243
330
1C1EF
100
AcDbEntity
  8
30
 62
     0
440
 16777216
370
    -2
100
AcDbBlockReference
  2
_OPEN
 10
50.30596879930635
 20
974.7359342129097
 30
0.0
 41
2.0
 42
2.0
 43
2.0
 50
90.0
  0
INSERT
  5
1C244
330
1C1EF
100
AcDbEntity
  8
30
 62
     0
440
 16777216
370
    -2
100
AcDbBlockReference
  2
_OPEN
 10
50.30596879930635
 20
960.73593421291
 30
0.0
 41
2.0
 42
2.0
 43
2.0
 50
270.0
  0
MTEXT
  5
1C245
330
1C1EF
100
AcDbEntity
  8
30
440
 16777216
100
AcDbMText
 10
43.30596879930618
 20
946.9087065187364
 30
0.0
 40
8.0
 41
0.0
 46
0.0
 71
     5
 72
     1
  1
\A1;14
 11
0.0000000000000001
 21
1.0
 31
0.0
 73
     1
 44
1.0
 90
        3
 63
     9
421
 13158600
 45
1.25
441
        0
  0
POINT
  5
1C246
330
1C1EF
100
AcDbEntity
  8
DEFPOINTS
 62
     0
440
 16777216
100
AcDbPoint
 10
71.94983342088199
 20
974.7359342129097
 30
0.0
  0
POINT
  5
1C247
330
1C1EF
100
AcDbEntity
  8
DEFPOINTS
 62
     0
440
 16777216
100
AcDbPoint
 10
71.94983342088199
 20
960.73593421291
 30
0.0
  0
POINT
  5
1C248
330
1C1EF
100
AcDbEntity
  8
DEFPOINTS
 62
     0
440
 16777216
100
AcDbPoint
 10
50.30596879930635
 20
960.73593421291
 30
0.0
  0
ENDBLK
  5
1C1F1
330
1C1EF
100
AcDbEntity
  8
0
100
AcDbBlockEnd
  0
BLOCK
  5
1C2AF
330
1C2AE
100
AcDbEntity
  8
0
100
AcDbBlockBegin
  2
*D37
 70
     1
 10
0.0
 20
0.0
 30
0.0
  3
*D37
  1

  0
LINE
  5
1C2B1
330
1C2AE
100
AcDbEntity
  8
30
 62
     0
440
 16777216
370
    -2
100
AcDbLine
 10
84.44983639280872
 20
100.4531278759599
 30
0.0
 11
84.44983639280872
 21
46.45668450142511
 31
0.0
  0
LINE
  5
1C2B2
330
1C2AE
100
AcDbEntity
  8
30
 62
     0
440
 16777216
370
    -2
100
AcDbLine
 10
129.4498363928092
 20
100.4531278759599
 30
0.0
 11
129.4498363928092
 21
46.45668450142511
 31
0.0
  0
LINE
  5
1C2B3
330
1C2AE
100
AcDbEntity
  8
30
 62
     0
440
 16777216
370
    -2
100
AcDbLine
 10
86.44983639280871
 20
46.95668450142512
 30
0.0
 11
127.4498363928092
 21
46.95668450142512
 31
0.0
  0
INSERT
  5
1C2B4
330
1C2AE
100
AcDbEntity
  8
30
 62
     0
440
 16777216
370
    -2
100
AcDbBlockReference
  2
_OPEN
 10
84.44983639280872
 20
46.95668450142512
 30
0.0
 41
2.0
 42
2.0
 43
2.0
 50
180.0
  0
INSERT
  5
1C2B5
330
1C2AE
100
AcDbEntity
  8
30
 62
     0
440
 16777216
370
    -2
100
AcDbBlockReference
  2
_OPEN
 10
129.4498363928092
 20
46.95668450142512
 30
0.0
 41
2.0
 42
2.0
 43
2.0
  0
MTEXT
  5
1C2B6
330
1C2AE
100
AcDbEntity
  8
30
440
 16777216
100
AcDbMText
 10
106.9498363928089
 20
53.95668450142512
 30
0.0
 40
8.0
 41
0.0
 46
0.0
 71
     5
 72
     1
  1
\A1;45
 73
     1
 44
1.0
 90
        3
 63
     9
421
 13158600
 45
1.25
441
        0
  0
POINT
  5
1C2B7
330
1C2AE
100
AcDbEntity
  8
DEFPOINTS
 62
     0
440
 16777216
100
AcDbPoint
 10
84.44983639280872
 20
101.4531278759599
 30
0.0
  0
POINT
  5
1C2B8
330
1C2AE
100
AcDbEntity
  8
DEFPOINTS
 62
     0
440
 16777216
100
AcDbPoint
 10
129.4498363928092
 20
101.4531278759599
 30
0.0
  0
POINT
  5
1C2B9
330
1C2AE
100
AcDbEntity
  8
DEFPOINTS
 62
     0
440
 16777216
100
AcDbPoint
 10
129.4498363928092
 20
46.95668450142512
 30
0.0
  0
ENDBLK
  5
1C2B0
330
1C2AE
100
AcDbEntity
  8
0
100
AcDbBlockEnd
  0
ENDSEC
  0
SECTION
  2
ENTITIES
  0
LINE
  5
1403A
330
1E
100
AcDbEntity
  8
16
 48
2.0
100
AcDbLine
 10
117.3506714840314
 20
471.3990331162878
 30
0.0
 11
117.3506714840314
 21
715.1012551321655
 31
0.0
  0
LINE
  5
1403B
330
1E
100
AcDbEntity
  8
16
 48
2.0
100
AcDbLine
 10
241.171900301948
 20
609.4938972774822
 30
0.0
 11
33.44478970287401
 21
609.4938972774822
 31
0.0
  0
LINE
  5
1403C
330
1E
100
AcDbEntity
  8
16
 48
2.0
100
AcDbLine
 10
552.2023220387308
 20
609.4938972774825
 30
0.0
 11
395.1718838605366
 21
609.4938972774825
 31
0.0
  0
LINE
  5
1403D
330
1E
100
AcDbEntity
  8
16
 48
2.0
100
AcDbLine
 10
106.9498363928096
 20
71.65955069115444
 30
0.0
 11
106.9498363928096
 21
363.5282266901891
 31
0.0
  0
LINE
  5
1403E
330
1E
100
AcDbEntity
  8
16
 48
2.0
100
AcDbLine
 10
225.1038531665927
 20
211.4531278759599
 30
0.0
 11
29.66650388617973
 21
211.4531278759599
 31
0.0
  0
LINE
  5
1403F
330
1E
100
AcDbEntity
  8
16
 48
2.0
100
AcDbLine
 10
116.949833420882
 20
755.0380833711521
 30
0.0
 11
116.9498944560418
 21
1033.391921933233
 31
0.0
  0
MTEXT
  5
14040
330
1E
100
AcDbEntity
  8
19
  6
Continuous
100
AcDbMText
 10
482.8194528624353
 20
1036.572295309976
 30
0.0
 40
10.0
 41
185.6110247077376
 46
33.24212607274502
 71
     1
 72
     5
  1
PS400-CF 4P RC\PPS400-NF 4P RC\PPS400-GF 4P RC\PPS400-NE 4P RC\PPS400-GE 4P RC\PPH400-CF 4P RC\PPH400-CE 4P RC
  7
STANDARD1
 73
     1
 44
1.0
  0
LINE
  5
14041
330
1E
100
AcDbEntity
  8
18
100
AcDbLine
 10
537.0623810060897
 20
752.2997177028092
 30
0.0
 11
537.0623810060897
 21
469.802051349539
 31
0.0
  0
LINE
  5
1405E
330
1E
100
AcDbEntity
  8
24
100
AcDbLine
 10
608.0623810060895
 20
727.4938972774823
 30
0.0
 11
644.0623810060898
 21
727.4938972774823
 31
0.0
  0
LINE
  5
1405F
330
1E
100
AcDbEntity
  8
24
100
AcDbLine
 10
608.0623810060895
 20
719.4938972774823
 30
0.0
 11
644.0623810060898
 21
719.4938972774823
 31
0.0
  0
LINE
  5
14060
330
1E
100
AcDbEntity
  8
17
100
AcDbLine
 10
589.0623810060892
 20
735.4938972774824
 30
0.0
 11
589.0623810060892
 21
711.4938972774823
 31
0.0
  0
LINE
  5
14061
330
1E
100
AcDbEntity
  8
24
100
AcDbLine
 10
604.0623810060894
 20
719.4938972774823
 30
0.0
 11
604.0623810060894
 21
727.4938972774823
 31
0.0
  0
LINE
  5
14062
330
1E
100
AcDbEntity
  8
24
100
AcDbLine
 10
564.0623810060898
 20
711.4938972774832
 30
0.0
 11
564.0623810060898
 21
735.4938972774832
 31
0.0
  0
LINE
  5
14069
330
1E
100
AcDbEntity
  8
24
100
AcDbLine
 10
533.0623810060897
 20
711.4938972774832
 30
0.0
 11
564.0623810060898
 21
711.4938972774832
 31
0.0
  0
LINE
  5
1406A
330
1E
100
AcDbEntity
  8
24
100
AcDbLine
 10
565.0623810060898
 20
719.4938972774823
 30
0.0
 11
604.0623810060894
 21
719.4938972774823
 31
0.0
  0
LINE
  5
1406B
330
1E
100
AcDbEntity
  8
24
100
AcDbLine
 10
565.0623810060898
 20
714.9938972774832
 30
0.0
 11
565.0623810060898
 21
719.4938972774823
 31
0.0
  0
LINE
  5
1406C
330
1E
100
AcDbEntity
  8
24
100
AcDbLine
 10
564.0623810060898
 20
714.9938972774832
 30
0.0
 11
565.0623810060898
 21
714.9938972774832
 31
0.0
  0
LINE
  5
1406E
330
1E
100
AcDbEntity
  8
24
100
AcDbLine
 10
533.0623810060897
 20
735.4938972774832
 30
0.0
 11
564.0623810060898
 21
735.4938972774832
 31
0.0
  0
LINE
  5
14070
330
1E
100
AcDbEntity
  8
24
100
AcDbLine
 10
565.0623810060898
 20
727.4938972774823
 30
0.0
 11
604.0623810060894
 21
727.4938972774823
 31
0.0
  0
LINE
  5
14071
330
1E
100
AcDbEntity
  8
24
100
AcDbLine
 10
565.0623810060898
 20
731.9938972774832
 30
0.0
 11
565.0623810060898
 21
727.4938972774823
 31
0.0
  0
LINE
  5
14072
330
1E
100
AcDbEntity
  8
24
100
AcDbLine
 10
564.0623810060898
 20
731.9938972774832
 30
0.0
 11
565.0623810060898
 21
731.9938972774832
 31
0.0
  0
LINE
  5
14073
330
1E
100
AcDbEntity
  8
17
100
AcDbLine
 10
629.0623810060894
 20
735.4938972774824
 30
0.0
 11
629.0623810060894
 21
711.4938972774823
 31
0.0
  0
LINE
  5
14074
330
1E
100
AcDbEntity
  8
24
100
AcDbLine
 10
644.0623810060898
 20
719.4938972774823
 30
0.0
 11
644.0623810060898
 21
727.4938972774823
 31
0.0
  0
LINE
  5
14075
330
1E
100
AcDbEntity
  8
18
100
AcDbLine
 10
533.0623810060897
 20
751.9353275574037
 30
0.0
 11
533.0623810060897
 21
469.802051349539
 31
0.0
  0
DIMENSION
  5
14078
330
1E
100
AcDbEntity
  8
30
  6
Continuous
100
AcDbDimension
280
     0
  2
*D1
 10
675.535802806794
 20
495.4938972774816
 30
0.0
 11
668.5358028067938
 21
609.4938972774822
 31
0.0
 70
    32
 71
     5
 42
228.0000000000007
 73
     0
 74
     0
 75
     0
  3
STANDARD
100
AcDbAlignedDimension
 13
651.0623810060898
 23
723.4938972774823
 33
0.0
 14
651.0623810060898
 24
495.4938972774816
 34
0.0
 50
90.0
100
AcDbRotatedDimension
1001
ACAD
1000
DSTYLE
1002
{
1070
    79
1070
     3
1002
}
  0
DIMENSION
  5
14083
330
1E
100
AcDbEntity
  8
30
  6
Continuous
100
AcDbDimension
280
     0
  2
*D2
 10
277.1020367190995
 20
479.4938972774822
 30
0.0
 11
277.1020367190994
 21
609.4938972774822
 31
0.0
 70
   160
 71
     5
 42
260.0
 73
     0
 74
     0
 75
     0
  3
STANDARD
100
AcDbAlignedDimension
 13
232.3506714840314
 23
739.4938972774824
 33
0.0
 14
232.3506714840314
 24
479.4938972774822
 34
0.0
 50
90.0
100
AcDbRotatedDimension
1001
ACAD
1000
DSTYLE
1002
{
1070
   140
1040
8.0
1070
    79
1070
     3
1002
}
  0
DIMENSION
  5
14084
330
1E
100
AcDbEntity
  8
30
  6
Continuous
100
AcDbDimension
280
     0
  2
*D3
 10
259.1369653781304
 20
564.4938972774822
 30
0.0
 11
259.1369653781303
 21
607.2779716203072
 31
0.0
 70
   160
 71
     5
 42
90.00000000000012
 73
     0
 74
     0
 75
     0
  3
STANDARD
100
AcDbAlignedDimension
 13
171.6824956866894
 23
654.4938972774822
 33
0.0
 14
171.6824956866894
 24
564.4938972774822
 34
0.0
 50
90.0
100
AcDbRotatedDimension
1001
ACAD
1000
DSTYLE
1002
{
1070
    79
1070
     3
1070
   140
1040
8.0
1002
}
  0
DIMENSION
  5
14085
330
1E
100
AcDbEntity
  8
30
  6
Continuous
100
AcDbDimension
280
     0
  2
*D4
 10
75.1844448642515
 20
109.7433384728166
 30
0.0
 11
21.36819459176423
 21
72.73178830689371
 31
0.0
 70
   163
 71
     5
 42
36.00000000000085
 73
     0
 74
     0
 75
     0
  3
STANDARD1
100
AcDbDiametricDimension
 15
48.71522792136779
 25
85.34291727910312
 35
0.0
 40
0.0
  0
DIMENSION
  5
14086
330
1E
100
AcDbEntity
  8
30
  6
Continuous
100
AcDbDimension
280
     0
  2
*D5
 10
265.0361388275495
 20
97.45312787595993
 30
0.0
 11
265.0361388275495
 21
211.4531278759599
 31
0.0
 70
   160
 71
     5
 42
228.0
 73
     0
 74
     0
 75
     0
  3
STANDARD
100
AcDbAlignedDimension
 13
220.5566936394175
 23
325.4531278759599
 33
0.0
 14
220.5566936394175
 24
97.45312787595993
 34
0.0
 50
90.0
100
AcDbRotatedDimension
1001
ACAD
1000
DSTYLE
1002
{
1070
    79
1070
     3
1070
   140
1040
8.0
1002
}
  0
DIMENSION
  5
14087
330
1E
100
AcDbEntity
  8
30
  6
Continuous
100
AcDbDimension
280
     0
  2
*D6
 10
248.2618694366202
 20
104.4531278759599
 30
0.0
 11
248.2618694366201
 21
211.4531278759599
 31
0.0
 70
   160
 71
     5
 42
214.0
 73
     0
 74
     0
 75
     0
  3
STANDARD
100
AcDbAlignedDimension
 13
136.8206195513994
 23
318.4531278759599
 33
0.0
 14
136.4498363928092
 24
104.4531278759599
 34
0.0
 50
90.0
100
AcDbRotatedDimension
1001
ACAD
1000
DSTYLE
1002
{
1070
    79
1070
     3
1070
   140
1040
8.0
1002
}
  0
LINE
  5
14088
330
1E
100
AcDbEntity
  8
10
  6
CONTINOUS
100
AcDbLine
 10
232.3506714840314
 20
739.4938972774824
 30
0.0
 11
232.3506714840314
 21
479.4938972774822
 31
0.0
  0
LINE
  5
14089
330
1E
100
AcDbEntity
  8
10
  6
CONTINOUS
100
AcDbLine
 10
47.35067148403141
 20
739.4938972774824
 30
0.0
 11
47.35067148403141
 21
479.4938972774822
 31
0.0
  0
LINE
  5
1408A
330
1E
100
AcDbEntity
  8
10
  6
CONTINOUS
100
AcDbLine
 10
47.35067148403141
 20
479.4938972774822
 30
0.0
 11
232.3506714840314
 21
479.4938972774822
 31
0.0
  0
LINE
  5
1408B
330
1E
100
AcDbEntity
  8
10
  6
CONTINOUS
100
AcDbLine
 10
108.3506714840314
 20
495.4938972774822
 30
0.0
 11
126.3506714840314
 21
495.4938972774822
 31
0.0
  0
LINE
  5
1408C
330
1E
100
AcDbEntity
  8
12
  6
DASHED
100
AcDbLine
 10
102.8506714840314
 20
502.4938972774823
 30
0.0
 11
86.8506714840314
 21
502.4938972774823
 31
0.0
  0
CIRCLE
  5
1408D
330
1E
100
AcDbEntity
  8
12
  6
DASHED
100
AcDbCircle
 10
94.85067148403141
 20
502.4938972774823
 30
0.0
 40
4.0
  0
LINE
  5
1408E
330
1E
100
AcDbEntity
  8
10
  6
CONTINOUS
100
AcDbLine
 10
72.35067148403141
 20
486.4938972774822
 30
0.0
 11
72.35067148403141
 21
504.4938972774822
 31
0.0
  0
CIRCLE
  5
1408F
330
1E
100
AcDbEntity
  8
10
  6
CONTINOUS
100
AcDbCircle
 10
72.35067148403141
 20
495.4938972774822
 30
0.0
 40
5.0
  0
LINE
  5
14090
330
1E
100
AcDbEntity
  8
10
  6
CONTINOUS
100
AcDbLine
 10
63.3506714840314
 20
495.4938972774822
 30
0.0
 11
81.35067148403141
 21
495.4938972774822
 31
0.0
  0
LINE
  5
14091
330
1E
100
AcDbEntity
  8
10
  6
CONTINOUS
100
AcDbLine
 10
117.3506714840314
 20
486.4938972774822
 30
0.0
 11
117.3506714840314
 21
504.4938972774822
 31
0.0
  0
CIRCLE
  5
14092
330
1E
100
AcDbEntity
  8
10
  6
CONTINOUS
100
AcDbCircle
 10
117.3506714840314
 20
495.4938972774822
 30
0.0
 40
5.0
  0
LINE
  5
14093
330
1E
100
AcDbEntity
  8
12
  6
DASHED
100
AcDbLine
 10
94.85067148403141
 20
510.4938972774824
 30
0.0
 11
94.85067148403141
 21
494.4938972774822
 31
0.0
  0
LINE
  5
14094
330
1E
100
AcDbEntity
  8
10
  6
CONTINOUS
100
AcDbLine
 10
153.3506714840314
 20
495.4938972774822
 30
0.0
 11
171.3506714840314
 21
495.4938972774822
 31
0.0
  0
LINE
  5
14095
330
1E
100
AcDbEntity
  8
12
  6
DASHED
100
AcDbLine
 10
147.8506714840314
 20
502.4938972774823
 30
0.0
 11
131.8506714840314
 21
502.4938972774823
 31
0.0
  0
CIRCLE
  5
14096
330
1E
100
AcDbEntity
  8
12
  6
DASHED
100
AcDbCircle
 10
139.8506714840314
 20
502.4938972774823
 30
0.0
 40
4.0
  0
LINE
  5
14097
330
1E
100
AcDbEntity
  8
12
  6
DASHED
100
AcDbLine
 10
139.8506714840314
 20
510.4938972774824
 30
0.0
 11
139.8506714840314
 21
494.4938972774822
 31
0.0
  0
LINE
  5
14098
330
1E
100
AcDbEntity
  8
10
  6
CONTINOUS
100
AcDbLine
 10
162.3506714840314
 20
486.4938972774822
 30
0.0
 11
162.3506714840314
 21
504.4938972774822
 31
0.0
  0
CIRCLE
  5
14099
330
1E
100
AcDbEntity
  8
10
  6
CONTINOUS
100
AcDbCircle
 10
162.3506714840314
 20
495.4938972774822
 30
0.0
 40
5.0
  0
LINE
  5
1409A
330
1E
100
AcDbEntity
  8
10
  6
CONTINOUS
100
AcDbLine
 10
207.3506714840314
 20
486.4938972774822
 30
0.0
 11
207.3506714840314
 21
504.4938972774822
 31
0.0
  0
CIRCLE
  5
1409B
330
1E
100
AcDbEntity
  8
10
  6
CONTINOUS
100
AcDbCircle
 10
-207.3506714840314
 20
495.4938972774822
 30
0.0
 40
5.0
210
0.0
220
0.0
230
-1.0
  0
LINE
  5
1409C
330
1E
100
AcDbEntity
  8
10
  6
CONTINOUS
100
AcDbLine
 10
198.3506714840314
 20
495.4938972774822
 30
0.0
 11
216.3506714840314
 21
495.4938972774822
 31
0.0
  0
LINE
  5
1409D
330
1E
100
AcDbEntity
  8
10
  6
CONTINOUS
100
AcDbLine
 10
232.3506714840314
 20
739.4938972774824
 30
0.0
 11
47.35067148403141
 21
739.4938972774824
 31
0.0
  0
ARC
  5
1409E
330
1E
100
AcDbEntity
  8
10
  6
CONTINOUS
100
AcDbCircle
 10
64.35067148403141
 20
569.4938972774822
 30
0.0
 40
5.0
100
AcDbArc
 50
180.0
 51
270.0
  0
ARC
  5
1409F
330
1E
100
AcDbEntity
  8
10
  6
CONTINOUS
100
AcDbCircle
 10
64.35067148403141
 20
649.4938972774822
 30
0.0
 40
5.0
100
AcDbArc
 50
90.0
 51
180.0
  0
LINE
  5
140A0
330
1E
100
AcDbEntity
  8
10
  6
CONTINOUS
100
AcDbLine
 10
59.35067148403141
 20
649.4938972774822
 30
0.0
 11
59.35067148403141
 21
569.4938972774822
 31
0.0
  0
LINE
  5
140A1
330
1E
100
AcDbEntity
  8
10
  6
CONTINOUS
100
AcDbLine
 10
207.3506714840314
 20
714.4938972774824
 30
0.0
 11
207.3506714840314
 21
732.4938972774823
 31
0.0
  0
LINE
  5
140A2
330
1E
100
AcDbEntity
  8
10
  6
CONTINOUS
100
AcDbLine
 10
162.3506714840314
 20
714.4938972774824
 30
0.0
 11
162.3506714840314
 21
732.4938972774823
 31
0.0
  0
LINE
  5
140A3
330
1E
100
AcDbEntity
  8
10
  6
CONTINOUS
100
AcDbLine
 10
117.3506714840314
 20
714.4938972774824
 30
0.0
 11
117.3506714840314
 21
732.4938972774823
 31
0.0
  0
LINE
  5
140A4
330
1E
100
AcDbEntity
  8
10
  6
CONTINOUS
100
AcDbLine
 10
72.35067148403141
 20
714.4938972774824
 30
0.0
 11
72.35067148403141
 21
732.4938972774823
 31
0.0
  0
CIRCLE
  5
140A5
330
1E
100
AcDbEntity
  8
10
  6
CONTINOUS
100
AcDbCircle
 10
207.3506714840314
 20
723.4938972774823
 30
0.0
 40
5.0
  0
CIRCLE
  5
140A6
330
1E
100
AcDbEntity
  8
10
  6
CONTINOUS
100
AcDbCircle
 10
-162.3506714840314
 20
723.4938972774823
 30
0.0
 40
5.0
210
0.0
220
0.0
230
-1.0
  0
CIRCLE
  5
140A7
330
1E
100
AcDbEntity
  8
10
  6
CONTINOUS
100
AcDbCircle
 10
-117.3506714840314
 20
723.4938972774823
 30
0.0
 40
5.0
210
0.0
220
0.0
230
-1.0
  0
CIRCLE
  5
140A8
330
1E
100
AcDbEntity
  8
10
  6
CONTINOUS
100
AcDbCircle
 10
-72.35067148403141
 20
723.4938972774823
 30
0.0
 40
5.0
210
0.0
220
0.0
230
-1.0
  0
LINE
  5
140A9
330
1E
100
AcDbEntity
  8
10
  6
CONTINOUS
100
AcDbLine
 10
175.3506714840314
 20
649.4938972774822
 30
0.0
 11
175.3506714840314
 21
569.4938972774822
 31
0.0
  0
LINE
  5
140AA
330
1E
100
AcDbEntity
  8
10
  6
CONTINOUS
100
AcDbLine
 10
142.8506714840314
 20
564.4938972774822
 30
0.0
 11
142.8506714840314
 21
654.4938972774822
 31
0.0
  0
LINE
  5
140AB
330
1E
100
AcDbEntity
  8
10
  6
CONTINOUS
100
AcDbLine
 10
91.85067148403186
 20
564.4938972774822
 30
0.0
 11
91.8506714840314
 21
654.4938972774822
 31
0.0
  0
LINE
  5
140AC
330
1E
100
AcDbEntity
  8
10
  6
CONTINOUS
100
AcDbLine
 10
99.35067148403142
 20
575.4938972774822
 30
0.0
 11
99.35067148403142
 21
643.4938972774822
 31
0.0
  0
LINE
  5
140AD
330
1E
100
AcDbEntity
  8
10
  6
CONTINOUS
100
AcDbLine
 10
135.3506714840314
 20
575.4938972774822
 30
0.0
 11
135.3506714840314
 21
643.4938972774822
 31
0.0
  0
LINE
  5
140AE
330
1E
100
AcDbEntity
  8
10
  6
CONTINOUS
100
AcDbLine
 10
100.3506714840314
 20
632.4727330660596
 30
0.0
 11
100.3506714840314
 21
642.3025575975274
 31
0.0
  0
LINE
  5
140AF
330
1E
100
AcDbEntity
  8
10
  6
CONTINOUS
100
AcDbLine
 10
134.3506714840314
 20
632.4727330660596
 30
0.0
 11
134.3506714840314
 21
642.3025575975274
 31
0.0
  0
LINE
  5
140B0
330
1E
100
AcDbEntity
  8
10
  6
CONTINOUS
100
AcDbLine
 10
64.35067148403141
 20
564.4938972774822
 30
0.0
 11
170.3506714840314
 21
564.4938972774822
 31
0.0
  0
LINE
  5
140B1
330
1E
100
AcDbEntity
  8
10
  6
CONTINOUS
100
AcDbLine
 10
134.3506714840318
 20
632.4727330660596
 30
0.0
 11
100.3506714840314
 21
632.4727330660596
 31
0.0
  0
LINE
  5
140B2
330
1E
100
AcDbEntity
  8
10
  6
CONTINOUS
100
AcDbLine
 10
135.3506714840314
 20
575.4938972774822
 30
0.0
 11
99.35067148403142
 21
575.4938972774822
 31
0.0
  0
ARC
  5
140B3
330
1E
100
AcDbEntity
  8
10
  6
CONTINOUS
100
AcDbCircle
 10
170.3506714840314
 20
569.4938972774822
 30
0.0
 40
5.0
100
AcDbArc
 50
270.0
 51
0.0
  0
LINE
  5
140B4
330
1E
100
AcDbEntity
  8
10
  6
CONTINOUS
100
AcDbLine
 10
108.3506714840314
 20
723.4938972774823
 30
0.0
 11
126.3506714840314
 21
723.4938972774823
 31
0.0
  0
LINE
  5
140B5
330
1E
100
AcDbEntity
  8
10
  6
CONTINOUS
100
AcDbLine
 10
64.35067148403141
 20
654.4938972774822
 30
0.0
 11
170.3506714840314
 21
654.4938972774822
 31
0.0
  0
LINE
  5
140B6
330
1E
100
AcDbEntity
  8
10
  6
CONTINOUS
100
AcDbLine
 10
135.3506714840314
 20
643.4938972774822
 30
0.0
 11
99.35067148403142
 21
643.4938972774822
 31
0.0
  0
LINE
  5
140B7
330
1E
100
AcDbEntity
  8
10
  6
CONTINOUS
100
AcDbLine
 10
134.3506714840314
 20
642.3025575975274
 30
0.0
 11
100.3506714840314
 21
642.3025575975274
 31
0.0
  0
LINE
  5
140B8
330
1E
100
AcDbEntity
  8
12
  6
DASHED
100
AcDbLine
 10
102.8506714840314
 20
716.4938972774823
 30
0.0
 11
86.8506714840314
 21
716.4938972774823
 31
0.0
  0
CIRCLE
  5
140B9
330
1E
100
AcDbEntity
  8
12
  6
DASHED
100
AcDbCircle
 10
-94.85067148403141
 20
716.4938972774823
 30
0.0
 40
4.0
210
0.0
220
0.0
230
-1.0
  0
LINE
  5
140BA
330
1E
100
AcDbEntity
  8
10
  6
CONTINOUS
100
AcDbLine
 10
63.3506714840314
 20
723.4938972774823
 30
0.0
 11
81.35067148403141
 21
723.4938972774823
 31
0.0
  0
LINE
  5
140BB
330
1E
100
AcDbEntity
  8
12
  6
DASHED
100
AcDbLine
 10
94.85067148403141
 20
724.4938972774823
 30
0.0
 11
94.85067148403141
 21
708.4938972774823
 31
0.0
  0
ARC
  5
140BC
330
1E
100
AcDbEntity
  8
10
  6
CONTINOUS
100
AcDbCircle
 10
170.3506714840314
 20
649.4938972774822
 30
0.0
 40
5.0
100
AcDbArc
 50
0.0
 51
90.0
  0
LINE
  5
140BD
330
1E
100
AcDbEntity
  8
10
  6
CONTINOUS
100
AcDbLine
 10
153.3506714840314
 20
723.4938972774823
 30
0.0
 11
171.3506714840314
 21
723.4938972774823
 31
0.0
  0
LINE
  5
140BE
330
1E
100
AcDbEntity
  8
12
  6
DASHED
100
AcDbLine
 10
147.8506714840314
 20
716.4938972774823
 30
0.0
 11
131.8506714840314
 21
716.4938972774823
 31
0.0
  0
CIRCLE
  5
140BF
330
1E
100
AcDbEntity
  8
12
  6
DASHED
100
AcDbCircle
 10
-139.8506714840314
 20
716.4938972774823
 30
0.0
 40
4.0
210
0.0
220
0.0
230
-1.0
  0
LINE
  5
140C0
330
1E
100
AcDbEntity
  8
12
  6
DASHED
100
AcDbLine
 10
139.8506714840314
 20
724.4938972774823
 30
0.0
 11
139.8506714840314
 21
708.4938972774823
 31
0.0
  0
LINE
  5
140C1
330
1E
100
AcDbEntity
  8
10
  6
CONTINOUS
100
AcDbLine
 10
198.3506714840314
 20
723.4938972774823
 30
0.0
 11
216.3506714840314
 21
723.4938972774823
 31
0.0
  0
LINE
  5
140C2
330
1E
100
AcDbEntity
  8
18
  6
DIVIDE
 48
2.0
100
AcDbLine
 10
221.9498363928092
 20
341.4531278759599
 30
0.0
 11
221.9498363928092
 21
81.45312787595974
 31
0.0
  0
LINE
  5
140C3
330
1E
100
AcDbEntity
  8
18
  6
DIVIDE
 48
2.0
100
AcDbLine
 10
36.94983639280872
 20
341.4531278759599
 30
0.0
 11
36.94983639280872
 21
81.45312787595974
 31
0.0
  0
LINE
  5
140C4
330
1E
100
AcDbEntity
  8
22
100
AcDbLine
 10
168.0743518894059
 20
89.45312787595993
 30
0.0
 11
180.8253208962123
 21
89.45312787595993
 31
0.0
  0
LINE
  5
140C5
330
1E
100
AcDbEntity
  8
22
100
AcDbLine
 10
169.9498363928092
 20
97.45312787595993
 30
0.0
 11
178.9498363928091
 21
97.45312787595993
 31
0.0
  0
LINE
  5
140C6
330
1E
100
AcDbEntity
  8
18
  6
DIVIDE
 48
2.0
100
AcDbLine
 10
36.94983639280872
 20
81.45312787595974
 30
0.0
 11
221.9498363928092
 21
81.45312787595974
 31
0.0
  0
LINE
  5
140C8
330
1E
100
AcDbEntity
  8
16
100
AcDbLine
 10
39.94983639280964
 20
97.45312787595993
 30
0.0
 11
225.8514393439382
 21
97.45312787595993
 31
0.0
  0
ARC
  5
140C9
330
1E
100
AcDbEntity
  8
22
100
AcDbCircle
 10
-61.94983639280962
 20
97.45312787595993
 30
0.0
 40
18.0
210
0.0
220
0.0
230
-1.0
100
AcDbArc
 50
206.3877999612475
 51
180.0
  0
ARC
  5
140CB
330
1E
100
AcDbEntity
  8
22
100
AcDbCircle
 10
-106.9498363928096
 20
97.45312787595993
 30
0.0
 40
18.0
210
0.0
220
0.0
230
-1.0
100
AcDbArc
 50
0.0
 51
180.0
  0
ARC
  5
140CC
330
1E
100
AcDbEntity
  8
22
100
AcDbCircle
 10
-106.9498363928096
 20
97.45312787595993
 30
0.0
 40
18.0
210
0.0
220
0.0
230
-1.0
100
AcDbArc
 50
206.3877999612475
 51
333.6122000387566
  0
LINE
  5
140CE
330
1E
100
AcDbEntity
  8
16
100
AcDbLine
 10
61.94983639280962
 20
119.4531278759599
 30
0.0
 11
61.94983639280962
 21
75.45312787595992
 31
0.0
  0
LINE
  5
140CF
330
1E
100
AcDbEntity
  8
22
100
AcDbLine
 10
78.07435188940599
 20
89.45312787595993
 30
0.0
 11
90.82532089621237
 21
89.45312787595993
 31
0.0
  0
LINE
  5
140D0
330
1E
100
AcDbEntity
  8
22
100
AcDbLine
 10
79.94983639280872
 20
97.45312787595993
 30
0.0
 11
88.94983639280964
 21
97.45312787595993
 31
0.0
  0
LINE
  5
140D1
330
1E
100
AcDbEntity
  8
22
  6
DASHDOT
100
AcDbLine
 10
77.44983639280872
 20
104.4531278759599
 30
0.0
 11
91.44983639280916
 21
104.4531278759599
 31
0.0
  0
LINE
  5
140D2
330
1E
100
AcDbEntity
  8
22
  6
DASHDOT
100
AcDbLine
 10
84.44983639280872
 20
111.4531278759599
 30
0.0
 11
84.44983639280872
 21
97.45312787595993
 31
0.0
  0
CIRCLE
  5
140D3
330
1E
100
AcDbEntity
  8
22
100
AcDbCircle
 10
-84.44983639280872
 20
104.4531278759599
 30
0.0
 40
3.0
210
0.0
220
0.0
230
-1.0
  0
LINE
  5
140D4
330
1E
100
AcDbEntity
  8
16
100
AcDbLine
 10
151.9498363928091
 20
119.4531278759599
 30
0.0
 11
151.9498363928091
 21
75.45312787595992
 31
0.0
  0
ARC
  5
140D5
330
1E
100
AcDbEntity
  8
22
100
AcDbCircle
 10
-151.9498363928091
 20
97.45312787595993
 30
0.0
 40
18.0
210
0.0
220
0.0
230
-1.0
100
AcDbArc
 50
0.0
 51
180.0
  0
ARC
  5
140D6
330
1E
100
AcDbEntity
  8
22
100
AcDbCircle
 10
-151.9498363928091
 20
97.45312787595993
 30
0.0
 40
18.0
210
0.0
220
0.0
230
-1.0
100
AcDbArc
 50
206.3877999612475
 51
333.6122000387566
  0
LINE
  5
140D8
330
1E
100
AcDbEntity
  8
22
100
AcDbLine
 10
123.074351889406
 20
89.45312787595993
 30
0.0
 11
135.8253208962123
 21
89.45312787595993
 31
0.0
  0
LINE
  5
140D9
330
1E
100
AcDbEntity
  8
22
100
AcDbLine
 10
124.9498363928092
 20
97.45312787595993
 30
0.0
 11
133.9498363928091
 21
97.45312787595993
 31
0.0
  0
LINE
  5
140DA
330
1E
100
AcDbEntity
  8
22
  6
DASHDOT
100
AcDbLine
 10
122.4498363928091
 20
104.4531278759599
 30
0.0
 11
136.4498363928092
 21
104.4531278759599
 31
0.0
  0
CIRCLE
  5
140DB
330
1E
100
AcDbEntity
  8
22
100
AcDbCircle
 10
129.4498363928092
 20
104.4531278759599
 30
0.0
 40
3.0
  0
LINE
  5
140DC
330
1E
100
AcDbEntity
  8
22
  6
DASHDOT
100
AcDbLine
 10
129.4498363928092
 20
111.4531278759599
 30
0.0
 11
129.4498363928092
 21
97.45312787595993
 31
0.0
  0
LINE
  5
140DD
330
1E
100
AcDbEntity
  8
16
100
AcDbLine
 10
196.9498363928092
 20
119.4531278759599
 30
0.0
 11
196.9498363928092
 21
75.45312787595992
 31
0.0
  0
ARC
  5
140DE
330
1E
100
AcDbEntity
  8
22
100
AcDbCircle
 10
-196.9498363928092
 20
97.45312787595993
 30
0.0
 40
18.0
210
0.0
220
0.0
230
-1.0
100
AcDbArc
 50
0.0
 51
333.6122000387566
  0
LINE
  5
140DF
330
1E
100
AcDbEntity
  8
22
100
AcDbLine
 10
168.0743518894059
 20
333.4531278759599
 30
0.0
 11
180.8253208962123
 21
333.4531278759599
 31
0.0
  0
LINE
  5
140E0
330
1E
100
AcDbEntity
  8
22
100
AcDbLine
 10
169.9498363928092
 20
325.4531278759599
 30
0.0
 11
178.9498363928091
 21
325.4531278759599
 31
0.0
  0
LINE
  5
140E1
330
1E
100
AcDbEntity
  8
18
  6
DIVIDE
 48
2.0
100
AcDbLine
 10
221.9498363928092
 20
341.4531278759599
 30
0.0
 11
36.94983639280872
 21
341.4531278759599
 31
0.0
  0
LINE
  5
140E4
330
1E
100
AcDbEntity
  8
16
100
AcDbLine
 10
61.94983639280962
 20
347.4531278759599
 30
0.0
 11
61.94983639280962
 21
303.4531278759599
 31
0.0
  0
ARC
  5
140E5
330
1E
100
AcDbEntity
  8
22
100
AcDbCircle
 10
61.94983639280962
 20
325.4531278759599
 30
0.0
 40
18.0
100
AcDbArc
 50
26.38779996124757
 51
0.0
  0
LINE
  5
140E6
330
1E
100
AcDbEntity
  8
16
100
AcDbLine
 10
151.9498363928091
 20
347.4531278759599
 30
0.0
 11
151.9498363928091
 21
303.4531278759599
 31
0.0
  0
LINE
  5
140E7
330
1E
100
AcDbEntity
  8
16
100
AcDbLine
 10
39.94983639280964
 20
325.4531278759599
 30
0.0
 11
227.0758170553236
 21
325.4531278759599
 31
0.0
  0
ARC
  5
140E9
330
1E
100
AcDbEntity
  8
22
100
AcDbCircle
 10
106.9498363928096
 20
325.4531278759599
 30
0.0
 40
18.0
100
AcDbArc
 50
180.0
 51
0.0
  0
LINE
  5
140EA
330
1E
100
AcDbEntity
  8
22
100
AcDbLine
 10
79.94983639280872
 20
325.4531278759599
 30
0.0
 11
88.94983639280964
 21
325.4531278759599
 31
0.0
  0
LINE
  5
140EB
330
1E
100
AcDbEntity
  8
22
  6
DASHDOT
100
AcDbLine
 10
77.44983639280872
 20
318.4531278759599
 30
0.0
 11
91.44983639280916
 21
318.4531278759599
 31
0.0
  0
LINE
  5
140EC
330
1E
100
AcDbEntity
  8
22
100
AcDbLine
 10
84.44983639280872
 20
325.4531278759599
 30
0.0
 11
84.44983639280872
 21
311.4531278759599
 31
0.0
  0
CIRCLE
  5
140ED
330
1E
100
AcDbEntity
  8
22
100
AcDbCircle
 10
84.44983639280872
 20
318.4531278759599
 30
0.0
 40
3.0
  0
ARC
  5
140EE
330
1E
100
AcDbEntity
  8
22
100
AcDbCircle
 10
151.9498363928091
 20
325.4531278759599
 30
0.0
 40
18.0
100
AcDbArc
 50
180.0
 51
0.0
  0
LINE
  5
140F0
330
1E
100
AcDbEntity
  8
22
100
AcDbLine
 10
124.9498363928092
 20
325.4531278759599
 30
0.0
 11
133.9498363928091
 21
325.4531278759599
 31
0.0
  0
LINE
  5
140F1
330
1E
100
AcDbEntity
  8
22
100
AcDbLine
 10
122.4498363928091
 20
318.4531278759599
 30
0.0
 11
136.4498363928092
 21
318.4531278759599
 31
0.0
  0
CIRCLE
  5
140F2
330
1E
100
AcDbEntity
  8
22
  6
DASHDOT
100
AcDbCircle
 10
-129.4498363928092
 20
318.4531278759599
 30
0.0
 40
3.0
210
0.0
220
0.0
230
-1.0
  0
LINE
  5
140F3
330
1E
100
AcDbEntity
  8
22
  6
DASHDOT
100
AcDbLine
 10
129.4498363928092
 20
325.4531278759599
 30
0.0
 11
129.4498363928092
 21
311.4531278759599
 31
0.0
  0
ARC
  5
140F4
330
1E
100
AcDbEntity
  8
22
100
AcDbCircle
 10
106.9498363928096
 20
325.4531278759599
 30
0.0
 40
18.0
100
AcDbArc
 50
26.38779996124757
 51
153.6122000387566
  0
LINE
  5
140F5
330
1E
100
AcDbEntity
  8
22
100
AcDbLine
 10
78.07435188940599
 20
333.4531278759599
 30
0.0
 11
90.82532089621237
 21
333.4531278759599
 31
0.0
  0
ARC
  5
140F6
330
1E
100
AcDbEntity
  8
22
100
AcDbCircle
 10
151.9498363928091
 20
325.4531278759599
 30
0.0
 40
18.0
100
AcDbArc
 50
26.38779996124757
 51
153.6122000387566
  0
LINE
  5
140F7
330
1E
100
AcDbEntity
  8
22
100
AcDbLine
 10
123.074351889406
 20
333.4531278759599
 30
0.0
 11
135.8253208962123
 21
333.4531278759599
 31
0.0
  0
ARC
  5
140F8
330
1E
100
AcDbEntity
  8
22
100
AcDbCircle
 10
196.9498363928092
 20
325.4531278759599
 30
0.0
 40
18.0
100
AcDbArc
 50
180.0
 51
153.6122000387566
  0
LINE
  5
140F9
330
1E
100
AcDbEntity
  8
16
100
AcDbLine
 10
196.9498363928092
 20
347.4531278759599
 30
0.0
 11
196.9498363928092
 21
303.4531278759599
 31
0.0
  0
LINE
  5
140FA
330
1E
100
AcDbEntity
  8
24
100
AcDbLine
 10
193.949833420882
 20
912.7359342129096
 30
0.0
 11
193.949833420882
 21
945.5455184530864
 31
0.0
  0
LINE
  5
140FB
330
1E
100
AcDbEntity
  8
24
100
AcDbLine
 10
219.9498334208815
 20
912.7359342129096
 30
0.0
 11
219.9498334208815
 21
945.5455184530864
 31
0.0
  0
LINE
  5
140FC
330
1E
100
AcDbEntity
  8
24
100
AcDbLine
 10
149.949833420882
 20
912.7359342129096
 30
0.0
 11
149.949833420882
 21
942.7359342129101
 31
0.0
  0
LINE
  5
140FD
330
1E
100
AcDbEntity
  8
24
100
AcDbLine
 10
173.949833420882
 20
912.7359342129096
 30
0.0
 11
173.949833420882
 21
942.7359342129101
 31
0.0
  0
LINE
  5
140FE
330
1E
100
AcDbEntity
  8
24
100
AcDbLine
 10
129.949833420882
 20
912.7359342129096
 30
0.0
 11
129.949833420882
 21
945.5455184530864
 31
0.0
  0
LINE
  5
140FF
330
1E
100
AcDbEntity
  8
24
100
AcDbLine
 10
59.94983342088199
 20
912.7359342129096
 30
0.0
 11
59.94983342088199
 21
942.7359342129101
 31
0.0
  0
LINE
  5
14100
330
1E
100
AcDbEntity
  8
24
100
AcDbLine
 10
83.94983342088199
 20
912.7359342129096
 30
0.0
 11
83.94983342088199
 21
942.7359342129101
 31
0.0
  0
LINE
  5
14101
330
1E
100
AcDbEntity
  8
24
100
AcDbLine
 10
103.949833420882
 20
912.7359342129096
 30
0.0
 11
103.949833420882
 21
945.5455184530864
 31
0.0
  0
LINE
  5
14102
330
1E
100
AcDbEntity
  8
10
  6
CONTINOUS
100
AcDbLine
 10
46.94983342088199
 20
815.7359342129096
 30
0.0
 11
231.9498334208816
 21
815.7359342129096
 31
0.0
  0
LINE
  5
14103
330
1E
100
AcDbEntity
  8
10
  6
CONTINOUS
100
AcDbLine
 10
46.94983342088199
 20
809.7359342129097
 30
0.0
 11
231.9498334208816
 21
809.7359342129097
 31
0.0
  0
LINE
  5
14104
330
1E
100
AcDbEntity
  8
10
  6
CONTINOUS
100
AcDbLine
 10
58.94983342088199
 20
805.73593421291
 30
0.0
 11
174.949833420882
 21
805.73593421291
 31
0.0
  0
LINE
  5
14105
330
1E
100
AcDbEntity
  8
10
  6
CONTINOUS
100
AcDbLine
 10
46.94983342088153
 20
912.7359342129096
 30
0.0
 11
231.9498334208816
 21
912.7359342129096
 31
0.0
  0
LINE
  5
14106
330
1E
100
AcDbEntity
  8
10
  6
CONTINOUS
100
AcDbLine
 10
46.94983342088199
 20
809.7359342129097
 30
0.0
 11
46.94983342088199
 21
912.7359342129096
 31
0.0
  0
LINE
  5
14107
330
1E
100
AcDbEntity
  8
10
  6
CONTINOUS
100
AcDbLine
 10
58.94983342088199
 20
805.73593421291
 30
0.0
 11
58.94983342088199
 21
809.7359342129097
 31
0.0
  0
LINE
  5
14108
330
1E
100
AcDbEntity
  8
10
  6
CONTINOUS
100
AcDbLine
 10
174.949833420882
 20
805.73593421291
 30
0.0
 11
174.949833420882
 21
809.7359342129097
 31
0.0
  0
LINE
  5
14109
330
1E
100
AcDbEntity
  8
10
  6
CONTINOUS
100
AcDbLine
 10
231.9498334208816
 20
809.7359342129097
 30
0.0
 11
231.9498334208816
 21
912.7359342129096
 31
0.0
  0
ARC
  5
1410A
330
1E
100
AcDbEntity
  8
24
100
AcDbCircle
 10
63.44983342088198
 20
950.2359342129096
 30
0.0
 40
6.5
100
AcDbArc
 50
180.0
 51
270.0
  0
LINE
  5
1410B
330
1E
100
AcDbEntity
  8
24
100
AcDbLine
 10
56.949833420882
 20
983.7359342129101
 30
0.0
 11
86.94983342088198
 21
983.7359342129101
 31
0.0
  0
LINE
  5
1410C
330
1E
100
AcDbEntity
  8
24
100
AcDbLine
 10
56.949833420882
 20
950.2359342129096
 30
0.0
 11
56.949833420882
 21
983.7359342129101
 31
0.0
  0
LINE
  5
1410D
330
1E
100
AcDbEntity
  8
24
100
AcDbLine
 10
56.949833420882
 20
950.2359342129096
 30
0.0
 11
56.949833420882
 21
983.7359342129101
 31
0.0
  0
LINE
  5
1410F
330
1E
100
AcDbEntity
  8
24
100
AcDbLine
 10
101.949833420882
 20
1023.73593421291
 30
0.0
 11
131.949833420882
 21
1023.73593421291
 31
0.0
  0
LINE
  5
14110
330
1E
100
AcDbEntity
  8
24
100
AcDbLine
 10
101.949833420882
 20
983.7359342129101
 30
0.0
 11
131.949833420882
 21
983.7359342129101
 31
0.0
  0
LINE
  5
14111
330
1E
100
AcDbEntity
  8
17
100
AcDbLine
 10
106.449833420882
 20
1007.73593421291
 30
0.0
 11
127.449833420882
 21
1007.73593421291
 31
0.0
  0
LINE
  5
14112
330
1E
100
AcDbEntity
  8
24
100
AcDbLine
 10
86.94983342088198
 20
950.2359342129096
 30
0.0
 11
86.94983342088198
 21
983.7359342129101
 31
0.0
  0
LINE
  5
14113
330
1E
100
AcDbEntity
  8
24
100
AcDbLine
 10
86.94983342088198
 20
950.2359342129096
 30
0.0
 11
86.94983342088198
 21
983.7359342129101
 31
0.0
  0
LINE
  5
14114
330
1E
100
AcDbEntity
  8
24
100
AcDbLine
 10
101.949833420882
 20
950.2359342129096
 30
0.0
 11
101.949833420882
 21
1023.73593421291
 31
0.0
  0
LINE
  5
14115
330
1E
100
AcDbEntity
  8
24
100
AcDbLine
 10
101.949833420882
 20
950.2359342129096
 30
0.0
 11
101.949833420882
 21
1023.73593421291
 31
0.0
  0
LINE
  5
14116
330
1E
100
AcDbEntity
  8
17
100
AcDbLine
 10
71.94983342088199
 20
957.2359342129097
 30
0.0
 11
71.94983342088199
 21
978.2359342129096
 31
0.0
  0
LINE
  5
14117
330
1E
100
AcDbEntity
  8
24
100
AcDbLine
 10
59.94983342088199
 20
942.7359342129101
 30
0.0
 11
83.94983342088199
 21
942.7359342129101
 31
0.0
  0
LINE
  5
14118
330
1E
100
AcDbEntity
  8
24
100
AcDbLine
 10
63.44983342088198
 20
942.7359342129101
 30
0.0
 11
63.44983342088198
 21
943.73593421291
 31
0.0
  0
LINE
  5
14119
330
1E
100
AcDbEntity
  8
24
100
AcDbLine
 10
80.44983342088199
 20
942.7359342129101
 30
0.0
 11
80.44983342088199
 21
943.73593421291
 31
0.0
  0
ARC
  5
1411A
330
1E
100
AcDbEntity
  8
24
100
AcDbCircle
 10
80.44983342088199
 20
950.2359342129096
 30
0.0
 40
6.5
100
AcDbArc
 50
270.0
 51
0.0
  0
LINE
  5
1411B
330
1E
100
AcDbEntity
  8
17
100
AcDbLine
 10
61.44983342088199
 20
967.7359342129101
 30
0.0
 11
82.44983342088199
 21
967.7359342129101
 31
0.0
  0
ARC
  5
1411D
330
1E
100
AcDbEntity
  8
24
100
AcDbCircle
 10
108.449833420882
 20
950.2359342129096
 30
0.0
 40
6.5
100
AcDbArc
 50
180.0
 51
226.1869385396015
  0
LINE
  5
1411F
330
1E
100
AcDbEntity
  8
24
100
AcDbLine
 10
146.949833420882
 20
950.2359342129096
 30
0.0
 11
146.949833420882
 21
983.7359342129101
 31
0.0
  0
LINE
  5
14120
330
1E
100
AcDbEntity
  8
24
100
AcDbLine
 10
176.949833420882
 20
950.2359342129096
 30
0.0
 11
176.949833420882
 21
983.7359342129101
 31
0.0
  0
LINE
  5
14121
330
1E
100
AcDbEntity
  8
24
100
AcDbLine
 10
146.949833420882
 20
950.2359342129096
 30
0.0
 11
146.949833420882
 21
983.7359342129101
 31
0.0
  0
LINE
  5
14122
330
1E
100
AcDbEntity
  8
24
100
AcDbLine
 10
176.949833420882
 20
950.2359342129096
 30
0.0
 11
176.949833420882
 21
983.7359342129101
 31
0.0
  0
LINE
  5
14123
330
1E
100
AcDbEntity
  8
24
100
AcDbLine
 10
131.949833420882
 20
950.2359342129096
 30
0.0
 11
131.949833420882
 21
1023.73593421291
 31
0.0
  0
LINE
  5
14124
330
1E
100
AcDbEntity
  8
24
100
AcDbLine
 10
131.949833420882
 20
950.2359342129096
 30
0.0
 11
131.949833420882
 21
1023.73593421291
 31
0.0
  0
LINE
  5
14125
330
1E
100
AcDbEntity
  8
24
100
AcDbLine
 10
149.949833420882
 20
942.7359342129101
 30
0.0
 11
173.949833420882
 21
942.7359342129101
 31
0.0
  0
LINE
  5
14126
330
1E
100
AcDbEntity
  8
24
100
AcDbLine
 10
151.449833420882
 20
967.7359342129101
 30
0.0
 11
172.449833420882
 21
967.7359342129101
 31
0.0
  0
ARC
  5
14127
330
1E
100
AcDbEntity
  8
24
100
AcDbCircle
 10
125.449833420882
 20
950.2359342129096
 30
0.0
 40
6.5
100
AcDbArc
 50
313.8130614603985
 51
0.0
  0
LINE
  5
14128
330
1E
100
AcDbEntity
  8
24
100
AcDbLine
 10
153.449833420882
 20
942.7359342129101
 30
0.0
 11
153.449833420882
 21
943.73593421291
 31
0.0
  0
ARC
  5
14129
330
1E
100
AcDbEntity
  8
24
100
AcDbCircle
 10
153.449833420882
 20
950.2359342129096
 30
0.0
 40
6.5
100
AcDbArc
 50
180.0
 51
270.0
  0
LINE
  5
1412A
330
1E
100
AcDbEntity
  8
24
100
AcDbLine
 10
161.949833420882
 20
957.2359342129097
 30
0.0
 11
161.949833420882
 21
978.2359342129096
 31
0.0
  0
ARC
  5
1412B
330
1E
100
AcDbEntity
  8
24
100
AcDbCircle
 10
170.4498334208819
 20
950.2359342129096
 30
0.0
 40
6.5
100
AcDbArc
 50
270.0
 51
0.0
  0
LINE
  5
1412C
330
1E
100
AcDbEntity
  8
24
100
AcDbLine
 10
170.4498334208819
 20
942.7359342129101
 30
0.0
 11
170.4498334208819
 21
943.73593421291
 31
0.0
  0
LINE
  5
1412E
330
1E
100
AcDbEntity
  8
24
100
AcDbLine
 10
146.949833420882
 20
983.7359342129101
 30
0.0
 11
176.949833420882
 21
983.7359342129101
 31
0.0
  0
LINE
  5
1412F
330
1E
100
AcDbEntity
  8
24
100
AcDbLine
 10
191.949833420882
 20
950.2359342129096
 30
0.0
 11
191.949833420882
 21
1023.73593421291
 31
0.0
  0
LINE
  5
14130
330
1E
100
AcDbEntity
  8
24
100
AcDbLine
 10
221.9498334208815
 20
950.2359342129096
 30
0.0
 11
221.9498334208815
 21
1023.73593421291
 31
0.0
  0
LINE
  5
14131
330
1E
100
AcDbEntity
  8
24
100
AcDbLine
 10
191.949833420882
 20
950.2359342129096
 30
0.0
 11
191.949833420882
 21
1023.73593421291
 31
0.0
  0
LINE
  5
14132
330
1E
100
AcDbEntity
  8
24
100
AcDbLine
 10
221.9498334208815
 20
950.2359342129096
 30
0.0
 11
221.9498334208815
 21
1023.73593421291
 31
0.0
  0
ARC
  5
14133
330
1E
100
AcDbEntity
  8
24
100
AcDbCircle
 10
198.449833420882
 20
950.2359342129096
 30
0.0
 40
6.5
100
AcDbArc
 50
180.0
 51
226.1869385396015
  0
ARC
  5
14134
330
1E
100
AcDbEntity
  8
24
100
AcDbCircle
 10
215.449833420882
 20
950.2359342129096
 30
0.0
 40
6.5
100
AcDbArc
 50
313.8130614603985
 51
0.0
  0
LINE
  5
14135
330
1E
100
AcDbEntity
  8
24
100
AcDbLine
 10
191.949833420882
 20
983.7359342129101
 30
0.0
 11
221.9498334208815
 21
983.7359342129101
 31
0.0
  0
LINE
  5
14136
330
1E
100
AcDbEntity
  8
24
100
AcDbLine
 10
191.949833420882
 20
1023.73593421291
 30
0.0
 11
221.9498334208815
 21
1023.73593421291
 31
0.0
  0
LINE
  5
14138
330
1E
100
AcDbEntity
  8
17
100
AcDbLine
 10
206.949833420882
 20
997.2359342129101
 30
0.0
 11
206.949833420882
 21
1018.23593421291
 31
0.0
  0
LINE
  5
14139
330
1E
100
AcDbEntity
  8
17
100
AcDbLine
 10
196.4498334208819
 20
1007.73593421291
 30
0.0
 11
217.4498334208815
 21
1007.73593421291
 31
0.0
  0
DIMENSION
  5
1413A
330
1E
100
AcDbEntity
  8
30
  6
Continuous
100
AcDbDimension
280
     0
  2
*D7
 10
269.5342260169756
 20
912.7359342129096
 30
0.0
 11
269.5342260169753
 21
897.0692675462426
 31
0.0
 70
   160
 71
     5
 42
14.69995867378998
 73
     0
 74
     0
 75
     0
  3
STANDARD
100
AcDbAlignedDimension
 13
142.4498540228696
 23
927.4358928866996
 33
0.0
 14
229.5065382793023
 24
912.7359342129096
 34
0.0
 50
90.0
100
AcDbRotatedDimension
  0
LINE
  5
1413B
330
1E
100
AcDbEntity
  8
18
100
AcDbLine
 10
243.0841713165428
 20
915.9359176824256
 30
0.0
 11
36.54438288172332
 21
915.9359176824256
 31
0.0
  0
LINE
  5
1413C
330
1E
100
AcDbEntity
  8
12
100
AcDbLine
 10
96.44985402286966
 20
927.4358928866996
 30
0.0
 11
92.44987468597448
 21
927.4358928866996
 31
0.0
  0
LINE
  5
1413D
330
1E
100
AcDbEntity
  8
12
100
AcDbLine
 10
96.44985402286966
 20
912.7359342129096
 30
0.0
 11
96.44985402286966
 21
927.4358928866996
 31
0.0
  0
LINE
  5
1413E
330
1E
100
AcDbEntity
  8
12
100
AcDbLine
 10
92.44987468597448
 20
912.7359342129096
 30
0.0
 11
92.44987468597448
 21
927.4358928866996
 31
0.0
  0
LINE
  5
1413F
330
1E
100
AcDbEntity
  8
12
100
AcDbLine
 10
138.4498746859744
 20
912.7359342129096
 30
0.0
 11
138.4498746859744
 21
927.4358928866996
 31
0.0
  0
LINE
  5
14140
330
1E
100
AcDbEntity
  8
12
100
AcDbLine
 10
142.4498540228696
 20
912.7359342129096
 30
0.0
 11
142.4498540228696
 21
927.4358928866996
 31
0.0
  0
LINE
  5
14141
330
1E
100
AcDbEntity
  8
12
100
AcDbLine
 10
142.4498540228696
 20
927.4358928866996
 30
0.0
 11
138.4498746859744
 21
927.4358928866996
 31
0.0
  0
LINE
  5
14142
330
1E
100
AcDbEntity
  8
18
100
AcDbLine
 10
243.9826022908073
 20
912.7359342129096
 30
0.0
 11
35.26192654302122
 21
912.7359342129096
 31
0.0
  0
DIMENSION
  5
14143
330
1E
100
AcDbEntity
  8
30
  6
Continuous
100
AcDbDimension
280
     0
  2
*D8
 10
84.44902005467517
 20
315.4531279870284
 30
0.0
 11
74.79424983296031
 21
359.1719401971551
 31
0.0
 70
   163
  1
M6
 71
     5
 42
5.999999999999487
 73
     0
 74
     0
 75
     0
  3
STANDARD1
100
AcDbDiametricDimension
 15
84.45065273094103
 25
321.4531277648918
 35
0.0
 40
0.0
  0
DIMENSION
  5
14144
330
1E
100
AcDbEntity
  8
30
  6
Continuous
100
AcDbDimension
280
     0
  2
*D9
 10
232.3506714840314
 20
419.0210374778776
 30
0.0
 11
139.8506714840314
 21
426.0210374778774
 31
0.0
 70
    32
 71
     5
 42
185.0
 73
     0
 74
     0
 75
     0
  3
STANDARD
100
AcDbAlignedDimension
 13
47.35067148403141
 23
479.4938972774822
 33
0.0
 14
232.3506714840314
 24
479.4938972774822
 34
0.0
100
AcDbRotatedDimension
1001
ACAD
1000
DSTYLE
1002
{
1070
    79
1070
     3
1002
}
  0
DIMENSION
  5
14145
330
1E
100
AcDbEntity
  8
30
  6
Continuous
100
AcDbDimension
280
     0
  2
*D10
 10
116.949833420882
 20
1053.299470425412
 30
0.0
 11
94.44983342088198
 21
1060.299470425412
 31
0.0
 70
    32
 71
     5
 42
45.0
 73
     0
 74
     0
 75
     0
  3
STANDARD
100
AcDbAlignedDimension
 13
71.94983342088199
 23
978.2359342129096
 33
0.0
 14
116.949833420882
 24
1018.23593421291
 34
0.0
100
AcDbRotatedDimension
1001
ACAD
1000
DSTYLE
1002
{
1070
    79
1070
     3
1070
   140
1040
8.0
1002
}
  0
DIMENSION
  5
14146
330
1E
100
AcDbEntity
  8
30
  6
Continuous
100
AcDbDimension
280
     0
  2
*D11
 10
161.949833420882
 20
1053.299470425412
 30
0.0
 11
139.449833420882
 21
1060.299470425412
 31
0.0
 70
    32
 71
     5
 42
45.0
 73
     0
 74
     0
 75
     0
  3
STANDARD
100
AcDbAlignedDimension
 13
116.949833420882
 23
1018.23593421291
 33
0.0
 14
161.949833420882
 24
978.2359342129096
 34
0.0
100
AcDbRotatedDimension
1001
ACAD
1000
DSTYLE
1002
{
1070
    79
1070
     3
1070
   140
1040
8.0
1002
}
  0
DIMENSION
  5
14147
330
1E
100
AcDbEntity
  8
30
  6
Continuous
100
AcDbDimension
280
     0
  2
*D12
 10
206.949833420882
 20
1053.299470425412
 30
0.0
 11
184.449833420882
 21
1060.299470425412
 31
0.0
 70
    32
 71
     5
 42
45.0
 73
     0
 74
     0
 75
     0
  3
STANDARD
100
AcDbAlignedDimension
 13
161.949833420882
 23
983.7359342129101
 33
0.0
 14
206.949833420882
 24
1018.23593421291
 34
0.0
100
AcDbRotatedDimension
1001
ACAD
1000
DSTYLE
1002
{
1070
    79
1070
     3
1070
   140
1040
8.0
1002
}
  0
LWPOLYLINE
  5
14148
330
1E
100
AcDbEntity
  8
10
380
     2
100
AcDbPolyline
 90
        4
 70
     1
 43
0.0
 10
700.0
 20
0.0
 10
700.0
 20
1088.0
 10
0.0
 20
1088.0
 10
0.0
 20
0.0
  0
LWPOLYLINE
  5
14149
330
1E
100
AcDbEntity
  8
10
  6
CONTINOUS
100
AcDbPolyline
 90
        4
 70
     0
 43
0.0
 10
99.97481600442007
 20
798.2359339149097
 10
99.94983249708186
 20
763.7742419393097
 10
133.9498343446817
 20
763.7742419393097
 10
133.97481600442
 20
798.2359339149097
  0
LWPOLYLINE
  5
1414A
330
1E
100
AcDbEntity
  8
10
  6
CONTINOUS
100
AcDbPolyline
 90
        4
 70
     0
 43
0.0
 10
91.44983389788194
 20
805.73593421291
 10
91.44983389748176
 20
798.2359339149097
 10
142.4498329438816
 20
798.2359339149097
 10
142.4498329438816
 20
805.73593421291
  0
LINE
  5
14152
330
1E
100
AcDbEntity
  8
10
  6
SLD-実線
370
    15
100
AcDbLine
 10
214.8506679078314
 20
664.3854240930822
 30
0.0
 11
204.8506699938316
 21
664.3854240930822
 31
0.0
  0
LINE
  5
14153
330
1E
100
AcDbEntity
  8
10
  6
SLD-実線
370
    15
100
AcDbLine
 10
204.8506699938316
 20
664.3854240930822
 30
0.0
 11
204.8506699938316
 21
652.3854221262824
 31
0.0
  0
LINE
  5
14154
330
1E
100
AcDbEntity
  8
10
  6
SLD-実線
370
    15
100
AcDbLine
 10
204.8506699938316
 20
652.3854221262824
 30
0.0
 11
214.8506679078314
 21
652.3854221262824
 31
0.0
  0
LINE
  5
14155
330
1E
100
AcDbEntity
  8
10
  6
SLD-実線
370
    15
100
AcDbLine
 10
214.8506679078314
 20
652.3854221262824
 30
0.0
 11
214.8506679078314
 21
664.3854240930822
 31
0.0
  0
LINE
  5
14156
330
1E
100
AcDbEntity
  8
10
  6
CONTINOUS
100
AcDbLine
 10
187.4006726282314
 20
518.1023709982823
 30
0.0
 11
187.4006726282314
 21
695.3854198610822
 31
0.0
  0
LINE
  5
14157
330
1E
100
AcDbEntity
  8
10
  6
SLD-実線
370
    15
100
AcDbLine
 10
207.8506686230312
 20
662.3854237650824
 30
0.0
 11
206.3506730338313
 21
662.3854237650824
 31
0.0
  0
LINE
  5
14158
330
1E
100
AcDbEntity
  8
10
  6
SLD-実線
370
    15
100
AcDbLine
 10
207.5506709950314
 20
660.6948199726822
 30
0.0
 11
211.8506692786314
 21
654.3854224538822
 31
0.0
  0
LINE
  5
14159
330
1E
100
AcDbEntity
  8
10
  6
SLD-実線
370
    15
100
AcDbLine
 10
207.5506709950314
 20
654.3854224538822
 30
0.0
 11
207.5506709950314
 21
660.6948199726822
 31
0.0
  0
LINE
  5
1415A
330
1E
100
AcDbEntity
  8
10
  6
SLD-実線
370
    15
100
AcDbLine
 10
206.3506730338313
 20
654.3854224538822
 30
0.0
 11
207.5506709950314
 21
654.3854224538822
 31
0.0
  0
LINE
  5
1415B
330
1E
100
AcDbEntity
  8
10
  6
SLD-実線
370
    15
100
AcDbLine
 10
206.3506730338313
 20
662.3854237650824
 30
0.0
 11
206.3506730338313
 21
654.3854224538822
 31
0.0
  0
LINE
  5
1415C
330
1E
100
AcDbEntity
  8
10
  6
SLD-実線
370
    15
100
AcDbLine
 10
211.8506692786314
 20
654.3854224538822
 30
0.0
 11
213.3506723182313
 21
654.3854224538822
 31
0.0
  0
LINE
  5
1415D
330
1E
100
AcDbEntity
  8
10
  6
SLD-実線
370
    15
100
AcDbLine
 10
212.1506743570317
 20
662.3854237650824
 30
0.0
 11
212.1506743570317
 21
656.0760262466823
 31
0.0
  0
LINE
  5
1415E
330
1E
100
AcDbEntity
  8
10
  6
SLD-実線
370
    15
100
AcDbLine
 10
213.3506723182313
 20
654.3854224538822
 30
0.0
 11
213.3506723182313
 21
662.3854237650824
 31
0.0
  0
LINE
  5
1415F
330
1E
100
AcDbEntity
  8
10
  6
SLD-実線
370
    15
100
AcDbLine
 10
213.3506723182313
 20
662.3854237650824
 30
0.0
 11
212.1506743570317
 21
662.3854237650824
 31
0.0
  0
LINE
  5
14160
330
1E
100
AcDbEntity
  8
10
  6
SLD-実線
370
    15
100
AcDbLine
 10
212.1506743570317
 20
656.0760262466823
 30
0.0
 11
207.8506686230312
 21
662.3854237650824
 31
0.0
  0
LINE
  5
14161
330
1E
100
AcDbEntity
  8
10
  6
CONTINOUS
100
AcDbLine
 10
232.3506735702313
 20
700.8854235566823
 30
0.0
 11
187.4006726282314
 21
700.8854235566823
 31
0.0
  0
LINE
  5
14162
330
1E
100
AcDbEntity
  8
10
  6
CONTINOUS
100
AcDbLine
 10
187.4006726282314
 20
700.8854235566823
 30
0.0
 11
187.4006726282314
 21
695.3854198610822
 31
0.0
  0
LINE
  5
14163
330
1E
100
AcDbEntity
  8
10
  6
CONTINOUS
100
AcDbLine
 10
186.3506697554312
 20
700.8854235566823
 30
0.0
 11
47.35067118583173
 21
700.8854235566823
 31
0.0
  0
LINE
  5
14164
330
1E
100
AcDbEntity
  8
10
  6
CONTINOUS
100
AcDbLine
 10
232.3506714840314
 20
518.1023709982823
 30
0.0
 11
47.35067118583173
 21
518.1023709982823
 31
0.0
  0
LINE
  5
14165
330
1E
100
AcDbEntity
  8
16
 48
2.0
100
AcDbLine
 10
671.4650427503384
 20
211.4531278759599
 30
0.0
 11
479.8197045534171
 21
211.4531278759602
 31
0.0
  0
LINE
  5
14166
330
1E
100
AcDbEntity
  8
16
 48
2.0
100
AcDbLine
 10
554.1008571329675
 20
72.7409507232851
 30
0.0
 11
554.1008571329675
 21
360.9247412967406
 31
0.0
  0
LWPOLYLINE
  5
14167
330
1E
100
AcDbEntity
  8
18
  6
DIVIDE
100
AcDbPolyline
 90
        4
 70
     1
 43
0.0
 10
669.1008571329676
 20
81.45312787595992
 10
669.1008571329676
 20
341.4531278759604
 10
484.1008571329675
 20
341.4531278759604
 10
484.1008571329675
 20
81.45312787595992
  0
LWPOLYLINE
  5
14168
330
1E
100
AcDbEntity
  8
11
 48
2.0
100
AcDbPolyline
 90
        8
 70
     1
 43
0.0
 10
578.6008571329675
 20
165.4531278759599
 42
0.4142135623730951
 10
580.6008571329676
 20
167.4531278759599
 10
580.6008571329676
 20
255.4531278759601
 42
0.4142135623730951
 10
578.6008571329675
 20
257.4531278759601
 10
529.6008571329675
 20
257.4531278759601
 42
0.4142135623730951
 10
527.6008571329676
 20
255.4531278759601
 10
527.6008571329676
 20
167.4531278759599
 42
0.4142135623730951
 10
529.6008571329675
 20
165.4531278759599
  0
DIMENSION
  5
14169
330
1E
100
AcDbEntity
  8
30
  6
Continuous
100
AcDbDimension
280
     0
  2
*D13
 10
580.6008571329676
 20
49.36550365985056
 30
0.0
 11
554.1008571329675
 21
49.36550365985056
 31
0.0
 70
   160
 71
     5
 42
53.0
 73
     0
 74
     0
 75
     0
  3
STANDARD
100
AcDbAlignedDimension
 13
527.6008571329676
 23
164.07232407759
 33
0.0
 14
580.6008571329676
 24
164.07232407759
 34
0.0
100
AcDbRotatedDimension
1001
ACAD
1000
DSTYLE
1002
{
1070
    79
1070
     3
1070
   140
1040
8.0
1002
}
  0
DIMENSION
  5
1416A
330
1E
100
AcDbEntity
  8
30
  6
Continuous
100
AcDbDimension
280
     0
  2
*D14
 10
689.8753840024219
 20
165.4531278759599
 30
0.0
 11
689.8753840024219
 21
211.45312787596
 31
0.0
 70
   160
 71
     5
 42
92.00000000000015
 73
     0
 74
     0
 75
     0
  3
STANDARD
100
AcDbAlignedDimension
 13
580.6428397460657
 23
257.4531278759601
 33
0.0
 14
580.6428397460657
 24
165.4531278759599
 34
0.0
 50
90.0
100
AcDbRotatedDimension
1001
ACAD
1000
DSTYLE
1002
{
1070
    79
1070
     3
1070
   140
1040
8.0
1002
}
  0
MTEXT
  5
1416C
330
1E
100
AcDbEntity
  8
19
100
AcDbMText
 10
336.4991271979298
 20
26.95654655366195
 30
0.0
 40
10.0
 41
0.0
 46
0.0
 71
     1
 72
     1
  1
[Cutout A]
  7
SLDTEXTSTYLE0
 73
     1
 44
1.0
  0
MTEXT
  5
1416D
330
1E
100
AcDbEntity
  8
19
100
AcDbMText
 10
526.0103327135675
 20
26.95654655366195
 30
0.0
 40
10.0
 41
0.0
 46
0.0
 71
     1
 72
     1
  1
[Cutout B]
  7
SLDTEXTSTYLE0
 73
     1
 44
1.0
  0
LINE
  5
1416E
330
1E
100
AcDbEntity
  8
16
 48
2.0
100
AcDbLine
 10
473.239990968489
 20
211.4531278759599
 30
0.0
 11
273.1381175562474
 21
211.4531278759599
 31
0.0
  0
LINE
  5
1416F
330
1E
100
AcDbEntity
  8
16
 48
2.0
100
AcDbLine
 10
356.051666412045
 20
72.01657178527057
 30
0.0
 11
356.051666412045
 21
360.9247412967406
 31
0.0
  0
LWPOLYLINE
  5
14170
330
1E
100
AcDbEntity
  8
18
  6
DIVIDE
100
AcDbPolyline
 90
        4
 70
     1
 43
0.0
 10
471.051666412045
 20
81.45312787595992
 10
471.051666412045
 20
341.4531278759604
 10
286.0516664120451
 20
341.4531278759604
 10
286.0516664120451
 20
81.45312787595992
  0
LWPOLYLINE
  5
14171
330
1E
100
AcDbEntity
  8
11
 48
2.0
100
AcDbPolyline
 90
        8
 70
     1
 43
0.0
 10
413.051666412045
 20
165.4531278759599
 42
0.4142135623730951
 10
415.0516664120448
 20
167.4531278759599
 10
415.0516664120448
 20
255.4531278759601
 42
0.4142135623730951
 10
413.051666412045
 20
257.4531278759601
 10
299.051666412045
 20
257.4531278759601
 42
0.4142135623730951
 10
297.0516664120451
 20
255.4531278759601
 10
297.0516664120451
 20
167.4531278759599
 42
0.4142135623730951
 10
299.051666412045
 20
165.4531278759599
  0
DIMENSION
  5
14172
330
1E
100
AcDbEntity
  8
30
  6
Continuous
100
AcDbDimension
280
     0
  2
*D15
 10
415.0516664120448
 20
49.36550365985056
 30
0.0
 11
356.051666412045
 21
49.36550365985056
 31
0.0
 70
   160
 71
     5
 42
118.0
 73
     0
 74
     0
 75
     0
  3
STANDARD
100
AcDbAlignedDimension
 13
297.0516664120451
 23
164.07232407759
 33
0.0
 14
415.0516664120448
 24
164.07232407759
 34
0.0
100
AcDbRotatedDimension
1001
ACAD
1000
DSTYLE
1002
{
1070
    79
1070
     3
1070
   140
1040
8.0
1002
}
  0
DIMENSION
  5
14173
330
1E
100
AcDbEntity
  8
30
  6
Continuous
100
AcDbDimension
280
     0
  2
*D16
 10
443.1840474903775
 20
165.4531278759599
 30
0.0
 11
443.1840474903773
 21
222.2934255048501
 31
0.0
 70
   160
 71
     5
 42
92.00000000000022
 73
     0
 74
     0
 75
     0
  3
STANDARD
100
AcDbAlignedDimension
 13
415.0936490251432
 23
257.4531278759601
 33
0.0
 14
415.0936490251432
 24
165.4531278759599
 34
0.0
 50
90.0
100
AcDbRotatedDimension
1001
ACAD
1000
DSTYLE
1002
{
1070
    79
1070
     3
1070
   140
1040
8.0
1002
}
  0
DIMENSION
  5
14687
330
1E
100
AcDbEntity
  8
30
  6
Continuous
100
AcDbDimension
280
     0
  2
*D17
 10
413.2289752269995
 20
255.1331720472802
 30
0.0
 11
445.8190126205876
 21
287.2722740576478
 31
0.0
 70
   164
 71
     5
 42
2.000000000179568
 73
     0
 74
     0
 75
     0
  3
STANDARD1
100
AcDbRadialDimension
 15
414.3903399054988
 25
256.7614324945838
 35
0.0
 40
0.0
  0
DIMENSION
  5
146AA
330
1E
100
AcDbEntity
  8
30
  6
Continuous
100
AcDbDimension
280
     0
  2
*D18
 10
578.7781659479215
 20
255.1331720472806
 30
0.0
 11
611.3682033415081
 21
287.2722740576481
 31
0.0
 70
   164
 71
     5
 42
2.000000000179622
 73
     0
 74
     0
 75
     0
  3
STANDARD1
100
AcDbRadialDimension
 15
579.9395306264202
 25
256.7614324945842
 35
0.0
 40
0.0
  0
DIMENSION
  5
15DED
330
1E
100
AcDbEntity
  8
30
  6
Continuous
100
AcDbDimension
280
     0
  2
*D19
 10
175.5932504725315
 20
540.6551184310098
 30
0.0
 11
117.5932504725315
 21
547.6551184310095
 31
0.0
 70
    32
 71
     5
 42
116.0
 73
     0
 74
     0
 75
     0
  3
STANDARD
100
AcDbAlignedDimension
 13
59.59325047253151
 23
565.4938972774822
 33
0.0
 14
175.5932504725315
 24
565.4938972774822
 34
0.0
100
AcDbRotatedDimension
  0
DIMENSION
  5
15DEE
330
1E
100
AcDbEntity
  8
30
  6
Continuous
100
AcDbDimension
280
     0
  2
*D20
 10
92.0932504725315
 20
666.5210103932865
 30
0.0
 11
117.5826057252814
 21
673.5210103932862
 31
0.0
 70
    32
 71
     5
 42
50.97871050549976
 73
     0
 74
     0
 75
     0
  3
STANDARD
100
AcDbAlignedDimension
 13
143.0719609780312
 23
654.4938972774822
 33
0.0
 14
92.0932504725315
 24
654.4938972774822
 34
0.0
100
AcDbRotatedDimension
  0
DIMENSION
  5
19BC5
330
1E
100
AcDbEntity
  8
30
  6
Continuous
100
AcDbDimension
280
     0
  2
*D21
 10
661.2126651760973
 20
719.4938972774823
 30
0.0
 11
654.2126651760971
 21
709.8272306108158
 31
0.0
 70
    32
 71
     5
 42
8.0
 73
     0
 74
     0
 75
     0
  3
STANDARD
100
AcDbAlignedDimension
 13
644.0623810060898
 23
727.4938972774823
 33
0.0
 14
644.0623810060898
 24
719.4938972774823
 34
0.0
 50
90.0
100
AcDbRotatedDimension
  0
LINE
  5
19E2A
330
1E
100
AcDbEntity
  8
17
100
AcDbLine
 10
527.6417573042781
 20
495.4938972774818
 30
0.0
 11
652.0623810060897
 21
495.4938972774816
 31
0.0
  0
LINE
  5
19E2B
330
1E
100
AcDbEntity
  8
24
100
AcDbLine
 10
608.0623810060895
 20
510.4938972774816
 30
0.0
 11
644.0623810060898
 21
510.4938972774816
 31
0.0
  0
LINE
  5
19E2C
330
1E
100
AcDbEntity
  8
24
100
AcDbLine
 10
608.0623810060895
 20
480.4938972774817
 30
0.0
 11
644.0623810060898
 21
480.4938972774817
 31
0.0
  0
LINE
  5
19E2D
330
1E
100
AcDbEntity
  8
24
100
AcDbLine
 10
533.0623810060897
 20
507.4938972774833
 30
0.0
 11
564.0623810060898
 21
507.4938972774833
 31
0.0
  0
LINE
  5
19E2E
330
1E
100
AcDbEntity
  8
24
100
AcDbLine
 10
533.0623810060897
 20
483.4938972774831
 30
0.0
 11
564.0623810060898
 21
483.4938972774831
 31
0.0
  0
LINE
  5
19E31
330
1E
100
AcDbEntity
  8
24
100
AcDbLine
 10
571.5623810060898
 20
510.4938972774831
 30
0.0
 11
604.0623810060894
 21
510.4938972774831
 31
0.0
  0
LINE
  5
19E32
330
1E
100
AcDbEntity
  8
24
100
AcDbLine
 10
571.5623810060898
 20
480.4938972774831
 30
0.0
 11
604.0623810060894
 21
480.4938972774831
 31
0.0
  0
LINE
  5
19E33
330
1E
100
AcDbEntity
  8
24
100
AcDbLine
 10
571.5623810060898
 20
510.4938972774831
 30
0.0
 11
604.0623810060894
 21
510.4938972774831
 31
0.0
  0
LINE
  5
19E34
330
1E
100
AcDbEntity
  8
24
100
AcDbLine
 10
571.5623810060898
 20
480.4938972774831
 30
0.0
 11
604.0623810060894
 21
480.4938972774831
 31
0.0
  0
LINE
  5
19E36
330
1E
100
AcDbEntity
  8
24
100
AcDbLine
 10
564.0623810060898
 20
483.4938972774831
 30
0.0
 11
564.0623810060898
 21
507.4938972774833
 31
0.0
  0
LINE
  5
19E37
330
1E
100
AcDbEntity
  8
24
100
AcDbLine
 10
564.0623810060898
 20
486.9938972774833
 30
0.0
 11
565.0623810060898
 21
486.9938972774833
 31
0.0
  0
ARC
  5
19E38
330
1E
100
AcDbEntity
  8
24
100
AcDbCircle
 10
571.5623810060898
 20
486.9938972774833
 30
0.0
 40
6.5
100
AcDbArc
 50
180.0
 51
270.0
  0
LINE
  5
19E39
330
1E
100
AcDbEntity
  8
24
100
AcDbLine
 10
564.0623810060898
 20
503.9938972774833
 30
0.0
 11
565.0623810060898
 21
503.9938972774833
 31
0.0
  0
ARC
  5
19E3A
330
1E
100
AcDbEntity
  8
24
100
AcDbCircle
 10
571.5623810060898
 20
503.9938972774833
 30
0.0
 40
6.5
100
AcDbArc
 50
90.0
 51
180.0
  0
LINE
  5
19E3B
330
1E
100
AcDbEntity
  8
17
100
AcDbLine
 10
589.0623810060892
 20
505.9938972774832
 30
0.0
 11
589.0623810060892
 21
484.9938972774831
 31
0.0
  0
LINE
  5
19E3C
330
1E
100
AcDbEntity
  8
24
100
AcDbLine
 10
604.0623810060894
 20
480.4938972774831
 30
0.0
 11
604.0623810060894
 21
510.4938972774831
 31
0.0
  0
LINE
  5
19E3D
330
1E
100
AcDbEntity
  8
17
100
AcDbLine
 10
629.0623810060894
 20
505.9938972774818
 30
0.0
 11
629.0623810060894
 21
484.9938972774817
 31
0.0
  0
LINE
  5
19E3E
330
1E
100
AcDbEntity
  8
24
100
AcDbLine
 10
644.0623810060898
 20
480.4938972774817
 30
0.0
 11
644.0623810060898
 21
510.4938972774816
 31
0.0
  0
LWPOLYLINE
  5
19EFE
330
1E
100
AcDbEntity
  8
10
  6
CONTINOUS
100
AcDbPolyline
 90
       11
 70
     1
 43
0.0
 10
433.0486722478665
 20
517.5254577690903
 10
436.0623810060896
 20
517.4938970984818
 10
436.0623810060896
 20
479.4938972774824
 10
533.0623810060897
 20
479.4938972774824
 10
533.0623810060897
 20
739.4938972774824
 10
436.0623810060896
 20
739.4938972774824
 10
436.0623810060896
 20
701.4520089296572
 10
432.9832822967047
 20
701.4197642081088
 42
0.2520626822056452
 10
430.0623838670894
 20
695.9938978013272
 10
430.0623810060897
 20
660.4938972774824
 10
430.0623838670894
 20
522.993897142235
 42
0.2552568693989432
  0
LINE
  5
1A069
330
1E
100
AcDbEntity
  8
0
  6
SLD-実線
 62
     7
370
    30
100
AcDbLine
 10
426.0623830925901
 20
565.5253687684819
 30
0.0
 11
426.0623830925901
 21
653.462425786482
 31
0.0
  0
LINE
  5
1A06A
330
1E
100
AcDbEntity
  8
10
  6
CONTINOUS
100
AcDbLine
 10
418.5623827940903
 20
565.4938972774822
 30
0.0
 11
418.5623827940903
 21
653.4938972774822
 31
0.0
  0
LINE
  5
1A06B
330
1E
100
AcDbEntity
  8
10
  6
CONTINOUS
100
AcDbLine
 10
426.0623810060899
 20
654.4938972774822
 30
0.0
 11
426.0623810060899
 21
564.4938972774822
 31
0.0
  0
LINE
  5
1A06C
330
1E
100
AcDbEntity
  8
10
  6
CONTINOUS
100
AcDbLine
 10
419.5623827940903
 20
564.4938972774822
 30
0.0
 11
430.0623810060899
 21
564.4938972774822
 31
0.0
  0
ARC
  5
1A06D
330
1E
100
AcDbEntity
  8
10
  6
CONTINOUS
100
AcDbCircle
 10
419.5623827940903
 20
565.4938972774822
 30
0.0
 40
1.0
100
AcDbArc
 50
180.0
 51
270.0
  0
LINE
  5
1A06E
330
1E
100
AcDbEntity
  8
10
  6
CONTINOUS
100
AcDbLine
 10
419.5623827940903
 20
654.4938972774822
 30
0.0
 11
430.0623810060899
 21
654.4938972774822
 31
0.0
  0
ARC
  5
1A06F
330
1E
100
AcDbEntity
  8
10
  6
CONTINOUS
100
AcDbCircle
 10
419.5623827940903
 20
653.4938972774822
 30
0.0
 40
1.0
100
AcDbArc
 50
90.0
 51
180.0
  0
LWPOLYLINE
  5
1A070
330
1E
100
AcDbEntity
  8
10
  6
CONTINOUS
100
AcDbPolyline
 90
        8
 70
     1
 43
0.0
 10
409.2478157116518
 20
637.4803790693589
 10
399.8740121290706
 20
637.7380991108502
 10
385.7168843325703
 20
641.3551113353502
 10
382.6110502060706
 20
629.7640009568502
 10
396.7223157460708
 20
625.7931506978502
 10
405.1602218310286
 20
622.2252590664512
 10
410.1788255940901
 20
621.2911503199817
 10
414.0611145265896
 20
635.780037361482
  0
ARC
  5
1A071
330
1E
100
AcDbEntity
  8
10
  6
CONTINOUS
100
AcDbCircle
 10
463.1604933567668
 20
809.5230301598489
 30
0.0
 40
181.6640122735105
100
AcDbArc
 50
252.8048349791452
 51
255.7887474977204
  0
ARC
  5
1A072
330
1E
100
AcDbEntity
  8
10
  6
CONTINOUS
100
AcDbCircle
 10
404.9187147693387
 20
575.6816144570462
 30
0.0
 40
46.90130289725614
100
AcDbArc
 50
73.08805372621606
 51
83.24228441301258
  0
LWPOLYLINE
  5
1A073
330
1E
100
AcDbEntity
  8
10
  6
CONTINOUS
100
AcDbPolyline
 90
        3
 70
     0
 43
0.0
 10
409.45562708959
 20
635.9787974854821
 10
406.0909795030902
 20
623.4217617434823
 10
410.43764572109
 20
622.2570760404821
  0
DIMENSION
  5
1A074
330
1E
100
AcDbEntity
  8
30
  6
Continuous
100
AcDbDimension
280
     0
  2
*D22
 10
361.5644749064946
 20
564.4938972774822
 30
0.0
 11
361.5644749064945
 21
609.4938972774825
 31
0.0
 70
   160
 71
     5
 42
90.0
 73
     0
 74
     0
 75
     0
  3
STANDARD
100
AcDbAlignedDimension
 13
419.5623827940899
 23
654.4938972774822
 33
0.0
 14
411.8486461786737
 24
564.4938972774822
 34
0.0
 50
90.0
100
AcDbRotatedDimension
1001
ACAD
1000
DSTYLE
1002
{
1070
    79
1070
     3
1002
}
  0
DIMENSION
  5
1A287
330
1E
100
AcDbEntity
  8
30
100
AcDbDimension
280
     0
  2
*D23
 10
35.23619203160432
 20
967.7359342129101
 30
0.0
 11
28.23619203160418
 21
940.2359342129097
 31
0.0
 70
    32
 71
     5
 42
55.0
 73
     0
 74
     0
 75
     0
  3
STANDARD
100
AcDbAlignedDimension
 13
46.94983342088199
 23
912.7359342129096
 33
0.0
 14
61.44983342088199
 24
967.7359342129101
 34
0.0
 50
90.0
100
AcDbRotatedDimension
  0
DIMENSION
  5
1A288
330
1E
100
AcDbEntity
  8
30
100
AcDbDimension
280
     0
  2
*D24
 10
20.01597697909892
 20
983.7359342129101
 30
0.0
 11
13.01597697909876
 21
948.23593421291
 31
0.0
 70
    32
 71
     5
 42
71.0
 73
     0
 74
     0
 75
     0
  3
STANDARD
100
AcDbAlignedDimension
 13
46.94983342088199
 23
912.7359342129096
 33
0.0
 14
56.949833420882
 24
983.7359342129101
 34
0.0
 50
90.0
100
AcDbRotatedDimension
  0
DIMENSION
  5
1A2B3
330
1E
100
AcDbEntity
  8
30
100
AcDbDimension
280
     0
  2
*D25
 10
286.68485774692
 20
1007.73593421291
 30
0.0
 11
279.6848577469198
 21
960.2359342129096
 31
0.0
 70
    32
 71
     5
 42
95.0000000000003
 73
     0
 74
     0
 75
     0
  3
STANDARD
100
AcDbAlignedDimension
 13
248.5723390344438
 23
912.7359342129096
 33
0.0
 14
217.4498334208815
 24
1007.73593421291
 34
0.0
 50
90.0
100
AcDbRotatedDimension
  0
DIMENSION
  5
1A2B4
330
1E
100
AcDbEntity
  8
30
100
AcDbDimension
280
     0
  2
*D26
 10
305.7411227387256
 20
1023.73593421291
 30
0.0
 11
298.7411227387255
 21
968.2359342129096
 31
0.0
 70
    32
 71
     5
 42
111.0000000000003
 73
     0
 74
     0
 75
     0
  3
STANDARD
100
AcDbAlignedDimension
 13
230.0
 23
912.7359342129096
 33
0.0
 14
221.9498334208815
 24
1023.73593421291
 34
0.0
 50
90.0
100
AcDbRotatedDimension
  0
DIMENSION
  5
1A515
330
1E
100
AcDbEntity
  8
30
  6
Continuous
100
AcDbDimension
280
     0
  2
*D27
 10
533.0623810060897
 20
425.2947567027348
 30
0.0
 11
468.0623810060897
 21
425.2947567027348
 31
0.0
 70
   160
  1
<>
 71
     2
 42
130.0
 73
     0
 74
     0
 75
     0
  3
STANDARD
100
AcDbAlignedDimension
 13
403.0623810060896
 23
612.0
 33
0.0
 14
533.0623810060897
 24
479.4938972774824
 34
0.0
100
AcDbRotatedDimension
1001
ACAD
1000
DSTYLE
1002
{
1070
    79
1070
     3
1002
}
  0
DIMENSION
  5
1A516
330
1E
100
AcDbEntity
  8
30
  6
Continuous
100
AcDbDimension
280
     0
  2
*D28
 10
533.0623810060897
 20
457.3348303280521
 30
0.0
 11
481.562381006089
 21
457.3348303280521
 31
0.0
 70
   160
  1
<>
 71
     2
 42
103.0
 73
     0
 74
     0
 75
     0
  3
STANDARD
100
AcDbAlignedDimension
 13
430.0623810060897
 23
529.3264926460254
 33
0.0
 14
533.0623810060897
 24
479.4938972774824
 34
0.0
100
AcDbRotatedDimension
1001
ACAD
1000
DSTYLE
1002
{
1070
    79
1070
     3
1002
}
  0
DIMENSION
  5
1A517
330
1E
100
AcDbEntity
  8
30
  6
Continuous
100
AcDbDimension
280
     0
  2
*D29
 10
533.0623810060897
 20
407.9706853769621
 30
0.0
 11
457.565633121332
 21
414.9706853769624
 31
0.0
 70
    32
 71
     5
 42
150.9934957695154
 73
     0
 74
     0
 75
     0
  3
STANDARD
100
AcDbAlignedDimension
 13
382.0688852365742
 23
622.0000000000001
 33
0.0
 14
533.0623810060897
 24
424.7947567027348
 34
0.0
100
AcDbRotatedDimension
1001
ACAD
1000
DSTYLE
1002
{
1070
    79
1070
     3
1002
}
  0
DIMENSION
  5
1A518
330
1E
100
AcDbEntity
  8
30
  6
Continuous
100
AcDbDimension
280
     0
  2
*D30
 10
418.0623808870896
 20
441.0953494397771
 30
0.0
 11
408.3957142204229
 21
448.0953494397771
 31
0.0
 70
    32
 71
     5
 42
8.0
 73
     0
 74
     0
 75
     0
  3
STANDARD1
100
AcDbAlignedDimension
 13
426.0623808870896
 23
559.0000000000001
 33
0.0
 14
418.0623808870896
 24
559.0000000000001
 34
0.0
100
AcDbRotatedDimension
  0
DIMENSION
  5
1A519
330
1E
100
AcDbEntity
  8
30
  6
Continuous
100
AcDbDimension
280
     0
  2
*D31
 10
533.0623810060897
 20
441.0953494397771
 30
0.0
 11
479.5623809465896
 21
448.0953494397771
 31
0.0
 70
    32
 71
     5
 42
107.0000001190001
 73
     0
 74
     0
 75
     0
  3
STANDARD
100
AcDbAlignedDimension
 13
426.0623808870896
 23
441.0953494397771
 33
0.0
 14
533.0623810060897
 24
457.3348303280521
 34
0.0
100
AcDbRotatedDimension
1001
ACAD
1000
DSTYLE
1002
{
1070
    79
1070
     3
1002
}
  0
ARC
  5
1A51A
330
1E
100
AcDbEntity
  8
30
  6
Continuous
100
AcDbCircle
 10
403.2692332988768
 20
624.1922467649327
 30
0.0
 40
21.3963775782504
100
AcDbArc
 50
164.9058206776103
 51
187.7617629093263
  0
ARC
  5
1A51B
330
1E
100
AcDbEntity
  8
30
  6
Continuous
100
AcDbCircle
 10
433.1425500585591
 20
609.2897588535296
 30
0.0
 40
30.29117494757552
100
AcDbArc
 50
153.2592132366065
 51
173.2332630719459
  0
DIMENSION
  5
1BCBC
330
1E
100
AcDbEntity
  8
30
  6
Continuous
100
AcDbDimension
280
     0
  2
*D32
 10
86.94983342088198
 20
1013.516297317981
 30
0.0
 11
38.13305644484353
 21
1013.516297317981
 31
0.0
 70
   160
  1
<>
 71
     2
 42
30.0
 73
     0
 74
     0
 75
     0
  3
STANDARD
100
AcDbAlignedDimension
 13
56.949833420882
 23
983.2359342129096
 33
0.0
 14
86.94983342088198
 24
983.2359342129096
 34
0.0
100
AcDbRotatedDimension
  0
DIMENSION
  5
1BCBD
330
1E
100
AcDbEntity
  8
30
  6
Continuous
100
AcDbDimension
280
     0
  2
*D33
 10
78.44983342088198
 20
996.6424347975101
 30
0.0
 11
38.4314335996678
 21
996.6424347975101
 31
0.0
 70
   160
  1
<>
 71
     2
 42
13.0
 73
     0
 74
     0
 75
     0
  3
STANDARD
100
AcDbAlignedDimension
 13
65.44983342088197
 23
972.2359342129092
 33
0.0
 14
78.44983342088198
 24
972.2359342129101
 34
0.0
100
AcDbRotatedDimension
  0
DIMENSION
  5
1BDE3
330
1E
100
AcDbEntity
  8
30
  6
Continuous
100
AcDbDimension
280
     0
  2
*D34
 10
117.3506714840314
 20
451.7830900999223
 30
0.0
 11
100.3506714840314
 21
458.7830900999223
 31
0.0
 70
    32
 71
     5
 42
22.5
 73
     0
 74
     0
 75
     0
  3
STANDARD
100
AcDbAlignedDimension
 13
139.8506714840314
 23
447.5840344571223
 33
0.0
 14
117.3506714840314
 24
471.3990331162878
 34
0.0
100
AcDbRotatedDimension
  0
LINE
  5
1BDE4
330
1E
100
AcDbEntity
  8
16
 48
2.0
100
AcDbLine
 10
139.8506714840314
 20
452.2830900999223
 30
0.0
 11
139.8506714840314
 21
748.8619138678204
 31
0.0
  0
ELLIPSE
  5
1C08E
330
1E
100
AcDbEntity
  8
24
  6
CONTINOUS
100
AcDbEllipse
 10
71.94983342088199
 20
967.7359342129097
 30
0.0
 11
0.0
 21
-7.0
 31
0.0
210
0.0
220
0.0
230
1.0
 40
0.9285714285714286
 41
0.0
 42
6.283185307179584
  0
DIMENSION
  5
1C1EE
330
1E
100
AcDbEntity
  8
30
100
AcDbDimension
280
     0
  2
*D36
 10
50.30596879930635
 20
960.73593421291
 30
0.0
 11
50.30596879930619
 21
946.9087065187364
 31
0.0
 70
   160
 71
     5
 42
14.0
 73
     0
 74
     0
 75
     0
  3
STANDARD
100
AcDbAlignedDimension
 13
71.94983342088199
 23
974.7359342129097
 33
0.0
 14
71.94983342088199
 24
960.73593421291
 34
0.0
 50
90.0
100
AcDbRotatedDimension
  0
ELLIPSE
  5
1C252
330
1E
100
AcDbEntity
  8
24
  6
CONTINOUS
100
AcDbEllipse
 10
116.949833420882
 20
1007.73593421291
 30
0.0
 11
0.0
 21
-7.0
 31
0.0
210
0.0
220
0.0
230
1.0
 40
0.9285714285714286
 41
0.0
 42
6.283185307179584
  0
ELLIPSE
  5
1C25A
330
1E
100
AcDbEntity
  8
24
  6
CONTINOUS
100
AcDbEllipse
 10
161.949833420882
 20
967.7359342129101
 30
0.0
 11
0.0
 21
-7.0
 31
0.0
210
0.0
220
0.0
230
1.0
 40
0.9285714285714286
 41
0.0
 42
6.283185307179584
  0
ELLIPSE
  5
1C262
330
1E
100
AcDbEntity
  8
24
  6
CONTINOUS
100
AcDbEllipse
 10
206.949833420882
 20
1007.73593421291
 30
0.0
 11
0.0
 21
-7.0
 31
0.0
210
0.0
220
0.0
230
1.0
 40
0.9285714285714286
 41
0.0
 42
6.283185307179584
  0
ELLIPSE
  5
1C26A
330
1E
100
AcDbEntity
  8
24
  6
CONTINOUS
100
AcDbEllipse
 10
589.0623810060898
 20
495.4938972774832
 30
0.0
 11
0.0
 21
-7.0
 31
0.0
210
0.0
220
0.0
230
1.0
 40
0.9285714285714286
 41
0.0
 42
6.283185307179584
  0
ELLIPSE
  5
1C272
330
1E
100
AcDbEntity
  8
24
  6
CONTINOUS
100
AcDbEllipse
 10
629.0623810060894
 20
495.4938972774818
 30
0.0
 11
0.0
 21
-7.0
 31
0.0
210
0.0
220
0.0
230
1.0
 40
0.9285714285714286
 41
0.0
 42
6.283185307179584
  0
DIMENSION
  5
1C2AD
330
1E
100
AcDbEntity
  8
30
100
AcDbDimension
280
     0
  2
*D37
 10
129.4498363928092
 20
46.95668450142512
 30
0.0
 11
106.9498363928089
 21
53.95668450142512
 31
0.0
 70
    32
 71
     5
 42
45.00000000000045
 73
     0
 74
     0
 75
     0
  3
STANDARD
100
AcDbAlignedDimension
 13
84.44983639280872
 23
101.4531278759599
 33
0.0
 14
129.4498363928092
 24
101.4531278759599
 34
0.0
100
AcDbRotatedDimension
  0
LINE
  5
1C408
330
1E
100
AcDbEntity
  8
17
100
AcDbLine
 10
527.6417573042781
 20
723.4938972774819
 30
0.0
 11
652.0623810060897
 21
723.4938972774816
 31
0.0
  0
VIEWPORT
  5
9AC
330
1A
100
AcDbEntity
 67
     1
  8
0
  6
Continuous
348
8A77
100
AcDbViewport
 10
171.999535
 20
144.1384739999999
 30
0.0
 40
488.867686
 41
292.351491
 68
     1
 69
     1
 12
171.999535
 22
144.1384739999999
 13
0.0
 23
0.0
 14
10.0
 24
10.0
 15
10.0
 25
10.0
 16
0.0
 26
0.0
 36
1.0
 17
0.0
 27
0.0
 37
0.0
 42
50.0
 43
0.0
 44
0.0
 45
292.351491
 50
0.0
 51
0.0
 72
   100
 90
    32800
  1

281
     0
 71
     1
 74
     0
110
0.0
120
0.0
130
0.0
111
1.0
121
0.0
131
0.0
112
0.0
122
1.0
132
0.0
 79
     0
146
0.0
170
     0
 61
     5
348
8A77
292
     1
282
     1
141
0.0
142
0.0
 63
   250
421
  3355443
  0
ENDSEC
  0
SECTION
  2
OBJECTS
  0
DICTIONARY
  5
C
330
0
100
AcDbDictionary
281
     1
  3
ACAD_CIP_PREVIOUS_PRODUCT_INFO
350
8AA8
  3
ACAD_COLOR
350
8A8A
  3
ACAD_DETAILVIEWSTYLE
350
8AA3
  3
ACAD_GROUP
350
D
  3
ACAD_LAYOUT
350
19
  3
ACAD_MATERIAL
350
8A58
  3
ACAD_MLEADERSTYLE
350
8A9F
  3
ACAD_MLINESTYLE
350
16
  3
ACAD_PLOTSETTINGS
350
18
  3
ACAD_PLOTSTYLENAME
350
E
  3
ACAD_SCALELIST
350
8A8D
  3
ACAD_SECTIONVIEWSTYLE
350
8AA1
  3
ACAD_TABLESTYLE
350
8A8B
  3
ACAD_VISUALSTYLE
350
8A71
  3
ACADDIM
350
6D5E
  3
ACDB_RECOMPOSE_DATA
350
1C43F
  3
ACDBVARIABLEDICTIONARY
350
5697
  3
AEC_PROPERTY_SET_DEFS
350
BFC4
  0
DICTIONARY
  5
F3CC
330
2
100
AcDbDictionary
280
     1
281
     1
  3
ACAD_LAYERSTATES
360
F3CD
  0
DICTIONARY
  5
8ACC
330
10
100
AcDbDictionary
280
     1
281
     1
  3
ADSK_XREC_LAYER_RECONCILED
360
8ACD
  0
DICTIONARY
  5
8ACE
330
2F
100
AcDbDictionary
280
     1
281
     1
  3
ADSK_XREC_LAYER_RECONCILED
360
8ACF
  0
DICTIONARY
  5
8AD0
330
31
100
AcDbDictionary
280
     1
281
     1
  3
ADSK_XREC_LAYER_RECONCILED
360
8AD1
  0
DICTIONARY
  5
8AD2
330
35
100
AcDbDictionary
280
     1
281
     1
  3
ADSK_XREC_LAYER_RECONCILED
360
8AD3
  0
DICTIONARY
  5
8AD4
330
38
100
AcDbDictionary
280
     1
281
     1
  3
ADSK_XREC_LAYER_RECONCILED
360
8AD5
  0
DICTIONARY
  5
8AD8
330
3A2
100
AcDbDictionary
280
     1
281
     1
  3
ADSK_XREC_LAYER_RECONCILED
360
8AD9
  0
DICTIONARY
  5
8ADA
330
3BBA
100
AcDbDictionary
280
     1
281
     1
  3
ADSK_XREC_LAYER_RECONCILED
360
8ADB
  0
DICTIONARY
  5
8ADC
330
67A8
100
AcDbDictionary
280
     1
281
     1
  3
ADSK_XREC_LAYER_RECONCILED
360
8ADD
  0
DICTIONARY
  5
8ADE
330
7837
100
AcDbDictionary
280
     1
281
     1
  3
ADSK_XREC_LAYER_RECONCILED
360
8ADF
  0
DICTIONARY
  5
9134
330
9133
100
AcDbDictionary
280
     1
281
     1
  0
DICTIONARY
  5
1391D
330
1391C
100
AcDbDictionary
280
     1
281
     1
  0
DICTIONARY
  5
1391F
330
1391E
100
AcDbDictionary
280
     1
281
     1
  0
DICTIONARY
  5
178
330
1E
100
AcDbDictionary
280
     1
281
     1
  3
ACAD_LAYOUTSELFREF
360
8A0F
  3
ACAD_SORTENTS
360
10338
  0
DICTIONARY
  5
17A
330
1A
100
AcDbDictionary
280
     1
281
     1
  3
ACAD_LAYOUTSELFREF
360
8A0E
  0
DICTIONARY
  5
1C087
330
1C085
100
AcDbDictionary
280
     1
281
     1
  3
ACAD_SORTENTS
360
1C088
  0
XRECORD
  5
8AA8
102
{ACAD_REACTORS
330
C
102
}
330
C
100
AcDbXrecord
280
     1
300
ACDLT
300
2014
300
ACDLT_F_S
  0
DICTIONARY
  5
8A8A
102
{ACAD_REACTORS
330
C
102
}
330
C
100
AcDbDictionary
281
     1
  0
DICTIONARY
  5
8AA3
102
{ACAD_REACTORS
330
C
102
}
330
C
100
AcDbDictionary
281
     1
  3
Imperial24
350
8AA4
  0
DICTIONARY
  5
D
102
{ACAD_REACTORS
330
C
102
}
330
C
100
AcDbDictionary
281
     1
  0
DICTIONARY
  5
19
102
{ACAD_REACTORS
330
C
102
}
330
C
100
AcDbDictionary
281
     1
  3
Model
350
8A4C
  3
ﾚｲｱｳﾄ1
350
8A4D
  0
DICTIONARY
  5
8A58
102
{ACAD_REACTORS
330
C
102
}
330
C
100
AcDbDictionary
281
     1
  3
ByBlock
350
8A61
  3
ByLayer
350
8A59
  3
Global
350
8A69
  0
DICTIONARY
  5
8A9F
102
{ACAD_REACTORS
330
C
102
}
330
C
100
AcDbDictionary
281
     1
  3
Standard
350
8AA0
  0
DICTIONARY
  5
16
102
{ACAD_REACTORS
330
C
102
}
330
C
100
AcDbDictionary
281
     1
  3
STANDARD
350
17
  0
DICTIONARY
  5
18
102
{ACAD_REACTORS
330
C
102
}
330
C
100
AcDbDictionary
281
     1
  0
ACDBDICTIONARYWDFLT
  5
E
102
{ACAD_REACTORS
330
C
102
}
330
C
100
AcDbDictionary
281
     1
  3
Normal
350
F
100
AcDbDictionaryWithDefault
340
F
  0
DICTIONARY
  5
8A8D
102
{ACAD_REACTORS
330
C
102
}
330
C
100
AcDbDictionary
281
     1
  3
A0
350
8A8E
  3
A1
350
8A8F
  3
A2
350
8A90
  3
A3
350
8A91
  3
A4
350
8A92
  3
A5
350
8A93
  3
A6
350
8A94
  3
A7
350
8A95
  3
A8
350
8A96
  3
A9
350
8A97
  3
B0
350
8A98
  3
B1
350
8A99
  3
B2
350
8A9A
  3
B3
350
8A9B
  3
B4
350
8A9C
  3
B5
350
8A9D
  3
B6
350
8A9E
  0
DICTIONARY
  5
8AA1
102
{ACAD_REACTORS
330
C
102
}
330
C
100
AcDbDictionary
281
     1
  3
Imperial24
350
8AA2
  0
DICTIONARY
  5
8A8B
102
{ACAD_REACTORS
330
C
102
}
330
C
100
AcDbDictionary
281
     1
  3
Standard
350
8A8C
  0
DICTIONARY
  5
8A71
102
{ACAD_REACTORS
330
C
102
}
330
C
100
AcDbDictionary
281
     1
  3
2dWireframe
350
8A77
  3
3D Hidden
350
8B2B
  3
3dWireframe
350
8B2A
  3
Basic
350
8A76
  3
Brighten
350
8A7D
  3
ColorChange
350
8A81
  3
Conceptual
350
8A7A
  3
Dim
350
8A7C
  3
EdgeColorOff
350
8A89
  3
Facepattern
350
8A80
  3
Flat
350
8A72
  3
FlatWithEdges
350
8A73
  3
Gouraud
350
8A74
  3
GouraudWithEdges
350
8A75
  3
Hidden
350
8A79
  3
JitterOff
350
8A87
  3
Linepattern
350
8A7F
  3
OverhangOff
350
8A88
  3
Realistic
350
8A7B
  3
Shaded
350
8A86
  3
Shaded with edges
350
8A85
  3
Shades of Gray
350
8A82
  3
Sketchy
350
8A83
  3
Thicken
350
8A7E
  3
Wireframe
350
8A78
  3
X-Ray
350
8A84
  0
XRECORD
  5
6D5E
102
{ACAD_REACTORS
330
C
102
}
330
C
100
AcDbXrecord
280
     1
 90
   990106
  3

 60
     0
 61
     0
 62
     1
 63
     3
 64
     0
 65
     0
 66
     0
 67
     3
 68
     1
 69
     0
 70
     0
 71
     0
 72
     0
 40
0.0
170
     0
340
0
  0
XRECORD
  5
1C43F
102
{ACAD_REACTORS
330
C
102
}
330
C
100
AcDbXrecord
280
     1
 90
        1
330
8A8C
330
8AA2
330
8AA4
  0
DICTIONARY
  5
5697
102
{ACAD_REACTORS
330
C
102
}
330
C
100
AcDbDictionary
281
     1
  3
CANNOSCALE
350
8AE9
  3
CMLEADERSTYLE
350
8AE5
  3
CTABLESTYLE
350
8AE4
  3
CVIEWDETAILSTYLE
350
8AE6
  3
CVIEWSECTIONSTYLE
350
8AE7
  3
DIMASSOC
350
5698
  3
LAYEREVAL
350
8AEB
  3
LAYERNOTIFY
350
8AEC
  3
LIGHTINGUNITS
350
8AEA
  3
MSLTSCALE
350
8AE8
  0
DICTIONARY
  5
BFC4
102
{ACAD_REACTORS
330
C
102
}
330
C
100
AcDbDictionary
281
     1
  0
DICTIONARY
  5
F3CD
102
{ACAD_REACTORS
330
F3CC
102
}
330
F3CC
100
AcDbDictionary
281
     1
  0
XRECORD
  5
8ACD
102
{ACAD_REACTORS
330
8ACC
102
}
330
8ACC
100
AcDbXrecord
280
     1
290
     1
  0
XRECORD
  5
8ACF
102
{ACAD_REACTORS
330
8ACE
102
}
330
8ACE
100
AcDbXrecord
280
     1
290
     1
  0
XRECORD
  5
8AD1
102
{ACAD_REACTORS
330
8AD0
102
}
330
8AD0
100
AcDbXrecord
280
     1
290
     1
  0
XRECORD
  5
8AD3
102
{ACAD_REACTORS
330
8AD2
102
}
330
8AD2
100
AcDbXrecord
280
     1
290
     1
  0
XRECORD
  5
8AD5
102
{ACAD_REACTORS
330
8AD4
102
}
330
8AD4
100
AcDbXrecord
280
     1
290
     1
  0
XRECORD
  5
8AD9
102
{ACAD_REACTORS
330
8AD8
102
}
330
8AD8
100
AcDbXrecord
280
     1
290
     1
  0
XRECORD
  5
8ADB
102
{ACAD_REACTORS
330
8ADA
102
}
330
8ADA
100
AcDbXrecord
280
     1
290
     1
  0
XRECORD
  5
8ADD
102
{ACAD_REACTORS
330
8ADC
102
}
330
8ADC
100
AcDbXrecord
280
     1
290
     1
  0
XRECORD
  5
8ADF
102
{ACAD_REACTORS
330
8ADE
102
}
330
8ADE
100
AcDbXrecord
280
     1
290
     1
  0
XRECORD
  5
8A0F
102
{ACAD_REACTORS
330
178
102
}
330
178
100
AcDbXrecord
280
     1
340
1E
  0
SORTENTSTABLE
  5
10338
102
{ACAD_REACTORS
330
178
102
}
330
178
100
AcDbSortentsTable
330
1E
331
14131
  5
15C0A
331
1406C
  5
14125
331
140BB
  5
14166
331
140F2
  5
15550
331
140FA
  5
15698
331
14149
  5
15C22
331
14074
  5
1412B
331
140C3
  5
1416F
331
14102
  5
157E0
331
1408C
  5
14137
331
140CB
  5
145B5
331
1410A
  5
158A9
331
14094
  5
1413F
331
14169
  5
15C40
331
14171
  5
15D95
331
19E3C
  5
1A7A5
331
1A06C
  5
1AB13
331
1413D
  5
15C16
331
1A515
  5
1AB46
331
1A287
  5
1AB3B
331
1409C
  5
14147
331
140D3
  5
15127
331
1403D
  5
14117
331
14112
  5
15BE4
331
140A4
  5
1414F
331
140DB
  5
15301
331
1411A
  5
15BEC
331
14122
  5
15BF4
331
140AC
  5
14157
331
140EB
  5
15549
331
1412A
  5
15C03
331
140B4
  5
1415F
331
14142
  5
15C1B
331
1415D
  5
15C2F
331
14165
  5
15C37
331
19E2D
  5
1A715
331
140F3
  5
15551
331
14132
  5
15C0B
331
140BC
  5
14167
331
140C4
  5
14170
331
140FB
  5
15699
331
14075
  5
1412C
331
1414A
  5
15C23
331
14152
  5
15C24
331
1408D
  5
14138
331
140CC
  5
145D8
331
14103
  5
157E1
331
1410B
  5
15BDD
331
14095
  5
14140
331
1416A
  5
15C4B
331
14172
  5
15D96
331
19E3D
  5
1A7A6
331
1A06D
  5
1AB14
331
1413E
  5
15C17
331
1A070
  5
1AB17
331
1A516
  5
1AB47
331
1A288
  5
1AB3C
331
14113
  5
15BE5
331
1403E
  5
14118
331
1409D
  5
14148
331
140D4
  5
152F0
331
140DC
  5
1530C
331
1411B
  5
15BED
331
140A5
  5
14150
331
140AD
  5
14158
331
140E4
  5
15339
331
1405E
  5
1411D
331
14123
  5
15BF5
331
140B5
  5
14160
331
140EC
  5
1554A
331
1412B
  5
15C04
331
14083
  5
1412E
331
14143
  5
15C1C
331
1415E
  5
15C30
331
14166
  5
15C38
331
19E2E
  5
1A716
331
19E36
  5
1A72B
331
14133
  5
15C0C
331
1406E
  5
14126
331
140BD
  5
14168
331
140F4
  5
15692
331
140FC
  5
1569A
331
140C5
  5
14171
331
14104
  5
157E2
331
1408E
  5
14139
331
14153
  5
15C25
331
1410C
  5
15BDE
331
14096
  5
14141
331
14173
  5
15DC1
331
19E3E
  5
1A7E3
331
19EFE
  5
1AB06
331
1A06E
  5
1AB15
331
1413F
  5
15C18
331
1A071
  5
1AB18
331
1A517
  5
1AB48
331
1409E
  5
14149
331
140D5
  5
152F1
331
1403F
  5
14119
331
14114
  5
15BE6
331
140A6
  5
14151
331
140DD
  5
1530D
331
14124
  5
15BF6
331
1405F
  5
1411E
331
140AE
  5
14159
331
140E5
  5
1540C
331
140ED
  5
1554B
331
1412C
  5
15C05
331
140B6
  5
14161
331
14084
  5
1412F
331
14144
  5
15C1D
331
1415F
  5
15C31
331
14167
  5
15C3D
331
19E37
  5
1A73F
331
140BE
  5
14169
331
14687
  5
16262
331
140F5
  5
15693
331
14134
  5
15C0D
331
140C6
  5
14172
331
140FD
  5
1569B
331
14154
  5
15C26
331
1408F
  5
1413A
331
140CE
  5
1461E
331
14105
  5
157E3
331
1410D
  5
15BDF
331
14097
  5
14142
331
1416C
  5
15C4C
331
1A06F
  5
1AB16
331
14138
  5
15C11
331
1A072
  5
1AB19
331
1A518
  5
1AB49
331
14115
  5
15BE7
331
14040
  5
1411A
331
1409F
  5
1414A
331
140D6
  5
152F2
331
140DE
  5
1530E
331
1411D
  5
15BEF
331
140A7
  5
14152
331
140AF
  5
1415A
331
140E6
  5
15454
331
14060
  5
1411F
331
14125
  5
15BF7
331
140B7
  5
14162
331
140EE
  5
1554C
331
14085
  5
14130
331
14145
  5
15C1E
331
14158
  5
15C2A
331
14160
  5
15C32
331
14135
  5
15C0E
331
14070
  5
14127
331
140BF
  5
1416A
331
140F6
  5
15694
331
140FE
  5
1569C
331
14088
  5
14133
331
140CF
  5
14641
331
14106
  5
157E4
331
14090
  5
1413B
331
14155
  5
15C27
331
1416D
  5
15C4F
331
15DED
  5
16749
331
19E38
  5
1A740
331
14139
  5
15C12
331
1A073
  5
1AB1A
331
1A519
  5
1AB4A
331
14098
  5
14143
331
140A0
  5
1414B
331
14041
  5
1411B
331
14116
  5
15BE8
331
140A8
  5
14153
331
140DF
  5
1530F
331
14126
  5
15BF8
331
14061
  5
14120
331
140B0
  5
1415B
331
140E7
  5
154C6
331
1412E
  5
15C07
331
14086
  5
14131
331
14146
  5
15C1F
331
14159
  5
15C2B
331
14161
  5
15C33
331
19E31
  5
1A718
331
1A2B3
  5
1AB3D
331
14069
  5
14122
331
140B8
  5
14163
331
140C0
  5
1416C
331
140F7
  5
15695
331
14071
  5
14128
331
14136
  5
15C0F
331
140C8
  5
144CB
331
140FF
  5
157DD
331
14089
  5
14134
331
14156
  5
15C28
331
14091
  5
1413C
331
14107
  5
157E5
331
1410F
  5
15BE1
331
1416E
  5
15D3E
331
15DEE
  5
1674A
331
19E39
  5
1A764
331
1A069
  5
1AB10
331
1413A
  5
15C13
331
1A074
  5
1AB1B
331
1A51A
  5
1AB4B
331
1403A
  5
14114
331
14099
  5
14144
331
140D0
  5
14664
331
140D8
  5
152FE
331
14117
  5
15BE9
331
140A1
  5
1414C
331
140E0
  5
1531A
331
1411F
  5
15BF1
331
140A9
  5
14154
331
140B1
  5
1415C
331
14062
  5
14121
331
14127
  5
15C00
331
1412F
  5
15C08
331
14087
  5
14132
331
14147
  5
15C20
331
1415A
  5
15C2C
331
14162
  5
15C34
331
19E2A
  5
1A661
331
19E32
  5
1A727
331
1A2B4
  5
1AB3E
331
1406A
  5
14123
331
140B9
  5
14164
331
140F0
  5
1554E
331
14072
  5
14129
331
140C1
  5
1416D
331
140F8
  5
15696
331
14100
  5
157DE
331
1408A
  5
14135
331
140C9
  5
1456F
331
14108
  5
157E6
331
14092
  5
1413D
331
14157
  5
15C29
331
1416F
  5
15D69
331
19E3A
  5
1A765
331
1A06A
  5
1AB11
331
1413B
  5
15C14
331
19BC5
  5
1A516
331
146AA
  5
16263
331
1A51B
  5
1AB4C
331
140D1
  5
14687
331
14110
  5
15BE2
331
1403B
  5
14115
331
1409A
  5
14145
331
140A2
  5
1414D
331
140D9
  5
152FF
331
14118
  5
15BEA
331
14120
  5
15BF2
331
140AA
  5
14155
331
140E1
  5
1531B
331
140E9
  5
15547
331
14128
  5
15C01
331
140B2
  5
1415D
331
14078
  5
1412D
331
14140
  5
15C19
331
1415B
  5
15C2D
331
14163
  5
15C35
331
19E2B
  5
1A662
331
19E33
  5
1A728
331
140F1
  5
1554F
331
14130
  5
15C09
331
1406B
  5
14124
331
140BA
  5
14165
331
140C2
  5
1416E
331
140F9
  5
15697
331
14073
  5
1412A
331
14148
  5
15C21
331
1408B
  5
14136
331
14101
  5
157DF
331
14168
  5
15C3E
331
14093
  5
1413E
331
14109
  5
157E7
331
14170
  5
15D6A
331
19E3B
  5
1A78E
331
1A06B
  5
1AB12
331
1413C
  5
15C15
331
14111
  5
15BE3
331
1403C
  5
14116
331
1409B
  5
14146
331
140D2
  5
146AA
331
140DA
  5
15300
331
14119
  5
15BEB
331
140A3
  5
1414E
331
14121
  5
15BF3
331
140AB
  5
14156
331
140B3
  5
1415E
331
140EA
  5
15548
331
14129
  5
15C02
331
14141
  5
15C1A
331
1415C
  5
15C2E
331
14164
  5
15C36
331
19E2C
  5
1A663
331
19E34
  5
1A729
  0
XRECORD
  5
8A0E
102
{ACAD_REACTORS
330
17A
102
}
330
17A
100
AcDbXrecord
280
     1
340
1A
  0
SORTENTSTABLE
  5
1C088
102
{ACAD_REACTORS
330
1C087
102
}
330
1C087
100
AcDbSortentsTable
330
1C085
  0
ACDBDETAILVIEWSTYLE
  5
8AA4
102
{ACAD_XDICTIONARY
360
1C351
102
}
102
{ACAD_REACTORS
330
8AA3
102
}
330
8AA3
100
AcDbModelDocViewStyle
 70
     0
  3
Imperial24
290
     0
100
AcDbDetailViewStyle
 70
     0
 71
     0
 90
        3
 71
     1
340
11
 62
   256
 40
0.24
340
0
 62
   256
 40
0.24
300

 40
0.36
280
     3
 71
     2
340
15
 90
       25
 62
   256
 71
     3
340
11
 62
   256
 40
0.24
 90
        1
 40
0.75
 90
        1
300
%<\AcVar ViewType \f "%tc1">% %<\AcVar ViewDetailId>%\PSCALE %<\AcVar ViewScale \f "%sn">%
 71
     4
340
15
 90
       25
 62
   256
340
15
 90
       25
 62
   256
280
     0
  0
LAYOUT
  5
8A4C
102
{ACAD_XDICTIONARY
360
F3D2
102
}
102
{ACAD_REACTORS
330
19
102
}
330
19
100
AcDbPlotSettings
  1

  2
none_device
  4
Letter_(8.50_x_11.00_Inches)
  6

 40
6.349999904632567
 41
6.349999904632567
 42
6.350006103515625
 43
6.350006103515625
 44
215.8999938964844
 45
279.3999938964844
 46
0.0
 47
0.0
 48
0.0
 49
0.0
140
0.0
141
0.0
142
1.0
143
317.0449279872537
 70
 11952
 72
     0
 73
     1
 74
     0
  7
monochrome.ctb
 75
     0
147
0.0031541271022642
 76
     0
 77
     2
 78
   300
148
21198.07971653447
149
42574.72085005308
100
AcDbLayout
  1
Model
 70
     1
 71
     0
 10
0.0
 20
0.0
 11
12.0
 21
9.0
 12
0.0
 22
0.0
 32
0.0
 14
0.0
 24
0.0
 34
0.0
 15
0.0
 25
0.0
 35
0.0
146
0.0
 13
0.0
 23
0.0
 33
0.0
 16
1.0
 26
0.0
 36
0.0
 17
0.0
 27
1.0
 37
0.0
 76
     0
330
1E
331
8A51
1001
ACAD_PSEXT
1000
なし
1000
なし
1000
適切ではありません
1000
新しいプロッタ環境設定名を選択しない限り、レイアウトは印刷されません。
1070
     0
  0
LAYOUT
  5
8A4D
102
{ACAD_REACTORS
330
19
102
}
330
19
100
AcDbPlotSettings
  1

  2
Canon LBP3800 LIPSLX
  4

  6

 40
0.0
 41
0.0
 42
0.0
 43
0.0
 44
0.0
 45
0.0
 46
0.0
 47
0.0
 48
0.0
 49
0.0
140
0.0
141
0.0
142
1.0
143
1.0
 70
   688
 72
     0
 73
     0
 74
     5
  7
monochrome.ctb
 75
    16
147
1.0
 76
     0
 77
     2
 78
   300
148
0.0
149
0.0
100
AcDbLayout
  1
ﾚｲｱｳﾄ1
 70
     1
 71
     1
 10
-5.873749
 20
-5.87375
 11
204.099579
 21
291.1369009999999
 12
0.0
 22
0.0
 32
0.0
 14
4.273573
 24
5.205245999999998
 34
0.0
 15
194.610095
 25
283.0697009999996
 35
0.0
146
0.0
 13
0.0
 23
0.0
 33
0.0
 16
1.0
 26
0.0
 36
0.0
 17
0.0
 27
1.0
 37
0.0
 76
     0
330
1A
331
9AC
  0
MATERIAL
  5
8A61
102
{ACAD_XDICTIONARY
360
8A62
102
}
102
{ACAD_REACTORS
330
8A58
102
}
330
8A58
100
AcDbMaterial
  1
ByBlock
 72
     0
 43
0.0208333333333333
 43
0.0
 43
0.0
 43
0.0
 43
0.0
 43
0.0208333333333333
 43
0.0
 43
0.0
 43
0.0
 43
0.0
 43
1.0
 43
0.0
 43
0.0
 43
0.0
 43
0.0
 43
1.0
 77
     0
 47
0.0208333333333333
 47
0.0
 47
0.0
 47
0.0
 47
0.0
 47
0.0208333333333333
 47
0.0
 47
0.0
 47
0.0
 47
0.0
 47
1.0
 47
0.0
 47
0.0
 47
0.0
 47
0.0
 47
1.0
171
     0
 49
0.0208333333333333
 49
0.0
 49
0.0
 49
0.0
 49
0.0
 49
0.0208333333333333
 49
0.0
 49
0.0
 49
0.0
 49
0.0
 49
1.0
 49
0.0
 49
0.0
 49
0.0
 49
0.0
 49
1.0
175
     0
142
0.0208333333333333
142
0.0
142
0.0
142
0.0
142
0.0
142
0.0208333333333333
142
0.0
142
0.0
142
0.0
142
0.0
142
1.0
142
0.0
142
0.0
142
0.0
142
0.0
142
1.0
179
     0
144
0.0208333333333333
144
0.0
144
0.0
144
0.0
144
0.0
144
0.0208333333333333
144
0.0
144
0.0
144
0.0
144
0.0
144
1.0
144
0.0
144
0.0
144
0.0
144
0.0
144
1.0
147
0.0208333333333333
147
0.0
147
0.0
147
0.0
147
0.0
147
0.0208333333333333
147
0.0
147
0.0
147
0.0
147
0.0
147
1.0
147
0.0
147
0.0
147
0.0
147
0.0
147
1.0
  0
MATERIAL
  5
8A59
102
{ACAD_XDICTIONARY
360
8A5A
102
}
102
{ACAD_REACTORS
330
8A58
102
}
330
8A58
100
AcDbMaterial
  1
ByLayer
 72
     0
 43
0.0208333333333333
 43
0.0
 43
0.0
 43
0.0
 43
0.0
 43
0.0208333333333333
 43
0.0
 43
0.0
 43
0.0
 43
0.0
 43
1.0
 43
0.0
 43
0.0
 43
0.0
 43
0.0
 43
1.0
 77
     0
 47
0.0208333333333333
 47
0.0
 47
0.0
 47
0.0
 47
0.0
 47
0.0208333333333333
 47
0.0
 47
0.0
 47
0.0
 47
0.0
 47
1.0
 47
0.0
 47
0.0
 47
0.0
 47
0.0
 47
1.0
171
     0
 49
0.0208333333333333
 49
0.0
 49
0.0
 49
0.0
 49
0.0
 49
0.0208333333333333
 49
0.0
 49
0.0
 49
0.0
 49
0.0
 49
1.0
 49
0.0
 49
0.0
 49
0.0
 49
0.0
 49
1.0
175
     0
142
0.0208333333333333
142
0.0
142
0.0
142
0.0
142
0.0
142
0.0208333333333333
142
0.0
142
0.0
142
0.0
142
0.0
142
1.0
142
0.0
142
0.0
142
0.0
142
0.0
142
1.0
179
     0
144
0.0208333333333333
144
0.0
144
0.0
144
0.0
144
0.0
144
0.0208333333333333
144
0.0
144
0.0
144
0.0
144
0.0
144
1.0
144
0.0
144
0.0
144
0.0
144
0.0
144
1.0
147
0.0208333333333333
147
0.0
147
0.0
147
0.0
147
0.0
147
0.0208333333333333
147
0.0
147
0.0
147
0.0
147
0.0
147
1.0
147
0.0
147
0.0
147
0.0
147
0.0
147
1.0
  0
MATERIAL
  5
8A69
102
{ACAD_XDICTIONARY
360
8A6A
102
}
102
{ACAD_REACTORS
330
8A58
102
}
330
8A58
100
AcDbMaterial
  1
Global
 72
     0
 43
0.0208333333333333
 43
0.0
 43
0.0
 43
0.0
 43
0.0
 43
0.0208333333333333
 43
0.0
 43
0.0
 43
0.0
 43
0.0
 43
1.0
 43
0.0
 43
0.0
 43
0.0
 43
0.0
 43
1.0
 77
     0
 47
0.0208333333333333
 47
0.0
 47
0.0
 47
0.0
 47
0.0
 47
0.0208333333333333
 47
0.0
 47
0.0
 47
0.0
 47
0.0
 47
1.0
 47
0.0
 47
0.0
 47
0.0
 47
0.0
 47
1.0
171
     0
 49
0.0208333333333333
 49
0.0
 49
0.0
 49
0.0
 49
0.0
 49
0.0208333333333333
 49
0.0
 49
0.0
 49
0.0
 49
0.0
 49
1.0
 49
0.0
 49
0.0
 49
0.0
 49
0.0
 49
1.0
175
     0
142
0.0208333333333333
142
0.0
142
0.0
142
0.0
142
0.0
142
0.0208333333333333
142
0.0
142
0.0
142
0.0
142
0.0
142
1.0
142
0.0
142
0.0
142
0.0
142
0.0
142
1.0
179
     0
144
0.0208333333333333
144
0.0
144
0.0
144
0.0
144
0.0
144
0.0208333333333333
144
0.0
144
0.0
144
0.0
144
0.0
144
1.0
144
0.0
144
0.0
144
0.0
144
0.0
144
1.0
147
0.0208333333333333
147
0.0
147
0.0
147
0.0
147
0.0
147
0.0208333333333333
147
0.0
147
0.0
147
0.0
147
0.0
147
1.0
147
0.0
147
0.0
147
0.0
147
0.0
147
1.0
  0
MLEADERSTYLE
  5
8AA0
102
{ACAD_REACTORS
330
8A9F
102
}
330
8A9F
100
AcDbMLeaderStyle
179
     2
170
     2
171
     1
172
     0
 90
        2
 40
0.0
 41
0.0
173
     1
 91
-1056964608
340
13
 92
       -2
290
     1
 42
0.09
291
     1
 43
0.36
  3
Standard
 44
0.18
300

342
11
174
     1
178
     6
175
     1
176
     0
 93
-1056964608
 45
0.18
292
     0
297
     0
 46
0.18
 94
-1056964608
 47
1.0
 49
1.0
140
1.0
293
     1
141
0.0
294
     1
177
     0
142
1.0
295
     0
296
     0
143
0.125
271
     0
272
     9
273
     9
298
     0
  0
MLINESTYLE
  5
17
102
{ACAD_REACTORS
330
16
102
}
330
16
100
AcDbMlineStyle
  2
STANDARD
 70
     0
  3

 62
   256
 51
90.0
 52
90.0
 71
     2
 49
0.5
 62
   256
  6
BYLAYER
 49
-0.5
 62
   256
  6
BYLAYER
  0
ACDBPLACEHOLDER
  5
F
102
{ACAD_REACTORS
330
E
102
}
330
E
  0
SCALE
  5
8A8E
102
{ACAD_REACTORS
330
8A8D
102
}
330
8A8D
100
AcDbScale
 70
     0
300
1:1
140
1.0
141
1.0
290
     1
  0
SCALE
  5
8A8F
102
{ACAD_REACTORS
330
8A8D
102
}
330
8A8D
100
AcDbScale
 70
     0
300
1/128" = 1'-0"
140
0.0078125
141
12.0
290
     0
  0
SCALE
  5
8A90
102
{ACAD_REACTORS
330
8A8D
102
}
330
8A8D
100
AcDbScale
 70
     0
300
1/64" = 1'-0"
140
0.015625
141
12.0
290
     0
  0
SCALE
  5
8A91
102
{ACAD_REACTORS
330
8A8D
102
}
330
8A8D
100
AcDbScale
 70
     0
300
1/32" = 1'-0"
140
0.03125
141
12.0
290
     0
  0
SCALE
  5
8A92
102
{ACAD_REACTORS
330
8A8D
102
}
330
8A8D
100
AcDbScale
 70
     0
300
1/16" = 1'-0"
140
0.0625
141
12.0
290
     0
  0
SCALE
  5
8A93
102
{ACAD_REACTORS
330
8A8D
102
}
330
8A8D
100
AcDbScale
 70
     0
300
3/32" = 1'-0"
140
0.09375
141
12.0
290
     0
  0
SCALE
  5
8A94
102
{ACAD_REACTORS
330
8A8D
102
}
330
8A8D
100
AcDbScale
 70
     0
300
1/8" = 1'-0"
140
0.125
141
12.0
290
     0
  0
SCALE
  5
8A95
102
{ACAD_REACTORS
330
8A8D
102
}
330
8A8D
100
AcDbScale
 70
     0
300
3/16" = 1'-0"
140
0.1875
141
12.0
290
     0
  0
SCALE
  5
8A96
102
{ACAD_REACTORS
330
8A8D
102
}
330
8A8D
100
AcDbScale
 70
     0
300
1/4" = 1'-0"
140
0.25
141
12.0
290
     0
  0
SCALE
  5
8A97
102
{ACAD_REACTORS
330
8A8D
102
}
330
8A8D
100
AcDbScale
 70
     0
300
3/8" = 1'-0"
140
0.375
141
12.0
290
     0
  0
SCALE
  5
8A98
102
{ACAD_REACTORS
330
8A8D
102
}
330
8A8D
100
AcDbScale
 70
     0
300
1/2" = 1'-0"
140
0.5
141
12.0
290
     0
  0
SCALE
  5
8A99
102
{ACAD_REACTORS
330
8A8D
102
}
330
8A8D
100
AcDbScale
 70
     0
300
3/4" = 1'-0"
140
0.75
141
12.0
290
     0
  0
SCALE
  5
8A9A
102
{ACAD_REACTORS
330
8A8D
102
}
330
8A8D
100
AcDbScale
 70
     0
300
1" = 1'-0"
140
1.0
141
12.0
290
     0
  0
SCALE
  5
8A9B
102
{ACAD_REACTORS
330
8A8D
102
}
330
8A8D
100
AcDbScale
 70
     0
300
1-1/2" = 1'-0"
140
1.5
141
12.0
290
     0
  0
SCALE
  5
8A9C
102
{ACAD_REACTORS
330
8A8D
102
}
330
8A8D
100
AcDbScale
 70
     0
300
3" = 1'-0"
140
3.0
141
12.0
290
     0
  0
SCALE
  5
8A9D
102
{ACAD_REACTORS
330
8A8D
102
}
330
8A8D
100
AcDbScale
 70
     0
300
6" = 1'-0"
140
6.0
141
12.0
290
     0
  0
SCALE
  5
8A9E
102
{ACAD_REACTORS
330
8A8D
102
}
330
8A8D
100
AcDbScale
 70
     0
300
1'-0" = 1'-0"
140
12.0
141
12.0
290
     0
  0
ACDBSECTIONVIEWSTYLE
  5
8AA2
102
{ACAD_XDICTIONARY
360
1C34F
102
}
102
{ACAD_REACTORS
330
8AA1
102
}
330
8AA1
100
AcDbModelDocViewStyle
 70
     0
  3
Imperial24
290
     0
100
AcDbSectionViewStyle
 70
     0
 71
     0
 90
       78
 71
     1
340
11
 62
   256
 40
0.24
340
0
340
0
 62
   256
 40
0.24
300
I, O, Q, S, X, Z
 40
0.48
 90
        3
 40
0.18
 90
        1
 71
     2
340
15
 90
       25
 62
   256
340
15
 90
       50
 62
   256
 40
0.24
 40
0.0
 40
0.24
 71
     3
340
11
 62
   256
 40
0.24
 90
        1
 40
0.75
 90
        1
300
%<\AcVar ViewType \f "%tc1">% %<\AcVar ViewSectionStartId>%-%<\AcVar ViewSectionEndId>%\PSCALE %<\AcVar ViewScale \f "%sn">%
 71
     4
 62
   256
 62
   257
300
ANSI31
 40
1.0
 90
        0
290
     0
290
     0
 90
        6
 40
0.0
 40
1.570796326794896
 40
0.2617993877991494
 40
1.308996938995747
 40
-0.2617993877991494
 40
1.832595714594044
  0
TABLESTYLE
  5
8A8C
102
{ACAD_XDICTIONARY
360
8AED
102
}
102
{ACAD_REACTORS
330
8A8B
102
}
330
8A8B
100
AcDbTableStyle
280
     0
  3
Standard
 70
     0
 71
     0
 40
0.06
 41
0.06
280
     0
281
     0
  7
STANDARD
140
0.18
170
     2
 62
     0
 63
     7
283
     0
 90
      512
 91
        0
  1

274
    -2
284
     1
 64
     0
275
    -2
285
     1
 65
     0
276
    -2
286
     1
 66
     0
277
    -2
287
     1
 67
     0
278
    -2
288
     1
 68
     0
279
    -2
289
     1
 69
     0
  7
STANDARD
140
0.25
170
     5
 62
     0
 63
     7
283
     0
 90
      512
 91
        0
  1

274
    -2
284
     1
 64
     0
275
    -2
285
     1
 65
     0
276
    -2
286
     1
 66
     0
277
    -2
287
     1
 67
     0
278
    -2
288
     1
 68
     0
279
    -2
289
     1
 69
     0
  7
STANDARD
140
0.18
170
     5
 62
     0
 63
     7
283
     0
 90
      512
 91
        0
  1

274
    -2
284
     1
 64
     0
275
    -2
285
     1
 65
     0
276
    -2
286
     1
 66
     0
277
    -2
287
     1
 67
     0
278
    -2
288
     1
 68
     0
279
    -2
289
     1
 69
     0
  0
VISUALSTYLE
  5
8A77
102
{ACAD_REACTORS
330
8A71
102
}
330
8A71
100
AcDbVisualStyle
  2
2dWireframe
 70
     4
177
     3
291
     0
 70
    58
 90
        0
176
     1
 90
        2
176
     1
 90
        0
176
     1
 90
        0
176
     1
 40
0.6
176
     1
 40
30.0
176
     1
 62
     7
420
 16777215
176
     1
 90
        1
176
     1
 90
        4
176
     1
 62
     7
176
     1
 62
   257
176
     1
 90
        1
176
     1
 90
        1
176
     1
 40
1.0
176
     1
 90
        0
176
     1
 62
   257
176
     1
 40
1.0
176
     1
 90
        1
176
     1
 90
        6
176
     1
 90
        2
176
     1
 62
     7
176
     1
 90
        5
176
     1
 90
        0
176
     1
 90
        0
176
     1
290
     0
176
     1
 90
        1
176
     1
 40
0.0
176
     1
 90
        0
176
     1
290
     1
176
     1
290
     1
176
     1
290
     0
176
     1
290
     0
176
     1
290
     0
176
     1
290
     0
176
     1
290
     0
176
     1
290
     0
176
     1
290
     0
176
     1
 90
       50
176
     1
 40
0.0
176
     1
 40
1.0
176
     1
 90
        0
176
     1
 62
    18
176
     1
 90
       50
176
     1
 90
        3
176
     1
 62
     5
420
      255
176
     1
290
     0
176
     1
 90
       50
176
     1
 90
       50
176
     1
 90
       50
176
     1
290
     0
176
     1
 90
       50
176
     1
 62
   256
176
     0
 40
1.0
176
     0
 90
        2
176
     1
  1
strokes_ogs.tif
176
     1
290
     0
176
     1
 40
1.0
176
     1
 40
1.0
176
     1
  0
VISUALSTYLE
  5
8B2B
102
{ACAD_REACTORS
330
8A71
102
}
330
8A71
100
AcDbVisualStyle
  2
3D Hidden
 70
     6
177
     3
291
     0
 70
    58
 90
        1
176
     1
 90
        2
176
     1
 90
        2
176
     1
 90
        0
176
     1
 40
0.6
176
     1
 40
30.0
176
     1
 62
     7
420
 16777215
176
     1
 90
        2
176
     1
 90
        2
176
     1
 62
     7
176
     1
 62
   257
176
     1
 90
        2
176
     1
 90
        1
176
     1
 40
179.0
176
     1
 90
        0
176
     1
 62
   257
176
     1
 40
1.0
176
     1
 90
        1
176
     1
 90
        6
176
     1
 90
        2
176
     1
 62
     7
176
     1
 90
        3
176
     1
 90
        0
176
     1
 90
        0
176
     1
290
     0
176
     1
 90
        1
176
     1
 40
0.0
176
     1
 90
        0
176
     1
290
     0
176
     1
290
     1
176
     1
290
     1
176
     1
290
     0
176
     1
290
     0
176
     1
290
     0
176
     1
290
     0
176
     1
290
     0
176
     1
290
     0
176
     1
 90
       50
176
     1
 40
0.0
176
     1
 40
1.0
176
     1
 90
        0
176
     1
 62
    18
176
     1
 90
       50
176
     1
 90
        3
176
     1
 62
     5
420
      255
176
     1
290
     0
176
     1
 90
       50
176
     1
 90
       50
176
     1
 90
       50
176
     1
290
     0
176
     1
 90
       50
176
     1
 62
   256
176
     0
 40
1.0
176
     0
 90
        2
176
     1
  1
strokes_ogs.tif
176
     1
290
     0
176
     1
 40
1.0
176
     1
 40
1.0
176
     1
  0
VISUALSTYLE
  5
8B2A
102
{ACAD_REACTORS
330
8A71
102
}
330
8A71
100
AcDbVisualStyle
  2
3dWireframe
 70
     5
177
     3
291
     0
 70
    58
 90
        0
176
     1
 90
        2
176
     1
 90
        0
176
     1
 90
        0
176
     1
 40
0.6
176
     1
 40
30.0
176
     1
 62
     7
420
 16777215
176
     1
 90
        1
176
     1
 90
        4
176
     1
 62
     7
176
     1
 62
   257
176
     1
 90
        1
176
     1
 90
        1
176
     1
 40
1.0
176
     1
 90
        0
176
     1
 62
   257
176
     1
 40
1.0
176
     1
 90
        1
176
     1
 90
        6
176
     1
 90
        2
176
     1
 62
     7
176
     1
 90
        5
176
     1
 90
        0
176
     1
 90
        0
176
     1
290
     0
176
     1
 90
        1
176
     1
 40
0.0
176
     1
 90
        0
176
     1
290
     0
176
     1
290
     1
176
     1
290
     1
176
     1
290
     0
176
     1
290
     0
176
     1
290
     0
176
     1
290
     0
176
     1
290
     0
176
     1
290
     0
176
     1
 90
       50
176
     1
 40
0.0
176
     1
 40
1.0
176
     1
 90
        0
176
     1
 62
    18
176
     1
 90
       50
176
     1
 90
        3
176
     1
 62
     5
420
      255
176
     1
290
     0
176
     1
 90
       50
176
     1
 90
       50
176
     1
 90
       50
176
     1
290
     0
176
     1
 90
       50
176
     1
 62
   256
176
     0
 40
1.0
176
     0
 90
        2
176
     1
  1
strokes_ogs.tif
176
     1
290
     0
176
     1
 40
1.0
176
     1
 40
1.0
176
     1
  0
VISUALSTYLE
  5
8A76
102
{ACAD_REACTORS
330
8A71
102
}
330
8A71
100
AcDbVisualStyle
  2
Basic
 70
     7
177
     3
291
     1
 70
    58
 90
        1
176
     1
 90
        0
176
     1
 90
        1
176
     1
 90
        0
176
     1
 40
0.6
176
     1
 40
30.0
176
     1
 62
     7
420
 16777215
176
     1
 90
        0
176
     1
 90
        4
176
     1
 62
     7
176
     1
 62
   257
176
     1
 90
        1
176
     1
 90
        1
176
     1
 40
1.0
176
     1
 90
        8
176
     1
 62
     7
176
     1
 40
1.0
176
     1
 90
        1
176
     1
 90
        6
176
     1
 90
        2
176
     1
 62
     7
176
     1
 90
        5
176
     1
 90
        0
176
     1
 90
        0
176
     1
290
     0
176
     1
 90
        1
176
     1
 40
0.0
176
     1
 90
        0
176
     1
290
     0
176
     1
290
     1
176
     1
290
     1
176
     1
290
     0
176
     1
290
     0
176
     1
290
     0
176
     1
290
     0
176
     1
290
     0
176
     1
290
     0
176
     1
 90
       50
176
     1
 40
0.0
176
     1
 40
1.0
176
     1
 90
        0
176
     1
 62
    18
176
     1
 90
       50
176
     1
 90
        3
176
     1
 62
     5
420
      255
176
     1
290
     0
176
     1
 90
       50
176
     1
 90
       50
176
     1
 90
       50
176
     1
290
     0
176
     1
 90
       50
176
     1
 62
   256
176
     0
 40
1.0
176
     0
 90
        2
176
     1
  1
strokes_ogs.tif
176
     1
290
     0
176
     1
 40
1.0
176
     1
 40
1.0
176
     1
  0
VISUALSTYLE
  5
8A7D
102
{ACAD_REACTORS
330
8A71
102
}
330
8A71
100
AcDbVisualStyle
  2
Brighten
 70
    12
177
     3
291
     1
 70
    58
 90
        2
176
     1
 90
        2
176
     1
 90
        0
176
     1
 90
        0
176
     1
 40
0.6
176
     1
 40
30.0
176
     1
 62
     7
420
 16777215
176
     1
 90
        1
176
     1
 90
        4
176
     1
 62
     7
176
     1
 62
   257
176
     1
 90
        1
176
     1
 90
        1
176
     1
 40
1.0
176
     1
 90
        8
176
     1
 62
     7
176
     1
 40
1.0
176
     1
 90
        1
176
     1
 90
        6
176
     1
 90
        2
176
     1
 62
     7
176
     1
 90
        5
176
     1
 90
        0
176
     1
 90
        0
176
     1
290
     0
176
     1
 90
        1
176
     1
 40
50.0
176
     1
 90
        0
176
     1
290
     0
176
     1
290
     1
176
     1
290
     1
176
     1
290
     0
176
     1
290
     0
176
     1
290
     0
176
     1
290
     0
176
     1
290
     0
176
     1
290
     0
176
     1
 90
       50
176
     1
 40
0.0
176
     1
 40
1.0
176
     1
 90
        0
176
     1
 62
    18
176
     1
 90
       50
176
     1
 90
        3
176
     1
 62
     5
420
      255
176
     1
290
     0
176
     1
 90
       50
176
     1
 90
       50
176
     1
 90
       50
176
     1
290
     0
176
     1
 90
       50
176
     1
 62
   256
176
     0
 40
1.0
176
     0
 90
        2
176
     1
  1
strokes_ogs.tif
176
     1
290
     0
176
     1
 40
1.0
176
     1
 40
1.0
176
     1
  0
VISUALSTYLE
  5
8A81
102
{ACAD_REACTORS
330
8A71
102
}
330
8A71
100
AcDbVisualStyle
  2
ColorChange
 70
    16
177
     3
291
     1
 70
    58
 90
        2
176
     1
 90
        2
176
     1
 90
        3
176
     1
 90
        0
176
     1
 40
0.6
176
     1
 40
30.0
176
     1
 62
     8
420
  8421504
176
     1
 90
        1
176
     1
 90
        4
176
     1
 62
     7
176
     1
 62
   257
176
     1
 90
        1
176
     1
 90
        1
176
     1
 40
1.0
176
     1
 90
        8
176
     1
 62
     8
420
  8421504
176
     1
 40
1.0
176
     1
 90
        1
176
     1
 90
        6
176
     1
 90
        2
176
     1
 62
     7
176
     1
 90
        5
176
     1
 90
        0
176
     1
 90
        0
176
     1
290
     0
176
     1
 90
        1
176
     1
 40
0.0
176
     1
 90
        0
176
     1
290
     0
176
     1
290
     1
176
     1
290
     1
176
     1
290
     0
176
     1
290
     0
176
     1
290
     0
176
     1
290
     0
176
     1
290
     0
176
     1
290
     0
176
     1
 90
       50
176
     1
 40
0.0
176
     1
 40
1.0
176
     1
 90
        0
176
     1
 62
    18
176
     1
 90
       50
176
     1
 90
        3
176
     1
 62
     5
420
      255
176
     1
290
     0
176
     1
 90
       50
176
     1
 90
       50
176
     1
 90
       50
176
     1
290
     0
176
     1
 90
       50
176
     1
 62
   256
176
     0
 40
1.0
176
     0
 90
        2
176
     1
  1
strokes_ogs.tif
176
     1
290
     0
176
     1
 40
1.0
176
     1
 40
1.0
176
     1
  0
VISUALSTYLE
  5
8A7A
102
{ACAD_REACTORS
330
8A71
102
}
330
8A71
100
AcDbVisualStyle
  2
Conceptual
 70
     9
177
     3
291
     0
 70
    58
 90
        3
176
     1
 90
        2
176
     1
 90
        0
176
     1
 90
        0
176
     1
 40
0.6
176
     1
 40
30.0
176
     1
 62
     7
420
 16777215
176
     1
 90
        2
176
     1
 90
        2
176
     1
 62
     7
176
     1
 62
   257
176
     1
 90
        1
176
     1
 90
        1
176
     1
 40
179.0
176
     1
 90
        8
176
     1
 62
     7
176
     1
 40
1.0
176
     1
 90
        1
176
     1
 90
        6
176
     1
 90
        2
176
     1
 62
     7
176
     1
 90
        3
176
     1
 90
        0
176
     1
 90
        0
176
     1
290
     0
176
     1
 90
        1
176
     1
 40
0.0
176
     1
 90
        0
176
     1
290
     0
176
     1
290
     1
176
     1
290
     1
176
     1
290
     0
176
     1
290
     0
176
     1
290
     0
176
     1
290
     0
176
     1
290
     0
176
     1
290
     0
176
     1
 90
       50
176
     1
 40
0.0
176
     1
 40
1.0
176
     1
 90
        0
176
     1
 62
    18
176
     1
 90
       50
176
     1
 90
        3
176
     1
 62
     5
420
      255
176
     1
290
     0
176
     1
 90
       50
176
     1
 90
       50
176
     1
 90
       50
176
     1
290
     0
176
     1
 90
       50
176
     1
 62
   256
176
     0
 40
1.0
176
     0
 90
        2
176
     1
  1
strokes_ogs.tif
176
     1
290
     0
176
     1
 40
1.0
176
     1
 40
1.0
176
     1
  0
VISUALSTYLE
  5
8A7C
102
{ACAD_REACTORS
330
8A71
102
}
330
8A71
100
AcDbVisualStyle
  2
Dim
 70
    11
177
     3
291
     1
 70
    58
 90
        2
176
     1
 90
        2
176
     1
 90
        0
176
     1
 90
        0
176
     1
 40
0.6
176
     1
 40
30.0
176
     1
 62
     7
420
 16777215
176
     1
 90
        1
176
     1
 90
        4
176
     1
 62
     7
176
     1
 62
   257
176
     1
 90
        1
176
     1
 90
        1
176
     1
 40
1.0
176
     1
 90
        8
176
     1
 62
     7
176
     1
 40
1.0
176
     1
 90
        1
176
     1
 90
        6
176
     1
 90
        2
176
     1
 62
     7
176
     1
 90
        5
176
     1
 90
        0
176
     1
 90
        0
176
     1
290
     0
176
     1
 90
        1
176
     1
 40
-50.0
176
     1
 90
        0
176
     1
290
     0
176
     1
290
     1
176
     1
290
     1
176
     1
290
     0
176
     1
290
     0
176
     1
290
     0
176
     1
290
     0
176
     1
290
     0
176
     1
290
     0
176
     1
 90
       50
176
     1
 40
0.0
176
     1
 40
1.0
176
     1
 90
        0
176
     1
 62
    18
176
     1
 90
       50
176
     1
 90
        3
176
     1
 62
     5
420
      255
176
     1
290
     0
176
     1
 90
       50
176
     1
 90
       50
176
     1
 90
       50
176
     1
290
     0
176
     1
 90
       50
176
     1
 62
   256
176
     0
 40
1.0
176
     0
 90
        2
176
     1
  1
strokes_ogs.tif
176
     1
290
     0
176
     1
 40
1.0
176
     1
 40
1.0
176
     1
  0
VISUALSTYLE
  5
8A89
102
{ACAD_REACTORS
330
8A71
102
}
330
8A71
100
AcDbVisualStyle
  2
EdgeColorOff
 70
    22
177
     3
291
     1
 70
    58
 90
        2
176
     0
 90
        2
176
     0
 90
        0
176
     0
 90
        0
176
     0
 40
0.6
176
     0
 40
30.0
176
     0
 62
     7
420
 16777215
176
     0
 90
        1
176
     0
 90
        4
176
     0
 62
     7
176
     0
 62
   257
176
     0
 90
        1
176
     0
 90
        1
176
     0
 40
1.0
176
     0
 90
        8
176
     2
 62
     7
176
     0
 40
1.0
176
     0
 90
        1
176
     0
 90
        6
176
     0
 90
        2
176
     0
 62
     7
176
     0
 90
        5
176
     0
 90
        0
176
     0
 90
        0
176
     0
290
     0
176
     0
 90
        1
176
     0
 40
0.0
176
     0
 90
        0
176
     0
290
     0
176
     1
290
     1
176
     1
290
     1
176
     1
290
     0
176
     1
290
     0
176
     1
290
     0
176
     1
290
     0
176
     1
290
     0
176
     1
290
     0
176
     1
 90
       50
176
     0
 40
0.0
176
     0
 40
1.0
176
     0
 90
        0
176
     0
 62
    18
176
     0
 90
       50
176
     0
 90
        3
176
     0
 62
     5
420
      255
176
     0
290
     0
176
     1
 90
       50
176
     0
 90
       50
176
     0
 90
       50
176
     0
290
     0
176
     1
 90
       50
176
     0
 62
   256
176
     0
 40
1.0
176
     0
 90
        2
176
     0
  1
strokes_ogs.tif
176
     0
290
     0
176
     1
 40
1.0
176
     0
 40
1.0
176
     0
  0
VISUALSTYLE
  5
8A80
102
{ACAD_REACTORS
330
8A71
102
}
330
8A71
100
AcDbVisualStyle
  2
Facepattern
 70
    15
177
     3
291
     1
 70
    58
 90
        2
176
     1
 90
        2
176
     1
 90
        0
176
     1
 90
        0
176
     1
 40
0.6
176
     1
 40
30.0
176
     1
 62
     7
420
 16777215
176
     1
 90
        1
176
     1
 90
        4
176
     1
 62
     7
176
     1
 62
   257
176
     1
 90
        1
176
     1
 90
        1
176
     1
 40
1.0
176
     1
 90
        8
176
     1
 62
     7
176
     1
 40
1.0
176
     1
 90
        1
176
     1
 90
        6
176
     1
 90
        2
176
     1
 62
     7
176
     1
 90
        5
176
     1
 90
        0
176
     1
 90
        0
176
     1
290
     0
176
     1
 90
        1
176
     1
 40
0.0
176
     1
 90
        0
176
     1
290
     0
176
     1
290
     1
176
     1
290
     1
176
     1
290
     0
176
     1
290
     0
176
     1
290
     0
176
     1
290
     0
176
     1
290
     0
176
     1
290
     0
176
     1
 90
       50
176
     1
 40
0.0
176
     1
 40
1.0
176
     1
 90
        0
176
     1
 62
    18
176
     1
 90
       50
176
     1
 90
        3
176
     1
 62
     5
420
      255
176
     1
290
     0
176
     1
 90
       50
176
     1
 90
       50
176
     1
 90
       50
176
     1
290
     0
176
     1
 90
       50
176
     1
 62
   256
176
     0
 40
1.0
176
     0
 90
        2
176
     1
  1
strokes_ogs.tif
176
     1
290
     0
176
     1
 40
1.0
176
     1
 40
1.0
176
     1
  0
VISUALSTYLE
  5
8A72
102
{ACAD_REACTORS
330
8A71
102
}
330
8A71
100
AcDbVisualStyle
  2
Flat
 70
     0
177
     3
291
     1
 70
    58
 90
        2
176
     1
 90
        1
176
     1
 90
        1
176
     1
 90
        2
176
     1
 40
0.6
176
     1
 40
30.0
176
     1
 62
     7
420
 16777215
176
     1
 90
        0
176
     1
 90
        0
176
     1
 62
     7
176
     1
 62
   257
176
     1
 90
        1
176
     1
 90
        1
176
     1
 40
1.0
176
     1
 90
        8
176
     1
 62
     7
176
     1
 40
1.0
176
     1
 90
        1
176
     1
 90
        6
176
     1
 90
        2
176
     1
 62
     7
176
     1
 90
        5
176
     1
 90
        0
176
     1
 90
        0
176
     1
290
     0
176
     1
 90
       13
176
     1
 40
0.0
176
     1
 90
        0
176
     1
290
     0
176
     1
290
     1
176
     1
290
     1
176
     1
290
     0
176
     1
290
     0
176
     1
290
     0
176
     1
290
     0
176
     1
290
     0
176
     1
290
     0
176
     1
 90
       50
176
     1
 40
0.0
176
     1
 40
1.0
176
     1
 90
        0
176
     1
 62
    18
176
     1
 90
       50
176
     1
 90
        3
176
     1
 62
     5
420
      255
176
     1
290
     0
176
     1
 90
       50
176
     1
 90
       50
176
     1
 90
       50
176
     1
290
     0
176
     1
 90
       50
176
     1
 62
   256
176
     0
 40
1.0
176
     0
 90
        2
176
     1
  1
strokes_ogs.tif
176
     1
290
     0
176
     1
 40
1.0
176
     1
 40
1.0
176
     1
  0
VISUALSTYLE
  5
8A73
102
{ACAD_REACTORS
330
8A71
102
}
330
8A71
100
AcDbVisualStyle
  2
FlatWithEdges
 70
     1
177
     3
291
     1
 70
    58
 90
        2
176
     1
 90
        1
176
     1
 90
        1
176
     1
 90
        2
176
     1
 40
0.6
176
     1
 40
30.0
176
     1
 62
     7
420
 16777215
176
     1
 90
        1
176
     1
 90
        0
176
     1
 62
     7
176
     1
 62
   257
176
     1
 90
        1
176
     1
 90
        1
176
     1
 40
1.0
176
     1
 90
        0
176
     1
 62
   257
176
     1
 40
1.0
176
     1
 90
        1
176
     1
 90
        6
176
     1
 90
        2
176
     1
 62
     7
176
     1
 90
        5
176
     1
 90
        0
176
     1
 90
        0
176
     1
290
     0
176
     1
 90
       13
176
     1
 40
0.0
176
     1
 90
        0
176
     1
290
     0
176
     1
290
     1
176
     1
290
     1
176
     1
290
     0
176
     1
290
     0
176
     1
290
     0
176
     1
290
     0
176
     1
290
     0
176
     1
290
     0
176
     1
 90
       50
176
     1
 40
0.0
176
     1
 40
1.0
176
     1
 90
        0
176
     1
 62
    18
176
     1
 90
       50
176
     1
 90
        3
176
     1
 62
     5
420
      255
176
     1
290
     0
176
     1
 90
       50
176
     1
 90
       50
176
     1
 90
       50
176
     1
290
     0
176
     1
 90
       50
176
     1
 62
   256
176
     0
 40
1.0
176
     0
 90
        2
176
     1
  1
strokes_ogs.tif
176
     1
290
     0
176
     1
 40
1.0
176
     1
 40
1.0
176
     1
  0
VISUALSTYLE
  5
8A74
102
{ACAD_REACTORS
330
8A71
102
}
330
8A71
100
AcDbVisualStyle
  2
Gouraud
 70
     2
177
     3
291
     1
 70
    58
 90
        2
176
     1
 90
        2
176
     1
 90
        1
176
     1
 90
        2
176
     1
 40
0.6
176
     1
 40
30.0
176
     1
 62
     7
420
 16777215
176
     1
 90
        0
176
     1
 90
        0
176
     1
 62
     7
176
     1
 62
   257
176
     1
 90
        1
176
     1
 90
        1
176
     1
 40
1.0
176
     1
 90
        0
176
     1
 62
     7
176
     1
 40
1.0
176
     1
 90
        1
176
     1
 90
        6
176
     1
 90
        2
176
     1
 62
     7
176
     1
 90
        5
176
     1
 90
        0
176
     1
 90
        0
176
     1
290
     0
176
     1
 90
       13
176
     1
 40
0.0
176
     1
 90
        0
176
     1
290
     0
176
     1
290
     1
176
     1
290
     1
176
     1
290
     0
176
     1
290
     0
176
     1
290
     0
176
     1
290
     0
176
     1
290
     0
176
     1
290
     0
176
     1
 90
       50
176
     1
 40
0.0
176
     1
 40
1.0
176
     1
 90
        0
176
     1
 62
    18
176
     1
 90
       50
176
     1
 90
        3
176
     1
 62
     5
420
      255
176
     1
290
     0
176
     1
 90
       50
176
     1
 90
       50
176
     1
 90
       50
176
     1
290
     0
176
     1
 90
       50
176
     1
 62
   256
176
     0
 40
1.0
176
     0
 90
        2
176
     1
  1
strokes_ogs.tif
176
     1
290
     0
176
     1
 40
1.0
176
     1
 40
1.0
176
     1
  0
VISUALSTYLE
  5
8A75
102
{ACAD_REACTORS
330
8A71
102
}
330
8A71
100
AcDbVisualStyle
  2
GouraudWithEdges
 70
     3
177
     3
291
     1
 70
    58
 90
        2
176
     1
 90
        2
176
     1
 90
        1
176
     1
 90
        2
176
     1
 40
0.6
176
     1
 40
30.0
176
     1
 62
     7
420
 16777215
176
     1
 90
        1
176
     1
 90
        0
176
     1
 62
     7
176
     1
 62
   257
176
     1
 90
        1
176
     1
 90
        1
176
     1
 40
1.0
176
     1
 90
        0
176
     1
 62
   257
176
     1
 40
1.0
176
     1
 90
        1
176
     1
 90
        6
176
     1
 90
        2
176
     1
 62
     7
176
     1
 90
        5
176
     1
 90
        0
176
     1
 90
        0
176
     1
290
     0
176
     1
 90
       13
176
     1
 40
0.0
176
     1
 90
        0
176
     1
290
     0
176
     1
290
     1
176
     1
290
     1
176
     1
290
     0
176
     1
290
     0
176
     1
290
     0
176
     1
290
     0
176
     1
290
     0
176
     1
290
     0
176
     1
 90
       50
176
     1
 40
0.0
176
     1
 40
1.0
176
     1
 90
        0
176
     1
 62
    18
176
     1
 90
       50
176
     1
 90
        3
176
     1
 62
     5
420
      255
176
     1
290
     0
176
     1
 90
       50
176
     1
 90
       50
176
     1
 90
       50
176
     1
290
     0
176
     1
 90
       50
176
     1
 62
   256
176
     0
 40
1.0
176
     0
 90
        2
176
     1
  1
strokes_ogs.tif
176
     1
290
     0
176
     1
 40
1.0
176
     1
 40
1.0
176
     1
  0
VISUALSTYLE
  5
8A79
102
{ACAD_REACTORS
330
8A71
102
}
330
8A71
100
AcDbVisualStyle
  2
Hidden
 70
     6
177
     3
291
     0
 70
    58
 90
        1
176
     1
 90
        2
176
     1
 90
        2
176
     1
 90
        0
176
     1
 40
0.6
176
     1
 40
30.0
176
     1
 62
     7
420
 16777215
176
     1
 90
        2
176
     1
 90
        2
176
     1
 62
     7
176
     1
 62
   257
176
     1
 90
        2
176
     1
 90
        1
176
     1
 40
40.0
176
     1
 90
        0
176
     1
 62
   257
176
     1
 40
1.0
176
     1
 90
        1
176
     1
 90
        6
176
     1
 90
        2
176
     1
 62
     7
176
     1
 90
        3
176
     1
 90
        0
176
     1
 90
        0
176
     1
290
     0
176
     1
 90
        1
176
     1
 40
0.0
176
     1
 90
        0
176
     1
290
     0
176
     1
290
     1
176
     1
290
     1
176
     1
290
     0
176
     1
290
     0
176
     1
290
     0
176
     1
290
     0
176
     1
290
     0
176
     1
290
     0
176
     1
 90
       50
176
     1
 40
0.0
176
     1
 40
1.0
176
     1
 90
        0
176
     1
 62
    18
176
     1
 90
       50
176
     1
 90
        3
176
     1
 62
     5
420
      255
176
     1
290
     0
176
     1
 90
       50
176
     1
 90
       50
176
     1
 90
       50
176
     1
290
     0
176
     1
 90
       50
176
     1
 62
   256
176
     0
 40
1.0
176
     0
 90
        2
176
     1
  1
strokes_ogs.tif
176
     1
290
     0
176
     1
 40
1.0
176
     1
 40
1.0
176
     1
  0
VISUALSTYLE
  5
8A87
102
{ACAD_REACTORS
330
8A71
102
}
330
8A71
100
AcDbVisualStyle
  2
JitterOff
 70
    20
177
     3
291
     1
 70
    58
 90
        2
176
     0
 90
        2
176
     0
 90
        0
176
     0
 90
        0
176
     0
 40
0.6
176
     0
 40
30.0
176
     0
 62
     7
420
 16777215
176
     0
 90
        1
176
     0
 90
        4
176
     0
 62
     7
176
     0
 62
   257
176
     0
 90
        1
176
     0
 90
        1
176
     0
 40
1.0
176
     0
 90
       10
176
     2
 62
     7
176
     0
 40
1.0
176
     0
 90
        1
176
     0
 90
        6
176
     0
 90
        2
176
     0
 62
     7
176
     0
 90
        5
176
     0
 90
        0
176
     0
 90
        0
176
     0
290
     0
176
     0
 90
        1
176
     0
 40
0.0
176
     0
 90
        0
176
     0
290
     0
176
     1
290
     1
176
     1
290
     1
176
     1
290
     0
176
     1
290
     0
176
     1
290
     0
176
     1
290
     0
176
     1
290
     0
176
     1
290
     0
176
     1
 90
       50
176
     0
 40
0.0
176
     0
 40
1.0
176
     0
 90
        0
176
     0
 62
    18
176
     0
 90
       50
176
     0
 90
        3
176
     0
 62
     5
420
      255
176
     0
290
     0
176
     1
 90
       50
176
     0
 90
       50
176
     0
 90
       50
176
     0
290
     0
176
     1
 90
       50
176
     0
 62
   256
176
     0
 40
1.0
176
     0
 90
        2
176
     0
  1
strokes_ogs.tif
176
     0
290
     0
176
     1
 40
1.0
176
     0
 40
1.0
176
     0
  0
VISUALSTYLE
  5
8A7F
102
{ACAD_REACTORS
330
8A71
102
}
330
8A71
100
AcDbVisualStyle
  2
Linepattern
 70
    14
177
     3
291
     1
 70
    58
 90
        2
176
     1
 90
        2
176
     1
 90
        0
176
     1
 90
        0
176
     1
 40
0.6
176
     1
 40
30.0
176
     1
 62
     7
420
 16777215
176
     1
 90
        1
176
     1
 90
        4
176
     1
 62
     7
176
     1
 62
   257
176
     1
 90
        7
176
     1
 90
        7
176
     1
 40
1.0
176
     1
 90
        8
176
     1
 62
     7
176
     1
 40
1.0
176
     1
 90
        1
176
     1
 90
        6
176
     1
 90
        2
176
     1
 62
     7
176
     1
 90
        5
176
     1
 90
        0
176
     1
 90
        0
176
     1
290
     0
176
     1
 90
        1
176
     1
 40
0.0
176
     1
 90
        0
176
     1
290
     0
176
     1
290
     1
176
     1
290
     1
176
     1
290
     0
176
     1
290
     0
176
     1
290
     0
176
     1
290
     0
176
     1
290
     0
176
     1
290
     0
176
     1
 90
       50
176
     1
 40
0.0
176
     1
 40
1.0
176
     1
 90
        0
176
     1
 62
    18
176
     1
 90
       50
176
     1
 90
        3
176
     1
 62
     5
420
      255
176
     1
290
     0
176
     1
 90
       50
176
     1
 90
       50
176
     1
 90
       50
176
     1
290
     0
176
     1
 90
       50
176
     1
 62
   256
176
     0
 40
1.0
176
     0
 90
        2
176
     1
  1
strokes_ogs.tif
176
     1
290
     0
176
     1
 40
1.0
176
     1
 40
1.0
176
     1
  0
VISUALSTYLE
  5
8A88
102
{ACAD_REACTORS
330
8A71
102
}
330
8A71
100
AcDbVisualStyle
  2
OverhangOff
 70
    21
177
     3
291
     1
 70
    58
 90
        2
176
     0
 90
        2
176
     0
 90
        0
176
     0
 90
        0
176
     0
 40
0.6
176
     0
 40
30.0
176
     0
 62
     7
420
 16777215
176
     0
 90
        1
176
     0
 90
        4
176
     0
 62
     7
176
     0
 62
   257
176
     0
 90
        1
176
     0
 90
        1
176
     0
 40
1.0
176
     0
 90
        9
176
     2
 62
     7
176
     0
 40
1.0
176
     0
 90
        1
176
     0
 90
        6
176
     0
 90
        2
176
     0
 62
     7
176
     0
 90
        5
176
     0
 90
        0
176
     0
 90
        0
176
     0
290
     0
176
     0
 90
        1
176
     0
 40
0.0
176
     0
 90
        0
176
     0
290
     0
176
     1
290
     1
176
     1
290
     1
176
     1
290
     0
176
     1
290
     0
176
     1
290
     0
176
     1
290
     0
176
     1
290
     0
176
     1
290
     0
176
     1
 90
       50
176
     0
 40
0.0
176
     0
 40
1.0
176
     0
 90
        0
176
     0
 62
    18
176
     0
 90
       50
176
     0
 90
        3
176
     0
 62
     5
420
      255
176
     0
290
     0
176
     1
 90
       50
176
     0
 90
       50
176
     0
 90
       50
176
     0
290
     0
176
     1
 90
       50
176
     0
 62
   256
176
     0
 40
1.0
176
     0
 90
        2
176
     0
  1
strokes_ogs.tif
176
     0
290
     0
176
     1
 40
1.0
176
     0
 40
1.0
176
     0
  0
VISUALSTYLE
  5
8A7B
102
{ACAD_REACTORS
330
8A71
102
}
330
8A71
100
AcDbVisualStyle
  2
Realistic
 70
     8
177
     3
291
     0
 70
    58
 90
        2
176
     1
 90
        3
176
     1
 90
        0
176
     1
 90
        2
176
     1
 40
0.6
176
     1
 40
30.0
176
     1
 62
     7
420
 16777215
176
     1
 90
        0
176
     1
 90
        0
176
     1
 62
     7
176
     1
 62
   257
176
     1
 90
        1
176
     1
 90
        1
176
     1
 40
1.0
176
     1
 90
        8
176
     1
 62
   257
176
     1
 40
1.0
176
     1
 90
        1
176
     1
 90
        6
176
     1
 90
        2
176
     1
 62
     7
176
     1
 90
        3
176
     1
 90
        0
176
     1
 90
        0
176
     1
290
     0
176
     1
 90
       13
176
     1
 40
0.0
176
     1
 90
        0
176
     1
290
     0
176
     1
290
     1
176
     1
290
     1
176
     1
290
     0
176
     1
290
     0
176
     1
290
     0
176
     1
290
     0
176
     1
290
     0
176
     1
290
     0
176
     1
 90
       50
176
     1
 40
0.0
176
     1
 40
1.0
176
     1
 90
        0
176
     1
 62
    18
176
     1
 90
       50
176
     1
 90
        3
176
     1
 62
     5
420
      255
176
     1
290
     0
176
     1
 90
       50
176
     1
 90
       50
176
     1
 90
       50
176
     1
290
     0
176
     1
 90
       50
176
     1
 62
   256
176
     0
 40
1.0
176
     0
 90
        2
176
     1
  1
strokes_ogs.tif
176
     1
290
     0
176
     1
 40
1.0
176
     1
 40
1.0
176
     1
  0
VISUALSTYLE
  5
8A86
102
{ACAD_REACTORS
330
8A71
102
}
330
8A71
100
AcDbVisualStyle
  2
Shaded
 70
    27
177
     3
291
     0
 70
    58
 90
        2
176
     1
 90
        2
176
     1
 90
        1
176
     1
 90
        2
176
     1
 40
0.6
176
     1
 40
30.0
176
     1
 62
     7
420
 16777215
176
     1
 90
        0
176
     1
 90
        4
176
     1
 62
     7
176
     1
 62
   257
176
     1
 90
        1
176
     1
 90
        1
176
     1
 40
1.0
176
     1
 90
        8
176
     1
 62
   257
176
     1
 40
1.0
176
     1
 90
        1
176
     1
 90
        6
176
     1
 90
        2
176
     1
 62
     8
420
  7895160
176
     1
 90
        3
176
     1
 90
        0
176
     1
 90
        0
176
     1
290
     0
176
     1
 90
        5
176
     1
 40
0.0
176
     1
 90
        0
176
     1
290
     0
176
     1
290
     1
176
     1
290
     1
176
     1
290
     0
176
     1
290
     0
176
     1
290
     0
176
     1
290
     0
176
     1
290
     0
176
     1
290
     0
176
     1
 90
       50
176
     1
 40
0.0
176
     1
 40
1.0
176
     1
 90
        0
176
     1
 62
    18
176
     1
 90
       50
176
     1
 90
        3
176
     1
 62
     5
420
      255
176
     1
290
     0
176
     1
 90
       50
176
     1
 90
       50
176
     1
 90
       50
176
     1
290
     0
176
     1
 90
       50
176
     1
 62
   256
176
     0
 40
1.0
176
     0
 90
        2
176
     1
  1
strokes_ogs.tif
176
     1
290
     0
176
     1
 40
1.0
176
     1
 40
1.0
176
     1
  0
VISUALSTYLE
  5
8A85
102
{ACAD_REACTORS
330
8A71
102
}
330
8A71
100
AcDbVisualStyle
  2
Shaded with edges
 70
    26
177
     3
291
     0
 70
    58
 90
        2
176
     1
 90
        2
176
     1
 90
        1
176
     1
 90
        2
176
     1
 40
0.6
176
     1
 40
30.0
176
     1
 62
     7
420
 16777215
176
     1
 90
        1
176
     1
 90
       10
176
     1
 62
     7
176
     1
 62
   257
176
     1
 90
        2
176
     1
 90
        1
176
     1
 40
1.0
176
     1
 90
        8
176
     1
 62
   257
176
     1
 40
1.0
176
     1
 90
        1
176
     1
 90
        6
176
     1
 90
        2
176
     1
 62
     7
176
     1
 90
        3
176
     1
 90
        0
176
     1
 90
        0
176
     1
290
     0
176
     1
 90
        5
176
     1
 40
0.0
176
     1
 90
        0
176
     1
290
     0
176
     1
290
     1
176
     1
290
     1
176
     1
290
     0
176
     1
290
     0
176
     1
290
     0
176
     1
290
     0
176
     1
290
     0
176
     1
290
     0
176
     1
 90
       50
176
     1
 40
0.0
176
     1
 40
1.0
176
     1
 90
        0
176
     1
 62
    18
176
     1
 90
       50
176
     1
 90
        3
176
     1
 62
     5
420
      255
176
     1
290
     0
176
     1
 90
       50
176
     1
 90
       50
176
     1
 90
       50
176
     1
290
     0
176
     1
 90
       50
176
     1
 62
   256
176
     0
 40
1.0
176
     0
 90
        2
176
     1
  1
strokes_ogs.tif
176
     1
290
     0
176
     1
 40
1.0
176
     1
 40
1.0
176
     1
  0
VISUALSTYLE
  5
8A82
102
{ACAD_REACTORS
330
8A71
102
}
330
8A71
100
AcDbVisualStyle
  2
Shades of Gray
 70
    23
177
     3
291
     0
 70
    58
 90
        2
176
     1
 90
        2
176
     1
 90
        3
176
     1
 90
        0
176
     1
 40
0.6
176
     1
 40
30.0
176
     1
 62
     7
420
 16777215
176
     1
 90
        2
176
     1
 90
        2
176
     1
 62
     7
176
     1
 62
     7
176
     1
 90
        1
176
     1
 90
        1
176
     1
 40
40.0
176
     1
 90
        8
176
     1
 62
     7
176
     1
 40
1.0
176
     1
 90
        1
176
     1
 90
        6
176
     1
 90
        2
176
     1
 62
     7
176
     1
 90
        3
176
     1
 90
        0
176
     1
 90
        0
176
     1
290
     0
176
     1
 90
        1
176
     1
 40
0.0
176
     1
 90
        0
176
     1
290
     0
176
     1
290
     1
176
     1
290
     1
176
     1
290
     0
176
     1
290
     0
176
     1
290
     0
176
     1
290
     0
176
     1
290
     0
176
     1
290
     0
176
     1
 90
       50
176
     1
 40
0.0
176
     1
 40
1.0
176
     1
 90
        0
176
     1
 62
    18
176
     1
 90
       50
176
     1
 90
        3
176
     1
 62
     5
420
      255
176
     1
290
     0
176
     1
 90
       50
176
     1
 90
       50
176
     1
 90
       50
176
     1
290
     0
176
     1
 90
       50
176
     1
 62
   256
176
     0
 40
1.0
176
     0
 90
        2
176
     1
  1
strokes_ogs.tif
176
     1
290
     0
176
     1
 40
1.0
176
     1
 40
1.0
176
     1
  0
VISUALSTYLE
  5
8A83
102
{ACAD_REACTORS
330
8A71
102
}
330
8A71
100
AcDbVisualStyle
  2
Sketchy
 70
    24
177
     3
291
     0
 70
    58
 90
        1
176
     1
 90
        2
176
     1
 90
        2
176
     1
 90
        0
176
     1
 40
0.6
176
     1
 40
30.0
176
     1
 62
     7
420
 16777215
176
     1
 90
        2
176
     1
 90
        2
176
     1
 62
     7
176
     1
 62
     7
176
     1
 90
        1
176
     1
 90
        1
176
     1
 40
40.0
176
     1
 90
       11
176
     1
 62
     7
176
     1
 40
1.0
176
     1
 90
        1
176
     1
 90
        6
176
     1
 90
        2
176
     1
 62
     7
176
     1
 90
        6
176
     1
 90
        0
176
     1
 90
        0
176
     1
290
     0
176
     1
 90
        1
176
     1
 40
0.0
176
     1
 90
        0
176
     1
290
     0
176
     1
290
     1
176
     1
290
     1
176
     1
290
     0
176
     1
290
     0
176
     1
290
     0
176
     1
290
     0
176
     1
290
     0
176
     1
290
     0
176
     1
 90
       50
176
     1
 40
0.0
176
     1
 40
1.0
176
     1
 90
        0
176
     1
 62
    18
176
     1
 90
       50
176
     1
 90
        3
176
     1
 62
     5
420
      255
176
     1
290
     0
176
     1
 90
       50
176
     1
 90
       50
176
     1
 90
       50
176
     1
290
     0
176
     1
 90
       50
176
     1
 62
   256
176
     0
 40
1.0
176
     0
 90
        2
176
     1
  1
strokes_ogs.tif
176
     1
290
     0
176
     1
 40
1.0
176
     1
 40
1.0
176
     1
  0
VISUALSTYLE
  5
8A7E
102
{ACAD_REACTORS
330
8A71
102
}
330
8A71
100
AcDbVisualStyle
  2
Thicken
 70
    13
177
     3
291
     1
 70
    58
 90
        2
176
     1
 90
        2
176
     1
 90
        0
176
     1
 90
        0
176
     1
 40
0.6
176
     1
 40
30.0
176
     1
 62
     7
420
 16777215
176
     1
 90
        1
176
     1
 90
        4
176
     1
 62
     7
176
     1
 62
   257
176
     1
 90
        1
176
     1
 90
        1
176
     1
 40
1.0
176
     1
 90
       12
176
     1
 62
     7
176
     1
 40
1.0
176
     1
 90
        1
176
     1
 90
        6
176
     1
 90
        2
176
     1
 62
     7
176
     1
 90
        5
176
     1
 90
        0
176
     1
 90
        0
176
     1
290
     0
176
     1
 90
        1
176
     1
 40
0.0
176
     1
 90
        0
176
     1
290
     0
176
     1
290
     1
176
     1
290
     1
176
     1
290
     0
176
     1
290
     0
176
     1
290
     0
176
     1
290
     0
176
     1
290
     0
176
     1
290
     0
176
     1
 90
       50
176
     1
 40
0.0
176
     1
 40
1.0
176
     1
 90
        0
176
     1
 62
    18
176
     1
 90
       50
176
     1
 90
        3
176
     1
 62
     5
420
      255
176
     1
290
     0
176
     1
 90
       50
176
     1
 90
       50
176
     1
 90
       50
176
     1
290
     0
176
     1
 90
       50
176
     1
 62
   256
176
     0
 40
1.0
176
     0
 90
        2
176
     1
  1
strokes_ogs.tif
176
     1
290
     0
176
     1
 40
1.0
176
     1
 40
1.0
176
     1
  0
VISUALSTYLE
  5
8A78
102
{ACAD_REACTORS
330
8A71
102
}
330
8A71
100
AcDbVisualStyle
  2
Wireframe
 70
     5
177
     3
291
     0
 70
    58
 90
        0
176
     1
 90
        2
176
     1
 90
        0
176
     1
 90
        0
176
     1
 40
0.6
176
     1
 40
30.0
176
     1
 62
     7
420
 16777215
176
     1
 90
        1
176
     1
 90
        4
176
     1
 62
     7
176
     1
 62
   257
176
     1
 90
        1
176
     1
 90
        1
176
     1
 40
1.0
176
     1
 90
        0
176
     1
 62
   257
176
     1
 40
1.0
176
     1
 90
        1
176
     1
 90
        6
176
     1
 90
        2
176
     1
 62
     7
176
     1
 90
        3
176
     1
 90
        0
176
     1
 90
        0
176
     1
290
     0
176
     1
 90
        1
176
     1
 40
0.0
176
     1
 90
        0
176
     1
290
     0
176
     1
290
     1
176
     1
290
     1
176
     1
290
     0
176
     1
290
     0
176
     1
290
     0
176
     1
290
     0
176
     1
290
     0
176
     1
290
     0
176
     1
 90
       50
176
     1
 40
0.0
176
     1
 40
1.0
176
     1
 90
        0
176
     1
 62
    18
176
     1
 90
       50
176
     1
 90
        3
176
     1
 62
     5
420
      255
176
     1
290
     0
176
     1
 90
       50
176
     1
 90
       50
176
     1
 90
       50
176
     1
290
     0
176
     1
 90
       50
176
     1
 62
   256
176
     0
 40
1.0
176
     0
 90
        2
176
     1
  1
strokes_ogs.tif
176
     1
290
     0
176
     1
 40
1.0
176
     1
 40
1.0
176
     1
  0
VISUALSTYLE
  5
8A84
102
{ACAD_REACTORS
330
8A71
102
}
330
8A71
100
AcDbVisualStyle
  2
X-Ray
 70
    25
177
     3
291
     0
 70
    58
 90
        2
176
     1
 90
        2
176
     1
 90
        1
176
     1
 90
        1
176
     1
 40
0.5
176
     1
 40
30.0
176
     1
 62
     7
420
 16777215
176
     1
 90
        1
176
     1
 90
        0
176
     1
 62
     7
176
     1
 62
   257
176
     1
 90
        1
176
     1
 90
        1
176
     1
 40
1.0
176
     1
 90
        8
176
     1
 62
     7
176
     1
 40
1.0
176
     1
 90
        1
176
     1
 90
        6
176
     1
 90
        2
176
     1
 62
     7
176
     1
 90
        3
176
     1
 90
        0
176
     1
 90
        0
176
     1
290
     0
176
     1
 90
       13
176
     1
 40
0.0
176
     1
 90
        0
176
     1
290
     0
176
     1
290
     1
176
     1
290
     1
176
     1
290
     0
176
     1
290
     0
176
     1
290
     0
176
     1
290
     0
176
     1
290
     0
176
     1
290
     0
176
     1
 90
       50
176
     1
 40
0.0
176
     1
 40
1.0
176
     1
 90
        0
176
     1
 62
    18
176
     1
 90
       50
176
     1
 90
        3
176
     1
 62
     5
420
      255
176
     1
290
     0
176
     1
 90
       50
176
     1
 90
       50
176
     1
 90
       50
176
     1
290
     0
176
     1
 90
       50
176
     1
 62
   256
176
     0
 40
1.0
176
     0
 90
        2
176
     1
  1
strokes_ogs.tif
176
     1
290
     0
176
     1
 40
1.0
176
     1
 40
1.0
176
     1
  0
DICTIONARYVAR
  5
8AE9
102
{ACAD_REACTORS
330
5697
102
}
330
5697
100
DictionaryVariables
280
     0
  1
1:1
  0
DICTIONARYVAR
  5
8AE5
102
{ACAD_REACTORS
330
5697
102
}
330
5697
100
DictionaryVariables
280
     0
  1
STANDARD
  0
DICTIONARYVAR
  5
8AE4
102
{ACAD_REACTORS
330
5697
102
}
330
5697
100
DictionaryVariables
280
     0
  1
STANDARD
  0
DICTIONARYVAR
  5
8AE6
102
{ACAD_REACTORS
330
5697
102
}
330
5697
100
DictionaryVariables
280
     0
  1
Imperial24
  0
DICTIONARYVAR
  5
8AE7
102
{ACAD_REACTORS
330
5697
102
}
330
5697
100
DictionaryVariables
280
     0
  1
Imperial24
  0
DICTIONARYVAR
  5
5698
102
{ACAD_REACTORS
330
5697
102
}
330
5697
100
DictionaryVariables
280
     0
  1
1
  0
DICTIONARYVAR
  5
8AEB
102
{ACAD_REACTORS
330
5697
102
}
330
5697
100
DictionaryVariables
280
     0
  1
1
  0
DICTIONARYVAR
  5
8AEC
102
{ACAD_REACTORS
330
5697
102
}
330
5697
100
DictionaryVariables
280
     0
  1
15
  0
DICTIONARYVAR
  5
8AEA
102
{ACAD_REACTORS
330
5697
102
}
330
5697
100
DictionaryVariables
280
     0
  1
0
  0
DICTIONARYVAR
  5
8AE8
102
{ACAD_REACTORS
330
5697
102
}
330
5697
100
DictionaryVariables
280
     0
  1
0
  0
DICTIONARY
  5
1C351
330
8AA4
100
AcDbDictionary
280
     1
281
     1
  3
ACAD_XREC_ROUNDTRIP
360
1C43E
  0
DICTIONARY
  5
F3D2
330
8A4C
100
AcDbDictionary
280
     1
281
     1
  0
DICTIONARY
  5
8A62
330
8A61
100
AcDbDictionary
280
     1
281
     1
  3
BUMPTILE
360
8A64
  3
DIFFUSETILE
360
8A63
  3
OPACITYTILE
360
8A67
  3
REFLECTIONTILE
360
8A66
  3
REFRACTIONTILE
360
8A68
  3
SPECULARTILE
360
8A65
  0
DICTIONARY
  5
8A5A
330
8A59
100
AcDbDictionary
280
     1
281
     1
  3
BUMPTILE
360
8A5C
  3
DIFFUSETILE
360
8A5B
  3
OPACITYTILE
360
8A5F
  3
REFLECTIONTILE
360
8A5E
  3
REFRACTIONTILE
360
8A60
  3
SPECULARTILE
360
8A5D
  0
DICTIONARY
  5
8A6A
330
8A69
100
AcDbDictionary
280
     1
281
     1
  3
BUMPTILE
360
8A6C
  3
DIFFUSETILE
360
8A6B
  3
OPACITYTILE
360
8A6F
  3
REFLECTIONTILE
360
8A6E
  3
REFRACTIONTILE
360
8A70
  3
SPECULARTILE
360
8A6D
  0
DICTIONARY
  5
1C34F
330
8AA2
100
AcDbDictionary
280
     1
281
     1
  3
ACAD_XREC_ROUNDTRIP
360
1C43D
  0
DICTIONARY
  5
8AED
330
8A8C
100
AcDbDictionary
280
     1
281
     1
  3
ACAD_ROUNDTRIP_2008_TABLESTYLE_CELLSTYLEMAP
360
1C43C
  0
XRECORD
  5
1C43E
102
{ACAD_REACTORS
330
1C351
102
}
330
1C351
100
AcDbXrecord
280
     1
102
DISPLAYNAME
  1
Imperial24
102
FLAGS
 90
        0
  0
XRECORD
  5
8A64
102
{ACAD_REACTORS
330
8A62
102
}
330
8A62
100
AcDbXrecord
280
     1
270
     1
271
     1
  0
XRECORD
  5
8A63
102
{ACAD_REACTORS
330
8A62
102
}
330
8A62
100
AcDbXrecord
280
     1
270
     1
271
     1
  0
XRECORD
  5
8A67
102
{ACAD_REACTORS
330
8A62
102
}
330
8A62
100
AcDbXrecord
280
     1
270
     1
271
     1
  0
XRECORD
  5
8A66
102
{ACAD_REACTORS
330
8A62
102
}
330
8A62
100
AcDbXrecord
280
     1
270
     1
271
     1
  0
XRECORD
  5
8A68
102
{ACAD_REACTORS
330
8A62
102
}
330
8A62
100
AcDbXrecord
280
     1
270
     1
271
     1
  0
XRECORD
  5
8A65
102
{ACAD_REACTORS
330
8A62
102
}
330
8A62
100
AcDbXrecord
280
     1
270
     1
271
     1
  0
XRECORD
  5
8A5C
102
{ACAD_REACTORS
330
8A5A
102
}
330
8A5A
100
AcDbXrecord
280
     1
270
     1
271
     1
  0
XRECORD
  5
8A5B
102
{ACAD_REACTORS
330
8A5A
102
}
330
8A5A
100
AcDbXrecord
280
     1
270
     1
271
     1
  0
XRECORD
  5
8A5F
102
{ACAD_REACTORS
330
8A5A
102
}
330
8A5A
100
AcDbXrecord
280
     1
270
     1
271
     1
  0
XRECORD
  5
8A5E
102
{ACAD_REACTORS
330
8A5A
102
}
330
8A5A
100
AcDbXrecord
280
     1
270
     1
271
     1
  0
XRECORD
  5
8A60
102
{ACAD_REACTORS
330
8A5A
102
}
330
8A5A
100
AcDbXrecord
280
     1
270
     1
271
     1
  0
XRECORD
  5
8A5D
102
{ACAD_REACTORS
330
8A5A
102
}
330
8A5A
100
AcDbXrecord
280
     1
270
     1
271
     1
  0
XRECORD
  5
8A6C
102
{ACAD_REACTORS
330
8A6A
102
}
330
8A6A
100
AcDbXrecord
280
     1
270
     1
271
     1
  0
XRECORD
  5
8A6B
102
{ACAD_REACTORS
330
8A6A
102
}
330
8A6A
100
AcDbXrecord
280
     1
270
     1
271
     1
  0
XRECORD
  5
8A6F
102
{ACAD_REACTORS
330
8A6A
102
}
330
8A6A
100
AcDbXrecord
280
     1
270
     1
271
     1
  0
XRECORD
  5
8A6E
102
{ACAD_REACTORS
330
8A6A
102
}
330
8A6A
100
AcDbXrecord
280
     1
270
     1
271
     1
  0
XRECORD
  5
8A70
102
{ACAD_REACTORS
330
8A6A
102
}
330
8A6A
100
AcDbXrecord
280
     1
270
     1
271
     1
  0
XRECORD
  5
8A6D
102
{ACAD_REACTORS
330
8A6A
102
}
330
8A6A
100
AcDbXrecord
280
     1
270
     1
271
     1
  0
XRECORD
  5
1C43D
102
{ACAD_REACTORS
330
1C34F
102
}
330
1C34F
100
AcDbXrecord
280
     1
102
DISPLAYNAME
  1
Imperial24
102
FLAGS
 90
        0
  0
CELLSTYLEMAP
  5
1C43C
102
{ACAD_REACTORS
330
8AED
102
}
330
8AED
100
AcDbCellStyleMap
 90
        3
300
CELLSTYLE
  1
TABLEFORMAT_BEGIN
 90
        5
170
     1
 91
        0
 92
    32768
 62
   257
 93
        1
300
CONTENTFORMAT
  1
CONTENTFORMAT_BEGIN
 90
        0
 91
        0
 92
      512
 93
        0
300

 40
0.0
140
1.0
 94
        5
 62
     0
340
11
144
0.25
309
CONTENTFORMAT_END
171
     1
301
MARGIN
  1
CELLMARGIN_BEGIN
 40
0.06
 40
0.06
 40
0.06
 40
0.06
 40
0.18
 40
0.18
309
CELLMARGIN_END
 94
        6
 95
        1
302
GRIDFORMAT
  1
GRIDFORMAT_BEGIN
 90
        0
 91
        1
 62
     0
 92
       -2
340
0
 93
        0
 40
0.045
309
GRIDFORMAT_END
 95
        2
302
GRIDFORMAT
  1
GRIDFORMAT_BEGIN
 90
        0
 91
        1
 62
     0
 92
       -2
340
0
 93
        0
 40
0.045
309
GRIDFORMAT_END
 95
        4
302
GRIDFORMAT
  1
GRIDFORMAT_BEGIN
 90
        0
 91
        1
 62
     0
 92
       -2
340
0
 93
        0
 40
0.045
309
GRIDFORMAT_END
 95
        8
302
GRIDFORMAT
  1
GRIDFORMAT_BEGIN
 90
        0
 91
        1
 62
     0
 92
       -2
340
0
 93
        0
 40
0.045
309
GRIDFORMAT_END
 95
       16
302
GRIDFORMAT
  1
GRIDFORMAT_BEGIN
 90
        0
 91
        1
 62
     0
 92
       -2
340
0
 93
        0
 40
0.045
309
GRIDFORMAT_END
 95
       32
302
GRIDFORMAT
  1
GRIDFORMAT_BEGIN
 90
        0
 91
        1
 62
     0
 92
       -2
340
0
 93
        0
 40
0.045
309
GRIDFORMAT_END
309
TABLEFORMAT_END
  1
CELLSTYLE_BEGIN
 90
        1
 91
        1
300
_TITLE
309
CELLSTYLE_END
300
CELLSTYLE
  1
TABLEFORMAT_BEGIN
 90
        5
170
     1
 91
        0
 92
        0
 62
   257
 93
        1
300
CONTENTFORMAT
  1
CONTENTFORMAT_BEGIN
 90
        0
 91
        0
 92
      512
 93
        0
300

 40
0.0
140
1.0
 94
        5
 62
     0
340
11
144
0.18
309
CONTENTFORMAT_END
171
     1
301
MARGIN
  1
CELLMARGIN_BEGIN
 40
0.06
 40
0.06
 40
0.06
 40
0.06
 40
0.18
 40
0.18
309
CELLMARGIN_END
 94
        6
 95
        1
302
GRIDFORMAT
  1
GRIDFORMAT_BEGIN
 90
        0
 91
        1
 62
     0
 92
       -2
340
0
 93
        0
 40
0.045
309
GRIDFORMAT_END
 95
        2
302
GRIDFORMAT
  1
GRIDFORMAT_BEGIN
 90
        0
 91
        1
 62
     0
 92
       -2
340
0
 93
        0
 40
0.045
309
GRIDFORMAT_END
 95
        4
302
GRIDFORMAT
  1
GRIDFORMAT_BEGIN
 90
        0
 91
        1
 62
     0
 92
       -2
340
0
 93
        0
 40
0.045
309
GRIDFORMAT_END
 95
        8
302
GRIDFORMAT
  1
GRIDFORMAT_BEGIN
 90
        0
 91
        1
 62
     0
 92
       -2
340
0
 93
        0
 40
0.045
309
GRIDFORMAT_END
 95
       16
302
GRIDFORMAT
  1
GRIDFORMAT_BEGIN
 90
        0
 91
        1
 62
     0
 92
       -2
340
0
 93
        0
 40
0.045
309
GRIDFORMAT_END
 95
       32
302
GRIDFORMAT
  1
GRIDFORMAT_BEGIN
 90
        0
 91
        1
 62
     0
 92
       -2
340
0
 93
        0
 40
0.045
309
GRIDFORMAT_END
309
TABLEFORMAT_END
  1
CELLSTYLE_BEGIN
 90
        2
 91
        1
300
_HEADER
309
CELLSTYLE_END
300
CELLSTYLE
  1
TABLEFORMAT_BEGIN
 90
        5
170
     1
 91
        0
 92
        0
 62
   257
 93
        1
300
CONTENTFORMAT
  1
CONTENTFORMAT_BEGIN
 90
        0
 91
        0
 92
      512
 93
        0
300

 40
0.0
140
1.0
 94
        2
 62
     0
340
11
144
0.18
309
CONTENTFORMAT_END
171
     1
301
MARGIN
  1
CELLMARGIN_BEGIN
 40
0.06
 40
0.06
 40
0.06
 40
0.06
 40
0.18
 40
0.18
309
CELLMARGIN_END
 94
        6
 95
        1
302
GRIDFORMAT
  1
GRIDFORMAT_BEGIN
 90
        0
 91
        1
 62
     0
 92
       -2
340
0
 93
        0
 40
0.045
309
GRIDFORMAT_END
 95
        2
302
GRIDFORMAT
  1
GRIDFORMAT_BEGIN
 90
        0
 91
        1
 62
     0
 92
       -2
340
0
 93
        0
 40
0.045
309
GRIDFORMAT_END
 95
        4
302
GRIDFORMAT
  1
GRIDFORMAT_BEGIN
 90
        0
 91
        1
 62
     0
 92
       -2
340
0
 93
        0
 40
0.045
309
GRIDFORMAT_END
 95
        8
302
GRIDFORMAT
  1
GRIDFORMAT_BEGIN
 90
        0
 91
        1
 62
     0
 92
       -2
340
0
 93
        0
 40
0.045
309
GRIDFORMAT_END
 95
       16
302
GRIDFORMAT
  1
GRIDFORMAT_BEGIN
 90
        0
 91
        1
 62
     0
 92
       -2
340
0
 93
        0
 40
0.045
309
GRIDFORMAT_END
 95
       32
302
GRIDFORMAT
  1
GRIDFORMAT_BEGIN
 90
        0
 91
        1
 62
     0
 92
       -2
340
0
 93
        0
 40
0.045
309
GRIDFORMAT_END
309
TABLEFORMAT_END
  1
CELLSTYLE_BEGIN
 90
        3
 91
        2
300
_DATA
309
CELLSTYLE_END
  0
ENDSEC
  0
SECTION
  2
ACDSDATA
 70
     2
 71
     6
  0
ACDSSCHEMA
 90
        0
  1
AcDb_Thumbnail_Schema
  2
AcDbDs::ID
280
    10
 91
        8
  2
Thumbnail_Data
280
    15
 91
        0
101
ACDSRECORD
 95
        0
 90
        1
  2
AcDbDs::TreatedAsObjectData
280
     1
291
     1
101
ACDSRECORD
 95
        0
 90
        2
  2
AcDbDs::Legacy
280
     1
291
     1
101
ACDSRECORD
  1
AcDbDs::ID
 90
        3
  2
AcDs:Indexable
280
     1
291
     1
101
ACDSRECORD
  1
AcDbDs::ID
 90
        4
  2
AcDbDs::HandleAttribute
280
     7
282
     1
  0
ACDSSCHEMA
 90
        1
  1
AcDbDs::TreatedAsObjectDataSchema
  2
AcDbDs::TreatedAsObjectData
280
     1
 91
        0
  0
ACDSSCHEMA
 90
        2
  1
AcDbDs::LegacySchema
  2
AcDbDs::Legacy
280
     1
 91
        0
  0
ACDSSCHEMA
 90
        3
  1
AcDbDs::IndexedPropertySchema
  2
AcDs:Indexable
280
     1
 91
        0
  0
ACDSSCHEMA
 90
        4
  1
AcDbDs::HandleAttributeSchema
  2
AcDbDs::HandleAttribute
280
     7
 91
        1
284
     1
  0
ACDSRECORD
 90
        0
  2
AcDbDs::ID
280
    10
320
8A4C
  2
Thumbnail_Data
280
    15
 94
     1834
310
89504E470D0A1A0A0000000D49484452000001000000006F08030000003479EE6F00000300504C5445000000000000C8C8C80000000000000000000000000000000000000000000000000000330000660000990000CC0000FF0033000033330033660033990033CC0033FF0066000066330066660066990066CC0066FF0099
310
000099330099660099990099CC0099FF00CC0000CC3300CC6600CC9900CCCC00CCFF00FF0000FF3300FF6600FF9900FFCC00FFFF3300003300333300663300993300CC3300FF3333003333333333663333993333CC3333FF3366003366333366663366993366CC3366FF3399003399333399663399993399CC3399FF33CC00
310
33CC3333CC6633CC9933CCCC33CCFF33FF0033FF3333FF6633FF9933FFCC33FFFF6600006600336600666600996600CC6600FF6633006633336633666633996633CC6633FF6666006666336666666666996666CC6666FF6699006699336699666699996699CC6699FF66CC0066CC3366CC6666CC9966CCCC66CCFF66FF0066
310
FF3366FF6666FF9966FFCC66FFFF9900009900339900669900999900CC9900FF9933009933339933669933999933CC9933FF9966009966339966669966999966CC9966FF9999009999339999669999999999CC9999FF99CC0099CC3399CC6699CC9999CCCC99CCFF99FF0099FF3399FF6699FF9999FFCC99FFFFCC0000CC00
310
33CC0066CC0099CC00CCCC00FFCC3300CC3333CC3366CC3399CC33CCCC33FFCC6600CC6633CC6666CC6699CC66CCCC66FFCC9900CC9933CC9966CC9999CC99CCCC99FFCCCC00CCCC33CCCC66CCCC99CCCCCCCCCCFFCCFF00CCFF33CCFF66CCFF99CCFFCCCCFFFFFF0000FF0033FF0066FF0099FF00CCFF00FFFF3300FF3333
310
FF3366FF3399FF33CCFF33FFFF6600FF6633FF6666FF6699FF66CCFF66FFFF9900FF9933FF9966FF9999FF99CCFF99FFFFCC00FFCC33FFCC66FFCC99FFCCCCFFCCFFFFFF00FFFF33FFFF66FFFF99FFFFCCFFFFFF0000000D0D0D1A1A1A2828283535354343435050505D5D5D6B6B6B787878868686939393A1A1A1AEAEAEBB
310
BBBBC9C9C9D6D6D6E4E4E4F1F1F1FFFFFF00000000000000000000000000000000000000000000000000000000000008F1915C000003E54944415478DAED9D4192AC200C86B901D760E3FD77BDC9355C71827FE3FE99008A88DD3DD5F36ADA84D468F3B0CB7AF94C0204B09DFB8F32FD92B8BBCAF455B71900FE1000C0879C
310
A241001089E5C3208072DA0A03C0852C075101809D1EAC1916970BBB1801C0AA2EF39C01CCF35CD4BF06E09401704700C5318C5880C8E2280390C22B007A2CA0787BD20AF593B5610149FD7991074F33175C522C469803B0D4006CB402120217721980143600CE0480ECFF09800402672D08BAA43489E66F025014039C0008
310
610510508BA156C0B772DD15563918CAFF7D6AC0D8190D0E0003400780A584C80030000C0003806D001F4FF6DD3D2DFEF13CA786B9C1697581E9F3DB0C0003C06D017CB2CE41C7FA003A3484CFC47BA5CD20ED6D41271B52B514DA00940FDA3A46FC896B77916C18A5CE13745840086C018EC300C782A70096694B0A524A9C
310
29B08010DC1428FCDC022479AA30063C0750C50015000EADC056F51E00F9A20A003146DB0000D30056F5370B78D50AE803C01D9F3D0882FFEAA9E13C4BA419406E0928FFA3CC19EE0A4EAE1E29D8030037E907909BC10D006A00E2227D00B7EF09D2EAF9E91049856A301479212531002A32795204A06F010D00A7D802AE5C
310
20C63A065C0388512980631084F55640370054A34188FB1BEB0821ABC91680DE58004E39802CB43D6863005EE603705C373B00281C0D3E4F897500546B250D24455B00AC38EF30915D263A2CC03D4D8B9F2D6003A0212D8EB30B34EB641380FD2ADB3E6F2D58E6A54916DD1340D1922A8D9B30978144192140D9D418523728
310
BE01209F9D4A00A927F804C0F57E4A1D2E50AB7D0D202A0670C882B500526E24EDAD370900327390B7D86B03D091164036802E1E03AFD0C8EE1FA3CE20F835B71900FE0C0030005CAF91A3D7751ADE226318800F2178F0890F1F28E4B18E7F53EE0F805C582D60559F3831B203383F6DDFABBB3B009EEE5C0742B412480705
310
490F9B01C016806C01AB27602DA4ADD36600B0DDAF4790C3AD387C1AFED801D0EA740180BDA2AECB7D623300601C005A17803117B008E051491A0527005B054E33E7CA0054171EF2C83300AE7BECDF360280A704CC008812F28F00A0D402C8532B5EBAC2E41F55DD43BACBDEA77239C9B735C600742CE03206680410791270
310
04C101C03A005C748460A52384EA02AAE130CA8E51ED5DE1016000B001209064C3442437660F00242D8E9C1445498A1A012089704E8BA34D8B5B00C02FD40C9C080F9E2D80BD609F18A9DFB5792A43C7CC10F2BC285C90832D62BB7AB680524FC70A0DBF31E23A2B5FD2CAA8785A18C56B45D401E8FDB648D9497206D0BC75
310
5A0380D80350AF0C6A2C00CA007CC56D06806F04D0BC44BB5F352CE0BE006EF06B73FF00F61093D8AA57B40D0000000049454E44AE426082
  0
ENDSEC
  0
EOF
