  0
SECTION
  2
HEADER
  9
$ACADVER
  1
AC1027
  9
$ACADMAINTVER
 70
    55
  9
$DWGCODEPAGE
  3
ANSI_932
  9
$LASTSAVEDBY
  1
marketing
  9
$REQUIREDVERSIONS
160
                 0
  9
$INSBASE
 10
0.0
 20
0.0
 30
0.0
  9
$EXTMIN
 10
-0.0489046821076045
 20
-0.0401538084270214
 30
-0.0015258207003583
  9
$EXTMAX
 10
700.0304075016356
 20
1088.044519492248
 30
0.0000000349246037
  9
$LIMMIN
 10
-296.316999476111
 20
-370.7034300441653
  9
$LIMMAX
 10
623.3128432133979
 20
328.6261559379898
  9
$ORTHOMODE
 70
     1
  9
$REGENMODE
 70
     1
  9
$FILLMODE
 70
     1
  9
$QTEXTMODE
 70
     0
  9
$MIRRTEXT
 70
     1
  9
$LTSCALE
 40
10.0
  9
$ATTMODE
 70
     1
  9
$TEXTSIZE
 40
5.0
  9
$TRACEWID
 40
0.05
  9
$TEXTSTYLE
  7
STANDARD1
  9
$CLAYER
  8
30
  9
$CELTYPE
  6
BYLAYER
  9
$CECOLOR
 62
   256
  9
$CELTSCALE
 40
1.0
  9
$DISPSILH
 70
     0
  9
$DIMSCALE
 40
1.0
  9
$DIMASZ
 40
2.0
  9
$DIMEXO
 40
1.0
  9
$DIMDLI
 40
0.5
  9
$DIMRND
 40
0.0
  9
$DIMDLE
 40
0.0
  9
$DIMEXE
 40
0.5
  9
$DIMTP
 40
0.0
  9
$DIMTM
 40
0.0
  9
$DIMTXT
 40
8.0
  9
$DIMCEN
 40
0.09
  9
$DIMTSZ
 40
0.0
  9
$DIMTOL
 70
     0
  9
$DIMLIM
 70
     0
  9
$DIMTIH
 70
     0
  9
$DIMTOH
 70
     0
  9
$DIMSE1
 70
     0
  9
$DIMSE2
 70
     0
  9
$DIMTAD
 70
     3
  9
$DIMZIN
 70
    12
  9
$DIMBLK
  1
OPEN
  9
$DIMASO
 70
     1
  9
$DIMSHO
 70
     1
  9
$DIMPOST
  1

  9
$DIMAPOST
  1

  9
$DIMALT
 70
     0
  9
$DIMALTD
 70
     2
  9
$DIMALTF
 40
25.4
  9
$DIMLFAC
 40
1.0
  9
$DIMTOFL
 70
     0
  9
$DIMTVP
 40
0.0
  9
$DIMTIX
 70
     0
  9
$DIMSOXD
 70
     0
  9
$DIMSAH
 70
     0
  9
$DIMBLK1
  1

  9
$DIMBLK2
  1

  9
$DIMSTYLE
  2
STANDARD
  9
$DIMCLRD
 70
     0
  9
$DIMCLRE
 70
     0
  9
$DIMCLRT
 70
   256
  9
$DIMTFAC
 40
1.0
  9
$DIMGAP
 40
3.0
  9
$DIMJUST
 70
     0
  9
$DIMSD1
 70
     0
  9
$DIMSD2
 70
     0
  9
$DIMTOLJ
 70
     1
  9
$DIMTZIN
 70
     0
  9
$DIMALTZ
 70
     0
  9
$DIMALTTZ
 70
     0
  9
$DIMUPT
 70
     0
  9
$DIMDEC
 70
     1
  9
$DIMTDEC
 70
     1
  9
$DIMALTU
 70
     2
  9
$DIMALTTD
 70
     2
  9
$DIMTXSTY
  7
STANDARD
  9
$DIMAUNIT
 70
     0
  9
$DIMADEC
 70
     0
  9
$DIMALTRND
 40
0.0
  9
$DIMAZIN
 70
     0
  9
$DIMDSEP
 70
    46
  9
$DIMATFIT
 70
     3
  9
$DIMFRAC
 70
     0
  9
$DIMLDRBLK
  1
OPEN
  9
$DIMLUNIT
 70
     2
  9
$DIMLWD
 70
    -2
  9
$DIMLWE
 70
    -2
  9
$DIMTMOVE
 70
     0
  9
$DIMFXL
 40
1.0
  9
$DIMFXLON
 70
     0
  9
$DIMJOGANG
 40
0.7853981633974483
  9
$DIMTFILL
 70
     1
  9
$DIMTFILLCLR
 70
     0
  9
$DIMARCSYM
 70
     0
  9
$DIMLTYPE
  6

  9
$DIMLTEX1
  6

  9
$DIMLTEX2
  6

  9
$DIMTXTDIRECTION
 70
     0
  9
$LUNITS
 70
     2
  9
$LUPREC
 70
     4
  9
$SKETCHINC
 40
0.1
  9
$FILLETRAD
 40
0.0
  9
$AUNITS
 70
     0
  9
$AUPREC
 70
     0
  9
$MENU
  1
.
  9
$ELEVATION
 40
0.0
  9
$PELEVATION
 40
0.0
  9
$THICKNESS
 40
0.0
  9
$LIMCHECK
 70
     0
  9
$CHAMFERA
 40
0.0
  9
$CHAMFERB
 40
0.0
  9
$CHAMFERC
 40
0.0
  9
$CHAMFERD
 40
0.0
  9
$SKPOLY
 70
     0
  9
$TDCREATE
 40
2452286.555658658
  9
$TDUCREATE
 40
2452286.180658658
  9
$TDUPDATE
 40
2459243.725583299
  9
$TDUUPDATE
 40
2459243.350583299
  9
$TDINDWG
 40
1.8778983102
  9
$TDUSRTIMER
 40
1.8778956366
  9
$USRTIMER
 70
     1
  9
$ANGBASE
 50
0.0
  9
$ANGDIR
 70
     0
  9
$PDMODE
 70
     0
  9
$PDSIZE
 40
0.0
  9
$PLINEWID
 40
0.0
  9
$SPLFRAME
 70
     0
  9
$SPLINETYPE
 70
     6
  9
$SPLINESEGS
 70
     8
  9
$HANDSEED
  5
1C346
  9
$SURFTAB1
 70
     6
  9
$SURFTAB2
 70
     6
  9
$SURFTYPE
 70
     6
  9
$SURFU
 70
     6
  9
$SURFV
 70
     6
  9
$UCSBASE
  2

  9
$UCSNAME
  2

  9
$UCSORG
 10
0.0
 20
0.0
 30
0.0
  9
$UCSXDIR
 10
1.0
 20
0.0
 30
0.0
  9
$UCSYDIR
 10
0.0
 20
1.0
 30
0.0
  9
$UCSORTHOREF
  2

  9
$UCSORTHOVIEW
 70
     0
  9
$UCSORGTOP
 10
0.0
 20
0.0
 30
0.0
  9
$UCSORGBOTTOM
 10
0.0
 20
0.0
 30
0.0
  9
$UCSORGLEFT
 10
0.0
 20
0.0
 30
0.0
  9
$UCSORGRIGHT
 10
0.0
 20
0.0
 30
0.0
  9
$UCSORGFRONT
 10
0.0
 20
0.0
 30
0.0
  9
$UCSORGBACK
 10
0.0
 20
0.0
 30
0.0
  9
$PUCSBASE
  2

  9
$PUCSNAME
  2

  9
$PUCSORG
 10
0.0
 20
0.0
 30
0.0
  9
$PUCSXDIR
 10
1.0
 20
0.0
 30
0.0
  9
$PUCSYDIR
 10
0.0
 20
1.0
 30
0.0
  9
$PUCSORTHOREF
  2

  9
$PUCSORTHOVIEW
 70
     0
  9
$PUCSORGTOP
 10
0.0
 20
0.0
 30
0.0
  9
$PUCSORGBOTTOM
 10
0.0
 20
0.0
 30
0.0
  9
$PUCSORGLEFT
 10
0.0
 20
0.0
 30
0.0
  9
$PUCSORGRIGHT
 10
0.0
 20
0.0
 30
0.0
  9
$PUCSORGFRONT
 10
0.0
 20
0.0
 30
0.0
  9
$PUCSORGBACK
 10
0.0
 20
0.0
 30
0.0
  9
$USERI1
 70
     0
  9
$USERI2
 70
     0
  9
$USERI3
 70
     0
  9
$USERI4
 70
     0
  9
$USERI5
 70
     0
  9
$USERR1
 40
0.0
  9
$USERR2
 40
0.0
  9
$USERR3
 40
0.0
  9
$USERR4
 40
0.0
  9
$USERR5
 40
0.0
  9
$WORLDVIEW
 70
     1
  9
$SHADEDGE
 70
     3
  9
$SHADEDIF
 70
    70
  9
$TILEMODE
 70
     1
  9
$MAXACTVP
 70
    48
  9
$PINSBASE
 10
0.0
 20
0.0
 30
0.0
  9
$PLIMCHECK
 70
     0
  9
$PEXTMIN
 10
4.273573
 20
5.205245999999998
 30
0.0
  9
$PEXTMAX
 10
194.610095
 20
283.0697009999996
 30
0.0
  9
$PLIMMIN
 10
-5.873749
 20
-5.87375
  9
$PLIMMAX
 10
204.099579
 20
291.1369009999999
  9
$UNITMODE
 70
     0
  9
$VISRETAIN
 70
     1
  9
$PLINEGEN
 70
     0
  9
$PSLTSCALE
 70
     1
  9
$TREEDEPTH
 70
  3020
  9
$CMLSTYLE
  2
STANDARD
  9
$CMLJUST
 70
     0
  9
$CMLSCALE
 40
1.0
  9
$PROXYGRAPHICS
 70
     1
  9
$MEASUREMENT
 70
     0
  9
$CELWEIGHT
370
    -1
  9
$ENDCAPS
280
     0
  9
$JOINSTYLE
280
     0
  9
$LWDISPLAY
290
     0
  9
$INSUNITS
 70
     0
  9
$HYPERLINKBASE
  1

  9
$STYLESHEET
  1
MONOCHROME.CTB
  9
$XEDIT
290
     1
  9
$CEPSNTYPE
380
     0
  9
$PSTYLEMODE
290
     1
  9
$FINGERPRINTGUID
  2

  9
$VERSIONGUID
  2
{2EF7A23A-13F0-4F49-B6B5-8B164ACA1010}
  9
$EXTNAMES
290
     1
  9
$PSVPSCALE
 40
0.0
  9
$OLESTARTUP
290
     0
  9
$SORTENTS
280
   127
  9
$INDEXCTL
280
     0
  9
$HIDETEXT
280
     0
  9
$XCLIPFRAME
280
     2
  9
$HALOGAP
280
     0
  9
$OBSCOLOR
 70
   257
  9
$OBSLTYPE
280
     0
  9
$INTERSECTIONDISPLAY
280
     0
  9
$INTERSECTIONCOLOR
 70
   257
  9
$DIMASSOC
280
     1
  9
$PROJECTNAME
  1

  9
$CAMERADISPLAY
290
     0
  9
$LENSLENGTH
 40
50.0
  9
$CAMERAHEIGHT
 40
0.0
  9
$STEPSPERSEC
 40
2.0
  9
$STEPSIZE
 40
6.0
  9
$3DDWFPREC
 40
2.0
  9
$PSOLWIDTH
 40
0.25
  9
$PSOLHEIGHT
 40
4.0
  9
$LOFTANG1
 40
1.570796326794896
  9
$LOFTANG2
 40
1.570796326794896
  9
$LOFTMAG1
 40
0.0
  9
$LOFTMAG2
 40
0.0
  9
$LOFTPARAM
 70
     7
  9
$LOFTNORMALS
280
     1
  9
$LATITUDE
 40
37.795
  9
$LONGITUDE
 40
-122.394
  9
$NORTHDIRECTION
 40
0.0
  9
$TIMEZONE
 70
 -8000
  9
$LIGHTGLYPHDISPLAY
280
     1
  9
$TILEMODELIGHTSYNCH
280
     1
  9
$CMATERIAL
347
8A59
  9
$SOLIDHIST
280
     0
  9
$SHOWHIST
280
     1
  9
$DWFFRAME
280
     2
  9
$DGNFRAME
280
     0
  9
$REALWORLDSCALE
290
     1
  9
$INTERFERECOLOR
 62
     1
  9
$INTERFEREOBJVS
345
8A7B
  9
$INTERFEREVPVS
346
8A78
  9
$CSHADOW
280
     0
  9
$SHADOWPLANELOCATION
 40
0.0
  0
ENDSEC
  0
SECTION
  2
CLASSES
  0
CLASS
  1
ACDBDICTIONARYWDFLT
  2
AcDbDictionaryWithDefault
  3
ObjectDBX Classes
 90
        0
 91
        1
280
     0
281
     0
  0
CLASS
  1
DICTIONARYVAR
  2
AcDbDictionaryVar
  3
ObjectDBX Classes
 90
        0
 91
       10
280
     0
281
     0
  0
CLASS
  1
MATERIAL
  2
AcDbMaterial
  3
ObjectDBX Classes
 90
     1153
 91
        3
280
     0
281
     0
  0
CLASS
  1
VISUALSTYLE
  2
AcDbVisualStyle
  3
ObjectDBX Classes
 90
     4095
 91
       26
280
     0
281
     0
  0
CLASS
  1
TABLESTYLE
  2
AcDbTableStyle
  3
ObjectDBX Classes
 90
     4095
 91
        1
280
     0
281
     0
  0
CLASS
  1
SCALE
  2
AcDbScale
  3
ObjectDBX Classes
 90
     1153
 91
       17
280
     0
281
     0
  0
CLASS
  1
MLEADERSTYLE
  2
AcDbMLeaderStyle
  3
ACDB_MLEADERSTYLE_CLASS
 90
     4095
 91
        1
280
     0
281
     0
  0
CLASS
  1
ACDBSECTIONVIEWSTYLE
  2
AcDbSectionViewStyle
  3
ObjectDBX Classes
 90
     1025
 91
        1
280
     0
281
     0
  0
CLASS
  1
ACDBDETAILVIEWSTYLE
  2
AcDbDetailViewStyle
  3
ObjectDBX Classes
 90
     1025
 91
        1
280
     0
281
     0
  0
CLASS
  1
CELLSTYLEMAP
  2
AcDbCellStyleMap
  3
ObjectDBX Classes
 90
     1152
 91
        2
280
     0
281
     0
  0
CLASS
  1
AEC_REFEDIT_STATUS_TRACKER
  2
AecDbRefEditStatusTracker
  3
AecArchBase70|Product Desc: Autodesk Architectural Desktop 2007 |Company: Autodesk,Inc. |WEB Address: www.autodesk.com
 90
      129
 91
        0
280
     0
281
     0
  0
CLASS
  1
NPOCOLLECTION
  2
AcDbImpNonPersistentObjectsCollection
  3
ObjectDBX Classes
 90
     1153
 91
        0
280
     0
281
     0
  0
CLASS
  1
SORTENTSTABLE
  2
AcDbSortentsTable
  3
ObjectDBX Classes
 90
        0
 91
        3
280
     0
281
     0
  0
ENDSEC
  0
SECTION
  2
TABLES
  0
TABLE
  2
VPORT
  5
8
330
0
100
AcDbSymbolTable
 70
     1
  0
VPORT
  5
8A51
330
8
100
AcDbSymbolTableRecord
100
AcDbViewportTableRecord
  2
*Active
 70
     0
 10
0.0
 20
0.0
 11
1.0
 21
1.0
 12
349.990751409764
 22
544.0021828419108
 13
0.0
 23
0.0
 14
1.0
 24
1.0
 15
10.0
 25
10.0
 16
0.0
 26
0.0
 36
1.0
 17
0.0
 27
0.0
 37
0.0
 40
1097.976352148863
 41
2.880121396054628
 42
50.0
 43
0.0
 44
0.0
 50
0.0
 51
0.0
 71
     0
 72
   100
 73
     1
 74
     1
 75
     0
 76
     0
 77
     0
 78
     0
281
     0
 65
     1
110
0.0
120
0.0
130
0.0
111
1.0
121
0.0
131
0.0
112
0.0
122
1.0
132
0.0
 79
     0
146
0.0
348
8A77
 60
     3
 61
     5
292
     1
282
     1
141
0.0
142
0.0
 63
   250
421
  3355443
1001
ACAD_NAV_VCDISPLAY
1070
     3
  0
ENDTAB
  0
TABLE
  2
LTYPE
  5
5
330
0
100
AcDbSymbolTable
 70
    13
  0
LTYPE
  5
13
330
5
100
AcDbSymbolTableRecord
100
AcDbLinetypeTableRecord
  2
BYBLOCK
 70
     0
  3

 72
    65
 73
     0
 40
0.0
  0
LTYPE
  5
14
330
5
100
AcDbSymbolTableRecord
100
AcDbLinetypeTableRecord
  2
BYLAYER
 70
     0
  3

 72
    65
 73
     0
 40
0.0
  0
LTYPE
  5
15
330
5
100
AcDbSymbolTableRecord
100
AcDbLinetypeTableRecord
  2
CONTINUOUS
 70
     0
  3
Solid line
 72
    65
 73
     0
 40
0.0
  0
LTYPE
  5
22
330
5
100
AcDbSymbolTableRecord
100
AcDbLinetypeTableRecord
  2
CONTINOUS
 70
     0
  3
Solid line
 72
    65
 73
     0
 40
0.0
  0
LTYPE
  5
23
330
5
100
AcDbSymbolTableRecord
100
AcDbLinetypeTableRecord
  2
DASHED
 70
     0
  3
__ __ __ __ __ __ __ __ __ __ __ __ __ __ __
 72
    65
 73
     2
 40
0.75
 49
0.5
 74
     0
 49
-0.25
 74
     0
  0
LTYPE
  5
24
330
5
100
AcDbSymbolTableRecord
100
AcDbLinetypeTableRecord
  2
DASHDOT
 70
     0
  3
__ . __ . __ . __ . __ . __ . __ . __ . __ . __
 72
    65
 73
     4
 40
1.0
 49
0.5
 74
     0
 49
-0.25
 74
     0
 49
0.0
 74
     0
 49
-0.25
 74
     0
  0
LTYPE
  5
4C47
330
5
100
AcDbSymbolTableRecord
100
AcDbLinetypeTableRecord
  2
DIVIDE
 70
     0
  3
Divide ____ . . ____ . . ____ . . ____ . . ____
 72
    65
 73
     6
 40
1.25
 49
0.5
 74
     0
 49
-0.25
 74
     0
 49
0.0
 74
     0
 49
-0.25
 74
     0
 49
0.0
 74
     0
 49
-0.25
 74
     0
  0
LTYPE
  5
912E
330
5
100
AcDbSymbolTableRecord
100
AcDbLinetypeTableRecord
  2
SLD-実線
 70
     0
  3
SolidWorks Line Style
 72
    65
 73
     0
 40
0.0
  0
LTYPE
  5
912F
330
5
100
AcDbSymbolTableRecord
100
AcDbLinetypeTableRecord
  2
SLD-破線
 70
     0
  3
SolidWorks Line Style
 72
    65
 73
     2
 40
1.905
 49
1.27
 74
     0
 49
-0.635
 74
     0
  0
LTYPE
  5
9130
330
5
100
AcDbSymbolTableRecord
100
AcDbLinetypeTableRecord
  2
SLD-2点鎖線
 70
     0
  3
SolidWorks Line Style
 72
    65
 73
     6
 40
12.7
 49
6.349999999999997
 74
     0
 49
-1.27
 74
     0
 49
1.27
 74
     0
 49
-1.27
 74
     0
 49
1.27
 74
     0
 49
-1.27
 74
     0
  0
LTYPE
  5
16BB0
330
5
100
AcDbSymbolTableRecord
100
AcDbLinetypeTableRecord
  2
PHANTOM
 70
     0
  3
Phantom ______  __  __  ______  __  __  ______
 72
    65
 73
     6
 40
2.5
 49
1.25
 74
     0
 49
-0.25
 74
     0
 49
0.25
 74
     0
 49
-0.25
 74
     0
 49
0.25
 74
     0
 49
-0.25
 74
     0
  0
LTYPE
  5
16BB1
330
5
100
AcDbSymbolTableRecord
100
AcDbLinetypeTableRecord
  2
SLD-鎖線
 70
     0
  3
SolidWorks Line Style
 72
    65
 73
     4
 40
10.16
 49
6.349999999999997
 74
     0
 49
-1.27
 74
     0
 49
1.27
 74
     0
 49
-1.27
 74
     0
  0
LTYPE
  5
16BB2
330
5
100
AcDbSymbolTableRecord
100
AcDbLinetypeTableRecord
  2
SLD-1点鎖線(中心線)
 70
     0
  3
SolidWorks Line Style
 72
    65
 73
     4
 40
34.29
 49
30.48
 74
     0
 49
-1.27
 74
     0
 49
1.27
 74
     0
 49
-1.27
 74
     0
  0
LTYPE
  5
16BB3
330
5
100
AcDbSymbolTableRecord
100
AcDbLinetypeTableRecord
  2
HIDDEN
 70
     0
  3
Hidden __ __ __ __ __ __ __ __ __ __ __ __ __ __
 72
    65
 73
     2
 40
0.375
 49
0.25
 74
     0
 49
-0.125
 74
     0
  0
ENDTAB
  0
TABLE
  2
LAYER
  5
2
102
{ACAD_XDICTIONARY
360
F3CC
102
}
330
0
100
AcDbSymbolTable
 70
    23
  0
LAYER
  5
10
102
{ACAD_XDICTIONARY
360
8ACC
102
}
330
2
100
AcDbSymbolTableRecord
100
AcDbLayerTableRecord
  2
0
 70
     0
 62
     7
  6
CONTINOUS
370
    -3
390
F
347
8A69
348
0
  0
LAYER
  5
2F
102
{ACAD_XDICTIONARY
360
8ACE
102
}
330
2
100
AcDbSymbolTableRecord
100
AcDbLayerTableRecord
  2
10
 70
     0
 62
     4
  6
CONTINOUS
370
    -3
390
F
347
8A69
348
0
  0
LAYER
  5
31
102
{ACAD_XDICTIONARY
360
8AD0
102
}
330
2
100
AcDbSymbolTableRecord
100
AcDbLayerTableRecord
  2
12
 70
     0
 62
     3
  6
CONTINOUS
370
    -3
390
F
347
8A69
348
0
  0
LAYER
  5
35
102
{ACAD_XDICTIONARY
360
8AD2
102
}
330
2
100
AcDbSymbolTableRecord
100
AcDbLayerTableRecord
  2
16
 70
     0
 62
     6
  6
DASHDOT
370
    -3
390
F
347
8A69
348
0
  0
LAYER
  5
38
102
{ACAD_XDICTIONARY
360
8AD4
102
}
330
2
100
AcDbSymbolTableRecord
100
AcDbLayerTableRecord
  2
19
 70
     0
 62
     7
  6
CONTINOUS
370
    -3
390
F
347
8A69
348
0
  0
LAYER
  5
3D
102
{ACAD_XDICTIONARY
360
8AD6
102
}
330
2
100
AcDbSymbolTableRecord
100
AcDbLayerTableRecord
  2
24
 70
     0
 62
     7
  6
CONTINOUS
370
    -3
390
F
347
8A69
348
0
  0
LAYER
  5
3A2
102
{ACAD_XDICTIONARY
360
8AD8
102
}
330
2
100
AcDbSymbolTableRecord
100
AcDbLayerTableRecord
  2
30
 70
     0
 62
     9
  6
CONTINUOUS
370
    -3
390
F
347
8A69
348
0
  0
LAYER
  5
3A4
330
2
100
AcDbSymbolTableRecord
100
AcDbLayerTableRecord
  2
DEFPOINTS
 70
     0
 62
     7
  6
CONTINUOUS
290
     0
370
    -3
390
F
347
8A69
348
0
  0
LAYER
  5
3BBA
102
{ACAD_XDICTIONARY
360
8ADA
102
}
330
2
100
AcDbSymbolTableRecord
100
AcDbLayerTableRecord
  2
18
 70
     0
 62
     5
  6
DIVIDE
370
    -3
390
F
347
8A69
348
0
  0
LAYER
  5
67A8
102
{ACAD_XDICTIONARY
360
8ADC
102
}
330
2
100
AcDbSymbolTableRecord
100
AcDbLayerTableRecord
  2
11
 70
     0
 62
     1
  6
CONTINOUS
370
    -3
390
F
347
8A69
348
0
  0
LAYER
  5
7837
102
{ACAD_XDICTIONARY
360
8ADE
102
}
330
2
100
AcDbSymbolTableRecord
100
AcDbLayerTableRecord
  2
17
 70
     0
 62
     2
  6
DASHDOT
370
    -3
390
F
347
8A69
348
0
  0
LAYER
  5
9133
102
{ACAD_XDICTIONARY
360
9134
102
}
330
2
100
AcDbSymbolTableRecord
100
AcDbLayerTableRecord
  2
240
 70
     0
 62
     7
  6
SLD-実線
370
    -3
390
F
347
8A69
348
0
  0
LAYER
  5
1391C
102
{ACAD_XDICTIONARY
360
1391D
102
}
330
2
100
AcDbSymbolTableRecord
100
AcDbLayerTableRecord
  2
21
 70
     0
 62
     7
  6
CONTINUOUS
370
    -3
390
F
347
8A69
348
0
  0
LAYER
  5
16BB4
102
{ACAD_XDICTIONARY
360
16BB5
102
}
330
2
100
AcDbSymbolTableRecord
100
AcDbLayerTableRecord
  2
5
 70
     0
 62
     7
  6
CONTINUOUS
370
    -3
390
F
347
8A69
348
0
  0
LAYER
  5
16BB6
102
{ACAD_XDICTIONARY
360
16BB7
102
}
330
2
100
AcDbSymbolTableRecord
100
AcDbLayerTableRecord
  2
130
 70
     0
 62
     4
  6
CONTINUOUS
370
    -3
390
F
347
8A69
348
0
  0
LAYER
  5
16BB8
102
{ACAD_XDICTIONARY
360
16BB9
102
}
330
2
100
AcDbSymbolTableRecord
100
AcDbLayerTableRecord
  2
131
 70
     0
 62
     4
  6
PHANTOM
370
    -3
390
F
347
8A69
348
0
  0
LAYER
  5
16BBA
102
{ACAD_XDICTIONARY
360
16BBB
102
}
330
2
100
AcDbSymbolTableRecord
100
AcDbLayerTableRecord
  2
13
 70
     0
 62
     3
  6
CONTINUOUS
370
    -3
390
F
347
8A69
348
0
  0
LAYER
  5
16BBC
102
{ACAD_XDICTIONARY
360
16BBD
102
}
330
2
100
AcDbSymbolTableRecord
100
AcDbLayerTableRecord
  2
SLD-0
 70
     0
 62
     7
  6
SLD-実線
370
    -3
390
F
347
8A69
348
0
  0
LAYER
  5
16BBE
102
{ACAD_XDICTIONARY
360
16BBF
102
}
330
2
100
AcDbSymbolTableRecord
100
AcDbLayerTableRecord
  2
113
 70
     0
 62
   113
  6
CONTINUOUS
370
    -3
390
F
347
8A69
348
0
  0
LAYER
  5
16F0F
102
{ACAD_XDICTIONARY
360
16F10
102
}
330
2
100
AcDbSymbolTableRecord
100
AcDbLayerTableRecord
  2
2
 70
     0
 62
     7
  6
CONTINUOUS
370
    -3
390
F
347
8A69
348
0
  0
LAYER
  5
17470
102
{ACAD_XDICTIONARY
360
17471
102
}
330
2
100
AcDbSymbolTableRecord
100
AcDbLayerTableRecord
  2
1
 70
     0
 62
     7
  6
CONTINUOUS
370
    -3
390
F
347
8A69
348
0
  0
LAYER
  5
17472
102
{ACAD_XDICTIONARY
360
17473
102
}
330
2
100
AcDbSymbolTableRecord
100
AcDbLayerTableRecord
  2
TOP
 70
     0
 62
     7
  6
CONTINUOUS
370
    -3
390
F
347
8A69
348
0
  0
LAYER
  5
17E9F
102
{ACAD_XDICTIONARY
360
17EA0
102
}
330
2
100
AcDbSymbolTableRecord
100
AcDbLayerTableRecord
  2
L10_
 70
     0
 62
     7
  6
CONTINUOUS
370
    -3
390
F
347
8A69
348
0
  0
ENDTAB
  0
TABLE
  2
STYLE
  5
3
330
0
100
AcDbSymbolTable
 70
     5
  0
STYLE
  5
11
330
3
100
AcDbSymbolTableRecord
100
AcDbTextStyleTableRecord
  2
STANDARD
 70
     0
 40
0.0
 41
1.0
 50
0.0
 71
     0
 42
2.0
  3
txt.shx
  4
bigfont.shx
  0
STYLE
  5
42
330
3
100
AcDbSymbolTableRecord
100
AcDbTextStyleTableRecord
  2
STANDARD1
 70
     0
 40
0.0
 41
1.0
 50
0.0
 71
     0
 42
5.0
  3
MONOTXT
  4
BIGFONT
  0
STYLE
  5
11719
330
3
100
AcDbSymbolTableRecord
100
AcDbTextStyleTableRecord
  2
blockfont
 70
     0
 40
0.0
 41
1.0
 50
0.0
 71
     0
 42
0.2
  3
simplex.shx
  4
bigfont
  0
STYLE
  5
1171A
330
3
100
AcDbSymbolTableRecord
100
AcDbTextStyleTableRecord
  2
SLDTEXTSTYLE0
 70
     0
 40
0.0
 41
1.0
 50
0.0
 71
     0
 42
3.0
  3
MS UI Gothic.ttf
  4

1001
ACAD
1000
MS UI Gothic
1071
      306
  0
STYLE
  5
17474
330
3
100
AcDbSymbolTableRecord
100
AcDbTextStyleTableRecord
  2
UGMTXT
 70
     0
 40
0.0
 41
1.0
 50
0.0
 71
     0
 42
0.2
  3
ugmtxt
  4
bigfont
  0
ENDTAB
  0
TABLE
  2
VIEW
  5
6
330
0
100
AcDbSymbolTable
 70
     3
  0
VIEW
  5
230C
330
6
100
AcDbSymbolTableRecord
100
AcDbViewTableRecord
  2
OLE1
 70
     0
 40
148.912488
 10
429.497628
 20
2.560627
 41
103.145806
 11
0.0
 21
0.0
 31
1.0
 12
0.0
 22
0.0
 32
0.0
 42
50.0
 43
0.0
 44
0.0
 50
0.0
 71
     0
281
     0
 72
     0
 73
     0
348
8A77
  0
VIEW
  5
230E
330
6
100
AcDbSymbolTableRecord
100
AcDbViewTableRecord
  2
OLE2
 70
     0
 40
170.778692
 10
322.66497
 20
-5.978304
 41
102.467215
 11
0.0
 21
0.0
 31
1.0
 12
0.0
 22
0.0
 32
0.0
 42
50.0
 43
0.0
 44
0.0
 50
0.0
 71
     0
281
     0
 72
     0
 73
     0
348
8A77
  0
VIEW
  5
23AA
330
6
100
AcDbSymbolTableRecord
100
AcDbViewTableRecord
  2
OLE3
 70
     0
 40
591.7897389999998
 10
84.79698199999999
 20
-46.09335999999998
 41
388.792096
 11
0.0
 21
0.0
 31
1.0
 12
0.0
 22
0.0
 32
0.0
 42
50.0
 43
0.0
 44
0.0
 50
0.0
 71
     0
281
     0
 72
     0
 73
     0
348
8A77
  0
ENDTAB
  0
TABLE
  2
UCS
  5
7
330
0
100
AcDbSymbolTable
 70
     0
  0
ENDTAB
  0
TABLE
  2
APPID
  5
9
330
0
100
AcDbSymbolTable
 70
    11
  0
APPID
  5
12
330
9
100
AcDbSymbolTableRecord
100
AcDbRegAppTableRecord
  2
ACAD
 70
     0
  0
APPID
  5
ECD
330
9
100
AcDbSymbolTableRecord
100
AcDbRegAppTableRecord
  2
CONTENTBLOCKICON
 70
     0
  0
APPID
  5
8AA9
330
9
100
AcDbSymbolTableRecord
100
AcDbRegAppTableRecord
  2
ACAD_NAV_VCDISPLAY
 70
     0
  0
APPID
  5
1038A
330
9
100
AcDbSymbolTableRecord
100
AcDbRegAppTableRecord
  2
ACAD_EXEMPT_FROM_CAD_STANDARDS
 70
     0
  0
APPID
  5
10D03
330
9
100
AcDbSymbolTableRecord
100
AcDbRegAppTableRecord
  2
ACAD_PSEXT
 70
     0
  0
APPID
  5
1147C
330
9
100
AcDbSymbolTableRecord
100
AcDbRegAppTableRecord
  2
ACAD_DSTYLE_DIMJAG
 70
     0
  0
APPID
  5
1147D
330
9
100
AcDbSymbolTableRecord
100
AcDbRegAppTableRecord
  2
ACAD_DSTYLE_DIMTALN
 70
     0
  0
APPID
  5
16BC0
330
9
100
AcDbSymbolTableRecord
100
AcDbRegAppTableRecord
  2
DCO15
 70
     0
  0
APPID
  5
16BC1
330
9
100
AcDbSymbolTableRecord
100
AcDbRegAppTableRecord
  2
ACAD_MLEADERVER
 70
     0
  0
APPID
  5
16BC2
330
9
100
AcDbSymbolTableRecord
100
AcDbRegAppTableRecord
  2
ACAD_DSTYLE_DIMBREAK
 70
     0
  0
APPID
  5
17476
330
9
100
AcDbSymbolTableRecord
100
AcDbRegAppTableRecord
  2
ACAUTHENVIRON
 70
     0
  0
ENDTAB
  0
TABLE
  2
DIMSTYLE
  5
A
330
0
100
AcDbSymbolTable
 70
     5
100
AcDbDimStyleTable
 71
     2
340
175
340
1171B
  0
DIMSTYLE
105
175
102
{ACAD_REACTORS
330
12BB6
330
12BB7
330
12BBD
330
12BBE
330
12BCB
330
12BCC
330
12A77
330
12B48
330
12B49
330
12B4A
330
12B55
330
12B56
330
12B67
330
12B68
330
15D69
330
15D6A
330
16262
330
16263
330
16744
330
16745
330
16746
330
16747
330
16748
330
1674A
330
19AA3
330
19AA6
330
19FA7
330
1C065
330
1C1DF
330
1C201
330
1C334
102
}
330
A
100
AcDbSymbolTableRecord
100
AcDbDimStyleTableRecord
  2
STANDARD
 70
     0
 41
2.0
 42
1.0
 43
0.5
 44
0.5
 69
     1
 73
     0
 74
     0
 77
     3
 78
    12
140
8.0
147
3.0
178
   256
271
     1
272
     1
340
11
341
3B2
342
3B2
1001
ACAD_DSTYLE_DIMJAG
1070
   388
1040
1.5
1001
ACAD_DSTYLE_DIMTALN
1070
   392
1070
     0
  0
DIMSTYLE
105
1171B
102
{ACAD_REACTORS
330
145B5
330
145D8
330
12BB8
330
16264
330
16749
330
19B87
102
}
330
A
100
AcDbSymbolTableRecord
100
AcDbDimStyleTableRecord
  2
STANDARD1
 70
     0
 41
2.0
 42
3.0
 43
0.5
 44
0.5
 77
     3
 78
    12
140
8.0
147
3.0
172
     1
271
     1
272
     1
289
     2
340
11
341
3B2
342
3B2
1001
ACAD_DSTYLE_DIMJAG
1070
   388
1040
1.5
1001
ACAD_DSTYLE_DIMTALN
1070
   392
1070
     0
  0
DIMSTYLE
105
16F11
330
A
100
AcDbSymbolTableRecord
100
AcDbDimStyleTableRecord
  2
SLDDIMSTYLE6
 70
     0
 41
2.0
 44
0.0
 45
0.000000001
146
2.0
147
0.0
173
     1
271
     0
272
     0
276
     2
340
11
  0
DIMSTYLE
105
17475
330
A
100
AcDbSymbolTableRecord
100
AcDbDimStyleTableRecord
  2
SLDDIMSTYLE4
 70
     0
 41
2.0
 44
0.0
 45
0.000000001
 73
     0
 74
     0
 77
     3
 78
    12
 79
     3
140
2.5
141
0.0
144
10.0
147
0.625
173
     1
271
     1
272
     1
276
     2
279
     1
284
    12
340
1171A
  0
ENDTAB
  0
TABLE
  2
BLOCK_RECORD
  5
1
330
0
100
AcDbSymbolTable
 70
    72
  0
BLOCK_RECORD
  5
1E
102
{ACAD_XDICTIONARY
360
178
102
}
330
1
100
AcDbSymbolTableRecord
100
AcDbBlockTableRecord
  2
*MODEL_SPACE
340
8A4C
 70
     0
280
     1
281
     0
  0
BLOCK_RECORD
  5
1A
102
{ACAD_XDICTIONARY
360
17A
102
}
330
1
100
AcDbSymbolTableRecord
100
AcDbBlockTableRecord
  2
*PAPER_SPACE
340
8A4D
 70
     0
280
     1
281
     0
  0
BLOCK_RECORD
  5
3B2
330
1
100
AcDbSymbolTableRecord
100
AcDbBlockTableRecord
  2
_OPEN
340
0
102
{BLKREFS
331
1C2F6
331
1C2F7
331
1C30C
331
1C30D
331
1C315
331
1C316
331
1C322
331
1C323
331
1C32B
331
1C32C
331
1C33B
331
1C33C
331
1BEE9
331
1BEEA
331
1BEF2
331
1BEF3
331
1BF05
331
1BF06
331
1BF20
331
1BF21
331
1BF2A
331
1BF2B
331
1BF3C
331
1BF3D
331
1C1D9
331
1C1DA
331
1BF45
331
1BF46
331
1BFAD
331
1BFAE
331
1BFB6
331
1BFB7
331
1BFBF
331
1BFC0
331
1BFC9
331
1BFCA
331
1BFD2
331
1BFD3
331
1C01C
331
1C01D
331
1C025
331
1C026
331
1C02E
331
1C02F
331
1C036
331
1C037
331
1C080
331
1C081
331
1C166
331
1C167
331
1C2B0
331
1C2B1
331
1C2C2
331
1C2C3
331
1C16E
331
1C16F
331
1C177
331
1C178
331
1C180
331
1C181
331
1C189
331
1C18A
331
1C192
331
1C199
331
1C1A0
331
1C1A1
331
1C1AA
331
1C1AB
331
1C1B3
331
1C1B4
331
1C1BC
331
1C1BD
331
1C1C5
331
1C1C6
331
1C1D0
331
1C1D1
331
1C222
331
1C223
331
1C22B
331
1C22C
102
}
 70
     0
280
     1
281
     0
  0
BLOCK_RECORD
  5
126D7
330
1
100
AcDbSymbolTableRecord
100
AcDbBlockTableRecord
  2
SW_CENTERMARKSYMBOL_9
340
0
102
{BLKREFS
331
12B4B
102
}
 70
     0
280
     1
281
     0
  0
BLOCK_RECORD
  5
126E2
330
1
100
AcDbSymbolTableRecord
100
AcDbBlockTableRecord
  2
SW_CENTERMARKSYMBOL_10
340
0
102
{BLKREFS
331
12B4C
331
12B50
102
}
 70
     0
280
     1
281
     0
  0
BLOCK_RECORD
  5
126ED
330
1
100
AcDbSymbolTableRecord
100
AcDbBlockTableRecord
  2
SW_CENTERMARKSYMBOL_11
340
0
102
{BLKREFS
331
12B4D
102
}
 70
     0
280
     1
281
     0
  0
BLOCK_RECORD
  5
126F8
330
1
100
AcDbSymbolTableRecord
100
AcDbBlockTableRecord
  2
SW_CENTERMARKSYMBOL_12
340
0
102
{BLKREFS
331
12B4E
331
12B4F
102
}
 70
     0
280
     1
281
     0
  0
BLOCK_RECORD
  5
12BCE
330
1
100
AcDbSymbolTableRecord
100
AcDbBlockTableRecord
  2
*D5
340
0
 70
     0
280
     1
281
     0
  0
BLOCK_RECORD
  5
12BDA
330
1
100
AcDbSymbolTableRecord
100
AcDbBlockTableRecord
  2
*D6
340
0
 70
     0
280
     1
281
     0
  0
BLOCK_RECORD
  5
12BE6
330
1
100
AcDbSymbolTableRecord
100
AcDbBlockTableRecord
  2
*D7
340
0
 70
     0
280
     1
281
     0
  0
BLOCK_RECORD
  5
12BF0
330
1
100
AcDbSymbolTableRecord
100
AcDbBlockTableRecord
  2
*D8
340
0
 70
     0
280
     1
281
     0
  0
BLOCK_RECORD
  5
12BFC
330
1
100
AcDbSymbolTableRecord
100
AcDbBlockTableRecord
  2
*D9
340
0
 70
     0
280
     1
281
     0
  0
BLOCK_RECORD
  5
12C12
330
1
100
AcDbSymbolTableRecord
100
AcDbBlockTableRecord
  2
*D10
340
0
 70
     0
280
     1
281
     0
  0
BLOCK_RECORD
  5
12C1E
330
1
100
AcDbSymbolTableRecord
100
AcDbBlockTableRecord
  2
*D11
340
0
 70
     0
280
     1
281
     0
  0
BLOCK_RECORD
  5
12C34
330
1
100
AcDbSymbolTableRecord
100
AcDbBlockTableRecord
  2
*D12
340
0
 70
     0
280
     1
281
     0
  0
BLOCK_RECORD
  5
12C40
330
1
100
AcDbSymbolTableRecord
100
AcDbBlockTableRecord
  2
*D13
340
0
 70
     0
280
     1
281
     0
  0
BLOCK_RECORD
  5
12CC2
330
1
100
AcDbSymbolTableRecord
100
AcDbBlockTableRecord
  2
*D14
340
0
 70
     0
280
     1
281
     0
  0
BLOCK_RECORD
  5
12CCF
330
1
100
AcDbSymbolTableRecord
100
AcDbBlockTableRecord
  2
*D15
340
0
 70
     0
280
     1
281
     0
  0
BLOCK_RECORD
  5
12CDB
330
1
100
AcDbSymbolTableRecord
100
AcDbBlockTableRecord
  2
*D16
340
0
 70
     0
280
     1
281
     0
  0
BLOCK_RECORD
  5
12CE7
330
1
100
AcDbSymbolTableRecord
100
AcDbBlockTableRecord
  2
*D17
340
0
 70
     0
280
     1
281
     0
  0
BLOCK_RECORD
  5
12CF3
330
1
100
AcDbSymbolTableRecord
100
AcDbBlockTableRecord
  2
*D18
340
0
 70
     0
280
     1
281
     0
  0
BLOCK_RECORD
  5
12D0C
330
1
100
AcDbSymbolTableRecord
100
AcDbBlockTableRecord
  2
*D19
340
0
 70
     0
280
     1
281
     0
  0
BLOCK_RECORD
  5
12D18
330
1
100
AcDbSymbolTableRecord
100
AcDbBlockTableRecord
  2
*D20
340
0
 70
     0
280
     1
281
     0
  0
BLOCK_RECORD
  5
12F00
330
1
100
AcDbSymbolTableRecord
100
AcDbBlockTableRecord
  2
SW_CENTERMARKSYMBOL_20
340
0
 70
     0
280
     1
281
     0
  0
BLOCK_RECORD
  5
145B6
330
1
100
AcDbSymbolTableRecord
100
AcDbBlockTableRecord
  2
*D22
340
0
 70
     0
280
     1
281
     0
  0
BLOCK_RECORD
  5
145D9
330
1
100
AcDbSymbolTableRecord
100
AcDbBlockTableRecord
  2
*D23
340
0
 70
     0
280
     1
281
     0
  0
BLOCK_RECORD
  5
15D6B
330
1
100
AcDbSymbolTableRecord
100
AcDbBlockTableRecord
  2
*D24
340
0
 70
     0
280
     1
281
     0
  0
BLOCK_RECORD
  5
15D77
330
1
100
AcDbSymbolTableRecord
100
AcDbBlockTableRecord
  2
*D25
340
0
 70
     0
280
     1
281
     0
  0
BLOCK_RECORD
  5
16268
330
1
100
AcDbSymbolTableRecord
100
AcDbBlockTableRecord
  2
*D26
340
0
 70
     0
280
     1
281
     0
  0
BLOCK_RECORD
  5
16274
330
1
100
AcDbSymbolTableRecord
100
AcDbBlockTableRecord
  2
*D27
340
0
 70
     0
280
     1
281
     0
  0
BLOCK_RECORD
  5
16281
330
1
100
AcDbSymbolTableRecord
100
AcDbBlockTableRecord
  2
*D28
340
0
 70
     0
280
     1
281
     0
  0
BLOCK_RECORD
  5
1674D
330
1
100
AcDbSymbolTableRecord
100
AcDbBlockTableRecord
  2
*D29
340
0
 70
     0
280
     1
281
     0
  0
BLOCK_RECORD
  5
16759
330
1
100
AcDbSymbolTableRecord
100
AcDbBlockTableRecord
  2
*D30
340
0
 70
     0
280
     1
281
     0
  0
BLOCK_RECORD
  5
16766
330
1
100
AcDbSymbolTableRecord
100
AcDbBlockTableRecord
  2
*D31
340
0
 70
     0
280
     1
281
     0
  0
BLOCK_RECORD
  5
16772
330
1
100
AcDbSymbolTableRecord
100
AcDbBlockTableRecord
  2
*D32
340
0
 70
     0
280
     1
281
     0
  0
BLOCK_RECORD
  5
1677E
330
1
100
AcDbSymbolTableRecord
100
AcDbBlockTableRecord
  2
*D33
340
0
 70
     0
280
     1
281
     0
  0
BLOCK_RECORD
  5
1678A
330
1
100
AcDbSymbolTableRecord
100
AcDbBlockTableRecord
  2
*D34
340
0
 70
     0
280
     1
281
     0
  0
BLOCK_RECORD
  5
16798
330
1
100
AcDbSymbolTableRecord
100
AcDbBlockTableRecord
  2
*D35
340
0
 70
     0
280
     1
281
     0
  0
BLOCK_RECORD
  5
16972
330
1
100
AcDbSymbolTableRecord
100
AcDbBlockTableRecord
  2
_DOT
340
0
 70
     0
280
     1
281
     0
  0
BLOCK_RECORD
  5
1697A
330
1
100
AcDbSymbolTableRecord
100
AcDbBlockTableRecord
  2
SW_CENTERMARKSYMBOL_54
340
0
 70
     0
280
     1
281
     0
  0
BLOCK_RECORD
  5
16985
330
1
100
AcDbSymbolTableRecord
100
AcDbBlockTableRecord
  2
SW_CENTERMARKSYMBOL_55
340
0
 70
     0
280
     1
281
     0
  0
BLOCK_RECORD
  5
16990
102
{ACAD_XDICTIONARY
360
16991
102
}
330
1
100
AcDbSymbolTableRecord
100
AcDbBlockTableRecord
  2
m5screw1
340
0
 70
     0
280
     1
281
     0
  0
BLOCK_RECORD
  5
169C0
330
1
100
AcDbSymbolTableRecord
100
AcDbBlockTableRecord
  2
SW_CENTERMARKSYMBOL_56
340
0
 70
     0
280
     1
281
     0
  0
BLOCK_RECORD
  5
169CB
330
1
100
AcDbSymbolTableRecord
100
AcDbBlockTableRecord
  2
SW_CENTERMARKSYMBOL_57
340
0
 70
     0
280
     1
281
     0
  0
BLOCK_RECORD
  5
16D04
102
{ACAD_XDICTIONARY
360
16D05
102
}
330
1
100
AcDbSymbolTableRecord
100
AcDbBlockTableRecord
  2
A$C3F0A4506
340
0
 70
     0
280
     1
281
     0
  0
BLOCK_RECORD
  5
1709C
330
1
100
AcDbSymbolTableRecord
100
AcDbBlockTableRecord
  2
SW_CENTERMARKSYMBOL_13
340
0
 70
     0
280
     1
281
     0
  0
BLOCK_RECORD
  5
170A7
330
1
100
AcDbSymbolTableRecord
100
AcDbBlockTableRecord
  2
SW_CENTERMARKSYMBOL_14
340
0
 70
     0
280
     1
281
     0
  0
BLOCK_RECORD
  5
172BE
330
1
100
AcDbSymbolTableRecord
100
AcDbBlockTableRecord
  2
SW_CENTERMARKSYMBOL_0
340
0
 70
     0
280
     1
281
     0
  0
BLOCK_RECORD
  5
172C9
330
1
100
AcDbSymbolTableRecord
100
AcDbBlockTableRecord
  2
SW_CENTERMARKSYMBOL_1
340
0
 70
     0
280
     1
281
     0
  0
BLOCK_RECORD
  5
172D4
330
1
100
AcDbSymbolTableRecord
100
AcDbBlockTableRecord
  2
SW_CENTERMARKSYMBOL_2
340
0
 70
     0
280
     1
281
     0
  0
BLOCK_RECORD
  5
172DF
330
1
100
AcDbSymbolTableRecord
100
AcDbBlockTableRecord
  2
SW_CENTERMARKSYMBOL_3
340
0
 70
     0
280
     1
281
     0
  0
BLOCK_RECORD
  5
175B4
330
1
100
AcDbSymbolTableRecord
100
AcDbBlockTableRecord
  2
SW_CENTERMARKSYMBOL_28
340
0
 70
     0
280
     1
281
     0
  0
BLOCK_RECORD
  5
175BF
330
1
100
AcDbSymbolTableRecord
100
AcDbBlockTableRecord
  2
SW_CENTERMARKSYMBOL_36
340
0
 70
     0
280
     1
281
     0
  0
BLOCK_RECORD
  5
175CA
330
1
100
AcDbSymbolTableRecord
100
AcDbBlockTableRecord
  2
SW_CENTERMARKSYMBOL_37
340
0
 70
     0
280
     1
281
     0
  0
BLOCK_RECORD
  5
178FC
330
1
100
AcDbSymbolTableRecord
100
AcDbBlockTableRecord
  2
SW_CENTERMARKSYMBOL_27
340
0
 70
     0
280
     1
281
     0
  0
BLOCK_RECORD
  5
17907
330
1
100
AcDbSymbolTableRecord
100
AcDbBlockTableRecord
  2
SW_CENTERMARKSYMBOL_35
340
0
 70
     0
280
     1
281
     0
  0
BLOCK_RECORD
  5
17CD4
330
1
100
AcDbSymbolTableRecord
100
AcDbBlockTableRecord
  2
SW_CENTERMARKSYMBOL_4
340
0
 70
     0
280
     1
281
     0
  0
BLOCK_RECORD
  5
17CDF
330
1
100
AcDbSymbolTableRecord
100
AcDbBlockTableRecord
  2
SW_CENTERMARKSYMBOL_5
340
0
 70
     0
280
     1
281
     0
  0
BLOCK_RECORD
  5
17CEA
330
1
100
AcDbSymbolTableRecord
100
AcDbBlockTableRecord
  2
SW_CENTERMARKSYMBOL_6
340
0
 70
     0
280
     1
281
     0
  0
BLOCK_RECORD
  5
17CF5
330
1
100
AcDbSymbolTableRecord
100
AcDbBlockTableRecord
  2
SW_CENTERMARKSYMBOL_7
340
0
 70
     0
280
     1
281
     0
  0
BLOCK_RECORD
  5
17D00
330
1
100
AcDbSymbolTableRecord
100
AcDbBlockTableRecord
  2
SW_CENTERMARKSYMBOL_26
340
0
 70
     0
280
     1
281
     0
  0
BLOCK_RECORD
  5
17D0B
330
1
100
AcDbSymbolTableRecord
100
AcDbBlockTableRecord
  2
SW_CENTERMARKSYMBOL_29
340
0
 70
     0
280
     1
281
     0
  0
BLOCK_RECORD
  5
19AA8
330
1
100
AcDbSymbolTableRecord
100
AcDbBlockTableRecord
  2
*D60
340
0
 70
     0
280
     1
281
     0
  0
BLOCK_RECORD
  5
19ACC
330
1
100
AcDbSymbolTableRecord
100
AcDbBlockTableRecord
  2
*D61
340
0
 70
     0
280
     1
281
     0
  0
BLOCK_RECORD
  5
19B88
330
1
100
AcDbSymbolTableRecord
100
AcDbBlockTableRecord
  2
*D62
340
0
 70
     0
280
     1
281
     0
  0
BLOCK_RECORD
  5
19FA9
330
1
100
AcDbSymbolTableRecord
100
AcDbBlockTableRecord
  2
*D63
340
0
 70
     0
280
     1
281
     0
  0
BLOCK_RECORD
  5
1C066
330
1
100
AcDbSymbolTableRecord
100
AcDbBlockTableRecord
  2
*D64
340
0
 70
     0
280
     1
281
     0
  0
BLOCK_RECORD
  5
1C1E0
330
1
100
AcDbSymbolTableRecord
100
AcDbBlockTableRecord
  2
*D65
340
0
 70
     0
280
     1
281
     0
  0
BLOCK_RECORD
  5
1C202
330
1
100
AcDbSymbolTableRecord
100
AcDbBlockTableRecord
  2
*D66
340
0
 70
     0
280
     1
281
     0
  0
BLOCK_RECORD
  5
1C2F0
330
1
100
AcDbSymbolTableRecord
100
AcDbBlockTableRecord
  2
*D68
340
0
 70
     0
280
     1
281
     0
  0
BLOCK_RECORD
  5
1C2FD
330
1
100
AcDbSymbolTableRecord
100
AcDbBlockTableRecord
  2
*D69
340
0
 70
     0
280
     1
281
     0
  0
BLOCK_RECORD
  5
1C31C
330
1
100
AcDbSymbolTableRecord
100
AcDbBlockTableRecord
  2
*D70
340
0
 70
     0
280
     1
281
     0
  0
BLOCK_RECORD
  5
1C335
330
1
100
AcDbSymbolTableRecord
100
AcDbBlockTableRecord
  2
*D71
340
0
 70
     0
280
     1
281
     0
  0
ENDTAB
  0
ENDSEC
  0
SECTION
  2
BLOCKS
  0
BLOCK
  5
1F
330
1E
100
AcDbEntity
  8
0
100
AcDbBlockBegin
  2
*MODEL_SPACE
 70
     0
 10
0.0
 20
0.0
 30
0.0
  3
*MODEL_SPACE
  1

  0
ENDBLK
  5
20
330
1E
100
AcDbEntity
  8
0
100
AcDbBlockEnd
  0
BLOCK
  5
1B
330
1A
100
AcDbEntity
 67
     1
  8
0
100
AcDbBlockBegin
  2
*PAPER_SPACE
 70
     0
 10
0.0
 20
0.0
 30
0.0
  3
*PAPER_SPACE
  1

  0
ENDBLK
  5
1C
330
1A
100
AcDbEntity
 67
     1
  8
0
100
AcDbBlockEnd
  0
BLOCK
  5
3B6
330
3B2
100
AcDbEntity
  8
0
100
AcDbBlockBegin
  2
_OPEN
 70
     0
 10
0.0
 20
0.0
 30
0.0
  3
_OPEN
  1

  0
LINE
  5
3B3
330
3B2
100
AcDbEntity
  8
30
  6
Continuous
 62
     0
100
AcDbLine
 10
-1.0
 20
0.166667
 30
0.0
 11
0.0
 21
0.0
 31
0.0
  0
LINE
  5
3B4
330
3B2
100
AcDbEntity
  8
30
  6
Continuous
 62
     0
100
AcDbLine
 10
-1.0
 20
-0.166667
 30
0.0
 11
0.0
 21
0.0
 31
0.0
  0
LINE
  5
3B5
330
3B2
100
AcDbEntity
  8
30
  6
Continuous
 62
     0
100
AcDbLine
 10
0.0
 20
0.0
 30
0.0
 11
-1.0
 21
0.0
 31
0.0
  0
ENDBLK
  5
3B7
330
3B2
100
AcDbEntity
  8
0
100
AcDbBlockEnd
  0
BLOCK
  5
126D8
330
126D7
100
AcDbEntity
  8
0
100
AcDbBlockBegin
  2
SW_CENTERMARKSYMBOL_9
 70
     0
 10
0.0
 20
0.0
 30
0.0
  3
SW_CENTERMARKSYMBOL_9
  1
SW_CENTERMARKSYMBOL_9
  0
LINE
  5
126D9
330
126D7
100
AcDbEntity
  8
240
 62
     0
100
AcDbLine
 10
0.0
 20
0.0
 30
0.0
 11
0.0
 21
0.5
 31
0.0
  0
LINE
  5
126DA
330
126D7
100
AcDbEntity
  8
240
 62
     0
100
AcDbLine
 10
0.0
 20
0.0
 30
0.0
 11
-0.5
 21
0.0
 31
0.0
  0
LINE
  5
126DB
330
126D7
100
AcDbEntity
  8
240
 62
     0
100
AcDbLine
 10
0.0
 20
0.0
 30
0.0
 11
0.0
 21
-0.5
 31
0.0
  0
LINE
  5
126DC
330
126D7
100
AcDbEntity
  8
240
 62
     0
100
AcDbLine
 10
0.0
 20
0.0
 30
0.0
 11
0.5
 21
0.0
 31
0.0
  0
LINE
  5
126DD
330
126D7
100
AcDbEntity
  8
240
 62
     0
100
AcDbLine
 10
0.0
 20
1.0
 30
0.0
 11
0.0
 21
1.9
 31
0.0
  0
LINE
  5
126DE
330
126D7
100
AcDbEntity
  8
240
 62
     0
100
AcDbLine
 10
-1.0
 20
0.0
 30
0.0
 11
-1.9
 21
0.0
 31
0.0
  0
LINE
  5
126DF
330
126D7
100
AcDbEntity
  8
240
 62
     0
100
AcDbLine
 10
0.0
 20
-1.0
 30
0.0
 11
0.0
 21
-1.9
 31
0.0
  0
LINE
  5
126E0
330
126D7
100
AcDbEntity
  8
240
 62
     0
100
AcDbLine
 10
1.0
 20
0.0
 30
0.0
 11
1.9
 21
0.0
 31
0.0
  0
ENDBLK
  5
126E1
330
126D7
100
AcDbEntity
  8
0
100
AcDbBlockEnd
  0
BLOCK
  5
126E3
330
126E2
100
AcDbEntity
  8
0
100
AcDbBlockBegin
  2
SW_CENTERMARKSYMBOL_10
 70
     0
 10
0.0
 20
0.0
 30
0.0
  3
SW_CENTERMARKSYMBOL_10
  1
SW_CENTERMARKSYMBOL_10
  0
LINE
  5
126E4
330
126E2
100
AcDbEntity
  8
240
 62
     0
100
AcDbLine
 10
0.0
 20
0.0
 30
0.0
 11
0.0
 21
0.5
 31
0.0
  0
LINE
  5
126E5
330
126E2
100
AcDbEntity
  8
240
 62
     0
100
AcDbLine
 10
0.0
 20
0.0
 30
0.0
 11
-0.5
 21
0.0
 31
0.0
  0
LINE
  5
126E6
330
126E2
100
AcDbEntity
  8
240
 62
     0
100
AcDbLine
 10
0.0
 20
0.0
 30
0.0
 11
0.0
 21
-0.5
 31
0.0
  0
LINE
  5
126E7
330
126E2
100
AcDbEntity
  8
240
 62
     0
100
AcDbLine
 10
0.0
 20
0.0
 30
0.0
 11
0.5
 21
0.0
 31
0.0
  0
LINE
  5
126E8
330
126E2
100
AcDbEntity
  8
240
 62
     0
100
AcDbLine
 10
0.0
 20
1.0
 30
0.0
 11
0.0
 21
1.9
 31
0.0
  0
LINE
  5
126E9
330
126E2
100
AcDbEntity
  8
240
 62
     0
100
AcDbLine
 10
-1.0
 20
0.0
 30
0.0
 11
-1.9
 21
0.0
 31
0.0
  0
LINE
  5
126EA
330
126E2
100
AcDbEntity
  8
240
 62
     0
100
AcDbLine
 10
0.0
 20
-1.0
 30
0.0
 11
0.0
 21
-1.9
 31
0.0
  0
LINE
  5
126EB
330
126E2
100
AcDbEntity
  8
240
 62
     0
100
AcDbLine
 10
1.0
 20
0.0
 30
0.0
 11
1.9
 21
0.0
 31
0.0
  0
ENDBLK
  5
126EC
330
126E2
100
AcDbEntity
  8
0
100
AcDbBlockEnd
  0
BLOCK
  5
126EE
330
126ED
100
AcDbEntity
  8
0
100
AcDbBlockBegin
  2
SW_CENTERMARKSYMBOL_11
 70
     0
 10
0.0
 20
0.0
 30
0.0
  3
SW_CENTERMARKSYMBOL_11
  1
SW_CENTERMARKSYMBOL_11
  0
LINE
  5
126EF
330
126ED
100
AcDbEntity
  8
240
 62
     0
100
AcDbLine
 10
0.0
 20
0.0
 30
0.0
 11
0.0
 21
0.5
 31
0.0
  0
LINE
  5
126F0
330
126ED
100
AcDbEntity
  8
240
 62
     0
100
AcDbLine
 10
0.0
 20
0.0
 30
0.0
 11
-0.5
 21
0.0
 31
0.0
  0
LINE
  5
126F1
330
126ED
100
AcDbEntity
  8
240
 62
     0
100
AcDbLine
 10
0.0
 20
0.0
 30
0.0
 11
0.0
 21
-0.5
 31
0.0
  0
LINE
  5
126F2
330
126ED
100
AcDbEntity
  8
240
 62
     0
100
AcDbLine
 10
0.0
 20
0.0
 30
0.0
 11
0.5
 21
0.0
 31
0.0
  0
LINE
  5
126F3
330
126ED
100
AcDbEntity
  8
240
 62
     0
100
AcDbLine
 10
0.0
 20
1.0
 30
0.0
 11
0.0
 21
1.9
 31
0.0
  0
LINE
  5
126F4
330
126ED
100
AcDbEntity
  8
240
 62
     0
100
AcDbLine
 10
-1.0
 20
0.0
 30
0.0
 11
-1.9
 21
0.0
 31
0.0
  0
LINE
  5
126F5
330
126ED
100
AcDbEntity
  8
240
 62
     0
100
AcDbLine
 10
0.0
 20
-1.0
 30
0.0
 11
0.0
 21
-1.9
 31
0.0
  0
LINE
  5
126F6
330
126ED
100
AcDbEntity
  8
240
 62
     0
100
AcDbLine
 10
1.0
 20
0.0
 30
0.0
 11
1.9
 21
0.0
 31
0.0
  0
ENDBLK
  5
126F7
330
126ED
100
AcDbEntity
  8
0
100
AcDbBlockEnd
  0
BLOCK
  5
126F9
330
126F8
100
AcDbEntity
  8
0
100
AcDbBlockBegin
  2
SW_CENTERMARKSYMBOL_12
 70
     0
 10
0.0
 20
0.0
 30
0.0
  3
SW_CENTERMARKSYMBOL_12
  1
SW_CENTERMARKSYMBOL_12
  0
LINE
  5
126FA
330
126F8
100
AcDbEntity
  8
240
 62
     0
100
AcDbLine
 10
0.0
 20
0.0
 30
0.0
 11
0.0
 21
0.5
 31
0.0
  0
LINE
  5
126FB
330
126F8
100
AcDbEntity
  8
240
 62
     0
100
AcDbLine
 10
0.0
 20
0.0
 30
0.0
 11
-0.5
 21
0.0
 31
0.0
  0
LINE
  5
126FC
330
126F8
100
AcDbEntity
  8
240
 62
     0
100
AcDbLine
 10
0.0
 20
0.0
 30
0.0
 11
0.0
 21
-0.5
 31
0.0
  0
LINE
  5
126FD
330
126F8
100
AcDbEntity
  8
240
 62
     0
100
AcDbLine
 10
0.0
 20
0.0
 30
0.0
 11
0.5
 21
0.0
 31
0.0
  0
LINE
  5
126FE
330
126F8
100
AcDbEntity
  8
240
 62
     0
100
AcDbLine
 10
0.0
 20
1.0
 30
0.0
 11
0.0
 21
1.9
 31
0.0
  0
LINE
  5
126FF
330
126F8
100
AcDbEntity
  8
240
 62
     0
100
AcDbLine
 10
-1.0
 20
0.0
 30
0.0
 11
-1.9
 21
0.0
 31
0.0
  0
LINE
  5
12700
330
126F8
100
AcDbEntity
  8
240
 62
     0
100
AcDbLine
 10
0.0
 20
-1.0
 30
0.0
 11
0.0
 21
-1.9
 31
0.0
  0
LINE
  5
12701
330
126F8
100
AcDbEntity
  8
240
 62
     0
100
AcDbLine
 10
1.0
 20
0.0
 30
0.0
 11
1.9
 21
0.0
 31
0.0
  0
ENDBLK
  5
12702
330
126F8
100
AcDbEntity
  8
0
100
AcDbBlockEnd
  0
BLOCK
  5
12BCF
330
12BCE
100
AcDbEntity
  8
0
100
AcDbBlockBegin
  2
*D5
 70
     1
 10
0.0
 20
0.0
 30
0.0
  3
*D5
  1

  0
LINE
  5
1C2BF
330
12BCE
100
AcDbEntity
  8
30
  6
Continuous
 62
     0
440
 16777216
370
    -2
100
AcDbLine
 10
184.7839548768725
 20
303.4531278759598
 30
0.0
 11
251.6513762677279
 21
303.4531278759598
 31
0.0
  0
LINE
  5
1C2C0
330
12BCE
100
AcDbEntity
  8
30
  6
Continuous
 62
     0
440
 16777216
370
    -2
100
AcDbLine
 10
184.7839548768725
 20
89.45312787596
 30
0.0
 11
251.6513762677278
 21
89.45312787596
 31
0.0
  0
LINE
  5
1C2C1
330
12BCE
100
AcDbEntity
  8
30
  6
Continuous
 62
     0
440
 16777216
370
    -2
100
AcDbLine
 10
251.1513762677278
 20
301.4531278759598
 30
0.0
 11
251.1513762677278
 21
91.45312787596001
 31
0.0
  0
INSERT
  5
1C2C2
330
12BCE
100
AcDbEntity
  8
30
  6
Continuous
 62
     0
440
 16777216
370
    -2
100
AcDbBlockReference
  2
_OPEN
 10
251.1513762677278
 20
303.4531278759598
 30
0.0
 41
2.0
 42
2.0
 43
2.0
 50
90.0
  0
INSERT
  5
1C2C3
330
12BCE
100
AcDbEntity
  8
30
  6
Continuous
 62
     0
440
 16777216
370
    -2
100
AcDbBlockReference
  2
_OPEN
 10
251.1513762677278
 20
89.45312787596
 30
0.0
 41
2.0
 42
2.0
 43
2.0
 50
270.0
  0
MTEXT
  5
1C2C4
330
12BCE
100
AcDbEntity
  8
30
  6
Continuous
440
 16777216
100
AcDbMText
 10
244.1513762677278
 20
196.4523400781541
 30
0.0
 40
8.0
 41
0.0
 46
0.0
 71
     5
 72
     1
  1
\A1;214
 11
0.0000000000000001
 21
1.0
 31
0.0
 73
     1
 44
1.0
 90
        3
 63
     9
421
 13158600
 45
1.25
441
        0
  0
POINT
  5
1C2C5
330
12BCE
100
AcDbEntity
  8
DEFPOINTS
  6
Continuous
 62
     0
440
 16777216
100
AcDbPoint
 10
183.7839548768725
 20
303.4531278759598
 30
0.0
  0
POINT
  5
1C2C6
330
12BCE
100
AcDbEntity
  8
DEFPOINTS
  6
Continuous
 62
     0
440
 16777216
100
AcDbPoint
 10
183.7839548768725
 20
89.45312787596
 30
0.0
  0
POINT
  5
1C2C7
330
12BCE
100
AcDbEntity
  8
DEFPOINTS
  6
Continuous
 62
     0
440
 16777216
100
AcDbPoint
 10
251.1513762677278
 20
89.45312787596
 30
0.0
  0
ENDBLK
  5
12BD0
330
12BCE
100
AcDbEntity
  8
0
100
AcDbBlockEnd
  0
BLOCK
  5
12BDB
330
12BDA
100
AcDbEntity
  8
0
100
AcDbBlockBegin
  2
*D6
 70
     1
 10
0.0
 20
0.0
 30
0.0
  3
*D6
  1

  0
LINE
  5
1C2AD
330
12BDA
100
AcDbEntity
  8
30
  6
Continuous
 62
     0
440
 16777216
370
    -2
100
AcDbLine
 10
138.7839548768725
 20
88.45312787596
 30
0.0
 11
138.7839548768725
 21
37.24906144548913
 31
0.0
  0
LINE
  5
1C2AE
330
12BDA
100
AcDbEntity
  8
30
  6
Continuous
 62
     0
440
 16777216
370
    -2
100
AcDbLine
 10
183.7839548768725
 20
88.45312787596
 30
0.0
 11
183.7839548768725
 21
37.24906144548913
 31
0.0
  0
LINE
  5
1C2AF
330
12BDA
100
AcDbEntity
  8
30
  6
Continuous
 62
     0
440
 16777216
370
    -2
100
AcDbLine
 10
140.7839548768725
 20
37.74906144548913
 30
0.0
 11
181.7839548768725
 21
37.74906144548913
 31
0.0
  0
INSERT
  5
1C2B0
330
12BDA
100
AcDbEntity
  8
30
  6
Continuous
 62
     0
440
 16777216
370
    -2
100
AcDbBlockReference
  2
_OPEN
 10
138.7839548768725
 20
37.74906144548913
 30
0.0
 41
2.0
 42
2.0
 43
2.0
 50
180.0
  0
INSERT
  5
1C2B1
330
12BDA
100
AcDbEntity
  8
30
  6
Continuous
 62
     0
440
 16777216
370
    -2
100
AcDbBlockReference
  2
_OPEN
 10
183.7839548768725
 20
37.74906144548913
 30
0.0
 41
2.0
 42
2.0
 43
2.0
  0
MTEXT
  5
1C2B2
330
12BDA
100
AcDbEntity
  8
30
  6
Continuous
440
 16777216
100
AcDbMText
 10
161.2839548768724
 20
44.74906144548913
 30
0.0
 40
8.0
 41
0.0
 46
0.0
 71
     5
 72
     1
  1
\A1;45
 73
     1
 44
1.0
 90
        3
 63
     9
421
 13158600
 45
1.25
441
        0
  0
POINT
  5
1C2B3
330
12BDA
100
AcDbEntity
  8
DEFPOINTS
  6
Continuous
 62
     0
440
 16777216
100
AcDbPoint
 10
138.7839548768725
 20
89.45312787596
 30
0.0
  0
POINT
  5
1C2B4
330
12BDA
100
AcDbEntity
  8
DEFPOINTS
  6
Continuous
 62
     0
440
 16777216
100
AcDbPoint
 10
183.7839548768725
 20
89.45312787596
 30
0.0
  0
POINT
  5
1C2B5
330
12BDA
100
AcDbEntity
  8
DEFPOINTS
  6
Continuous
 62
     0
440
 16777216
100
AcDbPoint
 10
183.7839548768725
 20
37.74906144548913
 30
0.0
  0
ENDBLK
  5
12BDC
330
12BDA
100
AcDbEntity
  8
0
100
AcDbBlockEnd
  0
BLOCK
  5
12BE7
330
12BE6
100
AcDbEntity
  8
0
100
AcDbBlockBegin
  2
*D7
 70
     1
 10
0.0
 20
0.0
 30
0.0
  3
*D7
  1

  0
LINE
  5
1C162
330
12BE6
100
AcDbEntity
  8
30
  6
Continuous
 62
     0
440
 16777216
370
    -2
100
AcDbLine
 10
141.0002753424762
 20
298.9711725444392
 30
0.0
 11
141.8868035287175
 21
297.1783904118309
 31
0.0
  0
LINE
  5
1C163
330
12BE6
100
AcDbEntity
  8
30
  6
Continuous
 62
     0
440
 16777216
370
    -2
100
AcDbLine
 10
136.5676344112694
 20
307.9350832074809
 30
0.0
 11
120.2674541803094
 21
340.8981320195638
 31
0.0
  0
LINE
  5
1C164
330
12BE6
100
AcDbEntity
  8
30
  6
Continuous
 62
     0
440
 16777216
370
    -2
100
AcDbLine
 10
120.2674541803094
 20
340.8981320195638
 30
0.0
 11
103.9341208469761
 21
340.8981320195638
 31
0.0
  0
LINE
  5
1C165
330
12BE6
100
AcDbEntity
  8
30
  6
Continuous
 62
     0
440
 16777216
370
    -2
100
AcDbLine
 10
140.1137471562348
 20
300.7639546770475
 30
0.0
 11
137.4541625975108
 21
306.1423010748726
 31
0.0
  0
INSERT
  5
1C166
330
12BE6
100
AcDbEntity
  8
30
  6
Continuous
 62
     0
440
 16777216
370
    -2
100
AcDbBlockReference
  2
_OPEN
 10
140.1137471562348
 20
300.7639546770475
 30
0.0
 41
2.0
 42
2.0
 43
2.0
 50
116.3123293280494
  0
INSERT
  5
1C167
330
12BE6
100
AcDbEntity
  8
30
  6
Continuous
 62
     0
440
 16777216
370
    -2
100
AcDbBlockReference
  2
_OPEN
 10
137.4541625975108
 20
306.1423010748726
 30
0.0
 41
2.0
 42
2.0
 43
2.0
 50
296.3123293280494
  0
MTEXT
  5
1C168
330
12BE6
100
AcDbEntity
  8
30
  6
Continuous
 62
     0
440
 16777216
100
AcDbMText
 10
110.6007875136429
 20
347.8981320195638
 30
0.0
 40
8.0
 41
0.0
 46
0.0
 71
     5
 72
     1
  1
\A1;M6
 73
     1
 44
1.0
  0
POINT
  5
1C169
330
12BE6
100
AcDbEntity
  8
DEFPOINTS
  6
Continuous
 62
     0
440
 16777216
100
AcDbPoint
 10
137.4541625975108
 20
306.1423010748726
 30
0.0
  0
POINT
  5
1C16A
330
12BE6
100
AcDbEntity
  8
DEFPOINTS
  6
Continuous
 62
     0
440
 16777216
100
AcDbPoint
 10
140.1137471562348
 20
300.7639546770475
 30
0.0
  0
ENDBLK
  5
12BE8
330
12BE6
100
AcDbEntity
  8
0
100
AcDbBlockEnd
  0
BLOCK
  5
12BF1
330
12BF0
100
AcDbEntity
  8
0
100
AcDbBlockBegin
  2
*D8
 70
     1
 10
0.0
 20
0.0
 30
0.0
  3
*D8
  1

  0
LINE
  5
1C16B
330
12BF0
100
AcDbEntity
  8
30
  6
Continuous
 62
     0
440
 16777216
370
    -2
100
AcDbLine
 10
539.5679818804674
 20
148.0723240775899
 30
0.0
 11
539.5679818804674
 21
37.43855233525085
 31
0.0
  0
LINE
  5
1C16C
330
12BF0
100
AcDbEntity
  8
30
  6
Continuous
 62
     0
440
 16777216
370
    -2
100
AcDbLine
 10
592.5679818804674
 20
148.0723240775899
 30
0.0
 11
592.5679818804674
 21
37.43855233525085
 31
0.0
  0
LINE
  5
1C16D
330
12BF0
100
AcDbEntity
  8
30
  6
Continuous
 62
     0
440
 16777216
370
    -2
100
AcDbLine
 10
541.5679818804674
 20
37.93855233525085
 30
0.0
 11
590.5679818804672
 21
37.93855233525085
 31
0.0
  0
INSERT
  5
1C16E
330
12BF0
100
AcDbEntity
  8
30
  6
Continuous
 62
     0
440
 16777216
370
    -2
100
AcDbBlockReference
  2
_OPEN
 10
539.5679818804674
 20
37.93855233525085
 30
0.0
 41
2.0
 42
2.0
 43
2.0
 50
180.0
  0
INSERT
  5
1C16F
330
12BF0
100
AcDbEntity
  8
30
  6
Continuous
 62
     0
440
 16777216
370
    -2
100
AcDbBlockReference
  2
_OPEN
 10
592.5679818804674
 20
37.93855233525085
 30
0.0
 41
2.0
 42
2.0
 43
2.0
  0
MTEXT
  5
1C170
330
12BF0
100
AcDbEntity
  8
30
  6
Continuous
440
 16777216
100
AcDbMText
 10
564.3337035159467
 20
44.93855233525084
 30
0.0
 40
8.0
 41
0.0
 46
0.0
 71
     5
 72
     1
  1
\A1;53
 73
     1
 44
1.0
 90
        3
 63
     9
421
 13158600
 45
1.25
441
        0
  0
POINT
  5
1C171
330
12BF0
100
AcDbEntity
  8
DEFPOINTS
  6
Continuous
 62
     0
440
 16777216
100
AcDbPoint
 10
539.5679818804674
 20
149.0723240775898
 30
0.0
  0
POINT
  5
1C172
330
12BF0
100
AcDbEntity
  8
DEFPOINTS
  6
Continuous
 62
     0
440
 16777216
100
AcDbPoint
 10
592.5679818804674
 20
149.0723240775898
 30
0.0
  0
POINT
  5
1C173
330
12BF0
100
AcDbEntity
  8
DEFPOINTS
  6
Continuous
 62
     0
440
 16777216
100
AcDbPoint
 10
592.5679818804674
 20
37.93855233525085
 30
0.0
  0
ENDBLK
  5
12BF2
330
12BF0
100
AcDbEntity
  8
0
100
AcDbBlockEnd
  0
BLOCK
  5
12BFD
330
12BFC
100
AcDbEntity
  8
0
100
AcDbBlockBegin
  2
*D9
 70
     1
 10
0.0
 20
0.0
 30
0.0
  3
*D9
  1

  0
LINE
  5
1C174
330
12BFC
100
AcDbEntity
  8
30
  6
Continuous
 62
     0
440
 16777216
370
    -2
100
AcDbLine
 10
593.6099644935657
 20
242.45312787596
 30
0.0
 11
661.7023272145006
 21
242.45312787596
 31
0.0
  0
LINE
  5
1C175
330
12BFC
100
AcDbEntity
  8
30
  6
Continuous
 62
     0
440
 16777216
370
    -2
100
AcDbLine
 10
593.6099644935657
 20
150.4531278759598
 30
0.0
 11
661.7023272145006
 21
150.4531278759598
 31
0.0
  0
LINE
  5
1C176
330
12BFC
100
AcDbEntity
  8
30
  6
Continuous
 62
     0
440
 16777216
370
    -2
100
AcDbLine
 10
661.2023272145006
 20
240.45312787596
 30
0.0
 11
661.2023272145006
 21
152.4531278759598
 31
0.0
  0
INSERT
  5
1C177
330
12BFC
100
AcDbEntity
  8
30
  6
Continuous
 62
     0
440
 16777216
370
    -2
100
AcDbBlockReference
  2
_OPEN
 10
661.2023272145006
 20
242.45312787596
 30
0.0
 41
2.0
 42
2.0
 43
2.0
 50
90.0
  0
INSERT
  5
1C178
330
12BFC
100
AcDbEntity
  8
30
  6
Continuous
 62
     0
440
 16777216
370
    -2
100
AcDbBlockReference
  2
_OPEN
 10
661.2023272145006
 20
150.4531278759598
 30
0.0
 41
2.0
 42
2.0
 43
2.0
 50
270.0
  0
MTEXT
  5
1C179
330
12BFC
100
AcDbEntity
  8
30
  6
Continuous
440
 16777216
100
AcDbMText
 10
654.2023272145006
 20
195.2280183345198
 30
0.0
 40
8.0
 41
0.0
 46
0.0
 71
     5
 72
     1
  1
\A1;92
 11
0.0000000000000001
 21
1.0
 31
0.0
 73
     1
 44
1.0
 90
        3
 63
     9
421
 13158600
 45
1.25
441
        0
  0
POINT
  5
1C17A
330
12BFC
100
AcDbEntity
  8
DEFPOINTS
  6
Continuous
 62
     0
440
 16777216
100
AcDbPoint
 10
592.6099644935657
 20
242.45312787596
 30
0.0
  0
POINT
  5
1C17B
330
12BFC
100
AcDbEntity
  8
DEFPOINTS
  6
Continuous
 62
     0
440
 16777216
100
AcDbPoint
 10
592.6099644935657
 20
150.4531278759598
 30
0.0
  0
POINT
  5
1C17C
330
12BFC
100
AcDbEntity
  8
DEFPOINTS
  6
Continuous
 62
     0
440
 16777216
100
AcDbPoint
 10
661.2023272145006
 20
150.4531278759598
 30
0.0
  0
ENDBLK
  5
12BFE
330
12BFC
100
AcDbEntity
  8
0
100
AcDbBlockEnd
  0
BLOCK
  5
12C13
330
12C12
100
AcDbEntity
  8
0
100
AcDbBlockBegin
  2
*D10
 70
     1
 10
0.0
 20
0.0
 30
0.0
  3
*D10
  1

  0
LINE
  5
1C17D
330
12C12
100
AcDbEntity
  8
30
  6
Continuous
 62
     0
440
 16777216
370
    -2
100
AcDbLine
 10
309.3460686238241
 20
148.0723240775899
 30
0.0
 11
309.3460686238241
 21
37.43855233525085
 31
0.0
  0
LINE
  5
1C17E
330
12C12
100
AcDbEntity
  8
30
  6
Continuous
 62
     0
440
 16777216
370
    -2
100
AcDbLine
 10
427.346068623824
 20
148.0723240775899
 30
0.0
 11
427.346068623824
 21
37.43855233525085
 31
0.0
  0
LINE
  5
1C17F
330
12C12
100
AcDbEntity
  8
30
  6
Continuous
 62
     0
440
 16777216
370
    -2
100
AcDbLine
 10
311.3460686238241
 20
37.93855233525085
 30
0.0
 11
425.346068623824
 21
37.93855233525085
 31
0.0
  0
INSERT
  5
1C180
330
12C12
100
AcDbEntity
  8
30
  6
Continuous
 62
     0
440
 16777216
370
    -2
100
AcDbBlockReference
  2
_OPEN
 10
309.3460686238241
 20
37.93855233525085
 30
0.0
 41
2.0
 42
2.0
 43
2.0
 50
180.0
  0
INSERT
  5
1C181
330
12C12
100
AcDbEntity
  8
30
  6
Continuous
 62
     0
440
 16777216
370
    -2
100
AcDbBlockReference
  2
_OPEN
 10
427.346068623824
 20
37.93855233525085
 30
0.0
 41
2.0
 42
2.0
 43
2.0
  0
MTEXT
  5
1C182
330
12C12
100
AcDbEntity
  8
30
  6
Continuous
440
 16777216
100
AcDbMText
 10
366.6117902593033
 20
44.93855233525084
 30
0.0
 40
8.0
 41
0.0
 46
0.0
 71
     5
 72
     1
  1
\A1;118
 73
     1
 44
1.0
 90
        3
 63
     9
421
 13158600
 45
1.25
441
        0
  0
POINT
  5
1C183
330
12C12
100
AcDbEntity
  8
DEFPOINTS
  6
Continuous
 62
     0
440
 16777216
100
AcDbPoint
 10
309.3460686238241
 20
149.0723240775898
 30
0.0
  0
POINT
  5
1C184
330
12C12
100
AcDbEntity
  8
DEFPOINTS
  6
Continuous
 62
     0
440
 16777216
100
AcDbPoint
 10
427.346068623824
 20
149.0723240775898
 30
0.0
  0
POINT
  5
1C185
330
12C12
100
AcDbEntity
  8
DEFPOINTS
  6
Continuous
 62
     0
440
 16777216
100
AcDbPoint
 10
427.346068623824
 20
37.93855233525085
 30
0.0
  0
ENDBLK
  5
12C14
330
12C12
100
AcDbEntity
  8
0
100
AcDbBlockEnd
  0
BLOCK
  5
12C1F
330
12C1E
100
AcDbEntity
  8
0
100
AcDbBlockBegin
  2
*D11
 70
     1
 10
0.0
 20
0.0
 30
0.0
  3
*D11
  1

  0
LINE
  5
1C186
330
12C1E
100
AcDbEntity
  8
30
  6
Continuous
 62
     0
440
 16777216
370
    -2
100
AcDbLine
 10
428.3880512369223
 20
242.45312787596
 30
0.0
 11
463.9804139578573
 21
242.4531278759599
 31
0.0
  0
LINE
  5
1C187
330
12C1E
100
AcDbEntity
  8
30
  6
Continuous
 62
     0
440
 16777216
370
    -2
100
AcDbLine
 10
428.3880512369223
 20
150.4531278759598
 30
0.0
 11
463.9804139578573
 21
150.4531278759598
 31
0.0
  0
LINE
  5
1C188
330
12C1E
100
AcDbEntity
  8
30
  6
Continuous
 62
     0
440
 16777216
370
    -2
100
AcDbLine
 10
463.4804139578573
 20
240.4531278759599
 30
0.0
 11
463.4804139578573
 21
152.4531278759598
 31
0.0
  0
INSERT
  5
1C189
330
12C1E
100
AcDbEntity
  8
30
  6
Continuous
 62
     0
440
 16777216
370
    -2
100
AcDbBlockReference
  2
_OPEN
 10
463.4804139578573
 20
242.4531278759599
 30
0.0
 41
2.0
 42
2.0
 43
2.0
 50
90.0
  0
INSERT
  5
1C18A
330
12C1E
100
AcDbEntity
  8
30
  6
Continuous
 62
     0
440
 16777216
370
    -2
100
AcDbBlockReference
  2
_OPEN
 10
463.4804139578573
 20
150.4531278759598
 30
0.0
 41
2.0
 42
2.0
 43
2.0
 50
270.0
  0
MTEXT
  5
1C18B
330
12C1E
100
AcDbEntity
  8
30
  6
Continuous
440
 16777216
100
AcDbMText
 10
456.4804139578573
 20
195.2280183345198
 30
0.0
 40
8.0
 41
0.0
 46
0.0
 71
     5
 72
     1
  1
\A1;92
 11
0.0000000000000001
 21
1.0
 31
0.0
 73
     1
 44
1.0
 90
        3
 63
     9
421
 13158600
 45
1.25
441
        0
  0
POINT
  5
1C18C
330
12C1E
100
AcDbEntity
  8
DEFPOINTS
  6
Continuous
 62
     0
440
 16777216
100
AcDbPoint
 10
427.3880512369223
 20
242.45312787596
 30
0.0
  0
POINT
  5
1C18D
330
12C1E
100
AcDbEntity
  8
DEFPOINTS
  6
Continuous
 62
     0
440
 16777216
100
AcDbPoint
 10
427.3880512369223
 20
150.4531278759598
 30
0.0
  0
POINT
  5
1C18E
330
12C1E
100
AcDbEntity
  8
DEFPOINTS
  6
Continuous
 62
     0
440
 16777216
100
AcDbPoint
 10
463.4804139578573
 20
150.4531278759598
 30
0.0
  0
ENDBLK
  5
12C20
330
12C1E
100
AcDbEntity
  8
0
100
AcDbBlockEnd
  0
BLOCK
  5
12C35
330
12C34
100
AcDbEntity
  8
0
100
AcDbBlockBegin
  2
*D12
 70
     1
 10
0.0
 20
0.0
 30
0.0
  3
*D12
  1

  0
LINE
  5
1BEE6
330
12C34
100
AcDbEntity
  8
30
  6
Continuous
 62
     0
440
 16777216
370
    -2
100
AcDbLine
 10
207.1626653823723
 20
728.4938972774823
 30
0.0
 11
255.8381544113756
 21
728.4938972774823
 31
0.0
  0
LINE
  5
1BEE7
330
12C34
100
AcDbEntity
  8
30
  6
Continuous
 62
     0
440
 16777216
370
    -2
100
AcDbLine
 10
216.6626653823723
 20
500.4938972774821
 30
0.0
 11
255.8381544113755
 21
500.4938972774821
 31
0.0
  0
LINE
  5
1BEE8
330
12C34
100
AcDbEntity
  8
30
  6
Continuous
 62
     0
440
 16777216
370
    -2
100
AcDbLine
 10
255.3381544113755
 20
726.4938972774823
 30
0.0
 11
255.3381544113755
 21
502.4938972774822
 31
0.0
  0
INSERT
  5
1BEE9
330
12C34
100
AcDbEntity
  8
30
  6
Continuous
 62
     0
440
 16777216
370
    -2
100
AcDbBlockReference
  2
_OPEN
 10
255.3381544113755
 20
728.4938972774823
 30
0.0
 41
2.0
 42
2.0
 43
2.0
 50
90.0
  0
INSERT
  5
1BEEA
330
12C34
100
AcDbEntity
  8
30
  6
Continuous
 62
     0
440
 16777216
370
    -2
100
AcDbBlockReference
  2
_OPEN
 10
255.3381544113755
 20
500.4938972774821
 30
0.0
 41
2.0
 42
2.0
 43
2.0
 50
270.0
  0
MTEXT
  5
1BEEB
330
12C34
100
AcDbEntity
  8
30
  6
Continuous
440
 16777216
100
AcDbMText
 10
244.3381544113754
 20
614.4938972774822
 30
0.0
 40
8.0
 41
0.0
 46
0.0
 71
     2
 72
     1
  1
\A1;228
 11
0.0000000000000001
 21
1.0
 31
0.0
 73
     1
 44
1.0
 90
        3
 63
     9
421
 13158600
 45
1.25
441
        0
  0
POINT
  5
1BEEC
330
12C34
100
AcDbEntity
  8
DEFPOINTS
  6
Continuous
 62
     0
440
 16777216
100
AcDbPoint
 10
206.1626653823723
 20
728.4938972774823
 30
0.0
  0
POINT
  5
1BEED
330
12C34
100
AcDbEntity
  8
DEFPOINTS
  6
Continuous
 62
     0
440
 16777216
100
AcDbPoint
 10
215.6626653823723
 20
500.4938972774821
 30
0.0
  0
POINT
  5
1BEEE
330
12C34
100
AcDbEntity
  8
DEFPOINTS
  6
Continuous
 62
     0
440
 16777216
100
AcDbPoint
 10
255.3381544113755
 20
500.4938972774821
 30
0.0
  0
ENDBLK
  5
12C36
330
12C34
100
AcDbEntity
  8
0
100
AcDbBlockEnd
  0
BLOCK
  5
12C41
330
12C40
100
AcDbEntity
  8
0
100
AcDbBlockBegin
  2
*D13
 70
     1
 10
0.0
 20
0.0
 30
0.0
  3
*D13
  1

  0
LINE
  5
1BEEF
330
12C40
100
AcDbEntity
  8
30
  6
Continuous
 62
     0
440
 16777216
370
    -2
100
AcDbLine
 10
229.7627430558723
 20
744.4938972774823
 30
0.0
 11
277.1415147295639
 21
744.4938972774821
 31
0.0
  0
LINE
  5
1BEF0
330
12C40
100
AcDbEntity
  8
30
  6
Continuous
 62
     0
440
 16777216
370
    -2
100
AcDbLine
 10
229.7627430558723
 20
484.4938972774821
 30
0.0
 11
277.1415147295639
 21
484.4938972774821
 31
0.0
  0
LINE
  5
1BEF1
330
12C40
100
AcDbEntity
  8
30
  6
Continuous
 62
     0
440
 16777216
370
    -2
100
AcDbLine
 10
276.6415147295639
 20
742.4938972774821
 30
0.0
 11
276.6415147295639
 21
486.4938972774821
 31
0.0
  0
INSERT
  5
1BEF2
330
12C40
100
AcDbEntity
  8
30
  6
Continuous
 62
     0
440
 16777216
370
    -2
100
AcDbBlockReference
  2
_OPEN
 10
276.6415147295639
 20
744.4938972774821
 30
0.0
 41
2.0
 42
2.0
 43
2.0
 50
90.0
  0
INSERT
  5
1BEF3
330
12C40
100
AcDbEntity
  8
30
  6
Continuous
 62
     0
440
 16777216
370
    -2
100
AcDbBlockReference
  2
_OPEN
 10
276.6415147295639
 20
484.4938972774821
 30
0.0
 41
2.0
 42
2.0
 43
2.0
 50
270.0
  0
MTEXT
  5
1BEF4
330
12C40
100
AcDbEntity
  8
30
  6
Continuous
440
 16777216
100
AcDbMText
 10
265.6415147295638
 20
614.4938972774822
 30
0.0
 40
8.0
 41
0.0
 46
0.0
 71
     2
 72
     1
  1
\A1;260
 11
0.0000000000000001
 21
1.0
 31
0.0
 73
     1
 44
1.0
 90
        3
 63
     9
421
 13158600
 45
1.25
441
        0
  0
POINT
  5
1BEF5
330
12C40
100
AcDbEntity
  8
DEFPOINTS
  6
Continuous
 62
     0
440
 16777216
100
AcDbPoint
 10
228.7627430558723
 20
744.4938972774823
 30
0.0
  0
POINT
  5
1BEF6
330
12C40
100
AcDbEntity
  8
DEFPOINTS
  6
Continuous
 62
     0
440
 16777216
100
AcDbPoint
 10
228.7627430558723
 20
484.4938972774821
 30
0.0
  0
POINT
  5
1BEF7
330
12C40
100
AcDbEntity
  8
DEFPOINTS
  6
Continuous
 62
     0
440
 16777216
100
AcDbPoint
 10
276.6415147295639
 20
484.4938972774821
 30
0.0
  0
ENDBLK
  5
12C42
330
12C40
100
AcDbEntity
  8
0
100
AcDbBlockEnd
  0
BLOCK
  5
12CC3
330
12CC2
100
AcDbEntity
  8
0
100
AcDbBlockBegin
  2
*D14
 70
     1
 10
0.0
 20
0.0
 30
0.0
  3
*D14
  1

  0
LINE
  5
1BF01
330
12CC2
100
AcDbEntity
  8
30
  6
Continuous
 62
     0
440
 16777216
370
    -2
100
AcDbLine
 10
86.28395487687248
 20
788.9938972774823
 30
0.0
 11
70.47777998036497
 21
788.9938972774823
 31
0.0
  0
LINE
  5
1BF02
330
12CC2
100
AcDbEntity
  8
30
  6
Continuous
 62
     0
440
 16777216
370
    -2
100
AcDbLine
 10
90.78395487687249
 20
774.4938972774823
 30
0.0
 11
70.47777998036497
 21
774.4938972774823
 31
0.0
  0
LINE
  5
1BF03
330
12CC2
100
AcDbEntity
  8
30
  6
Continuous
 62
     0
440
 16777216
370
    -2
100
AcDbLine
 10
70.97777998036497
 20
776.4938972774823
 30
0.0
 11
70.97777998036497
 21
786.9938972774823
 31
0.0
  0
LINE
  5
1BF04
330
12CC2
100
AcDbEntity
  8
30
  6
Continuous
 62
     0
440
 16777216
370
    -2
100
AcDbLine
 10
70.97777998036497
 20
788.9938972774823
 30
0.0
 11
70.97777998036498
 21
826.8253050581346
 31
0.0
  0
INSERT
  5
1BF05
330
12CC2
100
AcDbEntity
  8
30
  6
Continuous
 62
     0
440
 16777216
370
    -2
100
AcDbBlockReference
  2
_OPEN
 10
70.97777998036497
 20
774.4938972774823
 30
0.0
 41
2.0
 42
2.0
 43
2.0
 50
270.0
  0
INSERT
  5
1BF06
330
12CC2
100
AcDbEntity
  8
30
  6
Continuous
 62
     0
440
 16777216
370
    -2
100
AcDbBlockReference
  2
_OPEN
 10
70.97777998036497
 20
788.9938972774823
 30
0.0
 41
2.0
 42
2.0
 43
2.0
 50
90.0
  0
MTEXT
  5
1BF07
330
12CC2
100
AcDbEntity
  8
30
  6
Continuous
440
 16777216
100
AcDbMText
 10
59.97777998036485
 20
813.1586383914678
 30
0.0
 40
8.0
 41
0.0
 46
0.0
 71
     2
 72
     1
  1
\A1;14.5
 11
0.0000000000000001
 21
1.0
 31
0.0
 73
     1
 44
1.0
 90
        3
 63
     9
421
 13158600
 45
1.25
441
        0
  0
POINT
  5
1BF08
330
12CC2
100
AcDbEntity
  8
DEFPOINTS
  6
Continuous
 62
     0
440
 16777216
100
AcDbPoint
 10
87.28395487687249
 20
788.9938972774823
 30
0.0
  0
POINT
  5
1BF09
330
12CC2
100
AcDbEntity
  8
DEFPOINTS
  6
Continuous
 62
     0
440
 16777216
100
AcDbPoint
 10
91.78395487687248
 20
774.4938972774823
 30
0.0
  0
POINT
  5
1BF0A
330
12CC2
100
AcDbEntity
  8
DEFPOINTS
  6
Continuous
 62
     0
440
 16777216
100
AcDbPoint
 10
70.97777998036497
 20
774.4938972774823
 30
0.0
  0
ENDBLK
  5
12CC4
330
12CC2
100
AcDbEntity
  8
0
100
AcDbBlockEnd
  0
BLOCK
  5
12CD0
330
12CCF
100
AcDbEntity
  8
0
100
AcDbBlockBegin
  2
*D15
 70
     1
 10
0.0
 20
0.0
 30
0.0
  3
*D15
  1

  0
LINE
  5
1C312
330
12CCF
100
AcDbEntity
  8
30
  6
Continuous
 62
     0
440
 16777216
370
    -2
100
AcDbLine
 10
90.78395487687249
 20
774.4938972774823
 30
0.0
 11
69.97777998036498
 21
774.4938972774823
 31
0.0
  0
LINE
  5
1C313
330
12CCF
100
AcDbEntity
  8
30
  6
Continuous
 62
     0
440
 16777216
370
    -2
100
AcDbLine
 10
90.28395487687248
 20
744.4938972774823
 30
0.0
 11
69.97777998036498
 21
744.4938972774823
 31
0.0
  0
LINE
  5
1C314
330
12CCF
100
AcDbEntity
  8
30
  6
Continuous
 62
     0
440
 16777216
370
    -2
100
AcDbLine
 10
70.47777998036498
 20
772.4938972774823
 30
0.0
 11
70.47777998036498
 21
746.4938972774823
 31
0.0
  0
INSERT
  5
1C315
330
12CCF
100
AcDbEntity
  8
30
  6
Continuous
 62
     0
440
 16777216
370
    -2
100
AcDbBlockReference
  2
_OPEN
 10
70.47777998036498
 20
774.4938972774823
 30
0.0
 41
2.0
 42
2.0
 43
2.0
 50
90.0
  0
INSERT
  5
1C316
330
12CCF
100
AcDbEntity
  8
30
  6
Continuous
 62
     0
440
 16777216
370
    -2
100
AcDbBlockReference
  2
_OPEN
 10
70.47777998036498
 20
744.4938972774823
 30
0.0
 41
2.0
 42
2.0
 43
2.0
 50
270.0
  0
MTEXT
  5
1C317
330
12CCF
100
AcDbEntity
  8
30
  6
Continuous
440
 16777216
100
AcDbMText
 10
59.47777998036486
 20
755.8634090609679
 30
0.0
 40
8.0
 41
0.0
 46
0.0
 71
     2
 72
     1
  1
\A1;30
 11
0.0000000000000001
 21
1.0
 31
0.0
 73
     1
 44
1.0
 90
        3
 63
     9
421
 13158600
 45
1.25
441
        0
  0
POINT
  5
1C318
330
12CCF
100
AcDbEntity
  8
DEFPOINTS
  6
Continuous
 62
     0
440
 16777216
100
AcDbPoint
 10
91.78395487687248
 20
774.4938972774823
 30
0.0
  0
POINT
  5
1C319
330
12CCF
100
AcDbEntity
  8
DEFPOINTS
  6
Continuous
 62
     0
440
 16777216
100
AcDbPoint
 10
91.28395487687248
 20
744.4938972774823
 30
0.0
  0
POINT
  5
1C31A
330
12CCF
100
AcDbEntity
  8
DEFPOINTS
  6
Continuous
 62
     0
440
 16777216
100
AcDbPoint
 10
70.47777998036498
 20
744.4938972774823
 30
0.0
  0
ENDBLK
  5
12CD1
330
12CCF
100
AcDbEntity
  8
0
100
AcDbBlockEnd
  0
BLOCK
  5
12CDC
330
12CDB
100
AcDbEntity
  8
0
100
AcDbBlockBegin
  2
*D16
 70
     1
 10
0.0
 20
0.0
 30
0.0
  3
*D16
  1

  0
LINE
  5
1C309
330
12CDB
100
AcDbEntity
  8
30
  6
Continuous
 62
     0
440
 16777216
370
    -2
100
AcDbLine
 10
86.28395487687248
 20
788.9938972774823
 30
0.0
 11
50.38891751904717
 21
788.9938972774823
 31
0.0
  0
LINE
  5
1C30A
330
12CDB
100
AcDbEntity
  8
30
  6
Continuous
 62
     0
440
 16777216
370
    -2
100
AcDbLine
 10
90.28395487687248
 20
744.4938972774823
 30
0.0
 11
50.38891751904715
 21
744.4938972774823
 31
0.0
  0
LINE
  5
1C30B
330
12CDB
100
AcDbEntity
  8
30
  6
Continuous
 62
     0
440
 16777216
370
    -2
100
AcDbLine
 10
50.88891751904717
 20
786.9938972774823
 30
0.0
 11
50.88891751904715
 21
746.4938972774823
 31
0.0
  0
INSERT
  5
1C30C
330
12CDB
100
AcDbEntity
  8
30
  6
Continuous
 62
     0
440
 16777216
370
    -2
100
AcDbBlockReference
  2
_OPEN
 10
50.88891751904717
 20
788.9938972774823
 30
0.0
 41
2.0
 42
2.0
 43
2.0
 50
90.0
  0
INSERT
  5
1C30D
330
12CDB
100
AcDbEntity
  8
30
  6
Continuous
 62
     0
440
 16777216
370
    -2
100
AcDbBlockReference
  2
_OPEN
 10
50.88891751904715
 20
744.4938972774823
 30
0.0
 41
2.0
 42
2.0
 43
2.0
 50
270.0
  0
MTEXT
  5
1C30E
330
12CDB
100
AcDbEntity
  8
30
  6
Continuous
440
 16777216
100
AcDbMText
 10
39.88891751904704
 20
763.6742732701772
 30
0.0
 40
8.0
 41
0.0
 46
0.0
 71
     2
 72
     1
  1
\A1;44.5
 11
0.0000000000000001
 21
1.0
 31
0.0
 73
     1
 44
1.0
 90
        3
 63
     9
421
 13158600
 45
1.25
441
        0
  0
POINT
  5
1C30F
330
12CDB
100
AcDbEntity
  8
DEFPOINTS
  6
Continuous
 62
     0
440
 16777216
100
AcDbPoint
 10
87.28395487687249
 20
788.9938972774823
 30
0.0
  0
POINT
  5
1C310
330
12CDB
100
AcDbEntity
  8
DEFPOINTS
  6
Continuous
 62
     0
440
 16777216
100
AcDbPoint
 10
91.28395487687248
 20
744.4938972774823
 30
0.0
  0
POINT
  5
1C311
330
12CDB
100
AcDbEntity
  8
DEFPOINTS
  6
Continuous
 62
     0
440
 16777216
100
AcDbPoint
 10
50.88891751904715
 20
744.4938972774823
 30
0.0
  0
ENDBLK
  5
12CDD
330
12CDB
100
AcDbEntity
  8
0
100
AcDbBlockEnd
  0
BLOCK
  5
12CE8
330
12CE7
100
AcDbEntity
  8
0
100
AcDbBlockBegin
  2
*D17
 70
     1
 10
0.0
 20
0.0
 30
0.0
  3
*D17
  1

  0
LINE
  5
1BF1D
330
12CE7
100
AcDbEntity
  8
30
  6
Continuous
 62
     0
440
 16777216
370
    -2
100
AcDbLine
 10
566.6347326503378
 20
745.4938972774823
 30
0.0
 11
566.6347326503378
 21
816.9938972774824
 31
0.0
  0
LINE
  5
1BF1E
330
12CE7
100
AcDbEntity
  8
30
  6
Continuous
 62
     0
440
 16777216
370
    -2
100
AcDbLine
 10
530.6347326503376
 20
789.9938972774823
 30
0.0
 11
530.6347326503376
 21
816.9938972774824
 31
0.0
  0
LINE
  5
1BF1F
330
12CE7
100
AcDbEntity
  8
30
  6
Continuous
 62
     0
440
 16777216
370
    -2
100
AcDbLine
 10
564.6347326503378
 20
816.4938972774825
 30
0.0
 11
532.6347326503378
 21
816.4938972774825
 31
0.0
  0
INSERT
  5
1BF20
330
12CE7
100
AcDbEntity
  8
30
  6
Continuous
 62
     0
440
 16777216
370
    -2
100
AcDbBlockReference
  2
_OPEN
 10
566.6347326503378
 20
816.4938972774825
 30
0.0
 41
2.0
 42
2.0
 43
2.0
  0
INSERT
  5
1BF21
330
12CE7
100
AcDbEntity
  8
30
  6
Continuous
 62
     0
440
 16777216
370
    -2
100
AcDbBlockReference
  2
_OPEN
 10
530.6347326503376
 20
816.4938972774825
 30
0.0
 41
2.0
 42
2.0
 43
2.0
 50
180.0
  0
MTEXT
  5
1BF22
330
12CE7
100
AcDbEntity
  8
30
  6
Continuous
440
 16777216
100
AcDbMText
 10
548.6347326503378
 20
823.4938972774823
 30
0.0
 40
8.0
 41
0.0
 46
0.0
 71
     5
 72
     1
  1
\A1;36
 73
     1
 44
1.0
 90
        3
 63
     9
421
 13158600
 45
1.25
441
        0
  0
POINT
  5
1BF23
330
12CE7
100
AcDbEntity
  8
DEFPOINTS
  6
Continuous
 62
     0
440
 16777216
100
AcDbPoint
 10
566.6347326503378
 20
744.4938972774823
 30
0.0
  0
POINT
  5
1BF24
330
12CE7
100
AcDbEntity
  8
DEFPOINTS
  6
Continuous
 62
     0
440
 16777216
100
AcDbPoint
 10
530.6347326503376
 20
788.9938972774825
 30
0.0
  0
POINT
  5
1BF25
330
12CE7
100
AcDbEntity
  8
DEFPOINTS
  6
Continuous
 62
     0
440
 16777216
100
AcDbPoint
 10
530.6347326503376
 20
816.4938972774825
 30
0.0
  0
ENDBLK
  5
12CE9
330
12CE7
100
AcDbEntity
  8
0
100
AcDbBlockEnd
  0
BLOCK
  5
12CF4
330
12CF3
100
AcDbEntity
  8
0
100
AcDbBlockBegin
  2
*D18
 70
     1
 10
0.0
 20
0.0
 30
0.0
  3
*D18
  1

  0
LINE
  5
1BF26
330
12CF3
100
AcDbEntity
  8
30
  6
Continuous
 62
     0
440
 16777216
370
    -2
100
AcDbLine
 10
530.6347326503376
 20
789.9938972774823
 30
0.0
 11
530.6347326503376
 21
816.9938972774824
 31
0.0
  0
LINE
  5
1BF27
330
12CF3
100
AcDbEntity
  8
30
  6
Continuous
 62
     0
440
 16777216
370
    -2
100
AcDbLine
 10
522.6347326503378
 20
789.9938972774823
 30
0.0
 11
522.6347326503378
 21
816.9938972774824
 31
0.0
  0
LINE
  5
1BF28
330
12CF3
100
AcDbEntity
  8
30
  6
Continuous
 62
     0
440
 16777216
370
    -2
100
AcDbLine
 10
532.6347326503378
 20
816.4938972774825
 30
0.0
 11
534.6347326503376
 21
816.4938972774825
 31
0.0
  0
LINE
  5
1BF29
330
12CF3
100
AcDbEntity
  8
30
  6
Continuous
 62
     0
440
 16777216
370
    -2
100
AcDbLine
 10
520.6347326503378
 20
816.4938972774825
 30
0.0
 11
507.3013993170045
 21
816.4938972774825
 31
0.0
  0
INSERT
  5
1BF2A
330
12CF3
100
AcDbEntity
  8
30
  6
Continuous
 62
     0
440
 16777216
370
    -2
100
AcDbBlockReference
  2
_OPEN
 10
530.6347326503376
 20
816.4938972774825
 30
0.0
 41
2.0
 42
2.0
 43
2.0
 50
180.0
  0
INSERT
  5
1BF2B
330
12CF3
100
AcDbEntity
  8
30
  6
Continuous
 62
     0
440
 16777216
370
    -2
100
AcDbBlockReference
  2
_OPEN
 10
522.6347326503378
 20
816.4938972774825
 30
0.0
 41
2.0
 42
2.0
 43
2.0
  0
MTEXT
  5
1BF2C
330
12CF3
100
AcDbEntity
  8
30
  6
Continuous
440
 16777216
100
AcDbMText
 10
512.9680659836711
 20
823.4938972774823
 30
0.0
 40
8.0
 41
0.0
 46
0.0
 71
     5
 72
     1
  1
\A1;8
 73
     1
 44
1.0
 90
        3
 63
     9
421
 13158600
 45
1.25
441
        0
  0
POINT
  5
1BF2D
330
12CF3
100
AcDbEntity
  8
DEFPOINTS
  6
Continuous
 62
     0
440
 16777216
100
AcDbPoint
 10
530.6347326503376
 20
788.9938972774825
 30
0.0
  0
POINT
  5
1BF2E
330
12CF3
100
AcDbEntity
  8
DEFPOINTS
  6
Continuous
 62
     0
440
 16777216
100
AcDbPoint
 10
522.6347326503378
 20
788.9938972774825
 30
0.0
  0
POINT
  5
1BF2F
330
12CF3
100
AcDbEntity
  8
DEFPOINTS
  6
Continuous
 62
     0
440
 16777216
100
AcDbPoint
 10
522.6347326503378
 20
816.4938972774825
 30
0.0
  0
ENDBLK
  5
12CF5
330
12CF3
100
AcDbEntity
  8
0
100
AcDbBlockEnd
  0
BLOCK
  5
12D0D
330
12D0C
100
AcDbEntity
  8
0
100
AcDbBlockBegin
  2
*D19
 70
     1
 10
0.0
 20
0.0
 30
0.0
  3
*D19
  1

  0
LINE
  5
1BF39
330
12D0C
100
AcDbEntity
  8
30
  6
Continuous
 62
     0
440
 16777216
370
    -2
100
AcDbLine
 10
116.2839548768725
 20
984.6282878389336
 30
0.0
 11
116.2839548768725
 21
1028.860500476664
 31
0.0
  0
LINE
  5
1BF3A
330
12D0C
100
AcDbEntity
  8
30
  6
Continuous
 62
     0
440
 16777216
370
    -2
100
AcDbLine
 10
161.283934272398
 20
984.6282878389336
 30
0.0
 11
161.283934272398
 21
1028.860500476664
 31
0.0
  0
LINE
  5
1BF3B
330
12D0C
100
AcDbEntity
  8
30
  6
Continuous
 62
     0
440
 16777216
370
    -2
100
AcDbLine
 10
118.2839548768725
 20
1028.360500476664
 30
0.0
 11
159.283934272398
 21
1028.360500476664
 31
0.0
  0
INSERT
  5
1BF3C
330
12D0C
100
AcDbEntity
  8
30
  6
Continuous
 62
     0
440
 16777216
370
    -2
100
AcDbBlockReference
  2
_OPEN
 10
116.2839548768725
 20
1028.360500476664
 30
0.0
 41
2.0
 42
2.0
 43
2.0
 50
180.0
  0
INSERT
  5
1BF3D
330
12D0C
100
AcDbEntity
  8
30
  6
Continuous
 62
     0
440
 16777216
370
    -2
100
AcDbBlockReference
  2
_OPEN
 10
161.283934272398
 20
1028.360500476664
 30
0.0
 41
2.0
 42
2.0
 43
2.0
  0
MTEXT
  5
1BF3E
330
12D0C
100
AcDbEntity
  8
30
  6
Continuous
440
 16777216
100
AcDbMText
 10
138.7839445746352
 20
1035.360500476664
 30
0.0
 40
8.0
 41
0.0
 46
0.0
 71
     5
 72
     1
  1
\A1;45
 73
     1
 44
1.0
 90
        3
 63
     9
421
 13158600
 45
1.25
441
        0
  0
POINT
  5
1BF3F
330
12D0C
100
AcDbEntity
  8
DEFPOINTS
  6
Continuous
 62
     0
440
 16777216
100
AcDbPoint
 10
116.2839548768725
 20
983.6282878389337
 30
0.0
  0
POINT
  5
1BF40
330
12D0C
100
AcDbEntity
  8
DEFPOINTS
  6
Continuous
 62
     0
440
 16777216
100
AcDbPoint
 10
161.283934272398
 20
983.6282878389337
 30
0.0
  0
POINT
  5
1BF41
330
12D0C
100
AcDbEntity
  8
DEFPOINTS
  6
Continuous
 62
     0
440
 16777216
100
AcDbPoint
 10
161.283934272398
 20
1028.360500476664
 30
0.0
  0
ENDBLK
  5
12D0E
330
12D0C
100
AcDbEntity
  8
0
100
AcDbBlockEnd
  0
BLOCK
  5
12D19
330
12D18
100
AcDbEntity
  8
0
100
AcDbBlockBegin
  2
*D20
 70
     1
 10
0.0
 20
0.0
 30
0.0
  3
*D20
  1

  0
LINE
  5
1BF42
330
12D18
100
AcDbEntity
  8
30
  6
Continuous
 62
     0
440
 16777216
370
    -2
100
AcDbLine
 10
161.283934272398
 20
984.6282878389336
 30
0.0
 11
161.283934272398
 21
1028.860500476664
 31
0.0
  0
LINE
  5
1BF43
330
12D18
100
AcDbEntity
  8
30
  6
Continuous
 62
     0
440
 16777216
370
    -2
100
AcDbLine
 10
206.2839548768725
 20
978.5463040888553
 30
0.0
 11
206.2839548768725
 21
1028.860500476664
 31
0.0
  0
LINE
  5
1BF44
330
12D18
100
AcDbEntity
  8
30
  6
Continuous
 62
     0
440
 16777216
370
    -2
100
AcDbLine
 10
163.283934272398
 20
1028.360500476664
 30
0.0
 11
204.2839548768725
 21
1028.360500476664
 31
0.0
  0
INSERT
  5
1BF45
330
12D18
100
AcDbEntity
  8
30
  6
Continuous
 62
     0
440
 16777216
370
    -2
100
AcDbBlockReference
  2
_OPEN
 10
161.283934272398
 20
1028.360500476664
 30
0.0
 41
2.0
 42
2.0
 43
2.0
 50
180.0
  0
INSERT
  5
1BF46
330
12D18
100
AcDbEntity
  8
30
  6
Continuous
 62
     0
440
 16777216
370
    -2
100
AcDbBlockReference
  2
_OPEN
 10
206.2839548768725
 20
1028.360500476664
 30
0.0
 41
2.0
 42
2.0
 43
2.0
  0
MTEXT
  5
1BF47
330
12D18
100
AcDbEntity
  8
30
  6
Continuous
440
 16777216
100
AcDbMText
 10
183.7839445746352
 20
1035.360500476664
 30
0.0
 40
8.0
 41
0.0
 46
0.0
 71
     5
 72
     1
  1
\A1;45
 73
     1
 44
1.0
 90
        3
 63
     9
421
 13158600
 45
1.25
441
        0
  0
POINT
  5
1BF48
330
12D18
100
AcDbEntity
  8
DEFPOINTS
  6
Continuous
 62
     0
440
 16777216
100
AcDbPoint
 10
161.283934272398
 20
983.6282878389337
 30
0.0
  0
POINT
  5
1BF49
330
12D18
100
AcDbEntity
  8
DEFPOINTS
  6
Continuous
 62
     0
440
 16777216
100
AcDbPoint
 10
206.2839548768725
 20
977.5463040888553
 30
0.0
  0
POINT
  5
1BF4A
330
12D18
100
AcDbEntity
  8
DEFPOINTS
  6
Continuous
 62
     0
440
 16777216
100
AcDbPoint
 10
206.2839548768725
 20
1028.360500476664
 30
0.0
  0
ENDBLK
  5
12D1A
330
12D18
100
AcDbEntity
  8
0
100
AcDbBlockEnd
  0
BLOCK
  5
12F01
330
12F00
100
AcDbEntity
  8
0
100
AcDbBlockBegin
  2
SW_CENTERMARKSYMBOL_20
 70
     0
 10
0.0
 20
0.0
 30
0.0
  3
SW_CENTERMARKSYMBOL_20
  1
SW_CENTERMARKSYMBOL_20
  0
LINE
  5
12F02
330
12F00
100
AcDbEntity
  8
240
 62
     0
100
AcDbLine
 10
0.0
 20
0.0
 30
0.0
 11
0.0
 21
0.5
 31
0.0
  0
LINE
  5
12F03
330
12F00
100
AcDbEntity
  8
240
 62
     0
100
AcDbLine
 10
0.0
 20
0.0
 30
0.0
 11
-0.5
 21
0.0
 31
0.0
  0
LINE
  5
12F04
330
12F00
100
AcDbEntity
  8
240
 62
     0
100
AcDbLine
 10
0.0
 20
0.0
 30
0.0
 11
0.0
 21
-0.5
 31
0.0
  0
LINE
  5
12F05
330
12F00
100
AcDbEntity
  8
240
 62
     0
100
AcDbLine
 10
0.0
 20
0.0
 30
0.0
 11
0.5
 21
0.0
 31
0.0
  0
LINE
  5
12F06
330
12F00
100
AcDbEntity
  8
240
 62
     0
100
AcDbLine
 10
0.0
 20
1.0
 30
0.0
 11
0.0
 21
1.9
 31
0.0
  0
LINE
  5
12F07
330
12F00
100
AcDbEntity
  8
240
 62
     0
100
AcDbLine
 10
-1.0
 20
0.0
 30
0.0
 11
-1.9
 21
0.0
 31
0.0
  0
LINE
  5
12F08
330
12F00
100
AcDbEntity
  8
240
 62
     0
100
AcDbLine
 10
0.0
 20
-1.0
 30
0.0
 11
0.0
 21
-1.9
 31
0.0
  0
LINE
  5
12F09
330
12F00
100
AcDbEntity
  8
240
 62
     0
100
AcDbLine
 10
1.0
 20
0.0
 30
0.0
 11
1.9
 21
0.0
 31
0.0
  0
ENDBLK
  5
12F0A
330
12F00
100
AcDbEntity
  8
0
100
AcDbBlockEnd
  0
BLOCK
  5
145B7
330
145B6
100
AcDbEntity
  8
0
100
AcDbBlockBegin
  2
*D22
 70
     1
 10
0.0
 20
0.0
 30
0.0
  3
*D22
  1

  0
LINE
  5
1C18F
330
145B6
100
AcDbEntity
  8
30
  6
Continuous
 62
     0
440
 16777216
370
    -2
100
AcDbLine
 10
426.4318932333
 20
241.9754793793679
 30
0.0
 11
447.0325346033267
 21
270.858060495275
 31
0.0
  0
LINE
  5
1C190
330
145B6
100
AcDbEntity
  8
30
  6
Continuous
 62
     0
440
 16777216
370
    -2
100
AcDbLine
 10
447.0325346033267
 20
270.858060495275
 30
0.0
 11
463.3658679366601
 21
270.858060495275
 31
0.0
  0
LINE
  5
1C191
330
145B6
100
AcDbEntity
  8
30
  6
Continuous
 62
     0
440
 16777216
370
    -2
100
AcDbLine
 10
424.1091638764063
 20
238.7189584849074
 30
0.0
 11
425.2705285549049
 21
240.3472189322106
 31
0.0
  0
INSERT
  5
1C192
330
145B6
100
AcDbEntity
  8
30
  6
Continuous
 62
     0
440
 16777216
370
    -2
100
AcDbBlockReference
  2
_OPEN
 10
425.2705285549049
 20
240.3472189322106
 30
0.0
 41
2.0
 42
2.0
 43
2.0
 50
234.501450934811
  0
MTEXT
  5
1C193
330
145B6
100
AcDbEntity
  8
30
  6
Continuous
 62
     0
440
 16777216
100
AcDbMText
 10
450.032534603327
 20
281.8580604952748
 30
0.0
 40
8.0
 41
0.0
 46
0.0
 71
     1
 72
     1
  1
\A1;R2
 73
     1
 44
1.0
  0
POINT
  5
1C194
330
145B6
100
AcDbEntity
  8
DEFPOINTS
  6
Continuous
 62
     0
440
 16777216
100
AcDbPoint
 10
425.2705285549049
 20
240.3472189322106
 30
0.0
  0
POINT
  5
1C195
330
145B6
100
AcDbEntity
  8
DEFPOINTS
  6
Continuous
 62
     0
440
 16777216
100
AcDbPoint
 10
424.1091638764063
 20
238.7189584849074
 30
0.0
  0
ENDBLK
  5
145B8
330
145B6
100
AcDbEntity
  8
0
100
AcDbBlockEnd
  0
BLOCK
  5
145DA
330
145D9
100
AcDbEntity
  8
0
100
AcDbBlockBegin
  2
*D23
 70
     1
 10
0.0
 20
0.0
 30
0.0
  3
*D23
  1

  0
LINE
  5
1C196
330
145D9
100
AcDbEntity
  8
30
  6
Continuous
 62
     0
440
 16777216
370
    -2
100
AcDbLine
 10
593.0680200523162
 20
243.3896929417407
 30
0.0
 11
613.6686614223422
 21
272.2722740576482
 31
0.0
  0
LINE
  5
1C197
330
145D9
100
AcDbEntity
  8
30
  6
Continuous
 62
     0
440
 16777216
370
    -2
100
AcDbLine
 10
613.6686614223422
 20
272.2722740576482
 30
0.0
 11
630.0019947556757
 21
272.2722740576482
 31
0.0
  0
LINE
  5
1C198
330
145D9
100
AcDbEntity
  8
30
  6
Continuous
 62
     0
440
 16777216
370
    -2
100
AcDbLine
 10
590.7452906954228
 20
240.1331720472803
 30
0.0
 11
591.9066553739212
 21
241.7614324945834
 31
0.0
  0
INSERT
  5
1C199
330
145D9
100
AcDbEntity
  8
30
  6
Continuous
 62
     0
440
 16777216
370
    -2
100
AcDbBlockReference
  2
_OPEN
 10
591.9066553739212
 20
241.7614324945834
 30
0.0
 41
2.0
 42
2.0
 43
2.0
 50
234.5014509348121
  0
MTEXT
  5
1C19A
330
145D9
100
AcDbEntity
  8
30
  6
Continuous
 62
     0
440
 16777216
100
AcDbMText
 10
616.6686614223432
 20
283.2722740576477
 30
0.0
 40
8.0
 41
0.0
 46
0.0
 71
     1
 72
     1
  1
\A1;R2
 73
     1
 44
1.0
  0
POINT
  5
1C19B
330
145D9
100
AcDbEntity
  8
DEFPOINTS
  6
Continuous
 62
     0
440
 16777216
100
AcDbPoint
 10
591.9066553739212
 20
241.7614324945834
 30
0.0
  0
POINT
  5
1C19C
330
145D9
100
AcDbEntity
  8
DEFPOINTS
  6
Continuous
 62
     0
440
 16777216
100
AcDbPoint
 10
590.7452906954228
 20
240.1331720472803
 30
0.0
  0
ENDBLK
  5
145DB
330
145D9
100
AcDbEntity
  8
0
100
AcDbBlockEnd
  0
BLOCK
  5
15D6C
330
15D6B
100
AcDbEntity
  8
0
100
AcDbBlockBegin
  2
*D24
 70
     1
 10
0.0
 20
0.0
 30
0.0
  3
*D24
  1

  0
LINE
  5
1BFAA
330
15D6B
100
AcDbEntity
  8
30
  6
Continuous
 62
     0
440
 16777216
370
    -2
100
AcDbLine
 10
103.5265338653726
 20
569.4938972774822
 30
0.0
 11
103.5265338653726
 21
545.1551184310097
 31
0.0
  0
LINE
  5
1BFAB
330
15D6B
100
AcDbEntity
  8
30
  6
Continuous
 62
     0
440
 16777216
370
    -2
100
AcDbLine
 10
219.5265338653726
 20
569.4938972774822
 30
0.0
 11
219.5265338653726
 21
545.1551184310097
 31
0.0
  0
LINE
  5
1BFAC
330
15D6B
100
AcDbEntity
  8
30
  6
Continuous
 62
     0
440
 16777216
370
    -2
100
AcDbLine
 10
105.5265338653726
 20
545.6551184310097
 30
0.0
 11
217.5265338653726
 21
545.6551184310097
 31
0.0
  0
INSERT
  5
1BFAD
330
15D6B
100
AcDbEntity
  8
30
  6
Continuous
 62
     0
440
 16777216
370
    -2
100
AcDbBlockReference
  2
_OPEN
 10
103.5265338653726
 20
545.6551184310097
 30
0.0
 41
2.0
 42
2.0
 43
2.0
 50
180.0
  0
INSERT
  5
1BFAE
330
15D6B
100
AcDbEntity
  8
30
  6
Continuous
 62
     0
440
 16777216
370
    -2
100
AcDbBlockReference
  2
_OPEN
 10
219.5265338653726
 20
545.6551184310097
 30
0.0
 41
2.0
 42
2.0
 43
2.0
  0
MTEXT
  5
1BFAF
330
15D6B
100
AcDbEntity
  8
30
  6
Continuous
440
 16777216
100
AcDbMText
 10
161.5265338653726
 20
552.6551184310095
 30
0.0
 40
8.0
 41
0.0
 46
0.0
 71
     5
 72
     1
  1
\A1;116
 73
     1
 44
1.0
 90
        3
 63
     9
421
 13158600
 45
1.25
441
        0
  0
POINT
  5
1BFB0
330
15D6B
100
AcDbEntity
  8
DEFPOINTS
  6
Continuous
 62
     0
440
 16777216
100
AcDbPoint
 10
103.5265338653726
 20
570.4938972774822
 30
0.0
  0
POINT
  5
1BFB1
330
15D6B
100
AcDbEntity
  8
DEFPOINTS
  6
Continuous
 62
     0
440
 16777216
100
AcDbPoint
 10
219.5265338653726
 20
570.4938972774822
 30
0.0
  0
POINT
  5
1BFB2
330
15D6B
100
AcDbEntity
  8
DEFPOINTS
  6
Continuous
 62
     0
440
 16777216
100
AcDbPoint
 10
219.5265338653726
 20
545.6551184310097
 30
0.0
  0
ENDBLK
  5
15D6D
330
15D6B
100
AcDbEntity
  8
0
100
AcDbBlockEnd
  0
BLOCK
  5
15D78
330
15D77
100
AcDbEntity
  8
0
100
AcDbBlockBegin
  2
*D25
 70
     1
 10
0.0
 20
0.0
 30
0.0
  3
*D25
  1

  0
LINE
  5
1BFB3
330
15D77
100
AcDbEntity
  8
30
  6
Continuous
 62
     0
440
 16777216
370
    -2
100
AcDbLine
 10
187.0052443708723
 20
660.4938972774822
 30
0.0
 11
187.0052443708723
 21
672.0210103932862
 31
0.0
  0
LINE
  5
1BFB4
330
15D77
100
AcDbEntity
  8
30
  6
Continuous
 62
     0
440
 16777216
370
    -2
100
AcDbLine
 10
136.0265338653726
 20
660.4938972774822
 30
0.0
 11
136.0265338653726
 21
672.0210103932862
 31
0.0
  0
LINE
  5
1BFB5
330
15D77
100
AcDbEntity
  8
30
  6
Continuous
 62
     0
440
 16777216
370
    -2
100
AcDbLine
 10
185.0052443708723
 20
671.5210103932862
 30
0.0
 11
138.0265338653726
 21
671.5210103932862
 31
0.0
  0
INSERT
  5
1BFB6
330
15D77
100
AcDbEntity
  8
30
  6
Continuous
 62
     0
440
 16777216
370
    -2
100
AcDbBlockReference
  2
_OPEN
 10
187.0052443708723
 20
671.5210103932862
 30
0.0
 41
2.0
 42
2.0
 43
2.0
  0
INSERT
  5
1BFB7
330
15D77
100
AcDbEntity
  8
30
  6
Continuous
 62
     0
440
 16777216
370
    -2
100
AcDbBlockReference
  2
_OPEN
 10
136.0265338653726
 20
671.5210103932862
 30
0.0
 41
2.0
 42
2.0
 43
2.0
 50
180.0
  0
MTEXT
  5
1BFB8
330
15D77
100
AcDbEntity
  8
30
  6
Continuous
440
 16777216
100
AcDbMText
 10
161.5158891181224
 20
678.5210103932862
 30
0.0
 40
8.0
 41
0.0
 46
0.0
 71
     5
 72
     1
  1
\A1;51
 73
     1
 44
1.0
 90
        3
 63
     9
421
 13158600
 45
1.25
441
        0
  0
POINT
  5
1BFB9
330
15D77
100
AcDbEntity
  8
DEFPOINTS
  6
Continuous
 62
     0
440
 16777216
100
AcDbPoint
 10
187.0052443708723
 20
659.4938972774822
 30
0.0
  0
POINT
  5
1BFBA
330
15D77
100
AcDbEntity
  8
DEFPOINTS
  6
Continuous
 62
     0
440
 16777216
100
AcDbPoint
 10
136.0265338653726
 20
659.4938972774822
 30
0.0
  0
POINT
  5
1BFBB
330
15D77
100
AcDbEntity
  8
DEFPOINTS
  6
Continuous
 62
     0
440
 16777216
100
AcDbPoint
 10
136.0265338653726
 20
671.5210103932862
 30
0.0
  0
ENDBLK
  5
15D79
330
15D77
100
AcDbEntity
  8
0
100
AcDbBlockEnd
  0
BLOCK
  5
16269
330
16268
100
AcDbEntity
  8
0
100
AcDbBlockBegin
  2
*D26
 70
     1
 10
0.0
 20
0.0
 30
0.0
  3
*D26
  1

  0
LINE
  5
1BFBC
330
16268
100
AcDbEntity
  8
30
  6
Continuous
 62
     0
440
 16777216
370
    -2
100
AcDbLine
 10
552.1598456858654
 20
880.6412387693407
 30
0.0
 11
510.5450423250323
 21
880.6412387693407
 31
0.0
  0
LINE
  5
1BFBD
330
16268
100
AcDbEntity
  8
30
  6
Continuous
 62
     0
440
 16777216
370
    -2
100
AcDbLine
 10
536.159845685866
 20
868.6412387693408
 30
0.0
 11
510.5450423250323
 21
868.6412387693408
 31
0.0
  0
LINE
  5
1BFBE
330
16268
100
AcDbEntity
  8
30
  6
Continuous
 62
     0
440
 16777216
370
    -2
100
AcDbLine
 10
511.0450423250323
 20
878.641238769341
 30
0.0
 11
511.0450423250323
 21
870.641238769341
 31
0.0
  0
INSERT
  5
1BFBF
330
16268
100
AcDbEntity
  8
30
  6
Continuous
 62
     0
440
 16777216
370
    -2
100
AcDbBlockReference
  2
_OPEN
 10
511.0450423250323
 20
880.6412387693407
 30
0.0
 41
2.0
 42
2.0
 43
2.0
 50
90.0
  0
INSERT
  5
1BFC0
330
16268
100
AcDbEntity
  8
30
  6
Continuous
 62
     0
440
 16777216
370
    -2
100
AcDbBlockReference
  2
_OPEN
 10
511.0450423250323
 20
868.6412387693408
 30
0.0
 41
2.0
 42
2.0
 43
2.0
 50
270.0
  0
MTEXT
  5
1BFC1
330
16268
100
AcDbEntity
  8
30
  6
Continuous
440
 16777216
100
AcDbMText
 10
486.7117089916988
 20
874.6412387693411
 30
0.0
 40
8.0
 41
0.0
 46
0.0
 71
     2
 72
     1
  1
\A1;12\P(MAX.)
 11
0.0000000000000001
 21
1.0
 31
0.0
 73
     1
 44
1.0
 90
        3
 63
     9
421
 13158600
 45
1.25
441
        0
  0
POINT
  5
1BFC2
330
16268
100
AcDbEntity
  8
DEFPOINTS
  6
Continuous
 62
     0
440
 16777216
100
AcDbPoint
 10
553.1598456858654
 20
880.6412387693407
 30
0.0
  0
POINT
  5
1BFC3
330
16268
100
AcDbEntity
  8
DEFPOINTS
  6
Continuous
 62
     0
440
 16777216
100
AcDbPoint
 10
537.1598456858658
 20
868.6412387693408
 30
0.0
  0
POINT
  5
1BFC4
330
16268
100
AcDbEntity
  8
DEFPOINTS
  6
Continuous
 62
     0
440
 16777216
100
AcDbPoint
 10
511.0450423250323
 20
868.6412387693408
 30
0.0
  0
ENDBLK
  5
1626A
330
16268
100
AcDbEntity
  8
0
100
AcDbBlockEnd
  0
BLOCK
  5
16275
330
16274
100
AcDbEntity
  8
0
100
AcDbBlockBegin
  2
*D27
 70
     1
 10
0.0
 20
0.0
 30
0.0
  3
*D27
  1

  0
LINE
  5
1BFC5
330
16274
100
AcDbEntity
  8
30
  6
Continuous
 62
     0
440
 16777216
370
    -2
100
AcDbLine
 10
537.1598456858658
 20
867.6412387693408
 30
0.0
 11
537.1598456858658
 21
844.1403063710922
 31
0.0
  0
LINE
  5
1BFC6
330
16274
100
AcDbEntity
  8
30
  6
Continuous
 62
     0
440
 16777216
370
    -2
100
AcDbLine
 10
569.1598456858654
 20
867.6412387693408
 30
0.0
 11
569.1598456858654
 21
844.1403063710922
 31
0.0
  0
LINE
  5
1BFC7
330
16274
100
AcDbEntity
  8
30
  6
Continuous
 62
     0
440
 16777216
370
    -2
100
AcDbLine
 10
539.159845685866
 20
844.6403063710924
 30
0.0
 11
567.1598456858654
 21
844.6403063710924
 31
0.0
  0
LINE
  5
1BFC8
330
16274
100
AcDbEntity
  8
30
  6
Continuous
 62
     0
440
 16777216
370
    -2
100
AcDbLine
 10
569.1598456858654
 20
844.6403063710924
 30
0.0
 11
611.8265123525323
 21
844.6403063710924
 31
0.0
  0
INSERT
  5
1BFC9
330
16274
100
AcDbEntity
  8
30
  6
Continuous
 62
     0
440
 16777216
370
    -2
100
AcDbBlockReference
  2
_OPEN
 10
537.1598456858658
 20
844.6403063710924
 30
0.0
 41
2.0
 42
2.0
 43
2.0
 50
180.0
  0
INSERT
  5
1BFCA
330
16274
100
AcDbEntity
  8
30
  6
Continuous
 62
     0
440
 16777216
370
    -2
100
AcDbBlockReference
  2
_OPEN
 10
569.1598456858654
 20
844.6403063710924
 30
0.0
 41
2.0
 42
2.0
 43
2.0
  0
MTEXT
  5
1BFCB
330
16274
100
AcDbEntity
  8
30
  6
Continuous
440
 16777216
100
AcDbMText
 10
591.493179019199
 20
868.9736397044256
 30
0.0
 40
8.0
 41
0.0
 46
0.0
 71
     2
 72
     1
  1
\A1;32\P(MAX.)
 73
     1
 44
1.0
 90
        3
 63
     9
421
 13158600
 45
1.25
441
        0
  0
POINT
  5
1BFCC
330
16274
100
AcDbEntity
  8
DEFPOINTS
  6
Continuous
 62
     0
440
 16777216
100
AcDbPoint
 10
537.1598456858658
 20
868.6412387693408
 30
0.0
  0
POINT
  5
1BFCD
330
16274
100
AcDbEntity
  8
DEFPOINTS
  6
Continuous
 62
     0
440
 16777216
100
AcDbPoint
 10
569.1598456858654
 20
868.6412387693408
 30
0.0
  0
POINT
  5
1BFCE
330
16274
100
AcDbEntity
  8
DEFPOINTS
  6
Continuous
 62
     0
440
 16777216
100
AcDbPoint
 10
569.1598456858654
 20
844.6403063710924
 30
0.0
  0
ENDBLK
  5
16276
330
16274
100
AcDbEntity
  8
0
100
AcDbBlockEnd
  0
BLOCK
  5
16282
330
16281
100
AcDbEntity
  8
0
100
AcDbBlockBegin
  2
*D28
 70
     1
 10
0.0
 20
0.0
 30
0.0
  3
*D28
  1

  0
LINE
  5
1BFCF
330
16281
100
AcDbEntity
  8
30
  6
Continuous
 62
     0
440
 16777216
370
    -2
100
AcDbLine
 10
550.5299150630038
 20
878.3318092040804
 30
0.0
 11
555.7897763092259
 21
882.9506683346007
 31
0.0
  0
LINE
  5
1BFD0
330
16281
100
AcDbEntity
  8
30
  6
Continuous
 62
     0
440
 16777216
370
    -2
100
AcDbLine
 10
557.2925938081908
 20
884.270342371931
 30
0.0
 11
585.6267567560702
 21
909.1515133973942
 31
0.0
  0
LINE
  5
1BFD1
330
16281
100
AcDbEntity
  8
30
  6
Continuous
 62
     0
440
 16777216
370
    -2
100
AcDbLine
 10
585.6267567560702
 20
909.1515133973942
 30
0.0
 11
604.62675675607
 21
909.1515133973942
 31
0.0
  0
INSERT
  5
1BFD2
330
16281
100
AcDbEntity
  8
30
  6
Continuous
 62
     0
440
 16777216
370
    -2
100
AcDbBlockReference
  2
_OPEN
 10
549.0270975640387
 20
877.01213516675
 30
0.0
 41
2.0
 42
2.0
 43
2.0
 50
221.28744409404
  0
INSERT
  5
1BFD3
330
16281
100
AcDbEntity
  8
30
  6
Continuous
 62
     0
440
 16777216
370
    -2
100
AcDbBlockReference
  2
_OPEN
 10
557.2925938081908
 20
884.270342371931
 30
0.0
 41
2.0
 42
2.0
 43
2.0
 50
41.28744409403998
  0
MTEXT
  5
1BFD4
330
16281
100
AcDbEntity
  8
30
  6
Continuous
 62
     0
440
 16777216
100
AcDbMText
 10
588.6267567560699
 20
920.1515133973943
 30
0.0
 40
8.0
 41
0.0
 46
0.0
 71
     1
 72
     1
  1
\A1;∅11
 73
     1
 44
1.0
  0
POINT
  5
1BFD5
330
16281
100
AcDbEntity
  8
DEFPOINTS
  6
Continuous
 62
     0
440
 16777216
100
AcDbPoint
 10
557.2925938081908
 20
884.270342371931
 30
0.0
  0
POINT
  5
1BFD6
330
16281
100
AcDbEntity
  8
DEFPOINTS
  6
Continuous
 62
     0
440
 16777216
100
AcDbPoint
 10
549.0270975640387
 20
877.01213516675
 30
0.0
  0
ENDBLK
  5
16283
330
16281
100
AcDbEntity
  8
0
100
AcDbBlockEnd
  0
BLOCK
  5
1674E
330
1674D
100
AcDbEntity
  8
0
100
AcDbBlockBegin
  2
*D29
 70
     1
 10
0.0
 20
0.0
 30
0.0
  3
*D29
  1

  0
LINE
  5
1C19D
330
1674D
100
AcDbEntity
  8
30
  6
Continuous
 62
     0
440
 16777216
370
    -2
100
AcDbLine
 10
436.6347326503375
 20
619.8588917285409
 30
0.0
 11
436.6347326503375
 21
360.6039888641076
 31
0.0
  0
LINE
  5
1C19E
330
1674D
100
AcDbEntity
  8
30
  6
Continuous
 62
     0
440
 16777216
370
    -2
100
AcDbLine
 10
566.6347326503378
 20
484.4938972774825
 30
0.0
 11
566.6347326503378
 21
360.6039888641076
 31
0.0
  0
LINE
  5
1C19F
330
1674D
100
AcDbEntity
  8
30
  6
Continuous
 62
     0
440
 16777216
370
    -2
100
AcDbLine
 10
438.6347326503376
 20
361.1039888641076
 30
0.0
 11
564.6347326503378
 21
361.1039888641076
 31
0.0
  0
INSERT
  5
1C1A0
330
1674D
100
AcDbEntity
  8
30
  6
Continuous
 62
     0
440
 16777216
370
    -2
100
AcDbBlockReference
  2
_OPEN
 10
436.6347326503375
 20
361.1039888641076
 30
0.0
 41
2.0
 42
2.0
 43
2.0
 50
180.0
  0
INSERT
  5
1C1A1
330
1674D
100
AcDbEntity
  8
30
  6
Continuous
 62
     0
440
 16777216
370
    -2
100
AcDbBlockReference
  2
_OPEN
 10
566.6347326503378
 20
361.1039888641076
 30
0.0
 41
2.0
 42
2.0
 43
2.0
  0
MTEXT
  5
1C1A2
330
1674D
100
AcDbEntity
  8
30
  6
Continuous
440
 16777216
100
AcDbMText
 10
501.6347326503376
 20
372.1039888641076
 30
0.0
 40
8.0
 41
0.0
 46
0.0
 71
     2
 72
     1
  1
\A1;130
 73
     1
 44
1.0
 90
        3
 63
     9
421
 13158600
 45
1.25
441
        0
  0
POINT
  5
1C1A3
330
1674D
100
AcDbEntity
  8
DEFPOINTS
  6
Continuous
 62
     0
440
 16777216
100
AcDbPoint
 10
436.6347326503375
 20
620.8588917285409
 30
0.0
  0
POINT
  5
1C1A4
330
1674D
100
AcDbEntity
  8
DEFPOINTS
  6
Continuous
 62
     0
440
 16777216
100
AcDbPoint
 10
566.6347326503378
 20
485.4938972774824
 30
0.0
  0
POINT
  5
1C1A5
330
1674D
100
AcDbEntity
  8
DEFPOINTS
  6
Continuous
 62
     0
440
 16777216
100
AcDbPoint
 10
566.6347326503378
 20
361.1039888641076
 30
0.0
  0
ENDBLK
  5
1674F
330
1674D
100
AcDbEntity
  8
0
100
AcDbBlockEnd
  0
BLOCK
  5
1675A
330
16759
100
AcDbEntity
  8
0
100
AcDbBlockBegin
  2
*D30
 70
     1
 10
0.0
 20
0.0
 30
0.0
  3
*D30
  1

  0
LINE
  5
1C1A6
330
16759
100
AcDbEntity
  8
30
  6
Continuous
 62
     0
440
 16777216
370
    -2
100
AcDbLine
 10
566.6347326503378
 20
483.9938972774824
 30
0.0
 11
566.6347326503378
 21
409.8592193879983
 31
0.0
  0
LINE
  5
1C1A7
330
16759
100
AcDbEntity
  8
30
  6
Continuous
 62
     0
440
 16777216
370
    -2
100
AcDbLine
 10
581.3347326503376
 20
506.2929099618108
 30
0.0
 11
581.3347326503376
 21
409.8592193879983
 31
0.0
  0
LINE
  5
1C1A8
330
16759
100
AcDbEntity
  8
30
  6
Continuous
 62
     0
440
 16777216
370
    -2
100
AcDbLine
 10
568.6347326503378
 20
410.3592193879983
 30
0.0
 11
579.3347326503376
 21
410.3592193879983
 31
0.0
  0
LINE
  5
1C1A9
330
16759
100
AcDbEntity
  8
30
  6
Continuous
 62
     0
440
 16777216
370
    -2
100
AcDbLine
 10
581.3347326503376
 20
410.3592193879983
 30
0.0
 11
622.4612858200046
 21
410.3592193879983
 31
0.0
  0
INSERT
  5
1C1AA
330
16759
100
AcDbEntity
  8
30
  6
Continuous
 62
     0
440
 16777216
370
    -2
100
AcDbBlockReference
  2
_OPEN
 10
566.6347326503378
 20
410.3592193879983
 30
0.0
 41
2.0
 42
2.0
 43
2.0
 50
180.0
  0
INSERT
  5
1C1AB
330
16759
100
AcDbEntity
  8
30
  6
Continuous
 62
     0
440
 16777216
370
    -2
100
AcDbBlockReference
  2
_OPEN
 10
581.3347326503376
 20
410.3592193879983
 30
0.0
 41
2.0
 42
2.0
 43
2.0
  0
MTEXT
  5
1C1AC
330
16759
100
AcDbEntity
  8
30
  6
Continuous
440
 16777216
100
AcDbMText
 10
608.7946191533379
 20
421.3592193879985
 30
0.0
 40
8.0
 41
0.0
 46
0.0
 71
     2
 72
     1
  1
\A1;14.7
 73
     1
 44
1.0
 90
        3
 63
     9
421
 13158600
 45
1.25
441
        0
  0
POINT
  5
1C1AD
330
16759
100
AcDbEntity
  8
DEFPOINTS
  6
Continuous
 62
     0
440
 16777216
100
AcDbPoint
 10
566.6347326503378
 20
484.9938972774824
 30
0.0
  0
POINT
  5
1C1AE
330
16759
100
AcDbEntity
  8
DEFPOINTS
  6
Continuous
 62
     0
440
 16777216
100
AcDbPoint
 10
581.3347326503376
 20
507.292909961811
 30
0.0
  0
POINT
  5
1C1AF
330
16759
100
AcDbEntity
  8
DEFPOINTS
  6
Continuous
 62
     0
440
 16777216
100
AcDbPoint
 10
581.3347326503376
 20
410.3592193879983
 30
0.0
  0
ENDBLK
  5
1675B
330
16759
100
AcDbEntity
  8
0
100
AcDbBlockEnd
  0
BLOCK
  5
16767
330
16766
100
AcDbEntity
  8
0
100
AcDbBlockBegin
  2
*D31
 70
     1
 10
0.0
 20
0.0
 30
0.0
  3
*D31
  1

  0
LINE
  5
1C1B0
330
16766
100
AcDbEntity
  8
30
  6
Continuous
 62
     0
440
 16777216
370
    -2
100
AcDbLine
 10
463.6347326503376
 20
519.8194475888863
 30
0.0
 11
463.6347326503376
 21
392.6440624894249
 31
0.0
  0
LINE
  5
1C1B1
330
16766
100
AcDbEntity
  8
30
  6
Continuous
 62
     0
440
 16777216
370
    -2
100
AcDbLine
 10
566.6347326503378
 20
484.4938972774825
 30
0.0
 11
566.6347326503378
 21
392.6440624894249
 31
0.0
  0
LINE
  5
1C1B2
330
16766
100
AcDbEntity
  8
30
  6
Continuous
 62
     0
440
 16777216
370
    -2
100
AcDbLine
 10
465.6347326503378
 20
393.1440624894248
 30
0.0
 11
564.6347326503378
 21
393.1440624894248
 31
0.0
  0
INSERT
  5
1C1B3
330
16766
100
AcDbEntity
  8
30
  6
Continuous
 62
     0
440
 16777216
370
    -2
100
AcDbBlockReference
  2
_OPEN
 10
463.6347326503376
 20
393.1440624894248
 30
0.0
 41
2.0
 42
2.0
 43
2.0
 50
180.0
  0
INSERT
  5
1C1B4
330
16766
100
AcDbEntity
  8
30
  6
Continuous
 62
     0
440
 16777216
370
    -2
100
AcDbBlockReference
  2
_OPEN
 10
566.6347326503378
 20
393.1440624894248
 30
0.0
 41
2.0
 42
2.0
 43
2.0
  0
MTEXT
  5
1C1B5
330
16766
100
AcDbEntity
  8
30
  6
Continuous
440
 16777216
100
AcDbMText
 10
515.1347326503374
 20
404.1440624894248
 30
0.0
 40
8.0
 41
0.0
 46
0.0
 71
     2
 72
     1
  1
\A1;103
 73
     1
 44
1.0
 90
        3
 63
     9
421
 13158600
 45
1.25
441
        0
  0
POINT
  5
1C1B6
330
16766
100
AcDbEntity
  8
DEFPOINTS
  6
Continuous
 62
     0
440
 16777216
100
AcDbPoint
 10
463.6347326503376
 20
520.8194475888863
 30
0.0
  0
POINT
  5
1C1B7
330
16766
100
AcDbEntity
  8
DEFPOINTS
  6
Continuous
 62
     0
440
 16777216
100
AcDbPoint
 10
566.6347326503378
 20
485.4938972774824
 30
0.0
  0
POINT
  5
1C1B8
330
16766
100
AcDbEntity
  8
DEFPOINTS
  6
Continuous
 62
     0
440
 16777216
100
AcDbPoint
 10
566.6347326503378
 20
393.1440624894248
 30
0.0
  0
ENDBLK
  5
16768
330
16766
100
AcDbEntity
  8
0
100
AcDbBlockEnd
  0
BLOCK
  5
16773
330
16772
100
AcDbEntity
  8
0
100
AcDbBlockBegin
  2
*D32
 70
     1
 10
0.0
 20
0.0
 30
0.0
  3
*D32
  1

  0
LINE
  5
1C1B9
330
16772
100
AcDbEntity
  8
30
  6
Continuous
 62
     0
440
 16777216
370
    -2
100
AcDbLine
 10
469.6347326503378
 20
484.4938972774825
 30
0.0
 11
469.6347326503378
 21
409.8907282646828
 31
0.0
  0
LINE
  5
1C1BA
330
16772
100
AcDbEntity
  8
30
  6
Continuous
 62
     0
440
 16777216
370
    -2
100
AcDbLine
 10
566.6347326503378
 20
484.4938972774825
 30
0.0
 11
566.6347326503378
 21
409.8907282646828
 31
0.0
  0
LINE
  5
1C1BB
330
16772
100
AcDbEntity
  8
30
  6
Continuous
 62
     0
440
 16777216
370
    -2
100
AcDbLine
 10
471.6347326503377
 20
410.3907282646828
 30
0.0
 11
564.6347326503378
 21
410.3907282646828
 31
0.0
  0
INSERT
  5
1C1BC
330
16772
100
AcDbEntity
  8
30
  6
Continuous
 62
     0
440
 16777216
370
    -2
100
AcDbBlockReference
  2
_OPEN
 10
469.6347326503378
 20
410.3907282646828
 30
0.0
 41
2.0
 42
2.0
 43
2.0
 50
180.0
  0
INSERT
  5
1C1BD
330
16772
100
AcDbEntity
  8
30
  6
Continuous
 62
     0
440
 16777216
370
    -2
100
AcDbBlockReference
  2
_OPEN
 10
566.6347326503378
 20
410.3907282646828
 30
0.0
 41
2.0
 42
2.0
 43
2.0
  0
MTEXT
  5
1C1BE
330
16772
100
AcDbEntity
  8
30
  6
Continuous
440
 16777216
100
AcDbMText
 10
518.1347326503376
 20
421.3907282646828
 30
0.0
 40
8.0
 41
0.0
 46
0.0
 71
     2
 72
     1
  1
\A1;97
 73
     1
 44
1.0
 90
        3
 63
     9
421
 13158600
 45
1.25
441
        0
  0
POINT
  5
1C1BF
330
16772
100
AcDbEntity
  8
DEFPOINTS
  6
Continuous
 62
     0
440
 16777216
100
AcDbPoint
 10
469.6347326503378
 20
485.4938972774824
 30
0.0
  0
POINT
  5
1C1C0
330
16772
100
AcDbEntity
  8
DEFPOINTS
  6
Continuous
 62
     0
440
 16777216
100
AcDbPoint
 10
566.6347326503378
 20
485.4938972774824
 30
0.0
  0
POINT
  5
1C1C1
330
16772
100
AcDbEntity
  8
DEFPOINTS
  6
Continuous
 62
     0
440
 16777216
100
AcDbPoint
 10
566.6347326503378
 20
410.3907282646828
 30
0.0
  0
ENDBLK
  5
16774
330
16772
100
AcDbEntity
  8
0
100
AcDbBlockEnd
  0
BLOCK
  5
1677F
330
1677E
100
AcDbEntity
  8
0
100
AcDbBlockBegin
  2
*D33
 70
     1
 10
0.0
 20
0.0
 30
0.0
  3
*D33
  1

  0
LINE
  5
1C1C2
330
1677E
100
AcDbEntity
  8
30
  6
Continuous
 62
     0
440
 16777216
370
    -2
100
AcDbLine
 10
415.6412368808226
 20
628.3025728199486
 30
0.0
 11
415.6412368808226
 21
343.2799175383352
 31
0.0
  0
LINE
  5
1C1C3
330
1677E
100
AcDbEntity
  8
30
  6
Continuous
 62
     0
440
 16777216
370
    -2
100
AcDbLine
 10
566.6347326503378
 20
359.6039888641076
 30
0.0
 11
566.6347326503378
 21
343.2799175383352
 31
0.0
  0
LINE
  5
1C1C4
330
1677E
100
AcDbEntity
  8
30
  6
Continuous
 62
     0
440
 16777216
370
    -2
100
AcDbLine
 10
417.6412368808225
 20
343.7799175383352
 30
0.0
 11
564.6347326503378
 21
343.7799175383352
 31
0.0
  0
INSERT
  5
1C1C5
330
1677E
100
AcDbEntity
  8
30
  6
Continuous
 62
     0
440
 16777216
370
    -2
100
AcDbBlockReference
  2
_OPEN
 10
415.6412368808226
 20
343.7799175383352
 30
0.0
 41
2.0
 42
2.0
 43
2.0
 50
180.0
  0
INSERT
  5
1C1C6
330
1677E
100
AcDbEntity
  8
30
  6
Continuous
 62
     0
440
 16777216
370
    -2
100
AcDbBlockReference
  2
_OPEN
 10
566.6347326503378
 20
343.7799175383352
 30
0.0
 41
2.0
 42
2.0
 43
2.0
  0
MTEXT
  5
1C1C7
330
1677E
100
AcDbEntity
  8
30
  6
Continuous
440
 16777216
100
AcDbMText
 10
491.1379847655801
 20
350.7799175383352
 30
0.0
 40
8.0
 41
0.0
 46
0.0
 71
     5
 72
     1
  1
\A1;151
 73
     1
 44
1.0
 90
        3
 63
     9
421
 13158600
 45
1.25
441
        0
  0
POINT
  5
1C1C8
330
1677E
100
AcDbEntity
  8
DEFPOINTS
  6
Continuous
 62
     0
440
 16777216
100
AcDbPoint
 10
415.6412368808226
 20
629.3025728199486
 30
0.0
  0
POINT
  5
1C1C9
330
1677E
100
AcDbEntity
  8
DEFPOINTS
  6
Continuous
 62
     0
440
 16777216
100
AcDbPoint
 10
566.6347326503378
 20
360.6039888641076
 30
0.0
  0
POINT
  5
1C1CA
330
1677E
100
AcDbEntity
  8
DEFPOINTS
  6
Continuous
 62
     0
440
 16777216
100
AcDbPoint
 10
566.6347326503378
 20
343.7799175383352
 30
0.0
  0
ENDBLK
  5
16780
330
1677E
100
AcDbEntity
  8
0
100
AcDbBlockEnd
  0
BLOCK
  5
1678B
330
1678A
100
AcDbEntity
  8
0
100
AcDbBlockBegin
  2
*D34
 70
     1
 10
0.0
 20
0.0
 30
0.0
  3
*D34
  1

  0
LINE
  5
1C1CB
330
1678A
100
AcDbEntity
  8
30
  6
Continuous
 62
     0
440
 16777216
370
    -2
100
AcDbLine
 10
459.6347325313376
 20
566.9915552563112
 30
0.0
 11
459.6347325313376
 21
376.4045816011499
 31
0.0
  0
LINE
  5
1C1CC
330
1678A
100
AcDbEntity
  8
30
  6
Continuous
 62
     0
440
 16777216
370
    -2
100
AcDbLine
 10
451.6347325313376
 20
569.9915552563112
 30
0.0
 11
451.6347325313376
 21
376.4045816011499
 31
0.0
  0
LINE
  5
1C1CD
330
1678A
100
AcDbEntity
  8
30
  6
Continuous
 62
     0
440
 16777216
370
    -2
100
AcDbLine
 10
461.6347325313376
 20
376.9045816011499
 30
0.0
 11
463.6347325313376
 21
376.9045816011499
 31
0.0
  0
LINE
  5
1C1CE
330
1678A
100
AcDbEntity
  8
30
  6
Continuous
 62
     0
440
 16777216
370
    -2
100
AcDbLine
 10
449.6347325313376
 20
376.9045816011499
 30
0.0
 11
436.3013991980044
 21
376.9045816011499
 31
0.0
  0
LINE
  5
1C1CF
330
1678A
100
AcDbEntity
  8
30
  6
Continuous
 62
     0
440
 16777216
370
    -2
100
AcDbLine
 10
459.6347325313376
 20
376.9045816011499
 30
0.0
 11
451.6347325313376
 21
376.9045816011499
 31
0.0
  0
INSERT
  5
1C1D0
330
1678A
100
AcDbEntity
  8
30
  6
Continuous
 62
     0
440
 16777216
370
    -2
100
AcDbBlockReference
  2
_OPEN
 10
459.6347325313376
 20
376.9045816011499
 30
0.0
 41
2.0
 42
2.0
 43
2.0
 50
180.0
  0
INSERT
  5
1C1D1
330
1678A
100
AcDbEntity
  8
30
  6
Continuous
 62
     0
440
 16777216
370
    -2
100
AcDbBlockReference
  2
_OPEN
 10
451.6347325313376
 20
376.9045816011499
 30
0.0
 41
2.0
 42
2.0
 43
2.0
  0
MTEXT
  5
1C1D2
330
1678A
100
AcDbEntity
  8
30
  6
Continuous
 62
     0
440
 16777216
100
AcDbMText
 10
441.968065864671
 20
383.9045816011499
 30
0.0
 40
8.0
 41
0.0
 46
0.0
 71
     5
 72
     1
  1
\A1;8
 73
     1
 44
1.0
  0
POINT
  5
1C1D3
330
1678A
100
AcDbEntity
  8
DEFPOINTS
  6
Continuous
 62
     0
440
 16777216
100
AcDbPoint
 10
459.6347325313376
 20
569.9915552563112
 30
0.0
  0
POINT
  5
1C1D4
330
1678A
100
AcDbEntity
  8
DEFPOINTS
  6
Continuous
 62
     0
440
 16777216
100
AcDbPoint
 10
451.6347325313376
 20
572.9915552563112
 30
0.0
  0
POINT
  5
1C1D5
330
1678A
100
AcDbEntity
  8
DEFPOINTS
  6
Continuous
 62
     0
440
 16777216
100
AcDbPoint
 10
451.6347325313376
 20
376.9045816011499
 30
0.0
  0
ENDBLK
  5
1678C
330
1678A
100
AcDbEntity
  8
0
100
AcDbBlockEnd
  0
BLOCK
  5
16799
330
16798
100
AcDbEntity
  8
0
100
AcDbBlockBegin
  2
*D35
 70
     1
 10
0.0
 20
0.0
 30
0.0
  3
*D35
  1

  0
LINE
  5
1C1D6
330
16798
100
AcDbEntity
  8
30
  6
Continuous
 62
     0
440
 16777216
370
    -2
100
AcDbLine
 10
459.6347325313376
 20
377.9045816011499
 30
0.0
 11
459.6347325313376
 21
377.4045816011498
 31
0.0
  0
LINE
  5
1C1D7
330
16798
100
AcDbEntity
  8
30
  6
Continuous
 62
     0
440
 16777216
370
    -2
100
AcDbLine
 10
566.6347326503378
 20
392.1440624894249
 30
0.0
 11
566.6347326503378
 21
376.4045816011499
 31
0.0
  0
LINE
  5
1C1D8
330
16798
100
AcDbEntity
  8
30
  6
Continuous
 62
     0
440
 16777216
370
    -2
100
AcDbLine
 10
461.6347325313376
 20
376.9045816011499
 30
0.0
 11
564.6347326503378
 21
376.9045816011499
 31
0.0
  0
INSERT
  5
1C1D9
330
16798
100
AcDbEntity
  8
30
  6
Continuous
 62
     0
440
 16777216
370
    -2
100
AcDbBlockReference
  2
_OPEN
 10
459.6347325313376
 20
376.9045816011499
 30
0.0
 41
2.0
 42
2.0
 43
2.0
 50
180.0
  0
INSERT
  5
1C1DA
330
16798
100
AcDbEntity
  8
30
  6
Continuous
 62
     0
440
 16777216
370
    -2
100
AcDbBlockReference
  2
_OPEN
 10
566.6347326503378
 20
376.9045816011499
 30
0.0
 41
2.0
 42
2.0
 43
2.0
  0
MTEXT
  5
1C1DB
330
16798
100
AcDbEntity
  8
30
  6
Continuous
440
 16777216
100
AcDbMText
 10
513.1347325908377
 20
383.9045816011499
 30
0.0
 40
8.0
 41
0.0
 46
0.0
 71
     5
 72
     1
  1
\A1;107
 73
     1
 44
1.0
 90
        3
 63
     9
421
 13158600
 45
1.25
441
        0
  0
POINT
  5
1C1DC
330
16798
100
AcDbEntity
  8
DEFPOINTS
  6
Continuous
 62
     0
440
 16777216
100
AcDbPoint
 10
459.6347325313376
 20
376.9045816011499
 30
0.0
  0
POINT
  5
1C1DD
330
16798
100
AcDbEntity
  8
DEFPOINTS
  6
Continuous
 62
     0
440
 16777216
100
AcDbPoint
 10
566.6347326503378
 20
393.1440624894248
 30
0.0
  0
POINT
  5
1C1DE
330
16798
100
AcDbEntity
  8
DEFPOINTS
  6
Continuous
 62
     0
440
 16777216
100
AcDbPoint
 10
566.6347326503378
 20
376.9045816011499
 30
0.0
  0
ENDBLK
  5
1679A
330
16798
100
AcDbEntity
  8
0
100
AcDbBlockEnd
  0
BLOCK
  5
16973
330
16972
100
AcDbEntity
  8
0
100
AcDbBlockBegin
  2
_DOT
 70
     0
 10
0.0
 20
0.0
 30
0.0
  3
_DOT
  1
_DOT
  0
POLYLINE
  5
16974
330
16972
100
AcDbEntity
  8
0
  6
ByBlock
 62
     0
100
AcDb2dPolyline
 66
     1
 10
0.0
 20
0.0
 30
0.0
 70
     1
 40
0.5
 41
0.5
  0
VERTEX
  5
16975
330
16974
100
AcDbEntity
  8
0
  6
ByBlock
 62
     0
100
AcDbVertex
100
AcDb2dVertex
 10
-0.25
 20
0.0
 30
0.0
 42
1.0
  0
VERTEX
  5
16976
330
16974
100
AcDbEntity
  8
0
  6
ByBlock
 62
     0
100
AcDbVertex
100
AcDb2dVertex
 10
0.25
 20
0.0
 30
0.0
 42
1.0
  0
SEQEND
  5
16977
330
16974
100
AcDbEntity
  8
0
  6
ByBlock
 62
     0
  0
LINE
  5
16978
330
16972
100
AcDbEntity
  8
0
  6
ByBlock
 62
     0
370
    -2
100
AcDbLine
 10
-0.5
 20
0.0
 30
0.0
 11
-1.0
 21
0.0
 31
0.0
  0
ENDBLK
  5
16979
330
16972
100
AcDbEntity
  8
0
100
AcDbBlockEnd
  0
BLOCK
  5
1697B
330
1697A
100
AcDbEntity
  8
0
100
AcDbBlockBegin
  2
SW_CENTERMARKSYMBOL_54
 70
     0
 10
0.0
 20
0.0
 30
0.0
  3
SW_CENTERMARKSYMBOL_54
  1
SW_CENTERMARKSYMBOL_54
  0
LINE
  5
1697C
330
1697A
100
AcDbEntity
  8
SLD-0
 62
     0
100
AcDbLine
 10
0.0
 20
0.0
 30
0.0
 11
0.0
 21
1.25
 31
0.0
  0
LINE
  5
1697D
330
1697A
100
AcDbEntity
  8
SLD-0
 62
     0
100
AcDbLine
 10
0.0
 20
0.0
 30
0.0
 11
-1.25
 21
0.0
 31
0.0
  0
LINE
  5
1697E
330
1697A
100
AcDbEntity
  8
SLD-0
 62
     0
100
AcDbLine
 10
0.0
 20
0.0
 30
0.0
 11
0.0
 21
-1.25
 31
0.0
  0
LINE
  5
1697F
330
1697A
100
AcDbEntity
  8
SLD-0
 62
     0
100
AcDbLine
 10
0.0
 20
0.0
 30
0.0
 11
1.25
 21
0.0
 31
0.0
  0
LINE
  5
16980
330
1697A
100
AcDbEntity
  8
SLD-0
 62
     0
100
AcDbLine
 10
0.0
 20
2.5
 30
0.0
 11
0.0
 21
2.75
 31
0.0
  0
LINE
  5
16981
330
1697A
100
AcDbEntity
  8
SLD-0
 62
     0
100
AcDbLine
 10
-2.5
 20
0.0
 30
0.0
 11
-2.75
 21
0.0
 31
0.0
  0
LINE
  5
16982
330
1697A
100
AcDbEntity
  8
SLD-0
 62
     0
100
AcDbLine
 10
0.0
 20
-2.5
 30
0.0
 11
0.0
 21
-2.75
 31
0.0
  0
LINE
  5
16983
330
1697A
100
AcDbEntity
  8
SLD-0
 62
     0
100
AcDbLine
 10
2.5
 20
0.0
 30
0.0
 11
2.75
 21
0.0
 31
0.0
  0
ENDBLK
  5
16984
330
1697A
100
AcDbEntity
  8
0
100
AcDbBlockEnd
  0
BLOCK
  5
16986
330
16985
100
AcDbEntity
  8
0
100
AcDbBlockBegin
  2
SW_CENTERMARKSYMBOL_55
 70
     0
 10
0.0
 20
0.0
 30
0.0
  3
SW_CENTERMARKSYMBOL_55
  1
SW_CENTERMARKSYMBOL_55
  0
LINE
  5
16987
330
16985
100
AcDbEntity
  8
SLD-0
 62
     0
100
AcDbLine
 10
0.0
 20
0.0
 30
0.0
 11
0.0
 21
1.25
 31
0.0
  0
LINE
  5
16988
330
16985
100
AcDbEntity
  8
SLD-0
 62
     0
100
AcDbLine
 10
0.0
 20
0.0
 30
0.0
 11
-1.25
 21
0.0
 31
0.0
  0
LINE
  5
16989
330
16985
100
AcDbEntity
  8
SLD-0
 62
     0
100
AcDbLine
 10
0.0
 20
0.0
 30
0.0
 11
0.0
 21
-1.25
 31
0.0
  0
LINE
  5
1698A
330
16985
100
AcDbEntity
  8
SLD-0
 62
     0
100
AcDbLine
 10
0.0
 20
0.0
 30
0.0
 11
1.25
 21
0.0
 31
0.0
  0
LINE
  5
1698B
330
16985
100
AcDbEntity
  8
SLD-0
 62
     0
100
AcDbLine
 10
0.0
 20
2.5
 30
0.0
 11
0.0
 21
2.75
 31
0.0
  0
LINE
  5
1698C
330
16985
100
AcDbEntity
  8
SLD-0
 62
     0
100
AcDbLine
 10
-2.5
 20
0.0
 30
0.0
 11
-2.75
 21
0.0
 31
0.0
  0
LINE
  5
1698D
330
16985
100
AcDbEntity
  8
SLD-0
 62
     0
100
AcDbLine
 10
0.0
 20
-2.5
 30
0.0
 11
0.0
 21
-2.75
 31
0.0
  0
LINE
  5
1698E
330
16985
100
AcDbEntity
  8
SLD-0
 62
     0
100
AcDbLine
 10
2.5
 20
0.0
 30
0.0
 11
2.75
 21
0.0
 31
0.0
  0
ENDBLK
  5
1698F
330
16985
100
AcDbEntity
  8
0
100
AcDbBlockEnd
  0
BLOCK
  5
16993
330
16990
100
AcDbEntity
  8
0
100
AcDbBlockBegin
  2
m5screw1
 70
     0
 10
0.0
 20
0.0
 30
0.0
  3
m5screw1
  1

  0
LINE
  5
16994
330
16990
100
AcDbEntity
  8
0
  6
SLD-実線
370
    15
100
AcDbLine
 10
15.50000160939999
 20
-2.499999478499999
 30
0.0
 11
16.00000262259982
 21
-1.999998465300049
 31
0.0
  0
LINE
  5
16995
330
16990
100
AcDbEntity
  8
0
  6
SLD-実線
370
    15
100
AcDbLine
 10
16.00000262259982
 20
2.000002190499968
 30
0.0
 11
15.50000160939999
 21
2.499999478499999
 31
0.0
  0
LINE
  5
16996
330
16990
100
AcDbEntity
  8
0
  6
SLD-実線
370
    15
100
AcDbLine
 10
0.0
 20
-2.499999478499999
 30
0.0
 11
3.199998289399898
 21
-2.499999478499999
 31
0.0
  0
LINE
  5
16997
330
16990
100
AcDbEntity
  8
0
  6
SLD-実線
370
    15
100
AcDbLine
 10
9.199999272799914
 20
-2.499999478499999
 30
0.0
 11
15.50000160939999
 21
-2.499999478499999
 31
0.0
  0
LINE
  5
16998
330
16990
100
AcDbEntity
  8
0
  6
SLD-実線
370
    15
100
AcDbLine
 10
15.50000160939999
 20
2.499999478499999
 30
0.0
 11
9.199999272799914
 21
2.499999478499999
 31
0.0
  0
LINE
  5
16999
330
16990
100
AcDbEntity
  8
0
  6
SLD-実線
370
    15
100
AcDbLine
 10
3.199998289399898
 20
2.499999478499999
 30
0.0
 11
0.0
 21
2.499999478499999
 31
0.0
  0
ARC
  5
1699A
330
16990
100
AcDbEntity
  8
0
  6
SLD-実線
370
    15
100
AcDbCircle
 10
4.324999582799819
 20
-4.424999627499971
 30
0.0
 40
0.1750000000001818
100
AcDbArc
 50
270.0
 51
0.0
  0
ARC
  5
1699B
330
16990
100
AcDbEntity
  8
0
  6
SLD-実線
370
    15
100
AcDbCircle
 10
4.324999582799819
 20
4.425000372499936
 30
0.0
 40
0.1750000000001818
100
AcDbArc
 50
0.0
 51
90.0
  0
LINE
  5
1699C
330
16990
100
AcDbEntity
  8
0
  6
SLD-実線
370
    15
100
AcDbLine
 10
3.375001251599996
 20
-4.599997773699953
 30
0.0
 11
4.324998706599896
 21
-4.599997773699953
 31
0.0
  0
LINE
  5
1699D
330
16990
100
AcDbEntity
  8
0
  6
SLD-実線
370
    15
100
AcDbLine
 10
4.324998706599896
 20
4.600001499100073
 30
0.0
 11
3.375001251599996
 21
4.600001499100073
 31
0.0
  0
ARC
  5
1699E
330
16990
100
AcDbEntity
  8
0
  6
SLD-実線
370
    15
100
AcDbCircle
 10
3.374999582799773
 20
-4.424999627499971
 30
0.0
 40
0.1750000000000682
100
AcDbArc
 50
180.0
 51
270.0
  0
ARC
  5
1699F
330
16990
100
AcDbEntity
  8
0
  6
SLD-実線
370
    15
100
AcDbCircle
 10
3.374999582799773
 20
4.425000372499936
 30
0.0
 40
0.1749999999999546
100
AcDbArc
 50
90.0
 51
180.0
  0
LINE
  5
169A0
330
16990
100
AcDbEntity
  8
0
  6
SLD-実線
370
    15
100
AcDbLine
 10
15.50000160939999
 20
-2.499999478499999
 30
0.0
 11
15.50000160939999
 21
2.499999478499999
 31
0.0
  0
LINE
  5
169A1
330
16990
100
AcDbEntity
  8
0
  6
SLD-実線
370
    15
100
AcDbLine
 10
16.00000262259982
 20
2.000002190499968
 30
0.0
 11
16.00000262259982
 21
-1.999998465300049
 31
0.0
  0
LINE
  5
169A2
330
16990
100
AcDbEntity
  8
0
  6
SLD-実線
370
    15
100
AcDbLine
 10
9.199999272799914
 20
2.000002190499968
 30
0.0
 11
9.199999272799914
 21
-1.999998465300049
 31
0.0
  0
SPLINE
  5
169A3
330
16990
100
AcDbEntity
  8
0
  6
SLD-実線
370
    15
100
AcDbSpline
210
0.0
220
0.0
230
1.0
 70
     8
 71
     3
 72
     9
 73
     5
 74
     0
 42
0.000000001
 43
0.0000000001
 40
0.0
 40
0.0
 40
0.0
 40
0.0
 40
0.6771006943045183
 40
1.0
 40
1.0
 40
1.0
 40
1.0
 10
9.199999272808099
 20
-1.999998465204214
 30
0.0
 10
9.179040304209593
 20
-1.56778935288372
 30
0.0
 10
9.148086313503654
 20
-0.9294661079722461
 30
0.0
 10
9.011308131972782
 20
-0.3024597483417324
 30
0.0
 10
8.96714255212214
 20
-0.0999998301505798
 30
0.0
  0
SPLINE
  5
169A4
330
16990
100
AcDbEntity
  8
0
  6
SLD-実線
370
    15
100
AcDbSpline
210
0.0
220
0.0
230
1.0
 70
     8
 71
     3
 72
    11
 73
     7
 74
     0
 42
0.000000001
 43
0.0000000001
 40
0.0
 40
0.0
 40
0.0
 40
0.0
 40
0.3033008138334113
 40
0.6069089828308042
 40
0.9049150680745647
 40
1.0
 40
1.0
 40
1.0
 40
1.0
 10
8.96714255212214
 20
0.099999830102945
 30
0.0
 10
8.963614850737712
 20
0.080806419733392
 30
0.0
 10
8.956555873111936
 20
0.0424001490176238
 30
0.0
 10
8.95576945176549
 20
-0.0226580828731926
 30
0.0
 10
8.960809023061527
 20
-0.0704117374939983
 30
0.0
 10
8.965908933012542
 20
-0.0942367814356544
 30
0.0
 10
8.96714255212214
 20
-0.0999998301505798
 30
0.0
  0
LINE
  5
169A5
330
16990
100
AcDbEntity
  8
0
  6
SLD-実線
370
    15
100
AcDbLine
 10
8.967142552199902
 20
0.0999998300999892
 30
0.0
 11
9.199999272799914
 21
2.000002190499968
 31
0.0
  0
LINE
  5
169A6
330
16990
100
AcDbEntity
  8
0
  6
SLD-実線
370
    15
100
AcDbLine
 10
4.499997943599963
 20
-0.0999998300999892
 30
0.0
 11
4.499997943599963
 21
0.0999998300999892
 31
0.0
  0
LINE
  5
169A7
330
16990
100
AcDbEntity
  8
0
  6
SLD-実線
370
    15
100
AcDbLine
 10
8.967142552199902
 20
-3.900000825499944
 30
0.0
 11
9.199999272799914
 21
-1.999998465300049
 31
0.0
  0
LINE
  5
169A8
330
16990
100
AcDbEntity
  8
0
  6
SLD-実線
370
    15
100
AcDbLine
 10
4.499997943599963
 20
-0.0999998300999892
 30
0.0
 11
4.499997943599963
 21
-0.3612581640999792
 31
0.0
  0
LINE
  5
169A9
330
16990
100
AcDbEntity
  8
0
  6
SLD-実線
370
    15
100
AcDbLine
 10
4.499997943599963
 20
-3.638738766300036
 30
0.0
 11
4.499997943599963
 21
-3.900000825499944
 31
0.0
  0
SPLINE
  5
169AA
330
16990
100
AcDbEntity
  8
0
  6
SLD-実線
370
    15
100
AcDbSpline
210
0.0
220
0.0
230
1.0
 70
     8
 71
     3
 72
     9
 73
     5
 74
     0
 42
0.000000001
 43
0.0000000001
 40
0.0
 40
0.0
 40
0.0
 40
0.0
 40
0.6770988321148445
 40
1.0
 40
1.0
 40
1.0
 40
1.0
 10
9.199999272808099
 20
2.000002190446764
 30
0.0
 10
9.179040014920019
 20
2.432209980872983
 30
0.0
 10
9.148085511835004
 20
3.07053302904063
 30
0.0
 10
9.011308128833434
 20
3.69753965402225
 30
0.0
 10
8.96714255212214
 20
3.900000825500626
 30
0.0
  0
LINE
  5
169AB
330
16990
100
AcDbEntity
  8
0
  6
SLD-実線
370
    15
100
AcDbLine
 10
4.499997943599963
 20
3.900000825500056
 30
0.0
 11
4.499997943599963
 21
3.638738766300036
 31
0.0
  0
LINE
  5
169AC
330
16990
100
AcDbEntity
  8
0
  6
SLD-実線
370
    15
100
AcDbLine
 10
4.499997943599963
 20
0.3612618893000103
 30
0.0
 11
4.499997943599963
 21
0.0999998300999892
 31
0.0
  0
SPLINE
  5
169AD
330
16990
100
AcDbEntity
  8
0
  6
SLD-実線
370
    15
100
AcDbSpline
210
0.0
220
0.0
230
1.0
 70
    24
 71
     3
 72
     9
 73
     5
 74
     0
 42
0.000000001
 43
0.0000000001
 40
0.0
 40
0.0
 40
0.0
 40
0.0
 40
0.7858524886117994
 40
1.0
 40
1.0
 40
1.0
 40
1.0
 10
9.199999272808099
 20
-3.999998793029758
 30
0.0
 10
9.171952321175467
 20
-3.999998793029758
 30
0.0
 10
9.136262478566095
 20
-3.999998793029758
 30
0.0
 10
8.996971391727129
 20
-3.999998793029758
 30
0.0
 10
8.96714255212214
 20
-3.999998793029758
 30
0.0
  0
SPLINE
  5
169AE
330
16990
100
AcDbEntity
  8
0
  6
SLD-実線
370
    15
100
AcDbSpline
210
0.0
220
0.0
230
1.0
 70
     8
 71
     3
 72
    11
 73
     7
 74
     0
 42
0.000000001
 43
0.0000000001
 40
0.0
 40
0.0
 40
0.0
 40
0.0
 40
0.3032948817092764
 40
0.6069007806173136
 40
0.9049251941525932
 40
1.0
 40
1.0
 40
1.0
 40
1.0
 10
8.96714255212214
 20
-3.900000825548261
 30
0.0
 10
8.963614819430631
 20
-3.917281063541223
 30
0.0
 10
8.956555736494237
 20
-3.951859259744706
 30
0.0
 10
8.955769817165219
 20
-3.986138454351986
 30
0.0
 10
8.960808302420216
 20
-3.998992385496363
 30
0.0
 10
8.965908919176627
 20
-3.999802789154328
 30
0.0
 10
8.96714255212214
 20
-3.999998793029758
 30
0.0
  0
LINE
  5
169AF
330
16990
100
AcDbEntity
  8
0
  6
SLD-実線
370
    15
100
AcDbLine
 10
9.199999272799914
 20
-1.999998465300049
 30
0.0
 11
9.199999272799914
 21
-3.999998793100017
 31
0.0
  0
SPLINE
  5
169B0
330
16990
100
AcDbEntity
  8
0
  6
SLD-実線
370
    15
100
AcDbSpline
210
0.0
220
0.0
230
1.0
 70
     8
 71
     3
 72
    11
 73
     7
 74
     0
 42
0.000000001
 43
0.0000000001
 40
0.0
 40
0.0
 40
0.0
 40
0.0
 40
0.303297341374236
 40
0.6069057263081482
 40
0.9049195301906271
 40
1.0
 40
1.0
 40
1.0
 40
1.0
 10
8.96714255212214
 20
3.999998792982238
 30
0.0
 10
8.963614837932254
 20
3.998087219072033
 30
0.0
 10
8.956555791740351
 20
3.994262110856368
 30
0.0
 10
8.955769607909587
 20
3.963479847629796
 30
0.0
 10
8.960808710141916
 20
3.928584420112258
 30
0.0
 10
8.965908926910515
 20
3.905567974642678
 30
0.0
 10
8.96714255212214
 20
3.900000825500626
 30
0.0
  0
SPLINE
  5
169B1
330
16990
100
AcDbEntity
  8
0
  6
SLD-実線
370
    15
100
AcDbSpline
210
0.0
220
0.0
230
1.0
 70
    24
 71
     3
 72
     9
 73
     5
 74
     0
 42
0.000000001
 43
0.0000000001
 40
0.0
 40
0.0
 40
0.0
 40
0.0
 40
0.2141475113882007
 40
1.0
 40
1.0
 40
1.0
 40
1.0
 10
8.96714255212214
 20
3.999998792982238
 30
0.0
 10
8.996971391727129
 20
3.999998792982238
 30
0.0
 10
9.136262478566095
 20
3.999998792982238
 30
0.0
 10
9.171952321175467
 20
3.999998792982238
 30
0.0
 10
9.199999272808099
 20
3.999998792982238
 30
0.0
  0
LINE
  5
169B2
330
16990
100
AcDbEntity
  8
0
  6
SLD-実線
370
    15
100
AcDbLine
 10
9.199999272799914
 20
3.999998792900043
 30
0.0
 11
9.199999272799914
 21
2.000002190499968
 31
0.0
  0
LINE
  5
169B3
330
16990
100
AcDbEntity
  8
0
  6
SLD-実線
370
    15
100
AcDbLine
 10
8.967142552199902
 20
-3.999998793100017
 30
0.0
 11
4.499997943599963
 21
-3.999998793100017
 31
0.0
  0
LINE
  5
169B4
330
16990
100
AcDbEntity
  8
0
  6
SLD-実線
370
    15
100
AcDbLine
 10
4.499997943599963
 20
-3.999998793100017
 30
0.0
 11
4.499997943599963
 21
-3.900000825499944
 31
0.0
  0
LINE
  5
169B5
330
16990
100
AcDbEntity
  8
0
  6
SLD-実線
370
    15
100
AcDbLine
 10
4.499997943599963
 20
3.999998792900043
 30
0.0
 11
8.967142552199902
 21
3.999998792900043
 31
0.0
  0
LINE
  5
169B6
330
16990
100
AcDbEntity
  8
0
  6
SLD-実線
370
    15
100
AcDbLine
 10
4.499997943599963
 20
3.900000825500056
 30
0.0
 11
4.499997943599963
 21
3.999998792900043
 31
0.0
  0
LINE
  5
169B7
330
16990
100
AcDbEntity
  8
0
  6
SLD-実線
370
    15
100
AcDbLine
 10
4.499997943599963
 20
-4.424998536700002
 30
0.0
 11
4.499997943599963
 21
-3.999998793100017
 31
0.0
  0
LINE
  5
169B8
330
16990
100
AcDbEntity
  8
0
  6
SLD-実線
370
    15
100
AcDbLine
 10
4.499997943599963
 20
-3.638738766300036
 30
0.0
 11
4.499997943599963
 21
-0.3612581640999792
 31
0.0
  0
LINE
  5
169B9
330
16990
100
AcDbEntity
  8
0
  6
SLD-実線
370
    15
100
AcDbLine
 10
4.499997943599963
 20
0.3612618893000103
 30
0.0
 11
4.499997943599963
 21
3.638738766300036
 31
0.0
  0
LINE
  5
169BA
330
16990
100
AcDbEntity
  8
0
  6
SLD-実線
370
    15
100
AcDbLine
 10
4.499997943599963
 20
3.999998792900043
 30
0.0
 11
4.499997943599963
 21
4.424998536700002
 31
0.0
  0
LINE
  5
169BB
330
16990
100
AcDbEntity
  8
0
  6
SLD-実線
370
    15
100
AcDbLine
 10
3.199998289399898
 20
-4.424998536700002
 30
0.0
 11
3.199998289399898
 21
4.424998536700002
 31
0.0
  0
LINE
  5
169BC
330
16990
100
AcDbEntity
  8
0
370
    15
100
AcDbLine
 10
4.499999582799773
 20
0.7763407795000035
 30
0.0
 11
3.199999582799819
 21
0.1217328332999727
 31
0.0
  0
LINE
  5
169BD
330
16990
100
AcDbEntity
  8
0
370
    15
100
AcDbLine
 10
4.499999582799773
 20
0.0688290700999801
 30
0.0
 11
3.199999582799819
 21
-0.5857788763000258
 31
0.0
  0
LINE
  5
169BE
330
16990
100
AcDbEntity
  8
0
100
AcDbLine
 10
0.0
 20
2.499999478499999
 30
0.0
 11
0.0
 21
-2.499999478499999
 31
0.0
  0
ENDBLK
  5
169BF
330
16990
100
AcDbEntity
  8
0
100
AcDbBlockEnd
  0
BLOCK
  5
169C1
330
169C0
100
AcDbEntity
  8
0
100
AcDbBlockBegin
  2
SW_CENTERMARKSYMBOL_56
 70
     0
 10
0.0
 20
0.0
 30
0.0
  3
SW_CENTERMARKSYMBOL_56
  1
SW_CENTERMARKSYMBOL_56
  0
LINE
  5
169C2
330
169C0
100
AcDbEntity
  8
SLD-0
 62
     0
100
AcDbLine
 10
0.0
 20
0.0
 30
0.0
 11
0.0
 21
1.25
 31
0.0
  0
LINE
  5
169C3
330
169C0
100
AcDbEntity
  8
SLD-0
 62
     0
100
AcDbLine
 10
0.0
 20
0.0
 30
0.0
 11
-1.25
 21
0.0
 31
0.0
  0
LINE
  5
169C4
330
169C0
100
AcDbEntity
  8
SLD-0
 62
     0
100
AcDbLine
 10
0.0
 20
0.0
 30
0.0
 11
0.0
 21
-1.25
 31
0.0
  0
LINE
  5
169C5
330
169C0
100
AcDbEntity
  8
SLD-0
 62
     0
100
AcDbLine
 10
0.0
 20
0.0
 30
0.0
 11
1.25
 21
0.0
 31
0.0
  0
LINE
  5
169C6
330
169C0
100
AcDbEntity
  8
SLD-0
 62
     0
100
AcDbLine
 10
0.0
 20
2.5
 30
0.0
 11
0.0
 21
2.75
 31
0.0
  0
LINE
  5
169C7
330
169C0
100
AcDbEntity
  8
SLD-0
 62
     0
100
AcDbLine
 10
-2.5
 20
0.0
 30
0.0
 11
-2.75
 21
0.0
 31
0.0
  0
LINE
  5
169C8
330
169C0
100
AcDbEntity
  8
SLD-0
 62
     0
100
AcDbLine
 10
0.0
 20
-2.5
 30
0.0
 11
0.0
 21
-2.75
 31
0.0
  0
LINE
  5
169C9
330
169C0
100
AcDbEntity
  8
SLD-0
 62
     0
100
AcDbLine
 10
2.5
 20
0.0
 30
0.0
 11
2.75
 21
0.0
 31
0.0
  0
ENDBLK
  5
169CA
330
169C0
100
AcDbEntity
  8
0
100
AcDbBlockEnd
  0
BLOCK
  5
169CC
330
169CB
100
AcDbEntity
  8
0
100
AcDbBlockBegin
  2
SW_CENTERMARKSYMBOL_57
 70
     0
 10
0.0
 20
0.0
 30
0.0
  3
SW_CENTERMARKSYMBOL_57
  1
SW_CENTERMARKSYMBOL_57
  0
LINE
  5
169CD
330
169CB
100
AcDbEntity
  8
SLD-0
 62
     0
100
AcDbLine
 10
0.0
 20
0.0
 30
0.0
 11
0.0
 21
1.25
 31
0.0
  0
LINE
  5
169CE
330
169CB
100
AcDbEntity
  8
SLD-0
 62
     0
100
AcDbLine
 10
0.0
 20
0.0
 30
0.0
 11
-1.25
 21
0.0
 31
0.0
  0
LINE
  5
169CF
330
169CB
100
AcDbEntity
  8
SLD-0
 62
     0
100
AcDbLine
 10
0.0
 20
0.0
 30
0.0
 11
0.0
 21
-1.25
 31
0.0
  0
LINE
  5
169D0
330
169CB
100
AcDbEntity
  8
SLD-0
 62
     0
100
AcDbLine
 10
0.0
 20
0.0
 30
0.0
 11
1.25
 21
0.0
 31
0.0
  0
LINE
  5
169D1
330
169CB
100
AcDbEntity
  8
SLD-0
 62
     0
100
AcDbLine
 10
0.0
 20
2.5
 30
0.0
 11
0.0
 21
2.75
 31
0.0
  0
LINE
  5
169D2
330
169CB
100
AcDbEntity
  8
SLD-0
 62
     0
100
AcDbLine
 10
-2.5
 20
0.0
 30
0.0
 11
-2.75
 21
0.0
 31
0.0
  0
LINE
  5
169D3
330
169CB
100
AcDbEntity
  8
SLD-0
 62
     0
100
AcDbLine
 10
0.0
 20
-2.5
 30
0.0
 11
0.0
 21
-2.75
 31
0.0
  0
LINE
  5
169D4
330
169CB
100
AcDbEntity
  8
SLD-0
 62
     0
100
AcDbLine
 10
2.5
 20
0.0
 30
0.0
 11
2.75
 21
0.0
 31
0.0
  0
ENDBLK
  5
169D5
330
169CB
100
AcDbEntity
  8
0
100
AcDbBlockEnd
  0
BLOCK
  5
16D07
330
16D04
100
AcDbEntity
  8
0
100
AcDbBlockBegin
  2
A$C3F0A4506
 70
     0
 10
0.0
 20
0.0
 30
0.0
  3
A$C3F0A4506
  1

  0
CIRCLE
  5
16D08
330
16D04
100
AcDbEntity
  8
24
100
AcDbCircle
 10
104.8249999970513
 20
3.500304608093308
 30
0.0
 40
2.0
  0
ARC
  5
16D09
330
16D04
100
AcDbEntity
  8
24
100
AcDbCircle
 10
104.8249999970513
 20
3.500304608093308
 30
0.0
 40
3.275000000000013
100
AcDbArc
 50
130.2387981259013
 51
49.76120187409872
  0
CIRCLE
  5
16D0A
330
16D04
100
AcDbEntity
  8
24
100
AcDbCircle
 10
69.82499999705135
 20
3.500304608093308
 30
0.0
 40
2.25
  0
LWPOLYLINE
  5
16D0B
330
16D04
100
AcDbEntity
  8
0
  6
SLD-実線
 62
     7
370
    15
100
AcDbPolyline
 90
        2
 70
     0
 43
0.0
 10
106.8249986856514
 20
6.000303416093293
 10
106.4838962048512
 20
6.000303416093293
  0
LWPOLYLINE
  5
16D0C
330
16D04
100
AcDbEntity
  8
0
  6
SLD-実線
 62
     7
370
    15
100
AcDbPolyline
 90
        2
 70
     0
 43
0.0
 10
66.32484769225141
 20
6.000303416093293
 10
66.30839308505129
 20
6.000303416093293
  0
LWPOLYLINE
  5
16D0D
330
16D04
100
AcDbEntity
  8
13
100
AcDbPolyline
 90
        4
 70
     0
 43
0.0
 10
108.3416053444513
 20
6.000303416093293
 10
108.3251507372514
 20
6.000303416093293
 10
106.4838962048512
 20
6.000303416093293
 10
66.31662038865136
 20
6.000303416093293
  0
LWPOLYLINE
  5
16D0E
330
16D04
100
AcDbEntity
  8
13
100
AcDbPolyline
 90
      480
 70
     0
 43
0.0
 10
108.342298248414
 20
6.000452427687667
 10
108.3958023229479
 20
6.007671649155297
 10
108.4491388854715
 20
6.015355719630277
 10
108.5021404239749
 20
6.023969488119937
 10
108.5546394264477
 20
6.033977803631612
 10
108.6064683808801
 20
6.045845515172651
 10
108.6574597752616
 20
6.060037471750391
 10
108.7074460975823
 20
6.077018522372156
 10
108.7562623416991
 20
6.097232149909877
 10
108.8037860261467
 20
6.12075925294723
 10
108.8499301845641
 20
6.147377912524127
 10
108.8946089402676
 20
6.176856918602352
 10
108.937736416574
 20
6.208965061143715
 10
108.9792267367995
 20
6.243471130110002
 10
109.018994024261
 20
6.280143915463012
 10
109.0569494011272
 20
6.318755156328839
 10
109.0929349620303
 20
6.359144423733575
 10
109.1267237734315
 20
6.401219121226437
 10
109.1580859005175
 20
6.444889601645535
 10
109.1867914084752
 20
6.490066217828967
 10
109.2126103624911
 20
6.536659322614852
 10
109.2353128277522
 20
6.584579268841295
 10
109.2546788179119
 20
6.633735411762637
 10
109.2707959753813
 20
6.684006259120827
 10
109.284111008013
 20
6.735234313325462
 10
109.2950909366134
 20
6.787260039902136
 10
109.3042027819884
 20
6.839923904376441
 10
109.3119135649448
 20
6.893066372273978
 10
109.3186903062885
 20
6.946527909120334
 10
109.3250000268514
 20
7.0001489804933
 10
109.3250000268258
 20
12.8004557774687
 10
109.3226734018033
 20
12.83868185254008
 10
109.3200062726471
 20
12.87685044956881
 10
109.3166581352237
 20
12.91490409051223
 10
109.3122884853998
 20
12.95278529732766
 10
109.3065568190413
 20
12.99043659197243
 10
109.2991436751799
 20
13.02780110926519
 10
109.2899804947651
 20
13.06482929129394
 10
109.2791636213209
 20
13.10147638277048
 10
109.2667922861587
 20
13.13769771251061
 10
109.2529657205903
 20
13.17344860933008
 10
109.2377819356625
 20
13.20868423849766
 10
109.2213040216108
 20
13.24335508498891
 10
109.203555853088
 20
13.27740637787577
 10
109.184559221904
 20
13.3107830670753
 10
109.1643359198689
 20
13.34343010250453
 10
109.1429077387924
 20
13.37529243408057
 10
109.120296470485
 20
13.40631501172043
 10
109.0965239067565
 20
13.4364427853412
 10
109.0716118394167
 20
13.46562070485992
 10
109.0455820602759
 20
13.49379372019367
 10
109.0184570540293
 20
13.52090750456775
 10
108.9902752003778
 20
13.54692432412597
 10
108.961090751087
 20
13.57182301398212
 10
108.9309586462193
 20
13.59558312776847
 10
108.899933825837
 20
13.61818421911729
 10
108.8680712300027
 20
13.63960584166089
 10
108.8354257987787
 20
13.65982754903152
 10
108.8020524722275
 20
13.67882889486149
 10
108.7680061904116
 20
13.69658943278306
 10
108.7333418933933
 20
13.71308871642854
 10
108.6981142219866
 20
13.72830404827264
 10
108.6623722240465
 20
13.7421706566398
 10
108.6261599890958
 20
13.75458646980811
 10
108.5895214349116
 20
13.76544812406266
 10
108.5525004792705
 20
13.77465225568857
 10
108.5151410865134
 20
13.78209697970839
 10
108.4774918895842
 20
13.78782867345104
 10
108.4396101106955
 20
13.79216648631536
 10
108.4015538953369
 20
13.79545888852092
 10
108.3633813889985
 20
13.79805435028731
 10
108.3251507372514
 20
13.80030134189327
 10
107.8248479753772
 20
13.8003013418341
 10
107.7866217229358
 20
13.79797624508185
 10
107.7484529500602
 20
13.79531057913984
 10
107.7103991363161
 20
13.7919637748183
 10
107.6725177612693
 20
13.78759526292745
 10
107.6348663044854
 20
13.78186447427746
 10
107.5975016328916
 20
13.77445190005023
 10
107.5604733121129
 20
13.76528902471653
 10
107.523826110656
 20
13.75447224090111
 10
107.4876047130941
 20
13.7421008265965
 10
107.4518538039999
 20
13.72827405979522
 10
107.4166182310348
 20
13.7130899974125
 10
107.3819475081356
 20
13.69661175903126
 10
107.3478963888881
 20
13.678863233937
 10
107.3145199051246
 20
13.65986622812829
 10
107.2818730886773
 20
13.63964254760373
 10
107.2500109713786
 20
13.6182139983619
 10
107.2189885850608
 20
13.59560238640139
 10
107.1888609615563
 20
13.57182951772078
 10
107.1596831326973
 20
13.54691719831866
 10
107.1315101303159
 20
13.52088723419361
 10
107.1043962644769
 20
13.49376212302207
 10
107.0783792767885
 20
13.46558024020743
 10
107.0534803582757
 20
13.43639582175282
 10
107.0297199817701
 20
13.40626379191368
 10
107.0071186201029
 20
13.37523907494552
 10
106.985696746106
 20
13.3433765951038
 10
106.9654748326106
 20
13.310731276644
 10
106.9464733524484
 20
13.2773580438216
 10
106.9287127784506
 20
13.24331182089206
 10
106.9122135834491
 20
13.20864753211089
 10
106.8969984893216
 20
13.17341980346992
 10
106.8831322364504
 20
13.13767768855848
 10
106.8707168072393
 20
13.1014653020102
 10
106.8598554734785
 20
13.06482658746306
 10
106.8506515069584
 20
13.02780548855505
 10
106.8432067011806
 20
12.99044599536626
 10
106.8374746362891
 20
12.95279675426881
 10
106.8331362125974
 20
12.9149149781833
 10
106.8298430198056
 20
12.87685880085676
 10
106.8272466476136
 20
12.83868635603623
 10
106.8249986856514
 20
12.80045577749326
 10
106.8249986857214
 20
9.500154046835923
 10
106.8226729526981
 20
9.461928977038738
 10
106.8200067063194
 20
9.423761340284961
 10
106.8166594332302
 20
9.385708569618033
 10
106.8122906200754
 20
9.347828098081388
 10
106.8065597534994
 20
9.310177358718448
 10
106.7991473531442
 20
9.272813184984819
 10
106.7899848239988
 20
9.235785258345316
 10
106.7791685128653
 20
9.199138558267025
 10
106.7667976573398
 20
9.162917981809187
 10
106.7529714950177
 20
9.12716842603101
 10
106.7377880460055
 20
9.091934941486243
 10
106.7213104467817
 20
9.057266976669318
 10
106.7035626359518
 20
9.023218921932091
 10
106.6845664681043
 20
8.989845430368195
 10
106.6643437978275
 20
8.95720115507126
 10
106.6429164797097
 20
8.92534074913491
 10
106.6203063683389
 20
8.894318865652769
 10
106.5965353183035
 20
8.864190157718482
 10
106.5716251841919
 20
8.835009278425664
 10
106.5455978205922
 20
8.806830880867947
 10
106.5184757648788
 20
8.779708935308491
 10
106.4902972679998
 20
8.753681697414727
 10
106.4611162997534
 20
8.728771702981525
 10
106.4309875137795
 20
8.705000803917926
 10
106.3999655637178
 20
8.682390852132986
 10
106.368105103208
 20
8.660963699535741
 10
106.3354607858898
 20
8.640741198035241
 10
106.3020872654028
 20
8.621745199540526
 10
106.268039195387
 20
8.603997555960646
 10
106.2333712294818
 20
8.587520119204638
 10
106.1981377576794
 20
8.572336830923497
 10
106.1623882252629
 20
8.558510825852945
 10
106.1261676846547
 20
8.546140057717522
 10
106.0895210354838
 20
8.535323691322332
 10
106.0524931773792
 20
8.526160891472477
 10
106.0151290926314
 20
8.5187479226324
 10
105.9774784661527
 20
8.513016048716082
 10
105.939598127823
 20
8.508645838644959
 10
105.9015455056053
 20
8.505296876457753
 10
105.8633780274619
 20
8.50262874619316
 10
105.8251531214515
 20
8.500301031893291
 10
93.82484940588858
 20
8.500301031889712
 10
93.78662432573662
 20
8.502627736175732
 10
93.74845666601947
 20
8.505294896975732
 10
93.71040384717195
 20
8.50864297080372
 10
93.67252328962887
 20
8.513012414173694
 10
93.63487241382506
 20
8.518743683599666
 10
93.59750804279928
 20
8.526156208935312
 10
93.56047987399687
 20
8.535318619207195
 10
93.52383292034165
 20
8.546134661472777
 10
93.4876121126614
 20
8.558505193242892
 10
93.45186238178385
 20
8.572331072028362
 10
93.41662881100944
 20
8.587514370319389
 10
93.38196085374216
 20
8.603991983860012
 10
93.34791287478857
 20
8.621739944995972
 10
93.31453950015021
 20
8.640736367411172
 10
93.28189535582884
 20
8.660959364789531
 10
93.25003506782605
 20
8.682387050814952
 10
93.21901326214355
 20
8.704997539171337
 10
93.18888456478282
 20
8.728768943542602
 10
93.15970360174558
 20
8.753679377612662
 10
93.13152499903356
 20
8.779706955065407
 10
93.10440270058995
 20
8.8068291073109
 10
93.07837496744808
 20
8.8350075778933
 10
93.05346438019251
 20
8.864188424953033
 10
93.02969283784182
 20
8.894317024849128
 10
93.00708223941455
 20
8.9253387539406
 10
92.98565448392947
 20
8.957198988586476
 10
92.96543147040484
 20
8.989843105145787
 10
92.94643509785942
 20
9.023216479977547
 10
92.92868726531173
 20
9.05726448944079
 10
92.91220987178041
 20
9.091932509894533
 10
92.89702690439957
 20
9.127166179443122
 10
92.88320149323112
 20
9.162916042757645
 10
92.87083153220535
 20
9.199137002160702
 10
92.86001612368963
 20
9.235784111452536
 10
92.85085437005159
 20
9.272812424433382
 10
92.84344246963462
 20
9.310176912534423
 10
92.83771160160382
 20
9.347827866621756
 10
92.83334233180664
 20
9.385708469224375
 10
92.82999426068476
 20
9.423761308213457
 10
92.8273269886796
 20
9.461928971460174
 10
92.82500011625154
 20
9.500154046893275
 10
92.82500011623287
 20
12.80045577746849
 10
92.82267349117136
 20
12.83868184791985
 10
92.82000636213499
 20
12.87685044054674
 10
92.81665822514911
 20
12.9149040775247
 10
92.81228857623878
 20
12.95278528102924
 10
92.80655691142909
 20
12.99043657323589
 10
92.79914376983708
 20
13.02780108912019
 10
92.78998059209811
 20
13.06482927021059
 10
92.7791637213868
 20
13.10147636019493
 10
92.76679238867485
 20
13.13769768685723
 10
92.7529658249343
 20
13.17344857798148
 10
92.73778204089408
 20
13.20868419784933
 10
92.72130412690286
 20
13.24335503170217
 10
92.70355595810631
 20
13.27740631027081
 10
92.68455932681886
 20
13.31078298520391
 10
92.66433602535437
 20
13.34343000815014
 10
92.64290784602712
 20
13.37529233075821
 10
92.62029658115123
 20
13.40631490467675
 10
92.59652402304096
 20
13.43644268155446
 10
92.57161196401025
 20
13.46562061304002
 10
92.54558219637328
 20
13.49379365078211
 10
92.51845720527342
 20
13.52090746956862
 10
92.49027536972041
 20
13.5469243333823
 10
92.46109093973243
 20
13.57182307154328
 10
92.43095885358583
 20
13.59558323173942
 10
92.39993404955646
 20
13.61818436165853
 10
92.36807146592061
 20
13.63960600898843
 10
92.33542604095418
 20
13.65982772141697
 10
92.30205271293334
 20
13.67882904663197
 10
92.26800642013404
 20
13.69658953232125
 10
92.2333421008326
 20
13.71308872617263
 10
92.19811439429134
 20
13.72830392568658
 10
92.16237235113441
 20
13.74217037181142
 10
92.12616006744609
 20
13.7545860207633
 10
92.08952146769345
 20
13.76544753727624
 10
92.05250047634342
 20
13.77465158608421
 10
92.01514106434229
 20
13.78209630893986
 10
91.97749186688827
 20
13.78782806796227
 10
91.93961010270149
 20
13.79216599202228
 10
91.90155391346536
 20
13.79545853986048
 10
91.8633814408629
 20
13.79805417021749
 10
91.82515082665132
 20
13.80030134189327
 10
82.82484760284807
 20
13.80030134183369
 10
82.78662134640851
 20
13.79797632654763
 10
82.74845256917933
 20
13.79531073855623
 10
82.71039875037081
 20
13.79196400515416
 10
82.67251736919353
 20
13.78759555363611
 10
82.6348659048576
 20
13.7818648112968
 10
82.59750122448213
 20
13.77445226143174
 10
82.56047289909588
 20
13.76528937350515
 10
82.52382570540905
 20
13.75447254199122
 10
82.48760433621759
 20
13.74210104802213
 10
82.45185348431709
 20
13.72827417272993
 10
82.41661800524445
 20
13.71308997628478
 10
82.38194741092854
 20
13.69661158431548
 10
82.34789644188891
 20
13.67886289499903
 10
82.31452011630722
 20
13.65986572335134
 10
82.28187345236575
 20
13.6396418843883
 10
82.25001146824615
 20
13.61821319312582
 10
82.21898918213048
 20
13.59560146457978
 10
82.18886161220064
 20
13.5718285137661
 10
82.15968377663864
 20
13.54691615570068
 10
82.13151069362641
 20
13.5208862053994
 10
82.1043966602075
 20
13.49376116921261
 10
82.0783794222865
 20
13.46557942059186
 10
82.05348019407052
 20
13.43639518145078
 10
82.02971947251739
 20
13.4062633613096
 10
82.0071177545849
 20
13.37523886968858
 10
81.98569553723075
 20
13.34337661610792
 10
81.96547331741269
 20
13.3107315100879
 10
81.94647159208853
 20
13.27735846114871
 10
81.92871085821581
 20
13.24331237881062
 10
81.91221161275256
 20
13.20864817259385
 10
81.89699659995481
 20
13.17342045478506
 10
81.88313055329571
 20
13.13767828406752
 10
81.87071542412011
 20
13.10146579659149
 10
81.85985445244794
 20
13.06482695806377
 10
81.85065087829903
 20
13.02780573419118
 10
81.84320646359536
 20
12.99044613702509
 10
81.83747477006567
 20
12.95279682531323
 10
81.83313670052132
 20
12.91491500680171
 10
81.82984384896611
 20
12.87685880819044
 10
81.82724780940361
 20
12.83868635617934
 10
81.82500017585139
 20
12.80045577749326
 10
81.82500017583754
 20
9.500154046835467
 10
81.82267401572312
 20
9.461928991862166
 10
81.82000735977998
 20
9.423761369083095
 10
81.81665971217967
 20
9.385708610692539
 10
81.8122905770932
 20
9.347828148884772
 10
81.80655945869217
 20
9.310177415854056
 10
81.79914689242639
 20
9.272813244100515
 10
81.78998428002548
 20
9.235785312824267
 10
81.77916795318298
 20
9.199138598347435
 10
81.7667971342097
 20
9.162917994567957
 10
81.75297104541654
 20
9.127168395383748
 10
81.73778769178557
 20
9.09193484831249
 10
81.72131019958667
 20
9.057266802360594
 10
81.70356250292185
 20
9.023218652355927
 10
81.68456645219487
 20
8.989845056076894
 10
81.66434389780921
 20
8.957200671301869
 10
81.6429166901687
 20
8.925340155809237
 10
81.62030667967689
 20
8.894318167377397
 10
81.59653571673755
 20
8.864189363784726
 10
81.57162565175429
 20
8.835008402809616
 10
81.54559833513076
 20
8.806829942230463
 10
81.51847630036945
 20
8.77970795668974
 10
81.49029779912288
 20
8.753680701822814
 10
81.46111680501794
 20
8.728770710433963
 10
81.43098797554499
 20
8.704999831426766
 10
81.39996596819447
 20
8.68238991370481
 10
81.36810544045635
 20
8.660962806171673
 10
81.33546104982121
 20
8.640740357730948
 10
81.30208745377922
 20
8.621744417286206
 10
81.26803930982076
 20
8.603996833741042
 10
81.23337127543596
 20
8.587519455999029
 10
81.19813774424562
 20
8.572336223333252
 10
81.16238816189627
 20
8.558510272791366
 10
81.12616757875207
 20
8.546139560770811
 10
81.08952089233332
 20
8.535323254500482
 10
81.05249300015975
 20
8.526160521209298
 10
81.01512888245961
 20
8.518747626628423
 10
80.97747822323379
 20
8.513015822460728
 10
80.93959785234074
 20
8.508645675106322
 10
80.90154519769749
 20
8.505296770361887
 10
80.86337768722058
 20
8.502628694024124
 10
80.82515274885157
 20
8.500301031893291
 10
68.82484717071441
 20
8.500301031889485
 10
68.78662212995516
 20
8.502627737989996
 10
68.74845451410556
 20
8.505294912202067
 10
68.71040174807524
 20
8.508643022637214
 10
68.67252125677385
 20
8.513012537406964
 10
68.63487046511102
 20
8.518743924622832
 10
68.59750619969371
 20
8.52615662018448
 10
68.56047815179943
 20
8.535319230794852
 10
68.52383132229886
 20
8.546135480661027
 10
68.48761062988728
 20
8.558506205272401
 10
68.45186099326031
 20
8.572332240118392
 10
68.41662748401017
 20
8.587515636827149
 10
68.38195955417302
 20
8.603993289005082
 10
68.3479115777709
 20
8.621741239650212
 10
68.31453819049205
 20
8.640737613052849
 10
68.28189402802525
 20
8.660960533503292
 10
68.25003372605897
 20
8.682388125291844
 10
68.21901192028156
 20
8.70499851270879
 10
68.18888324638179
 20
8.728769820044446
 10
68.15970234004804
 20
8.75368017158911
 10
68.13152383696888
 20
8.779707691633076
 10
68.10440169007472
 20
8.806829821665925
 10
68.07837415525637
 20
8.835008305154815
 10
68.05346379491561
 20
8.864189191096008
 10
68.02969248940667
 20
8.894317846395381
 10
68.00708211908363
 20
8.925339637958792
 10
67.98565456430094
 20
8.957199932692105
 10
67.9654317054126
 20
8.989844097501174
 10
67.94643542277288
 20
9.023217499291881
 10
67.92868759673592
 20
9.057265504970068
 10
67.91221010765593
 20
9.091933481441607
 10
67.89702692633387
 20
9.127167058163983
 10
67.88320120569665
 20
9.162916785711187
 10
67.87083089493683
 20
9.199137584927255
 10
67.86001515264399
 20
9.235784528551633
 10
67.85085313740774
 20
9.272812689323755
 10
67.84344110309644
 20
9.310177057429909
 10
67.83771025039039
 20
9.347827932189167
 10
67.83334111823592
 20
9.38570848902966
 10
67.82999327649543
 20
9.423761307431083
 10
67.82732629503072
 20
9.461928966873122
 10
67.82499974365134
 20
9.500154046893275
 10
67.82499974370387
 20
12.80045577746831
 10
67.82267354507848
 20
12.83868186701121
 10
67.82000682490411
 20
12.87685047795407
 10
67.81665906163174
 20
12.91490413169679
 10
67.81228973371231
 20
12.9527853496393
 10
67.806558319597
 20
12.99043665318151
 10
67.79914534259501
 20
13.027801176391
 10
67.78998224656446
 20
13.06482935825078
 10
67.77916538943464
 20
13.10147643879876
 10
67.76679401708929
 20
13.13769774214834
 10
67.75296737541191
 20
13.1734485924129
 10
67.7377834898889
 20
13.20868415034808
 10
67.72130546111998
 20
13.24335490179676
 10
67.70355716939434
 20
13.27740608271983
 10
67.68456041189381
 20
13.31078265024137
 10
67.66433698580022
 20
13.34342956148548
 10
67.64290868829539
 20
13.37529177357623
 10
67.62029731656105
 20
13.40631424363769
 10
67.59652466777925
 20
13.43644192879393
 10
67.57161253913159
 20
13.46561978616906
 10
67.54558272780002
 20
13.49379277288712
 10
67.51845772345596
 20
13.52090656887191
 10
67.49027590430308
 20
13.54692343801552
 10
67.46109151558993
 20
13.5718222057511
 10
67.4309594907578
 20
13.59558241582608
 10
67.39993476324753
 20
13.61818361198787
 10
67.36807226650046
 20
13.63960533798387
 10
67.33542693395747
 20
13.65982713756154
 10
67.3020536990598
 20
13.67882855446829
 10
67.2680074952484
 20
13.69658913245151
 10
67.23334325596443
 20
13.71308841525866
 10
67.19811561586983
 20
13.72830369673675
 10
67.16237362494337
 20
13.74217021630691
 10
67.12616138189867
 20
13.75458592880383
 10
67.08952281393
 20
13.76544749746576
 10
67.05250184823114
 20
13.77465158553094
 10
67.0151424584692
 20
13.78209633331465
 10
66.97749328177883
 20
13.78782810368827
 10
66.93961153731198
 20
13.79216602828202
 10
66.90155536701263
 20
13.79545856854084
 10
66.86338291282504
 20
13.79805418590974
 10
66.82515231665149
 20
13.80030134189327
 10
66.32484769225515
 20
13.80030134183369
 10
66.2866214445678
 20
13.79797630511098
 10
66.24845267484136
 20
13.79531070048244
 10
66.21039886103663
 20
13.79196396004224
 10
66.1725174811146
 20
13.78759551588455
 10
66.134866013036
 20
13.78186480010352
 10
66.09750132281056
 20
13.7744523000748
 10
66.06047298202134
 20
13.76528948116434
 10
66.0238257690188
 20
13.7544727285635
 10
65.9876043782582
 20
13.74210131403962
 10
65.95185350419503
 20
13.72827450936003
 10
65.91661800400527
 20
13.71309036570107
 10
65.88194739126446
 20
13.69661200596562
 10
65.84789640847588
 20
13.6788633301688
 10
65.81452007585244
 20
13.6598661551894
 10
65.78187341360706
 20
13.63964229790621
 10
65.75001144195254
 20
13.61821357519805
 10
65.71898918110206
 20
13.59560180394369
 10
65.68886165126821
 20
13.57182880102197
 10
65.659683872664
 20
13.54691638331166
 10
65.63151086550239
 20
13.52088636769155
 10
65.60439692866089
 20
13.49376126237038
 10
65.57837980498539
 20
13.46557944290608
 10
65.55348070053492
 20
13.43639513376164
 10
65.52972010388214
 20
13.40626324704114
 10
65.50711850359959
 20
13.37523869484867
 10
65.48569638826005
 20
13.34337638928827
 10
65.46547424643609
 20
13.31073124246405
 10
65.44647256670021
 20
13.27735816648009
 10
65.4287118376252
 20
13.24331207344044
 10
65.41221254778361
 20
13.20864787544919
 10
65.39699743399136
 20
13.17342018707732
 10
65.38313123846172
 20
13.13767806389081
 10
65.37071593482972
 20
13.10146563423975
 10
65.35985478582017
 20
13.06482685587574
 10
65.35065105415789
 20
13.02780568655046
 10
65.3432065243519
 20
12.99044613039834
 10
65.33747476947223
 20
12.95279684207101
 10
65.333136683298
 20
12.91491503223789
 10
65.3298438486529
 20
12.87685883127543
 10
65.32724784836045
 20
12.83868636956009
 10
65.32500026525133
 20
12.80045577749326
 10
65.3250002652444
 20
7.000148980440719
 10
65.33130936663804
 20
6.94652805710394
 10
65.33808551699417
 20
6.893066660730949
 10
65.34579576527528
 20
6.839924318285563
 10
65.3549071604441
 20
6.787260556731553
 10
65.36588675146311
 20
6.735234903032732
 10
65.3792015872948
 20
6.684006884152878
 10
65.39531871690167
 20
6.633736027055802
 10
65.41468482808318
 20
6.584579818487227
 10
65.43738736125454
 20
6.536659748084389
 10
65.46320632790752
 20
6.490066500660852
 10
65.49191182095376
 20
6.444889767174045
 10
65.52327393330472
 20
6.401219238581425
 10
65.55706275787156
 20
6.359144605840405
 10
65.593048387566
 20
6.318755559908431
 10
65.63100391516491
 20
6.280144738635223
 10
65.6707714341361
 20
6.243472562108342
 10
65.71226204073878
 20
6.208967234717377
 10
65.75538983151854
 20
6.176859908157012
 10
65.80006890302058
 20
6.147381734121934
 10
65.84621335179043
 20
6.120763864306836
 10
65.89373727437316
 20
6.097237450406402
 10
65.94255367470771
 20
6.077024324689118
 10
65.99254003629801
 20
6.060043346651097
 10
66.04353136328416
 20
6.045851046586554
 10
66.09536016143363
 20
6.033982644833235
 10
66.14785893651379
 20
6.023973361728897
 10
66.20086019429186
 20
6.015358417611292
 10
66.25419644053522
 20
6.007673032818187
 10
66.30770018101123
 20
6.000452427687326
  0
ELLIPSE
  5
16D0F
330
16D04
100
AcDbEntity
  8
13
100
AcDbEllipse
 10
2.000304656051524
 20
0.0006092642933098
 30
0.0
 11
1.414644379919874
 21
1.414644376680483
 31
0.0
210
0.0
220
0.0
230
1.0
 40
0.9996954599
 41
2.356346783853188
 42
3.926838524154459
  0
ELLIPSE
  5
16D10
330
16D04
100
AcDbEntity
  8
13
100
AcDbEllipse
 10
137.7369706654514
 20
0.0006092642933098
 30
0.0
 11
1.414644378415573
 21
-1.414644378414263
 31
0.0
210
0.0
220
0.0
230
1.0
 40
0.9996954599
 41
5.497939437056287
 42
7.068431177269406
  0
LWPOLYLINE
  5
16D11
330
16D04
100
AcDbEntity
  8
13
100
AcDbPolyline
 90
        4
 70
     1
 43
0.0
 10
121.3249982684514
 20
12.00030812489331
 10
121.3249982684514
 20
0.0003061578933128
 10
111.3250003546514
 20
0.0003061578933128
 10
111.3250003546514
 20
12.00030812489331
  0
LWPOLYLINE
  5
16D12
330
16D04
100
AcDbEntity
  8
13
100
AcDbPolyline
 90
        4
 70
     1
 43
0.0
 10
63.32499993745148
 20
12.00030812489331
 10
63.32499993745148
 20
0.0003061578933128
 10
53.32500004445146
 20
0.0003061578933128
 10
53.32500004445146
 20
12.00030812489331
  0
LWPOLYLINE
  5
16D13
330
16D04
100
AcDbEntity
  8
13
100
AcDbPolyline
 90
        4
 70
     1
 43
0.0
 10
35.57499957985158
 20
0.0003061578933128
 10
35.57499957985158
 20
12.00030812489331
 10
51.32499994945135
 20
12.00030812489331
 10
51.32499994945135
 20
0.0003061578933128
  0
LWPOLYLINE
  5
16D14
330
16D04
100
AcDbEntity
  8
13
100
AcDbPolyline
 90
        4
 70
     1
 43
0.0
 10
18.32499814925142
 20
0.0003061578933128
 10
18.32499814925142
 20
12.00030812489331
 10
34.07500026525133
 20
12.00030812489331
 10
34.07500026525133
 20
0.0003061578933128
  0
LWPOLYLINE
  5
16D15
330
16D04
100
AcDbEntity
  8
13
100
AcDbPolyline
 90
        2
 70
     0
 43
0.0
 10
16.32500154665138
 20
0.0003061578933128
 10
1.824998238651343
 20
0.0003061578933128
  0
LWPOLYLINE
  5
16D16
330
16D04
100
AcDbEntity
  8
13
100
AcDbPolyline
 90
        5
 70
     0
 43
0.0
 10
1.912300416851508
 20
11.91300222149329
 10
1.824998238651343
 20
12.00030812489331
 10
16.32500154665138
 20
12.00030812489331
 10
16.32500154665138
 20
0.0003061578933128
 10
16.2376993686513
 20
0.0876046106932975
  0
LWPOLYLINE
  5
16D17
330
16D04
100
AcDbEntity
  8
13
100
AcDbPolyline
 90
        3
 70
     0
 43
0.0
 10
1.912300416851508
 20
0.0876046106932975
 10
1.824998238651343
 20
0.0003061578933128
 10
1.824998238651343
 20
12.00030812489331
  0
LWPOLYLINE
  5
16D18
330
16D04
100
AcDbEntity
  8
13
100
AcDbPolyline
 90
        2
 70
     0
 43
0.0
 10
137.7375799312624
 20
-1.999695391919743
 10
1.999695388834195
 20
-1.999695391756809
  0
LWPOLYLINE
  5
16D19
330
16D04
100
AcDbEntity
  8
13
100
AcDbPolyline
 90
        4
 70
     1
 43
0.0
 10
137.1351004928514
 20
12.00030812489331
 10
123.3250023216514
 20
12.00030812489331
 10
123.3250023216514
 20
0.0003061578933128
 10
137.1351004928514
 20
0.0003061578933128
  0
ENDBLK
  5
16D1A
330
16D04
100
AcDbEntity
  8
0
100
AcDbBlockEnd
  0
BLOCK
  5
1709D
330
1709C
100
AcDbEntity
  8
0
100
AcDbBlockBegin
  2
SW_CENTERMARKSYMBOL_13
 70
     0
 10
0.0
 20
0.0
 30
0.0
  3
SW_CENTERMARKSYMBOL_13
  1
SW_CENTERMARKSYMBOL_13
  0
LINE
  5
1709E
330
1709C
100
AcDbEntity
  8
SLD-0
 62
     0
100
AcDbLine
 10
0.0
 20
0.0
 30
0.0
 11
0.0
 21
1.25
 31
0.0
  0
LINE
  5
1709F
330
1709C
100
AcDbEntity
  8
SLD-0
 62
     0
100
AcDbLine
 10
0.0
 20
0.0
 30
0.0
 11
-1.25
 21
0.0
 31
0.0
  0
LINE
  5
170A0
330
1709C
100
AcDbEntity
  8
SLD-0
 62
     0
100
AcDbLine
 10
0.0
 20
0.0
 30
0.0
 11
0.0
 21
-1.25
 31
0.0
  0
LINE
  5
170A1
330
1709C
100
AcDbEntity
  8
SLD-0
 62
     0
100
AcDbLine
 10
0.0
 20
0.0
 30
0.0
 11
1.25
 21
0.0
 31
0.0
  0
LINE
  5
170A2
330
1709C
100
AcDbEntity
  8
SLD-0
 62
     0
100
AcDbLine
 10
0.0
 20
2.5
 30
0.0
 11
0.0
 21
3.5
 31
0.0
  0
LINE
  5
170A3
330
1709C
100
AcDbEntity
  8
SLD-0
 62
     0
100
AcDbLine
 10
-2.5
 20
0.0
 30
0.0
 11
-3.5
 21
0.0
 31
0.0
  0
LINE
  5
170A4
330
1709C
100
AcDbEntity
  8
SLD-0
 62
     0
100
AcDbLine
 10
0.0
 20
-2.5
 30
0.0
 11
0.0
 21
-3.5
 31
0.0
  0
LINE
  5
170A5
330
1709C
100
AcDbEntity
  8
SLD-0
 62
     0
100
AcDbLine
 10
2.5
 20
0.0
 30
0.0
 11
3.5
 21
0.0
 31
0.0
  0
ENDBLK
  5
170A6
330
1709C
100
AcDbEntity
  8
0
100
AcDbBlockEnd
  0
BLOCK
  5
170A8
330
170A7
100
AcDbEntity
  8
0
100
AcDbBlockBegin
  2
SW_CENTERMARKSYMBOL_14
 70
     0
 10
0.0
 20
0.0
 30
0.0
  3
SW_CENTERMARKSYMBOL_14
  1
SW_CENTERMARKSYMBOL_14
  0
LINE
  5
170A9
330
170A7
100
AcDbEntity
  8
SLD-0
 62
     0
100
AcDbLine
 10
0.0
 20
0.0
 30
0.0
 11
0.0
 21
1.25
 31
0.0
  0
LINE
  5
170AA
330
170A7
100
AcDbEntity
  8
SLD-0
 62
     0
100
AcDbLine
 10
0.0
 20
0.0
 30
0.0
 11
-1.25
 21
0.0
 31
0.0
  0
LINE
  5
170AB
330
170A7
100
AcDbEntity
  8
SLD-0
 62
     0
100
AcDbLine
 10
0.0
 20
0.0
 30
0.0
 11
0.0
 21
-1.25
 31
0.0
  0
LINE
  5
170AC
330
170A7
100
AcDbEntity
  8
SLD-0
 62
     0
100
AcDbLine
 10
0.0
 20
0.0
 30
0.0
 11
1.25
 21
0.0
 31
0.0
  0
LINE
  5
170AD
330
170A7
100
AcDbEntity
  8
SLD-0
 62
     0
100
AcDbLine
 10
0.0
 20
2.5
 30
0.0
 11
0.0
 21
3.5
 31
0.0
  0
LINE
  5
170AE
330
170A7
100
AcDbEntity
  8
SLD-0
 62
     0
100
AcDbLine
 10
-2.5
 20
0.0
 30
0.0
 11
-3.5
 21
0.0
 31
0.0
  0
LINE
  5
170AF
330
170A7
100
AcDbEntity
  8
SLD-0
 62
     0
100
AcDbLine
 10
0.0
 20
-2.5
 30
0.0
 11
0.0
 21
-3.5
 31
0.0
  0
LINE
  5
170B0
330
170A7
100
AcDbEntity
  8
SLD-0
 62
     0
100
AcDbLine
 10
2.5
 20
0.0
 30
0.0
 11
3.5
 21
0.0
 31
0.0
  0
ENDBLK
  5
170B1
330
170A7
100
AcDbEntity
  8
0
100
AcDbBlockEnd
  0
BLOCK
  5
172BF
330
172BE
100
AcDbEntity
  8
0
100
AcDbBlockBegin
  2
SW_CENTERMARKSYMBOL_0
 70
     0
 10
0.0
 20
0.0
 30
0.0
  3
SW_CENTERMARKSYMBOL_0
  1
SW_CENTERMARKSYMBOL_0
  0
LINE
  5
172C0
330
172BE
100
AcDbEntity
  8
240
 62
     0
100
AcDbLine
 10
0.0
 20
0.0
 30
0.0
 11
0.0
 21
2.5
 31
0.0
  0
LINE
  5
172C1
330
172BE
100
AcDbEntity
  8
240
 62
     0
100
AcDbLine
 10
0.0
 20
0.0
 30
0.0
 11
-2.5
 21
0.0
 31
0.0
  0
LINE
  5
172C2
330
172BE
100
AcDbEntity
  8
240
 62
     0
100
AcDbLine
 10
0.0
 20
0.0
 30
0.0
 11
0.0
 21
-2.5
 31
0.0
  0
LINE
  5
172C3
330
172BE
100
AcDbEntity
  8
240
 62
     0
100
AcDbLine
 10
0.0
 20
0.0
 30
0.0
 11
2.5
 21
0.0
 31
0.0
  0
LINE
  5
172C4
330
172BE
100
AcDbEntity
  8
240
 62
     0
100
AcDbLine
 10
0.0
 20
2.5
 30
0.0
 11
0.0
 21
3.6
 31
0.0
  0
LINE
  5
172C5
330
172BE
100
AcDbEntity
  8
240
 62
     0
100
AcDbLine
 10
-2.5
 20
0.0
 30
0.0
 11
-3.6
 21
0.0
 31
0.0
  0
LINE
  5
172C6
330
172BE
100
AcDbEntity
  8
240
 62
     0
100
AcDbLine
 10
0.0
 20
-2.5
 30
0.0
 11
0.0
 21
-3.6
 31
0.0
  0
LINE
  5
172C7
330
172BE
100
AcDbEntity
  8
240
 62
     0
100
AcDbLine
 10
2.5
 20
0.0
 30
0.0
 11
3.6
 21
0.0
 31
0.0
  0
ENDBLK
  5
172C8
330
172BE
100
AcDbEntity
  8
0
100
AcDbBlockEnd
  0
BLOCK
  5
172CA
330
172C9
100
AcDbEntity
  8
0
100
AcDbBlockBegin
  2
SW_CENTERMARKSYMBOL_1
 70
     0
 10
0.0
 20
0.0
 30
0.0
  3
SW_CENTERMARKSYMBOL_1
  1
SW_CENTERMARKSYMBOL_1
  0
LINE
  5
172CB
330
172C9
100
AcDbEntity
  8
240
 62
     0
100
AcDbLine
 10
0.0
 20
0.0
 30
0.0
 11
0.0
 21
2.5
 31
0.0
  0
LINE
  5
172CC
330
172C9
100
AcDbEntity
  8
240
 62
     0
100
AcDbLine
 10
0.0
 20
0.0
 30
0.0
 11
-2.5
 21
0.0
 31
0.0
  0
LINE
  5
172CD
330
172C9
100
AcDbEntity
  8
240
 62
     0
100
AcDbLine
 10
0.0
 20
0.0
 30
0.0
 11
0.0
 21
-2.5
 31
0.0
  0
LINE
  5
172CE
330
172C9
100
AcDbEntity
  8
240
 62
     0
100
AcDbLine
 10
0.0
 20
0.0
 30
0.0
 11
2.5
 21
0.0
 31
0.0
  0
LINE
  5
172CF
330
172C9
100
AcDbEntity
  8
240
 62
     0
100
AcDbLine
 10
0.0
 20
2.5
 30
0.0
 11
0.0
 21
3.1
 31
0.0
  0
LINE
  5
172D0
330
172C9
100
AcDbEntity
  8
240
 62
     0
100
AcDbLine
 10
-2.5
 20
0.0
 30
0.0
 11
-3.1
 21
0.0
 31
0.0
  0
LINE
  5
172D1
330
172C9
100
AcDbEntity
  8
240
 62
     0
100
AcDbLine
 10
0.0
 20
-2.5
 30
0.0
 11
0.0
 21
-3.1
 31
0.0
  0
LINE
  5
172D2
330
172C9
100
AcDbEntity
  8
240
 62
     0
100
AcDbLine
 10
2.5
 20
0.0
 30
0.0
 11
3.1
 21
0.0
 31
0.0
  0
ENDBLK
  5
172D3
330
172C9
100
AcDbEntity
  8
0
100
AcDbBlockEnd
  0
BLOCK
  5
172D5
330
172D4
100
AcDbEntity
  8
0
100
AcDbBlockBegin
  2
SW_CENTERMARKSYMBOL_2
 70
     0
 10
0.0
 20
0.0
 30
0.0
  3
SW_CENTERMARKSYMBOL_2
  1
SW_CENTERMARKSYMBOL_2
  0
LINE
  5
172D6
330
172D4
100
AcDbEntity
  8
240
 62
     0
100
AcDbLine
 10
0.0
 20
0.0
 30
0.0
 11
0.0
 21
2.5
 31
0.0
  0
LINE
  5
172D7
330
172D4
100
AcDbEntity
  8
240
 62
     0
100
AcDbLine
 10
0.0
 20
0.0
 30
0.0
 11
-2.5
 21
0.0
 31
0.0
  0
LINE
  5
172D8
330
172D4
100
AcDbEntity
  8
240
 62
     0
100
AcDbLine
 10
0.0
 20
0.0
 30
0.0
 11
0.0
 21
-2.5
 31
0.0
  0
LINE
  5
172D9
330
172D4
100
AcDbEntity
  8
240
 62
     0
100
AcDbLine
 10
0.0
 20
0.0
 30
0.0
 11
2.5
 21
0.0
 31
0.0
  0
LINE
  5
172DA
330
172D4
100
AcDbEntity
  8
240
 62
     0
100
AcDbLine
 10
0.0
 20
2.5
 30
0.0
 11
0.0
 21
3.1
 31
0.0
  0
LINE
  5
172DB
330
172D4
100
AcDbEntity
  8
240
 62
     0
100
AcDbLine
 10
-2.5
 20
0.0
 30
0.0
 11
-3.1
 21
0.0
 31
0.0
  0
LINE
  5
172DC
330
172D4
100
AcDbEntity
  8
240
 62
     0
100
AcDbLine
 10
0.0
 20
-2.5
 30
0.0
 11
0.0
 21
-3.1
 31
0.0
  0
LINE
  5
172DD
330
172D4
100
AcDbEntity
  8
240
 62
     0
100
AcDbLine
 10
2.5
 20
0.0
 30
0.0
 11
3.1
 21
0.0
 31
0.0
  0
ENDBLK
  5
172DE
330
172D4
100
AcDbEntity
  8
0
100
AcDbBlockEnd
  0
BLOCK
  5
172E0
330
172DF
100
AcDbEntity
  8
0
100
AcDbBlockBegin
  2
SW_CENTERMARKSYMBOL_3
 70
     0
 10
0.0
 20
0.0
 30
0.0
  3
SW_CENTERMARKSYMBOL_3
  1
SW_CENTERMARKSYMBOL_3
  0
LINE
  5
172E1
330
172DF
100
AcDbEntity
  8
240
 62
     0
100
AcDbLine
 10
0.0
 20
0.0
 30
0.0
 11
0.0
 21
2.5
 31
0.0
  0
LINE
  5
172E2
330
172DF
100
AcDbEntity
  8
240
 62
     0
100
AcDbLine
 10
0.0
 20
0.0
 30
0.0
 11
-2.5
 21
0.0
 31
0.0
  0
LINE
  5
172E3
330
172DF
100
AcDbEntity
  8
240
 62
     0
100
AcDbLine
 10
0.0
 20
0.0
 30
0.0
 11
0.0
 21
-2.5
 31
0.0
  0
LINE
  5
172E4
330
172DF
100
AcDbEntity
  8
240
 62
     0
100
AcDbLine
 10
0.0
 20
0.0
 30
0.0
 11
2.5
 21
0.0
 31
0.0
  0
LINE
  5
172E5
330
172DF
100
AcDbEntity
  8
240
 62
     0
100
AcDbLine
 10
0.0
 20
2.5
 30
0.0
 11
0.0
 21
3.1
 31
0.0
  0
LINE
  5
172E6
330
172DF
100
AcDbEntity
  8
240
 62
     0
100
AcDbLine
 10
-2.5
 20
0.0
 30
0.0
 11
-3.1
 21
0.0
 31
0.0
  0
LINE
  5
172E7
330
172DF
100
AcDbEntity
  8
240
 62
     0
100
AcDbLine
 10
0.0
 20
-2.5
 30
0.0
 11
0.0
 21
-3.1
 31
0.0
  0
LINE
  5
172E8
330
172DF
100
AcDbEntity
  8
240
 62
     0
100
AcDbLine
 10
2.5
 20
0.0
 30
0.0
 11
3.1
 21
0.0
 31
0.0
  0
ENDBLK
  5
172E9
330
172DF
100
AcDbEntity
  8
0
100
AcDbBlockEnd
  0
BLOCK
  5
175B5
330
175B4
100
AcDbEntity
  8
0
100
AcDbBlockBegin
  2
SW_CENTERMARKSYMBOL_28
 70
     0
 10
0.0
 20
0.0
 30
0.0
  3
SW_CENTERMARKSYMBOL_28
  1
SW_CENTERMARKSYMBOL_28
  0
LINE
  5
175B6
330
175B4
100
AcDbEntity
  8
240
 62
     0
100
AcDbLine
 10
0.0
 20
0.0
 30
0.0
 11
0.0
 21
0.5
 31
0.0
  0
LINE
  5
175B7
330
175B4
100
AcDbEntity
  8
240
 62
     0
100
AcDbLine
 10
0.0
 20
0.0
 30
0.0
 11
-0.5
 21
0.0
 31
0.0
  0
LINE
  5
175B8
330
175B4
100
AcDbEntity
  8
240
 62
     0
100
AcDbLine
 10
0.0
 20
0.0
 30
0.0
 11
0.0
 21
-0.5
 31
0.0
  0
LINE
  5
175B9
330
175B4
100
AcDbEntity
  8
240
 62
     0
100
AcDbLine
 10
0.0
 20
0.0
 30
0.0
 11
0.5
 21
0.0
 31
0.0
  0
LINE
  5
175BA
330
175B4
100
AcDbEntity
  8
240
 62
     0
100
AcDbLine
 10
0.0
 20
1.0
 30
0.0
 11
0.0
 21
1.423760430699999
 31
0.0
  0
LINE
  5
175BB
330
175B4
100
AcDbEntity
  8
240
 62
     0
100
AcDbLine
 10
-1.0
 20
0.0
 30
0.0
 11
-1.423760430699999
 21
0.0
 31
0.0
  0
LINE
  5
175BC
330
175B4
100
AcDbEntity
  8
240
 62
     0
100
AcDbLine
 10
0.0
 20
-1.0
 30
0.0
 11
0.0
 21
-1.423760430699999
 31
0.0
  0
LINE
  5
175BD
330
175B4
100
AcDbEntity
  8
240
 62
     0
100
AcDbLine
 10
1.0
 20
0.0
 30
0.0
 11
1.423760430699999
 21
0.0
 31
0.0
  0
ENDBLK
  5
175BE
330
175B4
100
AcDbEntity
  8
0
100
AcDbBlockEnd
  0
BLOCK
  5
175C0
330
175BF
100
AcDbEntity
  8
0
100
AcDbBlockBegin
  2
SW_CENTERMARKSYMBOL_36
 70
     0
 10
0.0
 20
0.0
 30
0.0
  3
SW_CENTERMARKSYMBOL_36
  1
SW_CENTERMARKSYMBOL_36
  0
LINE
  5
175C1
330
175BF
100
AcDbEntity
  8
240
 62
     0
100
AcDbLine
 10
0.0
 20
0.0
 30
0.0
 11
0.0
 21
0.5
 31
0.0
  0
LINE
  5
175C2
330
175BF
100
AcDbEntity
  8
240
 62
     0
100
AcDbLine
 10
0.0
 20
0.0
 30
0.0
 11
-0.5
 21
0.0
 31
0.0
  0
LINE
  5
175C3
330
175BF
100
AcDbEntity
  8
240
 62
     0
100
AcDbLine
 10
0.0
 20
0.0
 30
0.0
 11
0.0
 21
-0.5
 31
0.0
  0
LINE
  5
175C4
330
175BF
100
AcDbEntity
  8
240
 62
     0
100
AcDbLine
 10
0.0
 20
0.0
 30
0.0
 11
0.5
 21
0.0
 31
0.0
  0
LINE
  5
175C5
330
175BF
100
AcDbEntity
  8
240
 62
     0
100
AcDbLine
 10
0.0
 20
1.0
 30
0.0
 11
0.0
 21
1.9
 31
0.0
  0
LINE
  5
175C6
330
175BF
100
AcDbEntity
  8
240
 62
     0
100
AcDbLine
 10
-1.0
 20
0.0
 30
0.0
 11
-1.9
 21
0.0
 31
0.0
  0
LINE
  5
175C7
330
175BF
100
AcDbEntity
  8
240
 62
     0
100
AcDbLine
 10
0.0
 20
-1.0
 30
0.0
 11
0.0
 21
-1.9
 31
0.0
  0
LINE
  5
175C8
330
175BF
100
AcDbEntity
  8
240
 62
     0
100
AcDbLine
 10
1.0
 20
0.0
 30
0.0
 11
1.9
 21
0.0
 31
0.0
  0
ENDBLK
  5
175C9
330
175BF
100
AcDbEntity
  8
0
100
AcDbBlockEnd
  0
BLOCK
  5
175CB
330
175CA
100
AcDbEntity
  8
0
100
AcDbBlockBegin
  2
SW_CENTERMARKSYMBOL_37
 70
     0
 10
0.0
 20
0.0
 30
0.0
  3
SW_CENTERMARKSYMBOL_37
  1
SW_CENTERMARKSYMBOL_37
  0
LINE
  5
175CC
330
175CA
100
AcDbEntity
  8
240
 62
     0
100
AcDbLine
 10
0.0
 20
0.0
 30
0.0
 11
0.0
 21
0.5
 31
0.0
  0
LINE
  5
175CD
330
175CA
100
AcDbEntity
  8
240
 62
     0
100
AcDbLine
 10
0.0
 20
0.0
 30
0.0
 11
-0.5
 21
0.0
 31
0.0
  0
LINE
  5
175CE
330
175CA
100
AcDbEntity
  8
240
 62
     0
100
AcDbLine
 10
0.0
 20
0.0
 30
0.0
 11
0.0
 21
-0.5
 31
0.0
  0
LINE
  5
175CF
330
175CA
100
AcDbEntity
  8
240
 62
     0
100
AcDbLine
 10
0.0
 20
0.0
 30
0.0
 11
0.5
 21
0.0
 31
0.0
  0
LINE
  5
175D0
330
175CA
100
AcDbEntity
  8
240
 62
     0
100
AcDbLine
 10
0.0
 20
1.0
 30
0.0
 11
0.0
 21
1.9
 31
0.0
  0
LINE
  5
175D1
330
175CA
100
AcDbEntity
  8
240
 62
     0
100
AcDbLine
 10
-1.0
 20
0.0
 30
0.0
 11
-1.9
 21
0.0
 31
0.0
  0
LINE
  5
175D2
330
175CA
100
AcDbEntity
  8
240
 62
     0
100
AcDbLine
 10
0.0
 20
-1.0
 30
0.0
 11
0.0
 21
-1.9
 31
0.0
  0
LINE
  5
175D3
330
175CA
100
AcDbEntity
  8
240
 62
     0
100
AcDbLine
 10
1.0
 20
0.0
 30
0.0
 11
1.9
 21
0.0
 31
0.0
  0
ENDBLK
  5
175D4
330
175CA
100
AcDbEntity
  8
0
100
AcDbBlockEnd
  0
BLOCK
  5
178FD
330
178FC
100
AcDbEntity
  8
0
100
AcDbBlockBegin
  2
SW_CENTERMARKSYMBOL_27
 70
     0
 10
0.0
 20
0.0
 30
0.0
  3
SW_CENTERMARKSYMBOL_27
  1
SW_CENTERMARKSYMBOL_27
  0
LINE
  5
178FE
330
178FC
100
AcDbEntity
  8
240
 62
     0
100
AcDbLine
 10
0.0
 20
0.0
 30
0.0
 11
0.0
 21
0.5
 31
0.0
  0
LINE
  5
178FF
330
178FC
100
AcDbEntity
  8
240
 62
     0
100
AcDbLine
 10
0.0
 20
0.0
 30
0.0
 11
-0.5
 21
0.0
 31
0.0
  0
LINE
  5
17900
330
178FC
100
AcDbEntity
  8
240
 62
     0
100
AcDbLine
 10
0.0
 20
0.0
 30
0.0
 11
0.0
 21
-0.5
 31
0.0
  0
LINE
  5
17901
330
178FC
100
AcDbEntity
  8
240
 62
     0
100
AcDbLine
 10
0.0
 20
0.0
 30
0.0
 11
0.5
 21
0.0
 31
0.0
  0
LINE
  5
17902
330
178FC
100
AcDbEntity
  8
240
 62
     0
100
AcDbLine
 10
0.0
 20
1.0
 30
0.0
 11
0.0
 21
1.9
 31
0.0
  0
LINE
  5
17903
330
178FC
100
AcDbEntity
  8
240
 62
     0
100
AcDbLine
 10
-1.0
 20
0.0
 30
0.0
 11
-1.9
 21
0.0
 31
0.0
  0
LINE
  5
17904
330
178FC
100
AcDbEntity
  8
240
 62
     0
100
AcDbLine
 10
0.0
 20
-1.0
 30
0.0
 11
0.0
 21
-1.9
 31
0.0
  0
LINE
  5
17905
330
178FC
100
AcDbEntity
  8
240
 62
     0
100
AcDbLine
 10
1.0
 20
0.0
 30
0.0
 11
1.9
 21
0.0
 31
0.0
  0
ENDBLK
  5
17906
330
178FC
100
AcDbEntity
  8
0
100
AcDbBlockEnd
  0
BLOCK
  5
17908
330
17907
100
AcDbEntity
  8
0
100
AcDbBlockBegin
  2
SW_CENTERMARKSYMBOL_35
 70
     0
 10
0.0
 20
0.0
 30
0.0
  3
SW_CENTERMARKSYMBOL_35
  1
SW_CENTERMARKSYMBOL_35
  0
LINE
  5
17909
330
17907
100
AcDbEntity
  8
240
 62
     0
100
AcDbLine
 10
0.0
 20
0.0
 30
0.0
 11
0.0
 21
0.5
 31
0.0
  0
LINE
  5
1790A
330
17907
100
AcDbEntity
  8
240
 62
     0
100
AcDbLine
 10
0.0
 20
0.0
 30
0.0
 11
-0.5
 21
0.0
 31
0.0
  0
LINE
  5
1790B
330
17907
100
AcDbEntity
  8
240
 62
     0
100
AcDbLine
 10
0.0
 20
0.0
 30
0.0
 11
0.0
 21
-0.5
 31
0.0
  0
LINE
  5
1790C
330
17907
100
AcDbEntity
  8
240
 62
     0
100
AcDbLine
 10
0.0
 20
0.0
 30
0.0
 11
0.5
 21
0.0
 31
0.0
  0
LINE
  5
1790D
330
17907
100
AcDbEntity
  8
240
 62
     0
100
AcDbLine
 10
0.0
 20
1.0
 30
0.0
 11
0.0
 21
2.1
 31
0.0
  0
LINE
  5
1790E
330
17907
100
AcDbEntity
  8
240
 62
     0
100
AcDbLine
 10
-1.0
 20
0.0
 30
0.0
 11
-2.1
 21
0.0
 31
0.0
  0
LINE
  5
1790F
330
17907
100
AcDbEntity
  8
240
 62
     0
100
AcDbLine
 10
0.0
 20
-1.0
 30
0.0
 11
0.0
 21
-2.1
 31
0.0
  0
LINE
  5
17910
330
17907
100
AcDbEntity
  8
240
 62
     0
100
AcDbLine
 10
1.0
 20
0.0
 30
0.0
 11
2.1
 21
0.0
 31
0.0
  0
ENDBLK
  5
17911
330
17907
100
AcDbEntity
  8
0
100
AcDbBlockEnd
  0
BLOCK
  5
17CD5
330
17CD4
100
AcDbEntity
  8
0
100
AcDbBlockBegin
  2
SW_CENTERMARKSYMBOL_4
 70
     0
 10
0.0
 20
0.0
 30
0.0
  3
SW_CENTERMARKSYMBOL_4
  1
SW_CENTERMARKSYMBOL_4
  0
LINE
  5
17CD6
330
17CD4
100
AcDbEntity
  8
SLD-0
 62
     0
100
AcDbLine
 10
0.0
 20
0.0
 30
0.0
 11
0.0
 21
0.5
 31
0.0
  0
LINE
  5
17CD7
330
17CD4
100
AcDbEntity
  8
SLD-0
 62
     0
100
AcDbLine
 10
0.0
 20
0.0
 30
0.0
 11
-0.5
 21
0.0
 31
0.0
  0
LINE
  5
17CD8
330
17CD4
100
AcDbEntity
  8
SLD-0
 62
     0
100
AcDbLine
 10
0.0
 20
0.0
 30
0.0
 11
0.0
 21
-0.5
 31
0.0
  0
LINE
  5
17CD9
330
17CD4
100
AcDbEntity
  8
SLD-0
 62
     0
100
AcDbLine
 10
0.0
 20
0.0
 30
0.0
 11
0.5
 21
0.0
 31
0.0
  0
LINE
  5
17CDA
330
17CD4
100
AcDbEntity
  8
SLD-0
 62
     0
100
AcDbLine
 10
0.0
 20
1.0
 30
0.0
 11
0.0
 21
1.1
 31
0.0
  0
LINE
  5
17CDB
330
17CD4
100
AcDbEntity
  8
SLD-0
 62
     0
100
AcDbLine
 10
-1.0
 20
0.0
 30
0.0
 11
-1.1
 21
0.0
 31
0.0
  0
LINE
  5
17CDC
330
17CD4
100
AcDbEntity
  8
SLD-0
 62
     0
100
AcDbLine
 10
0.0
 20
-1.0
 30
0.0
 11
0.0
 21
-1.1
 31
0.0
  0
LINE
  5
17CDD
330
17CD4
100
AcDbEntity
  8
SLD-0
 62
     0
100
AcDbLine
 10
1.0
 20
0.0
 30
0.0
 11
1.1
 21
0.0
 31
0.0
  0
ENDBLK
  5
17CDE
330
17CD4
100
AcDbEntity
  8
0
100
AcDbBlockEnd
  0
BLOCK
  5
17CE0
330
17CDF
100
AcDbEntity
  8
0
100
AcDbBlockBegin
  2
SW_CENTERMARKSYMBOL_5
 70
     0
 10
0.0
 20
0.0
 30
0.0
  3
SW_CENTERMARKSYMBOL_5
  1
SW_CENTERMARKSYMBOL_5
  0
LINE
  5
17CE1
330
17CDF
100
AcDbEntity
  8
SLD-0
 62
     0
100
AcDbLine
 10
0.0
 20
0.0
 30
0.0
 11
0.0
 21
0.5
 31
0.0
  0
LINE
  5
17CE2
330
17CDF
100
AcDbEntity
  8
SLD-0
 62
     0
100
AcDbLine
 10
0.0
 20
0.0
 30
0.0
 11
-0.5
 21
0.0
 31
0.0
  0
LINE
  5
17CE3
330
17CDF
100
AcDbEntity
  8
SLD-0
 62
     0
100
AcDbLine
 10
0.0
 20
0.0
 30
0.0
 11
0.0
 21
-0.5
 31
0.0
  0
LINE
  5
17CE4
330
17CDF
100
AcDbEntity
  8
SLD-0
 62
     0
100
AcDbLine
 10
0.0
 20
0.0
 30
0.0
 11
0.5
 21
0.0
 31
0.0
  0
LINE
  5
17CE5
330
17CDF
100
AcDbEntity
  8
SLD-0
 62
     0
100
AcDbLine
 10
0.0
 20
1.0
 30
0.0
 11
0.0
 21
1.1
 31
0.0
  0
LINE
  5
17CE6
330
17CDF
100
AcDbEntity
  8
SLD-0
 62
     0
100
AcDbLine
 10
-1.0
 20
0.0
 30
0.0
 11
-1.1
 21
0.0
 31
0.0
  0
LINE
  5
17CE7
330
17CDF
100
AcDbEntity
  8
SLD-0
 62
     0
100
AcDbLine
 10
0.0
 20
-1.0
 30
0.0
 11
0.0
 21
-1.1
 31
0.0
  0
LINE
  5
17CE8
330
17CDF
100
AcDbEntity
  8
SLD-0
 62
     0
100
AcDbLine
 10
1.0
 20
0.0
 30
0.0
 11
1.1
 21
0.0
 31
0.0
  0
ENDBLK
  5
17CE9
330
17CDF
100
AcDbEntity
  8
0
100
AcDbBlockEnd
  0
BLOCK
  5
17CEB
330
17CEA
100
AcDbEntity
  8
0
100
AcDbBlockBegin
  2
SW_CENTERMARKSYMBOL_6
 70
     0
 10
0.0
 20
0.0
 30
0.0
  3
SW_CENTERMARKSYMBOL_6
  1
SW_CENTERMARKSYMBOL_6
  0
LINE
  5
17CEC
330
17CEA
100
AcDbEntity
  8
SLD-0
 62
     0
100
AcDbLine
 10
0.0
 20
0.0
 30
0.0
 11
0.0
 21
0.5
 31
0.0
  0
LINE
  5
17CED
330
17CEA
100
AcDbEntity
  8
SLD-0
 62
     0
100
AcDbLine
 10
0.0
 20
0.0
 30
0.0
 11
-0.5
 21
0.0
 31
0.0
  0
LINE
  5
17CEE
330
17CEA
100
AcDbEntity
  8
SLD-0
 62
     0
100
AcDbLine
 10
0.0
 20
0.0
 30
0.0
 11
0.0
 21
-0.5
 31
0.0
  0
LINE
  5
17CEF
330
17CEA
100
AcDbEntity
  8
SLD-0
 62
     0
100
AcDbLine
 10
0.0
 20
0.0
 30
0.0
 11
0.5
 21
0.0
 31
0.0
  0
LINE
  5
17CF0
330
17CEA
100
AcDbEntity
  8
SLD-0
 62
     0
100
AcDbLine
 10
0.0
 20
1.0
 30
0.0
 11
0.0
 21
1.1
 31
0.0
  0
LINE
  5
17CF1
330
17CEA
100
AcDbEntity
  8
SLD-0
 62
     0
100
AcDbLine
 10
-1.0
 20
0.0
 30
0.0
 11
-1.1
 21
0.0
 31
0.0
  0
LINE
  5
17CF2
330
17CEA
100
AcDbEntity
  8
SLD-0
 62
     0
100
AcDbLine
 10
0.0
 20
-1.0
 30
0.0
 11
0.0
 21
-1.1
 31
0.0
  0
LINE
  5
17CF3
330
17CEA
100
AcDbEntity
  8
SLD-0
 62
     0
100
AcDbLine
 10
1.0
 20
0.0
 30
0.0
 11
1.1
 21
0.0
 31
0.0
  0
ENDBLK
  5
17CF4
330
17CEA
100
AcDbEntity
  8
0
100
AcDbBlockEnd
  0
BLOCK
  5
17CF6
330
17CF5
100
AcDbEntity
  8
0
100
AcDbBlockBegin
  2
SW_CENTERMARKSYMBOL_7
 70
     0
 10
0.0
 20
0.0
 30
0.0
  3
SW_CENTERMARKSYMBOL_7
  1
SW_CENTERMARKSYMBOL_7
  0
LINE
  5
17CF7
330
17CF5
100
AcDbEntity
  8
SLD-0
 62
     0
100
AcDbLine
 10
0.0
 20
0.0
 30
0.0
 11
0.0
 21
0.5
 31
0.0
  0
LINE
  5
17CF8
330
17CF5
100
AcDbEntity
  8
SLD-0
 62
     0
100
AcDbLine
 10
0.0
 20
0.0
 30
0.0
 11
-0.5
 21
0.0
 31
0.0
  0
LINE
  5
17CF9
330
17CF5
100
AcDbEntity
  8
SLD-0
 62
     0
100
AcDbLine
 10
0.0
 20
0.0
 30
0.0
 11
0.0
 21
-0.5
 31
0.0
  0
LINE
  5
17CFA
330
17CF5
100
AcDbEntity
  8
SLD-0
 62
     0
100
AcDbLine
 10
0.0
 20
0.0
 30
0.0
 11
0.5
 21
0.0
 31
0.0
  0
LINE
  5
17CFB
330
17CF5
100
AcDbEntity
  8
SLD-0
 62
     0
100
AcDbLine
 10
0.0
 20
1.0
 30
0.0
 11
0.0
 21
1.1
 31
0.0
  0
LINE
  5
17CFC
330
17CF5
100
AcDbEntity
  8
SLD-0
 62
     0
100
AcDbLine
 10
-1.0
 20
0.0
 30
0.0
 11
-1.1
 21
0.0
 31
0.0
  0
LINE
  5
17CFD
330
17CF5
100
AcDbEntity
  8
SLD-0
 62
     0
100
AcDbLine
 10
0.0
 20
-1.0
 30
0.0
 11
0.0
 21
-1.1
 31
0.0
  0
LINE
  5
17CFE
330
17CF5
100
AcDbEntity
  8
SLD-0
 62
     0
100
AcDbLine
 10
1.0
 20
0.0
 30
0.0
 11
1.1
 21
0.0
 31
0.0
  0
ENDBLK
  5
17CFF
330
17CF5
100
AcDbEntity
  8
0
100
AcDbBlockEnd
  0
BLOCK
  5
17D01
330
17D00
100
AcDbEntity
  8
0
100
AcDbBlockBegin
  2
SW_CENTERMARKSYMBOL_26
 70
     0
 10
0.0
 20
0.0
 30
0.0
  3
SW_CENTERMARKSYMBOL_26
  1
SW_CENTERMARKSYMBOL_26
  0
LINE
  5
17D02
330
17D00
100
AcDbEntity
  8
SLD-0
 62
     0
100
AcDbLine
 10
0.0
 20
0.0
 30
0.0
 11
0.0
 21
0.5
 31
0.0
  0
LINE
  5
17D03
330
17D00
100
AcDbEntity
  8
SLD-0
 62
     0
100
AcDbLine
 10
0.0
 20
0.0
 30
0.0
 11
-0.5
 21
0.0
 31
0.0
  0
LINE
  5
17D04
330
17D00
100
AcDbEntity
  8
SLD-0
 62
     0
100
AcDbLine
 10
0.0
 20
0.0
 30
0.0
 11
0.0
 21
-0.5
 31
0.0
  0
LINE
  5
17D05
330
17D00
100
AcDbEntity
  8
SLD-0
 62
     0
100
AcDbLine
 10
0.0
 20
0.0
 30
0.0
 11
0.5
 21
0.0
 31
0.0
  0
LINE
  5
17D06
330
17D00
100
AcDbEntity
  8
SLD-0
 62
     0
100
AcDbLine
 10
0.0
 20
1.0
 30
0.0
 11
0.0
 21
1.199999999999999
 31
0.0
  0
LINE
  5
17D07
330
17D00
100
AcDbEntity
  8
SLD-0
 62
     0
100
AcDbLine
 10
-1.0
 20
0.0
 30
0.0
 11
-1.199999999999999
 21
0.0
 31
0.0
  0
LINE
  5
17D08
330
17D00
100
AcDbEntity
  8
SLD-0
 62
     0
100
AcDbLine
 10
0.0
 20
-1.0
 30
0.0
 11
0.0
 21
-1.199999999999999
 31
0.0
  0
LINE
  5
17D09
330
17D00
100
AcDbEntity
  8
SLD-0
 62
     0
100
AcDbLine
 10
1.0
 20
0.0
 30
0.0
 11
1.199999999999999
 21
0.0
 31
0.0
  0
ENDBLK
  5
17D0A
330
17D00
100
AcDbEntity
  8
0
100
AcDbBlockEnd
  0
BLOCK
  5
17D0C
330
17D0B
100
AcDbEntity
  8
0
100
AcDbBlockBegin
  2
SW_CENTERMARKSYMBOL_29
 70
     0
 10
0.0
 20
0.0
 30
0.0
  3
SW_CENTERMARKSYMBOL_29
  1
SW_CENTERMARKSYMBOL_29
  0
LINE
  5
17D0D
330
17D0B
100
AcDbEntity
  8
SLD-0
 62
     0
100
AcDbLine
 10
0.0
 20
0.0
 30
0.0
 11
0.0
 21
0.5
 31
0.0
  0
LINE
  5
17D0E
330
17D0B
100
AcDbEntity
  8
SLD-0
 62
     0
100
AcDbLine
 10
0.0
 20
0.0
 30
0.0
 11
-0.5
 21
0.0
 31
0.0
  0
LINE
  5
17D0F
330
17D0B
100
AcDbEntity
  8
SLD-0
 62
     0
100
AcDbLine
 10
0.0
 20
0.0
 30
0.0
 11
0.0
 21
-0.5
 31
0.0
  0
LINE
  5
17D10
330
17D0B
100
AcDbEntity
  8
SLD-0
 62
     0
100
AcDbLine
 10
0.0
 20
0.0
 30
0.0
 11
0.5
 21
0.0
 31
0.0
  0
LINE
  5
17D11
330
17D0B
100
AcDbEntity
  8
SLD-0
 62
     0
100
AcDbLine
 10
0.0
 20
1.0
 30
0.0
 11
0.0
 21
1.199999999999999
 31
0.0
  0
LINE
  5
17D12
330
17D0B
100
AcDbEntity
  8
SLD-0
 62
     0
100
AcDbLine
 10
-1.0
 20
0.0
 30
0.0
 11
-1.199999999999999
 21
0.0
 31
0.0
  0
LINE
  5
17D13
330
17D0B
100
AcDbEntity
  8
SLD-0
 62
     0
100
AcDbLine
 10
0.0
 20
-1.0
 30
0.0
 11
0.0
 21
-1.199999999999999
 31
0.0
  0
LINE
  5
17D14
330
17D0B
100
AcDbEntity
  8
SLD-0
 62
     0
100
AcDbLine
 10
1.0
 20
0.0
 30
0.0
 11
1.199999999999999
 21
0.0
 31
0.0
  0
ENDBLK
  5
17D15
330
17D0B
100
AcDbEntity
  8
0
100
AcDbBlockEnd
  0
BLOCK
  5
19AA9
330
19AA8
100
AcDbEntity
  8
0
100
AcDbBlockBegin
  2
*D60
 70
     1
 10
0.0
 20
0.0
 30
0.0
  3
*D60
  1

  0
LINE
  5
1C019
330
19AA8
100
AcDbEntity
  8
30
  6
Continuous
 62
     0
440
 16777216
370
    -2
100
AcDbLine
 10
101.2839548768725
 20
784.9938972774823
 30
0.0
 11
101.2839548768725
 21
817.0354919076959
 31
0.0
  0
LINE
  5
1C01A
330
19AA8
100
AcDbEntity
  8
30
  6
Continuous
 62
     0
440
 16777216
370
    -2
100
AcDbLine
 10
221.2839548768725
 20
784.9938972774823
 30
0.0
 11
221.2839548768725
 21
817.0354919076959
 31
0.0
  0
LINE
  5
1C01B
330
19AA8
100
AcDbEntity
  8
30
  6
Continuous
 62
     0
440
 16777216
370
    -2
100
AcDbLine
 10
103.2839548768725
 20
816.5354919076959
 30
0.0
 11
219.2839548768725
 21
816.5354919076959
 31
0.0
  0
INSERT
  5
1C01C
330
19AA8
100
AcDbEntity
  8
30
  6
Continuous
 62
     0
440
 16777216
370
    -2
100
AcDbBlockReference
  2
_OPEN
 10
101.2839548768725
 20
816.5354919076959
 30
0.0
 41
2.0
 42
2.0
 43
2.0
 50
180.0
  0
INSERT
  5
1C01D
330
19AA8
100
AcDbEntity
  8
30
  6
Continuous
 62
     0
440
 16777216
370
    -2
100
AcDbBlockReference
  2
_OPEN
 10
221.2839548768725
 20
816.5354919076959
 30
0.0
 41
2.0
 42
2.0
 43
2.0
  0
MTEXT
  5
1C01E
330
19AA8
100
AcDbEntity
  8
30
  6
Continuous
440
 16777216
100
AcDbMText
 10
160.9483104526534
 20
827.5354919076958
 30
0.0
 40
8.0
 41
0.0
 46
0.0
 71
     2
 72
     1
  1
\A1;120
 73
     1
 44
1.0
 90
        3
 63
     9
421
 13158600
 45
1.25
441
        0
  0
POINT
  5
1C01F
330
19AA8
100
AcDbEntity
  8
DEFPOINTS
  6
Continuous
 62
     0
440
 16777216
100
AcDbPoint
 10
101.2839548768725
 20
783.9938972774823
 30
0.0
  0
POINT
  5
1C020
330
19AA8
100
AcDbEntity
  8
DEFPOINTS
  6
Continuous
 62
     0
440
 16777216
100
AcDbPoint
 10
221.2839548768725
 20
783.9938972774823
 30
0.0
  0
POINT
  5
1C021
330
19AA8
100
AcDbEntity
  8
DEFPOINTS
  6
Continuous
 62
     0
440
 16777216
100
AcDbPoint
 10
221.2839548768725
 20
816.5354919076959
 30
0.0
  0
ENDBLK
  5
19AAA
330
19AA8
100
AcDbEntity
  8
0
100
AcDbBlockEnd
  0
BLOCK
  5
19ACD
330
19ACC
100
AcDbEntity
  8
0
100
AcDbBlockBegin
  2
*D61
 70
     1
 10
0.0
 20
0.0
 30
0.0
  3
*D61
  1

  0
LINE
  5
1C022
330
19ACC
100
AcDbEntity
  8
30
 62
     0
440
 16777216
370
    -2
100
AcDbLine
 10
235.2839548768724
 20
789.9938972774823
 30
0.0
 11
235.2839548768724
 21
847.8033542543663
 31
0.0
  0
LINE
  5
1C023
330
19ACC
100
AcDbEntity
  8
30
 62
     0
440
 16777216
370
    -2
100
AcDbLine
 10
87.28395487687249
 20
789.9938972774823
 30
0.0
 11
87.28395487687249
 21
847.8033542543663
 31
0.0
  0
LINE
  5
1C024
330
19ACC
100
AcDbEntity
  8
30
 62
     0
440
 16777216
370
    -2
100
AcDbLine
 10
233.2839548768724
 20
847.3033542543664
 30
0.0
 11
89.28395487687248
 21
847.3033542543664
 31
0.0
  0
INSERT
  5
1C025
330
19ACC
100
AcDbEntity
  8
30
 62
     0
440
 16777216
370
    -2
100
AcDbBlockReference
  2
_OPEN
 10
235.2839548768724
 20
847.3033542543664
 30
0.0
 41
2.0
 42
2.0
 43
2.0
  0
INSERT
  5
1C026
330
19ACC
100
AcDbEntity
  8
30
 62
     0
440
 16777216
370
    -2
100
AcDbBlockReference
  2
_OPEN
 10
87.28395487687249
 20
847.3033542543664
 30
0.0
 41
2.0
 42
2.0
 43
2.0
 50
180.0
  0
MTEXT
  5
1C027
330
19ACC
100
AcDbEntity
  8
30
440
 16777216
100
AcDbMText
 10
161.2839548768723
 20
854.3033542543664
 30
0.0
 40
8.0
 41
0.0
 46
0.0
 71
     5
 72
     1
  1
\A1;148
 73
     1
 44
1.0
 90
        3
 63
     9
421
 13158600
 45
1.25
441
        0
  0
POINT
  5
1C028
330
19ACC
100
AcDbEntity
  8
DEFPOINTS
 62
     0
440
 16777216
100
AcDbPoint
 10
235.2839548768724
 20
788.9938972774823
 30
0.0
  0
POINT
  5
1C029
330
19ACC
100
AcDbEntity
  8
DEFPOINTS
 62
     0
440
 16777216
100
AcDbPoint
 10
87.28395487687249
 20
788.9938972774823
 30
0.0
  0
POINT
  5
1C02A
330
19ACC
100
AcDbEntity
  8
DEFPOINTS
 62
     0
440
 16777216
100
AcDbPoint
 10
87.28395487687249
 20
847.3033542543664
 30
0.0
  0
ENDBLK
  5
19ACE
330
19ACC
100
AcDbEntity
  8
0
100
AcDbBlockEnd
  0
BLOCK
  5
19B89
330
19B88
100
AcDbEntity
  8
0
100
AcDbBlockBegin
  2
*D62
 70
     1
 10
0.0
 20
0.0
 30
0.0
  3
*D62
  1

  0
LINE
  5
1C02B
330
19B88
100
AcDbEntity
  8
30
  6
Continuous
 62
     0
440
 16777216
370
    -2
100
AcDbLine
 10
218.6150293344311
 20
770.2657964689302
 30
0.0
 11
223.9528804193112
 21
778.7219980860345
 31
0.0
  0
LINE
  5
1C02C
330
19B88
100
AcDbEntity
  8
30
  6
Continuous
 62
     0
440
 16777216
370
    -2
100
AcDbLine
 10
225.0204506363221
 20
780.4132384095106
 30
0.0
 11
242.0667157622743
 21
807.4178611371797
 31
0.0
  0
LINE
  5
1C02D
330
19B88
100
AcDbEntity
  8
30
  6
Continuous
 62
     0
440
 16777216
370
    -2
100
AcDbLine
 10
242.0667157622743
 20
807.4178611371797
 30
0.0
 11
263.733382428941
 21
807.4178611371799
 31
0.0
  0
INSERT
  5
1C02E
330
19B88
100
AcDbEntity
  8
30
  6
Continuous
 62
     0
440
 16777216
370
    -2
100
AcDbBlockReference
  2
_OPEN
 10
217.5474591174203
 20
768.5745561454541
 30
0.0
 41
2.0
 42
2.0
 43
2.0
 50
237.7384420764086
  0
INSERT
  5
1C02F
330
19B88
100
AcDbEntity
  8
30
  6
Continuous
 62
     0
440
 16777216
370
    -2
100
AcDbBlockReference
  2
_OPEN
 10
225.0204506363221
 20
780.4132384095106
 30
0.0
 41
2.0
 42
2.0
 43
2.0
 50
57.73844207640859
  0
MTEXT
  5
1C030
330
19B88
100
AcDbEntity
  8
30
  6
Continuous
 62
     0
440
 16777216
100
AcDbMText
 10
245.0667157622743
 20
818.4178611371795
 30
0.0
 40
8.0
 41
0.0
 46
0.0
 71
     1
 72
     1
  1
\A1;∅14
 73
     1
 44
1.0
  0
POINT
  5
1C031
330
19B88
100
AcDbEntity
  8
DEFPOINTS
  6
Continuous
 62
     0
440
 16777216
100
AcDbPoint
 10
225.0204506363221
 20
780.4132384095106
 30
0.0
  0
POINT
  5
1C032
330
19B88
100
AcDbEntity
  8
DEFPOINTS
  6
Continuous
 62
     0
440
 16777216
100
AcDbPoint
 10
217.5474591174203
 20
768.5745561454541
 30
0.0
  0
ENDBLK
  5
19B8A
330
19B88
100
AcDbEntity
  8
0
100
AcDbBlockEnd
  0
BLOCK
  5
19FAA
330
19FA9
100
AcDbEntity
  8
0
100
AcDbBlockBegin
  2
*D63
 70
     1
 10
0.0
 20
0.0
 30
0.0
  3
*D63
  1

  0
LINE
  5
1C033
330
19FA9
100
AcDbEntity
  8
30
  6
Continuous
 62
     0
440
 16777216
370
    -2
100
AcDbLine
 10
452.1347343134943
 20
659.4938972774822
 30
0.0
 11
394.6368264258991
 21
659.4938972774822
 31
0.0
  0
LINE
  5
1C034
330
19FA9
100
AcDbEntity
  8
30
  6
Continuous
 62
     0
440
 16777216
370
    -2
100
AcDbLine
 10
444.4209976980783
 20
569.4938972774822
 30
0.0
 11
394.6368264258991
 21
569.4938972774822
 31
0.0
  0
LINE
  5
1C035
330
19FA9
100
AcDbEntity
  8
30
  6
Continuous
 62
     0
440
 16777216
370
    -2
100
AcDbLine
 10
395.1368264258992
 20
657.4938972774822
 30
0.0
 11
395.1368264258992
 21
571.4938972774822
 31
0.0
  0
INSERT
  5
1C036
330
19FA9
100
AcDbEntity
  8
30
  6
Continuous
 62
     0
440
 16777216
370
    -2
100
AcDbBlockReference
  2
_OPEN
 10
395.1368264258992
 20
659.4938972774822
 30
0.0
 41
2.0
 42
2.0
 43
2.0
 50
90.0
  0
INSERT
  5
1C037
330
19FA9
100
AcDbEntity
  8
30
  6
Continuous
 62
     0
440
 16777216
370
    -2
100
AcDbBlockReference
  2
_OPEN
 10
395.1368264258992
 20
569.4938972774822
 30
0.0
 41
2.0
 42
2.0
 43
2.0
 50
270.0
  0
MTEXT
  5
1C038
330
19FA9
100
AcDbEntity
  8
30
  6
Continuous
440
 16777216
100
AcDbMText
 10
388.1368264258989
 20
614.4938972774825
 30
0.0
 40
8.0
 41
0.0
 46
0.0
 71
     5
 72
     1
  1
\A1;90
 11
0.0000000000000001
 21
1.0
 31
0.0
 73
     1
 44
1.0
 90
        3
 63
     9
421
 13158600
 45
1.25
441
        0
  0
POINT
  5
1C039
330
19FA9
100
AcDbEntity
  8
DEFPOINTS
  6
Continuous
 62
     0
440
 16777216
100
AcDbPoint
 10
453.1347343134943
 20
659.4938972774822
 30
0.0
  0
POINT
  5
1C03A
330
19FA9
100
AcDbEntity
  8
DEFPOINTS
  6
Continuous
 62
     0
440
 16777216
100
AcDbPoint
 10
445.4209976980783
 20
569.4938972774822
 30
0.0
  0
POINT
  5
1C03B
330
19FA9
100
AcDbEntity
  8
DEFPOINTS
  6
Continuous
 62
     0
440
 16777216
100
AcDbPoint
 10
395.1368264258992
 20
569.4938972774822
 30
0.0
  0
ENDBLK
  5
19FAB
330
19FA9
100
AcDbEntity
  8
0
100
AcDbBlockEnd
  0
BLOCK
  5
1C067
330
1C066
100
AcDbEntity
  8
0
100
AcDbBlockBegin
  2
*D64
 70
     1
 10
0.0
 20
0.0
 30
0.0
  3
*D64
  1

  0
LINE
  5
1C07C
330
1C066
100
AcDbEntity
  8
30
 62
     0
440
 16777216
370
    -2
100
AcDbLine
 10
87.28395487687249
 20
789.9938972774823
 30
0.0
 11
87.28395487687249
 21
798.7679445286639
 31
0.0
  0
LINE
  5
1C07D
330
1C066
100
AcDbEntity
  8
30
 62
     0
440
 16777216
370
    -2
100
AcDbLine
 10
115.2839548768725
 20
789.9938972774823
 30
0.0
 11
115.2839548768725
 21
798.7679445286639
 31
0.0
  0
LINE
  5
1C07E
330
1C066
100
AcDbEntity
  8
30
 62
     0
440
 16777216
370
    -2
100
AcDbLine
 10
89.28395487687248
 20
798.2679445286639
 30
0.0
 11
113.2839548768725
 21
798.2679445286639
 31
0.0
  0
LINE
  5
1C07F
330
1C066
100
AcDbEntity
  8
30
 62
     0
440
 16777216
370
    -2
100
AcDbLine
 10
115.2839548768725
 20
798.2679445286639
 30
0.0
 11
136.6172882102058
 21
798.2679445286639
 31
0.0
  0
INSERT
  5
1C080
330
1C066
100
AcDbEntity
  8
30
 62
     0
440
 16777216
370
    -2
100
AcDbBlockReference
  2
_OPEN
 10
87.28395487687249
 20
798.2679445286639
 30
0.0
 41
2.0
 42
2.0
 43
2.0
 50
180.0
  0
INSERT
  5
1C081
330
1C066
100
AcDbEntity
  8
30
 62
     0
440
 16777216
370
    -2
100
AcDbBlockReference
  2
_OPEN
 10
115.2839548768725
 20
798.2679445286639
 30
0.0
 41
2.0
 42
2.0
 43
2.0
  0
MTEXT
  5
1C082
330
1C066
100
AcDbEntity
  8
30
440
 16777216
100
AcDbMText
 10
126.9506215435391
 20
805.2679445286639
 30
0.0
 40
8.0
 41
0.0
 46
0.0
 71
     5
 72
     1
  1
\A1;28
 73
     1
 44
1.0
 90
        3
 63
     9
421
 13158600
 45
1.25
441
        0
  0
POINT
  5
1C083
330
1C066
100
AcDbEntity
  8
DEFPOINTS
 62
     0
440
 16777216
100
AcDbPoint
 10
87.28395487687249
 20
788.9938972774823
 30
0.0
  0
POINT
  5
1C084
330
1C066
100
AcDbEntity
  8
DEFPOINTS
 62
     0
440
 16777216
100
AcDbPoint
 10
115.2839548768725
 20
788.9938972774823
 30
0.0
  0
POINT
  5
1C085
330
1C066
100
AcDbEntity
  8
DEFPOINTS
 62
     0
440
 16777216
100
AcDbPoint
 10
115.2839548768725
 20
798.2679445286639
 30
0.0
  0
ENDBLK
  5
1C068
330
1C066
100
AcDbEntity
  8
0
100
AcDbBlockEnd
  0
BLOCK
  5
1C1E1
330
1C1E0
100
AcDbEntity
  8
0
100
AcDbBlockBegin
  2
*D65
 70
     1
 10
0.0
 20
0.0
 30
0.0
  3
*D65
  1

  0
LINE
  5
1C21E
330
1C1E0
100
AcDbEntity
  8
30
 62
     0
440
 16777216
370
    -2
100
AcDbLine
 10
523.6347326503378
 20
438.9938972774822
 30
0.0
 11
523.6347326503378
 21
429.5702876343061
 31
0.0
  0
LINE
  5
1C21F
330
1C1E0
100
AcDbEntity
  8
30
 62
     0
440
 16777216
370
    -2
100
AcDbLine
 10
531.6347326503378
 20
438.9938972774822
 30
0.0
 11
531.6347326503378
 21
429.5702876343061
 31
0.0
  0
LINE
  5
1C220
330
1C1E0
100
AcDbEntity
  8
30
 62
     0
440
 16777216
370
    -2
100
AcDbLine
 10
533.6347326503378
 20
430.0702876343061
 30
0.0
 11
535.6347326503378
 21
430.0702876343061
 31
0.0
  0
LINE
  5
1C221
330
1C1E0
100
AcDbEntity
  8
30
 62
     0
440
 16777216
370
    -2
100
AcDbLine
 10
521.6347326503377
 20
430.0702876343061
 30
0.0
 11
506.7010234281826
 21
430.0702876343061
 31
0.0
  0
INSERT
  5
1C222
330
1C1E0
100
AcDbEntity
  8
30
 62
     0
440
 16777216
370
    -2
100
AcDbBlockReference
  2
_OPEN
 10
531.6347326503378
 20
430.0702876343061
 30
0.0
 41
2.0
 42
2.0
 43
2.0
 50
180.0
  0
INSERT
  5
1C223
330
1C1E0
100
AcDbEntity
  8
30
 62
     0
440
 16777216
370
    -2
100
AcDbBlockReference
  2
_OPEN
 10
523.6347326503378
 20
430.0702876343061
 30
0.0
 41
2.0
 42
2.0
 43
2.0
  0
MTEXT
  5
1C224
330
1C1E0
100
AcDbEntity
  8
30
440
 16777216
100
AcDbMText
 10
512.3676900948494
 20
437.070287634306
 30
0.0
 40
8.0
 41
0.0
 46
0.0
 71
     5
 72
     1
  1
\A1;8
 73
     1
 44
1.0
 90
        3
 63
     9
421
 13158600
 45
1.25
441
        0
  0
POINT
  5
1C225
330
1C1E0
100
AcDbEntity
  8
DEFPOINTS
 62
     0
440
 16777216
100
AcDbPoint
 10
523.6347326503378
 20
439.9938972774822
 30
0.0
  0
POINT
  5
1C226
330
1C1E0
100
AcDbEntity
  8
DEFPOINTS
 62
     0
440
 16777216
100
AcDbPoint
 10
531.6347326503378
 20
439.9938972774822
 30
0.0
  0
POINT
  5
1C227
330
1C1E0
100
AcDbEntity
  8
DEFPOINTS
 62
     0
440
 16777216
100
AcDbPoint
 10
531.6347326503378
 20
430.0702876343061
 30
0.0
  0
ENDBLK
  5
1C1E2
330
1C1E0
100
AcDbEntity
  8
0
100
AcDbBlockEnd
  0
BLOCK
  5
1C203
330
1C202
100
AcDbEntity
  8
0
100
AcDbBlockBegin
  2
*D66
 70
     1
 10
0.0
 20
0.0
 30
0.0
  3
*D66
  1

  0
LINE
  5
1C228
330
1C202
100
AcDbEntity
  8
30
 62
     0
440
 16777216
370
    -2
100
AcDbLine
 10
531.6347326503378
 20
437.9938972774822
 30
0.0
 11
531.6347326503378
 21
429.530475127593
 31
0.0
  0
LINE
  5
1C229
330
1C202
100
AcDbEntity
  8
30
 62
     0
440
 16777216
370
    -2
100
AcDbLine
 10
566.6347326503378
 20
482.9938972774824
 30
0.0
 11
566.6347326503378
 21
429.530475127593
 31
0.0
  0
LINE
  5
1C22A
330
1C202
100
AcDbEntity
  8
30
 62
     0
440
 16777216
370
    -2
100
AcDbLine
 10
533.6347326503378
 20
430.030475127593
 30
0.0
 11
564.6347326503378
 21
430.030475127593
 31
0.0
  0
INSERT
  5
1C22B
330
1C202
100
AcDbEntity
  8
30
 62
     0
440
 16777216
370
    -2
100
AcDbBlockReference
  2
_OPEN
 10
531.6347326503378
 20
430.030475127593
 30
0.0
 41
2.0
 42
2.0
 43
2.0
 50
180.0
  0
INSERT
  5
1C22C
330
1C202
100
AcDbEntity
  8
30
 62
     0
440
 16777216
370
    -2
100
AcDbBlockReference
  2
_OPEN
 10
566.6347326503378
 20
430.030475127593
 30
0.0
 41
2.0
 42
2.0
 43
2.0
  0
MTEXT
  5
1C22D
330
1C202
100
AcDbEntity
  8
30
440
 16777216
100
AcDbMText
 10
549.1347326503378
 20
437.030475127593
 30
0.0
 40
8.0
 41
0.0
 46
0.0
 71
     5
 72
     1
  1
\A1;35
 73
     1
 44
1.0
 90
        3
 63
     9
421
 13158600
 45
1.25
441
        0
  0
POINT
  5
1C22E
330
1C202
100
AcDbEntity
  8
DEFPOINTS
 62
     0
440
 16777216
100
AcDbPoint
 10
531.6347326503378
 20
438.9938972774822
 30
0.0
  0
POINT
  5
1C22F
330
1C202
100
AcDbEntity
  8
DEFPOINTS
 62
     0
440
 16777216
100
AcDbPoint
 10
566.6347326503378
 20
483.9938972774824
 30
0.0
  0
POINT
  5
1C230
330
1C202
100
AcDbEntity
  8
DEFPOINTS
 62
     0
440
 16777216
100
AcDbPoint
 10
566.6347326503378
 20
430.030475127593
 30
0.0
  0
ENDBLK
  5
1C204
330
1C202
100
AcDbEntity
  8
0
100
AcDbBlockEnd
  0
BLOCK
  5
1C2F1
330
1C2F0
100
AcDbEntity
  8
0
100
AcDbBlockBegin
  2
*D68
 70
     1
 10
0.0
 20
0.0
 30
0.0
  3
*D68
  1

  0
LINE
  5
1C2F3
330
1C2F0
100
AcDbEntity
  8
30
 62
     0
440
 16777216
370
    -2
100
AcDbLine
 10
230.7627430558723
 20
744.4938972774823
 30
0.0
 11
346.6811546369755
 21
744.4938972774822
 31
0.0
  0
LINE
  5
1C2F4
330
1C2F0
100
AcDbEntity
  8
30
 62
     0
440
 16777216
370
    -2
100
AcDbLine
 10
230.7627430558723
 20
484.4938972774821
 30
0.0
 11
346.6811546369754
 21
484.4938972774821
 31
0.0
  0
LINE
  5
1C2F5
330
1C2F0
100
AcDbEntity
  8
30
 62
     0
440
 16777216
370
    -2
100
AcDbLine
 10
346.1811546369755
 20
742.4938972774822
 30
0.0
 11
346.1811546369754
 21
486.4938972774821
 31
0.0
  0
INSERT
  5
1C2F6
330
1C2F0
100
AcDbEntity
  8
30
 62
     0
440
 16777216
370
    -2
100
AcDbBlockReference
  2
_OPEN
 10
346.1811546369755
 20
744.4938972774822
 30
0.0
 41
2.0
 42
2.0
 43
2.0
 50
90.0
  0
INSERT
  5
1C2F7
330
1C2F0
100
AcDbEntity
  8
30
 62
     0
440
 16777216
370
    -2
100
AcDbBlockReference
  2
_OPEN
 10
346.1811546369754
 20
484.4938972774821
 30
0.0
 41
2.0
 42
2.0
 43
2.0
 50
270.0
  0
MTEXT
  5
1C2F8
330
1C2F0
100
AcDbEntity
  8
30
440
 16777216
100
AcDbMText
 10
339.1811546369754
 20
614.4938972774822
 30
0.0
 40
8.0
 41
0.0
 46
0.0
 71
     5
 72
     1
  1
\A1;260
 11
0.0000000000000001
 21
1.0
 31
0.0
 73
     1
 44
1.0
 90
        3
 63
     9
421
 13158600
 45
1.25
441
        0
  0
POINT
  5
1C2F9
330
1C2F0
100
AcDbEntity
  8
DEFPOINTS
 62
     0
440
 16777216
100
AcDbPoint
 10
229.7627430558723
 20
744.4938972774823
 30
0.0
  0
POINT
  5
1C2FA
330
1C2F0
100
AcDbEntity
  8
DEFPOINTS
 62
     0
440
 16777216
100
AcDbPoint
 10
229.7627430558723
 20
484.4938972774821
 30
0.0
  0
POINT
  5
1C2FB
330
1C2F0
100
AcDbEntity
  8
DEFPOINTS
 62
     0
440
 16777216
100
AcDbPoint
 10
346.1811546369754
 20
484.4938972774821
 30
0.0
  0
ENDBLK
  5
1C2F2
330
1C2F0
100
AcDbEntity
  8
0
100
AcDbBlockEnd
  0
BLOCK
  5
1C2FE
330
1C2FD
100
AcDbEntity
  8
0
100
AcDbBlockBegin
  2
*D69
 70
     1
 10
0.0
 20
0.0
 30
0.0
  3
*D69
  1

  0
LINE
  5
1C328
330
1C2FD
100
AcDbEntity
  8
30
 62
     0
440
 16777216
370
    -2
100
AcDbLine
 10
232.3126631413725
 20
484.5284630581659
 30
0.0
 11
258.3233550499234
 21
484.5284630581659
 31
0.0
  0
LINE
  5
1C329
330
1C2FD
100
AcDbEntity
  8
30
 62
     0
440
 16777216
370
    -2
100
AcDbLine
 10
232.3126631413727
 20
744.4938972774811
 30
0.0
 11
258.3233550499235
 21
744.4938972774809
 31
0.0
  0
LINE
  5
1C32A
330
1C2FD
100
AcDbEntity
  8
30
 62
     0
440
 16777216
370
    -2
100
AcDbLine
 10
257.8233550499235
 20
486.5284630581659
 30
0.0
 11
257.8233550499235
 21
742.493897277481
 31
0.0
  0
INSERT
  5
1C32B
330
1C2FD
100
AcDbEntity
  8
30
 62
     0
440
 16777216
370
    -2
100
AcDbBlockReference
  2
_OPEN
 10
257.8233550499235
 20
484.5284630581659
 30
0.0
 41
2.0
 42
2.0
 43
2.0
 50
270.0
  0
INSERT
  5
1C32C
330
1C2FD
100
AcDbEntity
  8
30
 62
     0
440
 16777216
370
    -2
100
AcDbBlockReference
  2
_OPEN
 10
257.8233550499235
 20
744.4938972774809
 30
0.0
 41
2.0
 42
2.0
 43
2.0
 50
90.0
  0
MTEXT
  5
1C32D
330
1C2FD
100
AcDbEntity
  8
30
440
 16777216
100
AcDbMText
 10
250.8233550499234
 20
614.5111801678235
 30
0.0
 40
8.0
 41
0.0
 46
0.0
 71
     5
 72
     1
  1
\A1;260
 11
0.0000000000000001
 21
1.0
 31
0.0
 73
     1
 44
1.0
 90
        3
 63
     9
421
 13158600
 45
1.25
441
        0
  0
POINT
  5
1C32E
330
1C2FD
100
AcDbEntity
  8
DEFPOINTS
 62
     0
440
 16777216
100
AcDbPoint
 10
231.3126631413725
 20
484.5284630581659
 30
0.0
  0
POINT
  5
1C32F
330
1C2FD
100
AcDbEntity
  8
DEFPOINTS
 62
     0
440
 16777216
100
AcDbPoint
 10
231.3126631413727
 20
744.4938972774811
 30
0.0
  0
POINT
  5
1C330
330
1C2FD
100
AcDbEntity
  8
DEFPOINTS
 62
     0
440
 16777216
100
AcDbPoint
 10
257.8233550499235
 20
744.4938972774809
 30
0.0
  0
ENDBLK
  5
1C2FF
330
1C2FD
100
AcDbEntity
  8
0
100
AcDbBlockEnd
  0
BLOCK
  5
1C31D
330
1C31C
100
AcDbEntity
  8
0
100
AcDbBlockBegin
  2
*D70
 70
     1
 10
0.0
 20
0.0
 30
0.0
  3
*D70
  1

  0
LINE
  5
1C31F
330
1C31C
100
AcDbEntity
  8
30
 62
     0
440
 16777216
370
    -2
100
AcDbLine
 10
232.3126631413725
 20
484.4284630581659
 30
0.0
 11
245.7567692275706
 21
484.4284630581659
 31
0.0
  0
LINE
  5
1C320
330
1C31C
100
AcDbEntity
  8
30
 62
     0
440
 16777216
370
    -2
100
AcDbLine
 10
232.3126631413727
 20
744.4938972774811
 30
0.0
 11
245.7567692275707
 21
744.4938972774811
 31
0.0
  0
LINE
  5
1C321
330
1C31C
100
AcDbEntity
  8
30
 62
     0
440
 16777216
370
    -2
100
AcDbLine
 10
245.2567692275706
 20
486.4284630581659
 30
0.0
 11
245.2567692275707
 21
742.493897277481
 31
0.0
  0
INSERT
  5
1C322
330
1C31C
100
AcDbEntity
  8
30
 62
     0
440
 16777216
370
    -2
100
AcDbBlockReference
  2
_OPEN
 10
245.2567692275706
 20
484.4284630581659
 30
0.0
 41
2.0
 42
2.0
 43
2.0
 50
270.0
  0
INSERT
  5
1C323
330
1C31C
100
AcDbEntity
  8
30
 62
     0
440
 16777216
370
    -2
100
AcDbBlockReference
  2
_OPEN
 10
245.2567692275707
 20
744.4938972774811
 30
0.0
 41
2.0
 42
2.0
 43
2.0
 50
90.0
  0
MTEXT
  5
1C324
330
1C31C
100
AcDbEntity
  8
30
440
 16777216
100
AcDbMText
 10
238.2567692275705
 20
614.4611801678236
 30
0.0
 40
8.0
 41
0.0
 46
0.0
 71
     5
 72
     1
  1
\A1;260.1
 11
0.0000000000000001
 21
1.0
 31
0.0
 73
     1
 44
1.0
 90
        3
 63
     9
421
 13158600
 45
1.25
441
        0
  0
POINT
  5
1C325
330
1C31C
100
AcDbEntity
  8
DEFPOINTS
 62
     0
440
 16777216
100
AcDbPoint
 10
231.3126631413725
 20
484.4284630581659
 30
0.0
  0
POINT
  5
1C326
330
1C31C
100
AcDbEntity
  8
DEFPOINTS
 62
     0
440
 16777216
100
AcDbPoint
 10
231.3126631413727
 20
744.4938972774811
 30
0.0
  0
POINT
  5
1C327
330
1C31C
100
AcDbEntity
  8
DEFPOINTS
 62
     0
440
 16777216
100
AcDbPoint
 10
245.2567692275707
 20
744.4938972774811
 30
0.0
  0
ENDBLK
  5
1C31E
330
1C31C
100
AcDbEntity
  8
0
100
AcDbBlockEnd
  0
BLOCK
  5
1C336
330
1C335
100
AcDbEntity
  8
0
100
AcDbBlockBegin
  2
*D71
 70
     1
 10
0.0
 20
0.0
 30
0.0
  3
*D71
  1

  0
LINE
  5
1C338
330
1C335
100
AcDbEntity
  8
30
 62
     0
440
 16777216
370
    -2
100
AcDbLine
 10
232.3126631413725
 20
484.5284630581659
 30
0.0
 11
284.977592960663
 21
484.5284630581659
 31
0.0
  0
LINE
  5
1C339
330
1C335
100
AcDbEntity
  8
30
 62
     0
440
 16777216
370
    -2
100
AcDbLine
 10
232.3126631413727
 20
744.4938972774811
 30
0.0
 11
284.9775929606631
 21
744.4938972774809
 31
0.0
  0
LINE
  5
1C33A
330
1C335
100
AcDbEntity
  8
30
 62
     0
440
 16777216
370
    -2
100
AcDbLine
 10
284.4775929606631
 20
486.5284630581659
 30
0.0
 11
284.4775929606631
 21
742.493897277481
 31
0.0
  0
INSERT
  5
1C33B
330
1C335
100
AcDbEntity
  8
30
 62
     0
440
 16777216
370
    -2
100
AcDbBlockReference
  2
_OPEN
 10
284.4775929606631
 20
484.5284630581659
 30
0.0
 41
2.0
 42
2.0
 43
2.0
 50
270.0
  0
INSERT
  5
1C33C
330
1C335
100
AcDbEntity
  8
30
 62
     0
440
 16777216
370
    -2
100
AcDbBlockReference
  2
_OPEN
 10
284.4775929606631
 20
744.4938972774809
 30
0.0
 41
2.0
 42
2.0
 43
2.0
 50
90.0
  0
MTEXT
  5
1C33D
330
1C335
100
AcDbEntity
  8
30
440
 16777216
100
AcDbMText
 10
277.477592960663
 20
614.5111801678235
 30
0.0
 40
8.0
 41
0.0
 46
0.0
 71
     5
 72
     1
  1
\A1;260
 11
0.0000000000000001
 21
1.0
 31
0.0
 73
     1
 44
1.0
 90
        3
 63
     9
421
 13158600
 45
1.25
441
        0
  0
POINT
  5
1C33E
330
1C335
100
AcDbEntity
  8
DEFPOINTS
 62
     0
440
 16777216
100
AcDbPoint
 10
231.3126631413725
 20
484.5284630581659
 30
0.0
  0
POINT
  5
1C33F
330
1C335
100
AcDbEntity
  8
DEFPOINTS
 62
     0
440
 16777216
100
AcDbPoint
 10
231.3126631413727
 20
744.4938972774811
 30
0.0
  0
POINT
  5
1C340
330
1C335
100
AcDbEntity
  8
DEFPOINTS
 62
     0
440
 16777216
100
AcDbPoint
 10
284.4775929606631
 20
744.4938972774809
 30
0.0
  0
ENDBLK
  5
1C337
330
1C335
100
AcDbEntity
  8
0
100
AcDbBlockEnd
  0
ENDSEC
  0
SECTION
  2
ENTITIES
  0
LINE
  5
12A3D
330
1E
100
AcDbEntity
  8
16
100
AcDbLine
 10
161.2839548768724
 20
512.6692971553906
 30
0.0
 11
161.2839548768724
 21
720.1012551321654
 31
0.0
  0
LINE
  5
12A3E
330
1E
100
AcDbEntity
  8
16
100
AcDbLine
 10
233.0586105189354
 20
614.4938972774822
 30
0.0
 11
77.37807309571484
 21
614.4938972774822
 31
0.0
  0
LINE
  5
12A3F
330
1E
100
AcDbEntity
  8
16
 48
2.0
100
AcDbLine
 10
601.4345289602397
 20
614.4938972774824
 30
0.0
 11
442.1023965702606
 21
614.4938972774824
 31
0.0
  0
LINE
  5
12A40
330
1E
100
AcDbEntity
  8
0
  6
SLD-実線
 62
     7
370
    30
100
AcDbLine
 10
231.4126624618723
 20
570.613237190482
 30
0.0
 11
231.0126631413725
 21
570.613237190482
 31
0.0
  0
LINE
  5
12A41
330
1E
100
AcDbEntity
  8
0
  6
SLD-実線
 62
     7
370
    30
100
AcDbLine
 10
231.0126631413725
 20
570.6237089814822
 30
0.0
 11
231.4126624618723
 21
570.6237089814822
 31
0.0
  0
ELLIPSE
  5
12A42
330
1E
100
AcDbEntity
  8
10
  6
Continuous
100
AcDbEllipse
 10
161.0413758883724
 20
614.4938972774822
 30
0.0
 11
0.0
 21
1100.0
 31
0.0
210
0.0
220
0.0
230
1.0
 40
0.0174550649
 41
4.690677605249396
 42
4.734986455434412
  0
LINE
  5
12A43
330
1E
100
AcDbEntity
  8
0
  6
SLD-実線
 62
     7
370
    30
100
AcDbLine
 10
180.2236496363723
 20
590.8469689074821
 30
0.0
 11
180.2374220348721
 21
590.6132609579819
 31
0.0
  0
LINE
  5
12A44
330
1E
100
AcDbEntity
  8
0
  6
SLD-実線
 62
     7
370
    30
100
AcDbLine
 10
142.0879087303722
 20
590.6132609579819
 30
0.0
 11
142.1016811288723
 21
590.8469689074821
 31
0.0
  0
ELLIPSE
  5
12A45
330
1E
100
AcDbEntity
  8
10
  6
Continuous
100
AcDbEllipse
 10
161.2839548768724
 20
614.4938972774822
 30
0.0
 11
0.0
 21
1100.0
 31
0.0
210
0.0
220
0.0
230
1.0
 40
0.0174550649
 41
1.548198852438138
 42
1.59250770193019
  0
LINE
  5
12A46
330
1E
100
AcDbEntity
  8
10
  6
Continuous
100
AcDbLine
 10
180.2374220348721
 20
590.6132609579819
 30
0.0
 11
142.0879087303722
 21
590.6132609579819
 31
0.0
  0
LINE
  5
12A47
330
1E
100
AcDbEntity
  8
10
  6
Continuous
100
AcDbLine
 10
180.2370451406586
 20
639.3490043464821
 30
0.0
 11
142.0882849848724
 21
639.3490043464821
 31
0.0
  0
LINE
  5
12A48
330
1E
100
AcDbEntity
  8
0
  6
SLD-実線
 62
     7
370
    30
100
AcDbLine
 10
136.7044991708724
 20
569.4938954894821
 30
0.0
 11
185.6452415588721
 21
569.4938954894821
 31
0.0
  0
LINE
  5
12A49
330
1E
100
AcDbEntity
  8
0
  6
SLD-実線
 62
     7
370
    30
100
AcDbLine
 10
231.4126624618723
 20
571.2113511744822
 30
0.0
 11
231.0126631413725
 21
571.2113511744822
 31
0.0
  0
LINE
  5
12A4A
330
1E
100
AcDbEntity
  8
0
  6
SLD-実線
 62
     7
370
    30
100
AcDbLine
 10
231.0126631413725
 20
571.1938981894823
 30
0.0
 11
231.4126624618723
 21
571.1938981894823
 31
0.0
  0
ELLIPSE
  5
12A4B
330
1E
100
AcDbEntity
  8
10
  6
Continuous
100
AcDbEllipse
 10
127.6640377283722
 20
743.5050031314822
 30
0.0
 11
0.9502067146544844
 21
-0.3164782046945192
 31
0.0
210
0.0
220
0.0
230
1.0
 40
0.9984778550999999
 41
1.892760065825351
 42
3.462643004113758
  0
ELLIPSE
  5
12A4C
330
1E
100
AcDbEntity
  8
10
  6
Continuous
100
AcDbEllipse
 10
172.6640377283722
 20
743.5050031314822
 30
0.0
 11
0.9502067146544844
 21
-0.3164782046945192
 31
0.0
210
0.0
220
0.0
230
1.0
 40
0.9984778550999999
 41
1.892760065825479
 42
3.462643004113771
  0
ELLIPSE
  5
12A4D
330
1E
100
AcDbEntity
  8
10
  6
Continuous
100
AcDbEllipse
 10
149.6612930363724
 20
743.5050031314822
 30
0.0
 11
-0.9502067146544844
 21
-0.316478204694448
 31
0.0
210
0.0
220
0.0
230
1.0
 40
0.9984778551000005
 41
2.820542303065916
 42
4.39042524135431
  0
ELLIPSE
  5
12A4E
330
1E
100
AcDbEntity
  8
10
  6
Continuous
100
AcDbEllipse
 10
104.6612930363724
 20
743.5050031314822
 30
0.0
 11
-0.9502067146544844
 21
-0.316478204694448
 31
0.0
210
0.0
220
0.0
230
1.0
 40
0.9984778551000005
 41
2.820542303065916
 42
4.39042524135431
  0
LINE
  5
12A4F
330
1E
100
AcDbEntity
  8
10
  6
Continuous
100
AcDbLine
 10
150.6626655238724
 20
718.9938984099821
 30
0.0
 11
150.662665382366
 21
743.5059166590096
 31
0.0
  0
LINE
  5
12A50
330
1E
100
AcDbEntity
  8
10
  6
Continuous
100
AcDbLine
 10
171.6626653823786
 20
743.5059166590096
 30
0.0
 11
171.6626652408724
 21
718.9938984099821
 31
0.0
  0
ARC
  5
12A51
330
1E
100
AcDbEntity
  8
10
  6
Continuous
100
AcDbCircle
 10
170.6626652408724
 20
718.9938984099821
 30
0.0
 40
1.0
100
AcDbArc
 50
270.0
 51
0.0
  0
LINE
  5
12A52
330
1E
100
AcDbEntity
  8
10
  6
Continuous
100
AcDbLine
 10
126.6626653823786
 20
743.5059166590097
 30
0.0
 11
126.6626662468723
 21
718.9938984099821
 31
0.0
  0
ARC
  5
12A53
330
1E
100
AcDbEntity
  8
0
  6
SLD-実線
 62
     7
370
    30
100
AcDbCircle
 10
125.6626653823723
 20
718.9938972774823
 30
0.0
 40
1.000000000000011
100
AcDbArc
 50
270.0
 51
0.0
  0
LINE
  5
12A54
330
1E
100
AcDbEntity
  8
10
  6
Continuous
100
AcDbLine
 10
170.6626652408724
 20
717.9938984099822
 30
0.0
 11
151.6626655238724
 21
717.9938984099822
 31
0.0
  0
ARC
  5
12A55
330
1E
100
AcDbEntity
  8
10
  6
Continuous
100
AcDbCircle
 10
151.6626655238724
 20
718.9938984099821
 30
0.0
 40
1.0
100
AcDbArc
 50
180.0
 51
270.0
  0
LINE
  5
12A56
330
1E
100
AcDbEntity
  8
10
  6
Continuous
100
AcDbLine
 10
125.6626662468723
 20
717.9938984099822
 30
0.0
 11
106.6626646673723
 21
717.9938984099822
 31
0.0
  0
ARC
  5
12A57
330
1E
100
AcDbEntity
  8
10
  6
Continuous
100
AcDbCircle
 10
106.6626646673723
 20
718.9938984099821
 30
0.0
 40
1.0
100
AcDbArc
 50
180.0
 51
270.0
  0
ARC
  5
12A58
330
1E
100
AcDbEntity
  8
10
  6
Continuous
100
AcDbCircle
 10
125.6626662468723
 20
718.9938984099821
 30
0.0
 40
1.0
100
AcDbArc
 50
270.0
 51
0.0
  0
LINE
  5
12A59
330
1E
100
AcDbEntity
  8
10
  6
Continuous
100
AcDbLine
 10
105.6626646673723
 20
718.9938984099821
 30
0.0
 11
105.662665382366
 21
743.5059166590096
 31
0.0
  0
LINE
  5
12A5A
330
1E
100
AcDbEntity
  8
10
  6
Continuous
100
AcDbLine
 10
194.66220767825
 20
744.5051554594865
 30
0.0
 11
172.6631226843724
 21
744.5051493229822
 31
0.0
  0
LINE
  5
12A5B
330
1E
100
AcDbEntity
  8
10
  6
Continuous
100
AcDbLine
 10
149.6622080808722
 20
744.5051493229822
 30
0.0
 11
127.6631227588723
 21
744.5051493229822
 31
0.0
  0
LINE
  5
12A5D
330
1E
100
AcDbEntity
  8
0
  6
SLD-実線
 62
     7
370
    30
100
AcDbLine
 10
92.68387720337228
 20
744.4938972774823
 30
0.0
 11
99.1495757258724
 21
744.5051493229822
 31
0.0
  0
LINE
  5
12A5E
330
1E
100
AcDbEntity
  8
10
  6
Continuous
100
AcDbLine
 10
104.6622081553726
 20
744.5051493229822
 30
0.0
 11
91.28395487687248
 21
744.4938972774823
 31
0.0
  0
LINE
  5
12A5F
330
1E
100
AcDbEntity
  8
10
  6
Continuous
100
AcDbLine
 10
144.1626644588723
 20
634.4434526744821
 30
0.0
 11
178.1626663063723
 21
634.4434526744821
 31
0.0
  0
LINE
  5
12A60
330
1E
100
AcDbEntity
  8
0
  6
SLD-実線
 62
     7
370
    30
100
AcDbLine
 10
144.1626644588723
 20
634.4434526744821
 30
0.0
 11
144.1626644588723
 21
630.9968122274822
 31
0.0
  0
LINE
  5
12A61
330
1E
100
AcDbEntity
  8
0
  6
SLD-実線
 62
     7
370
    30
100
AcDbLine
 10
178.1626663063723
 20
634.4434526744821
 30
0.0
 11
178.1626663063723
 21
630.9968122274822
 31
0.0
  0
LINE
  5
12A62
330
1E
100
AcDbEntity
  8
0
  6
SLD-実線
 62
     7
370
    30
100
AcDbLine
 10
144.1626644588723
 20
630.4726024154821
 30
0.0
 11
144.1626644588723
 21
630.9968122274822
 31
0.0
  0
LINE
  5
12A63
330
1E
100
AcDbEntity
  8
0
  6
SLD-実線
 62
     7
370
    30
100
AcDbLine
 10
178.1626663063723
 20
630.9968122274822
 30
0.0
 11
178.1626663063723
 21
630.4726024154821
 31
0.0
  0
LINE
  5
12A64
330
1E
100
AcDbEntity
  8
0
  6
SLD-実線
 62
     7
370
    30
100
AcDbLine
 10
144.1626644588723
 20
630.4726024154821
 30
0.0
 11
144.1626644588723
 21
627.2252603429818
 31
0.0
  0
LINE
  5
12A65
330
1E
100
AcDbEntity
  8
0
  6
SLD-実線
 62
     7
370
    30
100
AcDbLine
 10
178.1626663063723
 20
630.4726024154821
 30
0.0
 11
178.1626663063723
 21
627.2252603429818
 31
0.0
  0
LINE
  5
12A66
330
1E
100
AcDbEntity
  8
0
  6
SLD-実線
 62
     7
370
    30
100
AcDbLine
 10
144.1626644588723
 20
626.5502703369818
 30
0.0
 11
144.1626644588723
 21
627.2252603429818
 31
0.0
  0
LINE
  5
12A67
330
1E
100
AcDbEntity
  8
0
  6
SLD-実線
 62
     7
370
    30
100
AcDbLine
 10
144.1626644588723
 20
626.2911503199822
 30
0.0
 11
178.1626663063723
 21
626.2911503199822
 31
0.0
  0
LINE
  5
12A68
330
1E
100
AcDbEntity
  8
0
  6
SLD-実線
 62
     7
370
    30
100
AcDbLine
 10
144.1626644588723
 20
626.5502703369818
 30
0.0
 11
144.1626644588723
 21
626.2911503199822
 31
0.0
  0
LINE
  5
12A6F
330
1E
100
AcDbEntity
  8
0
  6
SLD-実線
 62
     7
370
    30
100
AcDbLine
 10
198.4939894533722
 20
569.4938954894821
 30
0.0
 11
217.9626657518722
 21
569.4938954894821
 31
0.0
  0
ELLIPSE
  5
12A70
330
1E
100
AcDbEntity
  8
0
  6
SLD-実線
 62
     7
370
    30
100
AcDbEllipse
 10
198.1645707358723
 20
569.4888227999821
 30
0.0
 11
0.50001900419673
 21
-0.0000375365147676
 31
0.0
210
0.0
220
0.0
230
1.0
 40
0.0135556861
 41
0.8515556230107677
 42
1.576334180670649
  0
LINE
  5
12A71
330
1E
100
AcDbEntity
  8
0
  6
SLD-実線
 62
     7
370
    30
100
AcDbLine
 10
187.3637701278724
 20
569.4956016719821
 30
0.0
 11
198.1618015918723
 21
569.4956016719821
 31
0.0
  0
LINE
  5
12A72
330
1E
100
AcDbEntity
  8
0
  6
SLD-実線
 62
     7
370
    30
100
AcDbLine
 10
217.9626657518722
 20
659.4938990654821
 30
0.0
 11
187.1626659188723
 21
659.4938990654821
 31
0.0
  0
LINE
  5
12A73
330
1E
100
AcDbEntity
  8
0
  6
SLD-実線
 62
     7
370
    30
100
AcDbLine
 10
135.1626648458723
 20
659.4938990654821
 30
0.0
 11
104.3626650128724
 21
659.4938990654821
 31
0.0
  0
LINE
  5
12A74
330
1E
100
AcDbEntity
  8
10
  6
Continuous
100
AcDbLine
 10
231.3126631413727
 20
744.4938972774811
 30
0.0
 11
231.3126631413725
 21
484.5284630581659
 31
0.0
  0
LINE
  5
12A75
330
1E
100
AcDbEntity
  8
0
  6
SLD-実線
 62
     7
370
    30
100
AcDbLine
 10
91.31266762387236
 20
614.4938972774822
 30
0.0
 11
91.31266762387236
 21
702.401986438482
 31
0.0
  0
LINE
  5
12A76
330
1E
100
AcDbEntity
  8
240
370
    30
100
AcDbLine
 10
135.6626653823723
 20
659.4938972774822
 30
0.0
 11
186.6626653823723
 21
659.4938972774822
 31
0.0
  0
DIMENSION
  5
12A77
330
1E
100
AcDbEntity
  8
30
  6
Continuous
100
AcDbDimension
280
     0
  2
*D12
 10
255.3381544113755
 20
500.4938972774821
 30
0.0
 11
255.3381544113754
 21
614.4938972774822
 31
0.0
 70
   160
  1
<>
 71
     2
 42
228.0
 73
     0
 74
     0
 75
     0
  3
STANDARD
100
AcDbAlignedDimension
 13
206.1626653823723
 23
728.4938972774823
 33
0.0
 14
215.6626653823723
 24
500.4938972774821
 34
0.0
 50
90.0
100
AcDbRotatedDimension
1001
ACAD
1000
DSTYLE
1002
{
1070
    79
1070
     3
1002
}
  0
LINE
  5
12A79
330
1E
100
AcDbEntity
  8
16
 48
2.0
100
AcDbLine
 10
161.2839548768724
 20
512.6692971553906
 30
0.0
 11
161.2839548768724
 21
720.1012551321654
 31
0.0
  0
LINE
  5
12A7A
330
1E
100
AcDbEntity
  8
16
 48
2.0
100
AcDbLine
 10
233.0586105189354
 20
614.4938972774822
 30
0.0
 11
77.37807309571508
 21
614.4938972774822
 31
0.0
  0
LINE
  5
12A7B
330
1E
100
AcDbEntity
  8
24
  6
CONTINOUS
100
AcDbLine
 10
107.2839548768725
 20
728.4938972774823
 30
0.0
 11
125.2839548768725
 21
728.4938972774823
 31
0.0
  0
LWPOLYLINE
  5
12A7C
330
1E
100
AcDbEntity
  8
10
  6
Continuous
100
AcDbPolyline
 90
        8
 70
     1
 43
0.0
 10
218.2839548768725
 20
569.4938972774822
 10
104.2839548768725
 20
569.4938972774822
 42
-0.4142135623730951
 10
103.2839548768725
 20
570.4938972774822
 10
103.2839548768725
 20
658.4938972774822
 42
-0.4142135623730951
 10
104.2839548768725
 20
659.4938972774822
 10
218.2839548768725
 20
659.4938972774822
 42
-0.4142135623730951
 10
219.2839548768725
 20
658.4938972774822
 10
219.2839548768725
 20
570.4938972774822
 42
-0.4142135623730951
  0
LINE
  5
12A7D
330
1E
100
AcDbEntity
  8
10
  6
Continuous
100
AcDbLine
 10
91.28395487687248
 20
707.0223216132977
 30
0.0
 11
231.0126631413727
 21
707.0223216132977
 31
0.0
  0
LINE
  5
12A7E
330
1E
100
AcDbEntity
  8
10
  6
Continuous
100
AcDbLine
 10
91.28395487687248
 20
744.4938972774823
 30
0.0
 11
91.28395487687248
 21
484.5284691946704
 31
0.0
  0
LINE
  5
12A80
330
1E
100
AcDbEntity
  8
24
  6
CONTINOUS
100
AcDbLine
 10
116.2839548768725
 20
737.4938972774823
 30
0.0
 11
116.2839548768725
 21
719.4938972774823
 31
0.0
  0
LINE
  5
12A81
330
1E
100
AcDbEntity
  8
10
  6
Continuous
100
AcDbLine
 10
186.7839548768722
 20
569.4938972774822
 30
0.0
 11
186.7839548768725
 21
659.4938972774822
 31
0.0
  0
LINE
  5
12A82
330
1E
100
AcDbEntity
  8
10
  6
Continuous
100
AcDbLine
 10
135.7839548768727
 20
569.4938972774822
 30
0.0
 11
135.7839548768725
 21
659.4938972774822
 31
0.0
  0
LINE
  5
12A83
330
1E
100
AcDbEntity
  8
12
  6
DASHED
100
AcDbLine
 10
146.7839548768725
 20
721.4938972774823
 30
0.0
 11
130.7839548768725
 21
721.4938972774823
 31
0.0
  0
LINE
  5
12A84
330
1E
100
AcDbEntity
  8
12
  6
DASHED
100
AcDbLine
 10
138.7839548768725
 20
713.4938972774823
 30
0.0
 11
138.7839548768725
 21
729.4938972774823
 31
0.0
  0
CIRCLE
  5
12A85
330
1E
100
AcDbEntity
  8
12
  6
DASHED
100
AcDbCircle
 10
138.7839548768725
 20
721.4938972774823
 30
0.0
 40
4.0
  0
LINE
  5
12A86
330
1E
100
AcDbEntity
  8
24
  6
CONTINOUS
100
AcDbLine
 10
161.2839548768724
 20
737.4938972774823
 30
0.0
 11
161.2839548768724
 21
719.4938972774823
 31
0.0
  0
LINE
  5
12A87
330
1E
100
AcDbEntity
  8
24
  6
CONTINOUS
100
AcDbLine
 10
152.2839548768725
 20
728.4938972774823
 30
0.0
 11
170.2839548768725
 21
728.4938972774823
 31
0.0
  0
LINE
  5
12A88
330
1E
100
AcDbEntity
  8
12
  6
DASHED
100
AcDbLine
 10
191.9839548768725
 20
721.4938972774823
 30
0.0
 11
175.9839548768725
 21
721.4938972774823
 31
0.0
  0
CIRCLE
  5
12A8A
330
1E
100
AcDbEntity
  8
24
  6
CONTINOUS
100
AcDbCircle
 10
116.2839548768725
 20
728.4938972774823
 30
0.0
 40
4.618802153517049
  0
CIRCLE
  5
12A8B
330
1E
100
AcDbEntity
  8
24
  6
CONTINOUS
100
AcDbCircle
 10
161.2839548768724
 20
728.4938972774823
 30
0.0
 40
4.618802153517049
  0
ELLIPSE
  5
12A8C
330
1E
100
AcDbEntity
  8
10
  6
Continuous
100
AcDbEllipse
 10
194.7612926342501
 20
743.5050031314822
 30
0.0
 11
-0.9502067146544844
 21
-0.3164782046945192
 31
0.0
210
0.0
220
0.0
230
-1.0
 40
0.9984778550999999
 41
1.892760065825479
 42
3.462643004113771
  0
ELLIPSE
  5
12A8D
330
1E
100
AcDbEntity
  8
10
  6
Continuous
100
AcDbEllipse
 10
217.7640373262501
 20
743.5050031314822
 30
0.0
 11
0.9502067146544844
 21
-0.316478204694448
 31
0.0
210
0.0
220
0.0
230
-1.0
 40
0.9984778551000005
 41
2.820542303065916
 42
4.39042524135431
  0
LINE
  5
12A8E
330
1E
100
AcDbEntity
  8
10
  6
Continuous
100
AcDbLine
 10
216.76266483875
 20
718.9938984099821
 30
0.0
 11
216.7626649802565
 21
743.5059166590096
 31
0.0
  0
LINE
  5
12A8F
330
1E
100
AcDbEntity
  8
10
  6
Continuous
100
AcDbLine
 10
195.7626649802437
 20
743.5059166590096
 30
0.0
 11
195.76266512175
 21
718.9938984099821
 31
0.0
  0
ARC
  5
12A90
330
1E
100
AcDbEntity
  8
10
  6
Continuous
100
AcDbCircle
 10
196.76266512175
 20
718.9938984099821
 30
0.0
 40
1.0
100
AcDbArc
 50
180.0
 51
270.0
  0
LINE
  5
12A91
330
1E
100
AcDbEntity
  8
10
  6
Continuous
100
AcDbLine
 10
196.76266512175
 20
717.9938984099822
 30
0.0
 11
215.7626648387501
 21
717.9938984099822
 31
0.0
  0
ARC
  5
12A92
330
1E
100
AcDbEntity
  8
10
  6
Continuous
100
AcDbCircle
 10
215.7626648387501
 20
718.9938984099821
 30
0.0
 40
1.0
100
AcDbArc
 50
270.0
 51
0.0
  0
LINE
  5
12A93
330
1E
100
AcDbEntity
  8
10
  6
Continuous
100
AcDbLine
 10
172.6631226843724
 20
744.5051554594865
 30
0.0
 11
194.7622072761278
 21
744.5051554594868
 31
0.0
  0
LINE
  5
12A94
330
1E
100
AcDbEntity
  8
10
  6
Continuous
100
AcDbLine
 10
217.7596148707987
 20
744.5051493229822
 30
0.0
 11
231.3126631413727
 21
744.5051493229823
 31
0.0
  0
LINE
  5
12A98
330
1E
100
AcDbEntity
  8
24
  6
CONTINOUS
100
AcDbLine
 10
206.300692658912
 20
737.4938972774823
 30
0.0
 11
206.300692658912
 21
719.4938972774823
 31
0.0
  0
LINE
  5
12A99
330
1E
100
AcDbEntity
  8
24
  6
CONTINOUS
100
AcDbLine
 10
215.300692658912
 20
728.4938972774823
 30
0.0
 11
197.300692658912
 21
728.4938972774823
 31
0.0
  0
LINE
  5
12A9A
330
1E
100
AcDbEntity
  8
12
  6
DASHED
100
AcDbLine
 10
183.7413754857499
 20
713.4938972774823
 30
0.0
 11
183.7413754857499
 21
729.4938972774823
 31
0.0
  0
LINE
  5
12A9B
330
1E
100
AcDbEntity
  8
12
  6
DASHED
100
AcDbLine
 10
175.74137548575
 20
721.4938972774823
 30
0.0
 11
191.74137548575
 21
721.4938972774823
 31
0.0
  0
CIRCLE
  5
12A9C
330
1E
100
AcDbEntity
  8
12
  6
DASHED
100
AcDbCircle
 10
183.7413754857499
 20
721.4938972774823
 30
0.0
 40
4.0
  0
CIRCLE
  5
12A9D
330
1E
100
AcDbEntity
  8
24
  6
CONTINOUS
100
AcDbCircle
 10
206.300692658912
 20
728.4938972774823
 30
0.0
 40
4.618802153517049
  0
ELLIPSE
  5
12A9E
330
1E
100
AcDbEntity
  8
10
  6
Continuous
100
AcDbEllipse
 10
127.7480910268274
 20
485.5286153861705
 30
0.0
 11
0.9502067146544844
 21
0.3164782046945192
 31
0.0
210
0.0
220
0.0
230
-1.0
 40
0.9984778550999999
 41
1.892760065825351
 42
3.462643004113758
  0
ELLIPSE
  5
12A9F
330
1E
100
AcDbEntity
  8
10
  6
Continuous
100
AcDbEllipse
 10
172.7480910268274
 20
485.5286153861705
 30
0.0
 11
0.9502067146544844
 21
0.3164782046945192
 31
0.0
210
0.0
220
0.0
230
-1.0
 40
0.9984778550999999
 41
1.892760065825479
 42
3.462643004113771
  0
ELLIPSE
  5
12AA0
330
1E
100
AcDbEntity
  8
10
  6
Continuous
100
AcDbEllipse
 10
149.7453463348276
 20
485.5286153861705
 30
0.0
 11
-0.9502067146544844
 21
0.316478204694448
 31
0.0
210
0.0
220
0.0
230
-1.0
 40
0.9984778551000005
 41
2.820542303065916
 42
4.39042524135431
  0
ELLIPSE
  5
12AA1
330
1E
100
AcDbEntity
  8
10
  6
Continuous
100
AcDbEllipse
 10
104.7453463348276
 20
485.5286153861705
 30
0.0
 11
-0.9502067146544844
 21
0.316478204694448
 31
0.0
210
0.0
220
0.0
230
-1.0
 40
0.9984778551000005
 41
2.820542303065916
 42
4.39042524135431
  0
LINE
  5
12AA2
330
1E
100
AcDbEntity
  8
10
  6
Continuous
100
AcDbLine
 10
150.7467188223276
 20
509.9397201076705
 30
0.0
 11
150.7467188223276
 21
485.5277018586431
 31
0.0
  0
LINE
  5
12AA3
330
1E
100
AcDbEntity
  8
10
  6
Continuous
100
AcDbLine
 10
171.7467186808338
 20
485.5277018586431
 30
0.0
 11
171.7467185393276
 21
509.9397201076705
 31
0.0
  0
ARC
  5
12AA4
330
1E
100
AcDbEntity
  8
10
  6
Continuous
100
AcDbCircle
 10
170.7467185393276
 20
509.9397201076705
 30
0.0
 40
1.0
100
AcDbArc
 50
0.0
 51
90.0
  0
LINE
  5
12AA5
330
1E
100
AcDbEntity
  8
10
  6
Continuous
100
AcDbLine
 10
126.7467186808338
 20
485.5277018586431
 30
0.0
 11
126.7467195453275
 21
509.9397201076705
 31
0.0
  0
ARC
  5
12AA6
330
1E
100
AcDbEntity
  8
0
  6
SLD-実線
 62
     7
370
    30
100
AcDbCircle
 10
125.7467186808275
 20
509.9397212401704
 30
0.0
 40
1.000000000000011
100
AcDbArc
 50
0.0
 51
90.0
  0
LINE
  5
12AA7
330
1E
100
AcDbEntity
  8
10
  6
Continuous
100
AcDbLine
 10
170.7467185393276
 20
510.9397201076705
 30
0.0
 11
151.7467188223276
 21
510.9397201076705
 31
0.0
  0
ARC
  5
12AA8
330
1E
100
AcDbEntity
  8
10
  6
Continuous
100
AcDbCircle
 10
151.7467188223276
 20
509.9397201076705
 30
0.0
 40
1.0
100
AcDbArc
 50
90.0
 51
180.0
  0
LINE
  5
12AA9
330
1E
100
AcDbEntity
  8
10
  6
Continuous
100
AcDbLine
 10
125.7467195453275
 20
510.9397201076705
 30
0.0
 11
106.7467179658275
 21
510.9397201076705
 31
0.0
  0
ARC
  5
12AAA
330
1E
100
AcDbEntity
  8
10
  6
Continuous
100
AcDbCircle
 10
106.7467179658275
 20
509.9397201076705
 30
0.0
 40
1.0
100
AcDbArc
 50
90.0
 51
180.0
  0
ARC
  5
12AAB
330
1E
100
AcDbEntity
  8
10
  6
Continuous
100
AcDbCircle
 10
125.7467195453275
 20
509.9397201076705
 30
0.0
 40
1.0
100
AcDbArc
 50
0.0
 51
90.0
  0
LINE
  5
12AAC
330
1E
100
AcDbEntity
  8
10
  6
Continuous
100
AcDbLine
 10
105.7467179658275
 20
509.9397201076705
 30
0.0
 11
105.7467179658275
 21
485.5265066768552
 31
0.0
  0
LINE
  5
12AAD
330
1E
100
AcDbEntity
  8
10
  6
Continuous
100
AcDbLine
 10
194.7462609767052
 20
484.528463058166
 30
0.0
 11
172.7471759828276
 21
484.5284691946704
 31
0.0
  0
LINE
  5
12AAE
330
1E
100
AcDbEntity
  8
10
  6
Continuous
100
AcDbLine
 10
149.7462613793274
 20
484.5284691946704
 30
0.0
 11
127.7471760573275
 21
484.5284691946704
 31
0.0
  0
LINE
  5
12AB1
330
1E
100
AcDbEntity
  8
0
  6
SLD-実線
 62
     7
370
    30
100
AcDbLine
 10
99.23366627682769
 20
484.5284691946704
 30
0.0
 11
99.23362902432762
 21
484.5284691946704
 31
0.0
  0
LINE
  5
12AB2
330
1E
100
AcDbEntity
  8
10
  6
Continuous
100
AcDbLine
 10
104.7462614538278
 20
484.5284691946704
 30
0.0
 11
91.28395487687248
 21
484.5284691946704
 31
0.0
  0
LINE
  5
12ABB
330
1E
100
AcDbEntity
  8
24
  6
CONTINOUS
100
AcDbLine
 10
107.2626653823723
 20
500.4954900799021
 30
0.0
 11
125.2626653823723
 21
500.4954900799021
 31
0.0
  0
LINE
  5
12ABC
330
1E
100
AcDbEntity
  8
24
  6
CONTINOUS
100
AcDbLine
 10
116.2626653823723
 20
491.4954900799021
 30
0.0
 11
116.2626653823723
 21
509.4954900799021
 31
0.0
  0
LINE
  5
12ABD
330
1E
100
AcDbEntity
  8
12
  6
DASHED
100
AcDbLine
 10
146.7839548768725
 20
507.4938972774821
 30
0.0
 11
130.7839548768725
 21
507.4938972774821
 31
0.0
  0
CIRCLE
  5
12ABE
330
1E
100
AcDbEntity
  8
12
  6
DASHED
100
AcDbCircle
 10
138.7839548768725
 20
507.4938972774821
 30
0.0
 40
4.0
  0
LINE
  5
12ABF
330
1E
100
AcDbEntity
  8
24
  6
CONTINOUS
100
AcDbLine
 10
161.2626653823723
 20
491.493897277482
 30
0.0
 11
161.2626653823723
 21
509.4938972774821
 31
0.0
  0
LINE
  5
12AC0
330
1E
100
AcDbEntity
  8
24
  6
CONTINOUS
100
AcDbLine
 10
152.2626653823723
 20
500.4938972774821
 30
0.0
 11
170.2626653823723
 21
500.4938972774821
 31
0.0
  0
LINE
  5
12AC1
330
1E
100
AcDbEntity
  8
12
  6
DASHED
100
AcDbLine
 10
191.7839548768725
 20
507.4938972774821
 30
0.0
 11
175.7839548768725
 21
507.4938972774821
 31
0.0
  0
CIRCLE
  5
12AC3
330
1E
100
AcDbEntity
  8
12
  6
DASHED
100
AcDbCircle
 10
183.7839548768725
 20
507.4938972774821
 30
0.0
 40
4.0
  0
CIRCLE
  5
12AC4
330
1E
100
AcDbEntity
  8
24
  6
CONTINOUS
100
AcDbCircle
 10
116.2626653823723
 20
500.4954900799021
 30
0.0
 40
4.618802153517049
  0
CIRCLE
  5
12AC5
330
1E
100
AcDbEntity
  8
24
  6
CONTINOUS
100
AcDbCircle
 10
161.2626653823723
 20
500.4938972774821
 30
0.0
 40
4.618802153517049
  0
ELLIPSE
  5
12AC6
330
1E
100
AcDbEntity
  8
10
  6
Continuous
100
AcDbEllipse
 10
194.7453459327054
 20
485.5286153861705
 30
0.0
 11
-0.9502067146544844
 21
0.3164782046945192
 31
0.0
210
0.0
220
0.0
230
1.0
 40
0.9984778550999999
 41
1.892760065825479
 42
3.462643004113771
  0
ELLIPSE
  5
12AC7
330
1E
100
AcDbEntity
  8
10
  6
Continuous
100
AcDbEllipse
 10
217.7480906247053
 20
485.5286153861705
 30
0.0
 11
0.9502067146544844
 21
0.316478204694448
 31
0.0
210
0.0
220
0.0
230
1.0
 40
0.9984778551000005
 41
2.820542303065916
 42
4.39042524135431
  0
LINE
  5
12AC8
330
1E
100
AcDbEntity
  8
10
  6
Continuous
100
AcDbLine
 10
216.7467181372052
 20
509.9397201076705
 30
0.0
 11
216.7467182787117
 21
485.527701858643
 31
0.0
  0
LINE
  5
12AC9
330
1E
100
AcDbEntity
  8
10
  6
Continuous
100
AcDbLine
 10
195.746718278699
 20
485.5277018586431
 30
0.0
 11
195.7467184202052
 21
509.9397201076705
 31
0.0
  0
ARC
  5
12ACA
330
1E
100
AcDbEntity
  8
10
  6
Continuous
100
AcDbCircle
 10
196.7467184202052
 20
509.9397201076705
 30
0.0
 40
1.0
100
AcDbArc
 50
90.0
 51
180.0
  0
LINE
  5
12ACB
330
1E
100
AcDbEntity
  8
10
  6
Continuous
100
AcDbLine
 10
196.7467184202052
 20
510.9397201076705
 30
0.0
 11
215.7467181372053
 21
510.9397201076705
 31
0.0
  0
ARC
  5
12ACC
330
1E
100
AcDbEntity
  8
10
  6
Continuous
100
AcDbCircle
 10
215.7467181372053
 20
509.9397201076705
 30
0.0
 40
1.0
100
AcDbArc
 50
0.0
 51
90.0
  0
LINE
  5
12ACD
330
1E
100
AcDbEntity
  8
10
  6
Continuous
100
AcDbLine
 10
172.7471759828276
 20
484.528463058166
 30
0.0
 11
194.7462609767052
 21
484.5284691946704
 31
0.0
  0
LINE
  5
12AD2
330
1E
100
AcDbEntity
  8
24
  6
CONTINOUS
100
AcDbLine
 10
206.300692658912
 20
491.493897277482
 30
0.0
 11
206.300692658912
 21
509.4938972774821
 31
0.0
  0
LINE
  5
12AD3
330
1E
100
AcDbEntity
  8
24
  6
CONTINOUS
100
AcDbLine
 10
215.14137548575
 20
500.4938972774821
 30
0.0
 11
197.14137548575
 21
500.4938972774821
 31
0.0
  0
LINE
  5
12AD4
330
1E
100
AcDbEntity
  8
12
  6
DASHED
100
AcDbLine
 10
175.54137548575
 20
507.4938972774821
 30
0.0
 11
191.54137548575
 21
507.4938972774821
 31
0.0
  0
CIRCLE
  5
12AD5
330
1E
100
AcDbEntity
  8
24
  6
CONTINOUS
100
AcDbCircle
 10
206.300692658912
 20
500.4938972774821
 30
0.0
 40
4.618802153517049
  0
LINE
  5
12AD6
330
1E
100
AcDbEntity
  8
12
  6
DASHED
100
AcDbLine
 10
183.54137548575
 20
499.4938972774821
 30
0.0
 11
183.54137548575
 21
515.4938972774821
 31
0.0
  0
LINE
  5
12AD7
330
1E
100
AcDbEntity
  8
12
  6
DASHED
100
AcDbLine
 10
138.7839548768725
 20
499.4938972774821
 30
0.0
 11
138.7839548768725
 21
515.4938972774821
 31
0.0
  0
LWPOLYLINE
  5
12AD8
330
1E
100
AcDbEntity
  8
10
  6
Continuous
100
AcDbPolyline
 90
        4
 70
     1
 43
0.0
 10
185.5839548768726
 20
574.0438972774821
 10
180.2839548768725
 20
574.0438972774821
 10
180.2839548768725
 20
580.6438972774822
 10
185.5839548768726
 20
580.6438972774822
  0
LWPOLYLINE
  5
12AD9
330
1E
100
AcDbEntity
  8
10
  6
Continuous
100
AcDbPolyline
 90
        4
 70
     1
 43
0.0
 10
144.1626644588723
 20
634.4434526744821
 10
178.1626663063723
 20
634.4434526744821
 10
178.1626663063723
 20
626.2911503199822
 10
144.1626644588723
 20
626.2911503199822
  0
LINE
  5
12AF5
330
1E
100
AcDbEntity
  8
0
  6
SLD-実線
 62
     7
370
    30
100
AcDbLine
 10
459.6347347368378
 20
570.5253687684819
 30
0.0
 11
459.6347347368378
 21
658.4624257864817
 31
0.0
  0
LINE
  5
12AF6
330
1E
100
AcDbEntity
  8
0
  6
SLD-実線
 62
     7
370
    30
100
AcDbLine
 10
469.6347326503378
 20
495.6667033019821
 30
0.0
 11
469.6347326503378
 21
517.3979234874821
 31
0.0
  0
LINE
  5
12AF7
330
1E
100
AcDbEntity
  8
0
  6
SLD-実線
 62
     7
370
    30
100
AcDbLine
 10
469.6347326503378
 20
486.0796836199821
 30
0.0
 11
469.6347326503378
 21
493.9081129614821
 31
0.0
  0
LINE
  5
12AFC
330
1E
100
AcDbEntity
  8
10
  6
CONTINOUS
100
AcDbLine
 10
452.134734438338
 20
570.4938972774822
 30
0.0
 11
452.134734438338
 21
658.4938972774822
 31
0.0
  0
LINE
  5
12B03
330
1E
100
AcDbEntity
  8
240
370
    30
100
AcDbLine
 10
469.6347355113378
 20
514.3032399784821
 30
0.0
 11
469.6347355113378
 21
500.6845545764821
 31
0.0
  0
LINE
  5
12B0A
330
1E
100
AcDbEntity
  8
10
  6
CONTINOUS
100
AcDbLine
 10
459.6347326503376
 20
659.4938972774825
 30
0.0
 11
459.6347326503376
 21
569.4938972774822
 31
0.0
  0
LINE
  5
12B0E
330
1E
100
AcDbEntity
  8
10
  6
CONTINOUS
100
AcDbLine
 10
453.1347344383378
 20
569.4938972774822
 30
0.0
 11
463.6347326503376
 21
569.4938972774822
 31
0.0
  0
ARC
  5
12B0F
330
1E
100
AcDbEntity
  8
10
  6
CONTINOUS
100
AcDbCircle
 10
453.1347344383378
 20
570.4938972774822
 30
0.0
 40
1.0
100
AcDbArc
 50
180.0
 51
270.0
  0
LINE
  5
12B12
330
1E
100
AcDbEntity
  8
10
  6
CONTINOUS
100
AcDbLine
 10
453.1347344383378
 20
659.4938972774825
 30
0.0
 11
463.6347326503376
 21
659.4938972774825
 31
0.0
  0
ARC
  5
12B13
330
1E
100
AcDbEntity
  8
10
  6
CONTINOUS
100
AcDbCircle
 10
453.1347344383378
 20
658.4938972774822
 30
0.0
 40
1.0
100
AcDbArc
 50
90.0
 51
180.0
  0
LINE
  5
12B21
330
1E
100
AcDbEntity
  8
10
  6
Continuous
100
AcDbLine
 10
581.3347326503376
 20
504.7438972774826
 30
0.0
 11
581.3347326503376
 21
500.2438972774823
 31
0.0
  0
LWPOLYLINE
  5
12B23
330
1E
100
AcDbEntity
  8
10
380
     2
100
AcDbPolyline
 90
        4
 70
     1
 43
0.0
 10
700.0
 20
0.0
 10
700.0
 20
1088.0
 10
0.0
 20
1088.0
 10
0.0
 20
0.0
  0
CIRCLE
  5
12B24
330
1E
100
AcDbEntity
  8
24
  6
CONTINOUS
100
AcDbCircle
 10
221.2839548768725
 20
774.4938972774823
 30
0.0
 40
7.000000000000097
  0
LINE
  5
12B25
330
1E
100
AcDbEntity
  8
24
  6
CONTINOUS
100
AcDbLine
 10
220.1924501712248
 20
744.505149322982
 30
0.0
 11
235.2839548768724
 21
764.4938972774824
 31
0.0
  0
LINE
  5
12B26
330
1E
100
AcDbEntity
  8
24
  6
ByBlock
100
AcDbLine
 10
87.28395487687249
 20
764.4938972774824
 30
0.0
 11
102.3839548768724
 21
744.4938972774823
 31
0.0
  0
LINE
  5
12B27
330
1E
100
AcDbEntity
  8
24
  6
ByBlock
100
AcDbLine
 10
87.28395487687249
 20
788.9938972774823
 30
0.0
 11
87.28395487687249
 21
764.4938972774824
 31
0.0
  0
LINE
  5
12B28
330
1E
100
AcDbEntity
  8
24
  6
ByBlock
100
AcDbLine
 10
115.1839548768723
 20
788.9938972774823
 30
0.0
 11
87.28395487687249
 21
788.9938972774823
 31
0.0
  0
LINE
  5
12B2A
330
1E
100
AcDbEntity
  8
24
  6
CONTINOUS
100
AcDbLine
 10
147.3839548768724
 20
788.9938972774823
 30
0.0
 11
147.3839548768724
 21
744.5051493229823
 31
0.0
  0
LINE
  5
12B2B
330
1E
100
AcDbEntity
  8
24
  6
CONTINOUS
100
AcDbLine
 10
175.1839548768723
 20
788.9938972774823
 30
0.0
 11
147.3839548768724
 21
788.9938972774823
 31
0.0
  0
LINE
  5
12B2C
330
1E
100
AcDbEntity
  8
24
  6
CONTINOUS
100
AcDbLine
 10
175.1839548768723
 20
744.5051554594864
 30
0.0
 11
175.1839548768723
 21
788.9938972774823
 31
0.0
  0
LINE
  5
12B2D
330
1E
100
AcDbEntity
  8
24
  6
CONTINOUS
100
AcDbLine
 10
207.3839548768724
 20
764.4938972774824
 30
0.0
 11
192.3923985133756
 21
744.5051554594867
 31
0.0
  0
LINE
  5
12B2E
330
1E
100
AcDbEntity
  8
24
  6
CONTINOUS
100
AcDbLine
 10
207.3839548768724
 20
788.9938972774823
 30
0.0
 11
207.3839548768724
 21
764.4938972774824
 31
0.0
  0
CIRCLE
  5
12B2F
330
1E
100
AcDbEntity
  8
24
  6
CONTINOUS
100
AcDbCircle
 10
161.2839548768724
 20
774.4938972774823
 30
0.0
 40
7.000000000000027
  0
CIRCLE
  5
12B30
330
1E
100
AcDbEntity
  8
24
  6
ByBlock
100
AcDbCircle
 10
101.2839548768725
 20
774.4938972774823
 30
0.0
 40
6.999999999999992
  0
LINE
  5
12B31
330
1E
100
AcDbEntity
  8
24
  6
CONTINOUS
100
AcDbLine
 10
235.2839548768724
 20
764.4938972774824
 30
0.0
 11
235.2839548768724
 21
788.9938972774823
 31
0.0
  0
LINE
  5
12B32
330
1E
100
AcDbEntity
  8
24
  6
CONTINOUS
100
AcDbLine
 10
235.2839548768724
 20
788.9938972774823
 30
0.0
 11
207.3839548768724
 21
788.9938972774823
 31
0.0
  0
LINE
  5
12B33
330
1E
100
AcDbEntity
  8
24
  6
ByBlock
100
AcDbLine
 10
130.1839548768723
 20
744.4938972774823
 30
0.0
 11
115.2839548768725
 21
764.4938972774824
 31
0.0
  0
CIRCLE
  5
12B34
330
1E
100
AcDbEntity
  8
24
  6
CONTINOUS
100
AcDbCircle
 10
101.2839548768725
 20
454.4938972774821
 30
0.0
 40
6.999999999999992
  0
LINE
  5
12B35
330
1E
100
AcDbEntity
  8
24
100
AcDbLine
 10
235.1839548768723
 20
439.9938972774822
 30
0.0
 11
235.1839548768723
 21
464.4938972774821
 31
0.0
  0
LINE
  5
12B36
330
1E
100
AcDbEntity
  8
24
100
AcDbLine
 10
207.3839548768724
 20
439.9938972774822
 30
0.0
 11
235.1839548768723
 21
439.9938972774822
 31
0.0
  0
LINE
  5
12B37
330
1E
100
AcDbEntity
  8
24
100
AcDbLine
 10
207.3839548768724
 20
464.4938972774821
 30
0.0
 11
207.3839548768724
 21
439.9938972774822
 31
0.0
  0
LINE
  5
12B38
330
1E
100
AcDbEntity
  8
24
100
AcDbLine
 10
175.1839548768723
 20
439.9938972774822
 30
0.0
 11
175.1839548768723
 21
484.9284637378899
 31
0.0
  0
LINE
  5
12B39
330
1E
100
AcDbEntity
  8
24
100
AcDbLine
 10
147.3839548768724
 20
439.9938972774822
 30
0.0
 11
175.1839548768723
 21
439.9938972774822
 31
0.0
  0
CIRCLE
  5
12B3A
330
1E
100
AcDbEntity
  8
24
  6
CONTINOUS
100
AcDbCircle
 10
161.2839548768724
 20
454.4938972774821
 30
0.0
 40
7.000000000000027
  0
CIRCLE
  5
12B3B
330
1E
100
AcDbEntity
  8
24
  6
CONTINOUS
100
AcDbCircle
 10
221.2839548768725
 20
454.4938972774821
 30
0.0
 40
7.000000000000027
  0
LINE
  5
12B3C
330
1E
100
AcDbEntity
  8
24
100
AcDbLine
 10
147.3839548768724
 20
484.9284691946705
 30
0.0
 11
147.3839548768724
 21
439.9938972774822
 31
0.0
  0
LINE
  5
12B3D
330
1E
100
AcDbEntity
  8
24
100
AcDbLine
 10
102.3839548768724
 20
484.4938972774821
 30
0.0
 11
87.3839548768724
 21
464.4938972774821
 31
0.0
  0
LINE
  5
12B3E
330
1E
100
AcDbEntity
  8
24
100
AcDbLine
 10
87.3839548768724
 20
464.4938972774821
 30
0.0
 11
87.3839548768724
 21
439.9938972774822
 31
0.0
  0
LINE
  5
12B3F
330
1E
100
AcDbEntity
  8
24
100
AcDbLine
 10
235.1839548768723
 20
464.4938972774821
 30
0.0
 11
220.1839548768723
 21
484.4938972774821
 31
0.0
  0
LINE
  5
12B40
330
1E
100
AcDbEntity
  8
24
100
AcDbLine
 10
192.3839548768724
 20
484.4938972774821
 30
0.0
 11
207.3839548768724
 21
464.4938972774821
 31
0.0
  0
LINE
  5
12B41
330
1E
100
AcDbEntity
  8
24
100
AcDbLine
 10
115.1839548768723
 20
464.4938972774821
 30
0.0
 11
130.1839548768723
 21
484.4938972774821
 31
0.0
  0
LINE
  5
12B42
330
1E
100
AcDbEntity
  8
24
100
AcDbLine
 10
87.3839548768724
 20
439.9938972774822
 30
0.0
 11
115.1839548768723
 21
439.9938972774822
 31
0.0
  0
LINE
  5
12B43
330
1E
100
AcDbEntity
  8
24
100
AcDbLine
 10
115.1839548768723
 20
439.9938972774822
 30
0.0
 11
115.1839548768723
 21
464.4938972774821
 31
0.0
  0
DIMENSION
  5
12B48
330
1E
100
AcDbEntity
  8
30
  6
Continuous
100
AcDbDimension
280
     0
  2
*D14
 10
70.97777998036497
 20
774.4938972774823
 30
0.0
 11
70.97777998036486
 21
813.1586383914678
 31
0.0
 70
   160
  1
<>
 71
     2
 42
14.5
 73
     0
 74
     0
 75
     0
  3
STANDARD
100
AcDbAlignedDimension
 13
87.28395487687249
 23
788.9938972774823
 33
0.0
 14
91.78395487687248
 24
774.4938972774823
 34
0.0
 50
90.0
100
AcDbRotatedDimension
1001
ACAD
1000
DSTYLE
1002
{
1070
    79
1070
     3
1002
}
  0
DIMENSION
  5
12B49
330
1E
100
AcDbEntity
  8
30
  6
Continuous
100
AcDbDimension
280
     0
  2
*D15
 10
70.47777998036498
 20
744.4938972774823
 30
0.0
 11
70.47777998036486
 21
755.8634090609679
 31
0.0
 70
   160
  1
<>
 71
     2
 42
30.0
 73
     0
 74
     0
 75
     0
  3
STANDARD
100
AcDbAlignedDimension
 13
91.78395487687248
 23
774.4938972774823
 33
0.0
 14
91.28395487687248
 24
744.4938972774823
 34
0.0
 50
90.0
100
AcDbRotatedDimension
1001
ACAD
1000
DSTYLE
1002
{
1070
    79
1070
     3
1002
}
  0
DIMENSION
  5
12B4A
330
1E
100
AcDbEntity
  8
30
  6
Continuous
100
AcDbDimension
280
     0
  2
*D16
 10
50.88891751904715
 20
744.4938972774823
 30
0.0
 11
50.88891751904704
 21
763.6742732701772
 31
0.0
 70
   160
  1
<>
 71
     2
 42
44.5
 73
     0
 74
     0
 75
     0
  3
STANDARD
100
AcDbAlignedDimension
 13
87.28395487687249
 23
788.9938972774823
 33
0.0
 14
91.28395487687248
 24
744.4938972774823
 34
0.0
 50
90.0
100
AcDbRotatedDimension
1001
ACAD
1000
DSTYLE
1002
{
1070
    79
1070
     3
1002
}
  0
INSERT
  5
12B4B
330
1E
100
AcDbEntity
  8
17
  6
ByBlock
100
AcDbBlockReference
  2
SW_CENTERMARKSYMBOL_9
 10
101.2839548768725
 20
774.4938972774823
 30
0.0
 41
5.0
 42
5.0
 43
5.0
  0
INSERT
  5
12B4C
330
1E
100
AcDbEntity
  8
17
100
AcDbBlockReference
  2
SW_CENTERMARKSYMBOL_10
 10
101.2839548768725
 20
454.4938972774821
 30
0.0
 41
5.0
 42
5.0
 43
5.0
  0
INSERT
  5
12B4D
330
1E
100
AcDbEntity
  8
17
100
AcDbBlockReference
  2
SW_CENTERMARKSYMBOL_11
 10
221.2839548768725
 20
454.4938972774821
 30
0.0
 41
5.0
 42
5.0
 43
5.0
  0
INSERT
  5
12B4E
330
1E
100
AcDbEntity
  8
17
100
AcDbBlockReference
  2
SW_CENTERMARKSYMBOL_12
 10
221.2839548768725
 20
774.4938972774823
 30
0.0
 41
5.0
 42
5.0
 43
5.0
  0
INSERT
  5
12B4F
330
1E
100
AcDbEntity
  8
17
100
AcDbBlockReference
  2
SW_CENTERMARKSYMBOL_12
 10
161.2839548768724
 20
774.4938972774823
 30
0.0
 41
5.0
 42
5.0
 43
5.0
  0
INSERT
  5
12B50
330
1E
100
AcDbEntity
  8
17
100
AcDbBlockReference
  2
SW_CENTERMARKSYMBOL_10
 10
161.2839548768724
 20
454.4938972774821
 30
0.0
 41
5.0
 42
5.0
 43
5.0
  0
LINE
  5
12B51
330
1E
100
AcDbEntity
  8
17
100
AcDbLine
 10
513.6347326503376
 20
774.4938972774823
 30
0.0
 11
537.6347326503378
 21
774.4938972774823
 31
0.0
  0
LINE
  5
12B52
330
1E
100
AcDbEntity
  8
24
  6
Continuous
100
AcDbLine
 10
522.6347326503378
 20
788.9938972774825
 30
0.0
 11
522.6347326503378
 21
744.4938972774823
 31
0.0
  0
LINE
  5
12B53
330
1E
100
AcDbEntity
  8
24
  6
Continuous
100
AcDbLine
 10
530.6347326503376
 20
788.9938972774825
 30
0.0
 11
530.6347326503376
 21
744.4938972774823
 31
0.0
  0
LINE
  5
12B54
330
1E
100
AcDbEntity
  8
24
  6
Continuous
100
AcDbLine
 10
522.6347326503378
 20
788.9938972774825
 30
0.0
 11
530.6347326503376
 21
788.9938972774825
 31
0.0
  0
DIMENSION
  5
12B55
330
1E
100
AcDbEntity
  8
30
  6
Continuous
100
AcDbDimension
280
     0
  2
*D17
 10
530.6347326503376
 20
816.4938972774825
 30
0.0
 11
548.6347326503378
 21
823.4938972774823
 31
0.0
 70
    32
 71
     5
 42
36.0
 73
     0
 74
     0
 75
     0
  3
STANDARD
100
AcDbAlignedDimension
 13
566.6347326503378
 23
744.4938972774823
 33
0.0
 14
530.6347326503376
 24
788.9938972774825
 34
0.0
100
AcDbRotatedDimension
  0
DIMENSION
  5
12B56
330
1E
100
AcDbEntity
  8
30
  6
Continuous
100
AcDbDimension
280
     0
  2
*D18
 10
522.6347326503378
 20
816.4938972774825
 30
0.0
 11
512.9680659836711
 21
823.4938972774823
 31
0.0
 70
    32
 71
     5
 42
8.0
 73
     0
 74
     0
 75
     0
  3
STANDARD
100
AcDbAlignedDimension
 13
530.6347326503376
 23
788.9938972774825
 33
0.0
 14
522.6347326503378
 24
788.9938972774825
 34
0.0
100
AcDbRotatedDimension
  0
LINE
  5
12B57
330
1E
100
AcDbEntity
  8
16
100
AcDbLine
 10
161.2838938417124
 20
872.6129909916373
 30
0.0
 11
161.2839548768724
 21
1031.022908084376
 31
0.0
  0
DIMENSION
  5
12B67
330
1E
100
AcDbEntity
  8
30
  6
Continuous
100
AcDbDimension
280
     0
  2
*D19
 10
161.283934272398
 20
1028.360500476664
 30
0.0
 11
138.7839445746352
 21
1035.360500476664
 31
0.0
 70
    32
 71
     5
 42
44.99997939552554
 73
     0
 74
     0
 75
     0
  3
STANDARD
100
AcDbAlignedDimension
 13
116.2839548768725
 23
983.6282878389337
 33
0.0
 14
161.283934272398
 24
983.6282878389337
 34
0.0
100
AcDbRotatedDimension
1001
ACAD
1000
DSTYLE
1002
{
1070
   287
1070
     4
1070
   287
1070
     4
1070
   287
1070
     4
1070
   287
1070
     4
1070
   287
1070
     4
1070
   287
1070
     4
1070
   287
1070
     4
1070
   279
1070
     1
1070
    79
1070
     3
1002
}
  0
DIMENSION
  5
12B68
330
1E
100
AcDbEntity
  8
30
  6
Continuous
100
AcDbDimension
280
     0
  2
*D20
 10
206.2839548768725
 20
1028.360500476664
 30
0.0
 11
183.7839445746352
 21
1035.360500476664
 31
0.0
 70
    32
 71
     5
 42
45.00002060447445
 73
     0
 74
     0
 75
     0
  3
STANDARD
100
AcDbAlignedDimension
 13
161.283934272398
 23
983.6282878389337
 33
0.0
 14
206.2839548768725
 24
977.5463040888553
 34
0.0
100
AcDbRotatedDimension
1001
ACAD
1000
DSTYLE
1002
{
1070
   287
1070
     4
1070
   287
1070
     4
1070
   287
1070
     4
1070
   287
1070
     4
1070
   287
1070
     4
1070
   287
1070
     4
1070
   287
1070
     4
1070
   279
1070
     1
1070
    79
1070
     3
1002
}
  0
LINE
  5
12B73
330
1E
100
AcDbEntity
  8
24
  6
DASHDOT
100
AcDbLine
 10
128.6432896959975
 20
980.6128689213373
 30
0.0
 11
103.9245396959975
 21
980.6128689213373
 31
0.0
  0
LINE
  5
12B74
330
1E
100
AcDbEntity
  8
24
  6
DASHDOT
100
AcDbLine
 10
128.9497130754375
 20
980.6128689213373
 30
0.0
 11
103.9497130754375
 21
980.6128689213373
 31
0.0
  0
LINE
  5
12B75
330
1E
100
AcDbEntity
  8
24
  6
CONTINOUS
100
AcDbLine
 10
102.1496642473376
 20
980.6128689213373
 30
0.0
 11
130.1496642473376
 21
980.6128689213373
 31
0.0
  0
LWPOLYLINE
  5
12B76
330
1E
100
AcDbEntity
  8
24
  6
CONTINOUS
100
AcDbPolyline
 90
        2
 70
     0
 43
0.001
 10
102.1496642473376
 20
977.5463040888553
 10
130.1496642473376
 20
977.5463040888553
  0
LWPOLYLINE
  5
12B77
330
1E
100
AcDbEntity
  8
24
  6
CONTINOUS
100
AcDbPolyline
 90
        4
 70
     1
 43
0.0
 10
130.1496642473376
 20
977.5463040888553
 10
79.73390845737458
 20
977.5463040888553
 10
79.73390845737458
 20
969.5463040888553
 10
130.1496642473376
 20
969.5463040888553
  0
LWPOLYLINE
  5
12B78
330
1E
100
AcDbEntity
  8
10
  6
CONTINOUS
100
AcDbPolyline
 90
        4
 70
     0
 43
0.0
 10
102.1496642473376
 20
969.5463040888553
 10
102.1496642473376
 20
922.5463040888554
 10
130.1496642473376
 20
922.5463040888554
 10
130.1496642473376
 20
969.5463040888553
  0
LWPOLYLINE
  5
12B79
330
1E
100
AcDbEntity
  8
24
  6
CONTINOUS
100
AcDbPolyline
 90
        2
 70
     0
 43
0.001
 10
102.1496642473376
 20
980.6128689213373
 10
102.1496642473376
 20
977.5463040888553
  0
LWPOLYLINE
  5
12B7A
330
1E
100
AcDbEntity
  8
10
  6
CONTINOUS
100
AcDbPolyline
 90
        4
 70
     0
 43
0.0
 10
147.1496642473375
 20
969.5463040888553
 10
147.1496642473375
 20
922.5463040888554
 10
175.1496642473376
 20
922.5463040888554
 10
175.1496642473376
 20
969.5463040888553
  0
LINE
  5
12B7B
330
1E
100
AcDbEntity
  8
24
  6
CONTINOUS
100
AcDbLine
 10
126.1859630754375
 20
980.6128689213373
 30
0.0
 11
112.7134630754374
 21
980.6128689213373
 31
0.0
  0
LINE
  5
12B7C
330
1E
100
AcDbEntity
  8
24
  6
CONTINOUS
100
AcDbLine
 10
110.4666541180147
 20
980.6128689213373
 30
0.0
 11
110.4666541180147
 21
977.5463040888553
 31
0.0
  0
LINE
  5
12B7D
330
1E
100
AcDbEntity
  8
24
  6
CONTINOUS
100
AcDbLine
 10
122.1011752739805
 20
980.6128689213373
 30
0.0
 11
122.1011752739805
 21
977.5463040888553
 31
0.0
  0
LWPOLYLINE
  5
12B7E
330
1E
100
AcDbEntity
  8
24
  6
CONTINOUS
100
AcDbPolyline
 90
        2
 70
     0
 43
0.001
 10
130.1496642473376
 20
980.6128689213373
 10
130.1496642473376
 20
977.5463040888553
  0
LINE
  5
12B7F
330
1E
100
AcDbEntity
  8
24
  6
DASHDOT
100
AcDbLine
 10
167.6432896959975
 20
980.6128689213373
 30
0.0
 11
148.9245396959975
 21
980.6128689213373
 31
0.0
  0
LINE
  5
12B80
330
1E
100
AcDbEntity
  8
24
  6
DASHDOT
100
AcDbLine
 10
167.9497130754375
 20
980.6128689213373
 30
0.0
 11
148.9497130754375
 21
980.6128689213373
 31
0.0
  0
LINE
  5
12B81
330
1E
100
AcDbEntity
  8
24
  6
CONTINOUS
100
AcDbLine
 10
147.1496642473375
 20
980.6128689213373
 30
0.0
 11
175.1496642473376
 21
980.6128689213373
 31
0.0
  0
LWPOLYLINE
  5
12B82
330
1E
100
AcDbEntity
  8
24
  6
CONTINOUS
100
AcDbPolyline
 90
        2
 70
     0
 43
0.001
 10
147.1496642473375
 20
977.5463040888553
 10
175.1496642473376
 20
977.5463040888553
  0
LINE
  5
12B83
330
1E
100
AcDbEntity
  8
24
  6
CONTINOUS
100
AcDbLine
 10
165.1859630754375
 20
980.6128689213373
 30
0.0
 11
151.7134630754374
 21
980.6128689213373
 31
0.0
  0
LWPOLYLINE
  5
12B84
330
1E
100
AcDbEntity
  8
24
  6
CONTINOUS
100
AcDbPolyline
 90
        2
 70
     0
 43
0.001
 10
147.1496642473375
 20
980.6128689213373
 10
147.1496642473375
 20
977.5463040888553
  0
LINE
  5
12B85
330
1E
100
AcDbEntity
  8
24
  6
CONTINOUS
100
AcDbLine
 10
155.4666541180147
 20
980.6128689213373
 30
0.0
 11
155.4666541180147
 21
977.5463040888553
 31
0.0
  0
LINE
  5
12B86
330
1E
100
AcDbEntity
  8
24
  6
CONTINOUS
100
AcDbLine
 10
167.1011752739803
 20
980.6128689213373
 30
0.0
 11
167.1011752739803
 21
977.5463040888553
 31
0.0
  0
LWPOLYLINE
  5
12B87
330
1E
100
AcDbEntity
  8
24
  6
CONTINOUS
100
AcDbPolyline
 90
        2
 70
     0
 43
0.001
 10
175.1496642473376
 20
980.6128689213373
 10
175.1496642473376
 20
977.5463040888553
  0
LWPOLYLINE
  5
12B88
330
1E
100
AcDbEntity
  8
10
  6
CONTINOUS
100
AcDbPolyline
 90
        4
 70
     0
 43
0.0
 10
192.1496642473375
 20
968.8660056524604
 10
192.1496642473375
 20
922.5463040888554
 10
220.1496642473376
 20
922.5463040888554
 10
220.1496642473376
 20
969.5463040888553
  0
LINE
  5
12B89
330
1E
100
AcDbEntity
  8
24
  6
CONTINOUS
100
AcDbLine
 10
192.1496642473375
 20
980.6128689213373
 30
0.0
 11
220.1496642473376
 21
980.6128689213373
 31
0.0
  0
LWPOLYLINE
  5
12B8A
330
1E
100
AcDbEntity
  8
24
  6
CONTINOUS
100
AcDbPolyline
 90
        2
 70
     0
 43
0.001
 10
192.1496642473375
 20
977.5463040888553
 10
220.1496642473376
 20
977.5463040888553
  0
LINE
  5
12B8B
330
1E
100
AcDbEntity
  8
24
  6
DASHDOT
100
AcDbLine
 10
218.6432896959975
 20
980.6128689213373
 30
0.0
 11
193.9245396959975
 21
980.6128689213373
 31
0.0
  0
LINE
  5
12B8C
330
1E
100
AcDbEntity
  8
24
  6
DASHDOT
100
AcDbLine
 10
218.9497130754376
 20
980.6128689213373
 30
0.0
 11
193.9497130754375
 21
980.6128689213373
 31
0.0
  0
LWPOLYLINE
  5
12B8D
330
1E
100
AcDbEntity
  8
24
  6
CONTINOUS
100
AcDbPolyline
 90
        2
 70
     0
 43
0.001
 10
192.1496642473375
 20
980.6128689213373
 10
192.1496642473375
 20
977.5463040888553
  0
LINE
  5
12B8E
330
1E
100
AcDbEntity
  8
24
  6
CONTINOUS
100
AcDbLine
 10
210.1859630754375
 20
980.6128689213373
 30
0.0
 11
202.7134630754374
 21
980.6128689213373
 31
0.0
  0
LINE
  5
12B8F
330
1E
100
AcDbEntity
  8
24
  6
CONTINOUS
100
AcDbLine
 10
200.4666541180147
 20
980.6128689213373
 30
0.0
 11
200.4666541180147
 21
977.5463040888553
 31
0.0
  0
LINE
  5
12B90
330
1E
100
AcDbEntity
  8
24
  6
CONTINOUS
100
AcDbLine
 10
212.1011752739804
 20
980.6128689213373
 30
0.0
 11
212.1011752739804
 21
977.5463040888553
 31
0.0
  0
LWPOLYLINE
  5
12B91
330
1E
100
AcDbEntity
  8
24
  6
CONTINOUS
100
AcDbPolyline
 90
        2
 70
     0
 43
0.001
 10
220.1496642473376
 20
980.6128689213373
 10
220.1496642473376
 20
977.5463040888553
  0
LINE
  5
12B92
330
1E
100
AcDbEntity
  8
17
100
AcDbLine
 10
116.2839146959977
 20
989.9797392563732
 30
0.0
 11
116.2839146959977
 21
963.8345283481919
 31
0.0
  0
LINE
  5
12B94
330
1E
100
AcDbEntity
  8
17
100
AcDbLine
 10
206.2839146959975
 20
989.9797392563732
 30
0.0
 11
206.2839146959975
 21
963.1450289739316
 31
0.0
  0
LWPOLYLINE
  5
12B95
330
1E
100
AcDbEntity
  8
24
  6
CONTINOUS
100
AcDbPolyline
 90
        4
 70
     1
 43
0.0
 10
139.5996642473376
 20
977.5463040888553
 10
175.1496642473376
 20
977.5463040888553
 10
175.1496642473376
 20
969.5463040888553
 10
139.5996642473376
 20
969.5463040888553
  0
LWPOLYLINE
  5
12B96
330
1E
100
AcDbEntity
  8
24
  6
CONTINOUS
100
AcDbPolyline
 90
        4
 70
     1
 43
0.0
 10
192.1496642473375
 20
977.5463040888553
 10
242.6496642473373
 20
977.5463040888553
 10
242.6496642473373
 20
969.5463040888553
 10
192.1496642473375
 20
969.5463040888553
  0
LINE
  5
12B9B
330
1E
100
AcDbEntity
  8
17
100
AcDbLine
 10
514.6347326503378
 20
454.4938972774822
 30
0.0
 11
538.6347326503376
 21
454.4938972774822
 31
0.0
  0
LWPOLYLINE
  5
12B9C
330
1E
100
AcDbEntity
  8
24
  6
Continuous
100
AcDbPolyline
 90
        4
 70
     0
 43
0.0
 10
531.6347326503378
 20
484.4938972774822
 10
531.6347326503378
 20
439.9938972774822
 10
523.6347326503378
 20
439.9938972774822
 10
523.6347326503378
 20
484.4938972774822
  0
MTEXT
  5
12B9E
330
1E
100
AcDbEntity
  8
19
  6
Continuous
100
AcDbMText
 10
461.8663007774138
 20
1051.621797319408
 30
0.0
 40
10.0
 41
207.6172066293084
 46
0.0
 71
     1
 72
     5
  1
PS400-CF 3P FC+BAR\PPS400-NF 3P FC+BAR\PPS400-GF 3P FC+BAR\PPS400-NE 3P FC+BAR\PPS400-GE 3P FC+BAR\PPH400-CF 3P FC+BAR\PPH400-CE 3P FC+BAR
  7
STANDARD1
 73
     1
 44
1.0
  0
LINE
  5
12B9F
330
1E
100
AcDbEntity
  8
16
 48
2.0
100
AcDbLine
 10
638.4137758801497
 20
196.4531278759598
 30
0.0
 11
474.1599953627938
 21
196.4531278759598
 31
0.0
  0
LINE
  5
12BA0
330
1E
100
AcDbEntity
  8
16
 48
2.0
100
AcDbLine
 10
161.2839548768724
 20
49.82521823169147
 30
0.0
 11
161.2839548768724
 21
338.7769823218353
 31
0.0
  0
LINE
  5
12BA1
330
1E
100
AcDbEntity
  8
16
 48
2.0
100
AcDbLine
 10
238.7850191638427
 20
196.4531278759598
 30
0.0
 11
64.41173328366358
 21
196.4531278759598
 31
0.0
  0
LINE
  5
12BA2
330
1E
100
AcDbEntity
  8
16
 48
2.0
100
AcDbLine
 10
566.0679818804672
 20
60.52554701647341
 30
0.0
 11
566.0679818804672
 21
338.7769823218353
 31
0.0
  0
CIRCLE
  5
12BA3
330
1E
100
AcDbEntity
  8
12
  6
Continuous
 62
     3
100
AcDbCircle
 10
-183.7839548768725
 20
303.4531278759598
 30
0.0
 40
3.0
210
0.0
220
0.0
230
-1.0
  0
CIRCLE
  5
12BA4
330
1E
100
AcDbEntity
  8
12
  6
Continuous
 62
     3
100
AcDbCircle
 10
138.7839548768725
 20
303.4531278759598
 30
0.0
 40
3.0
  0
LINE
  5
12BA7
330
1E
100
AcDbEntity
  8
12
  6
Continuous
 62
     3
100
AcDbLine
 10
183.7839548768725
 20
310.4531278759598
 30
0.0
 11
183.7839548768725
 21
296.4531278759598
 31
0.0
  0
LINE
  5
12BA8
330
1E
100
AcDbEntity
  8
12
  6
Continuous
 62
     3
100
AcDbLine
 10
138.7839548768725
 20
310.4531278759598
 30
0.0
 11
138.7839548768725
 21
296.4531278759598
 31
0.0
  0
LINE
  5
12BAA
330
1E
100
AcDbEntity
  8
12
  6
Continuous
 62
     3
100
AcDbLine
 10
131.7839548768725
 20
89.45312787596
 30
0.0
 11
145.7839548768725
 21
89.45312787596
 31
0.0
  0
CIRCLE
  5
12BAB
330
1E
100
AcDbEntity
  8
12
  6
Continuous
 62
     3
100
AcDbCircle
 10
-138.7839548768725
 20
89.45312787596
 30
0.0
 40
3.0
210
0.0
220
0.0
230
-1.0
  0
LINE
  5
12BAC
330
1E
100
AcDbEntity
  8
12
  6
Continuous
 62
     3
100
AcDbLine
 10
138.7839548768725
 20
96.45312787595996
 30
0.0
 11
138.7839548768725
 21
82.45312787595997
 31
0.0
  0
LINE
  5
12BAD
330
1E
100
AcDbEntity
  8
12
  6
Continuous
 62
     3
100
AcDbLine
 10
176.7839548768725
 20
89.45312787596
 30
0.0
 11
190.7839548768725
 21
89.45312787596
 31
0.0
  0
CIRCLE
  5
12BAE
330
1E
100
AcDbEntity
  8
12
  6
Continuous
 62
     3
100
AcDbCircle
 10
183.7839548768725
 20
89.45312787596
 30
0.0
 40
3.0
  0
LINE
  5
12BAF
330
1E
100
AcDbEntity
  8
12
  6
Continuous
 62
     3
100
AcDbLine
 10
183.7839548768725
 20
96.45312787595996
 30
0.0
 11
183.7839548768725
 21
82.45312787595997
 31
0.0
  0
LINE
  5
12BB1
330
1E
100
AcDbEntity
  8
12
  6
Continuous
 62
     3
100
AcDbLine
 10
131.7839548768725
 20
303.4531278759598
 30
0.0
 11
145.7839548768725
 21
303.4531278759598
 31
0.0
  0
LINE
  5
12BB2
330
1E
100
AcDbEntity
  8
12
  6
Continuous
 62
     3
100
AcDbLine
 10
176.7839548768725
 20
303.4531278759598
 30
0.0
 11
190.7839548768725
 21
303.4531278759598
 31
0.0
  0
DIMENSION
  5
12BB6
330
1E
100
AcDbEntity
  8
30
  6
Continuous
100
AcDbDimension
280
     0
  2
*D5
 10
251.1513762677278
 20
89.45312787596
 30
0.0
 11
251.1513762677278
 21
196.4523400781541
 31
0.0
 70
   160
 71
     5
 42
213.9999999999998
 73
     0
 74
     0
 75
     0
  3
STANDARD
100
AcDbAlignedDimension
 13
183.7839548768725
 23
303.4531278759598
 33
0.0
 14
183.7839548768725
 24
89.45312787596
 34
0.0
 50
90.0
100
AcDbRotatedDimension
1001
ACAD
1000
DSTYLE
1002
{
1070
    79
1070
     3
1002
}
  0
DIMENSION
  5
12BB7
330
1E
100
AcDbEntity
  8
30
  6
Continuous
100
AcDbDimension
280
     0
  2
*D6
 10
183.7839548768725
 20
37.74906144548913
 30
0.0
 11
161.2839548768724
 21
44.74906144548913
 31
0.0
 70
    32
 71
     5
 42
44.99999999999997
 73
     0
 74
     0
 75
     0
  3
STANDARD
100
AcDbAlignedDimension
 13
138.7839548768725
 23
89.45312787596
 33
0.0
 14
183.7839548768725
 24
89.45312787596
 34
0.0
100
AcDbRotatedDimension
1001
ACAD
1000
DSTYLE
1002
{
1070
    79
1070
     3
1002
}
  0
DIMENSION
  5
12BB8
330
1E
100
AcDbEntity
  8
30
  6
Continuous
100
AcDbDimension
280
     0
  2
*D7
 10
140.1137471562348
 20
300.7639546770475
 30
0.0
 11
110.6007875136429
 21
340.8981320195638
 31
0.0
 70
   163
  1
M6
 71
     5
 42
6.000000000000142
 73
     0
 74
     0
 75
     0
  3
STANDARD1
100
AcDbDiametricDimension
 15
137.4541625975108
 25
306.1423010748726
 35
0.0
 40
0.0
  0
ARC
  5
12BBA
330
1E
100
AcDbEntity
  8
18
  6
DIVIDE
100
AcDbCircle
 10
634.7966901449672
 20
67.45312787595982
 30
0.0
 40
1.0
100
AcDbArc
 50
270.0
 51
0.0
  0
ARC
  5
12BBB
330
1E
100
AcDbEntity
  8
18
  6
DIVIDE
100
AcDbCircle
 10
634.7966901449672
 20
325.4531278759603
 30
0.0
 40
1.0
100
AcDbArc
 50
0.0
 51
90.0
  0
LWPOLYLINE
  5
12BBC
330
1E
100
AcDbEntity
  8
11
 48
2.0
100
AcDbPolyline
 90
        8
 70
     1
 43
0.0
 10
590.5679818804672
 20
150.4531278759598
 42
0.4142135623730951
 10
592.5679818804674
 20
152.4531278759598
 10
592.5679818804674
 20
240.45312787596
 42
0.4142135623730951
 10
590.5679818804672
 20
242.45312787596
 10
541.5679818804674
 20
242.45312787596
 42
0.4142135623730951
 10
539.5679818804674
 20
240.45312787596
 10
539.5679818804674
 20
152.4531278759598
 42
0.4142135623730951
 10
541.5679818804674
 20
150.4531278759598
  0
DIMENSION
  5
12BBD
330
1E
100
AcDbEntity
  8
30
  6
Continuous
100
AcDbDimension
280
     0
  2
*D8
 10
592.5679818804674
 20
37.93855233525085
 30
0.0
 11
564.3337035159467
 21
37.93855233525085
 31
0.0
 70
   160
 71
     5
 42
53.0
 73
     0
 74
     0
 75
     0
  3
STANDARD
100
AcDbAlignedDimension
 13
539.5679818804674
 23
149.0723240775898
 33
0.0
 14
592.5679818804674
 24
149.0723240775898
 34
0.0
100
AcDbRotatedDimension
1001
ACAD
1000
DSTYLE
1002
{
1070
    79
1070
     3
1002
}
  0
DIMENSION
  5
12BBE
330
1E
100
AcDbEntity
  8
30
  6
Continuous
100
AcDbDimension
280
     0
  2
*D9
 10
661.2023272145006
 20
150.4531278759598
 30
0.0
 11
661.2023272145006
 21
195.2280183345198
 31
0.0
 70
   160
 71
     5
 42
92.00000000000015
 73
     0
 74
     0
 75
     0
  3
STANDARD
100
AcDbAlignedDimension
 13
592.6099644935657
 23
242.45312787596
 33
0.0
 14
592.6099644935657
 24
150.4531278759598
 34
0.0
 50
90.0
100
AcDbRotatedDimension
1001
ACAD
1000
DSTYLE
1002
{
1070
    79
1070
     3
1002
}
  0
MTEXT
  5
12BC0
330
1E
100
AcDbEntity
  8
19
100
AcDbMText
 10
347.6030770928883
 20
20.24371800343727
 30
0.0
 40
10.0
 41
0.0
 46
0.0
 71
     1
 72
     1
  1
[Cutout A]
  7
SLDTEXTSTYLE0
 73
     1
 44
1.0
  0
MTEXT
  5
12BC1
330
1E
100
AcDbEntity
  8
19
100
AcDbMText
 10
538.3019560454377
 20
20.24371800343727
 30
0.0
 40
10.0
 41
0.0
 46
0.0
 71
     1
 72
     1
  1
[Cutout B]
  7
SLDTEXTSTYLE0
 73
     1
 44
1.0
  0
LINE
  5
12BC2
330
1E
100
AcDbEntity
  8
16
 48
2.0
100
AcDbLine
 10
440.6918626235063
 20
196.4531278759598
 30
0.0
 11
276.4380821061504
 21
196.4531278759598
 31
0.0
  0
LINE
  5
12BC3
330
1E
100
AcDbEntity
  8
16
 48
2.0
100
AcDbLine
 10
368.3460686238242
 20
58.99804341704203
 30
0.0
 11
368.3460686238242
 21
338.7769823218353
 31
0.0
  0
ARC
  5
12BC9
330
1E
100
AcDbEntity
  8
18
  6
DIVIDE
100
AcDbCircle
 10
437.0747768883241
 20
325.4531278759603
 30
0.0
 40
1.0
100
AcDbArc
 50
0.0
 51
90.0
  0
LWPOLYLINE
  5
12BCA
330
1E
100
AcDbEntity
  8
11
 48
2.0
100
AcDbPolyline
 90
        8
 70
     1
 43
0.0
 10
425.346068623824
 20
150.4531278759598
 42
0.4142135623730951
 10
427.346068623824
 20
152.4531278759598
 10
427.346068623824
 20
240.45312787596
 42
0.4142135623730951
 10
425.346068623824
 20
242.45312787596
 10
311.3460686238241
 20
242.45312787596
 42
0.4142135623730951
 10
309.3460686238241
 20
240.45312787596
 10
309.3460686238241
 20
152.4531278759598
 42
0.4142135623730951
 10
311.3460686238241
 20
150.4531278759598
  0
DIMENSION
  5
12BCB
330
1E
100
AcDbEntity
  8
30
  6
Continuous
100
AcDbDimension
280
     0
  2
*D10
 10
427.346068623824
 20
37.93855233525085
 30
0.0
 11
366.6117902593033
 21
37.93855233525085
 31
0.0
 70
   160
 71
     5
 42
118.0
 73
     0
 74
     0
 75
     0
  3
STANDARD
100
AcDbAlignedDimension
 13
309.3460686238241
 23
149.0723240775898
 33
0.0
 14
427.346068623824
 24
149.0723240775898
 34
0.0
100
AcDbRotatedDimension
1001
ACAD
1000
DSTYLE
1002
{
1070
    79
1070
     3
1002
}
  0
DIMENSION
  5
12BCC
330
1E
100
AcDbEntity
  8
30
  6
Continuous
100
AcDbDimension
280
     0
  2
*D11
 10
463.4804139578573
 20
150.4531278759598
 30
0.0
 11
463.4804139578573
 21
195.2280183345198
 31
0.0
 70
   160
 71
     5
 42
92.00000000000015
 73
     0
 74
     0
 75
     0
  3
STANDARD
100
AcDbAlignedDimension
 13
427.3880512369223
 23
242.45312787596
 33
0.0
 14
427.3880512369223
 24
150.4531278759598
 34
0.0
 50
90.0
100
AcDbRotatedDimension
1001
ACAD
1000
DSTYLE
1002
{
1070
    79
1070
     3
1002
}
  0
DIMENSION
  5
145B5
330
1E
100
AcDbEntity
  8
30
  6
Continuous
100
AcDbDimension
280
     0
  2
*D22
 10
424.1091638764063
 20
238.7189584849074
 30
0.0
 11
456.6992012699937
 21
270.8580604952748
 31
0.0
 70
   164
 71
     5
 42
2.000000000179113
 73
     0
 74
     0
 75
     0
  3
STANDARD1
100
AcDbRadialDimension
 15
425.2705285549049
 25
240.3472189322106
 35
0.0
 40
0.0
  0
DIMENSION
  5
145D8
330
1E
100
AcDbEntity
  8
30
  6
Continuous
100
AcDbDimension
280
     0
  2
*D23
 10
590.7452906954228
 20
240.1331720472803
 30
0.0
 11
623.3353280890097
 21
272.2722740576478
 31
0.0
 70
   164
 71
     5
 42
2.000000000178943
 73
     0
 74
     0
 75
     0
  3
STANDARD1
100
AcDbRadialDimension
 15
591.9066553739212
 25
241.7614324945834
 35
0.0
 40
0.0
  0
LWPOLYLINE
  5
15339
330
1E
100
AcDbEntity
  8
24
  6
Continuous
100
AcDbPolyline
 90
        4
 70
     0
 43
0.0
 10
523.6347326503378
 20
484.4938972774825
 10
523.6347326503378
 20
439.9938972774822
 10
531.6347326503378
 20
439.9938972774822
 10
531.6347326503378
 20
484.4938972774822
  0
LWPOLYLINE
  5
15BFC
330
1E
100
AcDbEntity
  8
10
  6
CONTINOUS
100
AcDbPolyline
 90
        4
 70
     0
 43
0.0
 10
103.2839486382495
 20
910.5463040888553
 10
103.2839486382495
 20
906.5463040888554
 10
219.2839486382495
 20
906.5463040888554
 10
219.2839486382495
 20
910.5463040888553
  0
LWPOLYLINE
  5
15BFD
330
1E
100
AcDbEntity
  8
10
  6
CONTINOUS
100
AcDbPolyline
 90
        4
 70
     0
 43
0.0
 10
143.2839486382495
 20
906.5463040888554
 10
143.2839486382495
 20
902.5463040888553
 10
179.2839486382495
 20
902.5463040888553
 10
179.2839486382495
 20
906.5463040888554
  0
LWPOLYLINE
  5
15BFE
330
1E
100
AcDbEntity
  8
10
  6
CONTINOUS
100
AcDbPolyline
 90
        4
 70
     0
 43
0.0
 10
144.2839486382495
 20
902.5463040888553
 10
144.2839486382495
 20
874.0463040888553
 10
178.2839486382495
 20
874.0463040888553
 10
178.2839486382495
 20
902.5463040888553
  0
LWPOLYLINE
  5
15C05
330
1E
100
AcDbEntity
  8
10
  6
CONTINOUS
100
AcDbPolyline
 90
        4
 70
     0
 43
0.0
 10
91.28394863824951
 20
977.5463040888553
 10
91.28394863824951
 20
1013.546304088855
 10
231.2839548768725
 20
1013.546304088855
 10
231.2839548768725
 20
977.5463040888553
  0
LWPOLYLINE
  5
15C06
330
1E
100
AcDbEntity
  8
10
  6
CONTINOUS
100
AcDbPolyline
 90
        2
 70
     0
 43
0.0
 10
231.2839548768725
 20
916.5463040888553
 10
91.28394863824951
 20
916.5463040888553
  0
DIMENSION
  5
15D69
330
1E
100
AcDbEntity
  8
30
  6
Continuous
100
AcDbDimension
280
     0
  2
*D24
 10
219.5265338653726
 20
545.6551184310097
 30
0.0
 11
161.5265338653726
 21
552.6551184310095
 31
0.0
 70
    32
 71
     5
 42
116.0
 73
     0
 74
     0
 75
     0
  3
STANDARD
100
AcDbAlignedDimension
 13
103.5265338653726
 23
570.4938972774822
 33
0.0
 14
219.5265338653726
 24
570.4938972774822
 34
0.0
100
AcDbRotatedDimension
  0
DIMENSION
  5
15D6A
330
1E
100
AcDbEntity
  8
30
  6
Continuous
100
AcDbDimension
280
     0
  2
*D25
 10
136.0265338653726
 20
671.5210103932862
 30
0.0
 11
161.5158891181224
 21
678.5210103932862
 31
0.0
 70
    32
 71
     5
 42
50.97871050549976
 73
     0
 74
     0
 75
     0
  3
STANDARD
100
AcDbAlignedDimension
 13
187.0052443708723
 23
659.4938972774822
 33
0.0
 14
136.0265338653726
 24
659.4938972774822
 34
0.0
100
AcDbRotatedDimension
  0
LINE
  5
1625F
330
1E
100
AcDbEntity
  8
24
  6
CONTINOUS
100
AcDbLine
 10
537.1598456858658
 20
868.6412387693408
 30
0.0
 11
569.1598456858654
 21
868.6412387693408
 31
0.0
  0
CIRCLE
  5
16260
330
1E
100
AcDbEntity
  8
24
  6
CONTINOUS
100
AcDbCircle
 10
553.1598456858654
 20
880.6412387693407
 30
0.0
 40
5.499999999999785
  0
SPLINE
  5
16261
330
1E
100
AcDbEntity
  8
24
  6
CONTINOUS
100
AcDbSpline
210
0.0
220
0.0
230
1.0
 70
     8
 71
     3
 72
     8
 73
     4
 74
     0
 42
0.000000001
 43
0.0000000001
 40
0.0
 40
0.0
 40
0.0
 40
0.0
 40
1.0
 40
1.0
 40
1.0
 40
1.0
 10
521.5912494194293
 20
907.2285348802095
 30
0.0
 10
541.1271277122831
 20
935.3480306198436
 30
0.0
 10
560.6371054766173
 20
891.4222841689579
 30
0.0
 10
579.1110294320051
 20
912.5732931999623
 30
0.0
  0
DIMENSION
  5
16262
330
1E
100
AcDbEntity
  8
30
  6
Continuous
100
AcDbDimension
280
     0
  2
*D26
 10
511.0450423250323
 20
868.6412387693408
 30
0.0
 11
511.0450423250322
 21
874.6412387693411
 31
0.0
 70
   160
  1
<>\P(MAX.)
 71
     2
 42
12.0
 73
     0
 74
     0
 75
     0
  3
STANDARD
100
AcDbAlignedDimension
 13
553.1598456858654
 23
880.6412387693407
 33
0.0
 14
537.1598456858658
 24
868.6412387693408
 34
0.0
 50
90.0
100
AcDbRotatedDimension
1001
ACAD
1000
DSTYLE
1002
{
1070
    79
1070
     3
1002
}
  0
DIMENSION
  5
16263
330
1E
100
AcDbEntity
  8
30
  6
Continuous
100
AcDbDimension
280
     0
  2
*D27
 10
569.1598456858654
 20
844.6403063710924
 30
0.0
 11
591.493179019199
 21
844.6403063710924
 31
0.0
 70
   160
  1
<>\P(MAX.)
 71
     2
 42
31.99999999999955
 73
     0
 74
     0
 75
     0
  3
STANDARD
100
AcDbAlignedDimension
 13
537.1598456858658
 23
868.6412387693408
 33
0.0
 14
569.1598456858654
 24
868.6412387693408
 34
0.0
100
AcDbRotatedDimension
1001
ACAD
1000
DSTYLE
1002
{
1070
    79
1070
     3
1002
}
  0
DIMENSION
  5
16264
330
1E
100
AcDbEntity
  8
30
  6
Continuous
100
AcDbDimension
280
     0
  2
*D28
 10
549.0270975640387
 20
877.01213516675
 30
0.0
 11
596.6267567560699
 21
909.1515133973942
 31
0.0
 70
   163
  1
<>
 71
     5
 42
10.99999999979263
 73
     0
 74
     0
 75
     0
  3
STANDARD1
100
AcDbDiametricDimension
 15
557.2925938081908
 25
884.270342371931
 35
0.0
 40
0.0
  0
LINE
  5
16265
330
1E
100
AcDbEntity
  8
24
  6
CONTINOUS
100
AcDbLine
 10
553.1598456861156
 20
888.0512387693407
 30
0.0
 11
553.1598456861156
 21
873.0512387693407
 31
0.0
  0
LINE
  5
16266
330
1E
100
AcDbEntity
  8
24
  6
CONTINOUS
100
AcDbLine
 10
545.6598456861156
 20
880.551238769341
 30
0.0
 11
560.6598456861156
 21
880.551238769341
 31
0.0
  0
LWPOLYLINE
  5
16267
330
1E
100
AcDbEntity
  8
24
  6
Continuous
100
AcDbPolyline
 90
        4
 70
     0
 43
0.0
 10
569.1598456858654
 20
906.1463179553406
 10
569.1598456858654
 20
868.6412387693408
 10
537.1598456858658
 20
868.6412387693408
 10
537.1598456858658
 20
913.9502838508407
  0
DIMENSION
  5
16744
330
1E
100
AcDbEntity
  8
30
  6
Continuous
100
AcDbDimension
280
     0
  2
*D29
 10
566.6347326503378
 20
361.1039888641076
 30
0.0
 11
501.6347326503376
 21
361.1039888641076
 31
0.0
 70
   160
  1
<>
 71
     2
 42
130.0000000000002
 73
     0
 74
     0
 75
     0
  3
STANDARD
100
AcDbAlignedDimension
 13
436.6347326503375
 23
620.8588917285409
 33
0.0
 14
566.6347326503378
 24
485.4938972774824
 34
0.0
100
AcDbRotatedDimension
1001
ACAD
1000
DSTYLE
1002
{
1070
    79
1070
     3
1002
}
  0
DIMENSION
  5
16745
330
1E
100
AcDbEntity
  8
30
  6
Continuous
100
AcDbDimension
280
     0
  2
*D30
 10
581.3347326503376
 20
410.3592193879983
 30
0.0
 11
608.7946191533379
 21
410.3592193879983
 31
0.0
 70
   160
  1
<>
 71
     2
 42
14.69999999999982
 73
     0
 74
     0
 75
     0
  3
STANDARD
100
AcDbAlignedDimension
 13
566.6347326503378
 23
484.9938972774824
 33
0.0
 14
581.3347326503376
 24
507.292909961811
 34
0.0
100
AcDbRotatedDimension
1001
ACAD
1000
DSTYLE
1002
{
1070
    79
1070
     3
1002
}
  0
DIMENSION
  5
16746
330
1E
100
AcDbEntity
  8
30
  6
Continuous
100
AcDbDimension
280
     0
  2
*D31
 10
566.6347326503378
 20
393.1440624894248
 30
0.0
 11
515.1347326503374
 21
393.1440624894248
 31
0.0
 70
   160
  1
<>
 71
     2
 42
103.0
 73
     0
 74
     0
 75
     0
  3
STANDARD
100
AcDbAlignedDimension
 13
463.6347326503376
 23
520.8194475888863
 33
0.0
 14
566.6347326503378
 24
485.4938972774824
 34
0.0
100
AcDbRotatedDimension
1001
ACAD
1000
DSTYLE
1002
{
1070
    79
1070
     3
1002
}
  0
DIMENSION
  5
16747
330
1E
100
AcDbEntity
  8
30
  6
Continuous
100
AcDbDimension
280
     0
  2
*D32
 10
566.6347326503378
 20
410.3907282646828
 30
0.0
 11
518.1347326503376
 21
410.3907282646828
 31
0.0
 70
   160
  1
<>
 71
     2
 42
97.0
 73
     0
 74
     0
 75
     0
  3
STANDARD
100
AcDbAlignedDimension
 13
469.6347326503378
 23
485.4938972774824
 33
0.0
 14
566.6347326503378
 24
485.4938972774824
 34
0.0
100
AcDbRotatedDimension
1001
ACAD
1000
DSTYLE
1002
{
1070
    79
1070
     3
1002
}
  0
DIMENSION
  5
16748
330
1E
100
AcDbEntity
  8
30
  6
Continuous
100
AcDbDimension
280
     0
  2
*D33
 10
566.6347326503378
 20
343.7799175383352
 30
0.0
 11
491.1379847655801
 21
350.7799175383352
 31
0.0
 70
    32
 71
     5
 42
150.9934957695152
 73
     0
 74
     0
 75
     0
  3
STANDARD
100
AcDbAlignedDimension
 13
415.6412368808226
 23
629.3025728199486
 33
0.0
 14
566.6347326503378
 24
360.6039888641076
 34
0.0
100
AcDbRotatedDimension
1001
ACAD
1000
DSTYLE
1002
{
1070
    79
1070
     3
1002
}
  0
DIMENSION
  5
16749
330
1E
100
AcDbEntity
  8
30
  6
Continuous
100
AcDbDimension
280
     0
  2
*D34
 10
451.6347325313376
 20
376.9045816011499
 30
0.0
 11
441.968065864671
 21
383.9045816011499
 31
0.0
 70
    32
 71
     5
 42
8.0
 73
     0
 74
     0
 75
     0
  3
STANDARD1
100
AcDbAlignedDimension
 13
459.6347325313376
 23
569.9915552563112
 33
0.0
 14
451.6347325313376
 24
572.9915552563112
 34
0.0
100
AcDbRotatedDimension
  0
DIMENSION
  5
1674A
330
1E
100
AcDbEntity
  8
30
  6
Continuous
100
AcDbDimension
280
     0
  2
*D35
 10
566.6347326503378
 20
376.9045816011499
 30
0.0
 11
513.1347325908377
 21
383.9045816011499
 31
0.0
 70
    32
 71
     5
 42
107.0000001190001
 73
     0
 74
     0
 75
     0
  3
STANDARD
100
AcDbAlignedDimension
 13
459.6347325313376
 23
376.9045816011499
 33
0.0
 14
566.6347326503378
 24
393.1440624894248
 34
0.0
100
AcDbRotatedDimension
1001
ACAD
1000
DSTYLE
1002
{
1070
    79
1070
     3
1002
}
  0
DIMENSION
  5
19AA3
330
1E
100
AcDbEntity
  8
30
  6
Continuous
100
AcDbDimension
280
     0
  2
*D60
 10
221.2839548768725
 20
816.5354919076959
 30
0.0
 11
160.9483104526534
 21
816.5354919076959
 31
0.0
 70
   160
  1
<>
 71
     2
 42
120.0
 73
     0
 74
     0
 75
     0
  3
STANDARD
100
AcDbAlignedDimension
 13
101.2839548768725
 23
783.9938972774823
 33
0.0
 14
221.2839548768725
 24
783.9938972774823
 34
0.0
100
AcDbRotatedDimension
1001
ACAD
1000
DSTYLE
1002
{
1070
    79
1070
     3
1002
}
  0
DIMENSION
  5
19AA6
330
1E
100
AcDbEntity
  8
30
100
AcDbDimension
280
     0
  2
*D61
 10
87.28395487687249
 20
847.3033542543664
 30
0.0
 11
161.2839548768723
 21
854.3033542543664
 31
0.0
 70
    32
 71
     5
 42
147.9999999999997
 73
     0
 74
     0
 75
     0
  3
STANDARD
100
AcDbAlignedDimension
 13
235.2839548768724
 23
788.9938972774823
 33
0.0
 14
87.28395487687249
 24
788.9938972774823
 34
0.0
100
AcDbRotatedDimension
  0
DIMENSION
  5
19B87
330
1E
100
AcDbEntity
  8
30
  6
Continuous
100
AcDbDimension
280
     0
  2
*D62
 10
217.5474591174203
 20
768.5745561454541
 30
0.0
 11
254.4000490956076
 21
807.4178611371797
 31
0.0
 70
   163
  1
<>
 71
     5
 42
13.9999999996736
 73
     0
 74
     0
 75
     0
  3
STANDARD1
100
AcDbDiametricDimension
 15
225.0204506363221
 25
780.4132384095106
 35
0.0
 40
0.0
  0
LWPOLYLINE
  5
19EF8
330
1E
100
AcDbEntity
  8
10
  6
CONTINOUS
100
AcDbPolyline
 90
       11
 70
     1
 43
0.0
 10
466.6210237672713
 20
522.5254577690901
 10
469.6347325254941
 20
522.4938970984818
 10
469.6347325254941
 20
484.4938972774823
 10
566.6347325254942
 20
484.4938972774823
 10
566.6347325254942
 20
744.4938972774823
 10
469.6347325254941
 20
744.4938972774823
 10
469.6347325254941
 20
706.4520089296567
 10
466.555633816109
 20
706.4197642081088
 42
0.2520626822056452
 10
463.6347353864938
 20
700.9938978013272
 10
463.6347325254941
 20
665.4938972774822
 10
463.6347353864938
 20
527.9938971422349
 42
0.2552568693989432
  0
DIMENSION
  5
19FA7
330
1E
100
AcDbEntity
  8
30
  6
Continuous
100
AcDbDimension
280
     0
  2
*D63
 10
395.1368264258992
 20
569.4938972774822
 30
0.0
 11
395.136826425899
 21
614.4938972774825
 31
0.0
 70
   160
 71
     5
 42
90.0
 73
     0
 74
     0
 75
     0
  3
STANDARD
100
AcDbAlignedDimension
 13
453.1347343134943
 23
659.4938972774822
 33
0.0
 14
445.4209976980783
 24
569.4938972774822
 34
0.0
 50
90.0
100
AcDbRotatedDimension
1001
ACAD
1000
DSTYLE
1002
{
1070
    79
1070
     3
1002
}
  0
LWPOLYLINE
  5
1A727
330
1E
100
AcDbEntity
  8
10
  6
CONTINOUS
100
AcDbPolyline
 90
        8
 70
     1
 43
0.0
 10
442.8201672310565
 20
642.4803790693587
 10
433.4463636484754
 20
642.7380991108501
 10
419.289235851975
 20
646.3551113353502
 10
416.1834017254752
 20
634.7640009568502
 10
430.2946672654753
 20
630.7931506978502
 10
438.7325733504336
 20
627.2252590664511
 10
443.7511771134948
 20
626.2911503199817
 10
447.6334660459943
 20
640.7800373614819
  0
ARC
  5
1A728
330
1E
100
AcDbEntity
  8
10
  6
CONTINOUS
100
AcDbCircle
 10
496.7328448761715
 20
814.5230301598489
 30
0.0
 40
181.6640122735105
100
AcDbArc
 50
252.8048349791452
 51
255.7887474977204
  0
ARC
  5
1A729
330
1E
100
AcDbEntity
  8
10
  6
CONTINOUS
100
AcDbCircle
 10
438.4910662887433
 20
580.6816144570462
 30
0.0
 40
46.90130289725614
100
AcDbArc
 50
73.08805372621606
 51
83.24228441301258
  0
LWPOLYLINE
  5
1A72A
330
1E
100
AcDbEntity
  8
10
  6
CONTINOUS
100
AcDbPolyline
 90
        3
 70
     0
 43
0.0
 10
443.0279786089946
 20
640.978797485482
 10
439.6633310224949
 20
628.4217617434817
 10
444.0099972404948
 20
627.257076040482
  0
ARC
  5
1A72B
330
1E
100
AcDbEntity
  8
30
  6
Continuous
100
AcDbCircle
 10
441.640715561579
 20
632.2103430753841
 30
0.0
 40
26.12738986710155
100
AcDbArc
 50
177.0768725664554
 51
185.6718013063771
  0
ARC
  5
1A73F
330
1E
100
AcDbEntity
  8
30
  6
Continuous
100
AcDbCircle
 10
444.2898568799818
 20
631.9757526730271
 30
0.0
 40
28.77306584956036
100
AcDbArc
 50
157.3479934480698
 51
185.3307881606335
  0
ARC
  5
1A740
330
1E
100
AcDbEntity
  8
30
  6
Continuous
100
AcDbCircle
 10
466.714901702807
 20
617.2897588535297
 30
0.0
 40
30.29117494757552
100
AcDbArc
 50
153.2592132366263
 51
173.2332630719459
  0
LWPOLYLINE
  5
1BABE
330
1E
100
AcDbEntity
  8
18
  6
DIVIDE
 48
2.0
100
AcDbPolyline
 90
        4
 70
     1
 43
0.0
 10
635.7966901449672
 20
66.4531278759598
 10
635.7966901449672
 20
326.4531278759603
 10
496.0679818804672
 20
326.4531278759603
 10
496.0679818804672
 20
66.4531278759598
  0
LWPOLYLINE
  5
1BAC2
330
1E
100
AcDbEntity
  8
18
  6
DIVIDE
 48
2.0
100
AcDbPolyline
 90
        4
 70
     1
 43
0.0
 10
438.0747768883241
 20
66.4531278759598
 10
438.0747768883241
 20
326.4531278759603
 10
298.3460686238241
 20
326.4531278759603
 10
298.3460686238241
 20
66.4531278759598
  0
LWPOLYLINE
  5
1BAC3
330
1E
100
AcDbEntity
  8
18
  6
DIVIDE
 48
2.0
100
AcDbPolyline
 90
        4
 70
     1
 43
0.0
 10
231.0126631413725
 20
66.4531278759598
 10
231.0126631413725
 20
326.4531278759603
 10
91.28395487687248
 20
326.4531278759603
 10
91.28395487687248
 20
66.4531278759598
  0
LINE
  5
1C05C
330
1E
100
AcDbEntity
  8
24
  6
ByBlock
100
AcDbLine
 10
115.2839548768725
 20
788.9938972774823
 30
0.0
 11
115.2839548768725
 21
764.4938972774824
 31
0.0
  0
DIMENSION
  5
1C065
330
1E
100
AcDbEntity
  8
30
100
AcDbDimension
280
     0
  2
*D64
 10
115.2839548768725
 20
798.2679445286639
 30
0.0
 11
126.9506215435391
 21
798.2679445286639
 31
0.0
 70
   160
 71
     5
 42
28.0
 73
     0
 74
     0
 75
     0
  3
STANDARD
100
AcDbAlignedDimension
 13
87.28395487687249
 23
788.9938972774823
 33
0.0
 14
115.2839548768725
 24
788.9938972774823
 34
0.0
100
AcDbRotatedDimension
  0
LINE
  5
1C09E
330
1E
100
AcDbEntity
  8
10
  6
CONTINOUS
100
AcDbLine
 10
469.6347353864942
 20
514.303239978482
 30
0.0
 11
484.6347353864943
 21
514.303239978482
 31
0.0
  0
LINE
  5
1C09F
330
1E
100
AcDbEntity
  8
10
  6
CONTINOUS
100
AcDbLine
 10
469.6347353864942
 20
500.684554576482
 30
0.0
 11
484.6347353864943
 21
500.684554576482
 31
0.0
  0
LINE
  5
1C0A0
330
1E
100
AcDbEntity
  8
240
  6
SLD-破線
370
     0
100
AcDbLine
 10
484.6347353864943
 20
514.303239978482
 30
0.0
 11
484.6347353864943
 21
500.684554576482
 31
0.0
  0
LINE
  5
1C0A1
330
1E
100
AcDbEntity
  8
10
  6
CONTINOUS
100
AcDbLine
 10
484.6347353864943
 20
500.684554576482
 30
0.0
 11
484.6347353864943
 21
514.303239978482
 31
0.0
  0
LINE
  5
1C0A2
330
1E
100
AcDbEntity
  8
12
  6
DASHED
100
AcDbLine
 10
481.3347325254936
 20
505.2438972774822
 30
0.0
 11
566.6347325254942
 21
505.2438972774822
 31
0.0
  0
LINE
  5
1C0A3
330
1E
100
AcDbEntity
  8
12
  6
DASHED
100
AcDbLine
 10
481.3347325254936
 20
509.7438972774825
 30
0.0
 11
566.6347325254942
 21
509.7438972774825
 31
0.0
  0
LINE
  5
1C0A4
330
1E
100
AcDbEntity
  8
12
  6
DASHED
100
AcDbLine
 10
465.6347325254941
 20
507.4938972774825
 30
0.0
 11
590.6347325254942
 21
507.4938972774825
 31
0.0
  0
LINE
  5
1C0A5
330
1E
100
AcDbEntity
  8
12
  6
DASHED
100
AcDbLine
 10
469.6347325254941
 20
503.2438972774825
 30
0.0
 11
481.3347325254936
 21
503.2438972774825
 31
0.0
  0
LINE
  5
1C0A6
330
1E
100
AcDbEntity
  8
12
  6
DASHED
100
AcDbLine
 10
469.6347325254941
 20
511.7438972774825
 30
0.0
 11
481.3347325254936
 21
511.7438972774825
 31
0.0
  0
LINE
  5
1C0A7
330
1E
100
AcDbEntity
  8
12
  6
DASHED
100
AcDbLine
 10
475.3347325254933
 20
511.7438972774825
 30
0.0
 11
475.3347325254933
 21
503.2438972774825
 31
0.0
  0
LINE
  5
1C0A8
330
1E
100
AcDbEntity
  8
12
  6
DASHED
100
AcDbLine
 10
481.3347325254936
 20
511.7438972774825
 30
0.0
 11
481.3347325254936
 21
503.2438972774825
 31
0.0
  0
LINE
  5
1C0A9
330
1E
100
AcDbEntity
  8
12
  6
DASHED
100
AcDbLine
 10
481.3347325254936
 20
505.2438972774822
 30
0.0
 11
481.3347325254936
 21
503.2438972774825
 31
0.0
  0
LINE
  5
1C0AA
330
1E
100
AcDbEntity
  8
12
  6
DASHED
100
AcDbLine
 10
481.3347325254936
 20
511.7438972774825
 30
0.0
 11
481.3347325254936
 21
509.7438972774825
 31
0.0
  0
LINE
  5
1C0AB
330
1E
100
AcDbEntity
  8
12
  6
DASHED
100
AcDbLine
 10
566.6347325254942
 20
505.2438972774822
 30
0.0
 11
581.334732525494
 21
505.2438972774822
 31
0.0
  0
LINE
  5
1C0AC
330
1E
100
AcDbEntity
  8
12
  6
DASHED
100
AcDbLine
 10
566.6347325254942
 20
509.7438972774825
 30
0.0
 11
581.334732525494
 21
509.7438972774825
 31
0.0
  0
LINE
  5
1C0AD
330
1E
100
AcDbEntity
  8
10
  6
Continuous
100
AcDbLine
 10
581.334732525494
 20
509.7438972774825
 30
0.0
 11
581.334732525494
 21
505.2438972774822
 31
0.0
  0
DIMENSION
  5
1C1DF
330
1E
100
AcDbEntity
  8
30
100
AcDbDimension
280
     0
  2
*D65
 10
531.6347326503378
 20
430.0702876343061
 30
0.0
 11
512.3676900948494
 21
430.0702876343061
 31
0.0
 70
   160
 71
     5
 42
8.0
 73
     0
 74
     0
 75
     0
  3
STANDARD
100
AcDbAlignedDimension
 13
523.6347326503378
 23
439.9938972774822
 33
0.0
 14
531.6347326503378
 24
439.9938972774822
 34
0.0
100
AcDbRotatedDimension
  0
DIMENSION
  5
1C201
330
1E
100
AcDbEntity
  8
30
100
AcDbDimension
280
     0
  2
*D66
 10
566.6347326503378
 20
430.030475127593
 30
0.0
 11
549.1347326503378
 21
437.030475127593
 31
0.0
 70
    32
 71
     5
 42
35.0
 73
     0
 74
     0
 75
     0
  3
STANDARD
100
AcDbAlignedDimension
 13
531.6347326503378
 23
438.9938972774822
 33
0.0
 14
566.6347326503378
 24
483.9938972774824
 34
0.0
100
AcDbRotatedDimension
  0
LINE
  5
1C2E0
330
1E
100
AcDbEntity
  8
10
100
AcDbLine
 10
217.7471759828278
 20
484.528463058166
 30
0.0
 11
231.3126631413725
 21
484.528463058166
 31
0.0
  0
LINE
  5
1C2E7
330
1E
100
AcDbEntity
  8
30
100
AcDbLine
 10
102.3839548768724
 20
744.9938972774823
 30
0.0
 11
102.3839548768724
 21
744.5051493229823
 31
0.0
  0
LINE
  5
1C2EB
330
1E
100
AcDbEntity
  8
24
100
AcDbLine
 10
102.3839548768724
 20
484.0938972774821
 30
0.0
 11
102.3839548768724
 21
484.5284691946704
 31
0.0
  0
LINE
  5
1C2EC
330
1E
100
AcDbEntity
  8
24
100
AcDbLine
 10
130.1839548768723
 20
484.0938972774821
 30
0.0
 11
130.1839548768723
 21
484.5284691946705
 31
0.0
  0
LINE
  5
1C2ED
330
1E
100
AcDbEntity
  8
24
100
AcDbLine
 10
192.3839548768724
 20
484.0938972774821
 30
0.0
 11
192.3839548768723
 21
484.5284685357202
 31
0.0
  0
LINE
  5
1C2EE
330
1E
100
AcDbEntity
  8
24
100
AcDbLine
 10
220.1839548768723
 20
484.0938972774821
 30
0.0
 11
220.1839548768723
 21
484.528463058166
 31
0.0
  0
DIMENSION
  5
1C334
330
1E
100
AcDbEntity
  8
30
100
AcDbDimension
280
     0
  2
*D71
 10
284.4775929606631
 20
744.4938972774809
 30
0.0
 11
277.477592960663
 21
614.5111801678235
 31
0.0
 70
    32
 71
     5
 42
259.9654342193151
 73
     0
 74
     0
 75
     0
  3
STANDARD
100
AcDbAlignedDimension
 13
231.3126631413725
 23
484.5284630581659
 33
0.0
 14
231.3126631413727
 24
744.4938972774811
 34
0.0
 50
90.0
100
AcDbRotatedDimension
  0
LWPOLYLINE
  5
1C341
330
1E
100
AcDbEntity
  8
10
  6
CONTINOUS
100
AcDbPolyline
 90
        4
 70
     0
 43
0.0
 10
231.2839548768725
 20
969.5463040888553
 10
231.2839548768725
 20
910.5463040888553
 10
91.28394863824951
 20
910.5463040888553
 10
91.28394863824951
 20
969.5463040888553
  0
VIEWPORT
  5
9AC
330
1A
100
AcDbEntity
 67
     1
  8
0
  6
Continuous
348
8A77
100
AcDbViewport
 10
171.999535
 20
144.1384739999999
 30
0.0
 40
488.867686
 41
292.351491
 68
     1
 69
     1
 12
171.999535
 22
144.1384739999999
 13
0.0
 23
0.0
 14
10.0
 24
10.0
 15
10.0
 25
10.0
 16
0.0
 26
0.0
 36
1.0
 17
0.0
 27
0.0
 37
0.0
 42
50.0
 43
0.0
 44
0.0
 45
292.351491
 50
0.0
 51
0.0
 72
   100
 90
    32800
  1

281
     0
 71
     1
 74
     0
110
0.0
120
0.0
130
0.0
111
1.0
121
0.0
131
0.0
112
0.0
122
1.0
132
0.0
 79
     0
146
0.0
170
     0
 61
     5
292
     1
282
     1
141
0.0
142
0.0
 63
   250
421
  3355443
  0
ENDSEC
  0
SECTION
  2
OBJECTS
  0
DICTIONARY
  5
C
330
0
100
AcDbDictionary
281
     1
  3
ACAD_CIP_PREVIOUS_PRODUCT_INFO
350
8AA8
  3
ACAD_COLOR
350
8A8A
  3
ACAD_DETAILVIEWSTYLE
350
8AA3
  3
ACAD_GROUP
350
D
  3
ACAD_LAYOUT
350
19
  3
ACAD_MATERIAL
350
8A58
  3
ACAD_MLEADERSTYLE
350
8A9F
  3
ACAD_MLINESTYLE
350
16
  3
ACAD_PLOTSETTINGS
350
18
  3
ACAD_PLOTSTYLENAME
350
E
  3
ACAD_SCALELIST
350
8A8D
  3
ACAD_SECTIONVIEWSTYLE
350
8AA1
  3
ACAD_TABLESTYLE
350
8A8B
  3
ACAD_VISUALSTYLE
350
8A71
  3
ACADDIM
350
6D5E
  3
ACDB_RECOMPOSE_DATA
350
1C345
  3
ACDBVARIABLEDICTIONARY
350
5697
  3
AEC_PROPERTY_SET_DEFS
350
BFC4
  0
DICTIONARY
  5
F3CC
330
2
100
AcDbDictionary
280
     1
281
     1
  3
ACAD_LAYERSTATES
360
F3CD
  0
DICTIONARY
  5
8ACC
330
10
100
AcDbDictionary
280
     1
281
     1
  3
ADSK_XREC_LAYER_RECONCILED
360
8ACD
  0
DICTIONARY
  5
8ACE
330
2F
100
AcDbDictionary
280
     1
281
     1
  3
ADSK_XREC_LAYER_RECONCILED
360
8ACF
  0
DICTIONARY
  5
8AD0
330
31
100
AcDbDictionary
280
     1
281
     1
  3
ADSK_XREC_LAYER_RECONCILED
360
8AD1
  0
DICTIONARY
  5
8AD2
330
35
100
AcDbDictionary
280
     1
281
     1
  3
ADSK_XREC_LAYER_RECONCILED
360
8AD3
  0
DICTIONARY
  5
8AD4
330
38
100
AcDbDictionary
280
     1
281
     1
  3
ADSK_XREC_LAYER_RECONCILED
360
8AD5
  0
DICTIONARY
  5
8AD6
330
3D
100
AcDbDictionary
280
     1
281
     1
  3
ADSK_XREC_LAYER_RECONCILED
360
8AD7
  0
DICTIONARY
  5
8AD8
330
3A2
100
AcDbDictionary
280
     1
281
     1
  3
ADSK_XREC_LAYER_RECONCILED
360
8AD9
  0
DICTIONARY
  5
8ADA
330
3BBA
100
AcDbDictionary
280
     1
281
     1
  3
ADSK_XREC_LAYER_RECONCILED
360
8ADB
  0
DICTIONARY
  5
8ADC
330
67A8
100
AcDbDictionary
280
     1
281
     1
  3
ADSK_XREC_LAYER_RECONCILED
360
8ADD
  0
DICTIONARY
  5
8ADE
330
7837
100
AcDbDictionary
280
     1
281
     1
  3
ADSK_XREC_LAYER_RECONCILED
360
8ADF
  0
DICTIONARY
  5
9134
330
9133
100
AcDbDictionary
280
     1
281
     1
  0
DICTIONARY
  5
1391D
330
1391C
100
AcDbDictionary
280
     1
281
     1
  0
DICTIONARY
  5
16BB5
330
16BB4
100
AcDbDictionary
280
     1
281
     1
  0
DICTIONARY
  5
16BB7
330
16BB6
100
AcDbDictionary
280
     1
281
     1
  0
DICTIONARY
  5
16BB9
330
16BB8
100
AcDbDictionary
280
     1
281
     1
  0
DICTIONARY
  5
16BBB
330
16BBA
100
AcDbDictionary
280
     1
281
     1
  0
DICTIONARY
  5
16BBD
330
16BBC
100
AcDbDictionary
280
     1
281
     1
  0
DICTIONARY
  5
16BBF
330
16BBE
100
AcDbDictionary
280
     1
281
     1
  0
DICTIONARY
  5
16F10
330
16F0F
100
AcDbDictionary
280
     1
281
     1
  0
DICTIONARY
  5
17471
330
17470
100
AcDbDictionary
280
     1
281
     1
  0
DICTIONARY
  5
17473
330
17472
100
AcDbDictionary
280
     1
281
     1
  0
DICTIONARY
  5
17EA0
330
17E9F
100
AcDbDictionary
280
     1
281
     1
  0
DICTIONARY
  5
178
330
1E
100
AcDbDictionary
280
     1
281
     1
  3
ACAD_LAYOUTSELFREF
360
8A0F
  3
ACAD_SORTENTS
360
10338
  0
DICTIONARY
  5
17A
330
1A
100
AcDbDictionary
280
     1
281
     1
  3
ACAD_LAYOUTSELFREF
360
8A0E
  0
DICTIONARY
  5
16991
330
16990
100
AcDbDictionary
280
     1
281
     1
  3
ACAD_SORTENTS
360
16992
  0
DICTIONARY
  5
16D05
330
16D04
100
AcDbDictionary
280
     1
281
     1
  3
ACAD_SORTENTS
360
16D06
  0
XRECORD
  5
8AA8
102
{ACAD_REACTORS
330
C
102
}
330
C
100
AcDbXrecord
280
     1
300
ACDLT
300
2014
300
ACDLT_F_S
  0
DICTIONARY
  5
8A8A
102
{ACAD_REACTORS
330
C
102
}
330
C
100
AcDbDictionary
281
     1
  0
DICTIONARY
  5
8AA3
102
{ACAD_REACTORS
330
C
102
}
330
C
100
AcDbDictionary
281
     1
  3
Imperial24
350
8AA4
  0
DICTIONARY
  5
D
102
{ACAD_REACTORS
330
C
102
}
330
C
100
AcDbDictionary
281
     1
  0
DICTIONARY
  5
19
102
{ACAD_REACTORS
330
C
102
}
330
C
100
AcDbDictionary
281
     1
  3
Model
350
8A4C
  3
ﾚｲｱｳﾄ1
350
8A4D
  0
DICTIONARY
  5
8A58
102
{ACAD_REACTORS
330
C
102
}
330
C
100
AcDbDictionary
281
     1
  3
ByBlock
350
8A61
  3
ByLayer
350
8A59
  3
Global
350
8A69
  0
DICTIONARY
  5
8A9F
102
{ACAD_REACTORS
330
C
102
}
330
C
100
AcDbDictionary
281
     1
  3
Standard
350
8AA0
  0
DICTIONARY
  5
16
102
{ACAD_REACTORS
330
C
102
}
330
C
100
AcDbDictionary
281
     1
  3
STANDARD
350
17
  0
DICTIONARY
  5
18
102
{ACAD_REACTORS
330
C
102
}
330
C
100
AcDbDictionary
281
     1
  0
ACDBDICTIONARYWDFLT
  5
E
102
{ACAD_REACTORS
330
C
102
}
330
C
100
AcDbDictionary
281
     1
  3
Normal
350
F
100
AcDbDictionaryWithDefault
340
F
  0
DICTIONARY
  5
8A8D
102
{ACAD_REACTORS
330
C
102
}
330
C
100
AcDbDictionary
281
     1
  3
A0
350
8A8E
  3
A1
350
8A8F
  3
A2
350
8A90
  3
A3
350
8A91
  3
A4
350
8A92
  3
A5
350
8A93
  3
A6
350
8A94
  3
A7
350
8A95
  3
A8
350
8A96
  3
A9
350
8A97
  3
B0
350
8A98
  3
B1
350
8A99
  3
B2
350
8A9A
  3
B3
350
8A9B
  3
B4
350
8A9C
  3
B5
350
8A9D
  3
B6
350
8A9E
  0
DICTIONARY
  5
8AA1
102
{ACAD_REACTORS
330
C
102
}
330
C
100
AcDbDictionary
281
     1
  3
Imperial24
350
8AA2
  0
DICTIONARY
  5
8A8B
102
{ACAD_REACTORS
330
C
102
}
330
C
100
AcDbDictionary
281
     1
  3
Standard
350
8A8C
  0
DICTIONARY
  5
8A71
102
{ACAD_REACTORS
330
C
102
}
330
C
100
AcDbDictionary
281
     1
  3
2dWireframe
350
8A77
  3
3D Hidden
350
8B2B
  3
3dWireframe
350
8B2A
  3
Basic
350
8A76
  3
Brighten
350
8A7D
  3
ColorChange
350
8A81
  3
Conceptual
350
8A7A
  3
Dim
350
8A7C
  3
EdgeColorOff
350
8A89
  3
Facepattern
350
8A80
  3
Flat
350
8A72
  3
FlatWithEdges
350
8A73
  3
Gouraud
350
8A74
  3
GouraudWithEdges
350
8A75
  3
Hidden
350
8A79
  3
JitterOff
350
8A87
  3
Linepattern
350
8A7F
  3
OverhangOff
350
8A88
  3
Realistic
350
8A7B
  3
Shaded
350
8A86
  3
Shaded with edges
350
8A85
  3
Shades of Gray
350
8A82
  3
Sketchy
350
8A83
  3
Thicken
350
8A7E
  3
Wireframe
350
8A78
  3
X-Ray
350
8A84
  0
XRECORD
  5
6D5E
102
{ACAD_REACTORS
330
C
102
}
330
C
100
AcDbXrecord
280
     1
 90
   990106
  3

 60
     0
 61
     0
 62
     1
 63
     3
 64
     0
 65
     0
 66
     0
 67
     3
 68
     1
 69
     0
 70
     0
 71
     0
 72
     0
 40
0.0
170
     0
340
0
  0
XRECORD
  5
1C345
102
{ACAD_REACTORS
330
C
102
}
330
C
100
AcDbXrecord
280
     1
 90
        1
330
8A8C
330
8AA2
330
8AA4
  0
DICTIONARY
  5
5697
102
{ACAD_REACTORS
330
C
102
}
330
C
100
AcDbDictionary
281
     1
  3
CANNOSCALE
350
8AE9
  3
CMLEADERSTYLE
350
8AE5
  3
CTABLESTYLE
350
8AE4
  3
CVIEWDETAILSTYLE
350
8AE6
  3
CVIEWSECTIONSTYLE
350
8AE7
  3
DIMASSOC
350
5698
  3
LAYEREVAL
350
8AEB
  3
LAYERNOTIFY
350
8AEC
  3
LIGHTINGUNITS
350
8AEA
  3
MSLTSCALE
350
8AE8
  0
DICTIONARY
  5
BFC4
102
{ACAD_REACTORS
330
C
102
}
330
C
100
AcDbDictionary
281
     1
  0
DICTIONARY
  5
F3CD
102
{ACAD_REACTORS
330
F3CC
102
}
330
F3CC
100
AcDbDictionary
281
     1
  0
XRECORD
  5
8ACD
102
{ACAD_REACTORS
330
8ACC
102
}
330
8ACC
100
AcDbXrecord
280
     1
290
     1
  0
XRECORD
  5
8ACF
102
{ACAD_REACTORS
330
8ACE
102
}
330
8ACE
100
AcDbXrecord
280
     1
290
     1
  0
XRECORD
  5
8AD1
102
{ACAD_REACTORS
330
8AD0
102
}
330
8AD0
100
AcDbXrecord
280
     1
290
     1
  0
XRECORD
  5
8AD3
102
{ACAD_REACTORS
330
8AD2
102
}
330
8AD2
100
AcDbXrecord
280
     1
290
     1
  0
XRECORD
  5
8AD5
102
{ACAD_REACTORS
330
8AD4
102
}
330
8AD4
100
AcDbXrecord
280
     1
290
     1
  0
XRECORD
  5
8AD7
102
{ACAD_REACTORS
330
8AD6
102
}
330
8AD6
100
AcDbXrecord
280
     1
290
     1
  0
XRECORD
  5
8AD9
102
{ACAD_REACTORS
330
8AD8
102
}
330
8AD8
100
AcDbXrecord
280
     1
290
     1
  0
XRECORD
  5
8ADB
102
{ACAD_REACTORS
330
8ADA
102
}
330
8ADA
100
AcDbXrecord
280
     1
290
     1
  0
XRECORD
  5
8ADD
102
{ACAD_REACTORS
330
8ADC
102
}
330
8ADC
100
AcDbXrecord
280
     1
290
     1
  0
XRECORD
  5
8ADF
102
{ACAD_REACTORS
330
8ADE
102
}
330
8ADE
100
AcDbXrecord
280
     1
290
     1
  0
XRECORD
  5
8A0F
102
{ACAD_REACTORS
330
178
102
}
330
178
100
AcDbXrecord
280
     1
340
1E
  0
SORTENTSTABLE
  5
10338
102
{ACAD_REACTORS
330
178
102
}
330
178
100
AcDbSortentsTable
330
1E
331
145D8
  5
1635D
331
1C065
  5
1C09E
331
16266
  5
17FE8
331
1A73F
  5
1BB3E
331
12A58
  5
12ADF
331
12B9C
  5
13321
331
12AF6
  5
12BB0
331
12A60
  5
12AF1
331
12B3D
  5
132C7
331
1C0A2
  5
1C0A3
331
12BA4
  5
1332F
331
12A68
  5
12AF9
331
1C0AA
  5
1C0AB
331
1A72B
  5
1AC9F
331
12BAC
  5
13335
331
12A80
  5
12B13
331
12ABF
  5
12B52
331
12B75
  5
132F3
331
12B0E
  5
12BBC
331
12BB1
  5
13339
331
16746
  5
17FED
331
12A77
  5
12B0A
331
12BC9
  5
1334D
331
19AA6
  5
1AA96
331
12B4F
  5
132D8
331
12B57
  5
132E0
331
12A88
  5
12B1B
331
12B7D
  5
132FB
331
12AC7
  5
12B64
331
12A41
  5
12AC8
331
12A90
  5
12B23
331
12B85
  5
13307
331
15BFC
  5
132E7
331
12A98
  5
12B2B
331
12A49
  5
12AD0
331
12B26
  5
132AB
331
1BAC3
  5
1C065
331
12B8D
  5
13312
331
12B2E
  5
132B8
331
12AA0
  5
12B33
331
12AD7
  5
12BA6
331
12A51
  5
12AD8
331
12B95
  5
1331D
331
12B36
  5
132C0
331
12B67
  5
132E8
331
16267
  5
17FE9
331
12A59
  5
12AE0
331
12AA8
  5
12B3B
331
12AF7
  5
12BB1
331
12B3E
  5
132C8
331
12A61
  5
12AF2
331
1C0A3
  5
1C0A4
331
1C0AB
  5
1C0AC
331
12BAD
  5
13336
331
12B76
  5
132F4
331
12A81
  5
12B14
331
12B0F
  5
12BBD
331
12BB2
  5
1333F
331
12A70
  5
12B03
331
16747
  5
17FEE
331
12BBA
  5
13344
331
12BCA
  5
1334E
331
12B48
  5
132D1
331
12B50
  5
132D9
331
19FA7
  5
1AB5E
331
12AC0
  5
12B53
331
12B7E
  5
13300
331
12A42
  5
12AC9
331
12A91
  5
12B24
331
12AC8
  5
12B65
331
12B86
  5
13308
331
15BFD
  5
132E6
331
12B27
  5
132AC
331
12A4A
  5
12AD1
331
12A99
  5
12B2C
331
12B8E
  5
13313
331
15C05
  5
132E2
331
12AD8
  5
12BA8
331
12A52
  5
12AD9
331
12AA1
  5
12B34
331
12B2F
  5
132B9
331
12B96
  5
1331E
331
12B37
  5
132C1
331
1C05C
  5
132AD
331
12B68
  5
132F0
331
1C1DF
  5
1C201
331
16260
  5
1684F
331
12AA9
  5
12B3C
331
12A5A
  5
12AE1
331
12B9E
  5
13322
331
12B3F
  5
132C9
331
12AB1
  5
12B44
331
12A62
  5
12AF3
331
1C0A4
  5
1C0A5
331
1C0AC
  5
1C0AD
331
12BAE
  5
13337
331
12A82
  5
12B15
331
12B77
  5
132F5
331
1C341
  5
132E3
331
12A71
  5
12B04
331
16748
  5
17FEF
331
12BBB
  5
13345
331
12A79
  5
12B0C
331
12BCB
  5
15DEE
331
12B49
  5
132D2
331
12B51
  5
132DA
331
12AC1
  5
12B54
331
12A8A
  5
12B1D
331
12B7F
  5
13301
331
12AC9
  5
12B66
331
12A43
  5
12ACA
331
12A92
  5
12B25
331
12B87
  5
13309
331
15BFE
  5
132E4
331
12A9A
  5
12B2D
331
12A4B
  5
12AD2
331
12B28
  5
132AF
331
12B8F
  5
13314
331
12B30
  5
132BA
331
12A53
  5
12ADA
331
12AA2
  5
12B35
331
12AD9
  5
12BAC
331
15C06
  5
132E1
331
1C2EB
  5
1C2EC
331
15D69
  5
1684C
331
16261
  5
16850
331
12B38
  5
132C2
331
12A5B
  5
12AE2
331
12AAA
  5
12B3D
331
12B9F
  5
13324
331
12B40
  5
132CA
331
12A63
  5
12AF4
331
12AB2
  5
12B45
331
1C0A5
  5
1C0A6
331
12BA7
  5
13331
331
1C0AD
  5
1C1DF
331
12BAF
  5
13338
331
12A83
  5
12B16
331
12A72
  5
12B05
331
16749
  5
1A390
331
12BBC
  5
13346
331
12A7A
  5
12B0D
331
12BCC
  5
1601C
331
12B4A
  5
132D3
331
12B52
  5
132DB
331
12B78
  5
132F6
331
12A8B
  5
12B1E
331
12B80
  5
13302
331
12B21
  5
132A7
331
12A44
  5
12ACB
331
12A93
  5
12B26
331
12ACA
  5
12B67
331
1BABE
  5
13340
331
12B88
  5
1330A
331
12A4C
  5
12AD3
331
12A9B
  5
12B2E
331
12AD2
  5
12BA0
331
12B90
  5
13315
331
12B31
  5
132BB
331
12A54
  5
12ADB
331
12AA3
  5
12B36
331
1625F
  5
1684E
331
1C2EC
  5
1C2ED
331
1C201
  5
1C2E0
331
15D6A
  5
1684D
331
16262
  5
16851
331
12AAB
  5
12B3E
331
12B39
  5
132C3
331
1C09E
  5
1C09F
331
12BA0
  5
13325
331
12A64
  5
12AF5
331
12B41
  5
132CB
331
1C0A6
  5
1C0A7
331
1A727
  5
1AC9B
331
12BA8
  5
13332
331
12ABB
  5
12B4E
331
12BC0
  5
13349
331
12B0A
  5
12BBB
331
12A84
  5
12B17
331
12A73
  5
12B06
331
1674A
  5
1A391
331
12BBD
  5
13347
331
12A7B
  5
12B0E
331
12B4B
  5
132D4
331
145B5
  5
162DB
331
12B53
  5
132DC
331
12B79
  5
132F7
331
12AC3
  5
12B60
331
12B12
  5
12BBE
331
12A3D
  5
12AC4
331
12A8C
  5
12B1F
331
12B81
  5
13303
331
12ACB
  5
12B68
331
12A45
  5
12ACC
331
12A94
  5
12B27
331
12B89
  5
1330B
331
12A9C
  5
12B2F
331
12AD3
  5
12BA2
331
12A4D
  5
12AD4
331
12B2A
  5
132B0
331
12B91
  5
13316
331
12B32
  5
132BC
331
12A55
  5
12ADC
331
12AA4
  5
12B37
331
1C2ED
  5
1C2EE
331
16263
  5
16852
331
19EF8
  5
1AB0D
331
12B3A
  5
132C4
331
12A5D
  5
12AE4
331
12AAC
  5
12B3F
331
1C09F
  5
1C0A0
331
12BA1
  5
1332B
331
12A65
  5
12AF6
331
12B42
  5
132CC
331
1C0A7
  5
1C0A8
331
1A728
  5
1AC9C
331
12ABC
  5
12B4F
331
12B03
  5
12BB7
331
1C334
  5
1C341
331
12BC1
  5
1334A
331
12A85
  5
12B18
331
12BB6
  5
13341
331
12A74
  5
12B07
331
12BBE
  5
13348
331
12A7C
  5
12B0F
331
19AA3
  5
1A4B6
331
12B4C
  5
132D5
331
12B54
  5
132DD
331
1A740
  5
1BB3F
331
15339
  5
16744
331
12B7A
  5
132F8
331
12A8D
  5
12B20
331
12AC4
  5
12B61
331
12A3E
  5
12AC5
331
12B13
  5
12BC0
331
12B82
  5
13304
331
12B23
  5
132A8
331
12A46
  5
12ACD
331
12ACC
  5
12B69
331
12B8A
  5
1330F
331
12AD4
  5
12BA3
331
12B2B
  5
132B1
331
12A4E
  5
12AD5
331
12A9D
  5
12B30
331
12B92
  5
1331A
331
12B33
  5
132BD
331
12A56
  5
12ADD
331
12AA5
  5
12B38
331
1C2EE
  5
1C334
331
16264
  5
16853
331
12AAD
  5
12B40
331
12A5E
  5
12AEF
331
12B3B
  5
132C5
331
1C0A0
  5
1C0A1
331
12BA2
  5
1332C
331
12B43
  5
132CD
331
12A66
  5
12AF7
331
12AFC
  5
12BB4
331
1C0A8
  5
1C0A9
331
1A729
  5
1AC9D
331
12BAA
  5
13333
331
12ABD
  5
12B50
331
12B73
  5
132F1
331
12BC2
  5
1334B
331
12A86
  5
12B19
331
16744
  5
17FEA
331
12BB7
  5
13342
331
12A75
  5
12B08
331
12A7D
  5
12B10
331
12B4D
  5
132D6
331
12B55
  5
132DE
331
12B7B
  5
132F9
331
12AC5
  5
12B62
331
12A3F
  5
12AC6
331
12A8E
  5
12B21
331
12B83
  5
13305
331
12ACD
  5
12B6A
331
12A47
  5
12ACE
331
12B24
  5
132A9
331
12B8B
  5
13310
331
12A9E
  5
12B31
331
12AD5
  5
12BA4
331
12A4F
  5
12AD6
331
12B2C
  5
132B6
331
12B34
  5
132BE
331
12A57
  5
12ADE
331
12AA6
  5
12B39
331
1C2E7
  5
1C2EB
331
19B87
  5
1AB0C
331
16265
  5
16854
331
12B9B
  5
1331F
331
12AF5
  5
12BAD
331
12B3C
  5
132C6
331
12A5F
  5
12AF0
331
12AAE
  5
12B41
331
1C0A1
  5
1C0A2
331
12BA3
  5
1332E
331
12A67
  5
12AF8
331
1C0A9
  5
1C0AA
331
1A72A
  5
1AC9E
331
12B74
  5
132F2
331
12BAB
  5
13334
331
12A6F
  5
12B02
331
12ABE
  5
12B51
331
12BC3
  5
1334C
331
12A87
  5
12B1A
331
16745
  5
17FEC
331
12BB8
  5
13343
331
12A76
  5
12B09
331
12A7E
  5
12B11
331
12B4E
  5
132D7
331
12B56
  5
132DF
331
12B7C
  5
132FA
331
12A8F
  5
12B22
331
12AC6
  5
12B63
331
12A40
  5
12AC7
331
12B84
  5
13306
331
12B25
  5
132AA
331
12A48
  5
12ACF
331
1BAC2
  5
1C05C
331
12B8C
  5
13311
331
12AD6
  5
12BA5
331
12A50
  5
12AD7
331
12A9F
  5
12B32
331
12B2D
  5
132B7
331
12B94
  5
1331B
331
12AA7
  5
12B3A
331
12B35
  5
132BF
331
1C2E0
  5
1C2E7
  0
XRECORD
  5
8A0E
102
{ACAD_REACTORS
330
17A
102
}
330
17A
100
AcDbXrecord
280
     1
340
1A
  0
SORTENTSTABLE
  5
16992
102
{ACAD_REACTORS
330
16991
102
}
330
16991
100
AcDbSortentsTable
330
16990
  0
SORTENTSTABLE
  5
16D06
102
{ACAD_REACTORS
330
16D05
102
}
330
16D05
100
AcDbSortentsTable
330
16D04
  0
ACDBDETAILVIEWSTYLE
  5
8AA4
102
{ACAD_XDICTIONARY
360
1C2CB
102
}
102
{ACAD_REACTORS
330
8AA3
102
}
330
8AA3
100
AcDbModelDocViewStyle
 70
     0
  3
Imperial24
290
     0
100
AcDbDetailViewStyle
 70
     0
 71
     0
 90
        3
 71
     1
340
11
 62
   256
 40
0.24
340
0
 62
   256
 40
0.24
300

 40
0.36
280
     3
 71
     2
340
15
 90
       25
 62
   256
 71
     3
340
11
 62
   256
 40
0.24
 90
        1
 40
0.75
 90
        1
300
%<\AcVar ViewType \f "%tc1">% %<\AcVar ViewDetailId>%\PSCALE %<\AcVar ViewScale \f "%sn">%
 71
     4
340
15
 90
       25
 62
   256
340
15
 90
       25
 62
   256
280
     0
  0
LAYOUT
  5
8A4C
102
{ACAD_XDICTIONARY
360
F3D2
102
}
102
{ACAD_REACTORS
330
19
102
}
330
19
100
AcDbPlotSettings
  1

  2
none_device
  4
Letter_(8.50_x_11.00_Inches)
  6

 40
6.349999904632567
 41
6.349999904632567
 42
6.350006103515625
 43
6.350006103515625
 44
215.8999938964844
 45
279.3999938964844
 46
0.0
 47
0.0
 48
0.0
 49
0.0
140
0.0
141
0.0
142
1.0
143
317.0449279872537
 70
 11952
 72
     0
 73
     1
 74
     0
  7
monochrome.ctb
 75
     0
147
0.0031541271022642
 76
     0
 77
     2
 78
   300
148
21198.07971653447
149
42574.72085005308
100
AcDbLayout
  1
Model
 70
     1
 71
     0
 10
0.0
 20
0.0
 11
12.0
 21
9.0
 12
0.0
 22
0.0
 32
0.0
 14
0.0
 24
0.0
 34
0.0
 15
0.0
 25
0.0
 35
0.0
146
0.0
 13
0.0
 23
0.0
 33
0.0
 16
1.0
 26
0.0
 36
0.0
 17
0.0
 27
1.0
 37
0.0
 76
     0
330
1E
331
8A51
1001
ACAD_PSEXT
1000
なし
1000
なし
1000
適切ではありません
1000
新しいプロッタ環境設定名を選択しない限り、レイアウトは印刷されません。
1070
     0
  0
LAYOUT
  5
8A4D
102
{ACAD_REACTORS
330
19
102
}
330
19
100
AcDbPlotSettings
  1

  2
Canon LBP3800 LIPSLX
  4

  6

 40
0.0
 41
0.0
 42
0.0
 43
0.0
 44
0.0
 45
0.0
 46
0.0
 47
0.0
 48
0.0
 49
0.0
140
0.0
141
0.0
142
1.0
143
1.0
 70
   688
 72
     0
 73
     0
 74
     5
  7
monochrome.ctb
 75
    16
147
1.0
 76
     0
 77
     2
 78
   300
148
0.0
149
0.0
100
AcDbLayout
  1
ﾚｲｱｳﾄ1
 70
     1
 71
     1
 10
-5.873749
 20
-5.87375
 11
204.099579
 21
291.1369009999999
 12
0.0
 22
0.0
 32
0.0
 14
4.273573
 24
5.205245999999998
 34
0.0
 15
194.610095
 25
283.0697009999996
 35
0.0
146
0.0
 13
0.0
 23
0.0
 33
0.0
 16
1.0
 26
0.0
 36
0.0
 17
0.0
 27
1.0
 37
0.0
 76
     0
330
1A
331
9AC
  0
MATERIAL
  5
8A61
102
{ACAD_XDICTIONARY
360
8A62
102
}
102
{ACAD_REACTORS
330
8A58
102
}
330
8A58
100
AcDbMaterial
  1
ByBlock
 72
     0
 43
0.0208333333333333
 43
0.0
 43
0.0
 43
0.0
 43
0.0
 43
0.0208333333333333
 43
0.0
 43
0.0
 43
0.0
 43
0.0
 43
1.0
 43
0.0
 43
0.0
 43
0.0
 43
0.0
 43
1.0
 77
     0
 47
0.0208333333333333
 47
0.0
 47
0.0
 47
0.0
 47
0.0
 47
0.0208333333333333
 47
0.0
 47
0.0
 47
0.0
 47
0.0
 47
1.0
 47
0.0
 47
0.0
 47
0.0
 47
0.0
 47
1.0
171
     0
 49
0.0208333333333333
 49
0.0
 49
0.0
 49
0.0
 49
0.0
 49
0.0208333333333333
 49
0.0
 49
0.0
 49
0.0
 49
0.0
 49
1.0
 49
0.0
 49
0.0
 49
0.0
 49
0.0
 49
1.0
175
     0
142
0.0208333333333333
142
0.0
142
0.0
142
0.0
142
0.0
142
0.0208333333333333
142
0.0
142
0.0
142
0.0
142
0.0
142
1.0
142
0.0
142
0.0
142
0.0
142
0.0
142
1.0
179
     0
144
0.0208333333333333
144
0.0
144
0.0
144
0.0
144
0.0
144
0.0208333333333333
144
0.0
144
0.0
144
0.0
144
0.0
144
1.0
144
0.0
144
0.0
144
0.0
144
0.0
144
1.0
147
0.0208333333333333
147
0.0
147
0.0
147
0.0
147
0.0
147
0.0208333333333333
147
0.0
147
0.0
147
0.0
147
0.0
147
1.0
147
0.0
147
0.0
147
0.0
147
0.0
147
1.0
  0
MATERIAL
  5
8A59
102
{ACAD_XDICTIONARY
360
8A5A
102
}
102
{ACAD_REACTORS
330
8A58
102
}
330
8A58
100
AcDbMaterial
  1
ByLayer
 72
     0
 43
0.0208333333333333
 43
0.0
 43
0.0
 43
0.0
 43
0.0
 43
0.0208333333333333
 43
0.0
 43
0.0
 43
0.0
 43
0.0
 43
1.0
 43
0.0
 43
0.0
 43
0.0
 43
0.0
 43
1.0
 77
     0
 47
0.0208333333333333
 47
0.0
 47
0.0
 47
0.0
 47
0.0
 47
0.0208333333333333
 47
0.0
 47
0.0
 47
0.0
 47
0.0
 47
1.0
 47
0.0
 47
0.0
 47
0.0
 47
0.0
 47
1.0
171
     0
 49
0.0208333333333333
 49
0.0
 49
0.0
 49
0.0
 49
0.0
 49
0.0208333333333333
 49
0.0
 49
0.0
 49
0.0
 49
0.0
 49
1.0
 49
0.0
 49
0.0
 49
0.0
 49
0.0
 49
1.0
175
     0
142
0.0208333333333333
142
0.0
142
0.0
142
0.0
142
0.0
142
0.0208333333333333
142
0.0
142
0.0
142
0.0
142
0.0
142
1.0
142
0.0
142
0.0
142
0.0
142
0.0
142
1.0
179
     0
144
0.0208333333333333
144
0.0
144
0.0
144
0.0
144
0.0
144
0.0208333333333333
144
0.0
144
0.0
144
0.0
144
0.0
144
1.0
144
0.0
144
0.0
144
0.0
144
0.0
144
1.0
147
0.0208333333333333
147
0.0
147
0.0
147
0.0
147
0.0
147
0.0208333333333333
147
0.0
147
0.0
147
0.0
147
0.0
147
1.0
147
0.0
147
0.0
147
0.0
147
0.0
147
1.0
  0
MATERIAL
  5
8A69
102
{ACAD_XDICTIONARY
360
8A6A
102
}
102
{ACAD_REACTORS
330
8A58
102
}
330
8A58
100
AcDbMaterial
  1
Global
 72
     0
 43
0.0208333333333333
 43
0.0
 43
0.0
 43
0.0
 43
0.0
 43
0.0208333333333333
 43
0.0
 43
0.0
 43
0.0
 43
0.0
 43
1.0
 43
0.0
 43
0.0
 43
0.0
 43
0.0
 43
1.0
 77
     0
 47
0.0208333333333333
 47
0.0
 47
0.0
 47
0.0
 47
0.0
 47
0.0208333333333333
 47
0.0
 47
0.0
 47
0.0
 47
0.0
 47
1.0
 47
0.0
 47
0.0
 47
0.0
 47
0.0
 47
1.0
171
     0
 49
0.0208333333333333
 49
0.0
 49
0.0
 49
0.0
 49
0.0
 49
0.0208333333333333
 49
0.0
 49
0.0
 49
0.0
 49
0.0
 49
1.0
 49
0.0
 49
0.0
 49
0.0
 49
0.0
 49
1.0
175
     0
142
0.0208333333333333
142
0.0
142
0.0
142
0.0
142
0.0
142
0.0208333333333333
142
0.0
142
0.0
142
0.0
142
0.0
142
1.0
142
0.0
142
0.0
142
0.0
142
0.0
142
1.0
179
     0
144
0.0208333333333333
144
0.0
144
0.0
144
0.0
144
0.0
144
0.0208333333333333
144
0.0
144
0.0
144
0.0
144
0.0
144
1.0
144
0.0
144
0.0
144
0.0
144
0.0
144
1.0
147
0.0208333333333333
147
0.0
147
0.0
147
0.0
147
0.0
147
0.0208333333333333
147
0.0
147
0.0
147
0.0
147
0.0
147
1.0
147
0.0
147
0.0
147
0.0
147
0.0
147
1.0
  0
MLEADERSTYLE
  5
8AA0
102
{ACAD_REACTORS
330
8A9F
102
}
330
8A9F
100
AcDbMLeaderStyle
179
     2
170
     2
171
     1
172
     0
 90
        2
 40
0.0
 41
0.0
173
     1
 91
-1056964608
340
13
 92
       -2
290
     1
 42
0.09
291
     1
 43
0.36
  3
Standard
 44
0.18
300

342
11
174
     1
178
     6
175
     1
176
     0
 93
-1056964608
 45
0.18
292
     0
297
     0
 46
0.18
 94
-1056964608
 47
1.0
 49
1.0
140
1.0
293
     1
141
0.0
294
     1
177
     0
142
1.0
295
     0
296
     0
143
0.125
271
     0
272
     9
273
     9
298
     0
  0
MLINESTYLE
  5
17
102
{ACAD_REACTORS
330
16
102
}
330
16
100
AcDbMlineStyle
  2
STANDARD
 70
     0
  3

 62
   256
 51
90.0
 52
90.0
 71
     2
 49
0.5
 62
   256
  6
BYLAYER
 49
-0.5
 62
   256
  6
BYLAYER
  0
ACDBPLACEHOLDER
  5
F
102
{ACAD_REACTORS
330
E
102
}
330
E
  0
SCALE
  5
8A8E
102
{ACAD_REACTORS
330
8A8D
102
}
330
8A8D
100
AcDbScale
 70
     0
300
1:1
140
1.0
141
1.0
290
     1
  0
SCALE
  5
8A8F
102
{ACAD_REACTORS
330
8A8D
102
}
330
8A8D
100
AcDbScale
 70
     0
300
1/128" = 1'-0"
140
0.0078125
141
12.0
290
     0
  0
SCALE
  5
8A90
102
{ACAD_REACTORS
330
8A8D
102
}
330
8A8D
100
AcDbScale
 70
     0
300
1/64" = 1'-0"
140
0.015625
141
12.0
290
     0
  0
SCALE
  5
8A91
102
{ACAD_REACTORS
330
8A8D
102
}
330
8A8D
100
AcDbScale
 70
     0
300
1/32" = 1'-0"
140
0.03125
141
12.0
290
     0
  0
SCALE
  5
8A92
102
{ACAD_REACTORS
330
8A8D
102
}
330
8A8D
100
AcDbScale
 70
     0
300
1/16" = 1'-0"
140
0.0625
141
12.0
290
     0
  0
SCALE
  5
8A93
102
{ACAD_REACTORS
330
8A8D
102
}
330
8A8D
100
AcDbScale
 70
     0
300
3/32" = 1'-0"
140
0.09375
141
12.0
290
     0
  0
SCALE
  5
8A94
102
{ACAD_REACTORS
330
8A8D
102
}
330
8A8D
100
AcDbScale
 70
     0
300
1/8" = 1'-0"
140
0.125
141
12.0
290
     0
  0
SCALE
  5
8A95
102
{ACAD_REACTORS
330
8A8D
102
}
330
8A8D
100
AcDbScale
 70
     0
300
3/16" = 1'-0"
140
0.1875
141
12.0
290
     0
  0
SCALE
  5
8A96
102
{ACAD_REACTORS
330
8A8D
102
}
330
8A8D
100
AcDbScale
 70
     0
300
1/4" = 1'-0"
140
0.25
141
12.0
290
     0
  0
SCALE
  5
8A97
102
{ACAD_REACTORS
330
8A8D
102
}
330
8A8D
100
AcDbScale
 70
     0
300
3/8" = 1'-0"
140
0.375
141
12.0
290
     0
  0
SCALE
  5
8A98
102
{ACAD_REACTORS
330
8A8D
102
}
330
8A8D
100
AcDbScale
 70
     0
300
1/2" = 1'-0"
140
0.5
141
12.0
290
     0
  0
SCALE
  5
8A99
102
{ACAD_REACTORS
330
8A8D
102
}
330
8A8D
100
AcDbScale
 70
     0
300
3/4" = 1'-0"
140
0.75
141
12.0
290
     0
  0
SCALE
  5
8A9A
102
{ACAD_REACTORS
330
8A8D
102
}
330
8A8D
100
AcDbScale
 70
     0
300
1" = 1'-0"
140
1.0
141
12.0
290
     0
  0
SCALE
  5
8A9B
102
{ACAD_REACTORS
330
8A8D
102
}
330
8A8D
100
AcDbScale
 70
     0
300
1-1/2" = 1'-0"
140
1.5
141
12.0
290
     0
  0
SCALE
  5
8A9C
102
{ACAD_REACTORS
330
8A8D
102
}
330
8A8D
100
AcDbScale
 70
     0
300
3" = 1'-0"
140
3.0
141
12.0
290
     0
  0
SCALE
  5
8A9D
102
{ACAD_REACTORS
330
8A8D
102
}
330
8A8D
100
AcDbScale
 70
     0
300
6" = 1'-0"
140
6.0
141
12.0
290
     0
  0
SCALE
  5
8A9E
102
{ACAD_REACTORS
330
8A8D
102
}
330
8A8D
100
AcDbScale
 70
     0
300
1'-0" = 1'-0"
140
12.0
141
12.0
290
     0
  0
ACDBSECTIONVIEWSTYLE
  5
8AA2
102
{ACAD_XDICTIONARY
360
1C2C9
102
}
102
{ACAD_REACTORS
330
8AA1
102
}
330
8AA1
100
AcDbModelDocViewStyle
 70
     0
  3
Imperial24
290
     0
100
AcDbSectionViewStyle
 70
     0
 71
     0
 90
       78
 71
     1
340
11
 62
   256
 40
0.24
340
0
340
0
 62
   256
 40
0.24
300
I, O, Q, S, X, Z
 40
0.48
 90
        3
 40
0.18
 90
        1
 71
     2
340
15
 90
       25
 62
   256
340
15
 90
       50
 62
   256
 40
0.24
 40
0.0
 40
0.24
 71
     3
340
11
 62
   256
 40
0.24
 90
        1
 40
0.75
 90
        1
300
%<\AcVar ViewType \f "%tc1">% %<\AcVar ViewSectionStartId>%-%<\AcVar ViewSectionEndId>%\PSCALE %<\AcVar ViewScale \f "%sn">%
 71
     4
 62
   256
 62
   257
300
ANSI31
 40
1.0
 90
        0
290
     0
290
     0
 90
        6
 40
0.0
 40
1.570796326794896
 40
0.2617993877991494
 40
1.308996938995747
 40
-0.2617993877991494
 40
1.832595714594044
  0
TABLESTYLE
  5
8A8C
102
{ACAD_XDICTIONARY
360
8AED
102
}
102
{ACAD_REACTORS
330
8A8B
102
}
330
8A8B
100
AcDbTableStyle
280
     0
  3
Standard
 70
     0
 71
     0
 40
0.06
 41
0.06
280
     0
281
     0
  7
STANDARD
140
0.18
170
     2
 62
     0
 63
     7
283
     0
 90
      512
 91
        0
  1

274
    -2
284
     1
 64
     0
275
    -2
285
     1
 65
     0
276
    -2
286
     1
 66
     0
277
    -2
287
     1
 67
     0
278
    -2
288
     1
 68
     0
279
    -2
289
     1
 69
     0
  7
STANDARD
140
0.25
170
     5
 62
     0
 63
     7
283
     0
 90
      512
 91
        0
  1

274
    -2
284
     1
 64
     0
275
    -2
285
     1
 65
     0
276
    -2
286
     1
 66
     0
277
    -2
287
     1
 67
     0
278
    -2
288
     1
 68
     0
279
    -2
289
     1
 69
     0
  7
STANDARD
140
0.18
170
     5
 62
     0
 63
     7
283
     0
 90
      512
 91
        0
  1

274
    -2
284
     1
 64
     0
275
    -2
285
     1
 65
     0
276
    -2
286
     1
 66
     0
277
    -2
287
     1
 67
     0
278
    -2
288
     1
 68
     0
279
    -2
289
     1
 69
     0
  0
VISUALSTYLE
  5
8A77
102
{ACAD_REACTORS
330
8A71
102
}
330
8A71
100
AcDbVisualStyle
  2
2dWireframe
 70
     4
177
     3
291
     0
 70
    58
 90
        0
176
     1
 90
        2
176
     1
 90
        0
176
     1
 90
        0
176
     1
 40
0.6
176
     1
 40
30.0
176
     1
 62
     7
420
 16777215
176
     1
 90
        1
176
     1
 90
        4
176
     1
 62
     7
176
     1
 62
   257
176
     1
 90
        1
176
     1
 90
        1
176
     1
 40
1.0
176
     1
 90
        0
176
     1
 62
   257
176
     1
 40
1.0
176
     1
 90
        1
176
     1
 90
        6
176
     1
 90
        2
176
     1
 62
     7
176
     1
 90
        5
176
     1
 90
        0
176
     1
 90
        0
176
     1
290
     0
176
     1
 90
        1
176
     1
 40
0.0
176
     1
 90
        0
176
     1
290
     1
176
     1
290
     1
176
     1
290
     0
176
     1
290
     0
176
     1
290
     0
176
     1
290
     0
176
     1
290
     0
176
     1
290
     0
176
     1
290
     0
176
     1
 90
       50
176
     1
 40
0.0
176
     1
 40
1.0
176
     1
 90
        0
176
     1
 62
    18
176
     1
 90
       50
176
     1
 90
        3
176
     1
 62
     5
420
      255
176
     1
290
     0
176
     1
 90
       50
176
     1
 90
       50
176
     1
 90
       50
176
     1
290
     0
176
     1
 90
       50
176
     1
 62
   256
176
     0
 40
1.0
176
     0
 90
        2
176
     1
  1
strokes_ogs.tif
176
     1
290
     0
176
     1
 40
1.0
176
     1
 40
1.0
176
     1
1001
ACAD
1000
AcDbSavedByObjectVersion
1070
     0
  0
VISUALSTYLE
  5
8B2B
102
{ACAD_REACTORS
330
8A71
102
}
330
8A71
100
AcDbVisualStyle
  2
3D Hidden
 70
     6
177
     3
291
     0
 70
    58
 90
        1
176
     1
 90
        2
176
     1
 90
        2
176
     1
 90
        0
176
     1
 40
0.6
176
     1
 40
30.0
176
     1
 62
     7
420
 16777215
176
     1
 90
        2
176
     1
 90
        2
176
     1
 62
     7
176
     1
 62
   257
176
     1
 90
        2
176
     1
 90
        1
176
     1
 40
179.0
176
     1
 90
        0
176
     1
 62
   257
176
     1
 40
1.0
176
     1
 90
        1
176
     1
 90
        6
176
     1
 90
        2
176
     1
 62
     7
176
     1
 90
        3
176
     1
 90
        0
176
     1
 90
        0
176
     1
290
     0
176
     1
 90
        1
176
     1
 40
0.0
176
     1
 90
        0
176
     1
290
     0
176
     1
290
     1
176
     1
290
     1
176
     1
290
     0
176
     1
290
     0
176
     1
290
     0
176
     1
290
     0
176
     1
290
     0
176
     1
290
     0
176
     1
 90
       50
176
     1
 40
0.0
176
     1
 40
1.0
176
     1
 90
        0
176
     1
 62
    18
176
     1
 90
       50
176
     1
 90
        3
176
     1
 62
     5
420
      255
176
     1
290
     0
176
     1
 90
       50
176
     1
 90
       50
176
     1
 90
       50
176
     1
290
     0
176
     1
 90
       50
176
     1
 62
   256
176
     0
 40
1.0
176
     0
 90
        2
176
     1
  1
strokes_ogs.tif
176
     1
290
     0
176
     1
 40
1.0
176
     1
 40
1.0
176
     1
1001
ACAD
1000
AcDbSavedByObjectVersion
1070
     0
  0
VISUALSTYLE
  5
8B2A
102
{ACAD_REACTORS
330
8A71
102
}
330
8A71
100
AcDbVisualStyle
  2
3dWireframe
 70
     5
177
     3
291
     0
 70
    58
 90
        0
176
     1
 90
        2
176
     1
 90
        0
176
     1
 90
        0
176
     1
 40
0.6
176
     1
 40
30.0
176
     1
 62
     7
420
 16777215
176
     1
 90
        1
176
     1
 90
        4
176
     1
 62
     7
176
     1
 62
   257
176
     1
 90
        1
176
     1
 90
        1
176
     1
 40
1.0
176
     1
 90
        0
176
     1
 62
   257
176
     1
 40
1.0
176
     1
 90
        1
176
     1
 90
        6
176
     1
 90
        2
176
     1
 62
     7
176
     1
 90
        5
176
     1
 90
        0
176
     1
 90
        0
176
     1
290
     0
176
     1
 90
        1
176
     1
 40
0.0
176
     1
 90
        0
176
     1
290
     0
176
     1
290
     1
176
     1
290
     1
176
     1
290
     0
176
     1
290
     0
176
     1
290
     0
176
     1
290
     0
176
     1
290
     0
176
     1
290
     0
176
     1
 90
       50
176
     1
 40
0.0
176
     1
 40
1.0
176
     1
 90
        0
176
     1
 62
    18
176
     1
 90
       50
176
     1
 90
        3
176
     1
 62
     5
420
      255
176
     1
290
     0
176
     1
 90
       50
176
     1
 90
       50
176
     1
 90
       50
176
     1
290
     0
176
     1
 90
       50
176
     1
 62
   256
176
     0
 40
1.0
176
     0
 90
        2
176
     1
  1
strokes_ogs.tif
176
     1
290
     0
176
     1
 40
1.0
176
     1
 40
1.0
176
     1
1001
ACAD
1000
AcDbSavedByObjectVersion
1070
     0
  0
VISUALSTYLE
  5
8A76
102
{ACAD_REACTORS
330
8A71
102
}
330
8A71
100
AcDbVisualStyle
  2
Basic
 70
     7
177
     3
291
     1
 70
    58
 90
        1
176
     1
 90
        0
176
     1
 90
        1
176
     1
 90
        0
176
     1
 40
0.6
176
     1
 40
30.0
176
     1
 62
     7
420
 16777215
176
     1
 90
        0
176
     1
 90
        4
176
     1
 62
     7
176
     1
 62
   257
176
     1
 90
        1
176
     1
 90
        1
176
     1
 40
1.0
176
     1
 90
        8
176
     1
 62
     7
176
     1
 40
1.0
176
     1
 90
        1
176
     1
 90
        6
176
     1
 90
        2
176
     1
 62
     7
176
     1
 90
        5
176
     1
 90
        0
176
     1
 90
        0
176
     1
290
     0
176
     1
 90
        1
176
     1
 40
0.0
176
     1
 90
        0
176
     1
290
     0
176
     1
290
     1
176
     1
290
     1
176
     1
290
     0
176
     1
290
     0
176
     1
290
     0
176
     1
290
     0
176
     1
290
     0
176
     1
290
     0
176
     1
 90
       50
176
     1
 40
0.0
176
     1
 40
1.0
176
     1
 90
        0
176
     1
 62
    18
176
     1
 90
       50
176
     1
 90
        3
176
     1
 62
     5
420
      255
176
     1
290
     0
176
     1
 90
       50
176
     1
 90
       50
176
     1
 90
       50
176
     1
290
     0
176
     1
 90
       50
176
     1
 62
   256
176
     0
 40
1.0
176
     0
 90
        2
176
     1
  1
strokes_ogs.tif
176
     1
290
     0
176
     1
 40
1.0
176
     1
 40
1.0
176
     1
1001
ACAD
1000
AcDbSavedByObjectVersion
1070
     0
  0
VISUALSTYLE
  5
8A7D
102
{ACAD_REACTORS
330
8A71
102
}
330
8A71
100
AcDbVisualStyle
  2
Brighten
 70
    12
177
     3
291
     1
 70
    58
 90
        2
176
     1
 90
        2
176
     1
 90
        0
176
     1
 90
        0
176
     1
 40
0.6
176
     1
 40
30.0
176
     1
 62
     7
420
 16777215
176
     1
 90
        1
176
     1
 90
        4
176
     1
 62
     7
176
     1
 62
   257
176
     1
 90
        1
176
     1
 90
        1
176
     1
 40
1.0
176
     1
 90
        8
176
     1
 62
     7
176
     1
 40
1.0
176
     1
 90
        1
176
     1
 90
        6
176
     1
 90
        2
176
     1
 62
     7
176
     1
 90
        5
176
     1
 90
        0
176
     1
 90
        0
176
     1
290
     0
176
     1
 90
        1
176
     1
 40
50.0
176
     1
 90
        0
176
     1
290
     0
176
     1
290
     1
176
     1
290
     1
176
     1
290
     0
176
     1
290
     0
176
     1
290
     0
176
     1
290
     0
176
     1
290
     0
176
     1
290
     0
176
     1
 90
       50
176
     1
 40
0.0
176
     1
 40
1.0
176
     1
 90
        0
176
     1
 62
    18
176
     1
 90
       50
176
     1
 90
        3
176
     1
 62
     5
420
      255
176
     1
290
     0
176
     1
 90
       50
176
     1
 90
       50
176
     1
 90
       50
176
     1
290
     0
176
     1
 90
       50
176
     1
 62
   256
176
     0
 40
1.0
176
     0
 90
        2
176
     1
  1
strokes_ogs.tif
176
     1
290
     0
176
     1
 40
1.0
176
     1
 40
1.0
176
     1
1001
ACAD
1000
AcDbSavedByObjectVersion
1070
     0
  0
VISUALSTYLE
  5
8A81
102
{ACAD_REACTORS
330
8A71
102
}
330
8A71
100
AcDbVisualStyle
  2
ColorChange
 70
    16
177
     3
291
     1
 70
    58
 90
        2
176
     1
 90
        2
176
     1
 90
        3
176
     1
 90
        0
176
     1
 40
0.6
176
     1
 40
30.0
176
     1
 62
     8
420
  8421504
176
     1
 90
        1
176
     1
 90
        4
176
     1
 62
     7
176
     1
 62
   257
176
     1
 90
        1
176
     1
 90
        1
176
     1
 40
1.0
176
     1
 90
        8
176
     1
 62
     8
420
  8421504
176
     1
 40
1.0
176
     1
 90
        1
176
     1
 90
        6
176
     1
 90
        2
176
     1
 62
     7
176
     1
 90
        5
176
     1
 90
        0
176
     1
 90
        0
176
     1
290
     0
176
     1
 90
        1
176
     1
 40
0.0
176
     1
 90
        0
176
     1
290
     0
176
     1
290
     1
176
     1
290
     1
176
     1
290
     0
176
     1
290
     0
176
     1
290
     0
176
     1
290
     0
176
     1
290
     0
176
     1
290
     0
176
     1
 90
       50
176
     1
 40
0.0
176
     1
 40
1.0
176
     1
 90
        0
176
     1
 62
    18
176
     1
 90
       50
176
     1
 90
        3
176
     1
 62
     5
420
      255
176
     1
290
     0
176
     1
 90
       50
176
     1
 90
       50
176
     1
 90
       50
176
     1
290
     0
176
     1
 90
       50
176
     1
 62
   256
176
     0
 40
1.0
176
     0
 90
        2
176
     1
  1
strokes_ogs.tif
176
     1
290
     0
176
     1
 40
1.0
176
     1
 40
1.0
176
     1
1001
ACAD
1000
AcDbSavedByObjectVersion
1070
     0
  0
VISUALSTYLE
  5
8A7A
102
{ACAD_REACTORS
330
8A71
102
}
330
8A71
100
AcDbVisualStyle
  2
Conceptual
 70
     9
177
     3
291
     0
 70
    58
 90
        3
176
     1
 90
        2
176
     1
 90
        0
176
     1
 90
        0
176
     1
 40
0.6
176
     1
 40
30.0
176
     1
 62
     7
420
 16777215
176
     1
 90
        2
176
     1
 90
        2
176
     1
 62
     7
176
     1
 62
   257
176
     1
 90
        1
176
     1
 90
        1
176
     1
 40
179.0
176
     1
 90
        8
176
     1
 62
     7
176
     1
 40
1.0
176
     1
 90
        1
176
     1
 90
        6
176
     1
 90
        2
176
     1
 62
     7
176
     1
 90
        3
176
     1
 90
        0
176
     1
 90
        0
176
     1
290
     0
176
     1
 90
        1
176
     1
 40
0.0
176
     1
 90
        0
176
     1
290
     0
176
     1
290
     1
176
     1
290
     1
176
     1
290
     0
176
     1
290
     0
176
     1
290
     0
176
     1
290
     0
176
     1
290
     0
176
     1
290
     0
176
     1
 90
       50
176
     1
 40
0.0
176
     1
 40
1.0
176
     1
 90
        0
176
     1
 62
    18
176
     1
 90
       50
176
     1
 90
        3
176
     1
 62
     5
420
      255
176
     1
290
     0
176
     1
 90
       50
176
     1
 90
       50
176
     1
 90
       50
176
     1
290
     0
176
     1
 90
       50
176
     1
 62
   256
176
     0
 40
1.0
176
     0
 90
        2
176
     1
  1
strokes_ogs.tif
176
     1
290
     0
176
     1
 40
1.0
176
     1
 40
1.0
176
     1
1001
ACAD
1000
AcDbSavedByObjectVersion
1070
     0
  0
VISUALSTYLE
  5
8A7C
102
{ACAD_REACTORS
330
8A71
102
}
330
8A71
100
AcDbVisualStyle
  2
Dim
 70
    11
177
     3
291
     1
 70
    58
 90
        2
176
     1
 90
        2
176
     1
 90
        0
176
     1
 90
        0
176
     1
 40
0.6
176
     1
 40
30.0
176
     1
 62
     7
420
 16777215
176
     1
 90
        1
176
     1
 90
        4
176
     1
 62
     7
176
     1
 62
   257
176
     1
 90
        1
176
     1
 90
        1
176
     1
 40
1.0
176
     1
 90
        8
176
     1
 62
     7
176
     1
 40
1.0
176
     1
 90
        1
176
     1
 90
        6
176
     1
 90
        2
176
     1
 62
     7
176
     1
 90
        5
176
     1
 90
        0
176
     1
 90
        0
176
     1
290
     0
176
     1
 90
        1
176
     1
 40
-50.0
176
     1
 90
        0
176
     1
290
     0
176
     1
290
     1
176
     1
290
     1
176
     1
290
     0
176
     1
290
     0
176
     1
290
     0
176
     1
290
     0
176
     1
290
     0
176
     1
290
     0
176
     1
 90
       50
176
     1
 40
0.0
176
     1
 40
1.0
176
     1
 90
        0
176
     1
 62
    18
176
     1
 90
       50
176
     1
 90
        3
176
     1
 62
     5
420
      255
176
     1
290
     0
176
     1
 90
       50
176
     1
 90
       50
176
     1
 90
       50
176
     1
290
     0
176
     1
 90
       50
176
     1
 62
   256
176
     0
 40
1.0
176
     0
 90
        2
176
     1
  1
strokes_ogs.tif
176
     1
290
     0
176
     1
 40
1.0
176
     1
 40
1.0
176
     1
1001
ACAD
1000
AcDbSavedByObjectVersion
1070
     0
  0
VISUALSTYLE
  5
8A89
102
{ACAD_REACTORS
330
8A71
102
}
330
8A71
100
AcDbVisualStyle
  2
EdgeColorOff
 70
    22
177
     3
291
     1
 70
    58
 90
        2
176
     0
 90
        2
176
     0
 90
        0
176
     0
 90
        0
176
     0
 40
0.6
176
     0
 40
30.0
176
     0
 62
     7
420
 16777215
176
     0
 90
        1
176
     0
 90
        4
176
     0
 62
     7
176
     0
 62
   257
176
     0
 90
        1
176
     0
 90
        1
176
     0
 40
1.0
176
     0
 90
        8
176
     2
 62
     7
176
     0
 40
1.0
176
     0
 90
        1
176
     0
 90
        6
176
     0
 90
        2
176
     0
 62
     7
176
     0
 90
        5
176
     0
 90
        0
176
     0
 90
        0
176
     0
290
     0
176
     0
 90
        1
176
     0
 40
0.0
176
     0
 90
        0
176
     0
290
     0
176
     1
290
     1
176
     1
290
     1
176
     1
290
     0
176
     1
290
     0
176
     1
290
     0
176
     1
290
     0
176
     1
290
     0
176
     1
290
     0
176
     1
 90
       50
176
     0
 40
0.0
176
     0
 40
1.0
176
     0
 90
        0
176
     0
 62
    18
176
     0
 90
       50
176
     0
 90
        3
176
     0
 62
     5
420
      255
176
     0
290
     0
176
     1
 90
       50
176
     0
 90
       50
176
     0
 90
       50
176
     0
290
     0
176
     1
 90
       50
176
     0
 62
   256
176
     0
 40
1.0
176
     0
 90
        2
176
     0
  1
strokes_ogs.tif
176
     0
290
     0
176
     1
 40
1.0
176
     0
 40
1.0
176
     0
1001
ACAD
1000
AcDbSavedByObjectVersion
1070
     0
  0
VISUALSTYLE
  5
8A80
102
{ACAD_REACTORS
330
8A71
102
}
330
8A71
100
AcDbVisualStyle
  2
Facepattern
 70
    15
177
     3
291
     1
 70
    58
 90
        2
176
     1
 90
        2
176
     1
 90
        0
176
     1
 90
        0
176
     1
 40
0.6
176
     1
 40
30.0
176
     1
 62
     7
420
 16777215
176
     1
 90
        1
176
     1
 90
        4
176
     1
 62
     7
176
     1
 62
   257
176
     1
 90
        1
176
     1
 90
        1
176
     1
 40
1.0
176
     1
 90
        8
176
     1
 62
     7
176
     1
 40
1.0
176
     1
 90
        1
176
     1
 90
        6
176
     1
 90
        2
176
     1
 62
     7
176
     1
 90
        5
176
     1
 90
        0
176
     1
 90
        0
176
     1
290
     0
176
     1
 90
        1
176
     1
 40
0.0
176
     1
 90
        0
176
     1
290
     0
176
     1
290
     1
176
     1
290
     1
176
     1
290
     0
176
     1
290
     0
176
     1
290
     0
176
     1
290
     0
176
     1
290
     0
176
     1
290
     0
176
     1
 90
       50
176
     1
 40
0.0
176
     1
 40
1.0
176
     1
 90
        0
176
     1
 62
    18
176
     1
 90
       50
176
     1
 90
        3
176
     1
 62
     5
420
      255
176
     1
290
     0
176
     1
 90
       50
176
     1
 90
       50
176
     1
 90
       50
176
     1
290
     0
176
     1
 90
       50
176
     1
 62
   256
176
     0
 40
1.0
176
     0
 90
        2
176
     1
  1
strokes_ogs.tif
176
     1
290
     0
176
     1
 40
1.0
176
     1
 40
1.0
176
     1
1001
ACAD
1000
AcDbSavedByObjectVersion
1070
     0
  0
VISUALSTYLE
  5
8A72
102
{ACAD_REACTORS
330
8A71
102
}
330
8A71
100
AcDbVisualStyle
  2
Flat
 70
     0
177
     3
291
     1
 70
    58
 90
        2
176
     1
 90
        1
176
     1
 90
        1
176
     1
 90
        2
176
     1
 40
0.6
176
     1
 40
30.0
176
     1
 62
     7
420
 16777215
176
     1
 90
        0
176
     1
 90
        0
176
     1
 62
     7
176
     1
 62
   257
176
     1
 90
        1
176
     1
 90
        1
176
     1
 40
1.0
176
     1
 90
        8
176
     1
 62
     7
176
     1
 40
1.0
176
     1
 90
        1
176
     1
 90
        6
176
     1
 90
        2
176
     1
 62
     7
176
     1
 90
        5
176
     1
 90
        0
176
     1
 90
        0
176
     1
290
     0
176
     1
 90
       13
176
     1
 40
0.0
176
     1
 90
        0
176
     1
290
     0
176
     1
290
     1
176
     1
290
     1
176
     1
290
     0
176
     1
290
     0
176
     1
290
     0
176
     1
290
     0
176
     1
290
     0
176
     1
290
     0
176
     1
 90
       50
176
     1
 40
0.0
176
     1
 40
1.0
176
     1
 90
        0
176
     1
 62
    18
176
     1
 90
       50
176
     1
 90
        3
176
     1
 62
     5
420
      255
176
     1
290
     0
176
     1
 90
       50
176
     1
 90
       50
176
     1
 90
       50
176
     1
290
     0
176
     1
 90
       50
176
     1
 62
   256
176
     0
 40
1.0
176
     0
 90
        2
176
     1
  1
strokes_ogs.tif
176
     1
290
     0
176
     1
 40
1.0
176
     1
 40
1.0
176
     1
1001
ACAD
1000
AcDbSavedByObjectVersion
1070
     0
  0
VISUALSTYLE
  5
8A73
102
{ACAD_REACTORS
330
8A71
102
}
330
8A71
100
AcDbVisualStyle
  2
FlatWithEdges
 70
     1
177
     3
291
     1
 70
    58
 90
        2
176
     1
 90
        1
176
     1
 90
        1
176
     1
 90
        2
176
     1
 40
0.6
176
     1
 40
30.0
176
     1
 62
     7
420
 16777215
176
     1
 90
        1
176
     1
 90
        0
176
     1
 62
     7
176
     1
 62
   257
176
     1
 90
        1
176
     1
 90
        1
176
     1
 40
1.0
176
     1
 90
        0
176
     1
 62
   257
176
     1
 40
1.0
176
     1
 90
        1
176
     1
 90
        6
176
     1
 90
        2
176
     1
 62
     7
176
     1
 90
        5
176
     1
 90
        0
176
     1
 90
        0
176
     1
290
     0
176
     1
 90
       13
176
     1
 40
0.0
176
     1
 90
        0
176
     1
290
     0
176
     1
290
     1
176
     1
290
     1
176
     1
290
     0
176
     1
290
     0
176
     1
290
     0
176
     1
290
     0
176
     1
290
     0
176
     1
290
     0
176
     1
 90
       50
176
     1
 40
0.0
176
     1
 40
1.0
176
     1
 90
        0
176
     1
 62
    18
176
     1
 90
       50
176
     1
 90
        3
176
     1
 62
     5
420
      255
176
     1
290
     0
176
     1
 90
       50
176
     1
 90
       50
176
     1
 90
       50
176
     1
290
     0
176
     1
 90
       50
176
     1
 62
   256
176
     0
 40
1.0
176
     0
 90
        2
176
     1
  1
strokes_ogs.tif
176
     1
290
     0
176
     1
 40
1.0
176
     1
 40
1.0
176
     1
1001
ACAD
1000
AcDbSavedByObjectVersion
1070
     0
  0
VISUALSTYLE
  5
8A74
102
{ACAD_REACTORS
330
8A71
102
}
330
8A71
100
AcDbVisualStyle
  2
Gouraud
 70
     2
177
     3
291
     1
 70
    58
 90
        2
176
     1
 90
        2
176
     1
 90
        1
176
     1
 90
        2
176
     1
 40
0.6
176
     1
 40
30.0
176
     1
 62
     7
420
 16777215
176
     1
 90
        0
176
     1
 90
        0
176
     1
 62
     7
176
     1
 62
   257
176
     1
 90
        1
176
     1
 90
        1
176
     1
 40
1.0
176
     1
 90
        0
176
     1
 62
     7
176
     1
 40
1.0
176
     1
 90
        1
176
     1
 90
        6
176
     1
 90
        2
176
     1
 62
     7
176
     1
 90
        5
176
     1
 90
        0
176
     1
 90
        0
176
     1
290
     0
176
     1
 90
       13
176
     1
 40
0.0
176
     1
 90
        0
176
     1
290
     0
176
     1
290
     1
176
     1
290
     1
176
     1
290
     0
176
     1
290
     0
176
     1
290
     0
176
     1
290
     0
176
     1
290
     0
176
     1
290
     0
176
     1
 90
       50
176
     1
 40
0.0
176
     1
 40
1.0
176
     1
 90
        0
176
     1
 62
    18
176
     1
 90
       50
176
     1
 90
        3
176
     1
 62
     5
420
      255
176
     1
290
     0
176
     1
 90
       50
176
     1
 90
       50
176
     1
 90
       50
176
     1
290
     0
176
     1
 90
       50
176
     1
 62
   256
176
     0
 40
1.0
176
     0
 90
        2
176
     1
  1
strokes_ogs.tif
176
     1
290
     0
176
     1
 40
1.0
176
     1
 40
1.0
176
     1
1001
ACAD
1000
AcDbSavedByObjectVersion
1070
     0
  0
VISUALSTYLE
  5
8A75
102
{ACAD_REACTORS
330
8A71
102
}
330
8A71
100
AcDbVisualStyle
  2
GouraudWithEdges
 70
     3
177
     3
291
     1
 70
    58
 90
        2
176
     1
 90
        2
176
     1
 90
        1
176
     1
 90
        2
176
     1
 40
0.6
176
     1
 40
30.0
176
     1
 62
     7
420
 16777215
176
     1
 90
        1
176
     1
 90
        0
176
     1
 62
     7
176
     1
 62
   257
176
     1
 90
        1
176
     1
 90
        1
176
     1
 40
1.0
176
     1
 90
        0
176
     1
 62
   257
176
     1
 40
1.0
176
     1
 90
        1
176
     1
 90
        6
176
     1
 90
        2
176
     1
 62
     7
176
     1
 90
        5
176
     1
 90
        0
176
     1
 90
        0
176
     1
290
     0
176
     1
 90
       13
176
     1
 40
0.0
176
     1
 90
        0
176
     1
290
     0
176
     1
290
     1
176
     1
290
     1
176
     1
290
     0
176
     1
290
     0
176
     1
290
     0
176
     1
290
     0
176
     1
290
     0
176
     1
290
     0
176
     1
 90
       50
176
     1
 40
0.0
176
     1
 40
1.0
176
     1
 90
        0
176
     1
 62
    18
176
     1
 90
       50
176
     1
 90
        3
176
     1
 62
     5
420
      255
176
     1
290
     0
176
     1
 90
       50
176
     1
 90
       50
176
     1
 90
       50
176
     1
290
     0
176
     1
 90
       50
176
     1
 62
   256
176
     0
 40
1.0
176
     0
 90
        2
176
     1
  1
strokes_ogs.tif
176
     1
290
     0
176
     1
 40
1.0
176
     1
 40
1.0
176
     1
1001
ACAD
1000
AcDbSavedByObjectVersion
1070
     0
  0
VISUALSTYLE
  5
8A79
102
{ACAD_REACTORS
330
8A71
102
}
330
8A71
100
AcDbVisualStyle
  2
Hidden
 70
     6
177
     3
291
     0
 70
    58
 90
        1
176
     1
 90
        2
176
     1
 90
        2
176
     1
 90
        0
176
     1
 40
0.6
176
     1
 40
30.0
176
     1
 62
     7
420
 16777215
176
     1
 90
        2
176
     1
 90
        2
176
     1
 62
     7
176
     1
 62
   257
176
     1
 90
        2
176
     1
 90
        1
176
     1
 40
40.0
176
     1
 90
        0
176
     1
 62
   257
176
     1
 40
1.0
176
     1
 90
        1
176
     1
 90
        6
176
     1
 90
        2
176
     1
 62
     7
176
     1
 90
        3
176
     1
 90
        0
176
     1
 90
        0
176
     1
290
     0
176
     1
 90
        1
176
     1
 40
0.0
176
     1
 90
        0
176
     1
290
     0
176
     1
290
     1
176
     1
290
     1
176
     1
290
     0
176
     1
290
     0
176
     1
290
     0
176
     1
290
     0
176
     1
290
     0
176
     1
290
     0
176
     1
 90
       50
176
     1
 40
0.0
176
     1
 40
1.0
176
     1
 90
        0
176
     1
 62
    18
176
     1
 90
       50
176
     1
 90
        3
176
     1
 62
     5
420
      255
176
     1
290
     0
176
     1
 90
       50
176
     1
 90
       50
176
     1
 90
       50
176
     1
290
     0
176
     1
 90
       50
176
     1
 62
   256
176
     0
 40
1.0
176
     0
 90
        2
176
     1
  1
strokes_ogs.tif
176
     1
290
     0
176
     1
 40
1.0
176
     1
 40
1.0
176
     1
1001
ACAD
1000
AcDbSavedByObjectVersion
1070
     0
  0
VISUALSTYLE
  5
8A87
102
{ACAD_REACTORS
330
8A71
102
}
330
8A71
100
AcDbVisualStyle
  2
JitterOff
 70
    20
177
     3
291
     1
 70
    58
 90
        2
176
     0
 90
        2
176
     0
 90
        0
176
     0
 90
        0
176
     0
 40
0.6
176
     0
 40
30.0
176
     0
 62
     7
420
 16777215
176
     0
 90
        1
176
     0
 90
        4
176
     0
 62
     7
176
     0
 62
   257
176
     0
 90
        1
176
     0
 90
        1
176
     0
 40
1.0
176
     0
 90
       10
176
     2
 62
     7
176
     0
 40
1.0
176
     0
 90
        1
176
     0
 90
        6
176
     0
 90
        2
176
     0
 62
     7
176
     0
 90
        5
176
     0
 90
        0
176
     0
 90
        0
176
     0
290
     0
176
     0
 90
        1
176
     0
 40
0.0
176
     0
 90
        0
176
     0
290
     0
176
     1
290
     1
176
     1
290
     1
176
     1
290
     0
176
     1
290
     0
176
     1
290
     0
176
     1
290
     0
176
     1
290
     0
176
     1
290
     0
176
     1
 90
       50
176
     0
 40
0.0
176
     0
 40
1.0
176
     0
 90
        0
176
     0
 62
    18
176
     0
 90
       50
176
     0
 90
        3
176
     0
 62
     5
420
      255
176
     0
290
     0
176
     1
 90
       50
176
     0
 90
       50
176
     0
 90
       50
176
     0
290
     0
176
     1
 90
       50
176
     0
 62
   256
176
     0
 40
1.0
176
     0
 90
        2
176
     0
  1
strokes_ogs.tif
176
     0
290
     0
176
     1
 40
1.0
176
     0
 40
1.0
176
     0
1001
ACAD
1000
AcDbSavedByObjectVersion
1070
     0
  0
VISUALSTYLE
  5
8A7F
102
{ACAD_REACTORS
330
8A71
102
}
330
8A71
100
AcDbVisualStyle
  2
Linepattern
 70
    14
177
     3
291
     1
 70
    58
 90
        2
176
     1
 90
        2
176
     1
 90
        0
176
     1
 90
        0
176
     1
 40
0.6
176
     1
 40
30.0
176
     1
 62
     7
420
 16777215
176
     1
 90
        1
176
     1
 90
        4
176
     1
 62
     7
176
     1
 62
   257
176
     1
 90
        7
176
     1
 90
        7
176
     1
 40
1.0
176
     1
 90
        8
176
     1
 62
     7
176
     1
 40
1.0
176
     1
 90
        1
176
     1
 90
        6
176
     1
 90
        2
176
     1
 62
     7
176
     1
 90
        5
176
     1
 90
        0
176
     1
 90
        0
176
     1
290
     0
176
     1
 90
        1
176
     1
 40
0.0
176
     1
 90
        0
176
     1
290
     0
176
     1
290
     1
176
     1
290
     1
176
     1
290
     0
176
     1
290
     0
176
     1
290
     0
176
     1
290
     0
176
     1
290
     0
176
     1
290
     0
176
     1
 90
       50
176
     1
 40
0.0
176
     1
 40
1.0
176
     1
 90
        0
176
     1
 62
    18
176
     1
 90
       50
176
     1
 90
        3
176
     1
 62
     5
420
      255
176
     1
290
     0
176
     1
 90
       50
176
     1
 90
       50
176
     1
 90
       50
176
     1
290
     0
176
     1
 90
       50
176
     1
 62
   256
176
     0
 40
1.0
176
     0
 90
        2
176
     1
  1
strokes_ogs.tif
176
     1
290
     0
176
     1
 40
1.0
176
     1
 40
1.0
176
     1
1001
ACAD
1000
AcDbSavedByObjectVersion
1070
     0
  0
VISUALSTYLE
  5
8A88
102
{ACAD_REACTORS
330
8A71
102
}
330
8A71
100
AcDbVisualStyle
  2
OverhangOff
 70
    21
177
     3
291
     1
 70
    58
 90
        2
176
     0
 90
        2
176
     0
 90
        0
176
     0
 90
        0
176
     0
 40
0.6
176
     0
 40
30.0
176
     0
 62
     7
420
 16777215
176
     0
 90
        1
176
     0
 90
        4
176
     0
 62
     7
176
     0
 62
   257
176
     0
 90
        1
176
     0
 90
        1
176
     0
 40
1.0
176
     0
 90
        9
176
     2
 62
     7
176
     0
 40
1.0
176
     0
 90
        1
176
     0
 90
        6
176
     0
 90
        2
176
     0
 62
     7
176
     0
 90
        5
176
     0
 90
        0
176
     0
 90
        0
176
     0
290
     0
176
     0
 90
        1
176
     0
 40
0.0
176
     0
 90
        0
176
     0
290
     0
176
     1
290
     1
176
     1
290
     1
176
     1
290
     0
176
     1
290
     0
176
     1
290
     0
176
     1
290
     0
176
     1
290
     0
176
     1
290
     0
176
     1
 90
       50
176
     0
 40
0.0
176
     0
 40
1.0
176
     0
 90
        0
176
     0
 62
    18
176
     0
 90
       50
176
     0
 90
        3
176
     0
 62
     5
420
      255
176
     0
290
     0
176
     1
 90
       50
176
     0
 90
       50
176
     0
 90
       50
176
     0
290
     0
176
     1
 90
       50
176
     0
 62
   256
176
     0
 40
1.0
176
     0
 90
        2
176
     0
  1
strokes_ogs.tif
176
     0
290
     0
176
     1
 40
1.0
176
     0
 40
1.0
176
     0
1001
ACAD
1000
AcDbSavedByObjectVersion
1070
     0
  0
VISUALSTYLE
  5
8A7B
102
{ACAD_REACTORS
330
8A71
102
}
330
8A71
100
AcDbVisualStyle
  2
Realistic
 70
     8
177
     3
291
     0
 70
    58
 90
        2
176
     1
 90
        3
176
     1
 90
        0
176
     1
 90
        2
176
     1
 40
0.6
176
     1
 40
30.0
176
     1
 62
     7
420
 16777215
176
     1
 90
        0
176
     1
 90
        0
176
     1
 62
     7
176
     1
 62
   257
176
     1
 90
        1
176
     1
 90
        1
176
     1
 40
1.0
176
     1
 90
        8
176
     1
 62
   257
176
     1
 40
1.0
176
     1
 90
        1
176
     1
 90
        6
176
     1
 90
        2
176
     1
 62
     7
176
     1
 90
        3
176
     1
 90
        0
176
     1
 90
        0
176
     1
290
     0
176
     1
 90
       13
176
     1
 40
0.0
176
     1
 90
        0
176
     1
290
     0
176
     1
290
     1
176
     1
290
     1
176
     1
290
     0
176
     1
290
     0
176
     1
290
     0
176
     1
290
     0
176
     1
290
     0
176
     1
290
     0
176
     1
 90
       50
176
     1
 40
0.0
176
     1
 40
1.0
176
     1
 90
        0
176
     1
 62
    18
176
     1
 90
       50
176
     1
 90
        3
176
     1
 62
     5
420
      255
176
     1
290
     0
176
     1
 90
       50
176
     1
 90
       50
176
     1
 90
       50
176
     1
290
     0
176
     1
 90
       50
176
     1
 62
   256
176
     0
 40
1.0
176
     0
 90
        2
176
     1
  1
strokes_ogs.tif
176
     1
290
     0
176
     1
 40
1.0
176
     1
 40
1.0
176
     1
1001
ACAD
1000
AcDbSavedByObjectVersion
1070
     0
  0
VISUALSTYLE
  5
8A86
102
{ACAD_REACTORS
330
8A71
102
}
330
8A71
100
AcDbVisualStyle
  2
Shaded
 70
    27
177
     3
291
     0
 70
    58
 90
        2
176
     1
 90
        2
176
     1
 90
        1
176
     1
 90
        2
176
     1
 40
0.6
176
     1
 40
30.0
176
     1
 62
     7
420
 16777215
176
     1
 90
        0
176
     1
 90
        4
176
     1
 62
     7
176
     1
 62
   257
176
     1
 90
        1
176
     1
 90
        1
176
     1
 40
1.0
176
     1
 90
        8
176
     1
 62
   257
176
     1
 40
1.0
176
     1
 90
        1
176
     1
 90
        6
176
     1
 90
        2
176
     1
 62
     8
420
  7895160
176
     1
 90
        3
176
     1
 90
        0
176
     1
 90
        0
176
     1
290
     0
176
     1
 90
        5
176
     1
 40
0.0
176
     1
 90
        0
176
     1
290
     0
176
     1
290
     1
176
     1
290
     1
176
     1
290
     0
176
     1
290
     0
176
     1
290
     0
176
     1
290
     0
176
     1
290
     0
176
     1
290
     0
176
     1
 90
       50
176
     1
 40
0.0
176
     1
 40
1.0
176
     1
 90
        0
176
     1
 62
    18
176
     1
 90
       50
176
     1
 90
        3
176
     1
 62
     5
420
      255
176
     1
290
     0
176
     1
 90
       50
176
     1
 90
       50
176
     1
 90
       50
176
     1
290
     0
176
     1
 90
       50
176
     1
 62
   256
176
     0
 40
1.0
176
     0
 90
        2
176
     1
  1
strokes_ogs.tif
176
     1
290
     0
176
     1
 40
1.0
176
     1
 40
1.0
176
     1
1001
ACAD
1000
AcDbSavedByObjectVersion
1070
     0
  0
VISUALSTYLE
  5
8A85
102
{ACAD_REACTORS
330
8A71
102
}
330
8A71
100
AcDbVisualStyle
  2
Shaded with edges
 70
    26
177
     3
291
     0
 70
    58
 90
        2
176
     1
 90
        2
176
     1
 90
        1
176
     1
 90
        2
176
     1
 40
0.6
176
     1
 40
30.0
176
     1
 62
     7
420
 16777215
176
     1
 90
        1
176
     1
 90
       10
176
     1
 62
     7
176
     1
 62
   257
176
     1
 90
        2
176
     1
 90
        1
176
     1
 40
1.0
176
     1
 90
        8
176
     1
 62
   257
176
     1
 40
1.0
176
     1
 90
        1
176
     1
 90
        6
176
     1
 90
        2
176
     1
 62
     7
176
     1
 90
        3
176
     1
 90
        0
176
     1
 90
        0
176
     1
290
     0
176
     1
 90
        5
176
     1
 40
0.0
176
     1
 90
        0
176
     1
290
     0
176
     1
290
     1
176
     1
290
     1
176
     1
290
     0
176
     1
290
     0
176
     1
290
     0
176
     1
290
     0
176
     1
290
     0
176
     1
290
     0
176
     1
 90
       50
176
     1
 40
0.0
176
     1
 40
1.0
176
     1
 90
        0
176
     1
 62
    18
176
     1
 90
       50
176
     1
 90
        3
176
     1
 62
     5
420
      255
176
     1
290
     0
176
     1
 90
       50
176
     1
 90
       50
176
     1
 90
       50
176
     1
290
     0
176
     1
 90
       50
176
     1
 62
   256
176
     0
 40
1.0
176
     0
 90
        2
176
     1
  1
strokes_ogs.tif
176
     1
290
     0
176
     1
 40
1.0
176
     1
 40
1.0
176
     1
1001
ACAD
1000
AcDbSavedByObjectVersion
1070
     0
  0
VISUALSTYLE
  5
8A82
102
{ACAD_REACTORS
330
8A71
102
}
330
8A71
100
AcDbVisualStyle
  2
Shades of Gray
 70
    23
177
     3
291
     0
 70
    58
 90
        2
176
     1
 90
        2
176
     1
 90
        3
176
     1
 90
        0
176
     1
 40
0.6
176
     1
 40
30.0
176
     1
 62
     7
420
 16777215
176
     1
 90
        2
176
     1
 90
        2
176
     1
 62
     7
176
     1
 62
     7
176
     1
 90
        1
176
     1
 90
        1
176
     1
 40
40.0
176
     1
 90
        8
176
     1
 62
     7
176
     1
 40
1.0
176
     1
 90
        1
176
     1
 90
        6
176
     1
 90
        2
176
     1
 62
     7
176
     1
 90
        3
176
     1
 90
        0
176
     1
 90
        0
176
     1
290
     0
176
     1
 90
        1
176
     1
 40
0.0
176
     1
 90
        0
176
     1
290
     0
176
     1
290
     1
176
     1
290
     1
176
     1
290
     0
176
     1
290
     0
176
     1
290
     0
176
     1
290
     0
176
     1
290
     0
176
     1
290
     0
176
     1
 90
       50
176
     1
 40
0.0
176
     1
 40
1.0
176
     1
 90
        0
176
     1
 62
    18
176
     1
 90
       50
176
     1
 90
        3
176
     1
 62
     5
420
      255
176
     1
290
     0
176
     1
 90
       50
176
     1
 90
       50
176
     1
 90
       50
176
     1
290
     0
176
     1
 90
       50
176
     1
 62
   256
176
     0
 40
1.0
176
     0
 90
        2
176
     1
  1
strokes_ogs.tif
176
     1
290
     0
176
     1
 40
1.0
176
     1
 40
1.0
176
     1
1001
ACAD
1000
AcDbSavedByObjectVersion
1070
     0
  0
VISUALSTYLE
  5
8A83
102
{ACAD_REACTORS
330
8A71
102
}
330
8A71
100
AcDbVisualStyle
  2
Sketchy
 70
    24
177
     3
291
     0
 70
    58
 90
        1
176
     1
 90
        2
176
     1
 90
        2
176
     1
 90
        0
176
     1
 40
0.6
176
     1
 40
30.0
176
     1
 62
     7
420
 16777215
176
     1
 90
        2
176
     1
 90
        2
176
     1
 62
     7
176
     1
 62
     7
176
     1
 90
        1
176
     1
 90
        1
176
     1
 40
40.0
176
     1
 90
       11
176
     1
 62
     7
176
     1
 40
1.0
176
     1
 90
        1
176
     1
 90
        6
176
     1
 90
        2
176
     1
 62
     7
176
     1
 90
        6
176
     1
 90
        0
176
     1
 90
        0
176
     1
290
     0
176
     1
 90
        1
176
     1
 40
0.0
176
     1
 90
        0
176
     1
290
     0
176
     1
290
     1
176
     1
290
     1
176
     1
290
     0
176
     1
290
     0
176
     1
290
     0
176
     1
290
     0
176
     1
290
     0
176
     1
290
     0
176
     1
 90
       50
176
     1
 40
0.0
176
     1
 40
1.0
176
     1
 90
        0
176
     1
 62
    18
176
     1
 90
       50
176
     1
 90
        3
176
     1
 62
     5
420
      255
176
     1
290
     0
176
     1
 90
       50
176
     1
 90
       50
176
     1
 90
       50
176
     1
290
     0
176
     1
 90
       50
176
     1
 62
   256
176
     0
 40
1.0
176
     0
 90
        2
176
     1
  1
strokes_ogs.tif
176
     1
290
     0
176
     1
 40
1.0
176
     1
 40
1.0
176
     1
1001
ACAD
1000
AcDbSavedByObjectVersion
1070
     0
  0
VISUALSTYLE
  5
8A7E
102
{ACAD_REACTORS
330
8A71
102
}
330
8A71
100
AcDbVisualStyle
  2
Thicken
 70
    13
177
     3
291
     1
 70
    58
 90
        2
176
     1
 90
        2
176
     1
 90
        0
176
     1
 90
        0
176
     1
 40
0.6
176
     1
 40
30.0
176
     1
 62
     7
420
 16777215
176
     1
 90
        1
176
     1
 90
        4
176
     1
 62
     7
176
     1
 62
   257
176
     1
 90
        1
176
     1
 90
        1
176
     1
 40
1.0
176
     1
 90
       12
176
     1
 62
     7
176
     1
 40
1.0
176
     1
 90
        1
176
     1
 90
        6
176
     1
 90
        2
176
     1
 62
     7
176
     1
 90
        5
176
     1
 90
        0
176
     1
 90
        0
176
     1
290
     0
176
     1
 90
        1
176
     1
 40
0.0
176
     1
 90
        0
176
     1
290
     0
176
     1
290
     1
176
     1
290
     1
176
     1
290
     0
176
     1
290
     0
176
     1
290
     0
176
     1
290
     0
176
     1
290
     0
176
     1
290
     0
176
     1
 90
       50
176
     1
 40
0.0
176
     1
 40
1.0
176
     1
 90
        0
176
     1
 62
    18
176
     1
 90
       50
176
     1
 90
        3
176
     1
 62
     5
420
      255
176
     1
290
     0
176
     1
 90
       50
176
     1
 90
       50
176
     1
 90
       50
176
     1
290
     0
176
     1
 90
       50
176
     1
 62
   256
176
     0
 40
1.0
176
     0
 90
        2
176
     1
  1
strokes_ogs.tif
176
     1
290
     0
176
     1
 40
1.0
176
     1
 40
1.0
176
     1
1001
ACAD
1000
AcDbSavedByObjectVersion
1070
     0
  0
VISUALSTYLE
  5
8A78
102
{ACAD_REACTORS
330
8A71
102
}
330
8A71
100
AcDbVisualStyle
  2
Wireframe
 70
     5
177
     3
291
     0
 70
    58
 90
        0
176
     1
 90
        2
176
     1
 90
        0
176
     1
 90
        0
176
     1
 40
0.6
176
     1
 40
30.0
176
     1
 62
     7
420
 16777215
176
     1
 90
        1
176
     1
 90
        4
176
     1
 62
     7
176
     1
 62
   257
176
     1
 90
        1
176
     1
 90
        1
176
     1
 40
1.0
176
     1
 90
        0
176
     1
 62
   257
176
     1
 40
1.0
176
     1
 90
        1
176
     1
 90
        6
176
     1
 90
        2
176
     1
 62
     7
176
     1
 90
        3
176
     1
 90
        0
176
     1
 90
        0
176
     1
290
     0
176
     1
 90
        1
176
     1
 40
0.0
176
     1
 90
        0
176
     1
290
     0
176
     1
290
     1
176
     1
290
     1
176
     1
290
     0
176
     1
290
     0
176
     1
290
     0
176
     1
290
     0
176
     1
290
     0
176
     1
290
     0
176
     1
 90
       50
176
     1
 40
0.0
176
     1
 40
1.0
176
     1
 90
        0
176
     1
 62
    18
176
     1
 90
       50
176
     1
 90
        3
176
     1
 62
     5
420
      255
176
     1
290
     0
176
     1
 90
       50
176
     1
 90
       50
176
     1
 90
       50
176
     1
290
     0
176
     1
 90
       50
176
     1
 62
   256
176
     0
 40
1.0
176
     0
 90
        2
176
     1
  1
strokes_ogs.tif
176
     1
290
     0
176
     1
 40
1.0
176
     1
 40
1.0
176
     1
1001
ACAD
1000
AcDbSavedByObjectVersion
1070
     0
  0
VISUALSTYLE
  5
8A84
102
{ACAD_REACTORS
330
8A71
102
}
330
8A71
100
AcDbVisualStyle
  2
X-Ray
 70
    25
177
     3
291
     0
 70
    58
 90
        2
176
     1
 90
        2
176
     1
 90
        1
176
     1
 90
        1
176
     1
 40
0.5
176
     1
 40
30.0
176
     1
 62
     7
420
 16777215
176
     1
 90
        1
176
     1
 90
        0
176
     1
 62
     7
176
     1
 62
   257
176
     1
 90
        1
176
     1
 90
        1
176
     1
 40
1.0
176
     1
 90
        8
176
     1
 62
     7
176
     1
 40
1.0
176
     1
 90
        1
176
     1
 90
        6
176
     1
 90
        2
176
     1
 62
     7
176
     1
 90
        3
176
     1
 90
        0
176
     1
 90
        0
176
     1
290
     0
176
     1
 90
       13
176
     1
 40
0.0
176
     1
 90
        0
176
     1
290
     0
176
     1
290
     1
176
     1
290
     1
176
     1
290
     0
176
     1
290
     0
176
     1
290
     0
176
     1
290
     0
176
     1
290
     0
176
     1
290
     0
176
     1
 90
       50
176
     1
 40
0.0
176
     1
 40
1.0
176
     1
 90
        0
176
     1
 62
    18
176
     1
 90
       50
176
     1
 90
        3
176
     1
 62
     5
420
      255
176
     1
290
     0
176
     1
 90
       50
176
     1
 90
       50
176
     1
 90
       50
176
     1
290
     0
176
     1
 90
       50
176
     1
 62
   256
176
     0
 40
1.0
176
     0
 90
        2
176
     1
  1
strokes_ogs.tif
176
     1
290
     0
176
     1
 40
1.0
176
     1
 40
1.0
176
     1
1001
ACAD
1000
AcDbSavedByObjectVersion
1070
     0
  0
DICTIONARYVAR
  5
8AE9
102
{ACAD_REACTORS
330
5697
102
}
330
5697
100
DictionaryVariables
280
     0
  1
1:1
  0
DICTIONARYVAR
  5
8AE5
102
{ACAD_REACTORS
330
5697
102
}
330
5697
100
DictionaryVariables
280
     0
  1
STANDARD
  0
DICTIONARYVAR
  5
8AE4
102
{ACAD_REACTORS
330
5697
102
}
330
5697
100
DictionaryVariables
280
     0
  1
STANDARD
  0
DICTIONARYVAR
  5
8AE6
102
{ACAD_REACTORS
330
5697
102
}
330
5697
100
DictionaryVariables
280
     0
  1
Imperial24
  0
DICTIONARYVAR
  5
8AE7
102
{ACAD_REACTORS
330
5697
102
}
330
5697
100
DictionaryVariables
280
     0
  1
Imperial24
  0
DICTIONARYVAR
  5
5698
102
{ACAD_REACTORS
330
5697
102
}
330
5697
100
DictionaryVariables
280
     0
  1
1
  0
DICTIONARYVAR
  5
8AEB
102
{ACAD_REACTORS
330
5697
102
}
330
5697
100
DictionaryVariables
280
     0
  1
1
  0
DICTIONARYVAR
  5
8AEC
102
{ACAD_REACTORS
330
5697
102
}
330
5697
100
DictionaryVariables
280
     0
  1
15
  0
DICTIONARYVAR
  5
8AEA
102
{ACAD_REACTORS
330
5697
102
}
330
5697
100
DictionaryVariables
280
     0
  1
0
  0
DICTIONARYVAR
  5
8AE8
102
{ACAD_REACTORS
330
5697
102
}
330
5697
100
DictionaryVariables
280
     0
  1
0
  0
DICTIONARY
  5
1C2CB
330
8AA4
100
AcDbDictionary
280
     1
281
     1
  3
ACAD_XREC_ROUNDTRIP
360
1C344
  0
DICTIONARY
  5
F3D2
330
8A4C
100
AcDbDictionary
280
     1
281
     1
  0
DICTIONARY
  5
8A62
330
8A61
100
AcDbDictionary
280
     1
281
     1
  3
BUMPTILE
360
8A64
  3
DIFFUSETILE
360
8A63
  3
OPACITYTILE
360
8A67
  3
REFLECTIONTILE
360
8A66
  3
REFRACTIONTILE
360
8A68
  3
SPECULARTILE
360
8A65
  0
DICTIONARY
  5
8A5A
330
8A59
100
AcDbDictionary
280
     1
281
     1
  3
BUMPTILE
360
8A5C
  3
DIFFUSETILE
360
8A5B
  3
OPACITYTILE
360
8A5F
  3
REFLECTIONTILE
360
8A5E
  3
REFRACTIONTILE
360
8A60
  3
SPECULARTILE
360
8A5D
  0
DICTIONARY
  5
8A6A
330
8A69
100
AcDbDictionary
280
     1
281
     1
  3
BUMPTILE
360
8A6C
  3
DIFFUSETILE
360
8A6B
  3
OPACITYTILE
360
8A6F
  3
REFLECTIONTILE
360
8A6E
  3
REFRACTIONTILE
360
8A70
  3
SPECULARTILE
360
8A6D
  0
DICTIONARY
  5
1C2C9
330
8AA2
100
AcDbDictionary
280
     1
281
     1
  3
ACAD_XREC_ROUNDTRIP
360
1C343
  0
DICTIONARY
  5
8AED
330
8A8C
100
AcDbDictionary
280
     1
281
     1
  3
ACAD_ROUNDTRIP_2008_TABLESTYLE_CELLSTYLEMAP
360
1C342
  0
XRECORD
  5
1C344
102
{ACAD_REACTORS
330
1C2CB
102
}
330
1C2CB
100
AcDbXrecord
280
     1
102
DISPLAYNAME
  1
Imperial24
102
FLAGS
 90
        0
  0
XRECORD
  5
8A64
102
{ACAD_REACTORS
330
8A62
102
}
330
8A62
100
AcDbXrecord
280
     1
270
     1
271
     1
  0
XRECORD
  5
8A63
102
{ACAD_REACTORS
330
8A62
102
}
330
8A62
100
AcDbXrecord
280
     1
270
     1
271
     1
  0
XRECORD
  5
8A67
102
{ACAD_REACTORS
330
8A62
102
}
330
8A62
100
AcDbXrecord
280
     1
270
     1
271
     1
  0
XRECORD
  5
8A66
102
{ACAD_REACTORS
330
8A62
102
}
330
8A62
100
AcDbXrecord
280
     1
270
     1
271
     1
  0
XRECORD
  5
8A68
102
{ACAD_REACTORS
330
8A62
102
}
330
8A62
100
AcDbXrecord
280
     1
270
     1
271
     1
  0
XRECORD
  5
8A65
102
{ACAD_REACTORS
330
8A62
102
}
330
8A62
100
AcDbXrecord
280
     1
270
     1
271
     1
  0
XRECORD
  5
8A5C
102
{ACAD_REACTORS
330
8A5A
102
}
330
8A5A
100
AcDbXrecord
280
     1
270
     1
271
     1
  0
XRECORD
  5
8A5B
102
{ACAD_REACTORS
330
8A5A
102
}
330
8A5A
100
AcDbXrecord
280
     1
270
     1
271
     1
  0
XRECORD
  5
8A5F
102
{ACAD_REACTORS
330
8A5A
102
}
330
8A5A
100
AcDbXrecord
280
     1
270
     1
271
     1
  0
XRECORD
  5
8A5E
102
{ACAD_REACTORS
330
8A5A
102
}
330
8A5A
100
AcDbXrecord
280
     1
270
     1
271
     1
  0
XRECORD
  5
8A60
102
{ACAD_REACTORS
330
8A5A
102
}
330
8A5A
100
AcDbXrecord
280
     1
270
     1
271
     1
  0
XRECORD
  5
8A5D
102
{ACAD_REACTORS
330
8A5A
102
}
330
8A5A
100
AcDbXrecord
280
     1
270
     1
271
     1
  0
XRECORD
  5
8A6C
102
{ACAD_REACTORS
330
8A6A
102
}
330
8A6A
100
AcDbXrecord
280
     1
270
     1
271
     1
  0
XRECORD
  5
8A6B
102
{ACAD_REACTORS
330
8A6A
102
}
330
8A6A
100
AcDbXrecord
280
     1
270
     1
271
     1
  0
XRECORD
  5
8A6F
102
{ACAD_REACTORS
330
8A6A
102
}
330
8A6A
100
AcDbXrecord
280
     1
270
     1
271
     1
  0
XRECORD
  5
8A6E
102
{ACAD_REACTORS
330
8A6A
102
}
330
8A6A
100
AcDbXrecord
280
     1
270
     1
271
     1
  0
XRECORD
  5
8A70
102
{ACAD_REACTORS
330
8A6A
102
}
330
8A6A
100
AcDbXrecord
280
     1
270
     1
271
     1
  0
XRECORD
  5
8A6D
102
{ACAD_REACTORS
330
8A6A
102
}
330
8A6A
100
AcDbXrecord
280
     1
270
     1
271
     1
  0
XRECORD
  5
1C343
102
{ACAD_REACTORS
330
1C2C9
102
}
330
1C2C9
100
AcDbXrecord
280
     1
102
DISPLAYNAME
  1
Imperial24
102
FLAGS
 90
        0
  0
CELLSTYLEMAP
  5
1C342
102
{ACAD_REACTORS
330
8AED
102
}
330
8AED
100
AcDbCellStyleMap
 90
        3
300
CELLSTYLE
  1
TABLEFORMAT_BEGIN
 90
        5
170
     1
 91
        0
 92
    32768
 62
   257
 93
        1
300
CONTENTFORMAT
  1
CONTENTFORMAT_BEGIN
 90
        0
 91
        0
 92
      512
 93
        0
300

 40
0.0
140
1.0
 94
        5
 62
     0
340
11
144
0.25
309
CONTENTFORMAT_END
171
     1
301
MARGIN
  1
CELLMARGIN_BEGIN
 40
0.06
 40
0.06
 40
0.06
 40
0.06
 40
0.18
 40
0.18
309
CELLMARGIN_END
 94
        6
 95
        1
302
GRIDFORMAT
  1
GRIDFORMAT_BEGIN
 90
        0
 91
        1
 62
     0
 92
       -2
340
0
 93
        0
 40
0.045
309
GRIDFORMAT_END
 95
        2
302
GRIDFORMAT
  1
GRIDFORMAT_BEGIN
 90
        0
 91
        1
 62
     0
 92
       -2
340
0
 93
        0
 40
0.045
309
GRIDFORMAT_END
 95
        4
302
GRIDFORMAT
  1
GRIDFORMAT_BEGIN
 90
        0
 91
        1
 62
     0
 92
       -2
340
0
 93
        0
 40
0.045
309
GRIDFORMAT_END
 95
        8
302
GRIDFORMAT
  1
GRIDFORMAT_BEGIN
 90
        0
 91
        1
 62
     0
 92
       -2
340
0
 93
        0
 40
0.045
309
GRIDFORMAT_END
 95
       16
302
GRIDFORMAT
  1
GRIDFORMAT_BEGIN
 90
        0
 91
        1
 62
     0
 92
       -2
340
0
 93
        0
 40
0.045
309
GRIDFORMAT_END
 95
       32
302
GRIDFORMAT
  1
GRIDFORMAT_BEGIN
 90
        0
 91
        1
 62
     0
 92
       -2
340
0
 93
        0
 40
0.045
309
GRIDFORMAT_END
309
TABLEFORMAT_END
  1
CELLSTYLE_BEGIN
 90
        1
 91
        1
300
_TITLE
309
CELLSTYLE_END
300
CELLSTYLE
  1
TABLEFORMAT_BEGIN
 90
        5
170
     1
 91
        0
 92
        0
 62
   257
 93
        1
300
CONTENTFORMAT
  1
CONTENTFORMAT_BEGIN
 90
        0
 91
        0
 92
      512
 93
        0
300

 40
0.0
140
1.0
 94
        5
 62
     0
340
11
144
0.18
309
CONTENTFORMAT_END
171
     1
301
MARGIN
  1
CELLMARGIN_BEGIN
 40
0.06
 40
0.06
 40
0.06
 40
0.06
 40
0.18
 40
0.18
309
CELLMARGIN_END
 94
        6
 95
        1
302
GRIDFORMAT
  1
GRIDFORMAT_BEGIN
 90
        0
 91
        1
 62
     0
 92
       -2
340
0
 93
        0
 40
0.045
309
GRIDFORMAT_END
 95
        2
302
GRIDFORMAT
  1
GRIDFORMAT_BEGIN
 90
        0
 91
        1
 62
     0
 92
       -2
340
0
 93
        0
 40
0.045
309
GRIDFORMAT_END
 95
        4
302
GRIDFORMAT
  1
GRIDFORMAT_BEGIN
 90
        0
 91
        1
 62
     0
 92
       -2
340
0
 93
        0
 40
0.045
309
GRIDFORMAT_END
 95
        8
302
GRIDFORMAT
  1
GRIDFORMAT_BEGIN
 90
        0
 91
        1
 62
     0
 92
       -2
340
0
 93
        0
 40
0.045
309
GRIDFORMAT_END
 95
       16
302
GRIDFORMAT
  1
GRIDFORMAT_BEGIN
 90
        0
 91
        1
 62
     0
 92
       -2
340
0
 93
        0
 40
0.045
309
GRIDFORMAT_END
 95
       32
302
GRIDFORMAT
  1
GRIDFORMAT_BEGIN
 90
        0
 91
        1
 62
     0
 92
       -2
340
0
 93
        0
 40
0.045
309
GRIDFORMAT_END
309
TABLEFORMAT_END
  1
CELLSTYLE_BEGIN
 90
        2
 91
        1
300
_HEADER
309
CELLSTYLE_END
300
CELLSTYLE
  1
TABLEFORMAT_BEGIN
 90
        5
170
     1
 91
        0
 92
        0
 62
   257
 93
        1
300
CONTENTFORMAT
  1
CONTENTFORMAT_BEGIN
 90
        0
 91
        0
 92
      512
 93
        0
300

 40
0.0
140
1.0
 94
        2
 62
     0
340
11
144
0.18
309
CONTENTFORMAT_END
171
     1
301
MARGIN
  1
CELLMARGIN_BEGIN
 40
0.06
 40
0.06
 40
0.06
 40
0.06
 40
0.18
 40
0.18
309
CELLMARGIN_END
 94
        6
 95
        1
302
GRIDFORMAT
  1
GRIDFORMAT_BEGIN
 90
        0
 91
        1
 62
     0
 92
       -2
340
0
 93
        0
 40
0.045
309
GRIDFORMAT_END
 95
        2
302
GRIDFORMAT
  1
GRIDFORMAT_BEGIN
 90
        0
 91
        1
 62
     0
 92
       -2
340
0
 93
        0
 40
0.045
309
GRIDFORMAT_END
 95
        4
302
GRIDFORMAT
  1
GRIDFORMAT_BEGIN
 90
        0
 91
        1
 62
     0
 92
       -2
340
0
 93
        0
 40
0.045
309
GRIDFORMAT_END
 95
        8
302
GRIDFORMAT
  1
GRIDFORMAT_BEGIN
 90
        0
 91
        1
 62
     0
 92
       -2
340
0
 93
        0
 40
0.045
309
GRIDFORMAT_END
 95
       16
302
GRIDFORMAT
  1
GRIDFORMAT_BEGIN
 90
        0
 91
        1
 62
     0
 92
       -2
340
0
 93
        0
 40
0.045
309
GRIDFORMAT_END
 95
       32
302
GRIDFORMAT
  1
GRIDFORMAT_BEGIN
 90
        0
 91
        1
 62
     0
 92
       -2
340
0
 93
        0
 40
0.045
309
GRIDFORMAT_END
309
TABLEFORMAT_END
  1
CELLSTYLE_BEGIN
 90
        3
 91
        2
300
_DATA
309
CELLSTYLE_END
  0
ENDSEC
  0
SECTION
  2
ACDSDATA
 70
     2
 71
     6
  0
ACDSSCHEMA
 90
        0
  1
AcDb_Thumbnail_Schema
  2
AcDbDs::ID
280
    10
 91
        8
  2
Thumbnail_Data
280
    15
 91
        0
101
ACDSRECORD
 95
        0
 90
        1
  2
AcDbDs::TreatedAsObjectData
280
     1
291
     1
101
ACDSRECORD
 95
        0
 90
        2
  2
AcDbDs::Legacy
280
     1
291
     1
101
ACDSRECORD
  1
AcDbDs::ID
 90
        3
  2
AcDs:Indexable
280
     1
291
     1
101
ACDSRECORD
  1
AcDbDs::ID
 90
        4
  2
AcDbDs::HandleAttribute
280
     7
282
     1
  0
ACDSSCHEMA
 90
        1
  1
AcDbDs::TreatedAsObjectDataSchema
  2
AcDbDs::TreatedAsObjectData
280
     1
 91
        0
  0
ACDSSCHEMA
 90
        2
  1
AcDbDs::LegacySchema
  2
AcDbDs::Legacy
280
     1
 91
        0
  0
ACDSSCHEMA
 90
        3
  1
AcDbDs::IndexedPropertySchema
  2
AcDs:Indexable
280
     1
 91
        0
  0
ACDSSCHEMA
 90
        4
  1
AcDbDs::HandleAttributeSchema
  2
AcDbDs::HandleAttribute
280
     7
 91
        1
284
     1
  0
ACDSRECORD
 90
        0
  2
AcDbDs::ID
280
    10
320
8A4C
  2
Thumbnail_Data
280
    15
 94
     1444
310
89504E470D0A1A0A0000000D49484452000001000000005C0803000000B6979B6C00000300504C5445000000000000FFFFFF0000000000000000000000000000000000000000000000000000330000660000990000CC0000FF0033000033330033660033990033CC0033FF0066000066330066660066990066CC0066FF0099
310
000099330099660099990099CC0099FF00CC0000CC3300CC6600CC9900CCCC00CCFF00FF0000FF3300FF6600FF9900FFCC00FFFF3300003300333300663300993300CC3300FF3333003333333333663333993333CC3333FF3366003366333366663366993366CC3366FF3399003399333399663399993399CC3399FF33CC00
310
33CC3333CC6633CC9933CCCC33CCFF33FF0033FF3333FF6633FF9933FFCC33FFFF6600006600336600666600996600CC6600FF6633006633336633666633996633CC6633FF6666006666336666666666996666CC6666FF6699006699336699666699996699CC6699FF66CC0066CC3366CC6666CC9966CCCC66CCFF66FF0066
310
FF3366FF6666FF9966FFCC66FFFF9900009900339900669900999900CC9900FF9933009933339933669933999933CC9933FF9966009966339966669966999966CC9966FF9999009999339999669999999999CC9999FF99CC0099CC3399CC6699CC9999CCCC99CCFF99FF0099FF3399FF6699FF9999FFCC99FFFFCC0000CC00
310
33CC0066CC0099CC00CCCC00FFCC3300CC3333CC3366CC3399CC33CCCC33FFCC6600CC6633CC6666CC6699CC66CCCC66FFCC9900CC9933CC9966CC9999CC99CCCC99FFCCCC00CCCC33CCCC66CCCC99CCCCCCCCCCFFCCFF00CCFF33CCFF66CCFF99CCFFCCCCFFFFFF0000FF0033FF0066FF0099FF00CCFF00FFFF3300FF3333
310
FF3366FF3399FF33CCFF33FFFF6600FF6633FF6666FF6699FF66CCFF66FFFF9900FF9933FF9966FF9999FF99CCFF99FFFFCC00FFCC33FFCC66FFCC99FFCCCCFFCCFFFFFF00FFFF33FFFF66FFFF99FFFFCCFFFFFF0000000D0D0D1A1A1A2828283535354343435050505D5D5D6B6B6B787878868686939393A1A1A1AEAEAEBB
310
BBBBC9C9C9D6D6D6E4E4E4F1F1F1FFFFFF000000000000000000000000000000000000000000000000000000000000C11FEF660000025F4944415478DAEDDC3D7284300C05E0BD81AFE1C6F7EF68740D573AC16BD2C77F800D6467924C8AE849215960B7F137C2960D9B9792C7CB011CC0011CC0011CC0011CC0011CC0011C
310
E06791BE132601FEE8B336003EA6300E801EB4006900245E80920465E305C8AA7563054839E7A7918E290352DFD4011CE01AB90E92D60BA13700A57BC8F60154439010345CDF2E4D2F0014A5F0F35CA714472419A0F7427864008EB7EC02E08CC724B00ED0DAD75B7903809E288601B0A7FA2D05E673560146EE974E303D5C
310
0238D3C228406B7E6EA35DC6AD8DB9CC93EC03D40AA8FDDE015A8A1064C0BEEC79E904D629A2E95238E61C63BEF6826969B86D8058B7A4AC00C7CAFF02907800460D7405501E805E0AF102A43A0E60BE04908E55728A0CE83D409A6BE0C40320491A40796D5D8188F4E2405A9417860C903619D8CBBE0E4075093480A90FA0
310
02D84B612C00449D20C682C8BCFCC105702C0A910294BF51E25A099E9D00D164689E0D96DD382211008C3B432B00F645028A6150FB8FCE00188B86D601521E6B82F906D0D6040900FA9AE003C07CBB84EC31B919A0133002C00108EE0C39C03B00E500A86D94F9B49001843D9683B0EE9B0650B4C95007D0910E619C9071D2
310
36002402A1A63B27C0DECC05000700C00D002E80AD073A40DD1BCF909065C00EA082FE0E05C074B01D009B710091D06F014969F2795000EAFED6B6008E3E005F6600F846019E4BE0FD2800E251A0ED638C02EA000E601920A23E13B14C86A800DEAC07A06DC60196C0FA7A3E2E6E1C607934E2FC9E8CD2DE18F9DD67FF39C0
310
F8AAE865DF2600FBFF10F9DFE1000EE0000EE0000EE0000E401B9F21CA996B8FA3B0520000000049454E44AE426082
  0
ENDSEC
  0
EOF
