  0
SECTION
  2
HEADER
  9
$ACADVER
  1
AC1027
  9
$ACADMAINTVER
 70
    55
  9
$DWGCODEPAGE
  3
ANSI_932
  9
$LASTSAVEDBY
  1
marketing
  9
$REQUIREDVERSIONS
160
                 0
  9
$INSBASE
 10
0.0
 20
0.0
 30
0.0
  9
$EXTMIN
 10
-0.1281672773457103
 20
-0.121759839963488
 30
-0.000000000000013
  9
$EXTMAX
 10
630.0000147171613
 20
891.1328166503608
 30
0.0000000000000023
  9
$LIMMIN
 10
-1176.0
 20
-798.0
  9
$LIMMAX
 10
594.0
 20
1078.0
  9
$ORTHOMODE
 70
     1
  9
$REGENMODE
 70
     1
  9
$FILLMODE
 70
     1
  9
$QTEXTMODE
 70
     0
  9
$MIRRTEXT
 70
     1
  9
$LTSCALE
 40
10.0
  9
$ATTMODE
 70
     1
  9
$TEXTSIZE
 40
0.2
  9
$TRACEWID
 40
0.05
  9
$TEXTSTYLE
  7
blockfont
  9
$CLAYER
  8
17
  9
$CELTYPE
  6
BYLAYER
  9
$CECOLOR
 62
   256
  9
$CELTSCALE
 40
1.0
  9
$DISPSILH
 70
     0
  9
$DIMSCALE
 40
1.0
  9
$DIMASZ
 40
2.0
  9
$DIMEXO
 40
3.0
  9
$DIMDLI
 40
0.5
  9
$DIMRND
 40
0.0
  9
$DIMDLE
 40
0.0
  9
$DIMEXE
 40
0.5
  9
$DIMTP
 40
0.0
  9
$DIMTM
 40
0.0
  9
$DIMTXT
 40
7.0
  9
$DIMCEN
 40
0.09
  9
$DIMTSZ
 40
0.0
  9
$DIMTOL
 70
     0
  9
$DIMLIM
 70
     0
  9
$DIMTIH
 70
     1
  9
$DIMTOH
 70
     1
  9
$DIMSE1
 70
     0
  9
$DIMSE2
 70
     0
  9
$DIMTAD
 70
     3
  9
$DIMZIN
 70
    12
  9
$DIMBLK
  1
OPEN
  9
$DIMASO
 70
     1
  9
$DIMSHO
 70
     1
  9
$DIMPOST
  1

  9
$DIMAPOST
  1

  9
$DIMALT
 70
     0
  9
$DIMALTD
 70
     2
  9
$DIMALTF
 40
25.4
  9
$DIMLFAC
 40
1.0
  9
$DIMTOFL
 70
     1
  9
$DIMTVP
 40
0.0
  9
$DIMTIX
 70
     0
  9
$DIMSOXD
 70
     0
  9
$DIMSAH
 70
     0
  9
$DIMBLK1
  1

  9
$DIMBLK2
  1

  9
$DIMSTYLE
  2
STANDARD1
  9
$DIMCLRD
 70
     0
  9
$DIMCLRE
 70
     0
  9
$DIMCLRT
 70
     0
  9
$DIMTFAC
 40
1.0
  9
$DIMGAP
 40
2.0
  9
$DIMJUST
 70
     0
  9
$DIMSD1
 70
     0
  9
$DIMSD2
 70
     0
  9
$DIMTOLJ
 70
     1
  9
$DIMTZIN
 70
     0
  9
$DIMALTZ
 70
     0
  9
$DIMALTTZ
 70
     0
  9
$DIMUPT
 70
     0
  9
$DIMDEC
 70
     8
  9
$DIMTDEC
 70
     8
  9
$DIMALTU
 70
     2
  9
$DIMALTTD
 70
     2
  9
$DIMTXSTY
  7
STANDARD
  9
$DIMAUNIT
 70
     0
  9
$DIMADEC
 70
     0
  9
$DIMALTRND
 40
0.0
  9
$DIMAZIN
 70
     0
  9
$DIMDSEP
 70
    46
  9
$DIMATFIT
 70
     2
  9
$DIMFRAC
 70
     0
  9
$DIMLDRBLK
  1
OPEN
  9
$DIMLUNIT
 70
     2
  9
$DIMLWD
 70
    -2
  9
$DIMLWE
 70
    -2
  9
$DIMTMOVE
 70
     0
  9
$DIMFXL
 40
1.0
  9
$DIMFXLON
 70
     0
  9
$DIMJOGANG
 40
0.7853981633974483
  9
$DIMTFILL
 70
     0
  9
$DIMTFILLCLR
 70
     0
  9
$DIMARCSYM
 70
     0
  9
$DIMLTYPE
  6

  9
$DIMLTEX1
  6

  9
$DIMLTEX2
  6

  9
$DIMTXTDIRECTION
 70
     0
  9
$LUNITS
 70
     2
  9
$LUPREC
 70
     8
  9
$SKETCHINC
 40
0.1
  9
$FILLETRAD
 40
0.0
  9
$AUNITS
 70
     0
  9
$AUPREC
 70
     0
  9
$MENU
  1
.
  9
$ELEVATION
 40
0.0
  9
$PELEVATION
 40
0.0
  9
$THICKNESS
 40
0.0
  9
$LIMCHECK
 70
     0
  9
$CHAMFERA
 40
0.0
  9
$CHAMFERB
 40
0.0
  9
$CHAMFERC
 40
0.0
  9
$CHAMFERD
 40
0.0
  9
$SKPOLY
 70
     0
  9
$TDCREATE
 40
2452286.555658658
  9
$TDUCREATE
 40
2452286.180658658
  9
$TDUPDATE
 40
2459243.613861690
  9
$TDUUPDATE
 40
2459243.238861690
  9
$TDINDWG
 40
2.4722189468
  9
$TDUSRTIMER
 40
2.4722152894
  9
$USRTIMER
 70
     1
  9
$ANGBASE
 50
0.0
  9
$ANGDIR
 70
     0
  9
$PDMODE
 70
     0
  9
$PDSIZE
 40
0.0
  9
$PLINEWID
 40
0.0
  9
$SPLFRAME
 70
     0
  9
$SPLINETYPE
 70
     6
  9
$SPLINESEGS
 70
     8
  9
$HANDSEED
  5
3AF03
  9
$SURFTAB1
 70
     6
  9
$SURFTAB2
 70
     6
  9
$SURFTYPE
 70
     6
  9
$SURFU
 70
     6
  9
$SURFV
 70
     6
  9
$UCSBASE
  2

  9
$UCSNAME
  2

  9
$UCSORG
 10
0.0
 20
0.0
 30
0.0
  9
$UCSXDIR
 10
1.0
 20
0.0
 30
0.0
  9
$UCSYDIR
 10
0.0
 20
1.0
 30
0.0
  9
$UCSORTHOREF
  2

  9
$UCSORTHOVIEW
 70
     0
  9
$UCSORGTOP
 10
0.0
 20
0.0
 30
0.0
  9
$UCSORGBOTTOM
 10
0.0
 20
0.0
 30
0.0
  9
$UCSORGLEFT
 10
0.0
 20
0.0
 30
0.0
  9
$UCSORGRIGHT
 10
0.0
 20
0.0
 30
0.0
  9
$UCSORGFRONT
 10
0.0
 20
0.0
 30
0.0
  9
$UCSORGBACK
 10
0.0
 20
0.0
 30
0.0
  9
$PUCSBASE
  2

  9
$PUCSNAME
  2

  9
$PUCSORG
 10
0.0
 20
0.0
 30
0.0
  9
$PUCSXDIR
 10
1.0
 20
0.0
 30
0.0
  9
$PUCSYDIR
 10
0.0
 20
1.0
 30
0.0
  9
$PUCSORTHOREF
  2

  9
$PUCSORTHOVIEW
 70
     0
  9
$PUCSORGTOP
 10
0.0
 20
0.0
 30
0.0
  9
$PUCSORGBOTTOM
 10
0.0
 20
0.0
 30
0.0
  9
$PUCSORGLEFT
 10
0.0
 20
0.0
 30
0.0
  9
$PUCSORGRIGHT
 10
0.0
 20
0.0
 30
0.0
  9
$PUCSORGFRONT
 10
0.0
 20
0.0
 30
0.0
  9
$PUCSORGBACK
 10
0.0
 20
0.0
 30
0.0
  9
$USERI1
 70
     0
  9
$USERI2
 70
     0
  9
$USERI3
 70
     0
  9
$USERI4
 70
     0
  9
$USERI5
 70
     0
  9
$USERR1
 40
0.0
  9
$USERR2
 40
0.0
  9
$USERR3
 40
0.0
  9
$USERR4
 40
0.0
  9
$USERR5
 40
0.0
  9
$WORLDVIEW
 70
     1
  9
$SHADEDGE
 70
     3
  9
$SHADEDIF
 70
    70
  9
$TILEMODE
 70
     1
  9
$MAXACTVP
 70
    48
  9
$PINSBASE
 10
0.0
 20
0.0
 30
0.0
  9
$PLIMCHECK
 70
     0
  9
$PEXTMIN
 10
0.0
 20
0.0
 30
0.0
  9
$PEXTMAX
 10
0.0
 20
0.0
 30
0.0
  9
$PLIMMIN
 10
-0.2500002402958907
 20
-0.2499999962453767
  9
$PLIMMAX
 10
10.74999951940822
 20
8.249999763458731
  9
$UNITMODE
 70
     0
  9
$VISRETAIN
 70
     1
  9
$PLINEGEN
 70
     0
  9
$PSLTSCALE
 70
     1
  9
$TREEDEPTH
 70
  3020
  9
$CMLSTYLE
  2
STANDARD
  9
$CMLJUST
 70
     0
  9
$CMLSCALE
 40
1.0
  9
$PROXYGRAPHICS
 70
     1
  9
$MEASUREMENT
 70
     0
  9
$CELWEIGHT
370
    -1
  9
$ENDCAPS
280
     0
  9
$JOINSTYLE
280
     0
  9
$LWDISPLAY
290
     0
  9
$INSUNITS
 70
     0
  9
$HYPERLINKBASE
  1

  9
$STYLESHEET
  1
MONOCHROME.CTB
  9
$XEDIT
290
     1
  9
$CEPSNTYPE
380
     0
  9
$PSTYLEMODE
290
     1
  9
$FINGERPRINTGUID
  2

  9
$VERSIONGUID
  2
{0BB8450C-4419-4C0D-846E-32DAF1A08C3E}
  9
$EXTNAMES
290
     1
  9
$PSVPSCALE
 40
0.0
  9
$OLESTARTUP
290
     0
  9
$SORTENTS
280
   127
  9
$INDEXCTL
280
     0
  9
$HIDETEXT
280
     0
  9
$XCLIPFRAME
280
     2
  9
$HALOGAP
280
     0
  9
$OBSCOLOR
 70
   257
  9
$OBSLTYPE
280
     0
  9
$INTERSECTIONDISPLAY
280
     0
  9
$INTERSECTIONCOLOR
 70
   257
  9
$DIMASSOC
280
     1
  9
$PROJECTNAME
  1

  9
$CAMERADISPLAY
290
     0
  9
$LENSLENGTH
 40
50.0
  9
$CAMERAHEIGHT
 40
0.0
  9
$STEPSPERSEC
 40
2.0
  9
$STEPSIZE
 40
6.0
  9
$3DDWFPREC
 40
2.0
  9
$PSOLWIDTH
 40
0.25
  9
$PSOLHEIGHT
 40
4.0
  9
$LOFTANG1
 40
1.570796326794896
  9
$LOFTANG2
 40
1.570796326794896
  9
$LOFTMAG1
 40
0.0
  9
$LOFTMAG2
 40
0.0
  9
$LOFTPARAM
 70
     7
  9
$LOFTNORMALS
280
     1
  9
$LATITUDE
 40
37.795
  9
$LONGITUDE
 40
-122.394
  9
$NORTHDIRECTION
 40
0.0
  9
$TIMEZONE
 70
 -8000
  9
$LIGHTGLYPHDISPLAY
280
     1
  9
$TILEMODELIGHTSYNCH
280
     1
  9
$CMATERIAL
347
E4BC
  9
$SOLIDHIST
280
     1
  9
$SHOWHIST
280
     1
  9
$DWFFRAME
280
     2
  9
$DGNFRAME
280
     0
  9
$REALWORLDSCALE
290
     1
  9
$INTERFERECOLOR
 62
     1
  9
$INTERFEREOBJVS
345
E4DE
  9
$INTERFEREVPVS
346
E4DB
  9
$CSHADOW
280
     0
  9
$SHADOWPLANELOCATION
 40
0.0
  0
ENDSEC
  0
SECTION
  2
CLASSES
  0
CLASS
  1
ACDBDICTIONARYWDFLT
  2
AcDbDictionaryWithDefault
  3
ObjectDBX Classes
 90
        0
 91
        1
280
     0
281
     0
  0
CLASS
  1
DICTIONARYVAR
  2
AcDbDictionaryVar
  3
ObjectDBX Classes
 90
        0
 91
       12
280
     0
281
     0
  0
CLASS
  1
MATERIAL
  2
AcDbMaterial
  3
ObjectDBX Classes
 90
     1153
 91
        3
280
     0
281
     0
  0
CLASS
  1
VISUALSTYLE
  2
AcDbVisualStyle
  3
ObjectDBX Classes
 90
     4095
 91
       26
280
     0
281
     0
  0
CLASS
  1
TABLESTYLE
  2
AcDbTableStyle
  3
ObjectDBX Classes
 90
     4095
 91
        1
280
     0
281
     0
  0
CLASS
  1
SCALE
  2
AcDbScale
  3
ObjectDBX Classes
 90
     1153
 91
       33
280
     0
281
     0
  0
CLASS
  1
MLEADERSTYLE
  2
AcDbMLeaderStyle
  3
ACDB_MLEADERSTYLE_CLASS
 90
     4095
 91
        1
280
     0
281
     0
  0
CLASS
  1
CELLSTYLEMAP
  2
AcDbCellStyleMap
  3
ObjectDBX Classes
 90
     1152
 91
        2
280
     0
281
     0
  0
CLASS
  1
AEC_REFEDIT_STATUS_TRACKER
  2
AecDbRefEditStatusTracker
  3
AecArchBase70|Product Desc: Autodesk Architectural Desktop 2007 |Company: Autodesk,Inc. |WEB Address: www.autodesk.com
 90
      129
 91
        0
280
     0
281
     0
  0
CLASS
  1
NPOCOLLECTION
  2
AcDbImpNonPersistentObjectsCollection
  3
ObjectDBX Classes
 90
     1153
 91
        0
280
     0
281
     0
  0
CLASS
  1
SORTENTSTABLE
  2
AcDbSortentsTable
  3
ObjectDBX Classes
 90
        0
 91
        1
280
     0
281
     0
  0
CLASS
  1
ACDBSECTIONVIEWSTYLE
  2
AcDbSectionViewStyle
  3
ObjectDBX Classes
 90
     1025
 91
        1
280
     0
281
     0
  0
CLASS
  1
ACDBDETAILVIEWSTYLE
  2
AcDbDetailViewStyle
  3
ObjectDBX Classes
 90
     1025
 91
        1
280
     0
281
     0
  0
ENDSEC
  0
SECTION
  2
TABLES
  0
TABLE
  2
VPORT
  5
8
330
0
100
AcDbSymbolTable
 70
     1
  0
VPORT
  5
12C00
330
8
100
AcDbSymbolTableRecord
100
AcDbViewportTableRecord
  2
*Active
 70
     0
 10
0.0
 20
0.0
 11
1.0
 21
1.0
 12
314.9359237199078
 22
445.5055284051987
 13
0.0
 23
0.0
 14
1.0
 24
1.0
 15
10.0
 25
10.0
 16
0.0
 26
0.0
 36
1.0
 17
0.0
 27
0.0
 37
0.0
 40
899.3568908220545
 41
2.880121396054628
 42
50.0
 43
0.0
 44
0.0
 50
0.0
 51
0.0
 71
     0
 72
   100
 73
     1
 74
     1
 75
     0
 76
     0
 77
     0
 78
     1
281
     0
 65
     1
110
0.0
120
0.0
130
0.0
111
1.0
121
0.0
131
0.0
112
0.0
122
1.0
132
0.0
 79
     0
146
0.0
348
E4DA
 60
     3
 61
     5
292
     1
282
     1
141
0.0
142
0.0
 63
   250
421
  3355443
1001
ACAD_NAV_VCDISPLAY
1070
     3
  0
ENDTAB
  0
TABLE
  2
LTYPE
  5
5
330
0
100
AcDbSymbolTable
 70
     7
  0
LTYPE
  5
13
330
5
100
AcDbSymbolTableRecord
100
AcDbLinetypeTableRecord
  2
BYBLOCK
 70
     0
  3

 72
    65
 73
     0
 40
0.0
  0
LTYPE
  5
14
330
5
100
AcDbSymbolTableRecord
100
AcDbLinetypeTableRecord
  2
BYLAYER
 70
     0
  3

 72
    65
 73
     0
 40
0.0
  0
LTYPE
  5
15
330
5
100
AcDbSymbolTableRecord
100
AcDbLinetypeTableRecord
  2
CONTINUOUS
 70
     0
  3
Solid line
 72
    65
 73
     0
 40
0.0
  0
LTYPE
  5
22
330
5
100
AcDbSymbolTableRecord
100
AcDbLinetypeTableRecord
  2
CONTINOUS
 70
     0
  3
Solid line
 72
    65
 73
     0
 40
0.0
  0
LTYPE
  5
24
330
5
100
AcDbSymbolTableRecord
100
AcDbLinetypeTableRecord
  2
DASHDOT
 70
     0
  3
__ . __ . __ . __ . __ . __ . __ . __ . __ . __
 72
    65
 73
     4
 40
1.0
 49
0.5
 74
     0
 49
-0.25
 74
     0
 49
0.0
 74
     0
 49
-0.25
 74
     0
  0
LTYPE
  5
4C47
330
5
100
AcDbSymbolTableRecord
100
AcDbLinetypeTableRecord
  2
DIVIDE
 70
     0
  3
Divide ____ . . ____ . . ____ . . ____ . . ____
 72
    65
 73
     6
 40
1.25
 49
0.5
 74
     0
 49
-0.25
 74
     0
 49
0.0
 74
     0
 49
-0.25
 74
     0
 49
0.0
 74
     0
 49
-0.25
 74
     0
  0
LTYPE
  5
685F
330
5
100
AcDbSymbolTableRecord
100
AcDbLinetypeTableRecord
  2
PHANTOM
 70
     0
  3
Phantom ______  __  __  ______  __  __  ______
 72
    65
 73
     6
 40
2.5
 49
1.25
 74
     0
 49
-0.25
 74
     0
 49
0.25
 74
     0
 49
-0.25
 74
     0
 49
0.25
 74
     0
 49
-0.25
 74
     0
  0
LTYPE
  5
1F2BD
330
5
100
AcDbSymbolTableRecord
100
AcDbLinetypeTableRecord
  2
SLD-実線
 70
     0
  3
SolidWorks Line Style
 72
    65
 73
     0
 40
0.0
  0
ENDTAB
  0
TABLE
  2
LAYER
  5
2
102
{ACAD_XDICTIONARY
360
12DA0
102
}
330
0
100
AcDbSymbolTable
 70
    17
  0
LAYER
  5
10
102
{ACAD_XDICTIONARY
360
E512
102
}
330
2
100
AcDbSymbolTableRecord
100
AcDbLayerTableRecord
  2
0
 70
     0
 62
     7
  6
CONTINOUS
370
    -3
390
F
347
E4CC
348
0
  0
LAYER
  5
2F
102
{ACAD_XDICTIONARY
360
E514
102
}
330
2
100
AcDbSymbolTableRecord
100
AcDbLayerTableRecord
  2
10
 70
     0
 62
     4
  6
CONTINOUS
370
    -3
390
F
347
E4CC
348
0
  0
LAYER
  5
35
102
{ACAD_XDICTIONARY
360
E518
102
}
330
2
100
AcDbSymbolTableRecord
100
AcDbLayerTableRecord
  2
16
 70
     0
 62
     6
  6
DASHDOT
370
    -3
390
F
347
E4CC
348
0
  0
LAYER
  5
3D
102
{ACAD_XDICTIONARY
360
E51C
102
}
330
2
100
AcDbSymbolTableRecord
100
AcDbLayerTableRecord
  2
24
 70
     0
 62
     7
  6
CONTINOUS
370
    -3
390
F
347
E4CC
348
0
  0
LAYER
  5
3A2
102
{ACAD_XDICTIONARY
360
E51E
102
}
330
2
100
AcDbSymbolTableRecord
100
AcDbLayerTableRecord
  2
30
 70
     0
 62
     9
  6
CONTINUOUS
370
    -3
390
F
347
E4CC
348
0
  0
LAYER
  5
3A4
330
2
100
AcDbSymbolTableRecord
100
AcDbLayerTableRecord
  2
DEFPOINTS
 70
     0
 62
     7
  6
CONTINUOUS
290
     0
370
    -3
390
F
347
E4CC
348
0
  0
LAYER
  5
3BBA
102
{ACAD_XDICTIONARY
360
E520
102
}
330
2
100
AcDbSymbolTableRecord
100
AcDbLayerTableRecord
  2
18
 70
     0
 62
     5
  6
DIVIDE
370
    -3
390
F
347
E4CC
348
0
  0
LAYER
  5
67A8
102
{ACAD_XDICTIONARY
360
E522
102
}
330
2
100
AcDbSymbolTableRecord
100
AcDbLayerTableRecord
  2
11
 70
     0
 62
     1
  6
CONTINOUS
370
    -3
390
F
347
E4CC
348
0
  0
LAYER
  5
7837
102
{ACAD_XDICTIONARY
360
E524
102
}
330
2
100
AcDbSymbolTableRecord
100
AcDbLayerTableRecord
  2
17
 70
     0
 62
     2
  6
DASHDOT
370
    -3
390
F
347
E4CC
348
0
  0
LAYER
  5
7BC8
102
{ACAD_XDICTIONARY
360
E526
102
}
330
2
100
AcDbSymbolTableRecord
100
AcDbLayerTableRecord
  2
1
 70
     0
 62
     7
  6
CONTINUOUS
370
    -3
390
F
347
E4CC
348
0
  0
LAYER
  5
C4FE
102
{ACAD_XDICTIONARY
360
E52A
102
}
330
2
100
AcDbSymbolTableRecord
100
AcDbLayerTableRecord
  2
2
 70
     0
 62
     7
  6
CONTINUOUS
370
    -3
390
F
347
E4CC
348
0
  0
LAYER
  5
C501
102
{ACAD_XDICTIONARY
360
E530
102
}
330
2
100
AcDbSymbolTableRecord
100
AcDbLayerTableRecord
  2
5
 70
     0
 62
     7
  6
CONTINUOUS
370
    -3
390
F
347
E4CC
348
0
  0
LAYER
  5
E473
102
{ACAD_XDICTIONARY
360
E534
102
}
330
2
100
AcDbSymbolTableRecord
100
AcDbLayerTableRecord
  2
130
 70
     0
 62
     4
  6
CONTINUOUS
370
    -3
390
F
347
E4CC
348
0
  0
LAYER
  5
1106A
102
{ACAD_XDICTIONARY
360
1106B
102
}
330
2
100
AcDbSymbolTableRecord
100
AcDbLayerTableRecord
  2
131
 70
     0
 62
     4
  6
PHANTOM
370
    -3
390
F
347
E4CC
348
0
  0
LAYER
  5
38289
102
{ACAD_XDICTIONARY
360
3828A
102
}
330
2
100
AcDbSymbolTableRecord
100
AcDbLayerTableRecord
  2
240
 70
     0
 62
     7
  6
CONTINUOUS
370
    -3
390
F
347
E4CC
348
0
  0
LAYER
  5
3AEF5
330
2
100
AcDbSymbolTableRecord
100
AcDbLayerTableRecord
  2
12
 70
     0
 62
     3
  6
CONTINOUS
370
    -3
390
F
347
E4CC
348
0
1001
AcAecLayerStandard
1000

1000

1001
AcCmTransparency
1071
        0
  0
LAYER
  5
3AEF8
330
2
100
AcDbSymbolTableRecord
100
AcDbLayerTableRecord
  2
19
 70
     0
 62
     7
  6
CONTINOUS
370
    -3
390
F
347
E4CC
348
0
1001
AcAecLayerStandard
1000

1000

1001
AcCmTransparency
1071
        0
  0
ENDTAB
  0
TABLE
  2
STYLE
  5
3
330
0
100
AcDbSymbolTable
 70
     3
  0
STYLE
  5
11
330
3
100
AcDbSymbolTableRecord
100
AcDbTextStyleTableRecord
  2
STANDARD
 70
     0
 40
0.0
 41
1.0
 50
0.0
 71
     0
 42
2.0
  3
txt.shx
  4
bigfont.shx
  0
STYLE
  5
C503
330
3
100
AcDbSymbolTableRecord
100
AcDbTextStyleTableRecord
  2
blockfont
 70
     0
 40
0.0
 41
1.0
 50
0.0
 71
     0
 42
0.2
  3
simplex.shx
  4
bigfont
  0
STYLE
  5
3828B
330
3
100
AcDbSymbolTableRecord
100
AcDbTextStyleTableRecord
  2
SLDTEXTSTYLE0
 70
     0
 40
0.0
 41
1.0
 50
0.0
 71
     0
 42
3.0
  3
MS UI Gothic.ttf
  4

1001
ACAD
1000
MS UI Gothic
1071
      306
  0
ENDTAB
  0
TABLE
  2
VIEW
  5
6
330
0
100
AcDbSymbolTable
 70
     3
  0
VIEW
  5
230C
330
6
100
AcDbSymbolTableRecord
100
AcDbViewTableRecord
  2
OLE1
 70
     0
 40
148.912488
 10
429.497628
 20
2.560627
 41
103.145806
 11
0.0
 21
0.0
 31
1.0
 12
0.0
 22
0.0
 32
0.0
 42
50.0
 43
0.0
 44
0.0
 50
0.0
 71
     0
281
     0
 72
     0
 73
     0
348
E4DA
  0
VIEW
  5
230E
330
6
100
AcDbSymbolTableRecord
100
AcDbViewTableRecord
  2
OLE2
 70
     0
 40
170.778692
 10
322.66497
 20
-5.978304
 41
102.467215
 11
0.0
 21
0.0
 31
1.0
 12
0.0
 22
0.0
 32
0.0
 42
50.0
 43
0.0
 44
0.0
 50
0.0
 71
     0
281
     0
 72
     0
 73
     0
348
E4DA
  0
VIEW
  5
23AA
330
6
100
AcDbSymbolTableRecord
100
AcDbViewTableRecord
  2
OLE3
 70
     0
 40
591.7897389999998
 10
84.79698199999999
 20
-46.09335999999998
 41
388.792096
 11
0.0
 21
0.0
 31
1.0
 12
0.0
 22
0.0
 32
0.0
 42
50.0
 43
0.0
 44
0.0
 50
0.0
 71
     0
281
     0
 72
     0
 73
     0
348
E4DA
  0
ENDTAB
  0
TABLE
  2
UCS
  5
7
330
0
100
AcDbSymbolTable
 70
     0
  0
ENDTAB
  0
TABLE
  2
APPID
  5
9
330
0
100
AcDbSymbolTable
 70
    11
  0
APPID
  5
12
330
9
100
AcDbSymbolTableRecord
100
AcDbRegAppTableRecord
  2
ACAD
 70
     0
  0
APPID
  5
ECD
330
9
100
AcDbSymbolTableRecord
100
AcDbRegAppTableRecord
  2
CONTENTBLOCKICON
 70
     0
  0
APPID
  5
E582
330
9
100
AcDbSymbolTableRecord
100
AcDbRegAppTableRecord
  2
DCO15
 70
     0
  0
APPID
  5
F8B0
330
9
100
AcDbSymbolTableRecord
100
AcDbRegAppTableRecord
  2
ACAD_MLEADERVER
 70
     0
  0
APPID
  5
F8D5
330
9
100
AcDbSymbolTableRecord
100
AcDbRegAppTableRecord
  2
ACAD_PSEXT
 70
     0
  0
APPID
  5
F997
330
9
100
AcDbSymbolTableRecord
100
AcDbRegAppTableRecord
  2
ACAD_EXEMPT_FROM_CAD_STANDARDS
 70
     0
  0
APPID
  5
1F2D1
330
9
100
AcDbSymbolTableRecord
100
AcDbRegAppTableRecord
  2
ACAD_DSTYLE_DIMJAG
 70
     0
  0
APPID
  5
1F2D2
330
9
100
AcDbSymbolTableRecord
100
AcDbRegAppTableRecord
  2
ACAD_DSTYLE_DIMTALN
 70
     0
  0
APPID
  5
3AEE5
330
9
100
AcDbSymbolTableRecord
100
AcDbRegAppTableRecord
  2
ACAD_NAV_VCDISPLAY
 70
     0
  0
APPID
  5
3AEF6
330
9
100
AcDbSymbolTableRecord
100
AcDbRegAppTableRecord
  2
AcAecLayerStandard
 70
     0
  0
APPID
  5
3AEF7
330
9
100
AcDbSymbolTableRecord
100
AcDbRegAppTableRecord
  2
AcCmTransparency
 70
     0
  0
ENDTAB
  0
TABLE
  2
DIMSTYLE
  5
A
330
0
100
AcDbSymbolTable
 70
     3
100
AcDbDimStyleTable
 71
     2
340
C24A
340
175
  0
DIMSTYLE
105
175
102
{ACAD_REACTORS
330
3A787
330
3A788
330
3A78A
330
3A78F
330
3A798
330
3A7A5
330
3A7A9
330
3A7E1
330
3A7FA
330
3A7FB
330
3A7FF
330
3A80E
330
3A6EC
330
3A6ED
330
3A6F0
330
3A6F3
330
3A6F4
330
3A7DD
102
}
330
A
100
AcDbSymbolTableRecord
100
AcDbDimStyleTableRecord
  2
STANDARD
 70
     0
 41
3.0
 42
1.0
 43
0.5
 44
0.5
 69
     1
 73
     0
 74
     0
 77
     1
 78
    12
140
7.0
147
3.0
271
     1
272
     1
340
11
341
3B2
342
3B2
1001
ACAD_DSTYLE_DIMJAG
1070
   388
1040
1.5
1001
ACAD_DSTYLE_DIMTALN
1070
   392
1070
     0
  0
DIMSTYLE
105
C24A
102
{ACAD_REACTORS
330
3A794
330
3A7AA
330
3A7AD
330
3A7B1
330
3A7D4
330
3A7D5
330
3A7D6
330
3A7D7
330
3A7DF
330
3A7E2
330
3A808
330
3A809
330
3A80A
330
3A80B
330
3A80C
330
3A80D
330
3A707
330
3A708
330
3ADD5
102
}
330
A
100
AcDbSymbolTableRecord
100
AcDbDimStyleTableRecord
  2
STANDARD1
 70
     0
 41
2.0
 42
3.0
 43
0.5
 44
0.5
 77
     3
 78
    12
140
7.0
147
2.0
172
     1
271
     8
272
     8
289
     2
340
11
341
3B2
342
3B2
1001
ACAD_DSTYLE_DIMJAG
1070
   388
1040
1.5
1001
ACAD_DSTYLE_DIMTALN
1070
   392
1070
     0
  0
ENDTAB
  0
TABLE
  2
BLOCK_RECORD
  5
1
330
0
100
AcDbSymbolTable
 70
    43
  0
BLOCK_RECORD
  5
1E
102
{ACAD_XDICTIONARY
360
178
102
}
330
1
100
AcDbSymbolTableRecord
100
AcDbBlockTableRecord
  2
*MODEL_SPACE
340
904E
 70
     0
280
     1
281
     0
  0
BLOCK_RECORD
  5
1A
102
{ACAD_XDICTIONARY
360
17A
102
}
330
1
100
AcDbSymbolTableRecord
100
AcDbBlockTableRecord
  2
*PAPER_SPACE
340
904F
 70
     0
280
     1
281
     0
  0
BLOCK_RECORD
  5
3B2
330
1
100
AcDbSymbolTableRecord
100
AcDbBlockTableRecord
  2
_OPEN
340
0
102
{BLKREFS
331
3AD35
331
3AD36
331
3AD49
331
3AD4A
331
3AD52
331
3AD53
331
3AD5E
331
3AD5F
331
3AD67
331
3AD68
331
3ADAD
331
3ADAE
331
3ADC3
331
3ADC4
331
3ADEE
331
3ADEF
331
3ADF9
331
3ADFA
331
3AE14
331
3AE15
331
3AE41
331
3AE42
331
3AE6B
331
3AE6C
331
3AE7D
331
3AE7E
331
3AE86
331
3AE87
331
3AE96
331
3AE97
331
3AE9F
331
3AEA0
331
3AEA8
331
3AEA9
331
3AC78
331
3AC80
331
3AC81
331
3AC9B
331
3ACA2
331
3ACA3
331
3ACAB
331
3ACB2
331
3ACB3
331
3ACBB
331
3ACBC
331
3ACC4
331
3ACC5
331
3ACCD
331
3ACCE
331
3ACE2
331
3ACE3
331
3ACEB
331
3ACEC
331
3ACF4
331
3ACF5
331
3ACFD
331
3ACFE
331
3AD06
331
3AD07
331
3AC0B
331
3AC0C
331
3AC14
331
3AC15
331
3AC1D
331
3AC1E
331
3AC26
331
3AC27
331
3AC2F
331
3AC30
331
3AC38
331
3AC39
331
3AC41
331
3AC42
331
3AC53
331
3AC54
331
3AC65
331
3AC66
331
3AC6E
331
3AC6F
331
3AC77
102
}
 70
     0
280
     1
281
     0
  0
BLOCK_RECORD
  5
3A810
330
1
100
AcDbSymbolTableRecord
100
AcDbBlockTableRecord
  2
*D1
340
0
 70
     0
280
     1
281
     0
  0
BLOCK_RECORD
  5
3A81C
330
1
100
AcDbSymbolTableRecord
100
AcDbBlockTableRecord
  2
*D2
340
0
 70
     0
280
     1
281
     0
  0
BLOCK_RECORD
  5
3A828
330
1
100
AcDbSymbolTableRecord
100
AcDbBlockTableRecord
  2
*D3
340
0
 70
     0
280
     1
281
     0
  0
BLOCK_RECORD
  5
3A834
330
1
100
AcDbSymbolTableRecord
100
AcDbBlockTableRecord
  2
*D4
340
0
 70
     0
280
     1
281
     0
  0
BLOCK_RECORD
  5
3A840
330
1
100
AcDbSymbolTableRecord
100
AcDbBlockTableRecord
  2
*D5
340
0
 70
     0
280
     1
281
     0
  0
BLOCK_RECORD
  5
3A84C
330
1
100
AcDbSymbolTableRecord
100
AcDbBlockTableRecord
  2
*D6
340
0
 70
     0
280
     1
281
     0
  0
BLOCK_RECORD
  5
3A858
330
1
100
AcDbSymbolTableRecord
100
AcDbBlockTableRecord
  2
*D7
340
0
 70
     0
280
     1
281
     0
  0
BLOCK_RECORD
  5
3A864
330
1
100
AcDbSymbolTableRecord
100
AcDbBlockTableRecord
  2
*D8
340
0
 70
     0
280
     1
281
     0
  0
BLOCK_RECORD
  5
3A870
330
1
100
AcDbSymbolTableRecord
100
AcDbBlockTableRecord
  2
*D9
340
0
 70
     0
280
     1
281
     0
  0
BLOCK_RECORD
  5
3A87C
330
1
100
AcDbSymbolTableRecord
100
AcDbBlockTableRecord
  2
*D10
340
0
 70
     0
280
     1
281
     0
  0
BLOCK_RECORD
  5
3A888
330
1
100
AcDbSymbolTableRecord
100
AcDbBlockTableRecord
  2
*D11
340
0
 70
     0
280
     1
281
     0
  0
BLOCK_RECORD
  5
3A892
330
1
100
AcDbSymbolTableRecord
100
AcDbBlockTableRecord
  2
*D12
340
0
 70
     0
280
     1
281
     0
  0
BLOCK_RECORD
  5
3A89E
330
1
100
AcDbSymbolTableRecord
100
AcDbBlockTableRecord
  2
*D13
340
0
 70
     0
280
     1
281
     0
  0
BLOCK_RECORD
  5
3A8A8
330
1
100
AcDbSymbolTableRecord
100
AcDbBlockTableRecord
  2
*D14
340
0
 70
     0
280
     1
281
     0
  0
BLOCK_RECORD
  5
3A8B4
330
1
100
AcDbSymbolTableRecord
100
AcDbBlockTableRecord
  2
*D15
340
0
 70
     0
280
     1
281
     0
  0
BLOCK_RECORD
  5
3A8C0
330
1
100
AcDbSymbolTableRecord
100
AcDbBlockTableRecord
  2
*D16
340
0
 70
     0
280
     1
281
     0
  0
BLOCK_RECORD
  5
3A8CC
330
1
100
AcDbSymbolTableRecord
100
AcDbBlockTableRecord
  2
*D17
340
0
 70
     0
280
     1
281
     0
  0
BLOCK_RECORD
  5
3A8D8
330
1
100
AcDbSymbolTableRecord
100
AcDbBlockTableRecord
  2
*D18
340
0
 70
     0
280
     1
281
     0
  0
BLOCK_RECORD
  5
3A8E7
330
1
100
AcDbSymbolTableRecord
100
AcDbBlockTableRecord
  2
*D19
340
0
 70
     0
280
     1
281
     0
  0
BLOCK_RECORD
  5
3A8F5
330
1
100
AcDbSymbolTableRecord
100
AcDbBlockTableRecord
  2
*D20
340
0
 70
     0
280
     1
281
     0
  0
BLOCK_RECORD
  5
3A901
330
1
100
AcDbSymbolTableRecord
100
AcDbBlockTableRecord
  2
*D21
340
0
 70
     0
280
     1
281
     0
  0
BLOCK_RECORD
  5
3A90D
330
1
100
AcDbSymbolTableRecord
100
AcDbBlockTableRecord
  2
*D22
340
0
 70
     0
280
     1
281
     0
  0
BLOCK_RECORD
  5
3A919
330
1
100
AcDbSymbolTableRecord
100
AcDbBlockTableRecord
  2
*D23
340
0
 70
     0
280
     1
281
     0
  0
BLOCK_RECORD
  5
3A931
330
1
100
AcDbSymbolTableRecord
100
AcDbBlockTableRecord
  2
*D24
340
0
 70
     0
280
     1
281
     0
  0
BLOCK_RECORD
  5
3A949
330
1
100
AcDbSymbolTableRecord
100
AcDbBlockTableRecord
  2
*D25
340
0
 70
     0
280
     1
281
     0
  0
BLOCK_RECORD
  5
3A955
330
1
100
AcDbSymbolTableRecord
100
AcDbBlockTableRecord
  2
*D26
340
0
 70
     0
280
     1
281
     0
  0
BLOCK_RECORD
  5
3A963
330
1
100
AcDbSymbolTableRecord
100
AcDbBlockTableRecord
  2
*D27
340
0
 70
     0
280
     1
281
     0
  0
BLOCK_RECORD
  5
3A971
330
1
100
AcDbSymbolTableRecord
100
AcDbBlockTableRecord
  2
*D28
340
0
 70
     0
280
     1
281
     0
  0
BLOCK_RECORD
  5
3A97D
330
1
100
AcDbSymbolTableRecord
100
AcDbBlockTableRecord
  2
*D29
340
0
 70
     0
280
     1
281
     0
  0
BLOCK_RECORD
  5
3A989
330
1
100
AcDbSymbolTableRecord
100
AcDbBlockTableRecord
  2
*D30
340
0
 70
     0
280
     1
281
     0
  0
BLOCK_RECORD
  5
3A998
330
1
100
AcDbSymbolTableRecord
100
AcDbBlockTableRecord
  2
*D31
340
0
 70
     0
280
     1
281
     0
  0
BLOCK_RECORD
  5
3A9A4
330
1
100
AcDbSymbolTableRecord
100
AcDbBlockTableRecord
  2
*D32
340
0
 70
     0
280
     1
281
     0
  0
BLOCK_RECORD
  5
3A9B0
330
1
100
AcDbSymbolTableRecord
100
AcDbBlockTableRecord
  2
*D33
340
0
 70
     0
280
     1
281
     0
  0
BLOCK_RECORD
  5
3A9BC
330
1
100
AcDbSymbolTableRecord
100
AcDbBlockTableRecord
  2
*D34
340
0
 70
     0
280
     1
281
     0
  0
BLOCK_RECORD
  5
3A9C8
330
1
100
AcDbSymbolTableRecord
100
AcDbBlockTableRecord
  2
*D35
340
0
 70
     0
280
     1
281
     0
  0
BLOCK_RECORD
  5
3A9D4
330
1
100
AcDbSymbolTableRecord
100
AcDbBlockTableRecord
  2
*D36
340
0
 70
     0
280
     1
281
     0
  0
BLOCK_RECORD
  5
3A9E0
330
1
100
AcDbSymbolTableRecord
100
AcDbBlockTableRecord
  2
*D37
340
0
 70
     0
280
     1
281
     0
  0
BLOCK_RECORD
  5
3A9EC
330
1
100
AcDbSymbolTableRecord
100
AcDbBlockTableRecord
  2
*D38
340
0
 70
     0
280
     1
281
     0
  0
BLOCK_RECORD
  5
3A9F8
330
1
100
AcDbSymbolTableRecord
100
AcDbBlockTableRecord
  2
*D39
340
0
 70
     0
280
     1
281
     0
  0
BLOCK_RECORD
  5
3ADBE
330
1
100
AcDbSymbolTableRecord
100
AcDbBlockTableRecord
  2
*D40
340
0
 70
     0
280
     1
281
     0
  0
BLOCK_RECORD
  5
3ADD6
330
1
100
AcDbSymbolTableRecord
100
AcDbBlockTableRecord
  2
*D41
340
0
 70
     0
280
     1
281
     0
  0
ENDTAB
  0
ENDSEC
  0
SECTION
  2
BLOCKS
  0
BLOCK
  5
1F
330
1E
100
AcDbEntity
  8
0
100
AcDbBlockBegin
  2
*MODEL_SPACE
 70
     0
 10
0.0
 20
0.0
 30
0.0
  3
*MODEL_SPACE
  1

  0
ENDBLK
  5
20
330
1E
100
AcDbEntity
  8
0
100
AcDbBlockEnd
  0
BLOCK
  5
1B
330
1A
100
AcDbEntity
 67
     1
  8
0
100
AcDbBlockBegin
  2
*PAPER_SPACE
 70
     0
 10
0.0
 20
0.0
 30
0.0
  3
*PAPER_SPACE
  1

  0
ENDBLK
  5
1C
330
1A
100
AcDbEntity
 67
     1
  8
0
100
AcDbBlockEnd
  0
BLOCK
  5
3B6
330
3B2
100
AcDbEntity
  8
0
100
AcDbBlockBegin
  2
_OPEN
 70
     0
 10
0.0
 20
0.0
 30
0.0
  3
_OPEN
  1

  0
LINE
  5
3B3
330
3B2
100
AcDbEntity
  8
30
  6
Continuous
 62
     0
100
AcDbLine
 10
-1.0
 20
0.166667
 30
0.0
 11
0.0
 21
0.0
 31
0.0
  0
LINE
  5
3B4
330
3B2
100
AcDbEntity
  8
30
  6
Continuous
 62
     0
100
AcDbLine
 10
-1.0
 20
-0.166667
 30
0.0
 11
0.0
 21
0.0
 31
0.0
  0
LINE
  5
3B5
330
3B2
100
AcDbEntity
  8
30
  6
Continuous
 62
     0
100
AcDbLine
 10
0.0
 20
0.0
 30
0.0
 11
-1.0
 21
0.0
 31
0.0
  0
ENDBLK
  5
3B7
330
3B2
100
AcDbEntity
  8
0
100
AcDbBlockEnd
  0
BLOCK
  5
3A811
330
3A810
100
AcDbEntity
  8
0
100
AcDbBlockBegin
  2
*D1
 70
     1
 10
0.0
 20
0.0
 30
0.0
  3
*D1
  1

  0
LINE
  5
3AC3E
330
3A810
100
AcDbEntity
  8
30
 62
     0
440
 16777216
370
    -2
100
AcDbLine
 10
165.7969564812901
 20
552.3234042003658
 30
0.0
 11
227.123421101097
 21
552.3234042003658
 31
0.0
  0
LINE
  5
3AC3F
330
3A810
100
AcDbEntity
  8
30
 62
     0
440
 16777216
370
    -2
100
AcDbLine
 10
165.7969564812901
 20
387.3234042003659
 30
0.0
 11
227.123421101097
 21
387.3234042003659
 31
0.0
  0
LINE
  5
3AC40
330
3A810
100
AcDbEntity
  8
30
 62
     0
440
 16777216
370
    -2
100
AcDbLine
 10
226.623421101097
 20
549.3234042003658
 30
0.0
 11
226.623421101097
 21
390.3234042003658
 31
0.0
  0
INSERT
  5
3AC41
330
3A810
100
AcDbEntity
  8
30
 62
     0
440
 16777216
370
    -2
100
AcDbBlockReference
  2
_OPEN
 10
226.623421101097
 20
552.3234042003658
 30
0.0
 41
3.0
 42
3.0
 43
3.0
 50
90.0
  0
INSERT
  5
3AC42
330
3A810
100
AcDbEntity
  8
30
 62
     0
440
 16777216
370
    -2
100
AcDbBlockReference
  2
_OPEN
 10
226.623421101097
 20
387.3234042003659
 30
0.0
 41
3.0
 42
3.0
 43
3.0
 50
270.0
  0
MTEXT
  5
3AC43
330
3A810
100
AcDbEntity
  8
30
 62
     0
440
 16777216
100
AcDbMText
 10
220.1234211010969
 20
469.8234042003658
 30
0.0
 40
7.0
 41
0.0
 46
0.0
 71
     5
 72
     1
  1
\A1;165
 11
0.0000000000000001
 21
1.0
 31
0.0
 73
     1
 44
1.0
 90
        3
 63
     9
421
 13158600
 45
1.25
441
        0
  0
POINT
  5
3AC44
330
3A810
100
AcDbEntity
  8
DEFPOINTS
 62
     0
440
 16777216
100
AcDbPoint
 10
164.7969564812902
 20
552.3234042003658
 30
0.0
  0
POINT
  5
3AC45
330
3A810
100
AcDbEntity
  8
DEFPOINTS
 62
     0
440
 16777216
100
AcDbPoint
 10
164.7969564812902
 20
387.3234042003659
 30
0.0
  0
POINT
  5
3AC46
330
3A810
100
AcDbEntity
  8
DEFPOINTS
 62
     0
440
 16777216
100
AcDbPoint
 10
226.623421101097
 20
387.3234042003659
 30
0.0
  0
ENDBLK
  5
3A812
330
3A810
100
AcDbEntity
  8
0
100
AcDbBlockEnd
  0
BLOCK
  5
3A81D
330
3A81C
100
AcDbEntity
  8
0
100
AcDbBlockBegin
  2
*D2
 70
     1
 10
0.0
 20
0.0
 30
0.0
  3
*D2
  1

  0
LINE
  5
3AE93
330
3A81C
100
AcDbEntity
  8
30
 62
     0
440
 16777216
370
    -2
100
AcDbLine
 10
77.29695648129041
 20
389.8234042003658
 30
0.0
 11
77.29695648129041
 21
361.9823766899183
 31
0.0
  0
LINE
  5
3AE94
330
3A81C
100
AcDbEntity
  8
30
 62
     0
440
 16777216
370
    -2
100
AcDbLine
 10
182.29695648129
 20
389.8234042003658
 30
0.0
 11
182.29695648129
 21
361.9823766899183
 31
0.0
  0
LINE
  5
3AE95
330
3A81C
100
AcDbEntity
  8
30
 62
     0
440
 16777216
370
    -2
100
AcDbLine
 10
80.2969564812904
 20
362.4823766899183
 30
0.0
 11
179.2969564812899
 21
362.4823766899183
 31
0.0
  0
INSERT
  5
3AE96
330
3A81C
100
AcDbEntity
  8
30
 62
     0
440
 16777216
370
    -2
100
AcDbBlockReference
  2
_OPEN
 10
77.29695648129041
 20
362.4823766899183
 30
0.0
 41
3.0
 42
3.0
 43
3.0
 50
180.0
  0
INSERT
  5
3AE97
330
3A81C
100
AcDbEntity
  8
30
 62
     0
440
 16777216
370
    -2
100
AcDbBlockReference
  2
_OPEN
 10
182.29695648129
 20
362.4823766899183
 30
0.0
 41
3.0
 42
3.0
 43
3.0
  0
MTEXT
  5
3AE98
330
3A81C
100
AcDbEntity
  8
30
 62
     0
440
 16777216
100
AcDbMText
 10
129.7969564812902
 20
368.9823766899183
 30
0.0
 40
7.0
 41
0.0
 46
0.0
 71
     5
 72
     1
  1
\A1;105
 73
     1
 44
1.0
 90
        3
 63
     9
421
 13158600
 45
1.25
441
        0
  0
POINT
  5
3AE99
330
3A81C
100
AcDbEntity
  8
DEFPOINTS
 62
     0
440
 16777216
100
AcDbPoint
 10
77.29695648129041
 20
390.8234042003658
 30
0.0
  0
POINT
  5
3AE9A
330
3A81C
100
AcDbEntity
  8
DEFPOINTS
 62
     0
440
 16777216
100
AcDbPoint
 10
182.29695648129
 20
390.8234042003658
 30
0.0
  0
POINT
  5
3AE9B
330
3A81C
100
AcDbEntity
  8
DEFPOINTS
 62
     0
440
 16777216
100
AcDbPoint
 10
182.29695648129
 20
362.4823766899183
 30
0.0
  0
ENDBLK
  5
3A81E
330
3A81C
100
AcDbEntity
  8
0
100
AcDbBlockEnd
  0
BLOCK
  5
3A829
330
3A828
100
AcDbEntity
  8
0
100
AcDbBlockBegin
  2
*D3
 70
     1
 10
0.0
 20
0.0
 30
0.0
  3
*D3
  1

  0
LINE
  5
3AC50
330
3A828
100
AcDbEntity
  8
30
 62
     0
370
    -2
100
AcDbLine
 10
112.29695648129
 20
376.3234042003659
 30
0.0
 11
112.29695648129
 21
366.8234042003659
 31
0.0
  0
LINE
  5
3AC51
330
3A828
100
AcDbEntity
  8
30
 62
     0
370
    -2
100
AcDbLine
 10
147.2969564812902
 20
389.8234042003658
 30
0.0
 11
147.2969564812902
 21
366.8234042003659
 31
0.0
  0
LINE
  5
3AC52
330
3A828
100
AcDbEntity
  8
30
 62
     0
370
    -2
100
AcDbLine
 10
115.2969564812901
 20
367.3234042003659
 30
0.0
 11
144.2969564812901
 21
367.3234042003659
 31
0.0
  0
INSERT
  5
3AC53
330
3A828
100
AcDbEntity
  8
30
 62
     0
370
    -2
100
AcDbBlockReference
  2
_OPEN
 10
112.29695648129
 20
367.3234042003659
 30
0.0
 41
3.0
 42
3.0
 43
3.0
 50
180.0
  0
INSERT
  5
3AC54
330
3A828
100
AcDbEntity
  8
30
 62
     0
370
    -2
100
AcDbBlockReference
  2
_OPEN
 10
147.2969564812902
 20
367.3234042003659
 30
0.0
 41
3.0
 42
3.0
 43
3.0
  0
MTEXT
  5
3AC55
330
3A828
100
AcDbEntity
  8
30
 62
     0
100
AcDbMText
 10
129.7969564812901
 20
373.8234042003659
 30
0.0
 40
7.0
 41
0.0
 46
0.0
 71
     5
 72
     1
  1
\A1;35
 73
     1
 44
1.0
 90
        3
 63
     9
421
 13158600
 45
1.25
441
        0
  0
POINT
  5
3AC56
330
3A828
100
AcDbEntity
  8
DEFPOINTS
 62
     0
100
AcDbPoint
 10
112.29695648129
 20
377.3234042003659
 30
0.0
  0
POINT
  5
3AC57
330
3A828
100
AcDbEntity
  8
DEFPOINTS
 62
     0
100
AcDbPoint
 10
147.2969564812902
 20
390.8234042003658
 30
0.0
  0
POINT
  5
3AC58
330
3A828
100
AcDbEntity
  8
DEFPOINTS
 62
     0
100
AcDbPoint
 10
147.2969564812902
 20
367.3234042003659
 30
0.0
  0
ENDBLK
  5
3A82A
330
3A828
100
AcDbEntity
  8
0
100
AcDbBlockEnd
  0
BLOCK
  5
3A835
330
3A834
100
AcDbEntity
  8
0
100
AcDbBlockBegin
  2
*D4
 70
     1
 10
0.0
 20
0.0
 30
0.0
  3
*D4
  1

  0
LINE
  5
3AE9C
330
3A834
100
AcDbEntity
  8
30
 62
     0
440
 16777216
370
    -2
100
AcDbLine
 10
59.79695648129018
 20
386.3234042003659
 30
0.0
 11
59.79695648129018
 21
349.0261855353263
 31
0.0
  0
LINE
  5
3AE9D
330
3A834
100
AcDbEntity
  8
30
 62
     0
440
 16777216
370
    -2
100
AcDbLine
 10
199.7969564812902
 20
386.3234042003659
 30
0.0
 11
199.7969564812902
 21
349.0261855353263
 31
0.0
  0
LINE
  5
3AE9E
330
3A834
100
AcDbEntity
  8
30
 62
     0
440
 16777216
370
    -2
100
AcDbLine
 10
62.79695648129018
 20
349.5261855353263
 30
0.0
 11
196.7969564812902
 21
349.5261855353263
 31
0.0
  0
INSERT
  5
3AE9F
330
3A834
100
AcDbEntity
  8
30
 62
     0
440
 16777216
370
    -2
100
AcDbBlockReference
  2
_OPEN
 10
59.79695648129018
 20
349.5261855353263
 30
0.0
 41
3.0
 42
3.0
 43
3.0
 50
180.0
  0
INSERT
  5
3AEA0
330
3A834
100
AcDbEntity
  8
30
 62
     0
440
 16777216
370
    -2
100
AcDbBlockReference
  2
_OPEN
 10
199.7969564812902
 20
349.5261855353263
 30
0.0
 41
3.0
 42
3.0
 43
3.0
  0
MTEXT
  5
3AEA1
330
3A834
100
AcDbEntity
  8
30
 62
     0
440
 16777216
100
AcDbMText
 10
129.7969564812902
 20
356.0261855353263
 30
0.0
 40
7.0
 41
0.0
 46
0.0
 71
     5
 72
     1
  1
\A1;140
 73
     1
 44
1.0
 90
        3
 63
     9
421
 13158600
 45
1.25
441
        0
  0
POINT
  5
3AEA2
330
3A834
100
AcDbEntity
  8
DEFPOINTS
 62
     0
440
 16777216
100
AcDbPoint
 10
59.79695648129018
 20
387.3234042003659
 30
0.0
  0
POINT
  5
3AEA3
330
3A834
100
AcDbEntity
  8
DEFPOINTS
 62
     0
440
 16777216
100
AcDbPoint
 10
199.7969564812902
 20
387.3234042003659
 30
0.0
  0
POINT
  5
3AEA4
330
3A834
100
AcDbEntity
  8
DEFPOINTS
 62
     0
440
 16777216
100
AcDbPoint
 10
199.7969564812902
 20
349.5261855353263
 30
0.0
  0
ENDBLK
  5
3A836
330
3A834
100
AcDbEntity
  8
0
100
AcDbBlockEnd
  0
BLOCK
  5
3A841
330
3A840
100
AcDbEntity
  8
0
100
AcDbBlockBegin
  2
*D5
 70
     1
 10
0.0
 20
0.0
 30
0.0
  3
*D5
  1

  0
LINE
  5
3AC62
330
3A840
100
AcDbEntity
  8
30
 62
     0
440
 16777216
370
    -2
100
AcDbLine
 10
182.2969564812902
 20
82.40380265966575
 30
0.0
 11
182.2969564812902
 21
47.51452697689321
 31
0.0
  0
LINE
  5
3AC63
330
3A840
100
AcDbEntity
  8
30
 62
     0
440
 16777216
370
    -2
100
AcDbLine
 10
147.2969564812902
 20
82.40380265966575
 30
0.0
 11
147.2969564812902
 21
47.51452697689321
 31
0.0
  0
LINE
  5
3AC64
330
3A840
100
AcDbEntity
  8
30
 62
     0
440
 16777216
370
    -2
100
AcDbLine
 10
179.2969564812902
 20
48.01452697689321
 30
0.0
 11
150.2969564812902
 21
48.01452697689321
 31
0.0
  0
INSERT
  5
3AC65
330
3A840
100
AcDbEntity
  8
30
 62
     0
440
 16777216
370
    -2
100
AcDbBlockReference
  2
_OPEN
 10
182.2969564812902
 20
48.01452697689321
 30
0.0
 41
3.0
 42
3.0
 43
3.0
  0
INSERT
  5
3AC66
330
3A840
100
AcDbEntity
  8
30
 62
     0
440
 16777216
370
    -2
100
AcDbBlockReference
  2
_OPEN
 10
147.2969564812902
 20
48.01452697689321
 30
0.0
 41
3.0
 42
3.0
 43
3.0
 50
180.0
  0
MTEXT
  5
3AC67
330
3A840
100
AcDbEntity
  8
30
 62
     0
440
 16777216
100
AcDbMText
 10
164.7969564812902
 20
54.51452697689322
 30
0.0
 40
7.0
 41
0.0
 46
0.0
 71
     5
 72
     1
  1
\A1;35
 73
     1
 44
1.0
 90
        3
 63
     9
421
 13158600
 45
1.25
441
        0
  0
POINT
  5
3AC68
330
3A840
100
AcDbEntity
  8
DEFPOINTS
 62
     0
440
 16777216
100
AcDbPoint
 10
182.2969564812902
 20
83.40380265966571
 30
0.0
  0
POINT
  5
3AC69
330
3A840
100
AcDbEntity
  8
DEFPOINTS
 62
     0
440
 16777216
100
AcDbPoint
 10
147.2969564812902
 20
83.40380265966571
 30
0.0
  0
POINT
  5
3AC6A
330
3A840
100
AcDbEntity
  8
DEFPOINTS
 62
     0
440
 16777216
100
AcDbPoint
 10
147.2969564812902
 20
48.01452697689321
 30
0.0
  0
ENDBLK
  5
3A842
330
3A840
100
AcDbEntity
  8
0
100
AcDbBlockEnd
  0
BLOCK
  5
3A84D
330
3A84C
100
AcDbEntity
  8
0
100
AcDbBlockBegin
  2
*D6
 70
     1
 10
0.0
 20
0.0
 30
0.0
  3
*D6
  1

  0
LINE
  5
3AC6B
330
3A84C
100
AcDbEntity
  8
30
 62
     0
440
 16777216
370
    -2
100
AcDbLine
 10
147.2969564812902
 20
787.9121723739508
 30
0.0
 11
147.2969564812902
 21
832.4121723739509
 31
0.0
  0
LINE
  5
3AC6C
330
3A84C
100
AcDbEntity
  8
30
 62
     0
440
 16777216
370
    -2
100
AcDbLine
 10
182.2969564812902
 20
824.9121723739504
 30
0.0
 11
182.2969564812902
 21
832.4121723739509
 31
0.0
  0
LINE
  5
3AC6D
330
3A84C
100
AcDbEntity
  8
30
 62
     0
440
 16777216
370
    -2
100
AcDbLine
 10
149.2969564812901
 20
831.9121723739508
 30
0.0
 11
180.2969564812902
 21
831.9121723739508
 31
0.0
  0
INSERT
  5
3AC6E
330
3A84C
100
AcDbEntity
  8
30
 62
     0
440
 16777216
370
    -2
100
AcDbBlockReference
  2
_OPEN
 10
147.2969564812902
 20
831.9121723739508
 30
0.0
 41
2.0
 42
2.0
 43
2.0
 50
180.0
  0
INSERT
  5
3AC6F
330
3A84C
100
AcDbEntity
  8
30
 62
     0
440
 16777216
370
    -2
100
AcDbBlockReference
  2
_OPEN
 10
182.2969564812902
 20
831.9121723739508
 30
0.0
 41
2.0
 42
2.0
 43
2.0
  0
MTEXT
  5
3AC70
330
3A84C
100
AcDbEntity
  8
30
 62
     0
440
 16777216
100
AcDbMText
 10
164.7969564812902
 20
837.4121723739508
 30
0.0
 40
7.0
 41
0.0
 46
0.0
 71
     5
 72
     1
  1
\A1;35
 73
     1
 44
1.0
  0
POINT
  5
3AC71
330
3A84C
100
AcDbEntity
  8
DEFPOINTS
 62
     0
440
 16777216
100
AcDbPoint
 10
147.2969564812902
 20
784.9121723739508
 30
0.0
  0
POINT
  5
3AC72
330
3A84C
100
AcDbEntity
  8
DEFPOINTS
 62
     0
440
 16777216
100
AcDbPoint
 10
182.2969564812902
 20
821.9121723739501
 30
0.0
  0
POINT
  5
3AC73
330
3A84C
100
AcDbEntity
  8
DEFPOINTS
 62
     0
440
 16777216
100
AcDbPoint
 10
182.2969564812902
 20
831.9121723739508
 30
0.0
  0
ENDBLK
  5
3A84E
330
3A84C
100
AcDbEntity
  8
0
100
AcDbBlockEnd
  0
BLOCK
  5
3A859
330
3A858
100
AcDbEntity
  8
0
100
AcDbBlockBegin
  2
*D7
 70
     1
 10
0.0
 20
0.0
 30
0.0
  3
*D7
  1

  0
LINE
  5
3AC74
330
3A858
100
AcDbEntity
  8
30
 62
     0
370
    -2
100
AcDbLine
 10
311.2270991330281
 20
265.9038026596659
 30
0.0
 11
311.2270991330281
 21
265.4038026596659
 31
0.0
  0
LINE
  5
3AC75
330
3A858
100
AcDbEntity
  8
30
 62
     0
370
    -2
100
AcDbLine
 10
258.7270991330283
 20
255.9038026596659
 30
0.0
 11
258.7270991330283
 21
265.4038026596659
 31
0.0
  0
LINE
  5
3AC76
330
3A858
100
AcDbEntity
  8
30
 62
     0
370
    -2
100
AcDbLine
 10
308.2270991330282
 20
264.9038026596659
 30
0.0
 11
261.7270991330283
 21
264.9038026596659
 31
0.0
  0
INSERT
  5
3AC77
330
3A858
100
AcDbEntity
  8
30
 62
     0
370
    -2
100
AcDbBlockReference
  2
_OPEN
 10
311.2270991330281
 20
264.9038026596659
 30
0.0
 41
3.0
 42
3.0
 43
3.0
  0
INSERT
  5
3AC78
330
3A858
100
AcDbEntity
  8
30
 62
     0
370
    -2
100
AcDbBlockReference
  2
_OPEN
 10
258.7270991330283
 20
264.9038026596659
 30
0.0
 41
3.0
 42
3.0
 43
3.0
 50
180.0
  0
MTEXT
  5
3AC79
330
3A858
100
AcDbEntity
  8
30
 62
     0
100
AcDbMText
 10
284.9770991330283
 20
271.4038026596659
 30
0.0
 40
7.0
 41
0.0
 46
0.0
 71
     5
 72
     1
  1
\A1;52.5
 73
     1
 44
1.0
 90
        3
 63
     9
421
 13158600
 45
1.25
441
        0
  0
POINT
  5
3AC7A
330
3A858
100
AcDbEntity
  8
DEFPOINTS
 62
     0
100
AcDbPoint
 10
311.2270991330281
 20
264.9038026596659
 30
0.0
  0
POINT
  5
3AC7B
330
3A858
100
AcDbEntity
  8
DEFPOINTS
 62
     0
100
AcDbPoint
 10
258.7270991330283
 20
254.9038026596659
 30
0.0
  0
POINT
  5
3AC7C
330
3A858
100
AcDbEntity
  8
DEFPOINTS
 62
     0
100
AcDbPoint
 10
258.7270991330283
 20
264.9038026596659
 30
0.0
  0
ENDBLK
  5
3A85A
330
3A858
100
AcDbEntity
  8
0
100
AcDbBlockEnd
  0
BLOCK
  5
3A865
330
3A864
100
AcDbEntity
  8
0
100
AcDbBlockBegin
  2
*D8
 70
     1
 10
0.0
 20
0.0
 30
0.0
  3
*D8
  1

  0
LINE
  5
3AC7D
330
3A864
100
AcDbEntity
  8
30
 62
     0
440
 16777216
370
    -2
100
AcDbLine
 10
261.2270991330283
 20
144.4038026596659
 30
0.0
 11
261.2270991330283
 21
64.4038026596659
 31
0.0
  0
LINE
  5
3AC7E
330
3A864
100
AcDbEntity
  8
30
 62
     0
440
 16777216
370
    -2
100
AcDbLine
 10
361.2270991330283
 20
144.4038026596659
 30
0.0
 11
361.2270991330283
 21
64.4038026596659
 31
0.0
  0
LINE
  5
3AC7F
330
3A864
100
AcDbEntity
  8
30
 62
     0
440
 16777216
370
    -2
100
AcDbLine
 10
264.2270991330283
 20
64.9038026596659
 30
0.0
 11
358.2270991330283
 21
64.9038026596659
 31
0.0
  0
INSERT
  5
3AC80
330
3A864
100
AcDbEntity
  8
30
 62
     0
440
 16777216
370
    -2
100
AcDbBlockReference
  2
_OPEN
 10
261.2270991330283
 20
64.9038026596659
 30
0.0
 41
3.0
 42
3.0
 43
3.0
 50
180.0
  0
INSERT
  5
3AC81
330
3A864
100
AcDbEntity
  8
30
 62
     0
440
 16777216
370
    -2
100
AcDbBlockReference
  2
_OPEN
 10
361.2270991330283
 20
64.9038026596659
 30
0.0
 41
3.0
 42
3.0
 43
3.0
  0
MTEXT
  5
3AC82
330
3A864
100
AcDbEntity
  8
30
 62
     0
440
 16777216
100
AcDbMText
 10
311.2270991330283
 20
71.40380265966591
 30
0.0
 40
7.0
 41
0.0
 46
0.0
 71
     5
 72
     1
  1
\A1;100
 73
     1
 44
1.0
 90
        3
 63
     9
421
 13158600
 45
1.25
441
        0
  0
POINT
  5
3AC83
330
3A864
100
AcDbEntity
  8
DEFPOINTS
 62
     0
440
 16777216
100
AcDbPoint
 10
261.2270991330283
 20
145.4038026596659
 30
0.0
  0
POINT
  5
3AC84
330
3A864
100
AcDbEntity
  8
DEFPOINTS
 62
     0
440
 16777216
100
AcDbPoint
 10
361.2270991330283
 20
145.4038026596659
 30
0.0
  0
POINT
  5
3AC85
330
3A864
100
AcDbEntity
  8
DEFPOINTS
 62
     0
440
 16777216
100
AcDbPoint
 10
361.2270991330283
 20
64.9038026596659
 30
0.0
  0
ENDBLK
  5
3A866
330
3A864
100
AcDbEntity
  8
0
100
AcDbBlockEnd
  0
BLOCK
  5
3A871
330
3A870
100
AcDbEntity
  8
0
100
AcDbBlockBegin
  2
*D9
 70
     1
 10
0.0
 20
0.0
 30
0.0
  3
*D9
  1

  0
LINE
  5
3AE10
330
3A870
100
AcDbEntity
  8
30
 62
     0
440
 16777216
370
    -2
100
AcDbLine
 10
101.2969564812907
 20
443.8234042003657
 30
0.0
 11
101.2969564812907
 21
427.7822315708308
 31
0.0
  0
LINE
  5
3AE11
330
3A870
100
AcDbEntity
  8
30
 62
     0
440
 16777216
370
    -2
100
AcDbLine
 10
123.2969564812906
 20
443.8234042003657
 30
0.0
 11
123.2969564812906
 21
427.7822315708308
 31
0.0
  0
LINE
  5
3AE12
330
3A870
100
AcDbEntity
  8
30
 62
     0
440
 16777216
370
    -2
100
AcDbLine
 10
104.2969564812907
 20
428.2822315708308
 30
0.0
 11
120.2969564812906
 21
428.2822315708308
 31
0.0
  0
LINE
  5
3AE13
330
3A870
100
AcDbEntity
  8
30
 62
     0
440
 16777216
370
    -2
100
AcDbLine
 10
123.2969564812906
 20
428.2822315708308
 30
0.0
 11
146.0594149389929
 21
428.2822315708308
 31
0.0
  0
INSERT
  5
3AE14
330
3A870
100
AcDbEntity
  8
30
 62
     0
440
 16777216
370
    -2
100
AcDbBlockReference
  2
_OPEN
 10
101.2969564812907
 20
428.2822315708308
 30
0.0
 41
3.0
 42
3.0
 43
3.0
 50
180.0
  0
INSERT
  5
3AE15
330
3A870
100
AcDbEntity
  8
30
 62
     0
440
 16777216
370
    -2
100
AcDbBlockReference
  2
_OPEN
 10
123.2969564812906
 20
428.2822315708308
 30
0.0
 41
3.0
 42
3.0
 43
3.0
  0
MTEXT
  5
3AE16
330
3A870
100
AcDbEntity
  8
30
 62
     0
440
 16777216
100
AcDbMText
 10
137.2260816056596
 20
434.7822315708308
 30
0.0
 40
7.0
 41
0.0
 46
0.0
 71
     5
 72
     1
  1
\A1;22
 73
     1
 44
1.0
 90
        3
 63
     9
421
 13158600
 45
1.25
441
        0
  0
POINT
  5
3AE17
330
3A870
100
AcDbEntity
  8
DEFPOINTS
 62
     0
440
 16777216
100
AcDbPoint
 10
101.2969564812907
 20
444.8234042003658
 30
0.0
  0
POINT
  5
3AE18
330
3A870
100
AcDbEntity
  8
DEFPOINTS
 62
     0
440
 16777216
100
AcDbPoint
 10
123.2969564812906
 20
444.8234042003658
 30
0.0
  0
POINT
  5
3AE19
330
3A870
100
AcDbEntity
  8
DEFPOINTS
 62
     0
440
 16777216
100
AcDbPoint
 10
123.2969564812906
 20
428.2822315708308
 30
0.0
  0
ENDBLK
  5
3A872
330
3A870
100
AcDbEntity
  8
0
100
AcDbBlockEnd
  0
BLOCK
  5
3A87D
330
3A87C
100
AcDbEntity
  8
0
100
AcDbBlockBegin
  2
*D10
 70
     1
 10
0.0
 20
0.0
 30
0.0
  3
*D10
  1

  0
LINE
  5
3AE68
330
3A87C
100
AcDbEntity
  8
30
 62
     0
440
 16777216
370
    -2
100
AcDbLine
 10
504.0871831019351
 20
196.4038026596661
 30
0.0
 11
599.5312171695721
 21
196.4038026596661
 31
0.0
  0
LINE
  5
3AE69
330
3A87C
100
AcDbEntity
  8
30
 62
     0
440
 16777216
370
    -2
100
AcDbLine
 10
505.3864828579841
 20
148.4038026596661
 30
0.0
 11
599.5312171695721
 21
148.403802659666
 31
0.0
  0
LINE
  5
3AE6A
330
3A87C
100
AcDbEntity
  8
30
 62
     0
440
 16777216
370
    -2
100
AcDbLine
 10
599.0312171695721
 20
193.4038026596661
 30
0.0
 11
599.0312171695721
 21
151.403802659666
 31
0.0
  0
INSERT
  5
3AE6B
330
3A87C
100
AcDbEntity
  8
30
 62
     0
440
 16777216
370
    -2
100
AcDbBlockReference
  2
_OPEN
 10
599.0312171695721
 20
196.4038026596661
 30
0.0
 41
3.0
 42
3.0
 43
3.0
 50
90.0
  0
INSERT
  5
3AE6C
330
3A87C
100
AcDbEntity
  8
30
 62
     0
440
 16777216
370
    -2
100
AcDbBlockReference
  2
_OPEN
 10
599.0312171695721
 20
148.403802659666
 30
0.0
 41
3.0
 42
3.0
 43
3.0
 50
270.0
  0
MTEXT
  5
3AE6D
330
3A87C
100
AcDbEntity
  8
30
 62
     0
440
 16777216
100
AcDbMText
 10
589.0312171695722
 20
172.4038026596661
 30
0.0
 40
7.0
 41
0.0
 46
0.0
 71
     2
 72
     1
  1
\A1;48
 11
0.0000000000000001
 21
1.0
 31
0.0
 73
     1
 44
1.0
 90
        3
 63
     9
421
 13158600
 45
1.25
441
        0
  0
POINT
  5
3AE6E
330
3A87C
100
AcDbEntity
  8
DEFPOINTS
 62
     0
440
 16777216
100
AcDbPoint
 10
503.0871831019351
 20
196.4038026596661
 30
0.0
  0
POINT
  5
3AE6F
330
3A87C
100
AcDbEntity
  8
DEFPOINTS
 62
     0
440
 16777216
100
AcDbPoint
 10
504.3864828579841
 20
148.4038026596661
 30
0.0
  0
POINT
  5
3AE70
330
3A87C
100
AcDbEntity
  8
DEFPOINTS
 62
     0
440
 16777216
100
AcDbPoint
 10
599.0312171695721
 20
148.403802659666
 30
0.0
  0
ENDBLK
  5
3A87E
330
3A87C
100
AcDbEntity
  8
0
100
AcDbBlockEnd
  0
BLOCK
  5
3A889
330
3A888
100
AcDbEntity
  8
0
100
AcDbBlockBegin
  2
*D11
 70
     1
 10
0.0
 20
0.0
 30
0.0
  3
*D11
  1

  0
LINE
  5
3AC98
330
3A888
100
AcDbEntity
  8
30
  6
Continuous
 62
     0
440
 16777216
370
    -2
100
AcDbLine
 10
506.2487850770208
 20
197.7557870229333
 30
0.0
 11
510.0005933128803
 21
202.4941126365323
 31
0.0
  0
LINE
  5
3AC99
330
3A888
100
AcDbEntity
  8
30
  6
Continuous
 62
     0
440
 16777216
370
    -2
100
AcDbLine
 10
510.0005933128803
 20
202.4941126365323
 30
0.0
 11
521.3339266462137
 21
202.4941126365323
 31
0.0
  0
LINE
  5
3AC9A
330
3A888
100
AcDbEntity
  8
30
  6
Continuous
 62
     0
440
 16777216
370
    -2
100
AcDbLine
 10
504.3864828579851
 20
195.4038026596662
 30
0.0
 11
505.0072502643358
 21
196.1877974474287
 31
0.0
  0
INSERT
  5
3AC9B
330
3A888
100
AcDbEntity
  8
30
  6
Continuous
 62
     0
440
 16777216
370
    -2
100
AcDbBlockReference
  2
_OPEN
 10
505.0072502643358
 20
196.1877974474287
 30
0.0
 41
2.0
 42
2.0
 43
2.0
 50
231.6278037687641
  0
MTEXT
  5
3AC9C
330
3A888
100
AcDbEntity
  8
30
  6
Continuous
 62
     0
440
 16777216
100
AcDbMText
 10
512.0005933128803
 20
211.4941126365323
 30
0.0
 40
7.0
 41
0.0
 46
0.0
 71
     1
 72
     1
  1
\A1;R1
 73
     1
 44
1.0
  0
POINT
  5
3AC9D
330
3A888
100
AcDbEntity
  8
DEFPOINTS
  6
Continuous
 62
     0
440
 16777216
100
AcDbPoint
 10
505.0072502643358
 20
196.1877974474287
 30
0.0
  0
POINT
  5
3AC9E
330
3A888
100
AcDbEntity
  8
DEFPOINTS
  6
Continuous
 62
     0
440
 16777216
100
AcDbPoint
 10
504.3864828579851
 20
195.4038026596662
 30
0.0
  0
ENDBLK
  5
3A88A
330
3A888
100
AcDbEntity
  8
0
100
AcDbBlockEnd
  0
BLOCK
  5
3A893
330
3A892
100
AcDbEntity
  8
0
100
AcDbBlockBegin
  2
*D12
 70
     1
 10
0.0
 20
0.0
 30
0.0
  3
*D12
  1

  0
LINE
  5
3AC9F
330
3A892
100
AcDbEntity
  8
30
 62
     0
440
 16777216
370
    -2
100
AcDbLine
 10
505.3864828579841
 20
146.4038026596661
 30
0.0
 11
505.3864828579841
 21
64.42861723785933
 31
0.0
  0
LINE
  5
3ACA0
330
3A892
100
AcDbEntity
  8
30
 62
     0
440
 16777216
370
    -2
100
AcDbLine
 10
481.3864828579841
 20
146.4038026596661
 30
0.0
 11
481.3864828579841
 21
64.42861723785933
 31
0.0
  0
LINE
  5
3ACA1
330
3A892
100
AcDbEntity
  8
30
 62
     0
440
 16777216
370
    -2
100
AcDbLine
 10
503.3864828579841
 20
64.92861723785932
 30
0.0
 11
483.3864828579841
 21
64.92861723785932
 31
0.0
  0
INSERT
  5
3ACA2
330
3A892
100
AcDbEntity
  8
30
 62
     0
440
 16777216
370
    -2
100
AcDbBlockReference
  2
_OPEN
 10
505.3864828579841
 20
64.92861723785932
 30
0.0
 41
2.0
 42
2.0
 43
2.0
  0
INSERT
  5
3ACA3
330
3A892
100
AcDbEntity
  8
30
 62
     0
440
 16777216
370
    -2
100
AcDbBlockReference
  2
_OPEN
 10
481.3864828579841
 20
64.92861723785932
 30
0.0
 41
2.0
 42
2.0
 43
2.0
 50
180.0
  0
MTEXT
  5
3ACA4
330
3A892
100
AcDbEntity
  8
30
 62
     0
440
 16777216
100
AcDbMText
 10
493.3864828579841
 20
73.92861723785933
 30
0.0
 40
7.0
 41
0.0
 46
0.0
 71
     2
 72
     1
  1
\A1;24
 73
     1
 44
1.0
  0
POINT
  5
3ACA5
330
3A892
100
AcDbEntity
  8
DEFPOINTS
 62
     0
440
 16777216
100
AcDbPoint
 10
505.3864828579841
 20
149.4038026596661
 30
0.0
  0
POINT
  5
3ACA6
330
3A892
100
AcDbEntity
  8
DEFPOINTS
 62
     0
440
 16777216
100
AcDbPoint
 10
481.3864828579841
 20
149.4038026596661
 30
0.0
  0
POINT
  5
3ACA7
330
3A892
100
AcDbEntity
  8
DEFPOINTS
 62
     0
440
 16777216
100
AcDbPoint
 10
481.3864828579841
 20
64.92861723785932
 30
0.0
  0
ENDBLK
  5
3A894
330
3A892
100
AcDbEntity
  8
0
100
AcDbBlockEnd
  0
BLOCK
  5
3A89F
330
3A89E
100
AcDbEntity
  8
0
100
AcDbBlockBegin
  2
*D13
 70
     1
 10
0.0
 20
0.0
 30
0.0
  3
*D13
  1

  0
LINE
  5
3ACA8
330
3A89E
100
AcDbEntity
  8
30
  6
Continuous
 62
     0
440
 16777216
370
    -2
100
AcDbLine
 10
361.9304827294507
 20
199.9628938041195
 30
0.0
 11
365.6822909653107
 21
204.7012194177187
 31
0.0
  0
LINE
  5
3ACA9
330
3A89E
100
AcDbEntity
  8
30
  6
Continuous
 62
     0
440
 16777216
370
    -2
100
AcDbLine
 10
365.6822909653107
 20
204.7012194177187
 30
0.0
 11
377.0156242986441
 21
204.7012194177188
 31
0.0
  0
LINE
  5
3ACAA
330
3A89E
100
AcDbEntity
  8
30
  6
Continuous
 62
     0
440
 16777216
370
    -2
100
AcDbLine
 10
360.0681805104151
 20
197.6109094408525
 30
0.0
 11
360.6889479167656
 21
198.3949042286149
 31
0.0
  0
INSERT
  5
3ACAB
330
3A89E
100
AcDbEntity
  8
30
  6
Continuous
 62
     0
440
 16777216
370
    -2
100
AcDbBlockReference
  2
_OPEN
 10
360.6889479167656
 20
198.3949042286149
 30
0.0
 41
2.0
 42
2.0
 43
2.0
 50
231.6278037687626
  0
MTEXT
  5
3ACAC
330
3A89E
100
AcDbEntity
  8
30
  6
Continuous
 62
     0
440
 16777216
100
AcDbMText
 10
367.6822909653107
 20
213.7012194177188
 30
0.0
 40
7.0
 41
0.0
 46
0.0
 71
     1
 72
     1
  1
\A1;R1
 73
     1
 44
1.0
  0
POINT
  5
3ACAD
330
3A89E
100
AcDbEntity
  8
DEFPOINTS
  6
Continuous
 62
     0
440
 16777216
100
AcDbPoint
 10
360.6889479167656
 20
198.3949042286149
 30
0.0
  0
POINT
  5
3ACAE
330
3A89E
100
AcDbEntity
  8
DEFPOINTS
  6
Continuous
 62
     0
440
 16777216
100
AcDbPoint
 10
360.0681805104151
 20
197.6109094408525
 30
0.0
  0
ENDBLK
  5
3A8A0
330
3A89E
100
AcDbEntity
  8
0
100
AcDbBlockEnd
  0
BLOCK
  5
3A8A9
330
3A8A8
100
AcDbEntity
  8
0
100
AcDbBlockBegin
  2
*D14
 70
     1
 10
0.0
 20
0.0
 30
0.0
  3
*D14
  1

  0
LINE
  5
3ACAF
330
3A8A8
100
AcDbEntity
  8
30
 62
     0
440
 16777216
370
    -2
100
AcDbLine
 10
400.3714363970438
 20
398.073147510981
 30
0.0
 11
400.3714363970438
 21
356.823404200366
 31
0.0
  0
LINE
  5
3ACB0
330
3A8A8
100
AcDbEntity
  8
30
 62
     0
440
 16777216
370
    -2
100
AcDbLine
 10
460.3714363970438
 20
359.3234042003659
 30
0.0
 11
460.3714363970438
 21
356.823404200366
 31
0.0
  0
LINE
  5
3ACB1
330
3A8A8
100
AcDbEntity
  8
30
 62
     0
440
 16777216
370
    -2
100
AcDbLine
 10
402.3714363970438
 20
357.3234042003659
 30
0.0
 11
458.3714363970438
 21
357.3234042003659
 31
0.0
  0
INSERT
  5
3ACB2
330
3A8A8
100
AcDbEntity
  8
30
 62
     0
440
 16777216
370
    -2
100
AcDbBlockReference
  2
_OPEN
 10
400.3714363970438
 20
357.3234042003659
 30
0.0
 41
2.0
 42
2.0
 43
2.0
 50
180.0
  0
INSERT
  5
3ACB3
330
3A8A8
100
AcDbEntity
  8
30
 62
     0
440
 16777216
370
    -2
100
AcDbBlockReference
  2
_OPEN
 10
460.3714363970438
 20
357.3234042003659
 30
0.0
 41
2.0
 42
2.0
 43
2.0
  0
MTEXT
  5
3ACB4
330
3A8A8
100
AcDbEntity
  8
30
 62
     0
440
 16777216
100
AcDbMText
 10
430.3714363970438
 20
362.8234042003659
 30
0.0
 40
7.0
 41
0.0
 46
0.0
 71
     5
 72
     1
  1
\A1;60
 73
     1
 44
1.0
  0
POINT
  5
3ACB5
330
3A8A8
100
AcDbEntity
  8
DEFPOINTS
 62
     0
440
 16777216
100
AcDbPoint
 10
400.3714363970438
 20
401.0731475109809
 30
0.0
  0
POINT
  5
3ACB6
330
3A8A8
100
AcDbEntity
  8
DEFPOINTS
 62
     0
440
 16777216
100
AcDbPoint
 10
460.3714363970438
 20
362.3234042003659
 30
0.0
  0
POINT
  5
3ACB7
330
3A8A8
100
AcDbEntity
  8
DEFPOINTS
 62
     0
440
 16777216
100
AcDbPoint
 10
460.3714363970438
 20
357.3234042003659
 30
0.0
  0
ENDBLK
  5
3A8AA
330
3A8A8
100
AcDbEntity
  8
0
100
AcDbBlockEnd
  0
BLOCK
  5
3A8B5
330
3A8B4
100
AcDbEntity
  8
0
100
AcDbBlockBegin
  2
*D15
 70
     1
 10
0.0
 20
0.0
 30
0.0
  3
*D15
  1

  0
LINE
  5
3ACB8
330
3A8B4
100
AcDbEntity
  8
30
 62
     0
440
 16777216
370
    -2
100
AcDbLine
 10
388.3714363970439
 20
441.8234042003659
 30
0.0
 11
388.3714363970439
 21
334.3897007940808
 31
0.0
  0
LINE
  5
3ACB9
330
3A8B4
100
AcDbEntity
  8
30
 62
     0
440
 16777216
370
    -2
100
AcDbLine
 10
460.3714363970438
 20
359.3234042003659
 30
0.0
 11
460.3714363970438
 21
334.3897007940808
 31
0.0
  0
LINE
  5
3ACBA
330
3A8B4
100
AcDbEntity
  8
30
 62
     0
440
 16777216
370
    -2
100
AcDbLine
 10
390.3714363970438
 20
334.8897007940808
 30
0.0
 11
458.3714363970438
 21
334.8897007940808
 31
0.0
  0
INSERT
  5
3ACBB
330
3A8B4
100
AcDbEntity
  8
30
 62
     0
440
 16777216
370
    -2
100
AcDbBlockReference
  2
_OPEN
 10
388.3714363970439
 20
334.8897007940808
 30
0.0
 41
2.0
 42
2.0
 43
2.0
 50
180.0
  0
INSERT
  5
3ACBC
330
3A8B4
100
AcDbEntity
  8
30
 62
     0
440
 16777216
370
    -2
100
AcDbBlockReference
  2
_OPEN
 10
460.3714363970438
 20
334.8897007940808
 30
0.0
 41
2.0
 42
2.0
 43
2.0
  0
MTEXT
  5
3ACBD
330
3A8B4
100
AcDbEntity
  8
30
 62
     0
440
 16777216
100
AcDbMText
 10
424.3714363970438
 20
340.3897007940808
 30
0.0
 40
7.0
 41
0.0
 46
0.0
 71
     5
 72
     1
  1
\A1;72
 73
     1
 44
1.0
  0
POINT
  5
3ACBE
330
3A8B4
100
AcDbEntity
  8
DEFPOINTS
 62
     0
440
 16777216
100
AcDbPoint
 10
388.3714363970439
 20
444.8234042003658
 30
0.0
  0
POINT
  5
3ACBF
330
3A8B4
100
AcDbEntity
  8
DEFPOINTS
 62
     0
440
 16777216
100
AcDbPoint
 10
460.3714363970438
 20
362.3234042003659
 30
0.0
  0
POINT
  5
3ACC0
330
3A8B4
100
AcDbEntity
  8
DEFPOINTS
 62
     0
440
 16777216
100
AcDbPoint
 10
460.3714363970438
 20
334.8897007940808
 30
0.0
  0
ENDBLK
  5
3A8B6
330
3A8B4
100
AcDbEntity
  8
0
100
AcDbBlockEnd
  0
BLOCK
  5
3A8C1
330
3A8C0
100
AcDbEntity
  8
0
100
AcDbBlockBegin
  2
*D16
 70
     1
 10
0.0
 20
0.0
 30
0.0
  3
*D16
  1

  0
LINE
  5
3ACC1
330
3A8C0
100
AcDbEntity
  8
30
 62
     0
440
 16777216
370
    -2
100
AcDbLine
 10
392.3714363970439
 20
415.8234042003658
 30
0.0
 11
392.3714363970439
 21
346.0121712463418
 31
0.0
  0
LINE
  5
3ACC2
330
3A8C0
100
AcDbEntity
  8
30
 62
     0
440
 16777216
370
    -2
100
AcDbLine
 10
460.3714363970438
 20
359.3234042003659
 30
0.0
 11
460.3714363970438
 21
346.0121712463418
 31
0.0
  0
LINE
  5
3ACC3
330
3A8C0
100
AcDbEntity
  8
30
 62
     0
440
 16777216
370
    -2
100
AcDbLine
 10
394.3714363970439
 20
346.5121712463418
 30
0.0
 11
458.3714363970438
 21
346.5121712463418
 31
0.0
  0
INSERT
  5
3ACC4
330
3A8C0
100
AcDbEntity
  8
30
 62
     0
440
 16777216
370
    -2
100
AcDbBlockReference
  2
_OPEN
 10
392.3714363970439
 20
346.5121712463418
 30
0.0
 41
2.0
 42
2.0
 43
2.0
 50
180.0
  0
INSERT
  5
3ACC5
330
3A8C0
100
AcDbEntity
  8
30
 62
     0
440
 16777216
370
    -2
100
AcDbBlockReference
  2
_OPEN
 10
460.3714363970438
 20
346.5121712463418
 30
0.0
 41
2.0
 42
2.0
 43
2.0
  0
MTEXT
  5
3ACC6
330
3A8C0
100
AcDbEntity
  8
30
 62
     0
440
 16777216
100
AcDbMText
 10
426.3714363970438
 20
352.0121712463418
 30
0.0
 40
7.0
 41
0.0
 46
0.0
 71
     5
 72
     1
  1
\A1;68
 73
     1
 44
1.0
  0
POINT
  5
3ACC7
330
3A8C0
100
AcDbEntity
  8
DEFPOINTS
 62
     0
440
 16777216
100
AcDbPoint
 10
392.3714363970439
 20
418.8234042003657
 30
0.0
  0
POINT
  5
3ACC8
330
3A8C0
100
AcDbEntity
  8
DEFPOINTS
 62
     0
440
 16777216
100
AcDbPoint
 10
460.3714363970438
 20
362.3234042003659
 30
0.0
  0
POINT
  5
3ACC9
330
3A8C0
100
AcDbEntity
  8
DEFPOINTS
 62
     0
440
 16777216
100
AcDbPoint
 10
460.3714363970438
 20
346.5121712463418
 30
0.0
  0
ENDBLK
  5
3A8C2
330
3A8C0
100
AcDbEntity
  8
0
100
AcDbBlockEnd
  0
BLOCK
  5
3A8CD
330
3A8CC
100
AcDbEntity
  8
0
100
AcDbBlockBegin
  2
*D17
 70
     1
 10
0.0
 20
0.0
 30
0.0
  3
*D17
  1

  0
LINE
  5
3ACCA
330
3A8CC
100
AcDbEntity
  8
30
 62
     0
440
 16777216
370
    -2
100
AcDbLine
 10
460.3714363970438
 20
384.3234042003659
 30
0.0
 11
460.3714363970438
 21
346.0121712463418
 31
0.0
  0
LINE
  5
3ACCB
330
3A8CC
100
AcDbEntity
  8
30
 62
     0
440
 16777216
370
    -2
100
AcDbLine
 10
567.3714363970438
 20
394.8234042003659
 30
0.0
 11
567.3714363970438
 21
346.0121712463418
 31
0.0
  0
LINE
  5
3ACCC
330
3A8CC
100
AcDbEntity
  8
30
 62
     0
440
 16777216
370
    -2
100
AcDbLine
 10
462.3714363970438
 20
346.5121712463418
 30
0.0
 11
565.3714363970437
 21
346.5121712463418
 31
0.0
  0
INSERT
  5
3ACCD
330
3A8CC
100
AcDbEntity
  8
30
 62
     0
440
 16777216
370
    -2
100
AcDbBlockReference
  2
_OPEN
 10
460.3714363970438
 20
346.5121712463418
 30
0.0
 41
2.0
 42
2.0
 43
2.0
 50
180.0
  0
INSERT
  5
3ACCE
330
3A8CC
100
AcDbEntity
  8
30
 62
     0
440
 16777216
370
    -2
100
AcDbBlockReference
  2
_OPEN
 10
567.3714363970438
 20
346.5121712463418
 30
0.0
 41
2.0
 42
2.0
 43
2.0
  0
MTEXT
  5
3ACCF
330
3A8CC
100
AcDbEntity
  8
30
 62
     0
440
 16777216
100
AcDbMText
 10
513.8714363970438
 20
352.0121712463418
 30
0.0
 40
7.0
 41
0.0
 46
0.0
 71
     5
 72
     1
  1
\A1;107
 73
     1
 44
1.0
  0
POINT
  5
3ACD0
330
3A8CC
100
AcDbEntity
  8
DEFPOINTS
 62
     0
440
 16777216
100
AcDbPoint
 10
460.3714363970438
 20
387.3234042003659
 30
0.0
  0
POINT
  5
3ACD1
330
3A8CC
100
AcDbEntity
  8
DEFPOINTS
 62
     0
440
 16777216
100
AcDbPoint
 10
567.3714363970438
 20
397.8234042003659
 30
0.0
  0
POINT
  5
3ACD2
330
3A8CC
100
AcDbEntity
  8
DEFPOINTS
 62
     0
440
 16777216
100
AcDbPoint
 10
567.3714363970438
 20
346.5121712463418
 30
0.0
  0
ENDBLK
  5
3A8CE
330
3A8CC
100
AcDbEntity
  8
0
100
AcDbBlockEnd
  0
BLOCK
  5
3A8D9
330
3A8D8
100
AcDbEntity
  8
0
100
AcDbBlockBegin
  2
*D18
 70
     1
 10
0.0
 20
0.0
 30
0.0
  3
*D18
  1

  0
LINE
  5
3AE78
330
3A8D8
100
AcDbEntity
  8
30
 62
     0
440
 16777216
370
    -2
100
AcDbLine
 10
568.3930366986468
 20
538.8187755643079
 30
0.0
 11
580.8930366986468
 21
538.8187755643079
 31
0.0
  0
LINE
  5
3AE79
330
3A8D8
100
AcDbEntity
  8
30
 62
     0
440
 16777216
370
    -2
100
AcDbLine
 10
568.3930366986468
 20
544.818775564308
 30
0.0
 11
580.8930366986468
 21
544.818775564308
 31
0.0
  0
LINE
  5
3AE7A
330
3A8D8
100
AcDbEntity
  8
30
 62
     0
440
 16777216
370
    -2
100
AcDbLine
 10
580.3930366986468
 20
535.8187755643077
 30
0.0
 11
580.3930366986468
 21
532.818775564308
 31
0.0
  0
LINE
  5
3AE7B
330
3A8D8
100
AcDbEntity
  8
30
 62
     0
440
 16777216
370
    -2
100
AcDbLine
 10
580.3930366986468
 20
547.8187755643078
 30
0.0
 11
580.3930366986468
 21
561.4854422309746
 31
0.0
  0
LINE
  5
3AE7C
330
3A8D8
100
AcDbEntity
  8
30
 62
     0
440
 16777216
370
    -2
100
AcDbLine
 10
580.3930366986468
 20
538.8187755643079
 30
0.0
 11
580.3930366986468
 21
544.818775564308
 31
0.0
  0
INSERT
  5
3AE7D
330
3A8D8
100
AcDbEntity
  8
30
 62
     0
440
 16777216
370
    -2
100
AcDbBlockReference
  2
_OPEN
 10
580.3930366986468
 20
538.8187755643079
 30
0.0
 41
3.0
 42
3.0
 43
3.0
 50
90.0
  0
INSERT
  5
3AE7E
330
3A8D8
100
AcDbEntity
  8
30
 62
     0
440
 16777216
370
    -2
100
AcDbBlockReference
  2
_OPEN
 10
580.3930366986468
 20
544.818775564308
 30
0.0
 41
3.0
 42
3.0
 43
3.0
 50
270.0
  0
MTEXT
  5
3AE7F
330
3A8D8
100
AcDbEntity
  8
30
 62
     0
440
 16777216
100
AcDbMText
 10
573.8930366986465
 20
556.1521088976412
 30
0.0
 40
7.0
 41
0.0
 46
0.0
 71
     5
 72
     1
  1
\A1;6
 11
0.0000000000000001
 21
1.0
 31
0.0
 73
     1
 44
1.0
 90
        3
 63
     9
421
 13158600
 45
1.25
441
        0
  0
POINT
  5
3AE80
330
3A8D8
100
AcDbEntity
  8
DEFPOINTS
 62
     0
440
 16777216
100
AcDbPoint
 10
567.3930366986468
 20
538.8187755643079
 30
0.0
  0
POINT
  5
3AE81
330
3A8D8
100
AcDbEntity
  8
DEFPOINTS
 62
     0
440
 16777216
100
AcDbPoint
 10
567.3930366986468
 20
544.818775564308
 30
0.0
  0
POINT
  5
3AE82
330
3A8D8
100
AcDbEntity
  8
DEFPOINTS
 62
     0
440
 16777216
100
AcDbPoint
 10
580.3930366986468
 20
544.818775564308
 30
0.0
  0
ENDBLK
  5
3A8DA
330
3A8D8
100
AcDbEntity
  8
0
100
AcDbBlockEnd
  0
BLOCK
  5
3A8E8
330
3A8E7
100
AcDbEntity
  8
0
100
AcDbBlockBegin
  2
*D19
 70
     1
 10
0.0
 20
0.0
 30
0.0
  3
*D19
  1

  0
LINE
  5
3ACDD
330
3A8E7
100
AcDbEntity
  8
30
 62
     0
440
 16777216
370
    -2
100
AcDbLine
 10
510.8569333373964
 20
393.2280542975767
 30
0.0
 11
500.7063129439599
 21
393.2280542975767
 31
0.0
  0
LINE
  5
3ACDE
330
3A8E7
100
AcDbEntity
  8
30
 62
     0
440
 16777216
370
    -2
100
AcDbLine
 10
510.8544333373968
 20
402.2280542975768
 30
0.0
 11
500.7063129439599
 21
402.2280542975768
 31
0.0
  0
LINE
  5
3ACDF
330
3A8E7
100
AcDbEntity
  8
30
 62
     0
440
 16777216
370
    -2
100
AcDbLine
 10
501.2063129439598
 20
395.2280542975767
 30
0.0
 11
501.2063129439598
 21
400.2280542975769
 31
0.0
  0
LINE
  5
3ACE0
330
3A8E7
100
AcDbEntity
  8
30
 62
     0
440
 16777216
370
    -2
100
AcDbLine
 10
501.2063129439598
 20
402.2280542975768
 30
0.0
 11
501.2063129439598
 21
418.9983836350468
 31
0.0
  0
LINE
  5
3ACE1
330
3A8E7
100
AcDbEntity
  8
30
 62
     0
440
 16777216
370
    -2
100
AcDbLine
 10
501.2063129439598
 20
418.9983836350468
 30
0.0
 11
507.8729796106268
 21
418.9983836350468
 31
0.0
  0
INSERT
  5
3ACE2
330
3A8E7
100
AcDbEntity
  8
30
 62
     0
440
 16777216
370
    -2
100
AcDbBlockReference
  2
_OPEN
 10
501.2063129439598
 20
393.2280542975767
 30
0.0
 41
2.0
 42
2.0
 43
2.0
 50
270.0
  0
INSERT
  5
3ACE3
330
3A8E7
100
AcDbEntity
  8
30
 62
     0
440
 16777216
370
    -2
100
AcDbBlockReference
  2
_OPEN
 10
501.2063129439598
 20
402.2280542975768
 30
0.0
 41
2.0
 42
2.0
 43
2.0
 50
90.0
  0
MTEXT
  5
3ACE4
330
3A8E7
100
AcDbEntity
  8
30
 62
     0
440
 16777216
100
AcDbMText
 10
505.5396462772931
 20
424.498383635047
 30
0.0
 40
7.0
 41
0.0
 46
0.0
 71
     5
 72
     1
  1
\A1;9
 73
     1
 44
1.0
  0
POINT
  5
3ACE5
330
3A8E7
100
AcDbEntity
  8
DEFPOINTS
 62
     0
440
 16777216
100
AcDbPoint
 10
513.8569333373964
 20
393.2280542975767
 30
0.0
  0
POINT
  5
3ACE6
330
3A8E7
100
AcDbEntity
  8
DEFPOINTS
 62
     0
440
 16777216
100
AcDbPoint
 10
513.8544333373967
 20
402.2280542975768
 30
0.0
  0
POINT
  5
3ACE7
330
3A8E7
100
AcDbEntity
  8
DEFPOINTS
 62
     0
440
 16777216
100
AcDbPoint
 10
501.2063129439598
 20
402.2280542975768
 30
0.0
  0
ENDBLK
  5
3A8E9
330
3A8E7
100
AcDbEntity
  8
0
100
AcDbBlockEnd
  0
BLOCK
  5
3A8F6
330
3A8F5
100
AcDbEntity
  8
0
100
AcDbBlockBegin
  2
*D20
 70
     1
 10
0.0
 20
0.0
 30
0.0
  3
*D20
  1

  0
LINE
  5
3ACE8
330
3A8F5
100
AcDbEntity
  8
30
 62
     0
440
 16777216
370
    -2
100
AcDbLine
 10
565.7135447743351
 20
387.7280542975766
 30
0.0
 11
580.8930366986468
 21
387.7280542975766
 31
0.0
  0
LINE
  5
3ACE9
330
3A8F5
100
AcDbEntity
  8
30
 62
     0
440
 16777216
370
    -2
100
AcDbLine
 10
565.7135447743351
 20
407.728054297577
 30
0.0
 11
580.8930366986468
 21
407.728054297577
 31
0.0
  0
LINE
  5
3ACEA
330
3A8F5
100
AcDbEntity
  8
30
 62
     0
440
 16777216
370
    -2
100
AcDbLine
 10
580.3930366986468
 20
390.7280542975767
 30
0.0
 11
580.3930366986468
 21
404.7280542975769
 31
0.0
  0
INSERT
  5
3ACEB
330
3A8F5
100
AcDbEntity
  8
30
 62
     0
440
 16777216
370
    -2
100
AcDbBlockReference
  2
_OPEN
 10
580.3930366986468
 20
387.7280542975766
 30
0.0
 41
3.0
 42
3.0
 43
3.0
 50
270.0
  0
INSERT
  5
3ACEC
330
3A8F5
100
AcDbEntity
  8
30
 62
     0
440
 16777216
370
    -2
100
AcDbBlockReference
  2
_OPEN
 10
580.3930366986468
 20
407.728054297577
 30
0.0
 41
3.0
 42
3.0
 43
3.0
 50
90.0
  0
MTEXT
  5
3ACED
330
3A8F5
100
AcDbEntity
  8
30
 62
     0
440
 16777216
100
AcDbMText
 10
573.8930366986465
 20
397.7280542975769
 30
0.0
 40
7.0
 41
0.0
 46
0.0
 71
     5
 72
     1
  1
\A1;20
 11
0.0000000000000001
 21
1.0
 31
0.0
 73
     1
 44
1.0
 90
        3
 63
     9
421
 13158600
 45
1.25
441
        0
  0
POINT
  5
3ACEE
330
3A8F5
100
AcDbEntity
  8
DEFPOINTS
 62
     0
440
 16777216
100
AcDbPoint
 10
564.7135447743351
 20
387.7280542975766
 30
0.0
  0
POINT
  5
3ACEF
330
3A8F5
100
AcDbEntity
  8
DEFPOINTS
 62
     0
440
 16777216
100
AcDbPoint
 10
564.7135447743352
 20
407.728054297577
 30
0.0
  0
POINT
  5
3ACF0
330
3A8F5
100
AcDbEntity
  8
DEFPOINTS
 62
     0
440
 16777216
100
AcDbPoint
 10
580.3930366986468
 20
407.728054297577
 30
0.0
  0
ENDBLK
  5
3A8F7
330
3A8F5
100
AcDbEntity
  8
0
100
AcDbBlockEnd
  0
BLOCK
  5
3A902
330
3A901
100
AcDbEntity
  8
0
100
AcDbBlockBegin
  2
*D21
 70
     1
 10
0.0
 20
0.0
 30
0.0
  3
*D21
  1

  0
LINE
  5
3ACF1
330
3A901
100
AcDbEntity
  8
30
 62
     0
440
 16777216
370
    -2
100
AcDbLine
 10
551.3930366986467
 20
381.7280542975769
 30
0.0
 11
551.3930366986467
 21
376.7280542975769
 31
0.0
  0
LINE
  5
3ACF2
330
3A901
100
AcDbEntity
  8
30
 62
     0
440
 16777216
370
    -2
100
AcDbLine
 10
567.3930366986468
 20
394.7280542975769
 30
0.0
 11
567.3930366986468
 21
376.7280542975769
 31
0.0
  0
LINE
  5
3ACF3
330
3A901
100
AcDbEntity
  8
30
 62
     0
440
 16777216
370
    -2
100
AcDbLine
 10
553.3930366986465
 20
377.2280542975769
 30
0.0
 11
565.3930366986466
 21
377.2280542975769
 31
0.0
  0
INSERT
  5
3ACF4
330
3A901
100
AcDbEntity
  8
30
 62
     0
440
 16777216
370
    -2
100
AcDbBlockReference
  2
_OPEN
 10
551.3930366986467
 20
377.2280542975769
 30
0.0
 41
2.0
 42
2.0
 43
2.0
 50
180.0
  0
INSERT
  5
3ACF5
330
3A901
100
AcDbEntity
  8
30
 62
     0
440
 16777216
370
    -2
100
AcDbBlockReference
  2
_OPEN
 10
567.3930366986468
 20
377.2280542975769
 30
0.0
 41
2.0
 42
2.0
 43
2.0
  0
MTEXT
  5
3ACF6
330
3A901
100
AcDbEntity
  8
30
 62
     0
440
 16777216
100
AcDbMText
 10
559.3930366986467
 20
382.7280542975769
 30
0.0
 40
7.0
 41
0.0
 46
0.0
 71
     5
 72
     1
  1
\A1;16
 73
     1
 44
1.0
  0
POINT
  5
3ACF7
330
3A901
100
AcDbEntity
  8
DEFPOINTS
 62
     0
440
 16777216
100
AcDbPoint
 10
551.3930366986467
 20
384.7280542975769
 30
0.0
  0
POINT
  5
3ACF8
330
3A901
100
AcDbEntity
  8
DEFPOINTS
 62
     0
440
 16777216
100
AcDbPoint
 10
567.3930366986468
 20
397.7280542975769
 30
0.0
  0
POINT
  5
3ACF9
330
3A901
100
AcDbEntity
  8
DEFPOINTS
 62
     0
440
 16777216
100
AcDbPoint
 10
567.3930366986468
 20
377.2280542975769
 30
0.0
  0
ENDBLK
  5
3A903
330
3A901
100
AcDbEntity
  8
0
100
AcDbBlockEnd
  0
BLOCK
  5
3A90E
330
3A90D
100
AcDbEntity
  8
0
100
AcDbBlockBegin
  2
*D22
 70
     1
 10
0.0
 20
0.0
 30
0.0
  3
*D22
  1

  0
LINE
  5
3ACFA
330
3A90D
100
AcDbEntity
  8
30
 62
     0
440
 16777216
370
    -2
100
AcDbLine
 10
581.3714363970437
 20
397.8234042003659
 30
0.0
 11
590.8714363970438
 21
397.8234042003659
 31
0.0
  0
LINE
  5
3ACFB
330
3A90D
100
AcDbEntity
  8
30
 62
     0
440
 16777216
370
    -2
100
AcDbLine
 10
581.3714363970437
 20
541.8234042003656
 30
0.0
 11
590.8714363970438
 21
541.8234042003656
 31
0.0
  0
LINE
  5
3ACFC
330
3A90D
100
AcDbEntity
  8
30
 62
     0
440
 16777216
370
    -2
100
AcDbLine
 10
590.3714363970437
 20
400.8234042003659
 30
0.0
 11
590.3714363970437
 21
538.8234042003658
 31
0.0
  0
INSERT
  5
3ACFD
330
3A90D
100
AcDbEntity
  8
30
 62
     0
440
 16777216
370
    -2
100
AcDbBlockReference
  2
_OPEN
 10
590.3714363970437
 20
397.8234042003659
 30
0.0
 41
3.0
 42
3.0
 43
3.0
 50
270.0
  0
INSERT
  5
3ACFE
330
3A90D
100
AcDbEntity
  8
30
 62
     0
440
 16777216
370
    -2
100
AcDbBlockReference
  2
_OPEN
 10
590.3714363970437
 20
541.8234042003656
 30
0.0
 41
3.0
 42
3.0
 43
3.0
 50
90.0
  0
MTEXT
  5
3ACFF
330
3A90D
100
AcDbEntity
  8
30
 62
     0
440
 16777216
100
AcDbMText
 10
583.8714363970438
 20
469.8234042003658
 30
0.0
 40
7.0
 41
0.0
 46
0.0
 71
     5
 72
     1
  1
\A1;144
 11
0.0000000000000001
 21
1.0
 31
0.0
 73
     1
 44
1.0
 90
        3
 63
     9
421
 13158600
 45
1.25
441
        0
  0
POINT
  5
3AD00
330
3A90D
100
AcDbEntity
  8
DEFPOINTS
 62
     0
440
 16777216
100
AcDbPoint
 10
580.3714363970438
 20
397.8234042003659
 30
0.0
  0
POINT
  5
3AD01
330
3A90D
100
AcDbEntity
  8
DEFPOINTS
 62
     0
440
 16777216
100
AcDbPoint
 10
580.3714363970438
 20
541.8234042003656
 30
0.0
  0
POINT
  5
3AD02
330
3A90D
100
AcDbEntity
  8
DEFPOINTS
 62
     0
440
 16777216
100
AcDbPoint
 10
590.3714363970437
 20
541.8234042003656
 30
0.0
  0
ENDBLK
  5
3A90F
330
3A90D
100
AcDbEntity
  8
0
100
AcDbBlockEnd
  0
BLOCK
  5
3A91A
330
3A919
100
AcDbEntity
  8
0
100
AcDbBlockBegin
  2
*D23
 70
     1
 10
0.0
 20
0.0
 30
0.0
  3
*D23
  1

  0
LINE
  5
3AD03
330
3A919
100
AcDbEntity
  8
30
 62
     0
440
 16777216
370
    -2
100
AcDbLine
 10
460.3714363970438
 20
361.3234042003659
 30
0.0
 11
460.3714363970438
 21
356.823404200366
 31
0.0
  0
LINE
  5
3AD04
330
3A919
100
AcDbEntity
  8
30
 62
     0
440
 16777216
370
    -2
100
AcDbLine
 10
532.3714363970436
 20
386.2280542975769
 30
0.0
 11
532.3714363970436
 21
356.823404200366
 31
0.0
  0
LINE
  5
3AD05
330
3A919
100
AcDbEntity
  8
30
 62
     0
440
 16777216
370
    -2
100
AcDbLine
 10
463.3714363970439
 20
357.3234042003659
 30
0.0
 11
529.3714363970438
 21
357.3234042003659
 31
0.0
  0
INSERT
  5
3AD06
330
3A919
100
AcDbEntity
  8
30
 62
     0
440
 16777216
370
    -2
100
AcDbBlockReference
  2
_OPEN
 10
460.3714363970438
 20
357.3234042003659
 30
0.0
 41
3.0
 42
3.0
 43
3.0
 50
180.0
  0
INSERT
  5
3AD07
330
3A919
100
AcDbEntity
  8
30
 62
     0
440
 16777216
370
    -2
100
AcDbBlockReference
  2
_OPEN
 10
532.3714363970436
 20
357.3234042003659
 30
0.0
 41
3.0
 42
3.0
 43
3.0
  0
MTEXT
  5
3AD08
330
3A919
100
AcDbEntity
  8
30
 62
     0
440
 16777216
100
AcDbMText
 10
490.628348358854
 20
363.8234042003659
 30
0.0
 40
7.0
 41
0.0
 46
0.0
 71
     5
 72
     1
  1
\A1;72
 73
     1
 44
1.0
 90
        3
 63
     9
421
 13158600
 45
1.25
441
        0
  0
POINT
  5
3AD09
330
3A919
100
AcDbEntity
  8
DEFPOINTS
 62
     0
440
 16777216
100
AcDbPoint
 10
460.3714363970438
 20
362.3234042003659
 30
0.0
  0
POINT
  5
3AD0A
330
3A919
100
AcDbEntity
  8
DEFPOINTS
 62
     0
440
 16777216
100
AcDbPoint
 10
532.3714363970436
 20
387.228054297577
 30
0.0
  0
POINT
  5
3AD0B
330
3A919
100
AcDbEntity
  8
DEFPOINTS
 62
     0
440
 16777216
100
AcDbPoint
 10
532.3714363970436
 20
357.3234042003659
 30
0.0
  0
ENDBLK
  5
3A91B
330
3A919
100
AcDbEntity
  8
0
100
AcDbBlockEnd
  0
BLOCK
  5
3A932
330
3A931
100
AcDbEntity
  8
0
100
AcDbBlockBegin
  2
*D24
 70
     1
 10
0.0
 20
0.0
 30
0.0
  3
*D24
  1

  0
LINE
  5
3ADAA
330
3A931
100
AcDbEntity
  8
30
 62
     0
440
 16777216
370
    -2
100
AcDbLine
 10
387.3714363970439
 20
494.8234042003655
 30
0.0
 11
352.5417607466362
 21
494.8234042003658
 31
0.0
  0
LINE
  5
3ADAB
330
3A931
100
AcDbEntity
  8
30
 62
     0
440
 16777216
370
    -2
100
AcDbLine
 10
387.3714363970439
 20
444.8234042003655
 30
0.0
 11
352.5417607466362
 21
444.8234042003658
 31
0.0
  0
LINE
  5
3ADAC
330
3A931
100
AcDbEntity
  8
30
 62
     0
440
 16777216
370
    -2
100
AcDbLine
 10
353.0417607466362
 20
491.8234042003658
 30
0.0
 11
353.0417607466362
 21
447.8234042003657
 31
0.0
  0
INSERT
  5
3ADAD
330
3A931
100
AcDbEntity
  8
30
 62
     0
440
 16777216
370
    -2
100
AcDbBlockReference
  2
_OPEN
 10
353.0417607466362
 20
494.8234042003658
 30
0.0
 41
3.0
 42
3.0
 43
3.0
 50
90.0
  0
INSERT
  5
3ADAE
330
3A931
100
AcDbEntity
  8
30
 62
     0
440
 16777216
370
    -2
100
AcDbBlockReference
  2
_OPEN
 10
353.0417607466362
 20
444.8234042003658
 30
0.0
 41
3.0
 42
3.0
 43
3.0
 50
270.0
  0
MTEXT
  5
3ADAF
330
3A931
100
AcDbEntity
  8
30
 62
     0
440
 16777216
100
AcDbMText
 10
346.5417607466361
 20
469.8234042003658
 30
0.0
 40
7.0
 41
0.0
 46
0.0
 71
     5
 72
     1
  1
\A1;50
 11
0.0000000000000001
 21
1.0
 31
0.0
 73
     1
 44
1.0
 90
        3
 63
     9
421
 13158600
 45
1.25
441
        0
  0
POINT
  5
3ADB0
330
3A931
100
AcDbEntity
  8
DEFPOINTS
 62
     0
440
 16777216
100
AcDbPoint
 10
388.3714363970439
 20
494.8234042003655
 30
0.0
  0
POINT
  5
3ADB1
330
3A931
100
AcDbEntity
  8
DEFPOINTS
 62
     0
440
 16777216
100
AcDbPoint
 10
388.3714363970439
 20
444.8234042003655
 30
0.0
  0
POINT
  5
3ADB2
330
3A931
100
AcDbEntity
  8
DEFPOINTS
 62
     0
440
 16777216
100
AcDbPoint
 10
353.0417607466362
 20
444.8234042003658
 30
0.0
  0
ENDBLK
  5
3A933
330
3A931
100
AcDbEntity
  8
0
100
AcDbBlockEnd
  0
BLOCK
  5
3A94A
330
3A949
100
AcDbEntity
  8
0
100
AcDbBlockBegin
  2
*D25
 70
     1
 10
0.0
 20
0.0
 30
0.0
  3
*D25
  1

  0
LINE
  5
3AE83
330
3A949
100
AcDbEntity
  8
30
 62
     0
440
 16777216
370
    -2
100
AcDbLine
 10
532.3714363970436
 20
381.228054297577
 30
0.0
 11
532.3714363970436
 21
364.3169675900836
 31
0.0
  0
LINE
  5
3AE84
330
3A949
100
AcDbEntity
  8
30
 62
     0
440
 16777216
370
    -2
100
AcDbLine
 10
519.3714363970436
 20
381.228054297577
 30
0.0
 11
519.3714363970436
 21
364.3169675900836
 31
0.0
  0
LINE
  5
3AE85
330
3A949
100
AcDbEntity
  8
30
 62
     0
440
 16777216
370
    -2
100
AcDbLine
 10
530.3714363970438
 20
364.8169675900835
 30
0.0
 11
521.3714363970438
 21
364.8169675900835
 31
0.0
  0
INSERT
  5
3AE86
330
3A949
100
AcDbEntity
  8
30
 62
     0
440
 16777216
370
    -2
100
AcDbBlockReference
  2
_OPEN
 10
532.3714363970436
 20
364.8169675900835
 30
0.0
 41
2.0
 42
2.0
 43
2.0
  0
INSERT
  5
3AE87
330
3A949
100
AcDbEntity
  8
30
 62
     0
440
 16777216
370
    -2
100
AcDbBlockReference
  2
_OPEN
 10
519.3714363970436
 20
364.8169675900835
 30
0.0
 41
2.0
 42
2.0
 43
2.0
 50
180.0
  0
MTEXT
  5
3AE88
330
3A949
100
AcDbEntity
  8
30
 62
     0
440
 16777216
100
AcDbMText
 10
526.5544430085253
 20
370.3169675900836
 30
0.0
 40
7.0
 41
0.0
 46
0.0
 71
     5
 72
     1
  1
\A1;13
 73
     1
 44
1.0
  0
POINT
  5
3AE89
330
3A949
100
AcDbEntity
  8
DEFPOINTS
 62
     0
440
 16777216
100
AcDbPoint
 10
532.3714363970436
 20
384.2280542975769
 30
0.0
  0
POINT
  5
3AE8A
330
3A949
100
AcDbEntity
  8
DEFPOINTS
 62
     0
440
 16777216
100
AcDbPoint
 10
519.3714363970436
 20
384.2280542975769
 30
0.0
  0
POINT
  5
3AE8B
330
3A949
100
AcDbEntity
  8
DEFPOINTS
 62
     0
440
 16777216
100
AcDbPoint
 10
519.3714363970436
 20
364.8169675900835
 30
0.0
  0
ENDBLK
  5
3A94B
330
3A949
100
AcDbEntity
  8
0
100
AcDbBlockEnd
  0
BLOCK
  5
3A956
330
3A955
100
AcDbEntity
  8
0
100
AcDbBlockBegin
  2
*D26
 70
     1
 10
0.0
 20
0.0
 30
0.0
  3
*D26
  1

  0
LINE
  5
3AD30
330
3A955
100
AcDbEntity
  8
30
 62
     0
440
 16777216
370
    -2
100
AcDbLine
 10
519.3714363970436
 20
381.7200313284102
 30
0.0
 11
519.3714363970436
 21
364.3169675900836
 31
0.0
  0
LINE
  5
3AD31
330
3A955
100
AcDbEntity
  8
30
 62
     0
440
 16777216
370
    -2
100
AcDbLine
 10
513.3714363970438
 20
381.7200313284102
 30
0.0
 11
513.3714363970438
 21
364.3169675900836
 31
0.0
  0
LINE
  5
3AD32
330
3A955
100
AcDbEntity
  8
30
 62
     0
440
 16777216
370
    -2
100
AcDbLine
 10
521.3714363970438
 20
364.8169675900835
 30
0.0
 11
523.3714363970436
 21
364.8169675900835
 31
0.0
  0
LINE
  5
3AD33
330
3A955
100
AcDbEntity
  8
30
 62
     0
440
 16777216
370
    -2
100
AcDbLine
 10
511.3714363970438
 20
364.8169675900835
 30
0.0
 11
500.7047697303772
 21
364.8169675900835
 31
0.0
  0
LINE
  5
3AD34
330
3A955
100
AcDbEntity
  8
30
 62
     0
440
 16777216
370
    -2
100
AcDbLine
 10
519.3714363970436
 20
364.8169675900835
 30
0.0
 11
513.3714363970438
 21
364.8169675900835
 31
0.0
  0
INSERT
  5
3AD35
330
3A955
100
AcDbEntity
  8
30
 62
     0
440
 16777216
370
    -2
100
AcDbBlockReference
  2
_OPEN
 10
519.3714363970436
 20
364.8169675900835
 30
0.0
 41
2.0
 42
2.0
 43
2.0
 50
180.0
  0
INSERT
  5
3AD36
330
3A955
100
AcDbEntity
  8
30
 62
     0
440
 16777216
370
    -2
100
AcDbBlockReference
  2
_OPEN
 10
513.3714363970438
 20
364.8169675900835
 30
0.0
 41
2.0
 42
2.0
 43
2.0
  0
MTEXT
  5
3AD37
330
3A955
100
AcDbEntity
  8
30
 62
     0
440
 16777216
100
AcDbMText
 10
505.0381030637105
 20
370.3169675900836
 30
0.0
 40
7.0
 41
0.0
 46
0.0
 71
     5
 72
     1
  1
\A1;6
 73
     1
 44
1.0
  0
POINT
  5
3AD38
330
3A955
100
AcDbEntity
  8
DEFPOINTS
 62
     0
440
 16777216
100
AcDbPoint
 10
519.3714363970436
 20
384.7200313284101
 30
0.0
  0
POINT
  5
3AD39
330
3A955
100
AcDbEntity
  8
DEFPOINTS
 62
     0
440
 16777216
100
AcDbPoint
 10
513.3714363970438
 20
384.7200313284101
 30
0.0
  0
POINT
  5
3AD3A
330
3A955
100
AcDbEntity
  8
DEFPOINTS
 62
     0
440
 16777216
100
AcDbPoint
 10
513.3714363970438
 20
364.8169675900835
 30
0.0
  0
ENDBLK
  5
3A957
330
3A955
100
AcDbEntity
  8
0
100
AcDbBlockEnd
  0
BLOCK
  5
3A964
330
3A963
100
AcDbEntity
  8
0
100
AcDbBlockBegin
  2
*D27
 70
     1
 10
0.0
 20
0.0
 30
0.0
  3
*D27
  1

  0
LINE
  5
3ADF4
330
3A963
100
AcDbEntity
  8
30
 62
     0
440
 16777216
370
    -2
100
AcDbLine
 10
388.3714363970439
 20
441.8234042003659
 30
0.0
 11
388.3714363970439
 21
334.3897007940808
 31
0.0
  0
LINE
  5
3ADF5
330
3A963
100
AcDbEntity
  8
30
 62
     0
440
 16777216
370
    -2
100
AcDbLine
 10
381.8714363970439
 20
441.8234042003659
 30
0.0
 11
381.8714363970439
 21
334.3897007940808
 31
0.0
  0
LINE
  5
3ADF6
330
3A963
100
AcDbEntity
  8
30
 62
     0
440
 16777216
370
    -2
100
AcDbLine
 10
390.3714363970438
 20
334.8897007940808
 30
0.0
 11
392.3714363970439
 21
334.8897007940808
 31
0.0
  0
LINE
  5
3ADF7
330
3A963
100
AcDbEntity
  8
30
 62
     0
440
 16777216
370
    -2
100
AcDbLine
 10
379.8714363970439
 20
334.8897007940808
 30
0.0
 11
345.932045339503
 21
334.8897007940808
 31
0.0
  0
LINE
  5
3ADF8
330
3A963
100
AcDbEntity
  8
30
 62
     0
440
 16777216
370
    -2
100
AcDbLine
 10
388.3714363970439
 20
334.8897007940808
 30
0.0
 11
381.8714363970439
 21
334.8897007940808
 31
0.0
  0
INSERT
  5
3ADF9
330
3A963
100
AcDbEntity
  8
30
 62
     0
440
 16777216
370
    -2
100
AcDbBlockReference
  2
_OPEN
 10
388.3714363970439
 20
334.8897007940808
 30
0.0
 41
2.0
 42
2.0
 43
2.0
 50
180.0
  0
INSERT
  5
3ADFA
330
3A963
100
AcDbEntity
  8
30
 62
     0
440
 16777216
370
    -2
100
AcDbBlockReference
  2
_OPEN
 10
381.8714363970439
 20
334.8897007940808
 30
0.0
 41
2.0
 42
2.0
 43
2.0
  0
MTEXT
  5
3ADFB
330
3A963
100
AcDbEntity
  8
30
 62
     0
440
 16777216
100
AcDbMText
 10
354.932045339503
 20
340.3897007940808
 30
0.0
 40
7.0
 41
0.0
 46
0.0
 71
     5
 72
     1
  1
\A1;6.5
 73
     1
 44
1.0
  0
POINT
  5
3ADFC
330
3A963
100
AcDbEntity
  8
DEFPOINTS
 62
     0
440
 16777216
100
AcDbPoint
 10
388.3714363970439
 20
444.8234042003658
 30
0.0
  0
POINT
  5
3ADFD
330
3A963
100
AcDbEntity
  8
DEFPOINTS
 62
     0
440
 16777216
100
AcDbPoint
 10
381.8714363970439
 20
444.8234042003658
 30
0.0
  0
POINT
  5
3ADFE
330
3A963
100
AcDbEntity
  8
DEFPOINTS
 62
     0
440
 16777216
100
AcDbPoint
 10
381.8714363970439
 20
334.8897007940808
 30
0.0
  0
ENDBLK
  5
3A965
330
3A963
100
AcDbEntity
  8
0
100
AcDbBlockEnd
  0
BLOCK
  5
3A972
330
3A971
100
AcDbEntity
  8
0
100
AcDbBlockBegin
  2
*D28
 70
     1
 10
0.0
 20
0.0
 30
0.0
  3
*D28
  1

  0
LINE
  5
3AD46
330
3A971
100
AcDbEntity
  8
30
 62
     0
440
 16777216
370
    -2
100
AcDbLine
 10
519.3714363970436
 20
413.2441002359104
 30
0.0
 11
519.3714363970436
 21
433.2274977226155
 31
0.0
  0
LINE
  5
3AD47
330
3A971
100
AcDbEntity
  8
30
 62
     0
440
 16777216
370
    -2
100
AcDbLine
 10
495.3714363970438
 20
413.2441002359104
 30
0.0
 11
495.3714363970438
 21
433.2274977226155
 31
0.0
  0
LINE
  5
3AD48
330
3A971
100
AcDbEntity
  8
30
 62
     0
440
 16777216
370
    -2
100
AcDbLine
 10
517.3714363970438
 20
432.7274977226152
 30
0.0
 11
497.3714363970438
 21
432.7274977226152
 31
0.0
  0
INSERT
  5
3AD49
330
3A971
100
AcDbEntity
  8
30
 62
     0
440
 16777216
370
    -2
100
AcDbBlockReference
  2
_OPEN
 10
519.3714363970436
 20
432.7274977226152
 30
0.0
 41
2.0
 42
2.0
 43
2.0
  0
INSERT
  5
3AD4A
330
3A971
100
AcDbEntity
  8
30
 62
     0
440
 16777216
370
    -2
100
AcDbBlockReference
  2
_OPEN
 10
495.3714363970438
 20
432.7274977226152
 30
0.0
 41
2.0
 42
2.0
 43
2.0
 50
180.0
  0
MTEXT
  5
3AD4B
330
3A971
100
AcDbEntity
  8
30
 62
     0
440
 16777216
100
AcDbMText
 10
507.3714363970438
 20
438.2274977226153
 30
0.0
 40
7.0
 41
0.0
 46
0.0
 71
     5
 72
     1
  1
\A1;24
 73
     1
 44
1.0
  0
POINT
  5
3AD4C
330
3A971
100
AcDbEntity
  8
DEFPOINTS
 62
     0
440
 16777216
100
AcDbPoint
 10
519.3714363970436
 20
410.2441002359102
 30
0.0
  0
POINT
  5
3AD4D
330
3A971
100
AcDbEntity
  8
DEFPOINTS
 62
     0
440
 16777216
100
AcDbPoint
 10
495.3714363970438
 20
410.2441002359102
 30
0.0
  0
POINT
  5
3AD4E
330
3A971
100
AcDbEntity
  8
DEFPOINTS
 62
     0
440
 16777216
100
AcDbPoint
 10
495.3714363970438
 20
432.7274977226152
 30
0.0
  0
ENDBLK
  5
3A973
330
3A971
100
AcDbEntity
  8
0
100
AcDbBlockEnd
  0
BLOCK
  5
3A97E
330
3A97D
100
AcDbEntity
  8
0
100
AcDbBlockBegin
  2
*D29
 70
     1
 10
0.0
 20
0.0
 30
0.0
  3
*D29
  1

  0
LINE
  5
3AD4F
330
3A97D
100
AcDbEntity
  8
30
 62
     0
440
 16777216
370
    -2
100
AcDbLine
 10
551.3831622750569
 20
413.7360772667434
 30
0.0
 11
551.3831622750569
 21
433.2274977226155
 31
0.0
  0
LINE
  5
3AD50
330
3A97D
100
AcDbEntity
  8
30
 62
     0
440
 16777216
370
    -2
100
AcDbLine
 10
530.3831622750569
 20
413.7360772667434
 30
0.0
 11
530.3831622750569
 21
433.2274977226155
 31
0.0
  0
LINE
  5
3AD51
330
3A97D
100
AcDbEntity
  8
30
 62
     0
440
 16777216
370
    -2
100
AcDbLine
 10
549.3831622750568
 20
432.7274977226152
 30
0.0
 11
532.3831622750568
 21
432.7274977226152
 31
0.0
  0
INSERT
  5
3AD52
330
3A97D
100
AcDbEntity
  8
30
 62
     0
440
 16777216
370
    -2
100
AcDbBlockReference
  2
_OPEN
 10
551.3831622750569
 20
432.7274977226152
 30
0.0
 41
2.0
 42
2.0
 43
2.0
  0
INSERT
  5
3AD53
330
3A97D
100
AcDbEntity
  8
30
 62
     0
440
 16777216
370
    -2
100
AcDbBlockReference
  2
_OPEN
 10
530.3831622750569
 20
432.7274977226152
 30
0.0
 41
2.0
 42
2.0
 43
2.0
 50
180.0
  0
MTEXT
  5
3AD54
330
3A97D
100
AcDbEntity
  8
30
 62
     0
440
 16777216
100
AcDbMText
 10
540.8831622750568
 20
438.2274977226153
 30
0.0
 40
7.0
 41
0.0
 46
0.0
 71
     5
 72
     1
  1
\A1;21
 73
     1
 44
1.0
  0
POINT
  5
3AD55
330
3A97D
100
AcDbEntity
  8
DEFPOINTS
 62
     0
440
 16777216
100
AcDbPoint
 10
551.3831622750569
 20
410.7360772667433
 30
0.0
  0
POINT
  5
3AD56
330
3A97D
100
AcDbEntity
  8
DEFPOINTS
 62
     0
440
 16777216
100
AcDbPoint
 10
530.3831622750569
 20
410.7360772667433
 30
0.0
  0
POINT
  5
3AD57
330
3A97D
100
AcDbEntity
  8
DEFPOINTS
 62
     0
440
 16777216
100
AcDbPoint
 10
530.3831622750569
 20
432.7274977226152
 30
0.0
  0
ENDBLK
  5
3A97F
330
3A97D
100
AcDbEntity
  8
0
100
AcDbBlockEnd
  0
BLOCK
  5
3A98A
330
3A989
100
AcDbEntity
  8
0
100
AcDbBlockBegin
  2
*D30
 70
     1
 10
0.0
 20
0.0
 30
0.0
  3
*D30
  1

  0
LINE
  5
3AD58
330
3A989
100
AcDbEntity
  8
30
 62
     0
440
 16777216
370
    -2
100
AcDbLine
 10
89.79695648129018
 20
719.9121723739501
 30
0.0
 11
36.75649335307916
 21
719.9121723739501
 31
0.0
  0
LINE
  5
3AD59
330
3A989
100
AcDbEntity
  8
30
 62
     0
440
 16777216
370
    -2
100
AcDbLine
 10
89.79695648129018
 20
712.9121723739504
 30
0.0
 11
36.75649335307916
 21
712.9121723739504
 31
0.0
  0
LINE
  5
3AD5A
330
3A989
100
AcDbEntity
  8
30
 62
     0
440
 16777216
370
    -2
100
AcDbLine
 10
37.25649335307916
 20
710.9121723739502
 30
0.0
 11
37.25649335307916
 21
708.9121723739504
 31
0.0
  0
LINE
  5
3AD5B
330
3A989
100
AcDbEntity
  8
30
 62
     0
440
 16777216
370
    -2
100
AcDbLine
 10
37.25649335307917
 20
721.9121723739504
 30
0.0
 11
37.25649335307917
 21
732.4184748114596
 31
0.0
  0
LINE
  5
3AD5C
330
3A989
100
AcDbEntity
  8
30
 62
     0
440
 16777216
370
    -2
100
AcDbLine
 10
37.25649335307917
 20
732.4184748114596
 30
0.0
 11
43.92316001974583
 21
732.4184748114596
 31
0.0
  0
LINE
  5
3AD5D
330
3A989
100
AcDbEntity
  8
30
 62
     0
440
 16777216
370
    -2
100
AcDbLine
 10
37.25649335307916
 20
712.9121723739504
 30
0.0
 11
37.25649335307916
 21
719.9121723739501
 31
0.0
  0
INSERT
  5
3AD5E
330
3A989
100
AcDbEntity
  8
30
 62
     0
440
 16777216
370
    -2
100
AcDbBlockReference
  2
_OPEN
 10
37.25649335307916
 20
712.9121723739504
 30
0.0
 41
2.0
 42
2.0
 43
2.0
 50
90.0
  0
INSERT
  5
3AD5F
330
3A989
100
AcDbEntity
  8
30
 62
     0
440
 16777216
370
    -2
100
AcDbBlockReference
  2
_OPEN
 10
37.25649335307916
 20
719.9121723739501
 30
0.0
 41
2.0
 42
2.0
 43
2.0
 50
270.0
  0
MTEXT
  5
3AD60
330
3A989
100
AcDbEntity
  8
30
 62
     0
440
 16777216
100
AcDbMText
 10
41.58982668641238
 20
737.9184748114596
 30
0.0
 40
7.0
 41
0.0
 46
0.0
 71
     5
 72
     1
  1
\A1;7
 73
     1
 44
1.0
  0
POINT
  5
3AD61
330
3A989
100
AcDbEntity
  8
DEFPOINTS
 62
     0
440
 16777216
100
AcDbPoint
 10
92.7969564812902
 20
719.9121723739501
 30
0.0
  0
POINT
  5
3AD62
330
3A989
100
AcDbEntity
  8
DEFPOINTS
 62
     0
440
 16777216
100
AcDbPoint
 10
92.7969564812902
 20
712.9121723739504
 30
0.0
  0
POINT
  5
3AD63
330
3A989
100
AcDbEntity
  8
DEFPOINTS
 62
     0
440
 16777216
100
AcDbPoint
 10
37.25649335307916
 20
712.9121723739504
 30
0.0
  0
ENDBLK
  5
3A98B
330
3A989
100
AcDbEntity
  8
0
100
AcDbBlockEnd
  0
BLOCK
  5
3A999
330
3A998
100
AcDbEntity
  8
0
100
AcDbBlockBegin
  2
*D31
 70
     1
 10
0.0
 20
0.0
 30
0.0
  3
*D31
  1

  0
LINE
  5
3AD64
330
3A998
100
AcDbEntity
  8
30
 62
     0
440
 16777216
370
    -2
100
AcDbLine
 10
359.9277993769791
 20
198.4038026596659
 30
0.0
 11
415.1540108867246
 21
198.4038026596659
 31
0.0
  0
LINE
  5
3AD65
330
3A998
100
AcDbEntity
  8
30
 62
     0
440
 16777216
370
    -2
100
AcDbLine
 10
361.2270991330283
 20
146.4038026596659
 30
0.0
 11
415.1540108867246
 21
146.4038026596659
 31
0.0
  0
LINE
  5
3AD66
330
3A998
100
AcDbEntity
  8
30
 62
     0
440
 16777216
370
    -2
100
AcDbLine
 10
414.6540108867246
 20
195.4038026596659
 30
0.0
 11
414.6540108867246
 21
149.4038026596659
 31
0.0
  0
INSERT
  5
3AD67
330
3A998
100
AcDbEntity
  8
30
 62
     0
440
 16777216
370
    -2
100
AcDbBlockReference
  2
_OPEN
 10
414.6540108867246
 20
198.4038026596659
 30
0.0
 41
3.0
 42
3.0
 43
3.0
 50
90.0
  0
INSERT
  5
3AD68
330
3A998
100
AcDbEntity
  8
30
 62
     0
440
 16777216
370
    -2
100
AcDbBlockReference
  2
_OPEN
 10
414.6540108867246
 20
146.4038026596659
 30
0.0
 41
3.0
 42
3.0
 43
3.0
 50
270.0
  0
MTEXT
  5
3AD69
330
3A998
100
AcDbEntity
  8
30
 62
     0
440
 16777216
100
AcDbMText
 10
404.6540108867246
 20
172.4038026596659
 30
0.0
 40
7.0
 41
0.0
 46
0.0
 71
     2
 72
     1
  1
\A1;52
 11
0.0000000000000001
 21
1.0
 31
0.0
 73
     1
 44
1.0
 90
        3
 63
     9
421
 13158600
 45
1.25
441
        0
  0
POINT
  5
3AD6A
330
3A998
100
AcDbEntity
  8
DEFPOINTS
 62
     0
440
 16777216
100
AcDbPoint
 10
358.9277993769791
 20
198.4038026596659
 30
0.0
  0
POINT
  5
3AD6B
330
3A998
100
AcDbEntity
  8
DEFPOINTS
 62
     0
440
 16777216
100
AcDbPoint
 10
360.2270991330283
 20
146.4038026596659
 30
0.0
  0
POINT
  5
3AD6C
330
3A998
100
AcDbEntity
  8
DEFPOINTS
 62
     0
440
 16777216
100
AcDbPoint
 10
414.6540108867246
 20
146.4038026596659
 30
0.0
  0
ENDBLK
  5
3A99A
330
3A998
100
AcDbEntity
  8
0
100
AcDbBlockEnd
  0
BLOCK
  5
3A9A5
330
3A9A4
100
AcDbEntity
  8
0
100
AcDbBlockBegin
  2
*D32
 70
     1
 10
0.0
 20
0.0
 30
0.0
  3
*D32
  1

  0
LINE
  5
3AE3E
330
3A9A4
100
AcDbEntity
  8
30
 62
     0
370
    -2
100
AcDbLine
 10
63.29695648129064
 20
495.8234042003659
 30
0.0
 11
63.29695648129064
 21
503.296727609728
 31
0.0
  0
LINE
  5
3AE3F
330
3A9A4
100
AcDbEntity
  8
30
 62
     0
370
    -2
100
AcDbLine
 10
161.2969564812904
 20
495.8234042003659
 30
0.0
 11
161.2969564812904
 21
503.296727609728
 31
0.0
  0
LINE
  5
3AE40
330
3A9A4
100
AcDbEntity
  8
30
 62
     0
370
    -2
100
AcDbLine
 10
66.29695648129064
 20
502.796727609728
 30
0.0
 11
158.2969564812904
 21
502.796727609728
 31
0.0
  0
INSERT
  5
3AE41
330
3A9A4
100
AcDbEntity
  8
30
 62
     0
370
    -2
100
AcDbBlockReference
  2
_OPEN
 10
63.29695648129064
 20
502.796727609728
 30
0.0
 41
3.0
 42
3.0
 43
3.0
 50
180.0
  0
INSERT
  5
3AE42
330
3A9A4
100
AcDbEntity
  8
30
 62
     0
370
    -2
100
AcDbBlockReference
  2
_OPEN
 10
161.2969564812904
 20
502.796727609728
 30
0.0
 41
3.0
 42
3.0
 43
3.0
  0
MTEXT
  5
3AE43
330
3A9A4
100
AcDbEntity
  8
30
 62
     0
100
AcDbMText
 10
123.2298555714697
 20
509.2967276097279
 30
0.0
 40
7.0
 41
0.0
 46
0.0
 71
     5
 72
     1
  1
\A1;98
 73
     1
 44
1.0
 90
        3
 63
     9
421
 13158600
 45
1.25
441
        0
  0
POINT
  5
3AE44
330
3A9A4
100
AcDbEntity
  8
DEFPOINTS
 62
     0
100
AcDbPoint
 10
63.29695648129064
 20
494.8234042003658
 30
0.0
  0
POINT
  5
3AE45
330
3A9A4
100
AcDbEntity
  8
DEFPOINTS
 62
     0
100
AcDbPoint
 10
161.2969564812904
 20
494.8234042003658
 30
0.0
  0
POINT
  5
3AE46
330
3A9A4
100
AcDbEntity
  8
DEFPOINTS
 62
     0
100
AcDbPoint
 10
161.2969564812904
 20
502.796727609728
 30
0.0
  0
ENDBLK
  5
3A9A6
330
3A9A4
100
AcDbEntity
  8
0
100
AcDbBlockEnd
  0
BLOCK
  5
3A9B1
330
3A9B0
100
AcDbEntity
  8
0
100
AcDbBlockBegin
  2
*D33
 70
     1
 10
0.0
 20
0.0
 30
0.0
  3
*D33
  1

  0
LINE
  5
3AEA5
330
3A9B0
100
AcDbEntity
  8
30
 62
     0
440
 16777216
370
    -2
100
AcDbLine
 10
136.2969564812906
 20
235.4038026596659
 30
0.0
 11
220.2969564812903
 21
235.4038026596658
 31
0.0
  0
LINE
  5
3AEA6
330
3A9B0
100
AcDbEntity
  8
30
 62
     0
440
 16777216
370
    -2
100
AcDbLine
 10
136.2969564812906
 20
109.4038026596657
 30
0.0
 11
220.2969564812902
 21
109.4038026596657
 31
0.0
  0
LINE
  5
3AEA7
330
3A9B0
100
AcDbEntity
  8
30
 62
     0
440
 16777216
370
    -2
100
AcDbLine
 10
219.7969564812902
 20
232.4038026596658
 30
0.0
 11
219.7969564812902
 21
112.4038026596657
 31
0.0
  0
INSERT
  5
3AEA8
330
3A9B0
100
AcDbEntity
  8
30
 62
     0
440
 16777216
370
    -2
100
AcDbBlockReference
  2
_OPEN
 10
219.7969564812902
 20
235.4038026596658
 30
0.0
 41
3.0
 42
3.0
 43
3.0
 50
90.0
  0
INSERT
  5
3AEA9
330
3A9B0
100
AcDbEntity
  8
30
 62
     0
440
 16777216
370
    -2
100
AcDbBlockReference
  2
_OPEN
 10
219.7969564812902
 20
109.4038026596657
 30
0.0
 41
3.0
 42
3.0
 43
3.0
 50
270.0
  0
MTEXT
  5
3AEAA
330
3A9B0
100
AcDbEntity
  8
30
 62
     0
440
 16777216
100
AcDbMText
 10
213.2969564812902
 20
172.4038026596657
 30
0.0
 40
7.0
 41
0.0
 46
0.0
 71
     5
 72
     1
  1
\A1;126
 11
0.0000000000000001
 21
1.0
 31
0.0
 73
     1
 44
1.0
 90
        3
 63
     9
421
 13158600
 45
1.25
441
        0
  0
POINT
  5
3AEAB
330
3A9B0
100
AcDbEntity
  8
DEFPOINTS
 62
     0
440
 16777216
100
AcDbPoint
 10
135.2969564812906
 20
235.4038026596659
 30
0.0
  0
POINT
  5
3AEAC
330
3A9B0
100
AcDbEntity
  8
DEFPOINTS
 62
     0
440
 16777216
100
AcDbPoint
 10
135.2969564812906
 20
109.4038026596657
 30
0.0
  0
POINT
  5
3AEAD
330
3A9B0
100
AcDbEntity
  8
DEFPOINTS
 62
     0
440
 16777216
100
AcDbPoint
 10
219.7969564812902
 20
109.4038026596657
 30
0.0
  0
ENDBLK
  5
3A9B2
330
3A9B0
100
AcDbEntity
  8
0
100
AcDbBlockEnd
  0
BLOCK
  5
3A9BD
330
3A9BC
100
AcDbEntity
  8
0
100
AcDbBlockBegin
  2
*D34
 70
     1
 10
0.0
 20
0.0
 30
0.0
  3
*D34
  1

  0
LINE
  5
3AC08
330
3A9BC
100
AcDbEntity
  8
30
 62
     0
440
 16777216
370
    -2
100
AcDbLine
 10
94.79695648129018
 20
102.9038026596659
 30
0.0
 11
94.79695648129018
 21
64.4038026596659
 31
0.0
  0
LINE
  5
3AC09
330
3A9BC
100
AcDbEntity
  8
30
 62
     0
440
 16777216
370
    -2
100
AcDbLine
 10
129.7969564812902
 20
102.903802659666
 30
0.0
 11
129.7969564812902
 21
64.4038026596659
 31
0.0
  0
LINE
  5
3AC0A
330
3A9BC
100
AcDbEntity
  8
30
 62
     0
440
 16777216
370
    -2
100
AcDbLine
 10
97.7969564812902
 20
64.9038026596659
 30
0.0
 11
126.7969564812902
 21
64.9038026596659
 31
0.0
  0
INSERT
  5
3AC0B
330
3A9BC
100
AcDbEntity
  8
30
 62
     0
440
 16777216
370
    -2
100
AcDbBlockReference
  2
_OPEN
 10
94.79695648129018
 20
64.9038026596659
 30
0.0
 41
3.0
 42
3.0
 43
3.0
 50
180.0
  0
INSERT
  5
3AC0C
330
3A9BC
100
AcDbEntity
  8
30
 62
     0
440
 16777216
370
    -2
100
AcDbBlockReference
  2
_OPEN
 10
129.7969564812902
 20
64.9038026596659
 30
0.0
 41
3.0
 42
3.0
 43
3.0
  0
MTEXT
  5
3AC0D
330
3A9BC
100
AcDbEntity
  8
30
 62
     0
440
 16777216
100
AcDbMText
 10
112.2969564812902
 20
71.40380265966591
 30
0.0
 40
7.0
 41
0.0
 46
0.0
 71
     5
 72
     1
  1
\A1;35
 73
     1
 44
1.0
 90
        3
 63
     9
421
 13158600
 45
1.25
441
        0
  0
POINT
  5
3AC0E
330
3A9BC
100
AcDbEntity
  8
DEFPOINTS
 62
     0
440
 16777216
100
AcDbPoint
 10
94.79695648129018
 20
103.9038026596659
 30
0.0
  0
POINT
  5
3AC0F
330
3A9BC
100
AcDbEntity
  8
DEFPOINTS
 62
     0
440
 16777216
100
AcDbPoint
 10
129.7969564812902
 20
103.903802659666
 30
0.0
  0
POINT
  5
3AC10
330
3A9BC
100
AcDbEntity
  8
DEFPOINTS
 62
     0
440
 16777216
100
AcDbPoint
 10
129.7969564812902
 20
64.9038026596659
 30
0.0
  0
ENDBLK
  5
3A9BE
330
3A9BC
100
AcDbEntity
  8
0
100
AcDbBlockEnd
  0
BLOCK
  5
3A9C9
330
3A9C8
100
AcDbEntity
  8
0
100
AcDbBlockBegin
  2
*D35
 70
     1
 10
0.0
 20
0.0
 30
0.0
  3
*D35
  1

  0
LINE
  5
3AC11
330
3A9C8
100
AcDbEntity
  8
30
 62
     0
440
 16777216
370
    -2
100
AcDbLine
 10
200.2969564812897
 20
244.4038026596656
 30
0.0
 11
238.353265558566
 21
244.4038026596656
 31
0.0
  0
LINE
  5
3AC12
330
3A9C8
100
AcDbEntity
  8
30
 62
     0
440
 16777216
370
    -2
100
AcDbLine
 10
200.2969564812897
 20
100.4038026596659
 30
0.0
 11
238.3532655585659
 21
100.4038026596659
 31
0.0
  0
LINE
  5
3AC13
330
3A9C8
100
AcDbEntity
  8
30
 62
     0
440
 16777216
370
    -2
100
AcDbLine
 10
237.853265558566
 20
241.4038026596657
 30
0.0
 11
237.8532655585659
 21
103.4038026596659
 31
0.0
  0
INSERT
  5
3AC14
330
3A9C8
100
AcDbEntity
  8
30
 62
     0
440
 16777216
370
    -2
100
AcDbBlockReference
  2
_OPEN
 10
237.853265558566
 20
244.4038026596656
 30
0.0
 41
3.0
 42
3.0
 43
3.0
 50
90.0
  0
INSERT
  5
3AC15
330
3A9C8
100
AcDbEntity
  8
30
 62
     0
440
 16777216
370
    -2
100
AcDbBlockReference
  2
_OPEN
 10
237.8532655585659
 20
100.4038026596659
 30
0.0
 41
3.0
 42
3.0
 43
3.0
 50
270.0
  0
MTEXT
  5
3AC16
330
3A9C8
100
AcDbEntity
  8
30
 62
     0
440
 16777216
100
AcDbMText
 10
231.3532655585659
 20
172.4038026596658
 30
0.0
 40
7.0
 41
0.0
 46
0.0
 71
     5
 72
     1
  1
\A1;144
 11
0.0000000000000001
 21
1.0
 31
0.0
 73
     1
 44
1.0
 90
        3
 63
     9
421
 13158600
 45
1.25
441
        0
  0
POINT
  5
3AC17
330
3A9C8
100
AcDbEntity
  8
DEFPOINTS
 62
     0
440
 16777216
100
AcDbPoint
 10
199.2969564812895
 20
244.4038026596656
 30
0.0
  0
POINT
  5
3AC18
330
3A9C8
100
AcDbEntity
  8
DEFPOINTS
 62
     0
440
 16777216
100
AcDbPoint
 10
199.2969564812895
 20
100.4038026596659
 30
0.0
  0
POINT
  5
3AC19
330
3A9C8
100
AcDbEntity
  8
DEFPOINTS
 62
     0
440
 16777216
100
AcDbPoint
 10
237.8532655585659
 20
100.4038026596659
 30
0.0
  0
ENDBLK
  5
3A9CA
330
3A9C8
100
AcDbEntity
  8
0
100
AcDbBlockEnd
  0
BLOCK
  5
3A9D5
330
3A9D4
100
AcDbEntity
  8
0
100
AcDbBlockBegin
  2
*D36
 70
     1
 10
0.0
 20
0.0
 30
0.0
  3
*D36
  1

  0
LINE
  5
3AC1A
330
3A9D4
100
AcDbEntity
  8
30
 62
     0
440
 16777216
370
    -2
100
AcDbLine
 10
77.29695648129018
 20
82.40380265966575
 30
0.0
 11
77.29695648129018
 21
47.51452697689321
 31
0.0
  0
LINE
  5
3AC1B
330
3A9D4
100
AcDbEntity
  8
30
 62
     0
440
 16777216
370
    -2
100
AcDbLine
 10
112.2969564812902
 20
63.9038026596659
 30
0.0
 11
112.2969564812902
 21
47.51452697689321
 31
0.0
  0
LINE
  5
3AC1C
330
3A9D4
100
AcDbEntity
  8
30
 62
     0
440
 16777216
370
    -2
100
AcDbLine
 10
80.29695648129019
 20
48.01452697689321
 30
0.0
 11
109.2969564812902
 21
48.01452697689321
 31
0.0
  0
INSERT
  5
3AC1D
330
3A9D4
100
AcDbEntity
  8
30
 62
     0
440
 16777216
370
    -2
100
AcDbBlockReference
  2
_OPEN
 10
77.29695648129018
 20
48.01452697689321
 30
0.0
 41
3.0
 42
3.0
 43
3.0
 50
180.0
  0
INSERT
  5
3AC1E
330
3A9D4
100
AcDbEntity
  8
30
 62
     0
440
 16777216
370
    -2
100
AcDbBlockReference
  2
_OPEN
 10
112.2969564812902
 20
48.01452697689321
 30
0.0
 41
3.0
 42
3.0
 43
3.0
  0
MTEXT
  5
3AC1F
330
3A9D4
100
AcDbEntity
  8
30
 62
     0
440
 16777216
100
AcDbMText
 10
94.79695648129018
 20
54.51452697689322
 30
0.0
 40
7.0
 41
0.0
 46
0.0
 71
     5
 72
     1
  1
\A1;35
 73
     1
 44
1.0
 90
        3
 63
     9
421
 13158600
 45
1.25
441
        0
  0
POINT
  5
3AC20
330
3A9D4
100
AcDbEntity
  8
DEFPOINTS
 62
     0
440
 16777216
100
AcDbPoint
 10
77.29695648129018
 20
83.40380265966571
 30
0.0
  0
POINT
  5
3AC21
330
3A9D4
100
AcDbEntity
  8
DEFPOINTS
 62
     0
440
 16777216
100
AcDbPoint
 10
112.2969564812902
 20
64.9038026596659
 30
0.0
  0
POINT
  5
3AC22
330
3A9D4
100
AcDbEntity
  8
DEFPOINTS
 62
     0
440
 16777216
100
AcDbPoint
 10
112.2969564812902
 20
48.01452697689321
 30
0.0
  0
ENDBLK
  5
3A9D6
330
3A9D4
100
AcDbEntity
  8
0
100
AcDbBlockEnd
  0
BLOCK
  5
3A9E1
330
3A9E0
100
AcDbEntity
  8
0
100
AcDbBlockBegin
  2
*D37
 70
     1
 10
0.0
 20
0.0
 30
0.0
  3
*D37
  1

  0
LINE
  5
3AC23
330
3A9E0
100
AcDbEntity
  8
30
 62
     0
440
 16777216
370
    -2
100
AcDbLine
 10
147.2969564812902
 20
82.40380265966575
 30
0.0
 11
147.2969564812902
 21
47.51452697689321
 31
0.0
  0
LINE
  5
3AC24
330
3A9E0
100
AcDbEntity
  8
30
 62
     0
440
 16777216
370
    -2
100
AcDbLine
 10
112.2969564812902
 20
63.9038026596659
 30
0.0
 11
112.2969564812902
 21
47.51452697689321
 31
0.0
  0
LINE
  5
3AC25
330
3A9E0
100
AcDbEntity
  8
30
 62
     0
440
 16777216
370
    -2
100
AcDbLine
 10
144.2969564812901
 20
48.01452697689321
 30
0.0
 11
115.2969564812902
 21
48.01452697689321
 31
0.0
  0
INSERT
  5
3AC26
330
3A9E0
100
AcDbEntity
  8
30
 62
     0
440
 16777216
370
    -2
100
AcDbBlockReference
  2
_OPEN
 10
147.2969564812902
 20
48.01452697689321
 30
0.0
 41
3.0
 42
3.0
 43
3.0
  0
INSERT
  5
3AC27
330
3A9E0
100
AcDbEntity
  8
30
 62
     0
440
 16777216
370
    -2
100
AcDbBlockReference
  2
_OPEN
 10
112.2969564812902
 20
48.01452697689321
 30
0.0
 41
3.0
 42
3.0
 43
3.0
 50
180.0
  0
MTEXT
  5
3AC28
330
3A9E0
100
AcDbEntity
  8
30
 62
     0
440
 16777216
100
AcDbMText
 10
129.7969564812902
 20
54.51452697689322
 30
0.0
 40
7.0
 41
0.0
 46
0.0
 71
     5
 72
     1
  1
\A1;35
 73
     1
 44
1.0
 90
        3
 63
     9
421
 13158600
 45
1.25
441
        0
  0
POINT
  5
3AC29
330
3A9E0
100
AcDbEntity
  8
DEFPOINTS
 62
     0
440
 16777216
100
AcDbPoint
 10
147.2969564812902
 20
83.40380265966571
 30
0.0
  0
POINT
  5
3AC2A
330
3A9E0
100
AcDbEntity
  8
DEFPOINTS
 62
     0
440
 16777216
100
AcDbPoint
 10
112.2969564812902
 20
64.9038026596659
 30
0.0
  0
POINT
  5
3AC2B
330
3A9E0
100
AcDbEntity
  8
DEFPOINTS
 62
     0
440
 16777216
100
AcDbPoint
 10
112.2969564812902
 20
48.01452697689321
 30
0.0
  0
ENDBLK
  5
3A9E2
330
3A9E0
100
AcDbEntity
  8
0
100
AcDbBlockEnd
  0
BLOCK
  5
3A9ED
330
3A9EC
100
AcDbEntity
  8
0
100
AcDbBlockBegin
  2
*D38
 70
     1
 10
0.0
 20
0.0
 30
0.0
  3
*D38
  1

  0
LINE
  5
3AC2C
330
3A9EC
100
AcDbEntity
  8
30
 62
     0
440
 16777216
370
    -2
100
AcDbLine
 10
112.2969564812902
 20
824.9121723739504
 30
0.0
 11
112.2969564812902
 21
832.4121723739509
 31
0.0
  0
LINE
  5
3AC2D
330
3A9EC
100
AcDbEntity
  8
30
 62
     0
440
 16777216
370
    -2
100
AcDbLine
 10
77.29695648129018
 20
787.9121723739508
 30
0.0
 11
77.29695648129018
 21
832.4121723739509
 31
0.0
  0
LINE
  5
3AC2E
330
3A9EC
100
AcDbEntity
  8
30
 62
     0
440
 16777216
370
    -2
100
AcDbLine
 10
110.2969564812902
 20
831.9121723739508
 30
0.0
 11
79.29695648129018
 21
831.9121723739508
 31
0.0
  0
INSERT
  5
3AC2F
330
3A9EC
100
AcDbEntity
  8
30
 62
     0
440
 16777216
370
    -2
100
AcDbBlockReference
  2
_OPEN
 10
112.2969564812902
 20
831.9121723739508
 30
0.0
 41
2.0
 42
2.0
 43
2.0
  0
INSERT
  5
3AC30
330
3A9EC
100
AcDbEntity
  8
30
 62
     0
440
 16777216
370
    -2
100
AcDbBlockReference
  2
_OPEN
 10
77.29695648129018
 20
831.9121723739508
 30
0.0
 41
2.0
 42
2.0
 43
2.0
 50
180.0
  0
MTEXT
  5
3AC31
330
3A9EC
100
AcDbEntity
  8
30
 62
     0
440
 16777216
100
AcDbMText
 10
94.79695648129018
 20
837.4121723739508
 30
0.0
 40
7.0
 41
0.0
 46
0.0
 71
     5
 72
     1
  1
\A1;35
 73
     1
 44
1.0
  0
POINT
  5
3AC32
330
3A9EC
100
AcDbEntity
  8
DEFPOINTS
 62
     0
440
 16777216
100
AcDbPoint
 10
112.2969564812902
 20
821.9121723739501
 30
0.0
  0
POINT
  5
3AC33
330
3A9EC
100
AcDbEntity
  8
DEFPOINTS
 62
     0
440
 16777216
100
AcDbPoint
 10
77.29695648129018
 20
784.9121723739508
 30
0.0
  0
POINT
  5
3AC34
330
3A9EC
100
AcDbEntity
  8
DEFPOINTS
 62
     0
440
 16777216
100
AcDbPoint
 10
77.29695648129018
 20
831.9121723739508
 30
0.0
  0
ENDBLK
  5
3A9EE
330
3A9EC
100
AcDbEntity
  8
0
100
AcDbBlockEnd
  0
BLOCK
  5
3A9F9
330
3A9F8
100
AcDbEntity
  8
0
100
AcDbBlockBegin
  2
*D39
 70
     1
 10
0.0
 20
0.0
 30
0.0
  3
*D39
  1

  0
LINE
  5
3AC35
330
3A9F8
100
AcDbEntity
  8
30
 62
     0
440
 16777216
370
    -2
100
AcDbLine
 10
112.2969564812902
 20
824.9121723739504
 30
0.0
 11
112.2969564812902
 21
832.4121723739509
 31
0.0
  0
LINE
  5
3AC36
330
3A9F8
100
AcDbEntity
  8
30
 62
     0
440
 16777216
370
    -2
100
AcDbLine
 10
147.2969564812902
 20
787.9121723739508
 30
0.0
 11
147.2969564812902
 21
832.4121723739509
 31
0.0
  0
LINE
  5
3AC37
330
3A9F8
100
AcDbEntity
  8
30
 62
     0
440
 16777216
370
    -2
100
AcDbLine
 10
114.2969564812902
 20
831.9121723739508
 30
0.0
 11
145.2969564812901
 21
831.9121723739508
 31
0.0
  0
INSERT
  5
3AC38
330
3A9F8
100
AcDbEntity
  8
30
 62
     0
440
 16777216
370
    -2
100
AcDbBlockReference
  2
_OPEN
 10
112.2969564812902
 20
831.9121723739508
 30
0.0
 41
2.0
 42
2.0
 43
2.0
 50
180.0
  0
INSERT
  5
3AC39
330
3A9F8
100
AcDbEntity
  8
30
 62
     0
440
 16777216
370
    -2
100
AcDbBlockReference
  2
_OPEN
 10
147.2969564812902
 20
831.9121723739508
 30
0.0
 41
2.0
 42
2.0
 43
2.0
  0
MTEXT
  5
3AC3A
330
3A9F8
100
AcDbEntity
  8
30
 62
     0
440
 16777216
100
AcDbMText
 10
129.7969564812902
 20
837.4121723739508
 30
0.0
 40
7.0
 41
0.0
 46
0.0
 71
     5
 72
     1
  1
\A1;35
 73
     1
 44
1.0
  0
POINT
  5
3AC3B
330
3A9F8
100
AcDbEntity
  8
DEFPOINTS
 62
     0
440
 16777216
100
AcDbPoint
 10
112.2969564812902
 20
821.9121723739501
 30
0.0
  0
POINT
  5
3AC3C
330
3A9F8
100
AcDbEntity
  8
DEFPOINTS
 62
     0
440
 16777216
100
AcDbPoint
 10
147.2969564812902
 20
784.9121723739508
 30
0.0
  0
POINT
  5
3AC3D
330
3A9F8
100
AcDbEntity
  8
DEFPOINTS
 62
     0
440
 16777216
100
AcDbPoint
 10
147.2969564812902
 20
831.9121723739508
 30
0.0
  0
ENDBLK
  5
3A9FA
330
3A9F8
100
AcDbEntity
  8
0
100
AcDbBlockEnd
  0
BLOCK
  5
3ADBF
330
3ADBE
100
AcDbEntity
  8
0
100
AcDbBlockBegin
  2
*D40
 70
     1
 10
0.0
 20
0.0
 30
0.0
  3
*D40
  1

  0
LINE
  5
3ADC0
330
3ADBE
100
AcDbEntity
  8
30
 62
     0
370
    -2
100
AcDbLine
 10
467.3610702044974
 20
415.3769900213397
 30
0.0
 11
467.3610702044974
 21
346.4803313834001
 31
0.0
  0
LINE
  5
3ADC1
330
3ADBE
100
AcDbEntity
  8
30
 62
     0
370
    -2
100
AcDbLine
 10
372.3610702044969
 20
497.8769900213397
 30
0.0
 11
372.3610702044969
 21
346.4803313834001
 31
0.0
  0
LINE
  5
3ADC2
330
3ADBE
100
AcDbEntity
  8
30
 62
     0
370
    -2
100
AcDbLine
 10
465.3610702044971
 20
346.9803313834002
 30
0.0
 11
374.3610702044969
 21
346.9803313834002
 31
0.0
  0
INSERT
  5
3ADC3
330
3ADBE
100
AcDbEntity
  8
30
 62
     0
370
    -2
100
AcDbBlockReference
  2
_OPEN
 10
467.3610702044974
 20
346.9803313834002
 30
0.0
 41
2.0
 42
2.0
 43
2.0
  0
INSERT
  5
3ADC4
330
3ADBE
100
AcDbEntity
  8
30
 62
     0
370
    -2
100
AcDbBlockReference
  2
_OPEN
 10
372.3610702044969
 20
346.9803313834002
 30
0.0
 41
2.0
 42
2.0
 43
2.0
 50
180.0
  0
MTEXT
  5
3ADC5
330
3ADBE
100
AcDbEntity
  8
30
 62
     0
100
AcDbMText
 10
419.8610702044971
 20
352.4803313834001
 30
0.0
 40
7.0
 41
0.0
 46
0.0
 71
     5
 72
     1
  1
\A1;95
 73
     1
 44
1.0
  0
POINT
  5
3ADC6
330
3ADBE
100
AcDbEntity
  8
DEFPOINTS
 62
     0
100
AcDbPoint
 10
467.3610702044974
 20
418.3769900213397
 30
0.0
  0
POINT
  5
3ADC7
330
3ADBE
100
AcDbEntity
  8
DEFPOINTS
 62
     0
100
AcDbPoint
 10
372.3610702044969
 20
500.8769900213398
 30
0.0
  0
POINT
  5
3ADC8
330
3ADBE
100
AcDbEntity
  8
DEFPOINTS
 62
     0
100
AcDbPoint
 10
372.3610702044969
 20
346.9803313834002
 30
0.0
  0
ENDBLK
  5
3ADC9
330
3ADBE
100
AcDbEntity
  8
0
100
AcDbBlockEnd
  0
BLOCK
  5
3ADD7
330
3ADD6
100
AcDbEntity
  8
0
100
AcDbBlockBegin
  2
*D41
 70
     1
 10
0.0
 20
0.0
 30
0.0
  3
*D41
  1

  0
LINE
  5
3ADEB
330
3ADD6
100
AcDbEntity
  8
30
 62
     0
440
 16777216
370
    -2
100
AcDbLine
 10
460.3714363970438
 20
384.7218827828332
 30
0.0
 11
460.3714363970438
 21
321.9237116692557
 31
0.0
  0
LINE
  5
3ADEC
330
3ADD6
100
AcDbEntity
  8
30
 62
     0
440
 16777216
370
    -2
100
AcDbLine
 10
365.3714363970434
 20
467.2218827828332
 30
0.0
 11
365.3714363970434
 21
321.9237116692557
 31
0.0
  0
LINE
  5
3ADED
330
3ADD6
100
AcDbEntity
  8
30
 62
     0
440
 16777216
370
    -2
100
AcDbLine
 10
458.3714363970438
 20
322.4237116692557
 30
0.0
 11
367.3714363970434
 21
322.4237116692557
 31
0.0
  0
INSERT
  5
3ADEE
330
3ADD6
100
AcDbEntity
  8
30
 62
     0
440
 16777216
370
    -2
100
AcDbBlockReference
  2
_OPEN
 10
460.3714363970438
 20
322.4237116692557
 30
0.0
 41
2.0
 42
2.0
 43
2.0
  0
INSERT
  5
3ADEF
330
3ADD6
100
AcDbEntity
  8
30
 62
     0
440
 16777216
370
    -2
100
AcDbBlockReference
  2
_OPEN
 10
365.3714363970434
 20
322.4237116692557
 30
0.0
 41
2.0
 42
2.0
 43
2.0
 50
180.0
  0
MTEXT
  5
3ADF0
330
3ADD6
100
AcDbEntity
  8
30
 62
     0
440
 16777216
100
AcDbMText
 10
412.8714363970436
 20
327.9237116692558
 30
0.0
 40
7.0
 41
0.0
 46
0.0
 71
     5
 72
     1
  1
\A1;95
 73
     1
 44
1.0
  0
POINT
  5
3ADF1
330
3ADD6
100
AcDbEntity
  8
DEFPOINTS
 62
     0
440
 16777216
100
AcDbPoint
 10
460.3714363970438
 20
387.7218827828333
 30
0.0
  0
POINT
  5
3ADF2
330
3ADD6
100
AcDbEntity
  8
DEFPOINTS
 62
     0
440
 16777216
100
AcDbPoint
 10
365.3714363970434
 20
470.2218827828331
 30
0.0
  0
POINT
  5
3ADF3
330
3ADD6
100
AcDbEntity
  8
DEFPOINTS
 62
     0
440
 16777216
100
AcDbPoint
 10
365.3714363970434
 20
322.4237116692557
 30
0.0
  0
ENDBLK
  5
3ADD8
330
3ADD6
100
AcDbEntity
  8
0
100
AcDbBlockEnd
  0
ENDSEC
  0
SECTION
  2
ENTITIES
  0
MTEXT
  5
3A6D0
330
1E
100
AcDbEntity
  8
5
  6
Continuous
 62
     7
100
AcDbMText
 10
393.0841964391671
 20
741.5878000990304
 30
0.0
 40
9.0
 41
0.0
 46
0.0
 71
     7
 72
     5
  1
PS250-PF 4P RC\PPS250-NE 4P RC\PPS250-PE 4P RC
  7
blockfont
 73
     1
 44
1.0
  0
LINE
  5
3A6D1
330
1E
100
AcDbEntity
  8
12
  6
DASHDOT
100
AcDbLine
 10
60.29695648129063
 20
244.4038026596656
 30
0.0
 11
199.2969564812901
 21
244.4038026596656
 31
0.0
  0
LINE
  5
3A6D2
330
1E
100
AcDbEntity
  8
12
  6
DASHDOT
100
AcDbLine
 10
147.2969564812902
 20
117.4038026596659
 30
0.0
 11
147.2969564812902
 21
83.40380265966571
 31
0.0
  0
LINE
  5
3A6D3
330
1E
100
AcDbEntity
  8
12
  6
DASHDOT
100
AcDbLine
 10
129.7969564812902
 20
240.9038026596657
 30
0.0
 11
129.7969564812902
 21
229.9038026596659
 31
0.0
  0
LINE
  5
3A6D4
330
1E
100
AcDbEntity
  8
12
  6
DASHDOT
100
AcDbLine
 10
129.7969564812902
 20
114.9038026596659
 30
0.0
 11
129.7969564812902
 21
103.9038026596659
 31
0.0
  0
LINE
  5
3A6D5
330
1E
100
AcDbEntity
  8
12
  6
DASHDOT
100
AcDbLine
 10
100.2969564812906
 20
109.4038026596657
 30
0.0
 11
89.29695648129017
 21
109.4038026596657
 31
0.0
  0
LINE
  5
3A6D6
330
1E
100
AcDbEntity
  8
12
  6
DASHDOT
100
AcDbLine
 10
124.2969564812903
 20
109.4038026596657
 30
0.0
 11
135.2969564812906
 21
109.4038026596657
 31
0.0
  0
LINE
  5
3A6D7
330
1E
100
AcDbEntity
  8
12
  6
DASHDOT
100
AcDbLine
 10
77.29695648129018
 20
261.4038026596659
 30
0.0
 11
77.29695648129018
 21
227.4038026596659
 31
0.0
  0
LINE
  5
3A6D8
330
1E
100
AcDbEntity
  8
12
  6
DASHDOT
100
AcDbLine
 10
77.29695648129018
 20
117.4038026596659
 30
0.0
 11
77.29695648129018
 21
83.40380265966571
 31
0.0
  0
LINE
  5
3A6D9
330
1E
100
AcDbEntity
  8
12
  6
DASHDOT
100
AcDbLine
 10
89.29695648129017
 20
235.4038026596659
 30
0.0
 11
100.2969564812906
 21
235.4038026596659
 31
0.0
  0
LINE
  5
3A6DA
330
1E
100
AcDbEntity
  8
12
  6
DASHDOT
100
AcDbLine
 10
147.2969564812902
 20
261.4038026596659
 30
0.0
 11
147.2969564812902
 21
227.4038026596659
 31
0.0
  0
LINE
  5
3A6DB
330
1E
100
AcDbEntity
  8
12
  6
DASHDOT
100
AcDbLine
 10
94.79695648129018
 20
114.9038026596659
 30
0.0
 11
94.79695648129018
 21
103.9038026596659
 31
0.0
  0
LINE
  5
3A6DC
330
1E
100
AcDbEntity
  8
12
  6
DASHDOT
100
AcDbLine
 10
94.79695648129018
 20
240.9038026596657
 30
0.0
 11
94.79695648129018
 21
229.9038026596659
 31
0.0
  0
LINE
  5
3A6DD
330
1E
100
AcDbEntity
  8
12
  6
DASHDOT
100
AcDbLine
 10
135.2969564812906
 20
235.4038026596659
 30
0.0
 11
124.2969564812903
 21
235.4038026596659
 31
0.0
  0
LINE
  5
3A6DE
330
1E
100
AcDbEntity
  8
12
  6
DASHDOT
100
AcDbLine
 10
60.29695648129063
 20
100.4038026596659
 30
0.0
 11
199.2969564812901
 21
100.4038026596659
 31
0.0
  0
CIRCLE
  5
3A6DF
330
1E
100
AcDbEntity
  8
24
100
AcDbCircle
 10
-147.2969564812902
 20
100.4038026596659
 30
0.0
 40
12.0
210
0.0
220
0.0
230
-1.0
  0
CIRCLE
  5
3A6E0
330
1E
100
AcDbEntity
  8
24
100
AcDbCircle
 10
-94.79695648129018
 20
109.4038026596657
 30
0.0
 40
2.0
210
0.0
220
0.0
230
-1.0
  0
CIRCLE
  5
3A6E1
330
1E
100
AcDbEntity
  8
24
100
AcDbCircle
 10
129.7969564812902
 20
109.4038026596657
 30
0.0
 40
2.0
  0
CIRCLE
  5
3A6E2
330
1E
100
AcDbEntity
  8
12
100
AcDbCircle
 10
147.2969564812902
 20
244.4038026596656
 30
0.0
 40
12.0
  0
CIRCLE
  5
3A6E3
330
1E
100
AcDbEntity
  8
12
100
AcDbCircle
 10
77.29695648129018
 20
244.4038026596656
 30
0.0
 40
12.0
  0
CIRCLE
  5
3A6E4
330
1E
100
AcDbEntity
  8
12
100
AcDbCircle
 10
112.2969564812902
 20
244.4038026596656
 30
0.0
 40
12.0
  0
CIRCLE
  5
3A6E5
330
1E
100
AcDbEntity
  8
12
100
AcDbCircle
 10
-129.7969564812902
 20
235.4038026596659
 30
0.0
 40
2.0
210
0.0
220
0.0
230
-1.0
  0
CIRCLE
  5
3A6E6
330
1E
100
AcDbEntity
  8
24
100
AcDbCircle
 10
-112.2969564812902
 20
100.4038026596659
 30
0.0
 40
12.0
210
0.0
220
0.0
230
-1.0
  0
CIRCLE
  5
3A6E7
330
1E
100
AcDbEntity
  8
24
100
AcDbCircle
 10
-77.29695648129018
 20
100.4038026596659
 30
0.0
 40
12.0
210
0.0
220
0.0
230
-1.0
  0
CIRCLE
  5
3A6E8
330
1E
100
AcDbEntity
  8
12
100
AcDbCircle
 10
94.79695648129018
 20
235.4038026596659
 30
0.0
 40
2.0
  0
LWPOLYLINE
  5
3A6E9
330
1E
100
AcDbEntity
  8
18
100
AcDbPolyline
 90
        4
 70
     1
 43
0.0
 10
59.79695648129018
 20
254.9038026596659
 10
199.7969564812902
 20
254.9038026596659
 10
199.7969564812902
 20
89.90380265966591
 10
59.79695648129018
 20
89.90380265966591
  0
LINE
  5
3A6EA
330
1E
100
AcDbEntity
  8
16
100
AcDbLine
 10
49.79695648129018
 20
172.403802659666
 30
0.0
 11
209.7969564812902
 21
172.403802659666
 31
0.0
  0
LINE
  5
3A6EB
330
1E
100
AcDbEntity
  8
16
100
AcDbLine
 10
112.2969564812902
 20
264.9038026596659
 30
0.0
 11
112.2969564812902
 21
79.90380265966591
 31
0.0
  0
DIMENSION
  5
3A6EC
330
1E
100
AcDbEntity
  8
30
100
AcDbDimension
280
     0
  2
*D33
 10
219.7969564812902
 20
109.4038026596657
 30
0.0
 11
219.7969564812902
 21
172.4038026596657
 31
0.0
 70
   160
 71
     5
 42
126.0000000000001
 73
     0
 74
     0
 75
     0
  3
STANDARD
100
AcDbAlignedDimension
 13
135.2969564812906
 23
235.4038026596659
 33
0.0
 14
135.2969564812906
 24
109.4038026596657
 34
0.0
 50
90.0
100
AcDbRotatedDimension
  0
DIMENSION
  5
3A6ED
330
1E
100
AcDbEntity
  8
30
100
AcDbDimension
280
     0
  2
*D34
 10
129.7969564812902
 20
64.9038026596659
 30
0.0
 11
112.2969564812902
 21
71.40380265966591
 31
0.0
 70
    32
 71
     5
 42
35.0
 73
     0
 74
     0
 75
     0
  3
STANDARD
100
AcDbAlignedDimension
 13
94.79695648129018
 23
103.9038026596659
 33
0.0
 14
129.7969564812902
 24
103.903802659666
 34
0.0
100
AcDbRotatedDimension
  0
LEADER
  5
3A6EE
330
1E
100
AcDbEntity
  8
30
  6
Continuous
100
AcDbLeader
  3
STANDARD1
 76
     3
 10
92.7969564812902
 20
109.4038026596657
 30
0.0
 10
68.79695648129018
 20
74.90380265966582
 30
0.0
 10
39.79695648129018
 20
74.90380265966582
 30
0.0
  0
MTEXT
  5
3A6EF
330
1E
100
AcDbEntity
  8
30
  6
Continuous
100
AcDbMText
 10
42.79695648129018
 20
80.90380265966581
 30
0.0
 40
5.0
 41
30.0
 46
0.0
 71
     1
 72
     5
  1
M4x0.7
  7
blockfont
 73
     1
 44
1.0
  0
DIMENSION
  5
3A6F0
330
1E
100
AcDbEntity
  8
30
100
AcDbDimension
280
     0
  2
*D35
 10
237.8532655585659
 20
100.4038026596659
 30
0.0
 11
237.8532655585659
 21
172.4038026596658
 31
0.0
 70
   160
 71
     5
 42
143.9999999999997
 73
     0
 74
     0
 75
     0
  3
STANDARD
100
AcDbAlignedDimension
 13
199.2969564812895
 23
244.4038026596656
 33
0.0
 14
199.2969564812895
 24
100.4038026596659
 34
0.0
 50
90.0
100
AcDbRotatedDimension
  0
LEADER
  5
3A6F1
330
1E
100
AcDbEntity
  8
30
100
AcDbLeader
  3
STANDARD1
 76
     3
 10
188.1064315006009
 20
254.9038026596659
 30
0.0
 10
204.7969564812902
 20
261.754256435323
 30
0.0
 10
230.0381078477562
 20
261.754256435323
 30
0.0
211
-1.0
221
0.0
231
0.0
1001
ACAD
1000
DSTYLE
1002
{
1070
   147
1040
2.0
1070
    77
1070
     0
1002
}
  0
MTEXT
  5
3A6F2
330
1E
100
AcDbEntity
  8
30
  6
Continuous
100
AcDbMText
 10
207.7969564812902
 20
270.0573284626694
 30
0.0
 40
7.0
 41
30.0
 46
0.0
 71
     1
 72
     5
  1
%%C24
  7
blockfont
 73
     1
 44
1.0
  0
DIMENSION
  5
3A6F3
330
1E
100
AcDbEntity
  8
30
100
AcDbDimension
280
     0
  2
*D36
 10
112.2969564812902
 20
48.01452697689321
 30
0.0
 11
94.79695648129018
 21
54.51452697689322
 31
0.0
 70
    32
 71
     5
 42
35.0
 73
     0
 74
     0
 75
     0
  3
STANDARD
100
AcDbAlignedDimension
 13
77.29695648129018
 23
83.40380265966571
 33
0.0
 14
112.2969564812902
 24
64.9038026596659
 34
0.0
100
AcDbRotatedDimension
  0
DIMENSION
  5
3A6F4
330
1E
100
AcDbEntity
  8
30
100
AcDbDimension
280
     0
  2
*D37
 10
112.2969564812902
 20
48.01452697689321
 30
0.0
 11
129.7969564812902
 21
54.51452697689322
 31
0.0
 70
    32
 71
     5
 42
35.0
 73
     0
 74
     0
 75
     0
  3
STANDARD
100
AcDbAlignedDimension
 13
147.2969564812902
 23
83.40380265966571
 33
0.0
 14
112.2969564812902
 24
64.9038026596659
 34
0.0
 50
180.0
100
AcDbRotatedDimension
  0
LINE
  5
3A6F5
330
1E
100
AcDbEntity
  8
17
100
AcDbLine
 10
147.2969564812902
 20
707.9121723739504
 30
0.0
 11
147.2969564812902
 21
784.9121723739508
 31
0.0
  0
LINE
  5
3A6F6
330
1E
100
AcDbEntity
  8
17
100
AcDbLine
 10
77.29695648129018
 20
707.9121723739504
 30
0.0
 11
77.29695648129018
 21
784.9121723739508
 31
0.0
  0
LWPOLYLINE
  5
3A6F7
330
1E
100
AcDbEntity
  8
17
100
AcDbPolyline
 90
        2
 70
     0
 43
0.0
 10
125.2969564812903
 20
803.9121723739501
 10
99.29695648129033
 20
803.9121723739501
  0
LWPOLYLINE
  5
3A6F8
330
1E
100
AcDbEntity
  8
17
100
AcDbPolyline
 90
        2
 70
     0
 43
0.0
 10
160.2969564812902
 20
768.9121723739506
 10
134.2969564812902
 20
768.9121723739506
  0
LWPOLYLINE
  5
3A6F9
330
1E
100
AcDbEntity
  8
17
100
AcDbPolyline
 90
        2
 70
     0
 43
0.0
 10
90.2969564812902
 20
768.9121723739506
 10
64.29695648129018
 20
768.9121723739506
  0
LINE
  5
3A6FA
330
1E
100
AcDbEntity
  8
10
100
AcDbLine
 10
184.7969564812902
 20
507.9269592003659
 30
0.0
 11
185.7969564812901
 21
508.9269592003658
 31
0.0
  0
LINE
  5
3A6FB
330
1E
100
AcDbEntity
  8
131
 62
     4
100
AcDbLine
 10
219.7969564812902
 20
716.1121723739507
 30
0.0
 11
39.79695648129018
 21
716.1121723739507
 31
0.0
  0
LWPOLYLINE
  5
3A6FC
330
1E
100
AcDbEntity
  8
24
100
AcDbPolyline
 90
        8
 70
     0
 43
0.0
 10
117.2969564812902
 20
774.9121723739508
 10
117.2969564812902
 20
779.4121723739508
 10
115.2969564812902
 20
779.4121723739508
 10
115.2969564812902
 20
818.9121723739505
 10
109.2969564812902
 20
818.9121723739505
 10
109.2969564812902
 20
779.4121723739508
 10
107.2969564812902
 20
779.4121723739508
 10
107.2969564812902
 20
774.9121723739508
  0
LWPOLYLINE
  5
3A6FD
330
1E
100
AcDbEntity
  8
24
100
AcDbPolyline
 90
        4
 70
     0
 43
0.0
 10
122.2969564812903
 20
712.9121723739504
 10
122.2969564812903
 20
774.9121723739508
 10
102.2969564812902
 20
774.9121723739508
 10
102.2969564812902
 20
712.9121723739504
  0
LWPOLYLINE
  5
3A6FE
330
1E
100
AcDbEntity
  8
24
100
AcDbPolyline
 90
        8
 70
     0
 43
0.0
 10
72.29695648129018
 20
738.4121723739508
 10
72.29695648129041
 20
742.9121723739508
 10
74.2969564812904
 20
742.9121723739508
 10
74.2969564812903
 20
780.9121723739508
 10
80.29695648129019
 20
780.9121723739508
 10
80.29695648129029
 20
742.9121723739508
 10
82.29695648129041
 20
742.9121723739508
 10
82.29695648129018
 20
738.4121723739508
  0
LWPOLYLINE
  5
3A6FF
330
1E
100
AcDbEntity
  8
24
100
AcDbPolyline
 90
        8
 70
     0
 43
0.0
 10
142.2969564812902
 20
738.4121723739508
 10
142.2969564812903
 20
742.9121723739508
 10
144.2969564812903
 20
742.9121723739508
 10
144.2969564812901
 20
780.9121723739508
 10
150.2969564812902
 20
780.9121723739508
 10
150.2969564812903
 20
742.9121723739508
 10
152.2969564812903
 20
742.9121723739508
 10
152.2969564812902
 20
738.4121723739508
  0
LWPOLYLINE
  5
3A700
330
1E
100
AcDbEntity
  8
24
100
AcDbPolyline
 90
        4
 70
     0
 43
0.0
 10
87.29695648129018
 20
712.9121723739504
 10
87.29695648129018
 20
738.4121723739508
 10
67.29695648129018
 20
738.4121723739508
 10
67.29695648129018
 20
712.9121723739504
  0
LWPOLYLINE
  5
3A701
330
1E
100
AcDbEntity
  8
24
100
AcDbPolyline
 90
        4
 70
     0
 43
0.0
 10
157.2969564812902
 20
712.9121723739504
 10
157.2969564812902
 20
738.4121723739508
 10
137.2969564812902
 20
738.4121723739508
 10
137.2969564812902
 20
712.9121723739504
  0
LINE
  5
3A702
330
1E
100
AcDbEntity
  8
131
 62
     4
100
AcDbLine
 10
219.7969564812902
 20
712.9121723739506
 30
0.0
 11
39.79695648129018
 21
712.9121723739506
 31
0.0
  0
LWPOLYLINE
  5
3A703
330
1E
100
AcDbEntity
  8
130
100
AcDbPolyline
 90
        4
 70
     1
 43
0.0
 10
59.79695648129018
 20
712.9121723739506
 10
199.7969564812902
 20
712.9121723739506
 10
199.7969564812902
 20
651.9121723739507
 10
59.79695648129018
 20
651.9121723739507
  0
LINE
  5
3A704
330
1E
100
AcDbEntity
  8
16
100
AcDbLine
 10
112.2969564812902
 20
611.9121723739507
 30
0.0
 11
112.2969564812902
 21
821.9121723739501
 31
0.0
  0
LWPOLYLINE
  5
3A705
330
1E
100
AcDbEntity
  8
11
  6
Continuous
 62
    11
100
AcDbPolyline
 90
        4
 70
     1
 43
0.0
 10
127.7969564812902
 20
719.9121723739501
 10
131.7969564812901
 20
719.9121723739501
 10
131.7969564812901
 20
712.9121723739504
 10
127.7969564812902
 20
712.9121723739504
  0
LWPOLYLINE
  5
3A706
330
1E
100
AcDbEntity
  8
11
  6
Continuous
 62
    11
100
AcDbPolyline
 90
        4
 70
     1
 43
0.0
 10
92.7969564812902
 20
719.9121723739501
 10
96.79695648129021
 20
719.9121723739501
 10
96.79695648129021
 20
712.9121723739504
 10
92.7969564812902
 20
712.9121723739504
  0
DIMENSION
  5
3A707
330
1E
100
AcDbEntity
  8
30
100
AcDbDimension
280
     0
  2
*D38
 10
77.29695648129018
 20
831.9121723739508
 30
0.0
 11
94.79695648129018
 21
837.4121723739508
 31
0.0
 70
    32
 71
     5
 42
35.0
 73
     0
 74
     0
 75
     0
  3
STANDARD1
100
AcDbAlignedDimension
 13
112.2969564812902
 23
821.9121723739501
 33
0.0
 14
77.29695648129018
 24
784.9121723739508
 34
0.0
100
AcDbRotatedDimension
  0
DIMENSION
  5
3A708
330
1E
100
AcDbEntity
  8
30
100
AcDbDimension
280
     0
  2
*D39
 10
147.2969564812902
 20
831.9121723739508
 30
0.0
 11
129.7969564812902
 21
837.4121723739508
 31
0.0
 70
    32
 71
     5
 42
35.0
 73
     0
 74
     0
 75
     0
  3
STANDARD1
100
AcDbAlignedDimension
 13
112.2969564812902
 23
821.9121723739501
 33
0.0
 14
147.2969564812902
 24
784.9121723739508
 34
0.0
 50
180.0
100
AcDbRotatedDimension
  0
LINE
  5
3A709
330
1E
100
AcDbEntity
  8
10
100
AcDbLine
 10
179.7969564812902
 20
509.2729367003655
 30
0.0
 11
179.7969564812902
 21
501.5734042003658
 31
0.0
  0
LINE
  5
3A70A
330
1E
100
AcDbEntity
  8
10
100
AcDbLine
 10
184.7969564812902
 20
510.0482792003655
 30
0.0
 11
185.7969564812901
 21
511.0482792003655
 31
0.0
  0
LINE
  5
3A70B
330
1E
100
AcDbEntity
  8
10
100
AcDbLine
 10
178.7969564812902
 20
501.9269592003655
 30
0.0
 11
179.7969564812902
 21
502.9269592003658
 31
0.0
  0
LINE
  5
3A70C
330
1E
100
AcDbEntity
  8
10
100
AcDbLine
 10
179.9351339812904
 20
509.0755417003659
 30
0.0
 11
180.6531664812903
 21
509.7935742003657
 31
0.0
  0
LINE
  5
3A70D
330
1E
100
AcDbEntity
  8
10
100
AcDbLine
 10
184.7969564812902
 20
505.8056367003655
 30
0.0
 11
185.7969564812901
 21
506.8056367003658
 31
0.0
  0
LINE
  5
3A70E
330
1E
100
AcDbEntity
  8
10
100
AcDbLine
 10
184.7969564812902
 20
506.866296700366
 30
0.0
 11
185.7969564812901
 21
507.8662967003658
 31
0.0
  0
LINE
  5
3A70F
330
1E
100
AcDbEntity
  8
10
100
AcDbLine
 10
184.7969564812902
 20
504.3914242003658
 30
0.0
 11
185.7969564812901
 21
505.3914242003656
 31
0.0
  0
LINE
  5
3A710
330
1E
100
AcDbEntity
  8
10
100
AcDbLine
 10
184.4481389812903
 20
502.6283917003655
 30
0.0
 11
185.7969564812901
 21
503.9772117003656
 31
0.0
  0
LINE
  5
3A711
330
1E
100
AcDbEntity
  8
10
100
AcDbLine
 10
178.7969564812902
 20
502.2805117003655
 30
0.0
 11
179.7969564812902
 21
503.2805117003656
 31
0.0
  0
LINE
  5
3A712
330
1E
100
AcDbEntity
  8
10
100
AcDbLine
 10
178.7969564812902
 20
507.9373667003657
 30
0.0
 11
179.7969564812902
 21
508.9373667003656
 31
0.0
  0
LINE
  5
3A713
330
1E
100
AcDbEntity
  8
10
100
AcDbLine
 10
178.7969564812902
 20
508.9980267003658
 30
0.0
 11
180.2164239812905
 21
510.417491700366
 31
0.0
  0
LINE
  5
3A714
330
1E
100
AcDbEntity
  8
10
100
AcDbLine
 10
183.4290714812903
 20
504.084199200366
 30
0.0
 11
184.1471039812904
 21
504.8022317003654
 31
0.0
  0
LINE
  5
3A715
330
1E
100
AcDbEntity
  8
10
100
AcDbLine
 10
184.5937189812903
 20
502.4204192003657
 30
0.0
 11
185.7969564812901
 21
503.6236567003657
 31
0.0
  0
LINE
  5
3A716
330
1E
100
AcDbEntity
  8
10
100
AcDbLine
 10
184.7969564812902
 20
506.1591917003656
 30
0.0
 11
185.7969564812901
 21
507.1591917003654
 31
0.0
  0
LINE
  5
3A717
330
1E
100
AcDbEntity
  8
10
100
AcDbLine
 10
178.7969564812902
 20
510.4122392003659
 30
0.0
 11
179.6340989812904
 21
511.2493817003657
 31
0.0
  0
LINE
  5
3A718
330
1E
100
AcDbEntity
  8
10
100
AcDbLine
 10
180.2262939812903
 20
508.6595967003658
 30
0.0
 11
180.9443264812903
 21
509.3776292003656
 31
0.0
  0
LINE
  5
3A719
330
1E
100
AcDbEntity
  8
10
100
AcDbLine
 10
178.7969564812902
 20
505.1089392003659
 30
0.0
 11
179.7969564812902
 21
506.1089392003657
 31
0.0
  0
LINE
  5
3A71A
330
1E
100
AcDbEntity
  8
10
100
AcDbLine
 10
178.7969564812902
 20
504.0482792003656
 30
0.0
 11
179.7969564812902
 21
505.0482792003656
 31
0.0
  0
LINE
  5
3A71B
330
1E
100
AcDbEntity
  8
10
100
AcDbLine
 10
180.0807139812903
 20
508.8675692003656
 30
0.0
 11
180.7987464812901
 21
509.5856017003658
 31
0.0
  0
LINE
  5
3A71C
330
1E
100
AcDbEntity
  8
10
100
AcDbLine
 10
182.5555864812904
 20
505.3320342003656
 30
0.0
 11
183.2736214812903
 21
506.0500692003658
 31
0.0
  0
LINE
  5
3A71D
330
1E
100
AcDbEntity
  8
10
100
AcDbLine
 10
184.7969564812902
 20
505.4520842003658
 30
0.0
 11
185.7969564812901
 21
506.4520842003656
 31
0.0
  0
LINE
  5
3A71E
330
1E
100
AcDbEntity
  8
10
100
AcDbLine
 10
185.7969564812901
 20
501.5734042003658
 30
0.0
 11
185.7969564812901
 21
511.5734042003658
 31
0.0
  0
LINE
  5
3A71F
330
1E
100
AcDbEntity
  8
10
100
AcDbLine
 10
178.7969564812902
 20
509.7051317003653
 30
0.0
 11
179.9252614812903
 21
510.8334367003658
 31
0.0
  0
LINE
  5
3A720
330
1E
100
AcDbEntity
  8
10
100
AcDbLine
 10
178.7969564812902
 20
509.3515792003658
 30
0.0
 11
180.0708414812901
 21
510.6254642003658
 31
0.0
  0
LINE
  5
3A721
330
1E
100
AcDbEntity
  8
10
100
AcDbLine
 10
184.7969564812902
 20
507.2198517003654
 30
0.0
 11
185.7969564812901
 21
508.2198517003654
 31
0.0
  0
LINE
  5
3A722
330
1E
100
AcDbEntity
  8
10
100
AcDbLine
 10
178.7969564812902
 20
505.4624917003656
 30
0.0
 11
179.7969564812902
 21
506.4624917003658
 31
0.0
  0
LINE
  5
3A723
330
1E
100
AcDbEntity
  8
10
100
AcDbLine
 10
184.0113964812904
 20
503.2523092003658
 30
0.0
 11
184.7294289812903
 21
503.9703417003656
 31
0.0
  0
LINE
  5
3A724
330
1E
100
AcDbEntity
  8
10
100
AcDbLine
 10
181.3909414812903
 20
506.9958167003655
 30
0.0
 11
182.1089739812901
 21
507.7138492003655
 31
0.0
  0
LINE
  5
3A725
330
1E
100
AcDbEntity
  8
10
100
AcDbLine
 10
181.6821039812903
 20
506.5798717003657
 30
0.0
 11
182.4001364812901
 21
507.2979042003659
 31
0.0
  0
LINE
  5
3A726
330
1E
100
AcDbEntity
  8
10
100
AcDbLine
 10
179.1505114812903
 20
501.5734042003658
 30
0.0
 11
179.7969564812902
 21
502.2198517003657
 31
0.0
  0
LINE
  5
3A727
330
1E
100
AcDbEntity
  8
10
100
AcDbLine
 10
178.7969564812902
 20
510.7657917003655
 30
0.0
 11
179.4885189812903
 21
511.4573542003657
 31
0.0
  0
LWPOLYLINE
  5
3A728
330
1E
100
AcDbEntity
  8
12
  6
DASHDOT
100
AcDbPolyline
 90
        2
 70
     0
 43
0.0
 10
129.7969564812902
 20
538.3234042003655
 10
129.7969564812902
 20
527.3234042003658
  0
LINE
  5
3A729
330
1E
100
AcDbEntity
  8
10
100
AcDbLine
 10
178.7969564812902
 20
511.5734042003658
 30
0.0
 11
179.4072839812904
 21
511.5734042003658
 31
0.0
  0
LINE
  5
3A72A
330
1E
100
AcDbEntity
  8
10
100
AcDbLine
 10
178.7969564812902
 20
504.4018317003656
 30
0.0
 11
179.7969564812902
 21
505.4018317003658
 31
0.0
  0
LINE
  5
3A72B
330
1E
100
AcDbEntity
  8
10
100
AcDbLine
 10
178.7969564812902
 20
501.5734042003658
 30
0.0
 11
179.7969564812902
 21
502.5734042003659
 31
0.0
  0
LINE
  5
3A72C
330
1E
100
AcDbEntity
  8
10
100
AcDbLine
 10
179.5040639812901
 20
501.5734042003658
 30
0.0
 11
179.7969564812902
 21
501.866296700366
 31
0.0
  0
LINE
  5
3A72D
330
1E
100
AcDbEntity
  8
10
100
AcDbLine
 10
184.7969564812902
 20
503.8738742003658
 30
0.0
 11
184.7969564812902
 21
511.5734042003658
 31
0.0
  0
LINE
  5
3A72E
330
1E
100
AcDbEntity
  8
10
100
AcDbLine
 10
185.0304614812903
 20
501.7965017003659
 30
0.0
 11
185.7969564812901
 21
502.5629967003658
 31
0.0
  0
LINE
  5
3A72F
330
1E
100
AcDbEntity
  8
10
100
AcDbLine
 10
184.7969564812902
 20
504.7449767003658
 30
0.0
 11
185.7969564812901
 21
505.7449767003658
 31
0.0
  0
LINE
  5
3A730
330
1E
100
AcDbEntity
  8
10
100
AcDbLine
 10
180.3718764812902
 20
508.4516242003656
 30
0.0
 11
181.0899089812903
 21
509.1696567003658
 31
0.0
  0
LINE
  5
3A731
330
1E
100
AcDbEntity
  8
10
100
AcDbLine
 10
180.9541989812901
 20
507.6197342003653
 30
0.0
 11
181.6722314812905
 21
508.3377667003659
 31
0.0
  0
LINE
  5
3A732
330
1E
100
AcDbEntity
  8
10
100
AcDbLine
 10
184.7969564812902
 20
504.0378717003658
 30
0.0
 11
185.7969564812901
 21
505.0378717003658
 31
0.0
  0
LWPOLYLINE
  5
3A733
330
1E
100
AcDbEntity
  8
17
100
AcDbPolyline
 90
        2
 70
     0
 43
0.0
 10
140.2969564812904
 20
541.8234042003655
 10
154.2969564812904
 20
541.8234042003655
  0
LWPOLYLINE
  5
3A734
330
1E
100
AcDbEntity
  8
12
  6
DASHDOT
100
AcDbPolyline
 90
        2
 70
     0
 43
0.0
 10
89.29695648129053
 20
532.8234042003658
 10
100.2969564812905
 20
532.8234042003658
  0
LINE
  5
3A735
330
1E
100
AcDbEntity
  8
10
100
AcDbLine
 10
183.5746539812903
 20
503.8762267003654
 30
0.0
 11
184.2926864812901
 21
504.5942592003656
 31
0.0
  0
LINE
  5
3A736
330
1E
100
AcDbEntity
  8
10
100
AcDbLine
 10
178.7969564812902
 20
502.6340642003658
 30
0.0
 11
179.7969564812902
 21
503.6340642003657
 31
0.0
  0
LINE
  5
3A737
330
1E
100
AcDbEntity
  8
10
100
AcDbLine
 10
178.7969564812902
 20
506.5231517003657
 30
0.0
 11
179.7969564812902
 21
507.5231517003659
 31
0.0
  0
LINE
  5
3A738
330
1E
100
AcDbEntity
  8
10
100
AcDbLine
 10
184.88488148129
 20
502.0044742003657
 30
0.0
 11
185.7969564812901
 21
502.9165517003653
 31
0.0
  0
LINE
  5
3A739
330
1E
100
AcDbEntity
  8
10
100
AcDbLine
 10
184.7969564812902
 20
508.2805117003657
 30
0.0
 11
185.7969564812901
 21
509.2805117003655
 31
0.0
  0
LINE
  5
3A73A
330
1E
100
AcDbEntity
  8
10
100
AcDbLine
 10
184.7969564812902
 20
511.5734042003658
 30
0.0
 11
185.7969564812901
 21
511.5734042003658
 31
0.0
  0
LINE
  5
3A73B
330
1E
100
AcDbEntity
  8
10
100
AcDbLine
 10
184.7969564812902
 20
508.9876192003658
 30
0.0
 11
185.7969564812901
 21
509.9876192003659
 31
0.0
  0
LINE
  5
3A73C
330
1E
100
AcDbEntity
  8
10
100
AcDbLine
 10
180.6630364812903
 20
508.0356792003658
 30
0.0
 11
181.3810689812903
 21
508.7537117003659
 31
0.0
  0
LINE
  5
3A73D
330
1E
100
AcDbEntity
  8
10
100
AcDbLine
 10
184.7969564812902
 20
511.4624917003658
 30
0.0
 11
184.9078689812904
 21
511.5734042003658
 31
0.0
  0
LINE
  5
3A73E
330
1E
100
AcDbEntity
  8
10
100
AcDbLine
 10
178.7969564812902
 20
501.5734042003658
 30
0.0
 11
178.7969564812902
 21
511.5734042003658
 31
0.0
  0
LINE
  5
3A73F
330
1E
100
AcDbEntity
  8
10
100
AcDbLine
 10
184.3025564812906
 20
502.8363642003658
 30
0.0
 11
185.7969564812901
 21
504.3307642003658
 31
0.0
  0
LINE
  5
3A740
330
1E
100
AcDbEntity
  8
16
100
AcDbLine
 10
54.79695648129018
 20
469.8234042003658
 30
0.0
 11
204.7969564812902
 21
469.8234042003658
 31
0.0
  0
LINE
  5
3A741
330
1E
100
AcDbEntity
  8
16
100
AcDbLine
 10
112.2969564812902
 20
562.3234042003658
 30
0.0
 11
112.2969564812902
 21
377.3234042003659
 31
0.0
  0
LINE
  5
3A742
330
1E
100
AcDbEntity
  8
10
100
AcDbLine
 10
183.2834914812904
 20
504.2921717003657
 30
0.0
 11
184.0015239812901
 21
505.0102042003658
 31
0.0
  0
LINE
  5
3A743
330
1E
100
AcDbEntity
  8
10
100
AcDbLine
 10
178.7969564812902
 20
510.0586867003657
 30
0.0
 11
179.7796814812905
 21
511.0414092003658
 31
0.0
  0
LINE
  5
3A744
330
1E
100
AcDbEntity
  8
10
100
AcDbLine
 10
184.7969564812902
 20
506.5127442003656
 30
0.0
 11
185.7969564812901
 21
507.5127442003656
 31
0.0
  0
LWPOLYLINE
  5
3A745
330
1E
100
AcDbEntity
  8
17
100
AcDbPolyline
 90
        2
 70
     0
 43
0.0
 10
189.2969564812904
 20
541.8234042003655
 10
175.2969564812904
 20
541.8234042003655
  0
LWPOLYLINE
  5
3A746
330
1E
100
AcDbEntity
  8
12
  6
DASHDOT
100
AcDbPolyline
 90
        2
 70
     0
 43
0.0
 10
124.2969564812904
 20
532.8234042003658
 10
135.2969564812904
 20
532.8234042003658
  0
LWPOLYLINE
  5
3A747
330
1E
100
AcDbEntity
  8
17
100
AcDbPolyline
 90
        2
 70
     0
 43
0.0
 10
147.2969564812902
 20
548.8234042003656
 10
147.2969564812902
 20
534.8234042003658
  0
LINE
  5
3A748
330
1E
100
AcDbEntity
  8
10
100
AcDbLine
 10
185.1609189812904
 20
501.5734042003658
 30
0.0
 11
185.7969564812901
 21
502.2094442003655
 31
0.0
  0
LWPOLYLINE
  5
3A749
330
1E
100
AcDbEntity
  8
17
100
AcDbPolyline
 90
        2
 70
     0
 43
0.0
 10
105.2969564812904
 20
541.8234042003655
 10
119.2969564812904
 20
541.8234042003655
  0
LINE
  5
3A74A
330
1E
100
AcDbEntity
  8
10
100
AcDbLine
 10
181.9732639812903
 20
506.1639267003656
 30
0.0
 11
182.6912964812902
 21
506.8819592003658
 31
0.0
  0
LWPOLYLINE
  5
3A74B
330
1E
100
AcDbEntity
  8
17
100
AcDbPolyline
 90
        2
 70
     0
 43
0.0
 10
182.2969564812902
 20
548.8234042003656
 10
182.2969564812902
 20
534.8234042003658
  0
LINE
  5
3A74C
330
1E
100
AcDbEntity
  8
10
100
AcDbLine
 10
178.7969564812902
 20
511.4728992003655
 30
0.0
 11
178.8974614812903
 21
511.5734042003658
 31
0.0
  0
LINE
  5
3A74D
330
1E
100
AcDbEntity
  8
130
100
AcDbLine
 10
59.79695648129018
 20
520.8234042003655
 30
0.0
 11
199.7969564812902
 21
520.8234042003655
 31
0.0
  0
LINE
  5
3A74E
330
1E
100
AcDbEntity
  8
10
100
AcDbLine
 10
184.15697648129
 20
503.0443367003655
 30
0.0
 11
185.7969564812901
 21
504.6843167003658
 31
0.0
  0
LINE
  5
3A74F
330
1E
100
AcDbEntity
  8
10
100
AcDbLine
 10
178.7969564812902
 20
507.2302592003658
 30
0.0
 11
179.7969564812902
 21
508.2302592003656
 31
0.0
  0
LINE
  5
3A750
330
1E
100
AcDbEntity
  8
10
100
AcDbLine
 10
182.4100064812905
 20
505.5400092003658
 30
0.0
 11
183.1280389812903
 21
506.2580417003655
 31
0.0
  0
LINE
  5
3A751
330
1E
100
AcDbEntity
  8
10
100
AcDbLine
 10
178.7969564812902
 20
503.3411717003658
 30
0.0
 11
179.7969564812902
 21
504.3411717003658
 31
0.0
  0
LINE
  5
3A752
330
1E
100
AcDbEntity
  8
10
100
AcDbLine
 10
178.7969564812902
 20
506.1695992003658
 30
0.0
 11
179.7969564812902
 21
507.1695992003658
 31
0.0
  0
LINE
  5
3A753
330
1E
100
AcDbEntity
  8
10
100
AcDbLine
 10
178.7969564812902
 20
505.8160442003658
 30
0.0
 11
179.7969564812902
 21
506.8160442003658
 31
0.0
  0
LINE
  5
3A754
330
1E
100
AcDbEntity
  8
10
100
AcDbLine
 10
183.8658139812903
 20
503.4602817003657
 30
0.0
 11
184.5838464812903
 21
504.1783142003659
 31
0.0
  0
LINE
  5
3A755
330
1E
100
AcDbEntity
  8
10
100
AcDbLine
 10
178.7969564812902
 20
511.1193467003658
 30
0.0
 11
179.2510164812904
 21
511.5734042003658
 31
0.0
  0
LINE
  5
3A756
330
1E
100
AcDbEntity
  8
10
100
AcDbLine
 10
180.5174564812905
 20
508.2436517003658
 30
0.0
 11
181.2354889812901
 21
508.9616842003659
 31
0.0
  0
LINE
  5
3A757
330
1E
100
AcDbEntity
  8
10
100
AcDbLine
 10
184.7392989812902
 20
502.2124467003658
 30
0.0
 11
185.7969564812901
 21
503.2701042003658
 31
0.0
  0
LINE
  5
3A758
330
1E
100
AcDbEntity
  8
10
100
AcDbLine
 10
178.7969564812902
 20
501.5734042003658
 30
0.0
 11
179.7969564812902
 21
501.5734042003658
 31
0.0
  0
LINE
  5
3A759
330
1E
100
AcDbEntity
  8
10
100
AcDbLine
 10
179.4072839812904
 20
511.5734042003658
 30
0.0
 11
184.7969564812902
 21
503.8738742003658
 31
0.0
  0
LINE
  5
3A75A
330
1E
100
AcDbEntity
  8
10
100
AcDbLine
 10
182.2644264812901
 20
505.7479817003658
 30
0.0
 11
182.9824589812904
 21
506.4660142003654
 31
0.0
  0
LINE
  5
3A75B
330
1E
100
AcDbEntity
  8
10
100
AcDbLine
 10
185.5144714812901
 20
501.5734042003658
 30
0.0
 11
185.7969564812901
 21
501.8558892003658
 31
0.0
  0
LWPOLYLINE
  5
3A75C
330
1E
100
AcDbEntity
  8
17
100
AcDbPolyline
 90
        2
 70
     0
 43
0.0
 10
77.29695648129018
 20
548.8234042003656
 10
77.29695648129018
 20
534.8234042003658
  0
LINE
  5
3A75D
330
1E
100
AcDbEntity
  8
10
100
AcDbLine
 10
178.7969564812902
 20
507.5838117003658
 30
0.0
 11
179.7969564812902
 21
508.5838117003659
 31
0.0
  0
LINE
  5
3A75E
330
1E
100
AcDbEntity
  8
10
100
AcDbLine
 10
178.7969564812902
 20
508.6444717003656
 30
0.0
 11
180.3620039812904
 21
510.2095192003655
 31
0.0
  0
LWPOLYLINE
  5
3A75F
330
1E
100
AcDbEntity
  8
17
100
AcDbPolyline
 90
        2
 70
     0
 43
0.0
 10
70.29695648129052
 20
541.8234042003655
 10
84.29695648129053
 20
541.8234042003655
  0
LINE
  5
3A760
330
1E
100
AcDbEntity
  8
10
100
AcDbLine
 10
182.9923289812905
 20
504.7081167003658
 30
0.0
 11
183.7103639812903
 21
505.4261492003654
 31
0.0
  0
LINE
  5
3A761
330
1E
100
AcDbEntity
  8
10
100
AcDbLine
 10
184.7969564812902
 20
510.4018317003658
 30
0.0
 11
185.7969564812901
 21
511.4018317003654
 31
0.0
  0
LINE
  5
3A762
330
1E
100
AcDbEntity
  8
10
100
AcDbLine
 10
185.7969564812901
 20
501.5734042003658
 30
0.0
 11
185.1866289812903
 21
501.5734042003658
 31
0.0
  0
LINE
  5
3A763
330
1E
100
AcDbEntity
  8
10
100
AcDbLine
 10
184.7969564812902
 20
509.6947242003658
 30
0.0
 11
185.7969564812901
 21
510.6947242003655
 31
0.0
  0
LINE
  5
3A764
330
1E
100
AcDbEntity
  8
10
100
AcDbLine
 10
184.7969564812902
 20
511.1089392003655
 30
0.0
 11
185.2614239812901
 21
511.5734042003658
 31
0.0
  0
LINE
  5
3A765
330
1E
100
AcDbEntity
  8
10
100
AcDbLine
 10
179.7969564812902
 20
509.2729367003655
 30
0.0
 11
185.1866289812903
 21
501.5734042003658
 31
0.0
  0
LINE
  5
3A766
330
1E
100
AcDbEntity
  8
10
100
AcDbLine
 10
178.7969564812902
 20
506.8767067003657
 30
0.0
 11
179.7969564812902
 21
507.8767067003655
 31
0.0
  0
LINE
  5
3A767
330
1E
100
AcDbEntity
  8
10
100
AcDbLine
 10
182.7011689812902
 20
505.1240617003657
 30
0.0
 11
183.4192014812902
 21
505.8420967003654
 31
0.0
  0
LINE
  5
3A768
330
1E
100
AcDbEntity
  8
10
100
AcDbLine
 10
178.7969564812902
 20
508.2909192003659
 30
0.0
 11
180.5075839812903
 21
510.0015467003657
 31
0.0
  0
LINE
  5
3A769
330
1E
100
AcDbEntity
  8
10
100
AcDbLine
 10
184.7969564812902
 20
510.7553842003656
 30
0.0
 11
185.6149764812903
 21
511.5734042003658
 31
0.0
  0
LINE
  5
3A76A
330
1E
100
AcDbEntity
  8
10
100
AcDbLine
 10
182.1188439812904
 20
505.9559542003658
 30
0.0
 11
182.8368789812903
 21
506.6739867003653
 31
0.0
  0
LINE
  5
3A76B
330
1E
100
AcDbEntity
  8
10
100
AcDbLine
 10
183.1379114812903
 20
504.5001442003655
 30
0.0
 11
183.8559439812902
 21
505.2181767003657
 31
0.0
  0
LINE
  5
3A76C
330
1E
100
AcDbEntity
  8
10
100
AcDbLine
 10
184.7969564812902
 20
508.6340642003657
 30
0.0
 11
185.7969564812901
 21
509.6340642003656
 31
0.0
  0
LINE
  5
3A76D
330
1E
100
AcDbEntity
  8
130
100
AcDbLine
 10
59.79695648129018
 20
418.8234042003657
 30
0.0
 11
199.7969564812902
 21
418.8234042003657
 31
0.0
  0
LINE
  5
3A76E
330
1E
100
AcDbEntity
  8
10
100
AcDbLine
 10
184.7969564812902
 20
507.5734042003658
 30
0.0
 11
185.7969564812901
 21
508.5734042003656
 31
0.0
  0
LINE
  5
3A76F
330
1E
100
AcDbEntity
  8
10
100
AcDbLine
 10
184.7969564812902
 20
505.0985317003656
 30
0.0
 11
185.7969564812901
 21
506.0985317003654
 31
0.0
  0
LINE
  5
3A770
330
1E
100
AcDbEntity
  8
10
100
AcDbLine
 10
181.2453614812901
 20
507.2037892003658
 30
0.0
 11
181.9633939812901
 21
507.9218217003655
 31
0.0
  0
LINE
  5
3A771
330
1E
100
AcDbEntity
  8
10
100
AcDbLine
 10
178.7969564812902
 20
504.7553842003655
 30
0.0
 11
179.7969564812902
 21
505.7553842003655
 31
0.0
  0
LINE
  5
3A772
330
1E
100
AcDbEntity
  8
10
100
AcDbLine
 10
181.8276839812904
 20
506.3718992003658
 30
0.0
 11
182.5457164812903
 21
507.0899317003656
 31
0.0
  0
LINE
  5
3A773
330
1E
100
AcDbEntity
  8
10
100
AcDbLine
 10
182.8467489812901
 20
504.9160892003659
 30
0.0
 11
183.5647814812905
 21
505.6341217003659
 31
0.0
  0
LINE
  5
3A774
330
1E
100
AcDbEntity
  8
10
100
AcDbLine
 10
181.5365214812903
 20
506.7878442003658
 30
0.0
 11
182.2545539812904
 21
507.5058767003658
 31
0.0
  0
LINE
  5
3A775
330
1E
100
AcDbEntity
  8
10
100
AcDbLine
 10
178.7969564812902
 20
503.6947242003655
 30
0.0
 11
179.7969564812902
 21
504.6947242003658
 31
0.0
  0
LINE
  5
3A776
330
1E
100
AcDbEntity
  8
10
100
AcDbLine
 10
184.7969564812902
 20
509.3411717003657
 30
0.0
 11
185.7969564812901
 21
510.3411717003658
 31
0.0
  0
LINE
  5
3A777
330
1E
100
AcDbEntity
  8
10
100
AcDbLine
 10
180.8086189812902
 20
507.8277067003658
 30
0.0
 11
181.5266514812901
 21
508.5457392003656
 31
0.0
  0
LINE
  5
3A778
330
1E
100
AcDbEntity
  8
10
100
AcDbLine
 10
178.7969564812902
 20
502.9876192003655
 30
0.0
 11
179.7969564812902
 21
503.9876192003658
 31
0.0
  0
LINE
  5
3A779
330
1E
100
AcDbEntity
  8
10
100
AcDbLine
 10
183.7202339812904
 20
503.6682542003658
 30
0.0
 11
184.4382664812903
 21
504.3862867003656
 31
0.0
  0
LINE
  5
3A77A
330
1E
100
AcDbEntity
  8
10
100
AcDbLine
 10
181.0997789812904
 20
507.4117617003657
 30
0.0
 11
181.8178114812904
 21
508.1297942003659
 31
0.0
  0
LWPOLYLINE
  5
3A77B
330
1E
100
AcDbEntity
  8
12
  6
DASHDOT
100
AcDbPolyline
 90
        2
 70
     0
 43
0.0
 10
94.79695648129018
 20
538.3234042003655
 10
94.79695648129018
 20
527.3234042003658
  0
CIRCLE
  5
3A77C
330
1E
100
AcDbEntity
  8
24
100
AcDbCircle
 10
147.2969564812902
 20
541.8234042003655
 30
0.0
 40
5.0
  0
CIRCLE
  5
3A77D
330
1E
100
AcDbEntity
  8
12
100
AcDbCircle
 10
94.79695648129018
 20
532.8234042003658
 30
0.0
 40
4.0
  0
CIRCLE
  5
3A77E
330
1E
100
AcDbEntity
  8
24
100
AcDbCircle
 10
-182.2969564812902
 20
541.8234042003655
 30
0.0
 40
5.0
210
0.0
220
0.0
230
-1.0
  0
CIRCLE
  5
3A77F
330
1E
100
AcDbEntity
  8
10
100
AcDbCircle
 10
182.2969564812902
 20
506.5734042003659
 30
0.0
 40
8.0
  0
CIRCLE
  5
3A780
330
1E
100
AcDbEntity
  8
12
100
AcDbCircle
 10
-129.7969564812902
 20
532.8234042003658
 30
0.0
 40
4.0
210
0.0
220
0.0
230
-1.0
  0
CIRCLE
  5
3A781
330
1E
100
AcDbEntity
  8
24
100
AcDbCircle
 10
77.29695648129018
 20
541.8234042003655
 30
0.0
 40
5.0
  0
LWPOLYLINE
  5
3A782
330
1E
100
AcDbEntity
  8
130
100
AcDbPolyline
 90
        6
 70
     0
 43
0.0
 10
135.2969564812904
 20
552.3234042003658
 10
135.2969564812904
 20
534.8234042003658
 42
0.4142135623730951
 10
140.2969564812904
 20
529.8234042003659
 10
154.2969564812904
 20
529.8234042003659
 42
0.4142135623730951
 10
159.2969564812904
 20
534.8234042003658
 10
159.2969564812904
 20
552.3234042003658
  0
LWPOLYLINE
  5
3A783
330
1E
100
AcDbEntity
  8
130
100
AcDbPolyline
 90
        6
 70
     0
 43
0.0
 10
65.29695648129052
 20
552.3234042003658
 10
65.29695648129052
 20
534.8234042003658
 42
0.4142135623730951
 10
70.29695648129052
 20
529.8234042003659
 10
84.29695648129053
 20
529.8234042003659
 42
0.4142135623730951
 10
89.29695648129053
 20
534.8234042003658
 10
89.29695648129053
 20
552.3234042003658
  0
CIRCLE
  5
3A784
330
1E
100
AcDbEntity
  8
24
100
AcDbCircle
 10
112.2969564812902
 20
541.8234042003655
 30
0.0
 40
5.0
  0
LWPOLYLINE
  5
3A785
330
1E
100
AcDbEntity
  8
130
100
AcDbPolyline
 90
        6
 70
     0
 43
0.0
 10
100.2969564812905
 20
552.3234042003658
 10
100.2969564812904
 20
534.8234042003658
 42
0.4142135623730951
 10
105.2969564812904
 20
529.8234042003659
 10
119.2969564812904
 20
529.8234042003659
 42
0.4142135623730951
 10
124.2969564812904
 20
534.8234042003658
 10
124.2969564812904
 20
552.3234042003658
  0
LWPOLYLINE
  5
3A786
330
1E
100
AcDbEntity
  8
130
100
AcDbPolyline
 90
        4
 70
     1
 43
0.0
 10
59.79695648129018
 20
552.3234042003658
 10
199.7969564812902
 20
552.3234042003658
 10
199.7969564812902
 20
387.3234042003659
 10
59.79695648129018
 20
387.3234042003659
  0
DIMENSION
  5
3A787
330
1E
100
AcDbEntity
  8
30
100
AcDbDimension
280
     0
  2
*D1
 10
226.623421101097
 20
387.3234042003659
 30
0.0
 11
226.6234211010969
 21
469.8234042003658
 31
0.0
 70
   160
 71
     5
 42
164.9999999999999
 73
     0
 74
     0
 75
     0
  3
STANDARD
100
AcDbAlignedDimension
 13
164.7969564812902
 23
552.3234042003658
 33
0.0
 14
164.7969564812902
 24
387.3234042003659
 34
0.0
 50
90.0
100
AcDbRotatedDimension
  0
DIMENSION
  5
3A788
330
1E
100
AcDbEntity
  8
30
100
AcDbDimension
280
     0
  2
*D2
 10
182.29695648129
 20
362.4823766899183
 30
0.0
 11
129.7969564812902
 21
368.9823766899183
 31
0.0
 70
    32
 71
     5
 42
104.9999999999996
 73
     0
 74
     0
 75
     0
  3
STANDARD
100
AcDbAlignedDimension
 13
77.29695648129041
 23
390.8234042003658
 33
0.0
 14
182.29695648129
 24
390.8234042003658
 34
0.0
100
AcDbRotatedDimension
  0
DIMENSION
  5
3A78A
330
1E
100
AcDbEntity
  8
30
100
AcDbDimension
280
     0
  2
*D4
 10
199.7969564812902
 20
349.5261855353263
 30
0.0
 11
129.7969564812902
 21
356.0261855353263
 31
0.0
 70
    32
 71
     5
 42
140.0
 73
     0
 74
     0
 75
     0
  3
STANDARD
100
AcDbAlignedDimension
 13
59.79695648129018
 23
387.3234042003659
 33
0.0
 14
199.7969564812902
 24
387.3234042003659
 34
0.0
100
AcDbRotatedDimension
  0
LINE
  5
3A78B
330
1E
100
AcDbEntity
  8
12
  6
DASHDOT
100
AcDbLine
 10
182.2969564812902
 20
117.4038026596659
 30
0.0
 11
182.2969564812902
 21
83.40380265966571
 31
0.0
  0
LINE
  5
3A78C
330
1E
100
AcDbEntity
  8
12
  6
DASHDOT
100
AcDbLine
 10
182.2969564812902
 20
261.4038026596659
 30
0.0
 11
182.2969564812902
 21
227.4038026596659
 31
0.0
  0
CIRCLE
  5
3A78D
330
1E
100
AcDbEntity
  8
24
100
AcDbCircle
 10
-182.2969564812902
 20
100.4038026596659
 30
0.0
 40
12.0
210
0.0
220
0.0
230
-1.0
  0
CIRCLE
  5
3A78E
330
1E
100
AcDbEntity
  8
12
100
AcDbCircle
 10
182.2969564812902
 20
244.4038026596656
 30
0.0
 40
12.0
  0
DIMENSION
  5
3A78F
330
1E
100
AcDbEntity
  8
30
100
AcDbDimension
280
     0
  2
*D5
 10
147.2969564812902
 20
48.01452697689321
 30
0.0
 11
164.7969564812902
 21
54.51452697689322
 31
0.0
 70
    32
 71
     5
 42
35.0
 73
     0
 74
     0
 75
     0
  3
STANDARD
100
AcDbAlignedDimension
 13
182.2969564812902
 23
83.40380265966571
 33
0.0
 14
147.2969564812902
 24
83.40380265966571
 34
0.0
 50
180.0
100
AcDbRotatedDimension
  0
LWPOLYLINE
  5
3A790
330
1E
100
AcDbEntity
  8
17
100
AcDbPolyline
 90
        2
 70
     0
 43
0.0
 10
195.2969564812902
 20
803.9121723739501
 10
169.2969564812902
 20
803.9121723739501
  0
LWPOLYLINE
  5
3A791
330
1E
100
AcDbEntity
  8
24
100
AcDbPolyline
 90
        8
 70
     0
 43
0.0
 10
187.2969564812902
 20
774.9121723739508
 10
187.2969564812902
 20
779.4121723739508
 10
185.2969564812902
 20
779.4121723739508
 10
185.2969564812902
 20
818.9121723739505
 10
179.2969564812902
 20
818.9121723739505
 10
179.2969564812902
 20
779.4121723739508
 10
177.2969564812902
 20
779.4121723739508
 10
177.2969564812902
 20
774.9121723739508
  0
LWPOLYLINE
  5
3A792
330
1E
100
AcDbEntity
  8
24
100
AcDbPolyline
 90
        4
 70
     0
 43
0.0
 10
192.2969564812902
 20
712.9121723739504
 10
192.2969564812902
 20
774.9121723739508
 10
172.2969564812902
 20
774.9121723739508
 10
172.2969564812902
 20
712.9121723739504
  0
LINE
  5
3A793
330
1E
100
AcDbEntity
  8
17
100
AcDbLine
 10
182.2969564812902
 20
707.9121723739504
 30
0.0
 11
182.2969564812902
 21
821.9121723739501
 31
0.0
  0
DIMENSION
  5
3A794
330
1E
100
AcDbEntity
  8
30
100
AcDbDimension
280
     0
  2
*D6
 10
182.2969564812902
 20
831.9121723739508
 30
0.0
 11
164.7969564812902
 21
837.4121723739508
 31
0.0
 70
    32
 71
     5
 42
35.0
 73
     0
 74
     0
 75
     0
  3
STANDARD1
100
AcDbAlignedDimension
 13
147.2969564812902
 23
784.9121723739508
 33
0.0
 14
182.2969564812902
 24
821.9121723739501
 34
0.0
 50
180.0
100
AcDbRotatedDimension
  0
LWPOLYLINE
  5
3A795
330
1E
100
AcDbEntity
  8
18
100
AcDbPolyline
 90
        4
 70
     1
 43
0.0
 10
258.7270991330283
 20
254.9038026596659
 10
398.7270991330283
 20
254.9038026596659
 10
398.7270991330283
 20
89.90380265966591
 10
258.7270991330283
 20
89.90380265966591
  0
LINE
  5
3A796
330
1E
100
AcDbEntity
  8
16
100
AcDbLine
 10
311.2270991330281
 20
264.9038026596659
 30
0.0
 11
311.2270991330281
 21
80.77355915620826
 31
0.0
  0
DIMENSION
  5
3A798
330
1E
100
AcDbEntity
  8
30
100
AcDbDimension
280
     0
  2
*D8
 10
361.2270991330283
 20
64.9038026596659
 30
0.0
 11
311.2270991330283
 21
71.40380265966591
 31
0.0
 70
    32
 71
     5
 42
100.0
 73
     0
 74
     0
 75
     0
  3
STANDARD
100
AcDbAlignedDimension
 13
261.2270991330283
 23
145.4038026596659
 33
0.0
 14
361.2270991330283
 24
145.4038026596659
 34
0.0
100
AcDbRotatedDimension
  0
LWPOLYLINE
  5
3A799
330
1E
100
AcDbEntity
  8
130
100
AcDbPolyline
 90
        4
 70
     1
 43
0.0
 10
59.79695648128995
 20
651.9121723739507
 10
199.7969564812902
 20
651.9121723739507
 10
199.7969564812902
 20
643.9121723739507
 10
59.79695648128995
 20
643.9121723739507
  0
LWPOLYLINE
  5
3A79A
330
1E
100
AcDbEntity
  8
130
100
AcDbPolyline
 90
        4
 70
     1
 43
0.0
 10
63.29695648129064
 20
643.9121723739507
 10
161.2969564812906
 20
643.9121723739507
 10
161.2969564812906
 20
639.9121723739507
 10
63.29695648129064
 20
639.9121723739507
  0
LWPOLYLINE
  5
3A79B
330
1E
100
AcDbEntity
  8
130
100
AcDbPolyline
 90
        4
 70
     1
 43
0.0
 10
105.29695648129
 20
633.4121723739507
 10
119.2969564812899
 20
633.4121723739507
 10
119.2969564812899
 20
633.4121723739507
 10
105.29695648129
 20
633.4121723739507
  0
LWPOLYLINE
  5
3A79C
330
1E
100
AcDbEntity
  8
130
100
AcDbPolyline
 90
        4
 70
     1
 43
0.0
 10
101.2969564812903
 20
639.9121723739507
 10
123.2969564812901
 20
639.9121723739507
 10
123.2969564812901
 20
633.4121723739507
 10
101.2969564812903
 20
633.4121723739507
  0
LWPOLYLINE
  5
3A79D
330
1E
100
AcDbEntity
  8
130
100
AcDbPolyline
 90
        4
 70
     1
 43
0.0
 10
105.29695648129
 20
633.4121723739507
 10
119.2969564812899
 20
633.4121723739507
 10
119.2969564812899
 20
633.4121723739507
 10
105.29695648129
 20
633.4121723739507
  0
LWPOLYLINE
  5
3A79E
330
1E
100
AcDbEntity
  8
130
100
AcDbPolyline
 90
        4
 70
     1
 43
0.0
 10
105.2969564812899
 20
633.4121723739507
 10
119.2969564812897
 20
633.4121723739507
 10
119.2969564812897
 20
616.9121723739507
 10
105.2969564812899
 20
616.9121723739507
  0
LWPOLYLINE
  5
3A79F
330
1E
100
AcDbEntity
  8
130
100
AcDbPolyline
 90
        2
 70
     0
 43
0.0
 10
119.2969564812901
 20
476.6641942003655
 10
105.2969564812902
 20
476.6641942003655
  0
LWPOLYLINE
  5
3A7A0
330
1E
100
AcDbEntity
  8
130
100
AcDbPolyline
 90
        2
 70
     0
 43
0.0
 10
119.2969564812901
 20
485.0633617003659
 10
105.2969564812902
 20
485.0633617003659
  0
LWPOLYLINE
  5
3A7A1
330
1E
100
AcDbEntity
  8
130
100
AcDbPolyline
 90
        2
 70
     0
 43
0.0
 10
101.2969564812902
 20
494.8234042003658
 10
101.2969564812902
 20
444.8234042003658
  0
LWPOLYLINE
  5
3A7A2
330
1E
100
AcDbEntity
  8
130
100
AcDbPolyline
 90
        2
 70
     0
 43
0.0
 10
123.2969564812903
 20
494.8234042003658
 10
123.2969564812903
 20
444.8234042003658
  0
LWPOLYLINE
  5
3A7A3
330
1E
100
AcDbEntity
  8
130
100
AcDbPolyline
 90
        4
 70
     1
 43
0.0
 10
105.2969564812902
 20
489.9782742003655
 10
105.2969564812902
 20
451.3234042003658
 10
119.2969564812901
 20
451.3234042003658
 10
119.2969564812901
 20
489.9782742003655
  0
LWPOLYLINE
  5
3A7A4
330
1E
100
AcDbEntity
  8
130
100
AcDbPolyline
 90
        4
 70
     1
 43
0.0
 10
161.2969564812904
 20
494.8234042003658
 10
161.2969564812904
 20
444.8234042003658
 10
63.29695648129064
 20
444.8234042003658
 10
63.29695648129064
 20
494.8234042003658
  0
DIMENSION
  5
3A7A5
330
1E
100
AcDbEntity
  8
30
100
AcDbDimension
280
     0
  2
*D9
 10
123.2969564812906
 20
428.2822315708308
 30
0.0
 11
137.2260816056596
 21
428.2822315708308
 31
0.0
 70
   160
 71
     5
 42
21.99999999999989
 73
     0
 74
     0
 75
     0
  3
STANDARD
100
AcDbAlignedDimension
 13
101.2969564812907
 23
444.8234042003658
 33
0.0
 14
123.2969564812906
 24
444.8234042003658
 34
0.0
100
AcDbRotatedDimension
  0
LWPOLYLINE
  5
3A7A6
330
1E
100
AcDbEntity
  8
130
  6
Continuous
100
AcDbPolyline
 90
        4
 70
     1
 43
0.0
 10
0.0
 20
891.0
 10
629.9999999999998
 20
891.0
 10
629.9999999999998
 20
0.0
 10
0.0
 20
0.0
  0
LWPOLYLINE
  5
3A7A7
330
1E
100
AcDbEntity
  8
11
100
AcDbPolyline
 90
        8
 70
     1
 43
0.0
 10
261.2270991330283
 20
197.4038026596659
 10
261.2171592326399
 20
147.404018745467
 42
0.4142768538557024
 10
262.2171592092934
 20
146.4038026596659
 10
360.2270991330283
 20
146.4038026596659
 42
0.4142135623730951
 10
361.2270991330283
 20
147.4038026596659
 10
361.2270991330283
 20
197.4038026596659
 42
0.4142135623730951
 10
360.2270991330283
 20
198.4038026596659
 10
262.2270991330283
 20
198.4038026596659
 42
0.4142135623730951
  0
LINE
  5
3A7A8
330
1E
100
AcDbEntity
  8
16
100
AcDbLine
 10
438.6186697445843
 20
172.4038026596661
 30
0.0
 11
585.734111369743
 21
172.4038026596661
 31
0.0
  0
DIMENSION
  5
3A7A9
330
1E
100
AcDbEntity
  8
30
100
AcDbDimension
280
     0
  2
*D10
 10
599.0312171695721
 20
148.403802659666
 30
0.0
 11
599.0312171695721
 21
172.4038026596661
 31
0.0
 70
   160
 71
     2
 42
48.0
 73
     0
 74
     0
 75
     0
  3
STANDARD
100
AcDbAlignedDimension
 13
503.0871831019351
 23
196.4038026596661
 33
0.0
 14
504.3864828579841
 24
148.4038026596661
 34
0.0
 50
90.0
100
AcDbRotatedDimension
  0
DIMENSION
  5
3A7AA
330
1E
100
AcDbEntity
  8
30
  6
Continuous
100
AcDbDimension
280
     0
  2
*D11
 10
504.3864828579851
 20
195.4038026596662
 30
0.0
 11
516.667259979547
 21
202.4941126365324
 31
0.0
 70
   164
  1
<>
 71
     5
 42
1.000000000013129
 73
     0
 74
     0
 75
     0
  3
STANDARD1
100
AcDbRadialDimension
 15
505.0072502643358
 25
196.1877974474287
 35
0.0
 40
0.0
  0
LINE
  5
3A7AB
330
1E
100
AcDbEntity
  8
16
100
AcDbLine
 10
493.3864828579841
 20
275.6813616812662
 30
0.0
 11
493.3864828579841
 21
80.77355915620826
 31
0.0
  0
LWPOLYLINE
  5
3A7AC
330
1E
100
AcDbEntity
  8
11
100
AcDbPolyline
 90
        8
 70
     1
 43
0.0
 10
481.3864828579841
 20
149.4038026596661
 42
0.4142135623730951
 10
482.3864828579841
 20
148.4038026596661
 10
504.3864828579841
 20
148.4038026596661
 42
0.4142135623730951
 10
505.3864828579841
 20
149.4038026596661
 10
505.3864828579841
 20
195.4038026596661
 42
0.4142135623730951
 10
504.3864828579841
 20
196.4038026596661
 10
482.3864828579841
 20
196.4038026596661
 42
0.4142135623730951
 10
481.3864828579841
 20
195.4038026596661
  0
DIMENSION
  5
3A7AD
330
1E
100
AcDbEntity
  8
30
100
AcDbDimension
280
     0
  2
*D12
 10
481.3864828579841
 20
64.92861723785932
 30
0.0
 11
493.3864828579841
 21
64.92861723785932
 31
0.0
 70
   160
  1
<>
 71
     2
 42
24.0
 73
     0
 74
     0
 75
     0
  3
STANDARD1
100
AcDbAlignedDimension
 13
505.3864828579841
 23
149.4038026596661
 33
0.0
 14
481.3864828579841
 24
149.4038026596661
 34
0.0
100
AcDbRotatedDimension
  0
LWPOLYLINE
  5
3A7AE
330
1E
100
AcDbEntity
  8
18
100
AcDbPolyline
 90
        4
 70
     1
 43
0.0
 10
440.8864828579844
 20
254.9038026596659
 10
580.8864828579844
 20
254.9038026596659
 10
580.8864828579844
 20
89.90380265966591
 10
440.8864828579844
 20
89.90380265966591
  0
MTEXT
  5
3A7AF
330
1E
100
AcDbEntity
  8
240
100
AcDbMText
 10
275.2732447861085
 20
33.4548873516992
 30
0.0
 40
7.826237649998486
 41
0.0
 46
0.0
 71
     1
 72
     1
  1
[Cutout A]
  7
SLDTEXTSTYLE0
 73
     1
 44
1.0
  0
MTEXT
  5
3A7B0
330
1E
100
AcDbEntity
  8
240
100
AcDbMText
 10
482.6554285845076
 20
33.4548873516992
 30
0.0
 40
7.826237649998486
 41
0.0
 46
0.0
 71
     1
 72
     1
  1
[Cutout B]
  7
SLDTEXTSTYLE0
 73
     1
 44
1.0
  0
DIMENSION
  5
3A7B1
330
1E
100
AcDbEntity
  8
30
  6
Continuous
100
AcDbDimension
280
     0
  2
*D13
 10
360.0681805104151
 20
197.6109094408525
 30
0.0
 11
372.3489576319773
 21
204.7012194177189
 31
0.0
 70
   164
  1
<>
 71
     5
 42
1.00000000001296
 73
     0
 74
     0
 75
     0
  3
STANDARD1
100
AcDbRadialDimension
 15
360.6889479167656
 25
198.3949042286149
 35
0.0
 40
0.0
  0
LWPOLYLINE
  5
3A7B2
330
1E
100
AcDbEntity
  8
0
  6
SLD-実線
 62
     7
370
    15
100
AcDbPolyline
 90
        2
 70
     0
 43
0.0
 10
119.917060533601
 20
552.3234042003623
 42
0.3246235312781752
 10
104.6768524289793
 20
552.3234042003623
  0
LWPOLYLINE
  5
3A7B3
330
1E
100
AcDbEntity
  8
0
  6
SLD-実線
 62
     7
370
    15
100
AcDbPolyline
 90
        2
 70
     0
 43
0.0
 10
189.9170605394292
 20
552.3234041961325
 42
0.3246235315849617
 10
174.6768524231511
 20
552.3234041961325
  0
LWPOLYLINE
  5
3A7B4
330
1E
100
AcDbEntity
  8
0
  6
SLD-実線
 62
     7
370
    15
100
AcDbPolyline
 90
        2
 70
     0
 43
0.0
 10
84.91706053360088
 20
552.3234042003621
 42
0.3246235312781752
 10
69.67685242897949
 20
552.3234042003621
  0
LWPOLYLINE
  5
3A7B5
330
1E
100
AcDbEntity
  8
0
  6
SLD-実線
 62
     7
370
    15
100
AcDbPolyline
 90
        2
 70
     0
 43
0.0
 10
154.9170605336009
 20
552.3234042003621
 42
0.3246235312781752
 10
139.6768524289795
 20
552.3234042003621
  0
LINE
  5
3A7B6
330
1E
100
AcDbEntity
  8
16
100
AcDbLine
 10
256.4592860196281
 20
172.4038026596661
 30
0.0
 11
407.0238137064724
 21
172.4038026596661
 31
0.0
  0
LWPOLYLINE
  5
3A7B7
330
1E
100
AcDbEntity
  8
130
100
AcDbPolyline
 90
        6
 70
     0
 43
0.0
 10
170.2969564812904
 20
552.3234042003658
 10
170.2969564812904
 20
534.8234042003658
 42
0.4142135623730951
 10
175.2969564812904
 20
529.8234042003659
 10
189.2969564812904
 20
529.8234042003659
 42
0.4142135623730951
 10
194.2969564812904
 20
534.8234042003658
 10
194.2969564812904
 20
552.3234042003658
  0
LWPOLYLINE
  5
3A7B8
330
1E
100
AcDbEntity
  8
12
  6
DASHDOT
100
AcDbPolyline
 90
        2
 70
     0
 43
0.0
 10
129.7969564812902
 20
401.3234042003662
 10
129.7969564812902
 20
412.3234042003658
  0
LWPOLYLINE
  5
3A7B9
330
1E
100
AcDbEntity
  8
12
  6
DASHDOT
100
AcDbPolyline
 90
        2
 70
     0
 43
0.0
 10
89.29695648129053
 20
406.8234042003656
 10
100.2969564812905
 20
406.8234042003656
  0
LWPOLYLINE
  5
3A7BA
330
1E
100
AcDbEntity
  8
17
100
AcDbPolyline
 90
        2
 70
     0
 43
0.0
 10
140.2969564812904
 20
397.8234042003662
 10
154.2969564812904
 20
397.8234042003662
  0
LWPOLYLINE
  5
3A7BB
330
1E
100
AcDbEntity
  8
12
  6
DASHDOT
100
AcDbPolyline
 90
        2
 70
     0
 43
0.0
 10
124.2969564812904
 20
406.8234042003656
 10
135.2969564812904
 20
406.8234042003656
  0
LWPOLYLINE
  5
3A7BC
330
1E
100
AcDbEntity
  8
17
100
AcDbPolyline
 90
        2
 70
     0
 43
0.0
 10
189.2969564812904
 20
397.8234042003662
 10
175.2969564812904
 20
397.8234042003662
  0
LWPOLYLINE
  5
3A7BD
330
1E
100
AcDbEntity
  8
17
100
AcDbPolyline
 90
        2
 70
     0
 43
0.0
 10
147.2969564812902
 20
390.823404200366
 10
147.2969564812902
 20
404.8234042003659
  0
LWPOLYLINE
  5
3A7BE
330
1E
100
AcDbEntity
  8
17
100
AcDbPolyline
 90
        2
 70
     0
 43
0.0
 10
105.2969564812904
 20
397.8234042003662
 10
119.2969564812904
 20
397.8234042003662
  0
LWPOLYLINE
  5
3A7BF
330
1E
100
AcDbEntity
  8
17
100
AcDbPolyline
 90
        2
 70
     0
 43
0.0
 10
182.2969564812902
 20
390.823404200366
 10
182.2969564812902
 20
404.8234042003659
  0
LWPOLYLINE
  5
3A7C0
330
1E
100
AcDbEntity
  8
17
100
AcDbPolyline
 90
        2
 70
     0
 43
0.0
 10
77.29695648129018
 20
390.823404200366
 10
77.29695648129018
 20
404.8234042003659
  0
LWPOLYLINE
  5
3A7C1
330
1E
100
AcDbEntity
  8
17
100
AcDbPolyline
 90
        2
 70
     0
 43
0.0
 10
70.29695648129052
 20
397.8234042003662
 10
84.29695648129053
 20
397.8234042003662
  0
LWPOLYLINE
  5
3A7C2
330
1E
100
AcDbEntity
  8
12
  6
DASHDOT
100
AcDbPolyline
 90
        2
 70
     0
 43
0.0
 10
94.79695648129018
 20
401.3234042003662
 10
94.79695648129018
 20
412.3234042003658
  0
CIRCLE
  5
3A7C3
330
1E
100
AcDbEntity
  8
24
100
AcDbCircle
 10
147.2969564812902
 20
397.8234042003662
 30
0.0
 40
5.0
  0
CIRCLE
  5
3A7C4
330
1E
100
AcDbEntity
  8
12
100
AcDbCircle
 10
94.79695648129018
 20
406.8234042003656
 30
0.0
 40
4.0
  0
CIRCLE
  5
3A7C5
330
1E
100
AcDbEntity
  8
24
100
AcDbCircle
 10
-182.2969564812902
 20
397.8234042003662
 30
0.0
 40
5.0
210
0.0
220
0.0
230
-1.0
  0
CIRCLE
  5
3A7C6
330
1E
100
AcDbEntity
  8
12
100
AcDbCircle
 10
-129.7969564812902
 20
406.8234042003656
 30
0.0
 40
4.0
210
0.0
220
0.0
230
-1.0
  0
CIRCLE
  5
3A7C7
330
1E
100
AcDbEntity
  8
24
100
AcDbCircle
 10
77.29695648129018
 20
397.8234042003662
 30
0.0
 40
5.0
  0
LWPOLYLINE
  5
3A7C8
330
1E
100
AcDbEntity
  8
130
100
AcDbPolyline
 90
        6
 70
     0
 43
0.0
 10
135.2969564812904
 20
387.3234042003659
 10
135.2969564812904
 20
404.8234042003659
 42
-0.4142135623730951
 10
140.2969564812904
 20
409.8234042003658
 10
154.2969564812904
 20
409.8234042003658
 42
-0.4142135623730951
 10
159.2969564812904
 20
404.8234042003659
 10
159.2969564812904
 20
387.3234042003659
  0
LWPOLYLINE
  5
3A7C9
330
1E
100
AcDbEntity
  8
130
100
AcDbPolyline
 90
        6
 70
     0
 43
0.0
 10
65.29695648129052
 20
387.3234042003659
 10
65.29695648129052
 20
404.8234042003659
 42
-0.4142135623730951
 10
70.29695648129052
 20
409.8234042003658
 10
84.29695648129053
 20
409.8234042003658
 42
-0.4142135623730951
 10
89.29695648129053
 20
404.8234042003659
 10
89.29695648129053
 20
387.3234042003659
  0
CIRCLE
  5
3A7CA
330
1E
100
AcDbEntity
  8
24
100
AcDbCircle
 10
112.2969564812902
 20
397.8234042003662
 30
0.0
 40
5.0
  0
LWPOLYLINE
  5
3A7CB
330
1E
100
AcDbEntity
  8
130
100
AcDbPolyline
 90
        6
 70
     0
 43
0.0
 10
100.2969564812905
 20
387.3234042003659
 10
100.2969564812904
 20
404.8234042003659
 42
-0.4142135623730951
 10
105.2969564812904
 20
409.8234042003658
 10
119.2969564812904
 20
409.8234042003658
 42
-0.4142135623730951
 10
124.2969564812904
 20
404.8234042003659
 10
124.2969564812904
 20
387.3234042003659
  0
LWPOLYLINE
  5
3A7CC
330
1E
100
AcDbEntity
  8
0
  6
SLD-実線
 62
     7
370
    15
100
AcDbPolyline
 90
        2
 70
     0
 43
0.0
 10
119.917060533601
 20
387.3234042003693
 42
-0.3246235312781752
 10
104.6768524289793
 20
387.3234042003693
  0
LWPOLYLINE
  5
3A7CD
330
1E
100
AcDbEntity
  8
0
  6
SLD-実線
 62
     7
370
    15
100
AcDbPolyline
 90
        2
 70
     0
 43
0.0
 10
189.9170605394292
 20
387.3234042045993
 42
-0.3246235315849617
 10
174.6768524231511
 20
387.3234042045993
  0
LWPOLYLINE
  5
3A7CE
330
1E
100
AcDbEntity
  8
0
  6
SLD-実線
 62
     7
370
    15
100
AcDbPolyline
 90
        2
 70
     0
 43
0.0
 10
84.91706053360088
 20
387.3234042003695
 42
-0.3246235312781752
 10
69.67685242897949
 20
387.3234042003695
  0
LWPOLYLINE
  5
3A7CF
330
1E
100
AcDbEntity
  8
0
  6
SLD-実線
 62
     7
370
    15
100
AcDbPolyline
 90
        2
 70
     0
 43
0.0
 10
154.9170605336009
 20
387.3234042003695
 42
-0.3246235312781752
 10
139.6768524289795
 20
387.3234042003695
  0
LWPOLYLINE
  5
3A7D0
330
1E
100
AcDbEntity
  8
130
100
AcDbPolyline
 90
        6
 70
     0
 43
0.0
 10
170.2969564812904
 20
387.3234042003659
 10
170.2969564812904
 20
404.8234042003659
 42
-0.4142135623730951
 10
175.2969564812904
 20
409.8234042003658
 10
189.2969564812904
 20
409.8234042003658
 42
-0.4142135623730951
 10
194.2969564812904
 20
404.8234042003659
 10
194.2969564812904
 20
387.3234042003659
  0
LINE
  5
3A7D1
330
1E
100
AcDbEntity
  8
130
100
AcDbLine
 10
400.3714363970438
 20
533.4207484878723
 30
0.0
 11
400.3714363970438
 21
520.8234042003655
 31
0.0
  0
LINE
  5
3A7D2
330
1E
100
AcDbEntity
  8
130
100
AcDbLine
 10
392.3714363970439
 20
520.8234042003655
 30
0.0
 11
400.3714363970438
 21
520.8234042003655
 31
0.0
  0
LINE
  5
3A7D3
330
1E
100
AcDbEntity
  8
16
100
AcDbLine
 10
376.8805672493137
 20
469.8234042003658
 30
0.0
 11
468.5714363970438
 21
469.8234042003658
 31
0.0
  0
DIMENSION
  5
3A7D4
330
1E
100
AcDbEntity
  8
30
100
AcDbDimension
280
     0
  2
*D14
 10
460.3714363970438
 20
357.3234042003659
 30
0.0
 11
430.3714363970438
 21
362.8234042003659
 31
0.0
 70
    32
 71
     5
 42
60.0
 73
     0
 74
     0
 75
     0
  3
STANDARD1
100
AcDbAlignedDimension
 13
400.3714363970438
 23
401.0731475109809
 33
0.0
 14
460.3714363970438
 24
362.3234042003659
 34
0.0
100
AcDbRotatedDimension
  0
DIMENSION
  5
3A7D5
330
1E
100
AcDbEntity
  8
30
100
AcDbDimension
280
     0
  2
*D15
 10
460.3714363970438
 20
334.8897007940808
 30
0.0
 11
424.3714363970438
 21
340.3897007940808
 31
0.0
 70
    32
 71
     5
 42
72.0
 73
     0
 74
     0
 75
     0
  3
STANDARD1
100
AcDbAlignedDimension
 13
388.3714363970439
 23
444.8234042003658
 33
0.0
 14
460.3714363970438
 24
362.3234042003659
 34
0.0
100
AcDbRotatedDimension
  0
DIMENSION
  5
3A7D6
330
1E
100
AcDbEntity
  8
30
100
AcDbDimension
280
     0
  2
*D16
 10
460.3714363970438
 20
346.5121712463418
 30
0.0
 11
426.3714363970438
 21
352.0121712463418
 31
0.0
 70
    32
 71
     5
 42
68.0
 73
     0
 74
     0
 75
     0
  3
STANDARD1
100
AcDbAlignedDimension
 13
392.3714363970439
 23
418.8234042003657
 33
0.0
 14
460.3714363970438
 24
362.3234042003659
 34
0.0
100
AcDbRotatedDimension
  0
DIMENSION
  5
3A7D7
330
1E
100
AcDbEntity
  8
30
100
AcDbDimension
280
     0
  2
*D17
 10
567.3714363970438
 20
346.5121712463418
 30
0.0
 11
513.8714363970438
 21
352.0121712463418
 31
0.0
 70
    32
 71
     5
 42
107.0
 73
     0
 74
     0
 75
     0
  3
STANDARD1
100
AcDbAlignedDimension
 13
460.3714363970438
 23
387.3234042003659
 33
0.0
 14
567.3714363970438
 24
397.8234042003659
 34
0.0
100
AcDbRotatedDimension
  0
LINE
  5
3A7D8
330
1E
100
AcDbEntity
  8
24
100
AcDbLine
 10
460.3714363970438
 20
387.7218827828333
 30
0.0
 11
529.6902902442967
 21
387.7218827828333
 31
0.0
  0
LWPOLYLINE
  5
3A7D9
330
1E
100
AcDbEntity
  8
24
100
AcDbPolyline
 90
        2
 70
     0
 43
0.0
 10
-532.3714346487028
 20
402.7311399920681
 42
0.0678333867575107
 10
-534.4171050301024
 20
407.7342258123207
210
0.0
220
0.0
230
-1.0
  0
ARC
  5
3A7DA
330
1E
100
AcDbEntity
  8
24
100
AcDbCircle
 10
512.3590933675566
 20
397.7280542975769
 30
0.0
 40
20.01234302948724
100
AcDbArc
 50
329.9999999999982
 51
30.00000000000172
  0
LWPOLYLINE
  5
3A7DB
330
1E
100
AcDbEntity
  8
24
100
AcDbPolyline
 90
        2
 70
     0
 43
0.0
 10
531.7359594533996
 20
402.7311400549486
 10
532.3714363970435
 20
402.7311400549486
  0
LINE
  5
3A7DC
330
1E
100
AcDbEntity
  8
24
100
AcDbLine
 10
460.3714363970438
 20
407.7342258123204
 30
0.0
 11
529.6902902442967
 21
407.7342258123204
 31
0.0
  0
DIMENSION
  5
3A7DD
330
1E
100
AcDbEntity
  8
30
100
AcDbDimension
280
     0
  2
*D18
 10
580.3930366986468
 20
544.818775564308
 30
0.0
 11
573.8930366986465
 21
556.1521088976412
 31
0.0
 70
    32
 71
     0
 72
     0
 41
0.0
 42
6.0
 73
     0
 74
     0
 75
     0
  3
STANDARD
100
AcDbAlignedDimension
 13
567.3930366986468
 23
538.8187755643079
 33
0.0
 14
567.3930366986468
 24
544.818775564308
 34
0.0
 50
90.0
100
AcDbRotatedDimension
1001
ACAD
1000
DSTYLE
1002
{
1070
   172
1070
     1
1002
}
  0
LINE
  5
3A7DE
330
1E
100
AcDbEntity
  8
17
100
AcDbLine
 10
450.3930366986467
 20
541.8169241098848
 30
0.0
 11
572.3930366986462
 21
541.8169241098848
 31
0.0
  0
DIMENSION
  5
3A7DF
330
1E
100
AcDbEntity
  8
30
100
AcDbDimension
280
     0
  2
*D19
 10
501.2063129439598
 20
402.2280542975768
 30
0.0
 11
505.5396462772931
 21
418.9983836350468
 31
0.0
 70
   160
 71
     0
 72
     0
 41
0.0
 42
9.000000000000227
 73
     0
 74
     0
 75
     0
  3
STANDARD1
100
AcDbAlignedDimension
 13
513.8569333373964
 23
393.2280542975767
 33
0.0
 14
513.8544333373967
 24
402.2280542975768
 34
0.0
 50
90.0
100
AcDbRotatedDimension
  0
LINE
  5
3A7E0
330
1E
100
AcDbEntity
  8
17
100
AcDbLine
 10
450.3930366986467
 20
397.7280542975769
 30
0.0
 11
572.4374441986462
 21
397.7280542975769
 31
0.0
  0
DIMENSION
  5
3A7E1
330
1E
100
AcDbEntity
  8
30
100
AcDbDimension
280
     0
  2
*D20
 10
580.3930366986468
 20
407.728054297577
 30
0.0
 11
573.8930366986465
 21
397.7280542975769
 31
0.0
 70
    32
 71
     0
 72
     0
 41
0.0
 42
20.00000000000034
 73
     0
 74
     0
 75
     0
  3
STANDARD
100
AcDbAlignedDimension
 13
564.7135447743351
 23
387.7280542975766
 33
0.0
 14
564.7135447743352
 24
407.728054297577
 34
0.0
 50
90.0
100
AcDbRotatedDimension
  0
DIMENSION
  5
3A7E2
330
1E
100
AcDbEntity
  8
30
100
AcDbDimension
280
     0
  2
*D21
 10
567.3930366986468
 20
377.2280542975769
 30
0.0
 11
559.3930366986467
 21
382.7280542975769
 31
0.0
 70
    32
 71
     5
 42
16.0
 73
     0
 74
     0
 75
     0
  3
STANDARD1
100
AcDbAlignedDimension
 13
551.3930366986467
 23
384.7280542975769
 33
0.0
 14
567.3930366986468
 24
397.7280542975769
 34
0.0
100
AcDbRotatedDimension
  0
LINE
  5
3A7E3
330
1E
100
AcDbEntity
  8
1
  6
Continuous
 62
     2
100
AcDbLine
 10
460.3714363970438
 20
552.3234042003658
 30
0.0
 11
460.3714363970438
 21
387.2215742070961
 31
0.0
  0
ARC
  5
3A7E4
330
1E
100
AcDbEntity
  8
24
100
AcDbCircle
 10
-513.7248507268609
 20
397.7280542975769
 30
0.0
 40
20.01234302948724
210
0.0
220
0.0
230
-1.0
100
AcDbArc
 50
329.9999999999982
 51
345.5224880000012
  0
ARC
  5
3A7E5
330
1E
100
AcDbEntity
  8
24
100
AcDbCircle
 10
519.3634134278774
 20
397.7280542975769
 30
0.0
 40
4.50277718163463
100
AcDbArc
 50
270.0
 51
90.0
  0
CIRCLE
  5
3A7E6
330
1E
100
AcDbEntity
  8
24
100
AcDbCircle
 10
551.3831622750569
 20
397.7280542975769
 30
0.0
 40
4.50277718163463
  0
LWPOLYLINE
  5
3A7E7
330
1E
100
AcDbEntity
  8
24
100
AcDbPolyline
 90
        2
 70
     0
 43
0.0
 10
564.7118911219433
 20
387.7218827828331
 42
0.2679491924311281
 10
564.7118911219433
 20
407.7342258123207
  0
LWPOLYLINE
  5
3A7E8
330
1E
100
AcDbEntity
  8
24
100
AcDbPolyline
 90
        2
 70
     0
 43
0.0
 10
-534.4171050301024
 20
387.7218827828331
 42
0.0678333867574932
 10
-532.3714346487031
 20
392.7249686030842
210
0.0
220
0.0
230
-1.0
  0
ARC
  5
3A7E9
330
1E
100
AcDbEntity
  8
24
100
AcDbCircle
 10
-513.7248507268609
 20
397.7280542975769
 30
0.0
 40
20.01234302948724
210
0.0
220
0.0
230
-1.0
100
AcDbArc
 50
14.47751199999663
 51
30.00000000000172
  0
ARC
  5
3A7EA
330
1E
100
AcDbEntity
  8
24
100
AcDbCircle
 10
513.3597105190308
 20
397.7280542975769
 30
0.0
 40
4.50277718163463
100
AcDbArc
 50
90.0
 51
270.0
  0
LINE
  5
3A7EB
330
1E
100
AcDbEntity
  8
24
100
AcDbLine
 10
489.8896423655377
 20
407.7342258123204
 30
0.0
 11
489.8896423655377
 21
387.7218827828333
 31
0.0
  0
LWPOLYLINE
  5
3A7EC
330
1E
100
AcDbEntity
  8
24
100
AcDbPolyline
 90
        2
 70
     0
 43
0.0
 10
534.4171056061465
 20
387.7218827828333
 10
564.7118905458996
 20
387.7218827828333
  0
LWPOLYLINE
  5
3A7ED
330
1E
100
AcDbEntity
  8
24
100
AcDbPolyline
 90
        2
 70
     0
 43
0.0
 10
534.4171056061465
 20
407.7342258123204
 10
564.7118905458996
 20
407.7342258123204
  0
LINE
  5
3A7EE
330
1E
100
AcDbEntity
  8
24
100
AcDbLine
 10
519.3634134278774
 20
402.2308314792113
 30
0.0
 11
513.3597105190308
 21
402.2308314792113
 31
0.0
  0
LINE
  5
3A7EF
330
1E
100
AcDbEntity
  8
24
100
AcDbLine
 10
489.8896423655377
 20
402.7311400549486
 30
0.0
 11
494.347984641018
 21
402.7311400549486
 31
0.0
  0
LINE
  5
3A7F0
330
1E
100
AcDbEntity
  8
24
100
AcDbLine
 10
513.3597105190308
 20
393.2252771159424
 30
0.0
 11
519.3634134278774
 21
393.2252771159424
 31
0.0
  0
LINE
  5
3A7F1
330
1E
100
AcDbEntity
  8
17
100
AcDbLine
 10
551.3831622750569
 20
413.7360772667434
 30
0.0
 11
551.3930366986467
 21
381.7280542975769
 31
0.0
  0
LWPOLYLINE
  5
3A7F2
330
1E
100
AcDbEntity
  8
24
100
AcDbPolyline
 90
        2
 70
     0
 43
0.0
 10
531.7359594533996
 20
392.724968540205
 10
532.3714363970435
 20
392.724968540205
  0
LINE
  5
3A7F3
330
1E
100
AcDbEntity
  8
24
100
AcDbLine
 10
489.8896423655377
 20
392.724968540205
 30
0.0
 11
494.347984641018
 21
392.724968540205
 31
0.0
  0
LINE
  5
3A7F4
330
1E
100
AcDbEntity
  8
17
100
AcDbLine
 10
551.3831622750569
 20
554.8249470790516
 30
0.0
 11
551.3831622750569
 21
528.8089011407183
 31
0.0
  0
LWPOLYLINE
  5
3A7F5
330
1E
100
AcDbEntity
  8
24
100
AcDbPolyline
 90
        8
 70
     0
 43
0.0
 10
526.4121683943515
 20
546.8200098672566
 10
533.2245825927339
 20
546.8200098672566
 10
533.2245825927339
 20
544.818775564308
 10
567.3930366986468
 20
544.818775564308
 10
567.3930366986468
 20
538.8150726554619
 10
533.2245825927339
 20
538.8150726554619
 10
533.2245825927339
 20
536.8138383525132
 10
526.4121683943515
 20
536.8138383525132
  0
LWPOLYLINE
  5
3A7F6
330
1E
100
AcDbEntity
  8
24
100
AcDbPolyline
 90
        3
 70
     0
 43
0.0
 10
460.3714363970438
 20
551.8230956246285
 10
526.4121683943515
 20
551.8230956246285
 10
526.4121683943515
 20
544.818775564308
  0
LWPOLYLINE
  5
3A7F7
330
1E
100
AcDbEntity
  8
24
100
AcDbPolyline
 90
        3
 70
     0
 43
0.0
 10
460.3714363970438
 20
531.8107525951412
 10
526.4121683943515
 20
531.8107525951412
 10
526.4121683943515
 20
538.8150726554619
  0
LWPOLYLINE
  5
3A7F8
330
1E
100
AcDbEntity
  8
24
100
AcDbPolyline
 90
        8
 70
     0
 43
0.0
 10
489.8896423655377
 20
536.8138383525132
 10
495.2011308367082
 20
536.8138383525132
 10
495.2011308367082
 20
538.8150726554619
 10
532.3714363970436
 20
538.8150726554619
 10
532.3714363970436
 20
544.818775564308
 10
495.2011308367082
 20
544.818775564308
 10
495.2011308367082
 20
546.8200098672566
 10
489.8896423655377
 20
546.8200098672566
  0
LWPOLYLINE
  5
3A7F9
330
1E
100
AcDbEntity
  8
24
100
AcDbPolyline
 90
        2
 70
     0
 43
0.0
 10
489.8896423655377
 20
551.8230956246285
 10
489.8896423655377
 20
531.8107525951412
  0
DIMENSION
  5
3A7FA
330
1E
100
AcDbEntity
  8
30
100
AcDbDimension
280
     0
  2
*D22
 10
590.3714363970437
 20
541.8234042003656
 30
0.0
 11
583.8714363970438
 21
469.8234042003658
 31
0.0
 70
    32
 71
     0
 72
     0
 41
0.0
 42
143.9999999999999
 73
     0
 74
     0
 75
     0
  3
STANDARD
100
AcDbAlignedDimension
 13
580.3714363970438
 23
397.8234042003659
 33
0.0
 14
580.3714363970438
 24
541.8234042003656
 34
0.0
 50
90.0
100
AcDbRotatedDimension
  0
DIMENSION
  5
3A7FB
330
1E
100
AcDbEntity
  8
30
100
AcDbDimension
280
     0
  2
*D23
 10
532.3714363970436
 20
357.3234042003659
 30
0.0
 11
490.628348358854
 21
357.3234042003659
 31
0.0
 70
   160
 71
     5
 42
72.0
 73
     0
 74
     0
 75
     0
  3
STANDARD
100
AcDbAlignedDimension
 13
460.3714363970438
 23
362.3234042003659
 33
0.0
 14
532.3714363970436
 24
387.228054297577
 34
0.0
100
AcDbRotatedDimension
  0
LWPOLYLINE
  5
3A7FC
330
1E
100
AcDbEntity
  8
130
100
AcDbPolyline
 90
        4
 70
     0
 43
0.0
 10
388.3714363970439
 20
447.3234042003658
 10
381.8714363970437
 20
447.3234042003658
 10
381.8714363970437
 20
492.3234042003657
 10
388.3714363970439
 20
492.3234042003657
  0
LWPOLYLINE
  5
3A7FD
330
1E
100
AcDbEntity
  8
130
100
AcDbPolyline
 90
        4
 70
     0
 43
0.0
 10
392.3714363970439
 20
444.8234042003655
 10
388.3714363970439
 20
444.8234042003655
 10
388.3714363970439
 20
494.8234042003655
 10
392.3714363970439
 20
494.8234042003655
  0
DIMENSION
  5
3A7FF
330
1E
100
AcDbEntity
  8
30
100
AcDbDimension
280
     0
  2
*D24
 10
353.0417607466362
 20
444.8234042003658
 30
0.0
 11
353.0417607466361
 21
469.8234042003658
 31
0.0
 70
   160
 71
     5
 42
50.0
 73
     0
 74
     0
 75
     0
  3
STANDARD
100
AcDbAlignedDimension
 13
388.3714363970439
 23
494.8234042003655
 33
0.0
 14
388.3714363970439
 24
444.8234042003655
 34
0.0
 50
90.0
100
AcDbRotatedDimension
  0
LWPOLYLINE
  5
3A801
330
1E
100
AcDbEntity
  8
130
100
AcDbPolyline
 90
       26
 70
     1
 43
0.0
 10
392.3714363970439
 20
520.8234042003655
 10
392.3714363970439
 20
418.8234042003657
 10
400.3714363970438
 20
418.8234042003657
 10
400.3714363970438
 20
406.2260599128591
 10
402.384282837244
 20
391.9039135649659
 10
402.7483740844438
 20
389.3132572843658
 10
402.9044329031169
 20
388.7720382901983
 10
403.2051150455478
 20
388.2951871909837
 10
403.6298270696975
 20
387.922158507242
 10
404.1384961735587
 20
387.6794862939769
 10
404.6940075257073
 20
387.5919123962459
 10
407.0766733982439
 20
387.5503232553659
 10
413.5766735323436
 20
387.4368620887659
 10
460.3714363970438
 20
387.3234042003659
 10
460.3714363970438
 20
552.3234042003658
 10
413.5766735323436
 20
552.2099463119658
 10
407.0766733982439
 20
552.0964851453659
 10
404.6940075257073
 20
552.0548960044857
 10
404.1384961735587
 20
551.9673221067548
 10
403.6298270696975
 20
551.7246498934896
 10
403.2051150455478
 20
551.3516212097481
 10
402.9044329031169
 20
550.8747701105335
 10
402.7483740844438
 20
550.3335511163659
 10
402.384282837244
 20
547.7428948357657
 10
400.3714363970438
 20
533.4207484878723
 10
400.3714363970438
 20
520.8234042003659
  0
LINE
  5
3A802
330
1E
100
AcDbEntity
  8
17
100
AcDbLine
 10
515.9349888756089
 20
554.8249470790515
 30
0.0
 11
515.9349888756089
 21
528.8089011407183
 31
0.0
  0
LINE
  5
3A803
330
1E
100
AcDbEntity
  8
17
100
AcDbLine
 10
513.3714363970438
 20
410.7360772667433
 30
0.0
 11
513.3714363970438
 21
381.7200313284102
 31
0.0
  0
LWPOLYLINE
  5
3A804
330
1E
100
AcDbEntity
  8
130
100
AcDbPolyline
 90
       53
 70
     0
 43
0.0
 10
381.8714363970437
 20
481.4860392003659
 10
369.6207603313732
 20
485.8261166213729
 42
0.4244748162090625
 10
367.1700360003764
 20
484.3184209534533
 10
366.4507224097663
 20
481.0467868812466
 42
0.4248673327981316
 10
368.0424556767828
 20
478.6475753754912
 10
368.441733948145
 20
478.5748176957397
 10
368.831523485466
 20
478.5048116778514
 10
369.2120117401243
 20
478.4374673822896
 10
369.5833861634883
 20
478.3726948695202
 10
369.9458342069271
 20
478.310404200008
 10
370.2995433218092
 20
478.2505054342191
 10
370.6447009595032
 20
478.1929086326186
 10
370.9814945713781
 20
478.1375238556721
 10
371.3101116088024
 20
478.0842611638452
 10
371.6307395231448
 20
478.0330306176032
 10
371.9435657657742
 20
477.9837422774114
 10
372.248777788059
 20
477.9363062037353
 10
372.5465630413681
 20
477.8906324570407
 10
372.8371089770702
 20
477.8466310977931
 10
373.120603046534
 20
477.8042121864575
 10
373.3972327011281
 20
477.7632857834996
 10
373.6671853922214
 20
477.7237619493848
 10
373.9306485711825
 20
477.6855507445787
 10
374.1878096893801
 20
477.6485622295468
 10
374.4388561981829
 20
477.6127064647543
 10
374.6839755489597
 20
477.577893510667
 10
374.9233551930789
 20
477.5440334277497
 10
375.1571825819095
 20
477.511036276469
 10
375.3856451668203
 20
477.4788121172893
 10
375.6089303991796
 20
477.4472710106766
 10
375.8272257303565
 20
477.4163230170962
 10
376.0407186117195
 20
477.3858781970137
 10
376.2495964946373
 20
477.3558466108943
 10
376.4540468304788
 20
477.3261383192036
 10
376.6542570706125
 20
477.2966633824073
 10
376.8504146664071
 20
477.2673318609705
 10
377.0427070692315
 20
477.2380538153591
 10
377.2313217304543
 20
477.2087393060381
 10
377.4164461014441
 20
477.1792983934731
 10
377.5982638856933
 20
477.1496457474602
 10
377.7769134149164
 20
477.1197518383315
 10
378.1251398856229
 20
477.0592711079442
 10
378.4619871504777
 20
476.9979212991867
 10
378.7883163028435
 20
476.9357681774232
 10
379.1049884360823
 20
476.8728775080178
 10
379.4128646435565
 20
476.8093150563343
 10
379.7128060186282
 20
476.7451465877372
 10
380.0056736546594
 20
476.6804378675903
 10
380.2923286450128
 20
476.6152546612578
 10
380.5736320830504
 20
476.5496627341037
 10
380.8504450621344
 20
476.4837278514922
 10
381.394044016891
 20
476.3510922813528
 10
381.9300142561802
 20
476.2178740737526
  0
LEADER
  5
3A805
330
1E
100
AcDbEntity
  8
30
100
AcDbLeader
  3
STANDARD1
 76
     3
 10
551.3831622750569
 20
402.2308314792113
 30
0.0
 10
556.2500065287325
 20
424.904853926298
 30
0.0
 10
569.7593306693934
 20
424.904853926298
 30
0.0
211
-1.0
221
0.0
231
0.0
1001
ACAD
1000
DSTYLE
1002
{
1070
   147
1040
2.0
1070
    77
1070
     0
1002
}
  0
MTEXT
  5
3A806
330
1E
100
AcDbEntity
  8
30
  6
Continuous
100
AcDbMText
 10
559.2500065287326
 20
433.2079259536444
 30
0.0
 40
7.0
 41
30.0
 46
0.0
 71
     1
 72
     5
  1
%%C9
  7
blockfont
 73
     1
 44
1.0
  0
LINE
  5
3A807
330
1E
100
AcDbEntity
  8
17
100
AcDbLine
 10
519.3714363970436
 20
413.2441002359104
 30
0.0
 11
519.3714363970436
 21
381.228054297577
 31
0.0
  0
DIMENSION
  5
3A808
330
1E
100
AcDbEntity
  8
30
100
AcDbDimension
280
     0
  2
*D25
 10
519.3714363970436
 20
364.8169675900835
 30
0.0
 11
526.5544430085253
 21
364.8169675900835
 31
0.0
 70
   160
 71
     5
 42
13.0
 73
     0
 74
     0
 75
     0
  3
STANDARD1
100
AcDbAlignedDimension
 13
532.3714363970436
 23
384.2280542975769
 33
0.0
 14
519.3714363970436
 24
384.2280542975769
 34
0.0
100
AcDbRotatedDimension
  0
DIMENSION
  5
3A809
330
1E
100
AcDbEntity
  8
30
100
AcDbDimension
280
     0
  2
*D26
 10
513.3714363970438
 20
364.8169675900835
 30
0.0
 11
505.0381030637105
 21
370.3169675900836
 31
0.0
 70
    32
 71
     5
 42
6.0
 73
     0
 74
     0
 75
     0
  3
STANDARD1
100
AcDbAlignedDimension
 13
519.3714363970436
 23
384.7200313284101
 33
0.0
 14
513.3714363970438
 24
384.7200313284101
 34
0.0
100
AcDbRotatedDimension
  0
DIMENSION
  5
3A80A
330
1E
100
AcDbEntity
  8
30
100
AcDbDimension
280
     0
  2
*D27
 10
381.8714363970439
 20
334.8897007940808
 30
0.0
 11
354.932045339503
 21
334.8897007940808
 31
0.0
 70
   160
 71
     5
 42
6.5
 73
     0
 74
     0
 75
     0
  3
STANDARD1
100
AcDbAlignedDimension
 13
388.3714363970439
 23
444.8234042003658
 33
0.0
 14
381.8714363970439
 24
444.8234042003658
 34
0.0
100
AcDbRotatedDimension
  0
DIMENSION
  5
3A80B
330
1E
100
AcDbEntity
  8
30
100
AcDbDimension
280
     0
  2
*D28
 10
495.3714363970438
 20
432.7274977226152
 30
0.0
 11
507.3714363970438
 21
438.2274977226153
 31
0.0
 70
    32
 71
     5
 42
24.0
 73
     0
 74
     0
 75
     0
  3
STANDARD1
100
AcDbAlignedDimension
 13
519.3714363970436
 23
410.2441002359102
 33
0.0
 14
495.3714363970438
 24
410.2441002359102
 34
0.0
100
AcDbRotatedDimension
  0
DIMENSION
  5
3A80C
330
1E
100
AcDbEntity
  8
30
100
AcDbDimension
280
     0
  2
*D29
 10
530.3831622750569
 20
432.7274977226152
 30
0.0
 11
540.8831622750568
 21
438.2274977226153
 31
0.0
 70
    32
 71
     5
 42
21.0
 73
     0
 74
     0
 75
     0
  3
STANDARD1
100
AcDbAlignedDimension
 13
551.3831622750569
 23
410.7360772667433
 33
0.0
 14
530.3831622750569
 24
410.7360772667433
 34
0.0
100
AcDbRotatedDimension
  0
DIMENSION
  5
3A80D
330
1E
100
AcDbEntity
  8
30
100
AcDbDimension
280
     0
  2
*D30
 10
37.25649335307916
 20
712.9121723739504
 30
0.0
 11
41.58982668641238
 21
732.4184748114596
 31
0.0
 70
   160
 71
     5
 42
7.0
 73
     0
 74
     0
 75
     0
  3
STANDARD1
100
AcDbAlignedDimension
 13
92.7969564812902
 23
719.9121723739501
 33
0.0
 14
92.7969564812902
 24
712.9121723739504
 34
0.0
 50
90.0
100
AcDbRotatedDimension
  0
DIMENSION
  5
3A80E
330
1E
100
AcDbEntity
  8
30
100
AcDbDimension
280
     0
  2
*D31
 10
414.6540108867246
 20
146.4038026596659
 30
0.0
 11
414.6540108867244
 21
172.4038026596659
 31
0.0
 70
   160
 71
     2
 42
52.0
 73
     0
 74
     0
 75
     0
  3
STANDARD
100
AcDbAlignedDimension
 13
358.9277993769791
 23
198.4038026596659
 33
0.0
 14
360.2270991330283
 24
146.4038026596659
 34
0.0
 50
90.0
100
AcDbRotatedDimension
  0
ARC
  5
3ADD4
330
1E
100
AcDbEntity
  8
30
100
AcDbCircle
 10
448.1120835349423
 20
467.9643524717116
 30
0.0
 40
82.74397833097701
100
AcDbArc
 50
170.9264953962757
 51
180.5141274487252
  0
DIMENSION
  5
3ADD5
330
1E
100
AcDbEntity
  8
30
100
AcDbDimension
280
     0
  2
*D41
 10
365.3714363970434
 20
322.4237116692557
 30
0.0
 11
412.8714363970436
 21
327.9237116692558
 31
0.0
 70
    32
 71
     5
 42
95.00000000000051
 73
     0
 74
     0
 75
     0
  3
STANDARD1
100
AcDbAlignedDimension
 13
460.3714363970438
 23
387.7218827828333
 33
0.0
 14
365.3714363970434
 24
470.2218827828331
 34
0.0
100
AcDbRotatedDimension
  0
VIEWPORT
  5
9AC
330
1A
100
AcDbEntity
 67
     1
  8
0
  6
Continuous
348
E4DA
100
AcDbViewport
 10
0.0
 20
0.0
 30
0.0
 40
0.0
 41
0.0
 68
     1
 69
     1
 12
0.0
 22
0.0
 13
0.0
 23
0.0
 14
10.0
 24
10.0
 15
10.0
 25
10.0
 16
0.0
 26
0.0
 36
1.0
 17
0.0
 27
0.0
 37
0.0
 42
50.0
 43
0.0
 44
0.0
 45
0.0
 50
0.0
 51
0.0
 72
   100
 90
    32800
  1

281
     0
 71
     1
 74
     0
110
0.0
120
0.0
130
0.0
111
1.0
121
0.0
131
0.0
112
0.0
122
1.0
132
0.0
 79
     0
146
0.0
170
     0
 61
     5
292
     1
282
     1
141
0.0
142
0.0
 63
   250
421
  3355443
  0
VIEWPORT
  5
E19D
330
1A
100
AcDbEntity
 67
     1
  8
30
348
E4DA
100
AcDbViewport
 10
0.0
 20
0.0
 30
0.0
 40
0.0
 41
0.0
 68
     2
 69
     2
 12
8.653370891979619
 22
137.2805829780177
 13
0.0
 23
0.0
 14
1.0
 24
1.0
 15
10.0
 25
10.0
 16
0.0
 26
0.0
 36
1.0
 17
0.0
 27
0.0
 37
0.0
 42
50.0
 43
0.0
 44
0.0
 45
689.9195596776387
 50
0.0
 51
0.0
 72
   100
 90
    37664
  1

281
     0
 71
     1
 74
     0
110
0.0
120
0.0
130
0.0
111
1.0
121
0.0
131
0.0
112
0.0
122
1.0
132
0.0
 79
     0
146
0.0
170
     0
 61
     5
292
     1
282
     1
141
0.0
142
0.0
 63
   250
421
  3355443
  0
ENDSEC
  0
SECTION
  2
OBJECTS
  0
DICTIONARY
  5
C
330
0
100
AcDbDictionary
281
     1
  3
ACAD_CIP_PREVIOUS_PRODUCT_INFO
350
3AEDC
  3
ACAD_COLOR
350
E4E8
  3
ACAD_DETAILVIEWSTYLE
350
3AED6
  3
ACAD_GROUP
350
D
  3
ACAD_LAYOUT
350
19
  3
ACAD_MATERIAL
350
E4BB
  3
ACAD_MLEADERSTYLE
350
E50D
  3
ACAD_MLINESTYLE
350
16
  3
ACAD_PLOTSETTINGS
350
18
  3
ACAD_PLOTSTYLENAME
350
E
  3
ACAD_SCALELIST
350
E4EB
  3
ACAD_SECTIONVIEWSTYLE
350
3AED4
  3
ACAD_TABLESTYLE
350
E4E9
  3
ACAD_VISUALSTYLE
350
E4D4
  3
ACADDIM
350
6D5E
  3
ACDB_RECOMPOSE_DATA
350
3AF02
  3
ACDBVARIABLEDICTIONARY
350
5697
  3
AEC_PROPERTY_SET_DEFS
350
F8DB
  3
ASE_INDEX_DICTIONARY
350
F8F6
  0
DICTIONARY
  5
12DA0
330
2
100
AcDbDictionary
280
     1
281
     1
  3
ACAD_LAYERSTATES
360
12DA1
  0
DICTIONARY
  5
E512
330
10
100
AcDbDictionary
280
     1
281
     1
  3
ADSK_XREC_LAYER_RECONCILED
360
E513
  0
DICTIONARY
  5
E514
330
2F
100
AcDbDictionary
280
     1
281
     1
  3
ADSK_XREC_LAYER_RECONCILED
360
E515
  0
DICTIONARY
  5
E518
330
35
100
AcDbDictionary
280
     1
281
     1
  3
ADSK_XREC_LAYER_RECONCILED
360
E519
  0
DICTIONARY
  5
E51C
330
3D
100
AcDbDictionary
280
     1
281
     1
  3
ADSK_XREC_LAYER_RECONCILED
360
E51D
  0
DICTIONARY
  5
E51E
330
3A2
100
AcDbDictionary
280
     1
281
     1
  3
ADSK_XREC_LAYER_RECONCILED
360
E51F
  0
DICTIONARY
  5
E520
330
3BBA
100
AcDbDictionary
280
     1
281
     1
  3
ADSK_XREC_LAYER_RECONCILED
360
E521
  0
DICTIONARY
  5
E522
330
67A8
100
AcDbDictionary
280
     1
281
     1
  3
ADSK_XREC_LAYER_RECONCILED
360
E523
  0
DICTIONARY
  5
E524
330
7837
100
AcDbDictionary
280
     1
281
     1
  3
ADSK_XREC_LAYER_RECONCILED
360
E525
  0
DICTIONARY
  5
E526
330
7BC8
100
AcDbDictionary
280
     1
281
     1
  3
ADSK_XREC_LAYER_RECONCILED
360
E527
  0
DICTIONARY
  5
E52A
330
C4FE
100
AcDbDictionary
280
     1
281
     1
  3
ADSK_XREC_LAYER_RECONCILED
360
E52B
  0
DICTIONARY
  5
E530
330
C501
100
AcDbDictionary
280
     1
281
     1
  3
ADSK_XREC_LAYER_RECONCILED
360
E531
  0
DICTIONARY
  5
E534
330
E473
100
AcDbDictionary
280
     1
281
     1
  3
ADSK_XREC_LAYER_RECONCILED
360
E535
  0
DICTIONARY
  5
1106B
330
1106A
100
AcDbDictionary
280
     1
281
     1
  0
DICTIONARY
  5
3828A
330
38289
100
AcDbDictionary
280
     1
281
     1
  0
DICTIONARY
  5
178
330
1E
100
AcDbDictionary
280
     1
281
     1
  3
ACAD_LAYOUTSELFREF
360
9011
  3
ACAD_SORTENTS
360
37C0C
  0
DICTIONARY
  5
17A
330
1A
100
AcDbDictionary
280
     1
281
     1
  3
ACAD_LAYOUTSELFREF
360
9010
  0
XRECORD
  5
3AEDC
102
{ACAD_REACTORS
330
C
102
}
330
C
100
AcDbXrecord
280
     1
300
ACDLT
300
2014
300
ACDLT_F_S
  0
DICTIONARY
  5
E4E8
102
{ACAD_REACTORS
330
C
102
}
330
C
100
AcDbDictionary
281
     1
  0
DICTIONARY
  5
3AED6
102
{ACAD_REACTORS
330
C
102
}
330
C
100
AcDbDictionary
281
     1
  3
Imperial24
350
3AED7
  0
DICTIONARY
  5
D
102
{ACAD_REACTORS
330
C
102
}
330
C
100
AcDbDictionary
281
     1
  0
DICTIONARY
  5
19
102
{ACAD_REACTORS
330
C
102
}
330
C
100
AcDbDictionary
281
     1
  3
Model
350
904E
  3
ﾚｲｱｳﾄ1
350
904F
  0
DICTIONARY
  5
E4BB
102
{ACAD_REACTORS
330
C
102
}
330
C
100
AcDbDictionary
281
     1
  3
ByBlock
350
E4C4
  3
ByLayer
350
E4BC
  3
Global
350
E4CC
  0
DICTIONARY
  5
E50D
102
{ACAD_REACTORS
330
C
102
}
330
C
100
AcDbDictionary
281
     1
  3
Standard
350
E50E
  0
DICTIONARY
  5
16
102
{ACAD_REACTORS
330
C
102
}
330
C
100
AcDbDictionary
281
     1
  3
STANDARD
350
17
  0
DICTIONARY
  5
18
102
{ACAD_REACTORS
330
C
102
}
330
C
100
AcDbDictionary
281
     1
  0
ACDBDICTIONARYWDFLT
  5
E
102
{ACAD_REACTORS
330
C
102
}
330
C
100
AcDbDictionary
281
     1
  3
Normal
350
F
100
AcDbDictionaryWithDefault
340
F
  0
DICTIONARY
  5
E4EB
102
{ACAD_REACTORS
330
C
102
}
330
C
100
AcDbDictionary
281
     1
  3
A0
350
E4EC
  3
A1
350
E4ED
  3
A2
350
E4EE
  3
A3
350
E4EF
  3
A4
350
E4F0
  3
A5
350
E4F1
  3
A6
350
E4F2
  3
A7
350
E4F3
  3
A8
350
E4F4
  3
A9
350
E4F5
  3
B0
350
E4F6
  3
B1
350
E4F7
  3
B2
350
E4F8
  3
B3
350
E4F9
  3
B4
350
E4FA
  3
B5
350
E4FB
  3
B6
350
E4FC
  3
B7
350
E4FD
  3
B8
350
E4FE
  3
B9
350
E4FF
  3
C0
350
E500
  3
C1
350
E501
  3
C2
350
E502
  3
C3
350
E503
  3
C4
350
E504
  3
C5
350
E505
  3
C6
350
E506
  3
C7
350
E507
  3
C8
350
E508
  3
C9
350
E509
  3
D0
350
E50A
  3
D1
350
E50B
  3
D2
350
E50C
  0
DICTIONARY
  5
3AED4
102
{ACAD_REACTORS
330
C
102
}
330
C
100
AcDbDictionary
281
     1
  3
Imperial24
350
3AED5
  0
DICTIONARY
  5
E4E9
102
{ACAD_REACTORS
330
C
102
}
330
C
100
AcDbDictionary
281
     1
  3
Standard
350
E4EA
  0
DICTIONARY
  5
E4D4
102
{ACAD_REACTORS
330
C
102
}
330
C
100
AcDbDictionary
281
     1
  3
2dWireframe
350
E4DA
  3
3D Hidden
350
E4DC
  3
3dWireframe
350
E4DB
  3
Basic
350
E4D9
  3
Brighten
350
E4E0
  3
ColorChange
350
E4E4
  3
Conceptual
350
E4DD
  3
Dim
350
E4DF
  3
EdgeColorOff
350
E4E7
  3
Facepattern
350
E4E3
  3
Flat
350
E4D5
  3
FlatWithEdges
350
E4D6
  3
Gouraud
350
E4D7
  3
GouraudWithEdges
350
E4D8
  3
Hidden
350
3AECE
  3
JitterOff
350
E4E5
  3
Linepattern
350
E4E2
  3
OverhangOff
350
E4E6
  3
Realistic
350
E4DE
  3
Shaded
350
3AED3
  3
Shaded with edges
350
3AED2
  3
Shades of Gray
350
3AECF
  3
Sketchy
350
3AED0
  3
Thicken
350
E4E1
  3
Wireframe
350
3AECD
  3
X-Ray
350
3AED1
  0
XRECORD
  5
6D5E
102
{ACAD_REACTORS
330
C
102
}
330
C
100
AcDbXrecord
280
     1
 90
   990106
  3

 60
     0
 61
     0
 62
     1
 63
     3
 64
     0
 65
     0
 66
     0
 67
     3
 68
     1
 69
     0
 70
     0
 71
     0
 72
     0
 40
0.0
170
     0
340
0
  0
XRECORD
  5
3AF02
102
{ACAD_REACTORS
330
C
102
}
330
C
100
AcDbXrecord
280
     1
 90
        1
330
E4EA
330
3AED5
330
3AED7
  0
DICTIONARY
  5
5697
102
{ACAD_REACTORS
330
C
102
}
330
C
100
AcDbDictionary
281
     1
  3
CANNOSCALE
350
F8C1
  3
CMLEADERSTYLE
350
F8C0
  3
CTABLESTYLE
350
F8BF
  3
CVIEWDETAILSTYLE
350
3AEE3
  3
CVIEWSECTIONSTYLE
350
3AEE4
  3
DIMASSOC
350
5698
  3
INDEXCTL
350
F8C3
  3
LAYEREVAL
350
37FF5
  3
LAYERNOTIFY
350
37FF6
  3
LIGHTINGUNITS
350
37FF4
  3
MSLTSCALE
350
37FF3
  3
SORTENTS
350
F8C2
  0
DICTIONARY
  5
F8DB
102
{ACAD_REACTORS
330
C
102
}
330
C
100
AcDbDictionary
281
     1
  0
DICTIONARY
  5
F8F6
102
{ACAD_REACTORS
330
C
102
}
330
C
100
AcDbDictionary
281
     1
  3
ASEBlockHierarchyIndexRecord
350
F8F7
1001
DCO15
1040
1706442467.984
  0
DICTIONARY
  5
12DA1
102
{ACAD_REACTORS
330
12DA0
102
}
330
12DA0
100
AcDbDictionary
281
     1
  0
XRECORD
  5
E513
102
{ACAD_REACTORS
330
E512
102
}
330
E512
100
AcDbXrecord
280
     1
290
     1
  0
XRECORD
  5
E515
102
{ACAD_REACTORS
330
E514
102
}
330
E514
100
AcDbXrecord
280
     1
290
     1
  0
XRECORD
  5
E519
102
{ACAD_REACTORS
330
E518
102
}
330
E518
100
AcDbXrecord
280
     1
290
     1
  0
XRECORD
  5
E51D
102
{ACAD_REACTORS
330
E51C
102
}
330
E51C
100
AcDbXrecord
280
     1
290
     1
  0
XRECORD
  5
E51F
102
{ACAD_REACTORS
330
E51E
102
}
330
E51E
100
AcDbXrecord
280
     1
290
     1
  0
XRECORD
  5
E521
102
{ACAD_REACTORS
330
E520
102
}
330
E520
100
AcDbXrecord
280
     1
290
     1
  0
XRECORD
  5
E523
102
{ACAD_REACTORS
330
E522
102
}
330
E522
100
AcDbXrecord
280
     1
290
     1
  0
XRECORD
  5
E525
102
{ACAD_REACTORS
330
E524
102
}
330
E524
100
AcDbXrecord
280
     1
290
     1
  0
XRECORD
  5
E527
102
{ACAD_REACTORS
330
E526
102
}
330
E526
100
AcDbXrecord
280
     1
290
     1
  0
XRECORD
  5
E52B
102
{ACAD_REACTORS
330
E52A
102
}
330
E52A
100
AcDbXrecord
280
     1
290
     1
  0
XRECORD
  5
E531
102
{ACAD_REACTORS
330
E530
102
}
330
E530
100
AcDbXrecord
280
     1
290
     1
  0
XRECORD
  5
E535
102
{ACAD_REACTORS
330
E534
102
}
330
E534
100
AcDbXrecord
280
     1
290
     1
  0
XRECORD
  5
9011
102
{ACAD_REACTORS
330
178
102
}
330
178
100
AcDbXrecord
280
     1
340
1E
  0
SORTENTSTABLE
  5
37C0C
102
{ACAD_REACTORS
330
178
102
}
330
178
100
AcDbSortentsTable
330
1E
  0
XRECORD
  5
9010
102
{ACAD_REACTORS
330
17A
102
}
330
17A
100
AcDbXrecord
280
     1
340
1A
  0
ACDBDETAILVIEWSTYLE
  5
3AED7
102
{ACAD_XDICTIONARY
360
3AEE9
102
}
102
{ACAD_REACTORS
330
3AED6
102
}
330
3AED6
100
AcDbModelDocViewStyle
 70
     0
  3
Imperial24
290
     0
100
AcDbDetailViewStyle
 70
     0
 71
     0
 90
        3
 71
     1
340
11
 62
   256
 40
0.24
340
0
 62
   256
 40
0.24
300

 40
0.36
280
     3
 71
     2
340
15
 90
       25
 62
   256
 71
     3
340
11
 62
   256
 40
0.24
 90
        1
 40
0.75
 90
        1
300
%<\AcVar ViewType \f "%tc1">% %<\AcVar ViewDetailId>%\PSCALE %<\AcVar ViewScale \f "%sn">%
 71
     4
340
15
 90
       25
 62
   256
340
15
 90
       25
 62
   256
280
     0
  0
LAYOUT
  5
904E
102
{ACAD_XDICTIONARY
360
13816
102
}
102
{ACAD_REACTORS
330
19
102
}
330
19
100
AcDbPlotSettings
  1

  2
Canon LBP3800 LIPSLX
  4
A4
  6
OLE1
 40
5.873749732971191
 41
5.873747825622557
 42
5.873748779296875
 43
5.873748779296875
 44
209.9733276367186
 45
296.9259948730469
 46
4.368652168726285
 47
0.8644569253958136
 48
0.0
 49
0.0
140
0.0
141
0.0
142
1.0
143
2.5
 70
 11940
 72
     1
 73
     0
 74
     1
  7
monochrome.ctb
 75
     0
147
0.4
 76
     0
 77
     2
 78
   300
148
203.0887703810449
149
220.5380198621869
100
AcDbLayout
  1
Model
 70
     1
 71
     0
 10
0.0
 20
0.0
 11
12.0
 21
9.0
 12
0.0
 22
0.0
 32
0.0
 14
0.0
 24
0.0
 34
0.0
 15
0.0
 25
0.0
 35
0.0
146
0.0
 13
0.0
 23
0.0
 33
0.0
 16
1.0
 26
0.0
 36
0.0
 17
0.0
 27
1.0
 37
0.0
 76
     0
330
1E
331
12C00
1001
ACAD_PSEXT
1000
Canon LBP3800 LIPSLX
1000
Canon LBP3800 LIPSLX
1000
IP_192.168.54.50
1000

1070
     0
  0
LAYOUT
  5
904F
102
{ACAD_REACTORS
330
19
102
}
330
19
100
AcDbPlotSettings
  1

  2
none_device
  4
Letter_(8.50_x_11.00_Inches)
  6

 40
6.349999904632567
 41
6.349999904632567
 42
6.350006103515625
 43
6.350006103515625
 44
215.8999938964844
 45
279.3999938964844
 46
0.0
 47
0.0
 48
0.0
 49
0.0
140
0.0
141
0.0
142
1.0
143
1.0
 70
   688
 72
     0
 73
     1
 74
     1
  7
monochrome.stb
 75
     0
147
1.0
 76
     0
 77
     2
 78
   300
148
0.0
149
0.0
100
AcDbLayout
  1
ﾚｲｱｳﾄ1
 70
     1
 71
     1
 10
-0.2500002402958907
 20
-0.2499999962453767
 11
10.74999951940822
 21
8.249999763458731
 12
0.0
 22
0.0
 32
0.0
 14
0.0
 24
0.0
 34
0.0
 15
0.0
 25
0.0
 35
0.0
146
0.0
 13
0.0
 23
0.0
 33
0.0
 16
1.0
 26
0.0
 36
0.0
 17
0.0
 27
1.0
 37
0.0
 76
     0
330
1A
331
9AC
1001
ACAD_PSEXT
1000
なし
1000
なし
1000
適切ではありません
1000
新しいプロッタ環境設定名を選択しない限り、レイアウトは印刷されません。
1070
     0
  0
MATERIAL
  5
E4C4
102
{ACAD_XDICTIONARY
360
E4C5
102
}
102
{ACAD_REACTORS
330
E4BB
102
}
330
E4BB
100
AcDbMaterial
  1
ByBlock
 72
     0
 43
0.0208333333333333
 43
0.0
 43
0.0
 43
0.0
 43
0.0
 43
0.0208333333333333
 43
0.0
 43
0.0
 43
0.0
 43
0.0
 43
1.0
 43
0.0
 43
0.0
 43
0.0
 43
0.0
 43
1.0
 77
     0
 47
0.0208333333333333
 47
0.0
 47
0.0
 47
0.0
 47
0.0
 47
0.0208333333333333
 47
0.0
 47
0.0
 47
0.0
 47
0.0
 47
1.0
 47
0.0
 47
0.0
 47
0.0
 47
0.0
 47
1.0
171
     0
 49
0.0208333333333333
 49
0.0
 49
0.0
 49
0.0
 49
0.0
 49
0.0208333333333333
 49
0.0
 49
0.0
 49
0.0
 49
0.0
 49
1.0
 49
0.0
 49
0.0
 49
0.0
 49
0.0
 49
1.0
175
     0
142
0.0208333333333333
142
0.0
142
0.0
142
0.0
142
0.0
142
0.0208333333333333
142
0.0
142
0.0
142
0.0
142
0.0
142
1.0
142
0.0
142
0.0
142
0.0
142
0.0
142
1.0
179
     0
144
0.0208333333333333
144
0.0
144
0.0
144
0.0
144
0.0
144
0.0208333333333333
144
0.0
144
0.0
144
0.0
144
0.0
144
1.0
144
0.0
144
0.0
144
0.0
144
0.0
144
1.0
147
0.0208333333333333
147
0.0
147
0.0
147
0.0
147
0.0
147
0.0208333333333333
147
0.0
147
0.0
147
0.0
147
0.0
147
1.0
147
0.0
147
0.0
147
0.0
147
0.0
147
1.0
  0
MATERIAL
  5
E4BC
102
{ACAD_XDICTIONARY
360
E4BD
102
}
102
{ACAD_REACTORS
330
E4BB
102
}
330
E4BB
100
AcDbMaterial
  1
ByLayer
 72
     0
 43
0.0208333333333333
 43
0.0
 43
0.0
 43
0.0
 43
0.0
 43
0.0208333333333333
 43
0.0
 43
0.0
 43
0.0
 43
0.0
 43
1.0
 43
0.0
 43
0.0
 43
0.0
 43
0.0
 43
1.0
 77
     0
 47
0.0208333333333333
 47
0.0
 47
0.0
 47
0.0
 47
0.0
 47
0.0208333333333333
 47
0.0
 47
0.0
 47
0.0
 47
0.0
 47
1.0
 47
0.0
 47
0.0
 47
0.0
 47
0.0
 47
1.0
171
     0
 49
0.0208333333333333
 49
0.0
 49
0.0
 49
0.0
 49
0.0
 49
0.0208333333333333
 49
0.0
 49
0.0
 49
0.0
 49
0.0
 49
1.0
 49
0.0
 49
0.0
 49
0.0
 49
0.0
 49
1.0
175
     0
142
0.0208333333333333
142
0.0
142
0.0
142
0.0
142
0.0
142
0.0208333333333333
142
0.0
142
0.0
142
0.0
142
0.0
142
1.0
142
0.0
142
0.0
142
0.0
142
0.0
142
1.0
179
     0
144
0.0208333333333333
144
0.0
144
0.0
144
0.0
144
0.0
144
0.0208333333333333
144
0.0
144
0.0
144
0.0
144
0.0
144
1.0
144
0.0
144
0.0
144
0.0
144
0.0
144
1.0
147
0.0208333333333333
147
0.0
147
0.0
147
0.0
147
0.0
147
0.0208333333333333
147
0.0
147
0.0
147
0.0
147
0.0
147
1.0
147
0.0
147
0.0
147
0.0
147
0.0
147
1.0
  0
MATERIAL
  5
E4CC
102
{ACAD_XDICTIONARY
360
E4CD
102
}
102
{ACAD_REACTORS
330
E4BB
102
}
330
E4BB
100
AcDbMaterial
  1
Global
 72
     0
 43
0.0208333333333333
 43
0.0
 43
0.0
 43
0.0
 43
0.0
 43
0.0208333333333333
 43
0.0
 43
0.0
 43
0.0
 43
0.0
 43
1.0
 43
0.0
 43
0.0
 43
0.0
 43
0.0
 43
1.0
 77
     0
 47
0.0208333333333333
 47
0.0
 47
0.0
 47
0.0
 47
0.0
 47
0.0208333333333333
 47
0.0
 47
0.0
 47
0.0
 47
0.0
 47
1.0
 47
0.0
 47
0.0
 47
0.0
 47
0.0
 47
1.0
171
     0
 49
0.0208333333333333
 49
0.0
 49
0.0
 49
0.0
 49
0.0
 49
0.0208333333333333
 49
0.0
 49
0.0
 49
0.0
 49
0.0
 49
1.0
 49
0.0
 49
0.0
 49
0.0
 49
0.0
 49
1.0
175
     0
142
0.0208333333333333
142
0.0
142
0.0
142
0.0
142
0.0
142
0.0208333333333333
142
0.0
142
0.0
142
0.0
142
0.0
142
1.0
142
0.0
142
0.0
142
0.0
142
0.0
142
1.0
179
     0
144
0.0208333333333333
144
0.0
144
0.0
144
0.0
144
0.0
144
0.0208333333333333
144
0.0
144
0.0
144
0.0
144
0.0
144
1.0
144
0.0
144
0.0
144
0.0
144
0.0
144
1.0
147
0.0208333333333333
147
0.0
147
0.0
147
0.0
147
0.0
147
0.0208333333333333
147
0.0
147
0.0
147
0.0
147
0.0
147
1.0
147
0.0
147
0.0
147
0.0
147
0.0
147
1.0
  0
MLEADERSTYLE
  5
E50E
102
{ACAD_REACTORS
330
E50D
102
}
330
E50D
100
AcDbMLeaderStyle
179
     2
170
     2
171
     1
172
     0
 90
        2
 40
0.0
 41
0.0
173
     1
 91
-1056964608
340
13
 92
       -2
290
     1
 42
0.09
291
     1
 43
0.36
  3
Standard
 44
0.18
300

342
11
174
     1
178
     6
175
     1
176
     0
 93
-1056964608
 45
0.18
292
     0
297
     0
 46
0.18
 94
-1056964608
 47
1.0
 49
1.0
140
1.0
293
     1
141
0.0
294
     1
177
     0
142
1.0
295
     0
296
     0
143
0.125
271
     0
272
     9
273
     9
298
     0
1001
ACAD_MLEADERVER
1070
     2
  0
MLINESTYLE
  5
17
102
{ACAD_REACTORS
330
16
102
}
330
16
100
AcDbMlineStyle
  2
STANDARD
 70
     0
  3

 62
   256
 51
90.0
 52
90.0
 71
     2
 49
0.5
 62
   256
  6
BYLAYER
 49
-0.5
 62
   256
  6
BYLAYER
  0
ACDBPLACEHOLDER
  5
F
102
{ACAD_REACTORS
330
E
102
}
330
E
  0
SCALE
  5
E4EC
102
{ACAD_REACTORS
330
E4EB
102
}
330
E4EB
100
AcDbScale
 70
     0
300
1:1
140
1.0
141
1.0
290
     1
  0
SCALE
  5
E4ED
102
{ACAD_REACTORS
330
E4EB
102
}
330
E4EB
100
AcDbScale
 70
     0
300
1:2
140
1.0
141
2.0
290
     0
  0
SCALE
  5
E4EE
102
{ACAD_REACTORS
330
E4EB
102
}
330
E4EB
100
AcDbScale
 70
     0
300
1:4
140
1.0
141
4.0
290
     0
  0
SCALE
  5
E4EF
102
{ACAD_REACTORS
330
E4EB
102
}
330
E4EB
100
AcDbScale
 70
     0
300
1:5
140
1.0
141
5.0
290
     0
  0
SCALE
  5
E4F0
102
{ACAD_REACTORS
330
E4EB
102
}
330
E4EB
100
AcDbScale
 70
     0
300
1:8
140
1.0
141
8.0
290
     0
  0
SCALE
  5
E4F1
102
{ACAD_REACTORS
330
E4EB
102
}
330
E4EB
100
AcDbScale
 70
     0
300
1:10
140
1.0
141
10.0
290
     0
  0
SCALE
  5
E4F2
102
{ACAD_REACTORS
330
E4EB
102
}
330
E4EB
100
AcDbScale
 70
     0
300
1:16
140
1.0
141
16.0
290
     0
  0
SCALE
  5
E4F3
102
{ACAD_REACTORS
330
E4EB
102
}
330
E4EB
100
AcDbScale
 70
     0
300
1:20
140
1.0
141
20.0
290
     0
  0
SCALE
  5
E4F4
102
{ACAD_REACTORS
330
E4EB
102
}
330
E4EB
100
AcDbScale
 70
     0
300
1:30
140
1.0
141
30.0
290
     0
  0
SCALE
  5
E4F5
102
{ACAD_REACTORS
330
E4EB
102
}
330
E4EB
100
AcDbScale
 70
     0
300
1:40
140
1.0
141
40.0
290
     0
  0
SCALE
  5
E4F6
102
{ACAD_REACTORS
330
E4EB
102
}
330
E4EB
100
AcDbScale
 70
     0
300
1:50
140
1.0
141
50.0
290
     0
  0
SCALE
  5
E4F7
102
{ACAD_REACTORS
330
E4EB
102
}
330
E4EB
100
AcDbScale
 70
     0
300
1:100
140
1.0
141
100.0
290
     0
  0
SCALE
  5
E4F8
102
{ACAD_REACTORS
330
E4EB
102
}
330
E4EB
100
AcDbScale
 70
     0
300
2:1
140
2.0
141
1.0
290
     0
  0
SCALE
  5
E4F9
102
{ACAD_REACTORS
330
E4EB
102
}
330
E4EB
100
AcDbScale
 70
     0
300
4:1
140
4.0
141
1.0
290
     0
  0
SCALE
  5
E4FA
102
{ACAD_REACTORS
330
E4EB
102
}
330
E4EB
100
AcDbScale
 70
     0
300
8:1
140
8.0
141
1.0
290
     0
  0
SCALE
  5
E4FB
102
{ACAD_REACTORS
330
E4EB
102
}
330
E4EB
100
AcDbScale
 70
     0
300
10:1
140
10.0
141
1.0
290
     0
  0
SCALE
  5
E4FC
102
{ACAD_REACTORS
330
E4EB
102
}
330
E4EB
100
AcDbScale
 70
     0
300
100:1
140
100.0
141
1.0
290
     0
  0
SCALE
  5
E4FD
102
{ACAD_REACTORS
330
E4EB
102
}
330
E4EB
100
AcDbScale
 70
     0
300
1/128" = 1'-0"
140
0.0078125
141
12.0
290
     0
  0
SCALE
  5
E4FE
102
{ACAD_REACTORS
330
E4EB
102
}
330
E4EB
100
AcDbScale
 70
     0
300
1/64" = 1'-0"
140
0.015625
141
12.0
290
     0
  0
SCALE
  5
E4FF
102
{ACAD_REACTORS
330
E4EB
102
}
330
E4EB
100
AcDbScale
 70
     0
300
1/32" = 1'-0"
140
0.03125
141
12.0
290
     0
  0
SCALE
  5
E500
102
{ACAD_REACTORS
330
E4EB
102
}
330
E4EB
100
AcDbScale
 70
     0
300
1/16" = 1'-0"
140
0.0625
141
12.0
290
     0
  0
SCALE
  5
E501
102
{ACAD_REACTORS
330
E4EB
102
}
330
E4EB
100
AcDbScale
 70
     0
300
3/32" = 1'-0"
140
0.09375
141
12.0
290
     0
  0
SCALE
  5
E502
102
{ACAD_REACTORS
330
E4EB
102
}
330
E4EB
100
AcDbScale
 70
     0
300
1/8" = 1'-0"
140
0.125
141
12.0
290
     0
  0
SCALE
  5
E503
102
{ACAD_REACTORS
330
E4EB
102
}
330
E4EB
100
AcDbScale
 70
     0
300
3/16" = 1'-0"
140
0.1875
141
12.0
290
     0
  0
SCALE
  5
E504
102
{ACAD_REACTORS
330
E4EB
102
}
330
E4EB
100
AcDbScale
 70
     0
300
1/4" = 1'-0"
140
0.25
141
12.0
290
     0
  0
SCALE
  5
E505
102
{ACAD_REACTORS
330
E4EB
102
}
330
E4EB
100
AcDbScale
 70
     0
300
3/8" = 1'-0"
140
0.375
141
12.0
290
     0
  0
SCALE
  5
E506
102
{ACAD_REACTORS
330
E4EB
102
}
330
E4EB
100
AcDbScale
 70
     0
300
1/2" = 1'-0"
140
0.5
141
12.0
290
     0
  0
SCALE
  5
E507
102
{ACAD_REACTORS
330
E4EB
102
}
330
E4EB
100
AcDbScale
 70
     0
300
3/4" = 1'-0"
140
0.75
141
12.0
290
     0
  0
SCALE
  5
E508
102
{ACAD_REACTORS
330
E4EB
102
}
330
E4EB
100
AcDbScale
 70
     0
300
1" = 1'-0"
140
1.0
141
12.0
290
     0
  0
SCALE
  5
E509
102
{ACAD_REACTORS
330
E4EB
102
}
330
E4EB
100
AcDbScale
 70
     0
300
1-1/2" = 1'-0"
140
1.5
141
12.0
290
     0
  0
SCALE
  5
E50A
102
{ACAD_REACTORS
330
E4EB
102
}
330
E4EB
100
AcDbScale
 70
     0
300
3" = 1'-0"
140
3.0
141
12.0
290
     0
  0
SCALE
  5
E50B
102
{ACAD_REACTORS
330
E4EB
102
}
330
E4EB
100
AcDbScale
 70
     0
300
6" = 1'-0"
140
6.0
141
12.0
290
     0
  0
SCALE
  5
E50C
102
{ACAD_REACTORS
330
E4EB
102
}
330
E4EB
100
AcDbScale
 70
     0
300
1'-0" = 1'-0"
140
12.0
141
12.0
290
     0
  0
ACDBSECTIONVIEWSTYLE
  5
3AED5
102
{ACAD_XDICTIONARY
360
3AEE7
102
}
102
{ACAD_REACTORS
330
3AED4
102
}
330
3AED4
100
AcDbModelDocViewStyle
 70
     0
  3
Imperial24
290
     0
100
AcDbSectionViewStyle
 70
     0
 71
     0
 90
       78
 71
     1
340
11
 62
   256
 40
0.24
340
0
340
0
 62
   256
 40
0.24
300
I, O, Q, S, X, Z
 40
0.48
 90
        3
 40
0.18
 90
        1
 71
     2
340
15
 90
       25
 62
   256
340
15
 90
       50
 62
   256
 40
0.24
 40
0.0
 40
0.24
 71
     3
340
11
 62
   256
 40
0.24
 90
        1
 40
0.75
 90
        1
300
%<\AcVar ViewType \f "%tc1">% %<\AcVar ViewSectionStartId>%-%<\AcVar ViewSectionEndId>%\PSCALE %<\AcVar ViewScale \f "%sn">%
 71
     4
 62
   256
 62
   257
300
ANSI31
 40
1.0
 90
        0
290
     0
290
     0
 90
        6
 40
0.0
 40
1.570796326794896
 40
0.2617993877991494
 40
1.308996938995747
 40
-0.2617993877991494
 40
1.832595714594045
  0
TABLESTYLE
  5
E4EA
102
{ACAD_XDICTIONARY
360
F86C
102
}
102
{ACAD_REACTORS
330
E4E9
102
}
330
E4E9
100
AcDbTableStyle
280
     0
  3
Standard
 70
     0
 71
     0
 40
0.06
 41
0.06
280
     0
281
     0
  7
STANDARD
140
0.18
170
     2
 62
     0
 63
     7
283
     0
 90
      512
 91
        0
  1

274
    -2
284
     1
 64
     0
275
    -2
285
     1
 65
     0
276
    -2
286
     1
 66
     0
277
    -2
287
     1
 67
     0
278
    -2
288
     1
 68
     0
279
    -2
289
     1
 69
     0
  7
STANDARD
140
0.25
170
     5
 62
     0
 63
     7
283
     0
 90
      512
 91
        0
  1

274
    -2
284
     1
 64
     0
275
    -2
285
     1
 65
     0
276
    -2
286
     1
 66
     0
277
    -2
287
     1
 67
     0
278
    -2
288
     1
 68
     0
279
    -2
289
     1
 69
     0
  7
STANDARD
140
0.18
170
     5
 62
     0
 63
     7
283
     0
 90
      512
 91
        0
  1

274
    -2
284
     1
 64
     0
275
    -2
285
     1
 65
     0
276
    -2
286
     1
 66
     0
277
    -2
287
     1
 67
     0
278
    -2
288
     1
 68
     0
279
    -2
289
     1
 69
     0
  0
VISUALSTYLE
  5
E4DA
102
{ACAD_REACTORS
330
E4D4
102
}
330
E4D4
100
AcDbVisualStyle
  2

 70
     4
177
     3
291
     0
 70
    58
 90
        0
176
     1
 90
        2
176
     1
 90
        0
176
     1
 90
        0
176
     1
 40
0.6
176
     1
 40
30.0
176
     1
 62
     7
176
     1
 90
        1
176
     1
 90
        4
176
     1
 62
     7
176
     1
 62
   257
176
     1
 90
        1
176
     1
 90
        1
176
     1
 40
1.0
176
     1
 90
        0
176
     1
 62
   257
176
     1
 40
1.0
176
     1
 90
        1
176
     1
 90
        6
176
     1
 90
        2
176
     1
 62
     7
176
     1
 90
        5
176
     1
 90
        0
176
     1
 90
        0
176
     1
290
     0
176
     1
 90
        1
176
     1
 40
0.0
176
     1
 90
        0
176
     1
290
     1
176
     1
290
     1
176
     1
290
     0
176
     1
290
     0
176
     1
290
     0
176
     1
290
     0
176
     1
290
     0
176
     1
290
     0
176
     1
290
     0
176
     1
 90
       50
176
     1
 40
0.0
176
     1
 40
1.0
176
     1
 90
        0
176
     1
 62
    18
176
     1
 90
       50
176
     1
 90
        3
176
     1
 62
     5
420
      255
176
     1
290
     0
176
     1
 90
       50
176
     1
 90
       50
176
     1
 90
       50
176
     1
290
     0
176
     1
 90
       50
176
     1
 62
   256
176
     0
 40
1.0
176
     0
 90
        2
176
     1
  1
strokes_ogs.tif
176
     1
290
     0
176
     1
 40
1.0
176
     1
 40
1.0
176
     1
  0
VISUALSTYLE
  5
E4DC
102
{ACAD_REACTORS
330
E4D4
102
}
330
E4D4
100
AcDbVisualStyle
  2

 70
     6
177
     3
291
     0
 70
    58
 90
        1
176
     1
 90
        2
176
     1
 90
        2
176
     1
 90
        0
176
     1
 40
0.6
176
     1
 40
30.0
176
     1
 62
     7
176
     1
 90
        2
176
     1
 90
        2
176
     1
 62
     7
176
     1
 62
   257
176
     1
 90
        2
176
     1
 90
        1
176
     1
 40
179.0
176
     1
 90
        0
176
     1
 62
   257
176
     1
 40
1.0
176
     1
 90
        1
176
     1
 90
        6
176
     1
 90
        2
176
     1
 62
     7
176
     1
 90
        3
176
     1
 90
        0
176
     1
 90
        0
176
     1
290
     0
176
     1
 90
        1
176
     1
 40
0.0
176
     1
 90
        0
176
     1
290
     0
176
     1
290
     1
176
     1
290
     1
176
     1
290
     0
176
     1
290
     0
176
     1
290
     0
176
     1
290
     0
176
     1
290
     0
176
     1
290
     0
176
     1
 90
       50
176
     1
 40
0.0
176
     1
 40
1.0
176
     1
 90
        0
176
     1
 62
    18
176
     1
 90
       50
176
     1
 90
        3
176
     1
 62
     5
420
      255
176
     1
290
     0
176
     1
 90
       50
176
     1
 90
       50
176
     1
 90
       50
176
     1
290
     0
176
     1
 90
       50
176
     1
 62
   256
176
     0
 40
1.0
176
     0
 90
        2
176
     1
  1
strokes_ogs.tif
176
     1
290
     0
176
     1
 40
1.0
176
     1
 40
1.0
176
     1
  0
VISUALSTYLE
  5
E4DB
102
{ACAD_REACTORS
330
E4D4
102
}
330
E4D4
100
AcDbVisualStyle
  2

 70
     5
177
     3
291
     0
 70
    58
 90
        0
176
     1
 90
        2
176
     1
 90
        0
176
     1
 90
        0
176
     1
 40
0.6
176
     1
 40
30.0
176
     1
 62
     7
176
     1
 90
        1
176
     1
 90
        4
176
     1
 62
     7
176
     1
 62
   257
176
     1
 90
        1
176
     1
 90
        1
176
     1
 40
1.0
176
     1
 90
        0
176
     1
 62
   257
176
     1
 40
1.0
176
     1
 90
        1
176
     1
 90
        6
176
     1
 90
        2
176
     1
 62
     7
176
     1
 90
        5
176
     1
 90
        0
176
     1
 90
        0
176
     1
290
     0
176
     1
 90
        1
176
     1
 40
0.0
176
     1
 90
        0
176
     1
290
     0
176
     1
290
     1
176
     1
290
     1
176
     1
290
     0
176
     1
290
     0
176
     1
290
     0
176
     1
290
     0
176
     1
290
     0
176
     1
290
     0
176
     1
 90
       50
176
     1
 40
0.0
176
     1
 40
1.0
176
     1
 90
        0
176
     1
 62
    18
176
     1
 90
       50
176
     1
 90
        3
176
     1
 62
     5
420
      255
176
     1
290
     0
176
     1
 90
       50
176
     1
 90
       50
176
     1
 90
       50
176
     1
290
     0
176
     1
 90
       50
176
     1
 62
   256
176
     0
 40
1.0
176
     0
 90
        2
176
     1
  1
strokes_ogs.tif
176
     1
290
     0
176
     1
 40
1.0
176
     1
 40
1.0
176
     1
  0
VISUALSTYLE
  5
E4D9
102
{ACAD_REACTORS
330
E4D4
102
}
330
E4D4
100
AcDbVisualStyle
  2

 70
     7
177
     3
291
     1
 70
    58
 90
        1
176
     1
 90
        0
176
     1
 90
        1
176
     1
 90
        0
176
     1
 40
0.6
176
     1
 40
30.0
176
     1
 62
     7
176
     1
 90
        0
176
     1
 90
        4
176
     1
 62
     7
176
     1
 62
   257
176
     1
 90
        1
176
     1
 90
        1
176
     1
 40
1.0
176
     1
 90
        8
176
     1
 62
     7
176
     1
 40
1.0
176
     1
 90
        1
176
     1
 90
        6
176
     1
 90
        2
176
     1
 62
     7
176
     1
 90
        5
176
     1
 90
        0
176
     1
 90
        0
176
     1
290
     0
176
     1
 90
        1
176
     1
 40
0.0
176
     1
 90
        0
176
     1
290
     0
176
     1
290
     1
176
     1
290
     1
176
     1
290
     0
176
     1
290
     0
176
     1
290
     0
176
     1
290
     0
176
     1
290
     0
176
     1
290
     0
176
     1
 90
       50
176
     1
 40
0.0
176
     1
 40
1.0
176
     1
 90
        0
176
     1
 62
    18
176
     1
 90
       50
176
     1
 90
        3
176
     1
 62
     5
420
      255
176
     1
290
     0
176
     1
 90
       50
176
     1
 90
       50
176
     1
 90
       50
176
     1
290
     0
176
     1
 90
       50
176
     1
 62
   256
176
     0
 40
1.0
176
     0
 90
        2
176
     1
  1
strokes_ogs.tif
176
     1
290
     0
176
     1
 40
1.0
176
     1
 40
1.0
176
     1
  0
VISUALSTYLE
  5
E4E0
102
{ACAD_REACTORS
330
E4D4
102
}
330
E4D4
100
AcDbVisualStyle
  2

 70
    12
177
     3
291
     1
 70
    58
 90
        2
176
     1
 90
        2
176
     1
 90
        0
176
     1
 90
        0
176
     1
 40
0.6
176
     1
 40
30.0
176
     1
 62
     7
176
     1
 90
        1
176
     1
 90
        4
176
     1
 62
     7
176
     1
 62
   257
176
     1
 90
        1
176
     1
 90
        1
176
     1
 40
1.0
176
     1
 90
        8
176
     1
 62
     7
176
     1
 40
1.0
176
     1
 90
        1
176
     1
 90
        6
176
     1
 90
        2
176
     1
 62
     7
176
     1
 90
        5
176
     1
 90
        0
176
     1
 90
        0
176
     1
290
     0
176
     1
 90
        1
176
     1
 40
50.0
176
     1
 90
        0
176
     1
290
     0
176
     1
290
     1
176
     1
290
     1
176
     1
290
     0
176
     1
290
     0
176
     1
290
     0
176
     1
290
     0
176
     1
290
     0
176
     1
290
     0
176
     1
 90
       50
176
     1
 40
0.0
176
     1
 40
1.0
176
     1
 90
        0
176
     1
 62
    18
176
     1
 90
       50
176
     1
 90
        3
176
     1
 62
     5
420
      255
176
     1
290
     0
176
     1
 90
       50
176
     1
 90
       50
176
     1
 90
       50
176
     1
290
     0
176
     1
 90
       50
176
     1
 62
   256
176
     0
 40
1.0
176
     0
 90
        2
176
     1
  1
strokes_ogs.tif
176
     1
290
     0
176
     1
 40
1.0
176
     1
 40
1.0
176
     1
  0
VISUALSTYLE
  5
E4E4
102
{ACAD_REACTORS
330
E4D4
102
}
330
E4D4
100
AcDbVisualStyle
  2

 70
    16
177
     3
291
     1
 70
    58
 90
        2
176
     1
 90
        2
176
     1
 90
        3
176
     1
 90
        0
176
     1
 40
0.6
176
     1
 40
30.0
176
     1
 62
     8
176
     1
 90
        1
176
     1
 90
        4
176
     1
 62
     7
176
     1
 62
   257
176
     1
 90
        1
176
     1
 90
        1
176
     1
 40
1.0
176
     1
 90
        8
176
     1
 62
     8
176
     1
 40
1.0
176
     1
 90
        1
176
     1
 90
        6
176
     1
 90
        2
176
     1
 62
     7
176
     1
 90
        5
176
     1
 90
        0
176
     1
 90
        0
176
     1
290
     0
176
     1
 90
        1
176
     1
 40
0.0
176
     1
 90
        0
176
     1
290
     0
176
     1
290
     1
176
     1
290
     1
176
     1
290
     0
176
     1
290
     0
176
     1
290
     0
176
     1
290
     0
176
     1
290
     0
176
     1
290
     0
176
     1
 90
       50
176
     1
 40
0.0
176
     1
 40
1.0
176
     1
 90
        0
176
     1
 62
    18
176
     1
 90
       50
176
     1
 90
        3
176
     1
 62
     5
420
      255
176
     1
290
     0
176
     1
 90
       50
176
     1
 90
       50
176
     1
 90
       50
176
     1
290
     0
176
     1
 90
       50
176
     1
 62
   256
176
     0
 40
1.0
176
     0
 90
        2
176
     1
  1
strokes_ogs.tif
176
     1
290
     0
176
     1
 40
1.0
176
     1
 40
1.0
176
     1
  0
VISUALSTYLE
  5
E4DD
102
{ACAD_REACTORS
330
E4D4
102
}
330
E4D4
100
AcDbVisualStyle
  2

 70
     9
177
     3
291
     0
 70
    58
 90
        3
176
     1
 90
        2
176
     1
 90
        0
176
     1
 90
        0
176
     1
 40
0.6
176
     1
 40
30.0
176
     1
 62
     7
176
     1
 90
        2
176
     1
 90
        2
176
     1
 62
     7
176
     1
 62
   257
176
     1
 90
        1
176
     1
 90
        1
176
     1
 40
179.0
176
     1
 90
        8
176
     1
 62
     7
176
     1
 40
1.0
176
     1
 90
        1
176
     1
 90
        6
176
     1
 90
        2
176
     1
 62
     7
176
     1
 90
        3
176
     1
 90
        0
176
     1
 90
        0
176
     1
290
     0
176
     1
 90
        1
176
     1
 40
0.0
176
     1
 90
        0
176
     1
290
     0
176
     1
290
     1
176
     1
290
     1
176
     1
290
     0
176
     1
290
     0
176
     1
290
     0
176
     1
290
     0
176
     1
290
     0
176
     1
290
     0
176
     1
 90
       50
176
     1
 40
0.0
176
     1
 40
1.0
176
     1
 90
        0
176
     1
 62
    18
176
     1
 90
       50
176
     1
 90
        3
176
     1
 62
     5
420
      255
176
     1
290
     0
176
     1
 90
       50
176
     1
 90
       50
176
     1
 90
       50
176
     1
290
     0
176
     1
 90
       50
176
     1
 62
   256
176
     0
 40
1.0
176
     0
 90
        2
176
     1
  1
strokes_ogs.tif
176
     1
290
     0
176
     1
 40
1.0
176
     1
 40
1.0
176
     1
  0
VISUALSTYLE
  5
E4DF
102
{ACAD_REACTORS
330
E4D4
102
}
330
E4D4
100
AcDbVisualStyle
  2

 70
    11
177
     3
291
     1
 70
    58
 90
        2
176
     1
 90
        2
176
     1
 90
        0
176
     1
 90
        0
176
     1
 40
0.6
176
     1
 40
30.0
176
     1
 62
     7
176
     1
 90
        1
176
     1
 90
        4
176
     1
 62
     7
176
     1
 62
   257
176
     1
 90
        1
176
     1
 90
        1
176
     1
 40
1.0
176
     1
 90
        8
176
     1
 62
     7
176
     1
 40
1.0
176
     1
 90
        1
176
     1
 90
        6
176
     1
 90
        2
176
     1
 62
     7
176
     1
 90
        5
176
     1
 90
        0
176
     1
 90
        0
176
     1
290
     0
176
     1
 90
        1
176
     1
 40
-50.0
176
     1
 90
        0
176
     1
290
     0
176
     1
290
     1
176
     1
290
     1
176
     1
290
     0
176
     1
290
     0
176
     1
290
     0
176
     1
290
     0
176
     1
290
     0
176
     1
290
     0
176
     1
 90
       50
176
     1
 40
0.0
176
     1
 40
1.0
176
     1
 90
        0
176
     1
 62
    18
176
     1
 90
       50
176
     1
 90
        3
176
     1
 62
     5
420
      255
176
     1
290
     0
176
     1
 90
       50
176
     1
 90
       50
176
     1
 90
       50
176
     1
290
     0
176
     1
 90
       50
176
     1
 62
   256
176
     0
 40
1.0
176
     0
 90
        2
176
     1
  1
strokes_ogs.tif
176
     1
290
     0
176
     1
 40
1.0
176
     1
 40
1.0
176
     1
  0
VISUALSTYLE
  5
E4E7
102
{ACAD_REACTORS
330
E4D4
102
}
330
E4D4
100
AcDbVisualStyle
  2

 70
    22
177
     3
291
     1
 70
    58
 90
        2
176
     0
 90
        2
176
     0
 90
        0
176
     0
 90
        0
176
     0
 40
0.6
176
     0
 40
30.0
176
     0
 62
     7
176
     0
 90
        1
176
     0
 90
        4
176
     0
 62
     7
176
     0
 62
   257
176
     0
 90
        1
176
     0
 90
        1
176
     0
 40
1.0
176
     0
 90
        8
176
     2
 62
     7
176
     0
 40
1.0
176
     0
 90
        1
176
     0
 90
        6
176
     0
 90
        2
176
     0
 62
     7
176
     0
 90
        5
176
     0
 90
        0
176
     0
 90
        0
176
     0
290
     0
176
     0
 90
        1
176
     0
 40
0.0
176
     0
 90
        0
176
     0
290
     0
176
     1
290
     1
176
     1
290
     1
176
     1
290
     0
176
     1
290
     0
176
     1
290
     0
176
     1
290
     0
176
     1
290
     0
176
     1
290
     0
176
     1
 90
       50
176
     1
 40
0.0
176
     1
 40
1.0
176
     1
 90
        0
176
     1
 62
    18
176
     1
 90
       50
176
     1
 90
        3
176
     1
 62
     5
420
      255
176
     1
290
     0
176
     1
 90
       50
176
     1
 90
       50
176
     1
 90
       50
176
     1
290
     0
176
     1
 90
       50
176
     1
 62
   256
176
     0
 40
1.0
176
     0
 90
        2
176
     1
  1
strokes_ogs.tif
176
     1
290
     0
176
     1
 40
1.0
176
     1
 40
1.0
176
     1
  0
VISUALSTYLE
  5
E4E3
102
{ACAD_REACTORS
330
E4D4
102
}
330
E4D4
100
AcDbVisualStyle
  2

 70
    15
177
     3
291
     1
 70
    58
 90
        2
176
     1
 90
        2
176
     1
 90
        0
176
     1
 90
        0
176
     1
 40
0.6
176
     1
 40
30.0
176
     1
 62
     7
176
     1
 90
        1
176
     1
 90
        4
176
     1
 62
     7
176
     1
 62
   257
176
     1
 90
        1
176
     1
 90
        1
176
     1
 40
1.0
176
     1
 90
        8
176
     1
 62
     7
176
     1
 40
1.0
176
     1
 90
        1
176
     1
 90
        6
176
     1
 90
        2
176
     1
 62
     7
176
     1
 90
        5
176
     1
 90
        0
176
     1
 90
        0
176
     1
290
     0
176
     1
 90
        1
176
     1
 40
0.0
176
     1
 90
        0
176
     1
290
     0
176
     1
290
     1
176
     1
290
     1
176
     1
290
     0
176
     1
290
     0
176
     1
290
     0
176
     1
290
     0
176
     1
290
     0
176
     1
290
     0
176
     1
 90
       50
176
     1
 40
0.0
176
     1
 40
1.0
176
     1
 90
        0
176
     1
 62
    18
176
     1
 90
       50
176
     1
 90
        3
176
     1
 62
     5
420
      255
176
     1
290
     0
176
     1
 90
       50
176
     1
 90
       50
176
     1
 90
       50
176
     1
290
     0
176
     1
 90
       50
176
     1
 62
   256
176
     0
 40
1.0
176
     0
 90
        2
176
     1
  1
strokes_ogs.tif
176
     1
290
     0
176
     1
 40
1.0
176
     1
 40
1.0
176
     1
  0
VISUALSTYLE
  5
E4D5
102
{ACAD_REACTORS
330
E4D4
102
}
330
E4D4
100
AcDbVisualStyle
  2

 70
     0
177
     3
291
     1
 70
    58
 90
        2
176
     1
 90
        1
176
     1
 90
        1
176
     1
 90
        2
176
     1
 40
0.6
176
     1
 40
30.0
176
     1
 62
     7
176
     1
 90
        0
176
     1
 90
        4
176
     1
 62
     7
176
     1
 62
   257
176
     1
 90
        1
176
     1
 90
        1
176
     1
 40
1.0
176
     1
 90
        8
176
     1
 62
     7
176
     1
 40
1.0
176
     1
 90
        1
176
     1
 90
        6
176
     1
 90
        2
176
     1
 62
     7
176
     1
 90
        5
176
     1
 90
        0
176
     1
 90
        0
176
     1
290
     0
176
     1
 90
       13
176
     1
 40
0.0
176
     1
 90
        0
176
     1
290
     0
176
     1
290
     1
176
     1
290
     1
176
     1
290
     0
176
     1
290
     0
176
     1
290
     0
176
     1
290
     0
176
     1
290
     0
176
     1
290
     0
176
     1
 90
       50
176
     1
 40
0.0
176
     1
 40
1.0
176
     1
 90
        0
176
     1
 62
    18
176
     1
 90
       50
176
     1
 90
        3
176
     1
 62
     5
420
      255
176
     1
290
     0
176
     1
 90
       50
176
     1
 90
       50
176
     1
 90
       50
176
     1
290
     0
176
     1
 90
       50
176
     1
 62
   256
176
     0
 40
1.0
176
     0
 90
        2
176
     1
  1
strokes_ogs.tif
176
     1
290
     0
176
     1
 40
1.0
176
     1
 40
1.0
176
     1
  0
VISUALSTYLE
  5
E4D6
102
{ACAD_REACTORS
330
E4D4
102
}
330
E4D4
100
AcDbVisualStyle
  2

 70
     1
177
     3
291
     1
 70
    58
 90
        2
176
     1
 90
        1
176
     1
 90
        1
176
     1
 90
        2
176
     1
 40
0.6
176
     1
 40
30.0
176
     1
 62
     7
176
     1
 90
        1
176
     1
 90
        4
176
     1
 62
     7
176
     1
 62
   257
176
     1
 90
        1
176
     1
 90
        1
176
     1
 40
1.0
176
     1
 90
        0
176
     1
 62
   257
176
     1
 40
1.0
176
     1
 90
        1
176
     1
 90
        6
176
     1
 90
        2
176
     1
 62
     7
176
     1
 90
        5
176
     1
 90
        0
176
     1
 90
        0
176
     1
290
     0
176
     1
 90
       13
176
     1
 40
0.0
176
     1
 90
        0
176
     1
290
     0
176
     1
290
     1
176
     1
290
     1
176
     1
290
     0
176
     1
290
     0
176
     1
290
     0
176
     1
290
     0
176
     1
290
     0
176
     1
290
     0
176
     1
 90
       50
176
     1
 40
0.0
176
     1
 40
1.0
176
     1
 90
        0
176
     1
 62
    18
176
     1
 90
       50
176
     1
 90
        3
176
     1
 62
     5
420
      255
176
     1
290
     0
176
     1
 90
       50
176
     1
 90
       50
176
     1
 90
       50
176
     1
290
     0
176
     1
 90
       50
176
     1
 62
   256
176
     0
 40
1.0
176
     0
 90
        2
176
     1
  1
strokes_ogs.tif
176
     1
290
     0
176
     1
 40
1.0
176
     1
 40
1.0
176
     1
  0
VISUALSTYLE
  5
E4D7
102
{ACAD_REACTORS
330
E4D4
102
}
330
E4D4
100
AcDbVisualStyle
  2

 70
     2
177
     3
291
     1
 70
    58
 90
        2
176
     1
 90
        2
176
     1
 90
        1
176
     1
 90
        2
176
     1
 40
0.6
176
     1
 40
30.0
176
     1
 62
     7
176
     1
 90
        0
176
     1
 90
        4
176
     1
 62
     7
176
     1
 62
   257
176
     1
 90
        1
176
     1
 90
        1
176
     1
 40
1.0
176
     1
 90
        0
176
     1
 62
     7
176
     1
 40
1.0
176
     1
 90
        1
176
     1
 90
        6
176
     1
 90
        2
176
     1
 62
     7
176
     1
 90
        5
176
     1
 90
        0
176
     1
 90
        0
176
     1
290
     0
176
     1
 90
       13
176
     1
 40
0.0
176
     1
 90
        0
176
     1
290
     0
176
     1
290
     1
176
     1
290
     1
176
     1
290
     0
176
     1
290
     0
176
     1
290
     0
176
     1
290
     0
176
     1
290
     0
176
     1
290
     0
176
     1
 90
       50
176
     1
 40
0.0
176
     1
 40
1.0
176
     1
 90
        0
176
     1
 62
    18
176
     1
 90
       50
176
     1
 90
        3
176
     1
 62
     5
420
      255
176
     1
290
     0
176
     1
 90
       50
176
     1
 90
       50
176
     1
 90
       50
176
     1
290
     0
176
     1
 90
       50
176
     1
 62
   256
176
     0
 40
1.0
176
     0
 90
        2
176
     1
  1
strokes_ogs.tif
176
     1
290
     0
176
     1
 40
1.0
176
     1
 40
1.0
176
     1
  0
VISUALSTYLE
  5
E4D8
102
{ACAD_REACTORS
330
E4D4
102
}
330
E4D4
100
AcDbVisualStyle
  2

 70
     3
177
     3
291
     1
 70
    58
 90
        2
176
     1
 90
        2
176
     1
 90
        1
176
     1
 90
        2
176
     1
 40
0.6
176
     1
 40
30.0
176
     1
 62
     7
176
     1
 90
        1
176
     1
 90
        4
176
     1
 62
     7
176
     1
 62
   257
176
     1
 90
        1
176
     1
 90
        1
176
     1
 40
1.0
176
     1
 90
        0
176
     1
 62
   257
176
     1
 40
1.0
176
     1
 90
        1
176
     1
 90
        6
176
     1
 90
        2
176
     1
 62
     7
176
     1
 90
        5
176
     1
 90
        0
176
     1
 90
        0
176
     1
290
     0
176
     1
 90
       13
176
     1
 40
0.0
176
     1
 90
        0
176
     1
290
     0
176
     1
290
     1
176
     1
290
     1
176
     1
290
     0
176
     1
290
     0
176
     1
290
     0
176
     1
290
     0
176
     1
290
     0
176
     1
290
     0
176
     1
 90
       50
176
     1
 40
0.0
176
     1
 40
1.0
176
     1
 90
        0
176
     1
 62
    18
176
     1
 90
       50
176
     1
 90
        3
176
     1
 62
     5
420
      255
176
     1
290
     0
176
     1
 90
       50
176
     1
 90
       50
176
     1
 90
       50
176
     1
290
     0
176
     1
 90
       50
176
     1
 62
   256
176
     0
 40
1.0
176
     0
 90
        2
176
     1
  1
strokes_ogs.tif
176
     1
290
     0
176
     1
 40
1.0
176
     1
 40
1.0
176
     1
  0
VISUALSTYLE
  5
3AECE
102
{ACAD_REACTORS
330
E4D4
102
}
330
E4D4
100
AcDbVisualStyle
  2
Hidden
 70
     6
177
     3
291
     0
 70
    58
 90
        1
176
     1
 90
        2
176
     1
 90
        2
176
     1
 90
        0
176
     1
 40
0.6
176
     1
 40
30.0
176
     1
 62
     7
420
 16777215
176
     1
 90
        2
176
     1
 90
        2
176
     1
 62
     7
176
     1
 62
   257
176
     1
 90
        2
176
     1
 90
        1
176
     1
 40
40.0
176
     1
 90
        0
176
     1
 62
   257
176
     1
 40
1.0
176
     1
 90
        1
176
     1
 90
        6
176
     1
 90
        2
176
     1
 62
     7
176
     1
 90
        3
176
     1
 90
        0
176
     1
 90
        0
176
     1
290
     0
176
     1
 90
        1
176
     1
 40
0.0
176
     1
 90
        0
176
     1
290
     0
176
     1
290
     1
176
     1
290
     1
176
     1
290
     0
176
     1
290
     0
176
     1
290
     0
176
     1
290
     0
176
     1
290
     0
176
     1
290
     0
176
     1
 90
       50
176
     1
 40
0.0
176
     1
 40
1.0
176
     1
 90
        0
176
     1
 62
    18
176
     1
 90
       50
176
     1
 90
        3
176
     1
 62
     5
420
      255
176
     1
290
     0
176
     1
 90
       50
176
     1
 90
       50
176
     1
 90
       50
176
     1
290
     0
176
     1
 90
       50
176
     1
 62
   256
176
     0
 40
1.0
176
     0
 90
        2
176
     1
  1
strokes_ogs.tif
176
     1
290
     0
176
     1
 40
1.0
176
     1
 40
1.0
176
     1
  0
VISUALSTYLE
  5
E4E5
102
{ACAD_REACTORS
330
E4D4
102
}
330
E4D4
100
AcDbVisualStyle
  2

 70
    20
177
     3
291
     1
 70
    58
 90
        2
176
     0
 90
        2
176
     0
 90
        0
176
     0
 90
        0
176
     0
 40
0.6
176
     0
 40
30.0
176
     0
 62
     7
176
     0
 90
        1
176
     0
 90
        4
176
     0
 62
     7
176
     0
 62
   257
176
     0
 90
        1
176
     0
 90
        1
176
     0
 40
1.0
176
     0
 90
       10
176
     2
 62
     7
176
     0
 40
1.0
176
     0
 90
        1
176
     0
 90
        6
176
     0
 90
        2
176
     0
 62
     7
176
     0
 90
        5
176
     0
 90
        0
176
     0
 90
        0
176
     0
290
     0
176
     0
 90
        1
176
     0
 40
0.0
176
     0
 90
        0
176
     0
290
     0
176
     1
290
     1
176
     1
290
     1
176
     1
290
     0
176
     1
290
     0
176
     1
290
     0
176
     1
290
     0
176
     1
290
     0
176
     1
290
     0
176
     1
 90
       50
176
     1
 40
0.0
176
     1
 40
1.0
176
     1
 90
        0
176
     1
 62
    18
176
     1
 90
       50
176
     1
 90
        3
176
     1
 62
     5
420
      255
176
     1
290
     0
176
     1
 90
       50
176
     1
 90
       50
176
     1
 90
       50
176
     1
290
     0
176
     1
 90
       50
176
     1
 62
   256
176
     0
 40
1.0
176
     0
 90
        2
176
     1
  1
strokes_ogs.tif
176
     1
290
     0
176
     1
 40
1.0
176
     1
 40
1.0
176
     1
  0
VISUALSTYLE
  5
E4E2
102
{ACAD_REACTORS
330
E4D4
102
}
330
E4D4
100
AcDbVisualStyle
  2

 70
    14
177
     3
291
     1
 70
    58
 90
        2
176
     1
 90
        2
176
     1
 90
        0
176
     1
 90
        0
176
     1
 40
0.6
176
     1
 40
30.0
176
     1
 62
     7
176
     1
 90
        1
176
     1
 90
        4
176
     1
 62
     7
176
     1
 62
   257
176
     1
 90
        7
176
     1
 90
        7
176
     1
 40
1.0
176
     1
 90
        8
176
     1
 62
     7
176
     1
 40
1.0
176
     1
 90
        1
176
     1
 90
        6
176
     1
 90
        2
176
     1
 62
     7
176
     1
 90
        5
176
     1
 90
        0
176
     1
 90
        0
176
     1
290
     0
176
     1
 90
        1
176
     1
 40
0.0
176
     1
 90
        0
176
     1
290
     0
176
     1
290
     1
176
     1
290
     1
176
     1
290
     0
176
     1
290
     0
176
     1
290
     0
176
     1
290
     0
176
     1
290
     0
176
     1
290
     0
176
     1
 90
       50
176
     1
 40
0.0
176
     1
 40
1.0
176
     1
 90
        0
176
     1
 62
    18
176
     1
 90
       50
176
     1
 90
        3
176
     1
 62
     5
420
      255
176
     1
290
     0
176
     1
 90
       50
176
     1
 90
       50
176
     1
 90
       50
176
     1
290
     0
176
     1
 90
       50
176
     1
 62
   256
176
     0
 40
1.0
176
     0
 90
        2
176
     1
  1
strokes_ogs.tif
176
     1
290
     0
176
     1
 40
1.0
176
     1
 40
1.0
176
     1
  0
VISUALSTYLE
  5
E4E6
102
{ACAD_REACTORS
330
E4D4
102
}
330
E4D4
100
AcDbVisualStyle
  2

 70
    21
177
     3
291
     1
 70
    58
 90
        2
176
     0
 90
        2
176
     0
 90
        0
176
     0
 90
        0
176
     0
 40
0.6
176
     0
 40
30.0
176
     0
 62
     7
176
     0
 90
        1
176
     0
 90
        4
176
     0
 62
     7
176
     0
 62
   257
176
     0
 90
        1
176
     0
 90
        1
176
     0
 40
1.0
176
     0
 90
        9
176
     2
 62
     7
176
     0
 40
1.0
176
     0
 90
        1
176
     0
 90
        6
176
     0
 90
        2
176
     0
 62
     7
176
     0
 90
        5
176
     0
 90
        0
176
     0
 90
        0
176
     0
290
     0
176
     0
 90
        1
176
     0
 40
0.0
176
     0
 90
        0
176
     0
290
     0
176
     1
290
     1
176
     1
290
     1
176
     1
290
     0
176
     1
290
     0
176
     1
290
     0
176
     1
290
     0
176
     1
290
     0
176
     1
290
     0
176
     1
 90
       50
176
     1
 40
0.0
176
     1
 40
1.0
176
     1
 90
        0
176
     1
 62
    18
176
     1
 90
       50
176
     1
 90
        3
176
     1
 62
     5
420
      255
176
     1
290
     0
176
     1
 90
       50
176
     1
 90
       50
176
     1
 90
       50
176
     1
290
     0
176
     1
 90
       50
176
     1
 62
   256
176
     0
 40
1.0
176
     0
 90
        2
176
     1
  1
strokes_ogs.tif
176
     1
290
     0
176
     1
 40
1.0
176
     1
 40
1.0
176
     1
  0
VISUALSTYLE
  5
E4DE
102
{ACAD_REACTORS
330
E4D4
102
}
330
E4D4
100
AcDbVisualStyle
  2

 70
     8
177
     3
291
     0
 70
    58
 90
        2
176
     1
 90
        2
176
     1
 90
        0
176
     1
 90
        0
176
     1
 40
0.6
176
     1
 40
30.0
176
     1
 62
     7
176
     1
 90
        1
176
     1
 90
        0
176
     1
 62
     7
176
     1
 62
   257
176
     1
 90
        1
176
     1
 90
        1
176
     1
 40
1.0
176
     1
 90
        8
176
     1
 62
     8
176
     1
 40
1.0
176
     1
 90
        1
176
     1
 90
        6
176
     1
 90
        2
176
     1
 62
     7
176
     1
 90
        5
176
     1
 90
        0
176
     1
 90
        0
176
     1
290
     0
176
     1
 90
       13
176
     1
 40
0.0
176
     1
 90
        0
176
     1
290
     0
176
     1
290
     1
176
     1
290
     1
176
     1
290
     0
176
     1
290
     0
176
     1
290
     0
176
     1
290
     0
176
     1
290
     0
176
     1
290
     0
176
     1
 90
       50
176
     1
 40
0.0
176
     1
 40
1.0
176
     1
 90
        0
176
     1
 62
    18
176
     1
 90
       50
176
     1
 90
        3
176
     1
 62
     5
420
      255
176
     1
290
     0
176
     1
 90
       50
176
     1
 90
       50
176
     1
 90
       50
176
     1
290
     0
176
     1
 90
       50
176
     1
 62
   256
176
     0
 40
1.0
176
     0
 90
        2
176
     1
  1
strokes_ogs.tif
176
     1
290
     0
176
     1
 40
1.0
176
     1
 40
1.0
176
     1
  0
VISUALSTYLE
  5
3AED3
102
{ACAD_REACTORS
330
E4D4
102
}
330
E4D4
100
AcDbVisualStyle
  2
Shaded
 70
    27
177
     3
291
     0
 70
    58
 90
        2
176
     1
 90
        2
176
     1
 90
        1
176
     1
 90
        2
176
     1
 40
0.6
176
     1
 40
30.0
176
     1
 62
     7
420
 16777215
176
     1
 90
        0
176
     1
 90
        4
176
     1
 62
     7
176
     1
 62
   257
176
     1
 90
        1
176
     1
 90
        1
176
     1
 40
1.0
176
     1
 90
        8
176
     1
 62
   257
176
     1
 40
1.0
176
     1
 90
        1
176
     1
 90
        6
176
     1
 90
        2
176
     1
 62
     8
420
  7895160
176
     1
 90
        3
176
     1
 90
        0
176
     1
 90
        0
176
     1
290
     0
176
     1
 90
        5
176
     1
 40
0.0
176
     1
 90
        0
176
     1
290
     0
176
     1
290
     1
176
     1
290
     1
176
     1
290
     0
176
     1
290
     0
176
     1
290
     0
176
     1
290
     0
176
     1
290
     0
176
     1
290
     0
176
     1
 90
       50
176
     1
 40
0.0
176
     1
 40
1.0
176
     1
 90
        0
176
     1
 62
    18
176
     1
 90
       50
176
     1
 90
        3
176
     1
 62
     5
420
      255
176
     1
290
     0
176
     1
 90
       50
176
     1
 90
       50
176
     1
 90
       50
176
     1
290
     0
176
     1
 90
       50
176
     1
 62
   256
176
     0
 40
1.0
176
     0
 90
        2
176
     1
  1
strokes_ogs.tif
176
     1
290
     0
176
     1
 40
1.0
176
     1
 40
1.0
176
     1
  0
VISUALSTYLE
  5
3AED2
102
{ACAD_REACTORS
330
E4D4
102
}
330
E4D4
100
AcDbVisualStyle
  2
Shaded with edges
 70
    26
177
     3
291
     0
 70
    58
 90
        2
176
     1
 90
        2
176
     1
 90
        1
176
     1
 90
        2
176
     1
 40
0.6
176
     1
 40
30.0
176
     1
 62
     7
420
 16777215
176
     1
 90
        1
176
     1
 90
       10
176
     1
 62
     7
176
     1
 62
   257
176
     1
 90
        2
176
     1
 90
        1
176
     1
 40
1.0
176
     1
 90
        8
176
     1
 62
   257
176
     1
 40
1.0
176
     1
 90
        1
176
     1
 90
        6
176
     1
 90
        2
176
     1
 62
     7
176
     1
 90
        3
176
     1
 90
        0
176
     1
 90
        0
176
     1
290
     0
176
     1
 90
        5
176
     1
 40
0.0
176
     1
 90
        0
176
     1
290
     0
176
     1
290
     1
176
     1
290
     1
176
     1
290
     0
176
     1
290
     0
176
     1
290
     0
176
     1
290
     0
176
     1
290
     0
176
     1
290
     0
176
     1
 90
       50
176
     1
 40
0.0
176
     1
 40
1.0
176
     1
 90
        0
176
     1
 62
    18
176
     1
 90
       50
176
     1
 90
        3
176
     1
 62
     5
420
      255
176
     1
290
     0
176
     1
 90
       50
176
     1
 90
       50
176
     1
 90
       50
176
     1
290
     0
176
     1
 90
       50
176
     1
 62
   256
176
     0
 40
1.0
176
     0
 90
        2
176
     1
  1
strokes_ogs.tif
176
     1
290
     0
176
     1
 40
1.0
176
     1
 40
1.0
176
     1
  0
VISUALSTYLE
  5
3AECF
102
{ACAD_REACTORS
330
E4D4
102
}
330
E4D4
100
AcDbVisualStyle
  2
Shades of Gray
 70
    23
177
     3
291
     0
 70
    58
 90
        2
176
     1
 90
        2
176
     1
 90
        3
176
     1
 90
        0
176
     1
 40
0.6
176
     1
 40
30.0
176
     1
 62
     7
420
 16777215
176
     1
 90
        2
176
     1
 90
        2
176
     1
 62
     7
176
     1
 62
     7
176
     1
 90
        1
176
     1
 90
        1
176
     1
 40
40.0
176
     1
 90
        8
176
     1
 62
     7
176
     1
 40
1.0
176
     1
 90
        1
176
     1
 90
        6
176
     1
 90
        2
176
     1
 62
     7
176
     1
 90
        3
176
     1
 90
        0
176
     1
 90
        0
176
     1
290
     0
176
     1
 90
        1
176
     1
 40
0.0
176
     1
 90
        0
176
     1
290
     0
176
     1
290
     1
176
     1
290
     1
176
     1
290
     0
176
     1
290
     0
176
     1
290
     0
176
     1
290
     0
176
     1
290
     0
176
     1
290
     0
176
     1
 90
       50
176
     1
 40
0.0
176
     1
 40
1.0
176
     1
 90
        0
176
     1
 62
    18
176
     1
 90
       50
176
     1
 90
        3
176
     1
 62
     5
420
      255
176
     1
290
     0
176
     1
 90
       50
176
     1
 90
       50
176
     1
 90
       50
176
     1
290
     0
176
     1
 90
       50
176
     1
 62
   256
176
     0
 40
1.0
176
     0
 90
        2
176
     1
  1
strokes_ogs.tif
176
     1
290
     0
176
     1
 40
1.0
176
     1
 40
1.0
176
     1
  0
VISUALSTYLE
  5
3AED0
102
{ACAD_REACTORS
330
E4D4
102
}
330
E4D4
100
AcDbVisualStyle
  2
Sketchy
 70
    24
177
     3
291
     0
 70
    58
 90
        1
176
     1
 90
        2
176
     1
 90
        2
176
     1
 90
        0
176
     1
 40
0.6
176
     1
 40
30.0
176
     1
 62
     7
420
 16777215
176
     1
 90
        2
176
     1
 90
        2
176
     1
 62
     7
176
     1
 62
     7
176
     1
 90
        1
176
     1
 90
        1
176
     1
 40
40.0
176
     1
 90
       11
176
     1
 62
     7
176
     1
 40
1.0
176
     1
 90
        1
176
     1
 90
        6
176
     1
 90
        2
176
     1
 62
     7
176
     1
 90
        6
176
     1
 90
        0
176
     1
 90
        0
176
     1
290
     0
176
     1
 90
        1
176
     1
 40
0.0
176
     1
 90
        0
176
     1
290
     0
176
     1
290
     1
176
     1
290
     1
176
     1
290
     0
176
     1
290
     0
176
     1
290
     0
176
     1
290
     0
176
     1
290
     0
176
     1
290
     0
176
     1
 90
       50
176
     1
 40
0.0
176
     1
 40
1.0
176
     1
 90
        0
176
     1
 62
    18
176
     1
 90
       50
176
     1
 90
        3
176
     1
 62
     5
420
      255
176
     1
290
     0
176
     1
 90
       50
176
     1
 90
       50
176
     1
 90
       50
176
     1
290
     0
176
     1
 90
       50
176
     1
 62
   256
176
     0
 40
1.0
176
     0
 90
        2
176
     1
  1
strokes_ogs.tif
176
     1
290
     0
176
     1
 40
1.0
176
     1
 40
1.0
176
     1
  0
VISUALSTYLE
  5
E4E1
102
{ACAD_REACTORS
330
E4D4
102
}
330
E4D4
100
AcDbVisualStyle
  2

 70
    13
177
     3
291
     1
 70
    58
 90
        2
176
     1
 90
        2
176
     1
 90
        0
176
     1
 90
        0
176
     1
 40
0.6
176
     1
 40
30.0
176
     1
 62
     7
176
     1
 90
        1
176
     1
 90
        4
176
     1
 62
     7
176
     1
 62
   257
176
     1
 90
        1
176
     1
 90
        1
176
     1
 40
1.0
176
     1
 90
       12
176
     1
 62
     7
176
     1
 40
1.0
176
     1
 90
        1
176
     1
 90
        6
176
     1
 90
        2
176
     1
 62
     7
176
     1
 90
        5
176
     1
 90
        0
176
     1
 90
        0
176
     1
290
     0
176
     1
 90
        1
176
     1
 40
0.0
176
     1
 90
        0
176
     1
290
     0
176
     1
290
     1
176
     1
290
     1
176
     1
290
     0
176
     1
290
     0
176
     1
290
     0
176
     1
290
     0
176
     1
290
     0
176
     1
290
     0
176
     1
 90
       50
176
     1
 40
0.0
176
     1
 40
1.0
176
     1
 90
        0
176
     1
 62
    18
176
     1
 90
       50
176
     1
 90
        3
176
     1
 62
     5
420
      255
176
     1
290
     0
176
     1
 90
       50
176
     1
 90
       50
176
     1
 90
       50
176
     1
290
     0
176
     1
 90
       50
176
     1
 62
   256
176
     0
 40
1.0
176
     0
 90
        2
176
     1
  1
strokes_ogs.tif
176
     1
290
     0
176
     1
 40
1.0
176
     1
 40
1.0
176
     1
  0
VISUALSTYLE
  5
3AECD
102
{ACAD_REACTORS
330
E4D4
102
}
330
E4D4
100
AcDbVisualStyle
  2
Wireframe
 70
     5
177
     3
291
     0
 70
    58
 90
        0
176
     1
 90
        2
176
     1
 90
        0
176
     1
 90
        0
176
     1
 40
0.6
176
     1
 40
30.0
176
     1
 62
     7
420
 16777215
176
     1
 90
        1
176
     1
 90
        4
176
     1
 62
     7
176
     1
 62
   257
176
     1
 90
        1
176
     1
 90
        1
176
     1
 40
1.0
176
     1
 90
        0
176
     1
 62
   257
176
     1
 40
1.0
176
     1
 90
        1
176
     1
 90
        6
176
     1
 90
        2
176
     1
 62
     7
176
     1
 90
        3
176
     1
 90
        0
176
     1
 90
        0
176
     1
290
     0
176
     1
 90
        1
176
     1
 40
0.0
176
     1
 90
        0
176
     1
290
     0
176
     1
290
     1
176
     1
290
     1
176
     1
290
     0
176
     1
290
     0
176
     1
290
     0
176
     1
290
     0
176
     1
290
     0
176
     1
290
     0
176
     1
 90
       50
176
     1
 40
0.0
176
     1
 40
1.0
176
     1
 90
        0
176
     1
 62
    18
176
     1
 90
       50
176
     1
 90
        3
176
     1
 62
     5
420
      255
176
     1
290
     0
176
     1
 90
       50
176
     1
 90
       50
176
     1
 90
       50
176
     1
290
     0
176
     1
 90
       50
176
     1
 62
   256
176
     0
 40
1.0
176
     0
 90
        2
176
     1
  1
strokes_ogs.tif
176
     1
290
     0
176
     1
 40
1.0
176
     1
 40
1.0
176
     1
  0
VISUALSTYLE
  5
3AED1
102
{ACAD_REACTORS
330
E4D4
102
}
330
E4D4
100
AcDbVisualStyle
  2
X-Ray
 70
    25
177
     3
291
     0
 70
    58
 90
        2
176
     1
 90
        2
176
     1
 90
        1
176
     1
 90
        1
176
     1
 40
0.5
176
     1
 40
30.0
176
     1
 62
     7
420
 16777215
176
     1
 90
        1
176
     1
 90
        0
176
     1
 62
     7
176
     1
 62
   257
176
     1
 90
        1
176
     1
 90
        1
176
     1
 40
1.0
176
     1
 90
        8
176
     1
 62
     7
176
     1
 40
1.0
176
     1
 90
        1
176
     1
 90
        6
176
     1
 90
        2
176
     1
 62
     7
176
     1
 90
        3
176
     1
 90
        0
176
     1
 90
        0
176
     1
290
     0
176
     1
 90
       13
176
     1
 40
0.0
176
     1
 90
        0
176
     1
290
     0
176
     1
290
     1
176
     1
290
     1
176
     1
290
     0
176
     1
290
     0
176
     1
290
     0
176
     1
290
     0
176
     1
290
     0
176
     1
290
     0
176
     1
 90
       50
176
     1
 40
0.0
176
     1
 40
1.0
176
     1
 90
        0
176
     1
 62
    18
176
     1
 90
       50
176
     1
 90
        3
176
     1
 62
     5
420
      255
176
     1
290
     0
176
     1
 90
       50
176
     1
 90
       50
176
     1
 90
       50
176
     1
290
     0
176
     1
 90
       50
176
     1
 62
   256
176
     0
 40
1.0
176
     0
 90
        2
176
     1
  1
strokes_ogs.tif
176
     1
290
     0
176
     1
 40
1.0
176
     1
 40
1.0
176
     1
  0
DICTIONARYVAR
  5
F8C1
102
{ACAD_REACTORS
330
5697
102
}
330
5697
100
DictionaryVariables
280
     0
  1
1:1
  0
DICTIONARYVAR
  5
F8C0
102
{ACAD_REACTORS
330
5697
102
}
330
5697
100
DictionaryVariables
280
     0
  1
STANDARD
  0
DICTIONARYVAR
  5
F8BF
102
{ACAD_REACTORS
330
5697
102
}
330
5697
100
DictionaryVariables
280
     0
  1
STANDARD
  0
DICTIONARYVAR
  5
3AEE3
102
{ACAD_REACTORS
330
5697
102
}
330
5697
100
DictionaryVariables
280
     0
  1
Imperial24
  0
DICTIONARYVAR
  5
3AEE4
102
{ACAD_REACTORS
330
5697
102
}
330
5697
100
DictionaryVariables
280
     0
  1
Imperial24
  0
DICTIONARYVAR
  5
5698
102
{ACAD_REACTORS
330
5697
102
}
330
5697
100
DictionaryVariables
280
     0
  1
1
  0
DICTIONARYVAR
  5
F8C3
102
{ACAD_REACTORS
330
5697
102
}
330
5697
100
DictionaryVariables
280
     0
  1
0
  0
DICTIONARYVAR
  5
37FF5
102
{ACAD_REACTORS
330
5697
102
}
330
5697
100
DictionaryVariables
280
     0
  1
1
  0
DICTIONARYVAR
  5
37FF6
102
{ACAD_REACTORS
330
5697
102
}
330
5697
100
DictionaryVariables
280
     0
  1
15
  0
DICTIONARYVAR
  5
37FF4
102
{ACAD_REACTORS
330
5697
102
}
330
5697
100
DictionaryVariables
280
     0
  1
0
  0
DICTIONARYVAR
  5
37FF3
102
{ACAD_REACTORS
330
5697
102
}
330
5697
100
DictionaryVariables
280
     0
  1
0
  0
DICTIONARYVAR
  5
F8C2
102
{ACAD_REACTORS
330
5697
102
}
330
5697
100
DictionaryVariables
280
     0
  1
127
  0
XRECORD
  5
F8F7
102
{ACAD_REACTORS
330
F8F6
102
}
330
F8F6
100
AcDbXrecord
280
     1
330
0
330
0
330
0
330
0
330
0
330
0
330
0
330
0
330
0
330
0
330
0
330
0
330
0
330
0
330
0
330
0
330
0
330
0
330
0
330
0
330
0
330
0
330
0
330
0
330
0
330
0
330
0
330
0
330
0
330
0
330
0
330
0
330
0
330
0
330
0
330
0
330
0
330
0
330
0
330
0
330
0
330
0
330
0
330
0
330
0
330
0
330
0
330
0
330
0
330
0
330
0
330
0
330
0
330
0
330
0
330
0
330
0
330
0
330
0
330
0
330
0
330
0
330
0
330
0
330
0
330
0
330
0
330
0
330
0
330
0
330
0
330
0
330
0
330
0
330
0
330
0
330
0
330
0
330
0
330
0
330
0
330
0
330
0
330
0
330
0
330
0
330
0
330
0
330
0
330
0
330
0
330
0
330
0
330
0
330
0
330
0
330
0
330
0
330
0
330
0
330
0
330
0
330
0
330
0
330
0
330
0
330
0
330
0
330
0
330
0
330
0
330
0
330
0
330
0
330
0
330
0
330
0
330
0
330
0
330
0
330
0
330
0
330
0
330
0
330
0
330
0
330
0
330
0
330
0
330
0
330
0
330
0
330
0
330
0
330
0
330
0
330
0
330
0
330
0
330
0
330
0
330
0
330
0
330
0
330
0
330
0
330
0
330
0
330
0
330
0
330
0
330
0
330
0
330
0
330
0
330
0
330
0
330
0
330
0
330
0
330
0
330
0
330
0
330
0
330
0
330
0
330
0
330
0
330
0
330
0
330
0
330
0
330
0
330
0
330
0
330
0
330
0
330
0
330
0
330
0
330
0
330
0
330
0
330
0
330
0
330
0
330
0
330
0
330
0
330
0
330
0
330
0
330
0
330
0
330
0
330
0
330
0
330
0
330
0
330
0
330
0
330
0
330
0
330
0
330
0
330
0
330
0
330
0
330
0
330
0
330
0
330
0
330
0
330
0
330
0
330
0
330
0
330
0
330
0
330
0
330
0
330
0
330
0
330
0
330
0
330
0
330
0
330
0
330
0
330
0
330
0
330
0
330
0
330
0
330
0
330
0
330
0
330
0
330
0
330
0
330
0
330
0
330
0
330
0
330
0
330
0
330
0
330
0
330
0
330
0
330
0
330
0
330
0
330
0
330
0
330
0
330
0
330
0
330
0
330
0
330
0
330
0
330
0
330
0
330
0
330
0
330
0
330
0
330
0
330
0
330
0
330
0
330
0
330
0
330
0
330
0
330
0
330
0
330
0
330
0
330
0
330
0
330
0
330
0
330
0
330
0
330
0
330
0
330
0
330
0
330
0
330
0
330
0
330
0
330
0
330
0
330
0
330
0
330
0
330
0
330
0
330
0
330
0
330
0
330
0
330
0
330
0
  0
DICTIONARY
  5
3AEE9
330
3AED7
100
AcDbDictionary
280
     1
281
     1
  3
ACAD_XREC_ROUNDTRIP
360
3AF01
  0
DICTIONARY
  5
13816
330
904E
100
AcDbDictionary
280
     1
281
     1
  0
DICTIONARY
  5
E4C5
330
E4C4
100
AcDbDictionary
280
     1
281
     1
  3
ACAD_XREC_ROUNDTRIP
360
12A19
  3
BUMPTILE
360
E4C7
  3
DIFFUSETILE
360
E4C6
  3
OPACITYTILE
360
E4CA
  3
REFLECTIONTILE
360
E4C9
  3
REFRACTIONTILE
360
E4CB
  3
SPECULARTILE
360
E4C8
  0
DICTIONARY
  5
E4BD
330
E4BC
100
AcDbDictionary
280
     1
281
     1
  3
ACAD_XREC_ROUNDTRIP
360
12A18
  3
BUMPTILE
360
E4BF
  3
DIFFUSETILE
360
E4BE
  3
OPACITYTILE
360
E4C2
  3
REFLECTIONTILE
360
E4C1
  3
REFRACTIONTILE
360
E4C3
  3
SPECULARTILE
360
E4C0
  0
DICTIONARY
  5
E4CD
330
E4CC
100
AcDbDictionary
280
     1
281
     1
  3
ACAD_XREC_ROUNDTRIP
360
12A1A
  3
BUMPTILE
360
E4CF
  3
DIFFUSETILE
360
E4CE
  3
OPACITYTILE
360
E4D2
  3
REFLECTIONTILE
360
E4D1
  3
REFRACTIONTILE
360
E4D3
  3
SPECULARTILE
360
E4D0
  0
DICTIONARY
  5
3AEE7
330
3AED5
100
AcDbDictionary
280
     1
281
     1
  3
ACAD_XREC_ROUNDTRIP
360
3AF00
  0
DICTIONARY
  5
F86C
330
E4EA
100
AcDbDictionary
280
     1
281
     1
  3
ACAD_ROUNDTRIP_2008_TABLESTYLE_CELLSTYLEMAP
360
3AEFF
  0
XRECORD
  5
3AF01
102
{ACAD_REACTORS
330
3AEE9
102
}
330
3AEE9
100
AcDbXrecord
280
     1
102
DISPLAYNAME
  1
Imperial24
102
FLAGS
 90
        0
  0
XRECORD
  5
12A19
102
{ACAD_REACTORS
330
E4C5
102
}
330
E4C5
100
AcDbXrecord
280
     1
102
MATERIAL
148
0.0
149
0.0
149
0.0
 93
        0
 94
      127
282
     0
 72
     0
 77
     0
171
     0
175
     0
179
     0
273
     0
  0
XRECORD
  5
E4C7
102
{ACAD_REACTORS
330
E4C5
102
}
330
E4C5
100
AcDbXrecord
280
     1
270
     1
271
     1
  0
XRECORD
  5
E4C6
102
{ACAD_REACTORS
330
E4C5
102
}
330
E4C5
100
AcDbXrecord
280
     1
270
     1
271
     1
  0
XRECORD
  5
E4CA
102
{ACAD_REACTORS
330
E4C5
102
}
330
E4C5
100
AcDbXrecord
280
     1
270
     1
271
     1
  0
XRECORD
  5
E4C9
102
{ACAD_REACTORS
330
E4C5
102
}
330
E4C5
100
AcDbXrecord
280
     1
270
     1
271
     1
  0
XRECORD
  5
E4CB
102
{ACAD_REACTORS
330
E4C5
102
}
330
E4C5
100
AcDbXrecord
280
     1
270
     1
271
     1
  0
XRECORD
  5
E4C8
102
{ACAD_REACTORS
330
E4C5
102
}
330
E4C5
100
AcDbXrecord
280
     1
270
     1
271
     1
  0
XRECORD
  5
12A18
102
{ACAD_REACTORS
330
E4BD
102
}
330
E4BD
100
AcDbXrecord
280
     1
102
MATERIAL
148
0.0
149
0.0
149
0.0
 93
        0
 94
      127
282
     0
 72
     0
 77
     0
171
     0
175
     0
179
     0
273
     0
  0
XRECORD
  5
E4BF
102
{ACAD_REACTORS
330
E4BD
102
}
330
E4BD
100
AcDbXrecord
280
     1
270
     1
271
     1
  0
XRECORD
  5
E4BE
102
{ACAD_REACTORS
330
E4BD
102
}
330
E4BD
100
AcDbXrecord
280
     1
270
     1
271
     1
  0
XRECORD
  5
E4C2
102
{ACAD_REACTORS
330
E4BD
102
}
330
E4BD
100
AcDbXrecord
280
     1
270
     1
271
     1
  0
XRECORD
  5
E4C1
102
{ACAD_REACTORS
330
E4BD
102
}
330
E4BD
100
AcDbXrecord
280
     1
270
     1
271
     1
  0
XRECORD
  5
E4C3
102
{ACAD_REACTORS
330
E4BD
102
}
330
E4BD
100
AcDbXrecord
280
     1
270
     1
271
     1
  0
XRECORD
  5
E4C0
102
{ACAD_REACTORS
330
E4BD
102
}
330
E4BD
100
AcDbXrecord
280
     1
270
     1
271
     1
  0
XRECORD
  5
12A1A
102
{ACAD_REACTORS
330
E4CD
102
}
330
E4CD
100
AcDbXrecord
280
     1
102
MATERIAL
148
0.0
149
0.0
149
0.0
 93
        0
 94
      127
282
     0
 72
     0
 77
     0
171
     0
175
     0
179
     0
273
     0
  0
XRECORD
  5
E4CF
102
{ACAD_REACTORS
330
E4CD
102
}
330
E4CD
100
AcDbXrecord
280
     1
270
     1
271
     1
  0
XRECORD
  5
E4CE
102
{ACAD_REACTORS
330
E4CD
102
}
330
E4CD
100
AcDbXrecord
280
     1
270
     1
271
     1
  0
XRECORD
  5
E4D2
102
{ACAD_REACTORS
330
E4CD
102
}
330
E4CD
100
AcDbXrecord
280
     1
270
     1
271
     1
  0
XRECORD
  5
E4D1
102
{ACAD_REACTORS
330
E4CD
102
}
330
E4CD
100
AcDbXrecord
280
     1
270
     1
271
     1
  0
XRECORD
  5
E4D3
102
{ACAD_REACTORS
330
E4CD
102
}
330
E4CD
100
AcDbXrecord
280
     1
270
     1
271
     1
  0
XRECORD
  5
E4D0
102
{ACAD_REACTORS
330
E4CD
102
}
330
E4CD
100
AcDbXrecord
280
     1
270
     1
271
     1
  0
XRECORD
  5
3AF00
102
{ACAD_REACTORS
330
3AEE7
102
}
330
3AEE7
100
AcDbXrecord
280
     1
102
DISPLAYNAME
  1
Imperial24
102
FLAGS
 90
        0
  0
CELLSTYLEMAP
  5
3AEFF
102
{ACAD_REACTORS
330
F86C
102
}
330
F86C
100
AcDbCellStyleMap
 90
        3
300
CELLSTYLE
  1
TABLEFORMAT_BEGIN
 90
        5
170
     1
 91
        0
 92
    32768
 62
   257
 93
        1
300
CONTENTFORMAT
  1
CONTENTFORMAT_BEGIN
 90
        0
 91
        0
 92
      512
 93
        0
300

 40
0.0
140
1.0
 94
        5
 62
     0
340
11
144
0.25
309
CONTENTFORMAT_END
171
     1
301
MARGIN
  1
CELLMARGIN_BEGIN
 40
0.06
 40
0.06
 40
0.06
 40
0.06
 40
0.18
 40
0.18
309
CELLMARGIN_END
 94
        6
 95
        1
302
GRIDFORMAT
  1
GRIDFORMAT_BEGIN
 90
        0
 91
        1
 62
     0
 92
       -2
340
0
 93
        0
 40
0.045
309
GRIDFORMAT_END
 95
        2
302
GRIDFORMAT
  1
GRIDFORMAT_BEGIN
 90
        0
 91
        1
 62
     0
 92
       -2
340
0
 93
        0
 40
0.045
309
GRIDFORMAT_END
 95
        4
302
GRIDFORMAT
  1
GRIDFORMAT_BEGIN
 90
        0
 91
        1
 62
     0
 92
       -2
340
0
 93
        0
 40
0.045
309
GRIDFORMAT_END
 95
        8
302
GRIDFORMAT
  1
GRIDFORMAT_BEGIN
 90
        0
 91
        1
 62
     0
 92
       -2
340
0
 93
        0
 40
0.045
309
GRIDFORMAT_END
 95
       16
302
GRIDFORMAT
  1
GRIDFORMAT_BEGIN
 90
        0
 91
        1
 62
     0
 92
       -2
340
0
 93
        0
 40
0.045
309
GRIDFORMAT_END
 95
       32
302
GRIDFORMAT
  1
GRIDFORMAT_BEGIN
 90
        0
 91
        1
 62
     0
 92
       -2
340
0
 93
        0
 40
0.045
309
GRIDFORMAT_END
309
TABLEFORMAT_END
  1
CELLSTYLE_BEGIN
 90
        1
 91
        1
300
_TITLE
309
CELLSTYLE_END
300
CELLSTYLE
  1
TABLEFORMAT_BEGIN
 90
        5
170
     1
 91
        0
 92
        0
 62
   257
 93
        1
300
CONTENTFORMAT
  1
CONTENTFORMAT_BEGIN
 90
        0
 91
        0
 92
      512
 93
        0
300

 40
0.0
140
1.0
 94
        5
 62
     0
340
11
144
0.18
309
CONTENTFORMAT_END
171
     1
301
MARGIN
  1
CELLMARGIN_BEGIN
 40
0.06
 40
0.06
 40
0.06
 40
0.06
 40
0.18
 40
0.18
309
CELLMARGIN_END
 94
        6
 95
        1
302
GRIDFORMAT
  1
GRIDFORMAT_BEGIN
 90
        0
 91
        1
 62
     0
 92
       -2
340
0
 93
        0
 40
0.045
309
GRIDFORMAT_END
 95
        2
302
GRIDFORMAT
  1
GRIDFORMAT_BEGIN
 90
        0
 91
        1
 62
     0
 92
       -2
340
0
 93
        0
 40
0.045
309
GRIDFORMAT_END
 95
        4
302
GRIDFORMAT
  1
GRIDFORMAT_BEGIN
 90
        0
 91
        1
 62
     0
 92
       -2
340
0
 93
        0
 40
0.045
309
GRIDFORMAT_END
 95
        8
302
GRIDFORMAT
  1
GRIDFORMAT_BEGIN
 90
        0
 91
        1
 62
     0
 92
       -2
340
0
 93
        0
 40
0.045
309
GRIDFORMAT_END
 95
       16
302
GRIDFORMAT
  1
GRIDFORMAT_BEGIN
 90
        0
 91
        1
 62
     0
 92
       -2
340
0
 93
        0
 40
0.045
309
GRIDFORMAT_END
 95
       32
302
GRIDFORMAT
  1
GRIDFORMAT_BEGIN
 90
        0
 91
        1
 62
     0
 92
       -2
340
0
 93
        0
 40
0.045
309
GRIDFORMAT_END
309
TABLEFORMAT_END
  1
CELLSTYLE_BEGIN
 90
        2
 91
        1
300
_HEADER
309
CELLSTYLE_END
300
CELLSTYLE
  1
TABLEFORMAT_BEGIN
 90
        5
170
     1
 91
        0
 92
        0
 62
   257
 93
        1
300
CONTENTFORMAT
  1
CONTENTFORMAT_BEGIN
 90
        0
 91
        0
 92
      512
 93
        0
300

 40
0.0
140
1.0
 94
        2
 62
     0
340
11
144
0.18
309
CONTENTFORMAT_END
171
     1
301
MARGIN
  1
CELLMARGIN_BEGIN
 40
0.06
 40
0.06
 40
0.06
 40
0.06
 40
0.18
 40
0.18
309
CELLMARGIN_END
 94
        6
 95
        1
302
GRIDFORMAT
  1
GRIDFORMAT_BEGIN
 90
        0
 91
        1
 62
     0
 92
       -2
340
0
 93
        0
 40
0.045
309
GRIDFORMAT_END
 95
        2
302
GRIDFORMAT
  1
GRIDFORMAT_BEGIN
 90
        0
 91
        1
 62
     0
 92
       -2
340
0
 93
        0
 40
0.045
309
GRIDFORMAT_END
 95
        4
302
GRIDFORMAT
  1
GRIDFORMAT_BEGIN
 90
        0
 91
        1
 62
     0
 92
       -2
340
0
 93
        0
 40
0.045
309
GRIDFORMAT_END
 95
        8
302
GRIDFORMAT
  1
GRIDFORMAT_BEGIN
 90
        0
 91
        1
 62
     0
 92
       -2
340
0
 93
        0
 40
0.045
309
GRIDFORMAT_END
 95
       16
302
GRIDFORMAT
  1
GRIDFORMAT_BEGIN
 90
        0
 91
        1
 62
     0
 92
       -2
340
0
 93
        0
 40
0.045
309
GRIDFORMAT_END
 95
       32
302
GRIDFORMAT
  1
GRIDFORMAT_BEGIN
 90
        0
 91
        1
 62
     0
 92
       -2
340
0
 93
        0
 40
0.045
309
GRIDFORMAT_END
309
TABLEFORMAT_END
  1
CELLSTYLE_BEGIN
 90
        3
 91
        2
300
_DATA
309
CELLSTYLE_END
  0
ENDSEC
  0
SECTION
  2
ACDSDATA
 70
     2
 71
     6
  0
ACDSSCHEMA
 90
        0
  1
AcDb_Thumbnail_Schema
  2
AcDbDs::ID
280
    10
 91
        8
  2
Thumbnail_Data
280
    15
 91
        0
101
ACDSRECORD
 95
        0
 90
        1
  2
AcDbDs::TreatedAsObjectData
280
     1
291
     1
101
ACDSRECORD
 95
        0
 90
        2
  2
AcDbDs::Legacy
280
     1
291
     1
101
ACDSRECORD
  1
AcDbDs::ID
 90
        3
  2
AcDs:Indexable
280
     1
291
     1
101
ACDSRECORD
  1
AcDbDs::ID
 90
        4
  2
AcDbDs::HandleAttribute
280
     7
282
     1
  0
ACDSSCHEMA
 90
        1
  1
AcDbDs::TreatedAsObjectDataSchema
  2
AcDbDs::TreatedAsObjectData
280
     1
 91
        0
  0
ACDSSCHEMA
 90
        2
  1
AcDbDs::LegacySchema
  2
AcDbDs::Legacy
280
     1
 91
        0
  0
ACDSSCHEMA
 90
        3
  1
AcDbDs::IndexedPropertySchema
  2
AcDs:Indexable
280
     1
 91
        0
  0
ACDSSCHEMA
 90
        4
  1
AcDbDs::HandleAttributeSchema
  2
AcDbDs::HandleAttribute
280
     7
 91
        1
284
     1
  0
ACDSRECORD
 90
        0
  2
AcDbDs::ID
280
    10
320
904E
  2
Thumbnail_Data
280
    15
 94
     1798
310
89504E470D0A1A0A0000000D49484452000001000000008108030000001837949D00000300504C5445000000000000FFFFFF0000000000000000000000000000000000000000000000000000330000660000990000CC0000FF0033000033330033660033990033CC0033FF0066000066330066660066990066CC0066FF0099
310
000099330099660099990099CC0099FF00CC0000CC3300CC6600CC9900CCCC00CCFF00FF0000FF3300FF6600FF9900FFCC00FFFF3300003300333300663300993300CC3300FF3333003333333333663333993333CC3333FF3366003366333366663366993366CC3366FF3399003399333399663399993399CC3399FF33CC00
310
33CC3333CC6633CC9933CCCC33CCFF33FF0033FF3333FF6633FF9933FFCC33FFFF6600006600336600666600996600CC6600FF6633006633336633666633996633CC6633FF6666006666336666666666996666CC6666FF6699006699336699666699996699CC6699FF66CC0066CC3366CC6666CC9966CCCC66CCFF66FF0066
310
FF3366FF6666FF9966FFCC66FFFF9900009900339900669900999900CC9900FF9933009933339933669933999933CC9933FF9966009966339966669966999966CC9966FF9999009999339999669999999999CC9999FF99CC0099CC3399CC6699CC9999CCCC99CCFF99FF0099FF3399FF6699FF9999FFCC99FFFFCC0000CC00
310
33CC0066CC0099CC00CCCC00FFCC3300CC3333CC3366CC3399CC33CCCC33FFCC6600CC6633CC6666CC6699CC66CCCC66FFCC9900CC9933CC9966CC9999CC99CCCC99FFCCCC00CCCC33CCCC66CCCC99CCCCCCCCCCFFCCFF00CCFF33CCFF66CCFF99CCFFCCCCFFFFFF0000FF0033FF0066FF0099FF00CCFF00FFFF3300FF3333
310
FF3366FF3399FF33CCFF33FFFF6600FF6633FF6666FF6699FF66CCFF66FFFF9900FF9933FF9966FF9999FF99CCFF99FFFFCC00FFCC33FFCC66FFCC99FFCCCCFFCCFFFFFF00FFFF33FFFF66FFFF99FFFFCCFFFFFF0000000D0D0D1A1A1A2828283535354343435050505D5D5D6B6B6B787878868686939393A1A1A1AEAEAEBB
310
BBBBC9C9C9D6D6D6E4E4E4F1F1F1FFFFFF000000000000000000000000000000000000000000000000000000000000C11FEF66000003C14944415478DAEDDD397683301000D0DC809370FFCE8D3A3F1F41D59C601AF741FB48089B387E896751622060F39EBE476861C917284F5F066000066000066000066000EF4AEBDB13
310
37808FDFA101188001188001FC09002286495ED007805DD208905F6D412180F379C17B03D008E05DC87858F02F0B58047005F005C06B05F0B908C4850745E03E24210031CBDEC5794438010092007204408900D01601AF0058048801C01F1D03207DFBE9470E001400780220B01AAC5DC00DE076D30CB0BAF5760B43DBDEAF
310
FEC5116EA6456085F895BB78384CAF554F04B499FB7D4E0CC0000CC0000C8021C0DBCE731B00D3DEE0DB2E72607D6E706B0ABF778706C00D60550EF0913B3400033000033080BF0270AFEFA85C56C3B62F70BFDFE32B4C709BACC7570A9506B32F298E217207F07E8530690B87570AA5CFF806905212E00CE0CF01D4FED398
310
7FDE0021A46B673077099F00A499AF13F600BBF1009C1F018E8EF7AC01865AE07A854300500070D5073044FF156600E904A25080C25057CE00808E974904701DC0A404E00300E60D21B7A5F0FDC6799CC0D812DCFEC6FC8EF42E5100B308980080D8089800EC0BC043001000F0F420F810807F35B895706C1A07D520761FAD
310
F7D9886808A18356F0A70D21843D40BDC94600001D02380BD0EEB3D2D0190AD95D6700228E0127BAC31D401C0508030179A66140648C80987B1F6EB2900000E700703E24C61B004F0E8A26805C69D68CA79151D62DC17C1C73A44D331D0C40725F2DD6C601BDDB9637006DD39C0428812200A06685346B8E00F21BC88DC6FC
310
018046003C02D8250900252BD8B2781E80BE5DF4C9D12C94E304257587CFE6FFF93306849F1E570FF00F3B340003300003F85C002719E0CCD38424010C374E0E35BD130EB0A4E4F2DC7BBF2CD32D21D1F5CBB89E2B401ADD71FD1057088165F7552F644A238037005080F047CC8F268028E0C0E71BE973E75815407F10DC56
310
2903D8E76702D08E0A065056D7CA5228C0852632125000503C00DD72291BF227280A2E91421240CBF30050A71757B64B8C8014EB138056047A00C611E06629014C376CAB97B07489BF39892B028711A0A5089C3908F60008DAAA41249580C05A00C949E2B4058722808E9C1F125A040C400D4078805C78A0E2D01B5403102F
310
79736538200D08690288590E00E3909816802D6D15D9D69A1B0745910E8AA2D041D11CEE08AE047DFB5EF71140521701C01B205F1B037380E142A0BA717FF284F3C3D549A9C72E8F87D744C802E82E9222AB6986470000F100AFEF902580E67FB2F2A93BFC7F80F933C4C92603B02260008C01B4FFCB4D6EC9000C4079FA06
310
959D3D5548D047200000000049454E44AE426082
  0
ENDSEC
  0
EOF
