  0
SECTION
  2
HEADER
  9
$ACADVER
  1
AC1027
  9
$ACADMAINTVER
 70
    55
  9
$DWGCODEPAGE
  3
ANSI_932
  9
$LASTSAVEDBY
  1
marketing
  9
$REQUIREDVERSIONS
160
                 0
  9
$INSBASE
 10
0.0
 20
0.0
 30
0.0
  9
$EXTMIN
 10
-0.008324336203259
 20
-0.121759839963488
 30
-0.0030516181105611
  9
$EXTMAX
 10
630.1102395843836
 20
891.1328166503608
 30
50.00305208378603
  9
$LIMMIN
 10
-1176.0
 20
-798.0
  9
$LIMMAX
 10
594.0
 20
1078.0
  9
$ORTHOMODE
 70
     1
  9
$REGENMODE
 70
     1
  9
$FILLMODE
 70
     1
  9
$QTEXTMODE
 70
     0
  9
$MIRRTEXT
 70
     1
  9
$LTSCALE
 40
10.0
  9
$ATTMODE
 70
     1
  9
$TEXTSIZE
 40
0.2
  9
$TRACEWID
 40
0.05
  9
$TEXTSTYLE
  7
blockfont
  9
$CLAYER
  8
30
  9
$CELTYPE
  6
BYLAYER
  9
$CECOLOR
 62
   256
  9
$CELTSCALE
 40
1.0
  9
$DISPSILH
 70
     0
  9
$DIMSCALE
 40
1.0
  9
$DIMASZ
 40
3.0
  9
$DIMEXO
 40
1.0
  9
$DIMDLI
 40
0.5
  9
$DIMRND
 40
0.0
  9
$DIMDLE
 40
0.0
  9
$DIMEXE
 40
0.5
  9
$DIMTP
 40
0.0
  9
$DIMTM
 40
0.0
  9
$DIMTXT
 40
7.0
  9
$DIMCEN
 40
0.09
  9
$DIMTSZ
 40
0.0
  9
$DIMTOL
 70
     0
  9
$DIMLIM
 70
     0
  9
$DIMTIH
 70
     0
  9
$DIMTOH
 70
     0
  9
$DIMSE1
 70
     0
  9
$DIMSE2
 70
     0
  9
$DIMTAD
 70
     1
  9
$DIMZIN
 70
    12
  9
$DIMBLK
  1
OPEN
  9
$DIMASO
 70
     1
  9
$DIMSHO
 70
     1
  9
$DIMPOST
  1

  9
$DIMAPOST
  1

  9
$DIMALT
 70
     0
  9
$DIMALTD
 70
     2
  9
$DIMALTF
 40
25.4
  9
$DIMLFAC
 40
1.0
  9
$DIMTOFL
 70
     0
  9
$DIMTVP
 40
0.0
  9
$DIMTIX
 70
     0
  9
$DIMSOXD
 70
     0
  9
$DIMSAH
 70
     0
  9
$DIMBLK1
  1

  9
$DIMBLK2
  1

  9
$DIMSTYLE
  2
STANDARD
  9
$DIMCLRD
 70
   256
  9
$DIMCLRE
 70
     0
  9
$DIMCLRT
 70
   256
  9
$DIMTFAC
 40
1.0
  9
$DIMGAP
 40
3.0
  9
$DIMJUST
 70
     0
  9
$DIMSD1
 70
     0
  9
$DIMSD2
 70
     0
  9
$DIMTOLJ
 70
     1
  9
$DIMTZIN
 70
     0
  9
$DIMALTZ
 70
     0
  9
$DIMALTTZ
 70
     0
  9
$DIMUPT
 70
     0
  9
$DIMDEC
 70
     1
  9
$DIMTDEC
 70
     1
  9
$DIMALTU
 70
     2
  9
$DIMALTTD
 70
     2
  9
$DIMTXSTY
  7
STANDARD
  9
$DIMAUNIT
 70
     0
  9
$DIMADEC
 70
     0
  9
$DIMALTRND
 40
0.0
  9
$DIMAZIN
 70
     0
  9
$DIMDSEP
 70
    46
  9
$DIMATFIT
 70
     3
  9
$DIMFRAC
 70
     0
  9
$DIMLDRBLK
  1
OPEN
  9
$DIMLUNIT
 70
     2
  9
$DIMLWD
 70
    -2
  9
$DIMLWE
 70
    -2
  9
$DIMTMOVE
 70
     0
  9
$DIMFXL
 40
1.0
  9
$DIMFXLON
 70
     0
  9
$DIMJOGANG
 40
0.7853981633974483
  9
$DIMTFILL
 70
     1
  9
$DIMTFILLCLR
 70
     0
  9
$DIMARCSYM
 70
     0
  9
$DIMLTYPE
  6
BYLAYER
  9
$DIMLTEX1
  6

  9
$DIMLTEX2
  6

  9
$DIMTXTDIRECTION
 70
     0
  9
$LUNITS
 70
     2
  9
$LUPREC
 70
     8
  9
$SKETCHINC
 40
0.1
  9
$FILLETRAD
 40
0.0
  9
$AUNITS
 70
     0
  9
$AUPREC
 70
     0
  9
$MENU
  1
.
  9
$ELEVATION
 40
0.0
  9
$PELEVATION
 40
0.0
  9
$THICKNESS
 40
0.0
  9
$LIMCHECK
 70
     0
  9
$CHAMFERA
 40
0.0
  9
$CHAMFERB
 40
0.0
  9
$CHAMFERC
 40
0.0
  9
$CHAMFERD
 40
0.0
  9
$SKPOLY
 70
     0
  9
$TDCREATE
 40
2452286.555658658
  9
$TDUCREATE
 40
2452286.180658658
  9
$TDUPDATE
 40
2459243.630663171
  9
$TDUUPDATE
 40
2459243.255663171
  9
$TDINDWG
 40
2.5756288194
  9
$TDUSRTIMER
 40
2.5756248958
  9
$USRTIMER
 70
     1
  9
$ANGBASE
 50
0.0
  9
$ANGDIR
 70
     0
  9
$PDMODE
 70
     0
  9
$PDSIZE
 40
0.0
  9
$PLINEWID
 40
0.0
  9
$SPLFRAME
 70
     0
  9
$SPLINETYPE
 70
     6
  9
$SPLINESEGS
 70
     8
  9
$HANDSEED
  5
41FF5
  9
$SURFTAB1
 70
     6
  9
$SURFTAB2
 70
     6
  9
$SURFTYPE
 70
     6
  9
$SURFU
 70
     6
  9
$SURFV
 70
     6
  9
$UCSBASE
  2

  9
$UCSNAME
  2

  9
$UCSORG
 10
0.0
 20
0.0
 30
0.0
  9
$UCSXDIR
 10
1.0
 20
0.0
 30
0.0
  9
$UCSYDIR
 10
0.0
 20
1.0
 30
0.0
  9
$UCSORTHOREF
  2

  9
$UCSORTHOVIEW
 70
     0
  9
$UCSORGTOP
 10
0.0
 20
0.0
 30
0.0
  9
$UCSORGBOTTOM
 10
0.0
 20
0.0
 30
0.0
  9
$UCSORGLEFT
 10
0.0
 20
0.0
 30
0.0
  9
$UCSORGRIGHT
 10
0.0
 20
0.0
 30
0.0
  9
$UCSORGFRONT
 10
0.0
 20
0.0
 30
0.0
  9
$UCSORGBACK
 10
0.0
 20
0.0
 30
0.0
  9
$PUCSBASE
  2

  9
$PUCSNAME
  2

  9
$PUCSORG
 10
0.0
 20
0.0
 30
0.0
  9
$PUCSXDIR
 10
1.0
 20
0.0
 30
0.0
  9
$PUCSYDIR
 10
0.0
 20
1.0
 30
0.0
  9
$PUCSORTHOREF
  2

  9
$PUCSORTHOVIEW
 70
     0
  9
$PUCSORGTOP
 10
0.0
 20
0.0
 30
0.0
  9
$PUCSORGBOTTOM
 10
0.0
 20
0.0
 30
0.0
  9
$PUCSORGLEFT
 10
0.0
 20
0.0
 30
0.0
  9
$PUCSORGRIGHT
 10
0.0
 20
0.0
 30
0.0
  9
$PUCSORGFRONT
 10
0.0
 20
0.0
 30
0.0
  9
$PUCSORGBACK
 10
0.0
 20
0.0
 30
0.0
  9
$USERI1
 70
     0
  9
$USERI2
 70
     0
  9
$USERI3
 70
     0
  9
$USERI4
 70
     0
  9
$USERI5
 70
     0
  9
$USERR1
 40
0.0
  9
$USERR2
 40
0.0
  9
$USERR3
 40
0.0
  9
$USERR4
 40
0.0
  9
$USERR5
 40
0.0
  9
$WORLDVIEW
 70
     1
  9
$SHADEDGE
 70
     3
  9
$SHADEDIF
 70
    70
  9
$TILEMODE
 70
     1
  9
$MAXACTVP
 70
    48
  9
$PINSBASE
 10
0.0
 20
0.0
 30
0.0
  9
$PLIMCHECK
 70
     0
  9
$PEXTMIN
 10
0.0
 20
0.0
 30
0.0
  9
$PEXTMAX
 10
0.0
 20
0.0
 30
0.0
  9
$PLIMMIN
 10
-0.2500002402958907
 20
-0.2499999962453767
  9
$PLIMMAX
 10
10.74999951940822
 20
8.249999763458731
  9
$UNITMODE
 70
     0
  9
$VISRETAIN
 70
     1
  9
$PLINEGEN
 70
     0
  9
$PSLTSCALE
 70
     1
  9
$TREEDEPTH
 70
  3020
  9
$CMLSTYLE
  2
STANDARD
  9
$CMLJUST
 70
     0
  9
$CMLSCALE
 40
1.0
  9
$PROXYGRAPHICS
 70
     1
  9
$MEASUREMENT
 70
     0
  9
$CELWEIGHT
370
    -1
  9
$ENDCAPS
280
     0
  9
$JOINSTYLE
280
     0
  9
$LWDISPLAY
290
     0
  9
$INSUNITS
 70
     0
  9
$HYPERLINKBASE
  1

  9
$STYLESHEET
  1
MONOCHROME.CTB
  9
$XEDIT
290
     1
  9
$CEPSNTYPE
380
     0
  9
$PSTYLEMODE
290
     1
  9
$FINGERPRINTGUID
  2

  9
$VERSIONGUID
  2
{3141B30D-50CF-4F09-A9A0-820683D6B924}
  9
$EXTNAMES
290
     1
  9
$PSVPSCALE
 40
0.0
  9
$OLESTARTUP
290
     0
  9
$SORTENTS
280
   127
  9
$INDEXCTL
280
     0
  9
$HIDETEXT
280
     0
  9
$XCLIPFRAME
280
     2
  9
$HALOGAP
280
     0
  9
$OBSCOLOR
 70
   257
  9
$OBSLTYPE
280
     0
  9
$INTERSECTIONDISPLAY
280
     0
  9
$INTERSECTIONCOLOR
 70
   257
  9
$DIMASSOC
280
     1
  9
$PROJECTNAME
  1

  9
$CAMERADISPLAY
290
     0
  9
$LENSLENGTH
 40
50.0
  9
$CAMERAHEIGHT
 40
0.0
  9
$STEPSPERSEC
 40
2.0
  9
$STEPSIZE
 40
6.0
  9
$3DDWFPREC
 40
2.0
  9
$PSOLWIDTH
 40
0.25
  9
$PSOLHEIGHT
 40
4.0
  9
$LOFTANG1
 40
1.570796326794896
  9
$LOFTANG2
 40
1.570796326794896
  9
$LOFTMAG1
 40
0.0
  9
$LOFTMAG2
 40
0.0
  9
$LOFTPARAM
 70
     7
  9
$LOFTNORMALS
280
     1
  9
$LATITUDE
 40
37.795
  9
$LONGITUDE
 40
-122.394
  9
$NORTHDIRECTION
 40
0.0
  9
$TIMEZONE
 70
 -8000
  9
$LIGHTGLYPHDISPLAY
280
     1
  9
$TILEMODELIGHTSYNCH
280
     1
  9
$CMATERIAL
347
E4BC
  9
$SOLIDHIST
280
     1
  9
$SHOWHIST
280
     1
  9
$DWFFRAME
280
     2
  9
$DGNFRAME
280
     0
  9
$REALWORLDSCALE
290
     1
  9
$INTERFERECOLOR
 62
     1
  9
$INTERFEREOBJVS
345
E4DE
  9
$INTERFEREVPVS
346
E4DB
  9
$CSHADOW
280
     0
  9
$SHADOWPLANELOCATION
 40
0.0
  0
ENDSEC
  0
SECTION
  2
CLASSES
  0
CLASS
  1
ACDBDICTIONARYWDFLT
  2
AcDbDictionaryWithDefault
  3
ObjectDBX Classes
 90
        0
 91
        1
280
     0
281
     0
  0
CLASS
  1
DICTIONARYVAR
  2
AcDbDictionaryVar
  3
ObjectDBX Classes
 90
        0
 91
       12
280
     0
281
     0
  0
CLASS
  1
MATERIAL
  2
AcDbMaterial
  3
ObjectDBX Classes
 90
     1153
 91
        3
280
     0
281
     0
  0
CLASS
  1
VISUALSTYLE
  2
AcDbVisualStyle
  3
ObjectDBX Classes
 90
     4095
 91
       26
280
     0
281
     0
  0
CLASS
  1
TABLESTYLE
  2
AcDbTableStyle
  3
ObjectDBX Classes
 90
     4095
 91
        1
280
     0
281
     0
  0
CLASS
  1
SCALE
  2
AcDbScale
  3
ObjectDBX Classes
 90
     1153
 91
       33
280
     0
281
     0
  0
CLASS
  1
MLEADERSTYLE
  2
AcDbMLeaderStyle
  3
ACDB_MLEADERSTYLE_CLASS
 90
     4095
 91
        1
280
     0
281
     0
  0
CLASS
  1
CELLSTYLEMAP
  2
AcDbCellStyleMap
  3
ObjectDBX Classes
 90
     1152
 91
        5
280
     0
281
     0
  0
CLASS
  1
AEC_REFEDIT_STATUS_TRACKER
  2
AecDbRefEditStatusTracker
  3
AecArchBase70|Product Desc: Autodesk Architectural Desktop 2007 |Company: Autodesk,Inc. |WEB Address: www.autodesk.com
 90
      129
 91
        0
280
     0
281
     0
  0
CLASS
  1
NPOCOLLECTION
  2
AcDbImpNonPersistentObjectsCollection
  3
ObjectDBX Classes
 90
     1153
 91
        0
280
     0
281
     0
  0
CLASS
  1
SORTENTSTABLE
  2
AcDbSortentsTable
  3
ObjectDBX Classes
 90
        0
 91
        3
280
     0
281
     0
  0
CLASS
  1
ACDBSECTIONVIEWSTYLE
  2
AcDbSectionViewStyle
  3
ObjectDBX Classes
 90
     1025
 91
        1
280
     0
281
     0
  0
CLASS
  1
ACDBDETAILVIEWSTYLE
  2
AcDbDetailViewStyle
  3
ObjectDBX Classes
 90
     1025
 91
        1
280
     0
281
     0
  0
ENDSEC
  0
SECTION
  2
TABLES
  0
TABLE
  2
VPORT
  5
8
330
0
100
AcDbSymbolTable
 70
     1
  0
VPORT
  5
12C00
330
8
100
AcDbSymbolTableRecord
100
AcDbViewportTableRecord
  2
*Active
 70
     0
 10
0.0
 20
0.0
 11
1.0
 21
1.0
 12
315.0509576240903
 22
445.5055284051987
 13
0.0
 23
0.0
 14
1.0
 24
1.0
 15
10.0
 25
10.0
 16
0.0
 26
0.0
 36
1.0
 17
0.0
 27
0.0
 37
0.0
 40
899.3568908220545
 41
2.880121396054628
 42
50.0
 43
0.0
 44
0.0
 50
0.0
 51
0.0
 71
     0
 72
   100
 73
     1
 74
     1
 75
     0
 76
     0
 77
     0
 78
     1
281
     0
 65
     1
110
0.0
120
0.0
130
0.0
111
1.0
121
0.0
131
0.0
112
0.0
122
1.0
132
0.0
 79
     0
146
0.0
348
E4DA
 60
     3
 61
     5
292
     1
282
     1
141
0.0
142
0.0
 63
   250
421
  3355443
1001
ACAD_NAV_VCDISPLAY
1070
     3
  0
ENDTAB
  0
TABLE
  2
LTYPE
  5
5
330
0
100
AcDbSymbolTable
 70
    10
  0
LTYPE
  5
13
330
5
100
AcDbSymbolTableRecord
100
AcDbLinetypeTableRecord
  2
BYBLOCK
 70
     0
  3

 72
    65
 73
     0
 40
0.0
  0
LTYPE
  5
14
330
5
100
AcDbSymbolTableRecord
100
AcDbLinetypeTableRecord
  2
BYLAYER
 70
     0
  3

 72
    65
 73
     0
 40
0.0
  0
LTYPE
  5
15
330
5
100
AcDbSymbolTableRecord
100
AcDbLinetypeTableRecord
  2
CONTINUOUS
 70
     0
  3
Solid line
 72
    65
 73
     0
 40
0.0
  0
LTYPE
  5
22
330
5
100
AcDbSymbolTableRecord
100
AcDbLinetypeTableRecord
  2
CONTINOUS
 70
     0
  3
Solid line
 72
    65
 73
     0
 40
0.0
  0
LTYPE
  5
24
330
5
100
AcDbSymbolTableRecord
100
AcDbLinetypeTableRecord
  2
DASHDOT
 70
     0
  3
__ . __ . __ . __ . __ . __ . __ . __ . __ . __
 72
    65
 73
     4
 40
1.0
 49
0.5
 74
     0
 49
-0.25
 74
     0
 49
0.0
 74
     0
 49
-0.25
 74
     0
  0
LTYPE
  5
4C47
330
5
100
AcDbSymbolTableRecord
100
AcDbLinetypeTableRecord
  2
DIVIDE
 70
     0
  3
Divide ____ . . ____ . . ____ . . ____ . . ____
 72
    65
 73
     6
 40
1.25
 49
0.5
 74
     0
 49
-0.25
 74
     0
 49
0.0
 74
     0
 49
-0.25
 74
     0
 49
0.0
 74
     0
 49
-0.25
 74
     0
  0
LTYPE
  5
685F
330
5
100
AcDbSymbolTableRecord
100
AcDbLinetypeTableRecord
  2
PHANTOM
 70
     0
  3
Phantom ______  __  __  ______  __  __  ______
 72
    65
 73
     6
 40
2.5
 49
1.25
 74
     0
 49
-0.25
 74
     0
 49
0.25
 74
     0
 49
-0.25
 74
     0
 49
0.25
 74
     0
 49
-0.25
 74
     0
  0
LTYPE
  5
1F2BD
330
5
100
AcDbSymbolTableRecord
100
AcDbLinetypeTableRecord
  2
SLD-実線
 70
     0
  3
SolidWorks Line Style
 72
    65
 73
     0
 40
0.0
  0
LTYPE
  5
3ACB9
330
5
100
AcDbSymbolTableRecord
100
AcDbLinetypeTableRecord
  2
SLD-2点鎖線
 70
     0
  3
SolidWorks Line Style
 72
    65
 73
     6
 40
12.7
 49
6.349999999999997
 74
     0
 49
-1.27
 74
     0
 49
1.27
 74
     0
 49
-1.27
 74
     0
 49
1.27
 74
     0
 49
-1.27
 74
     0
  0
LTYPE
  5
3ACBA
330
5
100
AcDbSymbolTableRecord
100
AcDbLinetypeTableRecord
  2
SLD-鎖線
 70
     0
  3
SolidWorks Line Style
 72
    65
 73
     4
 40
10.16
 49
6.349999999999997
 74
     0
 49
-1.27
 74
     0
 49
1.27
 74
     0
 49
-1.27
 74
     0
  0
LTYPE
  5
3CA68
330
5
100
AcDbSymbolTableRecord
100
AcDbLinetypeTableRecord
  2
HIDDEN
 70
     0
  3
Hidden __ __ __ __ __ __ __ __ __ __ __ __ __ __
 72
    65
 73
     2
 40
0.375
 49
0.25
 74
     0
 49
-0.125
 74
     0
  0
ENDTAB
  0
TABLE
  2
LAYER
  5
2
102
{ACAD_XDICTIONARY
360
12DA0
102
}
330
0
100
AcDbSymbolTable
 70
    18
  0
LAYER
  5
10
102
{ACAD_XDICTIONARY
360
E512
102
}
330
2
100
AcDbSymbolTableRecord
100
AcDbLayerTableRecord
  2
0
 70
     0
 62
     7
  6
CONTINOUS
370
    -3
390
F
347
E4CC
348
0
  0
LAYER
  5
2F
102
{ACAD_XDICTIONARY
360
E514
102
}
330
2
100
AcDbSymbolTableRecord
100
AcDbLayerTableRecord
  2
10
 70
     0
 62
     4
  6
CONTINOUS
370
    -3
390
F
347
E4CC
348
0
  0
LAYER
  5
35
102
{ACAD_XDICTIONARY
360
E518
102
}
330
2
100
AcDbSymbolTableRecord
100
AcDbLayerTableRecord
  2
16
 70
     0
 62
     6
  6
DASHDOT
370
    -3
390
F
347
E4CC
348
0
  0
LAYER
  5
3D
102
{ACAD_XDICTIONARY
360
E51C
102
}
330
2
100
AcDbSymbolTableRecord
100
AcDbLayerTableRecord
  2
24
 70
     0
 62
     7
  6
CONTINOUS
370
    -3
390
F
347
E4CC
348
0
  0
LAYER
  5
3A2
102
{ACAD_XDICTIONARY
360
E51E
102
}
330
2
100
AcDbSymbolTableRecord
100
AcDbLayerTableRecord
  2
30
 70
     0
 62
     9
  6
CONTINUOUS
370
    -3
390
F
347
E4CC
348
0
  0
LAYER
  5
3A4
330
2
100
AcDbSymbolTableRecord
100
AcDbLayerTableRecord
  2
DEFPOINTS
 70
     0
 62
     7
  6
CONTINUOUS
290
     0
370
    -3
390
F
347
E4CC
348
0
  0
LAYER
  5
3BBA
102
{ACAD_XDICTIONARY
360
E520
102
}
330
2
100
AcDbSymbolTableRecord
100
AcDbLayerTableRecord
  2
18
 70
     0
 62
     5
  6
DIVIDE
370
    -3
390
F
347
E4CC
348
0
  0
LAYER
  5
67A8
102
{ACAD_XDICTIONARY
360
E522
102
}
330
2
100
AcDbSymbolTableRecord
100
AcDbLayerTableRecord
  2
11
 70
     0
 62
     1
  6
CONTINOUS
370
    -3
390
F
347
E4CC
348
0
  0
LAYER
  5
7837
102
{ACAD_XDICTIONARY
360
E524
102
}
330
2
100
AcDbSymbolTableRecord
100
AcDbLayerTableRecord
  2
17
 70
     0
 62
     2
  6
DASHDOT
370
    -3
390
F
347
E4CC
348
0
  0
LAYER
  5
C4FE
102
{ACAD_XDICTIONARY
360
E52A
102
}
330
2
100
AcDbSymbolTableRecord
100
AcDbLayerTableRecord
  2
2
 70
     0
 62
     7
  6
CONTINUOUS
370
    -3
390
F
347
E4CC
348
0
  0
LAYER
  5
C501
102
{ACAD_XDICTIONARY
360
E530
102
}
330
2
100
AcDbSymbolTableRecord
100
AcDbLayerTableRecord
  2
5
 70
     0
 62
     7
  6
CONTINUOUS
370
    -3
390
F
347
E4CC
348
0
  0
LAYER
  5
E473
102
{ACAD_XDICTIONARY
360
E534
102
}
330
2
100
AcDbSymbolTableRecord
100
AcDbLayerTableRecord
  2
130
 70
     0
 62
     4
  6
CONTINUOUS
370
    -3
390
F
347
E4CC
348
0
  0
LAYER
  5
1106A
102
{ACAD_XDICTIONARY
360
1106B
102
}
330
2
100
AcDbSymbolTableRecord
100
AcDbLayerTableRecord
  2
131
 70
     0
 62
     4
  6
PHANTOM
370
    -3
390
F
347
E4CC
348
0
  0
LAYER
  5
38289
102
{ACAD_XDICTIONARY
360
3828A
102
}
330
2
100
AcDbSymbolTableRecord
100
AcDbLayerTableRecord
  2
240
 70
     0
 62
     7
  6
CONTINUOUS
370
    -3
390
F
347
E4CC
348
0
  0
LAYER
  5
3ACBB
102
{ACAD_XDICTIONARY
360
3ACBC
102
}
330
2
100
AcDbSymbolTableRecord
100
AcDbLayerTableRecord
  2
13
 70
     0
 62
     3
  6
CONTINUOUS
370
    -3
390
F
347
E4CC
348
0
  0
LAYER
  5
3ACBD
102
{ACAD_XDICTIONARY
360
3ACBE
102
}
330
2
100
AcDbSymbolTableRecord
100
AcDbLayerTableRecord
  2
SLD-0
 70
     0
 62
     7
  6
SLD-実線
370
    -3
390
F
347
E4CC
348
0
  0
LAYER
  5
41FC6
330
2
100
AcDbSymbolTableRecord
100
AcDbLayerTableRecord
  2
12
 70
     0
 62
     3
  6
CONTINOUS
370
    -3
390
F
347
E4CC
348
0
1001
AcAecLayerStandard
1000

1000

1001
AcCmTransparency
1071
        0
  0
LAYER
  5
41FC9
330
2
100
AcDbSymbolTableRecord
100
AcDbLayerTableRecord
  2
19
 70
     0
 62
     7
  6
CONTINOUS
370
    -3
390
F
347
E4CC
348
0
1001
AcAecLayerStandard
1000

1000

1001
AcCmTransparency
1071
        0
  0
ENDTAB
  0
TABLE
  2
STYLE
  5
3
330
0
100
AcDbSymbolTable
 70
     2
  0
STYLE
  5
11
330
3
100
AcDbSymbolTableRecord
100
AcDbTextStyleTableRecord
  2
STANDARD
 70
     0
 40
0.0
 41
1.0
 50
0.0
 71
     0
 42
2.0
  3
txt.shx
  4
bigfont.shx
  0
STYLE
  5
C503
330
3
100
AcDbSymbolTableRecord
100
AcDbTextStyleTableRecord
  2
blockfont
 70
     0
 40
0.0
 41
1.0
 50
0.0
 71
     0
 42
0.2
  3
simplex.shx
  4
bigfont
  0
ENDTAB
  0
TABLE
  2
VIEW
  5
6
330
0
100
AcDbSymbolTable
 70
     6
  0
VIEW
  5
230C
330
6
100
AcDbSymbolTableRecord
100
AcDbViewTableRecord
  2
OLE1
 70
     0
 40
148.912488
 10
429.497628
 20
2.560627
 41
103.145806
 11
0.0
 21
0.0
 31
1.0
 12
0.0
 22
0.0
 32
0.0
 42
50.0
 43
0.0
 44
0.0
 50
0.0
 71
     0
281
     0
 72
     0
 73
     0
348
E4DA
  0
VIEW
  5
230E
330
6
100
AcDbSymbolTableRecord
100
AcDbViewTableRecord
  2
OLE2
 70
     0
 40
170.778692
 10
322.66497
 20
-5.978304
 41
102.467215
 11
0.0
 21
0.0
 31
1.0
 12
0.0
 22
0.0
 32
0.0
 42
50.0
 43
0.0
 44
0.0
 50
0.0
 71
     0
281
     0
 72
     0
 73
     0
348
E4DA
  0
VIEW
  5
23AA
330
6
100
AcDbSymbolTableRecord
100
AcDbViewTableRecord
  2
OLE3
 70
     0
 40
591.7897389999998
 10
84.79698199999999
 20
-46.09335999999998
 41
388.792096
 11
0.0
 21
0.0
 31
1.0
 12
0.0
 22
0.0
 32
0.0
 42
50.0
 43
0.0
 44
0.0
 50
0.0
 71
     0
281
     0
 72
     0
 73
     0
348
E4DA
  0
ENDTAB
  0
TABLE
  2
UCS
  5
7
330
0
100
AcDbSymbolTable
 70
     0
  0
ENDTAB
  0
TABLE
  2
APPID
  5
9
330
0
100
AcDbSymbolTable
 70
    12
  0
APPID
  5
12
330
9
100
AcDbSymbolTableRecord
100
AcDbRegAppTableRecord
  2
ACAD
 70
     0
  0
APPID
  5
ECD
330
9
100
AcDbSymbolTableRecord
100
AcDbRegAppTableRecord
  2
CONTENTBLOCKICON
 70
     0
  0
APPID
  5
E582
330
9
100
AcDbSymbolTableRecord
100
AcDbRegAppTableRecord
  2
DCO15
 70
     0
  0
APPID
  5
F8B0
330
9
100
AcDbSymbolTableRecord
100
AcDbRegAppTableRecord
  2
ACAD_MLEADERVER
 70
     0
  0
APPID
  5
F8D5
330
9
100
AcDbSymbolTableRecord
100
AcDbRegAppTableRecord
  2
ACAD_PSEXT
 70
     0
  0
APPID
  5
F997
330
9
100
AcDbSymbolTableRecord
100
AcDbRegAppTableRecord
  2
ACAD_EXEMPT_FROM_CAD_STANDARDS
 70
     0
  0
APPID
  5
1F2D1
330
9
100
AcDbSymbolTableRecord
100
AcDbRegAppTableRecord
  2
ACAD_DSTYLE_DIMJAG
 70
     0
  0
APPID
  5
1F2D2
330
9
100
AcDbSymbolTableRecord
100
AcDbRegAppTableRecord
  2
ACAD_DSTYLE_DIMTALN
 70
     0
  0
APPID
  5
3EE52
330
9
100
AcDbSymbolTableRecord
100
AcDbRegAppTableRecord
  2
ACAD_NAV_VCDISPLAY
 70
     0
  0
APPID
  5
3F34C
330
9
100
AcDbSymbolTableRecord
100
AcDbRegAppTableRecord
  2
ACAD_DSTYLE_DIMBREAK
 70
     0
  0
APPID
  5
41FC7
330
9
100
AcDbSymbolTableRecord
100
AcDbRegAppTableRecord
  2
AcAecLayerStandard
 70
     0
  0
APPID
  5
41FC8
330
9
100
AcDbSymbolTableRecord
100
AcDbRegAppTableRecord
  2
AcCmTransparency
 70
     0
  0
ENDTAB
  0
TABLE
  2
DIMSTYLE
  5
A
330
0
100
AcDbSymbolTable
 70
     4
100
AcDbDimStyleTable
 71
     2
340
175
340
C24A
  0
DIMSTYLE
105
175
102
{ACAD_REACTORS
330
3BD9C
330
3BCDA
330
3BCFE
330
3BD23
330
3BCE0
330
41620
330
41D04
330
41D08
330
41D09
330
41D0D
330
41D0E
330
41D10
330
41D11
330
41E05
330
41E40
330
41E81
330
41F81
102
}
330
A
100
AcDbSymbolTableRecord
100
AcDbDimStyleTableRecord
  2
STANDARD
 70
     0
 41
3.0
 42
1.0
 43
0.5
 44
0.5
 69
     1
 73
     0
 74
     0
 77
     1
 78
    12
140
7.0
147
3.0
176
   256
178
   256
271
     1
272
     1
340
11
341
3B2
342
3B2
345
14
1001
ACAD_DSTYLE_DIMJAG
1070
   388
1040
1.5
1001
ACAD_DSTYLE_DIMTALN
1070
   392
1070
     0
  0
DIMSTYLE
105
C24A
102
{ACAD_REACTORS
330
3BD2F
330
3BD77
330
3BD78
330
3BCDC
330
3BD00
330
3BD0C
330
3BD0B
330
3BD02
330
3BD25
330
3BD81
330
3BD84
330
3BD83
330
3BD82
330
41D0F
330
3BD01
330
41F82
330
41F83
102
}
330
A
100
AcDbSymbolTableRecord
100
AcDbDimStyleTableRecord
  2
STANDARD1
 70
     0
 41
2.0
 42
3.0
 43
0.5
 44
0.5
 77
     3
 78
    12
140
7.0
147
2.0
172
     1
271
     1
272
     1
289
     2
340
11
341
3B2
342
3B2
1001
ACAD_DSTYLE_DIMJAG
1070
   388
1040
1.5
1001
ACAD_DSTYLE_DIMTALN
1070
   392
1070
     0
  0
DIMSTYLE
105
3ACBF
330
A
100
AcDbSymbolTableRecord
100
AcDbDimStyleTableRecord
  2
SLDDIMSTYLE6
 70
     0
 41
2.0
 44
0.0
 45
0.000000001
146
2.0
147
0.0
173
     1
271
     0
272
     0
276
     2
340
11
  0
ENDTAB
  0
TABLE
  2
BLOCK_RECORD
  5
1
330
0
100
AcDbSymbolTable
 70
    49
  0
BLOCK_RECORD
  5
1E
102
{ACAD_XDICTIONARY
360
178
102
}
330
1
100
AcDbSymbolTableRecord
100
AcDbBlockTableRecord
  2
*MODEL_SPACE
340
904E
 70
     0
280
     1
281
     0
  0
BLOCK_RECORD
  5
1A
102
{ACAD_XDICTIONARY
360
17A
102
}
330
1
100
AcDbSymbolTableRecord
100
AcDbBlockTableRecord
  2
*PAPER_SPACE
340
904F
 70
     0
280
     1
281
     0
  0
BLOCK_RECORD
  5
3B2
330
1
100
AcDbSymbolTableRecord
100
AcDbBlockTableRecord
  2
_OPEN
340
0
102
{BLKREFS
331
41E47
331
41ED2
331
41ED3
331
41EE4
331
41EE5
331
41EED
331
41EEE
331
41DB8
331
41DB9
331
418FE
331
418FF
331
41907
331
41908
331
41975
331
41976
331
419D1
331
419D2
331
41F36
331
41F37
331
41DA6
331
41DA7
331
419EC
331
419ED
331
419FE
331
419FF
331
41825
331
41826
331
4182E
331
4182F
331
41FAE
331
41FAF
331
41FB7
331
41FB8
331
41FC0
331
41FC1
331
41F4E
331
41F4F
331
41F5A
331
41F5B
331
41F66
331
41F67
331
41E00
331
41DFF
331
41E48
331
41E50
331
41E51
331
41BEE
331
41BEF
331
41D77
331
41D78
331
41D89
331
41D8A
331
41D92
331
41D93
331
41D9B
331
41D9C
331
41E69
331
41E6A
331
41DAF
331
41DB0
331
4187F
331
41887
331
41888
331
418B3
331
418C6
331
418C7
331
418CF
331
418D0
331
418D8
331
418D9
331
418EC
331
418ED
331
418F5
331
418F6
331
41EFF
331
41F00
331
41F24
331
41F25
331
41E9F
331
41EA0
102
}
 70
     0
280
     1
281
     0
  0
BLOCK_RECORD
  5
3AAB3
330
1
100
AcDbSymbolTableRecord
100
AcDbBlockTableRecord
  2
_DOT
340
0
102
{BLKREFS
331
3BD7F
102
}
 70
     0
280
     1
281
     0
  0
BLOCK_RECORD
  5
3AABB
330
1
100
AcDbSymbolTableRecord
100
AcDbBlockTableRecord
  2
SW_CENTERMARKSYMBOL_20
340
0
102
{BLKREFS
331
41F84
102
}
 70
     0
280
     1
281
     0
  0
BLOCK_RECORD
  5
3AAC6
330
1
100
AcDbSymbolTableRecord
100
AcDbBlockTableRecord
  2
SW_CENTERMARKSYMBOL_54
340
0
102
{BLKREFS
331
3BD99
331
3BD0E
102
}
 70
     0
280
     1
281
     0
  0
BLOCK_RECORD
  5
3AAD1
330
1
100
AcDbSymbolTableRecord
100
AcDbBlockTableRecord
  2
SW_CENTERMARKSYMBOL_55
340
0
102
{BLKREFS
331
3BD9A
331
3BD0F
102
}
 70
     0
280
     1
281
     0
  0
BLOCK_RECORD
  5
3AADC
102
{ACAD_XDICTIONARY
360
3AADD
102
}
330
1
100
AcDbSymbolTableRecord
100
AcDbBlockTableRecord
  2
m5screw1
340
0
102
{BLKREFS
331
41D02
331
41D03
102
}
 70
     0
280
     1
281
     0
  0
BLOCK_RECORD
  5
3BE0A
330
1
100
AcDbSymbolTableRecord
100
AcDbBlockTableRecord
  2
*D6
340
0
 70
     0
280
     1
281
     0
  0
BLOCK_RECORD
  5
3BE22
330
1
100
AcDbSymbolTableRecord
100
AcDbBlockTableRecord
  2
*D7
340
0
 70
     0
280
     1
281
     0
  0
BLOCK_RECORD
  5
3BE2C
330
1
100
AcDbSymbolTableRecord
100
AcDbBlockTableRecord
  2
*D8
340
0
 70
     0
280
     1
281
     0
  0
BLOCK_RECORD
  5
3BE39
330
1
100
AcDbSymbolTableRecord
100
AcDbBlockTableRecord
  2
*D9
340
0
 70
     0
280
     1
281
     0
  0
BLOCK_RECORD
  5
3BE47
330
1
100
AcDbSymbolTableRecord
100
AcDbBlockTableRecord
  2
*D10
340
0
 70
     0
280
     1
281
     0
  0
BLOCK_RECORD
  5
3BE52
330
1
100
AcDbSymbolTableRecord
100
AcDbBlockTableRecord
  2
*D11
340
0
 70
     0
280
     1
281
     0
  0
BLOCK_RECORD
  5
3BE5F
330
1
100
AcDbSymbolTableRecord
100
AcDbBlockTableRecord
  2
*D12
340
0
 70
     0
280
     1
281
     0
  0
BLOCK_RECORD
  5
3BE6D
330
1
100
AcDbSymbolTableRecord
100
AcDbBlockTableRecord
  2
*D13
340
0
 70
     0
280
     1
281
     0
  0
BLOCK_RECORD
  5
3BE79
330
1
100
AcDbSymbolTableRecord
100
AcDbBlockTableRecord
  2
*D14
340
0
 70
     0
280
     1
281
     0
  0
BLOCK_RECORD
  5
3BE85
330
1
100
AcDbSymbolTableRecord
100
AcDbBlockTableRecord
  2
*D15
340
0
 70
     0
280
     1
281
     0
  0
BLOCK_RECORD
  5
3BE91
330
1
100
AcDbSymbolTableRecord
100
AcDbBlockTableRecord
  2
*D16
340
0
 70
     0
280
     1
281
     0
  0
BLOCK_RECORD
  5
3BECD
330
1
100
AcDbSymbolTableRecord
100
AcDbBlockTableRecord
  2
*D17
340
0
 70
     0
280
     1
281
     0
  0
BLOCK_RECORD
  5
3BED9
330
1
100
AcDbSymbolTableRecord
100
AcDbBlockTableRecord
  2
*D18
340
0
 70
     0
280
     1
281
     0
  0
BLOCK_RECORD
  5
3BF17
330
1
100
AcDbSymbolTableRecord
100
AcDbBlockTableRecord
  2
*D19
340
0
 70
     0
280
     1
281
     0
  0
BLOCK_RECORD
  5
3BF2F
330
1
100
AcDbSymbolTableRecord
100
AcDbBlockTableRecord
  2
*D20
340
0
 70
     0
280
     1
281
     0
  0
BLOCK_RECORD
  5
3BF5F
330
1
100
AcDbSymbolTableRecord
100
AcDbBlockTableRecord
  2
*D21
340
0
 70
     0
280
     1
281
     0
  0
BLOCK_RECORD
  5
3BF6C
330
1
100
AcDbSymbolTableRecord
100
AcDbBlockTableRecord
  2
*D22
340
0
 70
     0
280
     1
281
     0
  0
BLOCK_RECORD
  5
3BF84
330
1
100
AcDbSymbolTableRecord
100
AcDbBlockTableRecord
  2
*D23
340
0
 70
     0
280
     1
281
     0
  0
BLOCK_RECORD
  5
3BF90
330
1
100
AcDbSymbolTableRecord
100
AcDbBlockTableRecord
  2
*D24
340
0
 70
     0
280
     1
281
     0
  0
BLOCK_RECORD
  5
3BF9C
330
1
100
AcDbSymbolTableRecord
100
AcDbBlockTableRecord
  2
*D25
340
0
 70
     0
280
     1
281
     0
  0
BLOCK_RECORD
  5
3BFA6
330
1
100
AcDbSymbolTableRecord
100
AcDbBlockTableRecord
  2
*D26
340
0
 70
     0
280
     1
281
     0
  0
BLOCK_RECORD
  5
3BFB0
330
1
100
AcDbSymbolTableRecord
100
AcDbBlockTableRecord
  2
*D27
340
0
 70
     0
280
     1
281
     0
  0
BLOCK_RECORD
  5
3BFBC
330
1
100
AcDbSymbolTableRecord
100
AcDbBlockTableRecord
  2
*D28
340
0
 70
     0
280
     1
281
     0
  0
BLOCK_RECORD
  5
41621
330
1
100
AcDbSymbolTableRecord
100
AcDbBlockTableRecord
  2
*D29
340
0
 70
     0
280
     1
281
     0
  0
BLOCK_RECORD
  5
41D12
330
1
100
AcDbSymbolTableRecord
100
AcDbBlockTableRecord
  2
*D30
340
0
 70
     0
280
     1
281
     0
  0
BLOCK_RECORD
  5
41D1E
330
1
100
AcDbSymbolTableRecord
100
AcDbBlockTableRecord
  2
*D31
340
0
 70
     0
280
     1
281
     0
  0
BLOCK_RECORD
  5
41D2A
330
1
100
AcDbSymbolTableRecord
100
AcDbBlockTableRecord
  2
*D32
340
0
 70
     0
280
     1
281
     0
  0
BLOCK_RECORD
  5
41D36
330
1
100
AcDbSymbolTableRecord
100
AcDbBlockTableRecord
  2
*D33
340
0
 70
     0
280
     1
281
     0
  0
BLOCK_RECORD
  5
41D42
330
1
100
AcDbSymbolTableRecord
100
AcDbBlockTableRecord
  2
*D34
340
0
 70
     0
280
     1
281
     0
  0
BLOCK_RECORD
  5
41D4E
330
1
100
AcDbSymbolTableRecord
100
AcDbBlockTableRecord
  2
*D35
340
0
 70
     0
280
     1
281
     0
  0
BLOCK_RECORD
  5
41D5C
330
1
100
AcDbSymbolTableRecord
100
AcDbBlockTableRecord
  2
*D36
340
0
 70
     0
280
     1
281
     0
  0
BLOCK_RECORD
  5
41D68
330
1
100
AcDbSymbolTableRecord
100
AcDbBlockTableRecord
  2
*D37
340
0
 70
     0
280
     1
281
     0
  0
BLOCK_RECORD
  5
41E06
330
1
100
AcDbSymbolTableRecord
100
AcDbBlockTableRecord
  2
*D38
340
0
 70
     0
280
     1
281
     0
  0
BLOCK_RECORD
  5
41E41
330
1
100
AcDbSymbolTableRecord
100
AcDbBlockTableRecord
  2
*D39
340
0
 70
     0
280
     1
281
     0
  0
BLOCK_RECORD
  5
41E82
330
1
100
AcDbSymbolTableRecord
100
AcDbBlockTableRecord
  2
*D40
340
0
 70
     0
280
     1
281
     0
  0
BLOCK_RECORD
  5
41F48
330
1
100
AcDbSymbolTableRecord
100
AcDbBlockTableRecord
  2
*D41
340
0
 70
     0
280
     1
281
     0
  0
BLOCK_RECORD
  5
41F55
330
1
100
AcDbSymbolTableRecord
100
AcDbBlockTableRecord
  2
*D42
340
0
 70
     0
280
     1
281
     0
  0
BLOCK_RECORD
  5
41F60
330
1
100
AcDbSymbolTableRecord
100
AcDbBlockTableRecord
  2
*D43
340
0
 70
     0
280
     1
281
     0
  0
BLOCK_RECORD
  5
41F85
330
1
100
AcDbSymbolTableRecord
100
AcDbBlockTableRecord
  2
*D45
340
0
 70
     0
280
     1
281
     0
  0
BLOCK_RECORD
  5
41F92
330
1
100
AcDbSymbolTableRecord
100
AcDbBlockTableRecord
  2
*D46
340
0
 70
     0
280
     1
281
     0
  0
BLOCK_RECORD
  5
41F9D
330
1
100
AcDbSymbolTableRecord
100
AcDbBlockTableRecord
  2
*D47
340
0
 70
     0
280
     1
281
     0
  0
ENDTAB
  0
ENDSEC
  0
SECTION
  2
BLOCKS
  0
BLOCK
  5
1F
330
1E
100
AcDbEntity
  8
0
100
AcDbBlockBegin
  2
*MODEL_SPACE
 70
     0
 10
0.0
 20
0.0
 30
0.0
  3
*MODEL_SPACE
  1

  0
ENDBLK
  5
20
330
1E
100
AcDbEntity
  8
0
100
AcDbBlockEnd
  0
BLOCK
  5
1B
330
1A
100
AcDbEntity
 67
     1
  8
0
100
AcDbBlockBegin
  2
*PAPER_SPACE
 70
     0
 10
0.0
 20
0.0
 30
0.0
  3
*PAPER_SPACE
  1

  0
ENDBLK
  5
1C
330
1A
100
AcDbEntity
 67
     1
  8
0
100
AcDbBlockEnd
  0
BLOCK
  5
3B6
330
3B2
100
AcDbEntity
  8
0
100
AcDbBlockBegin
  2
_OPEN
 70
     0
 10
0.0
 20
0.0
 30
0.0
  3
_OPEN
  1

  0
LINE
  5
3B3
330
3B2
100
AcDbEntity
  8
30
  6
Continuous
 62
     0
100
AcDbLine
 10
-1.0
 20
0.166667
 30
0.0
 11
0.0
 21
0.0
 31
0.0
  0
LINE
  5
3B4
330
3B2
100
AcDbEntity
  8
30
  6
Continuous
 62
     0
100
AcDbLine
 10
-1.0
 20
-0.166667
 30
0.0
 11
0.0
 21
0.0
 31
0.0
  0
LINE
  5
3B5
330
3B2
100
AcDbEntity
  8
30
  6
Continuous
 62
     0
100
AcDbLine
 10
0.0
 20
0.0
 30
0.0
 11
-1.0
 21
0.0
 31
0.0
  0
ENDBLK
  5
3B7
330
3B2
100
AcDbEntity
  8
0
100
AcDbBlockEnd
  0
BLOCK
  5
3AAB4
330
3AAB3
100
AcDbEntity
  8
0
100
AcDbBlockBegin
  2
_DOT
 70
     0
 10
0.0
 20
0.0
 30
0.0
  3
_DOT
  1
_DOT
  0
POLYLINE
  5
3AAB5
330
3AAB3
100
AcDbEntity
  8
0
  6
ByBlock
 62
     0
100
AcDb2dPolyline
 66
     1
 10
0.0
 20
0.0
 30
0.0
 70
     1
 40
0.5
 41
0.5
  0
VERTEX
  5
3AAB6
330
3AAB5
100
AcDbEntity
  8
0
  6
ByBlock
 62
     0
100
AcDbVertex
100
AcDb2dVertex
 10
-0.25
 20
0.0
 30
0.0
 42
1.0
  0
VERTEX
  5
3AAB7
330
3AAB5
100
AcDbEntity
  8
0
  6
ByBlock
 62
     0
100
AcDbVertex
100
AcDb2dVertex
 10
0.25
 20
0.0
 30
0.0
 42
1.0
  0
SEQEND
  5
3AAB8
330
3AAB5
100
AcDbEntity
  8
0
  6
ByBlock
 62
     0
  0
LINE
  5
3AAB9
330
3AAB3
100
AcDbEntity
  8
0
  6
ByBlock
 62
     0
370
    -2
100
AcDbLine
 10
-0.5
 20
0.0
 30
0.0
 11
-1.0
 21
0.0
 31
0.0
  0
ENDBLK
  5
3AABA
330
3AAB3
100
AcDbEntity
  8
0
100
AcDbBlockEnd
  0
BLOCK
  5
3AABC
330
3AABB
100
AcDbEntity
  8
0
100
AcDbBlockBegin
  2
SW_CENTERMARKSYMBOL_20
 70
     0
 10
0.0
 20
0.0
 30
0.0
  3
SW_CENTERMARKSYMBOL_20
  1
SW_CENTERMARKSYMBOL_20
  0
LINE
  5
3AABD
330
3AABB
100
AcDbEntity
  8
SLD-0
 62
     0
100
AcDbLine
 10
0.0
 20
0.0
 30
0.0
 11
0.0
 21
1.25
 31
0.0
  0
LINE
  5
3AABE
330
3AABB
100
AcDbEntity
  8
SLD-0
 62
     0
100
AcDbLine
 10
0.0
 20
0.0
 30
0.0
 11
-1.25
 21
0.0
 31
0.0
  0
LINE
  5
3AABF
330
3AABB
100
AcDbEntity
  8
SLD-0
 62
     0
100
AcDbLine
 10
0.0
 20
0.0
 30
0.0
 11
0.0
 21
-1.25
 31
0.0
  0
LINE
  5
3AAC0
330
3AABB
100
AcDbEntity
  8
SLD-0
 62
     0
100
AcDbLine
 10
0.0
 20
0.0
 30
0.0
 11
1.25
 21
0.0
 31
0.0
  0
LINE
  5
3AAC1
330
3AABB
100
AcDbEntity
  8
SLD-0
 62
     0
100
AcDbLine
 10
0.0
 20
2.5
 30
0.0
 11
0.0
 21
3.951149425299997
 31
0.0
  0
LINE
  5
3AAC2
330
3AABB
100
AcDbEntity
  8
SLD-0
 62
     0
100
AcDbLine
 10
-2.5
 20
0.0
 30
0.0
 11
-3.951149425299997
 21
0.0
 31
0.0
  0
LINE
  5
3AAC3
330
3AABB
100
AcDbEntity
  8
SLD-0
 62
     0
100
AcDbLine
 10
0.0
 20
-2.5
 30
0.0
 11
0.0
 21
-3.951149425299997
 31
0.0
  0
LINE
  5
3AAC4
330
3AABB
100
AcDbEntity
  8
SLD-0
 62
     0
100
AcDbLine
 10
2.5
 20
0.0
 30
0.0
 11
3.951149425299997
 21
0.0
 31
0.0
  0
ENDBLK
  5
3AAC5
330
3AABB
100
AcDbEntity
  8
0
100
AcDbBlockEnd
  0
BLOCK
  5
3AAC7
330
3AAC6
100
AcDbEntity
  8
0
100
AcDbBlockBegin
  2
SW_CENTERMARKSYMBOL_54
 70
     0
 10
0.0
 20
0.0
 30
0.0
  3
SW_CENTERMARKSYMBOL_54
  1
SW_CENTERMARKSYMBOL_54
  0
LINE
  5
3AAC8
330
3AAC6
100
AcDbEntity
  8
SLD-0
 62
     0
100
AcDbLine
 10
0.0
 20
0.0
 30
0.0
 11
0.0
 21
1.25
 31
0.0
  0
LINE
  5
3AAC9
330
3AAC6
100
AcDbEntity
  8
SLD-0
 62
     0
100
AcDbLine
 10
0.0
 20
0.0
 30
0.0
 11
-1.25
 21
0.0
 31
0.0
  0
LINE
  5
3AACA
330
3AAC6
100
AcDbEntity
  8
SLD-0
 62
     0
100
AcDbLine
 10
0.0
 20
0.0
 30
0.0
 11
0.0
 21
-1.25
 31
0.0
  0
LINE
  5
3AACB
330
3AAC6
100
AcDbEntity
  8
SLD-0
 62
     0
100
AcDbLine
 10
0.0
 20
0.0
 30
0.0
 11
1.25
 21
0.0
 31
0.0
  0
LINE
  5
3AACC
330
3AAC6
100
AcDbEntity
  8
SLD-0
 62
     0
100
AcDbLine
 10
0.0
 20
2.5
 30
0.0
 11
0.0
 21
2.75
 31
0.0
  0
LINE
  5
3AACD
330
3AAC6
100
AcDbEntity
  8
SLD-0
 62
     0
100
AcDbLine
 10
-2.5
 20
0.0
 30
0.0
 11
-2.75
 21
0.0
 31
0.0
  0
LINE
  5
3AACE
330
3AAC6
100
AcDbEntity
  8
SLD-0
 62
     0
100
AcDbLine
 10
0.0
 20
-2.5
 30
0.0
 11
0.0
 21
-2.75
 31
0.0
  0
LINE
  5
3AACF
330
3AAC6
100
AcDbEntity
  8
SLD-0
 62
     0
100
AcDbLine
 10
2.5
 20
0.0
 30
0.0
 11
2.75
 21
0.0
 31
0.0
  0
ENDBLK
  5
3AAD0
330
3AAC6
100
AcDbEntity
  8
0
100
AcDbBlockEnd
  0
BLOCK
  5
3AAD2
330
3AAD1
100
AcDbEntity
  8
0
100
AcDbBlockBegin
  2
SW_CENTERMARKSYMBOL_55
 70
     0
 10
0.0
 20
0.0
 30
0.0
  3
SW_CENTERMARKSYMBOL_55
  1
SW_CENTERMARKSYMBOL_55
  0
LINE
  5
3AAD3
330
3AAD1
100
AcDbEntity
  8
SLD-0
 62
     0
100
AcDbLine
 10
0.0
 20
0.0
 30
0.0
 11
0.0
 21
1.25
 31
0.0
  0
LINE
  5
3AAD4
330
3AAD1
100
AcDbEntity
  8
SLD-0
 62
     0
100
AcDbLine
 10
0.0
 20
0.0
 30
0.0
 11
-1.25
 21
0.0
 31
0.0
  0
LINE
  5
3AAD5
330
3AAD1
100
AcDbEntity
  8
SLD-0
 62
     0
100
AcDbLine
 10
0.0
 20
0.0
 30
0.0
 11
0.0
 21
-1.25
 31
0.0
  0
LINE
  5
3AAD6
330
3AAD1
100
AcDbEntity
  8
SLD-0
 62
     0
100
AcDbLine
 10
0.0
 20
0.0
 30
0.0
 11
1.25
 21
0.0
 31
0.0
  0
LINE
  5
3AAD7
330
3AAD1
100
AcDbEntity
  8
SLD-0
 62
     0
100
AcDbLine
 10
0.0
 20
2.5
 30
0.0
 11
0.0
 21
2.75
 31
0.0
  0
LINE
  5
3AAD8
330
3AAD1
100
AcDbEntity
  8
SLD-0
 62
     0
100
AcDbLine
 10
-2.5
 20
0.0
 30
0.0
 11
-2.75
 21
0.0
 31
0.0
  0
LINE
  5
3AAD9
330
3AAD1
100
AcDbEntity
  8
SLD-0
 62
     0
100
AcDbLine
 10
0.0
 20
-2.5
 30
0.0
 11
0.0
 21
-2.75
 31
0.0
  0
LINE
  5
3AADA
330
3AAD1
100
AcDbEntity
  8
SLD-0
 62
     0
100
AcDbLine
 10
2.5
 20
0.0
 30
0.0
 11
2.75
 21
0.0
 31
0.0
  0
ENDBLK
  5
3AADB
330
3AAD1
100
AcDbEntity
  8
0
100
AcDbBlockEnd
  0
BLOCK
  5
3AADF
330
3AADC
100
AcDbEntity
  8
0
100
AcDbBlockBegin
  2
m5screw1
 70
     0
 10
0.0
 20
0.0
 30
0.0
  3
m5screw1
  1

  0
LINE
  5
3AAE0
330
3AADC
100
AcDbEntity
  8
0
  6
SLD-実線
370
    15
100
AcDbLine
 10
15.50000160939999
 20
-2.499999478499999
 30
0.0
 11
16.00000262259982
 21
-1.999998465300049
 31
0.0
  0
LINE
  5
3AAE1
330
3AADC
100
AcDbEntity
  8
0
  6
SLD-実線
370
    15
100
AcDbLine
 10
16.00000262259982
 20
2.000002190499968
 30
0.0
 11
15.50000160939999
 21
2.499999478499999
 31
0.0
  0
LINE
  5
3AAE2
330
3AADC
100
AcDbEntity
  8
0
  6
SLD-実線
370
    15
100
AcDbLine
 10
0.0
 20
-2.499999478499999
 30
0.0
 11
3.199998289399898
 21
-2.499999478499999
 31
0.0
  0
LINE
  5
3AAE3
330
3AADC
100
AcDbEntity
  8
0
  6
SLD-実線
370
    15
100
AcDbLine
 10
9.199999272799914
 20
-2.499999478499999
 30
0.0
 11
15.50000160939999
 21
-2.499999478499999
 31
0.0
  0
LINE
  5
3AAE4
330
3AADC
100
AcDbEntity
  8
0
  6
SLD-実線
370
    15
100
AcDbLine
 10
15.50000160939999
 20
2.499999478499999
 30
0.0
 11
9.199999272799914
 21
2.499999478499999
 31
0.0
  0
LINE
  5
3AAE5
330
3AADC
100
AcDbEntity
  8
0
  6
SLD-実線
370
    15
100
AcDbLine
 10
3.199998289399898
 20
2.499999478499999
 30
0.0
 11
0.0
 21
2.499999478499999
 31
0.0
  0
ARC
  5
3AAE6
330
3AADC
100
AcDbEntity
  8
0
  6
SLD-実線
370
    15
100
AcDbCircle
 10
4.324999582799819
 20
-4.424999627499971
 30
0.0
 40
0.1750000000001818
100
AcDbArc
 50
270.0
 51
0.0
  0
ARC
  5
3AAE7
330
3AADC
100
AcDbEntity
  8
0
  6
SLD-実線
370
    15
100
AcDbCircle
 10
4.324999582799819
 20
4.425000372499936
 30
0.0
 40
0.1750000000001818
100
AcDbArc
 50
0.0
 51
90.0
  0
LINE
  5
3AAE8
330
3AADC
100
AcDbEntity
  8
0
  6
SLD-実線
370
    15
100
AcDbLine
 10
3.375001251599996
 20
-4.599997773699953
 30
0.0
 11
4.324998706599896
 21
-4.599997773699953
 31
0.0
  0
LINE
  5
3AAE9
330
3AADC
100
AcDbEntity
  8
0
  6
SLD-実線
370
    15
100
AcDbLine
 10
4.324998706599896
 20
4.600001499100073
 30
0.0
 11
3.375001251599996
 21
4.600001499100073
 31
0.0
  0
ARC
  5
3AAEA
330
3AADC
100
AcDbEntity
  8
0
  6
SLD-実線
370
    15
100
AcDbCircle
 10
3.374999582799773
 20
-4.424999627499971
 30
0.0
 40
0.1750000000000682
100
AcDbArc
 50
180.0
 51
270.0
  0
ARC
  5
3AAEB
330
3AADC
100
AcDbEntity
  8
0
  6
SLD-実線
370
    15
100
AcDbCircle
 10
3.374999582799773
 20
4.425000372499936
 30
0.0
 40
0.1749999999999546
100
AcDbArc
 50
90.0
 51
180.0
  0
LINE
  5
3AAEC
330
3AADC
100
AcDbEntity
  8
0
  6
SLD-実線
370
    15
100
AcDbLine
 10
15.50000160939999
 20
-2.499999478499999
 30
0.0
 11
15.50000160939999
 21
2.499999478499999
 31
0.0
  0
LINE
  5
3AAED
330
3AADC
100
AcDbEntity
  8
0
  6
SLD-実線
370
    15
100
AcDbLine
 10
16.00000262259982
 20
2.000002190499968
 30
0.0
 11
16.00000262259982
 21
-1.999998465300049
 31
0.0
  0
LINE
  5
3AAEE
330
3AADC
100
AcDbEntity
  8
0
  6
SLD-実線
370
    15
100
AcDbLine
 10
9.199999272799914
 20
2.000002190499968
 30
0.0
 11
9.199999272799914
 21
-1.999998465300049
 31
0.0
  0
SPLINE
  5
3AAEF
330
3AADC
100
AcDbEntity
  8
0
  6
SLD-実線
370
    15
100
AcDbSpline
210
0.0
220
0.0
230
1.0
 70
     8
 71
     3
 72
     9
 73
     5
 74
     0
 42
0.000000001
 43
0.0000000001
 40
0.0
 40
0.0
 40
0.0
 40
0.0
 40
0.6771006943045183
 40
1.0
 40
1.0
 40
1.0
 40
1.0
 10
9.199999272808099
 20
-1.999998465204214
 30
0.0
 10
9.179040304209593
 20
-1.56778935288372
 30
0.0
 10
9.148086313503654
 20
-0.9294661079722461
 30
0.0
 10
9.011308131972782
 20
-0.3024597483417324
 30
0.0
 10
8.96714255212214
 20
-0.0999998301505798
 30
0.0
  0
SPLINE
  5
3AAF0
330
3AADC
100
AcDbEntity
  8
0
  6
SLD-実線
370
    15
100
AcDbSpline
210
0.0
220
0.0
230
1.0
 70
     8
 71
     3
 72
    11
 73
     7
 74
     0
 42
0.000000001
 43
0.0000000001
 40
0.0
 40
0.0
 40
0.0
 40
0.0
 40
0.3033008138334113
 40
0.6069089828308042
 40
0.9049150680745647
 40
1.0
 40
1.0
 40
1.0
 40
1.0
 10
8.96714255212214
 20
0.099999830102945
 30
0.0
 10
8.963614850737712
 20
0.080806419733392
 30
0.0
 10
8.956555873111936
 20
0.0424001490176238
 30
0.0
 10
8.95576945176549
 20
-0.0226580828731926
 30
0.0
 10
8.960809023061527
 20
-0.0704117374939983
 30
0.0
 10
8.965908933012542
 20
-0.0942367814356544
 30
0.0
 10
8.96714255212214
 20
-0.0999998301505798
 30
0.0
  0
LINE
  5
3AAF1
330
3AADC
100
AcDbEntity
  8
0
  6
SLD-実線
370
    15
100
AcDbLine
 10
8.967142552199902
 20
0.0999998300999892
 30
0.0
 11
9.199999272799914
 21
2.000002190499968
 31
0.0
  0
LINE
  5
3AAF2
330
3AADC
100
AcDbEntity
  8
0
  6
SLD-実線
370
    15
100
AcDbLine
 10
4.499997943599963
 20
-0.0999998300999892
 30
0.0
 11
4.499997943599963
 21
0.0999998300999892
 31
0.0
  0
LINE
  5
3AAF3
330
3AADC
100
AcDbEntity
  8
0
  6
SLD-実線
370
    15
100
AcDbLine
 10
8.967142552199902
 20
-3.900000825499944
 30
0.0
 11
9.199999272799914
 21
-1.999998465300049
 31
0.0
  0
LINE
  5
3AAF4
330
3AADC
100
AcDbEntity
  8
0
  6
SLD-実線
370
    15
100
AcDbLine
 10
4.499997943599963
 20
-0.0999998300999892
 30
0.0
 11
4.499997943599963
 21
-0.3612581640999792
 31
0.0
  0
LINE
  5
3AAF5
330
3AADC
100
AcDbEntity
  8
0
  6
SLD-実線
370
    15
100
AcDbLine
 10
4.499997943599963
 20
-3.638738766300036
 30
0.0
 11
4.499997943599963
 21
-3.900000825499944
 31
0.0
  0
SPLINE
  5
3AAF6
330
3AADC
100
AcDbEntity
  8
0
  6
SLD-実線
370
    15
100
AcDbSpline
210
0.0
220
0.0
230
1.0
 70
     8
 71
     3
 72
     9
 73
     5
 74
     0
 42
0.000000001
 43
0.0000000001
 40
0.0
 40
0.0
 40
0.0
 40
0.0
 40
0.6770988321148445
 40
1.0
 40
1.0
 40
1.0
 40
1.0
 10
9.199999272808099
 20
2.000002190446764
 30
0.0
 10
9.179040014920019
 20
2.432209980872983
 30
0.0
 10
9.148085511835004
 20
3.07053302904063
 30
0.0
 10
9.011308128833434
 20
3.69753965402225
 30
0.0
 10
8.96714255212214
 20
3.900000825500626
 30
0.0
  0
LINE
  5
3AAF7
330
3AADC
100
AcDbEntity
  8
0
  6
SLD-実線
370
    15
100
AcDbLine
 10
4.499997943599963
 20
3.900000825500056
 30
0.0
 11
4.499997943599963
 21
3.638738766300036
 31
0.0
  0
LINE
  5
3AAF8
330
3AADC
100
AcDbEntity
  8
0
  6
SLD-実線
370
    15
100
AcDbLine
 10
4.499997943599963
 20
0.3612618893000103
 30
0.0
 11
4.499997943599963
 21
0.0999998300999892
 31
0.0
  0
SPLINE
  5
3AAF9
330
3AADC
100
AcDbEntity
  8
0
  6
SLD-実線
370
    15
100
AcDbSpline
210
0.0
220
0.0
230
1.0
 70
    24
 71
     3
 72
     9
 73
     5
 74
     0
 42
0.000000001
 43
0.0000000001
 40
0.0
 40
0.0
 40
0.0
 40
0.0
 40
0.7858524886117994
 40
1.0
 40
1.0
 40
1.0
 40
1.0
 10
9.199999272808099
 20
-3.999998793029758
 30
0.0
 10
9.171952321175467
 20
-3.999998793029758
 30
0.0
 10
9.136262478566095
 20
-3.999998793029758
 30
0.0
 10
8.996971391727129
 20
-3.999998793029758
 30
0.0
 10
8.96714255212214
 20
-3.999998793029758
 30
0.0
  0
SPLINE
  5
3AAFA
330
3AADC
100
AcDbEntity
  8
0
  6
SLD-実線
370
    15
100
AcDbSpline
210
0.0
220
0.0
230
1.0
 70
     8
 71
     3
 72
    11
 73
     7
 74
     0
 42
0.000000001
 43
0.0000000001
 40
0.0
 40
0.0
 40
0.0
 40
0.0
 40
0.3032948817092764
 40
0.6069007806173136
 40
0.9049251941525932
 40
1.0
 40
1.0
 40
1.0
 40
1.0
 10
8.96714255212214
 20
-3.900000825548261
 30
0.0
 10
8.963614819430631
 20
-3.917281063541223
 30
0.0
 10
8.956555736494237
 20
-3.951859259744706
 30
0.0
 10
8.955769817165219
 20
-3.986138454351986
 30
0.0
 10
8.960808302420216
 20
-3.998992385496363
 30
0.0
 10
8.965908919176627
 20
-3.999802789154328
 30
0.0
 10
8.96714255212214
 20
-3.999998793029758
 30
0.0
  0
LINE
  5
3AAFB
330
3AADC
100
AcDbEntity
  8
0
  6
SLD-実線
370
    15
100
AcDbLine
 10
9.199999272799914
 20
-1.999998465300049
 30
0.0
 11
9.199999272799914
 21
-3.999998793100017
 31
0.0
  0
SPLINE
  5
3AAFC
330
3AADC
100
AcDbEntity
  8
0
  6
SLD-実線
370
    15
100
AcDbSpline
210
0.0
220
0.0
230
1.0
 70
     8
 71
     3
 72
    11
 73
     7
 74
     0
 42
0.000000001
 43
0.0000000001
 40
0.0
 40
0.0
 40
0.0
 40
0.0
 40
0.303297341374236
 40
0.6069057263081482
 40
0.9049195301906271
 40
1.0
 40
1.0
 40
1.0
 40
1.0
 10
8.96714255212214
 20
3.999998792982238
 30
0.0
 10
8.963614837932254
 20
3.998087219072033
 30
0.0
 10
8.956555791740351
 20
3.994262110856368
 30
0.0
 10
8.955769607909587
 20
3.963479847629796
 30
0.0
 10
8.960808710141916
 20
3.928584420112258
 30
0.0
 10
8.965908926910515
 20
3.905567974642678
 30
0.0
 10
8.96714255212214
 20
3.900000825500626
 30
0.0
  0
SPLINE
  5
3AAFD
330
3AADC
100
AcDbEntity
  8
0
  6
SLD-実線
370
    15
100
AcDbSpline
210
0.0
220
0.0
230
1.0
 70
    24
 71
     3
 72
     9
 73
     5
 74
     0
 42
0.000000001
 43
0.0000000001
 40
0.0
 40
0.0
 40
0.0
 40
0.0
 40
0.2141475113882007
 40
1.0
 40
1.0
 40
1.0
 40
1.0
 10
8.96714255212214
 20
3.999998792982238
 30
0.0
 10
8.996971391727129
 20
3.999998792982238
 30
0.0
 10
9.136262478566095
 20
3.999998792982238
 30
0.0
 10
9.171952321175467
 20
3.999998792982238
 30
0.0
 10
9.199999272808099
 20
3.999998792982238
 30
0.0
  0
LINE
  5
3AAFE
330
3AADC
100
AcDbEntity
  8
0
  6
SLD-実線
370
    15
100
AcDbLine
 10
9.199999272799914
 20
3.999998792900043
 30
0.0
 11
9.199999272799914
 21
2.000002190499968
 31
0.0
  0
LINE
  5
3AAFF
330
3AADC
100
AcDbEntity
  8
0
  6
SLD-実線
370
    15
100
AcDbLine
 10
8.967142552199902
 20
-3.999998793100017
 30
0.0
 11
4.499997943599963
 21
-3.999998793100017
 31
0.0
  0
LINE
  5
3AB00
330
3AADC
100
AcDbEntity
  8
0
  6
SLD-実線
370
    15
100
AcDbLine
 10
4.499997943599963
 20
-3.999998793100017
 30
0.0
 11
4.499997943599963
 21
-3.900000825499944
 31
0.0
  0
LINE
  5
3AB01
330
3AADC
100
AcDbEntity
  8
0
  6
SLD-実線
370
    15
100
AcDbLine
 10
4.499997943599963
 20
3.999998792900043
 30
0.0
 11
8.967142552199902
 21
3.999998792900043
 31
0.0
  0
LINE
  5
3AB02
330
3AADC
100
AcDbEntity
  8
0
  6
SLD-実線
370
    15
100
AcDbLine
 10
4.499997943599963
 20
3.900000825500056
 30
0.0
 11
4.499997943599963
 21
3.999998792900043
 31
0.0
  0
LINE
  5
3AB03
330
3AADC
100
AcDbEntity
  8
0
  6
SLD-実線
370
    15
100
AcDbLine
 10
4.499997943599963
 20
-4.424998536700002
 30
0.0
 11
4.499997943599963
 21
-3.999998793100017
 31
0.0
  0
LINE
  5
3AB04
330
3AADC
100
AcDbEntity
  8
0
  6
SLD-実線
370
    15
100
AcDbLine
 10
4.499997943599963
 20
-3.638738766300036
 30
0.0
 11
4.499997943599963
 21
-0.3612581640999792
 31
0.0
  0
LINE
  5
3AB05
330
3AADC
100
AcDbEntity
  8
0
  6
SLD-実線
370
    15
100
AcDbLine
 10
4.499997943599963
 20
0.3612618893000103
 30
0.0
 11
4.499997943599963
 21
3.638738766300036
 31
0.0
  0
LINE
  5
3AB06
330
3AADC
100
AcDbEntity
  8
0
  6
SLD-実線
370
    15
100
AcDbLine
 10
4.499997943599963
 20
3.999998792900043
 30
0.0
 11
4.499997943599963
 21
4.424998536700002
 31
0.0
  0
LINE
  5
3AB07
330
3AADC
100
AcDbEntity
  8
0
  6
SLD-実線
370
    15
100
AcDbLine
 10
3.199998289399898
 20
-4.424998536700002
 30
0.0
 11
3.199998289399898
 21
4.424998536700002
 31
0.0
  0
LINE
  5
3AB08
330
3AADC
100
AcDbEntity
  8
0
370
    15
100
AcDbLine
 10
4.499999582799773
 20
0.7763407795000035
 30
0.0
 11
3.199999582799819
 21
0.1217328332999727
 31
0.0
  0
LINE
  5
3AB09
330
3AADC
100
AcDbEntity
  8
0
370
    15
100
AcDbLine
 10
4.499999582799773
 20
0.0688290700999801
 30
0.0
 11
3.199999582799819
 21
-0.5857788763000258
 31
0.0
  0
LINE
  5
3AB0A
330
3AADC
100
AcDbEntity
  8
0
100
AcDbLine
 10
0.0
 20
2.499999478499999
 30
0.0
 11
0.0
 21
-2.499999478499999
 31
0.0
  0
ENDBLK
  5
3AB0B
330
3AADC
100
AcDbEntity
  8
0
100
AcDbBlockEnd
  0
BLOCK
  5
3BE0B
330
3BE0A
100
AcDbEntity
  8
0
100
AcDbBlockBegin
  2
*D6
 70
     1
 10
0.0
 20
0.0
 30
0.0
  3
*D6
  1

  0
LINE
  5
419FB
330
3BE0A
100
AcDbEntity
  8
30
 62
     0
440
 16777216
370
    -2
100
AcDbLine
 10
532.9942994110381
 20
186.8105899631007
 30
0.0
 11
624.0164762298584
 21
186.8105899631007
 31
0.0
  0
LINE
  5
419FC
330
3BE0A
100
AcDbEntity
  8
30
 62
     0
440
 16777216
370
    -2
100
AcDbLine
 10
532.9942994110381
 20
138.8105899631007
 30
0.0
 11
624.0164762298584
 21
138.8105899631007
 31
0.0
  0
LINE
  5
419FD
330
3BE0A
100
AcDbEntity
  8
30
440
 16777216
370
    -2
100
AcDbLine
 10
623.5164762298584
 20
183.8105899631007
 30
0.0
 11
623.5164762298584
 21
141.8105899631006
 31
0.0
  0
INSERT
  5
419FE
330
3BE0A
100
AcDbEntity
  8
30
440
 16777216
370
    -2
100
AcDbBlockReference
  2
_OPEN
 10
623.5164762298584
 20
186.8105899631007
 30
0.0
 41
3.0
 42
3.0
 43
3.0
 50
90.0
  0
INSERT
  5
419FF
330
3BE0A
100
AcDbEntity
  8
30
440
 16777216
370
    -2
100
AcDbBlockReference
  2
_OPEN
 10
623.5164762298584
 20
138.8105899631007
 30
0.0
 41
3.0
 42
3.0
 43
3.0
 50
270.0
  0
MTEXT
  5
41A00
330
3BE0A
100
AcDbEntity
  8
30
440
 16777216
100
AcDbMText
 10
613.5164762298584
 20
162.8105899631007
 30
0.0
 40
7.0
 41
0.0
 46
0.0
 71
     2
 72
     1
  1
\A1;48
 11
0.0000000000000001
 21
1.0
 31
0.0
 73
     1
 44
1.0
 90
        3
 63
     9
421
 13158600
 45
1.25
441
        0
  0
POINT
  5
41A01
330
3BE0A
100
AcDbEntity
  8
DEFPOINTS
 62
     0
440
 16777216
100
AcDbPoint
 10
531.9942994110381
 20
186.8105899631007
 30
0.0
  0
POINT
  5
41A02
330
3BE0A
100
AcDbEntity
  8
DEFPOINTS
 62
     0
440
 16777216
100
AcDbPoint
 10
531.9942994110381
 20
138.8105899631007
 30
0.0
  0
POINT
  5
41A03
330
3BE0A
100
AcDbEntity
  8
DEFPOINTS
 62
     0
440
 16777216
100
AcDbPoint
 10
623.5164762298584
 20
138.8105899631007
 30
0.0
  0
ENDBLK
  5
3BE0C
330
3BE0A
100
AcDbEntity
  8
0
100
AcDbBlockEnd
  0
BLOCK
  5
3BE23
330
3BE22
100
AcDbEntity
  8
0
100
AcDbBlockBegin
  2
*D7
 70
     1
 10
0.0
 20
0.0
 30
0.0
  3
*D7
  1

  0
LINE
  5
418B0
330
3BE22
100
AcDbEntity
  8
30
  6
Continuous
 62
     0
440
 16777216
370
    -2
100
AcDbLine
 10
533.5031186280521
 20
188.4035543998894
 30
0.0
 11
543.7818260943044
 21
206.0679124724923
 31
0.0
  0
LINE
  5
418B1
330
3BE22
100
AcDbEntity
  8
30
  6
Continuous
 62
     0
440
 16777216
370
    -2
100
AcDbLine
 10
543.7818260943044
 20
206.0679124724923
 30
0.0
 11
555.115159427638
 21
206.0679124724922
 31
0.0
  0
LINE
  5
418B2
330
3BE22
100
AcDbEntity
  8
30
  6
Continuous
 62
     0
440
 16777216
370
    -2
100
AcDbLine
 10
531.9942994110387
 20
185.810589963101
 30
0.0
 11
532.4972391500475
 21
186.674911442038
 31
0.0
  0
INSERT
  5
418B3
330
3BE22
100
AcDbEntity
  8
30
  6
Continuous
 62
     0
440
 16777216
370
    -2
100
AcDbBlockReference
  2
_OPEN
 10
532.4972391500475
 20
186.674911442038
 30
0.0
 41
2.0
 42
2.0
 43
2.0
 50
239.8053170987554
  0
MTEXT
  5
418B4
330
3BE22
100
AcDbEntity
  8
30
  6
Continuous
 62
     0
440
 16777216
100
AcDbMText
 10
545.7818260943057
 20
215.0679124724916
 30
0.0
 40
7.0
 41
0.0
 46
0.0
 71
     1
 72
     1
  1
\A1;R1
 73
     1
 44
1.0
  0
POINT
  5
418B5
330
3BE22
100
AcDbEntity
  8
DEFPOINTS
  6
Continuous
 62
     0
440
 16777216
100
AcDbPoint
 10
532.4972391500475
 20
186.674911442038
 30
0.0
  0
POINT
  5
418B6
330
3BE22
100
AcDbEntity
  8
DEFPOINTS
  6
Continuous
 62
     0
440
 16777216
100
AcDbPoint
 10
531.9942994110387
 20
185.810589963101
 30
0.0
  0
ENDBLK
  5
3BE24
330
3BE22
100
AcDbEntity
  8
0
100
AcDbBlockEnd
  0
BLOCK
  5
3BE2D
330
3BE2C
100
AcDbEntity
  8
0
100
AcDbBlockBegin
  2
*D8
 70
     1
 10
0.0
 20
0.0
 30
0.0
  3
*D8
  1

  0
LINE
  5
41F21
330
3BE2C
100
AcDbEntity
  8
30
 62
     0
440
 16777216
370
    -2
100
AcDbLine
 10
533.0461827462443
 20
136.8105899631007
 30
0.0
 11
533.0461827462443
 21
45.44156422648621
 31
0.0
  0
LINE
  5
41F22
330
3BE2C
100
AcDbEntity
  8
30
 62
     0
440
 16777216
370
    -2
100
AcDbLine
 10
509.0461827462442
 20
136.8105899631007
 30
0.0
 11
509.0461827462442
 21
45.44156422648621
 31
0.0
  0
LINE
  5
41F23
330
3BE2C
100
AcDbEntity
  8
30
 62
     0
440
 16777216
370
    -2
100
AcDbLine
 10
531.0461827462443
 20
45.9415642264862
 30
0.0
 11
511.0461827462442
 21
45.9415642264862
 31
0.0
  0
INSERT
  5
41F24
330
3BE2C
100
AcDbEntity
  8
30
 62
     0
440
 16777216
370
    -2
100
AcDbBlockReference
  2
_OPEN
 10
533.0461827462443
 20
45.9415642264862
 30
0.0
 41
2.0
 42
2.0
 43
2.0
  0
INSERT
  5
41F25
330
3BE2C
100
AcDbEntity
  8
30
 62
     0
440
 16777216
370
    -2
100
AcDbBlockReference
  2
_OPEN
 10
509.0461827462442
 20
45.9415642264862
 30
0.0
 41
2.0
 42
2.0
 43
2.0
 50
180.0
  0
MTEXT
  5
41F26
330
3BE2C
100
AcDbEntity
  8
30
 62
     0
440
 16777216
100
AcDbMText
 10
521.4864653536478
 20
54.94156422648622
 30
0.0
 40
7.0
 41
0.0
 46
0.0
 71
     2
 72
     1
  1
\A1;24
 73
     1
 44
1.0
  0
POINT
  5
41F27
330
3BE2C
100
AcDbEntity
  8
DEFPOINTS
 62
     0
440
 16777216
100
AcDbPoint
 10
533.0461827462443
 20
139.8105899631007
 30
0.0
  0
POINT
  5
41F28
330
3BE2C
100
AcDbEntity
  8
DEFPOINTS
 62
     0
440
 16777216
100
AcDbPoint
 10
509.0461827462442
 20
139.8105899631007
 30
0.0
  0
POINT
  5
41F29
330
3BE2C
100
AcDbEntity
  8
DEFPOINTS
 62
     0
440
 16777216
100
AcDbPoint
 10
509.0461827462442
 20
45.9415642264862
 30
0.0
  0
ENDBLK
  5
3BE2E
330
3BE2C
100
AcDbEntity
  8
0
100
AcDbBlockEnd
  0
BLOCK
  5
3BE3A
330
3BE39
100
AcDbEntity
  8
0
100
AcDbBlockBegin
  2
*D9
 70
     1
 10
0.0
 20
0.0
 30
0.0
  3
*D9
  1

  0
LINE
  5
418C1
330
3BE39
100
AcDbEntity
  8
30
 62
     0
440
 16777216
370
    -2
100
AcDbLine
 10
536.7980404847067
 20
691.9381013886741
 30
0.0
 11
552.6981853427687
 21
691.9381013886741
 31
0.0
  0
LINE
  5
418C2
330
3BE39
100
AcDbEntity
  8
30
 62
     0
440
 16777216
370
    -2
100
AcDbLine
 10
542.2980404847066
 20
708.4381013886743
 30
0.0
 11
552.6981853427687
 21
708.4381013886743
 31
0.0
  0
LINE
  5
418C3
330
3BE39
100
AcDbEntity
  8
30
 62
     0
440
 16777216
370
    -2
100
AcDbLine
 10
552.1981853427687
 20
693.9381013886741
 30
0.0
 11
552.1981853427687
 21
706.4381013886745
 31
0.0
  0
LINE
  5
418C4
330
3BE39
100
AcDbEntity
  8
30
 62
     0
440
 16777216
370
    -2
100
AcDbLine
 10
552.1981853427687
 20
708.4381013886743
 30
0.0
 11
552.1981853427687
 21
725.8828818175888
 31
0.0
  0
LINE
  5
418C5
330
3BE39
100
AcDbEntity
  8
30
 62
     0
440
 16777216
370
    -2
100
AcDbLine
 10
552.1981853427687
 20
725.8828818175888
 30
0.0
 11
609.7315186761021
 21
725.8828818175888
 31
0.0
  0
INSERT
  5
418C6
330
3BE39
100
AcDbEntity
  8
30
 62
     0
440
 16777216
370
    -2
100
AcDbBlockReference
  2
_OPEN
 10
552.1981853427687
 20
691.9381013886741
 30
0.0
 41
2.0
 42
2.0
 43
2.0
 50
270.0
  0
INSERT
  5
418C7
330
3BE39
100
AcDbEntity
  8
30
 62
     0
440
 16777216
370
    -2
100
AcDbBlockReference
  2
_OPEN
 10
552.1981853427687
 20
708.4381013886743
 30
0.0
 41
2.0
 42
2.0
 43
2.0
 50
90.0
  0
MTEXT
  5
418C8
330
3BE39
100
AcDbEntity
  8
30
 62
     0
440
 16777216
100
AcDbMText
 10
581.9648520094354
 20
734.8828818175888
 30
0.0
 40
7.0
 41
0.0
 46
0.0
 71
     2
 72
     1
  1
\A1;16.5 (max.)
 73
     1
 44
1.0
  0
POINT
  5
418C9
330
3BE39
100
AcDbEntity
  8
DEFPOINTS
 62
     0
440
 16777216
100
AcDbPoint
 10
533.7980404847066
 20
691.9381013886741
 30
0.0
  0
POINT
  5
418CA
330
3BE39
100
AcDbEntity
  8
DEFPOINTS
 62
     0
440
 16777216
100
AcDbPoint
 10
539.2980404847066
 20
708.4381013886743
 30
0.0
  0
POINT
  5
418CB
330
3BE39
100
AcDbEntity
  8
DEFPOINTS
 62
     0
440
 16777216
100
AcDbPoint
 10
552.1981853427687
 20
708.4381013886743
 30
0.0
  0
ENDBLK
  5
3BE3B
330
3BE39
100
AcDbEntity
  8
0
100
AcDbBlockEnd
  0
BLOCK
  5
3BE48
330
3BE47
100
AcDbEntity
  8
0
100
AcDbBlockBegin
  2
*D10
 70
     1
 10
0.0
 20
0.0
 30
0.0
  3
*D10
  1

  0
LINE
  5
418CC
330
3BE47
100
AcDbEntity
  8
30
 62
     0
440
 16777216
370
    -2
100
AcDbLine
 10
528.8038258701711
 20
693.4303563892542
 30
0.0
 11
524.7922550992407
 21
690.4458463878945
 31
0.0
  0
LINE
  5
418CD
330
3BE47
100
AcDbEntity
  8
30
 62
     0
440
 16777216
370
    -2
100
AcDbLine
 10
523.1876267908171
 20
689.2520423873128
 30
0.0
 11
504.8409059330114
 21
675.6025332501295
 31
0.0
  0
LINE
  5
418CE
330
3BE47
100
AcDbEntity
  8
30
 62
     0
440
 16777216
370
    -2
100
AcDbLine
 10
504.8409059330114
 20
675.6025332501295
 30
0.0
 11
491.1742392663448
 21
675.6025332501295
 31
0.0
  0
INSERT
  5
418CF
330
3BE47
100
AcDbEntity
  8
30
 62
     0
440
 16777216
370
    -2
100
AcDbBlockReference
  2
_OPEN
 10
530.4084541785949
 20
694.6241603898362
 30
0.0
 41
2.0
 42
2.0
 43
2.0
 50
36.6483404853968
  0
INSERT
  5
418D0
330
3BE47
100
AcDbEntity
  8
30
 62
     0
440
 16777216
370
    -2
100
AcDbBlockReference
  2
_OPEN
 10
523.1876267908171
 20
689.2520423873128
 30
0.0
 41
2.0
 42
2.0
 43
2.0
 50
216.6483404853968
  0
MTEXT
  5
418D1
330
3BE47
100
AcDbEntity
  8
30
 62
     0
440
 16777216
100
AcDbMText
 10
491.1742392663448
 20
684.6025332501298
 30
0.0
 40
7.0
 41
0.0
 46
0.0
 71
     1
 72
     1
  1
\A1;∅9
 73
     1
 44
1.0
  0
POINT
  5
418D2
330
3BE47
100
AcDbEntity
  8
DEFPOINTS
 62
     0
440
 16777216
100
AcDbPoint
 10
523.1876267908171
 20
689.2520423873128
 30
0.0
  0
POINT
  5
418D3
330
3BE47
100
AcDbEntity
  8
DEFPOINTS
 62
     0
440
 16777216
100
AcDbPoint
 10
530.4084541785949
 20
694.6241603898362
 30
0.0
  0
ENDBLK
  5
3BE49
330
3BE47
100
AcDbEntity
  8
0
100
AcDbBlockEnd
  0
BLOCK
  5
3BE53
330
3BE52
100
AcDbEntity
  8
0
100
AcDbBlockBegin
  2
*D11
 70
     1
 10
0.0
 20
0.0
 30
0.0
  3
*D11
  1

  0
LINE
  5
418D4
330
3BE52
100
AcDbEntity
  8
30
 62
     0
440
 16777216
370
    -2
100
AcDbLine
 10
514.2980404847066
 20
670.9381013886741
 30
0.0
 11
514.2980404847066
 21
649.2717805386746
 31
0.0
  0
LINE
  5
418D5
330
3BE52
100
AcDbEntity
  8
30
 62
     0
440
 16777216
370
    -2
100
AcDbLine
 10
539.2980404847066
 20
670.9381013886741
 30
0.0
 11
539.2980404847066
 21
649.2717805386746
 31
0.0
  0
LINE
  5
418D6
330
3BE52
100
AcDbEntity
  8
30
440
 16777216
370
    -2
100
AcDbLine
 10
536.2980404847067
 20
649.7717805386746
 30
0.0
 11
517.2980404847066
 21
649.7717805386746
 31
0.0
  0
LINE
  5
418D7
330
3BE52
100
AcDbEntity
  8
30
440
 16777216
370
    -2
100
AcDbLine
 10
514.2980404847066
 20
649.7717805386746
 30
0.0
 11
456.7647071513731
 21
649.7717805386746
 31
0.0
  0
INSERT
  5
418D8
330
3BE52
100
AcDbEntity
  8
30
440
 16777216
370
    -2
100
AcDbBlockReference
  2
_OPEN
 10
539.2980404847066
 20
649.7717805386746
 30
0.0
 41
3.0
 42
3.0
 43
3.0
  0
INSERT
  5
418D9
330
3BE52
100
AcDbEntity
  8
30
440
 16777216
370
    -2
100
AcDbBlockReference
  2
_OPEN
 10
514.2980404847066
 20
649.7717805386746
 30
0.0
 41
3.0
 42
3.0
 43
3.0
 50
180.0
  0
MTEXT
  5
418DA
330
3BE52
100
AcDbEntity
  8
30
440
 16777216
100
AcDbMText
 10
484.0313738180396
 20
659.7717805386746
 30
0.0
 40
7.0
 41
0.0
 46
0.0
 71
     2
 72
     1
  1
\A1;25 (max.)
 73
     1
 44
1.0
 90
        3
 63
     9
421
 13158600
 45
1.25
441
        0
  0
POINT
  5
418DB
330
3BE52
100
AcDbEntity
  8
DEFPOINTS
 62
     0
440
 16777216
100
AcDbPoint
 10
514.2980404847066
 20
671.938101388674
 30
0.0
  0
POINT
  5
418DC
330
3BE52
100
AcDbEntity
  8
DEFPOINTS
 62
     0
440
 16777216
100
AcDbPoint
 10
539.2980404847066
 20
671.938101388674
 30
0.0
  0
POINT
  5
418DD
330
3BE52
100
AcDbEntity
  8
DEFPOINTS
 62
     0
440
 16777216
100
AcDbPoint
 10
539.2980404847066
 20
649.7717805386746
 30
0.0
  0
ENDBLK
  5
3BE54
330
3BE52
100
AcDbEntity
  8
0
100
AcDbBlockEnd
  0
BLOCK
  5
3BE60
330
3BE5F
100
AcDbEntity
  8
0
100
AcDbBlockBegin
  2
*D12
 70
     1
 10
0.0
 20
0.0
 30
0.0
  3
*D12
  1

  0
LINE
  5
41E9A
330
3BE5F
100
AcDbEntity
  8
30
 62
     0
440
 16777216
370
    -2
100
AcDbLine
 10
427.6639242904501
 20
680.0741909779817
 30
0.0
 11
467.848396906078
 21
680.0741909779817
 31
0.0
  0
LINE
  5
41E9B
330
3BE5F
100
AcDbEntity
  8
30
 62
     0
440
 16777216
370
    -2
100
AcDbLine
 10
456.4707592258498
 20
696.5741909779817
 30
0.0
 11
467.848396906078
 21
696.5741909779817
 31
0.0
  0
LINE
  5
41E9C
330
3BE5F
100
AcDbEntity
  8
30
 62
     0
440
 16777216
370
    -2
100
AcDbLine
 10
467.3483969060781
 20
682.0741909779817
 30
0.0
 11
467.3483969060781
 21
694.5741909779817
 31
0.0
  0
LINE
  5
41E9D
330
3BE5F
100
AcDbEntity
  8
30
 62
     0
440
 16777216
370
    -2
100
AcDbLine
 10
467.3483969060781
 20
696.5741909779817
 30
0.0
 11
467.3483969060781
 21
728.3408576446483
 31
0.0
  0
LINE
  5
41E9E
330
3BE5F
100
AcDbEntity
  8
30
 62
     0
440
 16777216
370
    -2
100
AcDbLine
 10
467.3483969060781
 20
728.3408576446483
 30
0.0
 11
524.8817302394114
 21
728.3408576446483
 31
0.0
  0
INSERT
  5
41E9F
330
3BE5F
100
AcDbEntity
  8
30
 62
     0
440
 16777216
370
    -2
100
AcDbBlockReference
  2
_OPEN
 10
467.3483969060781
 20
680.0741909779817
 30
0.0
 41
2.0
 42
2.0
 43
2.0
 50
270.0
  0
INSERT
  5
41EA0
330
3BE5F
100
AcDbEntity
  8
30
 62
     0
440
 16777216
370
    -2
100
AcDbBlockReference
  2
_OPEN
 10
467.3483969060781
 20
696.5741909779817
 30
0.0
 41
2.0
 42
2.0
 43
2.0
 50
90.0
  0
MTEXT
  5
41EA1
330
3BE5F
100
AcDbEntity
  8
30
 62
     0
440
 16777216
100
AcDbMText
 10
497.1150635727446
 20
737.3408576446482
 30
0.0
 40
7.0
 41
0.0
 46
0.0
 71
     2
 72
     1
  1
\A1;16.5 (max.)
 73
     1
 44
1.0
  0
POINT
  5
41EA2
330
3BE5F
100
AcDbEntity
  8
DEFPOINTS
 62
     0
440
 16777216
100
AcDbPoint
 10
424.6639242904501
 20
680.0741909779817
 30
0.0
  0
POINT
  5
41EA3
330
3BE5F
100
AcDbEntity
  8
DEFPOINTS
 62
     0
440
 16777216
100
AcDbPoint
 10
453.47075922585
 20
696.5741909779817
 30
0.0
  0
POINT
  5
41EA4
330
3BE5F
100
AcDbEntity
  8
DEFPOINTS
 62
     0
440
 16777216
100
AcDbPoint
 10
467.3483969060781
 20
696.5741909779817
 30
0.0
  0
ENDBLK
  5
3BE61
330
3BE5F
100
AcDbEntity
  8
0
100
AcDbBlockEnd
  0
BLOCK
  5
3BE6E
330
3BE6D
100
AcDbEntity
  8
0
100
AcDbBlockBegin
  2
*D13
 70
     1
 10
0.0
 20
0.0
 30
0.0
  3
*D13
  1

  0
LINE
  5
418E9
330
3BE6D
100
AcDbEntity
  8
30
 62
     0
440
 16777216
370
    -2
100
AcDbLine
 10
383.3639242904501
 20
719.5741909779817
 30
0.0
 11
383.3639242904501
 21
744.5695449059115
 31
0.0
  0
LINE
  5
418EA
330
3BE6D
100
AcDbEntity
  8
30
 62
     0
440
 16777216
370
    -2
100
AcDbLine
 10
367.1639242904503
 20
736.7107127591816
 30
0.0
 11
367.1639242904503
 21
744.5695449059115
 31
0.0
  0
LINE
  5
418EB
330
3BE6D
100
AcDbEntity
  8
30
 62
     0
440
 16777216
370
    -2
100
AcDbLine
 10
381.3639242904502
 20
744.0695449059115
 30
0.0
 11
369.1639242904503
 21
744.0695449059115
 31
0.0
  0
INSERT
  5
418EC
330
3BE6D
100
AcDbEntity
  8
30
 62
     0
440
 16777216
370
    -2
100
AcDbBlockReference
  2
_OPEN
 10
383.3639242904501
 20
744.0695449059115
 30
0.0
 41
2.0
 42
2.0
 43
2.0
  0
INSERT
  5
418ED
330
3BE6D
100
AcDbEntity
  8
30
 62
     0
440
 16777216
370
    -2
100
AcDbBlockReference
  2
_OPEN
 10
367.1639242904503
 20
744.0695449059115
 30
0.0
 41
2.0
 42
2.0
 43
2.0
 50
180.0
  0
MTEXT
  5
418EE
330
3BE6D
100
AcDbEntity
  8
30
 62
     0
440
 16777216
100
AcDbMText
 10
375.2639242904503
 20
753.0695449059115
 30
0.0
 40
7.0
 41
0.0
 46
0.0
 71
     2
 72
     1
  1
\A1;16.2
 73
     1
 44
1.0
  0
POINT
  5
418EF
330
3BE6D
100
AcDbEntity
  8
DEFPOINTS
 62
     0
440
 16777216
100
AcDbPoint
 10
383.3639242904501
 20
716.5741909779817
 30
0.0
  0
POINT
  5
418F0
330
3BE6D
100
AcDbEntity
  8
DEFPOINTS
 62
     0
440
 16777216
100
AcDbPoint
 10
367.1639242904503
 20
733.7107127591816
 30
0.0
  0
POINT
  5
418F1
330
3BE6D
100
AcDbEntity
  8
DEFPOINTS
 62
     0
440
 16777216
100
AcDbPoint
 10
367.1639242904503
 20
744.0695449059115
 30
0.0
  0
ENDBLK
  5
3BE6F
330
3BE6D
100
AcDbEntity
  8
0
100
AcDbBlockEnd
  0
BLOCK
  5
3BE7A
330
3BE79
100
AcDbEntity
  8
0
100
AcDbBlockBegin
  2
*D14
 70
     1
 10
0.0
 20
0.0
 30
0.0
  3
*D14
  1

  0
LINE
  5
418F2
330
3BE79
100
AcDbEntity
  8
30
 62
     0
440
 16777216
370
    -2
100
AcDbLine
 10
424.1639216382156
 20
673.6941940773817
 30
0.0
 11
424.1639216382156
 21
641.5941972177819
 31
0.0
  0
LINE
  5
418F3
330
3BE79
100
AcDbEntity
  8
30
 62
     0
440
 16777216
370
    -2
100
AcDbLine
 10
397.1639215946154
 20
664.2741940773817
 30
0.0
 11
397.1639215946154
 21
641.5941972177819
 31
0.0
  0
LINE
  5
418F4
330
3BE79
100
AcDbEntity
  8
30
 62
     0
440
 16777216
370
    -2
100
AcDbLine
 10
422.1639216382157
 20
642.0941972177819
 30
0.0
 11
399.1639215946154
 21
642.0941972177819
 31
0.0
  0
INSERT
  5
418F5
330
3BE79
100
AcDbEntity
  8
30
 62
     0
440
 16777216
370
    -2
100
AcDbBlockReference
  2
_OPEN
 10
424.1639216382156
 20
642.0941972177819
 30
0.0
 41
2.0
 42
2.0
 43
2.0
  0
INSERT
  5
418F6
330
3BE79
100
AcDbEntity
  8
30
 62
     0
440
 16777216
370
    -2
100
AcDbBlockReference
  2
_OPEN
 10
397.1639215946154
 20
642.0941972177819
 30
0.0
 41
2.0
 42
2.0
 43
2.0
 50
180.0
  0
MTEXT
  5
418F7
330
3BE79
100
AcDbEntity
  8
30
 62
     0
440
 16777216
100
AcDbMText
 10
410.663921616415
 20
651.0941972177819
 30
0.0
 40
7.0
 41
0.0
 46
0.0
 71
     2
 72
     1
  1
\A1;13.5
 73
     1
 44
1.0
  0
POINT
  5
418F8
330
3BE79
100
AcDbEntity
  8
DEFPOINTS
 62
     0
440
 16777216
100
AcDbPoint
 10
424.1639216382156
 20
676.6941940773818
 30
0.0
  0
POINT
  5
418F9
330
3BE79
100
AcDbEntity
  8
DEFPOINTS
 62
     0
440
 16777216
100
AcDbPoint
 10
397.1639215946154
 20
667.2741940773817
 30
0.0
  0
POINT
  5
418FA
330
3BE79
100
AcDbEntity
  8
DEFPOINTS
 62
     0
440
 16777216
100
AcDbPoint
 10
397.1639215946154
 20
642.0941972177819
 30
0.0
  0
ENDBLK
  5
3BE7B
330
3BE79
100
AcDbEntity
  8
0
100
AcDbBlockEnd
  0
BLOCK
  5
3BE86
330
3BE85
100
AcDbEntity
  8
0
100
AcDbBlockBegin
  2
*D15
 70
     1
 10
0.0
 20
0.0
 30
0.0
  3
*D15
  1

  0
LINE
  5
418FB
330
3BE85
100
AcDbEntity
  8
30
 62
     0
440
 16777216
370
    -2
100
AcDbLine
 10
370.1639216382152
 20
699.5741943455819
 30
0.0
 11
370.1639216382152
 21
641.5941974859819
 31
0.0
  0
LINE
  5
418FC
330
3BE85
100
AcDbEntity
  8
30
 62
     0
440
 16777216
370
    -2
100
AcDbLine
 10
397.1639215946154
 20
664.2741940773817
 30
0.0
 11
397.1639215946154
 21
641.5941974859819
 31
0.0
  0
LINE
  5
418FD
330
3BE85
100
AcDbEntity
  8
30
 62
     0
440
 16777216
370
    -2
100
AcDbLine
 10
372.1639216382152
 20
642.0941974859819
 30
0.0
 11
395.1639215946154
 21
642.0941974859819
 31
0.0
  0
INSERT
  5
418FE
330
3BE85
100
AcDbEntity
  8
30
 62
     0
440
 16777216
370
    -2
100
AcDbBlockReference
  2
_OPEN
 10
370.1639216382152
 20
642.0941974859819
 30
0.0
 41
2.0
 42
2.0
 43
2.0
 50
180.0
  0
INSERT
  5
418FF
330
3BE85
100
AcDbEntity
  8
30
 62
     0
440
 16777216
370
    -2
100
AcDbBlockReference
  2
_OPEN
 10
397.1639215946154
 20
642.0941974859819
 30
0.0
 41
2.0
 42
2.0
 43
2.0
  0
MTEXT
  5
41900
330
3BE85
100
AcDbEntity
  8
30
 62
     0
440
 16777216
100
AcDbMText
 10
383.6639216164151
 20
651.0941974859819
 30
0.0
 40
7.0
 41
0.0
 46
0.0
 71
     2
 72
     1
  1
\A1;13.5
 73
     1
 44
1.0
  0
POINT
  5
41901
330
3BE85
100
AcDbEntity
  8
DEFPOINTS
 62
     0
440
 16777216
100
AcDbPoint
 10
370.1639216382152
 20
702.5741943455819
 30
0.0
  0
POINT
  5
41902
330
3BE85
100
AcDbEntity
  8
DEFPOINTS
 62
     0
440
 16777216
100
AcDbPoint
 10
397.1639215946154
 20
667.2741940773817
 30
0.0
  0
POINT
  5
41903
330
3BE85
100
AcDbEntity
  8
DEFPOINTS
 62
     0
440
 16777216
100
AcDbPoint
 10
397.1639215946154
 20
642.0941974859819
 30
0.0
  0
ENDBLK
  5
3BE87
330
3BE85
100
AcDbEntity
  8
0
100
AcDbBlockEnd
  0
BLOCK
  5
3BE92
330
3BE91
100
AcDbEntity
  8
0
100
AcDbBlockBegin
  2
*D16
 70
     1
 10
0.0
 20
0.0
 30
0.0
  3
*D16
  1

  0
LINE
  5
41904
330
3BE91
100
AcDbEntity
  8
30
 62
     0
440
 16777216
370
    -2
100
AcDbLine
 10
352.1639216382153
 20
661.0740940635817
 30
0.0
 11
352.1639216382153
 21
641.5941972177819
 31
0.0
  0
LINE
  5
41905
330
3BE91
100
AcDbEntity
  8
30
 62
     0
440
 16777216
370
    -2
100
AcDbLine
 10
370.1639216382152
 20
699.5741943455819
 30
0.0
 11
370.1639216382152
 21
641.5941972177819
 31
0.0
  0
LINE
  5
41906
330
3BE91
100
AcDbEntity
  8
30
 62
     0
440
 16777216
370
    -2
100
AcDbLine
 10
354.1639216382153
 20
642.0941972177819
 30
0.0
 11
368.1639216382152
 21
642.0941972177819
 31
0.0
  0
INSERT
  5
41907
330
3BE91
100
AcDbEntity
  8
30
 62
     0
440
 16777216
370
    -2
100
AcDbBlockReference
  2
_OPEN
 10
352.1639216382153
 20
642.0941972177819
 30
0.0
 41
2.0
 42
2.0
 43
2.0
 50
180.0
  0
INSERT
  5
41908
330
3BE91
100
AcDbEntity
  8
30
 62
     0
440
 16777216
370
    -2
100
AcDbBlockReference
  2
_OPEN
 10
370.1639216382152
 20
642.0941972177819
 30
0.0
 41
2.0
 42
2.0
 43
2.0
  0
MTEXT
  5
41909
330
3BE91
100
AcDbEntity
  8
30
 62
     0
440
 16777216
100
AcDbMText
 10
361.1639216382152
 20
651.0941972177819
 30
0.0
 40
7.0
 41
0.0
 46
0.0
 71
     2
 72
     1
  1
\A1;18
 73
     1
 44
1.0
  0
POINT
  5
4190A
330
3BE91
100
AcDbEntity
  8
DEFPOINTS
 62
     0
440
 16777216
100
AcDbPoint
 10
352.1639216382153
 20
664.0740940635818
 30
0.0
  0
POINT
  5
4190B
330
3BE91
100
AcDbEntity
  8
DEFPOINTS
 62
     0
440
 16777216
100
AcDbPoint
 10
370.1639216382152
 20
702.5741943455819
 30
0.0
  0
POINT
  5
4190C
330
3BE91
100
AcDbEntity
  8
DEFPOINTS
 62
     0
440
 16777216
100
AcDbPoint
 10
370.1639216382152
 20
642.0941972177819
 30
0.0
  0
ENDBLK
  5
3BE93
330
3BE91
100
AcDbEntity
  8
0
100
AcDbBlockEnd
  0
BLOCK
  5
3BECE
330
3BECD
100
AcDbEntity
  8
0
100
AcDbBlockBegin
  2
*D17
 70
     1
 10
0.0
 20
0.0
 30
0.0
  3
*D17
  1

  0
LINE
  5
41E66
330
3BECD
100
AcDbEntity
  8
30
 62
     0
440
 16777216
370
    -2
100
AcDbLine
 10
83.28065204906852
 20
128.0493732667007
 30
0.0
 11
83.28065204906852
 21
52.2461780843421
 31
0.0
  0
LINE
  5
41E67
330
3BECD
100
AcDbEntity
  8
30
 62
     0
440
 16777216
370
    -2
100
AcDbLine
 10
55.28065204906853
 20
128.0493732667007
 30
0.0
 11
55.28065204906853
 21
52.2461780843421
 31
0.0
  0
LINE
  5
41E68
330
3BECD
100
AcDbEntity
  8
30
 62
     0
440
 16777216
370
    -2
100
AcDbLine
 10
81.28065204906851
 20
52.7461780843421
 30
0.0
 11
57.28065204906853
 21
52.7461780843421
 31
0.0
  0
INSERT
  5
41E69
330
3BECD
100
AcDbEntity
  8
30
 62
     0
440
 16777216
370
    -2
100
AcDbBlockReference
  2
_OPEN
 10
83.28065204906852
 20
52.7461780843421
 30
0.0
 41
2.0
 42
2.0
 43
2.0
  0
INSERT
  5
41E6A
330
3BECD
100
AcDbEntity
  8
30
 62
     0
440
 16777216
370
    -2
100
AcDbBlockReference
  2
_OPEN
 10
55.28065204906853
 20
52.7461780843421
 30
0.0
 41
2.0
 42
2.0
 43
2.0
 50
180.0
  0
MTEXT
  5
41E6B
330
3BECD
100
AcDbEntity
  8
30
 62
     0
440
 16777216
100
AcDbMText
 10
69.28065204906852
 20
58.2461780843421
 30
0.0
 40
7.0
 41
0.0
 46
0.0
 71
     5
 72
     1
  1
\A1;28
 73
     1
 44
1.0
  0
POINT
  5
41E6C
330
3BECD
100
AcDbEntity
  8
DEFPOINTS
 62
     0
440
 16777216
100
AcDbPoint
 10
83.28065204906852
 20
131.0493732667007
 30
0.0
  0
POINT
  5
41E6D
330
3BECD
100
AcDbEntity
  8
DEFPOINTS
 62
     0
440
 16777216
100
AcDbPoint
 10
55.28065204906853
 20
131.0493732667007
 30
0.0
  0
POINT
  5
41E6E
330
3BECD
100
AcDbEntity
  8
DEFPOINTS
 62
     0
440
 16777216
100
AcDbPoint
 10
55.28065204906853
 20
52.7461780843421
 30
0.0
  0
ENDBLK
  5
3BECF
330
3BECD
100
AcDbEntity
  8
0
100
AcDbBlockEnd
  0
BLOCK
  5
3BEDA
330
3BED9
100
AcDbEntity
  8
0
100
AcDbBlockBegin
  2
*D18
 70
     1
 10
0.0
 20
0.0
 30
0.0
  3
*D18
  1

  0
LINE
  5
41E4D
330
3BED9
100
AcDbEntity
  8
30
 62
     0
440
 16777216
370
    -2
100
AcDbLine
 10
141.7806520490685
 20
193.0493732667008
 30
0.0
 11
209.9292121121644
 21
193.0493732667008
 31
0.0
  0
LINE
  5
41E4E
330
3BED9
100
AcDbEntity
  8
30
 62
     0
440
 16777216
370
    -2
100
AcDbLine
 10
142.2806520490685
 20
131.0493732667007
 30
0.0
 11
209.9292121121644
 21
131.0493732667007
 31
0.0
  0
LINE
  5
41E4F
330
3BED9
100
AcDbEntity
  8
30
440
 16777216
370
    -2
100
AcDbLine
 10
209.4292121121644
 20
190.0493732667008
 30
0.0
 11
209.4292121121644
 21
134.0493732667006
 31
0.0
  0
INSERT
  5
41E50
330
3BED9
100
AcDbEntity
  8
30
440
 16777216
370
    -2
100
AcDbBlockReference
  2
_OPEN
 10
209.4292121121644
 20
193.0493732667008
 30
0.0
 41
3.0
 42
3.0
 43
3.0
 50
90.0
  0
INSERT
  5
41E51
330
3BED9
100
AcDbEntity
  8
30
440
 16777216
370
    -2
100
AcDbBlockReference
  2
_OPEN
 10
209.4292121121644
 20
131.0493732667007
 30
0.0
 41
3.0
 42
3.0
 43
3.0
 50
270.0
  0
MTEXT
  5
41E52
330
3BED9
100
AcDbEntity
  8
30
440
 16777216
100
AcDbMText
 10
202.9292121121644
 20
162.8105899631007
 30
0.0
 40
7.0
 41
0.0
 46
0.0
 71
     5
 72
     1
  1
\A1;62
 11
0.0000000000000001
 21
1.0
 31
0.0
 73
     1
 44
1.0
 90
        3
 63
     9
421
 13158600
 45
1.25
441
        0
  0
POINT
  5
41E53
330
3BED9
100
AcDbEntity
  8
DEFPOINTS
 62
     0
440
 16777216
100
AcDbPoint
 10
140.7806520490685
 20
193.0493732667008
 30
0.0
  0
POINT
  5
41E54
330
3BED9
100
AcDbEntity
  8
DEFPOINTS
 62
     0
440
 16777216
100
AcDbPoint
 10
141.2806520490685
 20
131.0493732667007
 30
0.0
  0
POINT
  5
41E55
330
3BED9
100
AcDbEntity
  8
DEFPOINTS
 62
     0
440
 16777216
100
AcDbPoint
 10
209.4292121121644
 20
131.0493732667007
 30
0.0
  0
ENDBLK
  5
3BEDB
330
3BED9
100
AcDbEntity
  8
0
100
AcDbBlockEnd
  0
BLOCK
  5
3BF18
330
3BF17
100
AcDbEntity
  8
0
100
AcDbBlockBegin
  2
*D19
 70
     1
 10
0.0
 20
0.0
 30
0.0
  3
*D19
  1

  0
LINE
  5
41822
330
3BF17
100
AcDbEntity
  8
30
 62
     0
440
 16777216
370
    -2
100
AcDbLine
 10
192.4437155791475
 20
583.3769900213396
 30
0.0
 11
205.8836722798738
 21
583.3769900213396
 31
0.0
  0
LINE
  5
41823
330
3BF17
100
AcDbEntity
  8
30
 62
     0
440
 16777216
370
    -2
100
AcDbLine
 10
192.4437155791475
 20
418.3769900213402
 30
0.0
 11
205.8836722798737
 21
418.3769900213402
 31
0.0
  0
LINE
  5
41824
330
3BF17
100
AcDbEntity
  8
30
440
 16777216
370
    -2
100
AcDbLine
 10
205.3836722798738
 20
580.3769900213397
 30
0.0
 11
205.3836722798737
 21
421.3769900213398
 31
0.0
  0
INSERT
  5
41825
330
3BF17
100
AcDbEntity
  8
30
440
 16777216
370
    -2
100
AcDbBlockReference
  2
_OPEN
 10
205.3836722798738
 20
583.3769900213396
 30
0.0
 41
3.0
 42
3.0
 43
3.0
 50
90.0
  0
INSERT
  5
41826
330
3BF17
100
AcDbEntity
  8
30
440
 16777216
370
    -2
100
AcDbBlockReference
  2
_OPEN
 10
205.3836722798737
 20
418.3769900213402
 30
0.0
 41
3.0
 42
3.0
 43
3.0
 50
270.0
  0
MTEXT
  5
41827
330
3BF17
100
AcDbEntity
  8
30
440
 16777216
100
AcDbMText
 10
198.8836722798737
 20
500.8769900213398
 30
0.0
 40
7.0
 41
0.0
 46
0.0
 71
     5
 72
     1
  1
\A1;165
 11
0.0000000000000001
 21
1.0
 31
0.0
 73
     1
 44
1.0
 90
        3
 63
     9
421
 13158600
 45
1.25
441
        0
  0
POINT
  5
41828
330
3BF17
100
AcDbEntity
  8
DEFPOINTS
 62
     0
440
 16777216
100
AcDbPoint
 10
191.4437155791475
 20
583.3769900213396
 30
0.0
  0
POINT
  5
41829
330
3BF17
100
AcDbEntity
  8
DEFPOINTS
 62
     0
440
 16777216
100
AcDbPoint
 10
191.4437155791475
 20
418.3769900213402
 30
0.0
  0
POINT
  5
4182A
330
3BF17
100
AcDbEntity
  8
DEFPOINTS
 62
     0
440
 16777216
100
AcDbPoint
 10
205.3836722798737
 20
418.3769900213402
 30
0.0
  0
ENDBLK
  5
3BF19
330
3BF17
100
AcDbEntity
  8
0
100
AcDbBlockEnd
  0
BLOCK
  5
3BF30
330
3BF2F
100
AcDbEntity
  8
0
100
AcDbBlockBegin
  2
*D20
 70
     1
 10
0.0
 20
0.0
 30
0.0
  3
*D20
  1

  0
LINE
  5
4182B
330
3BF2F
100
AcDbEntity
  8
30
 62
     0
440
 16777216
370
    -2
100
AcDbLine
 10
46.01540952066886
 20
403.9644898909366
 30
0.0
 11
46.01540952066886
 21
377.4362964592568
 31
0.0
  0
LINE
  5
4182C
330
3BF2F
100
AcDbEntity
  8
30
 62
     0
440
 16777216
370
    -2
100
AcDbLine
 10
186.0154095206685
 20
407.6705150787246
 30
0.0
 11
186.0154095206685
 21
377.4362964592568
 31
0.0
  0
LINE
  5
4182D
330
3BF2F
100
AcDbEntity
  8
30
 62
     0
440
 16777216
370
    -2
100
AcDbLine
 10
48.01540952066886
 20
377.9362964592568
 30
0.0
 11
184.0154095206685
 21
377.9362964592568
 31
0.0
  0
INSERT
  5
4182E
330
3BF2F
100
AcDbEntity
  8
30
 62
     0
440
 16777216
370
    -2
100
AcDbBlockReference
  2
_OPEN
 10
46.01540952066886
 20
377.9362964592568
 30
0.0
 41
2.0
 42
2.0
 43
2.0
 50
180.0
  0
INSERT
  5
4182F
330
3BF2F
100
AcDbEntity
  8
30
 62
     0
440
 16777216
370
    -2
100
AcDbBlockReference
  2
_OPEN
 10
186.0154095206685
 20
377.9362964592568
 30
0.0
 41
2.0
 42
2.0
 43
2.0
  0
MTEXT
  5
41830
330
3BF2F
100
AcDbEntity
  8
30
 62
     0
440
 16777216
100
AcDbMText
 10
116.0154095206687
 20
383.4362964592568
 30
0.0
 40
7.0
 41
0.0
 46
0.0
 71
     5
 72
     1
  1
\A1;140
 73
     1
 44
1.0
  0
POINT
  5
41831
330
3BF2F
100
AcDbEntity
  8
DEFPOINTS
 62
     0
440
 16777216
100
AcDbPoint
 10
46.01540952066886
 20
406.9644898909366
 30
0.0
  0
POINT
  5
41832
330
3BF2F
100
AcDbEntity
  8
DEFPOINTS
 62
     0
440
 16777216
100
AcDbPoint
 10
186.0154095206685
 20
410.6705150787245
 30
0.0
  0
POINT
  5
41833
330
3BF2F
100
AcDbEntity
  8
DEFPOINTS
 62
     0
440
 16777216
100
AcDbPoint
 10
186.0154095206685
 20
377.9362964592568
 30
0.0
  0
ENDBLK
  5
3BF31
330
3BF2F
100
AcDbEntity
  8
0
100
AcDbBlockEnd
  0
BLOCK
  5
3BF60
330
3BF5F
100
AcDbEntity
  8
0
100
AcDbBlockBegin
  2
*D21
 70
     1
 10
0.0
 20
0.0
 30
0.0
  3
*D21
  1

  0
LINE
  5
41BEA
330
3BF5F
100
AcDbEntity
  8
30
 62
     0
440
 16777216
370
    -2
100
AcDbLine
 10
87.27656930946954
 20
474.8769900213398
 30
0.0
 11
87.27656930946954
 21
461.4556110115538
 31
0.0
  0
LINE
  5
41BEB
330
3BF5F
100
AcDbEntity
  8
30
 62
     0
440
 16777216
370
    -2
100
AcDbLine
 10
109.2765693094694
 20
474.8769900213398
 30
0.0
 11
109.2765693094694
 21
461.4556110115538
 31
0.0
  0
LINE
  5
41BEC
330
3BF5F
100
AcDbEntity
  8
30
440
 16777216
370
    -2
100
AcDbLine
 10
90.27656930946957
 20
461.9556110115538
 30
0.0
 11
106.2765693094694
 21
461.9556110115538
 31
0.0
  0
LINE
  5
41BED
330
3BF5F
100
AcDbEntity
  8
30
440
 16777216
370
    -2
100
AcDbLine
 10
109.2765693094694
 20
461.9556110115538
 30
0.0
 11
129.943235976136
 21
461.9556110115538
 31
0.0
  0
INSERT
  5
41BEE
330
3BF5F
100
AcDbEntity
  8
30
440
 16777216
370
    -2
100
AcDbBlockReference
  2
_OPEN
 10
87.27656930946954
 20
461.9556110115538
 30
0.0
 41
3.0
 42
3.0
 43
3.0
 50
180.0
  0
INSERT
  5
41BEF
330
3BF5F
100
AcDbEntity
  8
30
440
 16777216
370
    -2
100
AcDbBlockReference
  2
_OPEN
 10
109.2765693094694
 20
461.9556110115538
 30
0.0
 41
3.0
 42
3.0
 43
3.0
  0
MTEXT
  5
41BF0
330
3BF5F
100
AcDbEntity
  8
30
440
 16777216
100
AcDbMText
 10
121.1099026428027
 20
468.4556110115535
 30
0.0
 40
7.0
 41
0.0
 46
0.0
 71
     5
 72
     1
  1
\A1;22
 73
     1
 44
1.0
 90
        3
 63
     9
421
 13158600
 45
1.25
441
        0
  0
POINT
  5
41BF1
330
3BF5F
100
AcDbEntity
  8
DEFPOINTS
 62
     0
440
 16777216
100
AcDbPoint
 10
87.27656930946954
 20
475.8769900213398
 30
0.0
  0
POINT
  5
41BF2
330
3BF5F
100
AcDbEntity
  8
DEFPOINTS
 62
     0
440
 16777216
100
AcDbPoint
 10
109.2765693094694
 20
475.8769900213398
 30
0.0
  0
POINT
  5
41BF3
330
3BF5F
100
AcDbEntity
  8
DEFPOINTS
 62
     0
440
 16777216
100
AcDbPoint
 10
109.2765693094694
 20
461.9556110115538
 30
0.0
  0
ENDBLK
  5
3BF61
330
3BF5F
100
AcDbEntity
  8
0
100
AcDbBlockEnd
  0
BLOCK
  5
3BF6D
330
3BF6C
100
AcDbEntity
  8
0
100
AcDbBlockBegin
  2
*D22
 70
     1
 10
0.0
 20
0.0
 30
0.0
  3
*D22
  1

  0
LINE
  5
419E9
330
3BF6C
100
AcDbEntity
  8
30
 62
     0
440
 16777216
370
    -2
100
AcDbLine
 10
381.6074696875678
 20
188.8105899631007
 30
0.0
 11
440.5278647344267
 21
188.8105899631007
 31
0.0
  0
LINE
  5
419EA
330
3BF6C
100
AcDbEntity
  8
30
 62
     0
440
 16777216
370
    -2
100
AcDbLine
 10
381.6074696875678
 20
136.8105899631007
 30
0.0
 11
440.5278647344267
 21
136.8105899631007
 31
0.0
  0
LINE
  5
419EB
330
3BF6C
100
AcDbEntity
  8
30
440
 16777216
370
    -2
100
AcDbLine
 10
440.0278647344268
 20
185.8105899631008
 30
0.0
 11
440.0278647344268
 21
139.8105899631007
 31
0.0
  0
INSERT
  5
419EC
330
3BF6C
100
AcDbEntity
  8
30
440
 16777216
370
    -2
100
AcDbBlockReference
  2
_OPEN
 10
440.0278647344268
 20
188.8105899631007
 30
0.0
 41
3.0
 42
3.0
 43
3.0
 50
90.0
  0
INSERT
  5
419ED
330
3BF6C
100
AcDbEntity
  8
30
440
 16777216
370
    -2
100
AcDbBlockReference
  2
_OPEN
 10
440.0278647344268
 20
136.8105899631007
 30
0.0
 41
3.0
 42
3.0
 43
3.0
 50
270.0
  0
MTEXT
  5
419EE
330
3BF6C
100
AcDbEntity
  8
30
440
 16777216
100
AcDbMText
 10
430.0278647344269
 20
162.8105899631007
 30
0.0
 40
7.0
 41
0.0
 46
0.0
 71
     2
 72
     1
  1
\A1;52
 11
0.0000000000000001
 21
1.0
 31
0.0
 73
     1
 44
1.0
 90
        3
 63
     9
421
 13158600
 45
1.25
441
        0
  0
POINT
  5
419EF
330
3BF6C
100
AcDbEntity
  8
DEFPOINTS
 62
     0
440
 16777216
100
AcDbPoint
 10
380.6074696875678
 20
188.8105899631007
 30
0.0
  0
POINT
  5
419F0
330
3BF6C
100
AcDbEntity
  8
DEFPOINTS
 62
     0
440
 16777216
100
AcDbPoint
 10
380.6074696875678
 20
136.8105899631007
 30
0.0
  0
POINT
  5
419F1
330
3BF6C
100
AcDbEntity
  8
DEFPOINTS
 62
     0
440
 16777216
100
AcDbPoint
 10
440.0278647344268
 20
136.8105899631007
 30
0.0
  0
ENDBLK
  5
3BF6E
330
3BF6C
100
AcDbEntity
  8
0
100
AcDbBlockEnd
  0
BLOCK
  5
3BF85
330
3BF84
100
AcDbEntity
  8
0
100
AcDbBlockBegin
  2
*D23
 70
     1
 10
0.0
 20
0.0
 30
0.0
  3
*D23
  1

  0
LINE
  5
41EFC
330
3BF84
100
AcDbEntity
  8
30
 62
     0
440
 16777216
370
    -2
100
AcDbLine
 10
281.6074696875678
 20
134.8105899631007
 30
0.0
 11
281.6074696875678
 21
46.52562207567917
 31
0.0
  0
LINE
  5
41EFD
330
3BF84
100
AcDbEntity
  8
30
 62
     0
440
 16777216
370
    -2
100
AcDbLine
 10
331.6074696875678
 20
54.81058996310076
 30
0.0
 11
331.6074696875678
 21
46.52562207567917
 31
0.0
  0
LINE
  5
41EFE
330
3BF84
100
AcDbEntity
  8
30
 62
     0
440
 16777216
370
    -2
100
AcDbLine
 10
283.6074696875678
 20
47.02562207567916
 30
0.0
 11
329.6074696875678
 21
47.02562207567916
 31
0.0
  0
INSERT
  5
41EFF
330
3BF84
100
AcDbEntity
  8
30
 62
     0
440
 16777216
370
    -2
100
AcDbBlockReference
  2
_OPEN
 10
281.6074696875678
 20
47.02562207567916
 30
0.0
 41
2.0
 42
2.0
 43
2.0
 50
180.0
  0
INSERT
  5
41F00
330
3BF84
100
AcDbEntity
  8
30
 62
     0
440
 16777216
370
    -2
100
AcDbBlockReference
  2
_OPEN
 10
331.6074696875678
 20
47.02562207567916
 30
0.0
 41
2.0
 42
2.0
 43
2.0
  0
MTEXT
  5
41F01
330
3BF84
100
AcDbEntity
  8
30
 62
     0
440
 16777216
100
AcDbMText
 10
306.6074696875678
 20
56.02562207567917
 30
0.0
 40
7.0
 41
0.0
 46
0.0
 71
     2
 72
     1
  1
\A1;50
 73
     1
 44
1.0
  0
POINT
  5
41F02
330
3BF84
100
AcDbEntity
  8
DEFPOINTS
 62
     0
440
 16777216
100
AcDbPoint
 10
281.6074696875678
 20
137.8105899631007
 30
0.0
  0
POINT
  5
41F03
330
3BF84
100
AcDbEntity
  8
DEFPOINTS
 62
     0
440
 16777216
100
AcDbPoint
 10
331.6074696875678
 20
57.81058996310076
 30
0.0
  0
POINT
  5
41F04
330
3BF84
100
AcDbEntity
  8
DEFPOINTS
 62
     0
440
 16777216
100
AcDbPoint
 10
331.6074696875678
 20
47.02562207567916
 30
0.0
  0
ENDBLK
  5
3BF86
330
3BF84
100
AcDbEntity
  8
0
100
AcDbBlockEnd
  0
BLOCK
  5
3BF91
330
3BF90
100
AcDbEntity
  8
0
100
AcDbBlockBegin
  2
*D24
 70
     1
 10
0.0
 20
0.0
 30
0.0
  3
*D24
  1

  0
LINE
  5
41EEA
330
3BF90
100
AcDbEntity
  8
30
 62
     0
440
 16777216
370
    -2
100
AcDbLine
 10
281.6074696875678
 20
134.8105899631007
 30
0.0
 11
281.6074696875678
 21
27.84196461374086
 31
0.0
  0
LINE
  5
41EEB
330
3BF90
100
AcDbEntity
  8
30
 62
     0
440
 16777216
370
    -2
100
AcDbLine
 10
381.6074696875678
 20
134.8105899631007
 30
0.0
 11
381.6074696875678
 21
27.84196461374086
 31
0.0
  0
LINE
  5
41EEC
330
3BF90
100
AcDbEntity
  8
30
 62
     0
440
 16777216
370
    -2
100
AcDbLine
 10
283.6074696875678
 20
28.34196461374086
 30
0.0
 11
379.6074696875678
 21
28.34196461374086
 31
0.0
  0
INSERT
  5
41EED
330
3BF90
100
AcDbEntity
  8
30
 62
     0
440
 16777216
370
    -2
100
AcDbBlockReference
  2
_OPEN
 10
281.6074696875678
 20
28.34196461374086
 30
0.0
 41
2.0
 42
2.0
 43
2.0
 50
180.0
  0
INSERT
  5
41EEE
330
3BF90
100
AcDbEntity
  8
30
 62
     0
440
 16777216
370
    -2
100
AcDbBlockReference
  2
_OPEN
 10
381.6074696875678
 20
28.34196461374086
 30
0.0
 41
2.0
 42
2.0
 43
2.0
  0
MTEXT
  5
41EEF
330
3BF90
100
AcDbEntity
  8
30
 62
     0
440
 16777216
100
AcDbMText
 10
331.8318557699658
 20
37.34196461374086
 30
0.0
 40
7.0
 41
0.0
 46
0.0
 71
     2
 72
     1
  1
\A1;100
 73
     1
 44
1.0
  0
POINT
  5
41EF0
330
3BF90
100
AcDbEntity
  8
DEFPOINTS
 62
     0
440
 16777216
100
AcDbPoint
 10
281.6074696875678
 20
137.8105899631007
 30
0.0
  0
POINT
  5
41EF1
330
3BF90
100
AcDbEntity
  8
DEFPOINTS
 62
     0
440
 16777216
100
AcDbPoint
 10
381.6074696875678
 20
137.8105899631007
 30
0.0
  0
POINT
  5
41EF2
330
3BF90
100
AcDbEntity
  8
DEFPOINTS
 62
     0
440
 16777216
100
AcDbPoint
 10
381.6074696875678
 20
28.34196461374086
 30
0.0
  0
ENDBLK
  5
3BF92
330
3BF90
100
AcDbEntity
  8
0
100
AcDbBlockEnd
  0
BLOCK
  5
3BF9D
330
3BF9C
100
AcDbEntity
  8
0
100
AcDbBlockBegin
  2
*D25
 70
     1
 10
0.0
 20
0.0
 30
0.0
  3
*D25
  1

  0
LINE
  5
4187C
330
3BF9C
100
AcDbEntity
  8
30
  6
Continuous
 62
     0
440
 16777216
370
    -2
100
AcDbLine
 10
382.50485843877
 20
190.1343618811019
 30
0.0
 11
395.2080005173424
 21
205.6921672142843
 31
0.0
  0
LINE
  5
4187D
330
3BF9C
100
AcDbEntity
  8
30
  6
Continuous
 62
     0
440
 16777216
370
    -2
100
AcDbLine
 10
395.2080005173424
 20
205.6921672142843
 30
0.0
 11
406.5413338506756
 21
205.6921672142843
 31
0.0
  0
LINE
  5
4187E
330
3BF9C
100
AcDbEntity
  8
30
  6
Continuous
 62
     0
440
 16777216
370
    -2
100
AcDbLine
 10
380.6074696875683
 20
187.8105899631007
 30
0.0
 11
381.239932604641
 21
188.5851806024411
 31
0.0
  0
INSERT
  5
4187F
330
3BF9C
100
AcDbEntity
  8
30
  6
Continuous
 62
     0
440
 16777216
370
    -2
100
AcDbBlockReference
  2
_OPEN
 10
381.239932604641
 20
188.5851806024411
 30
0.0
 41
2.0
 42
2.0
 43
2.0
 50
230.7679332543831
  0
MTEXT
  5
41880
330
3BF9C
100
AcDbEntity
  8
30
  6
Continuous
 62
     0
440
 16777216
100
AcDbMText
 10
397.2080005173426
 20
214.6921672142842
 30
0.0
 40
7.0
 41
0.0
 46
0.0
 71
     1
 72
     1
  1
\A1;R1
 73
     1
 44
1.0
  0
POINT
  5
41881
330
3BF9C
100
AcDbEntity
  8
DEFPOINTS
  6
Continuous
 62
     0
440
 16777216
100
AcDbPoint
 10
381.239932604641
 20
188.5851806024411
 30
0.0
  0
POINT
  5
41882
330
3BF9C
100
AcDbEntity
  8
DEFPOINTS
  6
Continuous
 62
     0
440
 16777216
100
AcDbPoint
 10
380.6074696875683
 20
187.8105899631007
 30
0.0
  0
ENDBLK
  5
3BF9E
330
3BF9C
100
AcDbEntity
  8
0
100
AcDbBlockEnd
  0
BLOCK
  5
3BFA7
330
3BFA6
100
AcDbEntity
  8
0
100
AcDbBlockBegin
  2
*D26
 70
     1
 10
0.0
 20
0.0
 30
0.0
  3
*D26
  1

  0
LINE
  5
41883
330
3BFA6
100
AcDbEntity
  8
30
  6
Continuous
 62
     0
440
 16777216
370
    -2
100
AcDbLine
 10
113.7604061807362
 20
195.3340548349148
 30
0.0
 11
113.953940929243
 21
193.3434407836431
 31
0.0
  0
LINE
  5
41884
330
3BFA6
100
AcDbEntity
  8
30
  6
Continuous
 62
     0
440
 16777216
370
    -2
100
AcDbLine
 10
112.792732438201
 20
205.2871250912863
 30
0.0
 11
110.6658546723909
 21
227.1632625736995
 31
0.0
  0
LINE
  5
41885
330
3BFA6
100
AcDbEntity
  8
30
  6
Continuous
 62
     0
440
 16777216
370
    -2
100
AcDbLine
 10
110.6658546723909
 20
227.1632625736995
 30
0.0
 11
124.3325213390576
 21
227.1632625736995
 31
0.0
  0
LINE
  5
41886
330
3BFA6
100
AcDbEntity
  8
30
  6
Continuous
 62
     0
440
 16777216
370
    -2
100
AcDbLine
 10
113.5668714322294
 20
197.3246688861865
 30
0.0
 11
112.9862671867078
 21
203.2965110400146
 31
0.0
  0
INSERT
  5
41887
330
3BFA6
100
AcDbEntity
  8
30
  6
Continuous
 62
     0
440
 16777216
370
    -2
100
AcDbBlockReference
  2
_OPEN
 10
113.5668714322294
 20
197.3246688861865
 30
0.0
 41
2.0
 42
2.0
 43
2.0
 50
95.55305163643586
  0
INSERT
  5
41888
330
3BFA6
100
AcDbEntity
  8
30
  6
Continuous
 62
     0
440
 16777216
370
    -2
100
AcDbBlockReference
  2
_OPEN
 10
112.9862671867078
 20
203.2965110400146
 30
0.0
 41
2.0
 42
2.0
 43
2.0
 50
275.5530516364359
  0
MTEXT
  5
41889
330
3BFA6
100
AcDbEntity
  8
30
  6
Continuous
 62
     0
440
 16777216
100
AcDbMText
 10
112.6658546723909
 20
236.1632625736995
 30
0.0
 40
7.0
 41
0.0
 46
0.0
 71
     1
 72
     1
  1
\A1;∅6
 73
     1
 44
1.0
  0
POINT
  5
4188A
330
3BFA6
100
AcDbEntity
  8
DEFPOINTS
  6
Continuous
 62
     0
440
 16777216
100
AcDbPoint
 10
112.9862671867078
 20
203.2965110400146
 30
0.0
  0
POINT
  5
4188B
330
3BFA6
100
AcDbEntity
  8
DEFPOINTS
  6
Continuous
 62
     0
440
 16777216
100
AcDbPoint
 10
113.5668714322294
 20
197.3246688861865
 30
0.0
  0
ENDBLK
  5
3BFA8
330
3BFA6
100
AcDbEntity
  8
0
100
AcDbBlockEnd
  0
BLOCK
  5
3BFB1
330
3BFB0
100
AcDbEntity
  8
0
100
AcDbBlockBegin
  2
*D27
 70
     1
 10
0.0
 20
0.0
 30
0.0
  3
*D27
  1

  0
LINE
  5
41F33
330
3BFB0
100
AcDbEntity
  8
30
 62
     0
440
 16777216
370
    -2
100
AcDbLine
 10
83.27656930946909
 20
122.3105899631007
 30
0.0
 11
83.27656930946909
 21
44.39034673760533
 31
0.0
  0
LINE
  5
41F34
330
3BFB0
100
AcDbEntity
  8
30
 62
     0
440
 16777216
370
    -2
100
AcDbLine
 10
113.2765693094691
 20
122.3105899631007
 30
0.0
 11
113.2765693094691
 21
44.39034673760533
 31
0.0
  0
LINE
  5
41F35
330
3BFB0
100
AcDbEntity
  8
30
 62
     0
440
 16777216
370
    -2
100
AcDbLine
 10
85.27656930946909
 20
44.89034673760534
 30
0.0
 11
111.2765693094691
 21
44.89034673760534
 31
0.0
  0
INSERT
  5
41F36
330
3BFB0
100
AcDbEntity
  8
30
 62
     0
440
 16777216
370
    -2
100
AcDbBlockReference
  2
_OPEN
 10
83.27656930946909
 20
44.89034673760534
 30
0.0
 41
2.0
 42
2.0
 43
2.0
 50
180.0
  0
INSERT
  5
41F37
330
3BFB0
100
AcDbEntity
  8
30
 62
     0
440
 16777216
370
    -2
100
AcDbBlockReference
  2
_OPEN
 10
113.2765693094691
 20
44.89034673760534
 30
0.0
 41
2.0
 42
2.0
 43
2.0
  0
MTEXT
  5
41F38
330
3BFB0
100
AcDbEntity
  8
30
 62
     0
440
 16777216
100
AcDbMText
 10
98.48872753605611
 20
53.89034673760534
 30
0.0
 40
7.0
 41
0.0
 46
0.0
 71
     2
 72
     1
  1
\A1;30
 73
     1
 44
1.0
  0
POINT
  5
41F39
330
3BFB0
100
AcDbEntity
  8
DEFPOINTS
 62
     0
440
 16777216
100
AcDbPoint
 10
83.27656930946909
 20
125.3105899631007
 30
0.0
  0
POINT
  5
41F3A
330
3BFB0
100
AcDbEntity
  8
DEFPOINTS
 62
     0
440
 16777216
100
AcDbPoint
 10
113.2765693094691
 20
125.3105899631007
 30
0.0
  0
POINT
  5
41F3B
330
3BFB0
100
AcDbEntity
  8
DEFPOINTS
 62
     0
440
 16777216
100
AcDbPoint
 10
113.2765693094691
 20
44.89034673760534
 30
0.0
  0
ENDBLK
  5
3BFB2
330
3BFB0
100
AcDbEntity
  8
0
100
AcDbBlockEnd
  0
BLOCK
  5
3BFBD
330
3BFBC
100
AcDbEntity
  8
0
100
AcDbBlockBegin
  2
*D28
 70
     1
 10
0.0
 20
0.0
 30
0.0
  3
*D28
  1

  0
LINE
  5
419CE
330
3BFBC
100
AcDbEntity
  8
30
 62
     0
440
 16777216
370
    -2
100
AcDbLine
 10
125.0387104426238
 20
200.3105899631008
 30
0.0
 11
224.2891404483303
 21
200.3105899631008
 31
0.0
  0
LINE
  5
419CF
330
3BFBC
100
AcDbEntity
  8
30
 62
     0
440
 16777216
370
    -2
100
AcDbLine
 10
125.0387104426238
 20
125.3105899631007
 30
0.0
 11
224.2891404483303
 21
125.3105899631007
 31
0.0
  0
LINE
  5
419D0
330
3BFBC
100
AcDbEntity
  8
30
440
 16777216
370
    -2
100
AcDbLine
 10
223.7891404483303
 20
197.3105899631007
 30
0.0
 11
223.7891404483303
 21
128.3105899631007
 31
0.0
  0
INSERT
  5
419D1
330
3BFBC
100
AcDbEntity
  8
30
440
 16777216
370
    -2
100
AcDbBlockReference
  2
_OPEN
 10
223.7891404483303
 20
200.3105899631008
 30
0.0
 41
3.0
 42
3.0
 43
3.0
 50
90.0
  0
INSERT
  5
419D2
330
3BFBC
100
AcDbEntity
  8
30
440
 16777216
370
    -2
100
AcDbBlockReference
  2
_OPEN
 10
223.7891404483303
 20
125.3105899631007
 30
0.0
 41
3.0
 42
3.0
 43
3.0
 50
270.0
  0
MTEXT
  5
419D3
330
3BFBC
100
AcDbEntity
  8
30
440
 16777216
100
AcDbMText
 10
213.7891404483303
 20
162.8105899631007
 30
0.0
 40
7.0
 41
0.0
 46
0.0
 71
     2
 72
     1
  1
\A1;75
 11
0.0000000000000001
 21
1.0
 31
0.0
 73
     1
 44
1.0
 90
        3
 63
     9
421
 13158600
 45
1.25
441
        0
  0
POINT
  5
419D4
330
3BFBC
100
AcDbEntity
  8
DEFPOINTS
 62
     0
440
 16777216
100
AcDbPoint
 10
124.0387104426238
 20
200.3105899631008
 30
0.0
  0
POINT
  5
419D5
330
3BFBC
100
AcDbEntity
  8
DEFPOINTS
 62
     0
440
 16777216
100
AcDbPoint
 10
124.0387104426238
 20
125.3105899631007
 30
0.0
  0
POINT
  5
419D6
330
3BFBC
100
AcDbEntity
  8
DEFPOINTS
 62
     0
440
 16777216
100
AcDbPoint
 10
223.7891404483303
 20
125.3105899631007
 30
0.0
  0
ENDBLK
  5
3BFBE
330
3BFBC
100
AcDbEntity
  8
0
100
AcDbBlockEnd
  0
BLOCK
  5
41622
330
41621
100
AcDbEntity
  8
0
100
AcDbBlockBegin
  2
*D29
 70
     1
 10
0.0
 20
0.0
 30
0.0
  3
*D29
  1

  0
LINE
  5
41972
330
41621
100
AcDbEntity
  8
30
 62
     0
440
 16777216
370
    -2
100
AcDbLine
 10
49.2765693094693
 20
526.8769900213396
 30
0.0
 11
49.2765693094693
 21
536.5864367847557
 31
0.0
  0
LINE
  5
41973
330
41621
100
AcDbEntity
  8
30
 62
     0
440
 16777216
370
    -2
100
AcDbLine
 10
147.2765693094686
 20
526.8769900213396
 30
0.0
 11
147.2765693094686
 21
536.5864367847557
 31
0.0
  0
LINE
  5
41974
330
41621
100
AcDbEntity
  8
30
440
 16777216
370
    -2
100
AcDbLine
 10
52.27656930946931
 20
536.0864367847557
 30
0.0
 11
144.2765693094686
 21
536.0864367847557
 31
0.0
  0
INSERT
  5
41975
330
41621
100
AcDbEntity
  8
30
440
 16777216
370
    -2
100
AcDbBlockReference
  2
_OPEN
 10
49.2765693094693
 20
536.0864367847557
 30
0.0
 41
3.0
 42
3.0
 43
3.0
 50
180.0
  0
INSERT
  5
41976
330
41621
100
AcDbEntity
  8
30
440
 16777216
370
    -2
100
AcDbBlockReference
  2
_OPEN
 10
147.2765693094686
 20
536.0864367847557
 30
0.0
 41
3.0
 42
3.0
 43
3.0
  0
MTEXT
  5
41977
330
41621
100
AcDbEntity
  8
30
440
 16777216
100
AcDbMText
 10
110.0726725489048
 20
542.5864367847557
 30
0.0
 40
7.0
 41
0.0
 46
0.0
 71
     5
 72
     1
  1
\A1;98
 73
     1
 44
1.0
 90
        3
 63
     9
421
 13158600
 45
1.25
441
        0
  0
POINT
  5
41978
330
41621
100
AcDbEntity
  8
DEFPOINTS
 62
     0
440
 16777216
100
AcDbPoint
 10
49.2765693094693
 20
525.8769900213398
 30
0.0
  0
POINT
  5
41979
330
41621
100
AcDbEntity
  8
DEFPOINTS
 62
     0
440
 16777216
100
AcDbPoint
 10
147.2765693094686
 20
525.8769900213398
 30
0.0
  0
POINT
  5
4197A
330
41621
100
AcDbEntity
  8
DEFPOINTS
 62
     0
440
 16777216
100
AcDbPoint
 10
147.2765693094686
 20
536.0864367847557
 30
0.0
  0
ENDBLK
  5
41623
330
41621
100
AcDbEntity
  8
0
100
AcDbBlockEnd
  0
BLOCK
  5
41D13
330
41D12
100
AcDbEntity
  8
0
100
AcDbBlockBegin
  2
*D30
 70
     1
 10
0.0
 20
0.0
 30
0.0
  3
*D30
  1

  0
LINE
  5
41D74
330
41D12
100
AcDbEntity
  8
30
 62
     0
440
 16777216
370
    -2
100
AcDbLine
 10
462.8017771638369
 20
590.8769910047896
 30
0.0
 11
515.3936472919395
 21
590.8769910047896
 31
0.0
  0
LINE
  5
41D75
330
41D12
100
AcDbEntity
  8
30
 62
     0
440
 16777216
370
    -2
100
AcDbLine
 10
462.8017771638369
 20
410.8769910047898
 30
0.0
 11
515.3936472919395
 21
410.8769910047898
 31
0.0
  0
LINE
  5
41D76
330
41D12
100
AcDbEntity
  8
30
440
 16777216
370
    -2
100
AcDbLine
 10
514.8936472919396
 20
587.8769910047894
 30
0.0
 11
514.8936472919396
 21
413.8769910047898
 31
0.0
  0
INSERT
  5
41D77
330
41D12
100
AcDbEntity
  8
30
440
 16777216
370
    -2
100
AcDbBlockReference
  2
_OPEN
 10
514.8936472919396
 20
590.8769910047896
 30
0.0
 41
3.0
 42
3.0
 43
3.0
 50
90.0
  0
INSERT
  5
41D78
330
41D12
100
AcDbEntity
  8
30
440
 16777216
370
    -2
100
AcDbBlockReference
  2
_OPEN
 10
514.8936472919396
 20
410.8769910047898
 30
0.0
 41
3.0
 42
3.0
 43
3.0
 50
270.0
  0
MTEXT
  5
41D79
330
41D12
100
AcDbEntity
  8
30
440
 16777216
100
AcDbMText
 10
508.3936472919396
 20
500.8769910047896
 30
0.0
 40
7.0
 41
0.0
 46
0.0
 71
     5
 72
     1
  1
\A1;180
 11
0.0000000000000001
 21
1.0
 31
0.0
 73
     1
 44
1.0
 90
        3
 63
     9
421
 13158600
 45
1.25
441
        0
  0
POINT
  5
41D7A
330
41D12
100
AcDbEntity
  8
DEFPOINTS
 62
     0
440
 16777216
100
AcDbPoint
 10
461.801777163837
 20
590.8769910047896
 30
0.0
  0
POINT
  5
41D7B
330
41D12
100
AcDbEntity
  8
DEFPOINTS
 62
     0
440
 16777216
100
AcDbPoint
 10
461.801777163837
 20
410.8769910047898
 30
0.0
  0
POINT
  5
41D7C
330
41D12
100
AcDbEntity
  8
DEFPOINTS
 62
     0
440
 16777216
100
AcDbPoint
 10
514.8936472919396
 20
410.8769910047898
 30
0.0
  0
ENDBLK
  5
41D14
330
41D12
100
AcDbEntity
  8
0
100
AcDbBlockEnd
  0
BLOCK
  5
41D1F
330
41D1E
100
AcDbEntity
  8
0
100
AcDbBlockBegin
  2
*D31
 70
     1
 10
0.0
 20
0.0
 30
0.0
  3
*D31
  1

  0
LINE
  5
41DFC
330
41D1E
100
AcDbEntity
  8
30
 62
     0
440
 16777216
370
    -2
100
AcDbLine
 10
285.8098851195138
 20
510.7125300045082
 30
0.0
 11
285.8098851195138
 21
343.9796203024803
 31
0.0
  0
LINE
  5
41DFD
330
41D1E
100
AcDbEntity
  8
30
 62
     0
440
 16777216
370
    -2
100
AcDbLine
 10
403.801777163837
 20
447.501770457451
 30
0.0
 11
403.801777163837
 21
343.9796203024803
 31
0.0
  0
LINE
  5
41DFE
330
41D1E
100
AcDbEntity
  8
30
440
 16777216
370
    -2
100
AcDbLine
 10
288.8098851195138
 20
344.4796203024803
 30
0.0
 11
400.8017771638368
 21
344.4796203024803
 31
0.0
  0
INSERT
  5
41DFF
330
41D1E
100
AcDbEntity
  8
30
440
 16777216
370
    -2
100
AcDbBlockReference
  2
_OPEN
 10
285.8098851195138
 20
344.4796203024803
 30
0.0
 41
3.0
 42
3.0
 43
3.0
 50
180.0
  0
INSERT
  5
41E00
330
41D1E
100
AcDbEntity
  8
30
440
 16777216
370
    -2
100
AcDbBlockReference
  2
_OPEN
 10
403.801777163837
 20
344.4796203024803
 30
0.0
 41
3.0
 42
3.0
 43
3.0
  0
MTEXT
  5
41E01
330
41D1E
100
AcDbEntity
  8
30
440
 16777216
100
AcDbMText
 10
344.8058311416754
 20
350.9796203024803
 30
0.0
 40
7.0
 41
0.0
 46
0.0
 71
     5
 72
     1
  1
\A1;118
 73
     1
 44
1.0
 90
        3
 63
     9
421
 13158600
 45
1.25
441
        0
  0
POINT
  5
41E02
330
41D1E
100
AcDbEntity
  8
DEFPOINTS
 62
     0
440
 16777216
100
AcDbPoint
 10
285.8098851195138
 20
511.7125300045081
 30
0.0
  0
POINT
  5
41E03
330
41D1E
100
AcDbEntity
  8
DEFPOINTS
 62
     0
440
 16777216
100
AcDbPoint
 10
403.801777163837
 20
448.5017704574508
 30
0.0
  0
POINT
  5
41E04
330
41D1E
100
AcDbEntity
  8
DEFPOINTS
 62
     0
440
 16777216
100
AcDbPoint
 10
403.801777163837
 20
344.4796203024803
 30
0.0
  0
ENDBLK
  5
41D20
330
41D1E
100
AcDbEntity
  8
0
100
AcDbBlockEnd
  0
BLOCK
  5
41D2B
330
41D2A
100
AcDbEntity
  8
0
100
AcDbBlockBegin
  2
*D32
 70
     1
 10
0.0
 20
0.0
 30
0.0
  3
*D32
  1

  0
LINE
  5
41D86
330
41D2A
100
AcDbEntity
  8
30
 62
     0
440
 16777216
370
    -2
100
AcDbLine
 10
403.801777163837
 20
448.8735370194442
 30
0.0
 11
403.801777163837
 21
378.1201753895641
 31
0.0
  0
LINE
  5
41D87
330
41D2A
100
AcDbEntity
  8
30
 62
     0
440
 16777216
370
    -2
100
AcDbLine
 10
460.8017771638369
 20
409.8769910047898
 30
0.0
 11
460.8017771638369
 21
378.1201753895641
 31
0.0
  0
LINE
  5
41D88
330
41D2A
100
AcDbEntity
  8
30
440
 16777216
370
    -2
100
AcDbLine
 10
406.8017771638369
 20
378.6201753895641
 30
0.0
 11
457.8017771638369
 21
378.6201753895641
 31
0.0
  0
INSERT
  5
41D89
330
41D2A
100
AcDbEntity
  8
30
440
 16777216
370
    -2
100
AcDbBlockReference
  2
_OPEN
 10
403.801777163837
 20
378.6201753895641
 30
0.0
 41
3.0
 42
3.0
 43
3.0
 50
180.0
  0
INSERT
  5
41D8A
330
41D2A
100
AcDbEntity
  8
30
440
 16777216
370
    -2
100
AcDbBlockReference
  2
_OPEN
 10
460.8017771638369
 20
378.6201753895641
 30
0.0
 41
3.0
 42
3.0
 43
3.0
  0
MTEXT
  5
41D8B
330
41D2A
100
AcDbEntity
  8
30
440
 16777216
100
AcDbMText
 10
432.3017771638369
 20
385.1201753895641
 30
0.0
 40
7.0
 41
0.0
 46
0.0
 71
     5
 72
     1
  1
\A1;57
 73
     1
 44
1.0
 90
        3
 63
     9
421
 13158600
 45
1.25
441
        0
  0
POINT
  5
41D8C
330
41D2A
100
AcDbEntity
  8
DEFPOINTS
 62
     0
440
 16777216
100
AcDbPoint
 10
403.801777163837
 20
449.8735370194442
 30
0.0
  0
POINT
  5
41D8D
330
41D2A
100
AcDbEntity
  8
DEFPOINTS
 62
     0
440
 16777216
100
AcDbPoint
 10
460.8017771638369
 20
410.8769910047898
 30
0.0
  0
POINT
  5
41D8E
330
41D2A
100
AcDbEntity
  8
DEFPOINTS
 62
     0
440
 16777216
100
AcDbPoint
 10
460.8017771638369
 20
378.6201753895641
 30
0.0
  0
ENDBLK
  5
41D2C
330
41D2A
100
AcDbEntity
  8
0
100
AcDbBlockEnd
  0
BLOCK
  5
41D37
330
41D36
100
AcDbEntity
  8
0
100
AcDbBlockBegin
  2
*D33
 70
     1
 10
0.0
 20
0.0
 30
0.0
  3
*D33
  1

  0
LINE
  5
41D8F
330
41D36
100
AcDbEntity
  8
30
 62
     0
440
 16777216
370
    -2
100
AcDbLine
 10
403.801777163837
 20
377.1201753895641
 30
0.0
 11
403.801777163837
 21
362.1437203558104
 31
0.0
  0
LINE
  5
41D90
330
41D36
100
AcDbEntity
  8
30
 62
     0
440
 16777216
370
    -2
100
AcDbLine
 10
308.8017771638367
 20
474.8769890378901
 30
0.0
 11
308.8017771638367
 21
362.1437203558104
 31
0.0
  0
LINE
  5
41D91
330
41D36
100
AcDbEntity
  8
30
440
 16777216
370
    -2
100
AcDbLine
 10
400.8017771638368
 20
362.6437203558105
 30
0.0
 11
311.8017771638367
 21
362.6437203558105
 31
0.0
  0
INSERT
  5
41D92
330
41D36
100
AcDbEntity
  8
30
440
 16777216
370
    -2
100
AcDbBlockReference
  2
_OPEN
 10
403.801777163837
 20
362.6437203558105
 30
0.0
 41
3.0
 42
3.0
 43
3.0
  0
INSERT
  5
41D93
330
41D36
100
AcDbEntity
  8
30
440
 16777216
370
    -2
100
AcDbBlockReference
  2
_OPEN
 10
308.8017771638367
 20
362.6437203558105
 30
0.0
 41
3.0
 42
3.0
 43
3.0
 50
180.0
  0
MTEXT
  5
41D94
330
41D36
100
AcDbEntity
  8
30
440
 16777216
100
AcDbMText
 10
356.3017771638369
 20
369.1437203558105
 30
0.0
 40
7.0
 41
0.0
 46
0.0
 71
     5
 72
     1
  1
\A1;95
 73
     1
 44
1.0
 90
        3
 63
     9
421
 13158600
 45
1.25
441
        0
  0
POINT
  5
41D95
330
41D36
100
AcDbEntity
  8
DEFPOINTS
 62
     0
440
 16777216
100
AcDbPoint
 10
403.801777163837
 20
378.1201753895641
 30
0.0
  0
POINT
  5
41D96
330
41D36
100
AcDbEntity
  8
DEFPOINTS
 62
     0
440
 16777216
100
AcDbPoint
 10
308.8017771638367
 20
475.8769890378901
 30
0.0
  0
POINT
  5
41D97
330
41D36
100
AcDbEntity
  8
DEFPOINTS
 62
     0
440
 16777216
100
AcDbPoint
 10
308.8017771638367
 20
362.6437203558105
 30
0.0
  0
ENDBLK
  5
41D38
330
41D36
100
AcDbEntity
  8
0
100
AcDbBlockEnd
  0
BLOCK
  5
41D43
330
41D42
100
AcDbEntity
  8
0
100
AcDbBlockBegin
  2
*D34
 70
     1
 10
0.0
 20
0.0
 30
0.0
  3
*D34
  1

  0
LINE
  5
41D98
330
41D42
100
AcDbEntity
  8
30
 62
     0
440
 16777216
370
    -2
100
AcDbLine
 10
403.801777163837
 20
409.8769895098466
 30
0.0
 11
403.801777163837
 21
378.1201753895641
 31
0.0
  0
LINE
  5
41D99
330
41D42
100
AcDbEntity
  8
30
 62
     0
440
 16777216
370
    -2
100
AcDbLine
 10
312.8017771638367
 20
448.87698903789
 30
0.0
 11
312.8017771638367
 21
378.1201753895641
 31
0.0
  0
LINE
  5
41D9A
330
41D42
100
AcDbEntity
  8
30
440
 16777216
370
    -2
100
AcDbLine
 10
400.8017771638368
 20
378.6201753895641
 30
0.0
 11
315.8017771638367
 21
378.6201753895641
 31
0.0
  0
INSERT
  5
41D9B
330
41D42
100
AcDbEntity
  8
30
440
 16777216
370
    -2
100
AcDbBlockReference
  2
_OPEN
 10
403.801777163837
 20
378.6201753895641
 30
0.0
 41
3.0
 42
3.0
 43
3.0
  0
INSERT
  5
41D9C
330
41D42
100
AcDbEntity
  8
30
440
 16777216
370
    -2
100
AcDbBlockReference
  2
_OPEN
 10
312.8017771638367
 20
378.6201753895641
 30
0.0
 41
3.0
 42
3.0
 43
3.0
 50
180.0
  0
MTEXT
  5
41D9D
330
41D42
100
AcDbEntity
  8
30
440
 16777216
100
AcDbMText
 10
358.3017771638369
 20
385.1201753895641
 30
0.0
 40
7.0
 41
0.0
 46
0.0
 71
     5
 72
     1
  1
\A1;91
 73
     1
 44
1.0
 90
        3
 63
     9
421
 13158600
 45
1.25
441
        0
  0
POINT
  5
41D9E
330
41D42
100
AcDbEntity
  8
DEFPOINTS
 62
     0
440
 16777216
100
AcDbPoint
 10
403.801777163837
 20
410.8769895098466
 30
0.0
  0
POINT
  5
41D9F
330
41D42
100
AcDbEntity
  8
DEFPOINTS
 62
     0
440
 16777216
100
AcDbPoint
 10
312.8017771638367
 20
449.8769890378901
 30
0.0
  0
POINT
  5
41DA0
330
41D42
100
AcDbEntity
  8
DEFPOINTS
 62
     0
440
 16777216
100
AcDbPoint
 10
312.8017771638367
 20
378.6201753895641
 30
0.0
  0
ENDBLK
  5
41D44
330
41D42
100
AcDbEntity
  8
0
100
AcDbBlockEnd
  0
BLOCK
  5
41D4F
330
41D4E
100
AcDbEntity
  8
0
100
AcDbBlockBegin
  2
*D35
 70
     1
 10
0.0
 20
0.0
 30
0.0
  3
*D35
  1

  0
LINE
  5
41DA1
330
41D4E
100
AcDbEntity
  8
30
 62
     0
440
 16777216
370
    -2
100
AcDbLine
 10
308.8017771638367
 20
472.8769890378901
 30
0.0
 11
308.8017771638367
 21
362.1437203558104
 31
0.0
  0
LINE
  5
41DA2
330
41D4E
100
AcDbEntity
  8
30
 62
     0
440
 16777216
370
    -2
100
AcDbLine
 10
302.3017771638367
 20
475.3769890378896
 30
0.0
 11
302.3017771638367
 21
362.1437203558104
 31
0.0
  0
LINE
  5
41DA3
330
41D4E
100
AcDbEntity
  8
30
 62
     0
440
 16777216
370
    -2
100
AcDbLine
 10
310.8017771638367
 20
362.6437203558105
 30
0.0
 11
312.8017771638367
 21
362.6437203558105
 31
0.0
  0
LINE
  5
41DA4
330
41D4E
100
AcDbEntity
  8
30
 62
     0
440
 16777216
370
    -2
100
AcDbLine
 10
300.3017771638367
 20
362.6437203558105
 30
0.0
 11
259.8017771638367
 21
362.6437203558105
 31
0.0
  0
LINE
  5
41DA5
330
41D4E
100
AcDbEntity
  8
30
 62
     0
440
 16777216
370
    -2
100
AcDbLine
 10
308.8017771638367
 20
362.6437203558105
 30
0.0
 11
302.3017771638367
 21
362.6437203558105
 31
0.0
  0
INSERT
  5
41DA6
330
41D4E
100
AcDbEntity
  8
30
 62
     0
440
 16777216
370
    -2
100
AcDbBlockReference
  2
_OPEN
 10
308.8017771638367
 20
362.6437203558105
 30
0.0
 41
2.0
 42
2.0
 43
2.0
 50
180.0
  0
INSERT
  5
41DA7
330
41D4E
100
AcDbEntity
  8
30
 62
     0
440
 16777216
370
    -2
100
AcDbBlockReference
  2
_OPEN
 10
302.3017771638367
 20
362.6437203558105
 30
0.0
 41
2.0
 42
2.0
 43
2.0
  0
MTEXT
  5
41DA8
330
41D4E
100
AcDbEntity
  8
30
 62
     0
440
 16777216
100
AcDbMText
 10
268.8017771638367
 20
368.1437203558104
 30
0.0
 40
7.0
 41
0.0
 46
0.0
 71
     5
 72
     1
  1
\A1;6.5
 73
     1
 44
1.0
  0
POINT
  5
41DA9
330
41D4E
100
AcDbEntity
  8
DEFPOINTS
 62
     0
440
 16777216
100
AcDbPoint
 10
308.8017771638367
 20
475.8769890378901
 30
0.0
  0
POINT
  5
41DAA
330
41D4E
100
AcDbEntity
  8
DEFPOINTS
 62
     0
440
 16777216
100
AcDbPoint
 10
302.3017771638367
 20
478.3769890378898
 30
0.0
  0
POINT
  5
41DAB
330
41D4E
100
AcDbEntity
  8
DEFPOINTS
 62
     0
440
 16777216
100
AcDbPoint
 10
302.3017771638367
 20
362.6437203558105
 30
0.0
  0
ENDBLK
  5
41D50
330
41D4E
100
AcDbEntity
  8
0
100
AcDbBlockEnd
  0
BLOCK
  5
41D5D
330
41D5C
100
AcDbEntity
  8
0
100
AcDbBlockBegin
  2
*D36
 70
     1
 10
0.0
 20
0.0
 30
0.0
  3
*D36
  1

  0
LINE
  5
41DAC
330
41D5C
100
AcDbEntity
  8
30
 62
     0
440
 16777216
370
    -2
100
AcDbLine
 10
307.8017771638367
 20
525.8769890378901
 30
0.0
 11
268.7728396462132
 21
525.8769890378901
 31
0.0
  0
LINE
  5
41DAD
330
41D5C
100
AcDbEntity
  8
30
 62
     0
440
 16777216
370
    -2
100
AcDbLine
 10
307.8017771638367
 20
475.8769890378901
 30
0.0
 11
268.7728396462132
 21
475.8769890378901
 31
0.0
  0
LINE
  5
41DAE
330
41D5C
100
AcDbEntity
  8
30
440
 16777216
370
    -2
100
AcDbLine
 10
269.2728396462133
 20
522.8769890378901
 30
0.0
 11
269.2728396462133
 21
478.87698903789
 31
0.0
  0
INSERT
  5
41DAF
330
41D5C
100
AcDbEntity
  8
30
440
 16777216
370
    -2
100
AcDbBlockReference
  2
_OPEN
 10
269.2728396462133
 20
525.8769890378901
 30
0.0
 41
3.0
 42
3.0
 43
3.0
 50
90.0
  0
INSERT
  5
41DB0
330
41D5C
100
AcDbEntity
  8
30
440
 16777216
370
    -2
100
AcDbBlockReference
  2
_OPEN
 10
269.2728396462133
 20
475.8769890378901
 30
0.0
 41
3.0
 42
3.0
 43
3.0
 50
270.0
  0
MTEXT
  5
41DB1
330
41D5C
100
AcDbEntity
  8
30
440
 16777216
100
AcDbMText
 10
262.7728396462132
 20
500.8769890378901
 30
0.0
 40
7.0
 41
0.0
 46
0.0
 71
     5
 72
     1
  1
\A1;50
 11
0.0000000000000001
 21
1.0
 31
0.0
 73
     1
 44
1.0
 90
        3
 63
     9
421
 13158600
 45
1.25
441
        0
  0
POINT
  5
41DB2
330
41D5C
100
AcDbEntity
  8
DEFPOINTS
 62
     0
440
 16777216
100
AcDbPoint
 10
308.8017771638367
 20
525.8769890378901
 30
0.0
  0
POINT
  5
41DB3
330
41D5C
100
AcDbEntity
  8
DEFPOINTS
 62
     0
440
 16777216
100
AcDbPoint
 10
308.8017771638367
 20
475.8769890378901
 30
0.0
  0
POINT
  5
41DB4
330
41D5C
100
AcDbEntity
  8
DEFPOINTS
 62
     0
440
 16777216
100
AcDbPoint
 10
269.2728396462133
 20
475.8769890378901
 30
0.0
  0
ENDBLK
  5
41D5E
330
41D5C
100
AcDbEntity
  8
0
100
AcDbBlockEnd
  0
BLOCK
  5
41D69
330
41D68
100
AcDbEntity
  8
0
100
AcDbBlockBegin
  2
*D37
 70
     1
 10
0.0
 20
0.0
 30
0.0
  3
*D37
  1

  0
LINE
  5
41DB5
330
41D68
100
AcDbEntity
  8
30
 62
     0
440
 16777216
370
    -2
100
AcDbLine
 10
463.065610540365
 20
551.9769900126335
 30
0.0
 11
495.232737615961
 21
551.9769900126335
 31
0.0
  0
LINE
  5
41DB6
330
41D68
100
AcDbEntity
  8
30
 62
     0
440
 16777216
370
    -2
100
AcDbLine
 10
462.759587757685
 20
449.9274209129806
 30
0.0
 11
495.232737615961
 21
449.9274209129806
 31
0.0
  0
LINE
  5
41DB7
330
41D68
100
AcDbEntity
  8
30
440
 16777216
370
    -2
100
AcDbLine
 10
494.732737615961
 20
548.9769900126336
 30
0.0
 11
494.732737615961
 21
452.9274209129806
 31
0.0
  0
INSERT
  5
41DB8
330
41D68
100
AcDbEntity
  8
30
440
 16777216
370
    -2
100
AcDbBlockReference
  2
_OPEN
 10
494.732737615961
 20
551.9769900126335
 30
0.0
 41
3.0
 42
3.0
 43
3.0
 50
90.0
  0
INSERT
  5
41DB9
330
41D68
100
AcDbEntity
  8
30
440
 16777216
370
    -2
100
AcDbBlockReference
  2
_OPEN
 10
494.732737615961
 20
449.9274209129806
 30
0.0
 41
3.0
 42
3.0
 43
3.0
 50
270.0
  0
MTEXT
  5
41DBA
330
41D68
100
AcDbEntity
  8
30
440
 16777216
100
AcDbMText
 10
488.2327376159608
 20
500.9522054628073
 30
0.0
 40
7.0
 41
0.0
 46
0.0
 71
     5
 72
     1
  1
\A1;102
 11
0.0000000000000001
 21
1.0
 31
0.0
 73
     1
 44
1.0
 90
        3
 63
     9
421
 13158600
 45
1.25
441
        0
  0
POINT
  5
41DBB
330
41D68
100
AcDbEntity
  8
DEFPOINTS
 62
     0
440
 16777216
100
AcDbPoint
 10
462.065610540365
 20
551.9769900126335
 30
0.0
  0
POINT
  5
41DBC
330
41D68
100
AcDbEntity
  8
DEFPOINTS
 62
     0
440
 16777216
100
AcDbPoint
 10
461.759587757685
 20
449.9274209129806
 30
0.0
  0
POINT
  5
41DBD
330
41D68
100
AcDbEntity
  8
DEFPOINTS
 62
     0
440
 16777216
100
AcDbPoint
 10
494.732737615961
 20
449.9274209129806
 30
0.0
  0
ENDBLK
  5
41D6A
330
41D68
100
AcDbEntity
  8
0
100
AcDbBlockEnd
  0
BLOCK
  5
41E07
330
41E06
100
AcDbEntity
  8
0
100
AcDbBlockBegin
  2
*D38
 70
     1
 10
0.0
 20
0.0
 30
0.0
  3
*D38
  1

  0
LINE
  5
41ECF
330
41E06
100
AcDbEntity
  8
30
 62
     0
440
 16777216
370
    -2
100
AcDbLine
 10
55.28065204906853
 20
130.0493732667007
 30
0.0
 11
55.28065204906853
 21
25.17286869494002
 31
0.0
  0
LINE
  5
41ED0
330
41E06
100
AcDbEntity
  8
30
 62
     0
440
 16777216
370
    -2
100
AcDbLine
 10
141.2806520490685
 20
130.5493732667007
 30
0.0
 11
141.2806520490685
 21
25.17286869494002
 31
0.0
  0
LINE
  5
41ED1
330
41E06
100
AcDbEntity
  8
30
440
 16777216
370
    -2
100
AcDbLine
 10
58.28065204906852
 20
25.67286869494001
 30
0.0
 11
138.2806520490685
 21
25.67286869494001
 31
0.0
  0
INSERT
  5
41ED2
330
41E06
100
AcDbEntity
  8
30
440
 16777216
370
    -2
100
AcDbBlockReference
  2
_OPEN
 10
55.28065204906853
 20
25.67286869494001
 30
0.0
 41
3.0
 42
3.0
 43
3.0
 50
180.0
  0
INSERT
  5
41ED3
330
41E06
100
AcDbEntity
  8
30
440
 16777216
370
    -2
100
AcDbBlockReference
  2
_OPEN
 10
141.2806520490685
 20
25.67286869494001
 30
0.0
 41
3.0
 42
3.0
 43
3.0
  0
MTEXT
  5
41ED4
330
41E06
100
AcDbEntity
  8
30
440
 16777216
100
AcDbMText
 10
98.28065204906851
 20
32.17286869494002
 30
0.0
 40
7.0
 41
0.0
 46
0.0
 71
     5
 72
     1
  1
\A1;86
 73
     1
 44
1.0
 90
        3
 63
     9
421
 13158600
 45
1.25
441
        0
  0
POINT
  5
41ED5
330
41E06
100
AcDbEntity
  8
DEFPOINTS
 62
     0
440
 16777216
100
AcDbPoint
 10
55.28065204906853
 20
131.0493732667007
 30
0.0
  0
POINT
  5
41ED6
330
41E06
100
AcDbEntity
  8
DEFPOINTS
 62
     0
440
 16777216
100
AcDbPoint
 10
141.2806520490685
 20
131.5493732667007
 30
0.0
  0
POINT
  5
41ED7
330
41E06
100
AcDbEntity
  8
DEFPOINTS
 62
     0
440
 16777216
100
AcDbPoint
 10
141.2806520490685
 20
25.67286869494001
 30
0.0
  0
ENDBLK
  5
41E08
330
41E06
100
AcDbEntity
  8
0
100
AcDbBlockEnd
  0
BLOCK
  5
41E42
330
41E41
100
AcDbEntity
  8
0
100
AcDbBlockBegin
  2
*D39
 70
     1
 10
0.0
 20
0.0
 30
0.0
  3
*D39
  1

  0
LINE
  5
41E44
330
41E41
100
AcDbEntity
  8
30
 62
     0
440
 16777216
370
    -2
100
AcDbLine
 10
114.2765693094691
 20
200.3105899631008
 30
0.0
 11
230.5560825147832
 21
200.3105899631008
 31
0.0
  0
LINE
  5
41E45
330
41E41
100
AcDbEntity
  8
30
 62
     0
440
 16777216
370
    -2
100
AcDbLine
 10
114.2765693094691
 20
125.3105899631007
 30
0.0
 11
230.5560825147832
 21
125.3105899631006
 31
0.0
  0
LINE
  5
41E46
330
41E41
100
AcDbEntity
  8
30
440
 16777216
370
    -2
100
AcDbLine
 10
230.0560825147832
 20
197.3105899631008
 30
0.0
 11
230.0560825147832
 21
128.3105899631006
 31
0.0
  0
INSERT
  5
41E47
330
41E41
100
AcDbEntity
  8
30
440
 16777216
370
    -2
100
AcDbBlockReference
  2
_OPEN
 10
230.0560825147832
 20
200.3105899631008
 30
0.0
 41
3.0
 42
3.0
 43
3.0
 50
90.0
  0
INSERT
  5
41E48
330
41E41
100
AcDbEntity
  8
30
440
 16777216
370
    -2
100
AcDbBlockReference
  2
_OPEN
 10
230.0560825147832
 20
125.3105899631006
 30
0.0
 41
3.0
 42
3.0
 43
3.0
 50
270.0
  0
MTEXT
  5
41E49
330
41E41
100
AcDbEntity
  8
30
440
 16777216
100
AcDbMText
 10
223.5560825147831
 20
162.8105899631007
 30
0.0
 40
7.0
 41
0.0
 46
0.0
 71
     5
 72
     1
  1
\A1;75
 11
0.0000000000000001
 21
1.0
 31
0.0
 73
     1
 44
1.0
 90
        3
 63
     9
421
 13158600
 45
1.25
441
        0
  0
POINT
  5
41E4A
330
41E41
100
AcDbEntity
  8
DEFPOINTS
 62
     0
440
 16777216
100
AcDbPoint
 10
113.2765693094691
 20
200.3105899631008
 30
0.0
  0
POINT
  5
41E4B
330
41E41
100
AcDbEntity
  8
DEFPOINTS
 62
     0
440
 16777216
100
AcDbPoint
 10
113.2765693094691
 20
125.3105899631007
 30
0.0
  0
POINT
  5
41E4C
330
41E41
100
AcDbEntity
  8
DEFPOINTS
 62
     0
440
 16777216
100
AcDbPoint
 10
230.0560825147832
 20
125.3105899631006
 30
0.0
  0
ENDBLK
  5
41E43
330
41E41
100
AcDbEntity
  8
0
100
AcDbBlockEnd
  0
BLOCK
  5
41E83
330
41E82
100
AcDbEntity
  8
0
100
AcDbBlockBegin
  2
*D40
 70
     1
 10
0.0
 20
0.0
 30
0.0
  3
*D40
  1

  0
LINE
  5
41EE1
330
41E82
100
AcDbEntity
  8
30
 62
     0
440
 16777216
370
    -2
100
AcDbLine
 10
55.28065204906853
 20
130.5493732667007
 30
0.0
 11
55.28065204906853
 21
44.39034673760533
 31
0.0
  0
LINE
  5
41EE2
330
41E82
100
AcDbEntity
  8
30
 62
     0
440
 16777216
370
    -2
100
AcDbLine
 10
83.27656930946909
 20
124.3105899631007
 30
0.0
 11
83.27656930946909
 21
44.39034673760533
 31
0.0
  0
LINE
  5
41EE3
330
41E82
100
AcDbEntity
  8
30
440
 16777216
370
    -2
100
AcDbLine
 10
58.28065204906852
 20
44.89034673760534
 30
0.0
 11
80.27656930946909
 21
44.89034673760534
 31
0.0
  0
INSERT
  5
41EE4
330
41E82
100
AcDbEntity
  8
30
440
 16777216
370
    -2
100
AcDbBlockReference
  2
_OPEN
 10
55.28065204906853
 20
44.89034673760534
 30
0.0
 41
3.0
 42
3.0
 43
3.0
 50
180.0
  0
INSERT
  5
41EE5
330
41E82
100
AcDbEntity
  8
30
440
 16777216
370
    -2
100
AcDbBlockReference
  2
_OPEN
 10
83.27656930946909
 20
44.89034673760534
 30
0.0
 41
3.0
 42
3.0
 43
3.0
  0
MTEXT
  5
41EE6
330
41E82
100
AcDbEntity
  8
30
440
 16777216
100
AcDbMText
 10
69.27861067926881
 20
51.39034673760534
 30
0.0
 40
7.0
 41
0.0
 46
0.0
 71
     5
 72
     1
  1
\A1;28
 73
     1
 44
1.0
 90
        3
 63
     9
421
 13158600
 45
1.25
441
        0
  0
POINT
  5
41EE7
330
41E82
100
AcDbEntity
  8
DEFPOINTS
 62
     0
440
 16777216
100
AcDbPoint
 10
55.28065204906853
 20
131.5493732667007
 30
0.0
  0
POINT
  5
41EE8
330
41E82
100
AcDbEntity
  8
DEFPOINTS
 62
     0
440
 16777216
100
AcDbPoint
 10
83.27656930946909
 20
125.3105899631007
 30
0.0
  0
POINT
  5
41EE9
330
41E82
100
AcDbEntity
  8
DEFPOINTS
 62
     0
440
 16777216
100
AcDbPoint
 10
83.27656930946909
 20
44.89034673760534
 30
0.0
  0
ENDBLK
  5
41E84
330
41E82
100
AcDbEntity
  8
0
100
AcDbBlockEnd
  0
BLOCK
  5
41F49
330
41F48
100
AcDbEntity
  8
0
100
AcDbBlockBegin
  2
*D41
 70
     1
 10
0.0
 20
0.0
 30
0.0
  3
*D41
  1

  0
LINE
  5
41F4A
330
41F48
100
AcDbEntity
  8
30
 62
     0
440
 16777216
370
    -2
100
AcDbLine
 10
551.9644731501814
 20
678.839475452481
 30
0.0
 11
576.9644731501816
 21
678.839475452481
 31
0.0
  0
LINE
  5
41F4B
330
41F48
100
AcDbEntity
  8
30
 62
     0
440
 16777216
370
    -2
100
AcDbLine
 10
557.4644731501814
 20
695.3394754524813
 30
0.0
 11
576.9644731501816
 21
695.3394754524813
 31
0.0
  0
LINE
  5
41F4C
330
41F48
100
AcDbEntity
  8
30
440
 16777216
370
    -2
100
AcDbLine
 10
576.4644731501816
 20
692.3394754524813
 30
0.0
 11
576.4644731501816
 21
681.8394754524811
 31
0.0
  0
LINE
  5
41F4D
330
41F48
100
AcDbEntity
  8
30
440
 16777216
370
    -2
100
AcDbLine
 10
576.4644731501816
 20
678.839475452481
 30
0.0
 11
576.4644731501816
 21
614.3061421191474
 31
0.0
  0
INSERT
  5
41F4E
330
41F48
100
AcDbEntity
  8
30
440
 16777216
370
    -2
100
AcDbBlockReference
  2
_OPEN
 10
576.4644731501816
 20
695.3394754524813
 30
0.0
 41
3.0
 42
3.0
 43
3.0
 50
90.0
  0
INSERT
  5
41F4F
330
41F48
100
AcDbEntity
  8
30
440
 16777216
370
    -2
100
AcDbBlockReference
  2
_OPEN
 10
576.4644731501816
 20
678.839475452481
 30
0.0
 41
3.0
 42
3.0
 43
3.0
 50
270.0
  0
MTEXT
  5
41F50
330
41F48
100
AcDbEntity
  8
30
440
 16777216
100
AcDbMText
 10
566.4644731501814
 20
645.0728087858142
 30
0.0
 40
7.0
 41
0.0
 46
0.0
 71
     2
 72
     1
  1
\A1;16.5 (max.)
 11
0.0000000000000001
 21
1.0
 31
0.0
 73
     1
 44
1.0
 90
        3
 63
     9
421
 13158600
 45
1.25
441
        0
  0
POINT
  5
41F51
330
41F48
100
AcDbEntity
  8
DEFPOINTS
 62
     0
440
 16777216
100
AcDbPoint
 10
550.9644731501814
 20
678.839475452481
 30
0.0
  0
POINT
  5
41F52
330
41F48
100
AcDbEntity
  8
DEFPOINTS
 62
     0
440
 16777216
100
AcDbPoint
 10
556.4644731501814
 20
695.3394754524813
 30
0.0
  0
POINT
  5
41F53
330
41F48
100
AcDbEntity
  8
DEFPOINTS
 62
     0
440
 16777216
100
AcDbPoint
 10
576.4644731501816
 20
695.3394754524813
 30
0.0
  0
ENDBLK
  5
41F54
330
41F48
100
AcDbEntity
  8
0
100
AcDbBlockEnd
  0
BLOCK
  5
41F56
330
41F55
100
AcDbEntity
  8
0
100
AcDbBlockBegin
  2
*D42
 70
     1
 10
0.0
 20
0.0
 30
0.0
  3
*D42
  1

  0
LINE
  5
41F57
330
41F55
100
AcDbEntity
  8
30
 62
     0
440
 16777216
370
    -2
100
AcDbLine
 10
545.9702585356455
 20
680.3317304530611
 30
0.0
 11
541.9586877647144
 21
677.3472204517013
 31
0.0
  0
LINE
  5
41F58
330
41F55
100
AcDbEntity
  8
30
 62
     0
440
 16777216
370
    -2
100
AcDbLine
 10
540.3540594562908
 20
676.1534164511192
 30
0.0
 11
522.0073385984838
 21
662.5039073139361
 31
0.0
  0
LINE
  5
41F59
330
41F55
100
AcDbEntity
  8
30
 62
     0
440
 16777216
370
    -2
100
AcDbLine
 10
522.0073385984838
 20
662.5039073139361
 30
0.0
 11
508.3406719318173
 21
662.5039073139361
 31
0.0
  0
INSERT
  5
41F5A
330
41F55
100
AcDbEntity
  8
30
 62
     0
440
 16777216
370
    -2
100
AcDbBlockReference
  2
_OPEN
 10
547.5748868440692
 20
681.5255344536431
 30
0.0
 41
2.0
 42
2.0
 43
2.0
 50
36.64834048539536
  0
INSERT
  5
41F5B
330
41F55
100
AcDbEntity
  8
30
 62
     0
440
 16777216
370
    -2
100
AcDbBlockReference
  2
_OPEN
 10
540.3540594562908
 20
676.1534164511192
 30
0.0
 41
2.0
 42
2.0
 43
2.0
 50
216.6483404853953
  0
MTEXT
  5
41F5C
330
41F55
100
AcDbEntity
  8
30
 62
     0
440
 16777216
100
AcDbMText
 10
514.1740052651507
 20
668.003907313936
 30
0.0
 40
7.0
 41
0.0
 46
0.0
 71
     5
 72
     1
  1
\A1;∅9
 73
     1
 44
1.0
  0
POINT
  5
41F5D
330
41F55
100
AcDbEntity
  8
DEFPOINTS
 62
     0
440
 16777216
100
AcDbPoint
 10
540.3540594562908
 20
676.1534164511192
 30
0.0
  0
POINT
  5
41F5E
330
41F55
100
AcDbEntity
  8
DEFPOINTS
 62
     0
440
 16777216
100
AcDbPoint
 10
547.5748868440692
 20
681.5255344536431
 30
0.0
  0
ENDBLK
  5
41F5F
330
41F55
100
AcDbEntity
  8
0
100
AcDbBlockEnd
  0
BLOCK
  5
41F61
330
41F60
100
AcDbEntity
  8
0
100
AcDbBlockBegin
  2
*D43
 70
     1
 10
0.0
 20
0.0
 30
0.0
  3
*D43
  1

  0
LINE
  5
41F62
330
41F60
100
AcDbEntity
  8
30
 62
     0
440
 16777216
370
    -2
100
AcDbLine
 10
531.4644731501814
 20
655.839475452481
 30
0.0
 11
531.4644731501814
 21
636.1731546024816
 31
0.0
  0
LINE
  5
41F63
330
41F60
100
AcDbEntity
  8
30
 62
     0
440
 16777216
370
    -2
100
AcDbLine
 10
556.4644731501814
 20
655.839475452481
 30
0.0
 11
556.4644731501814
 21
636.1731546024816
 31
0.0
  0
LINE
  5
41F64
330
41F60
100
AcDbEntity
  8
30
 62
     0
440
 16777216
370
    -2
100
AcDbLine
 10
554.4644731501814
 20
636.6731546024816
 30
0.0
 11
533.4644731501814
 21
636.6731546024816
 31
0.0
  0
LINE
  5
41F65
330
41F60
100
AcDbEntity
  8
30
 62
     0
440
 16777216
370
    -2
100
AcDbLine
 10
531.4644731501814
 20
636.6731546024816
 30
0.0
 11
476.9311398168478
 21
636.6731546024816
 31
0.0
  0
INSERT
  5
41F66
330
41F60
100
AcDbEntity
  8
30
 62
     0
440
 16777216
370
    -2
100
AcDbBlockReference
  2
_OPEN
 10
556.4644731501814
 20
636.6731546024816
 30
0.0
 41
2.0
 42
2.0
 43
2.0
  0
INSERT
  5
41F67
330
41F60
100
AcDbEntity
  8
30
 62
     0
440
 16777216
370
    -2
100
AcDbBlockReference
  2
_OPEN
 10
531.4644731501814
 20
636.6731546024816
 30
0.0
 41
2.0
 42
2.0
 43
2.0
 50
180.0
  0
MTEXT
  5
41F68
330
41F60
100
AcDbEntity
  8
30
 62
     0
440
 16777216
100
AcDbMText
 10
503.1978064835144
 20
645.6731546024816
 30
0.0
 40
7.0
 41
0.0
 46
0.0
 71
     2
 72
     1
  1
\A1;25 (max.)
 73
     1
 44
1.0
  0
POINT
  5
41F69
330
41F60
100
AcDbEntity
  8
DEFPOINTS
 62
     0
440
 16777216
100
AcDbPoint
 10
531.4644731501814
 20
658.8394754524809
 30
0.0
  0
POINT
  5
41F6A
330
41F60
100
AcDbEntity
  8
DEFPOINTS
 62
     0
440
 16777216
100
AcDbPoint
 10
556.4644731501814
 20
658.8394754524809
 30
0.0
  0
POINT
  5
41F6B
330
41F60
100
AcDbEntity
  8
DEFPOINTS
 62
     0
440
 16777216
100
AcDbPoint
 10
556.4644731501814
 20
636.6731546024816
 30
0.0
  0
ENDBLK
  5
41F6C
330
41F60
100
AcDbEntity
  8
0
100
AcDbBlockEnd
  0
BLOCK
  5
41F86
330
41F85
100
AcDbEntity
  8
0
100
AcDbBlockBegin
  2
*D45
 70
     1
 10
0.0
 20
0.0
 30
0.0
  3
*D45
  1

  0
LINE
  5
41FAA
330
41F85
100
AcDbEntity
  8
30
 62
     0
440
 16777216
370
    -2
100
AcDbLine
 10
555.4760105998277
 20
679.4090970687159
 30
0.0
 11
580.4760105998278
 21
679.4090970687159
 31
0.0
  0
LINE
  5
41FAB
330
41F85
100
AcDbEntity
  8
30
 62
     0
440
 16777216
370
    -2
100
AcDbLine
 10
560.9760105998277
 20
695.9090970687161
 30
0.0
 11
580.4760105998278
 21
695.9090970687161
 31
0.0
  0
LINE
  5
41FAC
330
41F85
100
AcDbEntity
  8
30
440
 16777216
370
    -2
100
AcDbLine
 10
579.9760105998278
 20
692.9090970687162
 30
0.0
 11
579.9760105998278
 21
682.4090970687159
 31
0.0
  0
LINE
  5
41FAD
330
41F85
100
AcDbEntity
  8
30
440
 16777216
370
    -2
100
AcDbLine
 10
579.9760105998278
 20
679.4090970687159
 30
0.0
 11
579.9760105998278
 21
614.8757637353822
 31
0.0
  0
INSERT
  5
41FAE
330
41F85
100
AcDbEntity
  8
30
440
 16777216
370
    -2
100
AcDbBlockReference
  2
_OPEN
 10
579.9760105998278
 20
695.9090970687161
 30
0.0
 41
3.0
 42
3.0
 43
3.0
 50
90.0
  0
INSERT
  5
41FAF
330
41F85
100
AcDbEntity
  8
30
440
 16777216
370
    -2
100
AcDbBlockReference
  2
_OPEN
 10
579.9760105998278
 20
679.4090970687159
 30
0.0
 41
3.0
 42
3.0
 43
3.0
 50
270.0
  0
MTEXT
  5
41FB0
330
41F85
100
AcDbEntity
  8
30
440
 16777216
100
AcDbMText
 10
569.9760105998278
 20
645.642430402049
 30
0.0
 40
7.0
 41
0.0
 46
0.0
 71
     2
 72
     1
  1
\A1;16.5 (max.)
 11
0.0000000000000001
 21
1.0
 31
0.0
 73
     1
 44
1.0
 90
        3
 63
     9
421
 13158600
 45
1.25
441
        0
  0
POINT
  5
41FB1
330
41F85
100
AcDbEntity
  8
DEFPOINTS
 62
     0
440
 16777216
100
AcDbPoint
 10
554.4760105998277
 20
679.4090970687159
 30
0.0
  0
POINT
  5
41FB2
330
41F85
100
AcDbEntity
  8
DEFPOINTS
 62
     0
440
 16777216
100
AcDbPoint
 10
559.9760105998277
 20
695.9090970687161
 30
0.0
  0
POINT
  5
41FB3
330
41F85
100
AcDbEntity
  8
DEFPOINTS
 62
     0
440
 16777216
100
AcDbPoint
 10
579.9760105998278
 20
695.9090970687161
 30
0.0
  0
ENDBLK
  5
41F87
330
41F85
100
AcDbEntity
  8
0
100
AcDbBlockEnd
  0
BLOCK
  5
41F93
330
41F92
100
AcDbEntity
  8
0
100
AcDbBlockBegin
  2
*D46
 70
     1
 10
0.0
 20
0.0
 30
0.0
  3
*D46
  1

  0
LINE
  5
41FB4
330
41F92
100
AcDbEntity
  8
30
 62
     0
440
 16777216
370
    -2
100
AcDbLine
 10
549.4817959852919
 20
680.901352069296
 30
0.0
 11
545.4702252143609
 21
677.9168420679362
 31
0.0
  0
LINE
  5
41FB5
330
41F92
100
AcDbEntity
  8
30
 62
     0
440
 16777216
370
    -2
100
AcDbLine
 10
543.8655969059372
 20
676.7230380673542
 30
0.0
 11
525.5188760481305
 21
663.0735289301705
 31
0.0
  0
LINE
  5
41FB6
330
41F92
100
AcDbEntity
  8
30
 62
     0
440
 16777216
370
    -2
100
AcDbLine
 10
525.5188760481305
 20
663.0735289301705
 30
0.0
 11
511.8522093814639
 21
663.0735289301705
 31
0.0
  0
INSERT
  5
41FB7
330
41F92
100
AcDbEntity
  8
30
 62
     0
440
 16777216
370
    -2
100
AcDbBlockReference
  2
_OPEN
 10
551.0864242937154
 20
682.0951560698781
 30
0.0
 41
2.0
 42
2.0
 43
2.0
 50
36.64834048539623
  0
INSERT
  5
41FB8
330
41F92
100
AcDbEntity
  8
30
 62
     0
440
 16777216
370
    -2
100
AcDbBlockReference
  2
_OPEN
 10
543.8655969059372
 20
676.7230380673542
 30
0.0
 41
2.0
 42
2.0
 43
2.0
 50
216.6483404853962
  0
MTEXT
  5
41FB9
330
41F92
100
AcDbEntity
  8
30
 62
     0
440
 16777216
100
AcDbMText
 10
517.685542714797
 20
668.5735289301708
 30
0.0
 40
7.0
 41
0.0
 46
0.0
 71
     5
 72
     1
  1
\A1;∅9
 73
     1
 44
1.0
  0
POINT
  5
41FBA
330
41F92
100
AcDbEntity
  8
DEFPOINTS
 62
     0
440
 16777216
100
AcDbPoint
 10
543.8655969059372
 20
676.7230380673542
 30
0.0
  0
POINT
  5
41FBB
330
41F92
100
AcDbEntity
  8
DEFPOINTS
 62
     0
440
 16777216
100
AcDbPoint
 10
551.0864242937154
 20
682.0951560698781
 30
0.0
  0
ENDBLK
  5
41F94
330
41F92
100
AcDbEntity
  8
0
100
AcDbBlockEnd
  0
BLOCK
  5
41F9E
330
41F9D
100
AcDbEntity
  8
0
100
AcDbBlockBegin
  2
*D47
 70
     1
 10
0.0
 20
0.0
 30
0.0
  3
*D47
  1

  0
LINE
  5
41FBC
330
41F9D
100
AcDbEntity
  8
30
 62
     0
440
 16777216
370
    -2
100
AcDbLine
 10
534.9760105998277
 20
656.4090970687158
 30
0.0
 11
534.9760105998277
 21
636.7427762187165
 31
0.0
  0
LINE
  5
41FBD
330
41F9D
100
AcDbEntity
  8
30
 62
     0
440
 16777216
370
    -2
100
AcDbLine
 10
559.9760105998277
 20
656.4090970687158
 30
0.0
 11
559.9760105998277
 21
636.7427762187165
 31
0.0
  0
LINE
  5
41FBE
330
41F9D
100
AcDbEntity
  8
30
 62
     0
440
 16777216
370
    -2
100
AcDbLine
 10
557.9760105998277
 20
637.2427762187165
 30
0.0
 11
536.9760105998278
 21
637.2427762187165
 31
0.0
  0
LINE
  5
41FBF
330
41F9D
100
AcDbEntity
  8
30
 62
     0
440
 16777216
370
    -2
100
AcDbLine
 10
534.9760105998277
 20
637.2427762187165
 30
0.0
 11
480.4426772664942
 21
637.2427762187165
 31
0.0
  0
INSERT
  5
41FC0
330
41F9D
100
AcDbEntity
  8
30
 62
     0
440
 16777216
370
    -2
100
AcDbBlockReference
  2
_OPEN
 10
559.9760105998277
 20
637.2427762187165
 30
0.0
 41
2.0
 42
2.0
 43
2.0
  0
INSERT
  5
41FC1
330
41F9D
100
AcDbEntity
  8
30
 62
     0
440
 16777216
370
    -2
100
AcDbBlockReference
  2
_OPEN
 10
534.9760105998277
 20
637.2427762187165
 30
0.0
 41
2.0
 42
2.0
 43
2.0
 50
180.0
  0
MTEXT
  5
41FC2
330
41F9D
100
AcDbEntity
  8
30
 62
     0
440
 16777216
100
AcDbMText
 10
506.7093439331608
 20
646.2427762187164
 30
0.0
 40
7.0
 41
0.0
 46
0.0
 71
     2
 72
     1
  1
\A1;25 (max.)
 73
     1
 44
1.0
  0
POINT
  5
41FC3
330
41F9D
100
AcDbEntity
  8
DEFPOINTS
 62
     0
440
 16777216
100
AcDbPoint
 10
534.9760105998277
 20
659.4090970687158
 30
0.0
  0
POINT
  5
41FC4
330
41F9D
100
AcDbEntity
  8
DEFPOINTS
 62
     0
440
 16777216
100
AcDbPoint
 10
559.9760105998277
 20
659.4090970687158
 30
0.0
  0
POINT
  5
41FC5
330
41F9D
100
AcDbEntity
  8
DEFPOINTS
 62
     0
440
 16777216
100
AcDbPoint
 10
559.9760105998277
 20
637.2427762187165
 30
0.0
  0
ENDBLK
  5
41F9F
330
41F9D
100
AcDbEntity
  8
0
100
AcDbBlockEnd
  0
ENDSEC
  0
SECTION
  2
ENTITIES
  0
MTEXT
  5
3BC9A
330
1E
100
AcDbEntity
  8
19
  6
Continuous
 62
     7
100
AcDbMText
 10
353.4140941985474
 20
779.6007628533597
 30
0.0
 40
9.0
 41
0.0
 46
0.0
 71
     7
 72
     5
  1
PS250-PF 4P PMC\PPS250-NE 4P PMC\PPS250-PE 4P PMC
  7
blockfont
 73
     1
 44
1.0
  0
CIRCLE
  5
3BCA7
330
1E
100
AcDbEntity
  8
24
100
AcDbCircle
 10
98.27656930946922
 20
572.8769900213399
 30
0.0
 40
4.999999999999983
  0
CIRCLE
  5
3BCA8
330
1E
100
AcDbEntity
  8
24
100
AcDbCircle
 10
98.27656930946922
 20
428.87699002134
 30
0.0
 40
4.999999999999983
  0
LINE
  5
3BCA9
330
1E
100
AcDbEntity
  8
130
100
AcDbLine
 10
45.77656930946978
 20
449.87699002134
 30
0.0
 11
185.7765693094689
 21
449.87699002134
 31
0.0
  0
LINE
  5
3BCAA
330
1E
100
AcDbEntity
  8
17
100
AcDbLine
 10
91.2765693094691
 20
428.87699002134
 30
0.0
 11
105.2765693094691
 21
428.87699002134
 31
0.0
  0
LINE
  5
3BCAB
330
1E
100
AcDbEntity
  8
16
100
AcDbLine
 10
40.77656930946978
 20
500.8769900213398
 30
0.0
 11
190.776569309469
 21
500.8769900213398
 31
0.0
  0
LINE
  5
3BCAC
330
1E
100
AcDbEntity
  8
130
100
AcDbLine
 10
49.27656930946965
 20
475.8769900213398
 30
0.0
 11
147.2765693094688
 21
475.8769900213398
 31
0.0
  0
LINE
  5
3BCAD
330
1E
100
AcDbEntity
  8
130
100
AcDbLine
 10
91.2765693094691
 20
482.3769900213398
 30
0.0
 11
105.2765693094691
 21
482.3769900213398
 31
0.0
  0
LINE
  5
3BCAE
330
1E
100
AcDbEntity
  8
130
100
AcDbLine
 10
105.2765693094691
 20
516.1169450213399
 30
0.0
 11
91.2765693094691
 21
516.1169450213399
 31
0.0
  0
LINE
  5
3BCAF
330
1E
100
AcDbEntity
  8
130
100
AcDbLine
 10
49.27656930946965
 20
525.8769900213398
 30
0.0
 11
147.2765693094688
 21
525.8769900213398
 31
0.0
  0
LINE
  5
3BCB0
330
1E
100
AcDbEntity
  8
130
100
AcDbLine
 10
105.2765693094691
 20
507.7177800213398
 30
0.0
 11
91.2765693094691
 21
507.7177800213398
 31
0.0
  0
LINE
  5
3BCB1
330
1E
100
AcDbEntity
  8
130
100
AcDbLine
 10
45.77656930946978
 20
551.8769900213396
 30
0.0
 11
185.7765693094689
 21
551.8769900213396
 31
0.0
  0
LINE
  5
3BCB2
330
1E
100
AcDbEntity
  8
17
100
AcDbLine
 10
91.2765693094691
 20
572.8769900213399
 30
0.0
 11
105.2765693094691
 21
572.8769900213399
 31
0.0
  0
LINE
  5
3BCB3
330
1E
100
AcDbEntity
  8
130
100
AcDbLine
 10
105.2765693094691
 20
521.03185752134
 30
0.0
 11
91.2765693094691
 21
521.03185752134
 31
0.0
  0
LINE
  5
3BCB4
330
1E
100
AcDbEntity
  8
130
100
AcDbLine
 10
91.2765693094691
 20
482.3769900213398
 30
0.0
 11
91.2765693094691
 21
521.03185752134
 31
0.0
  0
LINE
  5
3BCB5
330
1E
100
AcDbEntity
  8
130
100
AcDbLine
 10
49.27656930946965
 20
525.8769900213398
 30
0.0
 11
49.27656930946965
 21
475.8769900213398
 31
0.0
  0
LWPOLYLINE
  5
3BCB6
330
1E
100
AcDbEntity
  8
130
100
AcDbPolyline
 90
        4
 70
     1
 43
0.0
 10
185.7765693094689
 20
418.3769900213402
 10
185.7765693094689
 20
583.3769900213396
 10
45.77656930946978
 20
583.3769900213396
 10
46.01540952066886
 20
418.3769900213402
  0
LINE
  5
3BCB7
330
1E
100
AcDbEntity
  8
130
100
AcDbLine
 10
87.27656930946933
 20
525.8769900213398
 30
0.0
 11
87.27656930946933
 21
475.8769900213398
 31
0.0
  0
LINE
  5
3BCB8
330
1E
100
AcDbEntity
  8
17
100
AcDbLine
 10
56.27656930946943
 20
428.87699002134
 30
0.0
 11
70.27656930946943
 21
428.87699002134
 31
0.0
  0
LWPOLYLINE
  5
3BCB9
330
1E
100
AcDbEntity
  8
130
100
AcDbPolyline
 90
        6
 70
     0
 43
0.0
 10
51.27656930946955
 20
418.3769900213402
 10
51.27656930946955
 20
437.37699002134
 42
-0.4142135623730951
 10
54.77656930946955
 20
440.8769900213401
 10
71.77656930946955
 20
440.8769900213401
 42
-0.4142135623730951
 10
75.27656930946955
 20
437.37699002134
 10
75.27656930946955
 20
418.3769900213402
  0
CIRCLE
  5
3BCBA
330
1E
100
AcDbEntity
  8
24
100
AcDbCircle
 10
63.27656930946965
 20
428.87699002134
 30
0.0
 40
4.999999999999983
  0
LINE
  5
3BCBB
330
1E
100
AcDbEntity
  8
17
100
AcDbLine
 10
63.27656930946965
 20
435.8769900213402
 30
0.0
 11
63.27656930946965
 21
421.8769900213404
 31
0.0
  0
CIRCLE
  5
3BCBC
330
1E
100
AcDbEntity
  8
12
100
AcDbCircle
 10
-80.77656930946965
 20
437.8769900213403
 30
0.0
 40
3.999999999999986
210
0.0
220
0.0
230
-1.0
  0
LINE
  5
3BCBD
330
1E
100
AcDbEntity
  8
12
  6
DASHDOT
100
AcDbLine
 10
80.77656930946965
 20
443.37699002134
 30
0.0
 11
80.77656930946965
 21
432.3769900213402
 31
0.0
  0
LINE
  5
3BCBE
330
1E
100
AcDbEntity
  8
12
  6
DASHDOT
100
AcDbLine
 10
86.2765693094691
 20
437.8769900213403
 30
0.0
 11
75.27656930946955
 21
437.8769900213403
 31
0.0
  0
CIRCLE
  5
3BCBF
330
1E
100
AcDbEntity
  8
24
100
AcDbCircle
 10
63.27656930946965
 20
572.8769900213399
 30
0.0
 40
4.999999999999983
  0
LINE
  5
3BCC0
330
1E
100
AcDbEntity
  8
17
100
AcDbLine
 10
63.27656930946965
 20
579.8769900213397
 30
0.0
 11
63.27656930946965
 21
565.8769900213396
 31
0.0
  0
CIRCLE
  5
3BCC1
330
1E
100
AcDbEntity
  8
12
100
AcDbCircle
 10
80.77656930946965
 20
563.8769900213397
 30
0.0
 40
3.999999999999986
  0
LINE
  5
3BCC2
330
1E
100
AcDbEntity
  8
12
  6
DASHDOT
100
AcDbLine
 10
75.27656930946955
 20
563.8769900213397
 30
0.0
 11
86.2765693094691
 21
563.8769900213397
 31
0.0
  0
LINE
  5
3BCC3
330
1E
100
AcDbEntity
  8
12
  6
DASHDOT
100
AcDbLine
 10
80.77656930946965
 20
569.3769900213399
 30
0.0
 11
80.77656930946965
 21
558.3769900213396
 31
0.0
  0
LINE
  5
3BCC4
330
1E
100
AcDbEntity
  8
17
100
AcDbLine
 10
56.27656930946943
 20
572.8769900213399
 30
0.0
 11
70.27656930946943
 21
572.8769900213399
 31
0.0
  0
LINE
  5
3BCC5
330
1E
100
AcDbEntity
  8
130
100
AcDbLine
 10
105.2765693094691
 20
482.3769900213398
 30
0.0
 11
105.2765693094691
 21
521.03185752134
 31
0.0
  0
LINE
  5
3BCC6
330
1E
100
AcDbEntity
  8
130
100
AcDbLine
 10
109.2765693094691
 20
525.8769900213398
 30
0.0
 11
109.2765693094691
 21
475.8769900213398
 31
0.0
  0
LINE
  5
3BCC7
330
1E
100
AcDbEntity
  8
130
100
AcDbLine
 10
147.2765693094688
 20
525.8769900213398
 30
0.0
 11
147.2765693094688
 21
475.8769900213398
 31
0.0
  0
CIRCLE
  5
3BCC8
330
1E
100
AcDbEntity
  8
12
100
AcDbCircle
 10
115.7765693094692
 20
437.8769900213403
 30
0.0
 40
3.999999999999986
  0
LINE
  5
3BCC9
330
1E
100
AcDbEntity
  8
12
  6
DASHDOT
100
AcDbLine
 10
115.7765693094692
 20
443.37699002134
 30
0.0
 11
115.7765693094692
 21
432.3769900213402
 31
0.0
  0
LINE
  5
3BCCA
330
1E
100
AcDbEntity
  8
12
  6
DASHDOT
100
AcDbLine
 10
110.2765693094691
 20
437.8769900213403
 30
0.0
 11
121.2765693094693
 21
437.8769900213403
 31
0.0
  0
LINE
  5
3BCCB
330
1E
100
AcDbEntity
  8
17
100
AcDbLine
 10
126.2765693094693
 20
428.87699002134
 30
0.0
 11
140.276569309469
 21
428.87699002134
 31
0.0
  0
CIRCLE
  5
3BCCC
330
1E
100
AcDbEntity
  8
24
100
AcDbCircle
 10
133.2765693094691
 20
428.87699002134
 30
0.0
 40
4.999999999999983
  0
LINE
  5
3BCCD
330
1E
100
AcDbEntity
  8
17
100
AcDbLine
 10
133.2765693094691
 20
435.8769900213402
 30
0.0
 11
133.2765693094691
 21
421.8769900213404
 31
0.0
  0
CIRCLE
  5
3BCCE
330
1E
100
AcDbEntity
  8
24
100
AcDbCircle
 10
168.2765693094691
 20
428.87699002134
 30
0.0
 40
4.999999999999983
  0
LINE
  5
3BCCF
330
1E
100
AcDbEntity
  8
17
100
AcDbLine
 10
161.2765693094688
 20
428.87699002134
 30
0.0
 11
175.2765693094688
 21
428.87699002134
 31
0.0
  0
LINE
  5
3BCD0
330
1E
100
AcDbEntity
  8
17
100
AcDbLine
 10
168.2765693094691
 20
435.8769900213402
 30
0.0
 11
168.2765693094691
 21
421.8769900213404
 31
0.0
  0
CIRCLE
  5
3BCD1
330
1E
100
AcDbEntity
  8
24
100
AcDbCircle
 10
168.2765693094691
 20
572.8769900213399
 30
0.0
 40
4.999999999999983
  0
CIRCLE
  5
3BCD2
330
1E
100
AcDbEntity
  8
24
100
AcDbCircle
 10
133.2765693094691
 20
572.8769900213399
 30
0.0
 40
4.999999999999983
  0
LINE
  5
3BCD3
330
1E
100
AcDbEntity
  8
17
100
AcDbLine
 10
133.2765693094691
 20
579.8769900213397
 30
0.0
 11
133.2765693094691
 21
565.8769900213396
 31
0.0
  0
LINE
  5
3BCD4
330
1E
100
AcDbEntity
  8
17
100
AcDbLine
 10
168.2765693094691
 20
579.8769900213397
 30
0.0
 11
168.2765693094691
 21
565.8769900213396
 31
0.0
  0
LINE
  5
3BCD5
330
1E
100
AcDbEntity
  8
12
  6
DASHDOT
100
AcDbLine
 10
121.2765693094693
 20
563.8769900213397
 30
0.0
 11
110.2765693094691
 21
563.8769900213397
 31
0.0
  0
CIRCLE
  5
3BCD6
330
1E
100
AcDbEntity
  8
12
100
AcDbCircle
 10
-115.7765693094692
 20
563.8769900213397
 30
0.0
 40
3.999999999999986
210
0.0
220
0.0
230
-1.0
  0
LINE
  5
3BCD7
330
1E
100
AcDbEntity
  8
12
  6
DASHDOT
100
AcDbLine
 10
115.7765693094692
 20
569.3769900213399
 30
0.0
 11
115.7765693094692
 21
558.3769900213396
 31
0.0
  0
LINE
  5
3BCD8
330
1E
100
AcDbEntity
  8
17
100
AcDbLine
 10
126.2765693094693
 20
572.8769900213399
 30
0.0
 11
140.276569309469
 21
572.8769900213399
 31
0.0
  0
LINE
  5
3BCD9
330
1E
100
AcDbEntity
  8
17
100
AcDbLine
 10
161.2765693094688
 20
572.8769900213399
 30
0.0
 11
175.2765693094688
 21
572.8769900213399
 31
0.0
  0
DIMENSION
  5
3BCDA
330
1E
100
AcDbEntity
  8
30
100
AcDbDimension
280
     0
  2
*D19
 10
205.3836722798737
 20
418.3769900213402
 30
0.0
 11
198.8836722798737
 21
500.8769900213398
 31
0.0
 70
    32
 71
     5
 42
164.9999999999994
 73
     0
 74
     0
 75
     0
  3
STANDARD
100
AcDbAlignedDimension
 13
191.4437155791475
 23
583.3769900213396
 33
0.0
 14
191.4437155791475
 24
418.3769900213402
 34
0.0
 50
90.0
100
AcDbRotatedDimension
  0
DIMENSION
  5
3BCDC
330
1E
100
AcDbEntity
  8
30
100
AcDbDimension
280
     0
  2
*D20
 10
186.0154095206685
 20
377.9362964592568
 30
0.0
 11
116.0154095206687
 21
383.4362964592568
 31
0.0
 70
    32
 71
     5
 42
139.9999999999996
 73
     0
 74
     0
 75
     0
  3
STANDARD1
100
AcDbAlignedDimension
 13
46.01540952066886
 23
406.9644898909366
 33
0.0
 14
186.0154095206685
 24
410.6705150787245
 34
0.0
100
AcDbRotatedDimension
  0
DIMENSION
  5
3BCE0
330
1E
100
AcDbEntity
  8
30
100
AcDbDimension
280
     0
  2
*D21
 10
109.2765693094694
 20
461.9556110115538
 30
0.0
 11
121.1099026428027
 21
461.9556110115538
 31
0.0
 70
   160
 71
     5
 42
21.99999999999986
 73
     0
 74
     0
 75
     0
  3
STANDARD
100
AcDbAlignedDimension
 13
87.27656930946954
 23
475.8769900213398
 33
0.0
 14
109.2765693094694
 24
475.8769900213398
 34
0.0
100
AcDbRotatedDimension
  0
LINE
  5
3BCF5
330
1E
100
AcDbEntity
  8
11
100
AcDbLine
 10
281.6074696875678
 20
187.8105899631007
 30
0.0
 11
281.6074696875678
 21
137.8105899631007
 31
0.0
  0
LINE
  5
3BCF6
330
1E
100
AcDbEntity
  8
11
100
AcDbLine
 10
282.6074696875678
 20
188.8105899631007
 30
0.0
 11
380.6074696875678
 21
188.8105899631007
 31
0.0
  0
ARC
  5
3BCF7
330
1E
100
AcDbEntity
  8
11
100
AcDbCircle
 10
282.6074696875678
 20
187.8105899631007
 30
0.0
 40
1.0
100
AcDbArc
 50
90.0
 51
180.0
  0
LINE
  5
3BCF8
330
1E
100
AcDbEntity
  8
11
100
AcDbLine
 10
381.6074696875678
 20
187.8105899631007
 30
0.0
 11
381.6074696875678
 21
137.8105899631007
 31
0.0
  0
ARC
  5
3BCF9
330
1E
100
AcDbEntity
  8
11
100
AcDbCircle
 10
380.6074696875678
 20
187.8105899631007
 30
0.0
 40
1.0
100
AcDbArc
 50
0.0
 51
90.0
  0
LINE
  5
3BCFA
330
1E
100
AcDbEntity
  8
11
100
AcDbLine
 10
282.6074696875678
 20
136.8105899631007
 30
0.0
 11
380.6074696875678
 21
136.8105899631007
 31
0.0
  0
ARC
  5
3BCFB
330
1E
100
AcDbEntity
  8
11
100
AcDbCircle
 10
282.6074696875678
 20
137.8105899631007
 30
0.0
 40
1.0
100
AcDbArc
 50
180.0
 51
270.0
  0
ARC
  5
3BCFC
330
1E
100
AcDbEntity
  8
11
100
AcDbCircle
 10
380.6074696875678
 20
137.8105899631007
 30
0.0
 40
1.0
100
AcDbArc
 50
270.0
 51
0.0
  0
LINE
  5
3BCFD
330
1E
100
AcDbEntity
  8
16
100
AcDbLine
 10
276.8396565741678
 20
162.8105899631007
 30
0.0
 11
422.1836921703676
 21
162.8105899631007
 31
0.0
  0
DIMENSION
  5
3BCFE
330
1E
100
AcDbEntity
  8
30
100
AcDbDimension
280
     0
  2
*D22
 10
440.0278647344268
 20
136.8105899631007
 30
0.0
 11
440.0278647344268
 21
162.8105899631007
 31
0.0
 70
   160
 71
     2
 42
52.0
 73
     0
 74
     0
 75
     0
  3
STANDARD
100
AcDbAlignedDimension
 13
380.6074696875678
 23
188.8105899631007
 33
0.0
 14
380.6074696875678
 24
136.8105899631007
 34
0.0
 50
90.0
100
AcDbRotatedDimension
  0
DIMENSION
  5
3BD00
330
1E
100
AcDbEntity
  8
30
100
AcDbDimension
280
     0
  2
*D23
 10
331.6074696875678
 20
47.02562207567916
 30
0.0
 11
306.6074696875678
 21
47.02562207567916
 31
0.0
 70
   160
  1
<>
 71
     2
 42
50.0
 73
     0
 74
     0
 75
     0
  3
STANDARD1
100
AcDbAlignedDimension
 13
281.6074696875678
 23
137.8105899631007
 33
0.0
 14
331.6074696875678
 24
57.81058996310076
 34
0.0
100
AcDbRotatedDimension
  0
DIMENSION
  5
3BD01
330
1E
100
AcDbEntity
  8
30
100
AcDbDimension
280
     0
  2
*D24
 10
381.6074696875678
 20
28.34196461374086
 30
0.0
 11
331.8318557699658
 21
28.34196461374086
 31
0.0
 70
   160
  1
<>
 71
     2
 42
100.0
 73
     0
 74
     0
 75
     0
  3
STANDARD1
100
AcDbAlignedDimension
 13
281.6074696875678
 23
137.8105899631007
 33
0.0
 14
381.6074696875678
 24
137.8105899631007
 34
0.0
100
AcDbRotatedDimension
  0
DIMENSION
  5
3BD02
330
1E
100
AcDbEntity
  8
30
  6
Continuous
100
AcDbDimension
280
     0
  2
*D25
 10
380.6074696875683
 20
187.8105899631007
 30
0.0
 11
401.8746671840092
 21
205.6921672142841
 31
0.0
 70
   164
  1
<>
 71
     5
 42
1.00000000001296
 73
     0
 74
     0
 75
     0
  3
STANDARD1
100
AcDbRadialDimension
 15
381.239932604641
 25
188.5851806024411
 35
0.0
 40
0.0
  0
LINE
  5
3BD03
330
1E
100
AcDbEntity
  8
16
100
AcDbLine
 10
331.6074696875678
 20
260.9945577993358
 30
0.0
 11
331.6074696875678
 21
57.81058996310076
 31
0.0
  0
LINE
  5
3BD04
330
1E
100
AcDbEntity
  8
12
100
AcDbLine
 10
43.707078213469
 20
215.3105899631007
 30
0.0
 11
191.0636400972689
 21
215.3105899631007
 31
0.0
  0
LINE
  5
3BD05
330
1E
100
AcDbEntity
  8
12
100
AcDbLine
 10
40.38031753646897
 20
110.3105899631007
 30
0.0
 11
188.6856626304691
 21
110.3105899631007
 31
0.0
  0
LINE
  5
3BD06
330
1E
100
AcDbEntity
  8
16
100
AcDbLine
 10
42.65809982206905
 20
162.8105899631007
 30
0.0
 11
202.2707147460051
 21
162.8105899631007
 31
0.0
  0
LINE
  5
3BD07
330
1E
100
AcDbEntity
  8
12
  6
HIDDEN
 48
2.0
100
AcDbLine
 10
43.32261197786897
 20
212.1105899631008
 30
0.0
 11
190.369814001669
 21
212.1105899631008
 31
0.0
  0
LINE
  5
3BD08
330
1E
100
AcDbEntity
  8
12
  6
HIDDEN
 48
2.0
100
AcDbLine
 10
40.96287930526886
 20
113.5105899631007
 30
0.0
 11
189.4733096058689
 21
113.5105899631007
 31
0.0
  0
CIRCLE
  5
3BD09
330
1E
100
AcDbEntity
  8
12
100
AcDbCircle
 10
83.27656930946909
 20
200.3105899631008
 30
0.0
 40
3.000000000000001
  0
CIRCLE
  5
3BD0A
330
1E
100
AcDbEntity
  8
12
100
AcDbCircle
 10
83.27656930946909
 20
125.3105899631007
 30
0.0
 40
3.000000000000013
  0
DIMENSION
  5
3BD0B
330
1E
100
AcDbEntity
  8
30
  6
Continuous
100
AcDbDimension
280
     0
  2
*D26
 10
113.5668714322294
 20
197.3246688861865
 30
0.0
 11
118.4991880057242
 21
227.1632625736995
 31
0.0
 70
   163
  1
<>
 71
     5
 42
6.000000000012931
 73
     0
 74
     0
 75
     0
  3
STANDARD1
100
AcDbDiametricDimension
 15
112.9862671867078
 25
203.2965110400146
 35
0.0
 40
0.0
  0
DIMENSION
  5
3BD0C
330
1E
100
AcDbEntity
  8
30
100
AcDbDimension
280
     0
  2
*D27
 10
113.2765693094691
 20
44.89034673760534
 30
0.0
 11
98.48872753605611
 21
44.89034673760534
 31
0.0
 70
   160
  1
<>
 71
     2
 42
30.0
 73
     0
 74
     0
 75
     0
  3
STANDARD1
100
AcDbAlignedDimension
 13
83.27656930946909
 23
125.3105899631007
 33
0.0
 14
113.2765693094691
 24
125.3105899631007
 34
0.0
100
AcDbRotatedDimension
  0
INSERT
  5
3BD0E
330
1E
100
AcDbEntity
  8
12
100
AcDbBlockReference
  2
SW_CENTERMARKSYMBOL_54
 10
83.27656930946909
 20
200.3105899631008
 30
0.0
 41
2.0
 42
2.0
 43
2.0
  0
INSERT
  5
3BD0F
330
1E
100
AcDbEntity
  8
12
100
AcDbBlockReference
  2
SW_CENTERMARKSYMBOL_55
 10
83.27656930946909
 20
125.3105899631007
 30
0.0
 41
2.0
 42
2.0
 43
2.0
  0
LEADER
  5
3BD10
330
1E
100
AcDbEntity
  8
SLD-0
100
AcDbLeader
  3
SLDDIMSTYLE6
 76
     2
 10
183.4015054346694
 20
110.3105899631007
 30
0.0
 10
192.5098768984266
 20
77.92845772490074
 30
0.0
  0
MTEXT
  5
3BD11
330
1E
100
AcDbEntity
  8
SLD-0
100
AcDbMText
 10
192.5098768984266
 20
92.92845772490073
 30
0.0
 40
5.0
 41
58.0
 46
0.0
 71
     1
 72
     5
  1
Mounting\Pplate
  7
blockfont
 73
     1
 44
1.0
  0
LINE
  5
3BD12
330
1E
100
AcDbEntity
  8
SLD-0
100
AcDbLine
 10
192.5098768984266
 20
77.92845772490074
 30
0.0
 11
227.0503814778588
 21
77.92845772490074
 31
0.0
  0
LINE
  5
3BD13
330
1E
100
AcDbEntity
  8
13
100
AcDbLine
 10
185.7765693094689
 20
416.1769867549398
 30
0.0
 11
46.01859406154606
 21
416.1769867549398
 31
0.0
  0
LINE
  5
3BD14
330
1E
100
AcDbEntity
  8
13
100
AcDbLine
 10
185.7765693094689
 20
411.3769919882398
 30
0.0
 11
185.7765693094689
 21
418.3769900213402
 31
0.0
  0
ARC
  5
3BD15
330
1E
100
AcDbEntity
  8
13
100
AcDbCircle
 10
185.276569309469
 20
411.3769919882398
 30
0.0
 40
0.5
100
AcDbArc
 50
270.0
 51
0.0
  0
LINE
  5
3BD16
330
1E
100
AcDbEntity
  8
13
100
AcDbLine
 10
46.02554318049214
 20
411.3762682307823
 30
0.0
 11
46.01540952066886
 21
418.3769900213402
 31
0.0
  0
LWPOLYLINE
  5
3BD17
330
1E
100
AcDbEntity
  8
130
100
AcDbPolyline
 90
        6
 70
     0
 43
0.0
 10
86.2765693094691
 20
418.3769900213402
 10
86.2765693094691
 20
437.37699002134
 42
-0.4142135623730951
 10
89.7765693094691
 20
440.8769900213401
 10
106.7765693094691
 20
440.8769900213401
 42
-0.4142135623730951
 10
110.2765693094691
 20
437.37699002134
 10
110.2765693094691
 20
418.3769900213402
  0
LWPOLYLINE
  5
3BD18
330
1E
100
AcDbEntity
  8
130
100
AcDbPolyline
 90
        6
 70
     0
 43
0.0
 10
121.276569309469
 20
418.3769900213402
 10
121.276569309469
 20
437.37699002134
 42
-0.4142135623730951
 10
124.776569309469
 20
440.8769900213401
 10
141.776569309469
 20
440.8769900213401
 42
-0.4142135623730951
 10
145.276569309469
 20
437.37699002134
 10
145.276569309469
 20
418.3769900213402
  0
LWPOLYLINE
  5
3BD19
330
1E
100
AcDbEntity
  8
130
100
AcDbPolyline
 90
        6
 70
     0
 43
0.0
 10
156.276569309469
 20
418.3769900213402
 10
156.276569309469
 20
437.37699002134
 42
-0.4142135623730951
 10
159.776569309469
 20
440.8769900213401
 10
176.776569309469
 20
440.8769900213401
 42
-0.4142135623730951
 10
180.276569309469
 20
437.37699002134
 10
180.276569309469
 20
418.3769900213402
  0
LWPOLYLINE
  5
3BD1A
330
1E
100
AcDbEntity
  8
130
100
AcDbPolyline
 90
        6
 70
     0
 43
0.0
 10
51.27656930946955
 20
583.3769900213392
 10
51.27656930946955
 20
564.3769900213396
 42
0.4142135623730951
 10
54.77656930946955
 20
560.8769900213395
 10
71.77656930946955
 20
560.8769900213395
 42
0.4142135623730951
 10
75.27656930946955
 20
564.3769900213396
 10
75.27656930946955
 20
583.3769900213392
  0
LWPOLYLINE
  5
3BD1B
330
1E
100
AcDbEntity
  8
130
100
AcDbPolyline
 90
        6
 70
     0
 43
0.0
 10
86.2765693094691
 20
583.3769900213392
 10
86.2765693094691
 20
564.3769900213396
 42
0.4142135623730951
 10
89.7765693094691
 20
560.8769900213395
 10
106.7765693094691
 20
560.8769900213395
 42
0.4142135623730951
 10
110.2765693094691
 20
564.3769900213396
 10
110.2765693094691
 20
583.3769900213392
  0
LWPOLYLINE
  5
3BD1C
330
1E
100
AcDbEntity
  8
130
100
AcDbPolyline
 90
        6
 70
     0
 43
0.0
 10
121.276569309469
 20
583.3769900213392
 10
121.276569309469
 20
564.3769900213396
 42
0.4142135623730951
 10
124.776569309469
 20
560.8769900213395
 10
141.776569309469
 20
560.8769900213395
 42
0.4142135623730951
 10
145.276569309469
 20
564.3769900213396
 10
145.276569309469
 20
583.3769900213392
  0
LWPOLYLINE
  5
3BD1D
330
1E
100
AcDbEntity
  8
130
100
AcDbPolyline
 90
        6
 70
     0
 43
0.0
 10
156.276569309469
 20
583.3769900213392
 10
156.276569309469
 20
564.3769900213396
 42
0.4142135623730951
 10
159.776569309469
 20
560.8769900213395
 10
176.776569309469
 20
560.8769900213395
 42
0.4142135623730951
 10
180.276569309469
 20
564.3769900213396
 10
180.276569309469
 20
583.3769900213392
  0
LINE
  5
3BD1E
330
1E
100
AcDbEntity
  8
10
100
AcDbLine
 10
185.7765693094689
 20
585.5769932877399
 30
0.0
 11
46.01859406154606
 21
585.5769932877399
 31
0.0
  0
LINE
  5
3BD1F
330
1E
100
AcDbEntity
  8
10
100
AcDbLine
 10
185.7765693094689
 20
590.3769900213399
 30
0.0
 11
185.7765693094689
 21
583.3769900213392
 31
0.0
  0
ARC
  5
3BD20
330
1E
100
AcDbEntity
  8
10
100
AcDbCircle
 10
185.276569309469
 20
590.3769900213399
 30
0.0
 40
0.5
100
AcDbArc
 50
0.0
 51
90.0
  0
LINE
  5
3BD21
330
1E
100
AcDbEntity
  8
10
100
AcDbLine
 10
46.02554318333932
 20
590.3777137787971
 30
0.0
 11
46.01540952066886
 21
583.3769900213392
 31
0.0
  0
LINE
  5
3BD22
330
1E
100
AcDbEntity
  8
16
100
AcDbLine
 10
466.2783696328443
 20
162.8105899631007
 30
0.0
 11
611.6224052290442
 21
162.8105899631007
 31
0.0
  0
DIMENSION
  5
3BD23
330
1E
100
AcDbEntity
  8
30
100
AcDbDimension
280
     0
  2
*D6
 10
623.5164762298584
 20
138.8105899631007
 30
0.0
 11
623.5164762298584
 21
162.8105899631007
 31
0.0
 70
   160
 71
     2
 42
48.0
 73
     0
 74
     0
 75
     0
  3
STANDARD
100
AcDbAlignedDimension
 13
531.9942994110381
 23
186.8105899631007
 33
0.0
 14
531.9942994110381
 24
138.8105899631007
 34
0.0
 50
90.0
100
AcDbRotatedDimension
  0
DIMENSION
  5
3BD25
330
1E
100
AcDbEntity
  8
30
  6
Continuous
100
AcDbDimension
280
     0
  2
*D7
 10
531.9942994110387
 20
185.810589963101
 30
0.0
 11
550.4484927609722
 21
206.0679124724916
 31
0.0
 70
   164
  1
<>
 71
     5
 42
1.000000000013017
 73
     0
 74
     0
 75
     0
  3
STANDARD1
100
AcDbRadialDimension
 15
532.4972391500475
 25
186.674911442038
 35
0.0
 40
0.0
  0
LINE
  5
3BD26
330
1E
100
AcDbEntity
  8
16
100
AcDbLine
 10
521.0461827462443
 20
261.1595069781115
 30
0.0
 11
521.0461827462443
 21
62.88352001582734
 31
0.0
  0
LINE
  5
3BD27
330
1E
100
AcDbEntity
  8
11
100
AcDbLine
 10
509.0461827462442
 20
185.8105899631008
 30
0.0
 11
509.0461827462442
 21
139.8105899631007
 31
0.0
  0
LINE
  5
3BD28
330
1E
100
AcDbEntity
  8
11
100
AcDbLine
 10
510.0461827462441
 20
186.8105899631007
 30
0.0
 11
532.0461827462443
 21
186.8105899631007
 31
0.0
  0
LINE
  5
3BD29
330
1E
100
AcDbEntity
  8
11
100
AcDbLine
 10
533.0461827462443
 20
185.8105899631008
 30
0.0
 11
533.0461827462443
 21
139.8105899631007
 31
0.0
  0
LINE
  5
3BD2A
330
1E
100
AcDbEntity
  8
11
100
AcDbLine
 10
510.0461827462441
 20
138.8105899631007
 30
0.0
 11
532.0461827462443
 21
138.8105899631007
 31
0.0
  0
ARC
  5
3BD2B
330
1E
100
AcDbEntity
  8
11
100
AcDbCircle
 10
510.0461827462441
 20
185.8105899631008
 30
0.0
 40
1.0
100
AcDbArc
 50
90.0
 51
180.0
  0
ARC
  5
3BD2C
330
1E
100
AcDbEntity
  8
11
100
AcDbCircle
 10
510.0461827462441
 20
139.8105899631007
 30
0.0
 40
1.0
100
AcDbArc
 50
180.0
 51
270.0
  0
ARC
  5
3BD2D
330
1E
100
AcDbEntity
  8
11
100
AcDbCircle
 10
532.0461827462443
 20
185.8105899631008
 30
0.0
 40
1.0
100
AcDbArc
 50
0.0
 51
90.0
  0
ARC
  5
3BD2E
330
1E
100
AcDbEntity
  8
11
100
AcDbCircle
 10
532.0461827462443
 20
139.8105899631007
 30
0.0
 40
1.0
100
AcDbArc
 50
270.0
 51
0.0
  0
DIMENSION
  5
3BD2F
330
1E
100
AcDbEntity
  8
30
100
AcDbDimension
280
     0
  2
*D8
 10
509.0461827462442
 20
45.9415642264862
 30
0.0
 11
521.4864653536478
 21
45.9415642264862
 31
0.0
 70
   160
  1
<>
 71
     2
 42
24.00000000000011
 73
     0
 74
     0
 75
     0
  3
STANDARD1
100
AcDbAlignedDimension
 13
533.0461827462443
 23
139.8105899631007
 33
0.0
 14
509.0461827462442
 24
139.8105899631007
 34
0.0
100
AcDbRotatedDimension
  0
LINE
  5
3BD39
330
1E
100
AcDbEntity
  8
12
  6
Continuous
100
AcDbLine
 10
367.1639253336498
 20
712.0741918719818
 30
0.0
 11
370.3639236230501
 21
712.0741918719818
 31
0.0
  0
LWPOLYLINE
  5
3BD3A
330
1E
100
AcDbEntity
  8
12
  6
Continuous
100
AcDbPolyline
 90
        2
 70
     0
 43
0.0
 10
376.3639246064503
 20
712.0741918719818
 10
382.8639228778502
 20
712.0741918719818
  0
LWPOLYLINE
  5
3BD3B
330
1E
100
AcDbEntity
  8
12
  6
Continuous
100
AcDbPolyline
 90
        2
 70
     0
 43
0.0
 10
382.8639228778502
 20
717.0741908289819
 10
376.3639246064503
 20
717.0741908289819
  0
LINE
  5
3BD3C
330
1E
100
AcDbEntity
  8
12
  6
Continuous
100
AcDbLine
 10
370.3639236230501
 20
717.0741908289819
 30
0.0
 11
367.1639253336498
 21
717.0741908289819
 31
0.0
  0
LWPOLYLINE
  5
3BD3D
330
1E
100
AcDbEntity
  8
12
  6
Continuous
100
AcDbPolyline
 90
       13
 70
     0
 43
0.0
 10
370.3639236229126
 20
710.1491928137687
 42
0.4142177470913821
 10
370.5389228600497
 20
709.9741898513816
 10
371.4889240403263
 20
709.974189851418
 42
0.4142177470913821
 10
371.6639232772504
 20
710.1491928137821
 10
371.6639232772504
 20
710.5741925575816
 10
371.6639232772504
 20
710.9354525841817
 10
371.6639232772504
 20
714.2129294611818
 10
371.6639232772504
 20
718.4741921759819
 10
371.6639232772504
 20
718.5741901435817
 10
371.6639232773681
 20
718.9991898872396
 42
0.4142115122613406
 10
371.4889240402499
 20
719.1741891243817
 10
370.538922859992
 20
719.1741891243005
 42
0.4142115122613406
 10
370.3639236229315
 20
718.9991898872396
  0
LINE
  5
3BD3E
330
1E
100
AcDbEntity
  8
10
100
AcDbLine
 10
367.1639253336498
 20
724.8094413467813
 30
0.0
 11
365.1639250058497
 21
724.8094413467813
 31
0.0
  0
LINE
  5
3BD3F
330
1E
100
AcDbEntity
  8
10
100
AcDbLine
 10
367.1639253336498
 20
662.2542181405779
 30
0.0
 11
367.1639253336498
 21
724.8094413467813
 31
0.0
  0
LINE
  5
3BD40
330
1E
100
AcDbEntity
  8
10
100
AcDbLine
 10
365.1639250058497
 20
703.3821210301814
 30
0.0
 11
365.1639250058497
 21
724.8094413467813
 31
0.0
  0
LINE
  5
3BD41
330
1E
100
AcDbEntity
  8
10
100
AcDbLine
 10
367.1639253336498
 20
702.5741912461818
 30
0.0
 11
365.1639250058497
 21
702.5741912461818
 31
0.0
  0
LWPOLYLINE
  5
3BD42
330
1E
100
AcDbEntity
  8
12
  6
Continuous
100
AcDbPolyline
 90
        4
 70
     1
 43
0.0
 10
383.3639238912502
 20
712.5741891599816
 10
382.8639228778502
 20
712.0741918719818
 10
382.8639228778502
 20
717.0741908289819
 10
383.3639238912502
 20
716.5741898157817
  0
LINE
  5
3BD43
330
1E
100
AcDbEntity
  8
0
  6
SLD-実線
 62
     7
370
    15
100
AcDbLine
 10
391.1611017722498
 20
662.4942287839817
 30
0.0
 11
391.1604982752497
 21
662.4974921383817
 31
0.0
  0
LINE
  5
3BD44
330
1E
100
AcDbEntity
  8
10
100
AcDbLine
 10
351.1639245736505
 20
662.0941922105815
 30
0.0
 11
391.1611017722498
 21
662.4942287839817
 31
0.0
  0
LINE
  5
3BD45
330
1E
100
AcDbEntity
  8
10
  6
SLD-実線
 62
     7
370
    15
100
AcDbLine
 10
351.1639245736505
 20
662.0941922105815
 30
0.0
 11
351.1639245736505
 21
662.1335685289817
 31
0.0
  0
LINE
  5
3BD46
330
1E
100
AcDbEntity
  8
10
  6
SLD-実線
 62
     7
370
    15
100
AcDbLine
 10
351.1639245736505
 20
662.1335685289817
 30
0.0
 11
351.1244569856499
 21
662.1331661977817
 31
0.0
  0
LWPOLYLINE
  5
3BD47
330
1E
100
AcDbEntity
  8
10
100
AcDbPolyline
 90
        8
 70
   128
 43
0.0
 10
349.1639652240501
 20
664.0741467513817
 10
349.5534536380501
 20
663.6885345019817
 10
349.9280241268507
 20
663.3176967539822
 10
350.2733287352504
 20
662.9758268631817
 10
350.5761501330499
 20
662.6760229505817
 10
350.82488776625
 20
662.4297589101812
 10
351.0100197930506
 20
662.2464671767817
 10
351.1244569856499
 20
662.1331661977817
  0
SPLINE
  5
3BD48
330
1E
100
AcDbEntity
  8
10
100
AcDbSpline
210
0.0
220
0.0
230
1.0
 70
     8
 71
     3
 72
    10
 73
     6
 74
     0
 42
0.000000001
 43
0.0000000001
 40
0.0
 40
0.0
 40
0.0
 40
0.0
 40
0.0460399332174039
 40
0.2301995350429722
 40
0.9978790628184126
 40
0.9978790628184126
 40
0.9978790628184126
 40
0.9978790628184126
 10
391.1604982752007
 20
662.4974921383317
 30
0.0
 10
391.6604707811794
 20
662.5027694558366
 30
0.0
 10
394.1603318879962
 20
662.5291560283392
 30
0.0
 10
404.996822378898
 20
662.645210128554
 30
0.0
 10
415.3332278724088
 20
662.7660911651537
 30
0.0
 10
423.6697696767171
 20
662.8636026693372
 30
0.0
  0
LINE
  5
3BD49
330
1E
100
AcDbEntity
  8
10
100
AcDbLine
 10
365.1639250058497
 20
700.8162900843817
 30
0.0
 11
365.1639250058497
 21
702.5543913281817
 31
0.0
  0
LINE
  5
3BD4A
330
1E
100
AcDbEntity
  8
10
100
AcDbLine
 10
349.1639242458504
 20
702.6494048573818
 30
0.0
 11
349.1639242458504
 21
700.9113036133818
 31
0.0
  0
LINE
  5
3BD4B
330
1E
100
AcDbEntity
  8
10
100
AcDbLine
 10
365.1639250058497
 20
701.0741919315817
 30
0.0
 11
423.6689221770216
 21
700.4890496448176
 31
0.0
  0
LINE
  5
3BD4C
330
1E
100
AcDbEntity
  8
13
100
AcDbLine
 10
424.163921638253
 20
663.3635684686147
 30
0.0
 11
424.1639216381711
 21
699.9890746508327
 31
0.0
  0
ARC
  5
3BD4D
330
1E
100
AcDbEntity
  8
13
100
AcDbCircle
 10
423.6639216381711
 20
699.9890746508317
 30
0.0
 40
0.5
100
AcDbArc
 50
0.0000000001302755
 51
89.42697090432512
  0
LINE
  5
3BD4E
330
1E
100
AcDbEntity
  8
10
  6
SLD-実線
 62
     7
370
    15
100
AcDbLine
 10
365.1639250058497
 20
702.5543913281817
 30
0.0
 11
365.1639250058497
 21
702.5707826055818
 31
0.0
  0
LINE
  5
3BD4F
330
1E
100
AcDbEntity
  8
10
100
AcDbLine
 10
349.1639242458504
 20
721.0924044289818
 30
0.0
 11
349.1639652240501
 21
664.0741467513817
 31
0.0
  0
LINE
  5
3BD50
330
1E
100
AcDbEntity
  8
0
  6
SLD-実線
 62
     7
370
    15
100
AcDbLine
 10
391.1639218170503
 20
662.4942585863817
 30
0.0
 11
391.1611017722498
 21
662.4942287839817
 31
0.0
  0
LINE
  5
3BD51
330
1E
100
AcDbEntity
  8
10
100
AcDbLine
 10
349.1639242458504
 20
722.0741916485817
 30
0.0
 11
365.1639250058497
 21
722.0052477009817
 31
0.0
  0
LINE
  5
3BD52
330
1E
100
AcDbEntity
  8
10
  6
SLD-実線
 62
     7
370
    15
100
AcDbLine
 10
349.1639242458504
 20
721.0924044289818
 30
0.0
 11
349.1639242458504
 21
722.0741916485817
 31
0.0
  0
LWPOLYLINE
  5
3BD53
330
1E
100
AcDbEntity
  8
12
  6
Continuous
100
AcDbPolyline
 90
        8
 70
     0
 43
0.0
 10
371.6639232772504
 20
718.5741901435817
 10
376.1310678858499
 20
718.5741901435817
 10
376.3639246064503
 20
718.5741901435817
 10
376.3639246064503
 20
716.5741898157817
 10
376.3639246064503
 20
712.5741891599816
 10
376.3639246064503
 20
710.5741925575816
 10
376.1310678858499
 20
710.5741925575816
 10
371.6639232772504
 20
710.5741925575816
  0
LINE
  5
3BD54
330
1E
100
AcDbEntity
  8
12
  6
Continuous
100
AcDbLine
 10
370.3639236230501
 20
710.1491928137821
 30
0.0
 11
370.3639236230501
 21
718.9991898871815
 31
0.0
  0
LWPOLYLINE
  5
3BD55
330
1E
100
AcDbEntity
  8
24
100
AcDbPolyline
 90
        6
 70
     0
 43
0.0
 10
407.4639242904503
 20
676.1941909779816
 10
420.6639242904501
 20
676.1941909779816
 10
421.1639242904501
 20
676.6941909779816
 10
421.1639242904501
 20
683.4541909779817
 10
420.6639242904501
 20
683.9541909779817
 10
407.4639242904503
 20
683.9541909779817
  0
LWPOLYLINE
  5
3BD56
330
1E
100
AcDbEntity
  8
24
100
AcDbPolyline
 90
        4
 70
     0
 43
0.0
 10
400.9639242904502
 20
686.5741909779817
 10
407.4639242904503
 20
686.5741909779817
 10
407.4639242904503
 20
673.5741909779817
 10
400.9639242904502
 20
673.5741909779817
  0
LWPOLYLINE
  5
3BD57
330
1E
100
AcDbEntity
  8
24
100
AcDbPolyline
 90
        4
 70
     1
 43
0.0
 10
400.9639242904502
 20
672.6757230433817
 10
400.9639242904502
 20
687.4741909779817
 10
398.9639242904504
 20
687.4741909779817
 10
398.9639242904504
 20
672.681355459782
  0
LINE
  5
3BD58
330
1E
100
AcDbEntity
  8
24
100
AcDbLine
 10
398.9639242904504
 20
687.0741909779817
 30
0.0
 11
397.3639242904501
 21
687.0741909779817
 31
0.0
  0
LINE
  5
3BD59
330
1E
100
AcDbEntity
  8
24
100
AcDbLine
 10
397.3639242904501
 20
687.0741909779817
 30
0.0
 11
397.3639242904501
 21
673.0741909779817
 31
0.0
  0
LINE
  5
3BD5A
330
1E
100
AcDbEntity
  8
24
100
AcDbLine
 10
397.3639242904501
 20
673.0741909779817
 30
0.0
 11
398.9639242904504
 21
673.0741909779817
 31
0.0
  0
LINE
  5
3BD5B
330
1E
100
AcDbEntity
  8
24
100
AcDbLine
 10
394.16392424685
 20
671.5741910349816
 30
0.0
 11
394.16392424685
 21
688.5741909209817
 31
0.0
  0
LINE
  5
3BD5C
330
1E
100
AcDbEntity
  8
24
100
AcDbLine
 10
393.6639242762503
 20
689.0741909779817
 30
0.0
 11
391.1639242904503
 21
689.0741909779817
 31
0.0
  0
LINE
  5
3BD5D
330
1E
100
AcDbEntity
  8
24
100
AcDbLine
 10
393.6639242762503
 20
671.0741909779817
 30
0.0
 11
391.1639242904503
 21
671.0741909779817
 31
0.0
  0
LINE
  5
3BD5E
330
1E
100
AcDbEntity
  8
24
100
AcDbLine
 10
393.6639242762503
 20
671.0741909779817
 30
0.0
 11
394.16392424685
 21
671.5741910349816
 31
0.0
  0
LINE
  5
3BD5F
330
1E
100
AcDbEntity
  8
24
100
AcDbLine
 10
393.6639242762503
 20
689.0741909779817
 30
0.0
 11
394.16392424685
 21
688.5741909209817
 31
0.0
  0
LINE
  5
3BD60
330
1E
100
AcDbEntity
  8
10
100
AcDbLine
 10
391.1639242904503
 20
698.0741902851819
 30
0.0
 11
391.1639242904503
 21
662.4975257335818
 31
0.0
  0
LINE
  5
3BD61
330
1E
100
AcDbEntity
  8
10
100
AcDbLine
 10
424.1639242904502
 20
698.1317869017816
 30
0.0
 11
391.1639242904503
 21
698.0741902851819
 31
0.0
  0
LINE
  5
3BD62
330
1E
100
AcDbEntity
  8
24
100
AcDbLine
 10
394.16392424685
 20
692.8741909779819
 30
0.0
 11
394.16392424685
 21
667.2741909779817
 31
0.0
  0
LINE
  5
3BD63
330
1E
100
AcDbEntity
  8
24
100
AcDbLine
 10
397.8639242468498
 20
696.5741909779817
 30
0.0
 11
453.47075922585
 21
696.5741909779817
 31
0.0
  0
LWPOLYLINE
  5
3BD64
330
1E
100
AcDbEntity
  8
24
100
AcDbPolyline
 90
        2
 70
     0
 43
0.0
 10
398.9639242904504
 20
681.5188109803816
 10
400.9639242904502
 20
680.2415640529816
  0
LINE
  5
3BD65
330
1E
100
AcDbEntity
  8
24
100
AcDbLine
 10
397.8639242468498
 20
663.5741909779817
 30
0.0
 11
453.47075922585
 21
663.5741909779817
 31
0.0
  0
LINE
  5
3BD66
330
1E
100
AcDbEntity
  8
24
100
AcDbLine
 10
397.3639242904501
 20
692.8741909779819
 30
0.0
 11
397.3639242904501
 21
667.2741909779817
 31
0.0
  0
LINE
  5
3BD67
330
1E
100
AcDbEntity
  8
24
100
AcDbLine
 10
397.8639242904502
 20
693.3741909779817
 30
0.0
 11
453.47075922585
 21
693.3741909779817
 31
0.0
  0
LINE
  5
3BD68
330
1E
100
AcDbEntity
  8
24
100
AcDbLine
 10
397.8639242904502
 20
666.7741909779812
 30
0.0
 11
453.47075922585
 21
666.7741909779812
 31
0.0
  0
LWPOLYLINE
  5
3BD69
330
1E
100
AcDbEntity
  8
24
100
AcDbPolyline
 90
        2
 70
     0
 43
0.0
 10
398.9639242904504
 20
679.902320865182
 10
400.9639242904502
 20
678.625073937782
  0
LINE
  5
3BD6A
330
1E
100
AcDbEntity
  8
12
100
AcDbLine
 10
367.1639242904503
 20
733.7107127591816
 30
0.0
 11
367.1639242904503
 21
705.7741909779815
 31
0.0
  0
LINE
  5
3BD6B
330
1E
100
AcDbEntity
  8
12
100
AcDbLine
 10
380.1639242904503
 20
705.2741909779816
 30
0.0
 11
380.1639242904503
 21
702.0741909779817
 31
0.0
  0
LINE
  5
3BD6C
330
1E
100
AcDbEntity
  8
12
100
AcDbLine
 10
370.8639242904502
 20
702.0741909779817
 30
0.0
 11
380.1639242904503
 21
702.0741909779817
 31
0.0
  0
LINE
  5
3BD6D
330
1E
100
AcDbEntity
  8
12
100
AcDbLine
 10
370.3639242904501
 20
733.7107127591816
 30
0.0
 11
370.3639242904501
 21
705.7741909779815
 31
0.0
  0
LINE
  5
3BD6E
330
1E
100
AcDbEntity
  8
12
  6
Continuous
100
AcDbLine
 10
371.6639242904502
 20
715.1991280421817
 30
0.0
 11
370.3639242904501
 21
714.2565467689819
 31
0.0
  0
LINE
  5
3BD6F
330
1E
100
AcDbEntity
  8
12
  6
Continuous
100
AcDbLine
 10
371.6639242904502
 20
714.3137116107817
 30
0.0
 11
370.3639242904501
 21
713.3711303377817
 31
0.0
  0
LINE
  5
3BD70
330
1E
100
AcDbEntity
  8
12
100
AcDbLine
 10
370.8639242904502
 20
705.2741909779816
 30
0.0
 11
380.1639242904503
 21
705.2741909779816
 31
0.0
  0
ARC
  5
3BD71
330
1E
100
AcDbEntity
  8
24
100
AcDbCircle
 10
397.8639242468498
 20
692.8741909779819
 30
0.0
 40
3.700000000000046
100
AcDbArc
 50
90.0
 51
180.0
  0
ARC
  5
3BD72
330
1E
100
AcDbEntity
  8
24
100
AcDbCircle
 10
397.8639242904502
 20
692.8741909779819
 30
0.0
 40
0.5000000000002274
100
AcDbArc
 50
90.0
 51
180.0
  0
ARC
  5
3BD73
330
1E
100
AcDbEntity
  8
24
100
AcDbCircle
 10
397.8639242904502
 20
667.2741909779817
 30
0.0
 40
0.5
100
AcDbArc
 50
180.0
 51
270.0
  0
ARC
  5
3BD74
330
1E
100
AcDbEntity
  8
24
100
AcDbCircle
 10
397.8639242468498
 20
667.2741909779817
 30
0.0
 40
3.700000000000046
100
AcDbArc
 50
180.0
 51
270.0
  0
ARC
  5
3BD75
330
1E
100
AcDbEntity
  8
24
100
AcDbCircle
 10
370.8639242904502
 20
705.7741909779815
 30
0.0
 40
0.5
100
AcDbArc
 50
180.0
 51
270.0
  0
ARC
  5
3BD76
330
1E
100
AcDbEntity
  8
12
100
AcDbCircle
 10
370.8639242904502
 20
705.7741909779815
 30
0.0
 40
3.700000000000046
100
AcDbArc
 50
180.0
 51
270.0
  0
DIMENSION
  5
3BD77
330
1E
100
AcDbEntity
  8
30
100
AcDbDimension
280
     0
  2
*D12
 10
467.3483969060781
 20
696.5741909779817
 30
0.0
 11
497.1150635727446
 21
728.3408576446483
 31
0.0
 70
   160
  1
<> (max.)
 71
     2
 42
16.5
 73
     0
 74
     0
 75
     0
  3
STANDARD1
100
AcDbAlignedDimension
 13
424.6639242904501
 23
680.0741909779817
 33
0.0
 14
453.47075922585
 24
696.5741909779817
 34
0.0
 50
90.0
100
AcDbRotatedDimension
  0
DIMENSION
  5
3BD78
330
1E
100
AcDbEntity
  8
30
100
AcDbDimension
280
     0
  2
*D13
 10
367.1639242904503
 20
744.0695449059115
 30
0.0
 11
375.2639242904503
 21
744.0695449059115
 31
0.0
 70
   160
  1
<>
 71
     2
 42
16.19999999999982
 73
     0
 74
     0
 75
     0
  3
STANDARD1
100
AcDbAlignedDimension
 13
383.3639242904501
 23
716.5741909779817
 33
0.0
 14
367.1639242904503
 24
733.7107127591816
 34
0.0
100
AcDbRotatedDimension
  0
LINE
  5
3BD79
330
1E
100
AcDbEntity
  8
17
100
AcDbLine
 10
424.6639226514496
 20
680.0741940773819
 30
0.0
 11
387.9770961540499
 21
680.0741940773819
 31
0.0
  0
LINE
  5
3BD7A
330
1E
100
AcDbEntity
  8
12
  6
SLD-鎖線
370
     0
100
AcDbLine
 10
362.4276266384504
 20
714.5741894877817
 30
0.0
 11
386.8639235336504
 21
714.5741894877817
 31
0.0
  0
ARC
  5
3BD7B
330
1E
100
AcDbEntity
  8
13
100
AcDbCircle
 10
423.663921638253
 20
663.3635684686137
 30
0.0
 40
0.5
100
AcDbArc
 50
270.6701511246629
 51
0.0000000001237617
  0
LINE
  5
3BD7C
330
1E
100
AcDbEntity
  8
SLD-0
100
AcDbLine
 10
414.1741160477421
 20
683.9541909779817
 30
0.0
 11
429.5706084861408
 21
705.0466607680519
 31
0.0
  0
LINE
  5
3BD7D
330
1E
100
AcDbEntity
  8
30
100
AcDbLine
 10
429.5706084861408
 20
705.0466607680519
 30
0.0
 11
462.4332347535164
 21
705.0452572759517
 31
0.0
  0
MTEXT
  5
3BD7E
330
1E
100
AcDbEntity
  8
30
100
AcDbMText
 10
431.8056326718233
 20
711.7630692850651
 30
50.0
 40
5.0
 41
26.0
 46
0.0
 71
     1
 72
     5
  1
M8screw
  7
blockfont
 73
     1
 44
1.0
  0
INSERT
  5
3BD7F
330
1E
100
AcDbEntity
  8
24
100
AcDbBlockReference
  2
_DOT
 10
404.05442822285
 20
676.4685099013817
 30
50.0
 41
1.5
 42
1.5
 43
2.0
 50
116.6603336343
  0
MTEXT
  5
3BD80
330
1E
100
AcDbEntity
  8
30
  6
Continuous
100
AcDbMText
 10
441.8789126140353
 20
644.5559889106839
 30
50.0
 40
5.0
 41
26.0
 46
0.0
 71
     1
 72
     5
  1
M8 nut
  7
blockfont
 73
     1
 44
1.0
  0
LEADER
  5
3BD81
330
1E
100
AcDbEntity
  8
30
100
AcDbLeader
  3
STANDARD1
 76
     3
 10
404.5592161753456
 20
675.46311737952
 30
50.0
 10
442.509677341374
 20
637.0765121976559
 30
50.0
 10
466.9999763789554
 20
637.0759487178105
 30
50.0
211
-1.0
221
0.0
231
0.0
210
0.0
220
0.0
230
-1.0
  0
DIMENSION
  5
3BD82
330
1E
100
AcDbEntity
  8
30
100
AcDbDimension
280
     0
  2
*D14
 10
397.1639215946154
 20
642.0941972177819
 30
0.0
 11
410.663921616415
 21
642.0941972177819
 31
0.0
 70
   160
  1
13.5
 71
     2
 42
27.00000004360027
 73
     0
 74
     0
 75
     0
  3
STANDARD1
100
AcDbAlignedDimension
 13
424.1639216382156
 23
676.6941940773818
 33
0.0
 14
397.1639215946154
 24
667.2741940773817
 34
0.0
100
AcDbRotatedDimension
  0
DIMENSION
  5
3BD83
330
1E
100
AcDbEntity
  8
30
100
AcDbDimension
280
     0
  2
*D15
 10
397.1639215946154
 20
642.0941974859819
 30
0.0
 11
383.6639216164151
 21
642.0941974859819
 31
0.0
 70
   160
  1
13.5
 71
     2
 42
26.99999995640019
 73
     0
 74
     0
 75
     0
  3
STANDARD1
100
AcDbAlignedDimension
 13
370.1639216382152
 23
702.5741943455819
 33
0.0
 14
397.1639215946154
 24
667.2741940773817
 34
0.0
100
AcDbRotatedDimension
  0
DIMENSION
  5
3BD84
330
1E
100
AcDbEntity
  8
30
100
AcDbDimension
280
     0
  2
*D16
 10
370.1639216382152
 20
642.0941972177819
 30
0.0
 11
361.1639216382152
 21
642.0941972177819
 31
0.0
 70
   160
  1
<>
 71
     2
 42
18.0
 73
     0
 74
     0
 75
     0
  3
STANDARD1
100
AcDbAlignedDimension
 13
352.1639216382153
 23
664.0740940635818
 33
0.0
 14
370.1639216382152
 24
702.5741943455819
 34
0.0
100
AcDbRotatedDimension
  0
LWPOLYLINE
  5
3BD85
330
1E
100
AcDbEntity
  8
18
100
AcDbPolyline
 90
        4
 70
     1
 43
0.0
 10
45.77656930946909
 20
72.83059310330083
 10
45.77656930946909
 20
252.7905868227006
 10
185.5765693094692
 20
252.7905868227006
 10
185.5765693094692
 20
72.83059310330083
  0
LWPOLYLINE
  5
3BD86
330
1E
100
AcDbEntity
  8
18
100
AcDbPolyline
 90
        4
 70
     1
 43
0.0
 10
279.1074645386725
 20
252.7905868227006
 10
418.7324667598723
 20
252.7905868227006
 10
418.7324667598723
 20
72.83059310330083
 10
279.1074748364727
 20
72.83059310330083
  0
LWPOLYLINE
  5
3BD88
330
1E
100
AcDbEntity
  8
18
100
AcDbPolyline
 90
        4
 70
     1
 43
0.0
 10
468.546177597349
 20
252.7905868227006
 10
608.1711798185486
 20
252.7905868227006
 10
608.1711798185486
 20
72.83059310330083
 10
468.5461878951492
 20
72.83059310330083
  0
LINE
  5
3BD92
330
1E
100
AcDbEntity
  8
10
100
AcDbLine
 10
185.276569309469
 20
590.8769900213399
 30
0.0
 11
46.52554265951414
 21
590.8769900213399
 31
0.0
  0
ARC
  5
3BD93
330
1E
100
AcDbEntity
  8
10
100
AcDbCircle
 10
46.52554265951414
 20
590.3769900213399
 30
0.0
 40
0.5
100
AcDbArc
 50
90.0
 51
179.9170634756327
  0
LINE
  5
3BD94
330
1E
100
AcDbEntity
  8
13
100
AcDbLine
 10
185.276569309469
 20
410.8769919882398
 30
0.0
 11
46.52554265666707
 21
410.8769919882398
 31
0.0
  0
ARC
  5
3BD95
330
1E
100
AcDbEntity
  8
13
100
AcDbCircle
 10
46.52554265666707
 20
411.3769919882398
 30
0.0
 40
0.5
100
AcDbArc
 50
180.0829365243671
 51
270.0
  0
LWPOLYLINE
  5
3BD96
330
1E
100
AcDbEntity
  8
12
370
    15
100
AcDbPolyline
 90
        8
 70
     1
 43
0.0
 10
140.7806520490685
 20
193.0493732667008
 10
55.78065204906852
 20
193.0493732667008
 42
0.4142135623730951
 10
55.28065204906853
 20
192.5493732667007
 10
55.28065204906853
 20
131.5493732667007
 42
0.4142135623730951
 10
55.78065204906852
 20
131.0493732667007
 10
140.7806520490685
 20
131.0493732667007
 42
0.4142135623730951
 10
141.2806520490685
 20
131.5493732667007
 10
141.2806520490685
 20
192.5493732667007
 42
0.4142135623730951
  0
CIRCLE
  5
3BD97
330
1E
100
AcDbEntity
  8
12
100
AcDbCircle
 10
113.2765693094691
 20
200.3105899631008
 30
0.0
 40
3.000000000000001
  0
CIRCLE
  5
3BD98
330
1E
100
AcDbEntity
  8
12
100
AcDbCircle
 10
113.2765693094691
 20
125.3105899631007
 30
0.0
 40
3.000000000000013
  0
INSERT
  5
3BD99
330
1E
100
AcDbEntity
  8
12
100
AcDbBlockReference
  2
SW_CENTERMARKSYMBOL_54
 10
113.2765693094691
 20
200.3105899631008
 30
0.0
 41
2.0
 42
2.0
 43
2.0
  0
INSERT
  5
3BD9A
330
1E
100
AcDbEntity
  8
12
100
AcDbBlockReference
  2
SW_CENTERMARKSYMBOL_55
 10
113.2765693094691
 20
125.3105899631007
 30
0.0
 41
2.0
 42
2.0
 43
2.0
  0
DIMENSION
  5
3BD9C
330
1E
100
AcDbEntity
  8
30
100
AcDbDimension
280
     0
  2
*D18
 10
209.4292121121644
 20
131.0493732667007
 30
0.0
 11
209.4292121121644
 21
162.8105899631007
 31
0.0
 70
   160
 71
     5
 42
62.0000000000001
 73
     0
 74
     0
 75
     0
  3
STANDARD
100
AcDbAlignedDimension
 13
140.7806520490685
 23
193.0493732667008
 33
0.0
 14
141.2806520490685
 24
131.0493732667007
 34
0.0
 50
90.0
100
AcDbRotatedDimension
  0
LINE
  5
3BD9D
330
1E
100
AcDbEntity
  8
16
100
AcDbLine
 10
98.27656930946908
 20
602.3099759200253
 30
0.0
 11
98.27656930946908
 21
363.7691839085745
 31
0.0
  0
LINE
  5
3BD9E
330
1E
100
AcDbEntity
  8
10
100
AcDbLine
 10
165.776569309469
 20
540.3265225213398
 30
0.0
 11
165.776569309469
 21
532.6269900213403
 31
0.0
  0
LINE
  5
3BD9F
330
1E
100
AcDbEntity
  8
10
100
AcDbLine
 10
170.776569309469
 20
541.1018650213399
 30
0.0
 11
171.776569309469
 21
542.10186502134
 31
0.0
  0
LINE
  5
3BDA0
330
1E
100
AcDbEntity
  8
10
100
AcDbLine
 10
164.7765693094689
 20
532.98054502134
 30
0.0
 11
165.776569309469
 21
533.98054502134
 31
0.0
  0
LINE
  5
3BDA1
330
1E
100
AcDbEntity
  8
10
100
AcDbLine
 10
165.9147468094692
 20
540.1291275213403
 30
0.0
 11
166.6327793094691
 21
540.8471600213402
 31
0.0
  0
LINE
  5
3BDA2
330
1E
100
AcDbEntity
  8
10
100
AcDbLine
 10
170.776569309469
 20
536.8592225213399
 30
0.0
 11
171.776569309469
 21
537.8592225213401
 31
0.0
  0
LINE
  5
3BDA3
330
1E
100
AcDbEntity
  8
10
100
AcDbLine
 10
170.776569309469
 20
537.9198825213403
 30
0.0
 11
171.776569309469
 21
538.9198825213401
 31
0.0
  0
LINE
  5
3BDA4
330
1E
100
AcDbEntity
  8
10
100
AcDbLine
 10
170.776569309469
 20
535.4450100213401
 30
0.0
 11
171.776569309469
 21
536.44501002134
 31
0.0
  0
LINE
  5
3BDA5
330
1E
100
AcDbEntity
  8
10
100
AcDbLine
 10
170.4277518094692
 20
533.68197752134
 30
0.0
 11
171.776569309469
 21
535.0307975213401
 31
0.0
  0
LINE
  5
3BDA6
330
1E
100
AcDbEntity
  8
10
100
AcDbLine
 10
164.7765693094689
 20
538.9909525213401
 30
0.0
 11
165.776569309469
 21
539.9909525213399
 31
0.0
  0
LINE
  5
3BDA7
330
1E
100
AcDbEntity
  8
10
100
AcDbLine
 10
164.7765693094689
 20
540.0516125213401
 30
0.0
 11
166.1960368094693
 21
541.4710775213404
 31
0.0
  0
LINE
  5
3BDA8
330
1E
100
AcDbEntity
  8
10
100
AcDbLine
 10
169.4086843094691
 20
535.1377850213403
 30
0.0
 11
170.1267168094692
 21
535.8558175213401
 31
0.0
  0
LINE
  5
3BDA9
330
1E
100
AcDbEntity
  8
10
100
AcDbLine
 10
170.5733318094691
 20
533.4740050213402
 30
0.0
 11
171.776569309469
 21
534.6772425213401
 31
0.0
  0
LINE
  5
3BDAA
330
1E
100
AcDbEntity
  8
10
100
AcDbLine
 10
170.776569309469
 20
537.21277752134
 30
0.0
 11
171.776569309469
 21
538.2127775213398
 31
0.0
  0
LINE
  5
3BDAB
330
1E
100
AcDbEntity
  8
10
100
AcDbLine
 10
166.2059068094692
 20
539.7131825213403
 30
0.0
 11
166.9239393094691
 21
540.4312150213399
 31
0.0
  0
LINE
  5
3BDAC
330
1E
100
AcDbEntity
  8
10
100
AcDbLine
 10
164.7765693094689
 20
536.1625250213402
 30
0.0
 11
165.776569309469
 21
537.1625250213402
 31
0.0
  0
LINE
  5
3BDAD
330
1E
100
AcDbEntity
  8
10
100
AcDbLine
 10
164.7765693094689
 20
535.10186502134
 30
0.0
 11
165.776569309469
 21
536.10186502134
 31
0.0
  0
LINE
  5
3BDAE
330
1E
100
AcDbEntity
  8
10
100
AcDbLine
 10
166.060326809469
 20
539.9211550213401
 30
0.0
 11
166.7783593094689
 21
540.6391875213403
 31
0.0
  0
LINE
  5
3BDAF
330
1E
100
AcDbEntity
  8
10
100
AcDbLine
 10
170.776569309469
 20
538.9805450213404
 30
0.0
 11
171.776569309469
 21
539.9805450213403
 31
0.0
  0
LINE
  5
3BDB0
330
1E
100
AcDbEntity
  8
10
100
AcDbLine
 10
170.776569309469
 20
536.50567002134
 30
0.0
 11
171.776569309469
 21
537.50567002134
 31
0.0
  0
LINE
  5
3BDB1
330
1E
100
AcDbEntity
  8
10
100
AcDbLine
 10
168.5351993094692
 20
536.38562002134
 30
0.0
 11
169.2532343094691
 21
537.1036550213402
 31
0.0
  0
LINE
  5
3BDB2
330
1E
100
AcDbEntity
  8
10
100
AcDbLine
 10
171.776569309469
 20
532.6269900213403
 30
0.0
 11
171.776569309469
 21
542.6269900213403
 31
0.0
  0
LINE
  5
3BDB3
330
1E
100
AcDbEntity
  8
10
100
AcDbLine
 10
164.7765693094689
 20
540.4051650213403
 30
0.0
 11
166.050454309469
 21
541.6790500213402
 31
0.0
  0
LINE
  5
3BDB4
330
1E
100
AcDbEntity
  8
10
100
AcDbLine
 10
164.7765693094689
 20
540.7587175213397
 30
0.0
 11
165.904874309469
 21
541.8870225213402
 31
0.0
  0
LINE
  5
3BDB5
330
1E
100
AcDbEntity
  8
10
100
AcDbLine
 10
170.776569309469
 20
538.2734375213398
 30
0.0
 11
171.776569309469
 21
539.2734375213398
 31
0.0
  0
LINE
  5
3BDB6
330
1E
100
AcDbEntity
  8
10
100
AcDbLine
 10
169.9910093094691
 20
534.3058950213402
 30
0.0
 11
170.7090418094691
 21
535.0239275213403
 31
0.0
  0
LINE
  5
3BDB7
330
1E
100
AcDbEntity
  8
10
100
AcDbLine
 10
167.3705543094692
 20
538.0494025213399
 30
0.0
 11
168.0885868094689
 21
538.7674350213399
 31
0.0
  0
LINE
  5
3BDB8
330
1E
100
AcDbEntity
  8
10
100
AcDbLine
 10
167.6617168094691
 20
537.6334575213401
 30
0.0
 11
168.379749309469
 21
538.3514900213404
 31
0.0
  0
LINE
  5
3BDB9
330
1E
100
AcDbEntity
  8
10
100
AcDbLine
 10
164.7765693094689
 20
536.5160775213401
 30
0.0
 11
165.776569309469
 21
537.5160775213402
 31
0.0
  0
LINE
  5
3BDBA
330
1E
100
AcDbEntity
  8
10
100
AcDbLine
 10
164.7765693094689
 20
541.8193775213397
 30
0.0
 11
165.4681318094691
 21
542.51094002134
 31
0.0
  0
LINE
  5
3BDBB
330
1E
100
AcDbEntity
  8
10
100
AcDbLine
 10
164.7765693094689
 20
542.6269900213403
 30
0.0
 11
165.3868968094692
 21
542.6269900213403
 31
0.0
  0
LINE
  5
3BDBC
330
1E
100
AcDbEntity
  8
10
100
AcDbLine
 10
165.1301243094691
 20
532.6269900213403
 30
0.0
 11
165.776569309469
 21
533.2734375213401
 31
0.0
  0
LINE
  5
3BDBD
330
1E
100
AcDbEntity
  8
10
100
AcDbLine
 10
164.7765693094689
 20
532.6269900213403
 30
0.0
 11
165.776569309469
 21
533.6269900213403
 31
0.0
  0
LINE
  5
3BDBE
330
1E
100
AcDbEntity
  8
10
100
AcDbLine
 10
164.7765693094689
 20
535.4554175213401
 30
0.0
 11
165.776569309469
 21
536.4554175213402
 31
0.0
  0
LINE
  5
3BDBF
330
1E
100
AcDbEntity
  8
10
100
AcDbLine
 10
165.4836768094688
 20
532.6269900213403
 30
0.0
 11
165.776569309469
 21
532.9198825213405
 31
0.0
  0
LINE
  5
3BDC0
330
1E
100
AcDbEntity
  8
10
100
AcDbLine
 10
171.0100743094691
 20
532.8500875213403
 30
0.0
 11
171.776569309469
 21
533.6165825213403
 31
0.0
  0
LINE
  5
3BDC1
330
1E
100
AcDbEntity
  8
10
100
AcDbLine
 10
170.776569309469
 20
535.7985625213403
 30
0.0
 11
171.776569309469
 21
536.7985625213401
 31
0.0
  0
LINE
  5
3BDC2
330
1E
100
AcDbEntity
  8
10
100
AcDbLine
 10
170.776569309469
 20
534.9274600213401
 30
0.0
 11
170.776569309469
 21
542.6269900213403
 31
0.0
  0
LINE
  5
3BDC3
330
1E
100
AcDbEntity
  8
10
100
AcDbLine
 10
166.351489309469
 20
539.50521002134
 30
0.0
 11
167.0695218094691
 21
540.2232425213401
 31
0.0
  0
LINE
  5
3BDC4
330
1E
100
AcDbEntity
  8
10
100
AcDbLine
 10
170.776569309469
 20
535.0914575213403
 30
0.0
 11
171.776569309469
 21
536.0914575213403
 31
0.0
  0
LINE
  5
3BDC5
330
1E
100
AcDbEntity
  8
10
100
AcDbLine
 10
166.9338118094689
 20
538.6733200213398
 30
0.0
 11
167.6518443094693
 21
539.3913525213402
 31
0.0
  0
LINE
  5
3BDC6
330
1E
100
AcDbEntity
  8
10
100
AcDbLine
 10
169.5542668094691
 20
534.92981252134
 30
0.0
 11
170.272299309469
 21
535.6478450213399
 31
0.0
  0
LINE
  5
3BDC7
330
1E
100
AcDbEntity
  8
10
100
AcDbLine
 10
164.7765693094689
 20
537.5767375213402
 30
0.0
 11
165.776569309469
 21
538.5767375213402
 31
0.0
  0
LINE
  5
3BDC8
330
1E
100
AcDbEntity
  8
10
100
AcDbLine
 10
170.864494309469
 20
533.0580600213401
 30
0.0
 11
171.776569309469
 21
533.97013752134
 31
0.0
  0
LINE
  5
3BDC9
330
1E
100
AcDbEntity
  8
10
100
AcDbLine
 10
170.776569309469
 20
539.33409752134
 30
0.0
 11
171.776569309469
 21
540.33409752134
 31
0.0
  0
LINE
  5
3BDCA
330
1E
100
AcDbEntity
  8
10
100
AcDbLine
 10
164.7765693094689
 20
533.6876500213402
 30
0.0
 11
165.776569309469
 21
534.6876500213401
 31
0.0
  0
LINE
  5
3BDCB
330
1E
100
AcDbEntity
  8
10
100
AcDbLine
 10
170.776569309469
 20
542.6269900213403
 30
0.0
 11
171.776569309469
 21
542.6269900213403
 31
0.0
  0
LINE
  5
3BDCC
330
1E
100
AcDbEntity
  8
10
100
AcDbLine
 10
170.776569309469
 20
540.0412050213403
 30
0.0
 11
171.776569309469
 21
541.0412050213404
 31
0.0
  0
LINE
  5
3BDCD
330
1E
100
AcDbEntity
  8
10
100
AcDbLine
 10
166.6426493094692
 20
539.0892650213402
 30
0.0
 11
167.3606818094691
 21
539.8072975213404
 31
0.0
  0
LINE
  5
3BDCE
330
1E
100
AcDbEntity
  8
10
100
AcDbLine
 10
164.7765693094689
 20
533.33409752134
 30
0.0
 11
165.776569309469
 21
534.33409752134
 31
0.0
  0
LINE
  5
3BDCF
330
1E
100
AcDbEntity
  8
10
100
AcDbLine
 10
170.776569309469
 20
542.5160775213403
 30
0.0
 11
170.8874818094692
 21
542.6269900213403
 31
0.0
  0
LINE
  5
3BDD0
330
1E
100
AcDbEntity
  8
10
100
AcDbLine
 10
170.2821693094694
 20
533.8899500213403
 30
0.0
 11
171.776569309469
 21
535.3843500213403
 31
0.0
  0
LINE
  5
3BDD1
330
1E
100
AcDbEntity
  8
10
100
AcDbLine
 10
164.7765693094689
 20
532.6269900213403
 30
0.0
 11
164.7765693094689
 21
542.6269900213403
 31
0.0
  0
LINE
  5
3BDD2
330
1E
100
AcDbEntity
  8
10
100
AcDbLine
 10
169.2631043094691
 20
535.3457575213403
 30
0.0
 11
169.9811368094689
 21
536.0637900213403
 31
0.0
  0
LINE
  5
3BDD3
330
1E
100
AcDbEntity
  8
10
100
AcDbLine
 10
164.7765693094689
 20
541.4658250213403
 30
0.0
 11
165.6137118094691
 21
542.3029675213402
 31
0.0
  0
LINE
  5
3BDD4
330
1E
100
AcDbEntity
  8
10
100
AcDbLine
 10
170.776569309469
 20
537.56633002134
 30
0.0
 11
171.776569309469
 21
538.56633002134
 31
0.0
  0
LINE
  5
3BDD5
330
1E
100
AcDbEntity
  8
10
100
AcDbLine
 10
164.7765693094689
 20
541.1122725213401
 30
0.0
 11
165.7592943094693
 21
542.0949950213403
 31
0.0
  0
LINE
  5
3BDD6
330
1E
100
AcDbEntity
  8
10
100
AcDbLine
 10
171.1405318094693
 20
532.6269900213403
 30
0.0
 11
171.776569309469
 21
533.2630300213401
 31
0.0
  0
LINE
  5
3BDD7
330
1E
100
AcDbEntity
  8
10
100
AcDbLine
 10
167.9528768094691
 20
537.2175125213401
 30
0.0
 11
168.6709093094689
 21
537.9355450213402
 31
0.0
  0
LINE
  5
3BDD8
330
1E
100
AcDbEntity
  8
10
100
AcDbLine
 10
164.7765693094689
 20
542.52648502134
 30
0.0
 11
164.8770743094691
 21
542.6269900213403
 31
0.0
  0
LINE
  5
3BDD9
330
1E
100
AcDbEntity
  8
10
100
AcDbLine
 10
170.136589309469
 20
534.0979225213401
 30
0.0
 11
171.776569309469
 21
535.7379025213401
 31
0.0
  0
LINE
  5
3BDDA
330
1E
100
AcDbEntity
  8
10
100
AcDbLine
 10
164.7765693094689
 20
537.2231850213402
 30
0.0
 11
165.776569309469
 21
538.2231850213401
 31
0.0
  0
LINE
  5
3BDDB
330
1E
100
AcDbEntity
  8
10
100
AcDbLine
 10
168.3896193094693
 20
536.5935950213403
 30
0.0
 11
169.107651809469
 21
537.3116275213399
 31
0.0
  0
LINE
  5
3BDDC
330
1E
100
AcDbEntity
  8
10
100
AcDbLine
 10
164.7765693094689
 20
538.2838450213403
 30
0.0
 11
165.776569309469
 21
539.2838450213401
 31
0.0
  0
LINE
  5
3BDDD
330
1E
100
AcDbEntity
  8
10
100
AcDbLine
 10
164.7765693094689
 20
534.3947575213401
 30
0.0
 11
165.776569309469
 21
535.3947575213401
 31
0.0
  0
LINE
  5
3BDDE
330
1E
100
AcDbEntity
  8
10
100
AcDbLine
 10
164.7765693094689
 20
536.8696300213403
 30
0.0
 11
165.776569309469
 21
537.8696300213403
 31
0.0
  0
LINE
  5
3BDDF
330
1E
100
AcDbEntity
  8
10
100
AcDbLine
 10
166.4970693094693
 20
539.2972375213402
 30
0.0
 11
167.215101809469
 21
540.0152700213403
 31
0.0
  0
LINE
  5
3BDE0
330
1E
100
AcDbEntity
  8
10
100
AcDbLine
 10
170.718911809469
 20
533.2660325213403
 30
0.0
 11
171.776569309469
 21
534.3236900213403
 31
0.0
  0
LINE
  5
3BDE1
330
1E
100
AcDbEntity
  8
10
100
AcDbLine
 10
164.7765693094689
 20
542.1729325213402
 30
0.0
 11
165.2306293094692
 21
542.6269900213403
 31
0.0
  0
LINE
  5
3BDE2
330
1E
100
AcDbEntity
  8
10
100
AcDbLine
 10
168.244039309469
 20
536.8015675213403
 30
0.0
 11
168.9620718094692
 21
537.5196000213401
 31
0.0
  0
LINE
  5
3BDE3
330
1E
100
AcDbEntity
  8
10
100
AcDbLine
 10
169.8454268094691
 20
534.5138675213401
 30
0.0
 11
170.5634593094691
 21
535.2319000213404
 31
0.0
  0
LINE
  5
3BDE4
330
1E
100
AcDbEntity
  8
10
100
AcDbLine
 10
165.3868968094692
 20
542.6269900213403
 30
0.0
 11
170.776569309469
 21
534.9274600213401
 31
0.0
  0
LINE
  5
3BDE5
330
1E
100
AcDbEntity
  8
10
100
AcDbLine
 10
171.494084309469
 20
532.6269900213403
 30
0.0
 11
171.776569309469
 21
532.9094750213402
 31
0.0
  0
LINE
  5
3BDE6
330
1E
100
AcDbEntity
  8
10
100
AcDbLine
 10
164.7765693094689
 20
532.6269900213403
 30
0.0
 11
165.776569309469
 21
532.6269900213403
 31
0.0
  0
LINE
  5
3BDE7
330
1E
100
AcDbEntity
  8
10
100
AcDbLine
 10
164.7765693094689
 20
538.6373975213403
 30
0.0
 11
165.776569309469
 21
539.6373975213403
 31
0.0
  0
LINE
  5
3BDE8
330
1E
100
AcDbEntity
  8
10
100
AcDbLine
 10
168.9719418094693
 20
535.7617025213402
 30
0.0
 11
169.6899768094691
 21
536.4797350213398
 31
0.0
  0
LINE
  5
3BDE9
330
1E
100
AcDbEntity
  8
10
100
AcDbLine
 10
164.7765693094689
 20
539.69805752134
 30
0.0
 11
166.3416168094691
 21
541.2631050213398
 31
0.0
  0
LINE
  5
3BDEA
330
1E
100
AcDbEntity
  8
10
100
AcDbLine
 10
171.776569309469
 20
532.6269900213403
 30
0.0
 11
171.1662418094691
 21
532.6269900213403
 31
0.0
  0
LINE
  5
3BDEB
330
1E
100
AcDbEntity
  8
10
100
AcDbLine
 10
170.776569309469
 20
542.1625250213402
 30
0.0
 11
171.2410368094689
 21
542.6269900213403
 31
0.0
  0
LINE
  5
3BDEC
330
1E
100
AcDbEntity
  8
10
100
AcDbLine
 10
165.776569309469
 20
540.3265225213398
 30
0.0
 11
171.1662418094691
 21
532.6269900213403
 31
0.0
  0
LINE
  5
3BDED
330
1E
100
AcDbEntity
  8
10
100
AcDbLine
 10
170.776569309469
 20
541.4554175213402
 30
0.0
 11
171.776569309469
 21
542.4554175213398
 31
0.0
  0
LINE
  5
3BDEE
330
1E
100
AcDbEntity
  8
10
100
AcDbLine
 10
164.7765693094689
 20
537.9302925213401
 30
0.0
 11
165.776569309469
 21
538.9302925213402
 31
0.0
  0
LINE
  5
3BDEF
330
1E
100
AcDbEntity
  8
10
100
AcDbLine
 10
170.776569309469
 20
540.7483100213402
 30
0.0
 11
171.776569309469
 21
541.74831002134
 31
0.0
  0
LINE
  5
3BDF0
330
1E
100
AcDbEntity
  8
10
100
AcDbLine
 10
164.7765693094689
 20
539.3445050213403
 30
0.0
 11
166.4871968094691
 21
541.05513252134
 31
0.0
  0
LINE
  5
3BDF1
330
1E
100
AcDbEntity
  8
10
100
AcDbLine
 10
170.776569309469
 20
541.8089700213402
 30
0.0
 11
171.5945893094691
 21
542.6269900213403
 31
0.0
  0
LINE
  5
3BDF2
330
1E
100
AcDbEntity
  8
10
100
AcDbLine
 10
168.680781809469
 20
536.17764752134
 30
0.0
 11
169.398814309469
 21
536.89568252134
 31
0.0
  0
LINE
  5
3BDF3
330
1E
100
AcDbEntity
  8
10
100
AcDbLine
 10
169.117524309469
 20
535.5537300213399
 30
0.0
 11
169.8355568094689
 21
536.2717625213401
 31
0.0
  0
LINE
  5
3BDF4
330
1E
100
AcDbEntity
  8
10
100
AcDbLine
 10
168.0984568094691
 20
537.0095400213402
 30
0.0
 11
168.8164918094691
 21
537.72757252134
 31
0.0
  0
LINE
  5
3BDF5
330
1E
100
AcDbEntity
  8
10
100
AcDbLine
 10
170.776569309469
 20
536.15211752134
 30
0.0
 11
171.776569309469
 21
537.15211752134
 31
0.0
  0
LINE
  5
3BDF6
330
1E
100
AcDbEntity
  8
10
100
AcDbLine
 10
170.776569309469
 20
539.6876500213401
 30
0.0
 11
171.776569309469
 21
540.68765002134
 31
0.0
  0
LINE
  5
3BDF7
330
1E
100
AcDbEntity
  8
10
100
AcDbLine
 10
170.776569309469
 20
538.6269900213403
 30
0.0
 11
171.776569309469
 21
539.6269900213403
 31
0.0
  0
LINE
  5
3BDF8
330
1E
100
AcDbEntity
  8
10
100
AcDbLine
 10
164.7765693094689
 20
535.8089700213402
 30
0.0
 11
165.776569309469
 21
536.8089700213402
 31
0.0
  0
LINE
  5
3BDF9
330
1E
100
AcDbEntity
  8
10
100
AcDbLine
 10
167.8072968094692
 20
537.4254850213403
 30
0.0
 11
168.5253293094691
 21
538.1435175213403
 31
0.0
  0
LINE
  5
3BDFA
330
1E
100
AcDbEntity
  8
10
100
AcDbLine
 10
168.8263618094689
 20
535.9696750213402
 30
0.0
 11
169.5443943094693
 21
536.6877075213404
 31
0.0
  0
LINE
  5
3BDFB
330
1E
100
AcDbEntity
  8
10
100
AcDbLine
 10
167.224974309469
 20
538.2573750213403
 30
0.0
 11
167.943006809469
 21
538.9754075213401
 31
0.0
  0
LINE
  5
3BDFC
330
1E
100
AcDbEntity
  8
10
100
AcDbLine
 10
167.5161343094691
 20
537.8414300213401
 30
0.0
 11
168.2341668094691
 21
538.5594625213403
 31
0.0
  0
LINE
  5
3BDFD
330
1E
100
AcDbEntity
  8
10
100
AcDbLine
 10
164.7765693094689
 20
534.7483100213402
 30
0.0
 11
165.776569309469
 21
535.7483100213402
 31
0.0
  0
LINE
  5
3BDFE
330
1E
100
AcDbEntity
  8
10
100
AcDbLine
 10
170.776569309469
 20
540.39475752134
 30
0.0
 11
171.776569309469
 21
541.3947575213401
 31
0.0
  0
LINE
  5
3BDFF
330
1E
100
AcDbEntity
  8
10
100
AcDbLine
 10
166.7882318094689
 20
538.8812925213401
 30
0.0
 11
167.5062643094689
 21
539.59932502134
 31
0.0
  0
LINE
  5
3BE00
330
1E
100
AcDbEntity
  8
10
100
AcDbLine
 10
164.7765693094689
 20
534.0412050213399
 30
0.0
 11
165.776569309469
 21
535.0412050213403
 31
0.0
  0
LINE
  5
3BE01
330
1E
100
AcDbEntity
  8
10
100
AcDbLine
 10
167.0793918094692
 20
538.4653475213402
 30
0.0
 11
167.7974243094692
 21
539.1833800213403
 31
0.0
  0
LINE
  5
3BE02
330
1E
100
AcDbEntity
  8
10
100
AcDbLine
 10
169.6998468094692
 20
534.7218400213403
 30
0.0
 11
170.4178793094692
 21
535.43987252134
 31
0.0
  0
CIRCLE
  5
3BE03
330
1E
100
AcDbEntity
  8
10
100
AcDbCircle
 10
168.276569309469
 20
537.6269900213404
 30
0.0
 40
8.0
  0
MTEXT
  5
3BE07
330
1E
100
AcDbEntity
  8
19
100
AcDbMText
 10
192.5098768984266
 20
92.92845772490073
 30
0.0
 40
5.0
 41
58.0
 46
0.0
 71
     1
 72
     5
  1
Mounting\Pplate
  7
blockfont
 73
     1
 44
1.0
  0
MTEXT
  5
3BE08
330
1E
100
AcDbEntity
  8
19
100
AcDbMText
 10
299.28071527712
 20
21.57892600021751
 30
0.0
 40
7.826237649998486
 41
0.0
 46
0.0
 71
     1
 72
     1
  1
[Cutout A]
 73
     1
 44
1.0
  0
MTEXT
  5
3BE09
330
1E
100
AcDbEntity
  8
19
100
AcDbMText
 10
494.3219126531255
 20
20.71770551101753
 30
0.0
 40
7.826237649998486
 41
0.0
 46
0.0
 71
     1
 72
     1
  1
[Cutout B]
 73
     1
 44
1.0
  0
LWPOLYLINE
  5
3C117
330
1E
100
AcDbEntity
  8
130
  6
Continuous
100
AcDbPolyline
 90
        4
 70
     1
 43
0.0
 10
0.0
 20
891.0
 10
629.9999999999998
 20
891.0
 10
629.9999999999998
 20
0.0
 10
0.0
 20
0.0
  0
LINE
  5
3C45D
330
1E
100
AcDbEntity
  8
16
100
AcDbLine
 10
98.27656930946908
 20
261.6511508039967
 30
0.0
 11
98.27656930946908
 21
67.55422094513504
 31
0.0
  0
DIMENSION
  5
41620
330
1E
100
AcDbEntity
  8
30
100
AcDbDimension
280
     0
  2
*D29
 10
147.2765693094686
 20
536.0864367847557
 30
0.0
 11
110.0726725489048
 21
536.0864367847557
 31
0.0
 70
   160
 71
     5
 42
97.99999999999933
 73
     0
 74
     0
 75
     0
  3
STANDARD
100
AcDbAlignedDimension
 13
49.2765693094693
 23
525.8769900213398
 33
0.0
 14
147.2765693094686
 24
525.8769900213398
 34
0.0
100
AcDbRotatedDimension
  0
LINE
  5
41CF6
330
1E
100
AcDbEntity
  8
16
100
AcDbLine
 10
294.6423177271336
 20
500.8769890378898
 30
0.0
 11
419.4952075999172
 21
500.8769890378898
 31
0.0
  0
LINE
  5
41CF7
330
1E
100
AcDbEntity
  8
130
100
AcDbLine
 10
308.8017771638367
 20
525.8769890378897
 30
0.0
 11
308.8017771638367
 21
475.8769890378898
 31
0.0
  0
LINE
  5
41CF8
330
1E
100
AcDbEntity
  8
130
100
AcDbLine
 10
302.3017771638369
 20
523.3769890378899
 30
0.0
 11
302.3017771638369
 21
478.3769890378898
 31
0.0
  0
LINE
  5
41CF9
330
1E
100
AcDbEntity
  8
130
100
AcDbLine
 10
308.8017771638367
 20
475.8769890378898
 30
0.0
 11
312.8017771638367
 21
475.8769890378898
 31
0.0
  0
LINE
  5
41CFA
330
1E
100
AcDbEntity
  8
130
100
AcDbLine
 10
302.3017771638369
 20
478.3769890378898
 30
0.0
 11
308.8017771638367
 21
478.3769890378898
 31
0.0
  0
LINE
  5
41CFB
330
1E
100
AcDbEntity
  8
130
100
AcDbLine
 10
308.8017771638367
 20
525.8769890378897
 30
0.0
 11
312.8017771638367
 21
525.8769890378897
 31
0.0
  0
LINE
  5
41CFC
330
1E
100
AcDbEntity
  8
130
100
AcDbLine
 10
302.3017771638369
 20
523.3769890378899
 30
0.0
 11
308.8017771638367
 21
523.3769890378899
 31
0.0
  0
LWPOLYLINE
  5
41CFD
330
1E
100
AcDbEntity
  8
130
100
AcDbPolyline
 90
      178
 70
     0
 43
0.0
 10
325.5171349843676
 20
583.3769890378896
 10
325.4850437664331
 20
583.3679280235187
 10
325.4541928609032
 20
583.3591768961675
 10
325.4245481468765
 20
583.3507263576571
 10
325.3960755034519
 20
583.3425671098082
 10
325.3687408097284
 20
583.3346898544419
 10
325.3425099448045
 20
583.3270852933792
 10
325.3173487877792
 20
583.3197441284412
 10
325.2932232177514
 20
583.3126570614481
 10
325.2700991138197
 20
583.3058147942215
 10
325.2479423550831
 20
583.2992080285817
 10
325.2267188206403
 20
583.2928274663506
 10
325.2063943895901
 20
583.2866638093482
 10
325.1869349410313
 20
583.2807077593959
 10
325.1683063540629
 20
583.2749500183145
 10
325.1504745077834
 20
583.2693812879247
 10
325.133405281292
 20
583.2639922700482
 10
325.1170645536872
 20
583.258773666505
 10
325.1014182040679
 20
583.2537161791162
 10
325.0720721551812
 20
583.2440473600869
 10
325.0450941674224
 20
583.2349114275272
 10
325.020211273582
 20
583.2262339960042
 10
324.9971505064503
 20
583.217940680086
 10
324.9756388988182
 20
583.2099570943394
 10
324.9554034834758
 20
583.2022088533322
 10
324.9361712932139
 20
583.1946215716317
 10
324.8996247190933
 20
583.1796323444205
 10
324.8638154936724
 20
583.1643943425481
 10
324.8270313859709
 20
583.1484267525752
 10
324.7891775305987
 20
583.1316407308927
 10
324.7505056160152
 20
583.1140314214938
 10
324.7112673306805
 20
583.0955939683685
 10
324.6717143630541
 20
583.0763235155091
 10
324.6320984015955
 20
583.0562152069067
 10
324.5926711347646
 20
583.0352641865532
 10
324.5536842510212
 20
583.0134655984402
 10
324.5153894388248
 20
582.9908145865592
 10
324.4780244514449
 20
582.9673077317542
 10
324.4416568543986
 20
582.9429591628667
 10
324.4062403957106
 20
582.9177947444184
 10
324.3717267374293
 20
582.891840556015
 10
324.3380675416033
 20
582.8651226772631
 10
324.3052144702815
 20
582.8376671877682
 10
324.2731191855122
 20
582.8095001671369
 10
324.2417333493443
 20
582.7806476949747
 10
324.2110086238263
 20
582.7511358508882
 10
324.1808966710069
 20
582.7209907144826
 10
324.1513491529346
 20
582.6902383653646
 10
324.1223177316582
 20
582.6589048831396
 10
324.0937540692262
 20
582.6270163474146
 10
324.0378366690901
 20
582.5616784338865
 10
323.9832102489154
 20
582.4944332616282
 10
323.9295618227491
 20
582.4254715706872
 10
323.8771356965655
 20
582.3548488045887
 10
323.8515368674728
 20
582.3189125375632
 10
323.8264309215734
 20
582.2825585610956
 10
323.8018804042633
 20
582.2457860350928
 10
323.7779478609382
 20
582.2085941194611
 10
323.7546958369935
 20
582.1709819741072
 10
323.7321868778252
 20
582.1329487589375
 10
323.7104835288285
 20
582.0944936338587
 10
323.6896483353995
 20
582.0556157587778
 10
323.6697438429336
 20
582.0163142936007
 10
323.6508325968266
 20
581.9765883982345
 10
323.6329771424741
 20
581.9364372325856
 10
323.6162313791642
 20
581.8958619129491
 10
323.6005595366871
 20
581.8548838454874
 10
323.5858727572972
 20
581.8135364486866
 10
323.572081489805
 20
581.771853297941
 10
323.5590961830204
 20
581.7298679686452
 10
323.5468272857539
 20
581.6876140361937
 10
323.5351852468157
 20
581.645125075981
 10
323.5134235391651
 20
581.5595763738497
 10
323.4930946505506
 20
581.4734904654065
 10
323.4734821714542
 20
581.3871359538081
 10
320.8017822004367
 20
572.8769890378897
 10
320.8017822004367
 20
562.3769907366899
 10
320.8017822004367
 20
562.3769907366899
 10
320.8017822004367
 20
562.3769907366899
 10
320.8017822004367
 20
562.3769907366899
 10
320.8017771638369
 20
551.8769890378897
 10
312.8017771638367
 20
551.8769890378897
 10
312.8017771638367
 20
449.8769890378901
 10
320.8017771638369
 20
449.8769890378901
 10
320.8017771638369
 20
444.6269881884901
 10
320.8017822004367
 20
428.87698903789
 10
323.4734821714542
 20
420.3668421219715
 10
323.4930946505506
 20
420.2804876103728
 10
323.5134235391651
 20
420.1944017019298
 10
323.5351852468157
 20
420.1088529997985
 10
323.5468272857539
 20
420.0663640395857
 10
323.5590961830204
 20
420.0241101071343
 10
323.572081489805
 20
419.9821247778386
 10
323.5858727572972
 20
419.940441627093
 10
323.6005595366871
 20
419.8990942302922
 10
323.6162313791642
 20
419.8581161628301
 10
323.6329772859085
 20
419.8175409231236
 10
323.6508441513688
 20
419.777396116377
 10
323.669807748038
 20
419.7376993936472
 10
323.6898369906908
 20
419.6984674461933
 10
323.7109007941019
 20
419.6597169652735
 10
323.7329680730467
 20
419.6214646421466
 10
323.7560077422998
 20
419.5837271680706
 10
323.7799887166364
 20
419.5465212343043
 10
323.804879910831
 20
419.5098635321062
 10
323.830650239659
 20
419.4737707527348
 10
323.8572686178952
 20
419.4382595874483
 10
323.8847039603145
 20
419.4033467275061
 10
323.9129251816919
 20
419.3690488641657
 10
323.9419011968021
 20
419.3353826886863
 10
323.9716009204203
 20
419.3023648923261
 10
324.0019924665362
 20
419.2700119507237
 10
324.0330152575213
 20
419.2383326139865
 10
324.0645727969065
 20
419.2073259606845
 10
324.0965663190861
 20
419.1769904583964
 10
324.1288970584549
 20
419.1473245747022
 10
324.1614662494066
 20
419.1183267771807
 10
324.194175126336
 20
419.089995533412
 10
324.226924923637
 20
419.0623293109752
 10
324.2596168757045
 20
419.0353265774499
 10
324.2921522169325
 20
419.0089858004153
 10
324.3244321817152
 20
418.9833054474512
 10
324.3563580044473
 20
418.9582839861364
 10
324.3878309195229
 20
418.9339198840515
 10
324.4187521613365
 20
418.9102116087747
 10
324.4490229642821
 20
418.8871576278859
 10
324.4785445627547
 20
418.8647564089651
 10
324.507218191148
 20
418.8430064195912
 10
324.5349475579433
 20
418.8219049444511
 10
324.5617713656776
 20
418.8013847258518
 10
324.613681051679
 20
418.761425092441
 10
324.6649873842457
 20
418.7217620766126
 10
324.6910570001867
 20
418.7016126299919
 10
324.7177470264037
 20
418.6810223334062
 10
324.7453145457749
 20
418.6598195187356
 10
324.7740166411788
 20
418.6378325178599
 10
324.7889044173238
 20
418.6264949633256
 10
324.804402715691
 20
418.6149242791619
 10
324.8208004123609
 20
418.6031294100419
 10
324.8383864297156
 20
418.5911193061214
 10
324.8574496901373
 20
418.5789029175571
 10
324.8782791160081
 20
418.5664891945044
 10
324.9011636297102
 20
418.5538870871196
 10
324.9134668327424
 20
418.5475181862265
 10
324.9263921536258
 20
418.5411055455587
 10
324.939975707658
 20
418.534650283886
 10
324.9542536101369
 20
418.5281535199776
 10
324.9692619763603
 20
418.5216163726034
 10
324.9850369216258
 20
418.5150399605324
 10
325.0016145612314
 20
418.5084254025348
 10
325.0190310104747
 20
418.5017738173796
 10
325.0373223846535
 20
418.4950863238363
 10
325.0565247990656
 20
418.4883640406745
 10
325.0766743690087
 20
418.481608086664
 10
325.0978072097808
 20
418.4748195805736
 10
325.1199594366795
 20
418.4679996411736
 10
325.1431671650024
 20
418.461149387233
 10
325.1674665100476
 20
418.4542699375215
 10
325.1928935871126
 20
418.4473624108083
 10
325.2194845114953
 20
418.4404279258636
 10
325.2472753984934
 20
418.4334676014562
 10
325.276302363405
 20
418.4264825563558
 10
325.3066015215273
 20
418.4194739093321
 10
325.3382089881585
 20
418.4124427791545
 10
325.3711608785961
 20
418.4053902845922
 10
325.4054933081381
 20
418.3983175444152
 10
325.4412423920821
 20
418.391225677393
 10
325.4784442457261
 20
418.3841158022944
 10
325.5171349843676
 20
418.37698903789
 10
325.5171349843676
 20
418.37698903789
 10
354.008033270672
 20
418.37698903789
 10
380.8017771638366
 20
418.3769890378902
 10
380.8017771638366
 20
418.3769890378902
 10
380.8017771638366
 20
418.3769890378902
 10
380.8017771638366
 20
583.3769890378896
 10
380.8017771638366
 20
583.3769890378896
 10
325.5171349843676
 20
583.3769890378896
 10
380.8017771638366
 20
583.3769890378896
  0
LWPOLYLINE
  5
41CFE
330
1E
100
AcDbEntity
  8
10
100
AcDbPolyline
 90
       15
 70
     0
 43
0.0
 10
385.8067524100368
 20
410.8769890378898
 10
380.8017771638366
 20
410.8769910047898
 10
380.8017771638366
 20
412.8766895841897
 10
380.806752521843
 20
588.87729045849
 10
380.806752521843
 20
590.8769890378898
 10
386.3067524920431
 20
590.8769890378898
 10
460.8017771638369
 20
590.8769910047896
 10
460.7968019723791
 20
553.9767213486893
 42
-0.4141740625029322
 10
458.796802060208
 20
551.9769910047898
 10
403.8017754532368
 20
551.9769890721707
 10
403.801777163837
 20
449.8735370194442
 10
457.9514832185139
 20
449.8778527880718
 42
-0.4985807835779122
 10
460.8017771638369
 20
447.8778558142842
 10
460.8017771638369
 20
410.8769910047898
 10
385.8067524100368
 20
410.8769890378898
  0
LINE
  5
41CFF
330
1E
100
AcDbEntity
  8
12
  6
DASHDOT
100
AcDbLine
 10
401.8794349204307
 20
463.3769890378898
 30
0.0
 11
422.3416789924894
 21
463.3769890378898
 31
0.0
  0
LINE
  5
41D00
330
1E
100
AcDbEntity
  8
12
  6
DASHDOT
100
AcDbLine
 10
399.4281254016513
 20
538.3769890378897
 30
0.0
 11
422.9531894610472
 21
538.3769890378897
 31
0.0
  0
LWPOLYLINE
  5
41D01
330
1E
100
AcDbEntity
  8
12
370
     0
100
AcDbPolyline
 90
       11
 70
     1
 43
0.0
 10
403.8017754532368
 20
453.5778588387906
 10
403.8017754532375
 20
548.1778588387908
 42
-0.4142135623730951
 10
407.5017754532373
 20
551.8778588387906
 10
418.8017754532372
 20
551.8778588387906
 10
418.8017754532372
 20
548.6778588387908
 10
407.5017754532373
 20
548.6778588387908
 42
0.4142135623730951
 10
407.0017754532373
 20
548.1778588387908
 10
407.0017754532373
 20
453.0778588387907
 10
418.8017754532372
 20
453.0778588387907
 10
418.8017754532372
 20
449.8778588387906
 10
407.5017754532373
 20
449.8778588387906
 42
-0.4142135623730951
  0
INSERT
  5
41D02
330
1E
100
AcDbEntity
  8
12
100
AcDbBlockReference
  2
m5screw1
 10
403.8017754532368
 20
538.3769890378897
 30
0.0
  0
INSERT
  5
41D03
330
1E
100
AcDbEntity
  8
12
100
AcDbBlockReference
  2
m5screw1
 10
403.801777163837
 20
463.3769890378898
 30
0.0
  0
DIMENSION
  5
41D04
330
1E
100
AcDbEntity
  8
30
100
AcDbDimension
280
     0
  2
*D30
 10
514.8936472919396
 20
410.8769910047898
 30
0.0
 11
514.8936472919396
 21
500.8769910047896
 31
0.0
 70
   160
 71
     5
 42
179.9999999999998
 73
     0
 74
     0
 75
     0
  3
STANDARD
100
AcDbAlignedDimension
 13
461.801777163837
 23
590.8769910047896
 33
0.0
 14
461.801777163837
 24
410.8769910047898
 34
0.0
 50
90.0
100
AcDbRotatedDimension
  0
LINE
  5
41D05
330
1E
100
AcDbEntity
  8
SLD-0
100
AcDbLine
 10
416.9493853823895
 20
465.8769885163899
 30
0.0
 11
433.7855425721894
 21
486.7637621444715
 31
0.0
  0
LINE
  5
41D06
330
1E
100
AcDbEntity
  8
30
100
AcDbLine
 10
433.7855425721894
 20
486.7637621444715
 30
0.0
 11
466.148170967365
 21
486.7623586523713
 31
0.0
  0
MTEXT
  5
41D07
330
1E
100
AcDbEntity
  8
30
100
AcDbMText
 10
435.5205688856718
 20
493.4801706614845
 30
50.0
 40
5.0
 41
26.0
 46
0.0
 71
     1
 72
     5
  1
M5X0.8 screw
  7
blockfont
 73
     1
 44
1.0
  0
DIMENSION
  5
41D08
330
1E
100
AcDbEntity
  8
30
100
AcDbDimension
280
     0
  2
*D31
 10
403.801777163837
 20
344.4796203024803
 30
0.0
 11
344.8058311416754
 21
350.9796203024803
 31
0.0
 70
    32
 71
     5
 42
117.9918920443231
 73
     0
 74
     0
 75
     0
  3
STANDARD
100
AcDbAlignedDimension
 13
285.8098851195138
 23
511.7125300045081
 33
0.0
 14
403.801777163837
 24
448.5017704574508
 34
0.0
100
AcDbRotatedDimension
  0
DIMENSION
  5
41D09
330
1E
100
AcDbEntity
  8
30
100
AcDbDimension
280
     0
  2
*D32
 10
460.8017771638369
 20
378.6201753895641
 30
0.0
 11
432.3017771638369
 21
385.1201753895641
 31
0.0
 70
    32
 71
     5
 42
56.99999999999993
 73
     0
 74
     0
 75
     0
  3
STANDARD
100
AcDbAlignedDimension
 13
403.801777163837
 23
449.8735370194442
 33
0.0
 14
460.8017771638369
 24
410.8769910047898
 34
0.0
100
AcDbRotatedDimension
  0
LWPOLYLINE
  5
41D0B
330
1E
100
AcDbEntity
  8
130
100
AcDbPolyline
 90
        3
 70
     0
 43
0.0
 10
302.3017771638369
 20
512.53962403789
 10
289.0511010981663
 20
516.8797014588967
 42
0.4244748162090625
 10
286.6003767671696
 20
515.3720057909773
  0
LWPOLYLINE
  5
41D0C
330
1E
100
AcDbEntity
  8
130
100
AcDbPolyline
 90
       51
 70
     0
 43
0.0
 10
286.6003767671696
 20
515.3720057909773
 10
285.7919779409535
 20
512.1003717187707
 42
0.4248673327981316
 10
287.38371120797
 20
509.7011602130153
 10
287.7829894793322
 20
509.6284025332638
 10
288.1727790166534
 20
509.5583965153756
 10
288.5532672713114
 20
509.4910522198138
 10
288.9246416946755
 20
509.4262797070443
 10
289.2870897381142
 20
509.3639890375321
 10
289.6407988529963
 20
509.3040902717428
 10
289.9859564906904
 20
509.2464934701427
 10
290.3227501025654
 20
509.1911086931964
 10
290.6513671399896
 20
509.1378460013693
 10
290.9719950543319
 20
509.0866154551273
 10
291.2848212969613
 20
509.0373271149355
 10
291.5900333192462
 20
508.9898910412596
 10
291.8878185725553
 20
508.9442172945648
 10
292.1783645082573
 20
508.9002159353171
 10
292.4618585777212
 20
508.8577970239817
 10
292.7384882323154
 20
508.8168706210238
 10
293.0084409234087
 20
508.777346786909
 10
293.2719041023697
 20
508.7391355821027
 10
293.5290652205672
 20
508.7021470670708
 10
293.78011172937
 20
508.6662913022784
 10
294.0252310801469
 20
508.6314783481911
 10
294.264610724266
 20
508.5976182652741
 10
294.4984381130966
 20
508.564621113993
 10
294.7269006980074
 20
508.5323969548134
 10
294.9501859303668
 20
508.5008558482008
 10
295.1684812615436
 20
508.4699078546202
 10
295.3819741429068
 20
508.4394630345378
 10
295.5908520258244
 20
508.4094314484183
 10
295.795302361666
 20
508.3797231567278
 10
295.9955126017996
 20
508.3502482199314
 10
296.1916701975943
 20
508.3209166984947
 10
296.3839626004187
 20
508.2916386528832
 10
297.5725772616415
 20
508.2623241435618
 10
297.7577016326313
 20
508.2328832309973
 10
297.9395194168804
 20
508.2032305849843
 10
298.1181689461037
 20
508.1733366758556
 10
298.46639541681
 20
508.1128559454683
 10
298.8032426816649
 20
508.0515061367107
 10
299.1295718340307
 20
507.9893530149472
 10
299.4462439672695
 20
507.9264623455418
 10
299.7541201747436
 20
507.8628998938583
 10
300.0540615498153
 20
507.7987314252611
 10
300.3469291858467
 20
507.7340227051142
 10
300.6335841762
 20
507.6688394987819
 10
300.9148876142376
 20
507.6032475716278
 10
301.1917005933217
 20
507.5373126890162
 10
301.7352995480783
 20
507.404677118877
 10
302.2712697873674
 20
507.2714589112766
  0
DIMENSION
  5
41D0D
330
1E
100
AcDbEntity
  8
30
100
AcDbDimension
280
     0
  2
*D33
 10
308.8017771638367
 20
362.6437203558105
 30
0.0
 11
356.3017771638369
 21
369.1437203558105
 31
0.0
 70
    32
 71
     5
 42
95.00000000000028
 73
     0
 74
     0
 75
     0
  3
STANDARD
100
AcDbAlignedDimension
 13
403.801777163837
 23
378.1201753895641
 33
0.0
 14
308.8017771638367
 24
475.8769890378901
 34
0.0
100
AcDbRotatedDimension
  0
DIMENSION
  5
41D0E
330
1E
100
AcDbEntity
  8
30
100
AcDbDimension
280
     0
  2
*D34
 10
312.8017771638367
 20
378.6201753895641
 30
0.0
 11
358.3017771638369
 21
385.1201753895641
 31
0.0
 70
    32
 71
     5
 42
91.00000000000028
 73
     0
 74
     0
 75
     0
  3
STANDARD
100
AcDbAlignedDimension
 13
403.801777163837
 23
410.8769895098466
 33
0.0
 14
312.8017771638367
 24
449.8769890378901
 34
0.0
100
AcDbRotatedDimension
  0
DIMENSION
  5
41D0F
330
1E
100
AcDbEntity
  8
30
100
AcDbDimension
280
     0
  2
*D35
 10
302.3017771638367
 20
362.6437203558105
 30
0.0
 11
268.8017771638367
 21
362.6437203558105
 31
0.0
 70
   160
 71
     5
 42
6.5
 73
     0
 74
     0
 75
     0
  3
STANDARD1
100
AcDbAlignedDimension
 13
308.8017771638367
 23
475.8769890378901
 33
0.0
 14
302.3017771638367
 24
478.3769890378898
 34
0.0
100
AcDbRotatedDimension
  0
DIMENSION
  5
41D10
330
1E
100
AcDbEntity
  8
30
100
AcDbDimension
280
     0
  2
*D36
 10
269.2728396462133
 20
475.8769890378901
 30
0.0
 11
262.7728396462132
 21
500.8769890378901
 31
0.0
 70
    32
 71
     5
 42
50.00000000000007
 73
     0
 74
     0
 75
     0
  3
STANDARD
100
AcDbAlignedDimension
 13
308.8017771638367
 23
525.8769890378901
 33
0.0
 14
308.8017771638367
 24
475.8769890378901
 34
0.0
 50
90.0
100
AcDbRotatedDimension
  0
DIMENSION
  5
41D11
330
1E
100
AcDbEntity
  8
30
100
AcDbDimension
280
     0
  2
*D37
 10
494.732737615961
 20
449.9274209129806
 30
0.0
 11
488.2327376159608
 21
500.9522054628073
 31
0.0
 70
    32
 71
     5
 42
102.0495690996527
 73
     0
 74
     0
 75
     0
  3
STANDARD
100
AcDbAlignedDimension
 13
462.065610540365
 23
551.9769900126335
 33
0.0
 14
461.759587757685
 24
449.9274209129806
 34
0.0
 50
90.0
100
AcDbRotatedDimension
  0
DIMENSION
  5
41E05
330
1E
100
AcDbEntity
  8
30
100
AcDbDimension
280
     0
  2
*D38
 10
141.2806520490685
 20
25.67286869494001
 30
0.0
 11
98.28065204906851
 21
32.17286869494002
 31
0.0
 70
    32
 71
     5
 42
86.0
 73
     0
 74
     0
 75
     0
  3
STANDARD
100
AcDbAlignedDimension
 13
55.28065204906853
 23
131.0493732667007
 33
0.0
 14
141.2806520490685
 24
131.5493732667007
 34
0.0
100
AcDbRotatedDimension
  0
DIMENSION
  5
41E40
330
1E
100
AcDbEntity
  8
30
100
AcDbDimension
280
     0
  2
*D39
 10
230.0560825147832
 20
125.3105899631006
 30
0.0
 11
223.5560825147831
 21
162.8105899631007
 31
0.0
 70
    32
 71
     5
 42
75.00000000000013
 73
     0
 74
     0
 75
     0
  3
STANDARD
100
AcDbAlignedDimension
 13
113.2765693094691
 23
200.3105899631008
 33
0.0
 14
113.2765693094691
 24
125.3105899631007
 34
0.0
 50
90.0
100
AcDbRotatedDimension
  0
DIMENSION
  5
41E81
330
1E
100
AcDbEntity
  8
30
100
AcDbDimension
280
     0
  2
*D40
 10
83.27656930946909
 20
44.89034673760534
 30
0.0
 11
69.27861067926881
 21
51.39034673760534
 31
0.0
 70
    32
 71
     5
 42
27.99591726040057
 73
     0
 74
     0
 75
     0
  3
STANDARD
100
AcDbAlignedDimension
 13
55.28065204906853
 23
131.5493732667007
 33
0.0
 14
83.27656930946909
 24
125.3105899631007
 34
0.0
100
AcDbRotatedDimension
  0
CIRCLE
  5
41F7C
330
1E
100
AcDbEntity
  8
24
  6
SLD-実線
 62
     7
370
    15
100
AcDbCircle
 10
547.4760105998277
 20
679.4090970687159
 30
0.0
 40
4.5
  0
LINE
  5
41F7D
330
1E
100
AcDbEntity
  8
24
  6
CONTINOUS
100
AcDbLine
 10
559.9760107860277
 20
659.409097515716
 30
0.0
 11
559.9760107860277
 21
695.9090969793162
 31
0.0
  0
SPLINE
  5
41F7E
330
1E
100
AcDbEntity
  8
24
  6
CONTINOUS
100
AcDbSpline
210
0.0
220
0.0
230
1.0
 70
     8
 71
     3
 72
    10
 73
     6
 74
     0
 42
0.000000001
 43
0.0000000001
 40
0.1290742078780965
 40
0.1290742078780965
 40
0.1290742078780965
 40
0.1290742078780965
 40
0.2894550818231108
 40
0.641906628345395
 40
0.8642474622913114
 40
0.8642474622913114
 40
0.8642474622913114
 40
0.8642474622913114
 10
534.9760105998224
 20
659.4090970686285
 30
0.0
 10
536.6629675949063
 20
658.5642938198045
 30
0.0
 10
541.9954105457793
 20
657.2427762186373
 30
0.0
 10
545.3997629416973
 20
658.0353005314329
 30
0.0
 10
552.2065138207636
 20
662.7904464082046
 30
0.0
 10
559.9760105998224
 20
659.409097068629
 30
0.0
  0
LINE
  5
41F7F
330
1E
100
AcDbEntity
  8
24
  6
CONTINOUS
100
AcDbLine
 10
534.9760104136276
 20
695.9090969793162
 30
0.0
 11
534.9760104136276
 21
659.409097515716
 31
0.0
  0
LINE
  5
41F80
330
1E
100
AcDbEntity
  8
24
  6
CONTINOUS
100
AcDbLine
 10
559.9760107860277
 20
695.9090969793162
 30
0.0
 11
534.9760104136276
 21
695.9090969793162
 31
0.0
  0
DIMENSION
  5
41F81
330
1E
100
AcDbEntity
  8
30
100
AcDbDimension
280
     0
  2
*D45
 10
579.9760105998278
 20
695.9090970687161
 30
0.0
 11
579.9760105998277
 21
645.642430402049
 31
0.0
 70
   160
  1
<> (max.)
 71
     2
 42
16.50000000000023
 73
     0
 74
     0
 75
     0
  3
STANDARD
100
AcDbAlignedDimension
 13
554.4760105998277
 23
679.4090970687159
 33
0.0
 14
559.9760105998277
 24
695.9090970687161
 34
0.0
 50
90.0
100
AcDbRotatedDimension
  0
DIMENSION
  5
41F82
330
1E
100
AcDbEntity
  8
30
100
AcDbDimension
280
     0
  2
*D46
 10
551.0864242937154
 20
682.0951560698781
 30
0.0
 11
517.685542714797
 21
663.0735289301708
 31
0.0
 70
   163
  1
<>
 71
     5
 42
8.999999999840497
 73
     0
 74
     0
 75
     0
  3
STANDARD1
100
AcDbDiametricDimension
 15
543.8655969059372
 25
676.7230380673542
 35
0.0
 40
0.0
  0
DIMENSION
  5
41F83
330
1E
100
AcDbEntity
  8
30
100
AcDbDimension
280
     0
  2
*D47
 10
559.9760105998277
 20
637.2427762187165
 30
0.0
 11
506.7093439331608
 21
637.2427762187165
 31
0.0
 70
   160
  1
<> (max.)
 71
     2
 42
25.0
 73
     0
 74
     0
 75
     0
  3
STANDARD1
100
AcDbAlignedDimension
 13
534.9760105998277
 23
659.4090970687158
 33
0.0
 14
559.9760105998277
 24
659.4090970687158
 34
0.0
100
AcDbRotatedDimension
  0
INSERT
  5
41F84
330
1E
100
AcDbEntity
  8
17
  6
CONTINOUS
100
AcDbBlockReference
  2
SW_CENTERMARKSYMBOL_20
 10
547.4760105998277
 20
679.4090970687159
 30
0.0
 41
2.0
 42
2.0
 43
2.0
  0
VIEWPORT
  5
9AC
330
1A
100
AcDbEntity
 67
     1
  8
0
  6
Continuous
348
E4DA
100
AcDbViewport
 10
0.0
 20
0.0
 30
0.0
 40
0.0
 41
0.0
 68
     1
 69
     1
 12
0.0
 22
0.0
 13
0.0
 23
0.0
 14
10.0
 24
10.0
 15
10.0
 25
10.0
 16
0.0
 26
0.0
 36
1.0
 17
0.0
 27
0.0
 37
0.0
 42
50.0
 43
0.0
 44
0.0
 45
0.0
 50
0.0
 51
0.0
 72
   100
 90
    32800
  1

281
     0
 71
     1
 74
     0
110
0.0
120
0.0
130
0.0
111
1.0
121
0.0
131
0.0
112
0.0
122
1.0
132
0.0
 79
     0
146
0.0
170
     0
 61
     5
292
     1
282
     1
141
0.0
142
0.0
 63
   250
421
  3355443
  0
VIEWPORT
  5
E19D
330
1A
100
AcDbEntity
 67
     1
  8
30
348
E4DA
100
AcDbViewport
 10
0.0
 20
0.0
 30
0.0
 40
0.0
 41
0.0
 68
     2
 69
     2
 12
8.653370891979619
 22
137.2805829780177
 13
0.0
 23
0.0
 14
1.0
 24
1.0
 15
10.0
 25
10.0
 16
0.0
 26
0.0
 36
1.0
 17
0.0
 27
0.0
 37
0.0
 42
50.0
 43
0.0
 44
0.0
 45
689.9195596776387
 50
0.0
 51
0.0
 72
   100
 90
    37664
  1

281
     0
 71
     1
 74
     0
110
0.0
120
0.0
130
0.0
111
1.0
121
0.0
131
0.0
112
0.0
122
1.0
132
0.0
 79
     0
146
0.0
170
     0
 61
     5
292
     1
282
     1
141
0.0
142
0.0
 63
   250
421
  3355443
  0
ENDSEC
  0
SECTION
  2
OBJECTS
  0
DICTIONARY
  5
C
330
0
100
AcDbDictionary
281
     1
  3
ACAD_CIP_PREVIOUS_PRODUCT_INFO
350
41E3F
  3
ACAD_COLOR
350
E4E8
  3
ACAD_DETAILVIEWSTYLE
350
41E3A
  3
ACAD_GROUP
350
D
  3
ACAD_LAYOUT
350
19
  3
ACAD_MATERIAL
350
E4BB
  3
ACAD_MLEADERSTYLE
350
E50D
  3
ACAD_MLINESTYLE
350
16
  3
ACAD_PLOTSETTINGS
350
18
  3
ACAD_PLOTSTYLENAME
350
E
  3
ACAD_SCALELIST
350
E4EB
  3
ACAD_SECTIONVIEWSTYLE
350
41E38
  3
ACAD_TABLESTYLE
350
E4E9
  3
ACAD_VISUALSTYLE
350
E4D4
  3
ACADDIM
350
6D5E
  3
ACDB_RECOMPOSE_DATA
350
41FF4
  3
ACDBVARIABLEDICTIONARY
350
5697
  3
AEC_PROPERTY_SET_DEFS
350
F8DB
  3
ASE_INDEX_DICTIONARY
350
F8F6
  0
DICTIONARY
  5
12DA0
330
2
100
AcDbDictionary
280
     1
281
     1
  3
ACAD_LAYERSTATES
360
12DA1
  0
DICTIONARY
  5
E512
330
10
100
AcDbDictionary
280
     1
281
     1
  3
ADSK_XREC_LAYER_RECONCILED
360
E513
  0
DICTIONARY
  5
E514
330
2F
100
AcDbDictionary
280
     1
281
     1
  3
ADSK_XREC_LAYER_RECONCILED
360
E515
  0
DICTIONARY
  5
E518
330
35
100
AcDbDictionary
280
     1
281
     1
  3
ADSK_XREC_LAYER_RECONCILED
360
E519
  0
DICTIONARY
  5
E51C
330
3D
100
AcDbDictionary
280
     1
281
     1
  3
ADSK_XREC_LAYER_RECONCILED
360
E51D
  0
DICTIONARY
  5
E51E
330
3A2
100
AcDbDictionary
280
     1
281
     1
  3
ADSK_XREC_LAYER_RECONCILED
360
E51F
  0
DICTIONARY
  5
E520
330
3BBA
100
AcDbDictionary
280
     1
281
     1
  3
ADSK_XREC_LAYER_RECONCILED
360
E521
  0
DICTIONARY
  5
E522
330
67A8
100
AcDbDictionary
280
     1
281
     1
  3
ADSK_XREC_LAYER_RECONCILED
360
E523
  0
DICTIONARY
  5
E524
330
7837
100
AcDbDictionary
280
     1
281
     1
  3
ADSK_XREC_LAYER_RECONCILED
360
E525
  0
DICTIONARY
  5
E52A
330
C4FE
100
AcDbDictionary
280
     1
281
     1
  3
ADSK_XREC_LAYER_RECONCILED
360
E52B
  0
DICTIONARY
  5
E530
330
C501
100
AcDbDictionary
280
     1
281
     1
  3
ADSK_XREC_LAYER_RECONCILED
360
E531
  0
DICTIONARY
  5
E534
330
E473
100
AcDbDictionary
280
     1
281
     1
  3
ADSK_XREC_LAYER_RECONCILED
360
E535
  0
DICTIONARY
  5
1106B
330
1106A
100
AcDbDictionary
280
     1
281
     1
  0
DICTIONARY
  5
3828A
330
38289
100
AcDbDictionary
280
     1
281
     1
  0
DICTIONARY
  5
3ACBC
330
3ACBB
100
AcDbDictionary
280
     1
281
     1
  0
DICTIONARY
  5
3ACBE
330
3ACBD
100
AcDbDictionary
280
     1
281
     1
  0
DICTIONARY
  5
178
330
1E
100
AcDbDictionary
280
     1
281
     1
  3
ACAD_LAYOUTSELFREF
360
9011
  3
ACAD_SORTENTS
360
37C0C
  0
DICTIONARY
  5
17A
330
1A
100
AcDbDictionary
280
     1
281
     1
  3
ACAD_LAYOUTSELFREF
360
9010
  0
DICTIONARY
  5
3AADD
330
3AADC
100
AcDbDictionary
280
     1
281
     1
  3
ACAD_SORTENTS
360
3AADE
  0
XRECORD
  5
41E3F
102
{ACAD_REACTORS
330
C
102
}
330
C
100
AcDbXrecord
280
     1
300
ACDLT
300
2014
300
ACDLT_F_S
  0
DICTIONARY
  5
E4E8
102
{ACAD_REACTORS
330
C
102
}
330
C
100
AcDbDictionary
281
     1
  0
DICTIONARY
  5
41E3A
102
{ACAD_REACTORS
330
C
102
}
330
C
100
AcDbDictionary
281
     1
  3
Imperial24
350
41E3B
  0
DICTIONARY
  5
D
102
{ACAD_REACTORS
330
C
102
}
330
C
100
AcDbDictionary
281
     1
  0
DICTIONARY
  5
19
102
{ACAD_REACTORS
330
C
102
}
330
C
100
AcDbDictionary
281
     1
  3
Model
350
904E
  3
ﾚｲｱｳﾄ1
350
904F
  0
DICTIONARY
  5
E4BB
102
{ACAD_REACTORS
330
C
102
}
330
C
100
AcDbDictionary
281
     1
  3
ByBlock
350
E4C4
  3
ByLayer
350
E4BC
  3
Global
350
E4CC
  0
DICTIONARY
  5
E50D
102
{ACAD_REACTORS
330
C
102
}
330
C
100
AcDbDictionary
281
     1
  3
Standard
350
E50E
  0
DICTIONARY
  5
16
102
{ACAD_REACTORS
330
C
102
}
330
C
100
AcDbDictionary
281
     1
  3
STANDARD
350
17
  0
DICTIONARY
  5
18
102
{ACAD_REACTORS
330
C
102
}
330
C
100
AcDbDictionary
281
     1
  0
ACDBDICTIONARYWDFLT
  5
E
102
{ACAD_REACTORS
330
C
102
}
330
C
100
AcDbDictionary
281
     1
  3
Normal
350
F
100
AcDbDictionaryWithDefault
340
F
  0
DICTIONARY
  5
E4EB
102
{ACAD_REACTORS
330
C
102
}
330
C
100
AcDbDictionary
281
     1
  3
A0
350
E4EC
  3
A1
350
E4ED
  3
A2
350
E4EE
  3
A3
350
E4EF
  3
A4
350
E4F0
  3
A5
350
E4F1
  3
A6
350
E4F2
  3
A7
350
E4F3
  3
A8
350
E4F4
  3
A9
350
E4F5
  3
B0
350
E4F6
  3
B1
350
E4F7
  3
B2
350
E4F8
  3
B3
350
E4F9
  3
B4
350
E4FA
  3
B5
350
E4FB
  3
B6
350
E4FC
  3
B7
350
E4FD
  3
B8
350
E4FE
  3
B9
350
E4FF
  3
C0
350
E500
  3
C1
350
E501
  3
C2
350
E502
  3
C3
350
E503
  3
C4
350
E504
  3
C5
350
E505
  3
C6
350
E506
  3
C7
350
E507
  3
C8
350
E508
  3
C9
350
E509
  3
D0
350
E50A
  3
D1
350
E50B
  3
D2
350
E50C
  0
DICTIONARY
  5
41E38
102
{ACAD_REACTORS
330
C
102
}
330
C
100
AcDbDictionary
281
     1
  3
Imperial24
350
41E39
  0
DICTIONARY
  5
E4E9
102
{ACAD_REACTORS
330
C
102
}
330
C
100
AcDbDictionary
281
     1
  3
Standard
350
E4EA
  0
DICTIONARY
  5
E4D4
102
{ACAD_REACTORS
330
C
102
}
330
C
100
AcDbDictionary
281
     1
  3
2dWireframe
350
E4DA
  3
3D Hidden
350
E4DC
  3
3dWireframe
350
E4DB
  3
Basic
350
E4D9
  3
Brighten
350
E4E0
  3
ColorChange
350
E4E4
  3
Conceptual
350
E4DD
  3
Dim
350
E4DF
  3
EdgeColorOff
350
E4E7
  3
Facepattern
350
E4E3
  3
Flat
350
E4D5
  3
FlatWithEdges
350
E4D6
  3
Gouraud
350
E4D7
  3
GouraudWithEdges
350
E4D8
  3
Hidden
350
41E32
  3
JitterOff
350
E4E5
  3
Linepattern
350
E4E2
  3
OverhangOff
350
E4E6
  3
Realistic
350
E4DE
  3
Shaded
350
41E37
  3
Shaded with edges
350
41E36
  3
Shades of Gray
350
41E33
  3
Sketchy
350
41E34
  3
Thicken
350
E4E1
  3
Wireframe
350
41E31
  3
X-Ray
350
41E35
  0
XRECORD
  5
6D5E
102
{ACAD_REACTORS
330
C
102
}
330
C
100
AcDbXrecord
280
     1
 90
   990106
  3

 60
     0
 61
     0
 62
     1
 63
     3
 64
     0
 65
     0
 66
     0
 67
     3
 68
     1
 69
     0
 70
     0
 71
     0
 72
     0
 40
0.0
170
     0
340
0
  0
XRECORD
  5
41FF4
102
{ACAD_REACTORS
330
C
102
}
330
C
100
AcDbXrecord
280
     1
 90
        1
330
E4EA
330
41E39
330
41E3B
  0
DICTIONARY
  5
5697
102
{ACAD_REACTORS
330
C
102
}
330
C
100
AcDbDictionary
281
     1
  3
CANNOSCALE
350
F8C1
  3
CMLEADERSTYLE
350
F8C0
  3
CTABLESTYLE
350
F8BF
  3
CVIEWDETAILSTYLE
350
41E56
  3
CVIEWSECTIONSTYLE
350
41E57
  3
DIMASSOC
350
5698
  3
INDEXCTL
350
F8C3
  3
LAYEREVAL
350
37FF5
  3
LAYERNOTIFY
350
37FF6
  3
LIGHTINGUNITS
350
37FF4
  3
MSLTSCALE
350
37FF3
  3
SORTENTS
350
F8C2
  0
DICTIONARY
  5
F8DB
102
{ACAD_REACTORS
330
C
102
}
330
C
100
AcDbDictionary
281
     1
  0
DICTIONARY
  5
F8F6
102
{ACAD_REACTORS
330
C
102
}
330
C
100
AcDbDictionary
281
     1
  3
ASEBlockHierarchyIndexRecord
350
F8F7
1001
DCO15
1040
1706442467.984
  0
DICTIONARY
  5
12DA1
102
{ACAD_REACTORS
330
12DA0
102
}
330
12DA0
100
AcDbDictionary
281
     1
  0
XRECORD
  5
E513
102
{ACAD_REACTORS
330
E512
102
}
330
E512
100
AcDbXrecord
280
     1
290
     1
  0
XRECORD
  5
E515
102
{ACAD_REACTORS
330
E514
102
}
330
E514
100
AcDbXrecord
280
     1
290
     1
  0
XRECORD
  5
E519
102
{ACAD_REACTORS
330
E518
102
}
330
E518
100
AcDbXrecord
280
     1
290
     1
  0
XRECORD
  5
E51D
102
{ACAD_REACTORS
330
E51C
102
}
330
E51C
100
AcDbXrecord
280
     1
290
     1
  0
XRECORD
  5
E51F
102
{ACAD_REACTORS
330
E51E
102
}
330
E51E
100
AcDbXrecord
280
     1
290
     1
  0
XRECORD
  5
E521
102
{ACAD_REACTORS
330
E520
102
}
330
E520
100
AcDbXrecord
280
     1
290
     1
  0
XRECORD
  5
E523
102
{ACAD_REACTORS
330
E522
102
}
330
E522
100
AcDbXrecord
280
     1
290
     1
  0
XRECORD
  5
E525
102
{ACAD_REACTORS
330
E524
102
}
330
E524
100
AcDbXrecord
280
     1
290
     1
  0
XRECORD
  5
E52B
102
{ACAD_REACTORS
330
E52A
102
}
330
E52A
100
AcDbXrecord
280
     1
290
     1
  0
XRECORD
  5
E531
102
{ACAD_REACTORS
330
E530
102
}
330
E530
100
AcDbXrecord
280
     1
290
     1
  0
XRECORD
  5
E535
102
{ACAD_REACTORS
330
E534
102
}
330
E534
100
AcDbXrecord
280
     1
290
     1
  0
XRECORD
  5
9011
102
{ACAD_REACTORS
330
178
102
}
330
178
100
AcDbXrecord
280
     1
340
1E
  0
SORTENTSTABLE
  5
37C0C
102
{ACAD_REACTORS
330
178
102
}
330
178
100
AcDbSortentsTable
330
1E
331
3BD4B
  5
3BD50
331
3BDA2
  5
3BDA8
331
3BCC4
  5
3BCC4
331
3BDE1
  5
3BDE7
331
3BDE9
  5
3BDEF
331
3BD9E
  5
3BDA4
331
3BCCC
  5
3BCCC
331
3BD53
  5
3BD58
331
3BDAA
  5
3BDB0
331
3BDB2
  5
3BDB8
331
3BCD4
  5
3BCD4
331
3BCFE
  5
3BD03
331
3BDBA
  5
3BDC0
331
3BDF1
  5
3BDF7
331
3BD5B
  5
3BD60
331
3BD26
  5
3BD2B
331
3BD63
  5
3BD68
331
3BDC2
  5
3BDC8
331
3BD14
  5
3BD19
331
3BDF9
  5
3BDFF
331
3BE01
  5
3BE07
331
3BD1C
  5
3BD21
331
3BD6B
  5
3BD70
331
3BCAD
  5
3BCAD
331
3BDCA
  5
3BDD0
331
3BDD2
  5
3BDD8
331
3BD3C
  5
3BD41
331
3BCB5
  5
3BCB5
331
3BD03
  5
3BD08
331
3BD0B
  5
3BD10
331
3BD83
  5
3BD88
331
3BD29
  5
3BD2E
331
3BD71
  5
3BD76
331
3BD79
  5
3BD7E
331
3BDDA
  5
3BDE0
331
3BCBD
  5
3BCBD
331
3BD44
  5
3BD49
331
3BD93
  5
3BD99
331
3BDA3
  5
3BDA9
331
3BDE2
  5
3BDE8
331
3BCC5
  5
3BCC5
331
3BD4C
  5
3BD51
331
3BD54
  5
3BD59
331
3BDAB
  5
3BDB1
331
3BCCD
  5
3BCCD
331
3BDEA
  5
3BDF0
331
3BD9F
  5
3BDA5
331
3BDB3
  5
3BDB9
331
3BCD5
  5
3BCD5
331
3BDF2
  5
3BDF8
331
3BCF5
  5
3BCFA
331
3BD5C
  5
3BD61
331
3BDBB
  5
3BDC1
331
3BDC3
  5
3BDC9
331
3BDFA
  5
3BE00
331
3BD27
  5
3BD2C
331
3BD15
  5
3BD1A
331
3BD64
  5
3BD69
331
3BDCB
  5
3BDD1
331
3BE02
  5
3BE08
331
3BCAE
  5
3BCAE
331
3BD1D
  5
3BD22
331
3BD6C
  5
3BD71
331
3BDD3
  5
3BDD9
331
3BCB6
  5
3BCB6
331
3BD3D
  5
3BD42
331
3BD04
  5
3BD09
331
3BD0C
  5
3BD11
331
3BD84
  5
3BD89
331
3BD2A
  5
3BD2F
331
3BD72
  5
3BD77
331
3BD7A
  5
3BD7F
331
3BD45
  5
3BD4A
331
3BD94
  5
3BD9A
331
3BCBE
  5
3BCBE
331
3BDDB
  5
3BDE1
331
3BDE3
  5
3BDE9
331
3BD98
  5
3BD9E
331
3BD4D
  5
3BD52
331
3BDA4
  5
3BDAA
331
3BCC6
  5
3BCC6
331
3BDEB
  5
3BDF1
331
3BCD8
  5
3BCD8
331
3BCCE
  5
3BCCE
331
3BD55
  5
3BD5A
331
3BDAC
  5
3BDB2
331
3BDB4
  5
3BDBA
331
3BCD6
  5
3BCD6
331
3BCF8
  5
3BCFD
331
3BD5D
  5
3BD62
331
3BDBC
  5
3BDC2
331
3BCF6
  5
3BCFB
331
3BDF3
  5
3BDF9
331
3BD20
  5
3BD25
331
3BCE0
  5
3BCE0
331
3BD65
  5
3BD6A
331
3BDC4
  5
3BDCA
331
3BCA7
  5
3BCA7
331
3BD16
  5
3BD1B
331
3BDFB
  5
3BE01
331
3BE03
  5
3BE09
331
3BD1E
  5
3BD23
331
3BD6D
  5
3BD72
331
3BCAF
  5
3BCAF
331
3BDCC
  5
3BDD2
331
3BDD4
  5
3BDDA
331
3BCB7
  5
3BCB7
331
3BD3E
  5
3BD43
331
3BD05
  5
3BD0A
331
3BD85
  5
3BD8A
331
3BD2B
  5
3BD30
331
3BD73
  5
3BD78
331
3BD7B
  5
3BD80
331
3BDDC
  5
3BDE2
331
3BCBF
  5
3BCBF
331
3BD46
  5
3BD4B
331
3BD95
  5
3BD9B
331
3BDA5
  5
3BDAB
331
3BDE4
  5
3BDEA
331
3BD99
  5
3BD9F
331
3BCC7
  5
3BCC7
331
3BD4E
  5
3BD53
331
3BCD9
  5
3BCD9
331
3BD56
  5
3BD5B
331
3BDAD
  5
3BDB3
331
3BCCF
  5
3BCCF
331
3BDEC
  5
3BDF2
331
3BCF9
  5
3BCFE
331
3BDB5
  5
3BDBB
331
3BCD7
  5
3BCD7
331
3BDF4
  5
3BDFA
331
3BD21
  5
3BD26
331
3BCF7
  5
3BCFC
331
3BD5E
  5
3BD63
331
3BDBD
  5
3BDC3
331
3BDC5
  5
3BDCB
331
3BDFC
  5
3BE02
331
3BCA8
  5
3BCA8
331
3BD17
  5
3BD1C
331
3BD66
  5
3BD6B
331
3BD6E
  5
3BD73
331
3BDCD
  5
3BDD3
331
3BCB0
  5
3BCB0
331
3BD1F
  5
3BD24
331
3BDD5
  5
3BDDB
331
3BD3F
  5
3BD44
331
3BD06
  5
3BD0B
331
3BD0E
  5
3BD13
331
3BD86
  5
3BD8B
331
3BD2C
  5
3BD31
331
3BD74
  5
3BD79
331
3BD7C
  5
3BD81
331
3BCB8
  5
3BCB8
331
3BD47
  5
3BD4C
331
3BD96
  5
3BD9C
331
3BCC0
  5
3BCC0
331
3BDDD
  5
3BDE3
331
3BDE5
  5
3BDEB
331
3BD9A
  5
3BDA0
331
3BCC8
  5
3BCC8
331
3BD4F
  5
3BD54
331
3BDA6
  5
3BDAC
331
3BDED
  5
3BDF3
331
3BCDA
  5
3BCDA
331
3BCD0
  5
3BCD0
331
3BD57
  5
3BD5C
331
3BDAE
  5
3BDB4
331
3BDB6
  5
3BDBC
331
3BCFA
  5
3BCFF
331
3BE08
  5
3C858
331
3BD22
  5
3BD27
331
3BD5F
  5
3BD64
331
3BDBE
  5
3BDC4
331
3BD10
  5
3BD15
331
3BDF5
  5
3BDFB
331
3BDFD
  5
3BE03
331
3BD67
  5
3BD6C
331
3BDC6
  5
3BDCC
331
3BCA9
  5
3BCA9
331
3BD18
  5
3BD1D
331
3BD6F
  5
3BD74
331
3BCB1
  5
3BCB1
331
3BDCE
  5
3BDD4
331
3BDD6
  5
3BDDC
331
3BD07
  5
3BD0C
331
3BD0F
  5
3BD14
331
3BD2D
  5
3BD32
331
3BD75
  5
3BD7A
331
3BD7D
  5
3BD82
331
3BCB9
  5
3BCB9
331
3BD40
  5
3BD45
331
3BD97
  5
3BD9D
331
3BDDE
  5
3BDE4
331
3BCC1
  5
3BCC1
331
3BD48
  5
3BD4D
331
3C45D
  5
3CBA8
331
3BDA7
  5
3BDAD
331
3BDE6
  5
3BDEC
331
3BCC9
  5
3BCC9
331
3BD50
  5
3BD55
331
3BDAF
  5
3BDB5
331
3BCD1
  5
3BCD1
331
3BDEE
  5
3BDF4
331
3BCFB
  5
3BD00
331
3BDB7
  5
3BDBD
331
3BE09
  5
3C859
331
3BD58
  5
3BD5D
331
3BC9A
  5
3BC9A
331
3BDF6
  5
3BDFC
331
3BD23
  5
3BD28
331
3BD11
  5
3BD16
331
3BD60
  5
3BD65
331
3BDBF
  5
3BDC5
331
3BDC7
  5
3BDCD
331
3BDFE
  5
3BE04
331
3BCAA
  5
3BCAA
331
3BD19
  5
3BD1E
331
3BD68
  5
3BD6D
331
3BD88
  5
3BD8D
331
3BDCF
  5
3BDD5
331
3BCB2
  5
3BCB2
331
3BD39
  5
3BD3E
331
3BDD7
  5
3BDDD
331
3BD00
  5
3BD05
331
3BD08
  5
3BD0D
331
3BD80
  5
3BD85
331
3BD2E
  5
3BD33
331
3BD76
  5
3BD7B
331
3BD7E
  5
3BD83
331
3BCBA
  5
3BCBA
331
3BD41
  5
3BD46
331
3BD49
  5
3BD4E
331
3BDA0
  5
3BDA6
331
3BCC2
  5
3BCC2
331
3BDDF
  5
3BDE5
331
3BDE7
  5
3BDED
331
3BD9C
  5
3BDA2
331
3BCCA
  5
3BCCA
331
3BD51
  5
3BD56
331
3BDA8
  5
3BDAE
331
3BDB0
  5
3BDB6
331
3BCD2
  5
3BCD2
331
3BDEF
  5
3BDF5
331
3BCDC
  5
3BCDC
331
3BCFC
  5
3BD01
331
3BDB8
  5
3BDBE
331
3BD59
  5
3BD5E
331
3BD61
  5
3BD66
331
3BDC0
  5
3BDC6
331
3BD12
  5
3BD17
331
3BDF7
  5
3BDFD
331
3BDFF
  5
3BE05
331
3BD1A
  5
3BD1F
331
3BD69
  5
3BD6E
331
3BCAB
  5
3BCAB
331
3BDC8
  5
3BDCE
331
3BE07
  5
3C857
331
3BD3A
  5
3BD3F
331
3BCB3
  5
3BCB3
331
3BDD0
  5
3BDD6
331
3BD01
  5
3BD06
331
3C117
  5
3C85A
331
3BD09
  5
3BD0E
331
3BD81
  5
3BD86
331
3BD2F
  5
3BD34
331
3BD77
  5
3BD7C
331
3BD7F
  5
3BD84
331
3BDD8
  5
3BDDE
331
3BCBB
  5
3BCBB
331
3BD42
  5
3BD47
331
3BDA1
  5
3BDA7
331
3BDE0
  5
3BDE6
331
3BCC3
  5
3BCC3
331
3BD4A
  5
3BD4F
331
3BDA9
  5
3BDAF
331
3BDE8
  5
3BDEE
331
3BD9D
  5
3BDA3
331
3BCCB
  5
3BCCB
331
3BD52
  5
3BD57
331
3BDB1
  5
3BDB7
331
3BCD3
  5
3BCD3
331
3BCFD
  5
3BD02
331
3BDF0
  5
3BDF6
331
3BD5A
  5
3BD5F
331
3BDB9
  5
3BDBF
331
3BDC1
  5
3BDC7
331
3BDF8
  5
3BDFE
331
3BD25
  5
3BD2A
331
3BD13
  5
3BD18
331
3BD62
  5
3BD67
331
3BDC9
  5
3BDCF
331
3BE00
  5
3BE06
331
3BCAC
  5
3BCAC
331
3BD1B
  5
3BD20
331
3BD6A
  5
3BD6F
331
3BDD1
  5
3BDD7
331
3BCB4
  5
3BCB4
331
3BD3B
  5
3BD40
331
3BD02
  5
3BD07
331
3BD0A
  5
3BD0F
331
3BD82
  5
3BD87
331
3BD28
  5
3BD2D
331
3BD70
  5
3BD75
331
3BD78
  5
3BD7D
331
3BD43
  5
3BD48
331
3BD92
  5
3BD98
331
3BCBC
  5
3BCBC
331
3BDD9
  5
3BDDF
  0
XRECORD
  5
9010
102
{ACAD_REACTORS
330
17A
102
}
330
17A
100
AcDbXrecord
280
     1
340
1A
  0
SORTENTSTABLE
  5
3AADE
102
{ACAD_REACTORS
330
3AADD
102
}
330
3AADD
100
AcDbSortentsTable
330
3AADC
  0
ACDBDETAILVIEWSTYLE
  5
41E3B
102
{ACAD_XDICTIONARY
360
41E5B
102
}
102
{ACAD_REACTORS
330
41E3A
102
}
330
41E3A
100
AcDbModelDocViewStyle
 70
     0
  3
Imperial24
290
     0
100
AcDbDetailViewStyle
 70
     0
 71
     0
 90
        3
 71
     1
340
11
 62
   256
 40
0.24
340
0
 62
   256
 40
0.24
300

 40
0.36
280
     3
 71
     2
340
15
 90
       25
 62
   256
 71
     3
340
11
 62
   256
 40
0.24
 90
        1
 40
0.75
 90
        1
300
%<\AcVar ViewType \f "%tc1">% %<\AcVar ViewDetailId>%\PSCALE %<\AcVar ViewScale \f "%sn">%
 71
     4
340
15
 90
       25
 62
   256
340
15
 90
       25
 62
   256
280
     0
  0
LAYOUT
  5
904E
102
{ACAD_XDICTIONARY
360
13816
102
}
102
{ACAD_REACTORS
330
19
102
}
330
19
100
AcDbPlotSettings
  1

  2
Canon LBP3800 LIPSLX
  4
A4
  6
OLE1
 40
5.873749732971191
 41
5.873747825622557
 42
5.873748779296875
 43
5.873748779296875
 44
209.9733276367186
 45
296.9259948730469
 46
4.368652168726285
 47
0.8644569253958136
 48
0.0
 49
0.0
140
0.0
141
0.0
142
1.0
143
2.5
 70
 11940
 72
     1
 73
     0
 74
     1
  7
monochrome.ctb
 75
     0
147
0.4
 76
     0
 77
     2
 78
   300
148
203.0887703810449
149
220.5380198621869
100
AcDbLayout
  1
Model
 70
     1
 71
     0
 10
0.0
 20
0.0
 11
12.0
 21
9.0
 12
0.0
 22
0.0
 32
0.0
 14
0.0
 24
0.0
 34
0.0
 15
0.0
 25
0.0
 35
0.0
146
0.0
 13
0.0
 23
0.0
 33
0.0
 16
1.0
 26
0.0
 36
0.0
 17
0.0
 27
1.0
 37
0.0
 76
     0
330
1E
331
12C00
1001
ACAD_PSEXT
1000
Canon LBP3800 LIPSLX
1000
Canon LBP3800 LIPSLX
1000
IP_192.168.54.50
1000

1070
     0
  0
LAYOUT
  5
904F
102
{ACAD_REACTORS
330
19
102
}
330
19
100
AcDbPlotSettings
  1

  2
none_device
  4
Letter_(8.50_x_11.00_Inches)
  6

 40
6.349999904632567
 41
6.349999904632567
 42
6.350006103515625
 43
6.350006103515625
 44
215.8999938964844
 45
279.3999938964844
 46
0.0
 47
0.0
 48
0.0
 49
0.0
140
0.0
141
0.0
142
1.0
143
1.0
 70
   688
 72
     0
 73
     1
 74
     1
  7
monochrome.ctb
 75
     0
147
1.0
 76
     0
 77
     2
 78
   300
148
0.0
149
0.0
100
AcDbLayout
  1
ﾚｲｱｳﾄ1
 70
     1
 71
     1
 10
-0.2500002402958907
 20
-0.2499999962453767
 11
10.74999951940822
 21
8.249999763458731
 12
0.0
 22
0.0
 32
0.0
 14
0.0
 24
0.0
 34
0.0
 15
0.0
 25
0.0
 35
0.0
146
0.0
 13
0.0
 23
0.0
 33
0.0
 16
1.0
 26
0.0
 36
0.0
 17
0.0
 27
1.0
 37
0.0
 76
     0
330
1A
331
9AC
1001
ACAD_PSEXT
1000
なし
1000
なし
1000
適切ではありません
1000
新しいプロッタ環境設定名を選択しない限り、レイアウトは印刷されません。
1070
     0
  0
MATERIAL
  5
E4C4
102
{ACAD_XDICTIONARY
360
E4C5
102
}
102
{ACAD_REACTORS
330
E4BB
102
}
330
E4BB
100
AcDbMaterial
  1
ByBlock
 72
     0
 43
0.0208333333333333
 43
0.0
 43
0.0
 43
0.0
 43
0.0
 43
0.0208333333333333
 43
0.0
 43
0.0
 43
0.0
 43
0.0
 43
1.0
 43
0.0
 43
0.0
 43
0.0
 43
0.0
 43
1.0
 77
     0
 47
0.0208333333333333
 47
0.0
 47
0.0
 47
0.0
 47
0.0
 47
0.0208333333333333
 47
0.0
 47
0.0
 47
0.0
 47
0.0
 47
1.0
 47
0.0
 47
0.0
 47
0.0
 47
0.0
 47
1.0
171
     0
 49
0.0208333333333333
 49
0.0
 49
0.0
 49
0.0
 49
0.0
 49
0.0208333333333333
 49
0.0
 49
0.0
 49
0.0
 49
0.0
 49
1.0
 49
0.0
 49
0.0
 49
0.0
 49
0.0
 49
1.0
175
     0
142
0.0208333333333333
142
0.0
142
0.0
142
0.0
142
0.0
142
0.0208333333333333
142
0.0
142
0.0
142
0.0
142
0.0
142
1.0
142
0.0
142
0.0
142
0.0
142
0.0
142
1.0
179
     0
144
0.0208333333333333
144
0.0
144
0.0
144
0.0
144
0.0
144
0.0208333333333333
144
0.0
144
0.0
144
0.0
144
0.0
144
1.0
144
0.0
144
0.0
144
0.0
144
0.0
144
1.0
147
0.0208333333333333
147
0.0
147
0.0
147
0.0
147
0.0
147
0.0208333333333333
147
0.0
147
0.0
147
0.0
147
0.0
147
1.0
147
0.0
147
0.0
147
0.0
147
0.0
147
1.0
  0
MATERIAL
  5
E4BC
102
{ACAD_XDICTIONARY
360
E4BD
102
}
102
{ACAD_REACTORS
330
E4BB
102
}
330
E4BB
100
AcDbMaterial
  1
ByLayer
 72
     0
 43
0.0208333333333333
 43
0.0
 43
0.0
 43
0.0
 43
0.0
 43
0.0208333333333333
 43
0.0
 43
0.0
 43
0.0
 43
0.0
 43
1.0
 43
0.0
 43
0.0
 43
0.0
 43
0.0
 43
1.0
 77
     0
 47
0.0208333333333333
 47
0.0
 47
0.0
 47
0.0
 47
0.0
 47
0.0208333333333333
 47
0.0
 47
0.0
 47
0.0
 47
0.0
 47
1.0
 47
0.0
 47
0.0
 47
0.0
 47
0.0
 47
1.0
171
     0
 49
0.0208333333333333
 49
0.0
 49
0.0
 49
0.0
 49
0.0
 49
0.0208333333333333
 49
0.0
 49
0.0
 49
0.0
 49
0.0
 49
1.0
 49
0.0
 49
0.0
 49
0.0
 49
0.0
 49
1.0
175
     0
142
0.0208333333333333
142
0.0
142
0.0
142
0.0
142
0.0
142
0.0208333333333333
142
0.0
142
0.0
142
0.0
142
0.0
142
1.0
142
0.0
142
0.0
142
0.0
142
0.0
142
1.0
179
     0
144
0.0208333333333333
144
0.0
144
0.0
144
0.0
144
0.0
144
0.0208333333333333
144
0.0
144
0.0
144
0.0
144
0.0
144
1.0
144
0.0
144
0.0
144
0.0
144
0.0
144
1.0
147
0.0208333333333333
147
0.0
147
0.0
147
0.0
147
0.0
147
0.0208333333333333
147
0.0
147
0.0
147
0.0
147
0.0
147
1.0
147
0.0
147
0.0
147
0.0
147
0.0
147
1.0
  0
MATERIAL
  5
E4CC
102
{ACAD_XDICTIONARY
360
E4CD
102
}
102
{ACAD_REACTORS
330
E4BB
102
}
330
E4BB
100
AcDbMaterial
  1
Global
 72
     0
 43
0.0208333333333333
 43
0.0
 43
0.0
 43
0.0
 43
0.0
 43
0.0208333333333333
 43
0.0
 43
0.0
 43
0.0
 43
0.0
 43
1.0
 43
0.0
 43
0.0
 43
0.0
 43
0.0
 43
1.0
 77
     0
 47
0.0208333333333333
 47
0.0
 47
0.0
 47
0.0
 47
0.0
 47
0.0208333333333333
 47
0.0
 47
0.0
 47
0.0
 47
0.0
 47
1.0
 47
0.0
 47
0.0
 47
0.0
 47
0.0
 47
1.0
171
     0
 49
0.0208333333333333
 49
0.0
 49
0.0
 49
0.0
 49
0.0
 49
0.0208333333333333
 49
0.0
 49
0.0
 49
0.0
 49
0.0
 49
1.0
 49
0.0
 49
0.0
 49
0.0
 49
0.0
 49
1.0
175
     0
142
0.0208333333333333
142
0.0
142
0.0
142
0.0
142
0.0
142
0.0208333333333333
142
0.0
142
0.0
142
0.0
142
0.0
142
1.0
142
0.0
142
0.0
142
0.0
142
0.0
142
1.0
179
     0
144
0.0208333333333333
144
0.0
144
0.0
144
0.0
144
0.0
144
0.0208333333333333
144
0.0
144
0.0
144
0.0
144
0.0
144
1.0
144
0.0
144
0.0
144
0.0
144
0.0
144
1.0
147
0.0208333333333333
147
0.0
147
0.0
147
0.0
147
0.0
147
0.0208333333333333
147
0.0
147
0.0
147
0.0
147
0.0
147
1.0
147
0.0
147
0.0
147
0.0
147
0.0
147
1.0
  0
MLEADERSTYLE
  5
E50E
102
{ACAD_REACTORS
330
E50D
102
}
330
E50D
100
AcDbMLeaderStyle
179
     2
170
     2
171
     1
172
     0
 90
        2
 40
0.0
 41
0.0
173
     1
 91
-1056964608
340
13
 92
       -2
290
     1
 42
0.09
291
     1
 43
0.36
  3
Standard
 44
0.18
300

342
11
174
     1
178
     6
175
     1
176
     0
 93
-1056964608
 45
0.18
292
     0
297
     0
 46
0.18
 94
-1056964608
 47
1.0
 49
1.0
140
1.0
293
     1
141
0.0
294
     1
177
     0
142
1.0
295
     0
296
     0
143
0.125
271
     0
272
     9
273
     9
298
     0
1001
ACAD_MLEADERVER
1070
     2
  0
MLINESTYLE
  5
17
102
{ACAD_REACTORS
330
16
102
}
330
16
100
AcDbMlineStyle
  2
STANDARD
 70
     0
  3

 62
   256
 51
90.0
 52
90.0
 71
     2
 49
0.5
 62
   256
  6
BYLAYER
 49
-0.5
 62
   256
  6
BYLAYER
  0
ACDBPLACEHOLDER
  5
F
102
{ACAD_REACTORS
330
E
102
}
330
E
  0
SCALE
  5
E4EC
102
{ACAD_REACTORS
330
E4EB
102
}
330
E4EB
100
AcDbScale
 70
     0
300
1:1
140
1.0
141
1.0
290
     1
  0
SCALE
  5
E4ED
102
{ACAD_REACTORS
330
E4EB
102
}
330
E4EB
100
AcDbScale
 70
     0
300
1:2
140
1.0
141
2.0
290
     0
  0
SCALE
  5
E4EE
102
{ACAD_REACTORS
330
E4EB
102
}
330
E4EB
100
AcDbScale
 70
     0
300
1:4
140
1.0
141
4.0
290
     0
  0
SCALE
  5
E4EF
102
{ACAD_REACTORS
330
E4EB
102
}
330
E4EB
100
AcDbScale
 70
     0
300
1:5
140
1.0
141
5.0
290
     0
  0
SCALE
  5
E4F0
102
{ACAD_REACTORS
330
E4EB
102
}
330
E4EB
100
AcDbScale
 70
     0
300
1:8
140
1.0
141
8.0
290
     0
  0
SCALE
  5
E4F1
102
{ACAD_REACTORS
330
E4EB
102
}
330
E4EB
100
AcDbScale
 70
     0
300
1:10
140
1.0
141
10.0
290
     0
  0
SCALE
  5
E4F2
102
{ACAD_REACTORS
330
E4EB
102
}
330
E4EB
100
AcDbScale
 70
     0
300
1:16
140
1.0
141
16.0
290
     0
  0
SCALE
  5
E4F3
102
{ACAD_REACTORS
330
E4EB
102
}
330
E4EB
100
AcDbScale
 70
     0
300
1:20
140
1.0
141
20.0
290
     0
  0
SCALE
  5
E4F4
102
{ACAD_REACTORS
330
E4EB
102
}
330
E4EB
100
AcDbScale
 70
     0
300
1:30
140
1.0
141
30.0
290
     0
  0
SCALE
  5
E4F5
102
{ACAD_REACTORS
330
E4EB
102
}
330
E4EB
100
AcDbScale
 70
     0
300
1:40
140
1.0
141
40.0
290
     0
  0
SCALE
  5
E4F6
102
{ACAD_REACTORS
330
E4EB
102
}
330
E4EB
100
AcDbScale
 70
     0
300
1:50
140
1.0
141
50.0
290
     0
  0
SCALE
  5
E4F7
102
{ACAD_REACTORS
330
E4EB
102
}
330
E4EB
100
AcDbScale
 70
     0
300
1:100
140
1.0
141
100.0
290
     0
  0
SCALE
  5
E4F8
102
{ACAD_REACTORS
330
E4EB
102
}
330
E4EB
100
AcDbScale
 70
     0
300
2:1
140
2.0
141
1.0
290
     0
  0
SCALE
  5
E4F9
102
{ACAD_REACTORS
330
E4EB
102
}
330
E4EB
100
AcDbScale
 70
     0
300
4:1
140
4.0
141
1.0
290
     0
  0
SCALE
  5
E4FA
102
{ACAD_REACTORS
330
E4EB
102
}
330
E4EB
100
AcDbScale
 70
     0
300
8:1
140
8.0
141
1.0
290
     0
  0
SCALE
  5
E4FB
102
{ACAD_REACTORS
330
E4EB
102
}
330
E4EB
100
AcDbScale
 70
     0
300
10:1
140
10.0
141
1.0
290
     0
  0
SCALE
  5
E4FC
102
{ACAD_REACTORS
330
E4EB
102
}
330
E4EB
100
AcDbScale
 70
     0
300
100:1
140
100.0
141
1.0
290
     0
  0
SCALE
  5
E4FD
102
{ACAD_REACTORS
330
E4EB
102
}
330
E4EB
100
AcDbScale
 70
     0
300
1/128" = 1'-0"
140
0.0078125
141
12.0
290
     0
  0
SCALE
  5
E4FE
102
{ACAD_REACTORS
330
E4EB
102
}
330
E4EB
100
AcDbScale
 70
     0
300
1/64" = 1'-0"
140
0.015625
141
12.0
290
     0
  0
SCALE
  5
E4FF
102
{ACAD_REACTORS
330
E4EB
102
}
330
E4EB
100
AcDbScale
 70
     0
300
1/32" = 1'-0"
140
0.03125
141
12.0
290
     0
  0
SCALE
  5
E500
102
{ACAD_REACTORS
330
E4EB
102
}
330
E4EB
100
AcDbScale
 70
     0
300
1/16" = 1'-0"
140
0.0625
141
12.0
290
     0
  0
SCALE
  5
E501
102
{ACAD_REACTORS
330
E4EB
102
}
330
E4EB
100
AcDbScale
 70
     0
300
3/32" = 1'-0"
140
0.09375
141
12.0
290
     0
  0
SCALE
  5
E502
102
{ACAD_REACTORS
330
E4EB
102
}
330
E4EB
100
AcDbScale
 70
     0
300
1/8" = 1'-0"
140
0.125
141
12.0
290
     0
  0
SCALE
  5
E503
102
{ACAD_REACTORS
330
E4EB
102
}
330
E4EB
100
AcDbScale
 70
     0
300
3/16" = 1'-0"
140
0.1875
141
12.0
290
     0
  0
SCALE
  5
E504
102
{ACAD_REACTORS
330
E4EB
102
}
330
E4EB
100
AcDbScale
 70
     0
300
1/4" = 1'-0"
140
0.25
141
12.0
290
     0
  0
SCALE
  5
E505
102
{ACAD_REACTORS
330
E4EB
102
}
330
E4EB
100
AcDbScale
 70
     0
300
3/8" = 1'-0"
140
0.375
141
12.0
290
     0
  0
SCALE
  5
E506
102
{ACAD_REACTORS
330
E4EB
102
}
330
E4EB
100
AcDbScale
 70
     0
300
1/2" = 1'-0"
140
0.5
141
12.0
290
     0
  0
SCALE
  5
E507
102
{ACAD_REACTORS
330
E4EB
102
}
330
E4EB
100
AcDbScale
 70
     0
300
3/4" = 1'-0"
140
0.75
141
12.0
290
     0
  0
SCALE
  5
E508
102
{ACAD_REACTORS
330
E4EB
102
}
330
E4EB
100
AcDbScale
 70
     0
300
1" = 1'-0"
140
1.0
141
12.0
290
     0
  0
SCALE
  5
E509
102
{ACAD_REACTORS
330
E4EB
102
}
330
E4EB
100
AcDbScale
 70
     0
300
1-1/2" = 1'-0"
140
1.5
141
12.0
290
     0
  0
SCALE
  5
E50A
102
{ACAD_REACTORS
330
E4EB
102
}
330
E4EB
100
AcDbScale
 70
     0
300
3" = 1'-0"
140
3.0
141
12.0
290
     0
  0
SCALE
  5
E50B
102
{ACAD_REACTORS
330
E4EB
102
}
330
E4EB
100
AcDbScale
 70
     0
300
6" = 1'-0"
140
6.0
141
12.0
290
     0
  0
SCALE
  5
E50C
102
{ACAD_REACTORS
330
E4EB
102
}
330
E4EB
100
AcDbScale
 70
     0
300
1'-0" = 1'-0"
140
12.0
141
12.0
290
     0
  0
ACDBSECTIONVIEWSTYLE
  5
41E39
102
{ACAD_XDICTIONARY
360
41E59
102
}
102
{ACAD_REACTORS
330
41E38
102
}
330
41E38
100
AcDbModelDocViewStyle
 70
     0
  3
Imperial24
290
     0
100
AcDbSectionViewStyle
 70
     0
 71
     0
 90
       78
 71
     1
340
11
 62
   256
 40
0.24
340
0
340
0
 62
   256
 40
0.24
300
I, O, Q, S, X, Z
 40
0.48
 90
        3
 40
0.18
 90
        1
 71
     2
340
15
 90
       25
 62
   256
340
15
 90
       50
 62
   256
 40
0.24
 40
0.0
 40
0.24
 71
     3
340
11
 62
   256
 40
0.24
 90
        1
 40
0.75
 90
        1
300
%<\AcVar ViewType \f "%tc1">% %<\AcVar ViewSectionStartId>%-%<\AcVar ViewSectionEndId>%\PSCALE %<\AcVar ViewScale \f "%sn">%
 71
     4
 62
   256
 62
   257
300
ANSI31
 40
1.0
 90
        0
290
     0
290
     0
 90
        6
 40
0.0
 40
1.570796326794896
 40
0.2617993877991494
 40
1.308996938995747
 40
-0.2617993877991494
 40
1.832595714594044
  0
TABLESTYLE
  5
E4EA
102
{ACAD_XDICTIONARY
360
F86C
102
}
102
{ACAD_REACTORS
330
E4E9
102
}
330
E4E9
100
AcDbTableStyle
280
     0
  3
Standard
 70
     0
 71
     0
 40
0.06
 41
0.06
280
     0
281
     0
  7
STANDARD
140
0.18
170
     2
 62
     0
 63
     7
283
     0
 90
      512
 91
        0
  1

274
    -2
284
     1
 64
     0
275
    -2
285
     1
 65
     0
276
    -2
286
     1
 66
     0
277
    -2
287
     1
 67
     0
278
    -2
288
     1
 68
     0
279
    -2
289
     1
 69
     0
  7
STANDARD
140
0.25
170
     5
 62
     0
 63
     7
283
     0
 90
      512
 91
        0
  1

274
    -2
284
     1
 64
     0
275
    -2
285
     1
 65
     0
276
    -2
286
     1
 66
     0
277
    -2
287
     1
 67
     0
278
    -2
288
     1
 68
     0
279
    -2
289
     1
 69
     0
  7
STANDARD
140
0.18
170
     5
 62
     0
 63
     7
283
     0
 90
      512
 91
        0
  1

274
    -2
284
     1
 64
     0
275
    -2
285
     1
 65
     0
276
    -2
286
     1
 66
     0
277
    -2
287
     1
 67
     0
278
    -2
288
     1
 68
     0
279
    -2
289
     1
 69
     0
  0
VISUALSTYLE
  5
E4DA
102
{ACAD_REACTORS
330
E4D4
102
}
330
E4D4
100
AcDbVisualStyle
  2

 70
     4
177
     3
291
     0
 70
    58
 90
        0
176
     1
 90
        2
176
     1
 90
        0
176
     1
 90
        0
176
     1
 40
0.6
176
     1
 40
30.0
176
     1
 62
     7
176
     1
 90
        1
176
     1
 90
        4
176
     1
 62
     7
176
     1
 62
   257
176
     1
 90
        1
176
     1
 90
        1
176
     1
 40
1.0
176
     1
 90
        0
176
     1
 62
   257
176
     1
 40
1.0
176
     1
 90
        1
176
     1
 90
        6
176
     1
 90
        2
176
     1
 62
     7
176
     1
 90
        5
176
     1
 90
        0
176
     1
 90
        0
176
     1
290
     0
176
     1
 90
        1
176
     1
 40
0.0
176
     1
 90
        0
176
     1
290
     1
176
     1
290
     1
176
     1
290
     0
176
     1
290
     0
176
     1
290
     0
176
     1
290
     0
176
     1
290
     0
176
     1
290
     0
176
     1
290
     0
176
     1
 90
       50
176
     1
 40
0.0
176
     1
 40
1.0
176
     1
 90
        0
176
     1
 62
    18
176
     1
 90
       50
176
     1
 90
        3
176
     1
 62
     5
420
      255
176
     1
290
     0
176
     1
 90
       50
176
     1
 90
       50
176
     1
 90
       50
176
     1
290
     0
176
     1
 90
       50
176
     1
 62
   256
176
     0
 40
1.0
176
     0
 90
        2
176
     1
  1
strokes_ogs.tif
176
     1
290
     0
176
     1
 40
1.0
176
     1
 40
1.0
176
     1
  0
VISUALSTYLE
  5
E4DC
102
{ACAD_REACTORS
330
E4D4
102
}
330
E4D4
100
AcDbVisualStyle
  2

 70
     6
177
     3
291
     0
 70
    58
 90
        1
176
     1
 90
        2
176
     1
 90
        2
176
     1
 90
        0
176
     1
 40
0.6
176
     1
 40
30.0
176
     1
 62
     7
176
     1
 90
        2
176
     1
 90
        2
176
     1
 62
     7
176
     1
 62
   257
176
     1
 90
        2
176
     1
 90
        1
176
     1
 40
179.0
176
     1
 90
        0
176
     1
 62
   257
176
     1
 40
1.0
176
     1
 90
        1
176
     1
 90
        6
176
     1
 90
        2
176
     1
 62
     7
176
     1
 90
        3
176
     1
 90
        0
176
     1
 90
        0
176
     1
290
     0
176
     1
 90
        1
176
     1
 40
0.0
176
     1
 90
        0
176
     1
290
     0
176
     1
290
     1
176
     1
290
     1
176
     1
290
     0
176
     1
290
     0
176
     1
290
     0
176
     1
290
     0
176
     1
290
     0
176
     1
290
     0
176
     1
 90
       50
176
     1
 40
0.0
176
     1
 40
1.0
176
     1
 90
        0
176
     1
 62
    18
176
     1
 90
       50
176
     1
 90
        3
176
     1
 62
     5
420
      255
176
     1
290
     0
176
     1
 90
       50
176
     1
 90
       50
176
     1
 90
       50
176
     1
290
     0
176
     1
 90
       50
176
     1
 62
   256
176
     0
 40
1.0
176
     0
 90
        2
176
     1
  1
strokes_ogs.tif
176
     1
290
     0
176
     1
 40
1.0
176
     1
 40
1.0
176
     1
  0
VISUALSTYLE
  5
E4DB
102
{ACAD_REACTORS
330
E4D4
102
}
330
E4D4
100
AcDbVisualStyle
  2

 70
     5
177
     3
291
     0
 70
    58
 90
        0
176
     1
 90
        2
176
     1
 90
        0
176
     1
 90
        0
176
     1
 40
0.6
176
     1
 40
30.0
176
     1
 62
     7
176
     1
 90
        1
176
     1
 90
        4
176
     1
 62
     7
176
     1
 62
   257
176
     1
 90
        1
176
     1
 90
        1
176
     1
 40
1.0
176
     1
 90
        0
176
     1
 62
   257
176
     1
 40
1.0
176
     1
 90
        1
176
     1
 90
        6
176
     1
 90
        2
176
     1
 62
     7
176
     1
 90
        5
176
     1
 90
        0
176
     1
 90
        0
176
     1
290
     0
176
     1
 90
        1
176
     1
 40
0.0
176
     1
 90
        0
176
     1
290
     0
176
     1
290
     1
176
     1
290
     1
176
     1
290
     0
176
     1
290
     0
176
     1
290
     0
176
     1
290
     0
176
     1
290
     0
176
     1
290
     0
176
     1
 90
       50
176
     1
 40
0.0
176
     1
 40
1.0
176
     1
 90
        0
176
     1
 62
    18
176
     1
 90
       50
176
     1
 90
        3
176
     1
 62
     5
420
      255
176
     1
290
     0
176
     1
 90
       50
176
     1
 90
       50
176
     1
 90
       50
176
     1
290
     0
176
     1
 90
       50
176
     1
 62
   256
176
     0
 40
1.0
176
     0
 90
        2
176
     1
  1
strokes_ogs.tif
176
     1
290
     0
176
     1
 40
1.0
176
     1
 40
1.0
176
     1
  0
VISUALSTYLE
  5
E4D9
102
{ACAD_REACTORS
330
E4D4
102
}
330
E4D4
100
AcDbVisualStyle
  2

 70
     7
177
     3
291
     1
 70
    58
 90
        1
176
     1
 90
        0
176
     1
 90
        1
176
     1
 90
        0
176
     1
 40
0.6
176
     1
 40
30.0
176
     1
 62
     7
176
     1
 90
        0
176
     1
 90
        4
176
     1
 62
     7
176
     1
 62
   257
176
     1
 90
        1
176
     1
 90
        1
176
     1
 40
1.0
176
     1
 90
        8
176
     1
 62
     7
176
     1
 40
1.0
176
     1
 90
        1
176
     1
 90
        6
176
     1
 90
        2
176
     1
 62
     7
176
     1
 90
        5
176
     1
 90
        0
176
     1
 90
        0
176
     1
290
     0
176
     1
 90
        1
176
     1
 40
0.0
176
     1
 90
        0
176
     1
290
     0
176
     1
290
     1
176
     1
290
     1
176
     1
290
     0
176
     1
290
     0
176
     1
290
     0
176
     1
290
     0
176
     1
290
     0
176
     1
290
     0
176
     1
 90
       50
176
     1
 40
0.0
176
     1
 40
1.0
176
     1
 90
        0
176
     1
 62
    18
176
     1
 90
       50
176
     1
 90
        3
176
     1
 62
     5
420
      255
176
     1
290
     0
176
     1
 90
       50
176
     1
 90
       50
176
     1
 90
       50
176
     1
290
     0
176
     1
 90
       50
176
     1
 62
   256
176
     0
 40
1.0
176
     0
 90
        2
176
     1
  1
strokes_ogs.tif
176
     1
290
     0
176
     1
 40
1.0
176
     1
 40
1.0
176
     1
  0
VISUALSTYLE
  5
E4E0
102
{ACAD_REACTORS
330
E4D4
102
}
330
E4D4
100
AcDbVisualStyle
  2

 70
    12
177
     3
291
     1
 70
    58
 90
        2
176
     1
 90
        2
176
     1
 90
        0
176
     1
 90
        0
176
     1
 40
0.6
176
     1
 40
30.0
176
     1
 62
     7
176
     1
 90
        1
176
     1
 90
        4
176
     1
 62
     7
176
     1
 62
   257
176
     1
 90
        1
176
     1
 90
        1
176
     1
 40
1.0
176
     1
 90
        8
176
     1
 62
     7
176
     1
 40
1.0
176
     1
 90
        1
176
     1
 90
        6
176
     1
 90
        2
176
     1
 62
     7
176
     1
 90
        5
176
     1
 90
        0
176
     1
 90
        0
176
     1
290
     0
176
     1
 90
        1
176
     1
 40
50.0
176
     1
 90
        0
176
     1
290
     0
176
     1
290
     1
176
     1
290
     1
176
     1
290
     0
176
     1
290
     0
176
     1
290
     0
176
     1
290
     0
176
     1
290
     0
176
     1
290
     0
176
     1
 90
       50
176
     1
 40
0.0
176
     1
 40
1.0
176
     1
 90
        0
176
     1
 62
    18
176
     1
 90
       50
176
     1
 90
        3
176
     1
 62
     5
420
      255
176
     1
290
     0
176
     1
 90
       50
176
     1
 90
       50
176
     1
 90
       50
176
     1
290
     0
176
     1
 90
       50
176
     1
 62
   256
176
     0
 40
1.0
176
     0
 90
        2
176
     1
  1
strokes_ogs.tif
176
     1
290
     0
176
     1
 40
1.0
176
     1
 40
1.0
176
     1
  0
VISUALSTYLE
  5
E4E4
102
{ACAD_REACTORS
330
E4D4
102
}
330
E4D4
100
AcDbVisualStyle
  2

 70
    16
177
     3
291
     1
 70
    58
 90
        2
176
     1
 90
        2
176
     1
 90
        3
176
     1
 90
        0
176
     1
 40
0.6
176
     1
 40
30.0
176
     1
 62
     8
176
     1
 90
        1
176
     1
 90
        4
176
     1
 62
     7
176
     1
 62
   257
176
     1
 90
        1
176
     1
 90
        1
176
     1
 40
1.0
176
     1
 90
        8
176
     1
 62
     8
176
     1
 40
1.0
176
     1
 90
        1
176
     1
 90
        6
176
     1
 90
        2
176
     1
 62
     7
176
     1
 90
        5
176
     1
 90
        0
176
     1
 90
        0
176
     1
290
     0
176
     1
 90
        1
176
     1
 40
0.0
176
     1
 90
        0
176
     1
290
     0
176
     1
290
     1
176
     1
290
     1
176
     1
290
     0
176
     1
290
     0
176
     1
290
     0
176
     1
290
     0
176
     1
290
     0
176
     1
290
     0
176
     1
 90
       50
176
     1
 40
0.0
176
     1
 40
1.0
176
     1
 90
        0
176
     1
 62
    18
176
     1
 90
       50
176
     1
 90
        3
176
     1
 62
     5
420
      255
176
     1
290
     0
176
     1
 90
       50
176
     1
 90
       50
176
     1
 90
       50
176
     1
290
     0
176
     1
 90
       50
176
     1
 62
   256
176
     0
 40
1.0
176
     0
 90
        2
176
     1
  1
strokes_ogs.tif
176
     1
290
     0
176
     1
 40
1.0
176
     1
 40
1.0
176
     1
  0
VISUALSTYLE
  5
E4DD
102
{ACAD_REACTORS
330
E4D4
102
}
330
E4D4
100
AcDbVisualStyle
  2

 70
     9
177
     3
291
     0
 70
    58
 90
        3
176
     1
 90
        2
176
     1
 90
        0
176
     1
 90
        0
176
     1
 40
0.6
176
     1
 40
30.0
176
     1
 62
     7
176
     1
 90
        2
176
     1
 90
        2
176
     1
 62
     7
176
     1
 62
   257
176
     1
 90
        1
176
     1
 90
        1
176
     1
 40
179.0
176
     1
 90
        8
176
     1
 62
     7
176
     1
 40
1.0
176
     1
 90
        1
176
     1
 90
        6
176
     1
 90
        2
176
     1
 62
     7
176
     1
 90
        3
176
     1
 90
        0
176
     1
 90
        0
176
     1
290
     0
176
     1
 90
        1
176
     1
 40
0.0
176
     1
 90
        0
176
     1
290
     0
176
     1
290
     1
176
     1
290
     1
176
     1
290
     0
176
     1
290
     0
176
     1
290
     0
176
     1
290
     0
176
     1
290
     0
176
     1
290
     0
176
     1
 90
       50
176
     1
 40
0.0
176
     1
 40
1.0
176
     1
 90
        0
176
     1
 62
    18
176
     1
 90
       50
176
     1
 90
        3
176
     1
 62
     5
420
      255
176
     1
290
     0
176
     1
 90
       50
176
     1
 90
       50
176
     1
 90
       50
176
     1
290
     0
176
     1
 90
       50
176
     1
 62
   256
176
     0
 40
1.0
176
     0
 90
        2
176
     1
  1
strokes_ogs.tif
176
     1
290
     0
176
     1
 40
1.0
176
     1
 40
1.0
176
     1
  0
VISUALSTYLE
  5
E4DF
102
{ACAD_REACTORS
330
E4D4
102
}
330
E4D4
100
AcDbVisualStyle
  2

 70
    11
177
     3
291
     1
 70
    58
 90
        2
176
     1
 90
        2
176
     1
 90
        0
176
     1
 90
        0
176
     1
 40
0.6
176
     1
 40
30.0
176
     1
 62
     7
176
     1
 90
        1
176
     1
 90
        4
176
     1
 62
     7
176
     1
 62
   257
176
     1
 90
        1
176
     1
 90
        1
176
     1
 40
1.0
176
     1
 90
        8
176
     1
 62
     7
176
     1
 40
1.0
176
     1
 90
        1
176
     1
 90
        6
176
     1
 90
        2
176
     1
 62
     7
176
     1
 90
        5
176
     1
 90
        0
176
     1
 90
        0
176
     1
290
     0
176
     1
 90
        1
176
     1
 40
-50.0
176
     1
 90
        0
176
     1
290
     0
176
     1
290
     1
176
     1
290
     1
176
     1
290
     0
176
     1
290
     0
176
     1
290
     0
176
     1
290
     0
176
     1
290
     0
176
     1
290
     0
176
     1
 90
       50
176
     1
 40
0.0
176
     1
 40
1.0
176
     1
 90
        0
176
     1
 62
    18
176
     1
 90
       50
176
     1
 90
        3
176
     1
 62
     5
420
      255
176
     1
290
     0
176
     1
 90
       50
176
     1
 90
       50
176
     1
 90
       50
176
     1
290
     0
176
     1
 90
       50
176
     1
 62
   256
176
     0
 40
1.0
176
     0
 90
        2
176
     1
  1
strokes_ogs.tif
176
     1
290
     0
176
     1
 40
1.0
176
     1
 40
1.0
176
     1
  0
VISUALSTYLE
  5
E4E7
102
{ACAD_REACTORS
330
E4D4
102
}
330
E4D4
100
AcDbVisualStyle
  2

 70
    22
177
     3
291
     1
 70
    58
 90
        2
176
     0
 90
        2
176
     0
 90
        0
176
     0
 90
        0
176
     0
 40
0.6
176
     0
 40
30.0
176
     0
 62
     7
176
     0
 90
        1
176
     0
 90
        4
176
     0
 62
     7
176
     0
 62
   257
176
     0
 90
        1
176
     0
 90
        1
176
     0
 40
1.0
176
     0
 90
        8
176
     2
 62
     7
176
     0
 40
1.0
176
     0
 90
        1
176
     0
 90
        6
176
     0
 90
        2
176
     0
 62
     7
176
     0
 90
        5
176
     0
 90
        0
176
     0
 90
        0
176
     0
290
     0
176
     0
 90
        1
176
     0
 40
0.0
176
     0
 90
        0
176
     0
290
     0
176
     1
290
     1
176
     1
290
     1
176
     1
290
     0
176
     1
290
     0
176
     1
290
     0
176
     1
290
     0
176
     1
290
     0
176
     1
290
     0
176
     1
 90
       50
176
     1
 40
0.0
176
     1
 40
1.0
176
     1
 90
        0
176
     1
 62
    18
176
     1
 90
       50
176
     1
 90
        3
176
     1
 62
     5
420
      255
176
     1
290
     0
176
     1
 90
       50
176
     1
 90
       50
176
     1
 90
       50
176
     1
290
     0
176
     1
 90
       50
176
     1
 62
   256
176
     0
 40
1.0
176
     0
 90
        2
176
     1
  1
strokes_ogs.tif
176
     1
290
     0
176
     1
 40
1.0
176
     1
 40
1.0
176
     1
  0
VISUALSTYLE
  5
E4E3
102
{ACAD_REACTORS
330
E4D4
102
}
330
E4D4
100
AcDbVisualStyle
  2

 70
    15
177
     3
291
     1
 70
    58
 90
        2
176
     1
 90
        2
176
     1
 90
        0
176
     1
 90
        0
176
     1
 40
0.6
176
     1
 40
30.0
176
     1
 62
     7
176
     1
 90
        1
176
     1
 90
        4
176
     1
 62
     7
176
     1
 62
   257
176
     1
 90
        1
176
     1
 90
        1
176
     1
 40
1.0
176
     1
 90
        8
176
     1
 62
     7
176
     1
 40
1.0
176
     1
 90
        1
176
     1
 90
        6
176
     1
 90
        2
176
     1
 62
     7
176
     1
 90
        5
176
     1
 90
        0
176
     1
 90
        0
176
     1
290
     0
176
     1
 90
        1
176
     1
 40
0.0
176
     1
 90
        0
176
     1
290
     0
176
     1
290
     1
176
     1
290
     1
176
     1
290
     0
176
     1
290
     0
176
     1
290
     0
176
     1
290
     0
176
     1
290
     0
176
     1
290
     0
176
     1
 90
       50
176
     1
 40
0.0
176
     1
 40
1.0
176
     1
 90
        0
176
     1
 62
    18
176
     1
 90
       50
176
     1
 90
        3
176
     1
 62
     5
420
      255
176
     1
290
     0
176
     1
 90
       50
176
     1
 90
       50
176
     1
 90
       50
176
     1
290
     0
176
     1
 90
       50
176
     1
 62
   256
176
     0
 40
1.0
176
     0
 90
        2
176
     1
  1
strokes_ogs.tif
176
     1
290
     0
176
     1
 40
1.0
176
     1
 40
1.0
176
     1
  0
VISUALSTYLE
  5
E4D5
102
{ACAD_REACTORS
330
E4D4
102
}
330
E4D4
100
AcDbVisualStyle
  2

 70
     0
177
     3
291
     1
 70
    58
 90
        2
176
     1
 90
        1
176
     1
 90
        1
176
     1
 90
        2
176
     1
 40
0.6
176
     1
 40
30.0
176
     1
 62
     7
176
     1
 90
        0
176
     1
 90
        4
176
     1
 62
     7
176
     1
 62
   257
176
     1
 90
        1
176
     1
 90
        1
176
     1
 40
1.0
176
     1
 90
        8
176
     1
 62
     7
176
     1
 40
1.0
176
     1
 90
        1
176
     1
 90
        6
176
     1
 90
        2
176
     1
 62
     7
176
     1
 90
        5
176
     1
 90
        0
176
     1
 90
        0
176
     1
290
     0
176
     1
 90
       13
176
     1
 40
0.0
176
     1
 90
        0
176
     1
290
     0
176
     1
290
     1
176
     1
290
     1
176
     1
290
     0
176
     1
290
     0
176
     1
290
     0
176
     1
290
     0
176
     1
290
     0
176
     1
290
     0
176
     1
 90
       50
176
     1
 40
0.0
176
     1
 40
1.0
176
     1
 90
        0
176
     1
 62
    18
176
     1
 90
       50
176
     1
 90
        3
176
     1
 62
     5
420
      255
176
     1
290
     0
176
     1
 90
       50
176
     1
 90
       50
176
     1
 90
       50
176
     1
290
     0
176
     1
 90
       50
176
     1
 62
   256
176
     0
 40
1.0
176
     0
 90
        2
176
     1
  1
strokes_ogs.tif
176
     1
290
     0
176
     1
 40
1.0
176
     1
 40
1.0
176
     1
  0
VISUALSTYLE
  5
E4D6
102
{ACAD_REACTORS
330
E4D4
102
}
330
E4D4
100
AcDbVisualStyle
  2

 70
     1
177
     3
291
     1
 70
    58
 90
        2
176
     1
 90
        1
176
     1
 90
        1
176
     1
 90
        2
176
     1
 40
0.6
176
     1
 40
30.0
176
     1
 62
     7
176
     1
 90
        1
176
     1
 90
        4
176
     1
 62
     7
176
     1
 62
   257
176
     1
 90
        1
176
     1
 90
        1
176
     1
 40
1.0
176
     1
 90
        0
176
     1
 62
   257
176
     1
 40
1.0
176
     1
 90
        1
176
     1
 90
        6
176
     1
 90
        2
176
     1
 62
     7
176
     1
 90
        5
176
     1
 90
        0
176
     1
 90
        0
176
     1
290
     0
176
     1
 90
       13
176
     1
 40
0.0
176
     1
 90
        0
176
     1
290
     0
176
     1
290
     1
176
     1
290
     1
176
     1
290
     0
176
     1
290
     0
176
     1
290
     0
176
     1
290
     0
176
     1
290
     0
176
     1
290
     0
176
     1
 90
       50
176
     1
 40
0.0
176
     1
 40
1.0
176
     1
 90
        0
176
     1
 62
    18
176
     1
 90
       50
176
     1
 90
        3
176
     1
 62
     5
420
      255
176
     1
290
     0
176
     1
 90
       50
176
     1
 90
       50
176
     1
 90
       50
176
     1
290
     0
176
     1
 90
       50
176
     1
 62
   256
176
     0
 40
1.0
176
     0
 90
        2
176
     1
  1
strokes_ogs.tif
176
     1
290
     0
176
     1
 40
1.0
176
     1
 40
1.0
176
     1
  0
VISUALSTYLE
  5
E4D7
102
{ACAD_REACTORS
330
E4D4
102
}
330
E4D4
100
AcDbVisualStyle
  2

 70
     2
177
     3
291
     1
 70
    58
 90
        2
176
     1
 90
        2
176
     1
 90
        1
176
     1
 90
        2
176
     1
 40
0.6
176
     1
 40
30.0
176
     1
 62
     7
176
     1
 90
        0
176
     1
 90
        4
176
     1
 62
     7
176
     1
 62
   257
176
     1
 90
        1
176
     1
 90
        1
176
     1
 40
1.0
176
     1
 90
        0
176
     1
 62
     7
176
     1
 40
1.0
176
     1
 90
        1
176
     1
 90
        6
176
     1
 90
        2
176
     1
 62
     7
176
     1
 90
        5
176
     1
 90
        0
176
     1
 90
        0
176
     1
290
     0
176
     1
 90
       13
176
     1
 40
0.0
176
     1
 90
        0
176
     1
290
     0
176
     1
290
     1
176
     1
290
     1
176
     1
290
     0
176
     1
290
     0
176
     1
290
     0
176
     1
290
     0
176
     1
290
     0
176
     1
290
     0
176
     1
 90
       50
176
     1
 40
0.0
176
     1
 40
1.0
176
     1
 90
        0
176
     1
 62
    18
176
     1
 90
       50
176
     1
 90
        3
176
     1
 62
     5
420
      255
176
     1
290
     0
176
     1
 90
       50
176
     1
 90
       50
176
     1
 90
       50
176
     1
290
     0
176
     1
 90
       50
176
     1
 62
   256
176
     0
 40
1.0
176
     0
 90
        2
176
     1
  1
strokes_ogs.tif
176
     1
290
     0
176
     1
 40
1.0
176
     1
 40
1.0
176
     1
  0
VISUALSTYLE
  5
E4D8
102
{ACAD_REACTORS
330
E4D4
102
}
330
E4D4
100
AcDbVisualStyle
  2

 70
     3
177
     3
291
     1
 70
    58
 90
        2
176
     1
 90
        2
176
     1
 90
        1
176
     1
 90
        2
176
     1
 40
0.6
176
     1
 40
30.0
176
     1
 62
     7
176
     1
 90
        1
176
     1
 90
        4
176
     1
 62
     7
176
     1
 62
   257
176
     1
 90
        1
176
     1
 90
        1
176
     1
 40
1.0
176
     1
 90
        0
176
     1
 62
   257
176
     1
 40
1.0
176
     1
 90
        1
176
     1
 90
        6
176
     1
 90
        2
176
     1
 62
     7
176
     1
 90
        5
176
     1
 90
        0
176
     1
 90
        0
176
     1
290
     0
176
     1
 90
       13
176
     1
 40
0.0
176
     1
 90
        0
176
     1
290
     0
176
     1
290
     1
176
     1
290
     1
176
     1
290
     0
176
     1
290
     0
176
     1
290
     0
176
     1
290
     0
176
     1
290
     0
176
     1
290
     0
176
     1
 90
       50
176
     1
 40
0.0
176
     1
 40
1.0
176
     1
 90
        0
176
     1
 62
    18
176
     1
 90
       50
176
     1
 90
        3
176
     1
 62
     5
420
      255
176
     1
290
     0
176
     1
 90
       50
176
     1
 90
       50
176
     1
 90
       50
176
     1
290
     0
176
     1
 90
       50
176
     1
 62
   256
176
     0
 40
1.0
176
     0
 90
        2
176
     1
  1
strokes_ogs.tif
176
     1
290
     0
176
     1
 40
1.0
176
     1
 40
1.0
176
     1
  0
VISUALSTYLE
  5
41E32
102
{ACAD_REACTORS
330
E4D4
102
}
330
E4D4
100
AcDbVisualStyle
  2
Hidden
 70
     6
177
     3
291
     0
 70
    58
 90
        1
176
     1
 90
        2
176
     1
 90
        2
176
     1
 90
        0
176
     1
 40
0.6
176
     1
 40
30.0
176
     1
 62
     7
420
 16777215
176
     1
 90
        2
176
     1
 90
        2
176
     1
 62
     7
176
     1
 62
   257
176
     1
 90
        2
176
     1
 90
        1
176
     1
 40
40.0
176
     1
 90
        0
176
     1
 62
   257
176
     1
 40
1.0
176
     1
 90
        1
176
     1
 90
        6
176
     1
 90
        2
176
     1
 62
     7
176
     1
 90
        3
176
     1
 90
        0
176
     1
 90
        0
176
     1
290
     0
176
     1
 90
        1
176
     1
 40
0.0
176
     1
 90
        0
176
     1
290
     0
176
     1
290
     1
176
     1
290
     1
176
     1
290
     0
176
     1
290
     0
176
     1
290
     0
176
     1
290
     0
176
     1
290
     0
176
     1
290
     0
176
     1
 90
       50
176
     1
 40
0.0
176
     1
 40
1.0
176
     1
 90
        0
176
     1
 62
    18
176
     1
 90
       50
176
     1
 90
        3
176
     1
 62
     5
420
      255
176
     1
290
     0
176
     1
 90
       50
176
     1
 90
       50
176
     1
 90
       50
176
     1
290
     0
176
     1
 90
       50
176
     1
 62
   256
176
     0
 40
1.0
176
     0
 90
        2
176
     1
  1
strokes_ogs.tif
176
     1
290
     0
176
     1
 40
1.0
176
     1
 40
1.0
176
     1
  0
VISUALSTYLE
  5
E4E5
102
{ACAD_REACTORS
330
E4D4
102
}
330
E4D4
100
AcDbVisualStyle
  2

 70
    20
177
     3
291
     1
 70
    58
 90
        2
176
     0
 90
        2
176
     0
 90
        0
176
     0
 90
        0
176
     0
 40
0.6
176
     0
 40
30.0
176
     0
 62
     7
176
     0
 90
        1
176
     0
 90
        4
176
     0
 62
     7
176
     0
 62
   257
176
     0
 90
        1
176
     0
 90
        1
176
     0
 40
1.0
176
     0
 90
       10
176
     2
 62
     7
176
     0
 40
1.0
176
     0
 90
        1
176
     0
 90
        6
176
     0
 90
        2
176
     0
 62
     7
176
     0
 90
        5
176
     0
 90
        0
176
     0
 90
        0
176
     0
290
     0
176
     0
 90
        1
176
     0
 40
0.0
176
     0
 90
        0
176
     0
290
     0
176
     1
290
     1
176
     1
290
     1
176
     1
290
     0
176
     1
290
     0
176
     1
290
     0
176
     1
290
     0
176
     1
290
     0
176
     1
290
     0
176
     1
 90
       50
176
     1
 40
0.0
176
     1
 40
1.0
176
     1
 90
        0
176
     1
 62
    18
176
     1
 90
       50
176
     1
 90
        3
176
     1
 62
     5
420
      255
176
     1
290
     0
176
     1
 90
       50
176
     1
 90
       50
176
     1
 90
       50
176
     1
290
     0
176
     1
 90
       50
176
     1
 62
   256
176
     0
 40
1.0
176
     0
 90
        2
176
     1
  1
strokes_ogs.tif
176
     1
290
     0
176
     1
 40
1.0
176
     1
 40
1.0
176
     1
  0
VISUALSTYLE
  5
E4E2
102
{ACAD_REACTORS
330
E4D4
102
}
330
E4D4
100
AcDbVisualStyle
  2

 70
    14
177
     3
291
     1
 70
    58
 90
        2
176
     1
 90
        2
176
     1
 90
        0
176
     1
 90
        0
176
     1
 40
0.6
176
     1
 40
30.0
176
     1
 62
     7
176
     1
 90
        1
176
     1
 90
        4
176
     1
 62
     7
176
     1
 62
   257
176
     1
 90
        7
176
     1
 90
        7
176
     1
 40
1.0
176
     1
 90
        8
176
     1
 62
     7
176
     1
 40
1.0
176
     1
 90
        1
176
     1
 90
        6
176
     1
 90
        2
176
     1
 62
     7
176
     1
 90
        5
176
     1
 90
        0
176
     1
 90
        0
176
     1
290
     0
176
     1
 90
        1
176
     1
 40
0.0
176
     1
 90
        0
176
     1
290
     0
176
     1
290
     1
176
     1
290
     1
176
     1
290
     0
176
     1
290
     0
176
     1
290
     0
176
     1
290
     0
176
     1
290
     0
176
     1
290
     0
176
     1
 90
       50
176
     1
 40
0.0
176
     1
 40
1.0
176
     1
 90
        0
176
     1
 62
    18
176
     1
 90
       50
176
     1
 90
        3
176
     1
 62
     5
420
      255
176
     1
290
     0
176
     1
 90
       50
176
     1
 90
       50
176
     1
 90
       50
176
     1
290
     0
176
     1
 90
       50
176
     1
 62
   256
176
     0
 40
1.0
176
     0
 90
        2
176
     1
  1
strokes_ogs.tif
176
     1
290
     0
176
     1
 40
1.0
176
     1
 40
1.0
176
     1
  0
VISUALSTYLE
  5
E4E6
102
{ACAD_REACTORS
330
E4D4
102
}
330
E4D4
100
AcDbVisualStyle
  2

 70
    21
177
     3
291
     1
 70
    58
 90
        2
176
     0
 90
        2
176
     0
 90
        0
176
     0
 90
        0
176
     0
 40
0.6
176
     0
 40
30.0
176
     0
 62
     7
176
     0
 90
        1
176
     0
 90
        4
176
     0
 62
     7
176
     0
 62
   257
176
     0
 90
        1
176
     0
 90
        1
176
     0
 40
1.0
176
     0
 90
        9
176
     2
 62
     7
176
     0
 40
1.0
176
     0
 90
        1
176
     0
 90
        6
176
     0
 90
        2
176
     0
 62
     7
176
     0
 90
        5
176
     0
 90
        0
176
     0
 90
        0
176
     0
290
     0
176
     0
 90
        1
176
     0
 40
0.0
176
     0
 90
        0
176
     0
290
     0
176
     1
290
     1
176
     1
290
     1
176
     1
290
     0
176
     1
290
     0
176
     1
290
     0
176
     1
290
     0
176
     1
290
     0
176
     1
290
     0
176
     1
 90
       50
176
     1
 40
0.0
176
     1
 40
1.0
176
     1
 90
        0
176
     1
 62
    18
176
     1
 90
       50
176
     1
 90
        3
176
     1
 62
     5
420
      255
176
     1
290
     0
176
     1
 90
       50
176
     1
 90
       50
176
     1
 90
       50
176
     1
290
     0
176
     1
 90
       50
176
     1
 62
   256
176
     0
 40
1.0
176
     0
 90
        2
176
     1
  1
strokes_ogs.tif
176
     1
290
     0
176
     1
 40
1.0
176
     1
 40
1.0
176
     1
  0
VISUALSTYLE
  5
E4DE
102
{ACAD_REACTORS
330
E4D4
102
}
330
E4D4
100
AcDbVisualStyle
  2

 70
     8
177
     3
291
     0
 70
    58
 90
        2
176
     1
 90
        2
176
     1
 90
        0
176
     1
 90
        0
176
     1
 40
0.6
176
     1
 40
30.0
176
     1
 62
     7
176
     1
 90
        1
176
     1
 90
        0
176
     1
 62
     7
176
     1
 62
   257
176
     1
 90
        1
176
     1
 90
        1
176
     1
 40
1.0
176
     1
 90
        8
176
     1
 62
     8
176
     1
 40
1.0
176
     1
 90
        1
176
     1
 90
        6
176
     1
 90
        2
176
     1
 62
     7
176
     1
 90
        5
176
     1
 90
        0
176
     1
 90
        0
176
     1
290
     0
176
     1
 90
       13
176
     1
 40
0.0
176
     1
 90
        0
176
     1
290
     0
176
     1
290
     1
176
     1
290
     1
176
     1
290
     0
176
     1
290
     0
176
     1
290
     0
176
     1
290
     0
176
     1
290
     0
176
     1
290
     0
176
     1
 90
       50
176
     1
 40
0.0
176
     1
 40
1.0
176
     1
 90
        0
176
     1
 62
    18
176
     1
 90
       50
176
     1
 90
        3
176
     1
 62
     5
420
      255
176
     1
290
     0
176
     1
 90
       50
176
     1
 90
       50
176
     1
 90
       50
176
     1
290
     0
176
     1
 90
       50
176
     1
 62
   256
176
     0
 40
1.0
176
     0
 90
        2
176
     1
  1
strokes_ogs.tif
176
     1
290
     0
176
     1
 40
1.0
176
     1
 40
1.0
176
     1
  0
VISUALSTYLE
  5
41E37
102
{ACAD_REACTORS
330
E4D4
102
}
330
E4D4
100
AcDbVisualStyle
  2
Shaded
 70
    27
177
     3
291
     0
 70
    58
 90
        2
176
     1
 90
        2
176
     1
 90
        1
176
     1
 90
        2
176
     1
 40
0.6
176
     1
 40
30.0
176
     1
 62
     7
420
 16777215
176
     1
 90
        0
176
     1
 90
        4
176
     1
 62
     7
176
     1
 62
   257
176
     1
 90
        1
176
     1
 90
        1
176
     1
 40
1.0
176
     1
 90
        8
176
     1
 62
   257
176
     1
 40
1.0
176
     1
 90
        1
176
     1
 90
        6
176
     1
 90
        2
176
     1
 62
     8
420
  7895160
176
     1
 90
        3
176
     1
 90
        0
176
     1
 90
        0
176
     1
290
     0
176
     1
 90
        5
176
     1
 40
0.0
176
     1
 90
        0
176
     1
290
     0
176
     1
290
     1
176
     1
290
     1
176
     1
290
     0
176
     1
290
     0
176
     1
290
     0
176
     1
290
     0
176
     1
290
     0
176
     1
290
     0
176
     1
 90
       50
176
     1
 40
0.0
176
     1
 40
1.0
176
     1
 90
        0
176
     1
 62
    18
176
     1
 90
       50
176
     1
 90
        3
176
     1
 62
     5
420
      255
176
     1
290
     0
176
     1
 90
       50
176
     1
 90
       50
176
     1
 90
       50
176
     1
290
     0
176
     1
 90
       50
176
     1
 62
   256
176
     0
 40
1.0
176
     0
 90
        2
176
     1
  1
strokes_ogs.tif
176
     1
290
     0
176
     1
 40
1.0
176
     1
 40
1.0
176
     1
  0
VISUALSTYLE
  5
41E36
102
{ACAD_REACTORS
330
E4D4
102
}
330
E4D4
100
AcDbVisualStyle
  2
Shaded with edges
 70
    26
177
     3
291
     0
 70
    58
 90
        2
176
     1
 90
        2
176
     1
 90
        1
176
     1
 90
        2
176
     1
 40
0.6
176
     1
 40
30.0
176
     1
 62
     7
420
 16777215
176
     1
 90
        1
176
     1
 90
       10
176
     1
 62
     7
176
     1
 62
   257
176
     1
 90
        2
176
     1
 90
        1
176
     1
 40
1.0
176
     1
 90
        8
176
     1
 62
   257
176
     1
 40
1.0
176
     1
 90
        1
176
     1
 90
        6
176
     1
 90
        2
176
     1
 62
     7
176
     1
 90
        3
176
     1
 90
        0
176
     1
 90
        0
176
     1
290
     0
176
     1
 90
        5
176
     1
 40
0.0
176
     1
 90
        0
176
     1
290
     0
176
     1
290
     1
176
     1
290
     1
176
     1
290
     0
176
     1
290
     0
176
     1
290
     0
176
     1
290
     0
176
     1
290
     0
176
     1
290
     0
176
     1
 90
       50
176
     1
 40
0.0
176
     1
 40
1.0
176
     1
 90
        0
176
     1
 62
    18
176
     1
 90
       50
176
     1
 90
        3
176
     1
 62
     5
420
      255
176
     1
290
     0
176
     1
 90
       50
176
     1
 90
       50
176
     1
 90
       50
176
     1
290
     0
176
     1
 90
       50
176
     1
 62
   256
176
     0
 40
1.0
176
     0
 90
        2
176
     1
  1
strokes_ogs.tif
176
     1
290
     0
176
     1
 40
1.0
176
     1
 40
1.0
176
     1
  0
VISUALSTYLE
  5
41E33
102
{ACAD_REACTORS
330
E4D4
102
}
330
E4D4
100
AcDbVisualStyle
  2
Shades of Gray
 70
    23
177
     3
291
     0
 70
    58
 90
        2
176
     1
 90
        2
176
     1
 90
        3
176
     1
 90
        0
176
     1
 40
0.6
176
     1
 40
30.0
176
     1
 62
     7
420
 16777215
176
     1
 90
        2
176
     1
 90
        2
176
     1
 62
     7
176
     1
 62
     7
176
     1
 90
        1
176
     1
 90
        1
176
     1
 40
40.0
176
     1
 90
        8
176
     1
 62
     7
176
     1
 40
1.0
176
     1
 90
        1
176
     1
 90
        6
176
     1
 90
        2
176
     1
 62
     7
176
     1
 90
        3
176
     1
 90
        0
176
     1
 90
        0
176
     1
290
     0
176
     1
 90
        1
176
     1
 40
0.0
176
     1
 90
        0
176
     1
290
     0
176
     1
290
     1
176
     1
290
     1
176
     1
290
     0
176
     1
290
     0
176
     1
290
     0
176
     1
290
     0
176
     1
290
     0
176
     1
290
     0
176
     1
 90
       50
176
     1
 40
0.0
176
     1
 40
1.0
176
     1
 90
        0
176
     1
 62
    18
176
     1
 90
       50
176
     1
 90
        3
176
     1
 62
     5
420
      255
176
     1
290
     0
176
     1
 90
       50
176
     1
 90
       50
176
     1
 90
       50
176
     1
290
     0
176
     1
 90
       50
176
     1
 62
   256
176
     0
 40
1.0
176
     0
 90
        2
176
     1
  1
strokes_ogs.tif
176
     1
290
     0
176
     1
 40
1.0
176
     1
 40
1.0
176
     1
  0
VISUALSTYLE
  5
41E34
102
{ACAD_REACTORS
330
E4D4
102
}
330
E4D4
100
AcDbVisualStyle
  2
Sketchy
 70
    24
177
     3
291
     0
 70
    58
 90
        1
176
     1
 90
        2
176
     1
 90
        2
176
     1
 90
        0
176
     1
 40
0.6
176
     1
 40
30.0
176
     1
 62
     7
420
 16777215
176
     1
 90
        2
176
     1
 90
        2
176
     1
 62
     7
176
     1
 62
     7
176
     1
 90
        1
176
     1
 90
        1
176
     1
 40
40.0
176
     1
 90
       11
176
     1
 62
     7
176
     1
 40
1.0
176
     1
 90
        1
176
     1
 90
        6
176
     1
 90
        2
176
     1
 62
     7
176
     1
 90
        6
176
     1
 90
        0
176
     1
 90
        0
176
     1
290
     0
176
     1
 90
        1
176
     1
 40
0.0
176
     1
 90
        0
176
     1
290
     0
176
     1
290
     1
176
     1
290
     1
176
     1
290
     0
176
     1
290
     0
176
     1
290
     0
176
     1
290
     0
176
     1
290
     0
176
     1
290
     0
176
     1
 90
       50
176
     1
 40
0.0
176
     1
 40
1.0
176
     1
 90
        0
176
     1
 62
    18
176
     1
 90
       50
176
     1
 90
        3
176
     1
 62
     5
420
      255
176
     1
290
     0
176
     1
 90
       50
176
     1
 90
       50
176
     1
 90
       50
176
     1
290
     0
176
     1
 90
       50
176
     1
 62
   256
176
     0
 40
1.0
176
     0
 90
        2
176
     1
  1
strokes_ogs.tif
176
     1
290
     0
176
     1
 40
1.0
176
     1
 40
1.0
176
     1
  0
VISUALSTYLE
  5
E4E1
102
{ACAD_REACTORS
330
E4D4
102
}
330
E4D4
100
AcDbVisualStyle
  2

 70
    13
177
     3
291
     1
 70
    58
 90
        2
176
     1
 90
        2
176
     1
 90
        0
176
     1
 90
        0
176
     1
 40
0.6
176
     1
 40
30.0
176
     1
 62
     7
176
     1
 90
        1
176
     1
 90
        4
176
     1
 62
     7
176
     1
 62
   257
176
     1
 90
        1
176
     1
 90
        1
176
     1
 40
1.0
176
     1
 90
       12
176
     1
 62
     7
176
     1
 40
1.0
176
     1
 90
        1
176
     1
 90
        6
176
     1
 90
        2
176
     1
 62
     7
176
     1
 90
        5
176
     1
 90
        0
176
     1
 90
        0
176
     1
290
     0
176
     1
 90
        1
176
     1
 40
0.0
176
     1
 90
        0
176
     1
290
     0
176
     1
290
     1
176
     1
290
     1
176
     1
290
     0
176
     1
290
     0
176
     1
290
     0
176
     1
290
     0
176
     1
290
     0
176
     1
290
     0
176
     1
 90
       50
176
     1
 40
0.0
176
     1
 40
1.0
176
     1
 90
        0
176
     1
 62
    18
176
     1
 90
       50
176
     1
 90
        3
176
     1
 62
     5
420
      255
176
     1
290
     0
176
     1
 90
       50
176
     1
 90
       50
176
     1
 90
       50
176
     1
290
     0
176
     1
 90
       50
176
     1
 62
   256
176
     0
 40
1.0
176
     0
 90
        2
176
     1
  1
strokes_ogs.tif
176
     1
290
     0
176
     1
 40
1.0
176
     1
 40
1.0
176
     1
  0
VISUALSTYLE
  5
41E31
102
{ACAD_REACTORS
330
E4D4
102
}
330
E4D4
100
AcDbVisualStyle
  2
Wireframe
 70
     5
177
     3
291
     0
 70
    58
 90
        0
176
     1
 90
        2
176
     1
 90
        0
176
     1
 90
        0
176
     1
 40
0.6
176
     1
 40
30.0
176
     1
 62
     7
420
 16777215
176
     1
 90
        1
176
     1
 90
        4
176
     1
 62
     7
176
     1
 62
   257
176
     1
 90
        1
176
     1
 90
        1
176
     1
 40
1.0
176
     1
 90
        0
176
     1
 62
   257
176
     1
 40
1.0
176
     1
 90
        1
176
     1
 90
        6
176
     1
 90
        2
176
     1
 62
     7
176
     1
 90
        3
176
     1
 90
        0
176
     1
 90
        0
176
     1
290
     0
176
     1
 90
        1
176
     1
 40
0.0
176
     1
 90
        0
176
     1
290
     0
176
     1
290
     1
176
     1
290
     1
176
     1
290
     0
176
     1
290
     0
176
     1
290
     0
176
     1
290
     0
176
     1
290
     0
176
     1
290
     0
176
     1
 90
       50
176
     1
 40
0.0
176
     1
 40
1.0
176
     1
 90
        0
176
     1
 62
    18
176
     1
 90
       50
176
     1
 90
        3
176
     1
 62
     5
420
      255
176
     1
290
     0
176
     1
 90
       50
176
     1
 90
       50
176
     1
 90
       50
176
     1
290
     0
176
     1
 90
       50
176
     1
 62
   256
176
     0
 40
1.0
176
     0
 90
        2
176
     1
  1
strokes_ogs.tif
176
     1
290
     0
176
     1
 40
1.0
176
     1
 40
1.0
176
     1
  0
VISUALSTYLE
  5
41E35
102
{ACAD_REACTORS
330
E4D4
102
}
330
E4D4
100
AcDbVisualStyle
  2
X-Ray
 70
    25
177
     3
291
     0
 70
    58
 90
        2
176
     1
 90
        2
176
     1
 90
        1
176
     1
 90
        1
176
     1
 40
0.5
176
     1
 40
30.0
176
     1
 62
     7
420
 16777215
176
     1
 90
        1
176
     1
 90
        0
176
     1
 62
     7
176
     1
 62
   257
176
     1
 90
        1
176
     1
 90
        1
176
     1
 40
1.0
176
     1
 90
        8
176
     1
 62
     7
176
     1
 40
1.0
176
     1
 90
        1
176
     1
 90
        6
176
     1
 90
        2
176
     1
 62
     7
176
     1
 90
        3
176
     1
 90
        0
176
     1
 90
        0
176
     1
290
     0
176
     1
 90
       13
176
     1
 40
0.0
176
     1
 90
        0
176
     1
290
     0
176
     1
290
     1
176
     1
290
     1
176
     1
290
     0
176
     1
290
     0
176
     1
290
     0
176
     1
290
     0
176
     1
290
     0
176
     1
290
     0
176
     1
 90
       50
176
     1
 40
0.0
176
     1
 40
1.0
176
     1
 90
        0
176
     1
 62
    18
176
     1
 90
       50
176
     1
 90
        3
176
     1
 62
     5
420
      255
176
     1
290
     0
176
     1
 90
       50
176
     1
 90
       50
176
     1
 90
       50
176
     1
290
     0
176
     1
 90
       50
176
     1
 62
   256
176
     0
 40
1.0
176
     0
 90
        2
176
     1
  1
strokes_ogs.tif
176
     1
290
     0
176
     1
 40
1.0
176
     1
 40
1.0
176
     1
  0
DICTIONARYVAR
  5
F8C1
102
{ACAD_REACTORS
330
5697
102
}
330
5697
100
DictionaryVariables
280
     0
  1
1:1
  0
DICTIONARYVAR
  5
F8C0
102
{ACAD_REACTORS
330
5697
102
}
330
5697
100
DictionaryVariables
280
     0
  1
STANDARD
  0
DICTIONARYVAR
  5
F8BF
102
{ACAD_REACTORS
330
5697
102
}
330
5697
100
DictionaryVariables
280
     0
  1
STANDARD
  0
DICTIONARYVAR
  5
41E56
102
{ACAD_REACTORS
330
5697
102
}
330
5697
100
DictionaryVariables
280
     0
  1
Imperial24
  0
DICTIONARYVAR
  5
41E57
102
{ACAD_REACTORS
330
5697
102
}
330
5697
100
DictionaryVariables
280
     0
  1
Imperial24
  0
DICTIONARYVAR
  5
5698
102
{ACAD_REACTORS
330
5697
102
}
330
5697
100
DictionaryVariables
280
     0
  1
1
  0
DICTIONARYVAR
  5
F8C3
102
{ACAD_REACTORS
330
5697
102
}
330
5697
100
DictionaryVariables
280
     0
  1
0
  0
DICTIONARYVAR
  5
37FF5
102
{ACAD_REACTORS
330
5697
102
}
330
5697
100
DictionaryVariables
280
     0
  1
1
  0
DICTIONARYVAR
  5
37FF6
102
{ACAD_REACTORS
330
5697
102
}
330
5697
100
DictionaryVariables
280
     0
  1
15
  0
DICTIONARYVAR
  5
37FF4
102
{ACAD_REACTORS
330
5697
102
}
330
5697
100
DictionaryVariables
280
     0
  1
0
  0
DICTIONARYVAR
  5
37FF3
102
{ACAD_REACTORS
330
5697
102
}
330
5697
100
DictionaryVariables
280
     0
  1
0
  0
DICTIONARYVAR
  5
F8C2
102
{ACAD_REACTORS
330
5697
102
}
330
5697
100
DictionaryVariables
280
     0
  1
127
  0
XRECORD
  5
F8F7
102
{ACAD_REACTORS
330
F8F6
102
}
330
F8F6
100
AcDbXrecord
280
     1
330
0
330
0
330
0
330
0
330
0
330
0
330
0
330
0
330
0
330
0
330
0
330
0
330
0
330
0
330
0
330
0
330
0
330
0
330
0
330
0
330
0
330
0
330
0
330
0
330
0
330
0
330
0
330
0
330
0
330
0
330
0
330
0
330
0
330
0
330
0
330
0
330
0
330
0
330
0
330
0
330
0
330
0
330
0
330
0
330
0
330
0
330
0
330
0
330
0
330
0
330
0
330
0
330
0
330
0
330
0
330
0
330
0
330
0
330
0
330
0
330
0
330
0
330
0
330
0
330
0
330
0
330
0
330
0
330
0
330
0
330
0
330
0
330
0
330
0
330
0
330
0
330
0
330
0
330
0
330
0
330
0
330
0
330
0
330
0
330
0
330
0
330
0
330
0
330
0
330
0
330
0
330
0
330
0
330
0
330
0
330
0
330
0
330
0
330
0
330
0
330
0
330
0
330
0
330
0
330
0
330
0
330
0
330
0
330
0
330
0
330
0
330
0
330
0
330
0
330
0
330
0
330
0
330
0
330
0
330
0
330
0
330
0
330
0
330
0
330
0
330
0
330
0
330
0
330
0
330
0
330
0
330
0
330
0
330
0
330
0
330
0
330
0
330
0
330
0
330
0
330
0
330
0
330
0
330
0
330
0
330
0
330
0
330
0
330
0
330
0
330
0
330
0
330
0
330
0
330
0
330
0
330
0
330
0
330
0
330
0
330
0
330
0
330
0
330
0
330
0
330
0
330
0
330
0
330
0
330
0
330
0
330
0
330
0
330
0
330
0
330
0
330
0
330
0
330
0
330
0
330
0
330
0
330
0
330
0
330
0
330
0
330
0
330
0
330
0
330
0
330
0
330
0
330
0
330
0
330
0
330
0
330
0
330
0
330
0
330
0
330
0
330
0
330
0
330
0
330
0
330
0
330
0
330
0
330
0
330
0
330
0
330
0
330
0
330
0
330
0
330
0
330
0
330
0
330
0
330
0
330
0
330
0
330
0
330
0
330
0
330
0
330
0
330
0
330
0
330
0
330
0
330
0
330
0
330
0
330
0
330
0
330
0
330
0
330
0
330
0
330
0
330
0
330
0
330
0
330
0
330
0
330
0
330
0
330
0
330
0
330
0
330
0
330
0
330
0
330
0
330
0
330
0
330
0
330
0
330
0
330
0
330
0
330
0
330
0
330
0
330
0
330
0
330
0
330
0
330
0
330
0
330
0
330
0
330
0
330
0
330
0
330
0
330
0
330
0
330
0
330
0
330
0
330
0
330
0
330
0
330
0
330
0
330
0
330
0
330
0
330
0
330
0
330
0
330
0
330
0
330
0
330
0
330
0
330
0
330
0
330
0
330
0
330
0
330
0
330
0
330
0
330
0
  0
DICTIONARY
  5
41E5B
330
41E3B
100
AcDbDictionary
280
     1
281
     1
  3
ACAD_XREC_ROUNDTRIP
360
41FF3
  0
DICTIONARY
  5
13816
330
904E
100
AcDbDictionary
280
     1
281
     1
  0
DICTIONARY
  5
E4C5
330
E4C4
100
AcDbDictionary
280
     1
281
     1
  3
ACAD_XREC_ROUNDTRIP
360
12A19
  3
BUMPTILE
360
E4C7
  3
DIFFUSETILE
360
E4C6
  3
OPACITYTILE
360
E4CA
  3
REFLECTIONTILE
360
E4C9
  3
REFRACTIONTILE
360
E4CB
  3
SPECULARTILE
360
E4C8
  0
DICTIONARY
  5
E4BD
330
E4BC
100
AcDbDictionary
280
     1
281
     1
  3
ACAD_XREC_ROUNDTRIP
360
12A18
  3
BUMPTILE
360
E4BF
  3
DIFFUSETILE
360
E4BE
  3
OPACITYTILE
360
E4C2
  3
REFLECTIONTILE
360
E4C1
  3
REFRACTIONTILE
360
E4C3
  3
SPECULARTILE
360
E4C0
  0
DICTIONARY
  5
E4CD
330
E4CC
100
AcDbDictionary
280
     1
281
     1
  3
ACAD_XREC_ROUNDTRIP
360
12A1A
  3
BUMPTILE
360
E4CF
  3
DIFFUSETILE
360
E4CE
  3
OPACITYTILE
360
E4D2
  3
REFLECTIONTILE
360
E4D1
  3
REFRACTIONTILE
360
E4D3
  3
SPECULARTILE
360
E4D0
  0
DICTIONARY
  5
41E59
330
41E39
100
AcDbDictionary
280
     1
281
     1
  3
ACAD_XREC_ROUNDTRIP
360
41FF2
  0
DICTIONARY
  5
F86C
330
E4EA
100
AcDbDictionary
280
     1
281
     1
  3
ACAD_ROUNDTRIP_2008_TABLESTYLE_CELLSTYLEMAP
360
41FF1
  0
XRECORD
  5
41FF3
102
{ACAD_REACTORS
330
41E5B
102
}
330
41E5B
100
AcDbXrecord
280
     1
102
DISPLAYNAME
  1
Imperial24
102
FLAGS
 90
        0
  0
XRECORD
  5
12A19
102
{ACAD_REACTORS
330
E4C5
102
}
330
E4C5
100
AcDbXrecord
280
     1
102
MATERIAL
148
0.0
149
0.0
149
0.0
 93
        0
 94
      127
282
     0
 72
     0
 77
     0
171
     0
175
     0
179
     0
273
     0
  0
XRECORD
  5
E4C7
102
{ACAD_REACTORS
330
E4C5
102
}
330
E4C5
100
AcDbXrecord
280
     1
270
     1
271
     1
  0
XRECORD
  5
E4C6
102
{ACAD_REACTORS
330
E4C5
102
}
330
E4C5
100
AcDbXrecord
280
     1
270
     1
271
     1
  0
XRECORD
  5
E4CA
102
{ACAD_REACTORS
330
E4C5
102
}
330
E4C5
100
AcDbXrecord
280
     1
270
     1
271
     1
  0
XRECORD
  5
E4C9
102
{ACAD_REACTORS
330
E4C5
102
}
330
E4C5
100
AcDbXrecord
280
     1
270
     1
271
     1
  0
XRECORD
  5
E4CB
102
{ACAD_REACTORS
330
E4C5
102
}
330
E4C5
100
AcDbXrecord
280
     1
270
     1
271
     1
  0
XRECORD
  5
E4C8
102
{ACAD_REACTORS
330
E4C5
102
}
330
E4C5
100
AcDbXrecord
280
     1
270
     1
271
     1
  0
XRECORD
  5
12A18
102
{ACAD_REACTORS
330
E4BD
102
}
330
E4BD
100
AcDbXrecord
280
     1
102
MATERIAL
148
0.0
149
0.0
149
0.0
 93
        0
 94
      127
282
     0
 72
     0
 77
     0
171
     0
175
     0
179
     0
273
     0
  0
XRECORD
  5
E4BF
102
{ACAD_REACTORS
330
E4BD
102
}
330
E4BD
100
AcDbXrecord
280
     1
270
     1
271
     1
  0
XRECORD
  5
E4BE
102
{ACAD_REACTORS
330
E4BD
102
}
330
E4BD
100
AcDbXrecord
280
     1
270
     1
271
     1
  0
XRECORD
  5
E4C2
102
{ACAD_REACTORS
330
E4BD
102
}
330
E4BD
100
AcDbXrecord
280
     1
270
     1
271
     1
  0
XRECORD
  5
E4C1
102
{ACAD_REACTORS
330
E4BD
102
}
330
E4BD
100
AcDbXrecord
280
     1
270
     1
271
     1
  0
XRECORD
  5
E4C3
102
{ACAD_REACTORS
330
E4BD
102
}
330
E4BD
100
AcDbXrecord
280
     1
270
     1
271
     1
  0
XRECORD
  5
E4C0
102
{ACAD_REACTORS
330
E4BD
102
}
330
E4BD
100
AcDbXrecord
280
     1
270
     1
271
     1
  0
XRECORD
  5
12A1A
102
{ACAD_REACTORS
330
E4CD
102
}
330
E4CD
100
AcDbXrecord
280
     1
102
MATERIAL
148
0.0
149
0.0
149
0.0
 93
        0
 94
      127
282
     0
 72
     0
 77
     0
171
     0
175
     0
179
     0
273
     0
  0
XRECORD
  5
E4CF
102
{ACAD_REACTORS
330
E4CD
102
}
330
E4CD
100
AcDbXrecord
280
     1
270
     1
271
     1
  0
XRECORD
  5
E4CE
102
{ACAD_REACTORS
330
E4CD
102
}
330
E4CD
100
AcDbXrecord
280
     1
270
     1
271
     1
  0
XRECORD
  5
E4D2
102
{ACAD_REACTORS
330
E4CD
102
}
330
E4CD
100
AcDbXrecord
280
     1
270
     1
271
     1
  0
XRECORD
  5
E4D1
102
{ACAD_REACTORS
330
E4CD
102
}
330
E4CD
100
AcDbXrecord
280
     1
270
     1
271
     1
  0
XRECORD
  5
E4D3
102
{ACAD_REACTORS
330
E4CD
102
}
330
E4CD
100
AcDbXrecord
280
     1
270
     1
271
     1
  0
XRECORD
  5
E4D0
102
{ACAD_REACTORS
330
E4CD
102
}
330
E4CD
100
AcDbXrecord
280
     1
270
     1
271
     1
  0
XRECORD
  5
41FF2
102
{ACAD_REACTORS
330
41E59
102
}
330
41E59
100
AcDbXrecord
280
     1
102
DISPLAYNAME
  1
Imperial24
102
FLAGS
 90
        0
  0
CELLSTYLEMAP
  5
41FF1
102
{ACAD_REACTORS
330
F86C
102
}
330
F86C
100
AcDbCellStyleMap
 90
        3
300
CELLSTYLE
  1
TABLEFORMAT_BEGIN
 90
        5
170
     1
 91
        0
 92
    32768
 62
   257
 93
        1
300
CONTENTFORMAT
  1
CONTENTFORMAT_BEGIN
 90
        0
 91
        0
 92
      512
 93
        0
300

 40
0.0
140
1.0
 94
        5
 62
     0
340
11
144
0.25
309
CONTENTFORMAT_END
171
     1
301
MARGIN
  1
CELLMARGIN_BEGIN
 40
0.06
 40
0.06
 40
0.06
 40
0.06
 40
0.18
 40
0.18
309
CELLMARGIN_END
 94
        6
 95
        1
302
GRIDFORMAT
  1
GRIDFORMAT_BEGIN
 90
        0
 91
        1
 62
     0
 92
       -2
340
0
 93
        0
 40
0.045
309
GRIDFORMAT_END
 95
        2
302
GRIDFORMAT
  1
GRIDFORMAT_BEGIN
 90
        0
 91
        1
 62
     0
 92
       -2
340
0
 93
        0
 40
0.045
309
GRIDFORMAT_END
 95
        4
302
GRIDFORMAT
  1
GRIDFORMAT_BEGIN
 90
        0
 91
        1
 62
     0
 92
       -2
340
0
 93
        0
 40
0.045
309
GRIDFORMAT_END
 95
        8
302
GRIDFORMAT
  1
GRIDFORMAT_BEGIN
 90
        0
 91
        1
 62
     0
 92
       -2
340
0
 93
        0
 40
0.045
309
GRIDFORMAT_END
 95
       16
302
GRIDFORMAT
  1
GRIDFORMAT_BEGIN
 90
        0
 91
        1
 62
     0
 92
       -2
340
0
 93
        0
 40
0.045
309
GRIDFORMAT_END
 95
       32
302
GRIDFORMAT
  1
GRIDFORMAT_BEGIN
 90
        0
 91
        1
 62
     0
 92
       -2
340
0
 93
        0
 40
0.045
309
GRIDFORMAT_END
309
TABLEFORMAT_END
  1
CELLSTYLE_BEGIN
 90
        1
 91
        1
300
_TITLE
309
CELLSTYLE_END
300
CELLSTYLE
  1
TABLEFORMAT_BEGIN
 90
        5
170
     1
 91
        0
 92
        0
 62
   257
 93
        1
300
CONTENTFORMAT
  1
CONTENTFORMAT_BEGIN
 90
        0
 91
        0
 92
      512
 93
        0
300

 40
0.0
140
1.0
 94
        5
 62
     0
340
11
144
0.18
309
CONTENTFORMAT_END
171
     1
301
MARGIN
  1
CELLMARGIN_BEGIN
 40
0.06
 40
0.06
 40
0.06
 40
0.06
 40
0.18
 40
0.18
309
CELLMARGIN_END
 94
        6
 95
        1
302
GRIDFORMAT
  1
GRIDFORMAT_BEGIN
 90
        0
 91
        1
 62
     0
 92
       -2
340
0
 93
        0
 40
0.045
309
GRIDFORMAT_END
 95
        2
302
GRIDFORMAT
  1
GRIDFORMAT_BEGIN
 90
        0
 91
        1
 62
     0
 92
       -2
340
0
 93
        0
 40
0.045
309
GRIDFORMAT_END
 95
        4
302
GRIDFORMAT
  1
GRIDFORMAT_BEGIN
 90
        0
 91
        1
 62
     0
 92
       -2
340
0
 93
        0
 40
0.045
309
GRIDFORMAT_END
 95
        8
302
GRIDFORMAT
  1
GRIDFORMAT_BEGIN
 90
        0
 91
        1
 62
     0
 92
       -2
340
0
 93
        0
 40
0.045
309
GRIDFORMAT_END
 95
       16
302
GRIDFORMAT
  1
GRIDFORMAT_BEGIN
 90
        0
 91
        1
 62
     0
 92
       -2
340
0
 93
        0
 40
0.045
309
GRIDFORMAT_END
 95
       32
302
GRIDFORMAT
  1
GRIDFORMAT_BEGIN
 90
        0
 91
        1
 62
     0
 92
       -2
340
0
 93
        0
 40
0.045
309
GRIDFORMAT_END
309
TABLEFORMAT_END
  1
CELLSTYLE_BEGIN
 90
        2
 91
        1
300
_HEADER
309
CELLSTYLE_END
300
CELLSTYLE
  1
TABLEFORMAT_BEGIN
 90
        5
170
     1
 91
        0
 92
        0
 62
   257
 93
        1
300
CONTENTFORMAT
  1
CONTENTFORMAT_BEGIN
 90
        0
 91
        0
 92
      512
 93
        0
300

 40
0.0
140
1.0
 94
        2
 62
     0
340
11
144
0.18
309
CONTENTFORMAT_END
171
     1
301
MARGIN
  1
CELLMARGIN_BEGIN
 40
0.06
 40
0.06
 40
0.06
 40
0.06
 40
0.18
 40
0.18
309
CELLMARGIN_END
 94
        6
 95
        1
302
GRIDFORMAT
  1
GRIDFORMAT_BEGIN
 90
        0
 91
        1
 62
     0
 92
       -2
340
0
 93
        0
 40
0.045
309
GRIDFORMAT_END
 95
        2
302
GRIDFORMAT
  1
GRIDFORMAT_BEGIN
 90
        0
 91
        1
 62
     0
 92
       -2
340
0
 93
        0
 40
0.045
309
GRIDFORMAT_END
 95
        4
302
GRIDFORMAT
  1
GRIDFORMAT_BEGIN
 90
        0
 91
        1
 62
     0
 92
       -2
340
0
 93
        0
 40
0.045
309
GRIDFORMAT_END
 95
        8
302
GRIDFORMAT
  1
GRIDFORMAT_BEGIN
 90
        0
 91
        1
 62
     0
 92
       -2
340
0
 93
        0
 40
0.045
309
GRIDFORMAT_END
 95
       16
302
GRIDFORMAT
  1
GRIDFORMAT_BEGIN
 90
        0
 91
        1
 62
     0
 92
       -2
340
0
 93
        0
 40
0.045
309
GRIDFORMAT_END
 95
       32
302
GRIDFORMAT
  1
GRIDFORMAT_BEGIN
 90
        0
 91
        1
 62
     0
 92
       -2
340
0
 93
        0
 40
0.045
309
GRIDFORMAT_END
309
TABLEFORMAT_END
  1
CELLSTYLE_BEGIN
 90
        3
 91
        2
300
_DATA
309
CELLSTYLE_END
  0
ENDSEC
  0
SECTION
  2
ACDSDATA
 70
     2
 71
     6
  0
ACDSSCHEMA
 90
        0
  1
AcDb_Thumbnail_Schema
  2
AcDbDs::ID
280
    10
 91
        8
  2
Thumbnail_Data
280
    15
 91
        0
101
ACDSRECORD
 95
        0
 90
        1
  2
AcDbDs::TreatedAsObjectData
280
     1
291
     1
101
ACDSRECORD
 95
        0
 90
        2
  2
AcDbDs::Legacy
280
     1
291
     1
101
ACDSRECORD
  1
AcDbDs::ID
 90
        3
  2
AcDs:Indexable
280
     1
291
     1
101
ACDSRECORD
  1
AcDbDs::ID
 90
        4
  2
AcDbDs::HandleAttribute
280
     7
282
     1
  0
ACDSSCHEMA
 90
        1
  1
AcDbDs::TreatedAsObjectDataSchema
  2
AcDbDs::TreatedAsObjectData
280
     1
 91
        0
  0
ACDSSCHEMA
 90
        2
  1
AcDbDs::LegacySchema
  2
AcDbDs::Legacy
280
     1
 91
        0
  0
ACDSSCHEMA
 90
        3
  1
AcDbDs::IndexedPropertySchema
  2
AcDs:Indexable
280
     1
 91
        0
  0
ACDSSCHEMA
 90
        4
  1
AcDbDs::HandleAttributeSchema
  2
AcDbDs::HandleAttribute
280
     7
 91
        1
284
     1
  0
ACDSRECORD
 90
        0
  2
AcDbDs::ID
280
    10
320
904E
  2
Thumbnail_Data
280
    15
 94
     1985
310
89504E470D0A1A0A0000000D49484452000001000000005808030000002D06D97A00000300504C5445000000000000C8C8C80000000000000000000000000000000000000000000000000000330000660000990000CC0000FF0033000033330033660033990033CC0033FF0066000066330066660066990066CC0066FF0099
310
000099330099660099990099CC0099FF00CC0000CC3300CC6600CC9900CCCC00CCFF00FF0000FF3300FF6600FF9900FFCC00FFFF3300003300333300663300993300CC3300FF3333003333333333663333993333CC3333FF3366003366333366663366993366CC3366FF3399003399333399663399993399CC3399FF33CC00
310
33CC3333CC6633CC9933CCCC33CCFF33FF0033FF3333FF6633FF9933FFCC33FFFF6600006600336600666600996600CC6600FF6633006633336633666633996633CC6633FF6666006666336666666666996666CC6666FF6699006699336699666699996699CC6699FF66CC0066CC3366CC6666CC9966CCCC66CCFF66FF0066
310
FF3366FF6666FF9966FFCC66FFFF9900009900339900669900999900CC9900FF9933009933339933669933999933CC9933FF9966009966339966669966999966CC9966FF9999009999339999669999999999CC9999FF99CC0099CC3399CC6699CC9999CCCC99CCFF99FF0099FF3399FF6699FF9999FFCC99FFFFCC0000CC00
310
33CC0066CC0099CC00CCCC00FFCC3300CC3333CC3366CC3399CC33CCCC33FFCC6600CC6633CC6666CC6699CC66CCCC66FFCC9900CC9933CC9966CC9999CC99CCCC99FFCCCC00CCCC33CCCC66CCCC99CCCCCCCCCCFFCCFF00CCFF33CCFF66CCFF99CCFFCCCCFFFFFF0000FF0033FF0066FF0099FF00CCFF00FFFF3300FF3333
310
FF3366FF3399FF33CCFF33FFFF6600FF6633FF6666FF6699FF66CCFF66FFFF9900FF9933FF9966FF9999FF99CCFF99FFFFCC00FFCC33FFCC66FFCC99FFCCCCFFCCFFFFFF00FFFF33FFFF66FFFF99FFFFCCFFFFFF0000000D0D0D1A1A1A2828283535354343435050505D5D5D6B6B6B787878868686939393A1A1A1AEAEAEBB
310
BBBBC9C9C9D6D6D6E4E4E4F1F1F1FFFFFF00000000000000000000000000000000000000000000000000000000000008F1915C000002DA4944415478DAED9C3B92C3200C40B981AF41C3FDBB345CC3152750E37E253EE2E724C5CECE2692341342E4A1E059E8038E9DFB6309BF14F7ED12FE75B801300006C00018808F0770
310
919416BFB502603100CA97805980450103A010008001E01E89360081A70C2A015C1EA50250B9044228F39FEFBD260017F892033402A5AF07005A7ECD82A0A7464E178013CEC1FF29B300200BC0B9B73C187BA753052040083046006D1630086742A06C09406960A4A1BB184A06401C80A8B81CCEC79CF1C58167BBB2D64242
310
014CE5DEC424AC159118006706709EB9E7B67A573E8079096804E01180DF018406C07B5F7D804800390AE4A5BF02701D404F8BC40128CE3D616C07A500D807402D7F194B07E00403A00601B41EA49CEB25C7F1AF03109907C410237E4A8B9F0280DC5DA0DF59ED7D940BE0DE020A80C102B81C160FA0F9009CED0640A80F20
310
F717730C78E1042FD94E3003A8AAE120A803B824478127A930B435802AD9996038FD3B00B26B81AB00B8966A500D003AFD240064E63EF8F13078360AC9007CF44DF86277820144EF08E529F19E20EC001CA70677C3A50068D35D0194C6AD01405C391CA7138F9E0A7549B29F0F58B7C51946B58037C3BF1F80BB05B09B851A
310
000B039500FE7CB801300006C000180003F0A199E073751407E02089479376ED986557C90130DDD763EACCEA49250E40CD77D50200C500CA9618941DB15B00300128A844594006B0147F0300D48806D03645FB23C159FD4089D490EEA059D7C5226F09D45BEDCBBC1A00B68047556755059291C804B02F8147515700F1512D
310
401080F21C44CCDF1D401C850044522100D6C8B48084726301A49C2D2025E13EE0DE09427501927C006600F02A0CC2980881C028008E00F8C1F9AB02E09B05945C501F00B2009CD614FE3503E03765180045008E0368470894EE08B9A90662C97F17640BE86AD89E26970A803302F900EA1F01570BE087445E0F176101693F
310
047F7B382EFF60E4E6F551B3CA4E86BE1FC087BF56F7075ACC809BE2A5CD3D0000000049454E44AE42608201280005A000148002F8E1EEF0E38BBC02A008C034F10609BED8CCE5EE2C0D00D3C73702182E32E8DBD3B30A8016803EC9A1004402106902CEEC93A4A09B2365DC0D80AC2E3300598B14003D135863BAFBB87EC1
310
0498018809407B3758158353DF6F00E0C407004127D85E10EFEB071A043B007C56F1EDD3EC94667E941A00F470E3FE501180333FDF0128643AF5316872AD0400E9EC273A4B1CC057E380770034164D99E87B694706BD41DC1B8FC5EC171D673FDBB69F256E02308B8C470D802B130035017582A200C0D60AD26E06610EE041
310
20045403212801E02412BC0A85273E802E80DC1982AD3304DF768244013803FBC2C9BA53BBC3C2014439005ACF76BFFB5A05F1008202C0FF454E28801055034400C80399B00D8E82B8C1D1B0AD010993D7C31FD7D471231F50C03C5CE3C7EF8900D85F927E01605B577305E07D06351D007007605820C50BC076FBE15E03EE
310
5F284F5A03BE50355E00D0A33EBBFEE61F6D4F4FB39A26271E005F1350005201FC86FC6500F44501280005A00014800250000A40012800052053FE01A1187A6D0385039C0000000049454E44AE426082
  0
ENDSEC
  0
EOF
