  0
SECTION
  2
HEADER
  9
$ACADVER
  1
AC1027
  9
$ACADMAINTVER
 70
    55
  9
$DWGCODEPAGE
  3
ANSI_932
  9
$LASTSAVEDBY
  1
marketing
  9
$REQUIREDVERSIONS
160
                 0
  9
$INSBASE
 10
0.0
 20
0.0
 30
0.0
  9
$EXTMIN
 10
-0.0442143967893571
 20
-0.121759839963488
 30
-0.0015257624927045
  9
$EXTMAX
 10
630.0551189510788
 20
891.1328166503608
 30
50.00152599532333
  9
$LIMMIN
 10
-1176.0
 20
-798.0
  9
$LIMMAX
 10
594.0
 20
1078.0
  9
$ORTHOMODE
 70
     1
  9
$REGENMODE
 70
     1
  9
$FILLMODE
 70
     1
  9
$QTEXTMODE
 70
     0
  9
$MIRRTEXT
 70
     1
  9
$LTSCALE
 40
10.0
  9
$ATTMODE
 70
     1
  9
$TEXTSIZE
 40
0.2
  9
$TRACEWID
 40
0.05
  9
$TEXTSTYLE
  7
blockfont
  9
$CLAYER
  8
30
  9
$CELTYPE
  6
BYLAYER
  9
$CECOLOR
 62
   256
  9
$CELTSCALE
 40
1.0
  9
$DISPSILH
 70
     0
  9
$DIMSCALE
 40
1.0
  9
$DIMASZ
 40
3.0
  9
$DIMEXO
 40
1.0
  9
$DIMDLI
 40
0.5
  9
$DIMRND
 40
0.0
  9
$DIMDLE
 40
0.0
  9
$DIMEXE
 40
0.5
  9
$DIMTP
 40
0.0
  9
$DIMTM
 40
0.0
  9
$DIMTXT
 40
7.0
  9
$DIMCEN
 40
0.09
  9
$DIMTSZ
 40
0.0
  9
$DIMTOL
 70
     0
  9
$DIMLIM
 70
     0
  9
$DIMTIH
 70
     0
  9
$DIMTOH
 70
     0
  9
$DIMSE1
 70
     0
  9
$DIMSE2
 70
     0
  9
$DIMTAD
 70
     1
  9
$DIMZIN
 70
    12
  9
$DIMBLK
  1
OPEN
  9
$DIMASO
 70
     1
  9
$DIMSHO
 70
     1
  9
$DIMPOST
  1

  9
$DIMAPOST
  1

  9
$DIMALT
 70
     0
  9
$DIMALTD
 70
     2
  9
$DIMALTF
 40
25.4
  9
$DIMLFAC
 40
1.0
  9
$DIMTOFL
 70
     0
  9
$DIMTVP
 40
0.0
  9
$DIMTIX
 70
     0
  9
$DIMSOXD
 70
     0
  9
$DIMSAH
 70
     0
  9
$DIMBLK1
  1

  9
$DIMBLK2
  1

  9
$DIMSTYLE
  2
STANDARD
  9
$DIMCLRD
 70
   256
  9
$DIMCLRE
 70
     0
  9
$DIMCLRT
 70
   256
  9
$DIMTFAC
 40
1.0
  9
$DIMGAP
 40
3.0
  9
$DIMJUST
 70
     0
  9
$DIMSD1
 70
     0
  9
$DIMSD2
 70
     0
  9
$DIMTOLJ
 70
     1
  9
$DIMTZIN
 70
     0
  9
$DIMALTZ
 70
     0
  9
$DIMALTTZ
 70
     0
  9
$DIMUPT
 70
     0
  9
$DIMDEC
 70
     1
  9
$DIMTDEC
 70
     1
  9
$DIMALTU
 70
     2
  9
$DIMALTTD
 70
     2
  9
$DIMTXSTY
  7
STANDARD
  9
$DIMAUNIT
 70
     0
  9
$DIMADEC
 70
     0
  9
$DIMALTRND
 40
0.0
  9
$DIMAZIN
 70
     0
  9
$DIMDSEP
 70
    46
  9
$DIMATFIT
 70
     3
  9
$DIMFRAC
 70
     0
  9
$DIMLDRBLK
  1
OPEN
  9
$DIMLUNIT
 70
     2
  9
$DIMLWD
 70
    -2
  9
$DIMLWE
 70
    -2
  9
$DIMTMOVE
 70
     0
  9
$DIMFXL
 40
1.0
  9
$DIMFXLON
 70
     0
  9
$DIMJOGANG
 40
0.7853981633974483
  9
$DIMTFILL
 70
     1
  9
$DIMTFILLCLR
 70
     0
  9
$DIMARCSYM
 70
     0
  9
$DIMLTYPE
  6
BYLAYER
  9
$DIMLTEX1
  6

  9
$DIMLTEX2
  6

  9
$DIMTXTDIRECTION
 70
     0
  9
$LUNITS
 70
     2
  9
$LUPREC
 70
     8
  9
$SKETCHINC
 40
0.1
  9
$FILLETRAD
 40
0.0
  9
$AUNITS
 70
     0
  9
$AUPREC
 70
     0
  9
$MENU
  1
.
  9
$ELEVATION
 40
0.0
  9
$PELEVATION
 40
0.0
  9
$THICKNESS
 40
0.0
  9
$LIMCHECK
 70
     0
  9
$CHAMFERA
 40
0.0
  9
$CHAMFERB
 40
0.0
  9
$CHAMFERC
 40
0.0
  9
$CHAMFERD
 40
0.0
  9
$SKPOLY
 70
     0
  9
$TDCREATE
 40
2452286.555658658
  9
$TDUCREATE
 40
2452286.180658658
  9
$TDUPDATE
 40
2459243.637877593
  9
$TDUUPDATE
 40
2459243.262877593
  9
$TDINDWG
 40
2.5697297222
  9
$TDUSRTIMER
 40
2.5697260880
  9
$USRTIMER
 70
     1
  9
$ANGBASE
 50
0.0
  9
$ANGDIR
 70
     0
  9
$PDMODE
 70
     0
  9
$PDSIZE
 40
0.0
  9
$PLINEWID
 40
0.0
  9
$SPLFRAME
 70
     0
  9
$SPLINETYPE
 70
     6
  9
$SPLINESEGS
 70
     8
  9
$HANDSEED
  5
419EB
  9
$SURFTAB1
 70
     6
  9
$SURFTAB2
 70
     6
  9
$SURFTYPE
 70
     6
  9
$SURFU
 70
     6
  9
$SURFV
 70
     6
  9
$UCSBASE
  2

  9
$UCSNAME
  2

  9
$UCSORG
 10
0.0
 20
0.0
 30
0.0
  9
$UCSXDIR
 10
1.0
 20
0.0
 30
0.0
  9
$UCSYDIR
 10
0.0
 20
1.0
 30
0.0
  9
$UCSORTHOREF
  2

  9
$UCSORTHOVIEW
 70
     0
  9
$UCSORGTOP
 10
0.0
 20
0.0
 30
0.0
  9
$UCSORGBOTTOM
 10
0.0
 20
0.0
 30
0.0
  9
$UCSORGLEFT
 10
0.0
 20
0.0
 30
0.0
  9
$UCSORGRIGHT
 10
0.0
 20
0.0
 30
0.0
  9
$UCSORGFRONT
 10
0.0
 20
0.0
 30
0.0
  9
$UCSORGBACK
 10
0.0
 20
0.0
 30
0.0
  9
$PUCSBASE
  2

  9
$PUCSNAME
  2

  9
$PUCSORG
 10
0.0
 20
0.0
 30
0.0
  9
$PUCSXDIR
 10
1.0
 20
0.0
 30
0.0
  9
$PUCSYDIR
 10
0.0
 20
1.0
 30
0.0
  9
$PUCSORTHOREF
  2

  9
$PUCSORTHOVIEW
 70
     0
  9
$PUCSORGTOP
 10
0.0
 20
0.0
 30
0.0
  9
$PUCSORGBOTTOM
 10
0.0
 20
0.0
 30
0.0
  9
$PUCSORGLEFT
 10
0.0
 20
0.0
 30
0.0
  9
$PUCSORGRIGHT
 10
0.0
 20
0.0
 30
0.0
  9
$PUCSORGFRONT
 10
0.0
 20
0.0
 30
0.0
  9
$PUCSORGBACK
 10
0.0
 20
0.0
 30
0.0
  9
$USERI1
 70
     0
  9
$USERI2
 70
     0
  9
$USERI3
 70
     0
  9
$USERI4
 70
     0
  9
$USERI5
 70
     0
  9
$USERR1
 40
0.0
  9
$USERR2
 40
0.0
  9
$USERR3
 40
0.0
  9
$USERR4
 40
0.0
  9
$USERR5
 40
0.0
  9
$WORLDVIEW
 70
     1
  9
$SHADEDGE
 70
     3
  9
$SHADEDIF
 70
    70
  9
$TILEMODE
 70
     1
  9
$MAXACTVP
 70
    48
  9
$PINSBASE
 10
0.0
 20
0.0
 30
0.0
  9
$PLIMCHECK
 70
     0
  9
$PEXTMIN
 10
0.0
 20
0.0
 30
0.0
  9
$PEXTMAX
 10
0.0
 20
0.0
 30
0.0
  9
$PLIMMIN
 10
-0.2500002402958907
 20
-0.2499999962453767
  9
$PLIMMAX
 10
10.74999951940822
 20
8.249999763458731
  9
$UNITMODE
 70
     0
  9
$VISRETAIN
 70
     1
  9
$PLINEGEN
 70
     0
  9
$PSLTSCALE
 70
     1
  9
$TREEDEPTH
 70
  3020
  9
$CMLSTYLE
  2
STANDARD
  9
$CMLJUST
 70
     0
  9
$CMLSCALE
 40
1.0
  9
$PROXYGRAPHICS
 70
     1
  9
$MEASUREMENT
 70
     0
  9
$CELWEIGHT
370
    -1
  9
$ENDCAPS
280
     0
  9
$JOINSTYLE
280
     0
  9
$LWDISPLAY
290
     0
  9
$INSUNITS
 70
     0
  9
$HYPERLINKBASE
  1

  9
$STYLESHEET
  1
MONOCHROME.CTB
  9
$XEDIT
290
     1
  9
$CEPSNTYPE
380
     0
  9
$PSTYLEMODE
290
     1
  9
$FINGERPRINTGUID
  2

  9
$VERSIONGUID
  2
{8911D312-B0D3-42FA-A1BD-D3953B7F4753}
  9
$EXTNAMES
290
     1
  9
$PSVPSCALE
 40
0.0
  9
$OLESTARTUP
290
     0
  9
$SORTENTS
280
   127
  9
$INDEXCTL
280
     0
  9
$HIDETEXT
280
     0
  9
$XCLIPFRAME
280
     2
  9
$HALOGAP
280
     0
  9
$OBSCOLOR
 70
   257
  9
$OBSLTYPE
280
     0
  9
$INTERSECTIONDISPLAY
280
     0
  9
$INTERSECTIONCOLOR
 70
   257
  9
$DIMASSOC
280
     1
  9
$PROJECTNAME
  1

  9
$CAMERADISPLAY
290
     0
  9
$LENSLENGTH
 40
50.0
  9
$CAMERAHEIGHT
 40
0.0
  9
$STEPSPERSEC
 40
2.0
  9
$STEPSIZE
 40
6.0
  9
$3DDWFPREC
 40
2.0
  9
$PSOLWIDTH
 40
0.25
  9
$PSOLHEIGHT
 40
4.0
  9
$LOFTANG1
 40
1.570796326794896
  9
$LOFTANG2
 40
1.570796326794896
  9
$LOFTMAG1
 40
0.0
  9
$LOFTMAG2
 40
0.0
  9
$LOFTPARAM
 70
     7
  9
$LOFTNORMALS
280
     1
  9
$LATITUDE
 40
37.795
  9
$LONGITUDE
 40
-122.394
  9
$NORTHDIRECTION
 40
0.0
  9
$TIMEZONE
 70
 -8000
  9
$LIGHTGLYPHDISPLAY
280
     1
  9
$TILEMODELIGHTSYNCH
280
     1
  9
$CMATERIAL
347
E4BC
  9
$SOLIDHIST
280
     1
  9
$SHOWHIST
280
     1
  9
$DWFFRAME
280
     2
  9
$DGNFRAME
280
     0
  9
$REALWORLDSCALE
290
     1
  9
$INTERFERECOLOR
 62
     1
  9
$INTERFEREOBJVS
345
E4DE
  9
$INTERFEREVPVS
346
E4DB
  9
$CSHADOW
280
     0
  9
$SHADOWPLANELOCATION
 40
0.0
  0
ENDSEC
  0
SECTION
  2
CLASSES
  0
CLASS
  1
ACDBDICTIONARYWDFLT
  2
AcDbDictionaryWithDefault
  3
ObjectDBX Classes
 90
        0
 91
        1
280
     0
281
     0
  0
CLASS
  1
DICTIONARYVAR
  2
AcDbDictionaryVar
  3
ObjectDBX Classes
 90
        0
 91
       12
280
     0
281
     0
  0
CLASS
  1
MATERIAL
  2
AcDbMaterial
  3
ObjectDBX Classes
 90
     1153
 91
        3
280
     0
281
     0
  0
CLASS
  1
VISUALSTYLE
  2
AcDbVisualStyle
  3
ObjectDBX Classes
 90
     4095
 91
       26
280
     0
281
     0
  0
CLASS
  1
TABLESTYLE
  2
AcDbTableStyle
  3
ObjectDBX Classes
 90
     4095
 91
        1
280
     0
281
     0
  0
CLASS
  1
SCALE
  2
AcDbScale
  3
ObjectDBX Classes
 90
     1153
 91
       33
280
     0
281
     0
  0
CLASS
  1
MLEADERSTYLE
  2
AcDbMLeaderStyle
  3
ACDB_MLEADERSTYLE_CLASS
 90
     4095
 91
        1
280
     0
281
     0
  0
CLASS
  1
CELLSTYLEMAP
  2
AcDbCellStyleMap
  3
ObjectDBX Classes
 90
     1152
 91
        2
280
     0
281
     0
  0
CLASS
  1
AEC_REFEDIT_STATUS_TRACKER
  2
AecDbRefEditStatusTracker
  3
AecArchBase70|Product Desc: Autodesk Architectural Desktop 2007 |Company: Autodesk,Inc. |WEB Address: www.autodesk.com
 90
      129
 91
        0
280
     0
281
     0
  0
CLASS
  1
NPOCOLLECTION
  2
AcDbImpNonPersistentObjectsCollection
  3
ObjectDBX Classes
 90
     1153
 91
        0
280
     0
281
     0
  0
CLASS
  1
SORTENTSTABLE
  2
AcDbSortentsTable
  3
ObjectDBX Classes
 90
        0
 91
        6
280
     0
281
     0
  0
CLASS
  1
ACDBSECTIONVIEWSTYLE
  2
AcDbSectionViewStyle
  3
ObjectDBX Classes
 90
     1025
 91
        1
280
     0
281
     0
  0
CLASS
  1
ACDBDETAILVIEWSTYLE
  2
AcDbDetailViewStyle
  3
ObjectDBX Classes
 90
     1025
 91
        1
280
     0
281
     0
  0
CLASS
  1
ACAD_EVALUATION_GRAPH
  2
AcDbEvalGraph
  3
ObjectDBX Classes
 90
     1153
 91
        3
280
     0
281
     0
  0
CLASS
  1
ACAECUSTOBJ
  2
AcAeEditorObj
  3
AcAeEditorObj
 90
     1024
 91
        2
280
     0
281
     0
  0
CLASS
  1
ACDB_DYNAMICBLOCKPURGEPREVENTER_VERSION
  2
AcDbDynamicBlockPurgePreventer
  3
ObjectDBX Classes
 90
     1153
 91
        2
280
     0
281
     0
  0
ENDSEC
  0
SECTION
  2
TABLES
  0
TABLE
  2
VPORT
  5
8
330
0
100
AcDbSymbolTable
 70
     1
  0
VPORT
  5
12C00
330
8
100
AcDbSymbolTableRecord
100
AcDbViewportTableRecord
  2
*Active
 70
     0
 10
0.0
 20
0.0
 11
1.0
 21
1.0
 12
432.3722111793959
 22
410.0225556679282
 13
0.0
 23
0.0
 14
1.0
 24
1.0
 15
10.0
 25
10.0
 16
0.0
 26
0.0
 36
1.0
 17
0.0
 27
0.0
 37
0.0
 40
899.3568922550021
 41
2.880121396054628
 42
50.0
 43
0.0
 44
0.0
 50
0.0
 51
0.0
 71
     0
 72
   100
 73
     1
 74
     1
 75
     0
 76
     0
 77
     0
 78
     1
281
     0
 65
     1
110
0.0
120
0.0
130
0.0
111
1.0
121
0.0
131
0.0
112
0.0
122
1.0
132
0.0
 79
     0
146
0.0
348
E4DA
 60
     3
 61
     5
292
     1
282
     1
141
0.0
142
0.0
 63
   250
421
  3355443
1001
ACAD_NAV_VCDISPLAY
1070
     3
  0
ENDTAB
  0
TABLE
  2
LTYPE
  5
5
330
0
100
AcDbSymbolTable
 70
    11
  0
LTYPE
  5
13
330
5
100
AcDbSymbolTableRecord
100
AcDbLinetypeTableRecord
  2
BYBLOCK
 70
     0
  3

 72
    65
 73
     0
 40
0.0
  0
LTYPE
  5
14
330
5
100
AcDbSymbolTableRecord
100
AcDbLinetypeTableRecord
  2
BYLAYER
 70
     0
  3

 72
    65
 73
     0
 40
0.0
  0
LTYPE
  5
15
330
5
100
AcDbSymbolTableRecord
100
AcDbLinetypeTableRecord
  2
CONTINUOUS
 70
     0
  3
Solid line
 72
    65
 73
     0
 40
0.0
  0
LTYPE
  5
22
330
5
100
AcDbSymbolTableRecord
100
AcDbLinetypeTableRecord
  2
CONTINOUS
 70
     0
  3
Solid line
 72
    65
 73
     0
 40
0.0
  0
LTYPE
  5
24
330
5
100
AcDbSymbolTableRecord
100
AcDbLinetypeTableRecord
  2
DASHDOT
 70
     0
  3
__ . __ . __ . __ . __ . __ . __ . __ . __ . __
 72
    65
 73
     4
 40
1.0
 49
0.5
 74
     0
 49
-0.25
 74
     0
 49
0.0
 74
     0
 49
-0.25
 74
     0
  0
LTYPE
  5
4C47
330
5
100
AcDbSymbolTableRecord
100
AcDbLinetypeTableRecord
  2
DIVIDE
 70
     0
  3
Divide ____ . . ____ . . ____ . . ____ . . ____
 72
    65
 73
     6
 40
1.25
 49
0.5
 74
     0
 49
-0.25
 74
     0
 49
0.0
 74
     0
 49
-0.25
 74
     0
 49
0.0
 74
     0
 49
-0.25
 74
     0
  0
LTYPE
  5
685F
330
5
100
AcDbSymbolTableRecord
100
AcDbLinetypeTableRecord
  2
PHANTOM
 70
     0
  3
Phantom ______  __  __  ______  __  __  ______
 72
    65
 73
     6
 40
2.5
 49
1.25
 74
     0
 49
-0.25
 74
     0
 49
0.25
 74
     0
 49
-0.25
 74
     0
 49
0.25
 74
     0
 49
-0.25
 74
     0
  0
LTYPE
  5
1F2BD
330
5
100
AcDbSymbolTableRecord
100
AcDbLinetypeTableRecord
  2
SLD-実線
 70
     0
  3
SolidWorks Line Style
 72
    65
 73
     0
 40
0.0
  0
LTYPE
  5
3ACB9
330
5
100
AcDbSymbolTableRecord
100
AcDbLinetypeTableRecord
  2
SLD-2点鎖線
 70
     0
  3
SolidWorks Line Style
 72
    65
 73
     6
 40
12.7
 49
6.349999999999997
 74
     0
 49
-1.27
 74
     0
 49
1.27
 74
     0
 49
-1.27
 74
     0
 49
1.27
 74
     0
 49
-1.27
 74
     0
  0
LTYPE
  5
3ACBA
330
5
100
AcDbSymbolTableRecord
100
AcDbLinetypeTableRecord
  2
SLD-鎖線
 70
     0
  3
SolidWorks Line Style
 72
    65
 73
     4
 40
10.16
 49
6.349999999999997
 74
     0
 49
-1.27
 74
     0
 49
1.27
 74
     0
 49
-1.27
 74
     0
  0
LTYPE
  5
3CA67
330
5
100
AcDbSymbolTableRecord
100
AcDbLinetypeTableRecord
  2
SLD-1点鎖線(中心線)
 70
     0
  3
SolidWorks Line Style
 72
    65
 73
     4
 40
34.29
 49
30.48
 74
     0
 49
-1.27
 74
     0
 49
1.27
 74
     0
 49
-1.27
 74
     0
  0
LTYPE
  5
3CA68
330
5
100
AcDbSymbolTableRecord
100
AcDbLinetypeTableRecord
  2
HIDDEN
 70
     0
  3
Hidden __ __ __ __ __ __ __ __ __ __ __ __ __ __
 72
    65
 73
     2
 40
0.375
 49
0.25
 74
     0
 49
-0.125
 74
     0
  0
ENDTAB
  0
TABLE
  2
LAYER
  5
2
102
{ACAD_XDICTIONARY
360
12DA0
102
}
330
0
100
AcDbSymbolTable
 70
    19
  0
LAYER
  5
10
102
{ACAD_XDICTIONARY
360
E512
102
}
330
2
100
AcDbSymbolTableRecord
100
AcDbLayerTableRecord
  2
0
 70
     0
 62
     7
  6
CONTINOUS
370
    -3
390
F
347
E4CC
348
0
  0
LAYER
  5
2F
102
{ACAD_XDICTIONARY
360
E514
102
}
330
2
100
AcDbSymbolTableRecord
100
AcDbLayerTableRecord
  2
10
 70
     0
 62
     4
  6
CONTINOUS
370
    -3
390
F
347
E4CC
348
0
  0
LAYER
  5
35
102
{ACAD_XDICTIONARY
360
E518
102
}
330
2
100
AcDbSymbolTableRecord
100
AcDbLayerTableRecord
  2
16
 70
     0
 62
     6
  6
DASHDOT
370
    -3
390
F
347
E4CC
348
0
  0
LAYER
  5
3D
102
{ACAD_XDICTIONARY
360
E51C
102
}
330
2
100
AcDbSymbolTableRecord
100
AcDbLayerTableRecord
  2
24
 70
     0
 62
     7
  6
CONTINOUS
370
    -3
390
F
347
E4CC
348
0
  0
LAYER
  5
3A2
102
{ACAD_XDICTIONARY
360
E51E
102
}
330
2
100
AcDbSymbolTableRecord
100
AcDbLayerTableRecord
  2
30
 70
     0
 62
     9
  6
CONTINUOUS
370
    -3
390
F
347
E4CC
348
0
  0
LAYER
  5
3A4
330
2
100
AcDbSymbolTableRecord
100
AcDbLayerTableRecord
  2
DEFPOINTS
 70
     0
 62
     7
  6
CONTINUOUS
290
     0
370
    -3
390
F
347
E4CC
348
0
  0
LAYER
  5
3BBA
102
{ACAD_XDICTIONARY
360
E520
102
}
330
2
100
AcDbSymbolTableRecord
100
AcDbLayerTableRecord
  2
18
 70
     0
 62
     5
  6
DIVIDE
370
    -3
390
F
347
E4CC
348
0
  0
LAYER
  5
67A8
102
{ACAD_XDICTIONARY
360
E522
102
}
330
2
100
AcDbSymbolTableRecord
100
AcDbLayerTableRecord
  2
11
 70
     0
 62
     1
  6
CONTINOUS
370
    -3
390
F
347
E4CC
348
0
  0
LAYER
  5
7837
102
{ACAD_XDICTIONARY
360
E524
102
}
330
2
100
AcDbSymbolTableRecord
100
AcDbLayerTableRecord
  2
17
 70
     0
 62
     2
  6
DASHDOT
370
    -3
390
F
347
E4CC
348
0
  0
LAYER
  5
C4FE
102
{ACAD_XDICTIONARY
360
E52A
102
}
330
2
100
AcDbSymbolTableRecord
100
AcDbLayerTableRecord
  2
2
 70
     0
 62
     7
  6
CONTINUOUS
370
    -3
390
F
347
E4CC
348
0
  0
LAYER
  5
C501
102
{ACAD_XDICTIONARY
360
E530
102
}
330
2
100
AcDbSymbolTableRecord
100
AcDbLayerTableRecord
  2
5
 70
     0
 62
     7
  6
CONTINUOUS
370
    -3
390
F
347
E4CC
348
0
  0
LAYER
  5
E473
102
{ACAD_XDICTIONARY
360
E534
102
}
330
2
100
AcDbSymbolTableRecord
100
AcDbLayerTableRecord
  2
130
 70
     0
 62
     4
  6
CONTINUOUS
370
    -3
390
F
347
E4CC
348
0
  0
LAYER
  5
1106A
102
{ACAD_XDICTIONARY
360
1106B
102
}
330
2
100
AcDbSymbolTableRecord
100
AcDbLayerTableRecord
  2
131
 70
     0
 62
     4
  6
PHANTOM
370
    -3
390
F
347
E4CC
348
0
  0
LAYER
  5
38289
102
{ACAD_XDICTIONARY
360
3828A
102
}
330
2
100
AcDbSymbolTableRecord
100
AcDbLayerTableRecord
  2
240
 70
     0
 62
     7
  6
CONTINUOUS
370
    -3
390
F
347
E4CC
348
0
  0
LAYER
  5
3ACBB
102
{ACAD_XDICTIONARY
360
3ACBC
102
}
330
2
100
AcDbSymbolTableRecord
100
AcDbLayerTableRecord
  2
13
 70
     0
 62
     3
  6
CONTINUOUS
370
    -3
390
F
347
E4CC
348
0
  0
LAYER
  5
3ACBD
102
{ACAD_XDICTIONARY
360
3ACBE
102
}
330
2
100
AcDbSymbolTableRecord
100
AcDbLayerTableRecord
  2
SLD-0
 70
     0
 62
     7
  6
SLD-実線
370
    -3
390
F
347
E4CC
348
0
  0
LAYER
  5
3CA69
102
{ACAD_XDICTIONARY
360
3CA6A
102
}
330
2
100
AcDbSymbolTableRecord
100
AcDbLayerTableRecord
  2
113
 70
     0
 62
   113
  6
CONTINUOUS
370
    -3
390
F
347
E4CC
348
0
  0
LAYER
  5
4198E
330
2
100
AcDbSymbolTableRecord
100
AcDbLayerTableRecord
  2
19
 70
     0
 62
     7
  6
CONTINOUS
370
    -3
390
F
347
E4CC
348
0
1001
AcAecLayerStandard
1000

1000

1001
AcCmTransparency
1071
        0
  0
LAYER
  5
41991
330
2
100
AcDbSymbolTableRecord
100
AcDbLayerTableRecord
  2
12
 70
     0
 62
     3
  6
CONTINOUS
370
    -3
390
F
347
E4CC
348
0
1001
AcAecLayerStandard
1000

1000

1001
AcCmTransparency
1071
        0
  0
ENDTAB
  0
TABLE
  2
STYLE
  5
3
330
0
100
AcDbSymbolTable
 70
     2
  0
STYLE
  5
11
330
3
100
AcDbSymbolTableRecord
100
AcDbTextStyleTableRecord
  2
STANDARD
 70
     0
 40
0.0
 41
1.0
 50
0.0
 71
     0
 42
2.0
  3
txt.shx
  4
bigfont.shx
  0
STYLE
  5
C503
330
3
100
AcDbSymbolTableRecord
100
AcDbTextStyleTableRecord
  2
blockfont
 70
     0
 40
0.0
 41
1.0
 50
0.0
 71
     0
 42
0.2
  3
simplex.shx
  4
bigfont
  0
ENDTAB
  0
TABLE
  2
VIEW
  5
6
330
0
100
AcDbSymbolTable
 70
     3
  0
VIEW
  5
230C
330
6
100
AcDbSymbolTableRecord
100
AcDbViewTableRecord
  2
OLE1
 70
     0
 40
148.912488
 10
429.497628
 20
2.560627
 41
103.145806
 11
0.0
 21
0.0
 31
1.0
 12
0.0
 22
0.0
 32
0.0
 42
50.0
 43
0.0
 44
0.0
 50
0.0
 71
     0
281
     0
 72
     0
 73
     0
348
E4DA
  0
VIEW
  5
230E
330
6
100
AcDbSymbolTableRecord
100
AcDbViewTableRecord
  2
OLE2
 70
     0
 40
170.778692
 10
322.66497
 20
-5.978304
 41
102.467215
 11
0.0
 21
0.0
 31
1.0
 12
0.0
 22
0.0
 32
0.0
 42
50.0
 43
0.0
 44
0.0
 50
0.0
 71
     0
281
     0
 72
     0
 73
     0
348
E4DA
  0
VIEW
  5
23AA
330
6
100
AcDbSymbolTableRecord
100
AcDbViewTableRecord
  2
OLE3
 70
     0
 40
591.7897389999998
 10
84.79698199999999
 20
-46.09335999999998
 41
388.792096
 11
0.0
 21
0.0
 31
1.0
 12
0.0
 22
0.0
 32
0.0
 42
50.0
 43
0.0
 44
0.0
 50
0.0
 71
     0
281
     0
 72
     0
 73
     0
348
E4DA
  0
ENDTAB
  0
TABLE
  2
UCS
  5
7
330
0
100
AcDbSymbolTable
 70
     0
  0
ENDTAB
  0
TABLE
  2
APPID
  5
9
330
0
100
AcDbSymbolTable
 70
    15
  0
APPID
  5
12
330
9
100
AcDbSymbolTableRecord
100
AcDbRegAppTableRecord
  2
ACAD
 70
     0
  0
APPID
  5
ECD
330
9
100
AcDbSymbolTableRecord
100
AcDbRegAppTableRecord
  2
CONTENTBLOCKICON
 70
     0
  0
APPID
  5
E582
330
9
100
AcDbSymbolTableRecord
100
AcDbRegAppTableRecord
  2
DCO15
 70
     0
  0
APPID
  5
F8B0
330
9
100
AcDbSymbolTableRecord
100
AcDbRegAppTableRecord
  2
ACAD_MLEADERVER
 70
     0
  0
APPID
  5
F8D5
330
9
100
AcDbSymbolTableRecord
100
AcDbRegAppTableRecord
  2
ACAD_PSEXT
 70
     0
  0
APPID
  5
F997
330
9
100
AcDbSymbolTableRecord
100
AcDbRegAppTableRecord
  2
ACAD_EXEMPT_FROM_CAD_STANDARDS
 70
     0
  0
APPID
  5
1F2D1
330
9
100
AcDbSymbolTableRecord
100
AcDbRegAppTableRecord
  2
ACAD_DSTYLE_DIMJAG
 70
     0
  0
APPID
  5
1F2D2
330
9
100
AcDbSymbolTableRecord
100
AcDbRegAppTableRecord
  2
ACAD_DSTYLE_DIMTALN
 70
     0
  0
APPID
  5
3EE52
330
9
100
AcDbSymbolTableRecord
100
AcDbRegAppTableRecord
  2
ACAD_NAV_VCDISPLAY
 70
     0
  0
APPID
  5
3F34C
330
9
100
AcDbSymbolTableRecord
100
AcDbRegAppTableRecord
  2
ACAD_DSTYLE_DIMBREAK
 70
     0
  0
APPID
  5
4198F
330
9
100
AcDbSymbolTableRecord
100
AcDbRegAppTableRecord
  2
AcAecLayerStandard
 70
     0
  0
APPID
  5
41990
330
9
100
AcDbSymbolTableRecord
100
AcDbRegAppTableRecord
  2
AcCmTransparency
 70
     0
  0
APPID
  5
419A9
330
9
100
AcDbSymbolTableRecord
100
AcDbRegAppTableRecord
  2
ACAUTHENVIRON
 70
     0
  0
APPID
  5
419AC
330
9
100
AcDbSymbolTableRecord
100
AcDbRegAppTableRecord
  2
AcDbDynamicBlockTrueName
 70
     0
  0
APPID
  5
419AD
330
9
100
AcDbSymbolTableRecord
100
AcDbRegAppTableRecord
  2
AcDbDynamicBlockGUID
 70
     0
  0
ENDTAB
  0
TABLE
  2
DIMSTYLE
  5
A
330
0
100
AcDbSymbolTable
 70
     4
100
AcDbDimStyleTable
 71
     2
340
175
340
C24A
  0
DIMSTYLE
105
175
102
{ACAD_REACTORS
330
3DD15
330
3DD16
330
3DD17
330
3DD1B
330
3DD23
330
3DD3D
330
3DD3E
330
3DD3F
330
3DD40
330
3DD41
330
3DD60
330
3E3A6
330
3E3A7
330
3DD21
330
3DD5B
330
3E6CD
330
3E6CE
330
3E6CF
330
3E697
330
3ECB3
330
3E3B1
330
41957
102
}
330
A
100
AcDbSymbolTableRecord
100
AcDbDimStyleTableRecord
  2
STANDARD
 70
     0
 41
3.0
 42
1.0
 43
0.5
 44
0.5
 69
     1
 73
     0
 74
     0
 77
     1
 78
    12
140
7.0
147
3.0
176
   256
178
   256
271
     1
272
     1
340
11
341
3B2
342
3B2
345
14
1001
ACAD_DSTYLE_DIMJAG
1070
   388
1040
1.5
1001
ACAD_DSTYLE_DIMTALN
1070
   392
1070
     0
  0
DIMSTYLE
105
C24A
102
{ACAD_REACTORS
330
3E3A8
330
3E3A9
330
3E69D
330
3DD3C
330
3DD24
330
3DD5D
330
4192F
330
41922
102
}
330
A
100
AcDbSymbolTableRecord
100
AcDbDimStyleTableRecord
  2
STANDARD1
 70
     0
 41
2.0
 42
3.0
 43
0.5
 44
0.5
 77
     3
 78
    12
140
7.0
147
2.0
172
     1
271
     1
272
     1
289
     2
340
11
341
3B2
342
3B2
1001
ACAD_DSTYLE_DIMJAG
1070
   388
1040
1.5
1001
ACAD_DSTYLE_DIMTALN
1070
   392
1070
     0
  0
DIMSTYLE
105
3ACBF
330
A
100
AcDbSymbolTableRecord
100
AcDbDimStyleTableRecord
  2
SLDDIMSTYLE6
 70
     0
 41
2.0
 44
0.0
 45
0.000000001
146
2.0
147
0.0
173
     1
271
     0
272
     0
276
     2
340
11
  0
ENDTAB
  0
TABLE
  2
BLOCK_RECORD
  5
1
330
0
100
AcDbSymbolTable
 70
    53
  0
BLOCK_RECORD
  5
1E
102
{ACAD_XDICTIONARY
360
178
102
}
330
1
100
AcDbSymbolTableRecord
100
AcDbBlockTableRecord
  2
*MODEL_SPACE
340
904E
 70
     0
280
     1
281
     0
  0
BLOCK_RECORD
  5
1A
102
{ACAD_XDICTIONARY
360
17A
102
}
330
1
100
AcDbSymbolTableRecord
100
AcDbBlockTableRecord
  2
*PAPER_SPACE
340
904F
 70
     0
280
     1
281
     0
  0
BLOCK_RECORD
  5
3B2
330
1
100
AcDbSymbolTableRecord
100
AcDbBlockTableRecord
  2
_OPEN
340
0
102
{BLKREFS
331
417B1
331
417B2
331
417BA
331
417BB
331
417D5
331
417D6
331
417DE
331
417DF
331
417E7
331
417E8
331
418FB
331
418FC
331
41904
331
41905
331
418BD
331
418BE
331
417FB
331
417FC
331
41804
331
41805
331
4180D
331
4180E
331
41816
331
41817
331
4181F
331
41820
331
41849
331
4184A
331
4185C
331
4185D
331
41713
331
4171B
331
4171C
331
41740
331
41741
331
41749
331
4174A
331
41878
331
41879
331
41764
331
41775
331
41776
331
4177E
331
4177F
331
41789
331
4178A
331
41794
331
41795
331
4179F
331
417A0
331
417A8
331
417A9
331
41951
331
41952
331
418F2
331
418F3
331
41948
331
41949
331
4195E
331
4195F
331
41969
331
4196A
331
41972
331
41973
331
4197C
331
4197D
331
416C1
331
416C2
331
416D3
331
416D4
331
416DC
331
416DD
331
416E5
331
416E6
331
416EF
331
416F0
331
416F8
331
416F9
102
}
 70
     0
280
     1
281
     0
  0
BLOCK_RECORD
  5
3AAB3
330
1
100
AcDbSymbolTableRecord
100
AcDbBlockTableRecord
  2
_DOT
340
0
102
{BLKREFS
331
3E3AA
331
3E3AB
102
}
 70
     0
280
     1
281
     0
  0
BLOCK_RECORD
  5
3AABB
330
1
100
AcDbSymbolTableRecord
100
AcDbBlockTableRecord
  2
SW_CENTERMARKSYMBOL_20
340
0
 70
     0
280
     1
281
     0
  0
BLOCK_RECORD
  5
3AAC6
330
1
100
AcDbSymbolTableRecord
100
AcDbBlockTableRecord
  2
SW_CENTERMARKSYMBOL_54
340
0
102
{BLKREFS
331
3DD42
102
}
 70
     0
280
     1
281
     0
  0
BLOCK_RECORD
  5
3AAD1
330
1
100
AcDbSymbolTableRecord
100
AcDbBlockTableRecord
  2
SW_CENTERMARKSYMBOL_55
340
0
102
{BLKREFS
331
3DD43
102
}
 70
     0
280
     1
281
     0
  0
BLOCK_RECORD
  5
3AADC
102
{ACAD_XDICTIONARY
360
3AADD
102
}
330
1
100
AcDbSymbolTableRecord
100
AcDbBlockTableRecord
  2
m5screw1
340
0
102
{BLKREFS
331
3E6C8
331
3E6C9
102
}
 70
     0
280
     1
281
     0
  0
BLOCK_RECORD
  5
3C90B
330
1
100
AcDbSymbolTableRecord
100
AcDbBlockTableRecord
  2
SW_CENTERMARKSYMBOL_56
340
0
102
{BLKREFS
331
3DD44
102
}
 70
     0
280
     1
281
     0
  0
BLOCK_RECORD
  5
3C916
330
1
100
AcDbSymbolTableRecord
100
AcDbBlockTableRecord
  2
SW_CENTERMARKSYMBOL_57
340
0
102
{BLKREFS
331
3DD45
102
}
 70
     0
280
     1
281
     0
  0
BLOCK_RECORD
  5
3DA3C
102
{ACAD_XDICTIONARY
360
419C4
102
}
330
1
100
AcDbSymbolTableRecord
100
AcDbBlockTableRecord
  2
A$C3F0A4506
340
0
102
{BLKREFS
331
3DD4A
331
3DD55
102
}
 70
     0
280
     1
281
     0
1001
AcDbDynamicBlockGUID
1000
{657210A6-7FBA-4684-8A74-86BE19C83333}
  0
BLOCK_RECORD
  5
3DE67
330
1
100
AcDbSymbolTableRecord
100
AcDbBlockTableRecord
  2
*D9
340
0
 70
     0
280
     1
281
     0
  0
BLOCK_RECORD
  5
3DE73
330
1
100
AcDbSymbolTableRecord
100
AcDbBlockTableRecord
  2
*D10
340
0
 70
     0
280
     1
281
     0
  0
BLOCK_RECORD
  5
3DE7F
330
1
100
AcDbSymbolTableRecord
100
AcDbBlockTableRecord
  2
*D11
340
0
 70
     0
280
     1
281
     0
  0
BLOCK_RECORD
  5
3DE8B
330
1
100
AcDbSymbolTableRecord
100
AcDbBlockTableRecord
  2
*D12
340
0
 70
     0
280
     1
281
     0
  0
BLOCK_RECORD
  5
3DE97
330
1
100
AcDbSymbolTableRecord
100
AcDbBlockTableRecord
  2
*D13
340
0
 70
     0
280
     1
281
     0
  0
BLOCK_RECORD
  5
3DEA3
330
1
100
AcDbSymbolTableRecord
100
AcDbBlockTableRecord
  2
*D14
340
0
 70
     0
280
     1
281
     0
  0
BLOCK_RECORD
  5
3DEAF
330
1
100
AcDbSymbolTableRecord
100
AcDbBlockTableRecord
  2
*D15
340
0
 70
     0
280
     1
281
     0
  0
BLOCK_RECORD
  5
3DEBC
330
1
100
AcDbSymbolTableRecord
100
AcDbBlockTableRecord
  2
*D16
340
0
 70
     0
280
     1
281
     0
  0
BLOCK_RECORD
  5
3DED4
330
1
100
AcDbSymbolTableRecord
100
AcDbBlockTableRecord
  2
*D17
340
0
 70
     0
280
     1
281
     0
  0
BLOCK_RECORD
  5
3DEE0
330
1
100
AcDbSymbolTableRecord
100
AcDbBlockTableRecord
  2
*D18
340
0
 70
     0
280
     1
281
     0
  0
BLOCK_RECORD
  5
3DEEA
330
1
100
AcDbSymbolTableRecord
100
AcDbBlockTableRecord
  2
*D19
340
0
 70
     0
280
     1
281
     0
  0
BLOCK_RECORD
  5
3DEF4
330
1
100
AcDbSymbolTableRecord
100
AcDbBlockTableRecord
  2
*D20
340
0
 70
     0
280
     1
281
     0
  0
BLOCK_RECORD
  5
3DF00
330
1
100
AcDbSymbolTableRecord
100
AcDbBlockTableRecord
  2
*D21
340
0
 70
     0
280
     1
281
     0
  0
BLOCK_RECORD
  5
3DF0C
330
1
100
AcDbSymbolTableRecord
100
AcDbBlockTableRecord
  2
*D22
340
0
 70
     0
280
     1
281
     0
  0
BLOCK_RECORD
  5
3DF19
330
1
100
AcDbSymbolTableRecord
100
AcDbBlockTableRecord
  2
*D23
340
0
 70
     0
280
     1
281
     0
  0
BLOCK_RECORD
  5
3DF25
330
1
100
AcDbSymbolTableRecord
100
AcDbBlockTableRecord
  2
*D24
340
0
 70
     0
280
     1
281
     0
  0
BLOCK_RECORD
  5
3DF31
330
1
100
AcDbSymbolTableRecord
100
AcDbBlockTableRecord
  2
*D25
340
0
 70
     0
280
     1
281
     0
  0
BLOCK_RECORD
  5
3DF49
330
1
100
AcDbSymbolTableRecord
100
AcDbBlockTableRecord
  2
*D26
340
0
 70
     0
280
     1
281
     0
  0
BLOCK_RECORD
  5
3DF53
330
1
100
AcDbSymbolTableRecord
100
AcDbBlockTableRecord
  2
*D27
340
0
 70
     0
280
     1
281
     0
  0
BLOCK_RECORD
  5
3E3BC
330
1
100
AcDbSymbolTableRecord
100
AcDbBlockTableRecord
  2
*D28
340
0
 70
     0
280
     1
281
     0
  0
BLOCK_RECORD
  5
3E3CA
330
1
100
AcDbSymbolTableRecord
100
AcDbBlockTableRecord
  2
*D29
340
0
 70
     0
280
     1
281
     0
  0
BLOCK_RECORD
  5
3E3D5
330
1
100
AcDbSymbolTableRecord
100
AcDbBlockTableRecord
  2
*D30
340
0
 70
     0
280
     1
281
     0
  0
BLOCK_RECORD
  5
3E3E2
330
1
100
AcDbSymbolTableRecord
100
AcDbBlockTableRecord
  2
*D31
340
0
 70
     0
280
     1
281
     0
  0
BLOCK_RECORD
  5
3E3EE
330
1
100
AcDbSymbolTableRecord
100
AcDbBlockTableRecord
  2
*D32
340
0
 70
     0
280
     1
281
     0
  0
BLOCK_RECORD
  5
3E3FA
330
1
100
AcDbSymbolTableRecord
100
AcDbBlockTableRecord
  2
*D33
340
0
 70
     0
280
     1
281
     0
  0
BLOCK_RECORD
  5
3E408
330
1
100
AcDbSymbolTableRecord
100
AcDbBlockTableRecord
  2
*D34
340
0
 70
     0
280
     1
281
     0
  0
BLOCK_RECORD
  5
3E6D3
330
1
100
AcDbSymbolTableRecord
100
AcDbBlockTableRecord
  2
*D35
340
0
 70
     0
280
     1
281
     0
  0
BLOCK_RECORD
  5
3E6DF
330
1
100
AcDbSymbolTableRecord
100
AcDbBlockTableRecord
  2
*D36
340
0
 70
     0
280
     1
281
     0
  0
BLOCK_RECORD
  5
3E6EB
330
1
100
AcDbSymbolTableRecord
100
AcDbBlockTableRecord
  2
*D37
340
0
 70
     0
280
     1
281
     0
  0
BLOCK_RECORD
  5
3E6F7
330
1
100
AcDbSymbolTableRecord
100
AcDbBlockTableRecord
  2
*D38
340
0
 70
     0
280
     1
281
     0
  0
BLOCK_RECORD
  5
3E703
330
1
100
AcDbSymbolTableRecord
100
AcDbBlockTableRecord
  2
*D39
340
0
 70
     0
280
     1
281
     0
  0
BLOCK_RECORD
  5
3E70F
330
1
100
AcDbSymbolTableRecord
100
AcDbBlockTableRecord
  2
*D40
340
0
 70
     0
280
     1
281
     0
  0
BLOCK_RECORD
  5
3E733
330
1
100
AcDbSymbolTableRecord
100
AcDbBlockTableRecord
  2
*D41
340
0
 70
     0
280
     1
281
     0
  0
BLOCK_RECORD
  5
3E73F
330
1
100
AcDbSymbolTableRecord
100
AcDbBlockTableRecord
  2
*D42
340
0
 70
     0
280
     1
281
     0
  0
BLOCK_RECORD
  5
3E74B
330
1
100
AcDbSymbolTableRecord
100
AcDbBlockTableRecord
  2
*D43
340
0
 70
     0
280
     1
281
     0
  0
BLOCK_RECORD
  5
3E757
330
1
100
AcDbSymbolTableRecord
100
AcDbBlockTableRecord
  2
*D44
340
0
 70
     0
280
     1
281
     0
  0
BLOCK_RECORD
  5
3ECB4
330
1
100
AcDbSymbolTableRecord
100
AcDbBlockTableRecord
  2
*D45
340
0
 70
     0
280
     1
281
     0
  0
BLOCK_RECORD
  5
41923
330
1
100
AcDbSymbolTableRecord
100
AcDbBlockTableRecord
  2
*D46
340
0
 70
     0
280
     1
281
     0
  0
BLOCK_RECORD
  5
41930
330
1
100
AcDbSymbolTableRecord
100
AcDbBlockTableRecord
  2
*D47
340
0
 70
     0
280
     1
281
     0
  0
BLOCK_RECORD
  5
41958
330
1
100
AcDbSymbolTableRecord
100
AcDbBlockTableRecord
  2
*D48
340
0
 70
     0
280
     1
281
     0
  0
ENDTAB
  0
ENDSEC
  0
SECTION
  2
BLOCKS
  0
BLOCK
  5
1F
330
1E
100
AcDbEntity
  8
0
100
AcDbBlockBegin
  2
*MODEL_SPACE
 70
     0
 10
0.0
 20
0.0
 30
0.0
  3
*MODEL_SPACE
  1

  0
ENDBLK
  5
20
330
1E
100
AcDbEntity
  8
0
100
AcDbBlockEnd
  0
BLOCK
  5
1B
330
1A
100
AcDbEntity
 67
     1
  8
0
100
AcDbBlockBegin
  2
*PAPER_SPACE
 70
     0
 10
0.0
 20
0.0
 30
0.0
  3
*PAPER_SPACE
  1

  0
ENDBLK
  5
1C
330
1A
100
AcDbEntity
 67
     1
  8
0
100
AcDbBlockEnd
  0
BLOCK
  5
3B6
330
3B2
100
AcDbEntity
  8
0
100
AcDbBlockBegin
  2
_OPEN
 70
     0
 10
0.0
 20
0.0
 30
0.0
  3
_OPEN
  1

  0
LINE
  5
3B3
330
3B2
100
AcDbEntity
  8
30
  6
Continuous
 62
     0
100
AcDbLine
 10
-1.0
 20
0.166667
 30
0.0
 11
0.0
 21
0.0
 31
0.0
  0
LINE
  5
3B4
330
3B2
100
AcDbEntity
  8
30
  6
Continuous
 62
     0
100
AcDbLine
 10
-1.0
 20
-0.166667
 30
0.0
 11
0.0
 21
0.0
 31
0.0
  0
LINE
  5
3B5
330
3B2
100
AcDbEntity
  8
30
  6
Continuous
 62
     0
100
AcDbLine
 10
0.0
 20
0.0
 30
0.0
 11
-1.0
 21
0.0
 31
0.0
  0
ENDBLK
  5
3B7
330
3B2
100
AcDbEntity
  8
0
100
AcDbBlockEnd
  0
BLOCK
  5
3AAB4
330
3AAB3
100
AcDbEntity
  8
0
100
AcDbBlockBegin
  2
_DOT
 70
     0
 10
0.0
 20
0.0
 30
0.0
  3
_DOT
  1
_DOT
  0
POLYLINE
  5
3AAB5
330
3AAB3
100
AcDbEntity
  8
0
  6
ByBlock
 62
     0
100
AcDb2dPolyline
 66
     1
 10
0.0
 20
0.0
 30
0.0
 70
     1
 40
0.5
 41
0.5
  0
VERTEX
  5
3AAB6
330
3AAB5
100
AcDbEntity
  8
0
  6
ByBlock
 62
     0
100
AcDbVertex
100
AcDb2dVertex
 10
-0.25
 20
0.0
 30
0.0
 42
1.0
  0
VERTEX
  5
3AAB7
330
3AAB5
100
AcDbEntity
  8
0
  6
ByBlock
 62
     0
100
AcDbVertex
100
AcDb2dVertex
 10
0.25
 20
0.0
 30
0.0
 42
1.0
  0
SEQEND
  5
3AAB8
330
3AAB5
100
AcDbEntity
  8
0
  6
ByBlock
 62
     0
  0
LINE
  5
3AAB9
330
3AAB3
100
AcDbEntity
  8
0
  6
ByBlock
 62
     0
370
    -2
100
AcDbLine
 10
-0.5
 20
0.0
 30
0.0
 11
-1.0
 21
0.0
 31
0.0
  0
ENDBLK
  5
3AABA
330
3AAB3
100
AcDbEntity
  8
0
100
AcDbBlockEnd
  0
BLOCK
  5
3AABC
330
3AABB
100
AcDbEntity
  8
0
100
AcDbBlockBegin
  2
SW_CENTERMARKSYMBOL_20
 70
     0
 10
0.0
 20
0.0
 30
0.0
  3
SW_CENTERMARKSYMBOL_20
  1
SW_CENTERMARKSYMBOL_20
  0
LINE
  5
3AABD
330
3AABB
100
AcDbEntity
  8
SLD-0
 62
     0
100
AcDbLine
 10
0.0
 20
0.0
 30
0.0
 11
0.0
 21
1.25
 31
0.0
  0
LINE
  5
3AABE
330
3AABB
100
AcDbEntity
  8
SLD-0
 62
     0
100
AcDbLine
 10
0.0
 20
0.0
 30
0.0
 11
-1.25
 21
0.0
 31
0.0
  0
LINE
  5
3AABF
330
3AABB
100
AcDbEntity
  8
SLD-0
 62
     0
100
AcDbLine
 10
0.0
 20
0.0
 30
0.0
 11
0.0
 21
-1.25
 31
0.0
  0
LINE
  5
3AAC0
330
3AABB
100
AcDbEntity
  8
SLD-0
 62
     0
100
AcDbLine
 10
0.0
 20
0.0
 30
0.0
 11
1.25
 21
0.0
 31
0.0
  0
LINE
  5
3AAC1
330
3AABB
100
AcDbEntity
  8
SLD-0
 62
     0
100
AcDbLine
 10
0.0
 20
2.5
 30
0.0
 11
0.0
 21
3.951149425299997
 31
0.0
  0
LINE
  5
3AAC2
330
3AABB
100
AcDbEntity
  8
SLD-0
 62
     0
100
AcDbLine
 10
-2.5
 20
0.0
 30
0.0
 11
-3.951149425299997
 21
0.0
 31
0.0
  0
LINE
  5
3AAC3
330
3AABB
100
AcDbEntity
  8
SLD-0
 62
     0
100
AcDbLine
 10
0.0
 20
-2.5
 30
0.0
 11
0.0
 21
-3.951149425299997
 31
0.0
  0
LINE
  5
3AAC4
330
3AABB
100
AcDbEntity
  8
SLD-0
 62
     0
100
AcDbLine
 10
2.5
 20
0.0
 30
0.0
 11
3.951149425299997
 21
0.0
 31
0.0
  0
ENDBLK
  5
3AAC5
330
3AABB
100
AcDbEntity
  8
0
100
AcDbBlockEnd
  0
BLOCK
  5
3AAC7
330
3AAC6
100
AcDbEntity
  8
0
100
AcDbBlockBegin
  2
SW_CENTERMARKSYMBOL_54
 70
     0
 10
0.0
 20
0.0
 30
0.0
  3
SW_CENTERMARKSYMBOL_54
  1
SW_CENTERMARKSYMBOL_54
  0
LINE
  5
3AAC8
330
3AAC6
100
AcDbEntity
  8
SLD-0
 62
     0
100
AcDbLine
 10
0.0
 20
0.0
 30
0.0
 11
0.0
 21
1.25
 31
0.0
  0
LINE
  5
3AAC9
330
3AAC6
100
AcDbEntity
  8
SLD-0
 62
     0
100
AcDbLine
 10
0.0
 20
0.0
 30
0.0
 11
-1.25
 21
0.0
 31
0.0
  0
LINE
  5
3AACA
330
3AAC6
100
AcDbEntity
  8
SLD-0
 62
     0
100
AcDbLine
 10
0.0
 20
0.0
 30
0.0
 11
0.0
 21
-1.25
 31
0.0
  0
LINE
  5
3AACB
330
3AAC6
100
AcDbEntity
  8
SLD-0
 62
     0
100
AcDbLine
 10
0.0
 20
0.0
 30
0.0
 11
1.25
 21
0.0
 31
0.0
  0
LINE
  5
3AACC
330
3AAC6
100
AcDbEntity
  8
SLD-0
 62
     0
100
AcDbLine
 10
0.0
 20
2.5
 30
0.0
 11
0.0
 21
2.75
 31
0.0
  0
LINE
  5
3AACD
330
3AAC6
100
AcDbEntity
  8
SLD-0
 62
     0
100
AcDbLine
 10
-2.5
 20
0.0
 30
0.0
 11
-2.75
 21
0.0
 31
0.0
  0
LINE
  5
3AACE
330
3AAC6
100
AcDbEntity
  8
SLD-0
 62
     0
100
AcDbLine
 10
0.0
 20
-2.5
 30
0.0
 11
0.0
 21
-2.75
 31
0.0
  0
LINE
  5
3AACF
330
3AAC6
100
AcDbEntity
  8
SLD-0
 62
     0
100
AcDbLine
 10
2.5
 20
0.0
 30
0.0
 11
2.75
 21
0.0
 31
0.0
  0
ENDBLK
  5
3AAD0
330
3AAC6
100
AcDbEntity
  8
0
100
AcDbBlockEnd
  0
BLOCK
  5
3AAD2
330
3AAD1
100
AcDbEntity
  8
0
100
AcDbBlockBegin
  2
SW_CENTERMARKSYMBOL_55
 70
     0
 10
0.0
 20
0.0
 30
0.0
  3
SW_CENTERMARKSYMBOL_55
  1
SW_CENTERMARKSYMBOL_55
  0
LINE
  5
3AAD3
330
3AAD1
100
AcDbEntity
  8
SLD-0
 62
     0
100
AcDbLine
 10
0.0
 20
0.0
 30
0.0
 11
0.0
 21
1.25
 31
0.0
  0
LINE
  5
3AAD4
330
3AAD1
100
AcDbEntity
  8
SLD-0
 62
     0
100
AcDbLine
 10
0.0
 20
0.0
 30
0.0
 11
-1.25
 21
0.0
 31
0.0
  0
LINE
  5
3AAD5
330
3AAD1
100
AcDbEntity
  8
SLD-0
 62
     0
100
AcDbLine
 10
0.0
 20
0.0
 30
0.0
 11
0.0
 21
-1.25
 31
0.0
  0
LINE
  5
3AAD6
330
3AAD1
100
AcDbEntity
  8
SLD-0
 62
     0
100
AcDbLine
 10
0.0
 20
0.0
 30
0.0
 11
1.25
 21
0.0
 31
0.0
  0
LINE
  5
3AAD7
330
3AAD1
100
AcDbEntity
  8
SLD-0
 62
     0
100
AcDbLine
 10
0.0
 20
2.5
 30
0.0
 11
0.0
 21
2.75
 31
0.0
  0
LINE
  5
3AAD8
330
3AAD1
100
AcDbEntity
  8
SLD-0
 62
     0
100
AcDbLine
 10
-2.5
 20
0.0
 30
0.0
 11
-2.75
 21
0.0
 31
0.0
  0
LINE
  5
3AAD9
330
3AAD1
100
AcDbEntity
  8
SLD-0
 62
     0
100
AcDbLine
 10
0.0
 20
-2.5
 30
0.0
 11
0.0
 21
-2.75
 31
0.0
  0
LINE
  5
3AADA
330
3AAD1
100
AcDbEntity
  8
SLD-0
 62
     0
100
AcDbLine
 10
2.5
 20
0.0
 30
0.0
 11
2.75
 21
0.0
 31
0.0
  0
ENDBLK
  5
3AADB
330
3AAD1
100
AcDbEntity
  8
0
100
AcDbBlockEnd
  0
BLOCK
  5
3AADF
330
3AADC
100
AcDbEntity
  8
0
100
AcDbBlockBegin
  2
m5screw1
 70
     0
 10
0.0
 20
0.0
 30
0.0
  3
m5screw1
  1

  0
LINE
  5
3AAE0
330
3AADC
100
AcDbEntity
  8
0
  6
SLD-実線
370
    15
100
AcDbLine
 10
15.50000160939999
 20
-2.499999478499999
 30
0.0
 11
16.00000262259982
 21
-1.999998465300049
 31
0.0
  0
LINE
  5
3AAE1
330
3AADC
100
AcDbEntity
  8
0
  6
SLD-実線
370
    15
100
AcDbLine
 10
16.00000262259982
 20
2.000002190499968
 30
0.0
 11
15.50000160939999
 21
2.499999478499999
 31
0.0
  0
LINE
  5
3AAE2
330
3AADC
100
AcDbEntity
  8
0
  6
SLD-実線
370
    15
100
AcDbLine
 10
0.0
 20
-2.499999478499999
 30
0.0
 11
3.199998289399898
 21
-2.499999478499999
 31
0.0
  0
LINE
  5
3AAE3
330
3AADC
100
AcDbEntity
  8
0
  6
SLD-実線
370
    15
100
AcDbLine
 10
9.199999272799914
 20
-2.499999478499999
 30
0.0
 11
15.50000160939999
 21
-2.499999478499999
 31
0.0
  0
LINE
  5
3AAE4
330
3AADC
100
AcDbEntity
  8
0
  6
SLD-実線
370
    15
100
AcDbLine
 10
15.50000160939999
 20
2.499999478499999
 30
0.0
 11
9.199999272799914
 21
2.499999478499999
 31
0.0
  0
LINE
  5
3AAE5
330
3AADC
100
AcDbEntity
  8
0
  6
SLD-実線
370
    15
100
AcDbLine
 10
3.199998289399898
 20
2.499999478499999
 30
0.0
 11
0.0
 21
2.499999478499999
 31
0.0
  0
ARC
  5
3AAE6
330
3AADC
100
AcDbEntity
  8
0
  6
SLD-実線
370
    15
100
AcDbCircle
 10
4.324999582799819
 20
-4.424999627499971
 30
0.0
 40
0.1750000000001818
100
AcDbArc
 50
270.0
 51
0.0
  0
ARC
  5
3AAE7
330
3AADC
100
AcDbEntity
  8
0
  6
SLD-実線
370
    15
100
AcDbCircle
 10
4.324999582799819
 20
4.425000372499936
 30
0.0
 40
0.1750000000001818
100
AcDbArc
 50
0.0
 51
90.0
  0
LINE
  5
3AAE8
330
3AADC
100
AcDbEntity
  8
0
  6
SLD-実線
370
    15
100
AcDbLine
 10
3.375001251599996
 20
-4.599997773699953
 30
0.0
 11
4.324998706599896
 21
-4.599997773699953
 31
0.0
  0
LINE
  5
3AAE9
330
3AADC
100
AcDbEntity
  8
0
  6
SLD-実線
370
    15
100
AcDbLine
 10
4.324998706599896
 20
4.600001499100073
 30
0.0
 11
3.375001251599996
 21
4.600001499100073
 31
0.0
  0
ARC
  5
3AAEA
330
3AADC
100
AcDbEntity
  8
0
  6
SLD-実線
370
    15
100
AcDbCircle
 10
3.374999582799773
 20
-4.424999627499971
 30
0.0
 40
0.1750000000000682
100
AcDbArc
 50
180.0
 51
270.0
  0
ARC
  5
3AAEB
330
3AADC
100
AcDbEntity
  8
0
  6
SLD-実線
370
    15
100
AcDbCircle
 10
3.374999582799773
 20
4.425000372499936
 30
0.0
 40
0.1749999999999546
100
AcDbArc
 50
90.0
 51
180.0
  0
LINE
  5
3AAEC
330
3AADC
100
AcDbEntity
  8
0
  6
SLD-実線
370
    15
100
AcDbLine
 10
15.50000160939999
 20
-2.499999478499999
 30
0.0
 11
15.50000160939999
 21
2.499999478499999
 31
0.0
  0
LINE
  5
3AAED
330
3AADC
100
AcDbEntity
  8
0
  6
SLD-実線
370
    15
100
AcDbLine
 10
16.00000262259982
 20
2.000002190499968
 30
0.0
 11
16.00000262259982
 21
-1.999998465300049
 31
0.0
  0
LINE
  5
3AAEE
330
3AADC
100
AcDbEntity
  8
0
  6
SLD-実線
370
    15
100
AcDbLine
 10
9.199999272799914
 20
2.000002190499968
 30
0.0
 11
9.199999272799914
 21
-1.999998465300049
 31
0.0
  0
SPLINE
  5
3AAEF
330
3AADC
100
AcDbEntity
  8
0
  6
SLD-実線
370
    15
100
AcDbSpline
210
0.0
220
0.0
230
1.0
 70
     8
 71
     3
 72
     9
 73
     5
 74
     0
 42
0.000000001
 43
0.0000000001
 40
0.0
 40
0.0
 40
0.0
 40
0.0
 40
0.6771006943045183
 40
1.0
 40
1.0
 40
1.0
 40
1.0
 10
9.199999272808099
 20
-1.999998465204214
 30
0.0
 10
9.179040304209593
 20
-1.56778935288372
 30
0.0
 10
9.148086313503654
 20
-0.9294661079722461
 30
0.0
 10
9.011308131972782
 20
-0.3024597483417324
 30
0.0
 10
8.96714255212214
 20
-0.0999998301505798
 30
0.0
  0
SPLINE
  5
3AAF0
330
3AADC
100
AcDbEntity
  8
0
  6
SLD-実線
370
    15
100
AcDbSpline
210
0.0
220
0.0
230
1.0
 70
     8
 71
     3
 72
    11
 73
     7
 74
     0
 42
0.000000001
 43
0.0000000001
 40
0.0
 40
0.0
 40
0.0
 40
0.0
 40
0.3033008138334113
 40
0.6069089828308042
 40
0.9049150680745647
 40
1.0
 40
1.0
 40
1.0
 40
1.0
 10
8.96714255212214
 20
0.099999830102945
 30
0.0
 10
8.963614850737712
 20
0.080806419733392
 30
0.0
 10
8.956555873111936
 20
0.0424001490176238
 30
0.0
 10
8.95576945176549
 20
-0.0226580828731926
 30
0.0
 10
8.960809023061527
 20
-0.0704117374939983
 30
0.0
 10
8.965908933012542
 20
-0.0942367814356544
 30
0.0
 10
8.96714255212214
 20
-0.0999998301505798
 30
0.0
  0
LINE
  5
3AAF1
330
3AADC
100
AcDbEntity
  8
0
  6
SLD-実線
370
    15
100
AcDbLine
 10
8.967142552199902
 20
0.0999998300999892
 30
0.0
 11
9.199999272799914
 21
2.000002190499968
 31
0.0
  0
LINE
  5
3AAF2
330
3AADC
100
AcDbEntity
  8
0
  6
SLD-実線
370
    15
100
AcDbLine
 10
4.499997943599963
 20
-0.0999998300999892
 30
0.0
 11
4.499997943599963
 21
0.0999998300999892
 31
0.0
  0
LINE
  5
3AAF3
330
3AADC
100
AcDbEntity
  8
0
  6
SLD-実線
370
    15
100
AcDbLine
 10
8.967142552199902
 20
-3.900000825499944
 30
0.0
 11
9.199999272799914
 21
-1.999998465300049
 31
0.0
  0
LINE
  5
3AAF4
330
3AADC
100
AcDbEntity
  8
0
  6
SLD-実線
370
    15
100
AcDbLine
 10
4.499997943599963
 20
-0.0999998300999892
 30
0.0
 11
4.499997943599963
 21
-0.3612581640999792
 31
0.0
  0
LINE
  5
3AAF5
330
3AADC
100
AcDbEntity
  8
0
  6
SLD-実線
370
    15
100
AcDbLine
 10
4.499997943599963
 20
-3.638738766300036
 30
0.0
 11
4.499997943599963
 21
-3.900000825499944
 31
0.0
  0
SPLINE
  5
3AAF6
330
3AADC
100
AcDbEntity
  8
0
  6
SLD-実線
370
    15
100
AcDbSpline
210
0.0
220
0.0
230
1.0
 70
     8
 71
     3
 72
     9
 73
     5
 74
     0
 42
0.000000001
 43
0.0000000001
 40
0.0
 40
0.0
 40
0.0
 40
0.0
 40
0.6770988321148445
 40
1.0
 40
1.0
 40
1.0
 40
1.0
 10
9.199999272808099
 20
2.000002190446764
 30
0.0
 10
9.179040014920019
 20
2.432209980872983
 30
0.0
 10
9.148085511835004
 20
3.07053302904063
 30
0.0
 10
9.011308128833434
 20
3.69753965402225
 30
0.0
 10
8.96714255212214
 20
3.900000825500626
 30
0.0
  0
LINE
  5
3AAF7
330
3AADC
100
AcDbEntity
  8
0
  6
SLD-実線
370
    15
100
AcDbLine
 10
4.499997943599963
 20
3.900000825500056
 30
0.0
 11
4.499997943599963
 21
3.638738766300036
 31
0.0
  0
LINE
  5
3AAF8
330
3AADC
100
AcDbEntity
  8
0
  6
SLD-実線
370
    15
100
AcDbLine
 10
4.499997943599963
 20
0.3612618893000103
 30
0.0
 11
4.499997943599963
 21
0.0999998300999892
 31
0.0
  0
SPLINE
  5
3AAF9
330
3AADC
100
AcDbEntity
  8
0
  6
SLD-実線
370
    15
100
AcDbSpline
210
0.0
220
0.0
230
1.0
 70
    24
 71
     3
 72
     9
 73
     5
 74
     0
 42
0.000000001
 43
0.0000000001
 40
0.0
 40
0.0
 40
0.0
 40
0.0
 40
0.7858524886117994
 40
1.0
 40
1.0
 40
1.0
 40
1.0
 10
9.199999272808099
 20
-3.999998793029758
 30
0.0
 10
9.171952321175467
 20
-3.999998793029758
 30
0.0
 10
9.136262478566095
 20
-3.999998793029758
 30
0.0
 10
8.996971391727129
 20
-3.999998793029758
 30
0.0
 10
8.96714255212214
 20
-3.999998793029758
 30
0.0
  0
SPLINE
  5
3AAFA
330
3AADC
100
AcDbEntity
  8
0
  6
SLD-実線
370
    15
100
AcDbSpline
210
0.0
220
0.0
230
1.0
 70
     8
 71
     3
 72
    11
 73
     7
 74
     0
 42
0.000000001
 43
0.0000000001
 40
0.0
 40
0.0
 40
0.0
 40
0.0
 40
0.3032948817092764
 40
0.6069007806173136
 40
0.9049251941525932
 40
1.0
 40
1.0
 40
1.0
 40
1.0
 10
8.96714255212214
 20
-3.900000825548261
 30
0.0
 10
8.963614819430631
 20
-3.917281063541223
 30
0.0
 10
8.956555736494237
 20
-3.951859259744706
 30
0.0
 10
8.955769817165219
 20
-3.986138454351986
 30
0.0
 10
8.960808302420216
 20
-3.998992385496363
 30
0.0
 10
8.965908919176627
 20
-3.999802789154328
 30
0.0
 10
8.96714255212214
 20
-3.999998793029758
 30
0.0
  0
LINE
  5
3AAFB
330
3AADC
100
AcDbEntity
  8
0
  6
SLD-実線
370
    15
100
AcDbLine
 10
9.199999272799914
 20
-1.999998465300049
 30
0.0
 11
9.199999272799914
 21
-3.999998793100017
 31
0.0
  0
SPLINE
  5
3AAFC
330
3AADC
100
AcDbEntity
  8
0
  6
SLD-実線
370
    15
100
AcDbSpline
210
0.0
220
0.0
230
1.0
 70
     8
 71
     3
 72
    11
 73
     7
 74
     0
 42
0.000000001
 43
0.0000000001
 40
0.0
 40
0.0
 40
0.0
 40
0.0
 40
0.303297341374236
 40
0.6069057263081482
 40
0.9049195301906271
 40
1.0
 40
1.0
 40
1.0
 40
1.0
 10
8.96714255212214
 20
3.999998792982238
 30
0.0
 10
8.963614837932254
 20
3.998087219072033
 30
0.0
 10
8.956555791740351
 20
3.994262110856368
 30
0.0
 10
8.955769607909587
 20
3.963479847629796
 30
0.0
 10
8.960808710141916
 20
3.928584420112258
 30
0.0
 10
8.965908926910515
 20
3.905567974642678
 30
0.0
 10
8.96714255212214
 20
3.900000825500626
 30
0.0
  0
SPLINE
  5
3AAFD
330
3AADC
100
AcDbEntity
  8
0
  6
SLD-実線
370
    15
100
AcDbSpline
210
0.0
220
0.0
230
1.0
 70
    24
 71
     3
 72
     9
 73
     5
 74
     0
 42
0.000000001
 43
0.0000000001
 40
0.0
 40
0.0
 40
0.0
 40
0.0
 40
0.2141475113882007
 40
1.0
 40
1.0
 40
1.0
 40
1.0
 10
8.96714255212214
 20
3.999998792982238
 30
0.0
 10
8.996971391727129
 20
3.999998792982238
 30
0.0
 10
9.136262478566095
 20
3.999998792982238
 30
0.0
 10
9.171952321175467
 20
3.999998792982238
 30
0.0
 10
9.199999272808099
 20
3.999998792982238
 30
0.0
  0
LINE
  5
3AAFE
330
3AADC
100
AcDbEntity
  8
0
  6
SLD-実線
370
    15
100
AcDbLine
 10
9.199999272799914
 20
3.999998792900043
 30
0.0
 11
9.199999272799914
 21
2.000002190499968
 31
0.0
  0
LINE
  5
3AAFF
330
3AADC
100
AcDbEntity
  8
0
  6
SLD-実線
370
    15
100
AcDbLine
 10
8.967142552199902
 20
-3.999998793100017
 30
0.0
 11
4.499997943599963
 21
-3.999998793100017
 31
0.0
  0
LINE
  5
3AB00
330
3AADC
100
AcDbEntity
  8
0
  6
SLD-実線
370
    15
100
AcDbLine
 10
4.499997943599963
 20
-3.999998793100017
 30
0.0
 11
4.499997943599963
 21
-3.900000825499944
 31
0.0
  0
LINE
  5
3AB01
330
3AADC
100
AcDbEntity
  8
0
  6
SLD-実線
370
    15
100
AcDbLine
 10
4.499997943599963
 20
3.999998792900043
 30
0.0
 11
8.967142552199902
 21
3.999998792900043
 31
0.0
  0
LINE
  5
3AB02
330
3AADC
100
AcDbEntity
  8
0
  6
SLD-実線
370
    15
100
AcDbLine
 10
4.499997943599963
 20
3.900000825500056
 30
0.0
 11
4.499997943599963
 21
3.999998792900043
 31
0.0
  0
LINE
  5
3AB03
330
3AADC
100
AcDbEntity
  8
0
  6
SLD-実線
370
    15
100
AcDbLine
 10
4.499997943599963
 20
-4.424998536700002
 30
0.0
 11
4.499997943599963
 21
-3.999998793100017
 31
0.0
  0
LINE
  5
3AB04
330
3AADC
100
AcDbEntity
  8
0
  6
SLD-実線
370
    15
100
AcDbLine
 10
4.499997943599963
 20
-3.638738766300036
 30
0.0
 11
4.499997943599963
 21
-0.3612581640999792
 31
0.0
  0
LINE
  5
3AB05
330
3AADC
100
AcDbEntity
  8
0
  6
SLD-実線
370
    15
100
AcDbLine
 10
4.499997943599963
 20
0.3612618893000103
 30
0.0
 11
4.499997943599963
 21
3.638738766300036
 31
0.0
  0
LINE
  5
3AB06
330
3AADC
100
AcDbEntity
  8
0
  6
SLD-実線
370
    15
100
AcDbLine
 10
4.499997943599963
 20
3.999998792900043
 30
0.0
 11
4.499997943599963
 21
4.424998536700002
 31
0.0
  0
LINE
  5
3AB07
330
3AADC
100
AcDbEntity
  8
0
  6
SLD-実線
370
    15
100
AcDbLine
 10
3.199998289399898
 20
-4.424998536700002
 30
0.0
 11
3.199998289399898
 21
4.424998536700002
 31
0.0
  0
LINE
  5
3AB08
330
3AADC
100
AcDbEntity
  8
0
370
    15
100
AcDbLine
 10
4.499999582799773
 20
0.7763407795000035
 30
0.0
 11
3.199999582799819
 21
0.1217328332999727
 31
0.0
  0
LINE
  5
3AB09
330
3AADC
100
AcDbEntity
  8
0
370
    15
100
AcDbLine
 10
4.499999582799773
 20
0.0688290700999801
 30
0.0
 11
3.199999582799819
 21
-0.5857788763000258
 31
0.0
  0
LINE
  5
3AB0A
330
3AADC
100
AcDbEntity
  8
0
100
AcDbLine
 10
0.0
 20
2.499999478499999
 30
0.0
 11
0.0
 21
-2.499999478499999
 31
0.0
  0
ENDBLK
  5
3AB0B
330
3AADC
100
AcDbEntity
  8
0
100
AcDbBlockEnd
  0
BLOCK
  5
3C90C
330
3C90B
100
AcDbEntity
  8
0
100
AcDbBlockBegin
  2
SW_CENTERMARKSYMBOL_56
 70
     0
 10
0.0
 20
0.0
 30
0.0
  3
SW_CENTERMARKSYMBOL_56
  1
SW_CENTERMARKSYMBOL_56
  0
LINE
  5
3C90D
330
3C90B
100
AcDbEntity
  8
SLD-0
 62
     0
100
AcDbLine
 10
0.0
 20
0.0
 30
0.0
 11
0.0
 21
1.25
 31
0.0
  0
LINE
  5
3C90E
330
3C90B
100
AcDbEntity
  8
SLD-0
 62
     0
100
AcDbLine
 10
0.0
 20
0.0
 30
0.0
 11
-1.25
 21
0.0
 31
0.0
  0
LINE
  5
3C90F
330
3C90B
100
AcDbEntity
  8
SLD-0
 62
     0
100
AcDbLine
 10
0.0
 20
0.0
 30
0.0
 11
0.0
 21
-1.25
 31
0.0
  0
LINE
  5
3C910
330
3C90B
100
AcDbEntity
  8
SLD-0
 62
     0
100
AcDbLine
 10
0.0
 20
0.0
 30
0.0
 11
1.25
 21
0.0
 31
0.0
  0
LINE
  5
3C911
330
3C90B
100
AcDbEntity
  8
SLD-0
 62
     0
100
AcDbLine
 10
0.0
 20
2.5
 30
0.0
 11
0.0
 21
2.75
 31
0.0
  0
LINE
  5
3C912
330
3C90B
100
AcDbEntity
  8
SLD-0
 62
     0
100
AcDbLine
 10
-2.5
 20
0.0
 30
0.0
 11
-2.75
 21
0.0
 31
0.0
  0
LINE
  5
3C913
330
3C90B
100
AcDbEntity
  8
SLD-0
 62
     0
100
AcDbLine
 10
0.0
 20
-2.5
 30
0.0
 11
0.0
 21
-2.75
 31
0.0
  0
LINE
  5
3C914
330
3C90B
100
AcDbEntity
  8
SLD-0
 62
     0
100
AcDbLine
 10
2.5
 20
0.0
 30
0.0
 11
2.75
 21
0.0
 31
0.0
  0
ENDBLK
  5
3C915
330
3C90B
100
AcDbEntity
  8
0
100
AcDbBlockEnd
  0
BLOCK
  5
3C917
330
3C916
100
AcDbEntity
  8
0
100
AcDbBlockBegin
  2
SW_CENTERMARKSYMBOL_57
 70
     0
 10
0.0
 20
0.0
 30
0.0
  3
SW_CENTERMARKSYMBOL_57
  1
SW_CENTERMARKSYMBOL_57
  0
LINE
  5
3C918
330
3C916
100
AcDbEntity
  8
SLD-0
 62
     0
100
AcDbLine
 10
0.0
 20
0.0
 30
0.0
 11
0.0
 21
1.25
 31
0.0
  0
LINE
  5
3C919
330
3C916
100
AcDbEntity
  8
SLD-0
 62
     0
100
AcDbLine
 10
0.0
 20
0.0
 30
0.0
 11
-1.25
 21
0.0
 31
0.0
  0
LINE
  5
3C91A
330
3C916
100
AcDbEntity
  8
SLD-0
 62
     0
100
AcDbLine
 10
0.0
 20
0.0
 30
0.0
 11
0.0
 21
-1.25
 31
0.0
  0
LINE
  5
3C91B
330
3C916
100
AcDbEntity
  8
SLD-0
 62
     0
100
AcDbLine
 10
0.0
 20
0.0
 30
0.0
 11
1.25
 21
0.0
 31
0.0
  0
LINE
  5
3C91C
330
3C916
100
AcDbEntity
  8
SLD-0
 62
     0
100
AcDbLine
 10
0.0
 20
2.5
 30
0.0
 11
0.0
 21
2.75
 31
0.0
  0
LINE
  5
3C91D
330
3C916
100
AcDbEntity
  8
SLD-0
 62
     0
100
AcDbLine
 10
-2.5
 20
0.0
 30
0.0
 11
-2.75
 21
0.0
 31
0.0
  0
LINE
  5
3C91E
330
3C916
100
AcDbEntity
  8
SLD-0
 62
     0
100
AcDbLine
 10
0.0
 20
-2.5
 30
0.0
 11
0.0
 21
-2.75
 31
0.0
  0
LINE
  5
3C91F
330
3C916
100
AcDbEntity
  8
SLD-0
 62
     0
100
AcDbLine
 10
2.5
 20
0.0
 30
0.0
 11
2.75
 21
0.0
 31
0.0
  0
ENDBLK
  5
3C920
330
3C916
100
AcDbEntity
  8
0
100
AcDbBlockEnd
  0
BLOCK
  5
3DA3F
330
3DA3C
100
AcDbEntity
  8
0
100
AcDbBlockBegin
  2
A$C3F0A4506
 70
     0
 10
0.0
 20
0.0
 30
0.0
  3
A$C3F0A4506
  1

  0
CIRCLE
  5
419B2
330
3DA3C
100
AcDbEntity
  8
10
100
AcDbCircle
 10
104.8249999970513
 20
3.500304608093308
 30
0.0
 40
2.0
  0
ARC
  5
419B3
330
3DA3C
100
AcDbEntity
  8
10
100
AcDbCircle
 10
104.8249999970513
 20
3.500304608093308
 30
0.0
 40
3.275000000000013
100
AcDbArc
 50
130.2387981259013
 51
49.76120187409872
  0
CIRCLE
  5
419B4
330
3DA3C
100
AcDbEntity
  8
10
100
AcDbCircle
 10
69.82499999705135
 20
3.500304608093308
 30
0.0
 40
2.25
  0
LWPOLYLINE
  5
419B5
330
3DA3C
100
AcDbEntity
  8
10
100
AcDbPolyline
 90
        2
 70
     0
 43
0.0
 10
106.8249986856514
 20
6.000303416093293
 10
106.4838962048512
 20
6.000303416093293
  0
LWPOLYLINE
  5
419B6
330
3DA3C
100
AcDbEntity
  8
10
100
AcDbPolyline
 90
        2
 70
     0
 43
0.0
 10
66.32484769225141
 20
6.000303416093293
 10
66.30839308505129
 20
6.000303416093293
  0
LWPOLYLINE
  5
419B7
330
3DA3C
100
AcDbEntity
  8
10
100
AcDbPolyline
 90
        4
 70
     0
 43
0.0
 10
108.3416053444513
 20
6.000303416093293
 10
108.3251507372514
 20
6.000303416093293
 10
106.4838962048512
 20
6.000303416093293
 10
66.31662038865136
 20
6.000303416093293
  0
LWPOLYLINE
  5
419B8
330
3DA3C
100
AcDbEntity
  8
10
100
AcDbPolyline
 90
      480
 70
     0
 43
0.0
 10
108.342298248414
 20
6.000452427687667
 10
108.3958023229479
 20
6.007671649155297
 10
108.4491388854715
 20
6.015355719630277
 10
108.5021404239749
 20
6.023969488119937
 10
108.5546394264477
 20
6.033977803631612
 10
108.6064683808801
 20
6.045845515172651
 10
108.6574597752616
 20
6.060037471750391
 10
108.7074460975823
 20
6.077018522372156
 10
108.7562623416991
 20
6.097232149909877
 10
108.8037860261467
 20
6.12075925294723
 10
108.8499301845641
 20
6.147377912524127
 10
108.8946089402676
 20
6.176856918602352
 10
108.937736416574
 20
6.208965061143715
 10
108.9792267367995
 20
6.243471130110002
 10
109.018994024261
 20
6.280143915463012
 10
109.0569494011272
 20
6.318755156328839
 10
109.0929349620303
 20
6.359144423733575
 10
109.1267237734315
 20
6.401219121226437
 10
109.1580859005175
 20
6.444889601645535
 10
109.1867914084752
 20
6.490066217828967
 10
109.2126103624911
 20
6.536659322614852
 10
109.2353128277522
 20
6.584579268841295
 10
109.2546788179119
 20
6.633735411762637
 10
109.2707959753813
 20
6.684006259120827
 10
109.284111008013
 20
6.735234313325462
 10
109.2950909366134
 20
6.787260039902136
 10
109.3042027819884
 20
6.839923904376441
 10
109.3119135649448
 20
6.893066372273978
 10
109.3186903062885
 20
6.946527909120334
 10
109.3250000268514
 20
7.0001489804933
 10
109.3250000268258
 20
12.8004557774687
 10
109.3226734018033
 20
12.83868185254008
 10
109.3200062726471
 20
12.87685044956881
 10
109.3166581352237
 20
12.91490409051223
 10
109.3122884853998
 20
12.95278529732766
 10
109.3065568190413
 20
12.99043659197243
 10
109.2991436751799
 20
13.02780110926519
 10
109.2899804947651
 20
13.06482929129394
 10
109.2791636213209
 20
13.10147638277048
 10
109.2667922861587
 20
13.13769771251061
 10
109.2529657205903
 20
13.17344860933008
 10
109.2377819356625
 20
13.20868423849766
 10
109.2213040216108
 20
13.24335508498891
 10
109.203555853088
 20
13.27740637787577
 10
109.184559221904
 20
13.3107830670753
 10
109.1643359198689
 20
13.34343010250453
 10
109.1429077387924
 20
13.37529243408057
 10
109.120296470485
 20
13.40631501172043
 10
109.0965239067565
 20
13.4364427853412
 10
109.0716118394167
 20
13.46562070485992
 10
109.0455820602759
 20
13.49379372019367
 10
109.0184570540293
 20
13.52090750456775
 10
108.9902752003778
 20
13.54692432412597
 10
108.961090751087
 20
13.57182301398212
 10
108.9309586462193
 20
13.59558312776847
 10
108.899933825837
 20
13.61818421911729
 10
108.8680712300027
 20
13.63960584166089
 10
108.8354257987787
 20
13.65982754903152
 10
108.8020524722275
 20
13.67882889486149
 10
108.7680061904116
 20
13.69658943278306
 10
108.7333418933933
 20
13.71308871642854
 10
108.6981142219866
 20
13.72830404827264
 10
108.6623722240465
 20
13.7421706566398
 10
108.6261599890958
 20
13.75458646980811
 10
108.5895214349116
 20
13.76544812406266
 10
108.5525004792705
 20
13.77465225568857
 10
108.5151410865134
 20
13.78209697970839
 10
108.4774918895842
 20
13.78782867345104
 10
108.4396101106955
 20
13.79216648631536
 10
108.4015538953369
 20
13.79545888852092
 10
108.3633813889985
 20
13.79805435028731
 10
108.3251507372514
 20
13.80030134189327
 10
107.8248479753772
 20
13.8003013418341
 10
107.7866217229358
 20
13.79797624508185
 10
107.7484529500602
 20
13.79531057913984
 10
107.7103991363161
 20
13.7919637748183
 10
107.6725177612693
 20
13.78759526292745
 10
107.6348663044854
 20
13.78186447427746
 10
107.5975016328916
 20
13.77445190005023
 10
107.5604733121129
 20
13.76528902471653
 10
107.523826110656
 20
13.75447224090111
 10
107.4876047130941
 20
13.7421008265965
 10
107.4518538039999
 20
13.72827405979522
 10
107.4166182310348
 20
13.7130899974125
 10
107.3819475081356
 20
13.69661175903126
 10
107.3478963888881
 20
13.678863233937
 10
107.3145199051246
 20
13.65986622812829
 10
107.2818730886773
 20
13.63964254760373
 10
107.2500109713786
 20
13.6182139983619
 10
107.2189885850608
 20
13.59560238640139
 10
107.1888609615563
 20
13.57182951772078
 10
107.1596831326973
 20
13.54691719831866
 10
107.1315101303159
 20
13.52088723419361
 10
107.1043962644769
 20
13.49376212302207
 10
107.0783792767885
 20
13.46558024020743
 10
107.0534803582757
 20
13.43639582175282
 10
107.0297199817701
 20
13.40626379191368
 10
107.0071186201029
 20
13.37523907494552
 10
106.985696746106
 20
13.3433765951038
 10
106.9654748326106
 20
13.310731276644
 10
106.9464733524484
 20
13.2773580438216
 10
106.9287127784506
 20
13.24331182089206
 10
106.9122135834491
 20
13.20864753211089
 10
106.8969984893216
 20
13.17341980346992
 10
106.8831322364504
 20
13.13767768855848
 10
106.8707168072393
 20
13.1014653020102
 10
106.8598554734785
 20
13.06482658746306
 10
106.8506515069584
 20
13.02780548855505
 10
106.8432067011806
 20
12.99044599536626
 10
106.8374746362891
 20
12.95279675426881
 10
106.8331362125974
 20
12.9149149781833
 10
106.8298430198056
 20
12.87685880085676
 10
106.8272466476136
 20
12.83868635603623
 10
106.8249986856514
 20
12.80045577749326
 10
106.8249986857214
 20
9.500154046835923
 10
106.8226729526981
 20
9.461928977038738
 10
106.8200067063194
 20
9.423761340284961
 10
106.8166594332302
 20
9.385708569618033
 10
106.8122906200754
 20
9.347828098081388
 10
106.8065597534994
 20
9.310177358718448
 10
106.7991473531442
 20
9.272813184984819
 10
106.7899848239988
 20
9.235785258345316
 10
106.7791685128653
 20
9.199138558267025
 10
106.7667976573398
 20
9.162917981809187
 10
106.7529714950177
 20
9.12716842603101
 10
106.7377880460055
 20
9.091934941486243
 10
106.7213104467817
 20
9.057266976669318
 10
106.7035626359518
 20
9.023218921932091
 10
106.6845664681043
 20
8.989845430368195
 10
106.6643437978275
 20
8.95720115507126
 10
106.6429164797097
 20
8.92534074913491
 10
106.6203063683389
 20
8.894318865652769
 10
106.5965353183035
 20
8.864190157718482
 10
106.5716251841919
 20
8.835009278425664
 10
106.5455978205922
 20
8.806830880867947
 10
106.5184757648788
 20
8.779708935308491
 10
106.4902972679998
 20
8.753681697414727
 10
106.4611162997534
 20
8.728771702981525
 10
106.4309875137795
 20
8.705000803917926
 10
106.3999655637178
 20
8.682390852132986
 10
106.368105103208
 20
8.660963699535741
 10
106.3354607858898
 20
8.640741198035241
 10
106.3020872654028
 20
8.621745199540526
 10
106.268039195387
 20
8.603997555960646
 10
106.2333712294818
 20
8.587520119204638
 10
106.1981377576794
 20
8.572336830923497
 10
106.1623882252629
 20
8.558510825852945
 10
106.1261676846547
 20
8.546140057717522
 10
106.0895210354838
 20
8.535323691322332
 10
106.0524931773792
 20
8.526160891472477
 10
106.0151290926314
 20
8.5187479226324
 10
105.9774784661527
 20
8.513016048716082
 10
105.939598127823
 20
8.508645838644959
 10
105.9015455056053
 20
8.505296876457753
 10
105.8633780274619
 20
8.50262874619316
 10
105.8251531214515
 20
8.500301031893291
 10
93.82484940588858
 20
8.500301031889712
 10
93.78662432573662
 20
8.502627736175732
 10
93.74845666601947
 20
8.505294896975732
 10
93.71040384717195
 20
8.50864297080372
 10
93.67252328962887
 20
8.513012414173694
 10
93.63487241382506
 20
8.518743683599666
 10
93.59750804279928
 20
8.526156208935312
 10
93.56047987399687
 20
8.535318619207195
 10
93.52383292034165
 20
8.546134661472777
 10
93.4876121126614
 20
8.558505193242892
 10
93.45186238178385
 20
8.572331072028362
 10
93.41662881100944
 20
8.587514370319389
 10
93.38196085374216
 20
8.603991983860012
 10
93.34791287478857
 20
8.621739944995972
 10
93.31453950015021
 20
8.640736367411172
 10
93.28189535582884
 20
8.660959364789531
 10
93.25003506782605
 20
8.682387050814952
 10
93.21901326214355
 20
8.704997539171337
 10
93.18888456478282
 20
8.728768943542602
 10
93.15970360174558
 20
8.753679377612662
 10
93.13152499903356
 20
8.779706955065407
 10
93.10440270058995
 20
8.8068291073109
 10
93.07837496744808
 20
8.8350075778933
 10
93.05346438019251
 20
8.864188424953033
 10
93.02969283784182
 20
8.894317024849128
 10
93.00708223941455
 20
8.9253387539406
 10
92.98565448392947
 20
8.957198988586476
 10
92.96543147040484
 20
8.989843105145787
 10
92.94643509785942
 20
9.023216479977547
 10
92.92868726531173
 20
9.05726448944079
 10
92.91220987178041
 20
9.091932509894533
 10
92.89702690439957
 20
9.127166179443122
 10
92.88320149323112
 20
9.162916042757645
 10
92.87083153220535
 20
9.199137002160702
 10
92.86001612368963
 20
9.235784111452536
 10
92.85085437005159
 20
9.272812424433382
 10
92.84344246963462
 20
9.310176912534423
 10
92.83771160160382
 20
9.347827866621756
 10
92.83334233180664
 20
9.385708469224375
 10
92.82999426068476
 20
9.423761308213457
 10
92.8273269886796
 20
9.461928971460174
 10
92.82500011625154
 20
9.500154046893275
 10
92.82500011623287
 20
12.80045577746849
 10
92.82267349117136
 20
12.83868184791985
 10
92.82000636213499
 20
12.87685044054674
 10
92.81665822514911
 20
12.9149040775247
 10
92.81228857623878
 20
12.95278528102924
 10
92.80655691142909
 20
12.99043657323589
 10
92.79914376983708
 20
13.02780108912019
 10
92.78998059209811
 20
13.06482927021059
 10
92.7791637213868
 20
13.10147636019493
 10
92.76679238867485
 20
13.13769768685723
 10
92.7529658249343
 20
13.17344857798148
 10
92.73778204089408
 20
13.20868419784933
 10
92.72130412690286
 20
13.24335503170217
 10
92.70355595810631
 20
13.27740631027081
 10
92.68455932681886
 20
13.31078298520391
 10
92.66433602535437
 20
13.34343000815014
 10
92.64290784602712
 20
13.37529233075821
 10
92.62029658115123
 20
13.40631490467675
 10
92.59652402304096
 20
13.43644268155446
 10
92.57161196401025
 20
13.46562061304002
 10
92.54558219637328
 20
13.49379365078211
 10
92.51845720527342
 20
13.52090746956862
 10
92.49027536972041
 20
13.5469243333823
 10
92.46109093973243
 20
13.57182307154328
 10
92.43095885358583
 20
13.59558323173942
 10
92.39993404955646
 20
13.61818436165853
 10
92.36807146592061
 20
13.63960600898843
 10
92.33542604095418
 20
13.65982772141697
 10
92.30205271293334
 20
13.67882904663197
 10
92.26800642013404
 20
13.69658953232125
 10
92.2333421008326
 20
13.71308872617263
 10
92.19811439429134
 20
13.72830392568658
 10
92.16237235113441
 20
13.74217037181142
 10
92.12616006744609
 20
13.7545860207633
 10
92.08952146769345
 20
13.76544753727624
 10
92.05250047634342
 20
13.77465158608421
 10
92.01514106434229
 20
13.78209630893986
 10
91.97749186688827
 20
13.78782806796227
 10
91.93961010270149
 20
13.79216599202228
 10
91.90155391346536
 20
13.79545853986048
 10
91.8633814408629
 20
13.79805417021749
 10
91.82515082665132
 20
13.80030134189327
 10
82.82484760284807
 20
13.80030134183369
 10
82.78662134640851
 20
13.79797632654763
 10
82.74845256917933
 20
13.79531073855623
 10
82.71039875037081
 20
13.79196400515416
 10
82.67251736919353
 20
13.78759555363611
 10
82.6348659048576
 20
13.7818648112968
 10
82.59750122448213
 20
13.77445226143174
 10
82.56047289909588
 20
13.76528937350515
 10
82.52382570540905
 20
13.75447254199122
 10
82.48760433621759
 20
13.74210104802213
 10
82.45185348431709
 20
13.72827417272993
 10
82.41661800524445
 20
13.71308997628478
 10
82.38194741092854
 20
13.69661158431548
 10
82.34789644188891
 20
13.67886289499903
 10
82.31452011630722
 20
13.65986572335134
 10
82.28187345236575
 20
13.6396418843883
 10
82.25001146824615
 20
13.61821319312582
 10
82.21898918213048
 20
13.59560146457978
 10
82.18886161220064
 20
13.5718285137661
 10
82.15968377663864
 20
13.54691615570068
 10
82.13151069362641
 20
13.5208862053994
 10
82.1043966602075
 20
13.49376116921261
 10
82.0783794222865
 20
13.46557942059186
 10
82.05348019407052
 20
13.43639518145078
 10
82.02971947251739
 20
13.4062633613096
 10
82.0071177545849
 20
13.37523886968858
 10
81.98569553723075
 20
13.34337661610792
 10
81.96547331741269
 20
13.3107315100879
 10
81.94647159208853
 20
13.27735846114871
 10
81.92871085821581
 20
13.24331237881062
 10
81.91221161275256
 20
13.20864817259385
 10
81.89699659995481
 20
13.17342045478506
 10
81.88313055329571
 20
13.13767828406752
 10
81.87071542412011
 20
13.10146579659149
 10
81.85985445244794
 20
13.06482695806377
 10
81.85065087829903
 20
13.02780573419118
 10
81.84320646359536
 20
12.99044613702509
 10
81.83747477006567
 20
12.95279682531323
 10
81.83313670052132
 20
12.91491500680171
 10
81.82984384896611
 20
12.87685880819044
 10
81.82724780940361
 20
12.83868635617934
 10
81.82500017585139
 20
12.80045577749326
 10
81.82500017583754
 20
9.500154046835467
 10
81.82267401572312
 20
9.461928991862166
 10
81.82000735977998
 20
9.423761369083095
 10
81.81665971217967
 20
9.385708610692539
 10
81.8122905770932
 20
9.347828148884772
 10
81.80655945869217
 20
9.310177415854056
 10
81.79914689242639
 20
9.272813244100515
 10
81.78998428002548
 20
9.235785312824267
 10
81.77916795318298
 20
9.199138598347435
 10
81.7667971342097
 20
9.162917994567957
 10
81.75297104541654
 20
9.127168395383748
 10
81.73778769178557
 20
9.09193484831249
 10
81.72131019958667
 20
9.057266802360594
 10
81.70356250292185
 20
9.023218652355927
 10
81.68456645219487
 20
8.989845056076894
 10
81.66434389780921
 20
8.957200671301869
 10
81.6429166901687
 20
8.925340155809237
 10
81.62030667967689
 20
8.894318167377397
 10
81.59653571673755
 20
8.864189363784726
 10
81.57162565175429
 20
8.835008402809616
 10
81.54559833513076
 20
8.806829942230463
 10
81.51847630036945
 20
8.77970795668974
 10
81.49029779912288
 20
8.753680701822814
 10
81.46111680501794
 20
8.728770710433963
 10
81.43098797554499
 20
8.704999831426766
 10
81.39996596819447
 20
8.68238991370481
 10
81.36810544045635
 20
8.660962806171673
 10
81.33546104982121
 20
8.640740357730948
 10
81.30208745377922
 20
8.621744417286206
 10
81.26803930982076
 20
8.603996833741042
 10
81.23337127543596
 20
8.587519455999029
 10
81.19813774424562
 20
8.572336223333252
 10
81.16238816189627
 20
8.558510272791366
 10
81.12616757875207
 20
8.546139560770811
 10
81.08952089233332
 20
8.535323254500482
 10
81.05249300015975
 20
8.526160521209298
 10
81.01512888245961
 20
8.518747626628423
 10
80.97747822323379
 20
8.513015822460728
 10
80.93959785234074
 20
8.508645675106322
 10
80.90154519769749
 20
8.505296770361887
 10
80.86337768722058
 20
8.502628694024124
 10
80.82515274885157
 20
8.500301031893291
 10
68.82484717071441
 20
8.500301031889485
 10
68.78662212995516
 20
8.502627737989996
 10
68.74845451410556
 20
8.505294912202067
 10
68.71040174807524
 20
8.508643022637214
 10
68.67252125677385
 20
8.513012537406964
 10
68.63487046511102
 20
8.518743924622832
 10
68.59750619969371
 20
8.52615662018448
 10
68.56047815179943
 20
8.535319230794852
 10
68.52383132229886
 20
8.546135480661027
 10
68.48761062988728
 20
8.558506205272401
 10
68.45186099326031
 20
8.572332240118392
 10
68.41662748401017
 20
8.587515636827149
 10
68.38195955417302
 20
8.603993289005082
 10
68.3479115777709
 20
8.621741239650212
 10
68.31453819049205
 20
8.640737613052849
 10
68.28189402802525
 20
8.660960533503292
 10
68.25003372605897
 20
8.682388125291844
 10
68.21901192028156
 20
8.70499851270879
 10
68.18888324638179
 20
8.728769820044446
 10
68.15970234004804
 20
8.75368017158911
 10
68.13152383696888
 20
8.779707691633076
 10
68.10440169007472
 20
8.806829821665925
 10
68.07837415525637
 20
8.835008305154815
 10
68.05346379491561
 20
8.864189191096008
 10
68.02969248940667
 20
8.894317846395381
 10
68.00708211908363
 20
8.925339637958792
 10
67.98565456430094
 20
8.957199932692105
 10
67.9654317054126
 20
8.989844097501174
 10
67.94643542277288
 20
9.023217499291881
 10
67.92868759673592
 20
9.057265504970068
 10
67.91221010765593
 20
9.091933481441607
 10
67.89702692633387
 20
9.127167058163983
 10
67.88320120569665
 20
9.162916785711187
 10
67.87083089493683
 20
9.199137584927255
 10
67.86001515264399
 20
9.235784528551633
 10
67.85085313740774
 20
9.272812689323755
 10
67.84344110309644
 20
9.310177057429909
 10
67.83771025039039
 20
9.347827932189167
 10
67.83334111823592
 20
9.38570848902966
 10
67.82999327649543
 20
9.423761307431083
 10
67.82732629503072
 20
9.461928966873122
 10
67.82499974365134
 20
9.500154046893275
 10
67.82499974370387
 20
12.80045577746831
 10
67.82267354507848
 20
12.83868186701121
 10
67.82000682490411
 20
12.87685047795407
 10
67.81665906163174
 20
12.91490413169679
 10
67.81228973371231
 20
12.9527853496393
 10
67.806558319597
 20
12.99043665318151
 10
67.79914534259501
 20
13.027801176391
 10
67.78998224656446
 20
13.06482935825078
 10
67.77916538943464
 20
13.10147643879876
 10
67.76679401708929
 20
13.13769774214834
 10
67.75296737541191
 20
13.1734485924129
 10
67.7377834898889
 20
13.20868415034808
 10
67.72130546111998
 20
13.24335490179676
 10
67.70355716939434
 20
13.27740608271983
 10
67.68456041189381
 20
13.31078265024137
 10
67.66433698580022
 20
13.34342956148548
 10
67.64290868829539
 20
13.37529177357623
 10
67.62029731656105
 20
13.40631424363769
 10
67.59652466777925
 20
13.43644192879393
 10
67.57161253913159
 20
13.46561978616906
 10
67.54558272780002
 20
13.49379277288712
 10
67.51845772345596
 20
13.52090656887191
 10
67.49027590430308
 20
13.54692343801552
 10
67.46109151558993
 20
13.5718222057511
 10
67.4309594907578
 20
13.59558241582608
 10
67.39993476324753
 20
13.61818361198787
 10
67.36807226650046
 20
13.63960533798387
 10
67.33542693395747
 20
13.65982713756154
 10
67.3020536990598
 20
13.67882855446829
 10
67.2680074952484
 20
13.69658913245151
 10
67.23334325596443
 20
13.71308841525866
 10
67.19811561586983
 20
13.72830369673675
 10
67.16237362494337
 20
13.74217021630691
 10
67.12616138189867
 20
13.75458592880383
 10
67.08952281393
 20
13.76544749746576
 10
67.05250184823114
 20
13.77465158553094
 10
67.0151424584692
 20
13.78209633331465
 10
66.97749328177883
 20
13.78782810368827
 10
66.93961153731198
 20
13.79216602828202
 10
66.90155536701263
 20
13.79545856854084
 10
66.86338291282504
 20
13.79805418590974
 10
66.82515231665149
 20
13.80030134189327
 10
66.32484769225515
 20
13.80030134183369
 10
66.2866214445678
 20
13.79797630511098
 10
66.24845267484136
 20
13.79531070048244
 10
66.21039886103663
 20
13.79196396004224
 10
66.1725174811146
 20
13.78759551588455
 10
66.134866013036
 20
13.78186480010352
 10
66.09750132281056
 20
13.7744523000748
 10
66.06047298202134
 20
13.76528948116434
 10
66.0238257690188
 20
13.7544727285635
 10
65.9876043782582
 20
13.74210131403962
 10
65.95185350419503
 20
13.72827450936003
 10
65.91661800400527
 20
13.71309036570107
 10
65.88194739126446
 20
13.69661200596562
 10
65.84789640847588
 20
13.6788633301688
 10
65.81452007585244
 20
13.6598661551894
 10
65.78187341360706
 20
13.63964229790621
 10
65.75001144195254
 20
13.61821357519805
 10
65.71898918110206
 20
13.59560180394369
 10
65.68886165126821
 20
13.57182880102197
 10
65.659683872664
 20
13.54691638331166
 10
65.63151086550239
 20
13.52088636769155
 10
65.60439692866089
 20
13.49376126237038
 10
65.57837980498539
 20
13.46557944290608
 10
65.55348070053492
 20
13.43639513376164
 10
65.52972010388214
 20
13.40626324704114
 10
65.50711850359959
 20
13.37523869484867
 10
65.48569638826005
 20
13.34337638928827
 10
65.46547424643609
 20
13.31073124246405
 10
65.44647256670021
 20
13.27735816648009
 10
65.4287118376252
 20
13.24331207344044
 10
65.41221254778361
 20
13.20864787544919
 10
65.39699743399136
 20
13.17342018707732
 10
65.38313123846172
 20
13.13767806389081
 10
65.37071593482972
 20
13.10146563423975
 10
65.35985478582017
 20
13.06482685587574
 10
65.35065105415789
 20
13.02780568655046
 10
65.3432065243519
 20
12.99044613039834
 10
65.33747476947223
 20
12.95279684207101
 10
65.333136683298
 20
12.91491503223789
 10
65.3298438486529
 20
12.87685883127543
 10
65.32724784836045
 20
12.83868636956009
 10
65.32500026525133
 20
12.80045577749326
 10
65.3250002652444
 20
7.000148980440719
 10
65.33130936663804
 20
6.94652805710394
 10
65.33808551699417
 20
6.893066660730949
 10
65.34579576527528
 20
6.839924318285563
 10
65.3549071604441
 20
6.787260556731553
 10
65.36588675146311
 20
6.735234903032732
 10
65.3792015872948
 20
6.684006884152878
 10
65.39531871690167
 20
6.633736027055802
 10
65.41468482808318
 20
6.584579818487227
 10
65.43738736125454
 20
6.536659748084389
 10
65.46320632790752
 20
6.490066500660852
 10
65.49191182095376
 20
6.444889767174045
 10
65.52327393330472
 20
6.401219238581425
 10
65.55706275787156
 20
6.359144605840405
 10
65.593048387566
 20
6.318755559908431
 10
65.63100391516491
 20
6.280144738635223
 10
65.6707714341361
 20
6.243472562108342
 10
65.71226204073878
 20
6.208967234717377
 10
65.75538983151854
 20
6.176859908157012
 10
65.80006890302058
 20
6.147381734121934
 10
65.84621335179043
 20
6.120763864306836
 10
65.89373727437316
 20
6.097237450406402
 10
65.94255367470771
 20
6.077024324689118
 10
65.99254003629801
 20
6.060043346651097
 10
66.04353136328416
 20
6.045851046586554
 10
66.09536016143363
 20
6.033982644833235
 10
66.14785893651379
 20
6.023973361728897
 10
66.20086019429186
 20
6.015358417611292
 10
66.25419644053522
 20
6.007673032818187
 10
66.30770018101123
 20
6.000452427687326
  0
ELLIPSE
  5
419B9
330
3DA3C
100
AcDbEntity
  8
10
100
AcDbEllipse
 10
2.000304656051524
 20
0.0006092642933098
 30
0.0
 11
1.414644379919874
 21
1.414644376680483
 31
0.0
210
0.0
220
0.0
230
1.0
 40
0.9996954599
 41
2.356346783853188
 42
3.926838524154459
  0
ELLIPSE
  5
419BA
330
3DA3C
100
AcDbEntity
  8
10
100
AcDbEllipse
 10
137.7369706654514
 20
0.0006092642933098
 30
0.0
 11
1.414644378415572
 21
-1.414644378414263
 31
0.0
210
0.0
220
0.0
230
1.0
 40
0.9996954599
 41
5.497939437056287
 42
7.068431177269406
  0
LWPOLYLINE
  5
419BB
330
3DA3C
100
AcDbEntity
  8
10
100
AcDbPolyline
 90
        4
 70
     1
 43
0.0
 10
121.3249982684514
 20
12.00030812489331
 10
121.3249982684514
 20
0.0003061578933128
 10
111.3250003546514
 20
0.0003061578933128
 10
111.3250003546514
 20
12.00030812489331
  0
LWPOLYLINE
  5
419BC
330
3DA3C
100
AcDbEntity
  8
10
100
AcDbPolyline
 90
        4
 70
     1
 43
0.0
 10
63.32499993745148
 20
12.00030812489331
 10
63.32499993745148
 20
0.0003061578933128
 10
53.32500004445146
 20
0.0003061578933128
 10
53.32500004445146
 20
12.00030812489331
  0
LWPOLYLINE
  5
419BD
330
3DA3C
100
AcDbEntity
  8
10
100
AcDbPolyline
 90
        4
 70
     1
 43
0.0
 10
35.57499957985158
 20
0.0003061578933128
 10
35.57499957985158
 20
12.00030812489331
 10
51.32499994945135
 20
12.00030812489331
 10
51.32499994945135
 20
0.0003061578933128
  0
LWPOLYLINE
  5
419BE
330
3DA3C
100
AcDbEntity
  8
10
100
AcDbPolyline
 90
        4
 70
     1
 43
0.0
 10
18.32499814925142
 20
0.0003061578933128
 10
18.32499814925142
 20
12.00030812489331
 10
34.07500026525133
 20
12.00030812489331
 10
34.07500026525133
 20
0.0003061578933128
  0
LWPOLYLINE
  5
419BF
330
3DA3C
100
AcDbEntity
  8
10
100
AcDbPolyline
 90
        2
 70
     0
 43
0.0
 10
16.32500154665138
 20
0.0003061578933128
 10
1.824998238651343
 20
0.0003061578933128
  0
LWPOLYLINE
  5
419C0
330
3DA3C
100
AcDbEntity
  8
10
100
AcDbPolyline
 90
        5
 70
     0
 43
0.0
 10
1.912300416851508
 20
11.91300222149329
 10
1.824998238651343
 20
12.00030812489331
 10
16.32500154665138
 20
12.00030812489331
 10
16.32500154665138
 20
0.0003061578933128
 10
16.2376993686513
 20
0.0876046106932975
  0
LWPOLYLINE
  5
419C1
330
3DA3C
100
AcDbEntity
  8
10
100
AcDbPolyline
 90
        3
 70
     0
 43
0.0
 10
1.912300416851508
 20
0.0876046106932975
 10
1.824998238651343
 20
0.0003061578933128
 10
1.824998238651343
 20
12.00030812489331
  0
LWPOLYLINE
  5
419C2
330
3DA3C
100
AcDbEntity
  8
10
100
AcDbPolyline
 90
        2
 70
     0
 43
0.0
 10
137.7375799312624
 20
-1.999695391919743
 10
1.999695388834195
 20
-1.999695391756809
  0
LWPOLYLINE
  5
419C3
330
3DA3C
100
AcDbEntity
  8
10
100
AcDbPolyline
 90
        4
 70
     1
 43
0.0
 10
137.1351004928514
 20
12.00030812489331
 10
123.3250023216514
 20
12.00030812489331
 10
123.3250023216514
 20
0.0003061578933128
 10
137.1351004928514
 20
0.0003061578933128
  0
ENDBLK
  5
3DA52
330
3DA3C
100
AcDbEntity
  8
0
100
AcDbBlockEnd
  0
BLOCK
  5
3DE68
330
3DE67
100
AcDbEntity
  8
0
100
AcDbBlockBegin
  2
*D9
 70
     1
 10
0.0
 20
0.0
 30
0.0
  3
*D9
  1

  0
LINE
  5
418F8
330
3DE67
100
AcDbEntity
  8
30
 62
     0
440
 16777216
370
    -2
100
AcDbLine
 10
174.3322714704934
 20
583.3769900213187
 30
0.0
 11
205.9491516118123
 21
583.3769900213187
 31
0.0
  0
LINE
  5
418F9
330
3DE67
100
AcDbEntity
  8
30
 62
     0
440
 16777216
370
    -2
100
AcDbLine
 10
174.3322714704934
 20
418.376990021319
 30
0.0
 11
205.9491516118123
 21
418.376990021319
 31
0.0
  0
LINE
  5
418FA
330
3DE67
100
AcDbEntity
  8
30
440
 16777216
370
    -2
100
AcDbLine
 10
205.4491516118123
 20
580.3769900213187
 30
0.0
 11
205.4491516118123
 21
421.3769900213192
 31
0.0
  0
INSERT
  5
418FB
330
3DE67
100
AcDbEntity
  8
30
440
 16777216
370
    -2
100
AcDbBlockReference
  2
_OPEN
 10
205.4491516118123
 20
583.3769900213187
 30
0.0
 41
3.0
 42
3.0
 43
3.0
 50
90.0
  0
INSERT
  5
418FC
330
3DE67
100
AcDbEntity
  8
30
440
 16777216
370
    -2
100
AcDbBlockReference
  2
_OPEN
 10
205.4491516118123
 20
418.376990021319
 30
0.0
 41
3.0
 42
3.0
 43
3.0
 50
270.0
  0
MTEXT
  5
418FD
330
3DE67
100
AcDbEntity
  8
30
440
 16777216
100
AcDbMText
 10
198.949151611812
 20
500.876990021319
 30
0.0
 40
7.0
 41
0.0
 46
0.0
 71
     5
 72
     1
  1
\A1;165
 11
0.0000000000000001
 21
1.0
 31
0.0
 73
     1
 44
1.0
 90
        3
 63
     9
421
 13158600
 45
1.25
441
        0
  0
POINT
  5
418FE
330
3DE67
100
AcDbEntity
  8
DEFPOINTS
 62
     0
440
 16777216
100
AcDbPoint
 10
173.3322714704934
 20
583.3769900213187
 30
0.0
  0
POINT
  5
418FF
330
3DE67
100
AcDbEntity
  8
DEFPOINTS
 62
     0
440
 16777216
100
AcDbPoint
 10
173.3322714704934
 20
418.376990021319
 30
0.0
  0
POINT
  5
41900
330
3DE67
100
AcDbEntity
  8
DEFPOINTS
 62
     0
440
 16777216
100
AcDbPoint
 10
205.4491516118123
 20
418.376990021319
 30
0.0
  0
ENDBLK
  5
3DE69
330
3DE67
100
AcDbEntity
  8
0
100
AcDbBlockEnd
  0
BLOCK
  5
3DE74
330
3DE73
100
AcDbEntity
  8
0
100
AcDbBlockBegin
  2
*D10
 70
     1
 10
0.0
 20
0.0
 30
0.0
  3
*D10
  1

  0
LINE
  5
416BE
330
3DE73
100
AcDbEntity
  8
30
 62
     0
440
 16777216
370
    -2
100
AcDbLine
 10
36.83227147049433
 20
526.876990021319
 30
0.0
 11
36.83227147049433
 21
536.2594722779463
 31
0.0
  0
LINE
  5
416BF
330
3DE73
100
AcDbEntity
  8
30
 62
     0
440
 16777216
370
    -2
100
AcDbLine
 10
134.8322714704936
 20
526.876990021319
 30
0.0
 11
134.8322714704936
 21
536.2594722779463
 31
0.0
  0
LINE
  5
416C0
330
3DE73
100
AcDbEntity
  8
30
440
 16777216
370
    -2
100
AcDbLine
 10
39.83227147049433
 20
535.7594722779463
 30
0.0
 11
131.8322714704936
 21
535.7594722779463
 31
0.0
  0
INSERT
  5
416C1
330
3DE73
100
AcDbEntity
  8
30
440
 16777216
370
    -2
100
AcDbBlockReference
  2
_OPEN
 10
36.83227147049433
 20
535.7594722779463
 30
0.0
 41
3.0
 42
3.0
 43
3.0
 50
180.0
  0
INSERT
  5
416C2
330
3DE73
100
AcDbEntity
  8
30
440
 16777216
370
    -2
100
AcDbBlockReference
  2
_OPEN
 10
134.8322714704936
 20
535.7594722779463
 30
0.0
 41
3.0
 42
3.0
 43
3.0
  0
MTEXT
  5
416C3
330
3DE73
100
AcDbEntity
  8
30
440
 16777216
100
AcDbMText
 10
101.5810205316409
 20
542.2594722779463
 30
0.0
 40
7.0
 41
0.0
 46
0.0
 71
     5
 72
     1
  1
\A1;98
 73
     1
 44
1.0
 90
        3
 63
     9
421
 13158600
 45
1.25
441
        0
  0
POINT
  5
416C4
330
3DE73
100
AcDbEntity
  8
DEFPOINTS
 62
     0
440
 16777216
100
AcDbPoint
 10
36.83227147049433
 20
525.876990021319
 30
0.0
  0
POINT
  5
416C5
330
3DE73
100
AcDbEntity
  8
DEFPOINTS
 62
     0
440
 16777216
100
AcDbPoint
 10
134.8322714704936
 20
525.876990021319
 30
0.0
  0
POINT
  5
416C6
330
3DE73
100
AcDbEntity
  8
DEFPOINTS
 62
     0
440
 16777216
100
AcDbPoint
 10
134.8322714704936
 20
535.7594722779463
 30
0.0
  0
ENDBLK
  5
3DE75
330
3DE73
100
AcDbEntity
  8
0
100
AcDbBlockEnd
  0
BLOCK
  5
3DE80
330
3DE7F
100
AcDbEntity
  8
0
100
AcDbBlockBegin
  2
*D11
 70
     1
 10
0.0
 20
0.0
 30
0.0
  3
*D11
  1

  0
LINE
  5
418BA
330
3DE7F
100
AcDbEntity
  8
30
 62
     0
440
 16777216
370
    -2
100
AcDbLine
 10
33.33227147049388
 20
396.6277967867577
 30
0.0
 11
33.33227147049388
 21
375.9227957329404
 31
0.0
  0
LINE
  5
418BB
330
3DE7F
100
AcDbEntity
  8
30
 62
     0
440
 16777216
370
    -2
100
AcDbLine
 10
173.3322714704934
 20
398.9640076983879
 30
0.0
 11
173.3322714704934
 21
375.9227957329404
 31
0.0
  0
LINE
  5
418BC
330
3DE7F
100
AcDbEntity
  8
30
440
 16777216
370
    -2
100
AcDbLine
 10
36.33227147049389
 20
376.4227957329404
 30
0.0
 11
170.3322714704934
 21
376.4227957329404
 31
0.0
  0
INSERT
  5
418BD
330
3DE7F
100
AcDbEntity
  8
30
440
 16777216
370
    -2
100
AcDbBlockReference
  2
_OPEN
 10
33.33227147049388
 20
376.4227957329404
 30
0.0
 41
3.0
 42
3.0
 43
3.0
 50
180.0
  0
INSERT
  5
418BE
330
3DE7F
100
AcDbEntity
  8
30
440
 16777216
370
    -2
100
AcDbBlockReference
  2
_OPEN
 10
173.3322714704934
 20
376.4227957329404
 30
0.0
 41
3.0
 42
3.0
 43
3.0
  0
MTEXT
  5
418BF
330
3DE7F
100
AcDbEntity
  8
30
440
 16777216
100
AcDbMText
 10
103.3322714704936
 20
382.9227957329404
 30
0.0
 40
7.0
 41
0.0
 46
0.0
 71
     5
 72
     1
  1
\A1;140
 73
     1
 44
1.0
 90
        3
 63
     9
421
 13158600
 45
1.25
441
        0
  0
POINT
  5
418C0
330
3DE7F
100
AcDbEntity
  8
DEFPOINTS
 62
     0
440
 16777216
100
AcDbPoint
 10
33.33227147049388
 20
397.6277967867578
 30
0.0
  0
POINT
  5
418C1
330
3DE7F
100
AcDbEntity
  8
DEFPOINTS
 62
     0
440
 16777216
100
AcDbPoint
 10
173.3322714704934
 20
399.9640076983879
 30
0.0
  0
POINT
  5
418C2
330
3DE7F
100
AcDbEntity
  8
DEFPOINTS
 62
     0
440
 16777216
100
AcDbPoint
 10
173.3322714704934
 20
376.4227957329404
 30
0.0
  0
ENDBLK
  5
3DE81
330
3DE7F
100
AcDbEntity
  8
0
100
AcDbBlockEnd
  0
BLOCK
  5
3DE8C
330
3DE8B
100
AcDbEntity
  8
0
100
AcDbBlockBegin
  2
*D12
 70
     1
 10
0.0
 20
0.0
 30
0.0
  3
*D12
  1

  0
LINE
  5
416D0
330
3DE8B
100
AcDbEntity
  8
30
 62
     0
370
    -2
100
AcDbLine
 10
50.83227147049409
 20
420.8769900213193
 30
0.0
 11
50.83227147049409
 21
380.5563806506303
 31
0.0
  0
LINE
  5
416D1
330
3DE8B
100
AcDbEntity
  8
30
 62
     0
370
    -2
100
AcDbLine
 10
85.83227147049388
 20
387.5627720542009
 30
0.0
 11
85.83227147049388
 21
380.5563806506303
 31
0.0
  0
LINE
  5
416D2
330
3DE8B
100
AcDbEntity
  8
30
370
    -2
100
AcDbLine
 10
53.8322714704941
 20
381.0563806506303
 30
0.0
 11
82.83227147049387
 21
381.0563806506303
 31
0.0
  0
INSERT
  5
416D3
330
3DE8B
100
AcDbEntity
  8
30
370
    -2
100
AcDbBlockReference
  2
_OPEN
 10
50.83227147049409
 20
381.0563806506303
 30
0.0
 41
3.0
 42
3.0
 43
3.0
 50
180.0
  0
INSERT
  5
416D4
330
3DE8B
100
AcDbEntity
  8
30
370
    -2
100
AcDbBlockReference
  2
_OPEN
 10
85.83227147049388
 20
381.0563806506303
 30
0.0
 41
3.0
 42
3.0
 43
3.0
  0
MTEXT
  5
416D5
330
3DE8B
100
AcDbEntity
  8
30
100
AcDbMText
 10
68.33227147049399
 20
387.5563806506304
 30
0.0
 40
7.0
 41
0.0
 46
0.0
 71
     5
 72
     1
  1
\A1;35
 73
     1
 44
1.0
 90
        3
 63
     9
421
 13158600
 45
1.25
441
        0
  0
POINT
  5
416D6
330
3DE8B
100
AcDbEntity
  8
DEFPOINTS
 62
     0
100
AcDbPoint
 10
50.83227147049409
 20
421.8769900213191
 30
0.0
  0
POINT
  5
416D7
330
3DE8B
100
AcDbEntity
  8
DEFPOINTS
 62
     0
100
AcDbPoint
 10
85.83227147049388
 20
388.5627720542009
 30
0.0
  0
POINT
  5
416D8
330
3DE8B
100
AcDbEntity
  8
DEFPOINTS
 62
     0
100
AcDbPoint
 10
85.83227147049388
 20
381.0563806506303
 30
0.0
  0
ENDBLK
  5
3DE8D
330
3DE8B
100
AcDbEntity
  8
0
100
AcDbBlockEnd
  0
BLOCK
  5
3DE98
330
3DE97
100
AcDbEntity
  8
0
100
AcDbBlockBegin
  2
*D13
 70
     1
 10
0.0
 20
0.0
 30
0.0
  3
*D13
  1

  0
LINE
  5
416D9
330
3DE97
100
AcDbEntity
  8
30
 62
     0
370
    -2
100
AcDbLine
 10
85.83227147049388
 20
389.4996909165346
 30
0.0
 11
85.83227147049388
 21
380.5563806506303
 31
0.0
  0
LINE
  5
416DA
330
3DE97
100
AcDbEntity
  8
30
 62
     0
370
    -2
100
AcDbLine
 10
120.8322714704939
 20
420.8769900213193
 30
0.0
 11
120.8322714704939
 21
380.5563806506303
 31
0.0
  0
LINE
  5
416DB
330
3DE97
100
AcDbEntity
  8
30
370
    -2
100
AcDbLine
 10
88.83227147049387
 20
381.0563806506303
 30
0.0
 11
117.8322714704939
 21
381.0563806506303
 31
0.0
  0
INSERT
  5
416DC
330
3DE97
100
AcDbEntity
  8
30
370
    -2
100
AcDbBlockReference
  2
_OPEN
 10
85.83227147049388
 20
381.0563806506303
 30
0.0
 41
3.0
 42
3.0
 43
3.0
 50
180.0
  0
INSERT
  5
416DD
330
3DE97
100
AcDbEntity
  8
30
370
    -2
100
AcDbBlockReference
  2
_OPEN
 10
120.8322714704939
 20
381.0563806506303
 30
0.0
 41
3.0
 42
3.0
 43
3.0
  0
MTEXT
  5
416DE
330
3DE97
100
AcDbEntity
  8
30
100
AcDbMText
 10
103.3322714704939
 20
387.5563806506304
 30
0.0
 40
7.0
 41
0.0
 46
0.0
 71
     5
 72
     1
  1
\A1;35
 73
     1
 44
1.0
 90
        3
 63
     9
421
 13158600
 45
1.25
441
        0
  0
POINT
  5
416DF
330
3DE97
100
AcDbEntity
  8
DEFPOINTS
 62
     0
100
AcDbPoint
 10
85.83227147049388
 20
390.4996909165346
 30
0.0
  0
POINT
  5
416E0
330
3DE97
100
AcDbEntity
  8
DEFPOINTS
 62
     0
100
AcDbPoint
 10
120.8322714704939
 20
421.8769900213191
 30
0.0
  0
POINT
  5
416E1
330
3DE97
100
AcDbEntity
  8
DEFPOINTS
 62
     0
100
AcDbPoint
 10
120.8322714704939
 20
381.0563806506303
 30
0.0
  0
ENDBLK
  5
3DE99
330
3DE97
100
AcDbEntity
  8
0
100
AcDbBlockEnd
  0
BLOCK
  5
3DEA4
330
3DEA3
100
AcDbEntity
  8
0
100
AcDbBlockBegin
  2
*D14
 70
     1
 10
0.0
 20
0.0
 30
0.0
  3
*D14
  1

  0
LINE
  5
416E2
330
3DEA3
100
AcDbEntity
  8
30
 62
     0
370
    -2
100
AcDbLine
 10
120.8322714704939
 20
420.8769900213193
 30
0.0
 11
120.8322714704939
 21
380.5563806506303
 31
0.0
  0
LINE
  5
416E3
330
3DEA3
100
AcDbEntity
  8
30
 62
     0
370
    -2
100
AcDbLine
 10
155.8322714704939
 20
420.8769900213193
 30
0.0
 11
155.8322714704939
 21
380.5563806506303
 31
0.0
  0
LINE
  5
416E4
330
3DEA3
100
AcDbEntity
  8
30
370
    -2
100
AcDbLine
 10
123.8322714704938
 20
381.0563806506303
 30
0.0
 11
152.8322714704938
 21
381.0563806506303
 31
0.0
  0
INSERT
  5
416E5
330
3DEA3
100
AcDbEntity
  8
30
370
    -2
100
AcDbBlockReference
  2
_OPEN
 10
120.8322714704939
 20
381.0563806506303
 30
0.0
 41
3.0
 42
3.0
 43
3.0
 50
180.0
  0
INSERT
  5
416E6
330
3DEA3
100
AcDbEntity
  8
30
370
    -2
100
AcDbBlockReference
  2
_OPEN
 10
155.8322714704939
 20
381.0563806506303
 30
0.0
 41
3.0
 42
3.0
 43
3.0
  0
MTEXT
  5
416E7
330
3DEA3
100
AcDbEntity
  8
30
100
AcDbMText
 10
138.3322714704938
 20
387.5563806506304
 30
0.0
 40
7.0
 41
0.0
 46
0.0
 71
     5
 72
     1
  1
\A1;35
 73
     1
 44
1.0
 90
        3
 63
     9
421
 13158600
 45
1.25
441
        0
  0
POINT
  5
416E8
330
3DEA3
100
AcDbEntity
  8
DEFPOINTS
 62
     0
100
AcDbPoint
 10
120.8322714704939
 20
421.8769900213191
 30
0.0
  0
POINT
  5
416E9
330
3DEA3
100
AcDbEntity
  8
DEFPOINTS
 62
     0
100
AcDbPoint
 10
155.8322714704939
 20
421.8769900213191
 30
0.0
  0
POINT
  5
416EA
330
3DEA3
100
AcDbEntity
  8
DEFPOINTS
 62
     0
100
AcDbPoint
 10
155.8322714704939
 20
381.0563806506303
 30
0.0
  0
ENDBLK
  5
3DEA5
330
3DEA3
100
AcDbEntity
  8
0
100
AcDbBlockEnd
  0
BLOCK
  5
3DEB0
330
3DEAF
100
AcDbEntity
  8
0
100
AcDbBlockBegin
  2
*D15
 70
     1
 10
0.0
 20
0.0
 30
0.0
  3
*D15
  1

  0
LINE
  5
416EB
330
3DEAF
100
AcDbEntity
  8
30
 62
     0
440
 16777216
370
    -2
100
AcDbLine
 10
74.83227147049433
 20
474.8769900213188
 30
0.0
 11
74.83227147049433
 21
459.1357048560638
 31
0.0
  0
LINE
  5
416EC
330
3DEAF
100
AcDbEntity
  8
30
 62
     0
440
 16777216
370
    -2
100
AcDbLine
 10
96.83227147049413
 20
474.8769900213188
 30
0.0
 11
96.83227147049413
 21
459.1357048560638
 31
0.0
  0
LINE
  5
416ED
330
3DEAF
100
AcDbEntity
  8
30
440
 16777216
370
    -2
100
AcDbLine
 10
77.83227147049434
 20
459.635704856064
 30
0.0
 11
93.83227147049408
 21
459.635704856064
 31
0.0
  0
LINE
  5
416EE
330
3DEAF
100
AcDbEntity
  8
30
440
 16777216
370
    -2
100
AcDbLine
 10
96.83227147049413
 20
459.635704856064
 30
0.0
 11
117.4989381371608
 21
459.635704856064
 31
0.0
  0
INSERT
  5
416EF
330
3DEAF
100
AcDbEntity
  8
30
440
 16777216
370
    -2
100
AcDbBlockReference
  2
_OPEN
 10
74.83227147049433
 20
459.635704856064
 30
0.0
 41
3.0
 42
3.0
 43
3.0
 50
180.0
  0
INSERT
  5
416F0
330
3DEAF
100
AcDbEntity
  8
30
440
 16777216
370
    -2
100
AcDbBlockReference
  2
_OPEN
 10
96.83227147049413
 20
459.635704856064
 30
0.0
 41
3.0
 42
3.0
 43
3.0
  0
MTEXT
  5
416F1
330
3DEAF
100
AcDbEntity
  8
30
440
 16777216
100
AcDbMText
 10
108.6656048038274
 20
466.1357048560638
 30
0.0
 40
7.0
 41
0.0
 46
0.0
 71
     5
 72
     1
  1
\A1;22
 73
     1
 44
1.0
 90
        3
 63
     9
421
 13158600
 45
1.25
441
        0
  0
POINT
  5
416F2
330
3DEAF
100
AcDbEntity
  8
DEFPOINTS
 62
     0
440
 16777216
100
AcDbPoint
 10
74.83227147049433
 20
475.876990021319
 30
0.0
  0
POINT
  5
416F3
330
3DEAF
100
AcDbEntity
  8
DEFPOINTS
 62
     0
440
 16777216
100
AcDbPoint
 10
96.83227147049413
 20
475.876990021319
 30
0.0
  0
POINT
  5
416F4
330
3DEAF
100
AcDbEntity
  8
DEFPOINTS
 62
     0
440
 16777216
100
AcDbPoint
 10
96.83227147049413
 20
459.635704856064
 30
0.0
  0
ENDBLK
  5
3DEB1
330
3DEAF
100
AcDbEntity
  8
0
100
AcDbBlockEnd
  0
BLOCK
  5
3DEBD
330
3DEBC
100
AcDbEntity
  8
0
100
AcDbBlockBegin
  2
*D16
 70
     1
 10
0.0
 20
0.0
 30
0.0
  3
*D16
  1

  0
LINE
  5
416F5
330
3DEBC
100
AcDbEntity
  8
30
 62
     0
440
 16777216
370
    -2
100
AcDbLine
 10
363.9118973798261
 20
196.3747936165006
 30
0.0
 11
418.5009019506884
 21
196.3747936165006
 31
0.0
  0
LINE
  5
416F6
330
3DEBC
100
AcDbEntity
  8
30
 62
     0
440
 16777216
370
    -2
100
AcDbLine
 10
363.9118973798261
 20
144.3747936165006
 30
0.0
 11
418.5009019506884
 21
144.3747936165006
 31
0.0
  0
LINE
  5
416F7
330
3DEBC
100
AcDbEntity
  8
30
440
 16777216
370
    -2
100
AcDbLine
 10
418.0009019506885
 20
193.3747936165006
 30
0.0
 11
418.0009019506885
 21
147.3747936165006
 31
0.0
  0
INSERT
  5
416F8
330
3DEBC
100
AcDbEntity
  8
30
440
 16777216
370
    -2
100
AcDbBlockReference
  2
_OPEN
 10
418.0009019506885
 20
196.3747936165006
 30
0.0
 41
3.0
 42
3.0
 43
3.0
 50
90.0
  0
INSERT
  5
416F9
330
3DEBC
100
AcDbEntity
  8
30
440
 16777216
370
    -2
100
AcDbBlockReference
  2
_OPEN
 10
418.0009019506885
 20
144.3747936165006
 30
0.0
 41
3.0
 42
3.0
 43
3.0
 50
270.0
  0
MTEXT
  5
416FA
330
3DEBC
100
AcDbEntity
  8
30
440
 16777216
100
AcDbMText
 10
408.0009019506885
 20
170.3747936165006
 30
0.0
 40
7.0
 41
0.0
 46
0.0
 71
     2
 72
     1
  1
\A1;52
 11
0.0000000000000001
 21
1.0
 31
0.0
 73
     1
 44
1.0
 90
        3
 63
     9
421
 13158600
 45
1.25
441
        0
  0
POINT
  5
416FB
330
3DEBC
100
AcDbEntity
  8
DEFPOINTS
 62
     0
440
 16777216
100
AcDbPoint
 10
362.9118973798262
 20
196.3747936165006
 30
0.0
  0
POINT
  5
416FC
330
3DEBC
100
AcDbEntity
  8
DEFPOINTS
 62
     0
440
 16777216
100
AcDbPoint
 10
362.9118973798262
 20
144.3747936165006
 30
0.0
  0
POINT
  5
416FD
330
3DEBC
100
AcDbEntity
  8
DEFPOINTS
 62
     0
440
 16777216
100
AcDbPoint
 10
418.0009019506885
 20
144.3747936165006
 30
0.0
  0
ENDBLK
  5
3DEBE
330
3DEBC
100
AcDbEntity
  8
0
100
AcDbBlockEnd
  0
BLOCK
  5
3DED5
330
3DED4
100
AcDbEntity
  8
0
100
AcDbBlockBegin
  2
*D17
 70
     1
 10
0.0
 20
0.0
 30
0.0
  3
*D17
  1

  0
LINE
  5
4196F
330
3DED4
100
AcDbEntity
  8
30
 62
     0
440
 16777216
370
    -2
100
AcDbLine
 10
263.9118973798261
 20
144.3747936165006
 30
0.0
 11
263.9118973798261
 21
41.86700743844767
 31
0.0
  0
LINE
  5
41970
330
3DED4
100
AcDbEntity
  8
30
 62
     0
440
 16777216
370
    -2
100
AcDbLine
 10
363.9118973798261
 20
144.3747936165006
 30
0.0
 11
363.9118973798261
 21
41.86700743844767
 31
0.0
  0
LINE
  5
41971
330
3DED4
100
AcDbEntity
  8
30
440
 16777216
370
    -2
100
AcDbLine
 10
266.9118973798261
 20
42.36700743844767
 30
0.0
 11
360.9118973798262
 21
42.36700743844767
 31
0.0
  0
INSERT
  5
41972
330
3DED4
100
AcDbEntity
  8
30
440
 16777216
370
    -2
100
AcDbBlockReference
  2
_OPEN
 10
263.9118973798261
 20
42.36700743844767
 30
0.0
 41
3.0
 42
3.0
 43
3.0
 50
180.0
  0
INSERT
  5
41973
330
3DED4
100
AcDbEntity
  8
30
440
 16777216
370
    -2
100
AcDbBlockReference
  2
_OPEN
 10
363.9118973798261
 20
42.36700743844767
 30
0.0
 41
3.0
 42
3.0
 43
3.0
  0
MTEXT
  5
41974
330
3DED4
100
AcDbEntity
  8
30
440
 16777216
100
AcDbMText
 10
318.6700381282101
 20
52.36700743844767
 30
0.0
 40
7.0
 41
0.0
 46
0.0
 71
     2
 72
     1
  1
\A1;100
 73
     1
 44
1.0
 90
        3
 63
     9
421
 13158600
 45
1.25
441
        0
  0
POINT
  5
41975
330
3DED4
100
AcDbEntity
  8
DEFPOINTS
 62
     0
440
 16777216
100
AcDbPoint
 10
263.9118973798261
 20
145.3747936165006
 30
0.0
  0
POINT
  5
41976
330
3DED4
100
AcDbEntity
  8
DEFPOINTS
 62
     0
440
 16777216
100
AcDbPoint
 10
363.9118973798261
 20
145.3747936165006
 30
0.0
  0
POINT
  5
41977
330
3DED4
100
AcDbEntity
  8
DEFPOINTS
 62
     0
440
 16777216
100
AcDbPoint
 10
363.9118973798261
 20
42.36700743844767
 30
0.0
  0
ENDBLK
  5
3DED6
330
3DED4
100
AcDbEntity
  8
0
100
AcDbBlockEnd
  0
BLOCK
  5
3DEE1
330
3DEE0
100
AcDbEntity
  8
0
100
AcDbBlockBegin
  2
*D18
 70
     1
 10
0.0
 20
0.0
 30
0.0
  3
*D18
  1

  0
LINE
  5
41710
330
3DEE0
100
AcDbEntity
  8
30
  6
Continuous
 62
     0
440
 16777216
370
    -2
100
AcDbLine
 10
365.0679074726513
 20
197.4608474220684
 30
0.0
 11
372.7760078347629
 21
204.9188422373938
 31
0.0
  0
LINE
  5
41711
330
3DEE0
100
AcDbEntity
  8
30
  6
Continuous
 62
     0
440
 16777216
370
    -2
100
AcDbLine
 10
372.7760078347629
 20
204.9188422373938
 30
0.0
 11
384.1093411680963
 21
204.9188422373938
 31
0.0
  0
LINE
  5
41712
330
3DEE0
100
AcDbEntity
  8
30
  6
Continuous
 62
     0
440
 16777216
370
    -2
100
AcDbLine
 10
362.9118973798262
 20
195.3747936165008
 30
0.0
 11
363.6305674107747
 21
196.0701448850302
 31
0.0
  0
INSERT
  5
41713
330
3DEE0
100
AcDbEntity
  8
30
  6
Continuous
 62
     0
440
 16777216
370
    -2
100
AcDbBlockReference
  2
_OPEN
 10
363.6305674107747
 20
196.0701448850302
 30
0.0
 41
2.0
 42
2.0
 43
2.0
 50
224.0552153824594
  0
MTEXT
  5
41714
330
3DEE0
100
AcDbEntity
  8
30
  6
Continuous
 62
     0
440
 16777216
100
AcDbMText
 10
374.7760078347629
 20
213.9188422373938
 30
0.0
 40
7.0
 41
0.0
 46
0.0
 71
     1
 72
     1
  1
\A1;R1
 73
     1
 44
1.0
  0
POINT
  5
41715
330
3DEE0
100
AcDbEntity
  8
DEFPOINTS
  6
Continuous
 62
     0
440
 16777216
100
AcDbPoint
 10
363.6305674107747
 20
196.0701448850302
 30
0.0
  0
POINT
  5
41716
330
3DEE0
100
AcDbEntity
  8
DEFPOINTS
  6
Continuous
 62
     0
440
 16777216
100
AcDbPoint
 10
362.9118973798262
 20
195.3747936165008
 30
0.0
  0
ENDBLK
  5
3DEE2
330
3DEE0
100
AcDbEntity
  8
0
100
AcDbBlockEnd
  0
BLOCK
  5
3DEEB
330
3DEEA
100
AcDbEntity
  8
0
100
AcDbBlockBegin
  2
*D19
 70
     1
 10
0.0
 20
0.0
 30
0.0
  3
*D19
  1

  0
LINE
  5
41717
330
3DEEA
100
AcDbEntity
  8
30
  6
Continuous
 62
     0
440
 16777216
370
    -2
100
AcDbLine
 10
134.9941863517119
 20
204.1522692393582
 30
0.0
 11
133.6589523041607
 21
202.6632594884633
 31
0.0
  0
LINE
  5
41718
330
3DEEA
100
AcDbEntity
  8
30
  6
Continuous
 62
     0
440
 16777216
370
    -2
100
AcDbLine
 10
141.670356589477
 20
211.5973179938421
 30
0.0
 11
177.1629566452521
 21
251.1775156862108
 31
0.0
  0
LINE
  5
41719
330
3DEEA
100
AcDbEntity
  8
30
  6
Continuous
 62
     0
440
 16777216
370
    -2
100
AcDbLine
 10
177.1629566452521
 20
251.1775156862108
 30
0.0
 11
190.8296233119188
 21
251.1775156862108
 31
0.0
  0
LINE
  5
4171A
330
3DEEA
100
AcDbEntity
  8
30
  6
Continuous
 62
     0
440
 16777216
370
    -2
100
AcDbLine
 10
136.3294203992632
 20
205.641278990253
 30
0.0
 11
140.3351225419257
 21
210.1083082429473
 31
0.0
  0
INSERT
  5
4171B
330
3DEEA
100
AcDbEntity
  8
30
  6
Continuous
 62
     0
440
 16777216
370
    -2
100
AcDbBlockReference
  2
_OPEN
 10
136.3294203992632
 20
205.641278990253
 30
0.0
 41
2.0
 42
2.0
 43
2.0
 50
48.11658909215797
  0
INSERT
  5
4171C
330
3DEEA
100
AcDbEntity
  8
30
  6
Continuous
 62
     0
440
 16777216
370
    -2
100
AcDbBlockReference
  2
_OPEN
 10
140.3351225419257
 20
210.1083082429473
 30
0.0
 41
2.0
 42
2.0
 43
2.0
 50
228.1165890921581
  0
MTEXT
  5
4171D
330
3DEEA
100
AcDbEntity
  8
30
  6
Continuous
 62
     0
440
 16777216
100
AcDbMText
 10
179.1629566452524
 20
260.1775156862105
 30
0.0
 40
7.0
 41
0.0
 46
0.0
 71
     1
 72
     1
  1
\A1;∅6
 73
     1
 44
1.0
  0
POINT
  5
4171E
330
3DEEA
100
AcDbEntity
  8
DEFPOINTS
  6
Continuous
 62
     0
440
 16777216
100
AcDbPoint
 10
140.3351225419257
 20
210.1083082429473
 30
0.0
  0
POINT
  5
4171F
330
3DEEA
100
AcDbEntity
  8
DEFPOINTS
  6
Continuous
 62
     0
440
 16777216
100
AcDbPoint
 10
136.3294203992632
 20
205.641278990253
 30
0.0
  0
ENDBLK
  5
3DEEC
330
3DEEA
100
AcDbEntity
  8
0
100
AcDbBlockEnd
  0
BLOCK
  5
3DEF5
330
3DEF4
100
AcDbEntity
  8
0
100
AcDbBlockBegin
  2
*D20
 70
     1
 10
0.0
 20
0.0
 30
0.0
  3
*D20
  1

  0
LINE
  5
41845
330
3DEF4
100
AcDbEntity
  8
30
 62
     0
440
 16777216
370
    -2
100
AcDbLine
 10
68.33227147049388
 20
131.8747936165006
 30
0.0
 11
68.33227147049388
 21
44.22703645972499
 31
0.0
  0
LINE
  5
41846
330
3DEF4
100
AcDbEntity
  8
30
 62
     0
440
 16777216
370
    -2
100
AcDbLine
 10
85.83227147049388
 20
66.51154291330056
 30
0.0
 11
85.83227147049388
 21
44.22703645972499
 31
0.0
  0
LINE
  5
41847
330
3DEF4
100
AcDbEntity
  8
30
440
 16777216
370
    -2
100
AcDbLine
 10
82.83227147049387
 20
44.727036459725
 30
0.0
 11
71.33227147049388
 21
44.727036459725
 31
0.0
  0
LINE
  5
41848
330
3DEF4
100
AcDbEntity
  8
30
440
 16777216
370
    -2
100
AcDbLine
 10
68.33227147049388
 20
44.727036459725
 30
0.0
 11
40.66560480382721
 21
44.727036459725
 31
0.0
  0
INSERT
  5
41849
330
3DEF4
100
AcDbEntity
  8
30
440
 16777216
370
    -2
100
AcDbBlockReference
  2
_OPEN
 10
85.83227147049388
 20
44.727036459725
 30
0.0
 41
3.0
 42
3.0
 43
3.0
  0
INSERT
  5
4184A
330
3DEF4
100
AcDbEntity
  8
30
440
 16777216
370
    -2
100
AcDbBlockReference
  2
_OPEN
 10
68.33227147049388
 20
44.727036459725
 30
0.0
 41
3.0
 42
3.0
 43
3.0
 50
180.0
  0
MTEXT
  5
4184B
330
3DEF4
100
AcDbEntity
  8
30
440
 16777216
100
AcDbMText
 10
52.99893813716055
 20
54.72703645972501
 30
0.0
 40
7.0
 41
0.0
 46
0.0
 71
     2
 72
     1
  1
\A1;17.5
 73
     1
 44
1.0
 90
        3
 63
     9
421
 13158600
 45
1.25
441
        0
  0
POINT
  5
4184C
330
3DEF4
100
AcDbEntity
  8
DEFPOINTS
 62
     0
440
 16777216
100
AcDbPoint
 10
68.33227147049388
 20
132.8747936165006
 30
0.0
  0
POINT
  5
4184D
330
3DEF4
100
AcDbEntity
  8
DEFPOINTS
 62
     0
440
 16777216
100
AcDbPoint
 10
85.83227147049388
 20
67.51154291330056
 30
0.0
  0
POINT
  5
4184E
330
3DEF4
100
AcDbEntity
  8
DEFPOINTS
 62
     0
440
 16777216
100
AcDbPoint
 10
85.83227147049388
 20
44.727036459725
 30
0.0
  0
ENDBLK
  5
3DEF6
330
3DEF4
100
AcDbEntity
  8
0
100
AcDbBlockEnd
  0
BLOCK
  5
3DF01
330
3DF00
100
AcDbEntity
  8
0
100
AcDbBlockBegin
  2
*D21
 70
     1
 10
0.0
 20
0.0
 30
0.0
  3
*D21
  1

  0
LINE
  5
41901
330
3DF00
100
AcDbEntity
  8
30
 62
     0
440
 16777216
370
    -2
100
AcDbLine
 10
68.33227147049388
 20
131.8747936165006
 30
0.0
 11
68.33227147049388
 21
21.65862694269754
 31
0.0
  0
LINE
  5
41902
330
3DF00
100
AcDbEntity
  8
30
 62
     0
440
 16777216
370
    -2
100
AcDbLine
 10
138.3322714704938
 20
131.8747936165006
 30
0.0
 11
138.3322714704938
 21
21.65862694269754
 31
0.0
  0
LINE
  5
41903
330
3DF00
100
AcDbEntity
  8
30
440
 16777216
370
    -2
100
AcDbLine
 10
71.33227147049388
 20
22.15862694269754
 30
0.0
 11
135.3322714704938
 21
22.15862694269754
 31
0.0
  0
INSERT
  5
41904
330
3DF00
100
AcDbEntity
  8
30
440
 16777216
370
    -2
100
AcDbBlockReference
  2
_OPEN
 10
68.33227147049388
 20
22.15862694269754
 30
0.0
 41
3.0
 42
3.0
 43
3.0
 50
180.0
  0
INSERT
  5
41905
330
3DF00
100
AcDbEntity
  8
30
440
 16777216
370
    -2
100
AcDbBlockReference
  2
_OPEN
 10
138.3322714704938
 20
22.15862694269754
 30
0.0
 41
3.0
 42
3.0
 43
3.0
  0
MTEXT
  5
41906
330
3DF00
100
AcDbEntity
  8
30
440
 16777216
100
AcDbMText
 10
105.1165757801884
 20
32.15862694269754
 30
0.0
 40
7.0
 41
0.0
 46
0.0
 71
     2
 72
     1
  1
\A1;70
 73
     1
 44
1.0
 90
        3
 63
     9
421
 13158600
 45
1.25
441
        0
  0
POINT
  5
41907
330
3DF00
100
AcDbEntity
  8
DEFPOINTS
 62
     0
440
 16777216
100
AcDbPoint
 10
68.33227147049388
 20
132.8747936165006
 30
0.0
  0
POINT
  5
41908
330
3DF00
100
AcDbEntity
  8
DEFPOINTS
 62
     0
440
 16777216
100
AcDbPoint
 10
138.3322714704938
 20
132.8747936165006
 30
0.0
  0
POINT
  5
41909
330
3DF00
100
AcDbEntity
  8
DEFPOINTS
 62
     0
440
 16777216
100
AcDbPoint
 10
138.3322714704938
 20
22.15862694269754
 30
0.0
  0
ENDBLK
  5
3DF02
330
3DF00
100
AcDbEntity
  8
0
100
AcDbBlockEnd
  0
BLOCK
  5
3DF0D
330
3DF0C
100
AcDbEntity
  8
0
100
AcDbBlockBegin
  2
*D22
 70
     1
 10
0.0
 20
0.0
 30
0.0
  3
*D22
  1

  0
LINE
  5
41858
330
3DF0C
100
AcDbEntity
  8
30
 62
     0
440
 16777216
370
    -2
100
AcDbLine
 10
130.8322714704938
 20
144.8747936165006
 30
0.0
 11
130.8322714704938
 21
43.96581976332504
 31
0.0
  0
LINE
  5
41859
330
3DF0C
100
AcDbEntity
  8
30
 62
     0
440
 16777216
370
    -2
100
AcDbLine
 10
145.8322714704939
 20
144.8747936165006
 30
0.0
 11
145.8322714704939
 21
43.96581976332504
 31
0.0
  0
LINE
  5
4185A
330
3DF0C
100
AcDbEntity
  8
30
440
 16777216
370
    -2
100
AcDbLine
 10
142.8322714704939
 20
44.46581976332504
 30
0.0
 11
133.8322714704939
 21
44.46581976332504
 31
0.0
  0
LINE
  5
4185B
330
3DF0C
100
AcDbEntity
  8
30
440
 16777216
370
    -2
100
AcDbLine
 10
130.8322714704938
 20
44.46581976332504
 30
0.0
 11
112.4989381371605
 21
44.46581976332504
 31
0.0
  0
INSERT
  5
4185C
330
3DF0C
100
AcDbEntity
  8
30
440
 16777216
370
    -2
100
AcDbBlockReference
  2
_OPEN
 10
145.8322714704939
 20
44.46581976332504
 30
0.0
 41
3.0
 42
3.0
 43
3.0
  0
INSERT
  5
4185D
330
3DF0C
100
AcDbEntity
  8
30
440
 16777216
370
    -2
100
AcDbBlockReference
  2
_OPEN
 10
130.8322714704938
 20
44.46581976332504
 30
0.0
 41
3.0
 42
3.0
 43
3.0
 50
180.0
  0
MTEXT
  5
4185E
330
3DF0C
100
AcDbEntity
  8
30
440
 16777216
100
AcDbMText
 10
120.1656048038272
 20
54.46581976332504
 30
0.0
 40
7.0
 41
0.0
 46
0.0
 71
     2
 72
     1
  1
\A1;15
 73
     1
 44
1.0
 90
        3
 63
     9
421
 13158600
 45
1.25
441
        0
  0
POINT
  5
4185F
330
3DF0C
100
AcDbEntity
  8
DEFPOINTS
 62
     0
440
 16777216
100
AcDbPoint
 10
130.8322714704938
 20
145.8747936165006
 30
0.0
  0
POINT
  5
41860
330
3DF0C
100
AcDbEntity
  8
DEFPOINTS
 62
     0
440
 16777216
100
AcDbPoint
 10
145.8322714704939
 20
145.8747936165006
 30
0.0
  0
POINT
  5
41861
330
3DF0C
100
AcDbEntity
  8
DEFPOINTS
 62
     0
440
 16777216
100
AcDbPoint
 10
145.8322714704939
 20
44.46581976332504
 30
0.0
  0
ENDBLK
  5
3DF0E
330
3DF0C
100
AcDbEntity
  8
0
100
AcDbBlockEnd
  0
BLOCK
  5
3DF1A
330
3DF19
100
AcDbEntity
  8
0
100
AcDbBlockBegin
  2
*D23
 70
     1
 10
0.0
 20
0.0
 30
0.0
  3
*D23
  1

  0
LINE
  5
4173D
330
3DF19
100
AcDbEntity
  8
30
 62
     0
440
 16777216
370
    -2
100
AcDbLine
 10
146.3322714704939
 20
145.3747936165006
 30
0.0
 11
188.6179693493107
 21
145.3747936165006
 31
0.0
  0
LINE
  5
4173E
330
3DF19
100
AcDbEntity
  8
30
 62
     0
440
 16777216
370
    -2
100
AcDbLine
 10
146.3322714704939
 20
195.3747936165006
 30
0.0
 11
188.6179693493107
 21
195.3747936165006
 31
0.0
  0
LINE
  5
4173F
330
3DF19
100
AcDbEntity
  8
30
440
 16777216
370
    -2
100
AcDbLine
 10
188.1179693493107
 20
148.3747936165006
 30
0.0
 11
188.1179693493107
 21
192.3747936165006
 31
0.0
  0
INSERT
  5
41740
330
3DF19
100
AcDbEntity
  8
30
440
 16777216
370
    -2
100
AcDbBlockReference
  2
_OPEN
 10
188.1179693493107
 20
145.3747936165006
 30
0.0
 41
3.0
 42
3.0
 43
3.0
 50
270.0
  0
INSERT
  5
41741
330
3DF19
100
AcDbEntity
  8
30
440
 16777216
370
    -2
100
AcDbBlockReference
  2
_OPEN
 10
188.1179693493107
 20
195.3747936165006
 30
0.0
 41
3.0
 42
3.0
 43
3.0
 50
90.0
  0
MTEXT
  5
41742
330
3DF19
100
AcDbEntity
  8
30
440
 16777216
100
AcDbMText
 10
178.1179693493107
 20
170.3747936165006
 30
0.0
 40
7.0
 41
0.0
 46
0.0
 71
     2
 72
     1
  1
\A1;50
 11
0.0000000000000001
 21
1.0
 31
0.0
 73
     1
 44
1.0
 90
        3
 63
     9
421
 13158600
 45
1.25
441
        0
  0
POINT
  5
41743
330
3DF19
100
AcDbEntity
  8
DEFPOINTS
 62
     0
440
 16777216
100
AcDbPoint
 10
145.3322714704938
 20
145.3747936165006
 30
0.0
  0
POINT
  5
41744
330
3DF19
100
AcDbEntity
  8
DEFPOINTS
 62
     0
440
 16777216
100
AcDbPoint
 10
145.3322714704938
 20
195.3747936165006
 30
0.0
  0
POINT
  5
41745
330
3DF19
100
AcDbEntity
  8
DEFPOINTS
 62
     0
440
 16777216
100
AcDbPoint
 10
188.1179693493107
 20
195.3747936165006
 30
0.0
  0
ENDBLK
  5
3DF1B
330
3DF19
100
AcDbEntity
  8
0
100
AcDbBlockEnd
  0
BLOCK
  5
3DF26
330
3DF25
100
AcDbEntity
  8
0
100
AcDbBlockBegin
  2
*D24
 70
     1
 10
0.0
 20
0.0
 30
0.0
  3
*D24
  1

  0
LINE
  5
41746
330
3DF25
100
AcDbEntity
  8
30
 62
     0
440
 16777216
370
    -2
100
AcDbLine
 10
139.3322714704938
 20
207.8747936165006
 30
0.0
 11
208.7778667978808
 21
207.8747936165006
 31
0.0
  0
LINE
  5
41747
330
3DF25
100
AcDbEntity
  8
30
 62
     0
440
 16777216
370
    -2
100
AcDbLine
 10
139.3322714704938
 20
132.8747936165006
 30
0.0
 11
208.7778667978807
 21
132.8747936165004
 31
0.0
  0
LINE
  5
41748
330
3DF25
100
AcDbEntity
  8
30
440
 16777216
370
    -2
100
AcDbLine
 10
208.2778667978808
 20
204.8747936165006
 30
0.0
 11
208.2778667978808
 21
135.8747936165004
 31
0.0
  0
INSERT
  5
41749
330
3DF25
100
AcDbEntity
  8
30
440
 16777216
370
    -2
100
AcDbBlockReference
  2
_OPEN
 10
208.2778667978808
 20
207.8747936165006
 30
0.0
 41
3.0
 42
3.0
 43
3.0
 50
90.0
  0
INSERT
  5
4174A
330
3DF25
100
AcDbEntity
  8
30
440
 16777216
370
    -2
100
AcDbBlockReference
  2
_OPEN
 10
208.2778667978808
 20
132.8747936165004
 30
0.0
 41
3.0
 42
3.0
 43
3.0
 50
270.0
  0
MTEXT
  5
4174B
330
3DF25
100
AcDbEntity
  8
30
440
 16777216
100
AcDbMText
 10
198.2778667978807
 20
170.3747936165006
 30
0.0
 40
7.0
 41
0.0
 46
0.0
 71
     2
 72
     1
  1
\A1;75
 11
0.0000000000000001
 21
1.0
 31
0.0
 73
     1
 44
1.0
 90
        3
 63
     9
421
 13158600
 45
1.25
441
        0
  0
POINT
  5
4174C
330
3DF25
100
AcDbEntity
  8
DEFPOINTS
 62
     0
440
 16777216
100
AcDbPoint
 10
138.3322714704938
 20
207.8747936165006
 30
0.0
  0
POINT
  5
4174D
330
3DF25
100
AcDbEntity
  8
DEFPOINTS
 62
     0
440
 16777216
100
AcDbPoint
 10
138.3322714704938
 20
132.8747936165006
 30
0.0
  0
POINT
  5
4174E
330
3DF25
100
AcDbEntity
  8
DEFPOINTS
 62
     0
440
 16777216
100
AcDbPoint
 10
208.2778667978808
 20
132.8747936165004
 30
0.0
  0
ENDBLK
  5
3DF27
330
3DF25
100
AcDbEntity
  8
0
100
AcDbBlockEnd
  0
BLOCK
  5
3DF32
330
3DF31
100
AcDbEntity
  8
0
100
AcDbBlockBegin
  2
*D25
 70
     1
 10
0.0
 20
0.0
 30
0.0
  3
*D25
  1

  0
LINE
  5
41875
330
3DF31
100
AcDbEntity
  8
30
 62
     0
440
 16777216
370
    -2
100
AcDbLine
 10
518.532671165819
 20
194.3747936165006
 30
0.0
 11
613.1681879929331
 21
194.3747936165005
 31
0.0
  0
LINE
  5
41876
330
3DF31
100
AcDbEntity
  8
30
 62
     0
440
 16777216
370
    -2
100
AcDbLine
 10
518.532671165819
 20
146.3747936165006
 30
0.0
 11
613.1681879929331
 21
146.3747936165004
 31
0.0
  0
LINE
  5
41877
330
3DF31
100
AcDbEntity
  8
30
440
 16777216
370
    -2
100
AcDbLine
 10
612.6681879929328
 20
191.3747936165006
 30
0.0
 11
612.6681879929328
 21
149.3747936165005
 31
0.0
  0
INSERT
  5
41878
330
3DF31
100
AcDbEntity
  8
30
440
 16777216
370
    -2
100
AcDbBlockReference
  2
_OPEN
 10
612.6681879929328
 20
194.3747936165005
 30
0.0
 41
3.0
 42
3.0
 43
3.0
 50
90.0
  0
INSERT
  5
41879
330
3DF31
100
AcDbEntity
  8
30
440
 16777216
370
    -2
100
AcDbBlockReference
  2
_OPEN
 10
612.6681879929328
 20
146.3747936165004
 30
0.0
 41
3.0
 42
3.0
 43
3.0
 50
270.0
  0
MTEXT
  5
4187A
330
3DF31
100
AcDbEntity
  8
30
440
 16777216
100
AcDbMText
 10
602.6681879929331
 20
169.6383890570952
 30
0.0
 40
7.0
 41
0.0
 46
0.0
 71
     2
 72
     1
  1
\A1;48
 11
0.0000000000000001
 21
1.0
 31
0.0
 73
     1
 44
1.0
 90
        3
 63
     9
421
 13158600
 45
1.25
441
        0
  0
POINT
  5
4187B
330
3DF31
100
AcDbEntity
  8
DEFPOINTS
 62
     0
440
 16777216
100
AcDbPoint
 10
517.5326711658191
 20
194.3747936165006
 30
0.0
  0
POINT
  5
4187C
330
3DF31
100
AcDbEntity
  8
DEFPOINTS
 62
     0
440
 16777216
100
AcDbPoint
 10
517.5326711658191
 20
146.3747936165006
 30
0.0
  0
POINT
  5
4187D
330
3DF31
100
AcDbEntity
  8
DEFPOINTS
 62
     0
440
 16777216
100
AcDbPoint
 10
612.6681879929328
 20
146.3747936165004
 30
0.0
  0
ENDBLK
  5
3DF33
330
3DF31
100
AcDbEntity
  8
0
100
AcDbBlockEnd
  0
BLOCK
  5
3DF4A
330
3DF49
100
AcDbEntity
  8
0
100
AcDbBlockBegin
  2
*D26
 70
     1
 10
0.0
 20
0.0
 30
0.0
  3
*D26
  1

  0
LINE
  5
41761
330
3DF49
100
AcDbEntity
  8
30
  6
Continuous
 62
     0
440
 16777216
370
    -2
100
AcDbLine
 10
519.6886812586415
 20
195.4608474220686
 30
0.0
 11
527.3967816207524
 21
202.9188422374034
 31
0.0
  0
LINE
  5
41762
330
3DF49
100
AcDbEntity
  8
30
  6
Continuous
 62
     0
440
 16777216
370
    -2
100
AcDbLine
 10
527.3967816207524
 20
202.9188422374034
 30
0.0
 11
538.7301149540856
 21
202.9188422374034
 31
0.0
  0
LINE
  5
41763
330
3DF49
100
AcDbEntity
  8
30
  6
Continuous
 62
     0
440
 16777216
370
    -2
100
AcDbLine
 10
517.5326711658186
 20
193.3747936165007
 30
0.0
 11
518.2513411967659
 21
194.0701448850294
 31
0.0
  0
INSERT
  5
41764
330
3DF49
100
AcDbEntity
  8
30
  6
Continuous
 62
     0
440
 16777216
370
    -2
100
AcDbBlockReference
  2
_OPEN
 10
518.2513411967659
 20
194.0701448850294
 30
0.0
 41
2.0
 42
2.0
 43
2.0
 50
224.0552153824984
  0
MTEXT
  5
41765
330
3DF49
100
AcDbEntity
  8
30
  6
Continuous
 62
     0
440
 16777216
100
AcDbMText
 10
529.3967816207523
 20
211.9188422374034
 30
0.0
 40
7.0
 41
0.0
 46
0.0
 71
     1
 72
     1
  1
\A1;R1
 73
     1
 44
1.0
  0
POINT
  5
41766
330
3DF49
100
AcDbEntity
  8
DEFPOINTS
  6
Continuous
 62
     0
440
 16777216
100
AcDbPoint
 10
518.2513411967659
 20
194.0701448850294
 30
0.0
  0
POINT
  5
41767
330
3DF49
100
AcDbEntity
  8
DEFPOINTS
  6
Continuous
 62
     0
440
 16777216
100
AcDbPoint
 10
517.5326711658186
 20
193.3747936165007
 30
0.0
  0
ENDBLK
  5
3DF4B
330
3DF49
100
AcDbEntity
  8
0
100
AcDbBlockEnd
  0
BLOCK
  5
3DF54
330
3DF53
100
AcDbEntity
  8
0
100
AcDbBlockBegin
  2
*D27
 70
     1
 10
0.0
 20
0.0
 30
0.0
  3
*D27
  1

  0
LINE
  5
41978
330
3DF53
100
AcDbEntity
  8
30
 62
     0
440
 16777216
370
    -2
100
AcDbLine
 10
518.5845545010254
 20
146.3747936165006
 30
0.0
 11
518.5845545010254
 21
40.59526701850245
 31
0.0
  0
LINE
  5
41979
330
3DF53
100
AcDbEntity
  8
30
 62
     0
440
 16777216
370
    -2
100
AcDbLine
 10
494.5845545010254
 20
146.3747936165006
 30
0.0
 11
494.5845545010254
 21
40.59526701850245
 31
0.0
  0
LINE
  5
4197A
330
3DF53
100
AcDbEntity
  8
30
440
 16777216
370
    -2
100
AcDbLine
 10
497.5845545010253
 20
41.09526701850245
 30
0.0
 11
515.5845545010254
 21
41.09526701850245
 31
0.0
  0
LINE
  5
4197B
330
3DF53
100
AcDbEntity
  8
30
440
 16777216
370
    -2
100
AcDbLine
 10
518.5845545010254
 20
41.09526701850245
 30
0.0
 11
544.2224586201136
 21
41.09526701850245
 31
0.0
  0
INSERT
  5
4197C
330
3DF53
100
AcDbEntity
  8
30
440
 16777216
370
    -2
100
AcDbBlockReference
  2
_OPEN
 10
494.5845545010254
 20
41.09526701850245
 30
0.0
 41
3.0
 42
3.0
 43
3.0
 50
180.0
  0
INSERT
  5
4197D
330
3DF53
100
AcDbEntity
  8
30
440
 16777216
370
    -2
100
AcDbBlockReference
  2
_OPEN
 10
518.5845545010254
 20
41.09526701850245
 30
0.0
 41
3.0
 42
3.0
 43
3.0
  0
MTEXT
  5
4197E
330
3DF53
100
AcDbEntity
  8
30
440
 16777216
100
AcDbMText
 10
535.3891252867803
 20
51.09526701850246
 30
0.0
 40
7.0
 41
0.0
 46
0.0
 71
     2
 72
     1
  1
\A1;24
 73
     1
 44
1.0
 90
        3
 63
     9
421
 13158600
 45
1.25
441
        0
  0
POINT
  5
4197F
330
3DF53
100
AcDbEntity
  8
DEFPOINTS
 62
     0
440
 16777216
100
AcDbPoint
 10
518.5845545010254
 20
147.3747936165006
 30
0.0
  0
POINT
  5
41980
330
3DF53
100
AcDbEntity
  8
DEFPOINTS
 62
     0
440
 16777216
100
AcDbPoint
 10
494.5845545010254
 20
147.3747936165006
 30
0.0
  0
POINT
  5
41981
330
3DF53
100
AcDbEntity
  8
DEFPOINTS
 62
     0
440
 16777216
100
AcDbPoint
 10
494.5845545010254
 20
41.09526701850245
 30
0.0
  0
ENDBLK
  5
3DF55
330
3DF53
100
AcDbEntity
  8
0
100
AcDbBlockEnd
  0
BLOCK
  5
3E3BD
330
3E3BC
100
AcDbEntity
  8
0
100
AcDbBlockBegin
  2
*D28
 70
     1
 10
0.0
 20
0.0
 30
0.0
  3
*D28
  1

  0
LINE
  5
4179A
330
3E3BC
100
AcDbEntity
  8
30
 62
     0
440
 16777216
370
    -2
100
AcDbLine
 10
536.0439450038454
 20
691.9381013886741
 30
0.0
 11
547.0684781610522
 21
691.9381013886741
 31
0.0
  0
LINE
  5
4179B
330
3E3BC
100
AcDbEntity
  8
30
 62
     0
440
 16777216
370
    -2
100
AcDbLine
 10
541.5439450038452
 20
708.4381013886743
 30
0.0
 11
547.0684781610522
 21
708.4381013886743
 31
0.0
  0
LINE
  5
4179C
330
3E3BC
100
AcDbEntity
  8
30
 62
     0
440
 16777216
370
    -2
100
AcDbLine
 10
546.5684781610522
 20
693.9381013886741
 30
0.0
 11
546.5684781610522
 21
706.4381013886745
 31
0.0
  0
LINE
  5
4179D
330
3E3BC
100
AcDbEntity
  8
30
 62
     0
440
 16777216
370
    -2
100
AcDbLine
 10
546.5684781610522
 20
708.4381013886743
 30
0.0
 11
546.5684781610522
 21
721.9905152505129
 31
0.0
  0
LINE
  5
4179E
330
3E3BC
100
AcDbEntity
  8
30
 62
     0
440
 16777216
370
    -2
100
AcDbLine
 10
546.5684781610522
 20
721.9905152505129
 30
0.0
 11
604.1018114943855
 21
721.9905152505129
 31
0.0
  0
INSERT
  5
4179F
330
3E3BC
100
AcDbEntity
  8
30
 62
     0
440
 16777216
370
    -2
100
AcDbBlockReference
  2
_OPEN
 10
546.5684781610522
 20
691.9381013886741
 30
0.0
 41
2.0
 42
2.0
 43
2.0
 50
270.0
  0
INSERT
  5
417A0
330
3E3BC
100
AcDbEntity
  8
30
 62
     0
440
 16777216
370
    -2
100
AcDbBlockReference
  2
_OPEN
 10
546.5684781610522
 20
708.4381013886743
 30
0.0
 41
2.0
 42
2.0
 43
2.0
 50
90.0
  0
MTEXT
  5
417A1
330
3E3BC
100
AcDbEntity
  8
30
 62
     0
440
 16777216
100
AcDbMText
 10
576.3351448277187
 20
730.9905152505129
 30
0.0
 40
7.0
 41
0.0
 46
0.0
 71
     2
 72
     1
  1
\A1;16.5 (max.)
 73
     1
 44
1.0
  0
POINT
  5
417A2
330
3E3BC
100
AcDbEntity
  8
DEFPOINTS
 62
     0
440
 16777216
100
AcDbPoint
 10
533.0439450038452
 20
691.9381013886741
 30
0.0
  0
POINT
  5
417A3
330
3E3BC
100
AcDbEntity
  8
DEFPOINTS
 62
     0
440
 16777216
100
AcDbPoint
 10
538.5439450038452
 20
708.4381013886743
 30
0.0
  0
POINT
  5
417A4
330
3E3BC
100
AcDbEntity
  8
DEFPOINTS
 62
     0
440
 16777216
100
AcDbPoint
 10
546.5684781610522
 20
708.4381013886743
 30
0.0
  0
ENDBLK
  5
3E3BE
330
3E3BC
100
AcDbEntity
  8
0
100
AcDbBlockEnd
  0
BLOCK
  5
3E3CB
330
3E3CA
100
AcDbEntity
  8
0
100
AcDbBlockBegin
  2
*D29
 70
     1
 10
0.0
 20
0.0
 30
0.0
  3
*D29
  1

  0
LINE
  5
417A5
330
3E3CA
100
AcDbEntity
  8
30
 62
     0
440
 16777216
370
    -2
100
AcDbLine
 10
528.0497303893098
 20
693.4303563892542
 30
0.0
 11
524.0381596183791
 21
690.4458463878945
 31
0.0
  0
LINE
  5
417A6
330
3E3CA
100
AcDbEntity
  8
30
 62
     0
440
 16777216
370
    -2
100
AcDbLine
 10
522.4335313099556
 20
689.2520423873123
 30
0.0
 11
504.0868104521504
 21
675.6025332501291
 31
0.0
  0
LINE
  5
417A7
330
3E3CA
100
AcDbEntity
  8
30
 62
     0
440
 16777216
370
    -2
100
AcDbLine
 10
504.0868104521504
 20
675.6025332501291
 30
0.0
 11
490.4201437854838
 21
675.6025332501291
 31
0.0
  0
INSERT
  5
417A8
330
3E3CA
100
AcDbEntity
  8
30
 62
     0
440
 16777216
370
    -2
100
AcDbBlockReference
  2
_OPEN
 10
529.6543586977336
 20
694.6241603898364
 30
0.0
 41
2.0
 42
2.0
 43
2.0
 50
36.64834048539824
  0
INSERT
  5
417A9
330
3E3CA
100
AcDbEntity
  8
30
 62
     0
440
 16777216
370
    -2
100
AcDbBlockReference
  2
_OPEN
 10
522.4335313099556
 20
689.2520423873123
 30
0.0
 41
2.0
 42
2.0
 43
2.0
 50
216.6483404853981
  0
MTEXT
  5
417AA
330
3E3CA
100
AcDbEntity
  8
30
 62
     0
440
 16777216
100
AcDbMText
 10
490.4201437854838
 20
684.6025332501287
 30
0.0
 40
7.0
 41
0.0
 46
0.0
 71
     1
 72
     1
  1
\A1;∅9
 73
     1
 44
1.0
  0
POINT
  5
417AB
330
3E3CA
100
AcDbEntity
  8
DEFPOINTS
 62
     0
440
 16777216
100
AcDbPoint
 10
522.4335313099556
 20
689.2520423873123
 30
0.0
  0
POINT
  5
417AC
330
3E3CA
100
AcDbEntity
  8
DEFPOINTS
 62
     0
440
 16777216
100
AcDbPoint
 10
529.6543586977336
 20
694.6241603898364
 30
0.0
  0
ENDBLK
  5
3E3CC
330
3E3CA
100
AcDbEntity
  8
0
100
AcDbBlockEnd
  0
BLOCK
  5
3E3D6
330
3E3D5
100
AcDbEntity
  8
0
100
AcDbBlockBegin
  2
*D30
 70
     1
 10
0.0
 20
0.0
 30
0.0
  3
*D30
  1

  0
LINE
  5
417AD
330
3E3D5
100
AcDbEntity
  8
30
 62
     0
440
 16777216
370
    -2
100
AcDbLine
 10
513.5439450038452
 20
670.9381013886741
 30
0.0
 11
513.5439450038452
 21
649.2717805386746
 31
0.0
  0
LINE
  5
417AE
330
3E3D5
100
AcDbEntity
  8
30
 62
     0
440
 16777216
370
    -2
100
AcDbLine
 10
538.5439450038452
 20
670.9381013886741
 30
0.0
 11
538.5439450038452
 21
649.2717805386746
 31
0.0
  0
LINE
  5
417AF
330
3E3D5
100
AcDbEntity
  8
30
440
 16777216
370
    -2
100
AcDbLine
 10
535.5439450038455
 20
649.7717805386746
 30
0.0
 11
516.5439450038452
 21
649.7717805386746
 31
0.0
  0
LINE
  5
417B0
330
3E3D5
100
AcDbEntity
  8
30
440
 16777216
370
    -2
100
AcDbLine
 10
513.5439450038452
 20
649.7717805386746
 30
0.0
 11
456.0106116705116
 21
649.7717805386746
 31
0.0
  0
INSERT
  5
417B1
330
3E3D5
100
AcDbEntity
  8
30
440
 16777216
370
    -2
100
AcDbBlockReference
  2
_OPEN
 10
538.5439450038452
 20
649.7717805386746
 30
0.0
 41
3.0
 42
3.0
 43
3.0
  0
INSERT
  5
417B2
330
3E3D5
100
AcDbEntity
  8
30
440
 16777216
370
    -2
100
AcDbBlockReference
  2
_OPEN
 10
513.5439450038452
 20
649.7717805386746
 30
0.0
 41
3.0
 42
3.0
 43
3.0
 50
180.0
  0
MTEXT
  5
417B3
330
3E3D5
100
AcDbEntity
  8
30
440
 16777216
100
AcDbMText
 10
483.2772783371786
 20
659.7717805386746
 30
0.0
 40
7.0
 41
0.0
 46
0.0
 71
     2
 72
     1
  1
\A1;25 (max.)
 73
     1
 44
1.0
 90
        3
 63
     9
421
 13158600
 45
1.25
441
        0
  0
POINT
  5
417B4
330
3E3D5
100
AcDbEntity
  8
DEFPOINTS
 62
     0
440
 16777216
100
AcDbPoint
 10
513.5439450038452
 20
671.938101388674
 30
0.0
  0
POINT
  5
417B5
330
3E3D5
100
AcDbEntity
  8
DEFPOINTS
 62
     0
440
 16777216
100
AcDbPoint
 10
538.5439450038452
 20
671.938101388674
 30
0.0
  0
POINT
  5
417B6
330
3E3D5
100
AcDbEntity
  8
DEFPOINTS
 62
     0
440
 16777216
100
AcDbPoint
 10
538.5439450038452
 20
649.7717805386746
 30
0.0
  0
ENDBLK
  5
3E3D7
330
3E3D5
100
AcDbEntity
  8
0
100
AcDbBlockEnd
  0
BLOCK
  5
3E3E3
330
3E3E2
100
AcDbEntity
  8
0
100
AcDbBlockBegin
  2
*D31
 70
     1
 10
0.0
 20
0.0
 30
0.0
  3
*D31
  1

  0
LINE
  5
41772
330
3E3E2
100
AcDbEntity
  8
30
 62
     0
440
 16777216
370
    -2
100
AcDbLine
 10
400.458622540458
 20
686.6714100003584
 30
0.0
 11
400.458622540458
 21
637.5514100003583
 31
0.0
  0
LINE
  5
41773
330
3E3E2
100
AcDbEntity
  8
30
 62
     0
440
 16777216
370
    -2
100
AcDbLine
 10
375.458622540458
 20
678.7514100003583
 30
0.0
 11
375.458622540458
 21
637.5514100003583
 31
0.0
  0
LINE
  5
41774
330
3E3E2
100
AcDbEntity
  8
30
440
 16777216
370
    -2
100
AcDbLine
 10
397.458622540458
 20
638.0514100003582
 30
0.0
 11
378.458622540458
 21
638.0514100003582
 31
0.0
  0
INSERT
  5
41775
330
3E3E2
100
AcDbEntity
  8
30
440
 16777216
370
    -2
100
AcDbBlockReference
  2
_OPEN
 10
400.458622540458
 20
638.0514100003582
 30
0.0
 41
3.0
 42
3.0
 43
3.0
  0
INSERT
  5
41776
330
3E3E2
100
AcDbEntity
  8
30
440
 16777216
370
    -2
100
AcDbBlockReference
  2
_OPEN
 10
375.458622540458
 20
638.0514100003582
 30
0.0
 41
3.0
 42
3.0
 43
3.0
 50
180.0
  0
MTEXT
  5
41777
330
3E3E2
100
AcDbEntity
  8
30
440
 16777216
100
AcDbMText
 10
387.958622540458
 20
648.0514100003582
 30
0.0
 40
7.0
 41
0.0
 46
0.0
 71
     2
 72
     1
  1
\A1;25
 73
     1
 44
1.0
 90
        3
 63
     9
421
 13158600
 45
1.25
441
        0
  0
POINT
  5
41778
330
3E3E2
100
AcDbEntity
  8
DEFPOINTS
 62
     0
440
 16777216
100
AcDbPoint
 10
400.458622540458
 20
687.6714100003582
 30
0.0
  0
POINT
  5
41779
330
3E3E2
100
AcDbEntity
  8
DEFPOINTS
 62
     0
440
 16777216
100
AcDbPoint
 10
375.458622540458
 20
679.7514100003582
 30
0.0
  0
POINT
  5
4177A
330
3E3E2
100
AcDbEntity
  8
DEFPOINTS
 62
     0
440
 16777216
100
AcDbPoint
 10
375.458622540458
 20
638.0514100003582
 30
0.0
  0
ENDBLK
  5
3E3E4
330
3E3E2
100
AcDbEntity
  8
0
100
AcDbBlockEnd
  0
BLOCK
  5
3E3EF
330
3E3EE
100
AcDbEntity
  8
0
100
AcDbBlockBegin
  2
*D32
 70
     1
 10
0.0
 20
0.0
 30
0.0
  3
*D32
  1

  0
LINE
  5
4177B
330
3E3EE
100
AcDbEntity
  8
30
 62
     0
440
 16777216
370
    -2
100
AcDbLine
 10
351.458622540458
 20
662.0514100003584
 30
0.0
 11
351.458622540458
 21
637.5514100003583
 31
0.0
  0
LINE
  5
4177C
330
3E3EE
100
AcDbEntity
  8
30
 62
     0
440
 16777216
370
    -2
100
AcDbLine
 10
375.458622540458
 20
678.7514100003583
 30
0.0
 11
375.458622540458
 21
637.5514100003583
 31
0.0
  0
LINE
  5
4177D
330
3E3EE
100
AcDbEntity
  8
30
440
 16777216
370
    -2
100
AcDbLine
 10
354.458622540458
 20
638.0514100003582
 30
0.0
 11
372.458622540458
 21
638.0514100003582
 31
0.0
  0
INSERT
  5
4177E
330
3E3EE
100
AcDbEntity
  8
30
440
 16777216
370
    -2
100
AcDbBlockReference
  2
_OPEN
 10
351.458622540458
 20
638.0514100003582
 30
0.0
 41
3.0
 42
3.0
 43
3.0
 50
180.0
  0
INSERT
  5
4177F
330
3E3EE
100
AcDbEntity
  8
30
440
 16777216
370
    -2
100
AcDbBlockReference
  2
_OPEN
 10
375.458622540458
 20
638.0514100003582
 30
0.0
 41
3.0
 42
3.0
 43
3.0
  0
MTEXT
  5
41780
330
3E3EE
100
AcDbEntity
  8
30
440
 16777216
100
AcDbMText
 10
363.458622540458
 20
648.0514100003582
 30
0.0
 40
7.0
 41
0.0
 46
0.0
 71
     2
 72
     1
  1
\A1;24
 73
     1
 44
1.0
 90
        3
 63
     9
421
 13158600
 45
1.25
441
        0
  0
POINT
  5
41781
330
3E3EE
100
AcDbEntity
  8
DEFPOINTS
 62
     0
440
 16777216
100
AcDbPoint
 10
351.458622540458
 20
663.0514100003582
 30
0.0
  0
POINT
  5
41782
330
3E3EE
100
AcDbEntity
  8
DEFPOINTS
 62
     0
440
 16777216
100
AcDbPoint
 10
375.458622540458
 20
679.7514100003582
 30
0.0
  0
POINT
  5
41783
330
3E3EE
100
AcDbEntity
  8
DEFPOINTS
 62
     0
440
 16777216
100
AcDbPoint
 10
375.458622540458
 20
638.0514100003582
 30
0.0
  0
ENDBLK
  5
3E3F0
330
3E3EE
100
AcDbEntity
  8
0
100
AcDbBlockEnd
  0
BLOCK
  5
3E3FB
330
3E3FA
100
AcDbEntity
  8
0
100
AcDbBlockBegin
  2
*D33
 70
     1
 10
0.0
 20
0.0
 30
0.0
  3
*D33
  1

  0
LINE
  5
41784
330
3E3FA
100
AcDbEntity
  8
30
 62
     0
440
 16777216
370
    -2
100
AcDbLine
 10
370.458622540458
 20
706.0514085995586
 30
0.0
 11
370.458622540458
 21
657.6514100003584
 31
0.0
  0
LINE
  5
41785
330
3E3FA
100
AcDbEntity
  8
30
 62
     0
440
 16777216
370
    -2
100
AcDbLine
 10
375.458622540458
 20
676.7514100003583
 30
0.0
 11
375.458622540458
 21
657.6514100003584
 31
0.0
  0
LINE
  5
41786
330
3E3FA
100
AcDbEntity
  8
30
 62
     0
440
 16777216
370
    -2
100
AcDbLine
 10
368.458622540458
 20
658.1514100003584
 30
0.0
 11
366.458622540458
 21
658.1514100003584
 31
0.0
  0
LINE
  5
41787
330
3E3FA
100
AcDbEntity
  8
30
 62
     0
440
 16777216
370
    -2
100
AcDbLine
 10
377.458622540458
 20
658.1514100003584
 30
0.0
 11
391.1252892071249
 21
658.1514100003584
 31
0.0
  0
LINE
  5
41788
330
3E3FA
100
AcDbEntity
  8
30
 62
     0
440
 16777216
370
    -2
100
AcDbLine
 10
370.458622540458
 20
658.1514100003584
 30
0.0
 11
375.458622540458
 21
658.1514100003584
 31
0.0
  0
INSERT
  5
41789
330
3E3FA
100
AcDbEntity
  8
30
 62
     0
440
 16777216
370
    -2
100
AcDbBlockReference
  2
_OPEN
 10
370.458622540458
 20
658.1514100003584
 30
0.0
 41
2.0
 42
2.0
 43
2.0
  0
INSERT
  5
4178A
330
3E3FA
100
AcDbEntity
  8
30
 62
     0
440
 16777216
370
    -2
100
AcDbBlockReference
  2
_OPEN
 10
375.458622540458
 20
658.1514100003584
 30
0.0
 41
2.0
 42
2.0
 43
2.0
 50
180.0
  0
MTEXT
  5
4178B
330
3E3FA
100
AcDbEntity
  8
30
 62
     0
440
 16777216
100
AcDbMText
 10
386.7919558737915
 20
667.1514100003584
 30
0.0
 40
7.0
 41
0.0
 46
0.0
 71
     2
 72
     1
  1
\A1;5
 73
     1
 44
1.0
  0
POINT
  5
4178C
330
3E3FA
100
AcDbEntity
  8
DEFPOINTS
 62
     0
440
 16777216
100
AcDbPoint
 10
370.458622540458
 20
709.0514085995586
 30
0.0
  0
POINT
  5
4178D
330
3E3FA
100
AcDbEntity
  8
DEFPOINTS
 62
     0
440
 16777216
100
AcDbPoint
 10
375.458622540458
 20
679.7514100003582
 30
0.0
  0
POINT
  5
4178E
330
3E3FA
100
AcDbEntity
  8
DEFPOINTS
 62
     0
440
 16777216
100
AcDbPoint
 10
375.458622540458
 20
658.1514100003584
 30
0.0
  0
ENDBLK
  5
3E3FC
330
3E3FA
100
AcDbEntity
  8
0
100
AcDbBlockEnd
  0
BLOCK
  5
3E409
330
3E408
100
AcDbEntity
  8
0
100
AcDbBlockBegin
  2
*D34
 70
     1
 10
0.0
 20
0.0
 30
0.0
  3
*D34
  1

  0
LINE
  5
4178F
330
3E408
100
AcDbEntity
  8
30
 62
     0
440
 16777216
370
    -2
100
AcDbLine
 10
407.458622540458
 20
691.0514100003584
 30
0.0
 11
454.0877965460008
 21
691.0514100003584
 31
0.0
  0
LINE
  5
41790
330
3E408
100
AcDbEntity
  8
30
 62
     0
440
 16777216
370
    -2
100
AcDbLine
 10
430.4396742626577
 20
706.5514100003582
 30
0.0
 11
454.0877965460008
 21
706.5514100003582
 31
0.0
  0
LINE
  5
41791
330
3E408
100
AcDbEntity
  8
30
 62
     0
440
 16777216
370
    -2
100
AcDbLine
 10
453.5877965460008
 20
693.0514100003582
 30
0.0
 11
453.5877965460008
 21
704.5514100003583
 31
0.0
  0
LINE
  5
41792
330
3E408
100
AcDbEntity
  8
30
 62
     0
440
 16777216
370
    -2
100
AcDbLine
 10
453.5877965460008
 20
706.5514100003582
 30
0.0
 11
453.5877965460008
 21
741.9919038178488
 31
0.0
  0
LINE
  5
41793
330
3E408
100
AcDbEntity
  8
30
 62
     0
440
 16777216
370
    -2
100
AcDbLine
 10
453.5877965460008
 20
741.9919038178488
 30
0.0
 11
511.1211298793342
 21
741.9919038178488
 31
0.0
  0
INSERT
  5
41794
330
3E408
100
AcDbEntity
  8
30
 62
     0
440
 16777216
370
    -2
100
AcDbBlockReference
  2
_OPEN
 10
453.5877965460008
 20
691.0514100003584
 30
0.0
 41
2.0
 42
2.0
 43
2.0
 50
270.0
  0
INSERT
  5
41795
330
3E408
100
AcDbEntity
  8
30
 62
     0
440
 16777216
370
    -2
100
AcDbBlockReference
  2
_OPEN
 10
453.5877965460008
 20
706.5514100003582
 30
0.0
 41
2.0
 42
2.0
 43
2.0
 50
90.0
  0
MTEXT
  5
41796
330
3E408
100
AcDbEntity
  8
30
 62
     0
440
 16777216
100
AcDbMText
 10
483.3544632126673
 20
750.9919038178491
 30
0.0
 40
7.0
 41
0.0
 46
0.0
 71
     2
 72
     1
  1
\A1;15.5 (max.)
 73
     1
 44
1.0
  0
POINT
  5
41797
330
3E408
100
AcDbEntity
  8
DEFPOINTS
 62
     0
440
 16777216
100
AcDbPoint
 10
404.458622540458
 20
691.0514100003584
 30
0.0
  0
POINT
  5
41798
330
3E408
100
AcDbEntity
  8
DEFPOINTS
 62
     0
440
 16777216
100
AcDbPoint
 10
427.4396742626577
 20
706.5514100003582
 30
0.0
  0
POINT
  5
41799
330
3E408
100
AcDbEntity
  8
DEFPOINTS
 62
     0
440
 16777216
100
AcDbPoint
 10
453.5877965460008
 20
706.5514100003582
 30
0.0
  0
ENDBLK
  5
3E40A
330
3E408
100
AcDbEntity
  8
0
100
AcDbBlockEnd
  0
BLOCK
  5
3E6D4
330
3E6D3
100
AcDbEntity
  8
0
100
AcDbBlockBegin
  2
*D35
 70
     1
 10
0.0
 20
0.0
 30
0.0
  3
*D35
  1

  0
LINE
  5
417F8
330
3E6D3
100
AcDbEntity
  8
30
 62
     0
440
 16777216
370
    -2
100
AcDbLine
 10
444.5307300189234
 20
409.876986445119
 30
0.0
 11
444.5307300189234
 21
338.5552663112761
 31
0.0
  0
LINE
  5
417F9
330
3E6D3
100
AcDbEntity
  8
30
 62
     0
440
 16777216
370
    -2
100
AcDbLine
 10
471.5307300189236
 20
409.876986445119
 30
0.0
 11
471.5307300189236
 21
338.5552663112761
 31
0.0
  0
LINE
  5
417FA
330
3E6D3
100
AcDbEntity
  8
30
440
 16777216
370
    -2
100
AcDbLine
 10
447.5307300189236
 20
339.0552663112761
 30
0.0
 11
468.5307300189236
 21
339.0552663112761
 31
0.0
  0
INSERT
  5
417FB
330
3E6D3
100
AcDbEntity
  8
30
440
 16777216
370
    -2
100
AcDbBlockReference
  2
_OPEN
 10
444.5307300189234
 20
339.0552663112761
 30
0.0
 41
3.0
 42
3.0
 43
3.0
 50
180.0
  0
INSERT
  5
417FC
330
3E6D3
100
AcDbEntity
  8
30
440
 16777216
370
    -2
100
AcDbBlockReference
  2
_OPEN
 10
471.5307300189236
 20
339.0552663112761
 30
0.0
 41
3.0
 42
3.0
 43
3.0
  0
MTEXT
  5
417FD
330
3E6D3
100
AcDbEntity
  8
30
440
 16777216
100
AcDbMText
 10
458.0307300189235
 20
345.5552663112761
 30
0.0
 40
7.0
 41
0.0
 46
0.0
 71
     5
 72
     1
  1
\A1;27
 73
     1
 44
1.0
 90
        3
 63
     9
421
 13158600
 45
1.25
441
        0
  0
POINT
  5
417FE
330
3E6D3
100
AcDbEntity
  8
DEFPOINTS
 62
     0
440
 16777216
100
AcDbPoint
 10
444.5307300189234
 20
410.876986445119
 30
0.0
  0
POINT
  5
417FF
330
3E6D3
100
AcDbEntity
  8
DEFPOINTS
 62
     0
440
 16777216
100
AcDbPoint
 10
471.5307300189236
 20
410.876986445119
 30
0.0
  0
POINT
  5
41800
330
3E6D3
100
AcDbEntity
  8
DEFPOINTS
 62
     0
440
 16777216
100
AcDbPoint
 10
471.5307300189236
 20
339.0552663112761
 30
0.0
  0
ENDBLK
  5
3E6D5
330
3E6D3
100
AcDbEntity
  8
0
100
AcDbBlockEnd
  0
BLOCK
  5
3E6E0
330
3E6DF
100
AcDbEntity
  8
0
100
AcDbBlockBegin
  2
*D36
 70
     1
 10
0.0
 20
0.0
 30
0.0
  3
*D36
  1

  0
LINE
  5
41801
330
3E6DF
100
AcDbEntity
  8
30
 62
     0
440
 16777216
370
    -2
100
AcDbLine
 10
301.0307300189236
 20
496.8769900213191
 30
0.0
 11
301.0307300189236
 21
338.5552663112761
 31
0.0
  0
LINE
  5
41802
330
3E6DF
100
AcDbEntity
  8
30
 62
     0
440
 16777216
370
    -2
100
AcDbLine
 10
444.5307300189234
 20
429.4907006920992
 30
0.0
 11
444.5307300189234
 21
338.5552663112761
 31
0.0
  0
LINE
  5
41803
330
3E6DF
100
AcDbEntity
  8
30
440
 16777216
370
    -2
100
AcDbLine
 10
304.0307300189236
 20
339.0552663112761
 30
0.0
 11
441.5307300189235
 21
339.0552663112761
 31
0.0
  0
INSERT
  5
41804
330
3E6DF
100
AcDbEntity
  8
30
440
 16777216
370
    -2
100
AcDbBlockReference
  2
_OPEN
 10
301.0307300189236
 20
339.0552663112761
 30
0.0
 41
3.0
 42
3.0
 43
3.0
 50
180.0
  0
INSERT
  5
41805
330
3E6DF
100
AcDbEntity
  8
30
440
 16777216
370
    -2
100
AcDbBlockReference
  2
_OPEN
 10
444.5307300189234
 20
339.0552663112761
 30
0.0
 41
3.0
 42
3.0
 43
3.0
  0
MTEXT
  5
41806
330
3E6DF
100
AcDbEntity
  8
30
440
 16777216
100
AcDbMText
 10
372.7807300189236
 20
345.5552663112761
 30
0.0
 40
7.0
 41
0.0
 46
0.0
 71
     5
 72
     1
  1
\A1;143.5
 73
     1
 44
1.0
 90
        3
 63
     9
421
 13158600
 45
1.25
441
        0
  0
POINT
  5
41807
330
3E6DF
100
AcDbEntity
  8
DEFPOINTS
 62
     0
440
 16777216
100
AcDbPoint
 10
301.0307300189236
 20
497.8769900213192
 30
0.0
  0
POINT
  5
41808
330
3E6DF
100
AcDbEntity
  8
DEFPOINTS
 62
     0
440
 16777216
100
AcDbPoint
 10
444.5307300189234
 20
430.4907006920991
 30
0.0
  0
POINT
  5
41809
330
3E6DF
100
AcDbEntity
  8
DEFPOINTS
 62
     0
440
 16777216
100
AcDbPoint
 10
444.5307300189234
 20
339.0552663112761
 30
0.0
  0
ENDBLK
  5
3E6E1
330
3E6DF
100
AcDbEntity
  8
0
100
AcDbBlockEnd
  0
BLOCK
  5
3E6EC
330
3E6EB
100
AcDbEntity
  8
0
100
AcDbBlockBegin
  2
*D37
 70
     1
 10
0.0
 20
0.0
 30
0.0
  3
*D37
  1

  0
LINE
  5
4180A
330
3E6EB
100
AcDbEntity
  8
30
 62
     0
440
 16777216
370
    -2
100
AcDbLine
 10
476.730945569341
 20
590.8769935975187
 30
0.0
 11
538.5427934034757
 21
590.8769935975187
 31
0.0
  0
LINE
  5
4180B
330
3E6EB
100
AcDbEntity
  8
30
 62
     0
440
 16777216
370
    -2
100
AcDbLine
 10
481.0276810386882
 20
410.8769935975188
 30
0.0
 11
538.5427934034757
 21
410.8769935975188
 31
0.0
  0
LINE
  5
4180C
330
3E6EB
100
AcDbEntity
  8
30
440
 16777216
370
    -2
100
AcDbLine
 10
538.0427934034758
 20
587.8769935975188
 30
0.0
 11
538.0427934034758
 21
413.8769935975188
 31
0.0
  0
INSERT
  5
4180D
330
3E6EB
100
AcDbEntity
  8
30
440
 16777216
370
    -2
100
AcDbBlockReference
  2
_OPEN
 10
538.0427934034758
 20
590.8769935975187
 30
0.0
 41
3.0
 42
3.0
 43
3.0
 50
90.0
  0
INSERT
  5
4180E
330
3E6EB
100
AcDbEntity
  8
30
440
 16777216
370
    -2
100
AcDbBlockReference
  2
_OPEN
 10
538.0427934034758
 20
410.8769935975188
 30
0.0
 41
3.0
 42
3.0
 43
3.0
 50
270.0
  0
MTEXT
  5
4180F
330
3E6EB
100
AcDbEntity
  8
30
440
 16777216
100
AcDbMText
 10
531.5427934034756
 20
500.8769935975188
 30
0.0
 40
7.0
 41
0.0
 46
0.0
 71
     5
 72
     1
  1
\A1;180
 11
0.0000000000000001
 21
1.0
 31
0.0
 73
     1
 44
1.0
 90
        3
 63
     9
421
 13158600
 45
1.25
441
        0
  0
POINT
  5
41810
330
3E6EB
100
AcDbEntity
  8
DEFPOINTS
 62
     0
440
 16777216
100
AcDbPoint
 10
475.7309455693409
 20
590.8769935975187
 30
0.0
  0
POINT
  5
41811
330
3E6EB
100
AcDbEntity
  8
DEFPOINTS
 62
     0
440
 16777216
100
AcDbPoint
 10
480.0276810386883
 20
410.8769935975188
 30
0.0
  0
POINT
  5
41812
330
3E6EB
100
AcDbEntity
  8
DEFPOINTS
 62
     0
440
 16777216
100
AcDbPoint
 10
538.0427934034758
 20
410.8769935975188
 30
0.0
  0
ENDBLK
  5
3E6ED
330
3E6EB
100
AcDbEntity
  8
0
100
AcDbBlockEnd
  0
BLOCK
  5
3E6F8
330
3E6F7
100
AcDbEntity
  8
0
100
AcDbBlockBegin
  2
*D38
 70
     1
 10
0.0
 20
0.0
 30
0.0
  3
*D38
  1

  0
LINE
  5
41813
330
3E6F7
100
AcDbEntity
  8
30
 62
     0
440
 16777216
370
    -2
100
AcDbLine
 10
478.1731190056786
 20
554.8769914221188
 30
0.0
 11
517.5095789218865
 21
554.8769914221188
 31
0.0
  0
LINE
  5
41814
330
3E6F7
100
AcDbEntity
  8
30
 62
     0
440
 16777216
370
    -2
100
AcDbLine
 10
475.006526947435
 20
446.8769886205189
 30
0.0
 11
517.5095789218865
 21
446.8769886205189
 31
0.0
  0
LINE
  5
41815
330
3E6F7
100
AcDbEntity
  8
30
440
 16777216
370
    -2
100
AcDbLine
 10
517.0095789218865
 20
551.8769914221188
 30
0.0
 11
517.0095789218865
 21
449.8769886205187
 31
0.0
  0
INSERT
  5
41816
330
3E6F7
100
AcDbEntity
  8
30
440
 16777216
370
    -2
100
AcDbBlockReference
  2
_OPEN
 10
517.0095789218865
 20
554.8769914221188
 30
0.0
 41
3.0
 42
3.0
 43
3.0
 50
90.0
  0
INSERT
  5
41817
330
3E6F7
100
AcDbEntity
  8
30
440
 16777216
370
    -2
100
AcDbBlockReference
  2
_OPEN
 10
517.0095789218865
 20
446.8769886205189
 30
0.0
 41
3.0
 42
3.0
 43
3.0
 50
270.0
  0
MTEXT
  5
41818
330
3E6F7
100
AcDbEntity
  8
30
440
 16777216
100
AcDbMText
 10
510.5095789218863
 20
500.8769900213188
 30
0.0
 40
7.0
 41
0.0
 46
0.0
 71
     5
 72
     1
  1
\A1;108
 11
0.0000000000000001
 21
1.0
 31
0.0
 73
     1
 44
1.0
 90
        3
 63
     9
421
 13158600
 45
1.25
441
        0
  0
POINT
  5
41819
330
3E6F7
100
AcDbEntity
  8
DEFPOINTS
 62
     0
440
 16777216
100
AcDbPoint
 10
477.1731190056787
 20
554.8769914221188
 30
0.0
  0
POINT
  5
4181A
330
3E6F7
100
AcDbEntity
  8
DEFPOINTS
 62
     0
440
 16777216
100
AcDbPoint
 10
474.0065269474349
 20
446.8769886205189
 30
0.0
  0
POINT
  5
4181B
330
3E6F7
100
AcDbEntity
  8
DEFPOINTS
 62
     0
440
 16777216
100
AcDbPoint
 10
517.0095789218865
 20
446.8769886205189
 30
0.0
  0
ENDBLK
  5
3E6F9
330
3E6F7
100
AcDbEntity
  8
0
100
AcDbBlockEnd
  0
BLOCK
  5
3E704
330
3E703
100
AcDbEntity
  8
0
100
AcDbBlockBegin
  2
*D39
 70
     1
 10
0.0
 20
0.0
 30
0.0
  3
*D39
  1

  0
LINE
  5
4181C
330
3E703
100
AcDbEntity
  8
30
 62
     0
440
 16777216
370
    -2
100
AcDbLine
 10
436.0307308235237
 20
601.8769935379189
 30
0.0
 11
558.2548927353697
 21
601.8769935379189
 31
0.0
  0
LINE
  5
4181D
330
3E703
100
AcDbEntity
  8
30
 62
     0
440
 16777216
370
    -2
100
AcDbLine
 10
436.0307308235237
 20
399.876993537919
 30
0.0
 11
558.2548927353697
 21
399.876993537919
 31
0.0
  0
LINE
  5
4181E
330
3E703
100
AcDbEntity
  8
30
440
 16777216
370
    -2
100
AcDbLine
 10
557.7548927353698
 20
598.8769935379187
 30
0.0
 11
557.7548927353698
 21
402.8769935379187
 31
0.0
  0
INSERT
  5
4181F
330
3E703
100
AcDbEntity
  8
30
440
 16777216
370
    -2
100
AcDbBlockReference
  2
_OPEN
 10
557.7548927353698
 20
601.8769935379189
 30
0.0
 41
3.0
 42
3.0
 43
3.0
 50
90.0
  0
INSERT
  5
41820
330
3E703
100
AcDbEntity
  8
30
440
 16777216
370
    -2
100
AcDbBlockReference
  2
_OPEN
 10
557.7548927353698
 20
399.876993537919
 30
0.0
 41
3.0
 42
3.0
 43
3.0
 50
270.0
  0
MTEXT
  5
41821
330
3E703
100
AcDbEntity
  8
30
440
 16777216
100
AcDbMText
 10
551.2548927353697
 20
500.876993537919
 30
0.0
 40
7.0
 41
0.0
 46
0.0
 71
     5
 72
     1
  1
\A1;202
 11
0.0000000000000001
 21
1.0
 31
0.0
 73
     1
 44
1.0
 90
        3
 63
     9
421
 13158600
 45
1.25
441
        0
  0
POINT
  5
41822
330
3E703
100
AcDbEntity
  8
DEFPOINTS
 62
     0
440
 16777216
100
AcDbPoint
 10
435.0307308235239
 20
601.8769935379189
 30
0.0
  0
POINT
  5
41823
330
3E703
100
AcDbEntity
  8
DEFPOINTS
 62
     0
440
 16777216
100
AcDbPoint
 10
435.0307308235239
 20
399.876993537919
 30
0.0
  0
POINT
  5
41824
330
3E703
100
AcDbEntity
  8
DEFPOINTS
 62
     0
440
 16777216
100
AcDbPoint
 10
557.7548927353698
 20
399.876993537919
 30
0.0
  0
ENDBLK
  5
3E705
330
3E703
100
AcDbEntity
  8
0
100
AcDbBlockEnd
  0
BLOCK
  5
3E710
330
3E70F
100
AcDbEntity
  8
0
100
AcDbBlockBegin
  2
*D40
 70
     1
 10
0.0
 20
0.0
 30
0.0
  3
*D40
  1

  0
LINE
  5
417B7
330
3E70F
100
AcDbEntity
  8
30
 62
     0
440
 16777216
370
    -2
100
AcDbLine
 10
323.530730018924
 20
525.8769900213192
 30
0.0
 11
279.8702155033277
 21
525.8769900213192
 31
0.0
  0
LINE
  5
417B8
330
3E70F
100
AcDbEntity
  8
30
 62
     0
440
 16777216
370
    -2
100
AcDbLine
 10
323.530730018924
 20
475.8769900213192
 30
0.0
 11
279.8702155033277
 21
475.8769900213192
 31
0.0
  0
LINE
  5
417B9
330
3E70F
100
AcDbEntity
  8
30
440
 16777216
370
    -2
100
AcDbLine
 10
280.3702155033277
 20
522.8769900213192
 30
0.0
 11
280.3702155033277
 21
478.8769900213193
 31
0.0
  0
INSERT
  5
417BA
330
3E70F
100
AcDbEntity
  8
30
440
 16777216
370
    -2
100
AcDbBlockReference
  2
_OPEN
 10
280.3702155033277
 20
525.8769900213192
 30
0.0
 41
3.0
 42
3.0
 43
3.0
 50
90.0
  0
INSERT
  5
417BB
330
3E70F
100
AcDbEntity
  8
30
440
 16777216
370
    -2
100
AcDbBlockReference
  2
_OPEN
 10
280.3702155033277
 20
475.8769900213192
 30
0.0
 41
3.0
 42
3.0
 43
3.0
 50
270.0
  0
MTEXT
  5
417BC
330
3E70F
100
AcDbEntity
  8
30
440
 16777216
100
AcDbMText
 10
273.8702155033276
 20
500.8769900213192
 30
0.0
 40
7.0
 41
0.0
 46
0.0
 71
     5
 72
     1
  1
\A1;50
 11
0.0000000000000001
 21
1.0
 31
0.0
 73
     1
 44
1.0
 90
        3
 63
     9
421
 13158600
 45
1.25
441
        0
  0
POINT
  5
417BD
330
3E70F
100
AcDbEntity
  8
DEFPOINTS
 62
     0
440
 16777216
100
AcDbPoint
 10
324.530730018924
 20
525.8769900213192
 30
0.0
  0
POINT
  5
417BE
330
3E70F
100
AcDbEntity
  8
DEFPOINTS
 62
     0
440
 16777216
100
AcDbPoint
 10
324.530730018924
 20
475.8769900213192
 30
0.0
  0
POINT
  5
417BF
330
3E70F
100
AcDbEntity
  8
DEFPOINTS
 62
     0
440
 16777216
100
AcDbPoint
 10
280.3702155033277
 20
475.8769900213192
 30
0.0
  0
ENDBLK
  5
3E711
330
3E70F
100
AcDbEntity
  8
0
100
AcDbBlockEnd
  0
BLOCK
  5
3E734
330
3E733
100
AcDbEntity
  8
0
100
AcDbBlockBegin
  2
*D41
 70
     1
 10
0.0
 20
0.0
 30
0.0
  3
*D41
  1

  0
LINE
  5
417D2
330
3E733
100
AcDbEntity
  8
30
 62
     0
440
 16777216
370
    -2
100
AcDbLine
 10
444.5307300189234
 20
409.876986445119
 30
0.0
 11
444.5307300189234
 21
356.967792884942
 31
0.0
  0
LINE
  5
417D3
330
3E733
100
AcDbEntity
  8
30
 62
     0
440
 16777216
370
    -2
100
AcDbLine
 10
324.530730018924
 20
474.8769900213193
 30
0.0
 11
324.530730018924
 21
356.967792884942
 31
0.0
  0
LINE
  5
417D4
330
3E733
100
AcDbEntity
  8
30
440
 16777216
370
    -2
100
AcDbLine
 10
441.5307300189235
 20
357.4677928849419
 30
0.0
 11
327.530730018924
 21
357.4677928849419
 31
0.0
  0
INSERT
  5
417D5
330
3E733
100
AcDbEntity
  8
30
440
 16777216
370
    -2
100
AcDbBlockReference
  2
_OPEN
 10
444.5307300189234
 20
357.4677928849419
 30
0.0
 41
3.0
 42
3.0
 43
3.0
  0
INSERT
  5
417D6
330
3E733
100
AcDbEntity
  8
30
440
 16777216
370
    -2
100
AcDbBlockReference
  2
_OPEN
 10
324.530730018924
 20
357.4677928849419
 30
0.0
 41
3.0
 42
3.0
 43
3.0
 50
180.0
  0
MTEXT
  5
417D7
330
3E733
100
AcDbEntity
  8
30
440
 16777216
100
AcDbMText
 10
384.5307300189238
 20
363.9677928849418
 30
0.0
 40
7.0
 41
0.0
 46
0.0
 71
     5
 72
     1
  1
\A1;120
 73
     1
 44
1.0
 90
        3
 63
     9
421
 13158600
 45
1.25
441
        0
  0
POINT
  5
417D8
330
3E733
100
AcDbEntity
  8
DEFPOINTS
 62
     0
440
 16777216
100
AcDbPoint
 10
444.5307300189234
 20
410.876986445119
 30
0.0
  0
POINT
  5
417D9
330
3E733
100
AcDbEntity
  8
DEFPOINTS
 62
     0
440
 16777216
100
AcDbPoint
 10
324.530730018924
 20
475.8769900213192
 30
0.0
  0
POINT
  5
417DA
330
3E733
100
AcDbEntity
  8
DEFPOINTS
 62
     0
440
 16777216
100
AcDbPoint
 10
324.530730018924
 20
357.4677928849419
 30
0.0
  0
ENDBLK
  5
3E735
330
3E733
100
AcDbEntity
  8
0
100
AcDbBlockEnd
  0
BLOCK
  5
3E740
330
3E73F
100
AcDbEntity
  8
0
100
AcDbBlockBegin
  2
*D42
 70
     1
 10
0.0
 20
0.0
 30
0.0
  3
*D42
  1

  0
LINE
  5
417DB
330
3E73F
100
AcDbEntity
  8
30
 62
     0
440
 16777216
370
    -2
100
AcDbLine
 10
444.5307300189234
 20
409.876986445119
 30
0.0
 11
444.5307300189234
 21
377.0250989691481
 31
0.0
  0
LINE
  5
417DC
330
3E73F
100
AcDbEntity
  8
30
 62
     0
440
 16777216
370
    -2
100
AcDbLine
 10
328.530730018924
 20
448.8769900213192
 30
0.0
 11
328.530730018924
 21
377.0250989691481
 31
0.0
  0
LINE
  5
417DD
330
3E73F
100
AcDbEntity
  8
30
440
 16777216
370
    -2
100
AcDbLine
 10
441.5307300189235
 20
377.5250989691481
 30
0.0
 11
331.530730018924
 21
377.5250989691481
 31
0.0
  0
INSERT
  5
417DE
330
3E73F
100
AcDbEntity
  8
30
440
 16777216
370
    -2
100
AcDbBlockReference
  2
_OPEN
 10
444.5307300189234
 20
377.5250989691481
 30
0.0
 41
3.0
 42
3.0
 43
3.0
  0
INSERT
  5
417DF
330
3E73F
100
AcDbEntity
  8
30
440
 16777216
370
    -2
100
AcDbBlockReference
  2
_OPEN
 10
328.530730018924
 20
377.5250989691481
 30
0.0
 41
3.0
 42
3.0
 43
3.0
 50
180.0
  0
MTEXT
  5
417E0
330
3E73F
100
AcDbEntity
  8
30
440
 16777216
100
AcDbMText
 10
386.5307300189238
 20
384.0250989691481
 30
0.0
 40
7.0
 41
0.0
 46
0.0
 71
     5
 72
     1
  1
\A1;116
 73
     1
 44
1.0
 90
        3
 63
     9
421
 13158600
 45
1.25
441
        0
  0
POINT
  5
417E1
330
3E73F
100
AcDbEntity
  8
DEFPOINTS
 62
     0
440
 16777216
100
AcDbPoint
 10
444.5307300189234
 20
410.876986445119
 30
0.0
  0
POINT
  5
417E2
330
3E73F
100
AcDbEntity
  8
DEFPOINTS
 62
     0
440
 16777216
100
AcDbPoint
 10
328.530730018924
 20
449.8769900213193
 30
0.0
  0
POINT
  5
417E3
330
3E73F
100
AcDbEntity
  8
DEFPOINTS
 62
     0
440
 16777216
100
AcDbPoint
 10
328.530730018924
 20
377.5250989691481
 30
0.0
  0
ENDBLK
  5
3E741
330
3E73F
100
AcDbEntity
  8
0
100
AcDbBlockEnd
  0
BLOCK
  5
3E74C
330
3E74B
100
AcDbEntity
  8
0
100
AcDbBlockBegin
  2
*D43
 70
     1
 10
0.0
 20
0.0
 30
0.0
  3
*D43
  1

  0
LINE
  5
417E4
330
3E74B
100
AcDbEntity
  8
30
 62
     0
370
    -2
100
AcDbLine
 10
396.030730018924
 20
417.3769900213192
 30
0.0
 11
396.030730018924
 21
397.8769900213193
 31
0.0
  0
LINE
  5
417E5
330
3E74B
100
AcDbEntity
  8
30
 62
     0
370
    -2
100
AcDbLine
 10
336.030730018924
 20
417.3769900213192
 30
0.0
 11
336.030730018924
 21
397.8769900213193
 31
0.0
  0
LINE
  5
417E6
330
3E74B
100
AcDbEntity
  8
30
370
    -2
100
AcDbLine
 10
393.0307300189241
 20
398.3769900213193
 30
0.0
 11
339.030730018924
 21
398.3769900213193
 31
0.0
  0
INSERT
  5
417E7
330
3E74B
100
AcDbEntity
  8
30
370
    -2
100
AcDbBlockReference
  2
_OPEN
 10
396.030730018924
 20
398.3769900213193
 30
0.0
 41
3.0
 42
3.0
 43
3.0
  0
INSERT
  5
417E8
330
3E74B
100
AcDbEntity
  8
30
370
    -2
100
AcDbBlockReference
  2
_OPEN
 10
336.030730018924
 20
398.3769900213193
 30
0.0
 41
3.0
 42
3.0
 43
3.0
 50
180.0
  0
MTEXT
  5
417E9
330
3E74B
100
AcDbEntity
  8
30
100
AcDbMText
 10
366.030730018924
 20
404.8769900213192
 30
0.0
 40
7.0
 41
0.0
 46
0.0
 71
     5
 72
     1
  1
\A1;60
 73
     1
 44
1.0
 90
        3
 63
     9
421
 13158600
 45
1.25
441
        0
  0
POINT
  5
417EA
330
3E74B
100
AcDbEntity
  8
DEFPOINTS
 62
     0
100
AcDbPoint
 10
396.030730018924
 20
418.376990021319
 30
0.0
  0
POINT
  5
417EB
330
3E74B
100
AcDbEntity
  8
DEFPOINTS
 62
     0
100
AcDbPoint
 10
336.030730018924
 20
418.376990021319
 30
0.0
  0
POINT
  5
417EC
330
3E74B
100
AcDbEntity
  8
DEFPOINTS
 62
     0
100
AcDbPoint
 10
336.030730018924
 20
398.3769900213193
 30
0.0
  0
ENDBLK
  5
3E74D
330
3E74B
100
AcDbEntity
  8
0
100
AcDbBlockEnd
  0
BLOCK
  5
3E758
330
3E757
100
AcDbEntity
  8
0
100
AcDbBlockBegin
  2
*D44
 70
     1
 10
0.0
 20
0.0
 30
0.0
  3
*D44
  1

  0
LINE
  5
41964
330
3E757
100
AcDbEntity
  8
30
 62
     0
440
 16777216
370
    -2
100
AcDbLine
 10
324.530730018924
 20
472.8769900213192
 30
0.0
 11
324.530730018924
 21
356.9677928849419
 31
0.0
  0
LINE
  5
41965
330
3E757
100
AcDbEntity
  8
30
 62
     0
440
 16777216
370
    -2
100
AcDbLine
 10
318.0307300189241
 20
475.3769900213188
 30
0.0
 11
318.0307300189241
 21
356.9677928849419
 31
0.0
  0
LINE
  5
41966
330
3E757
100
AcDbEntity
  8
30
 62
     0
440
 16777216
370
    -2
100
AcDbLine
 10
326.530730018924
 20
357.4677928849419
 30
0.0
 11
328.530730018924
 21
357.4677928849419
 31
0.0
  0
LINE
  5
41967
330
3E757
100
AcDbEntity
  8
30
 62
     0
440
 16777216
370
    -2
100
AcDbLine
 10
316.0307300189241
 20
357.4677928849419
 30
0.0
 11
275.530730018924
 21
357.4677928849419
 31
0.0
  0
LINE
  5
41968
330
3E757
100
AcDbEntity
  8
30
 62
     0
440
 16777216
370
    -2
100
AcDbLine
 10
324.530730018924
 20
357.4677928849419
 30
0.0
 11
318.0307300189241
 21
357.4677928849419
 31
0.0
  0
INSERT
  5
41969
330
3E757
100
AcDbEntity
  8
30
 62
     0
440
 16777216
370
    -2
100
AcDbBlockReference
  2
_OPEN
 10
324.530730018924
 20
357.4677928849419
 30
0.0
 41
2.0
 42
2.0
 43
2.0
 50
180.0
  0
INSERT
  5
4196A
330
3E757
100
AcDbEntity
  8
30
 62
     0
440
 16777216
370
    -2
100
AcDbBlockReference
  2
_OPEN
 10
318.0307300189241
 20
357.4677928849419
 30
0.0
 41
2.0
 42
2.0
 43
2.0
  0
MTEXT
  5
4196B
330
3E757
100
AcDbEntity
  8
30
 62
     0
440
 16777216
100
AcDbMText
 10
284.530730018924
 20
362.9677928849418
 30
0.0
 40
7.0
 41
0.0
 46
0.0
 71
     5
 72
     1
  1
\A1;6.5
 73
     1
 44
1.0
  0
POINT
  5
4196C
330
3E757
100
AcDbEntity
  8
DEFPOINTS
 62
     0
440
 16777216
100
AcDbPoint
 10
324.530730018924
 20
475.8769900213192
 30
0.0
  0
POINT
  5
4196D
330
3E757
100
AcDbEntity
  8
DEFPOINTS
 62
     0
440
 16777216
100
AcDbPoint
 10
318.0307300189241
 20
478.3769900213187
 30
0.0
  0
POINT
  5
4196E
330
3E757
100
AcDbEntity
  8
DEFPOINTS
 62
     0
440
 16777216
100
AcDbPoint
 10
318.0307300189241
 20
357.4677928849419
 30
0.0
  0
ENDBLK
  5
3E759
330
3E757
100
AcDbEntity
  8
0
100
AcDbBlockEnd
  0
BLOCK
  5
3ECB5
330
3ECB4
100
AcDbEntity
  8
0
100
AcDbBlockBegin
  2
*D45
 70
     1
 10
0.0
 20
0.0
 30
0.0
  3
*D45
  1

  0
LINE
  5
418EF
330
3ECB4
100
AcDbEntity
  8
30
 62
     0
440
 16777216
370
    -2
100
AcDbLine
 10
175.3759849523273
 20
601.3769900212977
 30
0.0
 11
233.5119420644133
 21
601.3769900212977
 31
0.0
  0
LINE
  5
418F0
330
3ECB4
100
AcDbEntity
  8
30
 62
     0
440
 16777216
370
    -2
100
AcDbLine
 10
175.3759849521273
 20
400.3769900212978
 30
0.0
 11
233.5119420644133
 21
400.3769900212978
 31
0.0
  0
LINE
  5
418F1
330
3ECB4
100
AcDbEntity
  8
30
440
 16777216
370
    -2
100
AcDbLine
 10
233.0119420644134
 20
598.3769900212977
 30
0.0
 11
233.0119420644133
 21
403.3769900212978
 31
0.0
  0
INSERT
  5
418F2
330
3ECB4
100
AcDbEntity
  8
30
440
 16777216
370
    -2
100
AcDbBlockReference
  2
_OPEN
 10
233.0119420644134
 20
601.3769900212977
 30
0.0
 41
3.0
 42
3.0
 43
3.0
 50
90.0
  0
INSERT
  5
418F3
330
3ECB4
100
AcDbEntity
  8
30
440
 16777216
370
    -2
100
AcDbBlockReference
  2
_OPEN
 10
233.0119420644133
 20
400.3769900212978
 30
0.0
 41
3.0
 42
3.0
 43
3.0
 50
270.0
  0
MTEXT
  5
418F4
330
3ECB4
100
AcDbEntity
  8
30
440
 16777216
100
AcDbMText
 10
223.0119420644133
 20
500.8769900212978
 30
0.0
 40
7.0
 41
0.0
 46
0.0
 71
     2
 72
     1
  1
\A1;201
 11
0.0000000000000001
 21
1.0
 31
0.0
 73
     1
 44
1.0
 90
        3
 63
     9
421
 13158600
 45
1.25
441
        0
  0
POINT
  5
418F5
330
3ECB4
100
AcDbEntity
  8
DEFPOINTS
 62
     0
440
 16777216
100
AcDbPoint
 10
174.3759849523273
 20
601.3769900212977
 30
0.0
  0
POINT
  5
418F6
330
3ECB4
100
AcDbEntity
  8
DEFPOINTS
 62
     0
440
 16777216
100
AcDbPoint
 10
174.3759849521273
 20
400.3769900212978
 30
0.0
  0
POINT
  5
418F7
330
3ECB4
100
AcDbEntity
  8
DEFPOINTS
 62
     0
440
 16777216
100
AcDbPoint
 10
233.0119420644133
 20
400.3769900212978
 30
0.0
  0
ENDBLK
  5
3ECB6
330
3ECB4
100
AcDbEntity
  8
0
100
AcDbBlockEnd
  0
BLOCK
  5
41924
330
41923
100
AcDbEntity
  8
0
100
AcDbBlockBegin
  2
*D46
 70
     1
 10
0.0
 20
0.0
 30
0.0
  3
*D46
  1

  0
LINE
  5
4194E
330
41923
100
AcDbEntity
  8
30
 62
     0
440
 16777216
370
    -2
100
AcDbLine
 10
444.5307304361238
 20
443.8769886205188
 30
0.0
 11
444.5307304361238
 21
379.796703441778
 31
0.0
  0
LINE
  5
4194F
330
41923
100
AcDbEntity
  8
30
 62
     0
440
 16777216
370
    -2
100
AcDbLine
 10
328.530730018924
 20
446.8769900213191
 30
0.0
 11
328.530730018924
 21
379.796703441778
 31
0.0
  0
LINE
  5
41950
330
41923
100
AcDbEntity
  8
30
 62
     0
440
 16777216
370
    -2
100
AcDbLine
 10
442.5307304361238
 20
380.2967034417779
 30
0.0
 11
330.530730018924
 21
380.2967034417779
 31
0.0
  0
INSERT
  5
41951
330
41923
100
AcDbEntity
  8
30
 62
     0
440
 16777216
370
    -2
100
AcDbBlockReference
  2
_OPEN
 10
444.5307304361238
 20
380.2967034417779
 30
0.0
 41
2.0
 42
2.0
 43
2.0
  0
INSERT
  5
41952
330
41923
100
AcDbEntity
  8
30
 62
     0
440
 16777216
370
    -2
100
AcDbBlockReference
  2
_OPEN
 10
328.530730018924
 20
380.2967034417779
 30
0.0
 41
2.0
 42
2.0
 43
2.0
 50
180.0
  0
MTEXT
  5
41953
330
41923
100
AcDbEntity
  8
30
 62
     0
440
 16777216
100
AcDbMText
 10
386.5307302275239
 20
385.796703441778
 30
0.0
 40
7.0
 41
0.0
 46
0.0
 71
     5
 72
     1
  1
\A1;116
 73
     1
 44
1.0
  0
POINT
  5
41954
330
41923
100
AcDbEntity
  8
DEFPOINTS
 62
     0
440
 16777216
100
AcDbPoint
 10
444.5307304361238
 20
446.8769886205189
 30
0.0
  0
POINT
  5
41955
330
41923
100
AcDbEntity
  8
DEFPOINTS
 62
     0
440
 16777216
100
AcDbPoint
 10
328.530730018924
 20
449.8769900213193
 30
0.0
  0
POINT
  5
41956
330
41923
100
AcDbEntity
  8
DEFPOINTS
 62
     0
440
 16777216
100
AcDbPoint
 10
328.530730018924
 20
380.2967034417779
 30
0.0
  0
ENDBLK
  5
41925
330
41923
100
AcDbEntity
  8
0
100
AcDbBlockEnd
  0
BLOCK
  5
41931
330
41930
100
AcDbEntity
  8
0
100
AcDbBlockBegin
  2
*D47
 70
     1
 10
0.0
 20
0.0
 30
0.0
  3
*D47
  1

  0
LINE
  5
41945
330
41930
100
AcDbEntity
  8
30
 62
     0
440
 16777216
370
    -2
100
AcDbLine
 10
444.5307304361238
 20
443.8769886205188
 30
0.0
 11
444.5307304361238
 21
356.9677928849419
 31
0.0
  0
LINE
  5
41946
330
41930
100
AcDbEntity
  8
30
 62
     0
440
 16777216
370
    -2
100
AcDbLine
 10
324.530730018924
 20
472.8769900213189
 30
0.0
 11
324.530730018924
 21
356.9677928849419
 31
0.0
  0
LINE
  5
41947
330
41930
100
AcDbEntity
  8
30
 62
     0
440
 16777216
370
    -2
100
AcDbLine
 10
442.5307304361238
 20
357.4677928849419
 30
0.0
 11
326.530730018924
 21
357.4677928849419
 31
0.0
  0
INSERT
  5
41948
330
41930
100
AcDbEntity
  8
30
 62
     0
440
 16777216
370
    -2
100
AcDbBlockReference
  2
_OPEN
 10
444.5307304361238
 20
357.4677928849419
 30
0.0
 41
2.0
 42
2.0
 43
2.0
  0
INSERT
  5
41949
330
41930
100
AcDbEntity
  8
30
 62
     0
440
 16777216
370
    -2
100
AcDbBlockReference
  2
_OPEN
 10
324.530730018924
 20
357.4677928849419
 30
0.0
 41
2.0
 42
2.0
 43
2.0
 50
180.0
  0
MTEXT
  5
4194A
330
41930
100
AcDbEntity
  8
30
 62
     0
440
 16777216
100
AcDbMText
 10
384.5307302275239
 20
362.9677928849418
 30
0.0
 40
7.0
 41
0.0
 46
0.0
 71
     5
 72
     1
  1
\A1;120
 73
     1
 44
1.0
  0
POINT
  5
4194B
330
41930
100
AcDbEntity
  8
DEFPOINTS
 62
     0
440
 16777216
100
AcDbPoint
 10
444.5307304361238
 20
446.8769886205189
 30
0.0
  0
POINT
  5
4194C
330
41930
100
AcDbEntity
  8
DEFPOINTS
 62
     0
440
 16777216
100
AcDbPoint
 10
324.530730018924
 20
475.876990021319
 30
0.0
  0
POINT
  5
4194D
330
41930
100
AcDbEntity
  8
DEFPOINTS
 62
     0
440
 16777216
100
AcDbPoint
 10
324.530730018924
 20
357.4677928849419
 30
0.0
  0
ENDBLK
  5
41932
330
41930
100
AcDbEntity
  8
0
100
AcDbBlockEnd
  0
BLOCK
  5
41959
330
41958
100
AcDbEntity
  8
0
100
AcDbBlockBegin
  2
*D48
 70
     1
 10
0.0
 20
0.0
 30
0.0
  3
*D48
  1

  0
LINE
  5
4195B
330
41958
100
AcDbEntity
  8
30
 62
     0
440
 16777216
370
    -2
100
AcDbLine
 10
444.5307304361238
 20
445.8769886205187
 30
0.0
 11
444.5307304361238
 21
335.3135307047628
 31
0.0
  0
LINE
  5
4195C
330
41958
100
AcDbEntity
  8
30
 62
     0
440
 16777216
370
    -2
100
AcDbLine
 10
301.0307300189236
 20
496.8769900213191
 30
0.0
 11
301.0307300189236
 21
335.3135307047628
 31
0.0
  0
LINE
  5
4195D
330
41958
100
AcDbEntity
  8
30
440
 16777216
370
    -2
100
AcDbLine
 10
441.5307304361236
 20
335.8135307047628
 30
0.0
 11
304.0307300189236
 21
335.8135307047628
 31
0.0
  0
INSERT
  5
4195E
330
41958
100
AcDbEntity
  8
30
440
 16777216
370
    -2
100
AcDbBlockReference
  2
_OPEN
 10
444.5307304361238
 20
335.8135307047628
 30
0.0
 41
3.0
 42
3.0
 43
3.0
  0
INSERT
  5
4195F
330
41958
100
AcDbEntity
  8
30
440
 16777216
370
    -2
100
AcDbBlockReference
  2
_OPEN
 10
301.0307300189236
 20
335.8135307047628
 30
0.0
 41
3.0
 42
3.0
 43
3.0
 50
180.0
  0
MTEXT
  5
41960
330
41958
100
AcDbEntity
  8
30
440
 16777216
100
AcDbMText
 10
372.7807302275236
 20
342.3135307047628
 30
0.0
 40
7.0
 41
0.0
 46
0.0
 71
     5
 72
     1
  1
\A1;143.5
 73
     1
 44
1.0
 90
        3
 63
     9
421
 13158600
 45
1.25
441
        0
  0
POINT
  5
41961
330
41958
100
AcDbEntity
  8
DEFPOINTS
 62
     0
440
 16777216
100
AcDbPoint
 10
444.5307304361238
 20
446.8769886205189
 30
0.0
  0
POINT
  5
41962
330
41958
100
AcDbEntity
  8
DEFPOINTS
 62
     0
440
 16777216
100
AcDbPoint
 10
301.0307300189236
 20
497.8769900213192
 30
0.0
  0
POINT
  5
41963
330
41958
100
AcDbEntity
  8
DEFPOINTS
 62
     0
440
 16777216
100
AcDbPoint
 10
301.0307300189236
 20
335.8135307047628
 30
0.0
  0
ENDBLK
  5
4195A
330
41958
100
AcDbEntity
  8
0
100
AcDbBlockEnd
  0
ENDSEC
  0
SECTION
  2
ENTITIES
  0
MTEXT
  5
3DCE7
330
1E
100
AcDbEntity
  8
19
  6
Continuous
 62
     7
100
AcDbMText
 10
303.5326229684895
 20
769.0723934242543
 30
0.0
 40
9.0
 41
0.0
 46
0.0
 71
     7
 72
     5
  1
PS250-PF 4P PMB\PPS250-NE 4P PMB\PPS250-PE 4P PMB
  7
blockfont
 73
     1
 44
1.0
  0
CIRCLE
  5
3DCE8
330
1E
100
AcDbEntity
  8
24
100
AcDbCircle
 10
85.83227147049388
 20
572.8769900213189
 30
0.0
 40
4.999999999999983
  0
CIRCLE
  5
3DCE9
330
1E
100
AcDbEntity
  8
24
100
AcDbCircle
 10
85.83227147049388
 20
428.8769900213193
 30
0.0
 40
4.999999999999983
  0
LINE
  5
3DCEA
330
1E
100
AcDbEntity
  8
130
100
AcDbLine
 10
33.33227147049456
 20
449.8769900213193
 30
0.0
 11
173.3322714704939
 21
449.8769900213193
 31
0.0
  0
LINE
  5
3DCEB
330
1E
100
AcDbEntity
  8
17
100
AcDbLine
 10
78.83227147049388
 20
428.8769900213193
 30
0.0
 11
92.83227147049386
 21
428.8769900213193
 31
0.0
  0
LINE
  5
3DCEC
330
1E
100
AcDbEntity
  8
16
100
AcDbLine
 10
28.33227147049433
 20
500.8769900213188
 30
0.0
 11
178.3322714704939
 21
500.8769900213188
 31
0.0
  0
LINE
  5
3DCED
330
1E
100
AcDbEntity
  8
130
100
AcDbLine
 10
92.83227147049386
 20
516.116945021319
 30
0.0
 11
78.83227147049388
 21
516.116945021319
 31
0.0
  0
LWPOLYLINE
  5
3DCEE
330
1E
100
AcDbEntity
  8
130
100
AcDbPolyline
 90
        4
 70
     1
 43
0.0
 10
36.83227147049433
 20
475.876990021319
 10
36.83227147049433
 20
525.876990021319
 10
134.8322714704936
 20
525.876990021319
 10
134.8322714704936
 20
475.876990021319
  0
LINE
  5
3DCEF
330
1E
100
AcDbEntity
  8
130
100
AcDbLine
 10
92.83227147049386
 20
507.7177800213188
 30
0.0
 11
78.83227147049388
 21
507.7177800213188
 31
0.0
  0
LINE
  5
3DCF0
330
1E
100
AcDbEntity
  8
130
100
AcDbLine
 10
33.33227147049456
 20
551.876990021319
 30
0.0
 11
173.3322714704939
 21
551.876990021319
 31
0.0
  0
LINE
  5
3DCF1
330
1E
100
AcDbEntity
  8
17
100
AcDbLine
 10
78.83227147049388
 20
572.8769900213189
 30
0.0
 11
92.83227147049386
 21
572.8769900213189
 31
0.0
  0
LWPOLYLINE
  5
3DCF2
330
1E
100
AcDbEntity
  8
130
100
AcDbPolyline
 90
        4
 70
     1
 43
0.0
 10
78.83227147049388
 20
521.0318575213191
 10
78.83227147049388
 20
482.3769900213187
 10
92.83227147049386
 20
482.3769900213187
 10
92.83227147049386
 20
521.0318575213191
  0
LWPOLYLINE
  5
3DCF3
330
1E
100
AcDbEntity
  8
130
100
AcDbPolyline
 90
        4
 70
     1
 43
0.0
 10
173.3322714704939
 20
418.376990021319
 10
173.3322714704939
 20
583.3769900213187
 10
33.33227147049456
 20
583.3769900213187
 10
33.57111168169354
 20
418.376990021319
  0
LINE
  5
3DCF4
330
1E
100
AcDbEntity
  8
130
100
AcDbLine
 10
74.83227147049411
 20
525.876990021319
 30
0.0
 11
74.83227147049411
 21
475.876990021319
 31
0.0
  0
LINE
  5
3DCF5
330
1E
100
AcDbEntity
  8
17
100
AcDbLine
 10
43.83227147049409
 20
428.8769900213193
 30
0.0
 11
57.8322714704941
 21
428.8769900213193
 31
0.0
  0
LWPOLYLINE
  5
3DCF6
330
1E
100
AcDbEntity
  8
130
100
AcDbPolyline
 90
        6
 70
     0
 43
0.0
 10
38.83227147049434
 20
418.376990021319
 10
38.83227147049434
 20
437.3769900213193
 42
-0.4142135623730951
 10
42.33227147049432
 20
440.8769900213193
 10
59.33227147049432
 20
440.8769900213193
 42
-0.4142135623730951
 10
62.83227147049434
 20
437.3769900213193
 10
62.83227147049434
 20
418.376990021319
  0
CIRCLE
  5
3DCF7
330
1E
100
AcDbEntity
  8
24
100
AcDbCircle
 10
50.83227147049433
 20
428.8769900213193
 30
0.0
 40
4.999999999999983
  0
LINE
  5
3DCF8
330
1E
100
AcDbEntity
  8
17
100
AcDbLine
 10
50.83227147049433
 20
435.8769900213192
 30
0.0
 11
50.83227147049433
 21
421.8769900213191
 31
0.0
  0
CIRCLE
  5
3DCF9
330
1E
100
AcDbEntity
  8
12
100
AcDbCircle
 10
-68.33227147049433
 20
437.8769900213193
 30
0.0
 40
3.999999999999986
210
0.0
220
0.0
230
-1.0
  0
LINE
  5
3DCFA
330
1E
100
AcDbEntity
  8
12
  6
DASHDOT
100
AcDbLine
 10
68.33227147049433
 20
443.376990021319
 30
0.0
 11
68.33227147049433
 21
432.3769900213192
 31
0.0
  0
LINE
  5
3DCFB
330
1E
100
AcDbEntity
  8
12
  6
DASHDOT
100
AcDbLine
 10
73.83227147049388
 20
437.8769900213193
 30
0.0
 11
62.83227147049434
 21
437.8769900213193
 31
0.0
  0
CIRCLE
  5
3DCFC
330
1E
100
AcDbEntity
  8
24
100
AcDbCircle
 10
50.83227147049433
 20
572.8769900213189
 30
0.0
 40
4.999999999999983
  0
LINE
  5
3DCFD
330
1E
100
AcDbEntity
  8
17
100
AcDbLine
 10
50.83227147049433
 20
579.8769900213187
 30
0.0
 11
50.83227147049433
 21
565.8769900213187
 31
0.0
  0
CIRCLE
  5
3DCFE
330
1E
100
AcDbEntity
  8
12
100
AcDbCircle
 10
68.33227147049433
 20
563.876990021319
 30
0.0
 40
3.999999999999986
  0
LINE
  5
3DCFF
330
1E
100
AcDbEntity
  8
12
  6
DASHDOT
100
AcDbLine
 10
62.83227147049434
 20
563.876990021319
 30
0.0
 11
73.83227147049388
 21
563.876990021319
 31
0.0
  0
LINE
  5
3DD00
330
1E
100
AcDbEntity
  8
12
  6
DASHDOT
100
AcDbLine
 10
68.33227147049433
 20
569.3769900213188
 30
0.0
 11
68.33227147049433
 21
558.3769900213185
 31
0.0
  0
LINE
  5
3DD01
330
1E
100
AcDbEntity
  8
17
100
AcDbLine
 10
43.83227147049409
 20
572.8769900213189
 30
0.0
 11
57.8322714704941
 21
572.8769900213189
 31
0.0
  0
LINE
  5
3DD02
330
1E
100
AcDbEntity
  8
130
100
AcDbLine
 10
96.83227147049386
 20
525.876990021319
 30
0.0
 11
96.83227147049386
 21
475.876990021319
 31
0.0
  0
CIRCLE
  5
3DD03
330
1E
100
AcDbEntity
  8
12
100
AcDbCircle
 10
103.3322714704939
 20
437.8769900213193
 30
0.0
 40
3.999999999999986
  0
LINE
  5
3DD04
330
1E
100
AcDbEntity
  8
12
  6
DASHDOT
100
AcDbLine
 10
103.3322714704939
 20
443.376990021319
 30
0.0
 11
103.3322714704939
 21
432.3769900213192
 31
0.0
  0
LINE
  5
3DD05
330
1E
100
AcDbEntity
  8
12
  6
DASHDOT
100
AcDbLine
 10
97.83227147049387
 20
437.8769900213193
 30
0.0
 11
108.8322714704941
 21
437.8769900213193
 31
0.0
  0
LINE
  5
3DD06
330
1E
100
AcDbEntity
  8
17
100
AcDbLine
 10
113.8322714704941
 20
428.8769900213193
 30
0.0
 11
127.8322714704936
 21
428.8769900213193
 31
0.0
  0
CIRCLE
  5
3DD07
330
1E
100
AcDbEntity
  8
24
100
AcDbCircle
 10
120.8322714704939
 20
428.8769900213193
 30
0.0
 40
4.999999999999983
  0
LINE
  5
3DD08
330
1E
100
AcDbEntity
  8
17
100
AcDbLine
 10
120.8322714704939
 20
435.8769900213192
 30
0.0
 11
120.8322714704939
 21
421.8769900213191
 31
0.0
  0
CIRCLE
  5
3DD09
330
1E
100
AcDbEntity
  8
24
100
AcDbCircle
 10
155.8322714704939
 20
428.8769900213193
 30
0.0
 40
4.999999999999983
  0
LINE
  5
3DD0A
330
1E
100
AcDbEntity
  8
17
100
AcDbLine
 10
148.8322714704936
 20
428.8769900213193
 30
0.0
 11
162.8322714704934
 21
428.8769900213193
 31
0.0
  0
LINE
  5
3DD0B
330
1E
100
AcDbEntity
  8
17
100
AcDbLine
 10
155.8322714704939
 20
435.8769900213192
 30
0.0
 11
155.8322714704939
 21
421.8769900213191
 31
0.0
  0
CIRCLE
  5
3DD0C
330
1E
100
AcDbEntity
  8
24
100
AcDbCircle
 10
155.8322714704939
 20
572.8769900213189
 30
0.0
 40
4.999999999999983
  0
CIRCLE
  5
3DD0D
330
1E
100
AcDbEntity
  8
24
100
AcDbCircle
 10
120.8322714704939
 20
572.8769900213189
 30
0.0
 40
4.999999999999983
  0
LINE
  5
3DD0E
330
1E
100
AcDbEntity
  8
17
100
AcDbLine
 10
120.8322714704939
 20
579.8769900213187
 30
0.0
 11
120.8322714704939
 21
565.8769900213187
 31
0.0
  0
LINE
  5
3DD0F
330
1E
100
AcDbEntity
  8
17
100
AcDbLine
 10
155.8322714704939
 20
579.8769900213187
 30
0.0
 11
155.8322714704939
 21
565.8769900213187
 31
0.0
  0
LINE
  5
3DD10
330
1E
100
AcDbEntity
  8
12
  6
DASHDOT
100
AcDbLine
 10
108.8322714704941
 20
563.876990021319
 30
0.0
 11
97.83227147049387
 21
563.876990021319
 31
0.0
  0
CIRCLE
  5
3DD11
330
1E
100
AcDbEntity
  8
12
100
AcDbCircle
 10
-103.3322714704939
 20
563.876990021319
 30
0.0
 40
3.999999999999986
210
0.0
220
0.0
230
-1.0
  0
LINE
  5
3DD12
330
1E
100
AcDbEntity
  8
12
  6
DASHDOT
100
AcDbLine
 10
103.3322714704939
 20
569.3769900213188
 30
0.0
 11
103.3322714704939
 21
558.3769900213185
 31
0.0
  0
LINE
  5
3DD13
330
1E
100
AcDbEntity
  8
17
100
AcDbLine
 10
113.8322714704941
 20
572.8769900213189
 30
0.0
 11
127.8322714704936
 21
572.8769900213189
 31
0.0
  0
LINE
  5
3DD14
330
1E
100
AcDbEntity
  8
17
100
AcDbLine
 10
148.8322714704936
 20
572.8769900213189
 30
0.0
 11
162.8322714704934
 21
572.8769900213189
 31
0.0
  0
DIMENSION
  5
3DD15
330
1E
100
AcDbEntity
  8
30
100
AcDbDimension
280
     0
  2
*D9
 10
205.4491516118123
 20
418.376990021319
 30
0.0
 11
205.4491516118122
 21
500.876990021319
 31
0.0
 70
   160
 71
     5
 42
164.9999999999995
 73
     0
 74
     0
 75
     0
  3
STANDARD
100
AcDbAlignedDimension
 13
173.3322714704934
 23
583.3769900213187
 33
0.0
 14
173.3322714704934
 24
418.376990021319
 34
0.0
 50
90.0
100
AcDbRotatedDimension
  0
DIMENSION
  5
3DD16
330
1E
100
AcDbEntity
  8
30
100
AcDbDimension
280
     0
  2
*D10
 10
134.8322714704936
 20
535.7594722779463
 30
0.0
 11
101.5810205316409
 21
535.7594722779463
 31
0.0
 70
   160
 71
     5
 42
97.99999999999933
 73
     0
 74
     0
 75
     0
  3
STANDARD
100
AcDbAlignedDimension
 13
36.83227147049433
 23
525.876990021319
 33
0.0
 14
134.8322714704936
 24
525.876990021319
 34
0.0
100
AcDbRotatedDimension
  0
DIMENSION
  5
3DD17
330
1E
100
AcDbEntity
  8
30
100
AcDbDimension
280
     0
  2
*D11
 10
173.3322714704934
 20
376.4227957329404
 30
0.0
 11
103.3322714704936
 21
382.9227957329404
 31
0.0
 70
    32
 71
     5
 42
139.9999999999995
 73
     0
 74
     0
 75
     0
  3
STANDARD
100
AcDbAlignedDimension
 13
33.33227147049388
 23
397.6277967867578
 33
0.0
 14
173.3322714704934
 24
399.9640076983879
 34
0.0
100
AcDbRotatedDimension
  0
DIMENSION
  5
3DD1B
330
1E
100
AcDbEntity
  8
30
100
AcDbDimension
280
     0
  2
*D15
 10
96.83227147049413
 20
459.635704856064
 30
0.0
 11
108.6656048038274
 21
459.635704856064
 31
0.0
 70
   160
 71
     5
 42
21.99999999999977
 73
     0
 74
     0
 75
     0
  3
STANDARD
100
AcDbAlignedDimension
 13
74.83227147049433
 23
475.876990021319
 33
0.0
 14
96.83227147049413
 24
475.876990021319
 34
0.0
100
AcDbRotatedDimension
  0
LWPOLYLINE
  5
3DD1E
330
1E
100
AcDbEntity
  8
18
100
AcDbPolyline
 90
        4
 70
     1
 43
0.0
 10
261.4118973798261
 20
69.37479361650059
 10
261.4118973798261
 20
271.3747936165006
 10
401.4118973798259
 20
271.3747936165006
 10
401.4118973798259
 20
69.37479361650059
  0
LWPOLYLINE
  5
3DD1F
330
1E
100
AcDbEntity
  8
11
100
AcDbPolyline
 90
        8
 70
     1
 43
0.0
 10
263.9118973798261
 20
145.3747936165006
 42
0.4142135623730951
 10
264.9118973798261
 20
144.3747936165006
 10
362.9118973798262
 20
144.3747936165006
 42
0.4142135623730951
 10
363.9118973798261
 20
145.3747936165006
 10
363.9118973798261
 20
195.3747936165006
 42
0.4142135623730951
 10
362.9118973798262
 20
196.3747936165006
 10
264.9118973798261
 20
196.3747936165006
 42
0.4142135623730951
 10
263.9118973798261
 20
195.3747936165006
  0
LINE
  5
3DD20
330
1E
100
AcDbEntity
  8
16
100
AcDbLine
 10
259.1440842664258
 20
170.3747936165006
 30
0.0
 11
404.488119862626
 21
170.3747936165006
 31
0.0
  0
DIMENSION
  5
3DD21
330
1E
100
AcDbEntity
  8
30
100
AcDbDimension
280
     0
  2
*D16
 10
418.0009019506885
 20
144.3747936165006
 30
0.0
 11
418.0009019506885
 21
170.3747936165006
 31
0.0
 70
   160
 71
     2
 42
52.0
 73
     0
 74
     0
 75
     0
  3
STANDARD
100
AcDbAlignedDimension
 13
362.9118973798262
 23
196.3747936165006
 33
0.0
 14
362.9118973798262
 24
144.3747936165006
 34
0.0
 50
90.0
100
AcDbRotatedDimension
  0
DIMENSION
  5
3DD23
330
1E
100
AcDbEntity
  8
30
100
AcDbDimension
280
     0
  2
*D17
 10
363.9118973798261
 20
42.36700743844767
 30
0.0
 11
318.6700381282101
 21
42.36700743844767
 31
0.0
 70
   160
  1
<>
 71
     2
 42
100.0
 73
     0
 74
     0
 75
     0
  3
STANDARD
100
AcDbAlignedDimension
 13
263.9118973798261
 23
145.3747936165006
 33
0.0
 14
363.9118973798261
 24
145.3747936165006
 34
0.0
100
AcDbRotatedDimension
  0
DIMENSION
  5
3DD24
330
1E
100
AcDbEntity
  8
30
  6
Continuous
100
AcDbDimension
280
     0
  2
*D18
 10
362.9118973798262
 20
195.3747936165008
 30
0.0
 11
379.4426745014296
 21
204.9188422373938
 31
0.0
 70
   164
  1
<>
 71
     5
 42
1.000000000014438
 73
     0
 74
     0
 75
     0
  3
STANDARD1
100
AcDbRadialDimension
 15
363.6305674107747
 25
196.0701448850302
 35
0.0
 40
0.0
  0
LINE
  5
3DD25
330
1E
100
AcDbEntity
  8
16
100
AcDbLine
 10
313.9118973798261
 20
273.6523526381006
 30
0.0
 11
313.9118973798261
 21
65.3747936165006
 31
0.0
  0
LINE
  5
3DD26
330
1E
100
AcDbEntity
  8
18
100
AcDbLine
 10
173.3322714704939
 20
271.3747936165006
 30
0.0
 11
173.3322714704939
 21
69.37479361650059
 31
0.0
  0
LINE
  5
3DD27
330
1E
100
AcDbEntity
  8
18
100
AcDbLine
 10
173.3322714704939
 20
271.3747936165006
 30
0.0
 11
33.33227147049388
 21
271.3747936165006
 31
0.0
  0
LINE
  5
3DD28
330
1E
100
AcDbEntity
  8
18
100
AcDbLine
 10
33.33227147049388
 20
271.3747936165006
 30
0.0
 11
33.33227147049388
 21
69.37479361650059
 31
0.0
  0
LINE
  5
3DD29
330
1E
100
AcDbEntity
  8
18
100
AcDbLine
 10
173.3322714704939
 20
69.37479361650059
 30
0.0
 11
33.33227147049388
 21
69.37479361650059
 31
0.0
  0
LINE
  5
3DD2A
330
1E
100
AcDbEntity
  8
12
100
AcDbLine
 10
31.26278037449379
 20
222.8747936165006
 30
0.0
 11
178.6193422582935
 21
222.8747936165006
 31
0.0
  0
LINE
  5
3DD2B
330
1E
100
AcDbEntity
  8
12
100
AcDbLine
 10
27.93601969749375
 20
117.8747936165006
 30
0.0
 11
176.2413647914939
 21
117.8747936165006
 31
0.0
  0
LINE
  5
3DD2C
330
1E
100
AcDbEntity
  8
16
100
AcDbLine
 10
30.21380198309385
 20
170.3747936165006
 30
0.0
 11
177.2049564352489
 21
170.3747936165006
 31
0.0
  0
LINE
  5
3DD2D
330
1E
100
AcDbEntity
  8
12
  6
HIDDEN
 48
2.0
100
AcDbLine
 10
30.87831413889376
 20
219.6747936165006
 30
0.0
 11
177.9255161626936
 21
219.6747936165006
 31
0.0
  0
LINE
  5
3DD2E
330
1E
100
AcDbEntity
  8
12
  6
HIDDEN
 48
2.0
100
AcDbLine
 10
28.51858146629366
 20
121.0747936165006
 30
0.0
 11
177.0290117668935
 21
121.0747936165006
 31
0.0
  0
LINE
  5
3DD2F
330
1E
100
AcDbEntity
  8
16
100
AcDbLine
 10
85.83227147049388
 20
273.1738406663006
 30
0.0
 11
85.83227147049388
 21
67.51154291330056
 31
0.0
  0
LINE
  5
3DD30
330
1E
100
AcDbEntity
  8
12
100
AcDbLine
 10
130.8322714704938
 20
194.8747936165006
 30
0.0
 11
130.8322714704938
 21
145.8747936165006
 31
0.0
  0
LINE
  5
3DD31
330
1E
100
AcDbEntity
  8
12
100
AcDbLine
 10
131.3322714704939
 20
195.3747936165006
 30
0.0
 11
145.3322714704938
 21
195.3747936165006
 31
0.0
  0
LINE
  5
3DD32
330
1E
100
AcDbEntity
  8
12
100
AcDbLine
 10
145.8322714704939
 20
194.8747936165006
 30
0.0
 11
145.8322714704939
 21
145.8747936165006
 31
0.0
  0
LINE
  5
3DD33
330
1E
100
AcDbEntity
  8
12
100
AcDbLine
 10
131.3322714704939
 20
145.3747936165006
 30
0.0
 11
145.3322714704938
 21
145.3747936165006
 31
0.0
  0
CIRCLE
  5
3DD34
330
1E
100
AcDbEntity
  8
12
100
AcDbCircle
 10
68.33227147049388
 20
207.8747936165006
 30
0.0
 40
3.000000000000001
  0
CIRCLE
  5
3DD35
330
1E
100
AcDbEntity
  8
12
100
AcDbCircle
 10
138.3322714704938
 20
207.8747936165006
 30
0.0
 40
3.000000000000001
  0
CIRCLE
  5
3DD36
330
1E
100
AcDbEntity
  8
12
100
AcDbCircle
 10
68.33227147049388
 20
132.8747936165006
 30
0.0
 40
3.000000000000013
  0
CIRCLE
  5
3DD37
330
1E
100
AcDbEntity
  8
12
100
AcDbCircle
 10
138.3322714704938
 20
132.8747936165006
 30
0.0
 40
3.000000000000013
  0
ARC
  5
3DD38
330
1E
100
AcDbEntity
  8
12
100
AcDbCircle
 10
131.3322714704939
 20
194.8747936165006
 30
0.0
 40
0.5
100
AcDbArc
 50
90.0
 51
180.0
  0
ARC
  5
3DD39
330
1E
100
AcDbEntity
  8
12
100
AcDbCircle
 10
145.3322714704938
 20
194.8747936165006
 30
0.0
 40
0.5
100
AcDbArc
 50
0.0
 51
90.0
  0
ARC
  5
3DD3A
330
1E
100
AcDbEntity
  8
12
100
AcDbCircle
 10
131.3322714704939
 20
145.8747936165006
 30
0.0
 40
0.5
100
AcDbArc
 50
180.0
 51
270.0
  0
ARC
  5
3DD3B
330
1E
100
AcDbEntity
  8
12
100
AcDbCircle
 10
145.3322714704938
 20
145.8747936165006
 30
0.0
 40
0.5
100
AcDbArc
 50
270.0
 51
0.0
  0
DIMENSION
  5
3DD3C
330
1E
100
AcDbEntity
  8
30
  6
Continuous
100
AcDbDimension
280
     0
  2
*D19
 10
136.3294203992632
 20
205.641278990253
 30
0.0
 11
184.9962899785857
 21
251.1775156862106
 31
0.0
 70
   163
  1
<>
 71
     5
 42
6.000000000013159
 73
     0
 74
     0
 75
     0
  3
STANDARD1
100
AcDbDiametricDimension
 15
140.3351225419257
 25
210.1083082429473
 35
0.0
 40
0.0
  0
DIMENSION
  5
3DD3D
330
1E
100
AcDbEntity
  8
30
100
AcDbDimension
280
     0
  2
*D20
 10
85.83227147049388
 20
44.727036459725
 30
0.0
 11
52.99893813716055
 21
44.727036459725
 31
0.0
 70
   160
  1
<>
 71
     2
 42
17.5
 73
     0
 74
     0
 75
     0
  3
STANDARD
100
AcDbAlignedDimension
 13
68.33227147049388
 23
132.8747936165006
 33
0.0
 14
85.83227147049388
 24
67.51154291330056
 34
0.0
100
AcDbRotatedDimension
  0
DIMENSION
  5
3DD3E
330
1E
100
AcDbEntity
  8
30
100
AcDbDimension
280
     0
  2
*D21
 10
138.3322714704938
 20
22.15862694269754
 30
0.0
 11
105.1165757801884
 21
22.15862694269754
 31
0.0
 70
   160
  1
<>
 71
     2
 42
69.99999999999992
 73
     0
 74
     0
 75
     0
  3
STANDARD
100
AcDbAlignedDimension
 13
68.33227147049388
 23
132.8747936165006
 33
0.0
 14
138.3322714704938
 24
132.8747936165006
 34
0.0
100
AcDbRotatedDimension
  0
DIMENSION
  5
3DD3F
330
1E
100
AcDbEntity
  8
30
100
AcDbDimension
280
     0
  2
*D22
 10
145.8322714704939
 20
44.46581976332504
 30
0.0
 11
120.1656048038272
 21
44.46581976332504
 31
0.0
 70
   160
  1
<>
 71
     2
 42
15.0
 73
     0
 74
     0
 75
     0
  3
STANDARD
100
AcDbAlignedDimension
 13
130.8322714704938
 23
145.8747936165006
 33
0.0
 14
145.8322714704939
 24
145.8747936165006
 34
0.0
100
AcDbRotatedDimension
  0
DIMENSION
  5
3DD40
330
1E
100
AcDbEntity
  8
30
100
AcDbDimension
280
     0
  2
*D23
 10
188.1179693493107
 20
195.3747936165006
 30
0.0
 11
188.1179693493106
 21
170.3747936165006
 31
0.0
 70
   160
  1
<>
 71
     2
 42
50.0
 73
     0
 74
     0
 75
     0
  3
STANDARD
100
AcDbAlignedDimension
 13
145.3322714704938
 23
145.3747936165006
 33
0.0
 14
145.3322714704938
 24
195.3747936165006
 34
0.0
 50
90.0
100
AcDbRotatedDimension
  0
DIMENSION
  5
3DD41
330
1E
100
AcDbEntity
  8
30
100
AcDbDimension
280
     0
  2
*D24
 10
208.2778667978808
 20
132.8747936165004
 30
0.0
 11
208.2778667978807
 21
170.3747936165006
 31
0.0
 70
   160
  1
<>
 71
     2
 42
75.0
 73
     0
 74
     0
 75
     0
  3
STANDARD
100
AcDbAlignedDimension
 13
138.3322714704938
 23
207.8747936165006
 33
0.0
 14
138.3322714704938
 24
132.8747936165006
 34
0.0
 50
90.0
100
AcDbRotatedDimension
  0
INSERT
  5
3DD42
330
1E
100
AcDbEntity
  8
12
  6
DASHDOT
100
AcDbBlockReference
  2
SW_CENTERMARKSYMBOL_54
 10
68.33227147049388
 20
207.8747936165006
 30
0.0
 41
2.0
 42
2.0
 43
2.0
  0
INSERT
  5
3DD43
330
1E
100
AcDbEntity
  8
12
  6
DASHDOT
100
AcDbBlockReference
  2
SW_CENTERMARKSYMBOL_55
 10
68.33227147049388
 20
132.8747936165006
 30
0.0
 41
2.0
 42
2.0
 43
2.0
  0
INSERT
  5
3DD44
330
1E
100
AcDbEntity
  8
12
  6
DASHDOT
100
AcDbBlockReference
  2
SW_CENTERMARKSYMBOL_56
 10
138.3322714704938
 20
207.8747936165006
 30
0.0
 41
2.0
 42
2.0
 43
2.0
  0
INSERT
  5
3DD45
330
1E
100
AcDbEntity
  8
12
  6
DASHDOT
100
AcDbBlockReference
  2
SW_CENTERMARKSYMBOL_57
 10
138.3322714704938
 20
132.8747936165006
 30
0.0
 41
2.0
 42
2.0
 43
2.0
  0
LINE
  5
3DD46
330
1E
100
AcDbEntity
  8
12
  6
DASHDOT
100
AcDbLine
 10
138.3322714704938
 20
200.1360103129006
 30
0.0
 11
138.3322714704938
 21
142.1360103129006
 31
0.0
  0
LEADER
  5
3DD47
330
1E
100
AcDbEntity
  8
SLD-0
100
AcDbLeader
  3
SLDDIMSTYLE6
 76
     2
 10
151.3511226108642
 20
117.8747936165006
 30
0.0
 10
160.4594940746212
 20
85.49266137830057
 30
0.0
  0
MTEXT
  5
3DD48
330
1E
100
AcDbEntity
  8
19
100
AcDbMText
 10
160.4594940746212
 20
100.4926613783005
 30
0.0
 40
5.0
 41
58.0
 46
0.0
 71
     1
 72
     5
  1
Mounting\Pplate
  7
blockfont
 73
     1
 44
1.0
  0
LINE
  5
3DD49
330
1E
100
AcDbEntity
  8
SLD-0
100
AcDbLine
 10
160.4594940746212
 20
85.49266137830057
 30
0.0
 11
194.9999986540536
 21
85.49266137830057
 31
0.0
  0
INSERT
  5
3DD4A
330
1E
100
AcDbEntity
  8
10
100
AcDbBlockReference
  2
A$C3F0A4506
 10
33.5949961488293
 20
401.8766818964945
 30
0.0
  0
LINE
  5
3DD4B
330
1E
100
AcDbEntity
  8
10
100
AcDbLine
 10
173.3322714704939
 20
416.1769867549189
 30
0.0
 11
33.57429622257086
 21
416.1769867549189
 31
0.0
  0
LINE
  5
3DD4C
330
1E
100
AcDbEntity
  8
10
100
AcDbLine
 10
173.3322714704939
 20
401.8766818949116
 30
0.0
 11
173.3322714704939
 21
418.376990021319
 31
0.0
  0
LINE
  5
3DD4D
330
1E
100
AcDbEntity
  8
10
100
AcDbLine
 10
33.5949961488293
 20
401.8766818949116
 30
0.0
 11
33.57111168169354
 21
418.376990021319
 31
0.0
  0
LWPOLYLINE
  5
3DD4E
330
1E
100
AcDbEntity
  8
130
100
AcDbPolyline
 90
        6
 70
     0
 43
0.0
 10
73.83227147049388
 20
418.376990021319
 10
73.83227147049388
 20
437.3769900213193
 42
-0.4142135623730951
 10
77.33227147049388
 20
440.8769900213193
 10
94.33227147049384
 20
440.8769900213193
 42
-0.4142135623730951
 10
97.83227147049387
 20
437.3769900213193
 10
97.83227147049387
 20
418.376990021319
  0
LWPOLYLINE
  5
3DD4F
330
1E
100
AcDbEntity
  8
130
100
AcDbPolyline
 90
        6
 70
     0
 43
0.0
 10
108.8322714704936
 20
418.376990021319
 10
108.8322714704936
 20
437.3769900213193
 42
-0.4142135623730951
 10
112.3322714704936
 20
440.8769900213193
 10
129.3322714704936
 20
440.8769900213193
 42
-0.4142135623730951
 10
132.8322714704936
 20
437.3769900213193
 10
132.8322714704936
 20
418.376990021319
  0
LWPOLYLINE
  5
3DD50
330
1E
100
AcDbEntity
  8
130
100
AcDbPolyline
 90
        6
 70
     0
 43
0.0
 10
143.8322714704936
 20
418.376990021319
 10
143.8322714704936
 20
437.3769900213193
 42
-0.4142135623730951
 10
147.3322714704936
 20
440.8769900213193
 10
164.3322714704939
 20
440.8769900213193
 42
-0.4142135623730951
 10
167.8322714704939
 20
437.3769900213193
 10
167.8322714704939
 20
418.376990021319
  0
LWPOLYLINE
  5
3DD51
330
1E
100
AcDbEntity
  8
130
100
AcDbPolyline
 90
        6
 70
     0
 43
0.0
 10
38.83227147049434
 20
583.3769900213185
 10
38.83227147049434
 20
564.3769900213185
 42
0.4142135623730951
 10
42.33227147049432
 20
560.8769900213185
 10
59.33227147049432
 20
560.8769900213185
 42
0.4142135623730951
 10
62.83227147049434
 20
564.3769900213185
 10
62.83227147049434
 20
583.3769900213185
  0
LWPOLYLINE
  5
3DD52
330
1E
100
AcDbEntity
  8
130
100
AcDbPolyline
 90
        6
 70
     0
 43
0.0
 10
73.83227147049388
 20
583.3769900213185
 10
73.83227147049388
 20
564.3769900213185
 42
0.4142135623730951
 10
77.33227147049388
 20
560.8769900213185
 10
94.33227147049384
 20
560.8769900213185
 42
0.4142135623730951
 10
97.83227147049387
 20
564.3769900213185
 10
97.83227147049387
 20
583.3769900213185
  0
LWPOLYLINE
  5
3DD53
330
1E
100
AcDbEntity
  8
130
100
AcDbPolyline
 90
        6
 70
     0
 43
0.0
 10
108.8322714704936
 20
583.3769900213185
 10
108.8322714704936
 20
564.3769900213185
 42
0.4142135623730951
 10
112.3322714704936
 20
560.8769900213185
 10
129.3322714704936
 20
560.8769900213185
 42
0.4142135623730951
 10
132.8322714704936
 20
564.3769900213185
 10
132.8322714704936
 20
583.3769900213185
  0
LWPOLYLINE
  5
3DD54
330
1E
100
AcDbEntity
  8
130
100
AcDbPolyline
 90
        6
 70
     0
 43
0.0
 10
143.8322714704936
 20
583.3769900213185
 10
143.8322714704936
 20
564.3769900213185
 42
0.4142135623730951
 10
147.3322714704936
 20
560.8769900213185
 10
164.3322714704939
 20
560.8769900213185
 42
0.4142135623730951
 10
167.8322714704939
 20
564.3769900213185
 10
167.8322714704939
 20
583.3769900213185
  0
INSERT
  5
3DD55
330
1E
100
AcDbEntity
  8
10
100
AcDbBlockReference
  2
A$C3F0A4506
 10
33.5949961488293
 20
599.8772981461432
 30
0.0
 41
-1.0
 50
180.0
  0
LINE
  5
3DD56
330
1E
100
AcDbEntity
  8
10
100
AcDbLine
 10
173.3322714704939
 20
585.576993287719
 30
0.0
 11
33.57429622257086
 21
585.576993287719
 31
0.0
  0
LINE
  5
3DD57
330
1E
100
AcDbEntity
  8
10
100
AcDbLine
 10
173.3322714704939
 20
599.8772981477262
 30
0.0
 11
173.3322714704939
 21
583.3769900213185
 31
0.0
  0
LINE
  5
3DD58
330
1E
100
AcDbEntity
  8
10
100
AcDbLine
 10
33.5949961488293
 20
599.8772981477262
 30
0.0
 11
33.57111168169354
 21
583.3769900213185
 31
0.0
  0
LWPOLYLINE
  5
3DD59
330
1E
100
AcDbEntity
  8
18
100
AcDbPolyline
 90
        4
 70
     1
 43
0.0
 10
454.0845545010251
 20
69.37479361650059
 10
454.0845545010251
 20
271.3747936165006
 10
594.0845545010254
 20
271.3747936165006
 10
594.0845545010254
 20
69.37479361650059
  0
LINE
  5
3DD5A
330
1E
100
AcDbEntity
  8
16
100
AcDbLine
 10
451.8167413876251
 20
170.3747936165006
 30
0.0
 11
597.1607769838254
 21
170.3747936165006
 31
0.0
  0
DIMENSION
  5
3DD5B
330
1E
100
AcDbEntity
  8
30
100
AcDbDimension
280
     0
  2
*D25
 10
612.6681879929328
 20
146.3747936165004
 30
0.0
 11
612.6681879929328
 21
169.6383890570952
 31
0.0
 70
   160
 71
     2
 42
48.0
 73
     0
 74
     0
 75
     0
  3
STANDARD
100
AcDbAlignedDimension
 13
517.5326711658191
 23
194.3747936165006
 33
0.0
 14
517.5326711658191
 24
146.3747936165006
 34
0.0
 50
90.0
100
AcDbRotatedDimension
  0
DIMENSION
  5
3DD5D
330
1E
100
AcDbEntity
  8
30
  6
Continuous
100
AcDbDimension
280
     0
  2
*D26
 10
517.5326711658186
 20
193.3747936165007
 30
0.0
 11
534.063448287419
 21
202.9188422374034
 31
0.0
 70
   164
  1
<>
 71
     5
 42
1.00000000001296
 73
     0
 74
     0
 75
     0
  3
STANDARD1
100
AcDbRadialDimension
 15
518.2513411967659
 25
194.0701448850294
 35
0.0
 40
0.0
  0
LINE
  5
3DD5E
330
1E
100
AcDbEntity
  8
16
100
AcDbLine
 10
506.5845545010254
 20
273.6523526381006
 30
0.0
 11
506.5845545010254
 21
65.3747936165006
 31
0.0
  0
LWPOLYLINE
  5
3DD5F
330
1E
100
AcDbEntity
  8
11
100
AcDbPolyline
 90
        8
 70
     1
 43
0.0
 10
494.5845545010254
 20
147.3747936165006
 10
494.5845545010254
 20
193.3747936165006
 42
-0.4142135623730951
 10
495.5845545010251
 20
194.3747936165006
 10
517.5845545010254
 20
194.3747936165006
 42
-0.4142135623730951
 10
518.5845545010254
 20
193.3747936165006
 10
518.5845545010254
 20
147.3747936165006
 42
-0.4142135623730951
 10
517.5845545010254
 20
146.3747936165006
 10
495.5845545010251
 20
146.3747936165006
 42
-0.4142135623730951
  0
DIMENSION
  5
3DD60
330
1E
100
AcDbEntity
  8
30
100
AcDbDimension
280
     0
  2
*D27
 10
494.5845545010254
 20
41.09526701850245
 30
0.0
 11
535.3891252867803
 21
41.09526701850245
 31
0.0
 70
   160
  1
<>
 71
     2
 42
24.00000000000006
 73
     0
 74
     0
 75
     0
  3
STANDARD
100
AcDbAlignedDimension
 13
518.5845545010254
 23
147.3747936165006
 33
0.0
 14
494.5845545010254
 24
147.3747936165006
 34
0.0
100
AcDbRotatedDimension
  0
MTEXT
  5
3DD61
330
1E
100
AcDbEntity
  8
19
100
AcDbMText
 10
281.2444005720788
 20
18.60910820368212
 30
0.0
 40
7.826237649998486
 41
0.0
 46
0.0
 71
     1
 72
     1
  1
[Cutout A]
 73
     1
 44
1.0
  0
MTEXT
  5
3DD62
330
1E
100
AcDbEntity
  8
19
100
AcDbMText
 10
479.5195420106072
 20
18.60910820368212
 30
0.0
 40
7.826237649998486
 41
0.0
 46
0.0
 71
     1
 72
     1
  1
[Cutout B]
 73
     1
 44
1.0
  0
LINE
  5
3DE01
330
1E
100
AcDbEntity
  8
10
100
AcDbLine
 10
158.3322714704939
 20
538.980545021319
 30
0.0
 11
159.3322714704939
 21
539.9805450213189
 31
0.0
  0
LINE
  5
3DE02
330
1E
100
AcDbEntity
  8
10
100
AcDbLine
 10
153.3322714704939
 20
540.3265225213186
 30
0.0
 11
153.3322714704939
 21
532.626990021319
 31
0.0
  0
LINE
  5
3DE03
330
1E
100
AcDbEntity
  8
10
100
AcDbLine
 10
158.3322714704939
 20
541.1018650213186
 30
0.0
 11
159.3322714704939
 21
542.1018650213186
 31
0.0
  0
LINE
  5
3DE04
330
1E
100
AcDbEntity
  8
10
100
AcDbLine
 10
152.3322714704939
 20
532.9805450213187
 30
0.0
 11
153.3322714704939
 21
533.980545021319
 31
0.0
  0
LINE
  5
3DE05
330
1E
100
AcDbEntity
  8
10
100
AcDbLine
 10
153.4704489704938
 20
540.1291275213191
 30
0.0
 11
154.1884814704938
 21
540.8471600213188
 31
0.0
  0
LINE
  5
3DE06
330
1E
100
AcDbEntity
  8
10
100
AcDbLine
 10
158.3322714704939
 20
536.8592225213185
 30
0.0
 11
159.3322714704939
 21
537.8592225213187
 31
0.0
  0
LINE
  5
3DE07
330
1E
100
AcDbEntity
  8
10
100
AcDbLine
 10
158.3322714704939
 20
537.9198825213189
 30
0.0
 11
159.3322714704939
 21
538.9198825213188
 31
0.0
  0
LINE
  5
3DE08
330
1E
100
AcDbEntity
  8
10
100
AcDbLine
 10
158.3322714704939
 20
535.4450100213189
 30
0.0
 11
159.3322714704939
 21
536.4450100213189
 31
0.0
  0
LINE
  5
3DE09
330
1E
100
AcDbEntity
  8
10
100
AcDbLine
 10
157.9834539704941
 20
533.6819775213187
 30
0.0
 11
159.3322714704939
 21
535.0307975213186
 31
0.0
  0
LINE
  5
3DE0A
330
1E
100
AcDbEntity
  8
10
100
AcDbLine
 10
152.3322714704939
 20
533.3340975213185
 30
0.0
 11
153.3322714704939
 21
534.3340975213187
 31
0.0
  0
LINE
  5
3DE0B
330
1E
100
AcDbEntity
  8
10
100
AcDbLine
 10
152.3322714704939
 20
538.9909525213188
 30
0.0
 11
153.3322714704939
 21
539.9909525213188
 31
0.0
  0
LINE
  5
3DE0C
330
1E
100
AcDbEntity
  8
10
100
AcDbLine
 10
152.3322714704939
 20
540.0516125213189
 30
0.0
 11
153.7517389704942
 21
541.4710775213189
 31
0.0
  0
LINE
  5
3DE0D
330
1E
100
AcDbEntity
  8
10
100
AcDbLine
 10
156.9643864704937
 20
535.1377850213189
 30
0.0
 11
157.6824189704941
 21
535.8558175213186
 31
0.0
  0
LINE
  5
3DE0E
330
1E
100
AcDbEntity
  8
10
100
AcDbLine
 10
158.129033970494
 20
533.4740050213188
 30
0.0
 11
159.3322714704939
 21
534.6772425213189
 31
0.0
  0
LINE
  5
3DE0F
330
1E
100
AcDbEntity
  8
10
100
AcDbLine
 10
158.3322714704939
 20
537.2127775213189
 30
0.0
 11
159.3322714704939
 21
538.2127775213182
 31
0.0
  0
LINE
  5
3DE10
330
1E
100
AcDbEntity
  8
10
100
AcDbLine
 10
152.3322714704939
 20
541.4658250213189
 30
0.0
 11
153.1694139704939
 21
542.3029675213188
 31
0.0
  0
LINE
  5
3DE11
330
1E
100
AcDbEntity
  8
10
100
AcDbLine
 10
153.7616089704941
 20
539.7131825213189
 30
0.0
 11
154.479641470494
 21
540.4312150213185
 31
0.0
  0
LINE
  5
3DE12
330
1E
100
AcDbEntity
  8
10
100
AcDbLine
 10
152.3322714704939
 20
536.1625250213188
 30
0.0
 11
153.3322714704939
 21
537.1625250213188
 31
0.0
  0
LINE
  5
3DE13
330
1E
100
AcDbEntity
  8
10
100
AcDbLine
 10
152.3322714704939
 20
535.1018650213186
 30
0.0
 11
153.3322714704939
 21
536.1018650213186
 31
0.0
  0
LINE
  5
3DE14
330
1E
100
AcDbEntity
  8
10
100
AcDbLine
 10
153.6160289704937
 20
539.9211550213188
 30
0.0
 11
154.3340614704937
 21
540.6391875213189
 31
0.0
  0
LINE
  5
3DE15
330
1E
100
AcDbEntity
  8
10
100
AcDbLine
 10
156.0909014704941
 20
536.3856200213188
 30
0.0
 11
156.808936470494
 21
537.1036550213188
 31
0.0
  0
LINE
  5
3DE16
330
1E
100
AcDbEntity
  8
10
100
AcDbLine
 10
158.3322714704939
 20
536.505670021319
 30
0.0
 11
159.3322714704939
 21
537.5056700213185
 31
0.0
  0
LINE
  5
3DE17
330
1E
100
AcDbEntity
  8
10
100
AcDbLine
 10
159.3322714704939
 20
532.626990021319
 30
0.0
 11
159.3322714704939
 21
542.6269900213188
 31
0.0
  0
LINE
  5
3DE18
330
1E
100
AcDbEntity
  8
10
100
AcDbLine
 10
152.3322714704939
 20
540.7587175213182
 30
0.0
 11
153.460576470494
 21
541.8870225213188
 31
0.0
  0
LINE
  5
3DE19
330
1E
100
AcDbEntity
  8
10
100
AcDbLine
 10
152.3322714704939
 20
540.4051650213189
 30
0.0
 11
153.6061564704939
 21
541.6790500213188
 31
0.0
  0
LINE
  5
3DE1A
330
1E
100
AcDbEntity
  8
10
100
AcDbLine
 10
158.3322714704939
 20
538.2734375213183
 30
0.0
 11
159.3322714704939
 21
539.2734375213183
 31
0.0
  0
LINE
  5
3DE1B
330
1E
100
AcDbEntity
  8
10
100
AcDbLine
 10
152.3322714704939
 20
536.5160775213187
 30
0.0
 11
153.3322714704939
 21
537.5160775213189
 31
0.0
  0
LINE
  5
3DE1C
330
1E
100
AcDbEntity
  8
10
100
AcDbLine
 10
157.5467114704941
 20
534.3058950213189
 30
0.0
 11
158.264743970494
 21
535.0239275213189
 31
0.0
  0
LINE
  5
3DE1D
330
1E
100
AcDbEntity
  8
10
100
AcDbLine
 10
154.9262564704938
 20
538.0494025213188
 30
0.0
 11
155.6442889704938
 21
538.7674350213185
 31
0.0
  0
LINE
  5
3DE1E
330
1E
100
AcDbEntity
  8
10
100
AcDbLine
 10
155.217418970494
 20
537.6334575213186
 30
0.0
 11
155.9354514704939
 21
538.351490021319
 31
0.0
  0
LINE
  5
3DE1F
330
1E
100
AcDbEntity
  8
10
100
AcDbLine
 10
152.685826470494
 20
532.626990021319
 30
0.0
 11
153.3322714704939
 21
533.2734375213187
 31
0.0
  0
LINE
  5
3DE20
330
1E
100
AcDbEntity
  8
10
100
AcDbLine
 10
152.3322714704939
 20
541.8193775213185
 30
0.0
 11
153.023833970494
 21
542.5109400213186
 31
0.0
  0
LINE
  5
3DE21
330
1E
100
AcDbEntity
  8
10
100
AcDbLine
 10
152.3322714704939
 20
542.6269900213188
 30
0.0
 11
152.9425989704939
 21
542.6269900213188
 31
0.0
  0
LINE
  5
3DE22
330
1E
100
AcDbEntity
  8
10
100
AcDbLine
 10
152.3322714704939
 20
535.4554175213186
 30
0.0
 11
153.3322714704939
 21
536.4554175213188
 31
0.0
  0
LINE
  5
3DE23
330
1E
100
AcDbEntity
  8
10
100
AcDbLine
 10
152.3322714704939
 20
532.626990021319
 30
0.0
 11
153.3322714704939
 21
533.6269900213189
 31
0.0
  0
LINE
  5
3DE24
330
1E
100
AcDbEntity
  8
10
100
AcDbLine
 10
153.0393789704938
 20
532.626990021319
 30
0.0
 11
153.3322714704939
 21
532.919882521319
 31
0.0
  0
LINE
  5
3DE25
330
1E
100
AcDbEntity
  8
10
100
AcDbLine
 10
158.3322714704939
 20
534.9274600213187
 30
0.0
 11
158.3322714704939
 21
542.6269900213188
 31
0.0
  0
LINE
  5
3DE26
330
1E
100
AcDbEntity
  8
10
100
AcDbLine
 10
158.565776470494
 20
532.8500875213189
 30
0.0
 11
159.3322714704939
 21
533.6165825213189
 31
0.0
  0
LINE
  5
3DE27
330
1E
100
AcDbEntity
  8
10
100
AcDbLine
 10
158.3322714704939
 20
535.7985625213188
 30
0.0
 11
159.3322714704939
 21
536.7985625213187
 31
0.0
  0
LINE
  5
3DE28
330
1E
100
AcDbEntity
  8
10
100
AcDbLine
 10
153.9071914704939
 20
539.5052100213188
 30
0.0
 11
154.6252239704938
 21
540.2232425213188
 31
0.0
  0
LINE
  5
3DE29
330
1E
100
AcDbEntity
  8
10
100
AcDbLine
 10
154.4895139704938
 20
538.6733200213183
 30
0.0
 11
155.2075464704942
 21
539.3913525213189
 31
0.0
  0
LINE
  5
3DE2A
330
1E
100
AcDbEntity
  8
10
100
AcDbLine
 10
158.3322714704939
 20
535.0914575213189
 30
0.0
 11
159.3322714704939
 21
536.0914575213189
 31
0.0
  0
LINE
  5
3DE2B
330
1E
100
AcDbEntity
  8
10
100
AcDbLine
 10
157.109968970494
 20
534.9298125213188
 30
0.0
 11
157.828001470494
 21
535.6478450213186
 31
0.0
  0
LINE
  5
3DE2C
330
1E
100
AcDbEntity
  8
10
100
AcDbLine
 10
152.3322714704939
 20
533.6876500213188
 30
0.0
 11
153.3322714704939
 21
534.6876500213186
 31
0.0
  0
LINE
  5
3DE2D
330
1E
100
AcDbEntity
  8
10
100
AcDbLine
 10
152.3322714704939
 20
537.5767375213188
 30
0.0
 11
153.3322714704939
 21
538.5767375213189
 31
0.0
  0
LINE
  5
3DE2E
330
1E
100
AcDbEntity
  8
10
100
AcDbLine
 10
158.4201964704937
 20
533.0580600213186
 30
0.0
 11
159.3322714704939
 21
533.9701375213186
 31
0.0
  0
LINE
  5
3DE2F
330
1E
100
AcDbEntity
  8
10
100
AcDbLine
 10
158.3322714704939
 20
539.3340975213185
 30
0.0
 11
159.3322714704939
 21
540.3340975213185
 31
0.0
  0
LINE
  5
3DE30
330
1E
100
AcDbEntity
  8
10
100
AcDbLine
 10
158.3322714704939
 20
542.6269900213188
 30
0.0
 11
159.3322714704939
 21
542.6269900213188
 31
0.0
  0
LINE
  5
3DE31
330
1E
100
AcDbEntity
  8
10
100
AcDbLine
 10
158.3322714704939
 20
540.041205021319
 30
0.0
 11
159.3322714704939
 21
541.041205021319
 31
0.0
  0
LINE
  5
3DE32
330
1E
100
AcDbEntity
  8
10
100
AcDbLine
 10
154.1983514704941
 20
539.0892650213188
 30
0.0
 11
154.916383970494
 21
539.807297521319
 31
0.0
  0
LINE
  5
3DE33
330
1E
100
AcDbEntity
  8
10
100
AcDbLine
 10
158.3322714704939
 20
542.5160775213189
 30
0.0
 11
158.4431839704941
 21
542.6269900213188
 31
0.0
  0
LINE
  5
3DE34
330
1E
100
AcDbEntity
  8
10
100
AcDbLine
 10
152.3322714704939
 20
532.626990021319
 30
0.0
 11
152.3322714704939
 21
542.6269900213188
 31
0.0
  0
LINE
  5
3DE35
330
1E
100
AcDbEntity
  8
10
100
AcDbLine
 10
157.8378714704943
 20
533.889950021319
 30
0.0
 11
159.3322714704939
 21
535.3843500213189
 31
0.0
  0
LINE
  5
3DE36
330
1E
100
AcDbEntity
  8
10
100
AcDbLine
 10
156.8188064704939
 20
535.345757521319
 30
0.0
 11
157.5368389704938
 21
536.0637900213189
 31
0.0
  0
LINE
  5
3DE37
330
1E
100
AcDbEntity
  8
10
100
AcDbLine
 10
152.3322714704939
 20
541.1122725213187
 30
0.0
 11
153.3149964704942
 21
542.0949950213189
 31
0.0
  0
LINE
  5
3DE38
330
1E
100
AcDbEntity
  8
10
100
AcDbLine
 10
158.3322714704939
 20
537.5663300213187
 30
0.0
 11
159.3322714704939
 21
538.5663300213185
 31
0.0
  0
LINE
  5
3DE39
330
1E
100
AcDbEntity
  8
10
100
AcDbLine
 10
158.6962339704939
 20
532.626990021319
 30
0.0
 11
159.3322714704939
 21
533.2630300213186
 31
0.0
  0
LINE
  5
3DE3A
330
1E
100
AcDbEntity
  8
10
100
AcDbLine
 10
155.5085789704937
 20
537.2175125213185
 30
0.0
 11
156.2266114704937
 21
537.9355450213189
 31
0.0
  0
LINE
  5
3DE3B
330
1E
100
AcDbEntity
  8
10
100
AcDbLine
 10
152.3322714704939
 20
542.5264850213185
 30
0.0
 11
152.4327764704937
 21
542.6269900213188
 31
0.0
  0
LINE
  5
3DE3C
330
1E
100
AcDbEntity
  8
10
100
AcDbLine
 10
157.6922914704939
 20
534.0979225213185
 30
0.0
 11
159.3322714704939
 21
535.7379025213189
 31
0.0
  0
LINE
  5
3DE3D
330
1E
100
AcDbEntity
  8
10
100
AcDbLine
 10
152.3322714704939
 20
538.2838450213189
 30
0.0
 11
153.3322714704939
 21
539.2838450213189
 31
0.0
  0
LINE
  5
3DE3E
330
1E
100
AcDbEntity
  8
10
100
AcDbLine
 10
155.9453214704942
 20
536.5935950213189
 30
0.0
 11
156.6633539704937
 21
537.3116275213185
 31
0.0
  0
LINE
  5
3DE3F
330
1E
100
AcDbEntity
  8
10
100
AcDbLine
 10
152.3322714704939
 20
534.3947575213189
 30
0.0
 11
153.3322714704939
 21
535.3947575213188
 31
0.0
  0
LINE
  5
3DE40
330
1E
100
AcDbEntity
  8
10
100
AcDbLine
 10
152.3322714704939
 20
537.2231850213188
 30
0.0
 11
153.3322714704939
 21
538.2231850213188
 31
0.0
  0
LINE
  5
3DE41
330
1E
100
AcDbEntity
  8
10
100
AcDbLine
 10
152.3322714704939
 20
536.8696300213189
 30
0.0
 11
153.3322714704939
 21
537.8696300213189
 31
0.0
  0
LINE
  5
3DE42
330
1E
100
AcDbEntity
  8
10
100
AcDbLine
 10
157.4011289704938
 20
534.5138675213186
 30
0.0
 11
158.1191614704937
 21
535.2319000213189
 31
0.0
  0
LINE
  5
3DE43
330
1E
100
AcDbEntity
  8
10
100
AcDbLine
 10
152.3322714704939
 20
542.1729325213187
 30
0.0
 11
152.7863314704939
 21
542.6269900213188
 31
0.0
  0
LINE
  5
3DE44
330
1E
100
AcDbEntity
  8
10
100
AcDbLine
 10
154.0527714704942
 20
539.2972375213189
 30
0.0
 11
154.7708039704937
 21
540.0152700213189
 31
0.0
  0
LINE
  5
3DE45
330
1E
100
AcDbEntity
  8
10
100
AcDbLine
 10
158.2746139704938
 20
533.2660325213189
 30
0.0
 11
159.3322714704939
 21
534.3236900213188
 31
0.0
  0
LINE
  5
3DE46
330
1E
100
AcDbEntity
  8
10
100
AcDbLine
 10
152.3322714704939
 20
532.626990021319
 30
0.0
 11
153.3322714704939
 21
532.626990021319
 31
0.0
  0
LINE
  5
3DE47
330
1E
100
AcDbEntity
  8
10
100
AcDbLine
 10
152.9425989704939
 20
542.6269900213188
 30
0.0
 11
158.3322714704939
 21
534.9274600213187
 31
0.0
  0
LINE
  5
3DE48
330
1E
100
AcDbEntity
  8
10
100
AcDbLine
 10
155.7997414704939
 20
536.8015675213189
 30
0.0
 11
156.5177739704938
 21
537.5196000213186
 31
0.0
  0
LINE
  5
3DE49
330
1E
100
AcDbEntity
  8
10
100
AcDbLine
 10
159.0497864704937
 20
532.626990021319
 30
0.0
 11
159.3322714704939
 21
532.9094750213189
 31
0.0
  0
LINE
  5
3DE4A
330
1E
100
AcDbEntity
  8
10
100
AcDbLine
 10
152.3322714704939
 20
538.6373975213189
 30
0.0
 11
153.3322714704939
 21
539.6373975213188
 31
0.0
  0
LINE
  5
3DE4B
330
1E
100
AcDbEntity
  8
10
100
AcDbLine
 10
152.3322714704939
 20
539.6980575213188
 30
0.0
 11
153.8973189704941
 21
541.2631050213185
 31
0.0
  0
LINE
  5
3DE4C
330
1E
100
AcDbEntity
  8
10
100
AcDbLine
 10
156.5276439704942
 20
535.7617025213188
 30
0.0
 11
157.245678970494
 21
536.4797350213183
 31
0.0
  0
LINE
  5
3DE4D
330
1E
100
AcDbEntity
  8
10
100
AcDbLine
 10
158.3322714704939
 20
541.4554175213188
 30
0.0
 11
159.3322714704939
 21
542.4554175213184
 31
0.0
  0
LINE
  5
3DE4E
330
1E
100
AcDbEntity
  8
10
100
AcDbLine
 10
159.3322714704939
 20
532.626990021319
 30
0.0
 11
158.7219439704938
 21
532.626990021319
 31
0.0
  0
LINE
  5
3DE4F
330
1E
100
AcDbEntity
  8
10
100
AcDbLine
 10
158.3322714704939
 20
540.7483100213188
 30
0.0
 11
159.3322714704939
 21
541.7483100213186
 31
0.0
  0
LINE
  5
3DE50
330
1E
100
AcDbEntity
  8
10
100
AcDbLine
 10
158.3322714704939
 20
542.1625250213188
 30
0.0
 11
158.7967389704938
 21
542.6269900213188
 31
0.0
  0
LINE
  5
3DE51
330
1E
100
AcDbEntity
  8
10
100
AcDbLine
 10
153.3322714704939
 20
540.3265225213186
 30
0.0
 11
158.7219439704938
 21
532.626990021319
 31
0.0
  0
LINE
  5
3DE52
330
1E
100
AcDbEntity
  8
10
100
AcDbLine
 10
152.3322714704939
 20
537.9302925213188
 30
0.0
 11
153.3322714704939
 21
538.9302925213188
 31
0.0
  0
LINE
  5
3DE53
330
1E
100
AcDbEntity
  8
10
100
AcDbLine
 10
156.2364839704939
 20
536.1776475213189
 30
0.0
 11
156.9545164704939
 21
536.8956825213188
 31
0.0
  0
LINE
  5
3DE54
330
1E
100
AcDbEntity
  8
10
100
AcDbLine
 10
152.3322714704939
 20
539.3445050213188
 30
0.0
 11
154.042898970494
 21
541.0551325213189
 31
0.0
  0
LINE
  5
3DE55
330
1E
100
AcDbEntity
  8
10
100
AcDbLine
 10
158.3322714704939
 20
541.8089700213188
 30
0.0
 11
159.150291470494
 21
542.6269900213188
 31
0.0
  0
LINE
  5
3DE56
330
1E
100
AcDbEntity
  8
10
100
AcDbLine
 10
155.6541589704941
 20
537.009540021319
 30
0.0
 11
156.3721939704939
 21
537.7275725213186
 31
0.0
  0
LINE
  5
3DE57
330
1E
100
AcDbEntity
  8
10
100
AcDbLine
 10
156.673226470494
 20
535.5537300213186
 30
0.0
 11
157.3912589704939
 21
536.2717625213186
 31
0.0
  0
LINE
  5
3DE58
330
1E
100
AcDbEntity
  8
10
100
AcDbLine
 10
158.3322714704939
 20
539.6876500213186
 30
0.0
 11
159.3322714704939
 21
540.6876500213185
 31
0.0
  0
LINE
  5
3DE59
330
1E
100
AcDbEntity
  8
10
100
AcDbLine
 10
158.3322714704939
 20
538.6269900213186
 30
0.0
 11
159.3322714704939
 21
539.626990021319
 31
0.0
  0
LINE
  5
3DE5A
330
1E
100
AcDbEntity
  8
10
100
AcDbLine
 10
158.3322714704939
 20
536.1521175213188
 30
0.0
 11
159.3322714704939
 21
537.1521175213188
 31
0.0
  0
LINE
  5
3DE5B
330
1E
100
AcDbEntity
  8
10
100
AcDbLine
 10
154.780676470494
 20
538.2573750213189
 30
0.0
 11
155.4987089704939
 21
538.9754075213186
 31
0.0
  0
LINE
  5
3DE5C
330
1E
100
AcDbEntity
  8
10
100
AcDbLine
 10
152.3322714704939
 20
535.8089700213188
 30
0.0
 11
153.3322714704939
 21
536.8089700213188
 31
0.0
  0
LINE
  5
3DE5D
330
1E
100
AcDbEntity
  8
10
100
AcDbLine
 10
155.3629989704939
 20
537.425485021319
 30
0.0
 11
156.0810314704938
 21
538.1435175213189
 31
0.0
  0
LINE
  5
3DE5E
330
1E
100
AcDbEntity
  8
10
100
AcDbLine
 10
156.3820639704938
 20
535.9696750213189
 30
0.0
 11
157.1000964704942
 21
536.687707521319
 31
0.0
  0
LINE
  5
3DE5F
330
1E
100
AcDbEntity
  8
10
100
AcDbLine
 10
155.0718364704939
 20
537.8414300213188
 30
0.0
 11
155.7898689704941
 21
538.5594625213188
 31
0.0
  0
LINE
  5
3DE60
330
1E
100
AcDbEntity
  8
10
100
AcDbLine
 10
152.3322714704939
 20
534.7483100213188
 30
0.0
 11
153.3322714704939
 21
535.7483100213188
 31
0.0
  0
LINE
  5
3DE61
330
1E
100
AcDbEntity
  8
10
100
AcDbLine
 10
158.3322714704939
 20
540.3947575213188
 30
0.0
 11
159.3322714704939
 21
541.3947575213188
 31
0.0
  0
LINE
  5
3DE62
330
1E
100
AcDbEntity
  8
10
100
AcDbLine
 10
154.3439339704939
 20
538.8812925213188
 30
0.0
 11
155.0619664704939
 21
539.5993250213189
 31
0.0
  0
LINE
  5
3DE63
330
1E
100
AcDbEntity
  8
10
100
AcDbLine
 10
152.3322714704939
 20
534.0412050213185
 30
0.0
 11
153.3322714704939
 21
535.041205021319
 31
0.0
  0
LINE
  5
3DE64
330
1E
100
AcDbEntity
  8
10
100
AcDbLine
 10
157.2555489704939
 20
534.7218400213189
 30
0.0
 11
157.9735814704938
 21
535.4398725213185
 31
0.0
  0
LINE
  5
3DE65
330
1E
100
AcDbEntity
  8
10
100
AcDbLine
 10
154.6350939704941
 20
538.4653475213188
 30
0.0
 11
155.3531264704941
 21
539.183380021319
 31
0.0
  0
CIRCLE
  5
3DE66
330
1E
100
AcDbEntity
  8
10
100
AcDbCircle
 10
155.8322714704939
 20
537.6269900213189
 30
0.0
 40
8.0
  0
LWPOLYLINE
  5
3E19A
330
1E
100
AcDbEntity
  8
130
  6
Continuous
100
AcDbPolyline
 90
        4
 70
     1
 43
0.0
 10
0.0
 20
891.0
 10
629.9999999999998
 20
891.0
 10
629.9999999999998
 20
0.0
 10
0.0
 20
0.0
  0
LINE
  5
3E35C
330
1E
100
AcDbEntity
  8
24
100
AcDbLine
 10
399.9586263364583
 20
687.1714114951585
 30
0.0
 11
400.4586273496581
 21
687.6714125085582
 31
0.0
  0
LINE
  5
3E35D
330
1E
100
AcDbEntity
  8
24
100
AcDbLine
 10
400.4586273496581
 20
694.4314136911584
 30
0.0
 11
399.9586263364583
 21
694.9314072537584
 31
0.0
  0
LINE
  5
3E35E
330
1E
100
AcDbEntity
  8
10
100
AcDbLine
 10
361.458622819858
 20
664.1014113831584
 30
0.0
 11
362.5586228138579
 21
664.1014113831584
 31
0.0
  0
LINE
  5
3E35F
330
1E
100
AcDbEntity
  8
10
100
AcDbLine
 10
362.5586228138579
 20
672.0014110017585
 30
0.0
 11
361.458622819858
 21
672.0014110017585
 31
0.0
  0
LWPOLYLINE
  5
3E360
330
1E
100
AcDbEntity
  8
10
100
AcDbPolyline
 90
      409
 70
   128
 43
0.0
 10
370.4586224324582
 20
712.3066752959585
 10
370.3623013264579
 20
712.3066752959585
 10
370.2808962828583
 20
712.2779048789584
 10
370.1998265152581
 20
712.2489407467585
 10
370.1190882986582
 20
712.2197828995584
 10
370.0386890834582
 20
712.1904350627585
 10
369.9586214190583
 20
712.1608935105585
 10
369.8872262304583
 20
712.1342874873585
 10
369.8160955374581
 20
712.1075324523586
 10
369.7452293402581
 20
712.0806209553584
 10
369.6746276384581
 20
712.0535604465585
 10
369.6042904322583
 20
712.0263472009585
 10
369.534213996458
 20
711.9989812183582
 10
369.464402056258
 20
711.9714662241583
 10
369.394850886458
 20
711.9438022185581
 10
369.3222673302582
 20
711.9146592725584
 10
369.249966896258
 20
711.8853524137582
 10
369.1779495840581
 20
711.8558816421582
 10
369.1062191194582
 20
711.8262469577585
 10
369.034771776858
 20
711.7964483607582
 10
368.9636038308583
 20
711.7664895761584
 10
368.8927190070584
 20
711.7363668787584
 10
368.8221135800579
 20
711.7060802685585
 10
368.7517912750579
 20
711.6756371963584
 10
368.6817446416583
 20
711.6450302111584
 10
368.6119774050583
 20
711.6142630387585
 10
368.542485839658
 20
711.5833356785588
 10
368.477218753658
 20
711.5540288197583
 10
368.4121975368582
 20
711.5245803999584
 10
368.3474184638583
 20
711.4949941445583
 10
368.2828852600581
 20
711.4652626025582
 10
368.2185942000582
 20
711.4353894997583
 10
368.1506747072583
 20
711.4035568941583
 10
368.0830234354583
 20
711.3715641009584
 10
368.015647835058
 20
711.3394148457585
 10
367.9485367304581
 20
711.3071091283583
 10
367.8817012972579
 20
711.2746469485585
 10
367.8151303594578
 20
711.2420283067582
 10
367.7526088124579
 20
711.2111307489582
 10
367.6903256840582
 20
711.1800990807584
 10
367.628280974058
 20
711.1489258515582
 10
367.5664709574582
 20
711.1176147867584
 10
367.5048956340581
 20
711.0861696111584
 10
367.436454600658
 20
711.0509134639584
 10
367.368300414658
 20
711.0154859531585
 10
367.3004405266581
 20
710.9798870789584
 10
367.2328674858579
 20
710.9441242921582
 10
367.1655850178579
 20
710.9081901419584
 10
367.098593122458
 20
710.8720883537585
 10
367.0318843490579
 20
710.8358189273586
 10
366.9654624230582
 20
710.7993855881584
 10
366.9026093250579
 20
710.7646062779584
 10
366.840009546858
 20
710.7296779561584
 10
366.7776668136582
 20
710.6946006227587
 10
366.7155774002579
 20
710.6593705523585
 10
366.6537450320582
 20
710.6239951957582
 10
366.5921622580579
 20
710.5884708273584
 10
366.534334576658
 20
710.5548426317584
 10
366.4767304128579
 20
710.5210803259585
 10
366.4193460410581
 20
710.4871913599581
 10
366.3621889120579
 20
710.4531682837587
 10
366.305251575058
 20
710.4190185475585
 10
366.2419663434582
 20
710.3807486403584
 10
366.1789567834583
 20
710.3423185455583
 10
366.1162191694582
 20
710.3037245381582
 10
366.053757227058
 20
710.2649740683585
 10
365.9915672308581
 20
710.2260634113584
 10
365.929645455458
 20
710.1869925665583
 10
365.8679993516582
 20
710.1477615345584
 10
365.8066177434581
 20
710.1083740401584
 10
365.7455080812581
 20
710.0688300835582
 10
365.6846629148579
 20
710.0291259395585
 10
365.6240859692582
 20
709.9892653333583
 10
365.563773519458
 20
709.9492482651585
 10
365.5037255650579
 20
709.9090747345585
 10
365.4439421064583
 20
709.8687484669583
 10
365.3844231432579
 20
709.8282657373584
 10
365.325164950458
 20
709.7876265455583
 10
365.2633661096581
 20
709.7448862899582
 10
365.2018503910584
 20
709.7019783961584
 10
365.140617794458
 20
709.6589028645585
 10
365.0796720450582
 20
709.6156596947585
 10
365.0190056926583
 20
709.5722488869585
 10
364.9586224622583
 20
709.5286741661584
 10
364.9016366964581
 20
709.4872079599581
 10
364.844900525258
 20
709.4455927419582
 10
364.7884139484578
 20
709.4038322377585
 10
364.7321806914582
 20
709.3619227219583
 10
364.6761895782581
 20
709.319864194358
 10
364.6214427120583
 20
709.2784166145584
 10
364.5669342642579
 20
709.2368237483583
 10
364.5126605098583
 20
709.1950930465582
 10
364.4586214488579
 20
709.1532207835585
 10
364.3983835048581
 20
709.1061629163585
 10
364.338436133258
 20
709.0589262355583
 10
364.2787830596583
 20
709.0115181911584
 10
364.2194205588582
 20
708.9639350581585
 10
364.1603486306583
 20
708.9161805617584
 10
364.1026140814581
 20
708.8691077935582
 10
364.0451552038582
 20
708.8218711125584
 10
363.9879719978583
 20
708.7744705189584
 10
363.9310644632581
 20
708.7269022869583
 10
363.8732777602578
 20
708.6781941163581
 10
363.815777904458
 20
708.6293183077581
 10
363.7585574454582
 20
708.5802711355583
 10
363.7016201084582
 20
708.5310526001585
 10
363.644962168258
 20
708.4816701519585
 10
363.5885836250579
 20
708.4321163403582
 10
363.5324844784579
 20
708.3823986161584
 10
363.4766610032582
 20
708.3325095283583
 10
363.4211131996583
 20
708.2824565279584
 10
363.3658373420583
 20
708.2322396147583
 10
363.3108371562582
 20
708.1818550635585
 10
363.256108916458
 20
708.1313103247585
 10
363.2016526228583
 20
708.0805979479585
 10
363.1474645500582
 20
708.0297253835587
 10
363.0881653792583
 20
707.9735740829585
 10
363.0291903084583
 20
707.9172290671582
 10
362.970539338058
 20
707.8606903363581
 10
362.912205017258
 20
707.8039578903582
 10
362.8541910714582
 20
707.7470317291584
 10
362.8017240828583
 20
707.6951123583583
 10
362.7495178646579
 20
707.6430365253584
 10
362.697572416658
 20
707.5908005047582
 10
362.6458840138582
 20
707.5384080219585
 10
362.5944489306582
 20
707.4858590769582
 10
362.5432746178583
 20
707.4331536699585
 10
362.4923498994583
 20
707.3802955257582
 10
362.4366307324584
 20
707.3219686555585
 10
362.3812133138579
 20
707.2634592461582
 10
362.3260976440582
 20
707.2047598469585
 10
362.2712837224583
 20
707.1458779085585
 10
362.2167715496583
 20
707.0868134307584
 10
362.1625573998579
 20
707.0275626885582
 10
362.1086375480579
 20
706.9681331325584
 10
362.0550157194581
 20
706.9085173117586
 10
362.0016844636582
 20
706.8487226773584
 10
361.9486475056581
 20
706.7887492287584
 10
361.896836168258
 20
706.7296735751583
 10
361.8453079528582
 20
706.6704228329584
 10
361.7940516834581
 20
706.6110007273586
 10
361.743074811058
 20
706.5514109837582
 10
361.6909729010583
 20
706.4899958479584
 10
361.639154112858
 20
706.4284018981584
 10
361.5876258974579
 20
706.3666291343584
 10
361.5363808042582
 20
706.3046812821585
 10
361.4854188328579
 20
706.2425546157585
 10
361.4356377786582
 20
706.1813704479582
 10
361.3861249452582
 20
706.1200149167584
 10
361.3368840580581
 20
706.0584954727585
 10
361.2879076666579
 20
705.9968083905585
 10
361.2382048434581
 20
705.9336907971585
 10
361.1887739664583
 20
705.8704018401583
 10
361.1396150356579
 20
705.8069415199581
 10
361.090728051058
 20
705.7433098363581
 10
361.0421092874584
 20
705.6795105147585
 10
360.9937587446582
 20
705.6155435549585
 10
360.9456726974579
 20
705.5514089573582
 10
360.8930194444582
 20
705.4805800127585
 10
360.8406791156584
 20
705.4095461773584
 10
360.788655436658
 20
705.3383149015585
 10
360.7369484072581
 20
705.2668861853584
 10
360.6855468518582
 20
705.1952563035584
 10
360.6344582206582
 20
705.1234327065582
 10
360.5836750632582
 20
705.0514116693582
 10
360.5364942616582
 20
704.9839354861584
 10
360.4895779556581
 20
704.9162879395585
 10
360.4429224198582
 20
704.8484764803584
 10
360.3965276544578
 20
704.7804936575584
 10
360.3503936594582
 20
704.7123469221585
 10
360.3045129842584
 20
704.6440362739582
 10
360.258889353858
 20
704.5755579877582
 10
360.2089965408579
 20
704.5000463533583
 10
360.159405476458
 20
704.4243372785581
 10
360.1101161604581
 20
704.3484344887582
 10
360.0611248678581
 20
704.2723379839586
 10
360.0124315982582
 20
704.1960477639584
 10
359.9640289014581
 20
704.1195638287582
 10
359.9159205024581
 20
704.0428936291585
 10
359.8681026762581
 20
703.9660334397583
 10
359.8205679720579
 20
703.8889832603582
 10
359.773320115258
 20
703.8117468167584
 10
359.7271898454581
 20
703.7357099163584
 10
359.6813315218581
 20
703.6594979275584
 10
359.6357376938579
 20
703.5831071245584
 10
359.5904083616581
 20
703.5065375077581
 10
359.5445276862581
 20
703.4284032691584
 10
359.4989152318583
 20
703.3500864911584
 10
359.4535709982582
 20
703.2715908993582
 10
359.4084912604583
 20
703.1929164933583
 10
359.3636722928579
 20
703.1140707243585
 10
359.319907582458
 20
703.0364617515584
 10
359.2763961916582
 20
702.9586851405583
 10
359.233126944858
 20
702.8807408917584
 10
359.1901035672584
 20
702.8026327299585
 10
359.1464506154582
 20
702.7227625059582
 10
359.1030472582581
 20
702.6427246439584
 10
359.0598897702582
 20
702.5625154185584
 10
359.0169781512579
 20
702.4821422803584
 10
358.9743086760579
 20
702.4016015041582
 10
358.9318776196581
 20
702.3209005403584
 10
358.8896849816581
 20
702.2400319385585
 10
358.8433013922584
 20
702.1504200805583
 10
358.7972009248581
 20
702.0606145071582
 10
358.7513835794581
 20
701.9706114935582
 10
358.7058381802584
 20
701.8804184901584
 10
358.660572177858
 20
701.7900317717585
 10
358.6155743962584
 20
701.6994550633583
 10
358.5708448356579
 20
701.6086920905583
 10
358.526376045458
 20
701.5177428531585
 10
358.480070686858
 20
701.4222636627585
 10
358.4340484506581
 20
701.3265870321584
 10
358.3883056110583
 20
701.2307092357582
 10
358.3428384428582
 20
701.1346339989584
 10
358.2976394956579
 20
701.0383613217584
 10
358.2527087694582
 20
700.9418986547585
 10
358.2080388134579
 20
700.8452459979585
 10
358.163633353058
 20
700.7484033513581
 10
358.1194812124579
 20
700.6513707149584
 10
358.0755786662582
 20
700.5541555393582
 10
358.0319257146582
 20
700.4567578243584
 10
357.9885186320582
 20
700.3591701197583
 10
357.9478123850583
 20
700.2669989871582
 10
357.9073147540583
 20
700.1746713925585
 10
357.8670257396582
 20
700.0821873355585
 10
357.826941615858
 20
699.9895468163581
 10
357.7870586580582
 20
699.8967572855583
 10
357.7449740534583
 20
699.7981712031585
 10
357.7031055158578
 20
699.6994212079584
 10
357.6614567702579
 20
699.6004998493582
 10
357.6200166410583
 20
699.5014220285582
 10
357.5787851280582
 20
699.4021728443582
 10
357.5377547806581
 20
699.3027671981582
 10
357.4896575576584
 20
699.1853982019582
 10
357.4418322808581
 20
699.0678205895582
 10
357.3942677742582
 20
698.9500194597582
 10
357.3469677632581
 20
698.8320097137582
 10
357.2989599472582
 20
698.7113773631582
 10
357.251209176258
 20
698.5905363965585
 10
357.2037079996583
 20
698.4694793629585
 10
357.1564489668583
 20
698.3482137131584
 10
357.1094283526579
 20
698.2267394471582
 10
357.0626387066579
 20
698.1050714659584
 10
357.016072577858
 20
697.9832097697583
 10
356.9698230988581
 20
697.8614151287582
 10
356.9237859612583
 20
697.7394267725586
 10
356.8779499894583
 20
697.6172596025584
 10
356.8323114580583
 20
697.4948987173584
 10
356.7868591910581
 20
697.3723664689584
 10
356.742401576658
 20
697.2518458771585
 10
356.6981116002582
 20
697.1311613727585
 10
356.6539855366579
 20
697.0103129553582
 10
356.6100196606583
 20
696.8893006253582
 10
356.557876772258
 20
696.7450350333583
 10
356.505938774858
 20
696.6005459237585
 10
356.454194492658
 20
696.4558481979584
 10
356.4026364750582
 20
696.3109418559582
 10
356.3512498206581
 20
696.1658268975583
 10
356.3000270790583
 20
696.0205182243582
 10
356.2387572294582
 20
695.8458989667582
 10
356.177692270858
 20
695.6710040379585
 10
356.1168098514579
 20
695.4958557891583
 10
356.0560913450579
 20
695.3204542207584
 10
355.9955218500579
 20
695.1448142337582
 10
355.9361593490582
 20
694.9720874237582
 10
355.8769048816582
 20
694.7991445469583
 10
355.817739821058
 20
694.6259930539582
 10
355.7586492664579
 20
694.4526478457585
 10
355.682154155458
 20
694.2277297187582
 10
355.6057149236583
 20
694.0025210189584
 10
355.5292980438583
 20
693.7770291971585
 10
355.452862537458
 20
693.5512766051584
 10
355.376371151858
 20
693.3252781439584
 10
355.3011538154581
 20
693.1031018305583
 10
355.2258135444583
 20
692.8807318019585
 10
355.150313085858
 20
692.6581755089584
 10
355.0746151870583
 20
692.4354627537584
 10
354.998690045458
 20
692.2126009869583
 10
354.9224966830582
 20
691.9896200109585
 10
354.8460015720582
 20
691.7665272761584
 10
354.7691674596582
 20
691.5433376837584
 10
354.7085420852579
 20
691.3679286647583
 10
354.647667116458
 20
691.1924823927582
 10
354.5865276520583
 20
691.0170063185585
 10
354.5251087910581
 20
690.8415153431582
 10
354.4727610116581
 20
690.6926005887584
 10
354.4201859896582
 20
690.5436858343582
 10
354.367379999858
 20
690.3947710799585
 10
354.3143244152582
 20
690.2458712267582
 10
354.2610117858583
 20
690.0969788241583
 10
354.2074346608582
 20
689.9481087733582
 10
354.156662679258
 20
689.8077621865584
 10
354.1056336528579
 20
689.6674454021582
 10
354.0543438560583
 20
689.5271584201585
 10
354.0027783876583
 20
689.3869086909585
 10
353.9509335226583
 20
689.2466962147583
 10
353.8987943596583
 20
689.1065284419583
 10
353.846357173258
 20
688.9664053725584
 10
353.793610788058
 20
688.8263344573584
 10
353.7405477530581
 20
688.6863231467584
 10
353.6871606176581
 20
688.5463714409584
 10
353.6343993312582
 20
688.4089827347582
 10
353.5813064938582
 20
688.2716685343582
 10
353.5278746550582
 20
688.1344139385585
 10
353.474092639058
 20
687.9972412991585
 10
353.4270869260579
 20
687.8781512189585
 10
353.3798092668583
 20
687.7591207433582
 10
353.3322484856583
 20
687.6401573229584
 10
353.2844045824579
 20
687.5212609577584
 10
353.2362663810579
 20
687.4024316477584
 10
353.187837607258
 20
687.2836842943584
 10
353.1418973272582
 20
687.1717914747582
 10
353.0956851012581
 20
687.0599657107582
 10
353.0491934782583
 20
686.9482144523582
 10
353.0024224584579
 20
686.8365376997585
 10
352.9553645914582
 20
686.7249429035584
 10
352.908016151858
 20
686.6134226131585
 10
352.8603734142582
 20
686.5019842791585
 10
352.8124289280579
 20
686.3906353521582
 10
352.7641789680581
 20
686.2793683815582
 10
352.7156198090581
 20
686.1681908179583
 10
352.6676231688582
 20
686.0590919661582
 10
352.6193210548579
 20
685.9500750709585
 10
352.570706016458
 20
685.8411624837582
 10
352.5217780536578
 20
685.7323318529584
 10
352.4716281956582
 20
685.6216311263582
 10
352.421143061458
 20
685.5110272575585
 10
352.370318926058
 20
685.4005351471585
 10
352.3191483384583
 20
685.2901398945585
 10
352.2676275736583
 20
685.1798638511584
 10
352.2166805034583
 20
685.0716590691583
 10
352.1653869814579
 20
684.9635734963582
 10
352.1137432820581
 20
684.8555922317585
 10
352.0617494052583
 20
684.7477227259584
 10
352.0083399182579
 20
684.6377745079585
 10
351.9545765286582
 20
684.5279380489585
 10
351.9004704124579
 20
684.4182207989582
 10
351.8460327452583
 20
684.3086078573584
 10
351.7912672526579
 20
684.1991141247582
 10
351.736185110258
 20
684.0897247005582
 10
351.6807937688579
 20
683.9804470349584
 10
351.625223613458
 20
683.8715120959584
 10
351.5693591600582
 20
683.7626814651585
 10
351.5132153100583
 20
683.6539551425585
 10
351.4567995136583
 20
683.5453331279584
 10
351.400111771258
 20
683.4368154215585
 10
351.344187713258
 20
683.3303242731582
 10
351.2880252366579
 20
683.2239299821585
 10
351.2316280668581
 20
683.1176325487582
 10
351.1750036544583
 20
683.0114170717584
 10
351.107315129658
 20
682.8850999283583
 10
351.0393323070582
 20
682.7589019943582
 10
350.971066362258
 20
682.6328307199585
 10
350.9025321966581
 20
682.5068786549583
 10
350.8337409860581
 20
682.3810457993584
 10
350.764711356858
 20
682.2553321529585
 10
350.6815777784579
 20
682.1046218085585
 10
350.5981350010582
 20
681.9540679263582
 10
350.5144128268582
 20
681.8036779571585
 10
350.4304298824579
 20
681.6534369993584
 10
350.3462122446582
 20
681.5033450531585
 10
350.2632872826581
 20
681.3560768771583
 10
350.1801797812579
 20
681.2089428115585
 10
350.0969083672583
 20
681.0619354057585
 10
350.013499117458
 20
680.9150621105584
 10
349.9052347308581
 20
680.7249158429582
 10
349.7968213326583
 20
680.5349707413584
 10
349.6882999008583
 20
680.3452119041585
 10
349.5797188646581
 20
680.1556467819582
 10
349.4711303776583
 20
679.9662455725584
 10
349.364516294658
 20
679.7803982901585
 10
349.2579841678582
 20
679.5947074699584
 10
349.151574975858
 20
679.4091582107585
 10
349.0453371470583
 20
679.2237430619584
 10
348.9605011112583
 20
679.0755137611584
 10
348.875821537458
 20
678.9273589659584
 10
348.7913282280581
 20
678.7792786765585
 10
348.7070435350581
 20
678.6312654423584
 10
348.6229860848581
 20
678.4833267141585
 10
348.5406757956582
 20
678.3380925465585
 10
348.4586300020581
 20
678.1929179835582
 10
348.3768710560582
 20
678.0477881241584
 10
348.2954213088581
 20
677.9027178693584
 10
348.2265704936583
 20
677.7796566295585
 10
348.157969272658
 20
677.6566326427585
 10
348.0896362728579
 20
677.5336384583583
 10
348.021578944258
 20
677.4106666255582
 10
347.9538159138581
 20
677.2877171445584
 10
347.8863546318582
 20
677.1647900151584
 10
347.823035872658
 20
677.0489111351585
 10
347.760015136658
 20
676.9330397057582
 10
347.6972998744579
 20
676.8171906281582
 10
347.634897536658
 20
676.7013490009584
 10
347.5728230244583
 20
676.5855148243582
 10
347.5110875136581
 20
676.4696880985582
 10
347.4497021800583
 20
676.3538688231582
 10
347.388674474458
 20
676.2380569983584
 10
347.3280192976583
 20
676.1222451735583
 10
347.2677478260582
 20
676.0064258981582
 10
347.2206676072581
 20
675.9154319573582
 10
347.1738369828579
 20
675.8244305659584
 10
347.1272559530583
 20
675.7334291745585
 10
347.0809394186583
 20
675.6424203325582
 10
347.0348836546579
 20
675.5514114905584
 10
346.9846071368581
 20
675.4514321493582
 10
346.934662169858
 20
675.3514379071582
 10
346.8850562042583
 20
675.2514436651583
 10
346.8358004158583
 20
675.1514345217582
 10
346.7868985300581
 20
675.0514104771585
  0
LINE
  5
3E361
330
1E
100
AcDbEntity
  8
10
100
AcDbLine
 10
370.4586224324582
 20
712.3066752959585
 30
0.0
 11
370.4586224324582
 21
709.0514085995586
 31
0.0
  0
LINE
  5
3E362
330
1E
100
AcDbEntity
  8
10
100
AcDbLine
 10
370.4586224324582
 20
709.0514085995586
 30
0.0
 11
396.9586277074579
 21
709.0514085995586
 31
0.0
  0
LINE
  5
3E363
330
1E
100
AcDbEntity
  8
10
100
AcDbLine
 10
396.9586277074579
 20
673.0514064241582
 30
0.0
 11
364.9586224622583
 21
673.0514064241582
 31
0.0
  0
ARC
  5
3E364
330
1E
100
AcDbEntity
  8
10
100
AcDbCircle
 10
396.958628242058
 20
708.5514081211583
 30
0.0
 40
0.5000004785416128
100
AcDbArc
 50
0.0003656101007117
 51
90.00006127750081
  0
ARC
  5
3E365
330
1E
100
AcDbEntity
  8
0
  6
SLD-実線
 62
     7
370
    15
100
AcDbCircle
 10
396.9586218826582
 20
673.5514132621582
 30
0.0
 40
0.5000068381246546
100
AcDbArc
 50
270.0006674651012
 51
359.999332534902
  0
LINE
  5
3E366
330
1E
100
AcDbEntity
  8
10
100
AcDbLine
 10
351.4586211806579
 20
675.5514114905584
 30
0.0
 11
351.4586211806579
 21
673.5514074373582
 31
0.0
  0
LINE
  5
3E367
330
1E
100
AcDbEntity
  8
10
100
AcDbLine
 10
351.4586211806579
 20
675.0514104771585
 30
0.0
 11
346.7868985300581
 21
675.0514104771585
 31
0.0
  0
LINE
  5
3E368
330
1E
100
AcDbEntity
  8
10
100
AcDbLine
 10
351.4586211806579
 20
673.0514064241582
 30
0.0
 11
351.4586211806579
 21
673.5514074373582
 31
0.0
  0
LINE
  5
3E369
330
1E
100
AcDbEntity
  8
10
100
AcDbLine
 10
364.9586224622583
 20
673.0514064241582
 30
0.0
 11
351.4586211806579
 21
673.0514064241582
 31
0.0
  0
LINE
  5
3E36A
330
1E
100
AcDbEntity
  8
10
100
AcDbLine
 10
351.4586211806579
 20
663.0514085101582
 30
0.0
 11
351.4586211806579
 21
669.0853878665582
 31
0.0
  0
LINE
  5
3E36B
330
1E
100
AcDbEntity
  8
10
100
AcDbLine
 10
351.4586211806579
 20
669.0853878665582
 30
0.0
 11
351.4586211806579
 21
671.6834574747584
 31
0.0
  0
ARC
  5
3E36C
330
1E
100
AcDbEntity
  8
10
100
AcDbCircle
 10
352.4586284972581
 20
663.0514138003583
 30
0.0
 40
1.000007316588672
100
AcDbArc
 50
180.0003030933996
 51
269.9996969065906
  0
LINE
  5
3E36D
330
1E
100
AcDbEntity
  8
10
100
AcDbLine
 10
361.458622819858
 20
669.3533330965582
 30
0.0
 11
361.458622819858
 21
663.0514085101582
 31
0.0
  0
LINE
  5
3E36E
330
1E
100
AcDbEntity
  8
10
100
AcDbLine
 10
361.458622819858
 20
671.9514101553583
 30
0.0
 11
361.458622819858
 21
669.3533330965582
 31
0.0
  0
LINE
  5
3E36F
330
1E
100
AcDbEntity
  8
10
100
AcDbLine
 10
361.458622819858
 20
663.0514085101582
 30
0.0
 11
361.458622819858
 21
662.0514064837585
 31
0.0
  0
LINE
  5
3E370
330
1E
100
AcDbEntity
  8
10
100
AcDbLine
 10
361.458622819858
 20
662.0514064837585
 30
0.0
 11
352.4586232072581
 21
662.0514064837585
 31
0.0
  0
LINE
  5
3E371
330
1E
100
AcDbEntity
  8
10
100
AcDbLine
 10
351.4586211806579
 20
671.6834574747584
 30
0.0
 11
351.4586211806579
 21
673.0514064241582
 31
0.0
  0
LINE
  5
3E372
330
1E
100
AcDbEntity
  8
10
100
AcDbLine
 10
361.458622819858
 20
673.0514064241582
 30
0.0
 11
361.458622819858
 21
671.9514101553583
 31
0.0
  0
LINE
  5
3E373
330
1E
100
AcDbEntity
  8
24
100
AcDbLine
 10
399.9586263364583
 20
687.1714114951585
 30
0.0
 11
399.9586263364583
 21
694.9314072537584
 31
0.0
  0
LINE
  5
3E374
330
1E
100
AcDbEntity
  8
24
100
AcDbLine
 10
400.4586273496581
 20
694.4314136911584
 30
0.0
 11
400.4586273496581
 21
687.6714125085582
 31
0.0
  0
LINE
  5
3E375
330
1E
100
AcDbEntity
  8
10
100
AcDbLine
 10
362.5586228138579
 20
668.0514111923585
 30
0.0
 11
362.5586228138579
 21
664.1014113831584
 31
0.0
  0
LINE
  5
3E376
330
1E
100
AcDbEntity
  8
10
100
AcDbLine
 10
362.5586228138579
 20
672.0014110017585
 30
0.0
 11
362.5586228138579
 21
668.0514111923585
 31
0.0
  0
LINE
  5
3E377
330
1E
100
AcDbEntity
  8
10
100
AcDbLine
 10
396.958622540458
 20
707.0514100003584
 30
0.0
 11
371.958622540458
 21
707.0514100003584
 31
0.0
  0
LINE
  5
3E378
330
1E
100
AcDbEntity
  8
24
100
AcDbLine
 10
382.2586225404582
 20
683.6514100001584
 30
0.0
 11
382.2586225404582
 21
698.4514100001582
 31
0.0
  0
LINE
  5
3E379
330
1E
100
AcDbEntity
  8
24
100
AcDbLine
 10
380.2586225404582
 20
683.6514100001584
 30
0.0
 11
382.2586225404582
 21
683.6514100001584
 31
0.0
  0
LINE
  5
3E37A
330
1E
100
AcDbEntity
  8
24
100
AcDbLine
 10
382.2586225404582
 20
698.4514100001582
 30
0.0
 11
380.2586225404582
 21
698.4514100001582
 31
0.0
  0
LINE
  5
3E37B
330
1E
100
AcDbEntity
  8
24
100
AcDbLine
 10
380.2586225404582
 20
698.4514100001582
 30
0.0
 11
380.2586225404582
 21
683.6514100001584
 31
0.0
  0
LINE
  5
3E37C
330
1E
100
AcDbEntity
  8
24
100
AcDbLine
 10
378.6586225404583
 20
683.3014100003582
 30
0.0
 11
380.2586225404582
 21
683.3014100003582
 31
0.0
  0
LINE
  5
3E37D
330
1E
100
AcDbEntity
  8
24
100
AcDbLine
 10
378.6586225404583
 20
698.8014100003582
 30
0.0
 11
378.6586225404583
 21
683.3014100003582
 31
0.0
  0
LINE
  5
3E37E
330
1E
100
AcDbEntity
  8
24
100
AcDbLine
 10
380.2586225404582
 20
698.8014100003582
 30
0.0
 11
378.6586225404583
 21
698.8014100003582
 31
0.0
  0
LINE
  5
3E37F
330
1E
100
AcDbEntity
  8
24
100
AcDbLine
 10
382.2586225404582
 20
697.5514100001585
 30
0.0
 11
388.7586225404583
 21
697.5514100001585
 31
0.0
  0
LINE
  5
3E380
330
1E
100
AcDbEntity
  8
24
100
AcDbLine
 10
388.7586225404583
 20
684.5514100001585
 30
0.0
 11
388.7586225404583
 21
697.5514100001585
 31
0.0
  0
LINE
  5
3E381
330
1E
100
AcDbEntity
  8
24
100
AcDbLine
 10
388.7586225404583
 20
684.5514100001585
 30
0.0
 11
382.2586225404582
 21
684.5514100001585
 31
0.0
  0
LINE
  5
3E382
330
1E
100
AcDbEntity
  8
24
100
AcDbLine
 10
375.458622540458
 20
699.0514100003584
 30
0.0
 11
373.5586225404579
 21
699.0514100003584
 31
0.0
  0
LINE
  5
3E383
330
1E
100
AcDbEntity
  8
24
100
AcDbLine
 10
375.458622540458
 20
683.0514100003584
 30
0.0
 11
375.458622540458
 21
699.0514100003584
 31
0.0
  0
LINE
  5
3E384
330
1E
100
AcDbEntity
  8
24
100
AcDbLine
 10
373.5586225404579
 20
683.0514100003584
 30
0.0
 11
375.458622540458
 21
683.0514100003584
 31
0.0
  0
LINE
  5
3E385
330
1E
100
AcDbEntity
  8
24
100
AcDbLine
 10
373.5586225404579
 20
699.0514100003584
 30
0.0
 11
373.5586225404579
 21
683.0514100003584
 31
0.0
  0
LINE
  5
3E386
330
1E
100
AcDbEntity
  8
24
100
AcDbLine
 10
373.458622540458
 20
680.1220171195584
 30
0.0
 11
373.458622540458
 21
700.6014100003583
 31
0.0
  0
LINE
  5
3E387
330
1E
100
AcDbEntity
  8
24
100
AcDbLine
 10
373.458622540458
 20
700.6014100003583
 30
0.0
 11
372.458622540458
 21
700.6014100003583
 31
0.0
  0
LINE
  5
3E388
330
1E
100
AcDbEntity
  8
24
100
AcDbLine
 10
372.458622540458
 20
700.6014100003583
 30
0.0
 11
372.458622540458
 21
680.1220171195584
 31
0.0
  0
LINE
  5
3E389
330
1E
100
AcDbEntity
  8
24
100
AcDbLine
 10
373.458622540458
 20
680.1220171195584
 30
0.0
 11
372.458622540458
 21
680.1220171195584
 31
0.0
  0
LINE
  5
3E38A
330
1E
100
AcDbEntity
  8
10
100
AcDbLine
 10
371.958622540458
 20
673.0514100003582
 30
0.0
 11
371.958622540458
 21
707.0514100003584
 31
0.0
  0
LINE
  5
3E38B
330
1E
100
AcDbEntity
  8
24
100
AcDbLine
 10
373.5586225404579
 20
698.6514100003582
 30
0.0
 11
373.458622540458
 21
698.6514100003582
 31
0.0
  0
LINE
  5
3E38C
330
1E
100
AcDbEntity
  8
24
100
AcDbLine
 10
373.458622540458
 20
683.4514100003582
 30
0.0
 11
373.5586225404579
 21
683.4514100003582
 31
0.0
  0
LINE
  5
3E38D
330
1E
100
AcDbEntity
  8
24
100
AcDbLine
 10
397.458622540458
 20
687.1714100003583
 30
0.0
 11
388.7586225404583
 21
687.1714100003583
 31
0.0
  0
LINE
  5
3E38E
330
1E
100
AcDbEntity
  8
24
100
AcDbLine
 10
388.7586225404583
 20
687.1714100003583
 30
0.0
 11
397.458622540458
 21
687.1714100003583
 31
0.0
  0
LINE
  5
3E38F
330
1E
100
AcDbEntity
  8
24
100
AcDbLine
 10
371.958622540458
 20
698.9251464389583
 30
0.0
 11
372.458622540458
 21
698.9251464389583
 31
0.0
  0
LINE
  5
3E390
330
1E
100
AcDbEntity
  8
24
100
AcDbLine
 10
371.958622540458
 20
683.0514100003584
 30
0.0
 11
372.458622540458
 21
683.0514100003584
 31
0.0
  0
LINE
  5
3E391
330
1E
100
AcDbEntity
  8
24
100
AcDbLine
 10
380.2586225404582
 20
683.3014100003582
 30
0.0
 11
380.2586225404582
 21
683.6514100001584
 31
0.0
  0
LINE
  5
3E392
330
1E
100
AcDbEntity
  8
SLD-0
370
    15
100
AcDbLine
 10
397.458622540458
 20
687.1714100003583
 30
0.0
 11
397.458622540458
 21
673.5514100003584
 31
0.0
  0
LINE
  5
3E393
330
1E
100
AcDbEntity
  8
24
 48
0.2
100
AcDbLine
 10
378.6586225404583
 20
702.3514100003583
 30
0.0
 11
378.6586225404583
 21
679.7514100003582
 31
0.0
  0
LINE
  5
3E394
330
1E
100
AcDbEntity
  8
24
 48
0.2
100
AcDbLine
 10
375.458622540458
 20
702.3514100003583
 30
0.0
 11
375.458622540458
 21
679.7514100003582
 31
0.0
  0
LINE
  5
3E395
330
1E
100
AcDbEntity
  8
24
100
AcDbLine
 10
388.7586225404583
 20
687.1714100003583
 30
0.0
 11
397.458622540458
 21
687.1714100003583
 31
0.0
  0
LINE
  5
3E396
330
1E
100
AcDbEntity
  8
24
 48
0.2
100
AcDbLine
 10
379.6586225404583
 20
678.7514100003583
 30
0.0
 11
427.4396742626577
 21
678.7514100003583
 31
0.0
  0
LINE
  5
3E397
330
1E
100
AcDbEntity
  8
24
 48
0.2
100
AcDbLine
 10
379.6586225404583
 20
675.5514100003582
 30
0.0
 11
427.4396742626577
 21
675.5514100003582
 31
0.0
  0
LINE
  5
3E398
330
1E
100
AcDbEntity
  8
24
 48
0.2
100
AcDbLine
 10
379.6586225404583
 20
706.5514100003582
 30
0.0
 11
427.4396742626577
 21
706.5514100003582
 31
0.0
  0
LINE
  5
3E399
330
1E
100
AcDbEntity
  8
24
100
AcDbLine
 10
388.7586225404583
 20
687.1714100003583
 30
0.0
 11
397.458622540458
 21
687.1714100003583
 31
0.0
  0
LINE
  5
3E39A
330
1E
100
AcDbEntity
  8
24
 48
0.2
100
AcDbLine
 10
379.6586225404583
 20
703.3514100003583
 30
0.0
 11
427.4396742626577
 21
703.3514100003583
 31
0.0
  0
LINE
  5
3E39B
330
1E
100
AcDbEntity
  8
24
100
AcDbLine
 10
380.2586225404582
 20
691.8412521009583
 30
0.0
 11
382.2586225404582
 21
691.6662747739584
 31
0.0
  0
LINE
  5
3E39C
330
1E
100
AcDbEntity
  8
24
100
AcDbLine
 10
382.2586225404582
 20
690.2651545321582
 30
0.0
 11
380.2586225404582
 21
690.4401318591586
 31
0.0
  0
LINE
  5
3E39D
330
1E
100
AcDbEntity
  8
24
100
AcDbLine
 10
388.7586225404583
 20
687.1714100003583
 30
0.0
 11
399.9586263364583
 21
687.1714114951585
 31
0.0
  0
LINE
  5
3E39E
330
1E
100
AcDbEntity
  8
24
100
AcDbLine
 10
399.9586263364583
 20
694.9314072537584
 30
0.0
 11
388.7586225404583
 21
694.9314100003585
 31
0.0
  0
LINE
  5
3E39F
330
1E
100
AcDbEntity
  8
SLD-0
370
    15
100
AcDbLine
 10
397.458622540458
 20
708.5514100003583
 30
0.0
 11
397.458622540458
 21
694.9314100003585
 31
0.0
  0
LINE
  5
3E3A0
330
1E
100
AcDbEntity
  8
24
100
AcDbLine
 10
380.2586225404582
 20
698.8014100003582
 30
0.0
 11
380.2586225404582
 21
698.4514100001582
 31
0.0
  0
ARC
  5
3E3A1
330
1E
100
AcDbEntity
  8
24
100
AcDbCircle
 10
396.958622540458
 20
707.5514100003584
 30
0.0
 40
0.5
100
AcDbArc
 50
270.0
 51
0.0
  0
ARC
  5
3E3A2
330
1E
100
AcDbEntity
  8
24
 48
0.2
100
AcDbCircle
 10
379.6586225404583
 20
679.7514100003582
 30
0.0
 40
1.0
100
AcDbArc
 50
180.0
 51
270.0
  0
ARC
  5
3E3A3
330
1E
100
AcDbEntity
  8
24
 48
0.2
100
AcDbCircle
 10
379.6586225404583
 20
679.7514100003582
 30
0.0
 40
4.200000000000046
100
AcDbArc
 50
180.0
 51
270.0
  0
ARC
  5
3E3A4
330
1E
100
AcDbEntity
  8
24
 48
0.2
100
AcDbCircle
 10
379.6586225404583
 20
702.3514100003583
 30
0.0
 40
4.200000000000046
100
AcDbArc
 50
90.0
 51
180.0
  0
ARC
  5
3E3A5
330
1E
100
AcDbEntity
  8
24
 48
0.2
100
AcDbCircle
 10
379.6586225404583
 20
702.3514100003583
 30
0.0
 40
1.0
100
AcDbArc
 50
90.0
 51
180.0
  0
DIMENSION
  5
3E3A6
330
1E
100
AcDbEntity
  8
30
100
AcDbDimension
280
     0
  2
*D31
 10
375.458622540458
 20
638.0514100003582
 30
0.0
 11
387.958622540458
 21
638.0514100003582
 31
0.0
 70
   160
  1
<>
 71
     2
 42
25.0
 73
     0
 74
     0
 75
     0
  3
STANDARD
100
AcDbAlignedDimension
 13
400.458622540458
 23
687.6714100003582
 33
0.0
 14
375.458622540458
 24
679.7514100003582
 34
0.0
100
AcDbRotatedDimension
  0
DIMENSION
  5
3E3A7
330
1E
100
AcDbEntity
  8
30
100
AcDbDimension
280
     0
  2
*D32
 10
375.458622540458
 20
638.0514100003582
 30
0.0
 11
363.458622540458
 21
638.0514100003582
 31
0.0
 70
   160
  1
<>
 71
     2
 42
24.0
 73
     0
 74
     0
 75
     0
  3
STANDARD
100
AcDbAlignedDimension
 13
351.458622540458
 23
663.0514100003582
 33
0.0
 14
375.458622540458
 24
679.7514100003582
 34
0.0
100
AcDbRotatedDimension
  0
DIMENSION
  5
3E3A8
330
1E
100
AcDbEntity
  8
30
100
AcDbDimension
280
     0
  2
*D33
 10
375.458622540458
 20
658.1514100003584
 30
0.0
 11
386.7919558737915
 21
658.1514100003584
 31
0.0
 70
   160
  1
<>
 71
     2
 42
5.0
 73
     0
 74
     0
 75
     0
  3
STANDARD1
100
AcDbAlignedDimension
 13
370.458622540458
 23
709.0514085995586
 33
0.0
 14
375.458622540458
 24
679.7514100003582
 34
0.0
100
AcDbRotatedDimension
  0
DIMENSION
  5
3E3A9
330
1E
100
AcDbEntity
  8
30
100
AcDbDimension
280
     0
  2
*D34
 10
453.5877965460008
 20
706.5514100003582
 30
0.0
 11
483.3544632126673
 21
741.9919038178491
 31
0.0
 70
   160
  1
<> (max.)
 71
     2
 42
15.5
 73
     0
 74
     0
 75
     0
  3
STANDARD1
100
AcDbAlignedDimension
 13
404.458622540458
 23
691.0514100003584
 33
0.0
 14
427.4396742626577
 24
706.5514100003582
 34
0.0
 50
90.0
100
AcDbRotatedDimension
  0
INSERT
  5
3E3AA
330
1E
100
AcDbEntity
  8
24
100
AcDbBlockReference
  2
_DOT
 10
385.349126472858
 20
687.4457289235582
 30
50.0
 41
1.5
 42
1.5
 43
2.0
 50
116.6603336343
  0
INSERT
  5
3E3AB
330
1E
100
AcDbEntity
  8
24
100
AcDbBlockReference
  2
_DOT
 10
395.914282803458
 20
689.7124417287582
 30
50.0
 41
1.5
 42
1.5
 43
2.0
 50
233.8723465912
  0
LINE
  5
3E3AC
330
1E
100
AcDbEntity
  8
SLD-0
100
AcDbLine
 10
395.914282803458
 20
689.7124417287582
 30
0.0
 11
412.7504399932578
 21
712.7771844503584
 31
0.0
  0
LINE
  5
3E3AD
330
1E
100
AcDbEntity
  8
30
100
AcDbLine
 10
412.7504399932578
 20
712.7771844503584
 30
0.0
 11
445.6130662606334
 21
712.7757809582585
 31
0.0
  0
LINE
  5
3E3AE
330
1E
100
AcDbEntity
  8
17
100
AcDbLine
 10
365.9586207634581
 20
691.0514130997583
 30
0.0
 11
404.4586205548581
 21
691.0514130997583
 31
0.0
  0
MTEXT
  5
3E3B0
330
1E
100
AcDbEntity
  8
30
  6
Continuous
100
AcDbMText
 10
417.1034617555558
 20
646.2349611873308
 30
50.0
 40
5.0
 41
26.0
 46
0.0
 71
     1
 72
     5
  1
M8 nut
  7
blockfont
 73
     1
 44
1.0
  0
LEADER
  5
3E3B1
330
1E
100
AcDbEntity
  8
19
100
AcDbLeader
  3
STANDARD
 76
     3
 10
385.8539144253534
 20
686.4403364016966
 30
50.0
 10
412.8088661243817
 20
639.6037117577382
 30
50.0
 10
456.0770740611876
 20
639.6031482778927
 30
50.0
211
-1.0
221
0.0
231
0.0
210
0.0
220
0.0
230
-1.0
1001
ACAD
1000
DSTYLE
1002
{
1070
   147
1040
2.0
1070
    77
1070
     0
1002
}
  0
MTEXT
  5
3E3B2
330
1E
100
AcDbEntity
  8
19
100
AcDbMText
 10
414.9854641789402
 20
719.4935929673718
 30
50.0
 40
5.0
 41
26.0
 46
0.0
 71
     1
 72
     5
  1
M8screw
  7
blockfont
 73
     1
 44
1.0
  0
LINE
  5
3E692
330
1E
100
AcDbEntity
  8
16
100
AcDbLine
 10
309.5245002533693
 20
500.8769900213188
 30
0.0
 11
453.3004117592972
 21
500.8769900213188
 31
0.0
  0
LWPOLYLINE
  5
3E693
330
1E
100
AcDbEntity
  8
130
100
AcDbPolyline
 90
        4
 70
     0
 43
0.0
 10
328.530730018924
 20
475.876990021319
 10
324.530730018924
 20
475.876990021319
 10
324.530730018924
 20
525.876990021319
 10
328.530730018924
 20
525.876990021319
  0
LWPOLYLINE
  5
3E694
330
1E
100
AcDbEntity
  8
30
100
AcDbPolyline
 90
        2
 70
     0
 43
0.0
 10
302.1100160316466
 20
512.1003727021998
 42
0.0406682111087798
 10
301.0307300189236
 20
497.8769900213192
  0
LWPOLYLINE
  5
3E695
330
1E
100
AcDbEntity
  8
130
100
AcDbPolyline
 90
        4
 70
     0
 43
0.0
 10
324.530730018924
 20
478.3769900213187
 10
318.0307300189241
 20
478.3769900213187
 10
318.0307300189241
 20
523.3769900213188
 10
324.530730018924
 20
523.3769900213188
  0
LWPOLYLINE
  5
3E696
330
1E
100
AcDbEntity
  8
130
100
AcDbPolyline
 90
      178
 70
     0
 43
0.0
 10
340.7460878394547
 20
583.3769900213187
 10
340.7139966215202
 20
583.3679290069477
 10
340.6831457159904
 20
583.3591778795968
 10
340.6535010019636
 20
583.3507273410861
 10
340.6250283585393
 20
583.3425680932375
 10
340.5976936648155
 20
583.3346908378712
 10
340.571462799892
 20
583.3270862768086
 10
340.5463016428663
 20
583.3197451118702
 10
340.5221760728389
 20
583.3126580448772
 10
340.499051968907
 20
583.3058157776506
 10
340.4768952101701
 20
583.299209012011
 10
340.4556716757277
 20
583.2928284497797
 10
340.4353472446771
 20
583.2866647927772
 10
340.4158877961188
 20
583.280708742825
 10
340.3972592091502
 20
583.2749510017436
 10
340.3794273628707
 20
583.2693822713539
 10
340.3623581363793
 20
583.2639932534772
 10
340.3460174087743
 20
583.2587746499341
 10
340.3303710591552
 20
583.2537171625456
 10
340.3010250102686
 20
583.2440483435163
 10
340.2740470225097
 20
583.2349124109562
 10
340.2491641286695
 20
583.2262349794332
 10
340.2261033615375
 20
583.217941663515
 10
340.2045917539052
 20
583.2099580777685
 10
340.184356338563
 20
583.2022098367612
 10
340.1651241483012
 20
583.1946225550607
 10
340.1285775741807
 20
583.1796333278496
 10
340.0927683487596
 20
583.1643953259772
 10
340.0559842410582
 20
583.1484277360042
 10
340.018130385686
 20
583.1316417143223
 10
339.9794584711024
 20
583.1140324049226
 10
339.9402201857677
 20
583.0955949517977
 10
339.900667218141
 20
583.0763244989382
 10
339.8610512566827
 20
583.0562161903357
 10
339.8216239898518
 20
583.0352651699825
 10
339.7826371061085
 20
583.0134665818692
 10
339.7443422939121
 20
582.9908155699882
 10
339.7069773065321
 20
582.9673087151834
 10
339.6706097094859
 20
582.9429601462958
 10
339.6351932507976
 20
582.9177957278475
 10
339.6006795925166
 20
582.8918415394441
 10
339.5670203966909
 20
582.8651236606922
 10
339.5341673253686
 20
582.8376681711975
 10
339.5020720405994
 20
582.8095011505661
 10
339.4706862044316
 20
582.7806486784037
 10
339.4399614789133
 20
582.7511368343172
 10
339.4098495260938
 20
582.7209916979118
 10
339.380302008022
 20
582.6902393487937
 10
339.3512705867454
 20
582.6589058665689
 10
339.3227069243137
 20
582.6270173308436
 10
339.2667895241773
 20
582.5616794173156
 10
339.2121631040025
 20
582.4944342450574
 10
339.1585146778364
 20
582.4254725541162
 10
339.1060885516524
 20
582.3548497880177
 10
339.0804897225601
 20
582.3189135209925
 10
339.0553837766609
 20
582.2825595445248
 10
339.0308332593506
 20
582.245787018522
 10
339.0069007160253
 20
582.2085951028903
 10
338.983648692081
 20
582.1709829575362
 10
338.9611397329125
 20
582.1329497423667
 10
338.9394363839159
 20
582.0944946172877
 10
338.9186011904865
 20
582.0556167422068
 10
338.8986966980208
 20
582.0163152770297
 10
338.8797854519141
 20
581.9765893816636
 10
338.8619299975614
 20
581.9364382160148
 10
338.8451842342513
 20
581.8958628963782
 10
338.8295123917743
 20
581.8548848289164
 10
338.8148256123843
 20
581.8135374321157
 10
338.8010343448921
 20
581.7718542813702
 10
338.7880490381074
 20
581.7298689520744
 10
338.7757801408413
 20
581.6876150196231
 10
338.7641381019027
 20
581.6451260594102
 10
338.7423763942522
 20
581.5595773572787
 10
338.7220475056381
 20
581.4734914488357
 10
338.7024350265412
 20
581.3871369372369
 10
336.0307350555238
 20
572.8769900213189
 10
336.0307350555238
 20
562.3769917201189
 10
336.0307350555238
 20
562.3769917201189
 10
336.0307350555238
 20
562.3769917201189
 10
336.0307350555238
 20
562.3769917201189
 10
336.030730018924
 20
551.876990021319
 10
328.530730018924
 20
551.876990021319
 10
328.530730018924
 20
449.8769900213193
 10
336.030730018924
 20
449.8769900213193
 10
336.030730018924
 20
444.626989171919
 10
336.0307350555238
 20
428.8769900213193
 10
338.7024350265412
 20
420.3668431054006
 10
338.7220475056381
 20
420.280488593802
 10
338.7423763942522
 20
420.1944026853587
 10
338.7641381019027
 20
420.1088539832277
 10
338.7757801408413
 20
420.0663650230149
 10
338.7880490381074
 20
420.0241110905635
 10
338.8010343448921
 20
419.9821257612676
 10
338.8148256123843
 20
419.9404426105221
 10
338.8295123917743
 20
419.8990952137211
 10
338.8451842342513
 20
419.8581171462596
 10
338.8619301409956
 20
419.8175419065528
 10
338.8797970064559
 20
419.7773970998061
 10
338.8987606031253
 20
419.7377003770766
 10
338.9187898457779
 20
419.6984684296226
 10
338.9398536491892
 20
419.6597179487028
 10
338.9619209281339
 20
419.6214656255756
 10
338.984960597387
 20
419.5837281514998
 10
339.0089415717237
 20
419.5465222177331
 10
339.0338327659181
 20
419.5098645155352
 10
339.0596030947461
 20
419.4737717361637
 10
339.0862214729825
 20
419.4382605708776
 10
339.1136568154018
 20
419.4033477109353
 10
339.1418780367792
 20
419.3690498475949
 10
339.1708540518891
 20
419.3353836721154
 10
339.2005537755074
 20
419.3023658757551
 10
339.2309453216237
 20
419.2700129341528
 10
339.2619681126086
 20
419.2383335974159
 10
339.2935256519938
 20
419.2073269441136
 10
339.3255191741734
 20
419.1769914418253
 10
339.3578499135422
 20
419.1473255581311
 10
339.3904191044937
 20
419.1183277606098
 10
339.4231279814233
 20
419.089996516841
 10
339.4558777787239
 20
419.0623302944043
 10
339.4885697307917
 20
419.035327560879
 10
339.5211050720198
 20
419.0089867838445
 10
339.5533850368027
 20
418.9833064308801
 10
339.5853108595345
 20
418.9582849695658
 10
339.6167837746105
 20
418.9339208674804
 10
339.6477050164238
 20
418.9102125922039
 10
339.6779758193695
 20
418.8871586113154
 10
339.707497417842
 20
418.8647573923943
 10
339.7361710462353
 20
418.8430074030203
 10
339.7639004130303
 20
418.8219059278798
 10
339.7907242207645
 20
418.8013857092808
 10
339.8426339067662
 20
418.7614260758701
 10
339.8939402393328
 20
418.721763060042
 10
339.920009855274
 20
418.7016136134211
 10
339.9466998814907
 20
418.6810233168353
 10
339.9742674008619
 20
418.6598205021645
 10
340.0029694962662
 20
418.6378335012888
 10
340.017857272411
 20
418.6264959467546
 10
340.0333555707782
 20
418.614925262591
 10
340.0497532674478
 20
418.6031303934711
 10
340.0673392848028
 20
418.5911202895507
 10
340.0864025452245
 20
418.5789039009863
 10
340.1072319710954
 20
418.5664901779336
 10
340.1301164847975
 20
418.5538880705488
 10
340.1424196878295
 20
418.5475191696556
 10
340.1553450087129
 20
418.5411065289878
 10
340.1689285627451
 20
418.5346512673151
 10
340.1832064652242
 20
418.5281545034069
 10
340.1982148314476
 20
418.5216173560324
 10
340.2139897767132
 20
418.5150409439617
 10
340.2305674163188
 20
418.5084263859638
 10
340.247983865562
 20
418.5017748008087
 10
340.2662752397406
 20
418.4950873072653
 10
340.2854776541528
 20
418.4883650241038
 10
340.3056272240963
 20
418.4816090700929
 10
340.3267600648681
 20
418.4748205640028
 10
340.348912291767
 20
418.4680006246026
 10
340.3721200200896
 20
418.4611503706621
 10
340.3964193651348
 20
418.4542709209506
 10
340.4218464421999
 20
418.4473633942375
 10
340.4484373665825
 20
418.4404289092927
 10
340.476228253581
 20
418.4334685848853
 10
340.5052552184923
 20
418.426483539785
 10
340.5355543766143
 20
418.4194748927613
 10
340.5671618432459
 20
418.4124437625836
 10
340.6001137336832
 20
418.4053912680213
 10
340.6344461632254
 20
418.3983185278442
 10
340.6701952471692
 20
418.3912266608222
 10
340.7073971008133
 20
418.3841167857237
 10
340.7460878394547
 20
418.376990021319
 10
340.7460878394547
 20
418.376990021319
 10
369.2369861257591
 20
418.376990021319
 10
396.030730018924
 20
418.376990021319
 10
396.030730018924
 20
418.376990021319
 10
396.030730018924
 20
418.376990021319
 10
396.030730018924
 20
583.3769900213187
 10
396.030730018924
 20
583.3769900213187
 10
340.7460878394547
 20
583.3769900213187
 10
396.030730018924
 20
583.3769900213187
  0
DIMENSION
  5
3E697
330
1E
100
AcDbEntity
  8
30
100
AcDbDimension
280
     0
  2
*D40
 10
280.3702155033277
 20
475.8769900213192
 30
0.0
 11
273.8702155033276
 21
500.8769900213192
 31
0.0
 70
    32
 71
     5
 42
50.0
 73
     0
 74
     0
 75
     0
  3
STANDARD
100
AcDbAlignedDimension
 13
324.530730018924
 23
525.8769900213192
 33
0.0
 14
324.530730018924
 24
475.8769900213192
 34
0.0
 50
90.0
100
AcDbRotatedDimension
  0
DIMENSION
  5
3E69D
330
1E
100
AcDbEntity
  8
30
100
AcDbDimension
280
     0
  2
*D44
 10
318.0307300189241
 20
357.4677928849419
 30
0.0
 11
284.530730018924
 21
357.4677928849419
 31
0.0
 70
   160
 71
     5
 42
6.499999999999829
 73
     0
 74
     0
 75
     0
  3
STANDARD1
100
AcDbAlignedDimension
 13
324.530730018924
 23
475.8769900213192
 33
0.0
 14
318.0307300189241
 24
478.3769900213187
 34
0.0
100
AcDbRotatedDimension
  0
LWPOLYLINE
  5
3E69E
330
1E
100
AcDbEntity
  8
10
100
AcDbPolyline
 90
        4
 70
     0
 43
0.0
 10
471.5307329991238
 20
424.9969915161186
 10
474.030730614924
 20
424.9969915161186
 10
474.030730614924
 20
432.7569872747186
 10
471.5307329991238
 20
432.7569872747186
  0
LINE
  5
3E69F
330
1E
100
AcDbEntity
  8
10
100
AcDbLine
 10
474.030730614924
 20
576.7569885265187
 30
0.0
 11
471.5307329991238
 21
576.7569885265187
 31
0.0
  0
LINE
  5
3E6A0
330
1E
100
AcDbEntity
  8
10
100
AcDbLine
 10
471.5307329991238
 20
568.9969927679189
 30
0.0
 11
474.030730614924
 21
568.9969927679189
 31
0.0
  0
LWPOLYLINE
  5
3E6A1
330
1E
100
AcDbEntity
  8
10
100
AcDbPolyline
 90
        5
 70
     0
 43
0.0
 10
435.0307308235239
 20
401.9269914041188
 10
436.130730817524
 20
401.9269914041188
 10
436.130730817524
 20
405.8769912133189
 10
436.130730817524
 20
409.8269910227188
 10
435.0307308235239
 20
409.8269910227188
  0
LWPOLYLINE
  5
3E6A2
330
1E
100
AcDbEntity
  8
10
100
AcDbPolyline
 90
        5
 70
     0
 43
0.0
 10
435.0307308235239
 20
591.9269890199188
 10
436.130730817524
 20
591.9269890199188
 10
436.130730817524
 20
595.8769888293187
 10
436.130730817524
 20
599.8269886385187
 10
435.0307308235239
 20
599.8269886385187
  0
ARC
  5
3E6A3
330
1E
100
AcDbEntity
  8
10
100
AcDbCircle
 10
438.530730018924
 20
411.3769900213188
 30
0.0
 40
0.5
100
AcDbArc
 50
180.0
 51
270.0
  0
LINE
  5
3E6A4
330
1E
100
AcDbEntity
  8
10
100
AcDbLine
 10
438.030729452724
 20
411.3769874583188
 30
0.0
 11
438.030729452724
 21
451.3769902895189
 31
0.0
  0
ARC
  5
3E6A5
330
1E
100
AcDbEntity
  8
10
100
AcDbCircle
 10
436.030730018924
 20
451.3769900213189
 30
0.0
 40
2.0
100
AcDbArc
 50
0.0
 51
90.0
  0
LINE
  5
3E6A6
330
1E
100
AcDbEntity
  8
10
100
AcDbLine
 10
436.0307291247235
 20
453.3769906173189
 30
0.0
 11
426.5307303615236
 21
453.3769906173189
 31
0.0
  0
ARC
  5
3E6A7
330
1E
100
AcDbEntity
  8
10
100
AcDbCircle
 10
426.530730018924
 20
455.3769900213189
 30
0.0
 40
2.0
100
AcDbArc
 50
180.0
 51
270.0
  0
LINE
  5
3E6A8
330
1E
100
AcDbEntity
  8
10
100
AcDbLine
 10
424.5307300337238
 20
455.3769909451188
 30
0.0
 11
424.5307300337238
 21
546.3769890975188
 31
0.0
  0
LWPOLYLINE
  5
3E6A9
330
1E
100
AcDbEntity
  8
10
100
AcDbPolyline
 90
       13
 70
     0
 43
0.0
 10
438.5307304659238
 20
590.8769935975187
 10
470.5307304659238
 20
590.8769935975187
 42
-0.1693776002236001
 10
471.5307329991238
 20
589.8769935975187
 10
471.5307329991238
 20
555.8769914221191
 42
-0.1693776002236868
 10
470.5307304361236
 20
554.8769914221188
 10
444.5307304361238
 20
554.8769914221188
 10
444.5307304361238
 20
446.8769886205189
 10
470.5307304361236
 20
446.8769886205189
 42
-0.1693776002235248
 10
471.5307329991238
 20
445.8769886205187
 10
471.5307329991238
 20
411.876986445119
 42
-0.169377600223616
 10
470.5307304659238
 20
410.876986445119
 10
438.5307304659238
 20
410.876986445119
 10
425.0307291843238
 20
410.876986445119
  0
ARC
  5
3E6AA
330
1E
100
AcDbEntity
  8
10
100
AcDbCircle
 10
436.030730018924
 20
550.376990021319
 30
0.0
 40
2.0
100
AcDbArc
 50
270.0
 51
0.0
  0
LINE
  5
3E6AB
330
1E
100
AcDbEntity
  8
10
100
AcDbLine
 10
426.5307303615236
 20
548.3769894253189
 30
0.0
 11
436.0307291247235
 21
548.3769894253189
 31
0.0
  0
LINE
  5
3E6AC
330
1E
100
AcDbEntity
  8
10
100
AcDbLine
 10
438.030729452724
 20
550.3769897531189
 30
0.0
 11
438.030729452724
 21
590.3769925843188
 31
0.0
  0
ARC
  5
3E6AD
330
1E
100
AcDbEntity
  8
10
100
AcDbCircle
 10
426.530730018924
 20
546.376990021319
 30
0.0
 40
2.0
100
AcDbArc
 50
90.0
 51
180.0
  0
ARC
  5
3E6AE
330
1E
100
AcDbEntity
  8
10
100
AcDbCircle
 10
438.530730018924
 20
590.3769900213188
 30
0.0
 40
0.5
100
AcDbArc
 50
90.0
 51
180.0
  0
LWPOLYLINE
  5
3E6AF
330
1E
100
AcDbEntity
  8
10
100
AcDbPolyline
 90
       10
 70
     0
 43
0.0
 10
435.0307308235239
 20
410.876986445119
 10
435.0307308235239
 20
409.7769901763189
 10
435.0307308235239
 20
407.178913117519
 10
435.0307308235239
 20
400.876988531119
 10
435.0307308235239
 20
399.876986504719
 10
425.0307291843238
 20
399.876986504719
 10
425.0307291843238
 20
406.9109678875188
 10
425.0307291843238
 20
409.5090374957186
 10
425.0307291843238
 20
412.8769904981187
 10
401.5307299891238
 20
412.8769904981187
  0
LWPOLYLINE
  5
3E6B0
330
1E
100
AcDbEntity
  8
10
100
AcDbPolyline
 90
        2
 70
     0
 43
0.0
 10
401.0307300189236
 20
413.3769900213188
 42
0.4142135623730951
 10
401.530730018924
 20
412.8769900213185
  0
LINE
  5
3E6B1
330
1E
100
AcDbEntity
  8
10
100
AcDbLine
 10
425.0307291843238
 20
590.8769935975187
 30
0.0
 11
438.5307304659238
 21
590.8769935975187
 31
0.0
  0
LWPOLYLINE
  5
3E6B2
330
1E
100
AcDbEntity
  8
10
100
AcDbPolyline
 90
        3
 70
     0
 43
0.0
 10
401.5307299891238
 20
588.8769895445191
 10
425.0307291843238
 20
588.8769895445191
 10
425.0307291843238
 20
590.3769925843188
  0
LWPOLYLINE
  5
3E6B3
330
1E
100
AcDbEntity
  8
10
100
AcDbPolyline
 90
        2
 70
     0
 43
0.0
 10
401.530730018924
 20
588.8769900213191
 42
0.4142135623730951
 10
401.0307300189236
 20
588.376990021319
  0
LWPOLYLINE
  5
3E6B4
330
1E
100
AcDbEntity
  8
10
100
AcDbPolyline
 90
       10
 70
     0
 43
0.0
 10
425.0307291843238
 20
590.3769925843188
 10
425.0307291843238
 20
590.8769935975187
 10
425.0307291843238
 20
592.2449425469189
 10
425.0307291843238
 20
594.8430121551189
 10
425.0307291843238
 20
601.8769935379189
 10
435.0307308235239
 20
601.8769935379189
 10
435.0307308235239
 20
600.8769915115188
 10
435.0307308235239
 20
594.5750669251189
 10
435.0307308235239
 20
591.9769898663189
 10
435.0307308235239
 20
590.8769935975187
  0
LINE
  5
3E6B5
330
1E
100
AcDbEntity
  8
10
100
AcDbLine
 10
424.5307300337238
 20
463.376988531119
 30
0.0
 11
424.0307308831241
 21
463.376988531119
 31
0.0
  0
LINE
  5
3E6B6
330
1E
100
AcDbEntity
  8
10
100
AcDbLine
 10
424.0307308831241
 20
464.8769915711189
 30
0.0
 11
424.5307300337238
 21
464.8769915711189
 31
0.0
  0
LINE
  5
3E6B7
330
1E
100
AcDbEntity
  8
10
100
AcDbLine
 10
424.5307300337238
 20
536.8769884715187
 30
0.0
 11
424.0307308831241
 21
536.8769884715187
 31
0.0
  0
LINE
  5
3E6B8
330
1E
100
AcDbEntity
  8
10
100
AcDbLine
 10
424.0307308831241
 20
538.3769915115188
 30
0.0
 11
424.5307300337238
 21
538.3769915115188
 31
0.0
  0
LINE
  5
3E6B9
330
1E
100
AcDbEntity
  8
10
100
AcDbLine
 10
424.5307300337238
 20
474.8769894849186
 30
0.0
 11
424.0307308831241
 21
474.8769894849186
 31
0.0
  0
LINE
  5
3E6BA
330
1E
100
AcDbEntity
  8
10
100
AcDbLine
 10
424.0307308831241
 20
475.8769896487187
 30
0.0
 11
424.5307300337238
 21
475.8769896487187
 31
0.0
  0
LINE
  5
3E6BB
330
1E
100
AcDbEntity
  8
10
100
AcDbLine
 10
424.5307300337238
 20
469.8769905279188
 30
0.0
 11
424.0307308831241
 21
469.8769905279188
 31
0.0
  0
LINE
  5
3E6BC
330
1E
100
AcDbEntity
  8
10
100
AcDbLine
 10
424.0307308831241
 20
481.8769906323189
 30
0.0
 11
424.5307300337238
 21
481.8769906323189
 31
0.0
  0
LINE
  5
3E6BD
330
1E
100
AcDbEntity
  8
10
100
AcDbLine
 10
424.5307300337238
 20
519.8769894103188
 30
0.0
 11
424.0307308831241
 21
519.8769894103188
 31
0.0
  0
LINE
  5
3E6BE
330
1E
100
AcDbEntity
  8
10
100
AcDbLine
 10
424.0307308831241
 20
531.8769895147187
 30
0.0
 11
424.5307300337238
 21
531.8769895147187
 31
0.0
  0
LINE
  5
3E6BF
330
1E
100
AcDbEntity
  8
10
100
AcDbLine
 10
424.5307300337238
 20
512.8769901257189
 30
0.0
 11
424.0307308831241
 21
512.8769901257189
 31
0.0
  0
LWPOLYLINE
  5
3E6C0
330
1E
100
AcDbEntity
  8
10
100
AcDbPolyline
 90
        6
 70
     0
 43
0.0
 10
400.5394563177238
 20
400.4556880007188
 10
396.030730018924
 20
400.3769875179187
 10
396.030730018924
 20
402.3766860973188
 10
396.030730018924
 20
599.377293945319
 10
396.030730018924
 20
601.3769925247189
 10
400.5394563177238
 20
601.298292041919
  0
LWPOLYLINE
  5
3E6C1
330
1E
100
AcDbEntity
  8
10
100
AcDbPolyline
 90
       36
 70
     0
 43
0.0
 10
400.5494820052013
 20
400.4558668147087
 10
400.7003838493326
 20
400.4831425304031
 10
400.836522547013
 20
400.5518936147567
 10
400.94444903331
 20
400.6612408391216
 10
401.0152462178616
 20
400.7966602383734
 10
401.0406806231237
 20
400.9470612417189
 10
401.0307299071238
 20
402.4553865801188
 10
401.0307299071238
 20
452.3769885907188
 10
422.0656346627694
 20
452.7441569279196
 10
422.6738468304786
 20
452.8487511326343
 10
423.220189413093
 20
453.1372362919673
 10
423.6586597558413
 20
453.5778457747695
 10
423.9298750244802
 20
454.131772048638
 10
424.0307308831241
 20
454.7438517819188
 10
424.0307308831436
 20
547.0101282607081
 10
423.9298759836098
 20
547.6222078984704
 10
423.6586596001363
 20
548.1761345934049
 10
423.220189134847
 20
548.6167435806071
 10
422.6738471692811
 20
548.9052304619674
 10
422.0656346627237
 20
549.0098231147189
 10
401.0307299071238
 20
549.3769914519189
 10
401.0307299071175
 20
599.2985934625631
 10
401.0307299071175
 20
599.466681392465
 10
401.0307299071175
 20
599.6325812965523
 10
401.0307299071175
 20
599.7941051490087
 10
401.0307299071175
 20
599.9490836811506
 10
401.0307299071175
 20
600.0957795148138
 10
401.0307299071175
 20
600.2328874272539
 10
401.0307299071175
 20
600.3591210058353
 10
401.0307299071175
 20
600.4729021573847
 10
401.0307299071175
 20
600.5714855459102
 10
401.0307299071175
 20
600.6518338944889
 10
401.0307299071175
 20
600.7111088275377
 10
401.0307299071175
 20
600.7510473752181
 10
401.0307299071175
 20
600.7779623484275
 10
401.0307299071175
 20
600.7983655344012
  0
LWPOLYLINE
  5
3E6C2
330
1E
100
AcDbEntity
  8
10
100
AcDbPolyline
 90
        2
 70
     0
 43
0.0
 10
401.030730018924
 20
600.7983660651189
 42
0.4091108014272029
 10
400.5394562221431
 20
601.2982899126972
  0
LINE
  5
3E6C3
330
1E
100
AcDbEntity
  8
10
100
AcDbLine
 10
436.1066170135238
 20
453.2017902147186
 30
0.0
 11
436.5353085199237
 21
453.1980500231189
 31
0.0
  0
LINE
  5
3E6C4
330
1E
100
AcDbEntity
  8
10
100
AcDbLine
 10
474.030730614924
 20
568.9969927679189
 30
0.0
 11
474.030730614924
 21
576.7569885265187
 31
0.0
  0
LINE
  5
3E6C5
330
1E
100
AcDbEntity
  8
12
  6
DASHDOT
100
AcDbLine
 10
432.8971815091241
 20
463.3769900213188
 30
0.0
 11
464.530730018924
 21
463.3769900213188
 31
0.0
  0
LINE
  5
3E6C6
330
1E
100
AcDbEntity
  8
12
  6
DASHDOT
100
AcDbLine
 10
432.8971815091241
 20
538.376990021319
 30
0.0
 11
464.530730018924
 21
538.376990021319
 31
0.0
  0
LWPOLYLINE
  5
3E6C7
330
1E
100
AcDbEntity
  8
12
100
AcDbPolyline
 90
       11
 70
     1
 43
0.0
 10
444.5307304361238
 20
452.0769900213188
 10
444.5307304361239
 20
549.6769900213189
 42
-0.4142135623730951
 10
448.2307304361245
 20
553.3769900213186
 10
459.5307304361238
 20
553.3769900213186
 10
459.5307304361238
 20
550.1769900213189
 10
448.2307304361245
 20
550.1769900213189
 42
0.4142135623730951
 10
447.7307304361243
 20
549.6769900213189
 10
447.7307304361243
 20
451.5769900213189
 10
459.5307304361238
 20
451.5769900213189
 10
459.5307304361238
 20
448.3769900213188
 10
448.2307304361245
 20
448.3769900213188
 42
-0.4142135623730951
  0
INSERT
  5
3E6C8
330
1E
100
AcDbEntity
  8
12
100
AcDbBlockReference
  2
m5screw1
 10
444.5307321467246
 20
538.376990021319
 30
0.0
  0
INSERT
  5
3E6C9
330
1E
100
AcDbEntity
  8
12
100
AcDbBlockReference
  2
m5screw1
 10
444.5307321467246
 20
463.3769900213188
 30
0.0
  0
LWPOLYLINE
  5
3E6CA
330
1E
100
AcDbEntity
  8
130
100
AcDbPolyline
 90
       53
 70
     0
 43
0.0
 10
318.0307300189241
 20
512.5396250213191
 10
305.2800539532534
 20
516.8797024423261
 42
0.4244749720642301
 10
302.8293293953927
 20
515.3720057425669
 10
302.1100160316466
 20
512.1003727021998
 42
0.4248673327981316
 10
303.7017492986631
 20
509.7011611964443
 10
304.1010275700253
 20
509.6284035166929
 10
304.4908171073464
 20
509.5583974988046
 10
304.8713053620047
 20
509.4910532032428
 10
305.2426797853688
 20
509.4262806904733
 10
305.6051278288077
 20
509.3639900209613
 10
305.9588369436895
 20
509.3040912551723
 10
306.3039945813837
 20
509.2464944535716
 10
306.6407881932585
 20
509.1911096766254
 10
306.9694052306829
 20
509.1378469847982
 10
307.2900331450254
 20
509.0866164385563
 10
307.6028593876547
 20
509.0373280983643
 10
307.9080714099394
 20
508.9898920246887
 10
308.2058566632484
 20
508.9442182779941
 10
308.4964025989509
 20
508.9002169187462
 10
308.7798966684147
 20
508.8577980074107
 10
309.0565263230089
 20
508.8168716044528
 10
309.3264790141018
 20
508.7773477703381
 10
309.5899421930633
 20
508.739136565532
 10
309.8471033112608
 20
508.7021480505
 10
310.0981498200633
 20
508.6662922857072
 10
310.3432691708401
 20
508.63147933162
 10
310.5826488149594
 20
508.5976192487031
 10
311.3164762037901
 20
508.564622097422
 10
311.5449387887009
 20
508.5323979382423
 10
311.7682240210604
 20
508.5008568316298
 10
311.9865193522371
 20
508.4699088380493
 10
312.2000122336002
 20
508.4394640179668
 10
312.4088901165176
 20
508.4094324318475
 10
312.6133404523596
 20
508.3797241401567
 10
312.813550692493
 20
508.3502492033606
 10
313.0097082882874
 20
508.3209176819238
 10
313.2020006911123
 20
508.291639636312
 10
313.3906153523347
 20
508.2623251269914
 10
313.5757397233244
 20
508.2328842144263
 10
313.7575575075737
 20
508.2032315684132
 10
313.9362070367968
 20
508.1733376592845
 10
314.2844335075031
 20
508.1128569288971
 10
314.6212807723584
 20
508.0515071201398
 10
314.9476099247238
 20
507.9893539983763
 10
315.2642820579629
 20
507.9264633289708
 10
315.5721582654367
 20
507.8629008772876
 10
315.8720996405088
 20
507.7987324086903
 10
316.16496727654
 20
507.7340236885434
 10
316.4516222668933
 20
507.6688404822108
 10
316.7329257049312
 20
507.6032485550568
 10
317.009738684015
 20
507.5373136724453
 10
317.5533376387714
 20
507.4046781023061
 10
318.0893078780607
 20
507.2714598947056
  0
DIMENSION
  5
3E6CD
330
1E
100
AcDbEntity
  8
30
100
AcDbDimension
280
     0
  2
*D37
 10
538.0427934034758
 20
410.8769935975188
 30
0.0
 11
531.5427934034756
 21
500.8769935975188
 31
0.0
 70
    32
 71
     5
 42
179.9999999999999
 73
     0
 74
     0
 75
     0
  3
STANDARD
100
AcDbAlignedDimension
 13
475.7309455693409
 23
590.8769935975187
 33
0.0
 14
480.0276810386883
 24
410.8769935975188
 34
0.0
 50
90.0
100
AcDbRotatedDimension
  0
DIMENSION
  5
3E6CE
330
1E
100
AcDbEntity
  8
30
100
AcDbDimension
280
     0
  2
*D38
 10
517.0095789218865
 20
446.8769886205189
 30
0.0
 11
510.5095789218863
 21
500.8769900213188
 31
0.0
 70
    32
 71
     5
 42
108.0000028015999
 73
     0
 74
     0
 75
     0
  3
STANDARD
100
AcDbAlignedDimension
 13
477.1731190056787
 23
554.8769914221188
 33
0.0
 14
474.0065269474349
 24
446.8769886205189
 34
0.0
 50
90.0
100
AcDbRotatedDimension
  0
DIMENSION
  5
3E6CF
330
1E
100
AcDbEntity
  8
30
100
AcDbDimension
280
     0
  2
*D39
 10
557.7548927353698
 20
399.876993537919
 30
0.0
 11
551.2548927353697
 21
500.876993537919
 31
0.0
 70
    32
 71
     5
 42
202.0
 73
     0
 74
     0
 75
     0
  3
STANDARD
100
AcDbAlignedDimension
 13
435.0307308235239
 23
601.8769935379189
 33
0.0
 14
435.0307308235239
 24
399.876993537919
 34
0.0
 50
90.0
100
AcDbRotatedDimension
  0
LINE
  5
3E6D0
330
1E
100
AcDbEntity
  8
SLD-0
100
AcDbLine
 10
450.8783380286764
 20
463.6990222689005
 30
0.0
 11
467.7144952184767
 21
486.7637649905004
 31
0.0
  0
LINE
  5
3E6D1
330
1E
100
AcDbEntity
  8
30
100
AcDbLine
 10
467.7144952184767
 20
486.7637649905004
 30
0.0
 11
500.5771214858521
 21
486.7623614984006
 31
0.0
  0
MTEXT
  5
3E6D2
330
1E
100
AcDbEntity
  8
30
100
AcDbMText
 10
469.9495194041586
 20
493.4801735075138
 30
50.0
 40
5.0
 41
26.0
 46
0.0
 71
     1
 72
     5
  1
M5X0.8 screw
  7
blockfont
 73
     1
 44
1.0
  0
DIMENSION
  5
3ECB3
330
1E
100
AcDbEntity
  8
30
100
AcDbDimension
280
     0
  2
*D45
 10
233.0119420644133
 20
400.3769900212978
 30
0.0
 11
233.0119420644132
 21
500.8769900212978
 31
0.0
 70
   160
  1
<>
 71
     2
 42
200.9999999999998
 73
     0
 74
     0
 75
     0
  3
STANDARD
100
AcDbAlignedDimension
 13
174.3759849523273
 23
601.3769900212977
 33
0.0
 14
174.3759849521273
 24
400.3769900212978
 34
0.0
 50
90.0
100
AcDbRotatedDimension
  0
LINE
  5
4103A
330
1E
100
AcDbEntity
  8
16
100
AcDbLine
 10
85.33748228083551
 20
608.8653738754388
 30
0.0
 11
85.83227147049367
 21
390.8545088757346
 31
0.0
  0
DIMENSION
  5
41922
330
1E
100
AcDbEntity
  8
30
100
AcDbDimension
280
     0
  2
*D46
 10
328.530730018924
 20
380.2967034417779
 30
0.0
 11
386.5307302275239
 21
385.796703441778
 31
0.0
 70
    32
 71
     5
 42
116.0000004171998
 73
     0
 74
     0
 75
     0
  3
STANDARD1
100
AcDbAlignedDimension
 13
444.5307304361238
 23
446.8769886205189
 33
0.0
 14
328.530730018924
 24
449.8769900213193
 34
0.0
100
AcDbRotatedDimension
  0
DIMENSION
  5
4192F
330
1E
100
AcDbEntity
  8
30
100
AcDbDimension
280
     0
  2
*D47
 10
324.530730018924
 20
357.4677928849419
 30
0.0
 11
384.5307302275239
 21
362.9677928849418
 31
0.0
 70
    32
 71
     5
 42
120.0000004171998
 73
     0
 74
     0
 75
     0
  3
STANDARD1
100
AcDbAlignedDimension
 13
444.5307304361238
 23
446.8769886205189
 33
0.0
 14
324.530730018924
 24
475.876990021319
 34
0.0
100
AcDbRotatedDimension
  0
DIMENSION
  5
41957
330
1E
100
AcDbEntity
  8
30
100
AcDbDimension
280
     0
  2
*D48
 10
301.0307300189236
 20
335.8135307047628
 30
0.0
 11
372.7807302275236
 21
342.3135307047628
 31
0.0
 70
    32
 71
     5
 42
143.5000004172001
 73
     0
 74
     0
 75
     0
  3
STANDARD
100
AcDbAlignedDimension
 13
444.5307304361238
 23
446.8769886205189
 33
0.0
 14
301.0307300189236
 24
497.8769900213192
 34
0.0
100
AcDbRotatedDimension
  0
VIEWPORT
  5
9AC
330
1A
100
AcDbEntity
 67
     1
  8
0
  6
Continuous
348
E4DA
100
AcDbViewport
 10
0.0
 20
0.0
 30
0.0
 40
0.0
 41
0.0
 68
     1
 69
     1
 12
0.0
 22
0.0
 13
0.0
 23
0.0
 14
10.0
 24
10.0
 15
10.0
 25
10.0
 16
0.0
 26
0.0
 36
1.0
 17
0.0
 27
0.0
 37
0.0
 42
50.0
 43
0.0
 44
0.0
 45
0.0
 50
0.0
 51
0.0
 72
   100
 90
    32800
  1

281
     0
 71
     1
 74
     0
110
0.0
120
0.0
130
0.0
111
1.0
121
0.0
131
0.0
112
0.0
122
1.0
132
0.0
 79
     0
146
0.0
170
     0
 61
     5
292
     1
282
     1
141
0.0
142
0.0
 63
   250
421
  3355443
  0
VIEWPORT
  5
E19D
330
1A
100
AcDbEntity
 67
     1
  8
30
348
E4DA
100
AcDbViewport
 10
0.0
 20
0.0
 30
0.0
 40
0.0
 41
0.0
 68
     2
 69
     2
 12
8.653370891979619
 22
137.2805829780177
 13
0.0
 23
0.0
 14
1.0
 24
1.0
 15
10.0
 25
10.0
 16
0.0
 26
0.0
 36
1.0
 17
0.0
 27
0.0
 37
0.0
 42
50.0
 43
0.0
 44
0.0
 45
689.9195596776387
 50
0.0
 51
0.0
 72
   100
 90
    37664
  1

281
     0
 71
     1
 74
     0
110
0.0
120
0.0
130
0.0
111
1.0
121
0.0
131
0.0
112
0.0
122
1.0
132
0.0
 79
     0
146
0.0
170
     0
 61
     5
292
     1
282
     1
141
0.0
142
0.0
 63
   250
421
  3355443
  0
ENDSEC
  0
SECTION
  2
OBJECTS
  0
DICTIONARY
  5
C
330
0
100
AcDbDictionary
281
     1
  3
ACAD_CIP_PREVIOUS_PRODUCT_INFO
350
418EE
  3
ACAD_COLOR
350
E4E8
  3
ACAD_DETAILVIEWSTYLE
350
418E9
  3
ACAD_GROUP
350
D
  3
ACAD_LAYOUT
350
19
  3
ACAD_MATERIAL
350
E4BB
  3
ACAD_MLEADERSTYLE
350
E50D
  3
ACAD_MLINESTYLE
350
16
  3
ACAD_PLOTSETTINGS
350
18
  3
ACAD_PLOTSTYLENAME
350
E
  3
ACAD_SCALELIST
350
E4EB
  3
ACAD_SECTIONVIEWSTYLE
350
418E7
  3
ACAD_TABLESTYLE
350
E4E9
  3
ACAD_VISUALSTYLE
350
E4D4
  3
ACADDIM
350
6D5E
  3
ACDB_RECOMPOSE_DATA
350
419EA
  3
ACDBVARIABLEDICTIONARY
350
5697
  3
AEC_PROPERTY_SET_DEFS
350
F8DB
  3
ASE_INDEX_DICTIONARY
350
F8F6
  0
DICTIONARY
  5
12DA0
330
2
100
AcDbDictionary
280
     1
281
     1
  3
ACAD_LAYERSTATES
360
12DA1
  0
DICTIONARY
  5
E512
330
10
100
AcDbDictionary
280
     1
281
     1
  3
ADSK_XREC_LAYER_RECONCILED
360
E513
  0
DICTIONARY
  5
E514
330
2F
100
AcDbDictionary
280
     1
281
     1
  3
ADSK_XREC_LAYER_RECONCILED
360
E515
  0
DICTIONARY
  5
E518
330
35
100
AcDbDictionary
280
     1
281
     1
  3
ADSK_XREC_LAYER_RECONCILED
360
E519
  0
DICTIONARY
  5
E51C
330
3D
100
AcDbDictionary
280
     1
281
     1
  3
ADSK_XREC_LAYER_RECONCILED
360
E51D
  0
DICTIONARY
  5
E51E
330
3A2
100
AcDbDictionary
280
     1
281
     1
  3
ADSK_XREC_LAYER_RECONCILED
360
E51F
  0
DICTIONARY
  5
E520
330
3BBA
100
AcDbDictionary
280
     1
281
     1
  3
ADSK_XREC_LAYER_RECONCILED
360
E521
  0
DICTIONARY
  5
E522
330
67A8
100
AcDbDictionary
280
     1
281
     1
  3
ADSK_XREC_LAYER_RECONCILED
360
E523
  0
DICTIONARY
  5
E524
330
7837
100
AcDbDictionary
280
     1
281
     1
  3
ADSK_XREC_LAYER_RECONCILED
360
E525
  0
DICTIONARY
  5
E52A
330
C4FE
100
AcDbDictionary
280
     1
281
     1
  3
ADSK_XREC_LAYER_RECONCILED
360
E52B
  0
DICTIONARY
  5
E530
330
C501
100
AcDbDictionary
280
     1
281
     1
  3
ADSK_XREC_LAYER_RECONCILED
360
E531
  0
DICTIONARY
  5
E534
330
E473
100
AcDbDictionary
280
     1
281
     1
  3
ADSK_XREC_LAYER_RECONCILED
360
E535
  0
DICTIONARY
  5
1106B
330
1106A
100
AcDbDictionary
280
     1
281
     1
  0
DICTIONARY
  5
3828A
330
38289
100
AcDbDictionary
280
     1
281
     1
  0
DICTIONARY
  5
3ACBC
330
3ACBB
100
AcDbDictionary
280
     1
281
     1
  0
DICTIONARY
  5
3ACBE
330
3ACBD
100
AcDbDictionary
280
     1
281
     1
  0
DICTIONARY
  5
3CA6A
330
3CA69
100
AcDbDictionary
280
     1
281
     1
  0
DICTIONARY
  5
178
330
1E
100
AcDbDictionary
280
     1
281
     1
  3
ACAD_LAYOUTSELFREF
360
9011
  3
ACAD_SORTENTS
360
37C0C
  0
DICTIONARY
  5
17A
330
1A
100
AcDbDictionary
280
     1
281
     1
  3
ACAD_LAYOUTSELFREF
360
9010
  0
DICTIONARY
  5
3AADD
330
3AADC
100
AcDbDictionary
280
     1
281
     1
  3
ACAD_SORTENTS
360
3AADE
  0
DICTIONARY
  5
419C4
330
3DA3C
100
AcDbDictionary
280
     1
281
     1
  3
ACAD_SORTENTS
360
419C5
  0
XRECORD
  5
418EE
102
{ACAD_REACTORS
330
C
102
}
330
C
100
AcDbXrecord
280
     1
300
ACDLT
300
2014
300
ACDLT_F_S
  0
DICTIONARY
  5
E4E8
102
{ACAD_REACTORS
330
C
102
}
330
C
100
AcDbDictionary
281
     1
  0
DICTIONARY
  5
418E9
102
{ACAD_REACTORS
330
C
102
}
330
C
100
AcDbDictionary
281
     1
  3
Imperial24
350
418EA
  0
DICTIONARY
  5
D
102
{ACAD_REACTORS
330
C
102
}
330
C
100
AcDbDictionary
281
     1
  0
DICTIONARY
  5
19
102
{ACAD_REACTORS
330
C
102
}
330
C
100
AcDbDictionary
281
     1
  3
Model
350
904E
  3
ﾚｲｱｳﾄ1
350
904F
  0
DICTIONARY
  5
E4BB
102
{ACAD_REACTORS
330
C
102
}
330
C
100
AcDbDictionary
281
     1
  3
ByBlock
350
E4C4
  3
ByLayer
350
E4BC
  3
Global
350
E4CC
  0
DICTIONARY
  5
E50D
102
{ACAD_REACTORS
330
C
102
}
330
C
100
AcDbDictionary
281
     1
  3
Standard
350
E50E
  0
DICTIONARY
  5
16
102
{ACAD_REACTORS
330
C
102
}
330
C
100
AcDbDictionary
281
     1
  3
STANDARD
350
17
  0
DICTIONARY
  5
18
102
{ACAD_REACTORS
330
C
102
}
330
C
100
AcDbDictionary
281
     1
  0
ACDBDICTIONARYWDFLT
  5
E
102
{ACAD_REACTORS
330
C
102
}
330
C
100
AcDbDictionary
281
     1
  3
Normal
350
F
100
AcDbDictionaryWithDefault
340
F
  0
DICTIONARY
  5
E4EB
102
{ACAD_REACTORS
330
C
102
}
330
C
100
AcDbDictionary
281
     1
  3
A0
350
E4EC
  3
A1
350
E4ED
  3
A2
350
E4EE
  3
A3
350
E4EF
  3
A4
350
E4F0
  3
A5
350
E4F1
  3
A6
350
E4F2
  3
A7
350
E4F3
  3
A8
350
E4F4
  3
A9
350
E4F5
  3
B0
350
E4F6
  3
B1
350
E4F7
  3
B2
350
E4F8
  3
B3
350
E4F9
  3
B4
350
E4FA
  3
B5
350
E4FB
  3
B6
350
E4FC
  3
B7
350
E4FD
  3
B8
350
E4FE
  3
B9
350
E4FF
  3
C0
350
E500
  3
C1
350
E501
  3
C2
350
E502
  3
C3
350
E503
  3
C4
350
E504
  3
C5
350
E505
  3
C6
350
E506
  3
C7
350
E507
  3
C8
350
E508
  3
C9
350
E509
  3
D0
350
E50A
  3
D1
350
E50B
  3
D2
350
E50C
  0
DICTIONARY
  5
418E7
102
{ACAD_REACTORS
330
C
102
}
330
C
100
AcDbDictionary
281
     1
  3
Imperial24
350
418E8
  0
DICTIONARY
  5
E4E9
102
{ACAD_REACTORS
330
C
102
}
330
C
100
AcDbDictionary
281
     1
  3
Standard
350
E4EA
  0
DICTIONARY
  5
E4D4
102
{ACAD_REACTORS
330
C
102
}
330
C
100
AcDbDictionary
281
     1
  3
2dWireframe
350
E4DA
  3
3D Hidden
350
E4DC
  3
3dWireframe
350
E4DB
  3
Basic
350
E4D9
  3
Brighten
350
E4E0
  3
ColorChange
350
E4E4
  3
Conceptual
350
E4DD
  3
Dim
350
E4DF
  3
EdgeColorOff
350
E4E7
  3
Facepattern
350
E4E3
  3
Flat
350
E4D5
  3
FlatWithEdges
350
E4D6
  3
Gouraud
350
E4D7
  3
GouraudWithEdges
350
E4D8
  3
Hidden
350
418E1
  3
JitterOff
350
E4E5
  3
Linepattern
350
E4E2
  3
OverhangOff
350
E4E6
  3
Realistic
350
E4DE
  3
Shaded
350
418E6
  3
Shaded with edges
350
418E5
  3
Shades of Gray
350
418E2
  3
Sketchy
350
418E3
  3
Thicken
350
E4E1
  3
Wireframe
350
418E0
  3
X-Ray
350
418E4
  0
XRECORD
  5
6D5E
102
{ACAD_REACTORS
330
C
102
}
330
C
100
AcDbXrecord
280
     1
 90
   990106
  3

 60
     0
 61
     0
 62
     1
 63
     3
 64
     0
 65
     0
 66
     0
 67
     3
 68
     1
 69
     0
 70
     0
 71
     0
 72
     0
 40
0.0
170
     0
340
0
  0
XRECORD
  5
419EA
102
{ACAD_REACTORS
330
C
102
}
330
C
100
AcDbXrecord
280
     1
 90
        1
330
E4EA
330
418E8
330
418EA
  0
DICTIONARY
  5
5697
102
{ACAD_REACTORS
330
C
102
}
330
C
100
AcDbDictionary
281
     1
  3
CANNOSCALE
350
F8C1
  3
CMLEADERSTYLE
350
F8C0
  3
CTABLESTYLE
350
F8BF
  3
CVIEWDETAILSTYLE
350
4190A
  3
CVIEWSECTIONSTYLE
350
4190B
  3
DIMASSOC
350
5698
  3
INDEXCTL
350
F8C3
  3
LAYEREVAL
350
37FF5
  3
LAYERNOTIFY
350
37FF6
  3
LIGHTINGUNITS
350
37FF4
  3
MSLTSCALE
350
37FF3
  3
SORTENTS
350
F8C2
  0
DICTIONARY
  5
F8DB
102
{ACAD_REACTORS
330
C
102
}
330
C
100
AcDbDictionary
281
     1
  0
DICTIONARY
  5
F8F6
102
{ACAD_REACTORS
330
C
102
}
330
C
100
AcDbDictionary
281
     1
  3
ASEBlockHierarchyIndexRecord
350
F8F7
1001
DCO15
1040
1706442467.984
  0
DICTIONARY
  5
12DA1
102
{ACAD_REACTORS
330
12DA0
102
}
330
12DA0
100
AcDbDictionary
281
     1
  0
XRECORD
  5
E513
102
{ACAD_REACTORS
330
E512
102
}
330
E512
100
AcDbXrecord
280
     1
290
     1
  0
XRECORD
  5
E515
102
{ACAD_REACTORS
330
E514
102
}
330
E514
100
AcDbXrecord
280
     1
290
     1
  0
XRECORD
  5
E519
102
{ACAD_REACTORS
330
E518
102
}
330
E518
100
AcDbXrecord
280
     1
290
     1
  0
XRECORD
  5
E51D
102
{ACAD_REACTORS
330
E51C
102
}
330
E51C
100
AcDbXrecord
280
     1
290
     1
  0
XRECORD
  5
E51F
102
{ACAD_REACTORS
330
E51E
102
}
330
E51E
100
AcDbXrecord
280
     1
290
     1
  0
XRECORD
  5
E521
102
{ACAD_REACTORS
330
E520
102
}
330
E520
100
AcDbXrecord
280
     1
290
     1
  0
XRECORD
  5
E523
102
{ACAD_REACTORS
330
E522
102
}
330
E522
100
AcDbXrecord
280
     1
290
     1
  0
XRECORD
  5
E525
102
{ACAD_REACTORS
330
E524
102
}
330
E524
100
AcDbXrecord
280
     1
290
     1
  0
XRECORD
  5
E52B
102
{ACAD_REACTORS
330
E52A
102
}
330
E52A
100
AcDbXrecord
280
     1
290
     1
  0
XRECORD
  5
E531
102
{ACAD_REACTORS
330
E530
102
}
330
E530
100
AcDbXrecord
280
     1
290
     1
  0
XRECORD
  5
E535
102
{ACAD_REACTORS
330
E534
102
}
330
E534
100
AcDbXrecord
280
     1
290
     1
  0
XRECORD
  5
9011
102
{ACAD_REACTORS
330
178
102
}
330
178
100
AcDbXrecord
280
     1
340
1E
  0
SORTENTSTABLE
  5
37C0C
102
{ACAD_REACTORS
330
178
102
}
330
178
100
AcDbSortentsTable
330
1E
331
3E6C4
  5
3E6C4
331
3DE5E
  5
3DE5E
331
3E38D
  5
3E38D
331
3E395
  5
3E395
331
3E35E
  5
3E35E
331
3E39D
  5
3E39D
331
3E366
  5
3E366
331
3DD00
  5
3DD00
331
3DD08
  5
3DD08
331
3DE27
  5
3DE27
331
3DD28
  5
3DD28
331
3DE2F
  5
3DE2F
331
3DD30
  5
3DD30
331
3DE37
  5
3DE37
331
3E6D0
  5
3E6D0
331
3E3A1
  5
3E3A1
331
3DD59
  5
3DD59
331
3DD12
  5
3DD12
331
3E6C9
  5
3E6C9
331
3DE3F
  5
3DE3F
331
3E36E
  5
3E36E
331
3E6A5
  5
3E6A5
331
3E6AD
  5
3E6AD
331
3DE47
  5
3DE47
331
3E376
  5
3E376
331
3E6B5
  5
3E6B5
331
3DE4F
  5
3DE4F
331
3E37E
  5
3E37E
331
3E386
  5
3E386
331
3E6BD
  5
3E6BD
331
3DE57
  5
3DE57
331
3DE08
  5
3DE08
331
3DCE9
  5
3DCE9
331
3DE10
  5
3DE10
331
3DD4C
  5
3DD4C
331
3DCF1
  5
3DCF1
331
3E3AD
  5
3E3AD
331
3DCF9
  5
3DCF9
331
3DE18
  5
3DE18
331
3DD54
  5
3DD54
331
3DE64
  5
3DE64
331
3E69D
  5
3E69D
331
3E693
  5
3E693
331
3E3B1
  5
3E3B1
331
3ECB3
  5
3ECB3
331
3DD3A
  5
3DD3A
331
3DD42
  5
3DD42
331
3DD62
  5
3DD62
331
3DE5F
  5
3DE5F
331
3E38E
  5
3E38E
331
3E6C5
  5
3E6C5
331
3E396
  5
3E396
331
3E35F
  5
3E35F
331
3E39E
  5
3E39E
331
3E367
  5
3E367
331
3DD01
  5
3DD01
331
3DE20
  5
3DE20
331
3DE28
  5
3DE28
331
3DD09
  5
3DD09
331
3DE30
  5
3DE30
331
3DD29
  5
3DD29
331
3DD31
  5
3DD31
331
3E6D1
  5
3E6D1
331
3E3A2
  5
3E3A2
331
3DD5A
  5
3DD5A
331
3DD13
  5
3DD13
331
3E6CA
  5
3E6CA
331
3DD1B
  5
3DD1B
331
3DE38
  5
3DE38
331
3E36F
  5
3E36F
331
3E6A6
  5
3E6A6
331
3DE40
  5
3DE40
331
3E377
  5
3E377
331
3E6AE
  5
3E6AE
331
3DE48
  5
3DE48
331
3DE50
  5
3DE50
331
3E37F
  5
3E37F
331
3E6B6
  5
3E6B6
331
3E6BE
  5
3E6BE
331
3E387
  5
3E387
331
3DE01
  5
3DE01
331
3DCEA
  5
3DCEA
331
3DE09
  5
3DE09
331
3DD4D
  5
3DD4D
331
3DCF2
  5
3DCF2
331
3DE11
  5
3DE11
331
3DE19
  5
3DE19
331
3DD55
  5
3DD55
331
3DCFA
  5
3DCFA
331
3E3AE
  5
3E3AE
331
3E69E
  5
3E69E
331
3DE65
  5
3DE65
331
3E3B2
  5
3E3B2
331
3E694
  5
3E694
331
3DD23
  5
3DD23
331
3DD3B
  5
3DD3B
331
3DD43
  5
3DD43
331
3DE58
  5
3DE58
331
3E6C6
  5
3E6C6
331
3E38F
  5
3E38F
331
3E397
  5
3E397
331
3E360
  5
3E360
331
3E39F
  5
3E39F
331
3DE21
  5
3DE21
331
3DD02
  5
3DD02
331
3DD0A
  5
3DD0A
331
3DE29
  5
3DE29
331
3DD2A
  5
3DD2A
331
3DE31
  5
3DE31
331
3DD32
  5
3DD32
331
3E6D2
  5
3E6D2
331
3E3A3
  5
3E3A3
331
3DD5B
  5
3DD5B
331
3DD14
  5
3DD14
331
3E368
  5
3E368
331
3DE39
  5
3DE39
331
3DE41
  5
3DE41
331
3E370
  5
3E370
331
3E6A7
  5
3E6A7
331
3E6AF
  5
3E6AF
331
3DE49
  5
3DE49
331
3E378
  5
3E378
331
3E380
  5
3E380
331
3E6B7
  5
3E6B7
331
3DE51
  5
3DE51
331
3E6BF
  5
3E6BF
331
3DE02
  5
3DE02
331
3DE0A
  5
3DE0A
331
3DCEB
  5
3DCEB
331
3DCF3
  5
3DCF3
331
3DE12
  5
3DE12
331
3DD4E
  5
3DD4E
331
3DCFB
  5
3DCFB
331
3DE1A
  5
3DE1A
331
3DD56
  5
3DD56
331
3DE66
  5
3DE66
331
3E69F
  5
3E69F
331
3E695
  5
3E695
331
3DD24
  5
3DD24
331
3DD3C
  5
3DD3C
331
3DD44
  5
3DD44
331
3E388
  5
3E388
331
3DE59
  5
3DE59
331
3E390
  5
3E390
331
3E6C7
  5
3E6C7
331
3E398
  5
3E398
331
3E361
  5
3E361
331
3DD03
  5
3DD03
331
3DE22
  5
3DE22
331
3DE2A
  5
3DE2A
331
3DD0B
  5
3DD0B
331
3DE32
  5
3DE32
331
3DD2B
  5
3DD2B
331
3DD33
  5
3DD33
331
3E3A4
  5
3E3A4
331
3DD15
  5
3DD15
331
3E6A0
  5
3E6A0
331
3DE3A
  5
3DE3A
331
3E369
  5
3E369
331
3E371
  5
3E371
331
3E6A8
  5
3E6A8
331
3DE42
  5
3DE42
331
3E379
  5
3E379
331
3E6B0
  5
3E6B0
331
3DE4A
  5
3DE4A
331
3DE52
  5
3DE52
331
3E381
  5
3E381
331
3E6B8
  5
3E6B8
331
3DE03
  5
3DE03
331
3DCEC
  5
3DCEC
331
3DE0B
  5
3DE0B
331
3DD4F
  5
3DD4F
331
3E3A8
  5
3E3A8
331
3DCF4
  5
3DCF4
331
3DE13
  5
3DE13
331
3DE1B
  5
3DE1B
331
3DD57
  5
3DD57
331
3DCFC
  5
3DCFC
331
3E696
  5
3E696
331
3DD25
  5
3DD25
331
3DD3D
  5
3DD3D
331
3DD45
  5
3DD45
331
3E6C0
  5
3E6C0
331
3DE5A
  5
3DE5A
331
3E389
  5
3E389
331
3E391
  5
3E391
331
3E19A
  5
3E19A
331
3E399
  5
3E399
331
3E362
  5
3E362
331
3DD04
  5
3DD04
331
3DE23
  5
3DE23
331
3DD0C
  5
3DD0C
331
3DE2B
  5
3DE2B
331
3DD2C
  5
3DD2C
331
3DE33
  5
3DE33
331
3DD34
  5
3DD34
331
3E3A5
  5
3E3A5
331
3DD5D
  5
3DD5D
331
3DD16
  5
3DD16
331
3E6CD
  5
3E6CD
331
3DD1E
  5
3DD1E
331
3DE3B
  5
3DE3B
331
3E36A
  5
3E36A
331
3E6A1
  5
3E6A1
331
3DE43
  5
3DE43
331
3E372
  5
3E372
331
3E6A9
  5
3E6A9
331
3E6B1
  5
3E6B1
331
3DE4B
  5
3DE4B
331
3E37A
  5
3E37A
331
3E382
  5
3E382
331
3E6B9
  5
3E6B9
331
3DE53
  5
3DE53
331
3DE04
  5
3DE04
331
3DE0C
  5
3DE0C
331
3DD48
  5
3DD48
331
3DCED
  5
3DCED
331
3E3A9
  5
3E3A9
331
3DCF5
  5
3DCF5
331
3DE14
  5
3DE14
331
3DD50
  5
3DD50
331
3DCFD
  5
3DCFD
331
3DE1C
  5
3DE1C
331
3DE60
  5
3DE60
331
3E697
  5
3E697
331
3DD26
  5
3DD26
331
3DD3E
  5
3DD3E
331
3DD46
  5
3DD46
331
3E38A
  5
3E38A
331
3E6C1
  5
3E6C1
331
3DE5B
  5
3DE5B
331
3E392
  5
3E392
331
3E39A
  5
3E39A
331
3E363
  5
3E363
331
3DD05
  5
3DD05
331
3DE24
  5
3DE24
331
3DE2C
  5
3DE2C
331
3DD0D
  5
3DD0D
331
3DD2D
  5
3DD2D
331
3DE34
  5
3DE34
331
3DD35
  5
3DD35
331
3E3A6
  5
3E3A6
331
3DD5E
  5
3DD5E
331
3E6CE
  5
3E6CE
331
3DD17
  5
3DD17
331
3DD1F
  5
3DD1F
331
3E6A2
  5
3E6A2
331
3DE3C
  5
3DE3C
331
3E36B
  5
3E36B
331
3E373
  5
3E373
331
3E6AA
  5
3E6AA
331
3DE44
  5
3DE44
331
3DE4C
  5
3DE4C
331
3E37B
  5
3E37B
331
3E6B2
  5
3E6B2
331
3DE54
  5
3DE54
331
3E383
  5
3E383
331
3E6BA
  5
3E6BA
331
3DE05
  5
3DE05
331
3DCEE
  5
3DCEE
331
3DE0D
  5
3DE0D
331
3DD49
  5
3DD49
331
3DD51
  5
3DD51
331
3E3AA
  5
3E3AA
331
3DCF6
  5
3DCF6
331
3DE15
  5
3DE15
331
3DE1D
  5
3DE1D
331
3DE61
  5
3DE61
331
3DCFE
  5
3DCFE
331
3DD27
  5
3DD27
331
3DD3F
  5
3DD3F
331
3DD47
  5
3DD47
331
3E6C2
  5
3E6C2
331
3DE5C
  5
3DE5C
331
3E38B
  5
3E38B
331
3E393
  5
3E393
331
3E39B
  5
3E39B
331
3E35C
  5
3E35C
331
3E364
  5
3E364
331
3DD06
  5
3DD06
331
3DE25
  5
3DE25
331
3DD0E
  5
3DD0E
331
3DE2D
  5
3DE2D
331
3DD2E
  5
3DD2E
331
3DE35
  5
3DE35
331
3DD36
  5
3DD36
331
3E3A7
  5
3E3A7
331
3DD5F
  5
3DD5F
331
3DD10
  5
3DD10
331
3E6CF
  5
3E6CF
331
3DE3D
  5
3DE3D
331
3E36C
  5
3E36C
331
3E6A3
  5
3E6A3
331
3E6AB
  5
3E6AB
331
3DE45
  5
3DE45
331
3E374
  5
3E374
331
3E6B3
  5
3E6B3
331
3DE4D
  5
3DE4D
331
3E37C
  5
3E37C
331
3E384
  5
3E384
331
3E6BB
  5
3E6BB
331
3DE55
  5
3DE55
331
3DE06
  5
3DE06
331
3DCE7
  5
3DCE7
331
3DE0E
  5
3DE0E
331
3DD4A
  5
3DD4A
331
3DCEF
  5
3DCEF
331
3E3AB
  5
3E3AB
331
3DCF7
  5
3DCF7
331
3DE16
  5
3DE16
331
3DD52
  5
3DD52
331
3DCFF
  5
3DCFF
331
3DE1E
  5
3DE1E
331
3DE62
  5
3DE62
331
3DD20
  5
3DD20
331
3DD38
  5
3DD38
331
3DD40
  5
3DD40
331
3DD60
  5
3DD60
331
3DE5D
  5
3DE5D
331
3E38C
  5
3E38C
331
3E6C3
  5
3E6C3
331
3E394
  5
3E394
331
3E35D
  5
3E35D
331
3E39C
  5
3E39C
331
3E365
  5
3E365
331
3DD07
  5
3DD07
331
3DE26
  5
3DE26
331
3DE2E
  5
3DE2E
331
3DD0F
  5
3DD0F
331
3DD2F
  5
3DD2F
331
3DE36
  5
3DE36
331
3DD37
  5
3DD37
331
3E3A0
  5
3E3A0
331
3DD58
  5
3DD58
331
3DD11
  5
3DD11
331
3E6C8
  5
3E6C8
331
3E6A4
  5
3E6A4
331
3DE3E
  5
3DE3E
331
3E36D
  5
3E36D
331
3E375
  5
3E375
331
3E6AC
  5
3E6AC
331
3DE46
  5
3DE46
331
3DE4E
  5
3DE4E
331
3E37D
  5
3E37D
331
3E6B4
  5
3E6B4
331
3E6BC
  5
3E6BC
331
3DE56
  5
3DE56
331
3E385
  5
3E385
331
3DCE8
  5
3DCE8
331
3DE07
  5
3DE07
331
3DD4B
  5
3DD4B
331
3DCF0
  5
3DCF0
331
3DE0F
  5
3DE0F
331
3DE17
  5
3DE17
331
3DD53
  5
3DD53
331
3DCF8
  5
3DCF8
331
3E3AC
  5
3E3AC
331
3DE1F
  5
3DE1F
331
3DE63
  5
3DE63
331
3E3B0
  5
3E3B0
331
3E692
  5
3E692
331
3DD21
  5
3DD21
331
3DD39
  5
3DD39
331
3DD41
  5
3DD41
331
3DD61
  5
3DD61
  0
XRECORD
  5
9010
102
{ACAD_REACTORS
330
17A
102
}
330
17A
100
AcDbXrecord
280
     1
340
1A
  0
SORTENTSTABLE
  5
3AADE
102
{ACAD_REACTORS
330
3AADD
102
}
330
3AADD
100
AcDbSortentsTable
330
3AADC
  0
SORTENTSTABLE
  5
419C5
102
{ACAD_REACTORS
330
419C4
102
}
330
419C4
100
AcDbSortentsTable
330
3DA3C
  0
ACDBDETAILVIEWSTYLE
  5
418EA
102
{ACAD_XDICTIONARY
360
4190F
102
}
102
{ACAD_REACTORS
330
418E9
102
}
330
418E9
100
AcDbModelDocViewStyle
 70
     0
  3
Imperial24
290
     0
100
AcDbDetailViewStyle
 70
     0
 71
     0
 90
        3
 71
     1
340
11
 62
   256
 40
0.24
340
0
 62
   256
 40
0.24
300

 40
0.36
280
     3
 71
     2
340
15
 90
       25
 62
   256
 71
     3
340
11
 62
   256
 40
0.24
 90
        1
 40
0.75
 90
        1
300
%<\AcVar ViewType \f "%tc1">% %<\AcVar ViewDetailId>%\PSCALE %<\AcVar ViewScale \f "%sn">%
 71
     4
340
15
 90
       25
 62
   256
340
15
 90
       25
 62
   256
280
     0
  0
LAYOUT
  5
904E
102
{ACAD_XDICTIONARY
360
13816
102
}
102
{ACAD_REACTORS
330
19
102
}
330
19
100
AcDbPlotSettings
  1

  2
Canon LBP3800 LIPSLX
  4
A4
  6
OLE1
 40
5.873749732971191
 41
5.873747825622557
 42
5.873748779296875
 43
5.873748779296875
 44
209.9733276367186
 45
296.9259948730469
 46
4.368652168726285
 47
0.8644569253958136
 48
0.0
 49
0.0
140
0.0
141
0.0
142
1.0
143
2.5
 70
 11940
 72
     1
 73
     0
 74
     1
  7
monochrome.ctb
 75
     0
147
0.4
 76
     0
 77
     2
 78
   300
148
203.0887703810449
149
220.5380198621869
100
AcDbLayout
  1
Model
 70
     1
 71
     0
 10
0.0
 20
0.0
 11
12.0
 21
9.0
 12
0.0
 22
0.0
 32
0.0
 14
0.0
 24
0.0
 34
0.0
 15
0.0
 25
0.0
 35
0.0
146
0.0
 13
0.0
 23
0.0
 33
0.0
 16
1.0
 26
0.0
 36
0.0
 17
0.0
 27
1.0
 37
0.0
 76
     0
330
1E
331
12C00
1001
ACAD_PSEXT
1000
Canon LBP3800 LIPSLX
1000
Canon LBP3800 LIPSLX
1000
IP_192.168.54.50
1000

1070
     0
  0
LAYOUT
  5
904F
102
{ACAD_REACTORS
330
19
102
}
330
19
100
AcDbPlotSettings
  1

  2
none_device
  4
Letter_(8.50_x_11.00_Inches)
  6

 40
6.349999904632567
 41
6.349999904632567
 42
6.350006103515625
 43
6.350006103515625
 44
215.8999938964844
 45
279.3999938964844
 46
0.0
 47
0.0
 48
0.0
 49
0.0
140
0.0
141
0.0
142
1.0
143
1.0
 70
   688
 72
     0
 73
     1
 74
     1
  7
monochrome.stb
 75
     0
147
1.0
 76
     0
 77
     2
 78
   300
148
0.0
149
0.0
100
AcDbLayout
  1
ﾚｲｱｳﾄ1
 70
     1
 71
     1
 10
-0.2500002402958907
 20
-0.2499999962453767
 11
10.74999951940822
 21
8.249999763458731
 12
0.0
 22
0.0
 32
0.0
 14
0.0
 24
0.0
 34
0.0
 15
0.0
 25
0.0
 35
0.0
146
0.0
 13
0.0
 23
0.0
 33
0.0
 16
1.0
 26
0.0
 36
0.0
 17
0.0
 27
1.0
 37
0.0
 76
     0
330
1A
331
9AC
1001
ACAD_PSEXT
1000
なし
1000
なし
1000
適切ではありません
1000
新しいプロッタ環境設定名を選択しない限り、レイアウトは印刷されません。
1070
     0
  0
MATERIAL
  5
E4C4
102
{ACAD_XDICTIONARY
360
E4C5
102
}
102
{ACAD_REACTORS
330
E4BB
102
}
330
E4BB
100
AcDbMaterial
  1
ByBlock
 72
     0
 43
0.0208333333333333
 43
0.0
 43
0.0
 43
0.0
 43
0.0
 43
0.0208333333333333
 43
0.0
 43
0.0
 43
0.0
 43
0.0
 43
1.0
 43
0.0
 43
0.0
 43
0.0
 43
0.0
 43
1.0
 77
     0
 47
0.0208333333333333
 47
0.0
 47
0.0
 47
0.0
 47
0.0
 47
0.0208333333333333
 47
0.0
 47
0.0
 47
0.0
 47
0.0
 47
1.0
 47
0.0
 47
0.0
 47
0.0
 47
0.0
 47
1.0
171
     0
 49
0.0208333333333333
 49
0.0
 49
0.0
 49
0.0
 49
0.0
 49
0.0208333333333333
 49
0.0
 49
0.0
 49
0.0
 49
0.0
 49
1.0
 49
0.0
 49
0.0
 49
0.0
 49
0.0
 49
1.0
175
     0
142
0.0208333333333333
142
0.0
142
0.0
142
0.0
142
0.0
142
0.0208333333333333
142
0.0
142
0.0
142
0.0
142
0.0
142
1.0
142
0.0
142
0.0
142
0.0
142
0.0
142
1.0
179
     0
144
0.0208333333333333
144
0.0
144
0.0
144
0.0
144
0.0
144
0.0208333333333333
144
0.0
144
0.0
144
0.0
144
0.0
144
1.0
144
0.0
144
0.0
144
0.0
144
0.0
144
1.0
147
0.0208333333333333
147
0.0
147
0.0
147
0.0
147
0.0
147
0.0208333333333333
147
0.0
147
0.0
147
0.0
147
0.0
147
1.0
147
0.0
147
0.0
147
0.0
147
0.0
147
1.0
  0
MATERIAL
  5
E4BC
102
{ACAD_XDICTIONARY
360
E4BD
102
}
102
{ACAD_REACTORS
330
E4BB
102
}
330
E4BB
100
AcDbMaterial
  1
ByLayer
 72
     0
 43
0.0208333333333333
 43
0.0
 43
0.0
 43
0.0
 43
0.0
 43
0.0208333333333333
 43
0.0
 43
0.0
 43
0.0
 43
0.0
 43
1.0
 43
0.0
 43
0.0
 43
0.0
 43
0.0
 43
1.0
 77
     0
 47
0.0208333333333333
 47
0.0
 47
0.0
 47
0.0
 47
0.0
 47
0.0208333333333333
 47
0.0
 47
0.0
 47
0.0
 47
0.0
 47
1.0
 47
0.0
 47
0.0
 47
0.0
 47
0.0
 47
1.0
171
     0
 49
0.0208333333333333
 49
0.0
 49
0.0
 49
0.0
 49
0.0
 49
0.0208333333333333
 49
0.0
 49
0.0
 49
0.0
 49
0.0
 49
1.0
 49
0.0
 49
0.0
 49
0.0
 49
0.0
 49
1.0
175
     0
142
0.0208333333333333
142
0.0
142
0.0
142
0.0
142
0.0
142
0.0208333333333333
142
0.0
142
0.0
142
0.0
142
0.0
142
1.0
142
0.0
142
0.0
142
0.0
142
0.0
142
1.0
179
     0
144
0.0208333333333333
144
0.0
144
0.0
144
0.0
144
0.0
144
0.0208333333333333
144
0.0
144
0.0
144
0.0
144
0.0
144
1.0
144
0.0
144
0.0
144
0.0
144
0.0
144
1.0
147
0.0208333333333333
147
0.0
147
0.0
147
0.0
147
0.0
147
0.0208333333333333
147
0.0
147
0.0
147
0.0
147
0.0
147
1.0
147
0.0
147
0.0
147
0.0
147
0.0
147
1.0
  0
MATERIAL
  5
E4CC
102
{ACAD_XDICTIONARY
360
E4CD
102
}
102
{ACAD_REACTORS
330
E4BB
102
}
330
E4BB
100
AcDbMaterial
  1
Global
 72
     0
 43
0.0208333333333333
 43
0.0
 43
0.0
 43
0.0
 43
0.0
 43
0.0208333333333333
 43
0.0
 43
0.0
 43
0.0
 43
0.0
 43
1.0
 43
0.0
 43
0.0
 43
0.0
 43
0.0
 43
1.0
 77
     0
 47
0.0208333333333333
 47
0.0
 47
0.0
 47
0.0
 47
0.0
 47
0.0208333333333333
 47
0.0
 47
0.0
 47
0.0
 47
0.0
 47
1.0
 47
0.0
 47
0.0
 47
0.0
 47
0.0
 47
1.0
171
     0
 49
0.0208333333333333
 49
0.0
 49
0.0
 49
0.0
 49
0.0
 49
0.0208333333333333
 49
0.0
 49
0.0
 49
0.0
 49
0.0
 49
1.0
 49
0.0
 49
0.0
 49
0.0
 49
0.0
 49
1.0
175
     0
142
0.0208333333333333
142
0.0
142
0.0
142
0.0
142
0.0
142
0.0208333333333333
142
0.0
142
0.0
142
0.0
142
0.0
142
1.0
142
0.0
142
0.0
142
0.0
142
0.0
142
1.0
179
     0
144
0.0208333333333333
144
0.0
144
0.0
144
0.0
144
0.0
144
0.0208333333333333
144
0.0
144
0.0
144
0.0
144
0.0
144
1.0
144
0.0
144
0.0
144
0.0
144
0.0
144
1.0
147
0.0208333333333333
147
0.0
147
0.0
147
0.0
147
0.0
147
0.0208333333333333
147
0.0
147
0.0
147
0.0
147
0.0
147
1.0
147
0.0
147
0.0
147
0.0
147
0.0
147
1.0
  0
MLEADERSTYLE
  5
E50E
102
{ACAD_REACTORS
330
E50D
102
}
330
E50D
100
AcDbMLeaderStyle
179
     2
170
     2
171
     1
172
     0
 90
        2
 40
0.0
 41
0.0
173
     1
 91
-1056964608
340
13
 92
       -2
290
     1
 42
0.09
291
     1
 43
0.36
  3
Standard
 44
0.18
300

342
11
174
     1
178
     6
175
     1
176
     0
 93
-1056964608
 45
0.18
292
     0
297
     0
 46
0.18
 94
-1056964608
 47
1.0
 49
1.0
140
1.0
293
     1
141
0.0
294
     1
177
     0
142
1.0
295
     0
296
     0
143
0.125
271
     0
272
     9
273
     9
298
     0
1001
ACAD_MLEADERVER
1070
     2
  0
MLINESTYLE
  5
17
102
{ACAD_REACTORS
330
16
102
}
330
16
100
AcDbMlineStyle
  2
STANDARD
 70
     0
  3

 62
   256
 51
90.0
 52
90.0
 71
     2
 49
0.5
 62
   256
  6
BYLAYER
 49
-0.5
 62
   256
  6
BYLAYER
  0
ACDBPLACEHOLDER
  5
F
102
{ACAD_REACTORS
330
E
102
}
330
E
  0
SCALE
  5
E4EC
102
{ACAD_REACTORS
330
E4EB
102
}
330
E4EB
100
AcDbScale
 70
     0
300
1:1
140
1.0
141
1.0
290
     1
  0
SCALE
  5
E4ED
102
{ACAD_REACTORS
330
E4EB
102
}
330
E4EB
100
AcDbScale
 70
     0
300
1:2
140
1.0
141
2.0
290
     0
  0
SCALE
  5
E4EE
102
{ACAD_REACTORS
330
E4EB
102
}
330
E4EB
100
AcDbScale
 70
     0
300
1:4
140
1.0
141
4.0
290
     0
  0
SCALE
  5
E4EF
102
{ACAD_REACTORS
330
E4EB
102
}
330
E4EB
100
AcDbScale
 70
     0
300
1:5
140
1.0
141
5.0
290
     0
  0
SCALE
  5
E4F0
102
{ACAD_REACTORS
330
E4EB
102
}
330
E4EB
100
AcDbScale
 70
     0
300
1:8
140
1.0
141
8.0
290
     0
  0
SCALE
  5
E4F1
102
{ACAD_REACTORS
330
E4EB
102
}
330
E4EB
100
AcDbScale
 70
     0
300
1:10
140
1.0
141
10.0
290
     0
  0
SCALE
  5
E4F2
102
{ACAD_REACTORS
330
E4EB
102
}
330
E4EB
100
AcDbScale
 70
     0
300
1:16
140
1.0
141
16.0
290
     0
  0
SCALE
  5
E4F3
102
{ACAD_REACTORS
330
E4EB
102
}
330
E4EB
100
AcDbScale
 70
     0
300
1:20
140
1.0
141
20.0
290
     0
  0
SCALE
  5
E4F4
102
{ACAD_REACTORS
330
E4EB
102
}
330
E4EB
100
AcDbScale
 70
     0
300
1:30
140
1.0
141
30.0
290
     0
  0
SCALE
  5
E4F5
102
{ACAD_REACTORS
330
E4EB
102
}
330
E4EB
100
AcDbScale
 70
     0
300
1:40
140
1.0
141
40.0
290
     0
  0
SCALE
  5
E4F6
102
{ACAD_REACTORS
330
E4EB
102
}
330
E4EB
100
AcDbScale
 70
     0
300
1:50
140
1.0
141
50.0
290
     0
  0
SCALE
  5
E4F7
102
{ACAD_REACTORS
330
E4EB
102
}
330
E4EB
100
AcDbScale
 70
     0
300
1:100
140
1.0
141
100.0
290
     0
  0
SCALE
  5
E4F8
102
{ACAD_REACTORS
330
E4EB
102
}
330
E4EB
100
AcDbScale
 70
     0
300
2:1
140
2.0
141
1.0
290
     0
  0
SCALE
  5
E4F9
102
{ACAD_REACTORS
330
E4EB
102
}
330
E4EB
100
AcDbScale
 70
     0
300
4:1
140
4.0
141
1.0
290
     0
  0
SCALE
  5
E4FA
102
{ACAD_REACTORS
330
E4EB
102
}
330
E4EB
100
AcDbScale
 70
     0
300
8:1
140
8.0
141
1.0
290
     0
  0
SCALE
  5
E4FB
102
{ACAD_REACTORS
330
E4EB
102
}
330
E4EB
100
AcDbScale
 70
     0
300
10:1
140
10.0
141
1.0
290
     0
  0
SCALE
  5
E4FC
102
{ACAD_REACTORS
330
E4EB
102
}
330
E4EB
100
AcDbScale
 70
     0
300
100:1
140
100.0
141
1.0
290
     0
  0
SCALE
  5
E4FD
102
{ACAD_REACTORS
330
E4EB
102
}
330
E4EB
100
AcDbScale
 70
     0
300
1/128" = 1'-0"
140
0.0078125
141
12.0
290
     0
  0
SCALE
  5
E4FE
102
{ACAD_REACTORS
330
E4EB
102
}
330
E4EB
100
AcDbScale
 70
     0
300
1/64" = 1'-0"
140
0.015625
141
12.0
290
     0
  0
SCALE
  5
E4FF
102
{ACAD_REACTORS
330
E4EB
102
}
330
E4EB
100
AcDbScale
 70
     0
300
1/32" = 1'-0"
140
0.03125
141
12.0
290
     0
  0
SCALE
  5
E500
102
{ACAD_REACTORS
330
E4EB
102
}
330
E4EB
100
AcDbScale
 70
     0
300
1/16" = 1'-0"
140
0.0625
141
12.0
290
     0
  0
SCALE
  5
E501
102
{ACAD_REACTORS
330
E4EB
102
}
330
E4EB
100
AcDbScale
 70
     0
300
3/32" = 1'-0"
140
0.09375
141
12.0
290
     0
  0
SCALE
  5
E502
102
{ACAD_REACTORS
330
E4EB
102
}
330
E4EB
100
AcDbScale
 70
     0
300
1/8" = 1'-0"
140
0.125
141
12.0
290
     0
  0
SCALE
  5
E503
102
{ACAD_REACTORS
330
E4EB
102
}
330
E4EB
100
AcDbScale
 70
     0
300
3/16" = 1'-0"
140
0.1875
141
12.0
290
     0
  0
SCALE
  5
E504
102
{ACAD_REACTORS
330
E4EB
102
}
330
E4EB
100
AcDbScale
 70
     0
300
1/4" = 1'-0"
140
0.25
141
12.0
290
     0
  0
SCALE
  5
E505
102
{ACAD_REACTORS
330
E4EB
102
}
330
E4EB
100
AcDbScale
 70
     0
300
3/8" = 1'-0"
140
0.375
141
12.0
290
     0
  0
SCALE
  5
E506
102
{ACAD_REACTORS
330
E4EB
102
}
330
E4EB
100
AcDbScale
 70
     0
300
1/2" = 1'-0"
140
0.5
141
12.0
290
     0
  0
SCALE
  5
E507
102
{ACAD_REACTORS
330
E4EB
102
}
330
E4EB
100
AcDbScale
 70
     0
300
3/4" = 1'-0"
140
0.75
141
12.0
290
     0
  0
SCALE
  5
E508
102
{ACAD_REACTORS
330
E4EB
102
}
330
E4EB
100
AcDbScale
 70
     0
300
1" = 1'-0"
140
1.0
141
12.0
290
     0
  0
SCALE
  5
E509
102
{ACAD_REACTORS
330
E4EB
102
}
330
E4EB
100
AcDbScale
 70
     0
300
1-1/2" = 1'-0"
140
1.5
141
12.0
290
     0
  0
SCALE
  5
E50A
102
{ACAD_REACTORS
330
E4EB
102
}
330
E4EB
100
AcDbScale
 70
     0
300
3" = 1'-0"
140
3.0
141
12.0
290
     0
  0
SCALE
  5
E50B
102
{ACAD_REACTORS
330
E4EB
102
}
330
E4EB
100
AcDbScale
 70
     0
300
6" = 1'-0"
140
6.0
141
12.0
290
     0
  0
SCALE
  5
E50C
102
{ACAD_REACTORS
330
E4EB
102
}
330
E4EB
100
AcDbScale
 70
     0
300
1'-0" = 1'-0"
140
12.0
141
12.0
290
     0
  0
ACDBSECTIONVIEWSTYLE
  5
418E8
102
{ACAD_XDICTIONARY
360
4190D
102
}
102
{ACAD_REACTORS
330
418E7
102
}
330
418E7
100
AcDbModelDocViewStyle
 70
     0
  3
Imperial24
290
     0
100
AcDbSectionViewStyle
 70
     0
 71
     0
 90
       78
 71
     1
340
11
 62
   256
 40
0.24
340
0
340
0
 62
   256
 40
0.24
300
I, O, Q, S, X, Z
 40
0.48
 90
        3
 40
0.18
 90
        1
 71
     2
340
15
 90
       25
 62
   256
340
15
 90
       50
 62
   256
 40
0.24
 40
0.0
 40
0.24
 71
     3
340
11
 62
   256
 40
0.24
 90
        1
 40
0.75
 90
        1
300
%<\AcVar ViewType \f "%tc1">% %<\AcVar ViewSectionStartId>%-%<\AcVar ViewSectionEndId>%\PSCALE %<\AcVar ViewScale \f "%sn">%
 71
     4
 62
   256
 62
   257
300
ANSI31
 40
1.0
 90
        0
290
     0
290
     0
 90
        6
 40
0.0
 40
1.570796326794896
 40
0.2617993877991494
 40
1.308996938995747
 40
-0.2617993877991494
 40
1.832595714594044
  0
TABLESTYLE
  5
E4EA
102
{ACAD_XDICTIONARY
360
F86C
102
}
102
{ACAD_REACTORS
330
E4E9
102
}
330
E4E9
100
AcDbTableStyle
280
     0
  3
Standard
 70
     0
 71
     0
 40
0.06
 41
0.06
280
     0
281
     0
  7
STANDARD
140
0.18
170
     2
 62
     0
 63
     7
283
     0
 90
      512
 91
        0
  1

274
    -2
284
     1
 64
     0
275
    -2
285
     1
 65
     0
276
    -2
286
     1
 66
     0
277
    -2
287
     1
 67
     0
278
    -2
288
     1
 68
     0
279
    -2
289
     1
 69
     0
  7
STANDARD
140
0.25
170
     5
 62
     0
 63
     7
283
     0
 90
      512
 91
        0
  1

274
    -2
284
     1
 64
     0
275
    -2
285
     1
 65
     0
276
    -2
286
     1
 66
     0
277
    -2
287
     1
 67
     0
278
    -2
288
     1
 68
     0
279
    -2
289
     1
 69
     0
  7
STANDARD
140
0.18
170
     5
 62
     0
 63
     7
283
     0
 90
      512
 91
        0
  1

274
    -2
284
     1
 64
     0
275
    -2
285
     1
 65
     0
276
    -2
286
     1
 66
     0
277
    -2
287
     1
 67
     0
278
    -2
288
     1
 68
     0
279
    -2
289
     1
 69
     0
  0
VISUALSTYLE
  5
E4DA
102
{ACAD_REACTORS
330
E4D4
102
}
330
E4D4
100
AcDbVisualStyle
  2

 70
     4
177
     3
291
     0
 70
    58
 90
        0
176
     1
 90
        2
176
     1
 90
        0
176
     1
 90
        0
176
     1
 40
0.6
176
     1
 40
30.0
176
     1
 62
     7
176
     1
 90
        1
176
     1
 90
        4
176
     1
 62
     7
176
     1
 62
   257
176
     1
 90
        1
176
     1
 90
        1
176
     1
 40
1.0
176
     1
 90
        0
176
     1
 62
   257
176
     1
 40
1.0
176
     1
 90
        1
176
     1
 90
        6
176
     1
 90
        2
176
     1
 62
     7
176
     1
 90
        5
176
     1
 90
        0
176
     1
 90
        0
176
     1
290
     0
176
     1
 90
        1
176
     1
 40
0.0
176
     1
 90
        0
176
     1
290
     1
176
     1
290
     1
176
     1
290
     0
176
     1
290
     0
176
     1
290
     0
176
     1
290
     0
176
     1
290
     0
176
     1
290
     0
176
     1
290
     0
176
     1
 90
       50
176
     1
 40
0.0
176
     1
 40
1.0
176
     1
 90
        0
176
     1
 62
    18
176
     1
 90
       50
176
     1
 90
        3
176
     1
 62
     5
420
      255
176
     1
290
     0
176
     1
 90
       50
176
     1
 90
       50
176
     1
 90
       50
176
     1
290
     0
176
     1
 90
       50
176
     1
 62
   256
176
     0
 40
1.0
176
     0
 90
        2
176
     1
  1
strokes_ogs.tif
176
     1
290
     0
176
     1
 40
1.0
176
     1
 40
1.0
176
     1
  0
VISUALSTYLE
  5
E4DC
102
{ACAD_REACTORS
330
E4D4
102
}
330
E4D4
100
AcDbVisualStyle
  2

 70
     6
177
     3
291
     0
 70
    58
 90
        1
176
     1
 90
        2
176
     1
 90
        2
176
     1
 90
        0
176
     1
 40
0.6
176
     1
 40
30.0
176
     1
 62
     7
176
     1
 90
        2
176
     1
 90
        2
176
     1
 62
     7
176
     1
 62
   257
176
     1
 90
        2
176
     1
 90
        1
176
     1
 40
179.0
176
     1
 90
        0
176
     1
 62
   257
176
     1
 40
1.0
176
     1
 90
        1
176
     1
 90
        6
176
     1
 90
        2
176
     1
 62
     7
176
     1
 90
        3
176
     1
 90
        0
176
     1
 90
        0
176
     1
290
     0
176
     1
 90
        1
176
     1
 40
0.0
176
     1
 90
        0
176
     1
290
     0
176
     1
290
     1
176
     1
290
     1
176
     1
290
     0
176
     1
290
     0
176
     1
290
     0
176
     1
290
     0
176
     1
290
     0
176
     1
290
     0
176
     1
 90
       50
176
     1
 40
0.0
176
     1
 40
1.0
176
     1
 90
        0
176
     1
 62
    18
176
     1
 90
       50
176
     1
 90
        3
176
     1
 62
     5
420
      255
176
     1
290
     0
176
     1
 90
       50
176
     1
 90
       50
176
     1
 90
       50
176
     1
290
     0
176
     1
 90
       50
176
     1
 62
   256
176
     0
 40
1.0
176
     0
 90
        2
176
     1
  1
strokes_ogs.tif
176
     1
290
     0
176
     1
 40
1.0
176
     1
 40
1.0
176
     1
  0
VISUALSTYLE
  5
E4DB
102
{ACAD_REACTORS
330
E4D4
102
}
330
E4D4
100
AcDbVisualStyle
  2

 70
     5
177
     3
291
     0
 70
    58
 90
        0
176
     1
 90
        2
176
     1
 90
        0
176
     1
 90
        0
176
     1
 40
0.6
176
     1
 40
30.0
176
     1
 62
     7
176
     1
 90
        1
176
     1
 90
        4
176
     1
 62
     7
176
     1
 62
   257
176
     1
 90
        1
176
     1
 90
        1
176
     1
 40
1.0
176
     1
 90
        0
176
     1
 62
   257
176
     1
 40
1.0
176
     1
 90
        1
176
     1
 90
        6
176
     1
 90
        2
176
     1
 62
     7
176
     1
 90
        5
176
     1
 90
        0
176
     1
 90
        0
176
     1
290
     0
176
     1
 90
        1
176
     1
 40
0.0
176
     1
 90
        0
176
     1
290
     0
176
     1
290
     1
176
     1
290
     1
176
     1
290
     0
176
     1
290
     0
176
     1
290
     0
176
     1
290
     0
176
     1
290
     0
176
     1
290
     0
176
     1
 90
       50
176
     1
 40
0.0
176
     1
 40
1.0
176
     1
 90
        0
176
     1
 62
    18
176
     1
 90
       50
176
     1
 90
        3
176
     1
 62
     5
420
      255
176
     1
290
     0
176
     1
 90
       50
176
     1
 90
       50
176
     1
 90
       50
176
     1
290
     0
176
     1
 90
       50
176
     1
 62
   256
176
     0
 40
1.0
176
     0
 90
        2
176
     1
  1
strokes_ogs.tif
176
     1
290
     0
176
     1
 40
1.0
176
     1
 40
1.0
176
     1
  0
VISUALSTYLE
  5
E4D9
102
{ACAD_REACTORS
330
E4D4
102
}
330
E4D4
100
AcDbVisualStyle
  2

 70
     7
177
     3
291
     1
 70
    58
 90
        1
176
     1
 90
        0
176
     1
 90
        1
176
     1
 90
        0
176
     1
 40
0.6
176
     1
 40
30.0
176
     1
 62
     7
176
     1
 90
        0
176
     1
 90
        4
176
     1
 62
     7
176
     1
 62
   257
176
     1
 90
        1
176
     1
 90
        1
176
     1
 40
1.0
176
     1
 90
        8
176
     1
 62
     7
176
     1
 40
1.0
176
     1
 90
        1
176
     1
 90
        6
176
     1
 90
        2
176
     1
 62
     7
176
     1
 90
        5
176
     1
 90
        0
176
     1
 90
        0
176
     1
290
     0
176
     1
 90
        1
176
     1
 40
0.0
176
     1
 90
        0
176
     1
290
     0
176
     1
290
     1
176
     1
290
     1
176
     1
290
     0
176
     1
290
     0
176
     1
290
     0
176
     1
290
     0
176
     1
290
     0
176
     1
290
     0
176
     1
 90
       50
176
     1
 40
0.0
176
     1
 40
1.0
176
     1
 90
        0
176
     1
 62
    18
176
     1
 90
       50
176
     1
 90
        3
176
     1
 62
     5
420
      255
176
     1
290
     0
176
     1
 90
       50
176
     1
 90
       50
176
     1
 90
       50
176
     1
290
     0
176
     1
 90
       50
176
     1
 62
   256
176
     0
 40
1.0
176
     0
 90
        2
176
     1
  1
strokes_ogs.tif
176
     1
290
     0
176
     1
 40
1.0
176
     1
 40
1.0
176
     1
  0
VISUALSTYLE
  5
E4E0
102
{ACAD_REACTORS
330
E4D4
102
}
330
E4D4
100
AcDbVisualStyle
  2

 70
    12
177
     3
291
     1
 70
    58
 90
        2
176
     1
 90
        2
176
     1
 90
        0
176
     1
 90
        0
176
     1
 40
0.6
176
     1
 40
30.0
176
     1
 62
     7
176
     1
 90
        1
176
     1
 90
        4
176
     1
 62
     7
176
     1
 62
   257
176
     1
 90
        1
176
     1
 90
        1
176
     1
 40
1.0
176
     1
 90
        8
176
     1
 62
     7
176
     1
 40
1.0
176
     1
 90
        1
176
     1
 90
        6
176
     1
 90
        2
176
     1
 62
     7
176
     1
 90
        5
176
     1
 90
        0
176
     1
 90
        0
176
     1
290
     0
176
     1
 90
        1
176
     1
 40
50.0
176
     1
 90
        0
176
     1
290
     0
176
     1
290
     1
176
     1
290
     1
176
     1
290
     0
176
     1
290
     0
176
     1
290
     0
176
     1
290
     0
176
     1
290
     0
176
     1
290
     0
176
     1
 90
       50
176
     1
 40
0.0
176
     1
 40
1.0
176
     1
 90
        0
176
     1
 62
    18
176
     1
 90
       50
176
     1
 90
        3
176
     1
 62
     5
420
      255
176
     1
290
     0
176
     1
 90
       50
176
     1
 90
       50
176
     1
 90
       50
176
     1
290
     0
176
     1
 90
       50
176
     1
 62
   256
176
     0
 40
1.0
176
     0
 90
        2
176
     1
  1
strokes_ogs.tif
176
     1
290
     0
176
     1
 40
1.0
176
     1
 40
1.0
176
     1
  0
VISUALSTYLE
  5
E4E4
102
{ACAD_REACTORS
330
E4D4
102
}
330
E4D4
100
AcDbVisualStyle
  2

 70
    16
177
     3
291
     1
 70
    58
 90
        2
176
     1
 90
        2
176
     1
 90
        3
176
     1
 90
        0
176
     1
 40
0.6
176
     1
 40
30.0
176
     1
 62
     8
176
     1
 90
        1
176
     1
 90
        4
176
     1
 62
     7
176
     1
 62
   257
176
     1
 90
        1
176
     1
 90
        1
176
     1
 40
1.0
176
     1
 90
        8
176
     1
 62
     8
176
     1
 40
1.0
176
     1
 90
        1
176
     1
 90
        6
176
     1
 90
        2
176
     1
 62
     7
176
     1
 90
        5
176
     1
 90
        0
176
     1
 90
        0
176
     1
290
     0
176
     1
 90
        1
176
     1
 40
0.0
176
     1
 90
        0
176
     1
290
     0
176
     1
290
     1
176
     1
290
     1
176
     1
290
     0
176
     1
290
     0
176
     1
290
     0
176
     1
290
     0
176
     1
290
     0
176
     1
290
     0
176
     1
 90
       50
176
     1
 40
0.0
176
     1
 40
1.0
176
     1
 90
        0
176
     1
 62
    18
176
     1
 90
       50
176
     1
 90
        3
176
     1
 62
     5
420
      255
176
     1
290
     0
176
     1
 90
       50
176
     1
 90
       50
176
     1
 90
       50
176
     1
290
     0
176
     1
 90
       50
176
     1
 62
   256
176
     0
 40
1.0
176
     0
 90
        2
176
     1
  1
strokes_ogs.tif
176
     1
290
     0
176
     1
 40
1.0
176
     1
 40
1.0
176
     1
  0
VISUALSTYLE
  5
E4DD
102
{ACAD_REACTORS
330
E4D4
102
}
330
E4D4
100
AcDbVisualStyle
  2

 70
     9
177
     3
291
     0
 70
    58
 90
        3
176
     1
 90
        2
176
     1
 90
        0
176
     1
 90
        0
176
     1
 40
0.6
176
     1
 40
30.0
176
     1
 62
     7
176
     1
 90
        2
176
     1
 90
        2
176
     1
 62
     7
176
     1
 62
   257
176
     1
 90
        1
176
     1
 90
        1
176
     1
 40
179.0
176
     1
 90
        8
176
     1
 62
     7
176
     1
 40
1.0
176
     1
 90
        1
176
     1
 90
        6
176
     1
 90
        2
176
     1
 62
     7
176
     1
 90
        3
176
     1
 90
        0
176
     1
 90
        0
176
     1
290
     0
176
     1
 90
        1
176
     1
 40
0.0
176
     1
 90
        0
176
     1
290
     0
176
     1
290
     1
176
     1
290
     1
176
     1
290
     0
176
     1
290
     0
176
     1
290
     0
176
     1
290
     0
176
     1
290
     0
176
     1
290
     0
176
     1
 90
       50
176
     1
 40
0.0
176
     1
 40
1.0
176
     1
 90
        0
176
     1
 62
    18
176
     1
 90
       50
176
     1
 90
        3
176
     1
 62
     5
420
      255
176
     1
290
     0
176
     1
 90
       50
176
     1
 90
       50
176
     1
 90
       50
176
     1
290
     0
176
     1
 90
       50
176
     1
 62
   256
176
     0
 40
1.0
176
     0
 90
        2
176
     1
  1
strokes_ogs.tif
176
     1
290
     0
176
     1
 40
1.0
176
     1
 40
1.0
176
     1
  0
VISUALSTYLE
  5
E4DF
102
{ACAD_REACTORS
330
E4D4
102
}
330
E4D4
100
AcDbVisualStyle
  2

 70
    11
177
     3
291
     1
 70
    58
 90
        2
176
     1
 90
        2
176
     1
 90
        0
176
     1
 90
        0
176
     1
 40
0.6
176
     1
 40
30.0
176
     1
 62
     7
176
     1
 90
        1
176
     1
 90
        4
176
     1
 62
     7
176
     1
 62
   257
176
     1
 90
        1
176
     1
 90
        1
176
     1
 40
1.0
176
     1
 90
        8
176
     1
 62
     7
176
     1
 40
1.0
176
     1
 90
        1
176
     1
 90
        6
176
     1
 90
        2
176
     1
 62
     7
176
     1
 90
        5
176
     1
 90
        0
176
     1
 90
        0
176
     1
290
     0
176
     1
 90
        1
176
     1
 40
-50.0
176
     1
 90
        0
176
     1
290
     0
176
     1
290
     1
176
     1
290
     1
176
     1
290
     0
176
     1
290
     0
176
     1
290
     0
176
     1
290
     0
176
     1
290
     0
176
     1
290
     0
176
     1
 90
       50
176
     1
 40
0.0
176
     1
 40
1.0
176
     1
 90
        0
176
     1
 62
    18
176
     1
 90
       50
176
     1
 90
        3
176
     1
 62
     5
420
      255
176
     1
290
     0
176
     1
 90
       50
176
     1
 90
       50
176
     1
 90
       50
176
     1
290
     0
176
     1
 90
       50
176
     1
 62
   256
176
     0
 40
1.0
176
     0
 90
        2
176
     1
  1
strokes_ogs.tif
176
     1
290
     0
176
     1
 40
1.0
176
     1
 40
1.0
176
     1
  0
VISUALSTYLE
  5
E4E7
102
{ACAD_REACTORS
330
E4D4
102
}
330
E4D4
100
AcDbVisualStyle
  2

 70
    22
177
     3
291
     1
 70
    58
 90
        2
176
     0
 90
        2
176
     0
 90
        0
176
     0
 90
        0
176
     0
 40
0.6
176
     0
 40
30.0
176
     0
 62
     7
176
     0
 90
        1
176
     0
 90
        4
176
     0
 62
     7
176
     0
 62
   257
176
     0
 90
        1
176
     0
 90
        1
176
     0
 40
1.0
176
     0
 90
        8
176
     2
 62
     7
176
     0
 40
1.0
176
     0
 90
        1
176
     0
 90
        6
176
     0
 90
        2
176
     0
 62
     7
176
     0
 90
        5
176
     0
 90
        0
176
     0
 90
        0
176
     0
290
     0
176
     0
 90
        1
176
     0
 40
0.0
176
     0
 90
        0
176
     0
290
     0
176
     1
290
     1
176
     1
290
     1
176
     1
290
     0
176
     1
290
     0
176
     1
290
     0
176
     1
290
     0
176
     1
290
     0
176
     1
290
     0
176
     1
 90
       50
176
     1
 40
0.0
176
     1
 40
1.0
176
     1
 90
        0
176
     1
 62
    18
176
     1
 90
       50
176
     1
 90
        3
176
     1
 62
     5
420
      255
176
     1
290
     0
176
     1
 90
       50
176
     1
 90
       50
176
     1
 90
       50
176
     1
290
     0
176
     1
 90
       50
176
     1
 62
   256
176
     0
 40
1.0
176
     0
 90
        2
176
     1
  1
strokes_ogs.tif
176
     1
290
     0
176
     1
 40
1.0
176
     1
 40
1.0
176
     1
  0
VISUALSTYLE
  5
E4E3
102
{ACAD_REACTORS
330
E4D4
102
}
330
E4D4
100
AcDbVisualStyle
  2

 70
    15
177
     3
291
     1
 70
    58
 90
        2
176
     1
 90
        2
176
     1
 90
        0
176
     1
 90
        0
176
     1
 40
0.6
176
     1
 40
30.0
176
     1
 62
     7
176
     1
 90
        1
176
     1
 90
        4
176
     1
 62
     7
176
     1
 62
   257
176
     1
 90
        1
176
     1
 90
        1
176
     1
 40
1.0
176
     1
 90
        8
176
     1
 62
     7
176
     1
 40
1.0
176
     1
 90
        1
176
     1
 90
        6
176
     1
 90
        2
176
     1
 62
     7
176
     1
 90
        5
176
     1
 90
        0
176
     1
 90
        0
176
     1
290
     0
176
     1
 90
        1
176
     1
 40
0.0
176
     1
 90
        0
176
     1
290
     0
176
     1
290
     1
176
     1
290
     1
176
     1
290
     0
176
     1
290
     0
176
     1
290
     0
176
     1
290
     0
176
     1
290
     0
176
     1
290
     0
176
     1
 90
       50
176
     1
 40
0.0
176
     1
 40
1.0
176
     1
 90
        0
176
     1
 62
    18
176
     1
 90
       50
176
     1
 90
        3
176
     1
 62
     5
420
      255
176
     1
290
     0
176
     1
 90
       50
176
     1
 90
       50
176
     1
 90
       50
176
     1
290
     0
176
     1
 90
       50
176
     1
 62
   256
176
     0
 40
1.0
176
     0
 90
        2
176
     1
  1
strokes_ogs.tif
176
     1
290
     0
176
     1
 40
1.0
176
     1
 40
1.0
176
     1
  0
VISUALSTYLE
  5
E4D5
102
{ACAD_REACTORS
330
E4D4
102
}
330
E4D4
100
AcDbVisualStyle
  2

 70
     0
177
     3
291
     1
 70
    58
 90
        2
176
     1
 90
        1
176
     1
 90
        1
176
     1
 90
        2
176
     1
 40
0.6
176
     1
 40
30.0
176
     1
 62
     7
176
     1
 90
        0
176
     1
 90
        4
176
     1
 62
     7
176
     1
 62
   257
176
     1
 90
        1
176
     1
 90
        1
176
     1
 40
1.0
176
     1
 90
        8
176
     1
 62
     7
176
     1
 40
1.0
176
     1
 90
        1
176
     1
 90
        6
176
     1
 90
        2
176
     1
 62
     7
176
     1
 90
        5
176
     1
 90
        0
176
     1
 90
        0
176
     1
290
     0
176
     1
 90
       13
176
     1
 40
0.0
176
     1
 90
        0
176
     1
290
     0
176
     1
290
     1
176
     1
290
     1
176
     1
290
     0
176
     1
290
     0
176
     1
290
     0
176
     1
290
     0
176
     1
290
     0
176
     1
290
     0
176
     1
 90
       50
176
     1
 40
0.0
176
     1
 40
1.0
176
     1
 90
        0
176
     1
 62
    18
176
     1
 90
       50
176
     1
 90
        3
176
     1
 62
     5
420
      255
176
     1
290
     0
176
     1
 90
       50
176
     1
 90
       50
176
     1
 90
       50
176
     1
290
     0
176
     1
 90
       50
176
     1
 62
   256
176
     0
 40
1.0
176
     0
 90
        2
176
     1
  1
strokes_ogs.tif
176
     1
290
     0
176
     1
 40
1.0
176
     1
 40
1.0
176
     1
  0
VISUALSTYLE
  5
E4D6
102
{ACAD_REACTORS
330
E4D4
102
}
330
E4D4
100
AcDbVisualStyle
  2

 70
     1
177
     3
291
     1
 70
    58
 90
        2
176
     1
 90
        1
176
     1
 90
        1
176
     1
 90
        2
176
     1
 40
0.6
176
     1
 40
30.0
176
     1
 62
     7
176
     1
 90
        1
176
     1
 90
        4
176
     1
 62
     7
176
     1
 62
   257
176
     1
 90
        1
176
     1
 90
        1
176
     1
 40
1.0
176
     1
 90
        0
176
     1
 62
   257
176
     1
 40
1.0
176
     1
 90
        1
176
     1
 90
        6
176
     1
 90
        2
176
     1
 62
     7
176
     1
 90
        5
176
     1
 90
        0
176
     1
 90
        0
176
     1
290
     0
176
     1
 90
       13
176
     1
 40
0.0
176
     1
 90
        0
176
     1
290
     0
176
     1
290
     1
176
     1
290
     1
176
     1
290
     0
176
     1
290
     0
176
     1
290
     0
176
     1
290
     0
176
     1
290
     0
176
     1
290
     0
176
     1
 90
       50
176
     1
 40
0.0
176
     1
 40
1.0
176
     1
 90
        0
176
     1
 62
    18
176
     1
 90
       50
176
     1
 90
        3
176
     1
 62
     5
420
      255
176
     1
290
     0
176
     1
 90
       50
176
     1
 90
       50
176
     1
 90
       50
176
     1
290
     0
176
     1
 90
       50
176
     1
 62
   256
176
     0
 40
1.0
176
     0
 90
        2
176
     1
  1
strokes_ogs.tif
176
     1
290
     0
176
     1
 40
1.0
176
     1
 40
1.0
176
     1
  0
VISUALSTYLE
  5
E4D7
102
{ACAD_REACTORS
330
E4D4
102
}
330
E4D4
100
AcDbVisualStyle
  2

 70
     2
177
     3
291
     1
 70
    58
 90
        2
176
     1
 90
        2
176
     1
 90
        1
176
     1
 90
        2
176
     1
 40
0.6
176
     1
 40
30.0
176
     1
 62
     7
176
     1
 90
        0
176
     1
 90
        4
176
     1
 62
     7
176
     1
 62
   257
176
     1
 90
        1
176
     1
 90
        1
176
     1
 40
1.0
176
     1
 90
        0
176
     1
 62
     7
176
     1
 40
1.0
176
     1
 90
        1
176
     1
 90
        6
176
     1
 90
        2
176
     1
 62
     7
176
     1
 90
        5
176
     1
 90
        0
176
     1
 90
        0
176
     1
290
     0
176
     1
 90
       13
176
     1
 40
0.0
176
     1
 90
        0
176
     1
290
     0
176
     1
290
     1
176
     1
290
     1
176
     1
290
     0
176
     1
290
     0
176
     1
290
     0
176
     1
290
     0
176
     1
290
     0
176
     1
290
     0
176
     1
 90
       50
176
     1
 40
0.0
176
     1
 40
1.0
176
     1
 90
        0
176
     1
 62
    18
176
     1
 90
       50
176
     1
 90
        3
176
     1
 62
     5
420
      255
176
     1
290
     0
176
     1
 90
       50
176
     1
 90
       50
176
     1
 90
       50
176
     1
290
     0
176
     1
 90
       50
176
     1
 62
   256
176
     0
 40
1.0
176
     0
 90
        2
176
     1
  1
strokes_ogs.tif
176
     1
290
     0
176
     1
 40
1.0
176
     1
 40
1.0
176
     1
  0
VISUALSTYLE
  5
E4D8
102
{ACAD_REACTORS
330
E4D4
102
}
330
E4D4
100
AcDbVisualStyle
  2

 70
     3
177
     3
291
     1
 70
    58
 90
        2
176
     1
 90
        2
176
     1
 90
        1
176
     1
 90
        2
176
     1
 40
0.6
176
     1
 40
30.0
176
     1
 62
     7
176
     1
 90
        1
176
     1
 90
        4
176
     1
 62
     7
176
     1
 62
   257
176
     1
 90
        1
176
     1
 90
        1
176
     1
 40
1.0
176
     1
 90
        0
176
     1
 62
   257
176
     1
 40
1.0
176
     1
 90
        1
176
     1
 90
        6
176
     1
 90
        2
176
     1
 62
     7
176
     1
 90
        5
176
     1
 90
        0
176
     1
 90
        0
176
     1
290
     0
176
     1
 90
       13
176
     1
 40
0.0
176
     1
 90
        0
176
     1
290
     0
176
     1
290
     1
176
     1
290
     1
176
     1
290
     0
176
     1
290
     0
176
     1
290
     0
176
     1
290
     0
176
     1
290
     0
176
     1
290
     0
176
     1
 90
       50
176
     1
 40
0.0
176
     1
 40
1.0
176
     1
 90
        0
176
     1
 62
    18
176
     1
 90
       50
176
     1
 90
        3
176
     1
 62
     5
420
      255
176
     1
290
     0
176
     1
 90
       50
176
     1
 90
       50
176
     1
 90
       50
176
     1
290
     0
176
     1
 90
       50
176
     1
 62
   256
176
     0
 40
1.0
176
     0
 90
        2
176
     1
  1
strokes_ogs.tif
176
     1
290
     0
176
     1
 40
1.0
176
     1
 40
1.0
176
     1
  0
VISUALSTYLE
  5
418E1
102
{ACAD_REACTORS
330
E4D4
102
}
330
E4D4
100
AcDbVisualStyle
  2
Hidden
 70
     6
177
     3
291
     0
 70
    58
 90
        1
176
     1
 90
        2
176
     1
 90
        2
176
     1
 90
        0
176
     1
 40
0.6
176
     1
 40
30.0
176
     1
 62
     7
420
 16777215
176
     1
 90
        2
176
     1
 90
        2
176
     1
 62
     7
176
     1
 62
   257
176
     1
 90
        2
176
     1
 90
        1
176
     1
 40
40.0
176
     1
 90
        0
176
     1
 62
   257
176
     1
 40
1.0
176
     1
 90
        1
176
     1
 90
        6
176
     1
 90
        2
176
     1
 62
     7
176
     1
 90
        3
176
     1
 90
        0
176
     1
 90
        0
176
     1
290
     0
176
     1
 90
        1
176
     1
 40
0.0
176
     1
 90
        0
176
     1
290
     0
176
     1
290
     1
176
     1
290
     1
176
     1
290
     0
176
     1
290
     0
176
     1
290
     0
176
     1
290
     0
176
     1
290
     0
176
     1
290
     0
176
     1
 90
       50
176
     1
 40
0.0
176
     1
 40
1.0
176
     1
 90
        0
176
     1
 62
    18
176
     1
 90
       50
176
     1
 90
        3
176
     1
 62
     5
420
      255
176
     1
290
     0
176
     1
 90
       50
176
     1
 90
       50
176
     1
 90
       50
176
     1
290
     0
176
     1
 90
       50
176
     1
 62
   256
176
     0
 40
1.0
176
     0
 90
        2
176
     1
  1
strokes_ogs.tif
176
     1
290
     0
176
     1
 40
1.0
176
     1
 40
1.0
176
     1
  0
VISUALSTYLE
  5
E4E5
102
{ACAD_REACTORS
330
E4D4
102
}
330
E4D4
100
AcDbVisualStyle
  2

 70
    20
177
     3
291
     1
 70
    58
 90
        2
176
     0
 90
        2
176
     0
 90
        0
176
     0
 90
        0
176
     0
 40
0.6
176
     0
 40
30.0
176
     0
 62
     7
176
     0
 90
        1
176
     0
 90
        4
176
     0
 62
     7
176
     0
 62
   257
176
     0
 90
        1
176
     0
 90
        1
176
     0
 40
1.0
176
     0
 90
       10
176
     2
 62
     7
176
     0
 40
1.0
176
     0
 90
        1
176
     0
 90
        6
176
     0
 90
        2
176
     0
 62
     7
176
     0
 90
        5
176
     0
 90
        0
176
     0
 90
        0
176
     0
290
     0
176
     0
 90
        1
176
     0
 40
0.0
176
     0
 90
        0
176
     0
290
     0
176
     1
290
     1
176
     1
290
     1
176
     1
290
     0
176
     1
290
     0
176
     1
290
     0
176
     1
290
     0
176
     1
290
     0
176
     1
290
     0
176
     1
 90
       50
176
     1
 40
0.0
176
     1
 40
1.0
176
     1
 90
        0
176
     1
 62
    18
176
     1
 90
       50
176
     1
 90
        3
176
     1
 62
     5
420
      255
176
     1
290
     0
176
     1
 90
       50
176
     1
 90
       50
176
     1
 90
       50
176
     1
290
     0
176
     1
 90
       50
176
     1
 62
   256
176
     0
 40
1.0
176
     0
 90
        2
176
     1
  1
strokes_ogs.tif
176
     1
290
     0
176
     1
 40
1.0
176
     1
 40
1.0
176
     1
  0
VISUALSTYLE
  5
E4E2
102
{ACAD_REACTORS
330
E4D4
102
}
330
E4D4
100
AcDbVisualStyle
  2

 70
    14
177
     3
291
     1
 70
    58
 90
        2
176
     1
 90
        2
176
     1
 90
        0
176
     1
 90
        0
176
     1
 40
0.6
176
     1
 40
30.0
176
     1
 62
     7
176
     1
 90
        1
176
     1
 90
        4
176
     1
 62
     7
176
     1
 62
   257
176
     1
 90
        7
176
     1
 90
        7
176
     1
 40
1.0
176
     1
 90
        8
176
     1
 62
     7
176
     1
 40
1.0
176
     1
 90
        1
176
     1
 90
        6
176
     1
 90
        2
176
     1
 62
     7
176
     1
 90
        5
176
     1
 90
        0
176
     1
 90
        0
176
     1
290
     0
176
     1
 90
        1
176
     1
 40
0.0
176
     1
 90
        0
176
     1
290
     0
176
     1
290
     1
176
     1
290
     1
176
     1
290
     0
176
     1
290
     0
176
     1
290
     0
176
     1
290
     0
176
     1
290
     0
176
     1
290
     0
176
     1
 90
       50
176
     1
 40
0.0
176
     1
 40
1.0
176
     1
 90
        0
176
     1
 62
    18
176
     1
 90
       50
176
     1
 90
        3
176
     1
 62
     5
420
      255
176
     1
290
     0
176
     1
 90
       50
176
     1
 90
       50
176
     1
 90
       50
176
     1
290
     0
176
     1
 90
       50
176
     1
 62
   256
176
     0
 40
1.0
176
     0
 90
        2
176
     1
  1
strokes_ogs.tif
176
     1
290
     0
176
     1
 40
1.0
176
     1
 40
1.0
176
     1
  0
VISUALSTYLE
  5
E4E6
102
{ACAD_REACTORS
330
E4D4
102
}
330
E4D4
100
AcDbVisualStyle
  2

 70
    21
177
     3
291
     1
 70
    58
 90
        2
176
     0
 90
        2
176
     0
 90
        0
176
     0
 90
        0
176
     0
 40
0.6
176
     0
 40
30.0
176
     0
 62
     7
176
     0
 90
        1
176
     0
 90
        4
176
     0
 62
     7
176
     0
 62
   257
176
     0
 90
        1
176
     0
 90
        1
176
     0
 40
1.0
176
     0
 90
        9
176
     2
 62
     7
176
     0
 40
1.0
176
     0
 90
        1
176
     0
 90
        6
176
     0
 90
        2
176
     0
 62
     7
176
     0
 90
        5
176
     0
 90
        0
176
     0
 90
        0
176
     0
290
     0
176
     0
 90
        1
176
     0
 40
0.0
176
     0
 90
        0
176
     0
290
     0
176
     1
290
     1
176
     1
290
     1
176
     1
290
     0
176
     1
290
     0
176
     1
290
     0
176
     1
290
     0
176
     1
290
     0
176
     1
290
     0
176
     1
 90
       50
176
     1
 40
0.0
176
     1
 40
1.0
176
     1
 90
        0
176
     1
 62
    18
176
     1
 90
       50
176
     1
 90
        3
176
     1
 62
     5
420
      255
176
     1
290
     0
176
     1
 90
       50
176
     1
 90
       50
176
     1
 90
       50
176
     1
290
     0
176
     1
 90
       50
176
     1
 62
   256
176
     0
 40
1.0
176
     0
 90
        2
176
     1
  1
strokes_ogs.tif
176
     1
290
     0
176
     1
 40
1.0
176
     1
 40
1.0
176
     1
  0
VISUALSTYLE
  5
E4DE
102
{ACAD_REACTORS
330
E4D4
102
}
330
E4D4
100
AcDbVisualStyle
  2

 70
     8
177
     3
291
     0
 70
    58
 90
        2
176
     1
 90
        2
176
     1
 90
        0
176
     1
 90
        0
176
     1
 40
0.6
176
     1
 40
30.0
176
     1
 62
     7
176
     1
 90
        1
176
     1
 90
        0
176
     1
 62
     7
176
     1
 62
   257
176
     1
 90
        1
176
     1
 90
        1
176
     1
 40
1.0
176
     1
 90
        8
176
     1
 62
     8
176
     1
 40
1.0
176
     1
 90
        1
176
     1
 90
        6
176
     1
 90
        2
176
     1
 62
     7
176
     1
 90
        5
176
     1
 90
        0
176
     1
 90
        0
176
     1
290
     0
176
     1
 90
       13
176
     1
 40
0.0
176
     1
 90
        0
176
     1
290
     0
176
     1
290
     1
176
     1
290
     1
176
     1
290
     0
176
     1
290
     0
176
     1
290
     0
176
     1
290
     0
176
     1
290
     0
176
     1
290
     0
176
     1
 90
       50
176
     1
 40
0.0
176
     1
 40
1.0
176
     1
 90
        0
176
     1
 62
    18
176
     1
 90
       50
176
     1
 90
        3
176
     1
 62
     5
420
      255
176
     1
290
     0
176
     1
 90
       50
176
     1
 90
       50
176
     1
 90
       50
176
     1
290
     0
176
     1
 90
       50
176
     1
 62
   256
176
     0
 40
1.0
176
     0
 90
        2
176
     1
  1
strokes_ogs.tif
176
     1
290
     0
176
     1
 40
1.0
176
     1
 40
1.0
176
     1
  0
VISUALSTYLE
  5
418E6
102
{ACAD_REACTORS
330
E4D4
102
}
330
E4D4
100
AcDbVisualStyle
  2
Shaded
 70
    27
177
     3
291
     0
 70
    58
 90
        2
176
     1
 90
        2
176
     1
 90
        1
176
     1
 90
        2
176
     1
 40
0.6
176
     1
 40
30.0
176
     1
 62
     7
420
 16777215
176
     1
 90
        0
176
     1
 90
        4
176
     1
 62
     7
176
     1
 62
   257
176
     1
 90
        1
176
     1
 90
        1
176
     1
 40
1.0
176
     1
 90
        8
176
     1
 62
   257
176
     1
 40
1.0
176
     1
 90
        1
176
     1
 90
        6
176
     1
 90
        2
176
     1
 62
     8
420
  7895160
176
     1
 90
        3
176
     1
 90
        0
176
     1
 90
        0
176
     1
290
     0
176
     1
 90
        5
176
     1
 40
0.0
176
     1
 90
        0
176
     1
290
     0
176
     1
290
     1
176
     1
290
     1
176
     1
290
     0
176
     1
290
     0
176
     1
290
     0
176
     1
290
     0
176
     1
290
     0
176
     1
290
     0
176
     1
 90
       50
176
     1
 40
0.0
176
     1
 40
1.0
176
     1
 90
        0
176
     1
 62
    18
176
     1
 90
       50
176
     1
 90
        3
176
     1
 62
     5
420
      255
176
     1
290
     0
176
     1
 90
       50
176
     1
 90
       50
176
     1
 90
       50
176
     1
290
     0
176
     1
 90
       50
176
     1
 62
   256
176
     0
 40
1.0
176
     0
 90
        2
176
     1
  1
strokes_ogs.tif
176
     1
290
     0
176
     1
 40
1.0
176
     1
 40
1.0
176
     1
  0
VISUALSTYLE
  5
418E5
102
{ACAD_REACTORS
330
E4D4
102
}
330
E4D4
100
AcDbVisualStyle
  2
Shaded with edges
 70
    26
177
     3
291
     0
 70
    58
 90
        2
176
     1
 90
        2
176
     1
 90
        1
176
     1
 90
        2
176
     1
 40
0.6
176
     1
 40
30.0
176
     1
 62
     7
420
 16777215
176
     1
 90
        1
176
     1
 90
       10
176
     1
 62
     7
176
     1
 62
   257
176
     1
 90
        2
176
     1
 90
        1
176
     1
 40
1.0
176
     1
 90
        8
176
     1
 62
   257
176
     1
 40
1.0
176
     1
 90
        1
176
     1
 90
        6
176
     1
 90
        2
176
     1
 62
     7
176
     1
 90
        3
176
     1
 90
        0
176
     1
 90
        0
176
     1
290
     0
176
     1
 90
        5
176
     1
 40
0.0
176
     1
 90
        0
176
     1
290
     0
176
     1
290
     1
176
     1
290
     1
176
     1
290
     0
176
     1
290
     0
176
     1
290
     0
176
     1
290
     0
176
     1
290
     0
176
     1
290
     0
176
     1
 90
       50
176
     1
 40
0.0
176
     1
 40
1.0
176
     1
 90
        0
176
     1
 62
    18
176
     1
 90
       50
176
     1
 90
        3
176
     1
 62
     5
420
      255
176
     1
290
     0
176
     1
 90
       50
176
     1
 90
       50
176
     1
 90
       50
176
     1
290
     0
176
     1
 90
       50
176
     1
 62
   256
176
     0
 40
1.0
176
     0
 90
        2
176
     1
  1
strokes_ogs.tif
176
     1
290
     0
176
     1
 40
1.0
176
     1
 40
1.0
176
     1
  0
VISUALSTYLE
  5
418E2
102
{ACAD_REACTORS
330
E4D4
102
}
330
E4D4
100
AcDbVisualStyle
  2
Shades of Gray
 70
    23
177
     3
291
     0
 70
    58
 90
        2
176
     1
 90
        2
176
     1
 90
        3
176
     1
 90
        0
176
     1
 40
0.6
176
     1
 40
30.0
176
     1
 62
     7
420
 16777215
176
     1
 90
        2
176
     1
 90
        2
176
     1
 62
     7
176
     1
 62
     7
176
     1
 90
        1
176
     1
 90
        1
176
     1
 40
40.0
176
     1
 90
        8
176
     1
 62
     7
176
     1
 40
1.0
176
     1
 90
        1
176
     1
 90
        6
176
     1
 90
        2
176
     1
 62
     7
176
     1
 90
        3
176
     1
 90
        0
176
     1
 90
        0
176
     1
290
     0
176
     1
 90
        1
176
     1
 40
0.0
176
     1
 90
        0
176
     1
290
     0
176
     1
290
     1
176
     1
290
     1
176
     1
290
     0
176
     1
290
     0
176
     1
290
     0
176
     1
290
     0
176
     1
290
     0
176
     1
290
     0
176
     1
 90
       50
176
     1
 40
0.0
176
     1
 40
1.0
176
     1
 90
        0
176
     1
 62
    18
176
     1
 90
       50
176
     1
 90
        3
176
     1
 62
     5
420
      255
176
     1
290
     0
176
     1
 90
       50
176
     1
 90
       50
176
     1
 90
       50
176
     1
290
     0
176
     1
 90
       50
176
     1
 62
   256
176
     0
 40
1.0
176
     0
 90
        2
176
     1
  1
strokes_ogs.tif
176
     1
290
     0
176
     1
 40
1.0
176
     1
 40
1.0
176
     1
  0
VISUALSTYLE
  5
418E3
102
{ACAD_REACTORS
330
E4D4
102
}
330
E4D4
100
AcDbVisualStyle
  2
Sketchy
 70
    24
177
     3
291
     0
 70
    58
 90
        1
176
     1
 90
        2
176
     1
 90
        2
176
     1
 90
        0
176
     1
 40
0.6
176
     1
 40
30.0
176
     1
 62
     7
420
 16777215
176
     1
 90
        2
176
     1
 90
        2
176
     1
 62
     7
176
     1
 62
     7
176
     1
 90
        1
176
     1
 90
        1
176
     1
 40
40.0
176
     1
 90
       11
176
     1
 62
     7
176
     1
 40
1.0
176
     1
 90
        1
176
     1
 90
        6
176
     1
 90
        2
176
     1
 62
     7
176
     1
 90
        6
176
     1
 90
        0
176
     1
 90
        0
176
     1
290
     0
176
     1
 90
        1
176
     1
 40
0.0
176
     1
 90
        0
176
     1
290
     0
176
     1
290
     1
176
     1
290
     1
176
     1
290
     0
176
     1
290
     0
176
     1
290
     0
176
     1
290
     0
176
     1
290
     0
176
     1
290
     0
176
     1
 90
       50
176
     1
 40
0.0
176
     1
 40
1.0
176
     1
 90
        0
176
     1
 62
    18
176
     1
 90
       50
176
     1
 90
        3
176
     1
 62
     5
420
      255
176
     1
290
     0
176
     1
 90
       50
176
     1
 90
       50
176
     1
 90
       50
176
     1
290
     0
176
     1
 90
       50
176
     1
 62
   256
176
     0
 40
1.0
176
     0
 90
        2
176
     1
  1
strokes_ogs.tif
176
     1
290
     0
176
     1
 40
1.0
176
     1
 40
1.0
176
     1
  0
VISUALSTYLE
  5
E4E1
102
{ACAD_REACTORS
330
E4D4
102
}
330
E4D4
100
AcDbVisualStyle
  2

 70
    13
177
     3
291
     1
 70
    58
 90
        2
176
     1
 90
        2
176
     1
 90
        0
176
     1
 90
        0
176
     1
 40
0.6
176
     1
 40
30.0
176
     1
 62
     7
176
     1
 90
        1
176
     1
 90
        4
176
     1
 62
     7
176
     1
 62
   257
176
     1
 90
        1
176
     1
 90
        1
176
     1
 40
1.0
176
     1
 90
       12
176
     1
 62
     7
176
     1
 40
1.0
176
     1
 90
        1
176
     1
 90
        6
176
     1
 90
        2
176
     1
 62
     7
176
     1
 90
        5
176
     1
 90
        0
176
     1
 90
        0
176
     1
290
     0
176
     1
 90
        1
176
     1
 40
0.0
176
     1
 90
        0
176
     1
290
     0
176
     1
290
     1
176
     1
290
     1
176
     1
290
     0
176
     1
290
     0
176
     1
290
     0
176
     1
290
     0
176
     1
290
     0
176
     1
290
     0
176
     1
 90
       50
176
     1
 40
0.0
176
     1
 40
1.0
176
     1
 90
        0
176
     1
 62
    18
176
     1
 90
       50
176
     1
 90
        3
176
     1
 62
     5
420
      255
176
     1
290
     0
176
     1
 90
       50
176
     1
 90
       50
176
     1
 90
       50
176
     1
290
     0
176
     1
 90
       50
176
     1
 62
   256
176
     0
 40
1.0
176
     0
 90
        2
176
     1
  1
strokes_ogs.tif
176
     1
290
     0
176
     1
 40
1.0
176
     1
 40
1.0
176
     1
  0
VISUALSTYLE
  5
418E0
102
{ACAD_REACTORS
330
E4D4
102
}
330
E4D4
100
AcDbVisualStyle
  2
Wireframe
 70
     5
177
     3
291
     0
 70
    58
 90
        0
176
     1
 90
        2
176
     1
 90
        0
176
     1
 90
        0
176
     1
 40
0.6
176
     1
 40
30.0
176
     1
 62
     7
420
 16777215
176
     1
 90
        1
176
     1
 90
        4
176
     1
 62
     7
176
     1
 62
   257
176
     1
 90
        1
176
     1
 90
        1
176
     1
 40
1.0
176
     1
 90
        0
176
     1
 62
   257
176
     1
 40
1.0
176
     1
 90
        1
176
     1
 90
        6
176
     1
 90
        2
176
     1
 62
     7
176
     1
 90
        3
176
     1
 90
        0
176
     1
 90
        0
176
     1
290
     0
176
     1
 90
        1
176
     1
 40
0.0
176
     1
 90
        0
176
     1
290
     0
176
     1
290
     1
176
     1
290
     1
176
     1
290
     0
176
     1
290
     0
176
     1
290
     0
176
     1
290
     0
176
     1
290
     0
176
     1
290
     0
176
     1
 90
       50
176
     1
 40
0.0
176
     1
 40
1.0
176
     1
 90
        0
176
     1
 62
    18
176
     1
 90
       50
176
     1
 90
        3
176
     1
 62
     5
420
      255
176
     1
290
     0
176
     1
 90
       50
176
     1
 90
       50
176
     1
 90
       50
176
     1
290
     0
176
     1
 90
       50
176
     1
 62
   256
176
     0
 40
1.0
176
     0
 90
        2
176
     1
  1
strokes_ogs.tif
176
     1
290
     0
176
     1
 40
1.0
176
     1
 40
1.0
176
     1
  0
VISUALSTYLE
  5
418E4
102
{ACAD_REACTORS
330
E4D4
102
}
330
E4D4
100
AcDbVisualStyle
  2
X-Ray
 70
    25
177
     3
291
     0
 70
    58
 90
        2
176
     1
 90
        2
176
     1
 90
        1
176
     1
 90
        1
176
     1
 40
0.5
176
     1
 40
30.0
176
     1
 62
     7
420
 16777215
176
     1
 90
        1
176
     1
 90
        0
176
     1
 62
     7
176
     1
 62
   257
176
     1
 90
        1
176
     1
 90
        1
176
     1
 40
1.0
176
     1
 90
        8
176
     1
 62
     7
176
     1
 40
1.0
176
     1
 90
        1
176
     1
 90
        6
176
     1
 90
        2
176
     1
 62
     7
176
     1
 90
        3
176
     1
 90
        0
176
     1
 90
        0
176
     1
290
     0
176
     1
 90
       13
176
     1
 40
0.0
176
     1
 90
        0
176
     1
290
     0
176
     1
290
     1
176
     1
290
     1
176
     1
290
     0
176
     1
290
     0
176
     1
290
     0
176
     1
290
     0
176
     1
290
     0
176
     1
290
     0
176
     1
 90
       50
176
     1
 40
0.0
176
     1
 40
1.0
176
     1
 90
        0
176
     1
 62
    18
176
     1
 90
       50
176
     1
 90
        3
176
     1
 62
     5
420
      255
176
     1
290
     0
176
     1
 90
       50
176
     1
 90
       50
176
     1
 90
       50
176
     1
290
     0
176
     1
 90
       50
176
     1
 62
   256
176
     0
 40
1.0
176
     0
 90
        2
176
     1
  1
strokes_ogs.tif
176
     1
290
     0
176
     1
 40
1.0
176
     1
 40
1.0
176
     1
  0
DICTIONARYVAR
  5
F8C1
102
{ACAD_REACTORS
330
5697
102
}
330
5697
100
DictionaryVariables
280
     0
  1
1:1
  0
DICTIONARYVAR
  5
F8C0
102
{ACAD_REACTORS
330
5697
102
}
330
5697
100
DictionaryVariables
280
     0
  1
STANDARD
  0
DICTIONARYVAR
  5
F8BF
102
{ACAD_REACTORS
330
5697
102
}
330
5697
100
DictionaryVariables
280
     0
  1
STANDARD
  0
DICTIONARYVAR
  5
4190A
102
{ACAD_REACTORS
330
5697
102
}
330
5697
100
DictionaryVariables
280
     0
  1
Imperial24
  0
DICTIONARYVAR
  5
4190B
102
{ACAD_REACTORS
330
5697
102
}
330
5697
100
DictionaryVariables
280
     0
  1
Imperial24
  0
DICTIONARYVAR
  5
5698
102
{ACAD_REACTORS
330
5697
102
}
330
5697
100
DictionaryVariables
280
     0
  1
1
  0
DICTIONARYVAR
  5
F8C3
102
{ACAD_REACTORS
330
5697
102
}
330
5697
100
DictionaryVariables
280
     0
  1
0
  0
DICTIONARYVAR
  5
37FF5
102
{ACAD_REACTORS
330
5697
102
}
330
5697
100
DictionaryVariables
280
     0
  1
1
  0
DICTIONARYVAR
  5
37FF6
102
{ACAD_REACTORS
330
5697
102
}
330
5697
100
DictionaryVariables
280
     0
  1
15
  0
DICTIONARYVAR
  5
37FF4
102
{ACAD_REACTORS
330
5697
102
}
330
5697
100
DictionaryVariables
280
     0
  1
0
  0
DICTIONARYVAR
  5
37FF3
102
{ACAD_REACTORS
330
5697
102
}
330
5697
100
DictionaryVariables
280
     0
  1
0
  0
DICTIONARYVAR
  5
F8C2
102
{ACAD_REACTORS
330
5697
102
}
330
5697
100
DictionaryVariables
280
     0
  1
127
  0
XRECORD
  5
F8F7
102
{ACAD_REACTORS
330
F8F6
102
}
330
F8F6
100
AcDbXrecord
280
     1
330
0
330
0
330
0
330
0
330
0
330
0
330
0
330
0
330
0
330
0
330
0
330
0
330
0
330
0
330
0
330
0
330
0
330
0
330
0
330
0
330
0
330
0
330
0
330
0
330
0
330
0
330
0
330
0
330
0
330
0
330
0
330
0
330
0
330
0
330
0
330
0
330
0
330
0
330
0
330
0
330
0
330
0
330
0
330
0
330
0
330
0
330
0
330
0
330
0
330
0
330
0
330
0
330
0
330
0
330
0
330
0
330
0
330
0
330
0
330
0
330
0
330
0
330
0
330
0
330
0
330
0
330
0
330
0
330
0
330
0
330
0
330
0
330
0
330
0
330
0
330
0
330
0
330
0
330
0
330
0
330
0
330
0
330
0
330
0
330
0
330
0
330
0
330
0
330
0
330
0
330
0
330
0
330
0
330
0
330
0
330
0
330
0
330
0
330
0
330
0
330
0
330
0
330
0
330
0
330
0
330
0
330
0
330
0
330
0
330
0
330
0
330
0
330
0
330
0
330
0
330
0
330
0
330
0
330
0
330
0
330
0
330
0
330
0
330
0
330
0
330
0
330
0
330
0
330
0
330
0
330
0
330
0
330
0
330
0
330
0
330
0
330
0
330
0
330
0
330
0
330
0
330
0
330
0
330
0
330
0
330
0
330
0
330
0
330
0
330
0
330
0
330
0
330
0
330
0
330
0
330
0
330
0
330
0
330
0
330
0
330
0
330
0
330
0
330
0
330
0
330
0
330
0
330
0
330
0
330
0
330
0
330
0
330
0
330
0
330
0
330
0
330
0
330
0
330
0
330
0
330
0
330
0
330
0
330
0
330
0
330
0
330
0
330
0
330
0
330
0
330
0
330
0
330
0
330
0
330
0
330
0
330
0
330
0
330
0
330
0
330
0
330
0
330
0
330
0
330
0
330
0
330
0
330
0
330
0
330
0
330
0
330
0
330
0
330
0
330
0
330
0
330
0
330
0
330
0
330
0
330
0
330
0
330
0
330
0
330
0
330
0
330
0
330
0
330
0
330
0
330
0
330
0
330
0
330
0
330
0
330
0
330
0
330
0
330
0
330
0
330
0
330
0
330
0
330
0
330
0
330
0
330
0
330
0
330
0
330
0
330
0
330
0
330
0
330
0
330
0
330
0
330
0
330
0
330
0
330
0
330
0
330
0
330
0
330
0
330
0
330
0
330
0
330
0
330
0
330
0
330
0
330
0
330
0
330
0
330
0
330
0
330
0
330
0
330
0
330
0
330
0
330
0
330
0
330
0
330
0
330
0
330
0
330
0
330
0
330
0
330
0
330
0
330
0
330
0
330
0
330
0
330
0
330
0
330
0
330
0
330
0
330
0
330
0
330
0
330
0
330
0
330
0
  0
DICTIONARY
  5
4190F
330
418EA
100
AcDbDictionary
280
     1
281
     1
  3
ACAD_XREC_ROUNDTRIP
360
419E9
  0
DICTIONARY
  5
13816
330
904E
100
AcDbDictionary
280
     1
281
     1
  0
DICTIONARY
  5
E4C5
330
E4C4
100
AcDbDictionary
280
     1
281
     1
  3
ACAD_XREC_ROUNDTRIP
360
12A19
  3
BUMPTILE
360
E4C7
  3
DIFFUSETILE
360
E4C6
  3
OPACITYTILE
360
E4CA
  3
REFLECTIONTILE
360
E4C9
  3
REFRACTIONTILE
360
E4CB
  3
SPECULARTILE
360
E4C8
  0
DICTIONARY
  5
E4BD
330
E4BC
100
AcDbDictionary
280
     1
281
     1
  3
ACAD_XREC_ROUNDTRIP
360
12A18
  3
BUMPTILE
360
E4BF
  3
DIFFUSETILE
360
E4BE
  3
OPACITYTILE
360
E4C2
  3
REFLECTIONTILE
360
E4C1
  3
REFRACTIONTILE
360
E4C3
  3
SPECULARTILE
360
E4C0
  0
DICTIONARY
  5
E4CD
330
E4CC
100
AcDbDictionary
280
     1
281
     1
  3
ACAD_XREC_ROUNDTRIP
360
12A1A
  3
BUMPTILE
360
E4CF
  3
DIFFUSETILE
360
E4CE
  3
OPACITYTILE
360
E4D2
  3
REFLECTIONTILE
360
E4D1
  3
REFRACTIONTILE
360
E4D3
  3
SPECULARTILE
360
E4D0
  0
DICTIONARY
  5
4190D
330
418E8
100
AcDbDictionary
280
     1
281
     1
  3
ACAD_XREC_ROUNDTRIP
360
419E8
  0
DICTIONARY
  5
F86C
330
E4EA
100
AcDbDictionary
280
     1
281
     1
  3
ACAD_ROUNDTRIP_2008_TABLESTYLE_CELLSTYLEMAP
360
419E7
  0
XRECORD
  5
419E9
102
{ACAD_REACTORS
330
4190F
102
}
330
4190F
100
AcDbXrecord
280
     1
102
DISPLAYNAME
  1
Imperial24
102
FLAGS
 90
        0
  0
XRECORD
  5
12A19
102
{ACAD_REACTORS
330
E4C5
102
}
330
E4C5
100
AcDbXrecord
280
     1
102
MATERIAL
148
0.0
149
0.0
149
0.0
 93
        0
 94
      127
282
     0
 72
     0
 77
     0
171
     0
175
     0
179
     0
273
     0
  0
XRECORD
  5
E4C7
102
{ACAD_REACTORS
330
E4C5
102
}
330
E4C5
100
AcDbXrecord
280
     1
270
     1
271
     1
  0
XRECORD
  5
E4C6
102
{ACAD_REACTORS
330
E4C5
102
}
330
E4C5
100
AcDbXrecord
280
     1
270
     1
271
     1
  0
XRECORD
  5
E4CA
102
{ACAD_REACTORS
330
E4C5
102
}
330
E4C5
100
AcDbXrecord
280
     1
270
     1
271
     1
  0
XRECORD
  5
E4C9
102
{ACAD_REACTORS
330
E4C5
102
}
330
E4C5
100
AcDbXrecord
280
     1
270
     1
271
     1
  0
XRECORD
  5
E4CB
102
{ACAD_REACTORS
330
E4C5
102
}
330
E4C5
100
AcDbXrecord
280
     1
270
     1
271
     1
  0
XRECORD
  5
E4C8
102
{ACAD_REACTORS
330
E4C5
102
}
330
E4C5
100
AcDbXrecord
280
     1
270
     1
271
     1
  0
XRECORD
  5
12A18
102
{ACAD_REACTORS
330
E4BD
102
}
330
E4BD
100
AcDbXrecord
280
     1
102
MATERIAL
148
0.0
149
0.0
149
0.0
 93
        0
 94
      127
282
     0
 72
     0
 77
     0
171
     0
175
     0
179
     0
273
     0
  0
XRECORD
  5
E4BF
102
{ACAD_REACTORS
330
E4BD
102
}
330
E4BD
100
AcDbXrecord
280
     1
270
     1
271
     1
  0
XRECORD
  5
E4BE
102
{ACAD_REACTORS
330
E4BD
102
}
330
E4BD
100
AcDbXrecord
280
     1
270
     1
271
     1
  0
XRECORD
  5
E4C2
102
{ACAD_REACTORS
330
E4BD
102
}
330
E4BD
100
AcDbXrecord
280
     1
270
     1
271
     1
  0
XRECORD
  5
E4C1
102
{ACAD_REACTORS
330
E4BD
102
}
330
E4BD
100
AcDbXrecord
280
     1
270
     1
271
     1
  0
XRECORD
  5
E4C3
102
{ACAD_REACTORS
330
E4BD
102
}
330
E4BD
100
AcDbXrecord
280
     1
270
     1
271
     1
  0
XRECORD
  5
E4C0
102
{ACAD_REACTORS
330
E4BD
102
}
330
E4BD
100
AcDbXrecord
280
     1
270
     1
271
     1
  0
XRECORD
  5
12A1A
102
{ACAD_REACTORS
330
E4CD
102
}
330
E4CD
100
AcDbXrecord
280
     1
102
MATERIAL
148
0.0
149
0.0
149
0.0
 93
        0
 94
      127
282
     0
 72
     0
 77
     0
171
     0
175
     0
179
     0
273
     0
  0
XRECORD
  5
E4CF
102
{ACAD_REACTORS
330
E4CD
102
}
330
E4CD
100
AcDbXrecord
280
     1
270
     1
271
     1
  0
XRECORD
  5
E4CE
102
{ACAD_REACTORS
330
E4CD
102
}
330
E4CD
100
AcDbXrecord
280
     1
270
     1
271
     1
  0
XRECORD
  5
E4D2
102
{ACAD_REACTORS
330
E4CD
102
}
330
E4CD
100
AcDbXrecord
280
     1
270
     1
271
     1
  0
XRECORD
  5
E4D1
102
{ACAD_REACTORS
330
E4CD
102
}
330
E4CD
100
AcDbXrecord
280
     1
270
     1
271
     1
  0
XRECORD
  5
E4D3
102
{ACAD_REACTORS
330
E4CD
102
}
330
E4CD
100
AcDbXrecord
280
     1
270
     1
271
     1
  0
XRECORD
  5
E4D0
102
{ACAD_REACTORS
330
E4CD
102
}
330
E4CD
100
AcDbXrecord
280
     1
270
     1
271
     1
  0
XRECORD
  5
419E8
102
{ACAD_REACTORS
330
4190D
102
}
330
4190D
100
AcDbXrecord
280
     1
102
DISPLAYNAME
  1
Imperial24
102
FLAGS
 90
        0
  0
CELLSTYLEMAP
  5
419E7
102
{ACAD_REACTORS
330
F86C
102
}
330
F86C
100
AcDbCellStyleMap
 90
        3
300
CELLSTYLE
  1
TABLEFORMAT_BEGIN
 90
        5
170
     1
 91
        0
 92
    32768
 62
   257
 93
        1
300
CONTENTFORMAT
  1
CONTENTFORMAT_BEGIN
 90
        0
 91
        0
 92
      512
 93
        0
300

 40
0.0
140
1.0
 94
        5
 62
     0
340
11
144
0.25
309
CONTENTFORMAT_END
171
     1
301
MARGIN
  1
CELLMARGIN_BEGIN
 40
0.06
 40
0.06
 40
0.06
 40
0.06
 40
0.18
 40
0.18
309
CELLMARGIN_END
 94
        6
 95
        1
302
GRIDFORMAT
  1
GRIDFORMAT_BEGIN
 90
        0
 91
        1
 62
     0
 92
       -2
340
0
 93
        0
 40
0.045
309
GRIDFORMAT_END
 95
        2
302
GRIDFORMAT
  1
GRIDFORMAT_BEGIN
 90
        0
 91
        1
 62
     0
 92
       -2
340
0
 93
        0
 40
0.045
309
GRIDFORMAT_END
 95
        4
302
GRIDFORMAT
  1
GRIDFORMAT_BEGIN
 90
        0
 91
        1
 62
     0
 92
       -2
340
0
 93
        0
 40
0.045
309
GRIDFORMAT_END
 95
        8
302
GRIDFORMAT
  1
GRIDFORMAT_BEGIN
 90
        0
 91
        1
 62
     0
 92
       -2
340
0
 93
        0
 40
0.045
309
GRIDFORMAT_END
 95
       16
302
GRIDFORMAT
  1
GRIDFORMAT_BEGIN
 90
        0
 91
        1
 62
     0
 92
       -2
340
0
 93
        0
 40
0.045
309
GRIDFORMAT_END
 95
       32
302
GRIDFORMAT
  1
GRIDFORMAT_BEGIN
 90
        0
 91
        1
 62
     0
 92
       -2
340
0
 93
        0
 40
0.045
309
GRIDFORMAT_END
309
TABLEFORMAT_END
  1
CELLSTYLE_BEGIN
 90
        1
 91
        1
300
_TITLE
309
CELLSTYLE_END
300
CELLSTYLE
  1
TABLEFORMAT_BEGIN
 90
        5
170
     1
 91
        0
 92
        0
 62
   257
 93
        1
300
CONTENTFORMAT
  1
CONTENTFORMAT_BEGIN
 90
        0
 91
        0
 92
      512
 93
        0
300

 40
0.0
140
1.0
 94
        5
 62
     0
340
11
144
0.18
309
CONTENTFORMAT_END
171
     1
301
MARGIN
  1
CELLMARGIN_BEGIN
 40
0.06
 40
0.06
 40
0.06
 40
0.06
 40
0.18
 40
0.18
309
CELLMARGIN_END
 94
        6
 95
        1
302
GRIDFORMAT
  1
GRIDFORMAT_BEGIN
 90
        0
 91
        1
 62
     0
 92
       -2
340
0
 93
        0
 40
0.045
309
GRIDFORMAT_END
 95
        2
302
GRIDFORMAT
  1
GRIDFORMAT_BEGIN
 90
        0
 91
        1
 62
     0
 92
       -2
340
0
 93
        0
 40
0.045
309
GRIDFORMAT_END
 95
        4
302
GRIDFORMAT
  1
GRIDFORMAT_BEGIN
 90
        0
 91
        1
 62
     0
 92
       -2
340
0
 93
        0
 40
0.045
309
GRIDFORMAT_END
 95
        8
302
GRIDFORMAT
  1
GRIDFORMAT_BEGIN
 90
        0
 91
        1
 62
     0
 92
       -2
340
0
 93
        0
 40
0.045
309
GRIDFORMAT_END
 95
       16
302
GRIDFORMAT
  1
GRIDFORMAT_BEGIN
 90
        0
 91
        1
 62
     0
 92
       -2
340
0
 93
        0
 40
0.045
309
GRIDFORMAT_END
 95
       32
302
GRIDFORMAT
  1
GRIDFORMAT_BEGIN
 90
        0
 91
        1
 62
     0
 92
       -2
340
0
 93
        0
 40
0.045
309
GRIDFORMAT_END
309
TABLEFORMAT_END
  1
CELLSTYLE_BEGIN
 90
        2
 91
        1
300
_HEADER
309
CELLSTYLE_END
300
CELLSTYLE
  1
TABLEFORMAT_BEGIN
 90
        5
170
     1
 91
        0
 92
        0
 62
   257
 93
        1
300
CONTENTFORMAT
  1
CONTENTFORMAT_BEGIN
 90
        0
 91
        0
 92
      512
 93
        0
300

 40
0.0
140
1.0
 94
        2
 62
     0
340
11
144
0.18
309
CONTENTFORMAT_END
171
     1
301
MARGIN
  1
CELLMARGIN_BEGIN
 40
0.06
 40
0.06
 40
0.06
 40
0.06
 40
0.18
 40
0.18
309
CELLMARGIN_END
 94
        6
 95
        1
302
GRIDFORMAT
  1
GRIDFORMAT_BEGIN
 90
        0
 91
        1
 62
     0
 92
       -2
340
0
 93
        0
 40
0.045
309
GRIDFORMAT_END
 95
        2
302
GRIDFORMAT
  1
GRIDFORMAT_BEGIN
 90
        0
 91
        1
 62
     0
 92
       -2
340
0
 93
        0
 40
0.045
309
GRIDFORMAT_END
 95
        4
302
GRIDFORMAT
  1
GRIDFORMAT_BEGIN
 90
        0
 91
        1
 62
     0
 92
       -2
340
0
 93
        0
 40
0.045
309
GRIDFORMAT_END
 95
        8
302
GRIDFORMAT
  1
GRIDFORMAT_BEGIN
 90
        0
 91
        1
 62
     0
 92
       -2
340
0
 93
        0
 40
0.045
309
GRIDFORMAT_END
 95
       16
302
GRIDFORMAT
  1
GRIDFORMAT_BEGIN
 90
        0
 91
        1
 62
     0
 92
       -2
340
0
 93
        0
 40
0.045
309
GRIDFORMAT_END
 95
       32
302
GRIDFORMAT
  1
GRIDFORMAT_BEGIN
 90
        0
 91
        1
 62
     0
 92
       -2
340
0
 93
        0
 40
0.045
309
GRIDFORMAT_END
309
TABLEFORMAT_END
  1
CELLSTYLE_BEGIN
 90
        3
 91
        2
300
_DATA
309
CELLSTYLE_END
  0
ENDSEC
  0
SECTION
  2
ACDSDATA
 70
     2
 71
     6
  0
ACDSSCHEMA
 90
        0
  1
AcDb_Thumbnail_Schema
  2
AcDbDs::ID
280
    10
 91
        8
  2
Thumbnail_Data
280
    15
 91
        0
101
ACDSRECORD
 95
        0
 90
        1
  2
AcDbDs::TreatedAsObjectData
280
     1
291
     1
101
ACDSRECORD
 95
        0
 90
        2
  2
AcDbDs::Legacy
280
     1
291
     1
101
ACDSRECORD
  1
AcDbDs::ID
 90
        3
  2
AcDs:Indexable
280
     1
291
     1
101
ACDSRECORD
  1
AcDbDs::ID
 90
        4
  2
AcDbDs::HandleAttribute
280
     7
282
     1
  0
ACDSSCHEMA
 90
        1
  1
AcDbDs::TreatedAsObjectDataSchema
  2
AcDbDs::TreatedAsObjectData
280
     1
 91
        0
  0
ACDSSCHEMA
 90
        2
  1
AcDbDs::LegacySchema
  2
AcDbDs::Legacy
280
     1
 91
        0
  0
ACDSSCHEMA
 90
        3
  1
AcDbDs::IndexedPropertySchema
  2
AcDs:Indexable
280
     1
 91
        0
  0
ACDSSCHEMA
 90
        4
  1
AcDbDs::HandleAttributeSchema
  2
AcDbDs::HandleAttribute
280
     7
 91
        1
284
     1
  0
ACDSRECORD
 90
        0
  2
AcDbDs::ID
280
    10
320
904E
  2
Thumbnail_Data
280
    15
 94
     1750
310
89504E470D0A1A0A0000000D49484452000001000000008108030000001837949D00000300504C5445000000000000FFFFFF0000000000000000000000000000000000000000000000000000330000660000990000CC0000FF0033000033330033660033990033CC0033FF0066000066330066660066990066CC0066FF0099
310
000099330099660099990099CC0099FF00CC0000CC3300CC6600CC9900CCCC00CCFF00FF0000FF3300FF6600FF9900FFCC00FFFF3300003300333300663300993300CC3300FF3333003333333333663333993333CC3333FF3366003366333366663366993366CC3366FF3399003399333399663399993399CC3399FF33CC00
310
33CC3333CC6633CC9933CCCC33CCFF33FF0033FF3333FF6633FF9933FFCC33FFFF6600006600336600666600996600CC6600FF6633006633336633666633996633CC6633FF6666006666336666666666996666CC6666FF6699006699336699666699996699CC6699FF66CC0066CC3366CC6666CC9966CCCC66CCFF66FF0066
310
FF3366FF6666FF9966FFCC66FFFF9900009900339900669900999900CC9900FF9933009933339933669933999933CC9933FF9966009966339966669966999966CC9966FF9999009999339999669999999999CC9999FF99CC0099CC3399CC6699CC9999CCCC99CCFF99FF0099FF3399FF6699FF9999FFCC99FFFFCC0000CC00
310
33CC0066CC0099CC00CCCC00FFCC3300CC3333CC3366CC3399CC33CCCC33FFCC6600CC6633CC6666CC6699CC66CCCC66FFCC9900CC9933CC9966CC9999CC99CCCC99FFCCCC00CCCC33CCCC66CCCC99CCCCCCCCCCFFCCFF00CCFF33CCFF66CCFF99CCFFCCCCFFFFFF0000FF0033FF0066FF0099FF00CCFF00FFFF3300FF3333
310
FF3366FF3399FF33CCFF33FFFF6600FF6633FF6666FF6699FF66CCFF66FFFF9900FF9933FF9966FF9999FF99CCFF99FFFFCC00FFCC33FFCC66FFCC99FFCCCCFFCCFFFFFF00FFFF33FFFF66FFFF99FFFFCCFFFFFF0000000D0D0D1A1A1A2828283535354343435050505D5D5D6B6B6B787878868686939393A1A1A1AEAEAEBB
310
BBBBC9C9C9D6D6D6E4E4E4F1F1F1FFFFFF000000000000000000000000000000000000000000000000000000000000C11FEF66000003914944415478DAED9D4B92E3200C86FB06B9061B8EE62B66A35DCA4760C509B4613F3C8C79986432555D998AF42B21B6B12BD57C96849009FDE395CB0F000000000000000000000000
310
0000000000000000C0BF8AFD25F95E00BFF35700000000000000000000000048041046010000000000402FA01B001F02006A018C2C7285660099811A0093EEB3221330BC6D266C0D80738E15013011C01EC2B69DB7DDB9E01401483110C7B7560D30C67354FF2D6940F505CE3BAF0840F201138066010A4C804D53FEDAF97B
310
5500BAE8EFDC5507A0FF1C23022D00FC751480E1B0180004006A01982C64AAACCD3C5D988604A3C800905F0D801986BC6338D410950E41A406189E011CF3604CD1825CCA68580600EB9CB58E6CD9C67205709A40290600640188E22CC5626D3E7809C084606A58240880B5149B94B68F2B803A0B2E3B88FA70441080E2D129
310
47F9FEF1F057005D37E8F67D1707A005427F07E0C3EEC501282650AC3FD575008670A70008E200143F4075D74F0F7DDA44D801C070E55703204B440940DAC442DD3D674F493FA888A1062087812C55033A009EFD4503CE385828803ED9C52F0088498965EF67B3AEDB779C60A8AD97E404A3B19F0A3D76839DA26700FB2E2E
310
102AC110F15B00DC1EC40542B6C501452E00A65058E058C0BD07406E3EC03D1F0ECF00585B3E40018064D9D6440071938AB902385262255F26CE045E2745A75EC070CB894A4D8ACEF380060012D3E23C0DEDC664C009A06E5649730919A1EEB9EF05C0705E1E80D7A240035E369F01603135449909F8214BA26E82042F4415
310
804F7E0D000000000000007C1EC02D0BDD4EA927D72756B55F0E20EFB56972B771673EB1AA9505E08C7400402700566E02ACCE07D8E1C910770B8329D200E74A8BD22FC1DA806F682AF30CE07015A20030956375006A3B77EAF3FDB77B12CA9F4D31F2E55D55AA1504201D37004D03EEF9C20680728D3F6A650138733E1700
310
BC04F0ED1A409DECC32C319A25D7E7BD7B7E9FB5E24CC03F3101BF3401414E904727C80D008F3E807B1F284103E66EF000F0B4178817B28240E8A2015E22005B7F30910261D7AF91AB09001F0038E803905BC0870FE0D067843402F0DD8A6100A01280461388C2F195363CA4C5B925C0794C8B33951A1169F17283F9D48026
310
4503A6E5327CD500392B48D4E897D92F00F01280B42534E6998F43EDD39931D2002CA6BFAC57D2BC2CB029F7E1A87A009FFD1A00F80F00B4FF9395EF17000000000000000000000000000000A5F207C7F1470BB1FDB4230000000049454E44AE426082
  0
ENDSEC
  0
EOF
