  0
SECTION
  2
HEADER
  9
$ACADVER
  1
AC1027
  9
$ACADMAINTVER
 70
    55
  9
$DWGCODEPAGE
  3
ANSI_932
  9
$LASTSAVEDBY
  1
marketing
  9
$REQUIREDVERSIONS
160
                 0
  9
$INSBASE
 10
0.0
 20
0.0
 30
0.0
  9
$EXTMIN
 10
-0.1047972412034142
 20
-0.121759839963488
 30
-0.0000000000000053
  9
$EXTMAX
 10
630.0359083277089
 20
891.1328166503608
 30
0.0000000000000099
  9
$LIMMIN
 10
-1176.0
 20
-798.0
  9
$LIMMAX
 10
594.0
 20
1078.0
  9
$ORTHOMODE
 70
     1
  9
$REGENMODE
 70
     1
  9
$FILLMODE
 70
     1
  9
$QTEXTMODE
 70
     0
  9
$MIRRTEXT
 70
     1
  9
$LTSCALE
 40
10.0
  9
$ATTMODE
 70
     1
  9
$TEXTSIZE
 40
0.2
  9
$TRACEWID
 40
0.05
  9
$TEXTSTYLE
  7
blockfont
  9
$CLAYER
  8
30
  9
$CELTYPE
  6
BYLAYER
  9
$CECOLOR
 62
   256
  9
$CELTSCALE
 40
1.0
  9
$DISPSILH
 70
     0
  9
$DIMSCALE
 40
1.0
  9
$DIMASZ
 40
2.0
  9
$DIMEXO
 40
3.0
  9
$DIMDLI
 40
0.5
  9
$DIMRND
 40
0.0
  9
$DIMDLE
 40
0.0
  9
$DIMEXE
 40
0.5
  9
$DIMTP
 40
0.0
  9
$DIMTM
 40
0.0
  9
$DIMTXT
 40
7.0
  9
$DIMCEN
 40
0.09
  9
$DIMTSZ
 40
0.0
  9
$DIMTOL
 70
     0
  9
$DIMLIM
 70
     0
  9
$DIMTIH
 70
     1
  9
$DIMTOH
 70
     1
  9
$DIMSE1
 70
     0
  9
$DIMSE2
 70
     0
  9
$DIMTAD
 70
     3
  9
$DIMZIN
 70
    12
  9
$DIMBLK
  1
OPEN
  9
$DIMASO
 70
     1
  9
$DIMSHO
 70
     1
  9
$DIMPOST
  1

  9
$DIMAPOST
  1

  9
$DIMALT
 70
     0
  9
$DIMALTD
 70
     2
  9
$DIMALTF
 40
25.4
  9
$DIMLFAC
 40
1.0
  9
$DIMTOFL
 70
     1
  9
$DIMTVP
 40
0.0
  9
$DIMTIX
 70
     0
  9
$DIMSOXD
 70
     0
  9
$DIMSAH
 70
     0
  9
$DIMBLK1
  1

  9
$DIMBLK2
  1

  9
$DIMSTYLE
  2
STANDARD1
  9
$DIMCLRD
 70
     0
  9
$DIMCLRE
 70
     0
  9
$DIMCLRT
 70
     0
  9
$DIMTFAC
 40
1.0
  9
$DIMGAP
 40
2.0
  9
$DIMJUST
 70
     0
  9
$DIMSD1
 70
     0
  9
$DIMSD2
 70
     0
  9
$DIMTOLJ
 70
     1
  9
$DIMTZIN
 70
     0
  9
$DIMALTZ
 70
     0
  9
$DIMALTTZ
 70
     0
  9
$DIMUPT
 70
     0
  9
$DIMDEC
 70
     8
  9
$DIMTDEC
 70
     8
  9
$DIMALTU
 70
     2
  9
$DIMALTTD
 70
     2
  9
$DIMTXSTY
  7
STANDARD
  9
$DIMAUNIT
 70
     0
  9
$DIMADEC
 70
     0
  9
$DIMALTRND
 40
0.0
  9
$DIMAZIN
 70
     0
  9
$DIMDSEP
 70
    46
  9
$DIMATFIT
 70
     2
  9
$DIMFRAC
 70
     0
  9
$DIMLDRBLK
  1
OPEN
  9
$DIMLUNIT
 70
     2
  9
$DIMLWD
 70
    -2
  9
$DIMLWE
 70
    -2
  9
$DIMTMOVE
 70
     0
  9
$DIMFXL
 40
1.0
  9
$DIMFXLON
 70
     0
  9
$DIMJOGANG
 40
0.7853981633974483
  9
$DIMTFILL
 70
     0
  9
$DIMTFILLCLR
 70
     0
  9
$DIMARCSYM
 70
     0
  9
$DIMLTYPE
  6

  9
$DIMLTEX1
  6

  9
$DIMLTEX2
  6

  9
$DIMTXTDIRECTION
 70
     0
  9
$LUNITS
 70
     2
  9
$LUPREC
 70
     8
  9
$SKETCHINC
 40
0.1
  9
$FILLETRAD
 40
0.0
  9
$AUNITS
 70
     0
  9
$AUPREC
 70
     0
  9
$MENU
  1
.
  9
$ELEVATION
 40
0.0
  9
$PELEVATION
 40
0.0
  9
$THICKNESS
 40
0.0
  9
$LIMCHECK
 70
     0
  9
$CHAMFERA
 40
0.0
  9
$CHAMFERB
 40
0.0
  9
$CHAMFERC
 40
0.0
  9
$CHAMFERD
 40
0.0
  9
$SKPOLY
 70
     0
  9
$TDCREATE
 40
2452286.555658658
  9
$TDUCREATE
 40
2452286.180658658
  9
$TDUPDATE
 40
2459243.595603114
  9
$TDUUPDATE
 40
2459243.220603114
  9
$TDINDWG
 40
2.4595610185
  9
$TDUSRTIMER
 40
2.4595574074
  9
$USRTIMER
 70
     1
  9
$ANGBASE
 50
0.0
  9
$ANGDIR
 70
     0
  9
$PDMODE
 70
     0
  9
$PDSIZE
 40
0.0
  9
$PLINEWID
 40
0.0
  9
$SPLFRAME
 70
     0
  9
$SPLINETYPE
 70
     6
  9
$SPLINESEGS
 70
     8
  9
$HANDSEED
  5
3AE82
  9
$SURFTAB1
 70
     6
  9
$SURFTAB2
 70
     6
  9
$SURFTYPE
 70
     6
  9
$SURFU
 70
     6
  9
$SURFV
 70
     6
  9
$UCSBASE
  2

  9
$UCSNAME
  2

  9
$UCSORG
 10
0.0
 20
0.0
 30
0.0
  9
$UCSXDIR
 10
1.0
 20
0.0
 30
0.0
  9
$UCSYDIR
 10
0.0
 20
1.0
 30
0.0
  9
$UCSORTHOREF
  2

  9
$UCSORTHOVIEW
 70
     0
  9
$UCSORGTOP
 10
0.0
 20
0.0
 30
0.0
  9
$UCSORGBOTTOM
 10
0.0
 20
0.0
 30
0.0
  9
$UCSORGLEFT
 10
0.0
 20
0.0
 30
0.0
  9
$UCSORGRIGHT
 10
0.0
 20
0.0
 30
0.0
  9
$UCSORGFRONT
 10
0.0
 20
0.0
 30
0.0
  9
$UCSORGBACK
 10
0.0
 20
0.0
 30
0.0
  9
$PUCSBASE
  2

  9
$PUCSNAME
  2

  9
$PUCSORG
 10
0.0
 20
0.0
 30
0.0
  9
$PUCSXDIR
 10
1.0
 20
0.0
 30
0.0
  9
$PUCSYDIR
 10
0.0
 20
1.0
 30
0.0
  9
$PUCSORTHOREF
  2

  9
$PUCSORTHOVIEW
 70
     0
  9
$PUCSORGTOP
 10
0.0
 20
0.0
 30
0.0
  9
$PUCSORGBOTTOM
 10
0.0
 20
0.0
 30
0.0
  9
$PUCSORGLEFT
 10
0.0
 20
0.0
 30
0.0
  9
$PUCSORGRIGHT
 10
0.0
 20
0.0
 30
0.0
  9
$PUCSORGFRONT
 10
0.0
 20
0.0
 30
0.0
  9
$PUCSORGBACK
 10
0.0
 20
0.0
 30
0.0
  9
$USERI1
 70
     0
  9
$USERI2
 70
     0
  9
$USERI3
 70
     0
  9
$USERI4
 70
     0
  9
$USERI5
 70
     0
  9
$USERR1
 40
0.0
  9
$USERR2
 40
0.0
  9
$USERR3
 40
0.0
  9
$USERR4
 40
0.0
  9
$USERR5
 40
0.0
  9
$WORLDVIEW
 70
     1
  9
$SHADEDGE
 70
     3
  9
$SHADEDIF
 70
    70
  9
$TILEMODE
 70
     1
  9
$MAXACTVP
 70
    48
  9
$PINSBASE
 10
0.0
 20
0.0
 30
0.0
  9
$PLIMCHECK
 70
     0
  9
$PEXTMIN
 10
0.0
 20
0.0
 30
0.0
  9
$PEXTMAX
 10
0.0
 20
0.0
 30
0.0
  9
$PLIMMIN
 10
-0.2500002402958907
 20
-0.2499999962453767
  9
$PLIMMAX
 10
10.74999951940822
 20
8.249999763458731
  9
$UNITMODE
 70
     0
  9
$VISRETAIN
 70
     1
  9
$PLINEGEN
 70
     0
  9
$PSLTSCALE
 70
     1
  9
$TREEDEPTH
 70
  3020
  9
$CMLSTYLE
  2
STANDARD
  9
$CMLJUST
 70
     0
  9
$CMLSCALE
 40
1.0
  9
$PROXYGRAPHICS
 70
     1
  9
$MEASUREMENT
 70
     0
  9
$CELWEIGHT
370
    -1
  9
$ENDCAPS
280
     0
  9
$JOINSTYLE
280
     0
  9
$LWDISPLAY
290
     0
  9
$INSUNITS
 70
     0
  9
$HYPERLINKBASE
  1

  9
$STYLESHEET
  1
MONOCHROME.CTB
  9
$XEDIT
290
     1
  9
$CEPSNTYPE
380
     0
  9
$PSTYLEMODE
290
     1
  9
$FINGERPRINTGUID
  2

  9
$VERSIONGUID
  2
{4DD70901-6C60-4584-AC49-3E841858750F}
  9
$EXTNAMES
290
     1
  9
$PSVPSCALE
 40
0.0
  9
$OLESTARTUP
290
     0
  9
$SORTENTS
280
   127
  9
$INDEXCTL
280
     0
  9
$HIDETEXT
280
     0
  9
$XCLIPFRAME
280
     2
  9
$HALOGAP
280
     0
  9
$OBSCOLOR
 70
   257
  9
$OBSLTYPE
280
     0
  9
$INTERSECTIONDISPLAY
280
     0
  9
$INTERSECTIONCOLOR
 70
   257
  9
$DIMASSOC
280
     1
  9
$PROJECTNAME
  1

  9
$CAMERADISPLAY
290
     0
  9
$LENSLENGTH
 40
50.0
  9
$CAMERAHEIGHT
 40
0.0
  9
$STEPSPERSEC
 40
2.0
  9
$STEPSIZE
 40
6.0
  9
$3DDWFPREC
 40
2.0
  9
$PSOLWIDTH
 40
0.25
  9
$PSOLHEIGHT
 40
4.0
  9
$LOFTANG1
 40
1.570796326794896
  9
$LOFTANG2
 40
1.570796326794896
  9
$LOFTMAG1
 40
0.0
  9
$LOFTMAG2
 40
0.0
  9
$LOFTPARAM
 70
     7
  9
$LOFTNORMALS
280
     1
  9
$LATITUDE
 40
37.795
  9
$LONGITUDE
 40
-122.394
  9
$NORTHDIRECTION
 40
0.0
  9
$TIMEZONE
 70
 -8000
  9
$LIGHTGLYPHDISPLAY
280
     1
  9
$TILEMODELIGHTSYNCH
280
     1
  9
$CMATERIAL
347
E4BC
  9
$SOLIDHIST
280
     1
  9
$SHOWHIST
280
     1
  9
$DWFFRAME
280
     2
  9
$DGNFRAME
280
     0
  9
$REALWORLDSCALE
290
     1
  9
$INTERFERECOLOR
 62
     1
  9
$INTERFEREOBJVS
345
E4DE
  9
$INTERFEREVPVS
346
E4DB
  9
$CSHADOW
280
     0
  9
$SHADOWPLANELOCATION
 40
0.0
  0
ENDSEC
  0
SECTION
  2
CLASSES
  0
CLASS
  1
ACDBDICTIONARYWDFLT
  2
AcDbDictionaryWithDefault
  3
ObjectDBX Classes
 90
        0
 91
        1
280
     0
281
     0
  0
CLASS
  1
DICTIONARYVAR
  2
AcDbDictionaryVar
  3
ObjectDBX Classes
 90
        0
 91
       12
280
     0
281
     0
  0
CLASS
  1
MATERIAL
  2
AcDbMaterial
  3
ObjectDBX Classes
 90
     1153
 91
        3
280
     0
281
     0
  0
CLASS
  1
VISUALSTYLE
  2
AcDbVisualStyle
  3
ObjectDBX Classes
 90
     4095
 91
       26
280
     0
281
     0
  0
CLASS
  1
TABLESTYLE
  2
AcDbTableStyle
  3
ObjectDBX Classes
 90
     4095
 91
        1
280
     0
281
     0
  0
CLASS
  1
SCALE
  2
AcDbScale
  3
ObjectDBX Classes
 90
     1153
 91
       33
280
     0
281
     0
  0
CLASS
  1
MLEADERSTYLE
  2
AcDbMLeaderStyle
  3
ACDB_MLEADERSTYLE_CLASS
 90
     4095
 91
        1
280
     0
281
     0
  0
CLASS
  1
CELLSTYLEMAP
  2
AcDbCellStyleMap
  3
ObjectDBX Classes
 90
     1152
 91
        2
280
     0
281
     0
  0
CLASS
  1
AEC_REFEDIT_STATUS_TRACKER
  2
AecDbRefEditStatusTracker
  3
AecArchBase60|Product Desc: Autodesk Architectural Desktop 2007 |Company: Autodesk,Inc. |WEB Address: www.autodesk.com
 90
      129
 91
        0
280
     0
281
     0
  0
CLASS
  1
NPOCOLLECTION
  2
AcDbImpNonPersistentObjectsCollection
  3
ObjectDBX Classes
 90
     1153
 91
        0
280
     0
281
     0
  0
CLASS
  1
SORTENTSTABLE
  2
AcDbSortentsTable
  3
ObjectDBX Classes
 90
        0
 91
        2
280
     0
281
     0
  0
CLASS
  1
ACDBSECTIONVIEWSTYLE
  2
AcDbSectionViewStyle
  3
ObjectDBX Classes
 90
     1025
 91
        1
280
     0
281
     0
  0
CLASS
  1
ACDBDETAILVIEWSTYLE
  2
AcDbDetailViewStyle
  3
ObjectDBX Classes
 90
     1025
 91
        1
280
     0
281
     0
  0
ENDSEC
  0
SECTION
  2
TABLES
  0
TABLE
  2
VPORT
  5
8
330
0
100
AcDbSymbolTable
 70
     1
  0
VPORT
  5
12C00
330
8
100
AcDbSymbolTableRecord
100
AcDbViewportTableRecord
  2
*Active
 70
     0
 10
0.0
 20
0.0
 11
1.0
 21
1.0
 12
314.9655555432528
 22
445.5055284051987
 13
0.0
 23
0.0
 14
1.0
 24
1.0
 15
10.0
 25
10.0
 16
0.0
 26
0.0
 36
1.0
 17
0.0
 27
0.0
 37
0.0
 40
899.3568908220545
 41
2.880121396054628
 42
50.0
 43
0.0
 44
0.0
 50
0.0
 51
0.0
 71
     0
 72
   100
 73
     1
 74
     1
 75
     0
 76
     0
 77
     0
 78
     1
281
     0
 65
     1
110
0.0
120
0.0
130
0.0
111
1.0
121
0.0
131
0.0
112
0.0
122
1.0
132
0.0
 79
     0
146
0.0
348
E4DA
 60
     3
 61
     5
292
     1
282
     1
141
0.0
142
0.0
 63
   250
421
  3355443
1001
ACAD_NAV_VCDISPLAY
1070
     3
  0
ENDTAB
  0
TABLE
  2
LTYPE
  5
5
330
0
100
AcDbSymbolTable
 70
     8
  0
LTYPE
  5
13
330
5
100
AcDbSymbolTableRecord
100
AcDbLinetypeTableRecord
  2
BYBLOCK
 70
     0
  3

 72
    65
 73
     0
 40
0.0
  0
LTYPE
  5
14
330
5
100
AcDbSymbolTableRecord
100
AcDbLinetypeTableRecord
  2
BYLAYER
 70
     0
  3

 72
    65
 73
     0
 40
0.0
  0
LTYPE
  5
15
330
5
100
AcDbSymbolTableRecord
100
AcDbLinetypeTableRecord
  2
CONTINUOUS
 70
     0
  3
Solid line
 72
    65
 73
     0
 40
0.0
  0
LTYPE
  5
22
330
5
100
AcDbSymbolTableRecord
100
AcDbLinetypeTableRecord
  2
CONTINOUS
 70
     0
  3
Solid line
 72
    65
 73
     0
 40
0.0
  0
LTYPE
  5
24
330
5
100
AcDbSymbolTableRecord
100
AcDbLinetypeTableRecord
  2
DASHDOT
 70
     0
  3
__ . __ . __ . __ . __ . __ . __ . __ . __ . __
 72
    65
 73
     4
 40
1.0
 49
0.5
 74
     0
 49
-0.25
 74
     0
 49
0.0
 74
     0
 49
-0.25
 74
     0
  0
LTYPE
  5
4C47
330
5
100
AcDbSymbolTableRecord
100
AcDbLinetypeTableRecord
  2
DIVIDE
 70
     0
  3
Divide ____ . . ____ . . ____ . . ____ . . ____
 72
    65
 73
     6
 40
1.25
 49
0.5
 74
     0
 49
-0.25
 74
     0
 49
0.0
 74
     0
 49
-0.25
 74
     0
 49
0.0
 74
     0
 49
-0.25
 74
     0
  0
LTYPE
  5
685F
330
5
100
AcDbSymbolTableRecord
100
AcDbLinetypeTableRecord
  2
PHANTOM
 70
     0
  3
Phantom ______  __  __  ______  __  __  ______
 72
    65
 73
     6
 40
2.5
 49
1.25
 74
     0
 49
-0.25
 74
     0
 49
0.25
 74
     0
 49
-0.25
 74
     0
 49
0.25
 74
     0
 49
-0.25
 74
     0
  0
LTYPE
  5
1F2BD
330
5
100
AcDbSymbolTableRecord
100
AcDbLinetypeTableRecord
  2
SLD-実線
 70
     0
  3
SolidWorks Line Style
 72
    65
 73
     0
 40
0.0
  0
LTYPE
  5
399AC
330
5
100
AcDbSymbolTableRecord
100
AcDbLinetypeTableRecord
  2
DASHED
 70
     0
  3
__ __ __ __ __ __ __ __ __ __ __ __ __ __ __
 72
    65
 73
     2
 40
0.75
 49
0.5
 74
     0
 49
-0.25
 74
     0
  0
ENDTAB
  0
TABLE
  2
LAYER
  5
2
102
{ACAD_XDICTIONARY
360
12DA0
102
}
330
0
100
AcDbSymbolTable
 70
    17
  0
LAYER
  5
10
102
{ACAD_XDICTIONARY
360
E512
102
}
330
2
100
AcDbSymbolTableRecord
100
AcDbLayerTableRecord
  2
0
 70
     0
 62
     7
  6
CONTINOUS
370
    -3
390
F
347
E4CC
348
0
  0
LAYER
  5
2F
102
{ACAD_XDICTIONARY
360
E514
102
}
330
2
100
AcDbSymbolTableRecord
100
AcDbLayerTableRecord
  2
10
 70
     0
 62
     4
  6
CONTINOUS
370
    -3
390
F
347
E4CC
348
0
  0
LAYER
  5
35
102
{ACAD_XDICTIONARY
360
E518
102
}
330
2
100
AcDbSymbolTableRecord
100
AcDbLayerTableRecord
  2
16
 70
     0
 62
     6
  6
DASHDOT
370
    -3
390
F
347
E4CC
348
0
  0
LAYER
  5
3D
102
{ACAD_XDICTIONARY
360
E51C
102
}
330
2
100
AcDbSymbolTableRecord
100
AcDbLayerTableRecord
  2
24
 70
     0
 62
     7
  6
CONTINOUS
370
    -3
390
F
347
E4CC
348
0
  0
LAYER
  5
3A2
102
{ACAD_XDICTIONARY
360
E51E
102
}
330
2
100
AcDbSymbolTableRecord
100
AcDbLayerTableRecord
  2
30
 70
     0
 62
     9
  6
CONTINUOUS
370
    -3
390
F
347
E4CC
348
0
  0
LAYER
  5
3A4
330
2
100
AcDbSymbolTableRecord
100
AcDbLayerTableRecord
  2
DEFPOINTS
 70
     0
 62
     7
  6
CONTINUOUS
290
     0
370
    -3
390
F
347
E4CC
348
0
  0
LAYER
  5
3BBA
102
{ACAD_XDICTIONARY
360
E520
102
}
330
2
100
AcDbSymbolTableRecord
100
AcDbLayerTableRecord
  2
18
 70
     0
 62
     5
  6
DIVIDE
370
    -3
390
F
347
E4CC
348
0
  0
LAYER
  5
67A8
102
{ACAD_XDICTIONARY
360
E522
102
}
330
2
100
AcDbSymbolTableRecord
100
AcDbLayerTableRecord
  2
11
 70
     0
 62
     1
  6
CONTINOUS
370
    -3
390
F
347
E4CC
348
0
  0
LAYER
  5
7837
102
{ACAD_XDICTIONARY
360
E524
102
}
330
2
100
AcDbSymbolTableRecord
100
AcDbLayerTableRecord
  2
17
 70
     0
 62
     2
  6
DASHDOT
370
    -3
390
F
347
E4CC
348
0
  0
LAYER
  5
7BC8
102
{ACAD_XDICTIONARY
360
E526
102
}
330
2
100
AcDbSymbolTableRecord
100
AcDbLayerTableRecord
  2
1
 70
     0
 62
     7
  6
CONTINUOUS
370
    -3
390
F
347
E4CC
348
0
  0
LAYER
  5
C4FE
102
{ACAD_XDICTIONARY
360
E52A
102
}
330
2
100
AcDbSymbolTableRecord
100
AcDbLayerTableRecord
  2
2
 70
     0
 62
     7
  6
CONTINUOUS
370
    -3
390
F
347
E4CC
348
0
  0
LAYER
  5
C501
102
{ACAD_XDICTIONARY
360
E530
102
}
330
2
100
AcDbSymbolTableRecord
100
AcDbLayerTableRecord
  2
5
 70
     0
 62
     7
  6
CONTINUOUS
370
    -3
390
F
347
E4CC
348
0
  0
LAYER
  5
E473
102
{ACAD_XDICTIONARY
360
E534
102
}
330
2
100
AcDbSymbolTableRecord
100
AcDbLayerTableRecord
  2
130
 70
     0
 62
     4
  6
CONTINUOUS
370
    -3
390
F
347
E4CC
348
0
  0
LAYER
  5
1106A
102
{ACAD_XDICTIONARY
360
1106B
102
}
330
2
100
AcDbSymbolTableRecord
100
AcDbLayerTableRecord
  2
131
 70
     0
 62
     4
  6
PHANTOM
370
    -3
390
F
347
E4CC
348
0
  0
LAYER
  5
38289
102
{ACAD_XDICTIONARY
360
3828A
102
}
330
2
100
AcDbSymbolTableRecord
100
AcDbLayerTableRecord
  2
240
 70
     0
 62
     7
  6
CONTINUOUS
370
    -3
390
F
347
E4CC
348
0
  0
LAYER
  5
399AD
102
{ACAD_XDICTIONARY
360
399AE
102
}
330
2
100
AcDbSymbolTableRecord
100
AcDbLayerTableRecord
  2
12
 70
     0
 62
     3
  6
DASHED
370
    -3
390
F
347
E4CC
348
0
  0
LAYER
  5
3AE75
330
2
100
AcDbSymbolTableRecord
100
AcDbLayerTableRecord
  2
19
 70
     0
 62
     7
  6
CONTINOUS
370
    -3
390
F
347
E4CC
348
0
1001
AcAecLayerStandard
1000

1000

1001
AcCmTransparency
1071
        0
  0
ENDTAB
  0
TABLE
  2
STYLE
  5
3
330
0
100
AcDbSymbolTable
 70
     3
  0
STYLE
  5
11
330
3
100
AcDbSymbolTableRecord
100
AcDbTextStyleTableRecord
  2
STANDARD
 70
     0
 40
0.0
 41
1.0
 50
0.0
 71
     0
 42
2.0
  3
txt.shx
  4
bigfont.shx
  0
STYLE
  5
C503
330
3
100
AcDbSymbolTableRecord
100
AcDbTextStyleTableRecord
  2
blockfont
 70
     0
 40
0.0
 41
1.0
 50
0.0
 71
     0
 42
0.2
  3
simplex.shx
  4
bigfont
  0
STYLE
  5
3828B
330
3
100
AcDbSymbolTableRecord
100
AcDbTextStyleTableRecord
  2
SLDTEXTSTYLE0
 70
     0
 40
0.0
 41
1.0
 50
0.0
 71
     0
 42
3.0
  3
MS UI Gothic.ttf
  4

1001
ACAD
1000
MS UI Gothic
1071
      306
  0
ENDTAB
  0
TABLE
  2
VIEW
  5
6
330
0
100
AcDbSymbolTable
 70
     3
  0
VIEW
  5
230C
330
6
100
AcDbSymbolTableRecord
100
AcDbViewTableRecord
  2
OLE1
 70
     0
 40
148.912488
 10
429.497628
 20
2.560627
 41
103.145806
 11
0.0
 21
0.0
 31
1.0
 12
0.0
 22
0.0
 32
0.0
 42
50.0
 43
0.0
 44
0.0
 50
0.0
 71
     0
281
     0
 72
     0
 73
     0
348
E4DA
  0
VIEW
  5
230E
330
6
100
AcDbSymbolTableRecord
100
AcDbViewTableRecord
  2
OLE2
 70
     0
 40
170.778692
 10
322.66497
 20
-5.978304
 41
102.467215
 11
0.0
 21
0.0
 31
1.0
 12
0.0
 22
0.0
 32
0.0
 42
50.0
 43
0.0
 44
0.0
 50
0.0
 71
     0
281
     0
 72
     0
 73
     0
348
E4DA
  0
VIEW
  5
23AA
330
6
100
AcDbSymbolTableRecord
100
AcDbViewTableRecord
  2
OLE3
 70
     0
 40
591.7897389999998
 10
84.79698199999999
 20
-46.09335999999998
 41
388.792096
 11
0.0
 21
0.0
 31
1.0
 12
0.0
 22
0.0
 32
0.0
 42
50.0
 43
0.0
 44
0.0
 50
0.0
 71
     0
281
     0
 72
     0
 73
     0
348
E4DA
  0
ENDTAB
  0
TABLE
  2
UCS
  5
7
330
0
100
AcDbSymbolTable
 70
     0
  0
ENDTAB
  0
TABLE
  2
APPID
  5
9
330
0
100
AcDbSymbolTable
 70
    11
  0
APPID
  5
12
330
9
100
AcDbSymbolTableRecord
100
AcDbRegAppTableRecord
  2
ACAD
 70
     0
  0
APPID
  5
ECD
330
9
100
AcDbSymbolTableRecord
100
AcDbRegAppTableRecord
  2
CONTENTBLOCKICON
 70
     0
  0
APPID
  5
E582
330
9
100
AcDbSymbolTableRecord
100
AcDbRegAppTableRecord
  2
DCO15
 70
     0
  0
APPID
  5
F8B0
330
9
100
AcDbSymbolTableRecord
100
AcDbRegAppTableRecord
  2
ACAD_MLEADERVER
 70
     0
  0
APPID
  5
F8D5
330
9
100
AcDbSymbolTableRecord
100
AcDbRegAppTableRecord
  2
ACAD_PSEXT
 70
     0
  0
APPID
  5
F997
330
9
100
AcDbSymbolTableRecord
100
AcDbRegAppTableRecord
  2
ACAD_EXEMPT_FROM_CAD_STANDARDS
 70
     0
  0
APPID
  5
1F2D1
330
9
100
AcDbSymbolTableRecord
100
AcDbRegAppTableRecord
  2
ACAD_DSTYLE_DIMJAG
 70
     0
  0
APPID
  5
1F2D2
330
9
100
AcDbSymbolTableRecord
100
AcDbRegAppTableRecord
  2
ACAD_DSTYLE_DIMTALN
 70
     0
  0
APPID
  5
3AE65
330
9
100
AcDbSymbolTableRecord
100
AcDbRegAppTableRecord
  2
ACAD_NAV_VCDISPLAY
 70
     0
  0
APPID
  5
3AE76
330
9
100
AcDbSymbolTableRecord
100
AcDbRegAppTableRecord
  2
AcAecLayerStandard
 70
     0
  0
APPID
  5
3AE77
330
9
100
AcDbSymbolTableRecord
100
AcDbRegAppTableRecord
  2
AcCmTransparency
 70
     0
  0
ENDTAB
  0
TABLE
  2
DIMSTYLE
  5
A
330
0
100
AcDbSymbolTable
 70
     3
100
AcDbDimStyleTable
 71
     2
340
C24A
340
175
  0
DIMSTYLE
105
175
102
{ACAD_REACTORS
330
123B5
330
137F9
330
13065
330
11922
330
1196B
330
38046
330
11923
330
1197A
330
11990
330
39233
330
3924C
330
3924D
330
39251
330
3959D
330
3922F
330
394BF
330
394D8
330
394D9
330
394DC
330
394DD
330
394DE
102
}
330
A
100
AcDbSymbolTableRecord
100
AcDbDimStyleTableRecord
  2
STANDARD
 70
     0
 41
3.0
 42
1.0
 43
0.5
 44
0.5
 69
     1
 73
     0
 74
     0
 77
     1
 78
    12
140
7.0
147
3.0
271
     1
272
     1
340
11
341
3B2
342
3B2
1001
ACAD_DSTYLE_DIMJAG
1070
   388
1040
1.5
1001
ACAD_DSTYLE_DIMTALN
1070
   392
1070
     0
  0
DIMSTYLE
105
C24A
102
{ACAD_REACTORS
330
121A9
330
121D1
330
38048
330
38052
330
382DC
330
11978
330
11924
330
39225
330
39226
330
39227
330
39229
330
39231
330
39234
330
3925A
330
3925B
330
3925C
330
3951B
330
3ACB9
330
3ACF7
330
3ADB2
330
394B1
330
394B2
330
394B3
330
394B4
330
394B5
330
394BB
330
394BD
330
394C0
330
394E6
330
394E7
330
394E8
102
}
330
A
100
AcDbSymbolTableRecord
100
AcDbDimStyleTableRecord
  2
STANDARD1
 70
     0
 41
2.0
 42
3.0
 43
0.5
 44
0.5
 77
     3
 78
    12
140
7.0
147
2.0
172
     1
271
     8
272
     8
289
     2
340
11
341
3B2
342
3B2
1001
ACAD_DSTYLE_DIMJAG
1070
   388
1040
1.5
1001
ACAD_DSTYLE_DIMTALN
1070
   392
1070
     0
  0
ENDTAB
  0
TABLE
  2
BLOCK_RECORD
  5
1
330
0
100
AcDbSymbolTable
 70
    55
  0
BLOCK_RECORD
  5
1E
102
{ACAD_XDICTIONARY
360
178
102
}
330
1
100
AcDbSymbolTableRecord
100
AcDbBlockTableRecord
  2
*MODEL_SPACE
340
904E
 70
     0
280
     1
281
     0
  0
BLOCK_RECORD
  5
1A
102
{ACAD_XDICTIONARY
360
17A
102
}
330
1
100
AcDbSymbolTableRecord
100
AcDbBlockTableRecord
  2
*PAPER_SPACE
340
904F
 70
     0
280
     1
281
     0
  0
BLOCK_RECORD
  5
3B2
330
1
100
AcDbSymbolTableRecord
100
AcDbBlockTableRecord
  2
_OPEN
340
0
102
{BLKREFS
331
39458
331
39459
331
39464
331
39465
331
39470
331
39471
331
3947C
331
3947D
331
39489
331
3948A
331
39497
331
39498
331
394A5
331
394A6
331
3AAE5
331
3AAE6
331
3AAEE
331
3AAEF
331
3AAF7
331
3AAF8
331
3AB48
331
3AB49
331
3AB63
331
3AB6A
331
3AB6B
331
3AB73
331
3AB7A
331
3AB7B
331
3AB83
331
3AB84
331
3AB8C
331
3AB8D
331
3AB95
331
3AB96
331
3ABAC
331
3ABAD
331
3ABB5
331
3ABB6
331
3ABC7
331
3ABC8
331
3ABD0
331
3ABD1
331
3AC0A
331
3AC0B
331
3AC13
331
3AC14
331
3AC1C
331
3AC1D
331
3AC28
331
3AC29
331
3AC82
331
3AC83
331
3AD10
331
3AD11
331
3AD19
331
3AD1A
331
3AD29
331
3AD2A
331
3AD34
331
3AD35
331
3AD49
331
3AD4A
331
3AD52
331
3AD53
331
3AD66
331
3AD67
331
393DB
331
393DC
331
393E7
331
393E8
331
393F3
331
393F4
331
393FF
331
39400
331
3940B
331
3940C
331
3941A
331
3941B
331
39428
331
39429
331
39434
331
39435
331
39440
331
39441
331
3AE42
331
3AE43
331
3AE54
331
3AE55
331
3AE5D
331
3AE5E
331
3ADF1
331
3ADF2
331
3ADFA
331
3ADFB
331
3AE0C
331
3AE0D
331
3AE1E
331
3AE1F
331
3AE39
331
3AE3A
331
3944C
331
3944D
102
}
 70
     0
280
     1
281
     0
  0
BLOCK_RECORD
  5
11932
330
1
100
AcDbSymbolTableRecord
100
AcDbBlockTableRecord
  2
*D1
340
0
 70
     0
280
     1
281
     0
  0
BLOCK_RECORD
  5
1197B
330
1
100
AcDbSymbolTableRecord
100
AcDbBlockTableRecord
  2
*D2
340
0
 70
     0
280
     1
281
     0
  0
BLOCK_RECORD
  5
11991
330
1
100
AcDbSymbolTableRecord
100
AcDbBlockTableRecord
  2
*D3
340
0
 70
     0
280
     1
281
     0
  0
BLOCK_RECORD
  5
121AA
330
1
100
AcDbSymbolTableRecord
100
AcDbBlockTableRecord
  2
*D4
340
0
 70
     0
280
     1
281
     0
  0
BLOCK_RECORD
  5
121D2
330
1
100
AcDbSymbolTableRecord
100
AcDbBlockTableRecord
  2
*D5
340
0
 70
     0
280
     1
281
     0
  0
BLOCK_RECORD
  5
123B9
330
1
100
AcDbSymbolTableRecord
100
AcDbBlockTableRecord
  2
*D6
340
0
 70
     0
280
     1
281
     0
  0
BLOCK_RECORD
  5
1255D
330
1
100
AcDbSymbolTableRecord
100
AcDbBlockTableRecord
  2
*D7
340
0
 70
     0
280
     1
281
     0
  0
BLOCK_RECORD
  5
12569
330
1
100
AcDbSymbolTableRecord
100
AcDbBlockTableRecord
  2
*D8
340
0
 70
     0
280
     1
281
     0
  0
BLOCK_RECORD
  5
13130
330
1
100
AcDbSymbolTableRecord
100
AcDbBlockTableRecord
  2
*D9
340
0
 70
     0
280
     1
281
     0
  0
BLOCK_RECORD
  5
137FA
330
1
100
AcDbSymbolTableRecord
100
AcDbBlockTableRecord
  2
*D10
340
0
 70
     0
280
     1
281
     0
  0
BLOCK_RECORD
  5
38054
330
1
100
AcDbSymbolTableRecord
100
AcDbBlockTableRecord
  2
*D11
340
0
 70
     0
280
     1
281
     0
  0
BLOCK_RECORD
  5
3806C
330
1
100
AcDbSymbolTableRecord
100
AcDbBlockTableRecord
  2
*D12
340
0
 70
     0
280
     1
281
     0
  0
BLOCK_RECORD
  5
38075
330
1
100
AcDbSymbolTableRecord
100
AcDbBlockTableRecord
  2
*D13
340
0
 70
     0
280
     1
281
     0
  0
BLOCK_RECORD
  5
382DD
330
1
100
AcDbSymbolTableRecord
100
AcDbBlockTableRecord
  2
*D14
340
0
 70
     0
280
     1
281
     0
  0
BLOCK_RECORD
  5
3925D
330
1
100
AcDbSymbolTableRecord
100
AcDbBlockTableRecord
  2
*D15
340
0
 70
     0
280
     1
281
     0
  0
BLOCK_RECORD
  5
39269
330
1
100
AcDbSymbolTableRecord
100
AcDbBlockTableRecord
  2
*D16
340
0
 70
     0
280
     1
281
     0
  0
BLOCK_RECORD
  5
39275
330
1
100
AcDbSymbolTableRecord
100
AcDbBlockTableRecord
  2
*D17
340
0
 70
     0
280
     1
281
     0
  0
BLOCK_RECORD
  5
3928D
330
1
100
AcDbSymbolTableRecord
100
AcDbBlockTableRecord
  2
*D18
340
0
 70
     0
280
     1
281
     0
  0
BLOCK_RECORD
  5
39299
330
1
100
AcDbSymbolTableRecord
100
AcDbBlockTableRecord
  2
*D19
340
0
 70
     0
280
     1
281
     0
  0
BLOCK_RECORD
  5
392A8
330
1
100
AcDbSymbolTableRecord
100
AcDbBlockTableRecord
  2
*D20
340
0
 70
     0
280
     1
281
     0
  0
BLOCK_RECORD
  5
392B6
330
1
100
AcDbSymbolTableRecord
100
AcDbBlockTableRecord
  2
*D21
340
0
 70
     0
280
     1
281
     0
  0
BLOCK_RECORD
  5
392C2
330
1
100
AcDbSymbolTableRecord
100
AcDbBlockTableRecord
  2
*D22
340
0
 70
     0
280
     1
281
     0
  0
BLOCK_RECORD
  5
392CE
330
1
100
AcDbSymbolTableRecord
100
AcDbBlockTableRecord
  2
*D23
340
0
 70
     0
280
     1
281
     0
  0
BLOCK_RECORD
  5
392DA
330
1
100
AcDbSymbolTableRecord
100
AcDbBlockTableRecord
  2
*D24
340
0
 70
     0
280
     1
281
     0
  0
BLOCK_RECORD
  5
392F2
330
1
100
AcDbSymbolTableRecord
100
AcDbBlockTableRecord
  2
*D25
340
0
 70
     0
280
     1
281
     0
  0
BLOCK_RECORD
  5
3930A
330
1
100
AcDbSymbolTableRecord
100
AcDbBlockTableRecord
  2
*D26
340
0
 70
     0
280
     1
281
     0
  0
BLOCK_RECORD
  5
39317
330
1
100
AcDbSymbolTableRecord
100
AcDbBlockTableRecord
  2
*D27
340
0
 70
     0
280
     1
281
     0
  0
BLOCK_RECORD
  5
39325
330
1
100
AcDbSymbolTableRecord
100
AcDbBlockTableRecord
  2
*D28
340
0
 70
     0
280
     1
281
     0
  0
BLOCK_RECORD
  5
393D6
330
1
100
AcDbSymbolTableRecord
100
AcDbBlockTableRecord
  2
*D29
340
0
 70
     0
280
     1
281
     0
  0
BLOCK_RECORD
  5
393E2
330
1
100
AcDbSymbolTableRecord
100
AcDbBlockTableRecord
  2
*D30
340
0
 70
     0
280
     1
281
     0
  0
BLOCK_RECORD
  5
393EE
330
1
100
AcDbSymbolTableRecord
100
AcDbBlockTableRecord
  2
*D31
340
0
 70
     0
280
     1
281
     0
  0
BLOCK_RECORD
  5
393FA
330
1
100
AcDbSymbolTableRecord
100
AcDbBlockTableRecord
  2
*D32
340
0
 70
     0
280
     1
281
     0
  0
BLOCK_RECORD
  5
39406
330
1
100
AcDbSymbolTableRecord
100
AcDbBlockTableRecord
  2
*D33
340
0
 70
     0
280
     1
281
     0
  0
BLOCK_RECORD
  5
39412
330
1
100
AcDbSymbolTableRecord
100
AcDbBlockTableRecord
  2
*D34
340
0
 70
     0
280
     1
281
     0
  0
BLOCK_RECORD
  5
39421
330
1
100
AcDbSymbolTableRecord
100
AcDbBlockTableRecord
  2
*D35
340
0
 70
     0
280
     1
281
     0
  0
BLOCK_RECORD
  5
3942F
330
1
100
AcDbSymbolTableRecord
100
AcDbBlockTableRecord
  2
*D36
340
0
 70
     0
280
     1
281
     0
  0
BLOCK_RECORD
  5
3943B
330
1
100
AcDbSymbolTableRecord
100
AcDbBlockTableRecord
  2
*D37
340
0
 70
     0
280
     1
281
     0
  0
BLOCK_RECORD
  5
39447
330
1
100
AcDbSymbolTableRecord
100
AcDbBlockTableRecord
  2
*D38
340
0
 70
     0
280
     1
281
     0
  0
BLOCK_RECORD
  5
39453
330
1
100
AcDbSymbolTableRecord
100
AcDbBlockTableRecord
  2
*D39
340
0
 70
     0
280
     1
281
     0
  0
BLOCK_RECORD
  5
3945F
330
1
100
AcDbSymbolTableRecord
100
AcDbBlockTableRecord
  2
*D40
340
0
 70
     0
280
     1
281
     0
  0
BLOCK_RECORD
  5
3946B
330
1
100
AcDbSymbolTableRecord
100
AcDbBlockTableRecord
  2
*D41
340
0
 70
     0
280
     1
281
     0
  0
BLOCK_RECORD
  5
39477
330
1
100
AcDbSymbolTableRecord
100
AcDbBlockTableRecord
  2
*D42
340
0
 70
     0
280
     1
281
     0
  0
BLOCK_RECORD
  5
39483
330
1
100
AcDbSymbolTableRecord
100
AcDbBlockTableRecord
  2
*D43
340
0
 70
     0
280
     1
281
     0
  0
BLOCK_RECORD
  5
39490
330
1
100
AcDbSymbolTableRecord
100
AcDbBlockTableRecord
  2
*D44
340
0
 70
     0
280
     1
281
     0
  0
BLOCK_RECORD
  5
3949E
330
1
100
AcDbSymbolTableRecord
100
AcDbBlockTableRecord
  2
*D45
340
0
 70
     0
280
     1
281
     0
  0
BLOCK_RECORD
  5
394AC
102
{ACAD_XDICTIONARY
360
394E9
102
}
330
1
100
AcDbSymbolTableRecord
100
AcDbBlockTableRecord
  2
A$C3C2E0B6F
340
0
 70
     0
280
     1
281
     0
  0
BLOCK_RECORD
  5
394F7
330
1
100
AcDbSymbolTableRecord
100
AcDbBlockTableRecord
  2
*D47
340
0
 70
     0
280
     1
281
     0
  0
BLOCK_RECORD
  5
39504
330
1
100
AcDbSymbolTableRecord
100
AcDbBlockTableRecord
  2
*D48
340
0
 70
     0
280
     1
281
     0
  0
BLOCK_RECORD
  5
3951C
330
1
100
AcDbSymbolTableRecord
100
AcDbBlockTableRecord
  2
*D49
340
0
 70
     0
280
     1
281
     0
  0
BLOCK_RECORD
  5
3959E
330
1
100
AcDbSymbolTableRecord
100
AcDbBlockTableRecord
  2
*D50
340
0
 70
     0
280
     1
281
     0
  0
BLOCK_RECORD
  5
3ACBA
330
1
100
AcDbSymbolTableRecord
100
AcDbBlockTableRecord
  2
*D51
340
0
 70
     0
280
     1
281
     0
  0
BLOCK_RECORD
  5
3ACF8
330
1
100
AcDbSymbolTableRecord
100
AcDbBlockTableRecord
  2
*D52
340
0
 70
     0
280
     1
281
     0
  0
BLOCK_RECORD
  5
3ADB3
330
1
100
AcDbSymbolTableRecord
100
AcDbBlockTableRecord
  2
*D53
340
0
 70
     0
280
     1
281
     0
  0
ENDTAB
  0
ENDSEC
  0
SECTION
  2
BLOCKS
  0
BLOCK
  5
1F
330
1E
100
AcDbEntity
  8
0
100
AcDbBlockBegin
  2
*MODEL_SPACE
 70
     0
 10
0.0
 20
0.0
 30
0.0
  3
*MODEL_SPACE
  1

  0
ENDBLK
  5
20
330
1E
100
AcDbEntity
  8
0
100
AcDbBlockEnd
  0
BLOCK
  5
1B
330
1A
100
AcDbEntity
 67
     1
  8
0
100
AcDbBlockBegin
  2
*PAPER_SPACE
 70
     0
 10
0.0
 20
0.0
 30
0.0
  3
*PAPER_SPACE
  1

  0
ENDBLK
  5
1C
330
1A
100
AcDbEntity
 67
     1
  8
0
100
AcDbBlockEnd
  0
BLOCK
  5
3B6
330
3B2
100
AcDbEntity
  8
0
100
AcDbBlockBegin
  2
_OPEN
 70
     0
 10
0.0
 20
0.0
 30
0.0
  3
_OPEN
  1

  0
LINE
  5
3B3
330
3B2
100
AcDbEntity
  8
30
  6
Continuous
 62
     0
100
AcDbLine
 10
-1.0
 20
0.166667
 30
0.0
 11
0.0
 21
0.0
 31
0.0
  0
LINE
  5
3B4
330
3B2
100
AcDbEntity
  8
30
  6
Continuous
 62
     0
100
AcDbLine
 10
-1.0
 20
-0.166667
 30
0.0
 11
0.0
 21
0.0
 31
0.0
  0
LINE
  5
3B5
330
3B2
100
AcDbEntity
  8
30
  6
Continuous
 62
     0
100
AcDbLine
 10
0.0
 20
0.0
 30
0.0
 11
-1.0
 21
0.0
 31
0.0
  0
ENDBLK
  5
3B7
330
3B2
100
AcDbEntity
  8
0
100
AcDbBlockEnd
  0
BLOCK
  5
11933
330
11932
100
AcDbEntity
  8
0
100
AcDbBlockBegin
  2
*D1
 70
     1
 10
0.0
 20
0.0
 30
0.0
  3
*D1
  1

  0
LINE
  5
3AE1B
330
11932
100
AcDbEntity
  8
30
 62
     0
440
 16777216
370
    -2
100
AcDbLine
 10
94.79695648129018
 20
130.8234042003658
 30
0.0
 11
94.79695648129018
 21
86.82340420036593
 31
0.0
  0
LINE
  5
3AE1C
330
11932
100
AcDbEntity
  8
30
 62
     0
440
 16777216
370
    -2
100
AcDbLine
 10
129.7969564812902
 20
130.8234042003658
 30
0.0
 11
129.7969564812902
 21
86.82340420036593
 31
0.0
  0
LINE
  5
3AE1D
330
11932
100
AcDbEntity
  8
30
 62
     0
440
 16777216
370
    -2
100
AcDbLine
 10
97.7969564812902
 20
87.32340420036594
 30
0.0
 11
126.7969564812902
 21
87.32340420036594
 31
0.0
  0
INSERT
  5
3AE1E
330
11932
100
AcDbEntity
  8
30
 62
     0
440
 16777216
370
    -2
100
AcDbBlockReference
  2
_OPEN
 10
94.79695648129018
 20
87.32340420036594
 30
0.0
 41
3.0
 42
3.0
 43
3.0
 50
180.0
  0
INSERT
  5
3AE1F
330
11932
100
AcDbEntity
  8
30
 62
     0
440
 16777216
370
    -2
100
AcDbBlockReference
  2
_OPEN
 10
129.7969564812902
 20
87.32340420036594
 30
0.0
 41
3.0
 42
3.0
 43
3.0
  0
MTEXT
  5
3AE20
330
11932
100
AcDbEntity
  8
30
 62
     0
440
 16777216
100
AcDbMText
 10
112.2969564812902
 20
93.82340420036594
 30
0.0
 40
7.0
 41
0.0
 46
0.0
 71
     5
 72
     1
  1
\A1;35
 73
     1
 44
1.0
 90
        3
 63
     9
421
 13158600
 45
1.25
441
        0
  0
POINT
  5
3AE21
330
11932
100
AcDbEntity
  8
DEFPOINTS
 62
     0
440
 16777216
100
AcDbPoint
 10
94.79695648129018
 20
131.8234042003658
 30
0.0
  0
POINT
  5
3AE22
330
11932
100
AcDbEntity
  8
DEFPOINTS
 62
     0
440
 16777216
100
AcDbPoint
 10
129.7969564812902
 20
131.8234042003658
 30
0.0
  0
POINT
  5
3AE23
330
11932
100
AcDbEntity
  8
DEFPOINTS
 62
     0
440
 16777216
100
AcDbPoint
 10
129.7969564812902
 20
87.32340420036594
 30
0.0
  0
ENDBLK
  5
11934
330
11932
100
AcDbEntity
  8
0
100
AcDbBlockEnd
  0
BLOCK
  5
1197C
330
1197B
100
AcDbEntity
  8
0
100
AcDbBlockBegin
  2
*D2
 70
     1
 10
0.0
 20
0.0
 30
0.0
  3
*D2
  1

  0
LINE
  5
3AAE2
330
1197B
100
AcDbEntity
  8
30
 62
     0
440
 16777216
370
    -2
100
AcDbLine
 10
77.29695648129018
 20
104.8234042003657
 30
0.0
 11
77.29695648129018
 21
69.93412851759328
 31
0.0
  0
LINE
  5
3AAE3
330
1197B
100
AcDbEntity
  8
30
 62
     0
440
 16777216
370
    -2
100
AcDbLine
 10
112.2969564812902
 20
86.32340420036594
 30
0.0
 11
112.2969564812902
 21
69.93412851759328
 31
0.0
  0
LINE
  5
3AAE4
330
1197B
100
AcDbEntity
  8
30
 62
     0
440
 16777216
370
    -2
100
AcDbLine
 10
80.29695648129019
 20
70.43412851759327
 30
0.0
 11
109.2969564812902
 21
70.43412851759327
 31
0.0
  0
INSERT
  5
3AAE5
330
1197B
100
AcDbEntity
  8
30
 62
     0
440
 16777216
370
    -2
100
AcDbBlockReference
  2
_OPEN
 10
77.29695648129018
 20
70.43412851759327
 30
0.0
 41
3.0
 42
3.0
 43
3.0
 50
180.0
  0
INSERT
  5
3AAE6
330
1197B
100
AcDbEntity
  8
30
 62
     0
440
 16777216
370
    -2
100
AcDbBlockReference
  2
_OPEN
 10
112.2969564812902
 20
70.43412851759327
 30
0.0
 41
3.0
 42
3.0
 43
3.0
  0
MTEXT
  5
3AAE7
330
1197B
100
AcDbEntity
  8
30
 62
     0
440
 16777216
100
AcDbMText
 10
94.79695648129018
 20
76.93412851759328
 30
0.0
 40
7.0
 41
0.0
 46
0.0
 71
     5
 72
     1
  1
\A1;35
 73
     1
 44
1.0
 90
        3
 63
     9
421
 13158600
 45
1.25
441
        0
  0
POINT
  5
3AAE8
330
1197B
100
AcDbEntity
  8
DEFPOINTS
 62
     0
440
 16777216
100
AcDbPoint
 10
77.29695648129018
 20
105.8234042003658
 30
0.0
  0
POINT
  5
3AAE9
330
1197B
100
AcDbEntity
  8
DEFPOINTS
 62
     0
440
 16777216
100
AcDbPoint
 10
112.2969564812902
 20
87.32340420036594
 30
0.0
  0
POINT
  5
3AAEA
330
1197B
100
AcDbEntity
  8
DEFPOINTS
 62
     0
440
 16777216
100
AcDbPoint
 10
112.2969564812902
 20
70.43412851759327
 30
0.0
  0
ENDBLK
  5
1197D
330
1197B
100
AcDbEntity
  8
0
100
AcDbBlockEnd
  0
BLOCK
  5
11992
330
11991
100
AcDbEntity
  8
0
100
AcDbBlockBegin
  2
*D3
 70
     1
 10
0.0
 20
0.0
 30
0.0
  3
*D3
  1

  0
LINE
  5
3AAEB
330
11991
100
AcDbEntity
  8
30
 62
     0
440
 16777216
370
    -2
100
AcDbLine
 10
147.2969564812902
 20
104.8234042003657
 30
0.0
 11
147.2969564812902
 21
69.93412851759328
 31
0.0
  0
LINE
  5
3AAEC
330
11991
100
AcDbEntity
  8
30
 62
     0
440
 16777216
370
    -2
100
AcDbLine
 10
112.2969564812902
 20
86.32340420036594
 30
0.0
 11
112.2969564812902
 21
69.93412851759328
 31
0.0
  0
LINE
  5
3AAED
330
11991
100
AcDbEntity
  8
30
 62
     0
440
 16777216
370
    -2
100
AcDbLine
 10
144.2969564812901
 20
70.43412851759327
 30
0.0
 11
115.2969564812902
 21
70.43412851759327
 31
0.0
  0
INSERT
  5
3AAEE
330
11991
100
AcDbEntity
  8
30
 62
     0
440
 16777216
370
    -2
100
AcDbBlockReference
  2
_OPEN
 10
147.2969564812902
 20
70.43412851759327
 30
0.0
 41
3.0
 42
3.0
 43
3.0
  0
INSERT
  5
3AAEF
330
11991
100
AcDbEntity
  8
30
 62
     0
440
 16777216
370
    -2
100
AcDbBlockReference
  2
_OPEN
 10
112.2969564812902
 20
70.43412851759327
 30
0.0
 41
3.0
 42
3.0
 43
3.0
 50
180.0
  0
MTEXT
  5
3AAF0
330
11991
100
AcDbEntity
  8
30
 62
     0
440
 16777216
100
AcDbMText
 10
129.7969564812902
 20
76.93412851759328
 30
0.0
 40
7.0
 41
0.0
 46
0.0
 71
     5
 72
     1
  1
\A1;35
 73
     1
 44
1.0
 90
        3
 63
     9
421
 13158600
 45
1.25
441
        0
  0
POINT
  5
3AAF1
330
11991
100
AcDbEntity
  8
DEFPOINTS
 62
     0
440
 16777216
100
AcDbPoint
 10
147.2969564812902
 20
105.8234042003658
 30
0.0
  0
POINT
  5
3AAF2
330
11991
100
AcDbEntity
  8
DEFPOINTS
 62
     0
440
 16777216
100
AcDbPoint
 10
112.2969564812902
 20
87.32340420036594
 30
0.0
  0
POINT
  5
3AAF3
330
11991
100
AcDbEntity
  8
DEFPOINTS
 62
     0
440
 16777216
100
AcDbPoint
 10
112.2969564812902
 20
70.43412851759327
 30
0.0
  0
ENDBLK
  5
11993
330
11991
100
AcDbEntity
  8
0
100
AcDbBlockEnd
  0
BLOCK
  5
121AB
330
121AA
100
AcDbEntity
  8
0
100
AcDbBlockBegin
  2
*D4
 70
     1
 10
0.0
 20
0.0
 30
0.0
  3
*D4
  1

  0
LINE
  5
3AAF4
330
121AA
100
AcDbEntity
  8
30
 62
     0
440
 16777216
370
    -2
100
AcDbLine
 10
112.2969564812902
 20
824.9121723739504
 30
0.0
 11
112.2969564812902
 21
832.4121723739509
 31
0.0
  0
LINE
  5
3AAF5
330
121AA
100
AcDbEntity
  8
30
 62
     0
440
 16777216
370
    -2
100
AcDbLine
 10
77.29695648129018
 20
787.9121723739508
 30
0.0
 11
77.29695648129018
 21
832.4121723739509
 31
0.0
  0
LINE
  5
3AAF6
330
121AA
100
AcDbEntity
  8
30
 62
     0
440
 16777216
370
    -2
100
AcDbLine
 10
110.2969564812902
 20
831.9121723739508
 30
0.0
 11
79.29695648129018
 21
831.9121723739508
 31
0.0
  0
INSERT
  5
3AAF7
330
121AA
100
AcDbEntity
  8
30
 62
     0
440
 16777216
370
    -2
100
AcDbBlockReference
  2
_OPEN
 10
112.2969564812902
 20
831.9121723739508
 30
0.0
 41
2.0
 42
2.0
 43
2.0
  0
INSERT
  5
3AAF8
330
121AA
100
AcDbEntity
  8
30
 62
     0
440
 16777216
370
    -2
100
AcDbBlockReference
  2
_OPEN
 10
77.29695648129018
 20
831.9121723739508
 30
0.0
 41
2.0
 42
2.0
 43
2.0
 50
180.0
  0
MTEXT
  5
3AAF9
330
121AA
100
AcDbEntity
  8
30
 62
     0
440
 16777216
100
AcDbMText
 10
94.79695648129018
 20
837.4121723739508
 30
0.0
 40
7.0
 41
0.0
 46
0.0
 71
     5
 72
     1
  1
\A1;35
 73
     1
 44
1.0
  0
POINT
  5
3AAFA
330
121AA
100
AcDbEntity
  8
DEFPOINTS
 62
     0
440
 16777216
100
AcDbPoint
 10
112.2969564812902
 20
821.9121723739501
 30
0.0
  0
POINT
  5
3AAFB
330
121AA
100
AcDbEntity
  8
DEFPOINTS
 62
     0
440
 16777216
100
AcDbPoint
 10
77.29695648129018
 20
784.9121723739508
 30
0.0
  0
POINT
  5
3AAFC
330
121AA
100
AcDbEntity
  8
DEFPOINTS
 62
     0
440
 16777216
100
AcDbPoint
 10
77.29695648129018
 20
831.9121723739508
 30
0.0
  0
ENDBLK
  5
121AC
330
121AA
100
AcDbEntity
  8
0
100
AcDbBlockEnd
  0
BLOCK
  5
121D3
330
121D2
100
AcDbEntity
  8
0
100
AcDbBlockBegin
  2
*D5
 70
     1
 10
0.0
 20
0.0
 30
0.0
  3
*D5
  1

  0
LINE
  5
3AD4F
330
121D2
100
AcDbEntity
  8
30
 62
     0
440
 16777216
370
    -2
100
AcDbLine
 10
112.2969564812902
 20
824.9121723739504
 30
0.0
 11
112.2969564812902
 21
832.4121723739509
 31
0.0
  0
LINE
  5
3AD50
330
121D2
100
AcDbEntity
  8
30
 62
     0
440
 16777216
370
    -2
100
AcDbLine
 10
147.2969564812902
 20
787.9121723739508
 30
0.0
 11
147.2969564812902
 21
832.4121723739509
 31
0.0
  0
LINE
  5
3AD51
330
121D2
100
AcDbEntity
  8
30
 62
     0
440
 16777216
370
    -2
100
AcDbLine
 10
114.2969564812902
 20
831.9121723739508
 30
0.0
 11
145.2969564812901
 21
831.9121723739508
 31
0.0
  0
INSERT
  5
3AD52
330
121D2
100
AcDbEntity
  8
30
 62
     0
440
 16777216
370
    -2
100
AcDbBlockReference
  2
_OPEN
 10
112.2969564812902
 20
831.9121723739508
 30
0.0
 41
2.0
 42
2.0
 43
2.0
 50
180.0
  0
INSERT
  5
3AD53
330
121D2
100
AcDbEntity
  8
30
 62
     0
440
 16777216
370
    -2
100
AcDbBlockReference
  2
_OPEN
 10
147.2969564812902
 20
831.9121723739508
 30
0.0
 41
2.0
 42
2.0
 43
2.0
  0
MTEXT
  5
3AD54
330
121D2
100
AcDbEntity
  8
30
 62
     0
440
 16777216
100
AcDbMText
 10
129.7969564812902
 20
837.4121723739508
 30
0.0
 40
7.0
 41
0.0
 46
0.0
 71
     5
 72
     1
  1
\A1;35
 73
     1
 44
1.0
  0
POINT
  5
3AD55
330
121D2
100
AcDbEntity
  8
DEFPOINTS
 62
     0
440
 16777216
100
AcDbPoint
 10
112.2969564812902
 20
821.9121723739501
 30
0.0
  0
POINT
  5
3AD56
330
121D2
100
AcDbEntity
  8
DEFPOINTS
 62
     0
440
 16777216
100
AcDbPoint
 10
147.2969564812902
 20
784.9121723739508
 30
0.0
  0
POINT
  5
3AD57
330
121D2
100
AcDbEntity
  8
DEFPOINTS
 62
     0
440
 16777216
100
AcDbPoint
 10
147.2969564812902
 20
831.9121723739508
 30
0.0
  0
ENDBLK
  5
121D4
330
121D2
100
AcDbEntity
  8
0
100
AcDbBlockEnd
  0
BLOCK
  5
123BA
330
123B9
100
AcDbEntity
  8
0
100
AcDbBlockBegin
  2
*D6
 70
     1
 10
0.0
 20
0.0
 30
0.0
  3
*D6
  1

  0
LINE
  5
3AC7F
330
123B9
100
AcDbEntity
  8
30
 62
     0
440
 16777216
370
    -2
100
AcDbLine
 10
167.3755336930298
 20
552.3234042003658
 30
0.0
 11
193.7019983128367
 21
552.3234042003658
 31
0.0
  0
LINE
  5
3AC80
330
123B9
100
AcDbEntity
  8
30
 62
     0
440
 16777216
370
    -2
100
AcDbLine
 10
167.3755336930298
 20
387.3234042003659
 30
0.0
 11
193.7019983128367
 21
387.3234042003659
 31
0.0
  0
LINE
  5
3AC81
330
123B9
100
AcDbEntity
  8
30
 62
     0
440
 16777216
370
    -2
100
AcDbLine
 10
193.2019983128367
 20
549.3234042003658
 30
0.0
 11
193.2019983128367
 21
390.3234042003658
 31
0.0
  0
INSERT
  5
3AC82
330
123B9
100
AcDbEntity
  8
30
 62
     0
440
 16777216
370
    -2
100
AcDbBlockReference
  2
_OPEN
 10
193.2019983128367
 20
552.3234042003658
 30
0.0
 41
3.0
 42
3.0
 43
3.0
 50
90.0
  0
INSERT
  5
3AC83
330
123B9
100
AcDbEntity
  8
30
 62
     0
440
 16777216
370
    -2
100
AcDbBlockReference
  2
_OPEN
 10
193.2019983128367
 20
387.3234042003659
 30
0.0
 41
3.0
 42
3.0
 43
3.0
 50
270.0
  0
MTEXT
  5
3AC84
330
123B9
100
AcDbEntity
  8
30
 62
     0
440
 16777216
100
AcDbMText
 10
186.7019983128366
 20
469.8234042003658
 30
0.0
 40
7.0
 41
0.0
 46
0.0
 71
     5
 72
     1
  1
\A1;165
 11
0.0000000000000001
 21
1.0
 31
0.0
 73
     1
 44
1.0
 90
        3
 63
     9
421
 13158600
 45
1.25
441
        0
  0
POINT
  5
3AC85
330
123B9
100
AcDbEntity
  8
DEFPOINTS
 62
     0
440
 16777216
100
AcDbPoint
 10
166.3755336930298
 20
552.3234042003658
 30
0.0
  0
POINT
  5
3AC86
330
123B9
100
AcDbEntity
  8
DEFPOINTS
 62
     0
440
 16777216
100
AcDbPoint
 10
166.3755336930298
 20
387.3234042003659
 30
0.0
  0
POINT
  5
3AC87
330
123B9
100
AcDbEntity
  8
DEFPOINTS
 62
     0
440
 16777216
100
AcDbPoint
 10
193.2019983128367
 20
387.3234042003659
 30
0.0
  0
ENDBLK
  5
123BB
330
123B9
100
AcDbEntity
  8
0
100
AcDbBlockEnd
  0
BLOCK
  5
1255E
330
1255D
100
AcDbEntity
  8
0
100
AcDbBlockBegin
  2
*D7
 70
     1
 10
0.0
 20
0.0
 30
0.0
  3
*D7
  1

  0
LINE
  5
3AE36
330
1255D
100
AcDbEntity
  8
30
 62
     0
440
 16777216
370
    -2
100
AcDbLine
 10
165.2969564812897
 20
266.8234042003657
 30
0.0
 11
210.9888224101652
 21
266.8234042003657
 31
0.0
  0
LINE
  5
3AE37
330
1255D
100
AcDbEntity
  8
30
 62
     0
440
 16777216
370
    -2
100
AcDbLine
 10
165.2969564812897
 20
122.8234042003659
 30
0.0
 11
210.9888224101651
 21
122.8234042003659
 31
0.0
  0
LINE
  5
3AE38
330
1255D
100
AcDbEntity
  8
30
 62
     0
440
 16777216
370
    -2
100
AcDbLine
 10
210.4888224101651
 20
263.8234042003657
 30
0.0
 11
210.4888224101651
 21
125.8234042003659
 31
0.0
  0
INSERT
  5
3AE39
330
1255D
100
AcDbEntity
  8
30
 62
     0
440
 16777216
370
    -2
100
AcDbBlockReference
  2
_OPEN
 10
210.4888224101651
 20
266.8234042003657
 30
0.0
 41
3.0
 42
3.0
 43
3.0
 50
90.0
  0
INSERT
  5
3AE3A
330
1255D
100
AcDbEntity
  8
30
 62
     0
440
 16777216
370
    -2
100
AcDbBlockReference
  2
_OPEN
 10
210.4888224101651
 20
122.8234042003659
 30
0.0
 41
3.0
 42
3.0
 43
3.0
 50
270.0
  0
MTEXT
  5
3AE3B
330
1255D
100
AcDbEntity
  8
30
 62
     0
440
 16777216
100
AcDbMText
 10
203.9888224101651
 20
194.8234042003658
 30
0.0
 40
7.0
 41
0.0
 46
0.0
 71
     5
 72
     1
  1
\A1;144
 11
0.0000000000000001
 21
1.0
 31
0.0
 73
     1
 44
1.0
 90
        3
 63
     9
421
 13158600
 45
1.25
441
        0
  0
POINT
  5
3AE3C
330
1255D
100
AcDbEntity
  8
DEFPOINTS
 62
     0
440
 16777216
100
AcDbPoint
 10
164.2969564812897
 20
266.8234042003657
 30
0.0
  0
POINT
  5
3AE3D
330
1255D
100
AcDbEntity
  8
DEFPOINTS
 62
     0
440
 16777216
100
AcDbPoint
 10
164.2969564812897
 20
122.8234042003659
 30
0.0
  0
POINT
  5
3AE3E
330
1255D
100
AcDbEntity
  8
DEFPOINTS
 62
     0
440
 16777216
100
AcDbPoint
 10
210.4888224101651
 20
122.8234042003659
 30
0.0
  0
ENDBLK
  5
1255F
330
1255D
100
AcDbEntity
  8
0
100
AcDbBlockEnd
  0
BLOCK
  5
1256A
330
12569
100
AcDbEntity
  8
0
100
AcDbBlockBegin
  2
*D8
 70
     1
 10
0.0
 20
0.0
 30
0.0
  3
*D8
  1

  0
LINE
  5
3AE3F
330
12569
100
AcDbEntity
  8
30
 62
     0
440
 16777216
370
    -2
100
AcDbLine
 10
130.7969564812902
 20
257.8234042003659
 30
0.0
 11
194.5232497783363
 21
257.8234042003659
 31
0.0
  0
LINE
  5
3AE40
330
12569
100
AcDbEntity
  8
30
 62
     0
440
 16777216
370
    -2
100
AcDbLine
 10
130.7969564812902
 20
131.8234042003658
 30
0.0
 11
194.5232497783363
 21
131.8234042003657
 31
0.0
  0
LINE
  5
3AE41
330
12569
100
AcDbEntity
  8
30
 62
     0
440
 16777216
370
    -2
100
AcDbLine
 10
194.0232497783363
 20
254.8234042003659
 30
0.0
 11
194.0232497783363
 21
134.8234042003657
 31
0.0
  0
INSERT
  5
3AE42
330
12569
100
AcDbEntity
  8
30
 62
     0
440
 16777216
370
    -2
100
AcDbBlockReference
  2
_OPEN
 10
194.0232497783363
 20
257.8234042003659
 30
0.0
 41
3.0
 42
3.0
 43
3.0
 50
90.0
  0
INSERT
  5
3AE43
330
12569
100
AcDbEntity
  8
30
 62
     0
440
 16777216
370
    -2
100
AcDbBlockReference
  2
_OPEN
 10
194.0232497783363
 20
131.8234042003657
 30
0.0
 41
3.0
 42
3.0
 43
3.0
 50
270.0
  0
MTEXT
  5
3AE44
330
12569
100
AcDbEntity
  8
30
 62
     0
440
 16777216
100
AcDbMText
 10
187.5232497783363
 20
194.8234042003656
 30
0.0
 40
7.0
 41
0.0
 46
0.0
 71
     5
 72
     1
  1
\A1;126
 11
0.0000000000000001
 21
1.0
 31
0.0
 73
     1
 44
1.0
 90
        3
 63
     9
421
 13158600
 45
1.25
441
        0
  0
POINT
  5
3AE45
330
12569
100
AcDbEntity
  8
DEFPOINTS
 62
     0
440
 16777216
100
AcDbPoint
 10
129.7969564812902
 20
257.8234042003659
 30
0.0
  0
POINT
  5
3AE46
330
12569
100
AcDbEntity
  8
DEFPOINTS
 62
     0
440
 16777216
100
AcDbPoint
 10
129.7969564812902
 20
131.8234042003658
 30
0.0
  0
POINT
  5
3AE47
330
12569
100
AcDbEntity
  8
DEFPOINTS
 62
     0
440
 16777216
100
AcDbPoint
 10
194.0232497783363
 20
131.8234042003657
 30
0.0
  0
ENDBLK
  5
1256B
330
12569
100
AcDbEntity
  8
0
100
AcDbBlockEnd
  0
BLOCK
  5
13131
330
13130
100
AcDbEntity
  8
0
100
AcDbBlockBegin
  2
*D9
 70
     1
 10
0.0
 20
0.0
 30
0.0
  3
*D9
  1

  0
LINE
  5
3AB45
330
13130
100
AcDbEntity
  8
30
 62
     0
440
 16777216
370
    -2
100
AcDbLine
 10
261.2270991330283
 20
166.823404200366
 30
0.0
 11
261.2270991330283
 21
86.82340420036593
 31
0.0
  0
LINE
  5
3AB46
330
13130
100
AcDbEntity
  8
30
 62
     0
440
 16777216
370
    -2
100
AcDbLine
 10
361.2270991330283
 20
166.823404200366
 30
0.0
 11
361.2270991330283
 21
86.82340420036593
 31
0.0
  0
LINE
  5
3AB47
330
13130
100
AcDbEntity
  8
30
 62
     0
440
 16777216
370
    -2
100
AcDbLine
 10
264.2270991330283
 20
87.32340420036594
 30
0.0
 11
358.2270991330283
 21
87.32340420036594
 31
0.0
  0
INSERT
  5
3AB48
330
13130
100
AcDbEntity
  8
30
 62
     0
440
 16777216
370
    -2
100
AcDbBlockReference
  2
_OPEN
 10
261.2270991330283
 20
87.32340420036594
 30
0.0
 41
3.0
 42
3.0
 43
3.0
 50
180.0
  0
INSERT
  5
3AB49
330
13130
100
AcDbEntity
  8
30
 62
     0
440
 16777216
370
    -2
100
AcDbBlockReference
  2
_OPEN
 10
361.2270991330283
 20
87.32340420036594
 30
0.0
 41
3.0
 42
3.0
 43
3.0
  0
MTEXT
  5
3AB4A
330
13130
100
AcDbEntity
  8
30
 62
     0
440
 16777216
100
AcDbMText
 10
311.2270991330283
 20
93.82340420036594
 30
0.0
 40
7.0
 41
0.0
 46
0.0
 71
     5
 72
     1
  1
\A1;100
 73
     1
 44
1.0
 90
        3
 63
     9
421
 13158600
 45
1.25
441
        0
  0
POINT
  5
3AB4B
330
13130
100
AcDbEntity
  8
DEFPOINTS
 62
     0
440
 16777216
100
AcDbPoint
 10
261.2270991330283
 20
167.823404200366
 30
0.0
  0
POINT
  5
3AB4C
330
13130
100
AcDbEntity
  8
DEFPOINTS
 62
     0
440
 16777216
100
AcDbPoint
 10
361.2270991330283
 20
167.823404200366
 30
0.0
  0
POINT
  5
3AB4D
330
13130
100
AcDbEntity
  8
DEFPOINTS
 62
     0
440
 16777216
100
AcDbPoint
 10
361.2270991330283
 20
87.32340420036594
 30
0.0
  0
ENDBLK
  5
13132
330
13130
100
AcDbEntity
  8
0
100
AcDbBlockEnd
  0
BLOCK
  5
137FB
330
137FA
100
AcDbEntity
  8
0
100
AcDbBlockBegin
  2
*D10
 70
     1
 10
0.0
 20
0.0
 30
0.0
  3
*D10
  1

  0
LINE
  5
3AD62
330
137FA
100
AcDbEntity
  8
30
 62
     0
440
 16777216
370
    -2
100
AcDbLine
 10
101.2969564812907
 20
443.8234042003657
 30
0.0
 11
101.2969564812907
 21
429.0203668874915
 31
0.0
  0
LINE
  5
3AD63
330
137FA
100
AcDbEntity
  8
30
 62
     0
440
 16777216
370
    -2
100
AcDbLine
 10
123.2969564812907
 20
443.8234042003657
 30
0.0
 11
123.2969564812907
 21
429.0203668874915
 31
0.0
  0
LINE
  5
3AD64
330
137FA
100
AcDbEntity
  8
30
 62
     0
440
 16777216
370
    -2
100
AcDbLine
 10
104.2969564812907
 20
429.5203668874915
 30
0.0
 11
120.2969564812907
 21
429.5203668874915
 31
0.0
  0
LINE
  5
3AD65
330
137FA
100
AcDbEntity
  8
30
 62
     0
440
 16777216
370
    -2
100
AcDbLine
 10
123.2969564812907
 20
429.5203668874915
 30
0.0
 11
143.9636231479574
 21
429.5203668874915
 31
0.0
  0
INSERT
  5
3AD66
330
137FA
100
AcDbEntity
  8
30
 62
     0
440
 16777216
370
    -2
100
AcDbBlockReference
  2
_OPEN
 10
101.2969564812907
 20
429.5203668874915
 30
0.0
 41
3.0
 42
3.0
 43
3.0
 50
180.0
  0
INSERT
  5
3AD67
330
137FA
100
AcDbEntity
  8
30
 62
     0
440
 16777216
370
    -2
100
AcDbBlockReference
  2
_OPEN
 10
123.2969564812907
 20
429.5203668874915
 30
0.0
 41
3.0
 42
3.0
 43
3.0
  0
MTEXT
  5
3AD68
330
137FA
100
AcDbEntity
  8
30
 62
     0
440
 16777216
100
AcDbMText
 10
135.130289814624
 20
436.0203668874913
 30
0.0
 40
7.0
 41
0.0
 46
0.0
 71
     5
 72
     1
  1
\A1;22
 73
     1
 44
1.0
 90
        3
 63
     9
421
 13158600
 45
1.25
441
        0
  0
POINT
  5
3AD69
330
137FA
100
AcDbEntity
  8
DEFPOINTS
 62
     0
440
 16777216
100
AcDbPoint
 10
101.2969564812907
 20
444.8234042003658
 30
0.0
  0
POINT
  5
3AD6A
330
137FA
100
AcDbEntity
  8
DEFPOINTS
 62
     0
440
 16777216
100
AcDbPoint
 10
123.2969564812907
 20
444.8234042003658
 30
0.0
  0
POINT
  5
3AD6B
330
137FA
100
AcDbEntity
  8
DEFPOINTS
 62
     0
440
 16777216
100
AcDbPoint
 10
123.2969564812907
 20
429.5203668874915
 30
0.0
  0
ENDBLK
  5
137FC
330
137FA
100
AcDbEntity
  8
0
100
AcDbBlockEnd
  0
BLOCK
  5
38055
330
38054
100
AcDbEntity
  8
0
100
AcDbBlockBegin
  2
*D11
 70
     1
 10
0.0
 20
0.0
 30
0.0
  3
*D11
  1

  0
LINE
  5
3AE5A
330
38054
100
AcDbEntity
  8
30
 62
     0
440
 16777216
370
    -2
100
AcDbLine
 10
504.0871831019351
 20
218.8234042003661
 30
0.0
 11
576.0640869848921
 21
218.8234042003661
 31
0.0
  0
LINE
  5
3AE5B
330
38054
100
AcDbEntity
  8
30
 62
     0
440
 16777216
370
    -2
100
AcDbLine
 10
505.3864828579843
 20
170.8234042003661
 30
0.0
 11
576.0640869848921
 21
170.8234042003661
 31
0.0
  0
LINE
  5
3AE5C
330
38054
100
AcDbEntity
  8
30
 62
     0
440
 16777216
370
    -2
100
AcDbLine
 10
575.5640869848921
 20
215.8234042003661
 30
0.0
 11
575.5640869848921
 21
173.8234042003661
 31
0.0
  0
INSERT
  5
3AE5D
330
38054
100
AcDbEntity
  8
30
 62
     0
440
 16777216
370
    -2
100
AcDbBlockReference
  2
_OPEN
 10
575.5640869848921
 20
218.8234042003661
 30
0.0
 41
3.0
 42
3.0
 43
3.0
 50
90.0
  0
INSERT
  5
3AE5E
330
38054
100
AcDbEntity
  8
30
 62
     0
440
 16777216
370
    -2
100
AcDbBlockReference
  2
_OPEN
 10
575.5640869848921
 20
170.8234042003661
 30
0.0
 41
3.0
 42
3.0
 43
3.0
 50
270.0
  0
MTEXT
  5
3AE5F
330
38054
100
AcDbEntity
  8
30
 62
     0
440
 16777216
100
AcDbMText
 10
565.5640869848921
 20
194.8234042003661
 30
0.0
 40
7.0
 41
0.0
 46
0.0
 71
     2
 72
     1
  1
\A1;48
 11
0.0000000000000001
 21
1.0
 31
0.0
 73
     1
 44
1.0
 90
        3
 63
     9
421
 13158600
 45
1.25
441
        0
  0
POINT
  5
3AE60
330
38054
100
AcDbEntity
  8
DEFPOINTS
 62
     0
440
 16777216
100
AcDbPoint
 10
503.0871831019351
 20
218.8234042003661
 30
0.0
  0
POINT
  5
3AE61
330
38054
100
AcDbEntity
  8
DEFPOINTS
 62
     0
440
 16777216
100
AcDbPoint
 10
504.3864828579843
 20
170.8234042003661
 30
0.0
  0
POINT
  5
3AE62
330
38054
100
AcDbEntity
  8
DEFPOINTS
 62
     0
440
 16777216
100
AcDbPoint
 10
575.5640869848921
 20
170.8234042003661
 30
0.0
  0
ENDBLK
  5
38056
330
38054
100
AcDbEntity
  8
0
100
AcDbBlockEnd
  0
BLOCK
  5
3806D
330
3806C
100
AcDbEntity
  8
0
100
AcDbBlockBegin
  2
*D12
 70
     1
 10
0.0
 20
0.0
 30
0.0
  3
*D12
  1

  0
LINE
  5
3AB60
330
3806C
100
AcDbEntity
  8
30
  6
Continuous
 62
     0
440
 16777216
370
    -2
100
AcDbLine
 10
506.2487850770205
 20
220.1753885636336
 30
0.0
 11
510.0005933128798
 21
224.9137141772326
 31
0.0
  0
LINE
  5
3AB61
330
3806C
100
AcDbEntity
  8
30
  6
Continuous
 62
     0
440
 16777216
370
    -2
100
AcDbLine
 10
510.0005933128798
 20
224.9137141772326
 30
0.0
 11
521.3339266462134
 21
224.9137141772326
 31
0.0
  0
LINE
  5
3AB62
330
3806C
100
AcDbEntity
  8
30
  6
Continuous
 62
     0
440
 16777216
370
    -2
100
AcDbLine
 10
504.3864828579843
 20
217.8234042003661
 30
0.0
 11
505.0072502643354
 21
218.607398988129
 31
0.0
  0
INSERT
  5
3AB63
330
3806C
100
AcDbEntity
  8
30
  6
Continuous
 62
     0
440
 16777216
370
    -2
100
AcDbBlockReference
  2
_OPEN
 10
505.0072502643354
 20
218.607398988129
 30
0.0
 41
2.0
 42
2.0
 43
2.0
 50
231.6278037687645
  0
MTEXT
  5
3AB64
330
3806C
100
AcDbEntity
  8
30
  6
Continuous
 62
     0
440
 16777216
100
AcDbMText
 10
512.0005933128799
 20
233.9137141772326
 30
0.0
 40
7.0
 41
0.0
 46
0.0
 71
     1
 72
     1
  1
\A1;R1
 73
     1
 44
1.0
  0
POINT
  5
3AB65
330
3806C
100
AcDbEntity
  8
DEFPOINTS
  6
Continuous
 62
     0
440
 16777216
100
AcDbPoint
 10
505.0072502643354
 20
218.607398988129
 30
0.0
  0
POINT
  5
3AB66
330
3806C
100
AcDbEntity
  8
DEFPOINTS
  6
Continuous
 62
     0
440
 16777216
100
AcDbPoint
 10
504.3864828579843
 20
217.8234042003661
 30
0.0
  0
ENDBLK
  5
3806E
330
3806C
100
AcDbEntity
  8
0
100
AcDbBlockEnd
  0
BLOCK
  5
38076
330
38075
100
AcDbEntity
  8
0
100
AcDbBlockBegin
  2
*D13
 70
     1
 10
0.0
 20
0.0
 30
0.0
  3
*D13
  1

  0
LINE
  5
3AB67
330
38075
100
AcDbEntity
  8
30
 62
     0
440
 16777216
370
    -2
100
AcDbLine
 10
505.3864828579843
 20
168.8234042003661
 30
0.0
 11
505.3864828579843
 21
86.84821877855938
 31
0.0
  0
LINE
  5
3AB68
330
38075
100
AcDbEntity
  8
30
 62
     0
440
 16777216
370
    -2
100
AcDbLine
 10
481.3864828579843
 20
168.8234042003661
 30
0.0
 11
481.3864828579843
 21
86.84821877855938
 31
0.0
  0
LINE
  5
3AB69
330
38075
100
AcDbEntity
  8
30
 62
     0
440
 16777216
370
    -2
100
AcDbLine
 10
503.3864828579843
 20
87.3482187785594
 30
0.0
 11
483.3864828579843
 21
87.3482187785594
 31
0.0
  0
INSERT
  5
3AB6A
330
38075
100
AcDbEntity
  8
30
 62
     0
440
 16777216
370
    -2
100
AcDbBlockReference
  2
_OPEN
 10
505.3864828579843
 20
87.3482187785594
 30
0.0
 41
2.0
 42
2.0
 43
2.0
  0
INSERT
  5
3AB6B
330
38075
100
AcDbEntity
  8
30
 62
     0
440
 16777216
370
    -2
100
AcDbBlockReference
  2
_OPEN
 10
481.3864828579843
 20
87.3482187785594
 30
0.0
 41
2.0
 42
2.0
 43
2.0
 50
180.0
  0
MTEXT
  5
3AB6C
330
38075
100
AcDbEntity
  8
30
 62
     0
440
 16777216
100
AcDbMText
 10
493.3864828579843
 20
96.34821877855941
 30
0.0
 40
7.0
 41
0.0
 46
0.0
 71
     2
 72
     1
  1
\A1;24
 73
     1
 44
1.0
  0
POINT
  5
3AB6D
330
38075
100
AcDbEntity
  8
DEFPOINTS
 62
     0
440
 16777216
100
AcDbPoint
 10
505.3864828579843
 20
171.8234042003661
 30
0.0
  0
POINT
  5
3AB6E
330
38075
100
AcDbEntity
  8
DEFPOINTS
 62
     0
440
 16777216
100
AcDbPoint
 10
481.3864828579843
 20
171.8234042003661
 30
0.0
  0
POINT
  5
3AB6F
330
38075
100
AcDbEntity
  8
DEFPOINTS
 62
     0
440
 16777216
100
AcDbPoint
 10
481.3864828579843
 20
87.3482187785594
 30
0.0
  0
ENDBLK
  5
38077
330
38075
100
AcDbEntity
  8
0
100
AcDbBlockEnd
  0
BLOCK
  5
382DE
330
382DD
100
AcDbEntity
  8
0
100
AcDbBlockBegin
  2
*D14
 70
     1
 10
0.0
 20
0.0
 30
0.0
  3
*D14
  1

  0
LINE
  5
3AB70
330
382DD
100
AcDbEntity
  8
30
  6
Continuous
 62
     0
440
 16777216
370
    -2
100
AcDbLine
 10
361.9304827294509
 20
222.3824953448195
 30
0.0
 11
365.6822909653108
 21
227.1208209584188
 31
0.0
  0
LINE
  5
3AB71
330
382DD
100
AcDbEntity
  8
30
  6
Continuous
 62
     0
440
 16777216
370
    -2
100
AcDbLine
 10
365.6822909653108
 20
227.1208209584188
 30
0.0
 11
377.0156242986441
 21
227.1208209584188
 31
0.0
  0
LINE
  5
3AB72
330
382DD
100
AcDbEntity
  8
30
  6
Continuous
 62
     0
440
 16777216
370
    -2
100
AcDbLine
 10
360.0681805104153
 20
220.0305109815524
 30
0.0
 11
360.6889479167659
 21
220.8145057693149
 31
0.0
  0
INSERT
  5
3AB73
330
382DD
100
AcDbEntity
  8
30
  6
Continuous
 62
     0
440
 16777216
370
    -2
100
AcDbBlockReference
  2
_OPEN
 10
360.6889479167659
 20
220.8145057693149
 30
0.0
 41
2.0
 42
2.0
 43
2.0
 50
231.6278037687636
  0
MTEXT
  5
3AB74
330
382DD
100
AcDbEntity
  8
30
  6
Continuous
 62
     0
440
 16777216
100
AcDbMText
 10
367.6822909653107
 20
236.1208209584189
 30
0.0
 40
7.0
 41
0.0
 46
0.0
 71
     1
 72
     1
  1
\A1;R1
 73
     1
 44
1.0
  0
POINT
  5
3AB75
330
382DD
100
AcDbEntity
  8
DEFPOINTS
  6
Continuous
 62
     0
440
 16777216
100
AcDbPoint
 10
360.6889479167659
 20
220.8145057693149
 30
0.0
  0
POINT
  5
3AB76
330
382DD
100
AcDbEntity
  8
DEFPOINTS
  6
Continuous
 62
     0
440
 16777216
100
AcDbPoint
 10
360.0681805104153
 20
220.0305109815524
 30
0.0
  0
ENDBLK
  5
382DF
330
382DD
100
AcDbEntity
  8
0
100
AcDbBlockEnd
  0
BLOCK
  5
3925E
330
3925D
100
AcDbEntity
  8
0
100
AcDbBlockBegin
  2
*D15
 70
     1
 10
0.0
 20
0.0
 30
0.0
  3
*D15
  1

  0
LINE
  5
3AB77
330
3925D
100
AcDbEntity
  8
30
 62
     0
440
 16777216
370
    -2
100
AcDbLine
 10
400.3714363970438
 20
398.073147510981
 30
0.0
 11
400.3714363970438
 21
356.823404200366
 31
0.0
  0
LINE
  5
3AB78
330
3925D
100
AcDbEntity
  8
30
 62
     0
440
 16777216
370
    -2
100
AcDbLine
 10
460.3714363970438
 20
359.3234042003659
 30
0.0
 11
460.3714363970438
 21
356.823404200366
 31
0.0
  0
LINE
  5
3AB79
330
3925D
100
AcDbEntity
  8
30
 62
     0
440
 16777216
370
    -2
100
AcDbLine
 10
402.3714363970438
 20
357.3234042003659
 30
0.0
 11
458.3714363970438
 21
357.3234042003659
 31
0.0
  0
INSERT
  5
3AB7A
330
3925D
100
AcDbEntity
  8
30
 62
     0
440
 16777216
370
    -2
100
AcDbBlockReference
  2
_OPEN
 10
400.3714363970438
 20
357.3234042003659
 30
0.0
 41
2.0
 42
2.0
 43
2.0
 50
180.0
  0
INSERT
  5
3AB7B
330
3925D
100
AcDbEntity
  8
30
 62
     0
440
 16777216
370
    -2
100
AcDbBlockReference
  2
_OPEN
 10
460.3714363970438
 20
357.3234042003659
 30
0.0
 41
2.0
 42
2.0
 43
2.0
  0
MTEXT
  5
3AB7C
330
3925D
100
AcDbEntity
  8
30
 62
     0
440
 16777216
100
AcDbMText
 10
430.3714363970438
 20
362.8234042003659
 30
0.0
 40
7.0
 41
0.0
 46
0.0
 71
     5
 72
     1
  1
\A1;60
 73
     1
 44
1.0
  0
POINT
  5
3AB7D
330
3925D
100
AcDbEntity
  8
DEFPOINTS
 62
     0
440
 16777216
100
AcDbPoint
 10
400.3714363970438
 20
401.0731475109809
 30
0.0
  0
POINT
  5
3AB7E
330
3925D
100
AcDbEntity
  8
DEFPOINTS
 62
     0
440
 16777216
100
AcDbPoint
 10
460.3714363970438
 20
362.3234042003659
 30
0.0
  0
POINT
  5
3AB7F
330
3925D
100
AcDbEntity
  8
DEFPOINTS
 62
     0
440
 16777216
100
AcDbPoint
 10
460.3714363970438
 20
357.3234042003659
 30
0.0
  0
ENDBLK
  5
3925F
330
3925D
100
AcDbEntity
  8
0
100
AcDbBlockEnd
  0
BLOCK
  5
3926A
330
39269
100
AcDbEntity
  8
0
100
AcDbBlockBegin
  2
*D16
 70
     1
 10
0.0
 20
0.0
 30
0.0
  3
*D16
  1

  0
LINE
  5
3AB80
330
39269
100
AcDbEntity
  8
30
 62
     0
440
 16777216
370
    -2
100
AcDbLine
 10
388.3714363970439
 20
441.8234042003659
 30
0.0
 11
388.3714363970439
 21
334.3897007940808
 31
0.0
  0
LINE
  5
3AB81
330
39269
100
AcDbEntity
  8
30
 62
     0
440
 16777216
370
    -2
100
AcDbLine
 10
460.3714363970438
 20
359.3234042003659
 30
0.0
 11
460.3714363970438
 21
334.3897007940808
 31
0.0
  0
LINE
  5
3AB82
330
39269
100
AcDbEntity
  8
30
 62
     0
440
 16777216
370
    -2
100
AcDbLine
 10
390.3714363970438
 20
334.8897007940808
 30
0.0
 11
458.3714363970438
 21
334.8897007940808
 31
0.0
  0
INSERT
  5
3AB83
330
39269
100
AcDbEntity
  8
30
 62
     0
440
 16777216
370
    -2
100
AcDbBlockReference
  2
_OPEN
 10
388.3714363970439
 20
334.8897007940808
 30
0.0
 41
2.0
 42
2.0
 43
2.0
 50
180.0
  0
INSERT
  5
3AB84
330
39269
100
AcDbEntity
  8
30
 62
     0
440
 16777216
370
    -2
100
AcDbBlockReference
  2
_OPEN
 10
460.3714363970438
 20
334.8897007940808
 30
0.0
 41
2.0
 42
2.0
 43
2.0
  0
MTEXT
  5
3AB85
330
39269
100
AcDbEntity
  8
30
 62
     0
440
 16777216
100
AcDbMText
 10
424.3714363970438
 20
340.3897007940808
 30
0.0
 40
7.0
 41
0.0
 46
0.0
 71
     5
 72
     1
  1
\A1;72
 73
     1
 44
1.0
  0
POINT
  5
3AB86
330
39269
100
AcDbEntity
  8
DEFPOINTS
 62
     0
440
 16777216
100
AcDbPoint
 10
388.3714363970439
 20
444.8234042003658
 30
0.0
  0
POINT
  5
3AB87
330
39269
100
AcDbEntity
  8
DEFPOINTS
 62
     0
440
 16777216
100
AcDbPoint
 10
460.3714363970438
 20
362.3234042003659
 30
0.0
  0
POINT
  5
3AB88
330
39269
100
AcDbEntity
  8
DEFPOINTS
 62
     0
440
 16777216
100
AcDbPoint
 10
460.3714363970438
 20
334.8897007940808
 30
0.0
  0
ENDBLK
  5
3926B
330
39269
100
AcDbEntity
  8
0
100
AcDbBlockEnd
  0
BLOCK
  5
39276
330
39275
100
AcDbEntity
  8
0
100
AcDbBlockBegin
  2
*D17
 70
     1
 10
0.0
 20
0.0
 30
0.0
  3
*D17
  1

  0
LINE
  5
3AB89
330
39275
100
AcDbEntity
  8
30
 62
     0
440
 16777216
370
    -2
100
AcDbLine
 10
392.3714363970439
 20
415.8234042003658
 30
0.0
 11
392.3714363970439
 21
346.0121712463418
 31
0.0
  0
LINE
  5
3AB8A
330
39275
100
AcDbEntity
  8
30
 62
     0
440
 16777216
370
    -2
100
AcDbLine
 10
460.3714363970438
 20
359.3234042003659
 30
0.0
 11
460.3714363970438
 21
346.0121712463418
 31
0.0
  0
LINE
  5
3AB8B
330
39275
100
AcDbEntity
  8
30
 62
     0
440
 16777216
370
    -2
100
AcDbLine
 10
394.3714363970439
 20
346.5121712463418
 30
0.0
 11
458.3714363970438
 21
346.5121712463418
 31
0.0
  0
INSERT
  5
3AB8C
330
39275
100
AcDbEntity
  8
30
 62
     0
440
 16777216
370
    -2
100
AcDbBlockReference
  2
_OPEN
 10
392.3714363970439
 20
346.5121712463418
 30
0.0
 41
2.0
 42
2.0
 43
2.0
 50
180.0
  0
INSERT
  5
3AB8D
330
39275
100
AcDbEntity
  8
30
 62
     0
440
 16777216
370
    -2
100
AcDbBlockReference
  2
_OPEN
 10
460.3714363970438
 20
346.5121712463418
 30
0.0
 41
2.0
 42
2.0
 43
2.0
  0
MTEXT
  5
3AB8E
330
39275
100
AcDbEntity
  8
30
 62
     0
440
 16777216
100
AcDbMText
 10
426.3714363970438
 20
352.0121712463418
 30
0.0
 40
7.0
 41
0.0
 46
0.0
 71
     5
 72
     1
  1
\A1;68
 73
     1
 44
1.0
  0
POINT
  5
3AB8F
330
39275
100
AcDbEntity
  8
DEFPOINTS
 62
     0
440
 16777216
100
AcDbPoint
 10
392.3714363970439
 20
418.8234042003657
 30
0.0
  0
POINT
  5
3AB90
330
39275
100
AcDbEntity
  8
DEFPOINTS
 62
     0
440
 16777216
100
AcDbPoint
 10
460.3714363970438
 20
362.3234042003659
 30
0.0
  0
POINT
  5
3AB91
330
39275
100
AcDbEntity
  8
DEFPOINTS
 62
     0
440
 16777216
100
AcDbPoint
 10
460.3714363970438
 20
346.5121712463418
 30
0.0
  0
ENDBLK
  5
39277
330
39275
100
AcDbEntity
  8
0
100
AcDbBlockEnd
  0
BLOCK
  5
3928E
330
3928D
100
AcDbEntity
  8
0
100
AcDbBlockBegin
  2
*D18
 70
     1
 10
0.0
 20
0.0
 30
0.0
  3
*D18
  1

  0
LINE
  5
3AB92
330
3928D
100
AcDbEntity
  8
30
 62
     0
440
 16777216
370
    -2
100
AcDbLine
 10
460.3714363970438
 20
384.3234042003659
 30
0.0
 11
460.3714363970438
 21
346.0121712463418
 31
0.0
  0
LINE
  5
3AB93
330
3928D
100
AcDbEntity
  8
30
 62
     0
440
 16777216
370
    -2
100
AcDbLine
 10
567.3714363970438
 20
394.8234042003659
 30
0.0
 11
567.3714363970438
 21
346.0121712463418
 31
0.0
  0
LINE
  5
3AB94
330
3928D
100
AcDbEntity
  8
30
 62
     0
440
 16777216
370
    -2
100
AcDbLine
 10
462.3714363970438
 20
346.5121712463418
 30
0.0
 11
565.3714363970437
 21
346.5121712463418
 31
0.0
  0
INSERT
  5
3AB95
330
3928D
100
AcDbEntity
  8
30
 62
     0
440
 16777216
370
    -2
100
AcDbBlockReference
  2
_OPEN
 10
460.3714363970438
 20
346.5121712463418
 30
0.0
 41
2.0
 42
2.0
 43
2.0
 50
180.0
  0
INSERT
  5
3AB96
330
3928D
100
AcDbEntity
  8
30
 62
     0
440
 16777216
370
    -2
100
AcDbBlockReference
  2
_OPEN
 10
567.3714363970438
 20
346.5121712463418
 30
0.0
 41
2.0
 42
2.0
 43
2.0
  0
MTEXT
  5
3AB97
330
3928D
100
AcDbEntity
  8
30
 62
     0
440
 16777216
100
AcDbMText
 10
513.8714363970438
 20
352.0121712463418
 30
0.0
 40
7.0
 41
0.0
 46
0.0
 71
     5
 72
     1
  1
\A1;107
 73
     1
 44
1.0
  0
POINT
  5
3AB98
330
3928D
100
AcDbEntity
  8
DEFPOINTS
 62
     0
440
 16777216
100
AcDbPoint
 10
460.3714363970438
 20
387.3234042003659
 30
0.0
  0
POINT
  5
3AB99
330
3928D
100
AcDbEntity
  8
DEFPOINTS
 62
     0
440
 16777216
100
AcDbPoint
 10
567.3714363970438
 20
397.8234042003659
 30
0.0
  0
POINT
  5
3AB9A
330
3928D
100
AcDbEntity
  8
DEFPOINTS
 62
     0
440
 16777216
100
AcDbPoint
 10
567.3714363970438
 20
346.5121712463418
 30
0.0
  0
ENDBLK
  5
3928F
330
3928D
100
AcDbEntity
  8
0
100
AcDbBlockEnd
  0
BLOCK
  5
3929A
330
39299
100
AcDbEntity
  8
0
100
AcDbBlockBegin
  2
*D19
 70
     1
 10
0.0
 20
0.0
 30
0.0
  3
*D19
  1

  0
LINE
  5
3AD44
330
39299
100
AcDbEntity
  8
30
 62
     0
440
 16777216
370
    -2
100
AcDbLine
 10
568.3930366986466
 20
538.8187755643079
 30
0.0
 11
580.8930366986466
 21
538.8187755643079
 31
0.0
  0
LINE
  5
3AD45
330
39299
100
AcDbEntity
  8
30
 62
     0
440
 16777216
370
    -2
100
AcDbLine
 10
568.3930366986466
 20
544.818775564308
 30
0.0
 11
580.8930366986466
 21
544.818775564308
 31
0.0
  0
LINE
  5
3AD46
330
39299
100
AcDbEntity
  8
30
 62
     0
440
 16777216
370
    -2
100
AcDbLine
 10
580.3930366986466
 20
535.8187755643077
 30
0.0
 11
580.3930366986466
 21
532.818775564308
 31
0.0
  0
LINE
  5
3AD47
330
39299
100
AcDbEntity
  8
30
 62
     0
440
 16777216
370
    -2
100
AcDbLine
 10
580.3930366986466
 20
547.8187755643078
 30
0.0
 11
580.3930366986466
 21
561.4854422309746
 31
0.0
  0
LINE
  5
3AD48
330
39299
100
AcDbEntity
  8
30
 62
     0
440
 16777216
370
    -2
100
AcDbLine
 10
580.3930366986466
 20
538.8187755643079
 30
0.0
 11
580.3930366986466
 21
544.818775564308
 31
0.0
  0
INSERT
  5
3AD49
330
39299
100
AcDbEntity
  8
30
 62
     0
440
 16777216
370
    -2
100
AcDbBlockReference
  2
_OPEN
 10
580.3930366986466
 20
538.8187755643079
 30
0.0
 41
3.0
 42
3.0
 43
3.0
 50
90.0
  0
INSERT
  5
3AD4A
330
39299
100
AcDbEntity
  8
30
 62
     0
440
 16777216
370
    -2
100
AcDbBlockReference
  2
_OPEN
 10
580.3930366986466
 20
544.818775564308
 30
0.0
 41
3.0
 42
3.0
 43
3.0
 50
270.0
  0
MTEXT
  5
3AD4B
330
39299
100
AcDbEntity
  8
30
 62
     0
440
 16777216
100
AcDbMText
 10
573.8930366986465
 20
556.1521088976412
 30
0.0
 40
7.0
 41
0.0
 46
0.0
 71
     5
 72
     1
  1
\A1;6
 11
0.0000000000000001
 21
1.0
 31
0.0
 73
     1
 44
1.0
 90
        3
 63
     9
421
 13158600
 45
1.25
441
        0
  0
POINT
  5
3AD4C
330
39299
100
AcDbEntity
  8
DEFPOINTS
 62
     0
440
 16777216
100
AcDbPoint
 10
567.3930366986466
 20
538.8187755643079
 30
0.0
  0
POINT
  5
3AD4D
330
39299
100
AcDbEntity
  8
DEFPOINTS
 62
     0
440
 16777216
100
AcDbPoint
 10
567.3930366986466
 20
544.818775564308
 30
0.0
  0
POINT
  5
3AD4E
330
39299
100
AcDbEntity
  8
DEFPOINTS
 62
     0
440
 16777216
100
AcDbPoint
 10
580.3930366986466
 20
544.818775564308
 30
0.0
  0
ENDBLK
  5
3929B
330
39299
100
AcDbEntity
  8
0
100
AcDbBlockEnd
  0
BLOCK
  5
392A9
330
392A8
100
AcDbEntity
  8
0
100
AcDbBlockBegin
  2
*D20
 70
     1
 10
0.0
 20
0.0
 30
0.0
  3
*D20
  1

  0
LINE
  5
3ABA7
330
392A8
100
AcDbEntity
  8
30
 62
     0
440
 16777216
370
    -2
100
AcDbLine
 10
510.8569333373963
 20
393.2280542975767
 30
0.0
 11
500.7063129439599
 21
393.2280542975767
 31
0.0
  0
LINE
  5
3ABA8
330
392A8
100
AcDbEntity
  8
30
 62
     0
440
 16777216
370
    -2
100
AcDbLine
 10
510.8544333373966
 20
402.2280542975768
 30
0.0
 11
500.7063129439599
 21
402.2280542975768
 31
0.0
  0
LINE
  5
3ABA9
330
392A8
100
AcDbEntity
  8
30
 62
     0
440
 16777216
370
    -2
100
AcDbLine
 10
501.2063129439598
 20
395.2280542975767
 30
0.0
 11
501.2063129439598
 21
400.2280542975769
 31
0.0
  0
LINE
  5
3ABAA
330
392A8
100
AcDbEntity
  8
30
 62
     0
440
 16777216
370
    -2
100
AcDbLine
 10
501.2063129439598
 20
402.2280542975768
 30
0.0
 11
501.2063129439598
 21
418.9983836350468
 31
0.0
  0
LINE
  5
3ABAB
330
392A8
100
AcDbEntity
  8
30
 62
     0
440
 16777216
370
    -2
100
AcDbLine
 10
501.2063129439598
 20
418.9983836350468
 30
0.0
 11
507.8729796106268
 21
418.9983836350468
 31
0.0
  0
INSERT
  5
3ABAC
330
392A8
100
AcDbEntity
  8
30
 62
     0
440
 16777216
370
    -2
100
AcDbBlockReference
  2
_OPEN
 10
501.2063129439598
 20
393.2280542975767
 30
0.0
 41
2.0
 42
2.0
 43
2.0
 50
270.0
  0
INSERT
  5
3ABAD
330
392A8
100
AcDbEntity
  8
30
 62
     0
440
 16777216
370
    -2
100
AcDbBlockReference
  2
_OPEN
 10
501.2063129439598
 20
402.2280542975768
 30
0.0
 41
2.0
 42
2.0
 43
2.0
 50
90.0
  0
MTEXT
  5
3ABAE
330
392A8
100
AcDbEntity
  8
30
 62
     0
440
 16777216
100
AcDbMText
 10
505.5396462772931
 20
424.498383635047
 30
0.0
 40
7.0
 41
0.0
 46
0.0
 71
     5
 72
     1
  1
\A1;9
 73
     1
 44
1.0
  0
POINT
  5
3ABAF
330
392A8
100
AcDbEntity
  8
DEFPOINTS
 62
     0
440
 16777216
100
AcDbPoint
 10
513.8569333373963
 20
393.2280542975767
 30
0.0
  0
POINT
  5
3ABB0
330
392A8
100
AcDbEntity
  8
DEFPOINTS
 62
     0
440
 16777216
100
AcDbPoint
 10
513.8544333373967
 20
402.2280542975768
 30
0.0
  0
POINT
  5
3ABB1
330
392A8
100
AcDbEntity
  8
DEFPOINTS
 62
     0
440
 16777216
100
AcDbPoint
 10
501.2063129439598
 20
402.2280542975768
 30
0.0
  0
ENDBLK
  5
392AA
330
392A8
100
AcDbEntity
  8
0
100
AcDbBlockEnd
  0
BLOCK
  5
392B7
330
392B6
100
AcDbEntity
  8
0
100
AcDbBlockBegin
  2
*D21
 70
     1
 10
0.0
 20
0.0
 30
0.0
  3
*D21
  1

  0
LINE
  5
3ABB2
330
392B6
100
AcDbEntity
  8
30
 62
     0
440
 16777216
370
    -2
100
AcDbLine
 10
565.7135447743351
 20
387.7280542975766
 30
0.0
 11
580.8930366986466
 21
387.7280542975766
 31
0.0
  0
LINE
  5
3ABB3
330
392B6
100
AcDbEntity
  8
30
 62
     0
440
 16777216
370
    -2
100
AcDbLine
 10
565.7135447743351
 20
407.728054297577
 30
0.0
 11
580.8930366986466
 21
407.728054297577
 31
0.0
  0
LINE
  5
3ABB4
330
392B6
100
AcDbEntity
  8
30
 62
     0
440
 16777216
370
    -2
100
AcDbLine
 10
580.3930366986466
 20
390.7280542975767
 30
0.0
 11
580.3930366986466
 21
404.7280542975769
 31
0.0
  0
INSERT
  5
3ABB5
330
392B6
100
AcDbEntity
  8
30
 62
     0
440
 16777216
370
    -2
100
AcDbBlockReference
  2
_OPEN
 10
580.3930366986466
 20
387.7280542975766
 30
0.0
 41
3.0
 42
3.0
 43
3.0
 50
270.0
  0
INSERT
  5
3ABB6
330
392B6
100
AcDbEntity
  8
30
 62
     0
440
 16777216
370
    -2
100
AcDbBlockReference
  2
_OPEN
 10
580.3930366986466
 20
407.728054297577
 30
0.0
 41
3.0
 42
3.0
 43
3.0
 50
90.0
  0
MTEXT
  5
3ABB7
330
392B6
100
AcDbEntity
  8
30
 62
     0
440
 16777216
100
AcDbMText
 10
573.8930366986465
 20
397.7280542975769
 30
0.0
 40
7.0
 41
0.0
 46
0.0
 71
     5
 72
     1
  1
\A1;20
 11
0.0000000000000001
 21
1.0
 31
0.0
 73
     1
 44
1.0
 90
        3
 63
     9
421
 13158600
 45
1.25
441
        0
  0
POINT
  5
3ABB8
330
392B6
100
AcDbEntity
  8
DEFPOINTS
 62
     0
440
 16777216
100
AcDbPoint
 10
564.7135447743352
 20
387.7280542975766
 30
0.0
  0
POINT
  5
3ABB9
330
392B6
100
AcDbEntity
  8
DEFPOINTS
 62
     0
440
 16777216
100
AcDbPoint
 10
564.7135447743352
 20
407.728054297577
 30
0.0
  0
POINT
  5
3ABBA
330
392B6
100
AcDbEntity
  8
DEFPOINTS
 62
     0
440
 16777216
100
AcDbPoint
 10
580.3930366986466
 20
407.728054297577
 30
0.0
  0
ENDBLK
  5
392B8
330
392B6
100
AcDbEntity
  8
0
100
AcDbBlockEnd
  0
BLOCK
  5
392C3
330
392C2
100
AcDbEntity
  8
0
100
AcDbBlockBegin
  2
*D22
 70
     1
 10
0.0
 20
0.0
 30
0.0
  3
*D22
  1

  0
LINE
  5
3ADEE
330
392C2
100
AcDbEntity
  8
30
 62
     0
440
 16777216
370
    -2
100
AcDbLine
 10
551.3930366986466
 20
381.7280542975769
 30
0.0
 11
551.3930366986466
 21
370.3402105742412
 31
0.0
  0
LINE
  5
3ADEF
330
392C2
100
AcDbEntity
  8
30
 62
     0
440
 16777216
370
    -2
100
AcDbLine
 10
567.3930366986466
 20
394.7280542975769
 30
0.0
 11
567.3930366986466
 21
370.3402105742412
 31
0.0
  0
LINE
  5
3ADF0
330
392C2
100
AcDbEntity
  8
30
 62
     0
440
 16777216
370
    -2
100
AcDbLine
 10
553.3930366986465
 20
370.8402105742412
 30
0.0
 11
565.3930366986466
 21
370.8402105742412
 31
0.0
  0
INSERT
  5
3ADF1
330
392C2
100
AcDbEntity
  8
30
 62
     0
440
 16777216
370
    -2
100
AcDbBlockReference
  2
_OPEN
 10
551.3930366986466
 20
370.8402105742412
 30
0.0
 41
2.0
 42
2.0
 43
2.0
 50
180.0
  0
INSERT
  5
3ADF2
330
392C2
100
AcDbEntity
  8
30
 62
     0
440
 16777216
370
    -2
100
AcDbBlockReference
  2
_OPEN
 10
567.3930366986466
 20
370.8402105742412
 30
0.0
 41
2.0
 42
2.0
 43
2.0
  0
MTEXT
  5
3ADF3
330
392C2
100
AcDbEntity
  8
30
 62
     0
440
 16777216
100
AcDbMText
 10
559.3930366986466
 20
376.3402105742411
 30
0.0
 40
7.0
 41
0.0
 46
0.0
 71
     5
 72
     1
  1
\A1;16
 73
     1
 44
1.0
  0
POINT
  5
3ADF4
330
392C2
100
AcDbEntity
  8
DEFPOINTS
 62
     0
440
 16777216
100
AcDbPoint
 10
551.3930366986466
 20
384.7280542975769
 30
0.0
  0
POINT
  5
3ADF5
330
392C2
100
AcDbEntity
  8
DEFPOINTS
 62
     0
440
 16777216
100
AcDbPoint
 10
567.3930366986466
 20
397.7280542975769
 30
0.0
  0
POINT
  5
3ADF6
330
392C2
100
AcDbEntity
  8
DEFPOINTS
 62
     0
440
 16777216
100
AcDbPoint
 10
567.3930366986466
 20
370.8402105742412
 30
0.0
  0
ENDBLK
  5
392C4
330
392C2
100
AcDbEntity
  8
0
100
AcDbBlockEnd
  0
BLOCK
  5
392CF
330
392CE
100
AcDbEntity
  8
0
100
AcDbBlockBegin
  2
*D23
 70
     1
 10
0.0
 20
0.0
 30
0.0
  3
*D23
  1

  0
LINE
  5
3ABC4
330
392CE
100
AcDbEntity
  8
30
 62
     0
440
 16777216
370
    -2
100
AcDbLine
 10
581.3714363970437
 20
397.8234042003659
 30
0.0
 11
590.8714363970438
 21
397.8234042003659
 31
0.0
  0
LINE
  5
3ABC5
330
392CE
100
AcDbEntity
  8
30
 62
     0
440
 16777216
370
    -2
100
AcDbLine
 10
581.3714363970437
 20
541.8234042003656
 30
0.0
 11
590.8714363970438
 21
541.8234042003656
 31
0.0
  0
LINE
  5
3ABC6
330
392CE
100
AcDbEntity
  8
30
 62
     0
440
 16777216
370
    -2
100
AcDbLine
 10
590.3714363970437
 20
400.8234042003659
 30
0.0
 11
590.3714363970437
 21
538.8234042003658
 31
0.0
  0
INSERT
  5
3ABC7
330
392CE
100
AcDbEntity
  8
30
 62
     0
440
 16777216
370
    -2
100
AcDbBlockReference
  2
_OPEN
 10
590.3714363970437
 20
397.8234042003659
 30
0.0
 41
3.0
 42
3.0
 43
3.0
 50
270.0
  0
INSERT
  5
3ABC8
330
392CE
100
AcDbEntity
  8
30
 62
     0
440
 16777216
370
    -2
100
AcDbBlockReference
  2
_OPEN
 10
590.3714363970437
 20
541.8234042003656
 30
0.0
 41
3.0
 42
3.0
 43
3.0
 50
90.0
  0
MTEXT
  5
3ABC9
330
392CE
100
AcDbEntity
  8
30
 62
     0
440
 16777216
100
AcDbMText
 10
583.8714363970438
 20
469.8234042003658
 30
0.0
 40
7.0
 41
0.0
 46
0.0
 71
     5
 72
     1
  1
\A1;144
 11
0.0000000000000001
 21
1.0
 31
0.0
 73
     1
 44
1.0
 90
        3
 63
     9
421
 13158600
 45
1.25
441
        0
  0
POINT
  5
3ABCA
330
392CE
100
AcDbEntity
  8
DEFPOINTS
 62
     0
440
 16777216
100
AcDbPoint
 10
580.3714363970438
 20
397.8234042003659
 30
0.0
  0
POINT
  5
3ABCB
330
392CE
100
AcDbEntity
  8
DEFPOINTS
 62
     0
440
 16777216
100
AcDbPoint
 10
580.3714363970438
 20
541.8234042003656
 30
0.0
  0
POINT
  5
3ABCC
330
392CE
100
AcDbEntity
  8
DEFPOINTS
 62
     0
440
 16777216
100
AcDbPoint
 10
590.3714363970437
 20
541.8234042003656
 30
0.0
  0
ENDBLK
  5
392D0
330
392CE
100
AcDbEntity
  8
0
100
AcDbBlockEnd
  0
BLOCK
  5
392DB
330
392DA
100
AcDbEntity
  8
0
100
AcDbBlockBegin
  2
*D24
 70
     1
 10
0.0
 20
0.0
 30
0.0
  3
*D24
  1

  0
LINE
  5
3ABCD
330
392DA
100
AcDbEntity
  8
30
 62
     0
440
 16777216
370
    -2
100
AcDbLine
 10
460.3714363970438
 20
361.3234042003659
 30
0.0
 11
460.3714363970438
 21
356.823404200366
 31
0.0
  0
LINE
  5
3ABCE
330
392DA
100
AcDbEntity
  8
30
 62
     0
440
 16777216
370
    -2
100
AcDbLine
 10
532.3714363970436
 20
386.2280542975769
 30
0.0
 11
532.3714363970436
 21
356.823404200366
 31
0.0
  0
LINE
  5
3ABCF
330
392DA
100
AcDbEntity
  8
30
 62
     0
440
 16777216
370
    -2
100
AcDbLine
 10
463.3714363970439
 20
357.3234042003659
 30
0.0
 11
529.3714363970438
 21
357.3234042003659
 31
0.0
  0
INSERT
  5
3ABD0
330
392DA
100
AcDbEntity
  8
30
 62
     0
440
 16777216
370
    -2
100
AcDbBlockReference
  2
_OPEN
 10
460.3714363970438
 20
357.3234042003659
 30
0.0
 41
3.0
 42
3.0
 43
3.0
 50
180.0
  0
INSERT
  5
3ABD1
330
392DA
100
AcDbEntity
  8
30
 62
     0
440
 16777216
370
    -2
100
AcDbBlockReference
  2
_OPEN
 10
532.3714363970436
 20
357.3234042003659
 30
0.0
 41
3.0
 42
3.0
 43
3.0
  0
MTEXT
  5
3ABD2
330
392DA
100
AcDbEntity
  8
30
 62
     0
440
 16777216
100
AcDbMText
 10
490.628348358854
 20
363.8234042003659
 30
0.0
 40
7.0
 41
0.0
 46
0.0
 71
     5
 72
     1
  1
\A1;72
 73
     1
 44
1.0
 90
        3
 63
     9
421
 13158600
 45
1.25
441
        0
  0
POINT
  5
3ABD3
330
392DA
100
AcDbEntity
  8
DEFPOINTS
 62
     0
440
 16777216
100
AcDbPoint
 10
460.3714363970438
 20
362.3234042003659
 30
0.0
  0
POINT
  5
3ABD4
330
392DA
100
AcDbEntity
  8
DEFPOINTS
 62
     0
440
 16777216
100
AcDbPoint
 10
532.3714363970436
 20
387.228054297577
 30
0.0
  0
POINT
  5
3ABD5
330
392DA
100
AcDbEntity
  8
DEFPOINTS
 62
     0
440
 16777216
100
AcDbPoint
 10
532.3714363970436
 20
357.3234042003659
 30
0.0
  0
ENDBLK
  5
392DC
330
392DA
100
AcDbEntity
  8
0
100
AcDbBlockEnd
  0
BLOCK
  5
392F3
330
392F2
100
AcDbEntity
  8
0
100
AcDbBlockBegin
  2
*D25
 70
     1
 10
0.0
 20
0.0
 30
0.0
  3
*D25
  1

  0
LINE
  5
3AD16
330
392F2
100
AcDbEntity
  8
30
 62
     0
440
 16777216
370
    -2
100
AcDbLine
 10
387.3714363970439
 20
494.8234042003655
 30
0.0
 11
348.981694701768
 21
494.8234042003658
 31
0.0
  0
LINE
  5
3AD17
330
392F2
100
AcDbEntity
  8
30
 62
     0
440
 16777216
370
    -2
100
AcDbLine
 10
387.3714363970439
 20
444.8234042003655
 30
0.0
 11
348.981694701768
 21
444.8234042003658
 31
0.0
  0
LINE
  5
3AD18
330
392F2
100
AcDbEntity
  8
30
 62
     0
440
 16777216
370
    -2
100
AcDbLine
 10
349.481694701768
 20
491.8234042003658
 30
0.0
 11
349.481694701768
 21
447.8234042003657
 31
0.0
  0
INSERT
  5
3AD19
330
392F2
100
AcDbEntity
  8
30
 62
     0
440
 16777216
370
    -2
100
AcDbBlockReference
  2
_OPEN
 10
349.481694701768
 20
494.8234042003658
 30
0.0
 41
3.0
 42
3.0
 43
3.0
 50
90.0
  0
INSERT
  5
3AD1A
330
392F2
100
AcDbEntity
  8
30
 62
     0
440
 16777216
370
    -2
100
AcDbBlockReference
  2
_OPEN
 10
349.481694701768
 20
444.8234042003658
 30
0.0
 41
3.0
 42
3.0
 43
3.0
 50
270.0
  0
MTEXT
  5
3AD1B
330
392F2
100
AcDbEntity
  8
30
 62
     0
440
 16777216
100
AcDbMText
 10
342.981694701768
 20
469.8234042003658
 30
0.0
 40
7.0
 41
0.0
 46
0.0
 71
     5
 72
     1
  1
\A1;50
 11
0.0000000000000001
 21
1.0
 31
0.0
 73
     1
 44
1.0
 90
        3
 63
     9
421
 13158600
 45
1.25
441
        0
  0
POINT
  5
3AD1C
330
392F2
100
AcDbEntity
  8
DEFPOINTS
 62
     0
440
 16777216
100
AcDbPoint
 10
388.3714363970439
 20
494.8234042003655
 30
0.0
  0
POINT
  5
3AD1D
330
392F2
100
AcDbEntity
  8
DEFPOINTS
 62
     0
440
 16777216
100
AcDbPoint
 10
388.3714363970439
 20
444.8234042003655
 30
0.0
  0
POINT
  5
3AD1E
330
392F2
100
AcDbEntity
  8
DEFPOINTS
 62
     0
440
 16777216
100
AcDbPoint
 10
349.481694701768
 20
444.8234042003658
 30
0.0
  0
ENDBLK
  5
392F4
330
392F2
100
AcDbEntity
  8
0
100
AcDbBlockEnd
  0
BLOCK
  5
3930B
330
3930A
100
AcDbEntity
  8
0
100
AcDbBlockBegin
  2
*D26
 70
     1
 10
0.0
 20
0.0
 30
0.0
  3
*D26
  1

  0
LINE
  5
3AD26
330
3930A
100
AcDbEntity
  8
30
 62
     0
440
 16777216
370
    -2
100
AcDbLine
 10
532.3714363970436
 20
381.228054297577
 30
0.0
 11
532.3714363970436
 21
370.3402105742412
 31
0.0
  0
LINE
  5
3AD27
330
3930A
100
AcDbEntity
  8
30
 62
     0
440
 16777216
370
    -2
100
AcDbLine
 10
519.3714363970436
 20
381.228054297577
 30
0.0
 11
519.3714363970436
 21
370.3402105742412
 31
0.0
  0
LINE
  5
3AD28
330
3930A
100
AcDbEntity
  8
30
 62
     0
440
 16777216
370
    -2
100
AcDbLine
 10
530.3714363970438
 20
370.8402105742412
 30
0.0
 11
521.3714363970438
 21
370.8402105742412
 31
0.0
  0
INSERT
  5
3AD29
330
3930A
100
AcDbEntity
  8
30
 62
     0
440
 16777216
370
    -2
100
AcDbBlockReference
  2
_OPEN
 10
532.3714363970436
 20
370.8402105742412
 30
0.0
 41
2.0
 42
2.0
 43
2.0
  0
INSERT
  5
3AD2A
330
3930A
100
AcDbEntity
  8
30
 62
     0
440
 16777216
370
    -2
100
AcDbBlockReference
  2
_OPEN
 10
519.3714363970436
 20
370.8402105742412
 30
0.0
 41
2.0
 42
2.0
 43
2.0
 50
180.0
  0
MTEXT
  5
3AD2B
330
3930A
100
AcDbEntity
  8
30
 62
     0
440
 16777216
100
AcDbMText
 10
526.5544430085253
 20
376.3402105742411
 30
0.0
 40
7.0
 41
0.0
 46
0.0
 71
     5
 72
     1
  1
\A1;13
 73
     1
 44
1.0
  0
POINT
  5
3AD2C
330
3930A
100
AcDbEntity
  8
DEFPOINTS
 62
     0
440
 16777216
100
AcDbPoint
 10
532.3714363970436
 20
384.2280542975769
 30
0.0
  0
POINT
  5
3AD2D
330
3930A
100
AcDbEntity
  8
DEFPOINTS
 62
     0
440
 16777216
100
AcDbPoint
 10
519.3714363970436
 20
384.2280542975769
 30
0.0
  0
POINT
  5
3AD2E
330
3930A
100
AcDbEntity
  8
DEFPOINTS
 62
     0
440
 16777216
100
AcDbPoint
 10
519.3714363970436
 20
370.8402105742412
 30
0.0
  0
ENDBLK
  5
3930C
330
3930A
100
AcDbEntity
  8
0
100
AcDbBlockEnd
  0
BLOCK
  5
39318
330
39317
100
AcDbEntity
  8
0
100
AcDbBlockBegin
  2
*D27
 70
     1
 10
0.0
 20
0.0
 30
0.0
  3
*D27
  1

  0
LINE
  5
3AD2F
330
39317
100
AcDbEntity
  8
30
 62
     0
440
 16777216
370
    -2
100
AcDbLine
 10
519.3714363970436
 20
381.7200313284102
 30
0.0
 11
519.3714363970436
 21
370.3402105742412
 31
0.0
  0
LINE
  5
3AD30
330
39317
100
AcDbEntity
  8
30
 62
     0
440
 16777216
370
    -2
100
AcDbLine
 10
513.3714363970438
 20
381.7200313284102
 30
0.0
 11
513.3714363970438
 21
370.3402105742412
 31
0.0
  0
LINE
  5
3AD31
330
39317
100
AcDbEntity
  8
30
 62
     0
440
 16777216
370
    -2
100
AcDbLine
 10
521.3714363970438
 20
370.8402105742412
 30
0.0
 11
523.3714363970436
 21
370.8402105742412
 31
0.0
  0
LINE
  5
3AD32
330
39317
100
AcDbEntity
  8
30
 62
     0
440
 16777216
370
    -2
100
AcDbLine
 10
511.3714363970438
 20
370.8402105742412
 30
0.0
 11
500.7047697303772
 21
370.8402105742412
 31
0.0
  0
LINE
  5
3AD33
330
39317
100
AcDbEntity
  8
30
 62
     0
440
 16777216
370
    -2
100
AcDbLine
 10
519.3714363970436
 20
370.8402105742412
 30
0.0
 11
513.3714363970438
 21
370.8402105742412
 31
0.0
  0
INSERT
  5
3AD34
330
39317
100
AcDbEntity
  8
30
 62
     0
440
 16777216
370
    -2
100
AcDbBlockReference
  2
_OPEN
 10
519.3714363970436
 20
370.8402105742412
 30
0.0
 41
2.0
 42
2.0
 43
2.0
 50
180.0
  0
INSERT
  5
3AD35
330
39317
100
AcDbEntity
  8
30
 62
     0
440
 16777216
370
    -2
100
AcDbBlockReference
  2
_OPEN
 10
513.3714363970438
 20
370.8402105742412
 30
0.0
 41
2.0
 42
2.0
 43
2.0
  0
MTEXT
  5
3AD36
330
39317
100
AcDbEntity
  8
30
 62
     0
440
 16777216
100
AcDbMText
 10
505.0381030637105
 20
376.3402105742411
 30
0.0
 40
7.0
 41
0.0
 46
0.0
 71
     5
 72
     1
  1
\A1;6
 73
     1
 44
1.0
  0
POINT
  5
3AD37
330
39317
100
AcDbEntity
  8
DEFPOINTS
 62
     0
440
 16777216
100
AcDbPoint
 10
519.3714363970436
 20
384.7200313284101
 30
0.0
  0
POINT
  5
3AD38
330
39317
100
AcDbEntity
  8
DEFPOINTS
 62
     0
440
 16777216
100
AcDbPoint
 10
513.3714363970438
 20
384.7200313284101
 30
0.0
  0
POINT
  5
3AD39
330
39317
100
AcDbEntity
  8
DEFPOINTS
 62
     0
440
 16777216
100
AcDbPoint
 10
513.3714363970438
 20
370.8402105742412
 30
0.0
  0
ENDBLK
  5
39319
330
39317
100
AcDbEntity
  8
0
100
AcDbBlockEnd
  0
BLOCK
  5
39326
330
39325
100
AcDbEntity
  8
0
100
AcDbBlockBegin
  2
*D28
 70
     1
 10
0.0
 20
0.0
 30
0.0
  3
*D28
  1

  0
LINE
  5
3AC05
330
39325
100
AcDbEntity
  8
30
 62
     0
440
 16777216
370
    -2
100
AcDbLine
 10
388.3714363970439
 20
441.8234042003659
 30
0.0
 11
388.3714363970439
 21
334.3897007940808
 31
0.0
  0
LINE
  5
3AC06
330
39325
100
AcDbEntity
  8
30
 62
     0
440
 16777216
370
    -2
100
AcDbLine
 10
381.8714363970439
 20
441.8234042003659
 30
0.0
 11
381.8714363970439
 21
334.3897007940808
 31
0.0
  0
LINE
  5
3AC07
330
39325
100
AcDbEntity
  8
30
 62
     0
440
 16777216
370
    -2
100
AcDbLine
 10
390.3714363970438
 20
334.8897007940808
 30
0.0
 11
392.3714363970439
 21
334.8897007940808
 31
0.0
  0
LINE
  5
3AC08
330
39325
100
AcDbEntity
  8
30
 62
     0
440
 16777216
370
    -2
100
AcDbLine
 10
379.8714363970439
 20
334.8897007940808
 30
0.0
 11
342.0526538604281
 21
334.8897007940808
 31
0.0
  0
LINE
  5
3AC09
330
39325
100
AcDbEntity
  8
30
 62
     0
440
 16777216
370
    -2
100
AcDbLine
 10
388.3714363970439
 20
334.8897007940808
 30
0.0
 11
381.8714363970439
 21
334.8897007940808
 31
0.0
  0
INSERT
  5
3AC0A
330
39325
100
AcDbEntity
  8
30
 62
     0
440
 16777216
370
    -2
100
AcDbBlockReference
  2
_OPEN
 10
388.3714363970439
 20
334.8897007940808
 30
0.0
 41
2.0
 42
2.0
 43
2.0
 50
180.0
  0
INSERT
  5
3AC0B
330
39325
100
AcDbEntity
  8
30
 62
     0
440
 16777216
370
    -2
100
AcDbBlockReference
  2
_OPEN
 10
381.8714363970439
 20
334.8897007940808
 30
0.0
 41
2.0
 42
2.0
 43
2.0
  0
MTEXT
  5
3AC0C
330
39325
100
AcDbEntity
  8
30
 62
     0
440
 16777216
100
AcDbMText
 10
351.0526538604282
 20
340.3897007940808
 30
0.0
 40
7.0
 41
0.0
 46
0.0
 71
     5
 72
     1
  1
\A1;6.5
 73
     1
 44
1.0
  0
POINT
  5
3AC0D
330
39325
100
AcDbEntity
  8
DEFPOINTS
 62
     0
440
 16777216
100
AcDbPoint
 10
388.3714363970439
 20
444.8234042003658
 30
0.0
  0
POINT
  5
3AC0E
330
39325
100
AcDbEntity
  8
DEFPOINTS
 62
     0
440
 16777216
100
AcDbPoint
 10
381.8714363970439
 20
444.8234042003658
 30
0.0
  0
POINT
  5
3AC0F
330
39325
100
AcDbEntity
  8
DEFPOINTS
 62
     0
440
 16777216
100
AcDbPoint
 10
381.8714363970439
 20
334.8897007940808
 30
0.0
  0
ENDBLK
  5
39327
330
39325
100
AcDbEntity
  8
0
100
AcDbBlockEnd
  0
BLOCK
  5
393D7
330
393D6
100
AcDbEntity
  8
0
100
AcDbBlockBegin
  2
*D29
 70
     1
 10
0.0
 20
0.0
 30
0.0
  3
*D29
  1

  0
LINE
  5
393D8
330
393D6
100
AcDbEntity
  8
30
 62
     0
370
    -2
100
AcDbLine
 10
400.3714363970438
 20
378.073147510981
 30
0.0
 11
400.3714363970438
 21
336.8234042003659
 31
0.0
  0
LINE
  5
393D9
330
393D6
100
AcDbEntity
  8
30
 62
     0
370
    -2
100
AcDbLine
 10
460.3714363970438
 20
339.3234042003659
 30
0.0
 11
460.3714363970438
 21
336.8234042003659
 31
0.0
  0
LINE
  5
393DA
330
393D6
100
AcDbEntity
  8
30
 62
     0
370
    -2
100
AcDbLine
 10
402.3714363970438
 20
337.3234042003659
 30
0.0
 11
458.3714363970438
 21
337.3234042003659
 31
0.0
  0
INSERT
  5
393DB
330
393D6
100
AcDbEntity
  8
30
 62
     0
370
    -2
100
AcDbBlockReference
  2
_OPEN
 10
400.3714363970438
 20
337.3234042003659
 30
0.0
 41
2.0
 42
2.0
 43
2.0
 50
180.0
  0
INSERT
  5
393DC
330
393D6
100
AcDbEntity
  8
30
 62
     0
370
    -2
100
AcDbBlockReference
  2
_OPEN
 10
460.3714363970438
 20
337.3234042003659
 30
0.0
 41
2.0
 42
2.0
 43
2.0
  0
MTEXT
  5
393DD
330
393D6
100
AcDbEntity
  8
30
 62
     0
100
AcDbMText
 10
430.3714363970438
 20
342.8234042003659
 30
0.0
 40
7.0
 41
0.0
 46
0.0
 71
     5
 72
     1
  1
\A1;60
 73
     1
 44
1.0
  0
POINT
  5
393DE
330
393D6
100
AcDbEntity
  8
DEFPOINTS
 62
     0
100
AcDbPoint
 10
400.3714363970438
 20
381.073147510981
 30
0.0
  0
POINT
  5
393DF
330
393D6
100
AcDbEntity
  8
DEFPOINTS
 62
     0
100
AcDbPoint
 10
460.3714363970438
 20
342.3234042003659
 30
0.0
  0
POINT
  5
393E0
330
393D6
100
AcDbEntity
  8
DEFPOINTS
 62
     0
100
AcDbPoint
 10
460.3714363970438
 20
337.3234042003659
 30
0.0
  0
ENDBLK
  5
393E1
330
393D6
100
AcDbEntity
  8
0
100
AcDbBlockEnd
  0
BLOCK
  5
393E3
330
393E2
100
AcDbEntity
  8
0
100
AcDbBlockBegin
  2
*D30
 70
     1
 10
0.0
 20
0.0
 30
0.0
  3
*D30
  1

  0
LINE
  5
393E4
330
393E2
100
AcDbEntity
  8
30
 62
     0
370
    -2
100
AcDbLine
 10
388.3714363970439
 20
421.8234042003659
 30
0.0
 11
388.3714363970439
 21
314.3897007940808
 31
0.0
  0
LINE
  5
393E5
330
393E2
100
AcDbEntity
  8
30
 62
     0
370
    -2
100
AcDbLine
 10
460.3714363970438
 20
339.3234042003659
 30
0.0
 11
460.3714363970438
 21
314.3897007940808
 31
0.0
  0
LINE
  5
393E6
330
393E2
100
AcDbEntity
  8
30
 62
     0
370
    -2
100
AcDbLine
 10
390.3714363970438
 20
314.8897007940808
 30
0.0
 11
458.3714363970438
 21
314.8897007940808
 31
0.0
  0
INSERT
  5
393E7
330
393E2
100
AcDbEntity
  8
30
 62
     0
370
    -2
100
AcDbBlockReference
  2
_OPEN
 10
388.3714363970439
 20
314.8897007940808
 30
0.0
 41
2.0
 42
2.0
 43
2.0
 50
180.0
  0
INSERT
  5
393E8
330
393E2
100
AcDbEntity
  8
30
 62
     0
370
    -2
100
AcDbBlockReference
  2
_OPEN
 10
460.3714363970438
 20
314.8897007940808
 30
0.0
 41
2.0
 42
2.0
 43
2.0
  0
MTEXT
  5
393E9
330
393E2
100
AcDbEntity
  8
30
 62
     0
100
AcDbMText
 10
424.3714363970438
 20
320.3897007940808
 30
0.0
 40
7.0
 41
0.0
 46
0.0
 71
     5
 72
     1
  1
\A1;72
 73
     1
 44
1.0
  0
POINT
  5
393EA
330
393E2
100
AcDbEntity
  8
DEFPOINTS
 62
     0
100
AcDbPoint
 10
388.3714363970439
 20
424.8234042003658
 30
0.0
  0
POINT
  5
393EB
330
393E2
100
AcDbEntity
  8
DEFPOINTS
 62
     0
100
AcDbPoint
 10
460.3714363970438
 20
342.3234042003659
 30
0.0
  0
POINT
  5
393EC
330
393E2
100
AcDbEntity
  8
DEFPOINTS
 62
     0
100
AcDbPoint
 10
460.3714363970438
 20
314.8897007940808
 30
0.0
  0
ENDBLK
  5
393ED
330
393E2
100
AcDbEntity
  8
0
100
AcDbBlockEnd
  0
BLOCK
  5
393EF
330
393EE
100
AcDbEntity
  8
0
100
AcDbBlockBegin
  2
*D31
 70
     1
 10
0.0
 20
0.0
 30
0.0
  3
*D31
  1

  0
LINE
  5
393F0
330
393EE
100
AcDbEntity
  8
30
 62
     0
370
    -2
100
AcDbLine
 10
392.3714363970439
 20
395.8234042003659
 30
0.0
 11
392.3714363970439
 21
326.0121712463418
 31
0.0
  0
LINE
  5
393F1
330
393EE
100
AcDbEntity
  8
30
 62
     0
370
    -2
100
AcDbLine
 10
460.3714363970438
 20
339.3234042003659
 30
0.0
 11
460.3714363970438
 21
326.0121712463418
 31
0.0
  0
LINE
  5
393F2
330
393EE
100
AcDbEntity
  8
30
 62
     0
370
    -2
100
AcDbLine
 10
394.3714363970439
 20
326.5121712463419
 30
0.0
 11
458.3714363970438
 21
326.5121712463419
 31
0.0
  0
INSERT
  5
393F3
330
393EE
100
AcDbEntity
  8
30
 62
     0
370
    -2
100
AcDbBlockReference
  2
_OPEN
 10
392.3714363970439
 20
326.5121712463419
 30
0.0
 41
2.0
 42
2.0
 43
2.0
 50
180.0
  0
INSERT
  5
393F4
330
393EE
100
AcDbEntity
  8
30
 62
     0
370
    -2
100
AcDbBlockReference
  2
_OPEN
 10
460.3714363970438
 20
326.5121712463419
 30
0.0
 41
2.0
 42
2.0
 43
2.0
  0
MTEXT
  5
393F5
330
393EE
100
AcDbEntity
  8
30
 62
     0
100
AcDbMText
 10
426.3714363970438
 20
332.0121712463418
 30
0.0
 40
7.0
 41
0.0
 46
0.0
 71
     5
 72
     1
  1
\A1;68
 73
     1
 44
1.0
  0
POINT
  5
393F6
330
393EE
100
AcDbEntity
  8
DEFPOINTS
 62
     0
100
AcDbPoint
 10
392.3714363970439
 20
398.8234042003659
 30
0.0
  0
POINT
  5
393F7
330
393EE
100
AcDbEntity
  8
DEFPOINTS
 62
     0
100
AcDbPoint
 10
460.3714363970438
 20
342.3234042003659
 30
0.0
  0
POINT
  5
393F8
330
393EE
100
AcDbEntity
  8
DEFPOINTS
 62
     0
100
AcDbPoint
 10
460.3714363970438
 20
326.5121712463419
 30
0.0
  0
ENDBLK
  5
393F9
330
393EE
100
AcDbEntity
  8
0
100
AcDbBlockEnd
  0
BLOCK
  5
393FB
330
393FA
100
AcDbEntity
  8
0
100
AcDbBlockBegin
  2
*D32
 70
     1
 10
0.0
 20
0.0
 30
0.0
  3
*D32
  1

  0
LINE
  5
393FC
330
393FA
100
AcDbEntity
  8
30
 62
     0
370
    -2
100
AcDbLine
 10
365.3714363970439
 20
446.8234042003659
 30
0.0
 11
365.3714363970439
 21
304.3897007940808
 31
0.0
  0
LINE
  5
393FD
330
393FA
100
AcDbEntity
  8
30
 62
     0
370
    -2
100
AcDbLine
 10
460.3714363970438
 20
339.3234042003659
 30
0.0
 11
460.3714363970438
 21
304.3897007940808
 31
0.0
  0
LINE
  5
393FE
330
393FA
100
AcDbEntity
  8
30
 62
     0
370
    -2
100
AcDbLine
 10
367.3714363970439
 20
304.8897007940808
 30
0.0
 11
458.3714363970438
 21
304.8897007940808
 31
0.0
  0
INSERT
  5
393FF
330
393FA
100
AcDbEntity
  8
30
 62
     0
370
    -2
100
AcDbBlockReference
  2
_OPEN
 10
365.3714363970439
 20
304.8897007940808
 30
0.0
 41
2.0
 42
2.0
 43
2.0
 50
180.0
  0
INSERT
  5
39400
330
393FA
100
AcDbEntity
  8
30
 62
     0
370
    -2
100
AcDbBlockReference
  2
_OPEN
 10
460.3714363970438
 20
304.8897007940808
 30
0.0
 41
2.0
 42
2.0
 43
2.0
  0
MTEXT
  5
39401
330
393FA
100
AcDbEntity
  8
30
 62
     0
100
AcDbMText
 10
412.8714363970438
 20
310.3897007940808
 30
0.0
 40
7.0
 41
0.0
 46
0.0
 71
     5
 72
     1
  1
\A1;95
 73
     1
 44
1.0
  0
POINT
  5
39402
330
393FA
100
AcDbEntity
  8
DEFPOINTS
 62
     0
100
AcDbPoint
 10
365.3714363970439
 20
449.8234042003658
 30
0.0
  0
POINT
  5
39403
330
393FA
100
AcDbEntity
  8
DEFPOINTS
 62
     0
100
AcDbPoint
 10
460.3714363970438
 20
342.3234042003659
 30
0.0
  0
POINT
  5
39404
330
393FA
100
AcDbEntity
  8
DEFPOINTS
 62
     0
100
AcDbPoint
 10
460.3714363970438
 20
304.8897007940808
 30
0.0
  0
ENDBLK
  5
39405
330
393FA
100
AcDbEntity
  8
0
100
AcDbBlockEnd
  0
BLOCK
  5
39407
330
39406
100
AcDbEntity
  8
0
100
AcDbBlockBegin
  2
*D33
 70
     1
 10
0.0
 20
0.0
 30
0.0
  3
*D33
  1

  0
LINE
  5
39408
330
39406
100
AcDbEntity
  8
30
 62
     0
370
    -2
100
AcDbLine
 10
460.3714363970438
 20
364.3234042003659
 30
0.0
 11
460.3714363970438
 21
326.0121712463418
 31
0.0
  0
LINE
  5
39409
330
39406
100
AcDbEntity
  8
30
 62
     0
370
    -2
100
AcDbLine
 10
567.3714363970438
 20
374.8234042003659
 30
0.0
 11
567.3714363970438
 21
326.0121712463418
 31
0.0
  0
LINE
  5
3940A
330
39406
100
AcDbEntity
  8
30
 62
     0
370
    -2
100
AcDbLine
 10
462.3714363970438
 20
326.5121712463419
 30
0.0
 11
565.3714363970437
 21
326.5121712463419
 31
0.0
  0
INSERT
  5
3940B
330
39406
100
AcDbEntity
  8
30
 62
     0
370
    -2
100
AcDbBlockReference
  2
_OPEN
 10
460.3714363970438
 20
326.5121712463419
 30
0.0
 41
2.0
 42
2.0
 43
2.0
 50
180.0
  0
INSERT
  5
3940C
330
39406
100
AcDbEntity
  8
30
 62
     0
370
    -2
100
AcDbBlockReference
  2
_OPEN
 10
567.3714363970438
 20
326.5121712463419
 30
0.0
 41
2.0
 42
2.0
 43
2.0
  0
MTEXT
  5
3940D
330
39406
100
AcDbEntity
  8
30
 62
     0
100
AcDbMText
 10
513.8714363970438
 20
332.0121712463418
 30
0.0
 40
7.0
 41
0.0
 46
0.0
 71
     5
 72
     1
  1
\A1;107
 73
     1
 44
1.0
  0
POINT
  5
3940E
330
39406
100
AcDbEntity
  8
DEFPOINTS
 62
     0
100
AcDbPoint
 10
460.3714363970438
 20
367.3234042003659
 30
0.0
  0
POINT
  5
3940F
330
39406
100
AcDbEntity
  8
DEFPOINTS
 62
     0
100
AcDbPoint
 10
567.3714363970438
 20
377.8234042003659
 30
0.0
  0
POINT
  5
39410
330
39406
100
AcDbEntity
  8
DEFPOINTS
 62
     0
100
AcDbPoint
 10
567.3714363970438
 20
326.5121712463419
 30
0.0
  0
ENDBLK
  5
39411
330
39406
100
AcDbEntity
  8
0
100
AcDbBlockEnd
  0
BLOCK
  5
39413
330
39412
100
AcDbEntity
  8
0
100
AcDbBlockBegin
  2
*D34
 70
     1
 10
0.0
 20
0.0
 30
0.0
  3
*D34
  1

  0
LINE
  5
39414
330
39412
100
AcDbEntity
  8
30
 62
     0
370
    -2
100
AcDbLine
 10
570.3930366986464
 20
518.8187755643077
 30
0.0
 11
580.8930366986466
 21
518.8187755643077
 31
0.0
  0
LINE
  5
39415
330
39412
100
AcDbEntity
  8
30
 62
     0
370
    -2
100
AcDbLine
 10
570.3930366986464
 20
524.818775564308
 30
0.0
 11
580.8930366986466
 21
524.818775564308
 31
0.0
  0
LINE
  5
39416
330
39412
100
AcDbEntity
  8
30
 62
     0
370
    -2
100
AcDbLine
 10
580.3930366986466
 20
516.818775564308
 30
0.0
 11
580.3930366986466
 21
514.8187755643077
 31
0.0
  0
LINE
  5
39417
330
39412
100
AcDbEntity
  8
30
 62
     0
370
    -2
100
AcDbLine
 10
580.3930366986466
 20
526.8187755643078
 30
0.0
 11
580.3930366986466
 21
528.818775564308
 31
0.0
  0
LINE
  5
39418
330
39412
100
AcDbEntity
  8
30
 62
     0
370
    -2
100
AcDbLine
 10
580.3930366986466
 20
528.818775564308
 30
0.0
 11
587.0597033653132
 21
528.818775564308
 31
0.0
  0
LINE
  5
39419
330
39412
100
AcDbEntity
  8
30
 62
     0
370
    -2
100
AcDbLine
 10
580.3930366986466
 20
518.8187755643077
 30
0.0
 11
580.3930366986466
 21
524.818775564308
 31
0.0
  0
INSERT
  5
3941A
330
39412
100
AcDbEntity
  8
30
 62
     0
370
    -2
100
AcDbBlockReference
  2
_OPEN
 10
580.3930366986466
 20
518.8187755643077
 30
0.0
 41
2.0
 42
2.0
 43
2.0
 50
90.0
  0
INSERT
  5
3941B
330
39412
100
AcDbEntity
  8
30
 62
     0
370
    -2
100
AcDbBlockReference
  2
_OPEN
 10
580.3930366986466
 20
524.818775564308
 30
0.0
 41
2.0
 42
2.0
 43
2.0
 50
270.0
  0
MTEXT
  5
3941C
330
39412
100
AcDbEntity
  8
30
 62
     0
100
AcDbMText
 10
584.7263700319797
 20
534.318775564308
 30
0.0
 40
7.0
 41
0.0
 46
0.0
 71
     5
 72
     1
  1
\A1;6
 73
     1
 44
1.0
  0
POINT
  5
3941D
330
39412
100
AcDbEntity
  8
DEFPOINTS
 62
     0
100
AcDbPoint
 10
567.3930366986466
 20
518.8187755643077
 30
0.0
  0
POINT
  5
3941E
330
39412
100
AcDbEntity
  8
DEFPOINTS
 62
     0
100
AcDbPoint
 10
567.3930366986466
 20
524.818775564308
 30
0.0
  0
POINT
  5
3941F
330
39412
100
AcDbEntity
  8
DEFPOINTS
 62
     0
100
AcDbPoint
 10
580.3930366986466
 20
524.818775564308
 30
0.0
  0
ENDBLK
  5
39420
330
39412
100
AcDbEntity
  8
0
100
AcDbBlockEnd
  0
BLOCK
  5
39422
330
39421
100
AcDbEntity
  8
0
100
AcDbBlockBegin
  2
*D35
 70
     1
 10
0.0
 20
0.0
 30
0.0
  3
*D35
  1

  0
LINE
  5
39423
330
39421
100
AcDbEntity
  8
30
 62
     0
370
    -2
100
AcDbLine
 10
510.8569333373962
 20
373.2280542975766
 30
0.0
 11
500.7063129439599
 21
373.2280542975766
 31
0.0
  0
LINE
  5
39424
330
39421
100
AcDbEntity
  8
30
 62
     0
370
    -2
100
AcDbLine
 10
510.8544333373966
 20
382.2280542975769
 30
0.0
 11
500.7063129439599
 21
382.2280542975769
 31
0.0
  0
LINE
  5
39425
330
39421
100
AcDbEntity
  8
30
 62
     0
370
    -2
100
AcDbLine
 10
501.2063129439598
 20
375.2280542975766
 30
0.0
 11
501.2063129439598
 21
380.2280542975769
 31
0.0
  0
LINE
  5
39426
330
39421
100
AcDbEntity
  8
30
 62
     0
370
    -2
100
AcDbLine
 10
501.2063129439598
 20
382.2280542975769
 30
0.0
 11
501.2063129439598
 21
398.998383635047
 31
0.0
  0
LINE
  5
39427
330
39421
100
AcDbEntity
  8
30
 62
     0
370
    -2
100
AcDbLine
 10
501.2063129439598
 20
398.998383635047
 30
0.0
 11
507.8729796106268
 21
398.998383635047
 31
0.0
  0
INSERT
  5
39428
330
39421
100
AcDbEntity
  8
30
 62
     0
370
    -2
100
AcDbBlockReference
  2
_OPEN
 10
501.2063129439598
 20
373.2280542975766
 30
0.0
 41
2.0
 42
2.0
 43
2.0
 50
270.0
  0
INSERT
  5
39429
330
39421
100
AcDbEntity
  8
30
 62
     0
370
    -2
100
AcDbBlockReference
  2
_OPEN
 10
501.2063129439598
 20
382.2280542975769
 30
0.0
 41
2.0
 42
2.0
 43
2.0
 50
90.0
  0
MTEXT
  5
3942A
330
39421
100
AcDbEntity
  8
30
 62
     0
100
AcDbMText
 10
505.5396462772931
 20
404.4983836350468
 30
0.0
 40
7.0
 41
0.0
 46
0.0
 71
     5
 72
     1
  1
\A1;9
 73
     1
 44
1.0
  0
POINT
  5
3942B
330
39421
100
AcDbEntity
  8
DEFPOINTS
 62
     0
100
AcDbPoint
 10
513.8569333373963
 20
373.2280542975766
 30
0.0
  0
POINT
  5
3942C
330
39421
100
AcDbEntity
  8
DEFPOINTS
 62
     0
100
AcDbPoint
 10
513.8544333373967
 20
382.2280542975769
 30
0.0
  0
POINT
  5
3942D
330
39421
100
AcDbEntity
  8
DEFPOINTS
 62
     0
100
AcDbPoint
 10
501.2063129439598
 20
382.2280542975769
 30
0.0
  0
ENDBLK
  5
3942E
330
39421
100
AcDbEntity
  8
0
100
AcDbBlockEnd
  0
BLOCK
  5
39430
330
3942F
100
AcDbEntity
  8
0
100
AcDbBlockBegin
  2
*D36
 70
     1
 10
0.0
 20
0.0
 30
0.0
  3
*D36
  1

  0
LINE
  5
39431
330
3942F
100
AcDbEntity
  8
30
 62
     0
370
    -2
100
AcDbLine
 10
566.7135447743352
 20
367.7280542975767
 30
0.0
 11
585.3930366986466
 21
367.7280542975767
 31
0.0
  0
LINE
  5
39432
330
3942F
100
AcDbEntity
  8
30
 62
     0
370
    -2
100
AcDbLine
 10
566.7135447743352
 20
387.728054297577
 30
0.0
 11
585.3930366986466
 21
387.728054297577
 31
0.0
  0
LINE
  5
39433
330
3942F
100
AcDbEntity
  8
30
 62
     0
370
    -2
100
AcDbLine
 10
580.3930366986466
 20
370.7280542975766
 30
0.0
 11
580.3930366986466
 21
384.728054297577
 31
0.0
  0
INSERT
  5
39434
330
3942F
100
AcDbEntity
  8
30
 62
     0
370
    -2
100
AcDbBlockReference
  2
_OPEN
 10
580.3930366986466
 20
367.7280542975767
 30
0.0
 41
3.0
 42
3.0
 43
3.0
 50
270.0
  0
INSERT
  5
39435
330
3942F
100
AcDbEntity
  8
30
 62
     0
370
    -2
100
AcDbBlockReference
  2
_OPEN
 10
580.3930366986466
 20
387.728054297577
 30
0.0
 41
3.0
 42
3.0
 43
3.0
 50
90.0
  0
MTEXT
  5
39436
330
3942F
100
AcDbEntity
  8
30
 62
     0
100
AcDbMText
 10
574.8930366986463
 20
377.7280542975769
 30
0.0
 40
7.0
 41
0.0
 46
0.0
 71
     5
 72
     1
  1
\A1;20
 11
0.0000000000000001
 21
1.0
 31
0.0
 73
     1
 44
1.0
 90
        3
 63
     9
421
 13158600
 45
1.25
441
        0
  0
POINT
  5
39437
330
3942F
100
AcDbEntity
  8
DEFPOINTS
 62
     0
100
AcDbPoint
 10
564.7135447743352
 20
367.7280542975767
 30
0.0
  0
POINT
  5
39438
330
3942F
100
AcDbEntity
  8
DEFPOINTS
 62
     0
100
AcDbPoint
 10
564.7135447743352
 20
387.728054297577
 30
0.0
  0
POINT
  5
39439
330
3942F
100
AcDbEntity
  8
DEFPOINTS
 62
     0
100
AcDbPoint
 10
580.3930366986466
 20
387.728054297577
 30
0.0
  0
ENDBLK
  5
3943A
330
3942F
100
AcDbEntity
  8
0
100
AcDbBlockEnd
  0
BLOCK
  5
3943C
330
3943B
100
AcDbEntity
  8
0
100
AcDbBlockBegin
  2
*D37
 70
     1
 10
0.0
 20
0.0
 30
0.0
  3
*D37
  1

  0
LINE
  5
3943D
330
3943B
100
AcDbEntity
  8
30
 62
     0
370
    -2
100
AcDbLine
 10
551.3930366986466
 20
361.7280542975769
 30
0.0
 11
551.3930366986466
 21
356.7280542975769
 31
0.0
  0
LINE
  5
3943E
330
3943B
100
AcDbEntity
  8
30
 62
     0
370
    -2
100
AcDbLine
 10
567.3930366986466
 20
374.7280542975769
 30
0.0
 11
567.3930366986466
 21
356.7280542975769
 31
0.0
  0
LINE
  5
3943F
330
3943B
100
AcDbEntity
  8
30
 62
     0
370
    -2
100
AcDbLine
 10
553.3930366986465
 20
357.2280542975769
 30
0.0
 11
565.3930366986466
 21
357.2280542975769
 31
0.0
  0
INSERT
  5
39440
330
3943B
100
AcDbEntity
  8
30
 62
     0
370
    -2
100
AcDbBlockReference
  2
_OPEN
 10
551.3930366986466
 20
357.2280542975769
 30
0.0
 41
2.0
 42
2.0
 43
2.0
 50
180.0
  0
INSERT
  5
39441
330
3943B
100
AcDbEntity
  8
30
 62
     0
370
    -2
100
AcDbBlockReference
  2
_OPEN
 10
567.3930366986466
 20
357.2280542975769
 30
0.0
 41
2.0
 42
2.0
 43
2.0
  0
MTEXT
  5
39442
330
3943B
100
AcDbEntity
  8
30
 62
     0
100
AcDbMText
 10
559.3930366986466
 20
362.7280542975769
 30
0.0
 40
7.0
 41
0.0
 46
0.0
 71
     5
 72
     1
  1
\A1;16
 73
     1
 44
1.0
  0
POINT
  5
39443
330
3943B
100
AcDbEntity
  8
DEFPOINTS
 62
     0
100
AcDbPoint
 10
551.3930366986466
 20
364.7280542975769
 30
0.0
  0
POINT
  5
39444
330
3943B
100
AcDbEntity
  8
DEFPOINTS
 62
     0
100
AcDbPoint
 10
567.3930366986466
 20
377.7280542975769
 30
0.0
  0
POINT
  5
39445
330
3943B
100
AcDbEntity
  8
DEFPOINTS
 62
     0
100
AcDbPoint
 10
567.3930366986466
 20
357.2280542975769
 30
0.0
  0
ENDBLK
  5
39446
330
3943B
100
AcDbEntity
  8
0
100
AcDbBlockEnd
  0
BLOCK
  5
39448
330
39447
100
AcDbEntity
  8
0
100
AcDbBlockBegin
  2
*D38
 70
     1
 10
0.0
 20
0.0
 30
0.0
  3
*D38
  1

  0
LINE
  5
39449
330
39447
100
AcDbEntity
  8
30
 62
     0
370
    -2
100
AcDbLine
 10
582.3714363970437
 20
377.8234042003659
 30
0.0
 11
595.3714363970438
 21
377.8234042003659
 31
0.0
  0
LINE
  5
3944A
330
39447
100
AcDbEntity
  8
30
 62
     0
370
    -2
100
AcDbLine
 10
582.3714363970437
 20
521.8234042003656
 30
0.0
 11
595.3714363970438
 21
521.8234042003656
 31
0.0
  0
LINE
  5
3944B
330
39447
100
AcDbEntity
  8
30
 62
     0
370
    -2
100
AcDbLine
 10
590.3714363970437
 20
380.8234042003659
 30
0.0
 11
590.3714363970437
 21
518.8234042003656
 31
0.0
  0
INSERT
  5
3944C
330
39447
100
AcDbEntity
  8
30
 62
     0
370
    -2
100
AcDbBlockReference
  2
_OPEN
 10
590.3714363970437
 20
377.8234042003659
 30
0.0
 41
3.0
 42
3.0
 43
3.0
 50
270.0
  0
INSERT
  5
3944D
330
39447
100
AcDbEntity
  8
30
 62
     0
370
    -2
100
AcDbBlockReference
  2
_OPEN
 10
590.3714363970437
 20
521.8234042003656
 30
0.0
 41
3.0
 42
3.0
 43
3.0
 50
90.0
  0
MTEXT
  5
3944E
330
39447
100
AcDbEntity
  8
30
 62
     0
100
AcDbMText
 10
584.8714363970437
 20
449.8234042003658
 30
0.0
 40
7.0
 41
0.0
 46
0.0
 71
     5
 72
     1
  1
\A1;144
 11
0.0000000000000001
 21
1.0
 31
0.0
 73
     1
 44
1.0
 90
        3
 63
     9
421
 13158600
 45
1.25
441
        0
  0
POINT
  5
3944F
330
39447
100
AcDbEntity
  8
DEFPOINTS
 62
     0
100
AcDbPoint
 10
580.3714363970438
 20
377.8234042003659
 30
0.0
  0
POINT
  5
39450
330
39447
100
AcDbEntity
  8
DEFPOINTS
 62
     0
100
AcDbPoint
 10
580.3714363970438
 20
521.8234042003656
 30
0.0
  0
POINT
  5
39451
330
39447
100
AcDbEntity
  8
DEFPOINTS
 62
     0
100
AcDbPoint
 10
590.3714363970437
 20
521.8234042003656
 30
0.0
  0
ENDBLK
  5
39452
330
39447
100
AcDbEntity
  8
0
100
AcDbBlockEnd
  0
BLOCK
  5
39454
330
39453
100
AcDbEntity
  8
0
100
AcDbBlockBegin
  2
*D39
 70
     1
 10
0.0
 20
0.0
 30
0.0
  3
*D39
  1

  0
LINE
  5
39455
330
39453
100
AcDbEntity
  8
30
 62
     0
370
    -2
100
AcDbLine
 10
460.3714363970438
 20
340.3234042003659
 30
0.0
 11
460.3714363970438
 21
332.3234042003659
 31
0.0
  0
LINE
  5
39456
330
39453
100
AcDbEntity
  8
30
 62
     0
370
    -2
100
AcDbLine
 10
532.3714363970436
 20
365.2280542975769
 30
0.0
 11
532.3714363970436
 21
332.3234042003659
 31
0.0
  0
LINE
  5
39457
330
39453
100
AcDbEntity
  8
30
 62
     0
370
    -2
100
AcDbLine
 10
463.3714363970439
 20
337.3234042003659
 30
0.0
 11
529.3714363970438
 21
337.3234042003659
 31
0.0
  0
INSERT
  5
39458
330
39453
100
AcDbEntity
  8
30
 62
     0
370
    -2
100
AcDbBlockReference
  2
_OPEN
 10
460.3714363970438
 20
337.3234042003659
 30
0.0
 41
3.0
 42
3.0
 43
3.0
 50
180.0
  0
INSERT
  5
39459
330
39453
100
AcDbEntity
  8
30
 62
     0
370
    -2
100
AcDbBlockReference
  2
_OPEN
 10
532.3714363970436
 20
337.3234042003659
 30
0.0
 41
3.0
 42
3.0
 43
3.0
  0
MTEXT
  5
3945A
330
39453
100
AcDbEntity
  8
30
 62
     0
100
AcDbMText
 10
490.628348358854
 20
342.8234042003659
 30
0.0
 40
7.0
 41
0.0
 46
0.0
 71
     5
 72
     1
  1
\A1;72
 73
     1
 44
1.0
 90
        3
 63
     9
421
 13158600
 45
1.25
441
        0
  0
POINT
  5
3945B
330
39453
100
AcDbEntity
  8
DEFPOINTS
 62
     0
100
AcDbPoint
 10
460.3714363970438
 20
342.3234042003659
 30
0.0
  0
POINT
  5
3945C
330
39453
100
AcDbEntity
  8
DEFPOINTS
 62
     0
100
AcDbPoint
 10
532.3714363970436
 20
367.2280542975769
 30
0.0
  0
POINT
  5
3945D
330
39453
100
AcDbEntity
  8
DEFPOINTS
 62
     0
100
AcDbPoint
 10
532.3714363970436
 20
337.3234042003659
 30
0.0
  0
ENDBLK
  5
3945E
330
39453
100
AcDbEntity
  8
0
100
AcDbBlockEnd
  0
BLOCK
  5
39460
330
3945F
100
AcDbEntity
  8
0
100
AcDbBlockBegin
  2
*D40
 70
     1
 10
0.0
 20
0.0
 30
0.0
  3
*D40
  1

  0
LINE
  5
39461
330
3945F
100
AcDbEntity
  8
30
 62
     0
370
    -2
100
AcDbLine
 10
379.8714363970437
 20
472.3234042003658
 30
0.0
 11
350.0788984467636
 21
472.3234042003658
 31
0.0
  0
LINE
  5
39462
330
3945F
100
AcDbEntity
  8
30
 62
     0
370
    -2
100
AcDbLine
 10
379.8714363970437
 20
427.3234042003656
 30
0.0
 11
350.0788984467636
 21
427.3234042003656
 31
0.0
  0
LINE
  5
39463
330
3945F
100
AcDbEntity
  8
30
 62
     0
370
    -2
100
AcDbLine
 10
355.0788984467636
 20
469.3234042003656
 30
0.0
 11
355.0788984467636
 21
430.3234042003658
 31
0.0
  0
INSERT
  5
39464
330
3945F
100
AcDbEntity
  8
30
 62
     0
370
    -2
100
AcDbBlockReference
  2
_OPEN
 10
355.0788984467636
 20
472.3234042003658
 30
0.0
 41
3.0
 42
3.0
 43
3.0
 50
90.0
  0
INSERT
  5
39465
330
3945F
100
AcDbEntity
  8
30
 62
     0
370
    -2
100
AcDbBlockReference
  2
_OPEN
 10
355.0788984467636
 20
427.3234042003656
 30
0.0
 41
3.0
 42
3.0
 43
3.0
 50
270.0
  0
MTEXT
  5
39466
330
3945F
100
AcDbEntity
  8
30
 62
     0
100
AcDbMText
 10
349.5788984467635
 20
452.3234042003656
 30
0.0
 40
7.0
 41
0.0
 46
0.0
 71
     5
 72
     1
  1
\A1;45
 11
0.0000000000000001
 21
1.0
 31
0.0
 73
     1
 44
1.0
 90
        3
 63
     9
421
 13158600
 45
1.25
441
        0
  0
POINT
  5
39467
330
3945F
100
AcDbEntity
  8
DEFPOINTS
 62
     0
100
AcDbPoint
 10
381.8714363970437
 20
472.3234042003658
 30
0.0
  0
POINT
  5
39468
330
3945F
100
AcDbEntity
  8
DEFPOINTS
 62
     0
100
AcDbPoint
 10
381.8714363970437
 20
427.3234042003656
 30
0.0
  0
POINT
  5
39469
330
3945F
100
AcDbEntity
  8
DEFPOINTS
 62
     0
100
AcDbPoint
 10
355.0788984467636
 20
427.3234042003656
 30
0.0
  0
ENDBLK
  5
3946A
330
3945F
100
AcDbEntity
  8
0
100
AcDbBlockEnd
  0
BLOCK
  5
3946C
330
3946B
100
AcDbEntity
  8
0
100
AcDbBlockBegin
  2
*D41
 70
     1
 10
0.0
 20
0.0
 30
0.0
  3
*D41
  1

  0
LINE
  5
3946D
330
3946B
100
AcDbEntity
  8
30
 62
     0
370
    -2
100
AcDbLine
 10
386.3714363970439
 20
474.8234042003657
 30
0.0
 11
336.9174877808047
 21
474.8234042003658
 31
0.0
  0
LINE
  5
3946E
330
3946B
100
AcDbEntity
  8
30
 62
     0
370
    -2
100
AcDbLine
 10
386.3714363970439
 20
424.8234042003657
 30
0.0
 11
336.9174877808047
 21
424.8234042003658
 31
0.0
  0
LINE
  5
3946F
330
3946B
100
AcDbEntity
  8
30
 62
     0
370
    -2
100
AcDbLine
 10
341.9174877808047
 20
471.8234042003658
 30
0.0
 11
341.9174877808047
 21
427.8234042003658
 31
0.0
  0
INSERT
  5
39470
330
3946B
100
AcDbEntity
  8
30
 62
     0
370
    -2
100
AcDbBlockReference
  2
_OPEN
 10
341.9174877808047
 20
474.8234042003658
 30
0.0
 41
3.0
 42
3.0
 43
3.0
 50
90.0
  0
INSERT
  5
39471
330
3946B
100
AcDbEntity
  8
30
 62
     0
370
    -2
100
AcDbBlockReference
  2
_OPEN
 10
341.9174877808047
 20
424.8234042003658
 30
0.0
 41
3.0
 42
3.0
 43
3.0
 50
270.0
  0
MTEXT
  5
39472
330
3946B
100
AcDbEntity
  8
30
 62
     0
100
AcDbMText
 10
336.4174877808046
 20
449.8234042003658
 30
0.0
 40
7.0
 41
0.0
 46
0.0
 71
     5
 72
     1
  1
\A1;50
 11
0.0000000000000001
 21
1.0
 31
0.0
 73
     1
 44
1.0
 90
        3
 63
     9
421
 13158600
 45
1.25
441
        0
  0
POINT
  5
39473
330
3946B
100
AcDbEntity
  8
DEFPOINTS
 62
     0
100
AcDbPoint
 10
388.3714363970439
 20
474.8234042003657
 30
0.0
  0
POINT
  5
39474
330
3946B
100
AcDbEntity
  8
DEFPOINTS
 62
     0
100
AcDbPoint
 10
388.3714363970439
 20
424.8234042003657
 30
0.0
  0
POINT
  5
39475
330
3946B
100
AcDbEntity
  8
DEFPOINTS
 62
     0
100
AcDbPoint
 10
341.9174877808047
 20
424.8234042003658
 30
0.0
  0
ENDBLK
  5
39476
330
3946B
100
AcDbEntity
  8
0
100
AcDbBlockEnd
  0
BLOCK
  5
39478
330
39477
100
AcDbEntity
  8
0
100
AcDbBlockBegin
  2
*D42
 70
     1
 10
0.0
 20
0.0
 30
0.0
  3
*D42
  1

  0
LINE
  5
39479
330
39477
100
AcDbEntity
  8
30
 62
     0
370
    -2
100
AcDbLine
 10
390.3714363970438
 20
500.8234042003655
 30
0.0
 11
321.0633262442097
 21
500.8234042003656
 31
0.0
  0
LINE
  5
3947A
330
39477
100
AcDbEntity
  8
30
 62
     0
370
    -2
100
AcDbLine
 10
390.3714363970438
 20
398.8234042003658
 30
0.0
 11
321.0633262442097
 21
398.8234042003658
 31
0.0
  0
LINE
  5
3947B
330
39477
100
AcDbEntity
  8
30
 62
     0
370
    -2
100
AcDbLine
 10
326.0633262442098
 20
497.8234042003656
 30
0.0
 11
326.0633262442098
 21
401.8234042003657
 31
0.0
  0
INSERT
  5
3947C
330
39477
100
AcDbEntity
  8
30
 62
     0
370
    -2
100
AcDbBlockReference
  2
_OPEN
 10
326.0633262442098
 20
500.8234042003656
 30
0.0
 41
3.0
 42
3.0
 43
3.0
 50
90.0
  0
INSERT
  5
3947D
330
39477
100
AcDbEntity
  8
30
 62
     0
370
    -2
100
AcDbBlockReference
  2
_OPEN
 10
326.0633262442098
 20
398.8234042003658
 30
0.0
 41
3.0
 42
3.0
 43
3.0
 50
270.0
  0
MTEXT
  5
3947E
330
39477
100
AcDbEntity
  8
30
 62
     0
100
AcDbMText
 10
320.5633262442096
 20
449.8234042003657
 30
0.0
 40
7.0
 41
0.0
 46
0.0
 71
     5
 72
     1
  1
\A1;102
 11
0.0000000000000001
 21
1.0
 31
0.0
 73
     1
 44
1.0
 90
        3
 63
     9
421
 13158600
 45
1.25
441
        0
  0
POINT
  5
3947F
330
39477
100
AcDbEntity
  8
DEFPOINTS
 62
     0
100
AcDbPoint
 10
392.3714363970439
 20
500.8234042003655
 30
0.0
  0
POINT
  5
39480
330
39477
100
AcDbEntity
  8
DEFPOINTS
 62
     0
100
AcDbPoint
 10
392.3714363970439
 20
398.8234042003658
 30
0.0
  0
POINT
  5
39481
330
39477
100
AcDbEntity
  8
DEFPOINTS
 62
     0
100
AcDbPoint
 10
326.0633262442098
 20
398.8234042003658
 30
0.0
  0
ENDBLK
  5
39482
330
39477
100
AcDbEntity
  8
0
100
AcDbBlockEnd
  0
BLOCK
  5
39484
330
39483
100
AcDbEntity
  8
0
100
AcDbBlockBegin
  2
*D43
 70
     1
 10
0.0
 20
0.0
 30
0.0
  3
*D43
  1

  0
LINE
  5
39485
330
39483
100
AcDbEntity
  8
30
 62
     0
370
    -2
100
AcDbLine
 10
532.3714363970436
 20
361.2280542975769
 30
0.0
 11
532.3714363970436
 21
354.0071025102943
 31
0.0
  0
LINE
  5
39486
330
39483
100
AcDbEntity
  8
30
 62
     0
370
    -2
100
AcDbLine
 10
519.3714363970436
 20
361.2280542975769
 30
0.0
 11
519.3714363970436
 21
354.0071025102943
 31
0.0
  0
LINE
  5
39487
330
39483
100
AcDbEntity
  8
30
 62
     0
370
    -2
100
AcDbLine
 10
530.3714363970438
 20
354.5071025102943
 30
0.0
 11
521.3714363970438
 21
354.5071025102943
 31
0.0
  0
LINE
  5
39488
330
39483
100
AcDbEntity
  8
30
 62
     0
370
    -2
100
AcDbLine
 10
519.3714363970436
 20
354.5071025102943
 30
0.0
 11
493.3594238592544
 21
354.5071025102943
 31
0.0
  0
INSERT
  5
39489
330
39483
100
AcDbEntity
  8
30
 62
     0
370
    -2
100
AcDbBlockReference
  2
_OPEN
 10
532.3714363970436
 20
354.5071025102943
 30
0.0
 41
2.0
 42
2.0
 43
2.0
  0
INSERT
  5
3948A
330
39483
100
AcDbEntity
  8
30
 62
     0
370
    -2
100
AcDbBlockReference
  2
_OPEN
 10
519.3714363970436
 20
354.5071025102943
 30
0.0
 41
2.0
 42
2.0
 43
2.0
 50
180.0
  0
MTEXT
  5
3948B
330
39483
100
AcDbEntity
  8
30
 62
     0
100
AcDbMText
 10
500.0260905259208
 20
360.0071025102943
 30
0.0
 40
7.0
 41
0.0
 46
0.0
 71
     5
 72
     1
  1
\A1;13
 73
     1
 44
1.0
  0
POINT
  5
3948C
330
39483
100
AcDbEntity
  8
DEFPOINTS
 62
     0
100
AcDbPoint
 10
532.3714363970436
 20
364.2280542975769
 30
0.0
  0
POINT
  5
3948D
330
39483
100
AcDbEntity
  8
DEFPOINTS
 62
     0
100
AcDbPoint
 10
519.3714363970436
 20
364.2280542975769
 30
0.0
  0
POINT
  5
3948E
330
39483
100
AcDbEntity
  8
DEFPOINTS
 62
     0
100
AcDbPoint
 10
519.3714363970436
 20
354.5071025102943
 30
0.0
  0
ENDBLK
  5
3948F
330
39483
100
AcDbEntity
  8
0
100
AcDbBlockEnd
  0
BLOCK
  5
39491
330
39490
100
AcDbEntity
  8
0
100
AcDbBlockBegin
  2
*D44
 70
     1
 10
0.0
 20
0.0
 30
0.0
  3
*D44
  1

  0
LINE
  5
39492
330
39490
100
AcDbEntity
  8
30
 62
     0
370
    -2
100
AcDbLine
 10
519.3714363970436
 20
361.7200313284101
 30
0.0
 11
519.3714363970436
 21
344.3169675900835
 31
0.0
  0
LINE
  5
39493
330
39490
100
AcDbEntity
  8
30
 62
     0
370
    -2
100
AcDbLine
 10
513.3714363970438
 20
361.7200313284101
 30
0.0
 11
513.3714363970438
 21
344.3169675900835
 31
0.0
  0
LINE
  5
39494
330
39490
100
AcDbEntity
  8
30
 62
     0
370
    -2
100
AcDbLine
 10
521.3714363970438
 20
344.8169675900836
 30
0.0
 11
523.3714363970436
 21
344.8169675900836
 31
0.0
  0
LINE
  5
39495
330
39490
100
AcDbEntity
  8
30
 62
     0
370
    -2
100
AcDbLine
 10
511.3714363970438
 20
344.8169675900836
 30
0.0
 11
500.7047697303772
 21
344.8169675900836
 31
0.0
  0
LINE
  5
39496
330
39490
100
AcDbEntity
  8
30
 62
     0
370
    -2
100
AcDbLine
 10
519.3714363970436
 20
344.8169675900836
 30
0.0
 11
513.3714363970438
 21
344.8169675900836
 31
0.0
  0
INSERT
  5
39497
330
39490
100
AcDbEntity
  8
30
 62
     0
370
    -2
100
AcDbBlockReference
  2
_OPEN
 10
519.3714363970436
 20
344.8169675900836
 30
0.0
 41
2.0
 42
2.0
 43
2.0
 50
180.0
  0
INSERT
  5
39498
330
39490
100
AcDbEntity
  8
30
 62
     0
370
    -2
100
AcDbBlockReference
  2
_OPEN
 10
513.3714363970438
 20
344.8169675900836
 30
0.0
 41
2.0
 42
2.0
 43
2.0
  0
MTEXT
  5
39499
330
39490
100
AcDbEntity
  8
30
 62
     0
100
AcDbMText
 10
505.0381030637105
 20
350.3169675900835
 30
0.0
 40
7.0
 41
0.0
 46
0.0
 71
     5
 72
     1
  1
\A1;6
 73
     1
 44
1.0
  0
POINT
  5
3949A
330
39490
100
AcDbEntity
  8
DEFPOINTS
 62
     0
100
AcDbPoint
 10
519.3714363970436
 20
364.7200313284101
 30
0.0
  0
POINT
  5
3949B
330
39490
100
AcDbEntity
  8
DEFPOINTS
 62
     0
100
AcDbPoint
 10
513.3714363970438
 20
364.7200313284101
 30
0.0
  0
POINT
  5
3949C
330
39490
100
AcDbEntity
  8
DEFPOINTS
 62
     0
100
AcDbPoint
 10
513.3714363970438
 20
344.8169675900836
 30
0.0
  0
ENDBLK
  5
3949D
330
39490
100
AcDbEntity
  8
0
100
AcDbBlockEnd
  0
BLOCK
  5
3949F
330
3949E
100
AcDbEntity
  8
0
100
AcDbBlockBegin
  2
*D45
 70
     1
 10
0.0
 20
0.0
 30
0.0
  3
*D45
  1

  0
LINE
  5
394A0
330
3949E
100
AcDbEntity
  8
30
 62
     0
370
    -2
100
AcDbLine
 10
388.3714363970439
 20
421.8234042003659
 30
0.0
 11
388.3714363970439
 21
314.1474857738885
 31
0.0
  0
LINE
  5
394A1
330
3949E
100
AcDbEntity
  8
30
 62
     0
370
    -2
100
AcDbLine
 10
381.8714363970439
 20
421.8234042003659
 30
0.0
 11
381.8714363970439
 21
314.1474857738885
 31
0.0
  0
LINE
  5
394A2
330
3949E
100
AcDbEntity
  8
30
 62
     0
370
    -2
100
AcDbLine
 10
390.3714363970438
 20
314.6474857738886
 30
0.0
 11
392.3714363970439
 21
314.6474857738886
 31
0.0
  0
LINE
  5
394A3
330
3949E
100
AcDbEntity
  8
30
 62
     0
370
    -2
100
AcDbLine
 10
379.8714363970439
 20
314.6474857738886
 30
0.0
 11
342.0526538604281
 21
314.6474857738886
 31
0.0
  0
LINE
  5
394A4
330
3949E
100
AcDbEntity
  8
30
 62
     0
370
    -2
100
AcDbLine
 10
388.3714363970439
 20
314.6474857738886
 30
0.0
 11
381.8714363970439
 21
314.6474857738886
 31
0.0
  0
INSERT
  5
394A5
330
3949E
100
AcDbEntity
  8
30
 62
     0
370
    -2
100
AcDbBlockReference
  2
_OPEN
 10
388.3714363970439
 20
314.6474857738886
 30
0.0
 41
2.0
 42
2.0
 43
2.0
 50
180.0
  0
INSERT
  5
394A6
330
3949E
100
AcDbEntity
  8
30
 62
     0
370
    -2
100
AcDbBlockReference
  2
_OPEN
 10
381.8714363970439
 20
314.6474857738886
 30
0.0
 41
2.0
 42
2.0
 43
2.0
  0
MTEXT
  5
394A7
330
3949E
100
AcDbEntity
  8
30
 62
     0
100
AcDbMText
 10
351.0526538604282
 20
320.1474857738885
 30
0.0
 40
7.0
 41
0.0
 46
0.0
 71
     5
 72
     1
  1
\A1;6.5
 73
     1
 44
1.0
  0
POINT
  5
394A8
330
3949E
100
AcDbEntity
  8
DEFPOINTS
 62
     0
100
AcDbPoint
 10
388.3714363970439
 20
424.8234042003658
 30
0.0
  0
POINT
  5
394A9
330
3949E
100
AcDbEntity
  8
DEFPOINTS
 62
     0
100
AcDbPoint
 10
381.8714363970439
 20
424.8234042003658
 30
0.0
  0
POINT
  5
394AA
330
3949E
100
AcDbEntity
  8
DEFPOINTS
 62
     0
100
AcDbPoint
 10
381.8714363970439
 20
314.6474857738886
 30
0.0
  0
ENDBLK
  5
394AB
330
3949E
100
AcDbEntity
  8
0
100
AcDbBlockEnd
  0
BLOCK
  5
394EB
330
394AC
100
AcDbEntity
  8
0
100
AcDbBlockBegin
  2
A$C3C2E0B6F
 70
     0
 10
0.0
 20
0.0
 30
0.0
  3
A$C3C2E0B6F
  1

  0
LINE
  5
394AD
330
394AC
100
AcDbEntity
  8
130
100
AcDbLine
 10
-229.6285636029558
 20
513.4207484878725
 30
0.0
 11
-229.6285636029558
 21
500.8234042003655
 31
0.0
  0
LINE
  5
394AE
330
394AC
100
AcDbEntity
  8
130
100
AcDbLine
 10
-237.6285636029559
 20
500.8234042003655
 30
0.0
 11
-229.6285636029558
 21
500.8234042003655
 31
0.0
  0
LINE
  5
394AF
330
394AC
100
AcDbEntity
  8
16
100
AcDbLine
 10
-266.6285636029559
 20
449.8234042003658
 30
0.0
 11
-161.4285636029556
 21
449.8234042003658
 31
0.0
  0
ARC
  5
394B0
330
394AC
100
AcDbEntity
  8
30
100
AcDbCircle
 10
-112.6930356508107
 20
442.4470083064417
 30
0.0
 40
151.9985443848637
100
AcDbArc
 50
172.9712057697295
 51
178.3500916190563
  0
DIMENSION
  5
394B1
330
394AC
100
AcDbEntity
  8
30
100
AcDbDimension
280
     0
  2
*D29
 10
-169.6285636029558
 20
337.3234042003659
 30
0.0
 11
-199.6285636029558
 21
342.8234042003659
 31
0.0
 12
-629.9999999999998
 22
0.0
 32
0.0
 71
     5
 42
60.0
 73
     0
 74
     0
 75
     0
  3
STANDARD1
100
AcDbAlignedDimension
 13
-229.6285636029558
 23
381.073147510981
 33
0.0
 14
-169.6285636029558
 24
342.3234042003659
 34
0.0
100
AcDbRotatedDimension
  0
DIMENSION
  5
394B2
330
394AC
100
AcDbEntity
  8
30
100
AcDbDimension
280
     0
  2
*D30
 10
-169.6285636029558
 20
314.8897007940808
 30
0.0
 11
-205.6285636029559
 21
320.3897007940808
 31
0.0
 12
-629.9999999999998
 22
0.0
 32
0.0
 71
     5
 42
72.0
 73
     0
 74
     0
 75
     0
  3
STANDARD1
100
AcDbAlignedDimension
 13
-241.6285636029559
 23
424.8234042003658
 33
0.0
 14
-169.6285636029558
 24
342.3234042003659
 34
0.0
100
AcDbRotatedDimension
  0
DIMENSION
  5
394B3
330
394AC
100
AcDbEntity
  8
30
100
AcDbDimension
280
     0
  2
*D31
 10
-169.6285636029558
 20
326.5121712463419
 30
0.0
 11
-203.6285636029559
 21
332.0121712463418
 31
0.0
 12
-629.9999999999998
 22
0.0
 32
0.0
 71
     5
 42
68.0
 73
     0
 74
     0
 75
     0
  3
STANDARD1
100
AcDbAlignedDimension
 13
-237.6285636029559
 23
398.8234042003659
 33
0.0
 14
-169.6285636029558
 24
342.3234042003659
 34
0.0
100
AcDbRotatedDimension
  0
DIMENSION
  5
394B4
330
394AC
100
AcDbEntity
  8
30
100
AcDbDimension
280
     0
  2
*D32
 10
-169.6285636029558
 20
304.8897007940808
 30
0.0
 11
-217.1285636029558
 21
310.3897007940808
 31
0.0
 12
-629.9999999999998
 22
0.0
 32
0.0
 71
     5
 42
95.0
 73
     0
 74
     0
 75
     0
  3
STANDARD1
100
AcDbAlignedDimension
 13
-264.6285636029559
 23
449.8234042003658
 33
0.0
 14
-169.6285636029558
 24
342.3234042003659
 34
0.0
100
AcDbRotatedDimension
  0
DIMENSION
  5
394B5
330
394AC
100
AcDbEntity
  8
30
100
AcDbDimension
280
     0
  2
*D33
 10
-62.62856360295586
 20
326.5121712463419
 30
0.0
 11
-116.1285636029558
 21
332.0121712463418
 31
0.0
 12
-629.9999999999998
 22
0.0
 32
0.0
 71
     5
 42
107.0
 73
     0
 74
     0
 75
     0
  3
STANDARD1
100
AcDbAlignedDimension
 13
-169.6285636029558
 23
367.3234042003659
 33
0.0
 14
-62.62856360295586
 24
377.8234042003659
 34
0.0
100
AcDbRotatedDimension
  0
LINE
  5
394B6
330
394AC
100
AcDbEntity
  8
24
100
AcDbLine
 10
-169.6285636029558
 20
367.7218827828332
 30
0.0
 11
-100.3097097557028
 21
367.7218827828332
 31
0.0
  0
LWPOLYLINE
  5
394B7
330
394AC
100
AcDbEntity
  8
24
100
AcDbPolyline
 90
        2
 70
     0
 43
0.0
 10
97.62856535129699
 20
382.7311399920684
 42
0.0678333867575107
 10
95.5828949698971
 20
387.7342258123207
210
0.0
220
0.0
230
-1.0
  0
ARC
  5
394B8
330
394AC
100
AcDbEntity
  8
24
100
AcDbCircle
 10
-117.6409066324431
 20
377.7280542975769
 30
0.0
 40
20.01234302948724
100
AcDbArc
 50
329.9999999999997
 51
30.00000000000034
  0
LWPOLYLINE
  5
394B9
330
394AC
100
AcDbEntity
  8
24
100
AcDbPolyline
 90
        2
 70
     0
 43
0.0
 10
-98.26404054659995
 20
382.7311400549486
 10
-97.628563602956
 20
382.7311400549486
  0
LINE
  5
394BA
330
394AC
100
AcDbEntity
  8
24
100
AcDbLine
 10
-169.6285636029558
 20
387.7342258123205
 30
0.0
 11
-100.3097097557028
 21
387.7342258123205
 31
0.0
  0
DIMENSION
  5
394BB
330
394AC
100
AcDbEntity
  8
30
100
AcDbDimension
280
     0
  2
*D34
 10
-49.60696330135316
 20
524.818775564308
 30
0.0
 11
-45.27362996801993
 21
534.318775564308
 31
0.0
 12
-629.9999999999998
 22
0.0
 32
0.0
 71
     0
 72
     0
 41
0.0
 42
6.0
 73
     0
 74
     0
 75
     0
  3
STANDARD1
100
AcDbAlignedDimension
 13
-62.60696330135317
 23
518.8187755643077
 33
0.0
 14
-62.60696330135317
 24
524.818775564308
 34
0.0
 50
90.0
100
AcDbRotatedDimension
  0
LINE
  5
394BC
330
394AC
100
AcDbEntity
  8
17
100
AcDbLine
 10
-179.6069633013531
 20
521.8169241098848
 30
0.0
 11
-57.60696330135329
 21
521.8169241098848
 31
0.0
  0
DIMENSION
  5
394BD
330
394AC
100
AcDbEntity
  8
30
100
AcDbDimension
280
     0
  2
*D35
 10
-128.7936870560397
 20
382.2280542975769
 30
0.0
 11
-124.4603537227065
 21
398.9983836350472
 31
0.0
 12
-629.9999999999998
 22
0.0
 32
0.0
 70
   128
 71
     0
 72
     0
 41
0.0
 42
9.000000000000227
 73
     0
 74
     0
 75
     0
  3
STANDARD1
100
AcDbAlignedDimension
 13
-116.1430666626035
 23
373.2280542975766
 33
0.0
 14
-116.145566662603
 24
382.2280542975769
 34
0.0
 50
90.0
100
AcDbRotatedDimension
  0
LINE
  5
394BE
330
394AC
100
AcDbEntity
  8
17
100
AcDbLine
 10
-179.6069633013531
 20
377.7280542975769
 30
0.0
 11
-57.56255580135348
 21
377.7280542975769
 31
0.0
  0
DIMENSION
  5
394BF
330
394AC
100
AcDbEntity
  8
30
100
AcDbDimension
280
     0
  2
*D36
 10
-49.60696330135316
 20
387.728054297577
 30
0.0
 11
-55.10696330135329
 21
377.7280542975769
 31
0.0
 12
-629.9999999999998
 22
0.0
 32
0.0
 71
     0
 72
     0
 41
0.0
 42
20.00000000000034
 73
     0
 74
     0
 75
     0
  3
STANDARD
100
AcDbAlignedDimension
 13
-65.28645522566455
 23
367.7280542975767
 33
0.0
 14
-65.28645522566444
 24
387.728054297577
 34
0.0
 50
90.0
100
AcDbRotatedDimension
  0
DIMENSION
  5
394C0
330
394AC
100
AcDbEntity
  8
30
100
AcDbDimension
280
     0
  2
*D37
 10
-62.60696330135317
 20
357.2280542975769
 30
0.0
 11
-70.60696330135319
 21
362.7280542975769
 31
0.0
 12
-629.9999999999998
 22
0.0
 32
0.0
 71
     5
 42
16.0
 73
     0
 74
     0
 75
     0
  3
STANDARD1
100
AcDbAlignedDimension
 13
-78.60696330135318
 23
364.7280542975769
 33
0.0
 14
-62.60696330135317
 24
377.7280542975769
 34
0.0
100
AcDbRotatedDimension
  0
LINE
  5
394C1
330
394AC
100
AcDbEntity
  8
1
  6
Continuous
 62
     2
100
AcDbLine
 10
-169.6285636029558
 20
532.3234042003658
 30
0.0
 11
-169.6285636029558
 21
367.2215742070961
 31
0.0
  0
ARC
  5
394C2
330
394AC
100
AcDbEntity
  8
24
100
AcDbCircle
 10
116.2751492731385
 20
377.7280542975769
 30
0.0
 40
20.01234302948724
210
0.0
220
0.0
230
-1.0
100
AcDbArc
 50
329.9999999999997
 51
345.5224879999992
  0
ARC
  5
394C3
330
394AC
100
AcDbEntity
  8
24
100
AcDbCircle
 10
-110.6365865721225
 20
377.7280542975769
 30
0.0
 40
4.50277718163463
100
AcDbArc
 50
270.0
 51
90.0
  0
CIRCLE
  5
394C4
330
394AC
100
AcDbEntity
  8
24
100
AcDbCircle
 10
-78.6168377249428
 20
377.7280542975769
 30
0.0
 40
4.50277718163463
  0
LWPOLYLINE
  5
394C5
330
394AC
100
AcDbEntity
  8
24
100
AcDbPolyline
 90
        2
 70
     0
 43
0.0
 10
-65.28810887805615
 20
367.7218827828331
 42
0.2679491924311281
 10
-65.28810887805615
 20
387.7342258123207
  0
LWPOLYLINE
  5
394C6
330
394AC
100
AcDbEntity
  8
24
100
AcDbPolyline
 90
        2
 70
     0
 43
0.0
 10
95.5828949698971
 20
367.7218827828331
 42
0.0678333867574932
 10
97.62856535129664
 20
372.7249686030841
210
0.0
220
0.0
230
-1.0
  0
ARC
  5
394C7
330
394AC
100
AcDbEntity
  8
24
100
AcDbCircle
 10
116.2751492731385
 20
377.7280542975769
 30
0.0
 40
20.01234302948724
210
0.0
220
0.0
230
-1.0
100
AcDbArc
 50
14.47751199999786
 51
30.00000000000034
  0
ARC
  5
394C8
330
394AC
100
AcDbEntity
  8
24
100
AcDbCircle
 10
-116.6402894809689
 20
377.7280542975769
 30
0.0
 40
4.50277718163463
100
AcDbArc
 50
90.0
 51
270.0
  0
LINE
  5
394C9
330
394AC
100
AcDbEntity
  8
24
100
AcDbLine
 10
-140.1103576344622
 20
387.7342258123205
 30
0.0
 11
-140.1103576344622
 21
367.7218827828332
 31
0.0
  0
LWPOLYLINE
  5
394CA
330
394AC
100
AcDbEntity
  8
24
100
AcDbPolyline
 90
        2
 70
     0
 43
0.0
 10
-95.58289439385305
 20
367.7218827828332
 10
-65.28810945410009
 20
367.7218827828332
  0
LWPOLYLINE
  5
394CB
330
394AC
100
AcDbEntity
  8
24
100
AcDbPolyline
 90
        2
 70
     0
 43
0.0
 10
-95.58289439385305
 20
387.7342258123205
 10
-65.28810945410009
 20
387.7342258123205
  0
LINE
  5
394CC
330
394AC
100
AcDbEntity
  8
24
100
AcDbLine
 10
-110.6365865721225
 20
382.2308314792115
 30
0.0
 11
-116.6402894809689
 21
382.2308314792115
 31
0.0
  0
LINE
  5
394CD
330
394AC
100
AcDbEntity
  8
24
100
AcDbLine
 10
-140.1103576344622
 20
382.7311400549486
 30
0.0
 11
-135.6520153589819
 21
382.7311400549486
 31
0.0
  0
LINE
  5
394CE
330
394AC
100
AcDbEntity
  8
24
100
AcDbLine
 10
-116.6402894809689
 20
373.2252771159423
 30
0.0
 11
-110.6365865721225
 21
373.2252771159423
 31
0.0
  0
LINE
  5
394CF
330
394AC
100
AcDbEntity
  8
17
100
AcDbLine
 10
-78.6168377249428
 20
390.7360772667436
 30
0.0
 11
-78.6168377249428
 21
364.7200313284101
 31
0.0
  0
LWPOLYLINE
  5
394D0
330
394AC
100
AcDbEntity
  8
24
100
AcDbPolyline
 90
        2
 70
     0
 43
0.0
 10
-98.26404054659995
 20
372.7249685402052
 10
-97.628563602956
 20
372.7249685402052
  0
LINE
  5
394D1
330
394AC
100
AcDbEntity
  8
24
100
AcDbLine
 10
-140.1103576344622
 20
372.7249685402052
 30
0.0
 11
-135.6520153589819
 21
372.7249685402052
 31
0.0
  0
LINE
  5
394D2
330
394AC
100
AcDbEntity
  8
17
100
AcDbLine
 10
-78.6168377249428
 20
534.8249470790516
 30
0.0
 11
-78.6168377249428
 21
508.8089011407181
 31
0.0
  0
LWPOLYLINE
  5
394D3
330
394AC
100
AcDbEntity
  8
24
100
AcDbPolyline
 90
        8
 70
     0
 43
0.0
 10
-103.5878316056481
 20
526.8200098672568
 10
-96.77541740726589
 20
526.8200098672568
 10
-96.77541740726589
 20
524.818775564308
 10
-62.60696330135317
 20
524.818775564308
 10
-62.60696330135317
 20
518.8150726554619
 10
-96.77541740726589
 20
518.8150726554619
 10
-96.77541740726589
 20
516.8138383525132
 10
-103.5878316056481
 20
516.8138383525132
  0
LWPOLYLINE
  5
394D4
330
394AC
100
AcDbEntity
  8
24
100
AcDbPolyline
 90
        3
 70
     0
 43
0.0
 10
-169.6285636029558
 20
531.8230956246285
 10
-103.5878316056481
 20
531.8230956246285
 10
-103.5878316056481
 20
524.818775564308
  0
LWPOLYLINE
  5
394D5
330
394AC
100
AcDbEntity
  8
24
100
AcDbPolyline
 90
        3
 70
     0
 43
0.0
 10
-169.6285636029558
 20
511.8107525951412
 10
-103.5878316056481
 20
511.8107525951412
 10
-103.5878316056481
 20
518.8150726554619
  0
LWPOLYLINE
  5
394D6
330
394AC
100
AcDbEntity
  8
24
100
AcDbPolyline
 90
        8
 70
     0
 43
0.0
 10
-140.1103576344622
 20
516.8138383525132
 10
-134.7988691632915
 20
516.8138383525132
 10
-134.7988691632915
 20
518.8150726554619
 10
-97.62856360295586
 20
518.8150726554619
 10
-97.62856360295586
 20
524.818775564308
 10
-134.7988691632915
 20
524.818775564308
 10
-134.7988691632915
 20
526.8200098672568
 10
-140.1103576344622
 20
526.8200098672568
  0
LWPOLYLINE
  5
394D7
330
394AC
100
AcDbEntity
  8
24
100
AcDbPolyline
 90
        2
 70
     0
 43
0.0
 10
-140.1103576344622
 20
531.8230956246285
 10
-140.1103576344622
 20
511.8107525951412
  0
DIMENSION
  5
394D8
330
394AC
100
AcDbEntity
  8
30
100
AcDbDimension
280
     0
  2
*D38
 10
-39.62856360295587
 20
521.8234042003656
 30
0.0
 11
-45.12856360295598
 21
449.8234042003658
 31
0.0
 12
-629.9999999999998
 22
0.0
 32
0.0
 71
     0
 72
     0
 41
0.0
 42
143.9999999999999
 73
     0
 74
     0
 75
     0
  3
STANDARD
100
AcDbAlignedDimension
 13
-49.62856360295585
 23
377.8234042003659
 33
0.0
 14
-49.62856360295585
 24
521.8234042003656
 34
0.0
 50
90.0
100
AcDbRotatedDimension
  0
DIMENSION
  5
394D9
330
394AC
100
AcDbEntity
  8
30
100
AcDbDimension
280
     0
  2
*D39
 10
-97.62856360295586
 20
337.3234042003659
 30
0.0
 11
-139.3716516411457
 21
337.3234042003659
 31
0.0
 12
-629.9999999999998
 22
0.0
 32
0.0
 70
   128
 71
     5
 42
72.0
 73
     0
 74
     0
 75
     0
  3
STANDARD
100
AcDbAlignedDimension
 13
-169.6285636029558
 23
342.3234042003659
 33
0.0
 14
-97.62856360295586
 24
367.2280542975769
 34
0.0
100
AcDbRotatedDimension
  0
LWPOLYLINE
  5
394DA
330
394AC
100
AcDbEntity
  8
130
100
AcDbPolyline
 90
        4
 70
     0
 43
0.0
 10
-241.6285636029559
 20
427.3234042003656
 10
-248.1285636029561
 20
427.3234042003656
 10
-248.1285636029561
 20
472.3234042003658
 10
-241.6285636029559
 20
472.3234042003658
  0
LWPOLYLINE
  5
394DB
330
394AC
100
AcDbEntity
  8
130
100
AcDbPolyline
 90
        4
 70
     0
 43
0.0
 10
-237.6285636029559
 20
424.8234042003657
 10
-241.6285636029559
 20
424.8234042003657
 10
-241.6285636029559
 20
474.8234042003657
 10
-237.6285636029559
 20
474.8234042003657
  0
DIMENSION
  5
394DC
330
394AC
100
AcDbEntity
  8
30
100
AcDbDimension
280
     0
  2
*D40
 10
-274.9211015532362
 20
427.3234042003656
 30
0.0
 11
-274.9211015532363
 21
452.3234042003656
 31
0.0
 12
-629.9999999999998
 22
0.0
 32
0.0
 70
   128
 71
     5
 42
45.0
 73
     0
 74
     0
 75
     0
  3
STANDARD
100
AcDbAlignedDimension
 13
-248.1285636029561
 23
472.3234042003658
 33
0.0
 14
-248.1285636029561
 24
427.3234042003656
 34
0.0
 50
90.0
100
AcDbRotatedDimension
  0
DIMENSION
  5
394DD
330
394AC
100
AcDbEntity
  8
30
100
AcDbDimension
280
     0
  2
*D41
 10
-288.0825122191951
 20
424.8234042003658
 30
0.0
 11
-288.0825122191952
 21
449.8234042003658
 31
0.0
 12
-629.9999999999998
 22
0.0
 32
0.0
 70
   128
 71
     5
 42
50.0
 73
     0
 74
     0
 75
     0
  3
STANDARD
100
AcDbAlignedDimension
 13
-241.6285636029559
 23
474.8234042003657
 33
0.0
 14
-241.6285636029559
 24
424.8234042003657
 34
0.0
 50
90.0
100
AcDbRotatedDimension
  0
DIMENSION
  5
394DE
330
394AC
100
AcDbEntity
  8
30
100
AcDbDimension
280
     0
  2
*D42
 10
-303.93667375579
 20
398.8234042003658
 30
0.0
 11
-309.4366737557901
 21
449.8234042003657
 31
0.0
 12
-629.9999999999998
 22
0.0
 32
0.0
 71
     5
 42
101.9999999999998
 73
     0
 74
     0
 75
     0
  3
STANDARD
100
AcDbAlignedDimension
 13
-237.6285636029559
 23
500.8234042003655
 33
0.0
 14
-237.6285636029559
 24
398.8234042003658
 34
0.0
 50
90.0
100
AcDbRotatedDimension
  0
LWPOLYLINE
  5
394DF
330
394AC
100
AcDbEntity
  8
130
100
AcDbPolyline
 90
       26
 70
     1
 43
0.0
 10
-237.6285636029559
 20
500.8234042003655
 10
-237.6285636029559
 20
398.8234042003659
 10
-229.6285636029558
 20
398.8234042003659
 10
-229.6285636029558
 20
386.2260599128592
 10
-227.6157171627558
 20
371.9039135649659
 10
-227.2516259155559
 20
369.3132572843658
 10
-227.0955670968829
 20
368.7720382901983
 10
-226.794884954452
 20
368.2951871909835
 10
-226.3701729303022
 20
367.922158507242
 10
-225.8615038264411
 20
367.6794862939769
 10
-225.3059924742922
 20
367.5919123962458
 10
-222.9233266017559
 20
367.5503232553659
 10
-216.423326467656
 20
367.4368620887658
 10
-169.6285636029558
 20
367.3234042003659
 10
-169.6285636029558
 20
532.3234042003658
 10
-216.423326467656
 20
532.2099463119658
 10
-222.9233266017559
 20
532.0964851453659
 10
-225.3059924742922
 20
532.0548960044857
 10
-225.8615038264411
 20
531.9673221067549
 10
-226.3701729303022
 20
531.7246498934896
 10
-226.794884954452
 20
531.3516212097481
 10
-227.0955670968829
 20
530.8747701105335
 10
-227.2516259155559
 20
530.3335511163659
 10
-227.6157171627558
 20
527.7428948357658
 10
-229.6285636029558
 20
513.4207484878725
 10
-229.6285636029558
 20
500.8234042003659
  0
LINE
  5
394E0
330
394AC
100
AcDbEntity
  8
17
100
AcDbLine
 10
-114.0650111243908
 20
534.8249470790515
 30
0.0
 11
-114.0650111243908
 21
508.8089011407181
 31
0.0
  0
LINE
  5
394E1
330
394AC
100
AcDbEntity
  8
17
100
AcDbLine
 10
-116.6285636029558
 20
390.7360772667436
 30
0.0
 11
-116.6285636029558
 21
364.7200313284101
 31
0.0
  0
LWPOLYLINE
  5
394E2
330
394AC
100
AcDbEntity
  8
130
100
AcDbPolyline
 90
       53
 70
     0
 43
0.0
 10
-248.1285636029561
 20
461.4860392003659
 10
-260.3792396686266
 20
465.8261166213729
 42
0.4244748162090625
 10
-262.8299639996234
 20
464.3184209534533
 10
-263.5492775902335
 20
461.0467868812466
 42
0.4248673327981316
 10
-261.957544323217
 20
458.6475753754911
 10
-261.5582660518547
 20
458.5748176957396
 10
-261.1684765145337
 20
458.5048116778515
 10
-260.7879882598755
 20
458.4374673822896
 10
-260.4166138365114
 20
458.3726948695201
 10
-260.0541657930727
 20
458.310404200008
 10
-259.7004566781906
 20
458.2505054342191
 10
-259.3552990404965
 20
458.1929086326186
 10
-259.0185054286217
 20
458.1375238556723
 10
-258.6898883911974
 20
458.0842611638452
 10
-258.369260476855
 20
458.0330306176032
 10
-258.0564342342257
 20
457.9837422774113
 10
-257.7512222119408
 20
457.9363062037355
 10
-257.4534369586316
 20
457.8906324570407
 10
-257.1628910229295
 20
457.8466310977931
 10
-256.8793969534657
 20
457.8042121864576
 10
-256.6027672988716
 20
457.7632857834997
 10
-256.3328146077783
 20
457.7237619493848
 10
-256.0693514288173
 20
457.6855507445786
 10
-255.8121903106197
 20
457.6485622295468
 10
-255.5611438018169
 20
457.6127064647543
 10
-255.3160244510402
 20
457.5778935106669
 10
-255.0766448069209
 20
457.54403342775
 10
-254.8428174180902
 20
457.5110362764688
 10
-254.6143548331796
 20
457.4788121172892
 10
-254.3910696008202
 20
457.4472710106767
 10
-254.1727742696433
 20
457.416323017096
 10
-253.9592813882803
 20
457.3858781970137
 10
-253.7504035053625
 20
457.3558466108943
 10
-253.545953169521
 20
457.3261383192037
 10
-253.3457429293873
 20
457.2966633824073
 10
-253.1495853335926
 20
457.2673318609706
 10
-252.9572929307683
 20
457.238053815359
 10
-252.7686782695455
 20
457.2087393060381
 10
-252.5835538985557
 20
457.1792983934732
 10
-252.4017361143065
 20
457.1496457474601
 10
-252.2230865850834
 20
457.1197518383315
 10
-251.8748601143769
 20
457.0592711079441
 10
-251.538012849522
 20
456.9979212991866
 10
-251.2116836971562
 20
456.935768177423
 10
-250.8950115639174
 20
456.8728775080177
 10
-250.5871353564433
 20
456.8093150563343
 10
-250.2871939813717
 20
456.7451465877372
 10
-249.9943263453403
 20
456.6804378675903
 10
-249.7076713549869
 20
456.6152546612578
 10
-249.4263679169494
 20
456.5496627341037
 10
-249.1495549378653
 20
456.4837278514922
 10
-248.6059559831087
 20
456.3510922813528
 10
-248.0699857438195
 20
456.2178740737524
  0
LEADER
  5
394E3
330
394AC
100
AcDbEntity
  8
30
100
AcDbLeader
  3
STANDARD1
 76
     3
 10
-78.6168377249428
 20
382.2308314792115
 30
0.0
 10
-73.74999347126709
 20
404.904853926298
 30
0.0
 10
-60.24066933060636
 20
404.904853926298
 30
0.0
211
-1.0
221
0.0
231
0.0
1001
ACAD
1000
DSTYLE
1002
{
1070
   147
1040
2.0
1070
    77
1070
     0
1002
}
  0
MTEXT
  5
394E4
330
394AC
100
AcDbEntity
  8
30
  6
Continuous
100
AcDbMText
 10
-70.74999347126709
 20
413.2079259536443
 30
0.0
 40
7.0
 41
30.0
 46
0.0
 71
     1
 72
     5
  1
%%C9
  7
blockfont
 73
     1
 44
1.0
  0
LINE
  5
394E5
330
394AC
100
AcDbEntity
  8
17
100
AcDbLine
 10
-110.6285636029558
 20
390.2441002359104
 30
0.0
 11
-110.6285636029558
 21
364.2280542975769
 31
0.0
  0
DIMENSION
  5
394E6
330
394AC
100
AcDbEntity
  8
30
100
AcDbDimension
280
     0
  2
*D43
 10
-110.6285636029558
 20
354.5071025102943
 30
0.0
 11
-129.9739094740787
 21
354.5071025102943
 31
0.0
 12
-629.9999999999998
 22
0.0
 32
0.0
 70
   128
 71
     5
 42
13.0
 73
     0
 74
     0
 75
     0
  3
STANDARD1
100
AcDbAlignedDimension
 13
-97.62856360295586
 23
364.2280542975769
 33
0.0
 14
-110.6285636029558
 24
364.2280542975769
 34
0.0
100
AcDbRotatedDimension
  0
DIMENSION
  5
394E7
330
394AC
100
AcDbEntity
  8
30
100
AcDbDimension
280
     0
  2
*D44
 10
-116.6285636029558
 20
344.8169675900836
 30
0.0
 11
-124.9618969362892
 21
350.3169675900835
 31
0.0
 12
-629.9999999999998
 22
0.0
 32
0.0
 71
     5
 42
6.0
 73
     0
 74
     0
 75
     0
  3
STANDARD1
100
AcDbAlignedDimension
 13
-110.6285636029558
 23
364.7200313284101
 33
0.0
 14
-116.6285636029558
 24
364.7200313284101
 34
0.0
100
AcDbRotatedDimension
  0
DIMENSION
  5
394E8
330
394AC
100
AcDbEntity
  8
30
100
AcDbDimension
280
     0
  2
*D45
 10
-248.1285636029558
 20
314.6474857738886
 30
0.0
 11
-278.9473461395717
 21
314.6474857738886
 31
0.0
 12
-629.9999999999998
 22
0.0
 32
0.0
 70
   128
 71
     5
 42
6.5
 73
     0
 74
     0
 75
     0
  3
STANDARD1
100
AcDbAlignedDimension
 13
-241.6285636029559
 23
424.8234042003658
 33
0.0
 14
-248.1285636029558
 24
424.8234042003658
 34
0.0
100
AcDbRotatedDimension
  0
ENDBLK
  5
394EC
330
394AC
100
AcDbEntity
  8
0
100
AcDbBlockEnd
  0
BLOCK
  5
394F8
330
394F7
100
AcDbEntity
  8
0
100
AcDbBlockBegin
  2
*D47
 70
     1
 10
0.0
 20
0.0
 30
0.0
  3
*D47
  1

  0
LINE
  5
3AC10
330
394F7
100
AcDbEntity
  8
30
 62
     0
440
 16777216
370
    -2
100
AcDbLine
 10
519.3714363970436
 20
413.2441002359104
 30
0.0
 11
519.3714363970436
 21
433.2274977226155
 31
0.0
  0
LINE
  5
3AC11
330
394F7
100
AcDbEntity
  8
30
 62
     0
440
 16777216
370
    -2
100
AcDbLine
 10
495.3714363970438
 20
413.2441002359104
 30
0.0
 11
495.3714363970438
 21
433.2274977226155
 31
0.0
  0
LINE
  5
3AC12
330
394F7
100
AcDbEntity
  8
30
 62
     0
440
 16777216
370
    -2
100
AcDbLine
 10
517.3714363970438
 20
432.7274977226152
 30
0.0
 11
497.3714363970438
 21
432.7274977226152
 31
0.0
  0
INSERT
  5
3AC13
330
394F7
100
AcDbEntity
  8
30
 62
     0
440
 16777216
370
    -2
100
AcDbBlockReference
  2
_OPEN
 10
519.3714363970436
 20
432.7274977226152
 30
0.0
 41
2.0
 42
2.0
 43
2.0
  0
INSERT
  5
3AC14
330
394F7
100
AcDbEntity
  8
30
 62
     0
440
 16777216
370
    -2
100
AcDbBlockReference
  2
_OPEN
 10
495.3714363970438
 20
432.7274977226152
 30
0.0
 41
2.0
 42
2.0
 43
2.0
 50
180.0
  0
MTEXT
  5
3AC15
330
394F7
100
AcDbEntity
  8
30
 62
     0
440
 16777216
100
AcDbMText
 10
507.3714363970438
 20
438.2274977226153
 30
0.0
 40
7.0
 41
0.0
 46
0.0
 71
     5
 72
     1
  1
\A1;24
 73
     1
 44
1.0
  0
POINT
  5
3AC16
330
394F7
100
AcDbEntity
  8
DEFPOINTS
 62
     0
440
 16777216
100
AcDbPoint
 10
519.3714363970436
 20
410.2441002359102
 30
0.0
  0
POINT
  5
3AC17
330
394F7
100
AcDbEntity
  8
DEFPOINTS
 62
     0
440
 16777216
100
AcDbPoint
 10
495.3714363970438
 20
410.2441002359102
 30
0.0
  0
POINT
  5
3AC18
330
394F7
100
AcDbEntity
  8
DEFPOINTS
 62
     0
440
 16777216
100
AcDbPoint
 10
495.3714363970438
 20
432.7274977226152
 30
0.0
  0
ENDBLK
  5
394F9
330
394F7
100
AcDbEntity
  8
0
100
AcDbBlockEnd
  0
BLOCK
  5
39505
330
39504
100
AcDbEntity
  8
0
100
AcDbBlockBegin
  2
*D48
 70
     1
 10
0.0
 20
0.0
 30
0.0
  3
*D48
  1

  0
LINE
  5
3AC19
330
39504
100
AcDbEntity
  8
30
 62
     0
440
 16777216
370
    -2
100
AcDbLine
 10
551.3831622750569
 20
413.7360772667434
 30
0.0
 11
551.3831622750569
 21
433.2274977226155
 31
0.0
  0
LINE
  5
3AC1A
330
39504
100
AcDbEntity
  8
30
 62
     0
440
 16777216
370
    -2
100
AcDbLine
 10
530.3831622750569
 20
413.7360772667434
 30
0.0
 11
530.3831622750569
 21
433.2274977226155
 31
0.0
  0
LINE
  5
3AC1B
330
39504
100
AcDbEntity
  8
30
 62
     0
440
 16777216
370
    -2
100
AcDbLine
 10
549.3831622750568
 20
432.7274977226152
 30
0.0
 11
532.3831622750568
 21
432.7274977226152
 31
0.0
  0
INSERT
  5
3AC1C
330
39504
100
AcDbEntity
  8
30
 62
     0
440
 16777216
370
    -2
100
AcDbBlockReference
  2
_OPEN
 10
551.3831622750569
 20
432.7274977226152
 30
0.0
 41
2.0
 42
2.0
 43
2.0
  0
INSERT
  5
3AC1D
330
39504
100
AcDbEntity
  8
30
 62
     0
440
 16777216
370
    -2
100
AcDbBlockReference
  2
_OPEN
 10
530.3831622750569
 20
432.7274977226152
 30
0.0
 41
2.0
 42
2.0
 43
2.0
 50
180.0
  0
MTEXT
  5
3AC1E
330
39504
100
AcDbEntity
  8
30
 62
     0
440
 16777216
100
AcDbMText
 10
540.8831622750568
 20
438.2274977226153
 30
0.0
 40
7.0
 41
0.0
 46
0.0
 71
     5
 72
     1
  1
\A1;21
 73
     1
 44
1.0
  0
POINT
  5
3AC1F
330
39504
100
AcDbEntity
  8
DEFPOINTS
 62
     0
440
 16777216
100
AcDbPoint
 10
551.3831622750569
 20
410.7360772667433
 30
0.0
  0
POINT
  5
3AC20
330
39504
100
AcDbEntity
  8
DEFPOINTS
 62
     0
440
 16777216
100
AcDbPoint
 10
530.3831622750569
 20
410.7360772667433
 30
0.0
  0
POINT
  5
3AC21
330
39504
100
AcDbEntity
  8
DEFPOINTS
 62
     0
440
 16777216
100
AcDbPoint
 10
530.3831622750569
 20
432.7274977226152
 30
0.0
  0
ENDBLK
  5
39506
330
39504
100
AcDbEntity
  8
0
100
AcDbBlockEnd
  0
BLOCK
  5
3951D
330
3951C
100
AcDbEntity
  8
0
100
AcDbBlockBegin
  2
*D49
 70
     1
 10
0.0
 20
0.0
 30
0.0
  3
*D49
  1

  0
LINE
  5
3AC22
330
3951C
100
AcDbEntity
  8
30
 62
     0
440
 16777216
370
    -2
100
AcDbLine
 10
89.79695648129018
 20
719.9121723739501
 30
0.0
 11
36.75649335307916
 21
719.9121723739501
 31
0.0
  0
LINE
  5
3AC23
330
3951C
100
AcDbEntity
  8
30
 62
     0
440
 16777216
370
    -2
100
AcDbLine
 10
89.79695648129018
 20
712.9121723739504
 30
0.0
 11
36.75649335307916
 21
712.9121723739504
 31
0.0
  0
LINE
  5
3AC24
330
3951C
100
AcDbEntity
  8
30
 62
     0
440
 16777216
370
    -2
100
AcDbLine
 10
37.25649335307916
 20
710.9121723739502
 30
0.0
 11
37.25649335307916
 21
708.9121723739504
 31
0.0
  0
LINE
  5
3AC25
330
3951C
100
AcDbEntity
  8
30
 62
     0
440
 16777216
370
    -2
100
AcDbLine
 10
37.25649335307917
 20
721.9121723739504
 30
0.0
 11
37.25649335307917
 21
732.4184748114596
 31
0.0
  0
LINE
  5
3AC26
330
3951C
100
AcDbEntity
  8
30
 62
     0
440
 16777216
370
    -2
100
AcDbLine
 10
37.25649335307917
 20
732.4184748114596
 30
0.0
 11
43.92316001974583
 21
732.4184748114596
 31
0.0
  0
LINE
  5
3AC27
330
3951C
100
AcDbEntity
  8
30
 62
     0
440
 16777216
370
    -2
100
AcDbLine
 10
37.25649335307916
 20
712.9121723739504
 30
0.0
 11
37.25649335307916
 21
719.9121723739501
 31
0.0
  0
INSERT
  5
3AC28
330
3951C
100
AcDbEntity
  8
30
 62
     0
440
 16777216
370
    -2
100
AcDbBlockReference
  2
_OPEN
 10
37.25649335307916
 20
712.9121723739504
 30
0.0
 41
2.0
 42
2.0
 43
2.0
 50
90.0
  0
INSERT
  5
3AC29
330
3951C
100
AcDbEntity
  8
30
 62
     0
440
 16777216
370
    -2
100
AcDbBlockReference
  2
_OPEN
 10
37.25649335307916
 20
719.9121723739501
 30
0.0
 41
2.0
 42
2.0
 43
2.0
 50
270.0
  0
MTEXT
  5
3AC2A
330
3951C
100
AcDbEntity
  8
30
 62
     0
440
 16777216
100
AcDbMText
 10
41.58982668641238
 20
737.9184748114596
 30
0.0
 40
7.0
 41
0.0
 46
0.0
 71
     5
 72
     1
  1
\A1;7
 73
     1
 44
1.0
  0
POINT
  5
3AC2B
330
3951C
100
AcDbEntity
  8
DEFPOINTS
 62
     0
440
 16777216
100
AcDbPoint
 10
92.7969564812902
 20
719.9121723739501
 30
0.0
  0
POINT
  5
3AC2C
330
3951C
100
AcDbEntity
  8
DEFPOINTS
 62
     0
440
 16777216
100
AcDbPoint
 10
92.7969564812902
 20
712.9121723739504
 30
0.0
  0
POINT
  5
3AC2D
330
3951C
100
AcDbEntity
  8
DEFPOINTS
 62
     0
440
 16777216
100
AcDbPoint
 10
37.25649335307916
 20
712.9121723739504
 30
0.0
  0
ENDBLK
  5
3951E
330
3951C
100
AcDbEntity
  8
0
100
AcDbBlockEnd
  0
BLOCK
  5
3959F
330
3959E
100
AcDbEntity
  8
0
100
AcDbBlockBegin
  2
*D50
 70
     1
 10
0.0
 20
0.0
 30
0.0
  3
*D50
  1

  0
LINE
  5
3AE51
330
3959E
100
AcDbEntity
  8
30
 62
     0
440
 16777216
370
    -2
100
AcDbLine
 10
359.9277993769791
 20
220.823404200366
 30
0.0
 11
387.9546986715459
 21
220.823404200366
 31
0.0
  0
LINE
  5
3AE52
330
3959E
100
AcDbEntity
  8
30
 62
     0
440
 16777216
370
    -2
100
AcDbLine
 10
361.2270991330283
 20
168.823404200366
 30
0.0
 11
387.9546986715459
 21
168.823404200366
 31
0.0
  0
LINE
  5
3AE53
330
3959E
100
AcDbEntity
  8
30
 62
     0
440
 16777216
370
    -2
100
AcDbLine
 10
387.4546986715459
 20
217.823404200366
 30
0.0
 11
387.4546986715459
 21
171.823404200366
 31
0.0
  0
INSERT
  5
3AE54
330
3959E
100
AcDbEntity
  8
30
 62
     0
440
 16777216
370
    -2
100
AcDbBlockReference
  2
_OPEN
 10
387.4546986715459
 20
220.823404200366
 30
0.0
 41
3.0
 42
3.0
 43
3.0
 50
90.0
  0
INSERT
  5
3AE55
330
3959E
100
AcDbEntity
  8
30
 62
     0
440
 16777216
370
    -2
100
AcDbBlockReference
  2
_OPEN
 10
387.4546986715459
 20
168.823404200366
 30
0.0
 41
3.0
 42
3.0
 43
3.0
 50
270.0
  0
MTEXT
  5
3AE56
330
3959E
100
AcDbEntity
  8
30
 62
     0
440
 16777216
100
AcDbMText
 10
377.4546986715458
 20
194.823404200366
 30
0.0
 40
7.0
 41
0.0
 46
0.0
 71
     2
 72
     1
  1
\A1;52
 11
0.0000000000000001
 21
1.0
 31
0.0
 73
     1
 44
1.0
 90
        3
 63
     9
421
 13158600
 45
1.25
441
        0
  0
POINT
  5
3AE57
330
3959E
100
AcDbEntity
  8
DEFPOINTS
 62
     0
440
 16777216
100
AcDbPoint
 10
358.9277993769791
 20
220.823404200366
 30
0.0
  0
POINT
  5
3AE58
330
3959E
100
AcDbEntity
  8
DEFPOINTS
 62
     0
440
 16777216
100
AcDbPoint
 10
360.2270991330283
 20
168.823404200366
 30
0.0
  0
POINT
  5
3AE59
330
3959E
100
AcDbEntity
  8
DEFPOINTS
 62
     0
440
 16777216
100
AcDbPoint
 10
387.4546986715459
 20
168.823404200366
 30
0.0
  0
ENDBLK
  5
395A0
330
3959E
100
AcDbEntity
  8
0
100
AcDbBlockEnd
  0
BLOCK
  5
3ACBB
330
3ACBA
100
AcDbEntity
  8
0
100
AcDbBlockBegin
  2
*D51
 70
     1
 10
0.0
 20
0.0
 30
0.0
  3
*D51
  1

  0
LINE
  5
3ADF7
330
3ACBA
100
AcDbEntity
  8
30
 62
     0
440
 16777216
370
    -2
100
AcDbLine
 10
59.79695648129018
 20
384.3234042003659
 30
0.0
 11
59.79695648129018
 21
334.3897007940808
 31
0.0
  0
LINE
  5
3ADF8
330
3ACBA
100
AcDbEntity
  8
30
 62
     0
440
 16777216
370
    -2
100
AcDbLine
 10
164.7969564812902
 20
384.3234042003659
 30
0.0
 11
164.7969564812902
 21
334.3897007940808
 31
0.0
  0
LINE
  5
3ADF9
330
3ACBA
100
AcDbEntity
  8
30
 62
     0
440
 16777216
370
    -2
100
AcDbLine
 10
61.79695648129018
 20
334.8897007940808
 30
0.0
 11
162.7969564812902
 21
334.8897007940808
 31
0.0
  0
INSERT
  5
3ADFA
330
3ACBA
100
AcDbEntity
  8
30
 62
     0
440
 16777216
370
    -2
100
AcDbBlockReference
  2
_OPEN
 10
59.79695648129018
 20
334.8897007940808
 30
0.0
 41
2.0
 42
2.0
 43
2.0
 50
180.0
  0
INSERT
  5
3ADFB
330
3ACBA
100
AcDbEntity
  8
30
 62
     0
440
 16777216
370
    -2
100
AcDbBlockReference
  2
_OPEN
 10
164.7969564812902
 20
334.8897007940808
 30
0.0
 41
2.0
 42
2.0
 43
2.0
  0
MTEXT
  5
3ADFC
330
3ACBA
100
AcDbEntity
  8
30
 62
     0
440
 16777216
100
AcDbMText
 10
112.2969564812902
 20
340.3897007940808
 30
0.0
 40
7.0
 41
0.0
 46
0.0
 71
     5
 72
     1
  1
\A1;105
 73
     1
 44
1.0
  0
POINT
  5
3ADFD
330
3ACBA
100
AcDbEntity
  8
DEFPOINTS
 62
     0
440
 16777216
100
AcDbPoint
 10
59.79695648129018
 20
387.3234042003659
 30
0.0
  0
POINT
  5
3ADFE
330
3ACBA
100
AcDbEntity
  8
DEFPOINTS
 62
     0
440
 16777216
100
AcDbPoint
 10
164.7969564812902
 20
387.3234042003659
 30
0.0
  0
POINT
  5
3ADFF
330
3ACBA
100
AcDbEntity
  8
DEFPOINTS
 62
     0
440
 16777216
100
AcDbPoint
 10
164.7969564812902
 20
334.8897007940808
 30
0.0
  0
ENDBLK
  5
3ACBC
330
3ACBA
100
AcDbEntity
  8
0
100
AcDbBlockEnd
  0
BLOCK
  5
3ACF9
330
3ACF8
100
AcDbEntity
  8
0
100
AcDbBlockBegin
  2
*D52
 70
     1
 10
0.0
 20
0.0
 30
0.0
  3
*D52
  1

  0
LINE
  5
3AD0D
330
3ACF8
100
AcDbEntity
  8
30
 62
     0
440
 16777216
370
    -2
100
AcDbLine
 10
460.3714363970438
 20
384.7218827828332
 30
0.0
 11
460.3714363970438
 21
321.0923623336894
 31
0.0
  0
LINE
  5
3AD0E
330
3ACF8
100
AcDbEntity
  8
30
 62
     0
440
 16777216
370
    -2
100
AcDbLine
 10
365.3714363970434
 20
467.2218827828332
 30
0.0
 11
365.3714363970434
 21
321.0923623336894
 31
0.0
  0
LINE
  5
3AD0F
330
3ACF8
100
AcDbEntity
  8
30
 62
     0
440
 16777216
370
    -2
100
AcDbLine
 10
458.3714363970438
 20
321.5923623336894
 30
0.0
 11
367.3714363970434
 21
321.5923623336894
 31
0.0
  0
INSERT
  5
3AD10
330
3ACF8
100
AcDbEntity
  8
30
 62
     0
440
 16777216
370
    -2
100
AcDbBlockReference
  2
_OPEN
 10
460.3714363970438
 20
321.5923623336894
 30
0.0
 41
2.0
 42
2.0
 43
2.0
  0
INSERT
  5
3AD11
330
3ACF8
100
AcDbEntity
  8
30
 62
     0
440
 16777216
370
    -2
100
AcDbBlockReference
  2
_OPEN
 10
365.3714363970434
 20
321.5923623336894
 30
0.0
 41
2.0
 42
2.0
 43
2.0
 50
180.0
  0
MTEXT
  5
3AD12
330
3ACF8
100
AcDbEntity
  8
30
 62
     0
440
 16777216
100
AcDbMText
 10
412.8714363970436
 20
327.0923623336894
 30
0.0
 40
7.0
 41
0.0
 46
0.0
 71
     5
 72
     1
  1
\A1;95
 73
     1
 44
1.0
  0
POINT
  5
3AD13
330
3ACF8
100
AcDbEntity
  8
DEFPOINTS
 62
     0
440
 16777216
100
AcDbPoint
 10
460.3714363970438
 20
387.7218827828333
 30
0.0
  0
POINT
  5
3AD14
330
3ACF8
100
AcDbEntity
  8
DEFPOINTS
 62
     0
440
 16777216
100
AcDbPoint
 10
365.3714363970434
 20
470.2218827828331
 30
0.0
  0
POINT
  5
3AD15
330
3ACF8
100
AcDbEntity
  8
DEFPOINTS
 62
     0
440
 16777216
100
AcDbPoint
 10
365.3714363970434
 20
321.5923623336894
 30
0.0
  0
ENDBLK
  5
3ACFA
330
3ACF8
100
AcDbEntity
  8
0
100
AcDbBlockEnd
  0
BLOCK
  5
3ADB4
330
3ADB3
100
AcDbEntity
  8
0
100
AcDbBlockBegin
  2
*D53
 70
     1
 10
0.0
 20
0.0
 30
0.0
  3
*D53
  1

  0
LINE
  5
3AE09
330
3ADB3
100
AcDbEntity
  8
30
 62
     0
440
 16777216
370
    -2
100
AcDbLine
 10
77.29695648129018
 20
387.823404200366
 30
0.0
 11
77.29695648129018
 21
356.3234042003659
 31
0.0
  0
LINE
  5
3AE0A
330
3ADB3
100
AcDbEntity
  8
30
 62
     0
440
 16777216
370
    -2
100
AcDbLine
 10
147.2969564812902
 20
387.823404200366
 30
0.0
 11
147.2969564812902
 21
356.3234042003659
 31
0.0
  0
LINE
  5
3AE0B
330
3ADB3
100
AcDbEntity
  8
30
 62
     0
440
 16777216
370
    -2
100
AcDbLine
 10
79.29695648129018
 20
356.823404200366
 30
0.0
 11
145.2969564812901
 21
356.823404200366
 31
0.0
  0
INSERT
  5
3AE0C
330
3ADB3
100
AcDbEntity
  8
30
 62
     0
440
 16777216
370
    -2
100
AcDbBlockReference
  2
_OPEN
 10
77.29695648129018
 20
356.823404200366
 30
0.0
 41
2.0
 42
2.0
 43
2.0
 50
180.0
  0
INSERT
  5
3AE0D
330
3ADB3
100
AcDbEntity
  8
30
 62
     0
440
 16777216
370
    -2
100
AcDbBlockReference
  2
_OPEN
 10
147.2969564812902
 20
356.823404200366
 30
0.0
 41
2.0
 42
2.0
 43
2.0
  0
MTEXT
  5
3AE0E
330
3ADB3
100
AcDbEntity
  8
30
 62
     0
440
 16777216
100
AcDbMText
 10
112.2969564812902
 20
362.3234042003659
 30
0.0
 40
7.0
 41
0.0
 46
0.0
 71
     5
 72
     1
  1
\A1;70
 73
     1
 44
1.0
  0
POINT
  5
3AE0F
330
3ADB3
100
AcDbEntity
  8
DEFPOINTS
 62
     0
440
 16777216
100
AcDbPoint
 10
77.29695648129018
 20
390.823404200366
 30
0.0
  0
POINT
  5
3AE10
330
3ADB3
100
AcDbEntity
  8
DEFPOINTS
 62
     0
440
 16777216
100
AcDbPoint
 10
147.2969564812902
 20
390.823404200366
 30
0.0
  0
POINT
  5
3AE11
330
3ADB3
100
AcDbEntity
  8
DEFPOINTS
 62
     0
440
 16777216
100
AcDbPoint
 10
147.2969564812902
 20
356.823404200366
 30
0.0
  0
ENDBLK
  5
3ADB5
330
3ADB3
100
AcDbEntity
  8
0
100
AcDbBlockEnd
  0
ENDSEC
  0
SECTION
  2
ENTITIES
  0
MTEXT
  5
A94C
330
1E
100
AcDbEntity
  8
19
  6
Continuous
 62
     7
100
AcDbMText
 10
393.0841964391671
 20
728.8439720393689
 30
0.0
 40
9.0
 41
0.0
 46
0.0
 71
     7
 72
     5
  1
PS250-PF 3P RC\PPS250-NE 3P RC\PPS250-PE 3P RC
  7
blockfont
 73
     1
 44
1.0
  0
LINE
  5
118CC
330
1E
100
AcDbEntity
  8
16
100
AcDbLine
 10
60.29695648129063
 20
266.8234042003657
 30
0.0
 11
164.2969564812902
 21
266.8234042003657
 31
0.0
  0
LINE
  5
118CF
330
1E
100
AcDbEntity
  8
17
100
AcDbLine
 10
129.7969564812902
 20
263.3234042003657
 30
0.0
 11
129.7969564812902
 21
252.3234042003659
 31
0.0
  0
LINE
  5
118D0
330
1E
100
AcDbEntity
  8
17
100
AcDbLine
 10
129.7969564812902
 20
137.3234042003659
 30
0.0
 11
129.7969564812902
 21
126.3234042003659
 31
0.0
  0
LINE
  5
118D1
330
1E
100
AcDbEntity
  8
17
100
AcDbLine
 10
100.2969564812906
 20
131.8234042003658
 30
0.0
 11
89.29695648129017
 21
131.8234042003658
 31
0.0
  0
LINE
  5
118D4
330
1E
100
AcDbEntity
  8
17
100
AcDbLine
 10
124.2969564812903
 20
131.8234042003658
 30
0.0
 11
135.2969564812906
 21
131.8234042003658
 31
0.0
  0
LINE
  5
118D5
330
1E
100
AcDbEntity
  8
16
100
AcDbLine
 10
77.29695648129018
 20
283.8234042003659
 30
0.0
 11
77.29695648129018
 21
249.8234042003659
 31
0.0
  0
LINE
  5
118D6
330
1E
100
AcDbEntity
  8
16
100
AcDbLine
 10
77.29695648129018
 20
139.8234042003659
 30
0.0
 11
77.29695648129018
 21
105.8234042003658
 31
0.0
  0
LINE
  5
118D8
330
1E
100
AcDbEntity
  8
17
100
AcDbLine
 10
89.29695648129017
 20
257.8234042003659
 30
0.0
 11
100.2969564812906
 21
257.8234042003659
 31
0.0
  0
LINE
  5
118DB
330
1E
100
AcDbEntity
  8
17
100
AcDbLine
 10
94.79695648129018
 20
137.3234042003659
 30
0.0
 11
94.79695648129018
 21
126.3234042003659
 31
0.0
  0
LINE
  5
118DD
330
1E
100
AcDbEntity
  8
17
100
AcDbLine
 10
94.79695648129018
 20
263.3234042003657
 30
0.0
 11
94.79695648129018
 21
252.3234042003659
 31
0.0
  0
LINE
  5
118DE
330
1E
100
AcDbEntity
  8
17
100
AcDbLine
 10
135.2969564812906
 20
257.8234042003659
 30
0.0
 11
124.2969564812903
 21
257.8234042003659
 31
0.0
  0
LINE
  5
118DF
330
1E
100
AcDbEntity
  8
16
100
AcDbLine
 10
60.29695648129063
 20
122.8234042003659
 30
0.0
 11
164.2969564812902
 21
122.8234042003659
 31
0.0
  0
CIRCLE
  5
118E1
330
1E
100
AcDbEntity
  8
24
100
AcDbCircle
 10
-94.79695648129018
 20
131.8234042003658
 30
0.0
 40
2.0
210
0.0
220
0.0
230
-1.0
  0
CIRCLE
  5
118E2
330
1E
100
AcDbEntity
  8
24
100
AcDbCircle
 10
129.7969564812902
 20
131.8234042003658
 30
0.0
 40
2.0
  0
CIRCLE
  5
118E4
330
1E
100
AcDbEntity
  8
24
100
AcDbCircle
 10
77.29695648129018
 20
266.8234042003657
 30
0.0
 40
12.0
  0
CIRCLE
  5
118E5
330
1E
100
AcDbEntity
  8
24
100
AcDbCircle
 10
112.2969564812902
 20
266.8234042003657
 30
0.0
 40
12.0
  0
CIRCLE
  5
118E6
330
1E
100
AcDbEntity
  8
24
100
AcDbCircle
 10
-129.7969564812902
 20
257.8234042003659
 30
0.0
 40
2.0
210
0.0
220
0.0
230
-1.0
  0
CIRCLE
  5
118E7
330
1E
100
AcDbEntity
  8
24
100
AcDbCircle
 10
-112.2969564812902
 20
122.8234042003659
 30
0.0
 40
12.0
210
0.0
220
0.0
230
-1.0
  0
CIRCLE
  5
118E8
330
1E
100
AcDbEntity
  8
24
100
AcDbCircle
 10
-77.29695648129018
 20
122.8234042003659
 30
0.0
 40
12.0
210
0.0
220
0.0
230
-1.0
  0
CIRCLE
  5
118E9
330
1E
100
AcDbEntity
  8
24
100
AcDbCircle
 10
94.79695648129018
 20
257.8234042003659
 30
0.0
 40
2.0
  0
LWPOLYLINE
  5
1190D
330
1E
100
AcDbEntity
  8
18
100
AcDbPolyline
 90
        4
 70
     1
 43
0.0
 10
59.79695648129018
 20
277.3234042003659
 10
164.7969564812902
 20
277.3234042003659
 10
164.7969564812902
 20
112.3234042003659
 10
59.79695648129018
 20
112.3234042003659
  0
LINE
  5
11920
330
1E
100
AcDbEntity
  8
16
100
AcDbLine
 10
49.79695648129018
 20
194.8234042003661
 30
0.0
 11
174.7969564812902
 21
194.8234042003661
 31
0.0
  0
LINE
  5
11921
330
1E
100
AcDbEntity
  8
16
100
AcDbLine
 10
112.2969564812902
 20
287.3234042003659
 30
0.0
 11
112.2969564812902
 21
102.3234042003659
 31
0.0
  0
DIMENSION
  5
11922
330
1E
100
AcDbEntity
  8
30
100
AcDbDimension
280
     0
  2
*D8
 10
194.0232497783363
 20
131.8234042003657
 30
0.0
 11
194.0232497783363
 21
194.8234042003656
 31
0.0
 70
   160
 71
     5
 42
126.0000000000002
 73
     0
 74
     0
 75
     0
  3
STANDARD
100
AcDbAlignedDimension
 13
129.7969564812902
 23
257.8234042003659
 33
0.0
 14
129.7969564812902
 24
131.8234042003658
 34
0.0
 50
90.0
100
AcDbRotatedDimension
  0
DIMENSION
  5
11923
330
1E
100
AcDbEntity
  8
30
100
AcDbDimension
280
     0
  2
*D1
 10
129.7969564812902
 20
87.32340420036594
 30
0.0
 11
112.2969564812902
 21
93.82340420036594
 31
0.0
 70
    32
 71
     5
 42
35.00000000000003
 73
     0
 74
     0
 75
     0
  3
STANDARD
100
AcDbAlignedDimension
 13
94.79695648129018
 23
131.8234042003658
 33
0.0
 14
129.7969564812902
 24
131.8234042003658
 34
0.0
100
AcDbRotatedDimension
  0
LEADER
  5
11924
330
1E
100
AcDbEntity
  8
30
  6
Continuous
100
AcDbLeader
  3
STANDARD1
 76
     3
 10
92.7969564812902
 20
131.8234042003658
 30
0.0
 10
68.79695648129018
 20
97.32340420036587
 30
0.0
 10
39.79695648129018
 20
97.32340420036587
 30
0.0
  0
MTEXT
  5
11925
330
1E
100
AcDbEntity
  8
30
  6
Continuous
100
AcDbMText
 10
42.79695648129018
 20
103.3234042003658
 30
0.0
 40
5.0
 41
30.0
 46
0.0
 71
     1
 72
     5
  1
M4x0.7
  7
blockfont
 73
     1
 44
1.0
  0
DIMENSION
  5
1196B
330
1E
100
AcDbEntity
  8
30
100
AcDbDimension
280
     0
  2
*D7
 10
210.4888224101651
 20
122.8234042003659
 30
0.0
 11
210.4888224101651
 21
194.8234042003658
 31
0.0
 70
   160
 71
     5
 42
143.9999999999998
 73
     0
 74
     0
 75
     0
  3
STANDARD
100
AcDbAlignedDimension
 13
164.2969564812897
 23
266.8234042003657
 33
0.0
 14
164.2969564812897
 24
122.8234042003659
 34
0.0
 50
90.0
100
AcDbRotatedDimension
  0
LEADER
  5
11978
330
1E
100
AcDbEntity
  8
30
100
AcDbLeader
  3
STANDARD1
 76
     3
 10
153.1064315006009
 20
277.3234042003659
 30
0.0
 10
169.7969564812902
 20
284.173857976023
 30
0.0
 10
195.0381078477562
 20
284.173857976023
 30
0.0
211
-1.0
221
0.0
231
0.0
1001
ACAD
1000
DSTYLE
1002
{
1070
   147
1040
2.0
1070
    77
1070
     0
1002
}
  0
MTEXT
  5
11979
330
1E
100
AcDbEntity
  8
30
  6
Continuous
100
AcDbMText
 10
172.7969564812902
 20
292.4769300033694
 30
0.0
 40
7.0
 41
30.0
 46
0.0
 71
     1
 72
     5
  1
%%C24
  7
blockfont
 73
     1
 44
1.0
  0
DIMENSION
  5
1197A
330
1E
100
AcDbEntity
  8
30
100
AcDbDimension
280
     0
  2
*D2
 10
112.2969564812902
 20
70.43412851759327
 30
0.0
 11
94.79695648129018
 21
76.93412851759328
 31
0.0
 70
    32
 71
     5
 42
35.0
 73
     0
 74
     0
 75
     0
  3
STANDARD
100
AcDbAlignedDimension
 13
77.29695648129018
 23
105.8234042003658
 33
0.0
 14
112.2969564812902
 24
87.32340420036594
 34
0.0
100
AcDbRotatedDimension
  0
DIMENSION
  5
11990
330
1E
100
AcDbEntity
  8
30
100
AcDbDimension
280
     0
  2
*D3
 10
112.2969564812902
 20
70.43412851759327
 30
0.0
 11
129.7969564812902
 21
76.93412851759328
 31
0.0
 70
    32
 71
     5
 42
35.0
 73
     0
 74
     0
 75
     0
  3
STANDARD
100
AcDbAlignedDimension
 13
147.2969564812902
 23
105.8234042003658
 33
0.0
 14
112.2969564812902
 24
87.32340420036594
 34
0.0
 50
180.0
100
AcDbRotatedDimension
  0
LINE
  5
11B70
330
1E
100
AcDbEntity
  8
17
100
AcDbLine
 10
147.2969564812902
 20
707.9121723739504
 30
0.0
 11
147.2969564812902
 21
784.9121723739508
 31
0.0
  0
LINE
  5
11B83
330
1E
100
AcDbEntity
  8
17
100
AcDbLine
 10
77.29695648129018
 20
707.9121723739504
 30
0.0
 11
77.29695648129018
 21
784.9121723739508
 31
0.0
  0
LINE
  5
11BA0
330
1E
100
AcDbEntity
  8
18
100
AcDbLine
 10
184.7969564812902
 20
716.1121723739507
 30
0.0
 11
39.79695648129018
 21
716.1121723739507
 31
0.0
  0
LINE
  5
12188
330
1E
100
AcDbEntity
  8
18
100
AcDbLine
 10
184.7969564812902
 20
712.9121723739506
 30
0.0
 11
39.79695648129018
 21
712.9121723739506
 31
0.0
  0
LWPOLYLINE
  5
12189
330
1E
100
AcDbEntity
  8
130
100
AcDbPolyline
 90
        4
 70
     1
 43
0.0
 10
59.79695648129018
 20
712.9121723739506
 10
164.7969564812902
 20
712.9121723739506
 10
164.7969564812902
 20
651.9121723739507
 10
59.79695648129018
 20
651.9121723739507
  0
LINE
  5
12191
330
1E
100
AcDbEntity
  8
17
100
AcDbLine
 10
112.2969564812902
 20
611.9121723739507
 30
0.0
 11
112.2969564812902
 21
821.9121723739501
 31
0.0
  0
LWPOLYLINE
  5
1219C
330
1E
100
AcDbEntity
  8
11
  6
Continuous
 62
    11
100
AcDbPolyline
 90
        4
 70
     1
 43
0.0
 10
127.7969564812902
 20
719.9121723739501
 10
131.7969564812901
 20
719.9121723739501
 10
131.7969564812901
 20
712.9121723739504
 10
127.7969564812902
 20
712.9121723739504
  0
LWPOLYLINE
  5
1219D
330
1E
100
AcDbEntity
  8
11
  6
Continuous
 62
    11
100
AcDbPolyline
 90
        4
 70
     1
 43
0.0
 10
92.7969564812902
 20
719.9121723739501
 10
96.79695648129021
 20
719.9121723739501
 10
96.79695648129021
 20
712.9121723739504
 10
92.7969564812902
 20
712.9121723739504
  0
DIMENSION
  5
121A9
330
1E
100
AcDbEntity
  8
30
100
AcDbDimension
280
     0
  2
*D4
 10
77.29695648129018
 20
831.9121723739508
 30
0.0
 11
94.79695648129018
 21
837.4121723739508
 31
0.0
 70
    32
 71
     5
 42
35.0
 73
     0
 74
     0
 75
     0
  3
STANDARD1
100
AcDbAlignedDimension
 13
112.2969564812902
 23
821.9121723739501
 33
0.0
 14
77.29695648129018
 24
784.9121723739508
 34
0.0
100
AcDbRotatedDimension
  0
DIMENSION
  5
121D1
330
1E
100
AcDbEntity
  8
30
100
AcDbDimension
280
     0
  2
*D5
 10
147.2969564812902
 20
831.9121723739508
 30
0.0
 11
129.7969564812902
 21
837.4121723739508
 31
0.0
 70
    32
 71
     5
 42
35.0
 73
     0
 74
     0
 75
     0
  3
STANDARD1
100
AcDbAlignedDimension
 13
112.2969564812902
 23
821.9121723739501
 33
0.0
 14
147.2969564812902
 24
784.9121723739508
 34
0.0
 50
180.0
100
AcDbRotatedDimension
  0
LINE
  5
122F2
330
1E
100
AcDbEntity
  8
16
100
AcDbLine
 10
54.79695648129018
 20
469.8234042003658
 30
0.0
 11
169.7969564812902
 21
469.8234042003658
 31
0.0
  0
LINE
  5
122F4
330
1E
100
AcDbEntity
  8
16
100
AcDbLine
 10
112.2969564812902
 20
562.3234042003658
 30
0.0
 11
112.2969564812902
 21
377.3234042003659
 31
0.0
  0
LINE
  5
12309
330
1E
100
AcDbEntity
  8
130
100
AcDbLine
 10
59.79695648129018
 20
520.8234042003655
 30
0.0
 11
164.7969564812902
 21
520.8234042003655
 31
0.0
  0
LINE
  5
1233A
330
1E
100
AcDbEntity
  8
130
100
AcDbLine
 10
59.79695648129018
 20
418.8234042003657
 30
0.0
 11
164.7969564812902
 21
418.8234042003657
 31
0.0
  0
CIRCLE
  5
12355
330
1E
100
AcDbEntity
  8
24
100
AcDbCircle
 10
147.2969564812902
 20
541.8234042003655
 30
0.0
 40
5.0
  0
CIRCLE
  5
12356
330
1E
100
AcDbEntity
  8
24
100
AcDbCircle
 10
94.79695648129018
 20
532.8234042003658
 30
0.0
 40
4.0
  0
CIRCLE
  5
1235E
330
1E
100
AcDbEntity
  8
24
100
AcDbCircle
 10
-129.7969564812902
 20
532.8234042003658
 30
0.0
 40
4.0
210
0.0
220
0.0
230
-1.0
  0
CIRCLE
  5
1235F
330
1E
100
AcDbEntity
  8
24
100
AcDbCircle
 10
77.29695648129018
 20
541.8234042003655
 30
0.0
 40
5.0
  0
CIRCLE
  5
1236B
330
1E
100
AcDbEntity
  8
24
100
AcDbCircle
 10
112.2969564812902
 20
541.8234042003655
 30
0.0
 40
5.0
  0
LWPOLYLINE
  5
123B4
330
1E
100
AcDbEntity
  8
130
100
AcDbPolyline
 90
        4
 70
     1
 43
0.0
 10
59.79695648129018
 20
552.3234042003658
 10
164.7969564812902
 20
552.3234042003658
 10
164.7969564812902
 20
387.3234042003659
 10
59.79695648129018
 20
387.3234042003659
  0
DIMENSION
  5
123B5
330
1E
100
AcDbEntity
  8
30
100
AcDbDimension
280
     0
  2
*D6
 10
193.2019983128367
 20
387.3234042003659
 30
0.0
 11
193.2019983128366
 21
469.8234042003658
 31
0.0
 70
   160
 71
     5
 42
164.9999999999999
 73
     0
 74
     0
 75
     0
  3
STANDARD
100
AcDbAlignedDimension
 13
166.3755336930298
 23
552.3234042003658
 33
0.0
 14
166.3755336930298
 24
387.3234042003659
 34
0.0
 50
90.0
100
AcDbRotatedDimension
  0
LINE
  5
125D8
330
1E
100
AcDbEntity
  8
16
100
AcDbLine
 10
147.2969564812902
 20
139.8234042003659
 30
0.0
 11
147.2969564812902
 21
105.8234042003658
 31
0.0
  0
LINE
  5
125D9
330
1E
100
AcDbEntity
  8
16
100
AcDbLine
 10
147.2969564812902
 20
283.8234042003659
 30
0.0
 11
147.2969564812902
 21
249.8234042003659
 31
0.0
  0
CIRCLE
  5
125DA
330
1E
100
AcDbEntity
  8
24
100
AcDbCircle
 10
-147.2969564812902
 20
122.8234042003659
 30
0.0
 40
12.0
210
0.0
220
0.0
230
-1.0
  0
CIRCLE
  5
125DB
330
1E
100
AcDbEntity
  8
24
100
AcDbCircle
 10
147.2969564812902
 20
266.8234042003657
 30
0.0
 40
12.0
  0
LWPOLYLINE
  5
1304D
330
1E
100
AcDbEntity
  8
18
100
AcDbPolyline
 90
        4
 70
     1
 43
0.0
 10
258.7270991330283
 20
277.323404200366
 10
363.7270991330283
 20
277.323404200366
 10
363.7270991330283
 20
112.3234042003659
 10
258.7270991330283
 20
112.3234042003659
  0
LINE
  5
1304E
330
1E
100
AcDbEntity
  8
16
100
AcDbLine
 10
311.2270991330281
 20
287.323404200366
 30
0.0
 11
311.2270991330281
 21
103.1931606969083
 31
0.0
  0
DIMENSION
  5
13065
330
1E
100
AcDbEntity
  8
30
100
AcDbDimension
280
     0
  2
*D9
 10
361.2270991330283
 20
87.32340420036594
 30
0.0
 11
311.2270991330283
 21
93.82340420036594
 31
0.0
 70
    32
 71
     5
 42
100.0
 73
     0
 74
     0
 75
     0
  3
STANDARD
100
AcDbAlignedDimension
 13
261.2270991330283
 23
167.823404200366
 33
0.0
 14
361.2270991330283
 24
167.823404200366
 34
0.0
100
AcDbRotatedDimension
  0
LWPOLYLINE
  5
13393
330
1E
100
AcDbEntity
  8
130
100
AcDbPolyline
 90
        4
 70
     1
 43
0.0
 10
59.79695648128995
 20
651.9121723739507
 10
164.7969564812902
 20
651.9121723739507
 10
164.7969564812902
 20
643.9121723739507
 10
59.79695648128995
 20
643.9121723739507
  0
LWPOLYLINE
  5
13394
330
1E
100
AcDbEntity
  8
130
100
AcDbPolyline
 90
        4
 70
     1
 43
0.0
 10
63.29695648129064
 20
643.9121723739507
 10
161.2969564812906
 20
643.9121723739507
 10
161.2969564812906
 20
639.9121723739507
 10
63.29695648129064
 20
639.9121723739507
  0
LWPOLYLINE
  5
13395
330
1E
100
AcDbEntity
  8
130
100
AcDbPolyline
 90
        4
 70
     1
 43
0.0
 10
105.29695648129
 20
633.4121723739507
 10
119.2969564812899
 20
633.4121723739507
 10
119.2969564812899
 20
633.4121723739507
 10
105.29695648129
 20
633.4121723739507
  0
LWPOLYLINE
  5
13396
330
1E
100
AcDbEntity
  8
130
100
AcDbPolyline
 90
        4
 70
     1
 43
0.0
 10
101.2969564812903
 20
639.9121723739507
 10
123.2969564812901
 20
639.9121723739507
 10
123.2969564812901
 20
633.4121723739507
 10
101.2969564812903
 20
633.4121723739507
  0
LWPOLYLINE
  5
13397
330
1E
100
AcDbEntity
  8
130
100
AcDbPolyline
 90
        4
 70
     1
 43
0.0
 10
105.29695648129
 20
633.4121723739507
 10
119.2969564812899
 20
633.4121723739507
 10
119.2969564812899
 20
633.4121723739507
 10
105.29695648129
 20
633.4121723739507
  0
LWPOLYLINE
  5
13398
330
1E
100
AcDbEntity
  8
130
100
AcDbPolyline
 90
        4
 70
     1
 43
0.0
 10
105.2969564812899
 20
633.4121723739507
 10
119.2969564812896
 20
633.4121723739507
 10
119.2969564812896
 20
616.9121723739507
 10
105.2969564812899
 20
616.9121723739507
  0
DIMENSION
  5
137F9
330
1E
100
AcDbEntity
  8
30
100
AcDbDimension
280
     0
  2
*D10
 10
123.2969564812907
 20
429.5203668874915
 30
0.0
 11
135.130289814624
 21
429.5203668874915
 31
0.0
 70
   160
 71
     5
 42
21.99999999999994
 73
     0
 74
     0
 75
     0
  3
STANDARD
100
AcDbAlignedDimension
 13
101.2969564812907
 23
444.8234042003658
 33
0.0
 14
123.2969564812907
 24
444.8234042003658
 34
0.0
100
AcDbRotatedDimension
  0
LWPOLYLINE
  5
13872
330
1E
100
AcDbEntity
  8
130
  6
Continuous
100
AcDbPolyline
 90
        4
 70
     1
 43
0.0
 10
0.0
 20
891.0
 10
629.9999999999998
 20
891.0
 10
629.9999999999998
 20
0.0
 10
0.0
 20
0.0
  0
LWPOLYLINE
  5
37C2D
330
1E
100
AcDbEntity
  8
10
100
AcDbPolyline
 90
        8
 70
     1
 43
0.0
 10
261.2270991330283
 20
219.823404200366
 10
261.2171592326399
 20
169.823620286167
 42
0.4142768538557024
 10
262.2171592092934
 20
168.823404200366
 10
360.2270991330283
 20
168.823404200366
 42
0.4142135623730951
 10
361.2270991330283
 20
169.823404200366
 10
361.2270991330283
 20
219.823404200366
 42
0.4142135623730951
 10
360.2270991330283
 20
220.823404200366
 10
262.2270991330283
 20
220.823404200366
 42
0.4142135623730951
  0
LINE
  5
38045
330
1E
100
AcDbEntity
  8
16
100
AcDbLine
 10
438.6186697445842
 20
194.8234042003661
 30
0.0
 11
556.3822996292564
 21
194.8234042003661
 31
0.0
  0
DIMENSION
  5
38046
330
1E
100
AcDbEntity
  8
30
100
AcDbDimension
280
     0
  2
*D11
 10
575.5640869848921
 20
170.8234042003661
 30
0.0
 11
575.5640869848921
 21
194.8234042003661
 31
0.0
 70
   160
 71
     2
 42
48.0
 73
     0
 74
     0
 75
     0
  3
STANDARD
100
AcDbAlignedDimension
 13
503.0871831019351
 23
218.8234042003661
 33
0.0
 14
504.3864828579843
 24
170.8234042003661
 34
0.0
 50
90.0
100
AcDbRotatedDimension
  0
DIMENSION
  5
38048
330
1E
100
AcDbEntity
  8
30
  6
Continuous
100
AcDbDimension
280
     0
  2
*D12
 10
504.3864828579843
 20
217.8234042003661
 30
0.0
 11
516.6672599795466
 21
224.9137141772326
 31
0.0
 70
   164
  1
<>
 71
     5
 42
1.000000000013415
 73
     0
 74
     0
 75
     0
  3
STANDARD1
100
AcDbRadialDimension
 15
505.0072502643354
 25
218.607398988129
 35
0.0
 40
0.0
  0
LINE
  5
38049
330
1E
100
AcDbEntity
  8
16
100
AcDbLine
 10
493.3864828579843
 20
298.1009632219662
 30
0.0
 11
493.3864828579843
 21
103.1931606969083
 31
0.0
  0
DIMENSION
  5
38052
330
1E
100
AcDbEntity
  8
30
100
AcDbDimension
280
     0
  2
*D13
 10
481.3864828579843
 20
87.3482187785594
 30
0.0
 11
493.3864828579843
 21
87.3482187785594
 31
0.0
 70
   160
  1
<>
 71
     2
 42
24.0
 73
     0
 74
     0
 75
     0
  3
STANDARD1
100
AcDbAlignedDimension
 13
505.3864828579843
 23
171.8234042003661
 33
0.0
 14
481.3864828579843
 24
171.8234042003661
 34
0.0
100
AcDbRotatedDimension
  0
LWPOLYLINE
  5
380C3
330
1E
100
AcDbEntity
  8
18
100
AcDbPolyline
 90
        4
 70
     1
 43
0.0
 10
440.8864828579844
 20
277.323404200366
 10
545.8864828579844
 20
277.323404200366
 10
545.8864828579844
 20
112.3234042003659
 10
440.8864828579844
 20
112.3234042003659
  0
MTEXT
  5
38295
330
1E
100
AcDbEntity
  8
19
100
AcDbMText
 10
284.1207467711543
 20
33.4548873516992
 30
0.0
 40
7.826237649998486
 41
0.0
 46
0.0
 71
     1
 72
     1
  1
[Cutout A]
  7
SLDTEXTSTYLE0
 73
     1
 44
1.0
  0
MTEXT
  5
38296
330
1E
100
AcDbEntity
  8
19
100
AcDbMText
 10
478.2316775919844
 20
33.4548873516992
 30
0.0
 40
7.826237649998486
 41
0.0
 46
0.0
 71
     1
 72
     1
  1
[Cutout B]
  7
SLDTEXTSTYLE0
 73
     1
 44
1.0
  0
DIMENSION
  5
382DC
330
1E
100
AcDbEntity
  8
30
  6
Continuous
100
AcDbDimension
280
     0
  2
*D14
 10
360.0681805104153
 20
220.0305109815524
 30
0.0
 11
372.3489576319774
 21
227.1208209584188
 31
0.0
 70
   164
  1
<>
 71
     5
 42
1.00000000001296
 73
     0
 74
     0
 75
     0
  3
STANDARD1
100
AcDbRadialDimension
 15
360.6889479167659
 25
220.8145057693149
 35
0.0
 40
0.0
  0
LINE
  5
38744
330
1E
100
AcDbEntity
  8
16
100
AcDbLine
 10
256.4592860196281
 20
194.8234042003661
 30
0.0
 11
372.0238137064725
 21
194.8234042003661
 31
0.0
  0
LWPOLYLINE
  5
38745
330
1E
100
AcDbEntity
  8
130
100
AcDbPolyline
 90
        4
 70
     1
 43
0.0
 10
161.2969564812903
 20
494.8234042003658
 10
161.2969564812903
 20
444.8234042003658
 10
63.29695648129064
 20
444.8234042003658
 10
63.29695648129064
 20
494.8234042003658
  0
LWPOLYLINE
  5
38746
330
1E
100
AcDbEntity
  8
130
100
AcDbPolyline
 90
        4
 70
     1
 43
0.0
 10
105.2969564812902
 20
489.9782742003655
 10
105.2969564812902
 20
451.3234042003658
 10
119.2969564812901
 20
451.3234042003658
 10
119.2969564812901
 20
489.9782742003655
  0
LWPOLYLINE
  5
38748
330
1E
100
AcDbEntity
  8
130
100
AcDbPolyline
 90
        2
 70
     0
 43
0.0
 10
123.2969564812903
 20
494.8234042003658
 10
123.2969564812903
 20
444.8234042003658
  0
LWPOLYLINE
  5
38749
330
1E
100
AcDbEntity
  8
130
100
AcDbPolyline
 90
        2
 70
     0
 43
0.0
 10
101.2969564812902
 20
494.8234042003658
 10
101.2969564812902
 20
444.8234042003658
  0
LWPOLYLINE
  5
3874B
330
1E
100
AcDbEntity
  8
130
100
AcDbPolyline
 90
        2
 70
     0
 43
0.0
 10
119.2969564812901
 20
485.0633617003659
 10
105.2969564812902
 20
485.0633617003659
  0
LWPOLYLINE
  5
3874D
330
1E
100
AcDbEntity
  8
130
100
AcDbPolyline
 90
        2
 70
     0
 43
0.0
 10
119.2969564812901
 20
476.6641942003655
 10
105.2969564812902
 20
476.6641942003655
  0
LWPOLYLINE
  5
38757
330
1E
100
AcDbEntity
  8
0
  6
SLD-実線
 62
     7
370
    15
100
AcDbPolyline
 90
        2
 70
     0
 43
0.0
 10
154.9170605336009
 20
552.3234042003621
 42
0.3246235312781752
 10
139.6768524289795
 20
552.3234042003621
  0
LWPOLYLINE
  5
38758
330
1E
100
AcDbEntity
  8
0
  6
SLD-実線
 62
     7
370
    15
100
AcDbPolyline
 90
        2
 70
     0
 43
0.0
 10
84.91706053360088
 20
552.3234042003621
 42
0.3246235312781752
 10
69.67685242897949
 20
552.3234042003621
  0
LWPOLYLINE
  5
3875A
330
1E
100
AcDbEntity
  8
0
  6
SLD-実線
 62
     7
370
    15
100
AcDbPolyline
 90
        2
 70
     0
 43
0.0
 10
119.9170605336009
 20
552.3234042003623
 42
0.3246235312781752
 10
104.6768524289793
 20
552.3234042003623
  0
LWPOLYLINE
  5
3875C
330
1E
100
AcDbEntity
  8
130
100
AcDbPolyline
 90
        6
 70
     0
 43
0.0
 10
100.2969564812905
 20
552.3234042003658
 10
100.2969564812904
 20
534.8234042003658
 42
0.4142135623730951
 10
105.2969564812904
 20
529.8234042003659
 10
119.2969564812904
 20
529.8234042003659
 42
0.4142135623730951
 10
124.2969564812904
 20
534.8234042003658
 10
124.2969564812904
 20
552.3234042003658
  0
LWPOLYLINE
  5
3875D
330
1E
100
AcDbEntity
  8
130
100
AcDbPolyline
 90
        6
 70
     0
 43
0.0
 10
65.29695648129052
 20
552.3234042003658
 10
65.29695648129052
 20
534.8234042003658
 42
0.4142135623730951
 10
70.29695648129052
 20
529.8234042003659
 10
84.29695648129053
 20
529.8234042003659
 42
0.4142135623730951
 10
89.29695648129053
 20
534.8234042003658
 10
89.29695648129053
 20
552.3234042003658
  0
LWPOLYLINE
  5
3875F
330
1E
100
AcDbEntity
  8
130
100
AcDbPolyline
 90
        6
 70
     0
 43
0.0
 10
135.2969564812904
 20
552.3234042003658
 10
135.2969564812904
 20
534.8234042003658
 42
0.4142135623730951
 10
140.2969564812904
 20
529.8234042003659
 10
154.2969564812904
 20
529.8234042003659
 42
0.4142135623730951
 10
159.2969564812904
 20
534.8234042003658
 10
159.2969564812904
 20
552.3234042003658
  0
LWPOLYLINE
  5
38765
330
1E
100
AcDbEntity
  8
17
100
AcDbPolyline
 90
        2
 70
     0
 43
0.0
 10
94.79695648129018
 20
538.3234042003655
 10
94.79695648129018
 20
527.3234042003658
  0
LWPOLYLINE
  5
38768
330
1E
100
AcDbEntity
  8
17
100
AcDbPolyline
 90
        2
 70
     0
 43
0.0
 10
70.29695648129052
 20
541.8234042003655
 10
84.29695648129053
 20
541.8234042003655
  0
LWPOLYLINE
  5
3876B
330
1E
100
AcDbEntity
  8
17
100
AcDbPolyline
 90
        2
 70
     0
 43
0.0
 10
77.29695648129018
 20
548.8234042003656
 10
77.29695648129018
 20
534.8234042003658
  0
LWPOLYLINE
  5
3876F
330
1E
100
AcDbEntity
  8
17
100
AcDbPolyline
 90
        2
 70
     0
 43
0.0
 10
105.2969564812904
 20
541.8234042003655
 10
119.2969564812904
 20
541.8234042003655
  0
LWPOLYLINE
  5
38771
330
1E
100
AcDbEntity
  8
17
100
AcDbPolyline
 90
        2
 70
     0
 43
0.0
 10
147.2969564812902
 20
548.8234042003656
 10
147.2969564812902
 20
534.8234042003658
  0
LWPOLYLINE
  5
38772
330
1E
100
AcDbEntity
  8
17
100
AcDbPolyline
 90
        2
 70
     0
 43
0.0
 10
124.2969564812904
 20
532.8234042003658
 10
135.2969564812904
 20
532.8234042003658
  0
LWPOLYLINE
  5
38774
330
1E
100
AcDbEntity
  8
17
100
AcDbPolyline
 90
        2
 70
     0
 43
0.0
 10
140.2969564812904
 20
541.8234042003655
 10
154.2969564812904
 20
541.8234042003655
  0
LWPOLYLINE
  5
38775
330
1E
100
AcDbEntity
  8
17
100
AcDbPolyline
 90
        2
 70
     0
 43
0.0
 10
89.29695648129053
 20
532.8234042003658
 10
100.2969564812905
 20
532.8234042003658
  0
LWPOLYLINE
  5
38779
330
1E
100
AcDbEntity
  8
17
100
AcDbPolyline
 90
        2
 70
     0
 43
0.0
 10
129.7969564812902
 20
538.3234042003655
 10
129.7969564812902
 20
527.3234042003658
  0
LWPOLYLINE
  5
387C1
330
1E
100
AcDbEntity
  8
17
100
AcDbPolyline
 90
        2
 70
     0
 43
0.0
 10
129.7969564812902
 20
401.3234042003662
 10
129.7969564812902
 20
412.3234042003658
  0
LWPOLYLINE
  5
387C2
330
1E
100
AcDbEntity
  8
17
100
AcDbPolyline
 90
        2
 70
     0
 43
0.0
 10
89.29695648129053
 20
406.8234042003656
 10
100.2969564812905
 20
406.8234042003656
  0
LWPOLYLINE
  5
387C3
330
1E
100
AcDbEntity
  8
17
100
AcDbPolyline
 90
        2
 70
     0
 43
0.0
 10
140.2969564812904
 20
397.8234042003662
 10
154.2969564812904
 20
397.8234042003662
  0
LWPOLYLINE
  5
387C4
330
1E
100
AcDbEntity
  8
17
100
AcDbPolyline
 90
        2
 70
     0
 43
0.0
 10
124.2969564812904
 20
406.8234042003656
 10
135.2969564812904
 20
406.8234042003656
  0
LWPOLYLINE
  5
387C6
330
1E
100
AcDbEntity
  8
17
100
AcDbPolyline
 90
        2
 70
     0
 43
0.0
 10
147.2969564812902
 20
390.823404200366
 10
147.2969564812902
 20
404.8234042003659
  0
LWPOLYLINE
  5
387C7
330
1E
100
AcDbEntity
  8
17
100
AcDbPolyline
 90
        2
 70
     0
 43
0.0
 10
105.2969564812904
 20
397.8234042003662
 10
119.2969564812904
 20
397.8234042003662
  0
LWPOLYLINE
  5
387C9
330
1E
100
AcDbEntity
  8
17
100
AcDbPolyline
 90
        2
 70
     0
 43
0.0
 10
77.29695648129018
 20
390.823404200366
 10
77.29695648129018
 20
404.8234042003659
  0
LWPOLYLINE
  5
387CA
330
1E
100
AcDbEntity
  8
17
100
AcDbPolyline
 90
        2
 70
     0
 43
0.0
 10
70.29695648129052
 20
397.8234042003662
 10
84.29695648129053
 20
397.8234042003662
  0
LWPOLYLINE
  5
387CB
330
1E
100
AcDbEntity
  8
17
100
AcDbPolyline
 90
        2
 70
     0
 43
0.0
 10
94.79695648129018
 20
401.3234042003662
 10
94.79695648129018
 20
412.3234042003658
  0
CIRCLE
  5
387CC
330
1E
100
AcDbEntity
  8
24
100
AcDbCircle
 10
147.2969564812902
 20
397.8234042003662
 30
0.0
 40
5.0
  0
CIRCLE
  5
387CD
330
1E
100
AcDbEntity
  8
24
100
AcDbCircle
 10
94.79695648129018
 20
406.8234042003656
 30
0.0
 40
4.0
  0
CIRCLE
  5
387CF
330
1E
100
AcDbEntity
  8
24
100
AcDbCircle
 10
-129.7969564812902
 20
406.8234042003656
 30
0.0
 40
4.0
210
0.0
220
0.0
230
-1.0
  0
CIRCLE
  5
387D0
330
1E
100
AcDbEntity
  8
24
100
AcDbCircle
 10
77.29695648129018
 20
397.8234042003662
 30
0.0
 40
5.0
  0
LWPOLYLINE
  5
387D1
330
1E
100
AcDbEntity
  8
130
100
AcDbPolyline
 90
        6
 70
     0
 43
0.0
 10
135.2969564812904
 20
387.3234042003659
 10
135.2969564812904
 20
404.8234042003659
 42
-0.4142135623730951
 10
140.2969564812904
 20
409.8234042003658
 10
154.2969564812904
 20
409.8234042003658
 42
-0.4142135623730951
 10
159.2969564812904
 20
404.8234042003659
 10
159.2969564812904
 20
387.3234042003659
  0
LWPOLYLINE
  5
387D2
330
1E
100
AcDbEntity
  8
130
100
AcDbPolyline
 90
        6
 70
     0
 43
0.0
 10
65.29695648129052
 20
387.3234042003659
 10
65.29695648129052
 20
404.8234042003659
 42
-0.4142135623730951
 10
70.29695648129052
 20
409.8234042003658
 10
84.29695648129053
 20
409.8234042003658
 42
-0.4142135623730951
 10
89.29695648129053
 20
404.8234042003659
 10
89.29695648129053
 20
387.3234042003659
  0
CIRCLE
  5
387D3
330
1E
100
AcDbEntity
  8
24
100
AcDbCircle
 10
112.2969564812902
 20
397.8234042003662
 30
0.0
 40
5.0
  0
LWPOLYLINE
  5
387D4
330
1E
100
AcDbEntity
  8
130
100
AcDbPolyline
 90
        6
 70
     0
 43
0.0
 10
100.2969564812905
 20
387.3234042003659
 10
100.2969564812904
 20
404.8234042003659
 42
-0.4142135623730951
 10
105.2969564812904
 20
409.8234042003658
 10
119.2969564812904
 20
409.8234042003658
 42
-0.4142135623730951
 10
124.2969564812904
 20
404.8234042003659
 10
124.2969564812904
 20
387.3234042003659
  0
LWPOLYLINE
  5
387D5
330
1E
100
AcDbEntity
  8
0
  6
SLD-実線
 62
     7
370
    15
100
AcDbPolyline
 90
        2
 70
     0
 43
0.0
 10
119.9170605336009
 20
387.3234042003693
 42
-0.3246235312781752
 10
104.6768524289793
 20
387.3234042003693
  0
LWPOLYLINE
  5
387D7
330
1E
100
AcDbEntity
  8
0
  6
SLD-実線
 62
     7
370
    15
100
AcDbPolyline
 90
        2
 70
     0
 43
0.0
 10
84.91706053360088
 20
387.3234042003695
 42
-0.3246235312781752
 10
69.67685242897949
 20
387.3234042003695
  0
LWPOLYLINE
  5
387D8
330
1E
100
AcDbEntity
  8
0
  6
SLD-実線
 62
     7
370
    15
100
AcDbPolyline
 90
        2
 70
     0
 43
0.0
 10
154.9170605336009
 20
387.3234042003695
 42
-0.3246235312781752
 10
139.6768524289795
 20
387.3234042003695
  0
LWPOLYLINE
  5
387E5
330
1E
100
AcDbEntity
  8
24
100
AcDbPolyline
 90
        4
 70
     0
 43
0.0
 10
157.2969564812902
 20
712.9121723739504
 10
157.2969564812902
 20
738.4121723739508
 10
137.2969564812902
 20
738.4121723739508
 10
137.2969564812902
 20
712.9121723739504
  0
LWPOLYLINE
  5
387E6
330
1E
100
AcDbEntity
  8
24
100
AcDbPolyline
 90
        4
 70
     0
 43
0.0
 10
87.29695648129018
 20
712.9121723739504
 10
87.29695648129018
 20
738.4121723739508
 10
67.29695648129018
 20
738.4121723739508
 10
67.29695648129018
 20
712.9121723739504
  0
LWPOLYLINE
  5
387E7
330
1E
100
AcDbEntity
  8
24
100
AcDbPolyline
 90
        8
 70
     0
 43
0.0
 10
142.2969564812902
 20
738.4121723739508
 10
142.2969564812903
 20
742.9121723739508
 10
144.2969564812903
 20
742.9121723739508
 10
144.2969564812901
 20
780.9121723739508
 10
150.2969564812902
 20
780.9121723739508
 10
150.2969564812903
 20
742.9121723739508
 10
152.2969564812903
 20
742.9121723739508
 10
152.2969564812902
 20
738.4121723739508
  0
LWPOLYLINE
  5
387E8
330
1E
100
AcDbEntity
  8
24
100
AcDbPolyline
 90
        8
 70
     0
 43
0.0
 10
72.29695648129018
 20
738.4121723739508
 10
72.29695648129041
 20
742.9121723739508
 10
74.2969564812904
 20
742.9121723739508
 10
74.2969564812903
 20
780.9121723739508
 10
80.29695648129019
 20
780.9121723739508
 10
80.29695648129029
 20
742.9121723739508
 10
82.29695648129041
 20
742.9121723739508
 10
82.29695648129018
 20
738.4121723739508
  0
LWPOLYLINE
  5
387EB
330
1E
100
AcDbEntity
  8
24
100
AcDbPolyline
 90
        4
 70
     0
 43
0.0
 10
122.2969564812903
 20
712.9121723739504
 10
122.2969564812903
 20
774.9121723739508
 10
102.2969564812902
 20
774.9121723739508
 10
102.2969564812902
 20
712.9121723739504
  0
LWPOLYLINE
  5
387EE
330
1E
100
AcDbEntity
  8
24
100
AcDbPolyline
 90
        8
 70
     0
 43
0.0
 10
117.2969564812902
 20
774.9121723739508
 10
117.2969564812902
 20
779.4121723739508
 10
115.2969564812902
 20
779.4121723739508
 10
115.2969564812902
 20
818.9121723739505
 10
109.2969564812902
 20
818.9121723739505
 10
109.2969564812902
 20
779.4121723739508
 10
107.2969564812902
 20
779.4121723739508
 10
107.2969564812902
 20
774.9121723739508
  0
LWPOLYLINE
  5
387F0
330
1E
100
AcDbEntity
  8
17
100
AcDbPolyline
 90
        2
 70
     0
 43
0.0
 10
90.2969564812902
 20
768.9121723739506
 10
64.29695648129018
 20
768.9121723739506
  0
LWPOLYLINE
  5
387F5
330
1E
100
AcDbEntity
  8
17
100
AcDbPolyline
 90
        2
 70
     0
 43
0.0
 10
160.2969564812902
 20
768.9121723739506
 10
134.2969564812902
 20
768.9121723739506
  0
LWPOLYLINE
  5
387FA
330
1E
100
AcDbEntity
  8
17
100
AcDbPolyline
 90
        2
 70
     0
 43
0.0
 10
125.2969564812903
 20
803.9121723739501
 10
99.29695648129033
 20
803.9121723739501
  0
LWPOLYLINE
  5
38838
330
1E
100
AcDbEntity
  8
10
100
AcDbPolyline
 90
        8
 70
     1
 43
0.0
 10
481.3864828579843
 20
171.8234042003661
 42
0.4142135623730951
 10
482.3864828579843
 20
170.8234042003661
 10
504.3864828579843
 20
170.8234042003661
 42
0.4142135623730951
 10
505.3864828579843
 20
171.8234042003661
 10
505.3864828579843
 20
217.8234042003662
 42
0.4142135623730951
 10
504.3864828579843
 20
218.8234042003661
 10
482.3864828579843
 20
218.8234042003661
 42
0.4142135623730951
 10
481.3864828579843
 20
217.8234042003662
  0
LINE
  5
39221
330
1E
100
AcDbEntity
  8
130
100
AcDbLine
 10
400.3714363970438
 20
533.4207484878723
 30
0.0
 11
400.3714363970438
 21
520.8234042003655
 31
0.0
  0
LINE
  5
39222
330
1E
100
AcDbEntity
  8
130
100
AcDbLine
 10
392.3714363970439
 20
520.8234042003655
 30
0.0
 11
400.3714363970438
 21
520.8234042003655
 31
0.0
  0
LINE
  5
39223
330
1E
100
AcDbEntity
  8
16
100
AcDbLine
 10
363.3714363970439
 20
469.8234042003658
 30
0.0
 11
468.571436397044
 21
469.8234042003658
 31
0.0
  0
DIMENSION
  5
39225
330
1E
100
AcDbEntity
  8
30
100
AcDbDimension
280
     0
  2
*D15
 10
460.3714363970438
 20
357.3234042003659
 30
0.0
 11
430.3714363970438
 21
362.8234042003659
 31
0.0
 70
    32
 71
     5
 42
60.0
 73
     0
 74
     0
 75
     0
  3
STANDARD1
100
AcDbAlignedDimension
 13
400.3714363970438
 23
401.0731475109809
 33
0.0
 14
460.3714363970438
 24
362.3234042003659
 34
0.0
100
AcDbRotatedDimension
  0
DIMENSION
  5
39226
330
1E
100
AcDbEntity
  8
30
100
AcDbDimension
280
     0
  2
*D16
 10
460.3714363970438
 20
334.8897007940808
 30
0.0
 11
424.3714363970438
 21
340.3897007940808
 31
0.0
 70
    32
 71
     5
 42
72.0
 73
     0
 74
     0
 75
     0
  3
STANDARD1
100
AcDbAlignedDimension
 13
388.3714363970439
 23
444.8234042003658
 33
0.0
 14
460.3714363970438
 24
362.3234042003659
 34
0.0
100
AcDbRotatedDimension
  0
DIMENSION
  5
39227
330
1E
100
AcDbEntity
  8
30
100
AcDbDimension
280
     0
  2
*D17
 10
460.3714363970438
 20
346.5121712463418
 30
0.0
 11
426.3714363970438
 21
352.0121712463418
 31
0.0
 70
    32
 71
     5
 42
68.0
 73
     0
 74
     0
 75
     0
  3
STANDARD1
100
AcDbAlignedDimension
 13
392.3714363970439
 23
418.8234042003657
 33
0.0
 14
460.3714363970438
 24
362.3234042003659
 34
0.0
100
AcDbRotatedDimension
  0
DIMENSION
  5
39229
330
1E
100
AcDbEntity
  8
30
100
AcDbDimension
280
     0
  2
*D18
 10
567.3714363970438
 20
346.5121712463418
 30
0.0
 11
513.8714363970438
 21
352.0121712463418
 31
0.0
 70
    32
 71
     5
 42
107.0
 73
     0
 74
     0
 75
     0
  3
STANDARD1
100
AcDbAlignedDimension
 13
460.3714363970438
 23
387.3234042003659
 33
0.0
 14
567.3714363970438
 24
397.8234042003659
 34
0.0
100
AcDbRotatedDimension
  0
LINE
  5
3922A
330
1E
100
AcDbEntity
  8
24
100
AcDbLine
 10
460.3714363970438
 20
387.7218827828333
 30
0.0
 11
529.690290244297
 21
387.7218827828333
 31
0.0
  0
LWPOLYLINE
  5
3922B
330
1E
100
AcDbEntity
  8
24
100
AcDbPolyline
 90
        2
 70
     0
 43
0.0
 10
-532.3714346487028
 20
402.7311399920681
 42
0.0678333867575107
 10
-534.4171050301024
 20
407.7342258123207
210
0.0
220
0.0
230
-1.0
  0
ARC
  5
3922C
330
1E
100
AcDbEntity
  8
24
100
AcDbCircle
 10
512.3590933675566
 20
397.7280542975769
 30
0.0
 40
20.01234302948724
100
AcDbArc
 50
329.9999999999986
 51
30.00000000000136
  0
LWPOLYLINE
  5
3922D
330
1E
100
AcDbEntity
  8
24
100
AcDbPolyline
 90
        2
 70
     0
 43
0.0
 10
531.7359594533996
 20
402.7311400549486
 10
532.3714363970435
 20
402.7311400549486
  0
LINE
  5
3922E
330
1E
100
AcDbEntity
  8
24
100
AcDbLine
 10
460.3714363970438
 20
407.7342258123204
 30
0.0
 11
529.690290244297
 21
407.7342258123204
 31
0.0
  0
DIMENSION
  5
3922F
330
1E
100
AcDbEntity
  8
30
100
AcDbDimension
280
     0
  2
*D19
 10
580.3930366986466
 20
544.818775564308
 30
0.0
 11
573.8930366986465
 21
556.1521088976412
 31
0.0
 70
    32
 71
     0
 72
     0
 41
0.0
 42
6.0
 73
     0
 74
     0
 75
     0
  3
STANDARD
100
AcDbAlignedDimension
 13
567.3930366986466
 23
538.8187755643079
 33
0.0
 14
567.3930366986466
 24
544.818775564308
 34
0.0
 50
90.0
100
AcDbRotatedDimension
1001
ACAD
1000
DSTYLE
1002
{
1070
   172
1070
     1
1002
}
  0
LINE
  5
39230
330
1E
100
AcDbEntity
  8
17
100
AcDbLine
 10
450.3930366986463
 20
541.8169241098848
 30
0.0
 11
572.3930366986462
 21
541.8169241098848
 31
0.0
  0
DIMENSION
  5
39231
330
1E
100
AcDbEntity
  8
30
100
AcDbDimension
280
     0
  2
*D20
 10
501.2063129439598
 20
402.2280542975768
 30
0.0
 11
505.5396462772931
 21
418.9983836350468
 31
0.0
 70
   160
 71
     0
 72
     0
 41
0.0
 42
9.000000000000227
 73
     0
 74
     0
 75
     0
  3
STANDARD1
100
AcDbAlignedDimension
 13
513.8569333373963
 23
393.2280542975767
 33
0.0
 14
513.8544333373967
 24
402.2280542975768
 34
0.0
 50
90.0
100
AcDbRotatedDimension
  0
LINE
  5
39232
330
1E
100
AcDbEntity
  8
17
100
AcDbLine
 10
450.3930366986463
 20
397.7280542975769
 30
0.0
 11
572.4374441986462
 21
397.7280542975769
 31
0.0
  0
DIMENSION
  5
39233
330
1E
100
AcDbEntity
  8
30
100
AcDbDimension
280
     0
  2
*D21
 10
580.3930366986466
 20
407.728054297577
 30
0.0
 11
573.8930366986465
 21
397.7280542975769
 31
0.0
 70
    32
 71
     0
 72
     0
 41
0.0
 42
20.00000000000034
 73
     0
 74
     0
 75
     0
  3
STANDARD
100
AcDbAlignedDimension
 13
564.7135447743352
 23
387.7280542975766
 33
0.0
 14
564.7135447743352
 24
407.728054297577
 34
0.0
 50
90.0
100
AcDbRotatedDimension
  0
DIMENSION
  5
39234
330
1E
100
AcDbEntity
  8
30
100
AcDbDimension
280
     0
  2
*D22
 10
567.3930366986466
 20
370.8402105742412
 30
0.0
 11
559.3930366986466
 21
376.3402105742411
 31
0.0
 70
    32
 71
     5
 42
16.0
 73
     0
 74
     0
 75
     0
  3
STANDARD1
100
AcDbAlignedDimension
 13
551.3930366986466
 23
384.7280542975769
 33
0.0
 14
567.3930366986466
 24
397.7280542975769
 34
0.0
100
AcDbRotatedDimension
  0
LINE
  5
39235
330
1E
100
AcDbEntity
  8
1
  6
Continuous
 62
     2
100
AcDbLine
 10
460.3714363970438
 20
552.3234042003658
 30
0.0
 11
460.3714363970438
 21
387.2215742070961
 31
0.0
  0
ARC
  5
39236
330
1E
100
AcDbEntity
  8
24
100
AcDbCircle
 10
-513.7248507268613
 20
397.7280542975769
 30
0.0
 40
20.01234302948724
210
0.0
220
0.0
230
-1.0
100
AcDbArc
 50
329.9999999999986
 51
345.5224880000005
  0
ARC
  5
39237
330
1E
100
AcDbEntity
  8
24
100
AcDbCircle
 10
519.3634134278774
 20
397.7280542975769
 30
0.0
 40
4.50277718163463
100
AcDbArc
 50
270.0
 51
90.0
  0
CIRCLE
  5
39238
330
1E
100
AcDbEntity
  8
24
100
AcDbCircle
 10
551.3831622750569
 20
397.7280542975769
 30
0.0
 40
4.50277718163463
  0
LWPOLYLINE
  5
39239
330
1E
100
AcDbEntity
  8
24
100
AcDbPolyline
 90
        2
 70
     0
 43
0.0
 10
564.7118911219433
 20
387.7218827828331
 42
0.2679491924311281
 10
564.7118911219433
 20
407.7342258123207
  0
LWPOLYLINE
  5
3923A
330
1E
100
AcDbEntity
  8
24
100
AcDbPolyline
 90
        2
 70
     0
 43
0.0
 10
-534.4171050301024
 20
387.7218827828331
 42
0.0678333867574932
 10
-532.3714346487031
 20
392.7249686030842
210
0.0
220
0.0
230
-1.0
  0
ARC
  5
3923B
330
1E
100
AcDbEntity
  8
24
100
AcDbCircle
 10
-513.7248507268613
 20
397.7280542975769
 30
0.0
 40
20.01234302948724
210
0.0
220
0.0
230
-1.0
100
AcDbArc
 50
14.47751199999711
 51
30.00000000000136
  0
ARC
  5
3923C
330
1E
100
AcDbEntity
  8
24
100
AcDbCircle
 10
513.3597105190308
 20
397.7280542975769
 30
0.0
 40
4.50277718163463
100
AcDbArc
 50
90.0
 51
270.0
  0
LINE
  5
3923D
330
1E
100
AcDbEntity
  8
24
100
AcDbLine
 10
489.8896423655375
 20
407.7342258123204
 30
0.0
 11
489.8896423655375
 21
387.7218827828333
 31
0.0
  0
LWPOLYLINE
  5
3923E
330
1E
100
AcDbEntity
  8
24
100
AcDbPolyline
 90
        2
 70
     0
 43
0.0
 10
534.4171056061467
 20
387.7218827828333
 10
564.7118905458996
 20
387.7218827828333
  0
LWPOLYLINE
  5
3923F
330
1E
100
AcDbEntity
  8
24
100
AcDbPolyline
 90
        2
 70
     0
 43
0.0
 10
534.4171056061467
 20
407.7342258123204
 10
564.7118905458996
 20
407.7342258123204
  0
LINE
  5
39240
330
1E
100
AcDbEntity
  8
24
100
AcDbLine
 10
519.3634134278774
 20
402.2308314792113
 30
0.0
 11
513.3597105190308
 21
402.2308314792113
 31
0.0
  0
LINE
  5
39241
330
1E
100
AcDbEntity
  8
24
100
AcDbLine
 10
489.8896423655375
 20
402.7311400549486
 30
0.0
 11
494.3479846410178
 21
402.7311400549486
 31
0.0
  0
LINE
  5
39242
330
1E
100
AcDbEntity
  8
24
100
AcDbLine
 10
513.3597105190308
 20
393.2252771159424
 30
0.0
 11
519.3634134278774
 21
393.2252771159424
 31
0.0
  0
LINE
  5
39243
330
1E
100
AcDbEntity
  8
17
100
AcDbLine
 10
551.3831622750569
 20
410.7360772667433
 30
0.0
 11
551.3930366986466
 21
381.7280542975769
 31
0.0
  0
LWPOLYLINE
  5
39244
330
1E
100
AcDbEntity
  8
24
100
AcDbPolyline
 90
        2
 70
     0
 43
0.0
 10
531.7359594533996
 20
392.724968540205
 10
532.3714363970435
 20
392.724968540205
  0
LINE
  5
39245
330
1E
100
AcDbEntity
  8
24
100
AcDbLine
 10
489.8896423655375
 20
392.724968540205
 30
0.0
 11
494.3479846410178
 21
392.724968540205
 31
0.0
  0
LINE
  5
39246
330
1E
100
AcDbEntity
  8
17
100
AcDbLine
 10
551.3831622750569
 20
554.8249470790516
 30
0.0
 11
551.3831622750569
 21
528.8089011407183
 31
0.0
  0
LWPOLYLINE
  5
39247
330
1E
100
AcDbEntity
  8
24
100
AcDbPolyline
 90
        8
 70
     0
 43
0.0
 10
526.4121683943516
 20
546.8200098672566
 10
533.2245825927339
 20
546.8200098672566
 10
533.2245825927339
 20
544.818775564308
 10
567.3930366986466
 20
544.818775564308
 10
567.3930366986466
 20
538.8150726554619
 10
533.2245825927339
 20
538.8150726554619
 10
533.2245825927339
 20
536.8138383525132
 10
526.4121683943516
 20
536.8138383525132
  0
LWPOLYLINE
  5
39248
330
1E
100
AcDbEntity
  8
24
100
AcDbPolyline
 90
        3
 70
     0
 43
0.0
 10
460.3714363970438
 20
551.8230956246285
 10
526.4121683943516
 20
551.8230956246285
 10
526.4121683943516
 20
544.818775564308
  0
LWPOLYLINE
  5
39249
330
1E
100
AcDbEntity
  8
24
100
AcDbPolyline
 90
        3
 70
     0
 43
0.0
 10
460.3714363970438
 20
531.8107525951412
 10
526.4121683943516
 20
531.8107525951412
 10
526.4121683943516
 20
538.8150726554619
  0
LWPOLYLINE
  5
3924A
330
1E
100
AcDbEntity
  8
24
100
AcDbPolyline
 90
        8
 70
     0
 43
0.0
 10
489.8896423655375
 20
536.8138383525132
 10
495.2011308367082
 20
536.8138383525132
 10
495.2011308367082
 20
538.8150726554619
 10
532.3714363970436
 20
538.8150726554619
 10
532.3714363970436
 20
544.818775564308
 10
495.2011308367082
 20
544.818775564308
 10
495.2011308367082
 20
546.8200098672566
 10
489.8896423655375
 20
546.8200098672566
  0
LWPOLYLINE
  5
3924B
330
1E
100
AcDbEntity
  8
24
100
AcDbPolyline
 90
        2
 70
     0
 43
0.0
 10
489.8896423655375
 20
551.8230956246285
 10
489.8896423655375
 20
531.8107525951412
  0
DIMENSION
  5
3924C
330
1E
100
AcDbEntity
  8
30
100
AcDbDimension
280
     0
  2
*D23
 10
590.3714363970437
 20
541.8234042003656
 30
0.0
 11
583.8714363970438
 21
469.8234042003658
 31
0.0
 70
    32
 71
     0
 72
     0
 41
0.0
 42
143.9999999999999
 73
     0
 74
     0
 75
     0
  3
STANDARD
100
AcDbAlignedDimension
 13
580.3714363970438
 23
397.8234042003659
 33
0.0
 14
580.3714363970438
 24
541.8234042003656
 34
0.0
 50
90.0
100
AcDbRotatedDimension
  0
DIMENSION
  5
3924D
330
1E
100
AcDbEntity
  8
30
100
AcDbDimension
280
     0
  2
*D24
 10
532.3714363970436
 20
357.3234042003659
 30
0.0
 11
490.628348358854
 21
357.3234042003659
 31
0.0
 70
   160
 71
     5
 42
72.0
 73
     0
 74
     0
 75
     0
  3
STANDARD
100
AcDbAlignedDimension
 13
460.3714363970438
 23
362.3234042003659
 33
0.0
 14
532.3714363970436
 24
387.228054297577
 34
0.0
100
AcDbRotatedDimension
  0
LWPOLYLINE
  5
3924E
330
1E
100
AcDbEntity
  8
130
100
AcDbPolyline
 90
        4
 70
     0
 43
0.0
 10
388.3714363970439
 20
447.3234042003658
 10
381.8714363970437
 20
447.3234042003658
 10
381.8714363970437
 20
492.3234042003657
 10
388.3714363970439
 20
492.3234042003657
  0
LWPOLYLINE
  5
3924F
330
1E
100
AcDbEntity
  8
130
100
AcDbPolyline
 90
        4
 70
     0
 43
0.0
 10
392.3714363970439
 20
444.8234042003655
 10
388.3714363970439
 20
444.8234042003655
 10
388.3714363970439
 20
494.8234042003655
 10
392.3714363970439
 20
494.8234042003655
  0
DIMENSION
  5
39251
330
1E
100
AcDbEntity
  8
30
100
AcDbDimension
280
     0
  2
*D25
 10
349.481694701768
 20
444.8234042003658
 30
0.0
 11
349.481694701768
 21
469.8234042003658
 31
0.0
 70
   160
 71
     5
 42
50.0
 73
     0
 74
     0
 75
     0
  3
STANDARD
100
AcDbAlignedDimension
 13
388.3714363970439
 23
494.8234042003655
 33
0.0
 14
388.3714363970439
 24
444.8234042003655
 34
0.0
 50
90.0
100
AcDbRotatedDimension
  0
LWPOLYLINE
  5
39253
330
1E
100
AcDbEntity
  8
130
100
AcDbPolyline
 90
       26
 70
     1
 43
0.0
 10
392.3714363970439
 20
520.8234042003655
 10
392.3714363970439
 20
418.8234042003657
 10
400.3714363970438
 20
418.8234042003657
 10
400.3714363970438
 20
406.2260599128591
 10
402.384282837244
 20
391.9039135649659
 10
402.7483740844438
 20
389.3132572843658
 10
402.9044329031169
 20
388.7720382901983
 10
403.2051150455478
 20
388.2951871909837
 10
403.6298270696975
 20
387.922158507242
 10
404.1384961735587
 20
387.6794862939769
 10
404.6940075257073
 20
387.5919123962459
 10
407.0766733982439
 20
387.5503232553659
 10
409.7024025352083
 20
387.3234042003659
 10
460.3714363970438
 20
387.3234042003659
 10
460.3714363970438
 20
552.3234042003658
 10
413.5766735323436
 20
552.2099463119658
 10
407.0766733982439
 20
552.0964851453659
 10
404.6940075257073
 20
552.0548960044857
 10
404.1384961735587
 20
551.9673221067548
 10
403.6298270696975
 20
551.7246498934896
 10
403.2051150455478
 20
551.3516212097481
 10
402.9044329031169
 20
550.8747701105335
 10
402.7483740844438
 20
550.3335511163659
 10
402.384282837244
 20
547.7428948357657
 10
400.3714363970438
 20
533.4207484878723
 10
400.3714363970438
 20
520.8234042003659
  0
LINE
  5
39254
330
1E
100
AcDbEntity
  8
17
100
AcDbLine
 10
515.9349888756089
 20
554.8249470790515
 30
0.0
 11
515.9349888756089
 21
528.8089011407183
 31
0.0
  0
LINE
  5
39255
330
1E
100
AcDbEntity
  8
17
100
AcDbLine
 10
513.3714363970438
 20
410.7360772667433
 30
0.0
 11
513.3714363970438
 21
381.7200313284102
 31
0.0
  0
LWPOLYLINE
  5
39256
330
1E
100
AcDbEntity
  8
130
100
AcDbPolyline
 90
       53
 70
     0
 43
0.0
 10
381.8714363970437
 20
481.4860392003659
 10
369.6207603313732
 20
485.8261166213729
 42
0.4244748162090625
 10
367.1700360003764
 20
484.3184209534533
 10
366.4507224097663
 20
481.0467868812466
 42
0.4248673327981316
 10
368.0424556767828
 20
478.6475753754912
 10
368.441733948145
 20
478.5748176957397
 10
368.831523485466
 20
478.5048116778514
 10
369.2120117401243
 20
478.4374673822896
 10
369.5833861634883
 20
478.3726948695202
 10
369.9458342069271
 20
478.310404200008
 10
370.2995433218092
 20
478.2505054342191
 10
370.6447009595032
 20
478.1929086326186
 10
370.9814945713781
 20
478.1375238556721
 10
371.3101116088024
 20
478.0842611638452
 10
371.6307395231448
 20
478.0330306176032
 10
371.9435657657742
 20
477.9837422774114
 10
372.248777788059
 20
477.9363062037353
 10
372.5465630413681
 20
477.8906324570407
 10
372.8371089770702
 20
477.8466310977931
 10
373.120603046534
 20
477.8042121864575
 10
373.3972327011281
 20
477.7632857834996
 10
373.6671853922214
 20
477.7237619493848
 10
373.9306485711825
 20
477.6855507445787
 10
374.1878096893801
 20
477.6485622295468
 10
374.4388561981829
 20
477.6127064647543
 10
374.6839755489597
 20
477.577893510667
 10
374.9233551930789
 20
477.5440334277497
 10
375.1571825819095
 20
477.511036276469
 10
375.3856451668202
 20
477.4788121172893
 10
375.6089303991796
 20
477.4472710106766
 10
375.8272257303565
 20
477.4163230170962
 10
376.0407186117195
 20
477.3858781970137
 10
376.2495964946373
 20
477.3558466108943
 10
376.4540468304788
 20
477.3261383192036
 10
376.6542570706125
 20
477.2966633824073
 10
376.8504146664071
 20
477.2673318609705
 10
377.0427070692315
 20
477.2380538153591
 10
377.2313217304543
 20
477.2087393060381
 10
377.4164461014441
 20
477.1792983934731
 10
377.5982638856933
 20
477.1496457474602
 10
377.7769134149164
 20
477.1197518383315
 10
378.1251398856229
 20
477.0592711079442
 10
378.4619871504777
 20
476.9979212991867
 10
378.7883163028435
 20
476.9357681774232
 10
379.1049884360824
 20
476.8728775080178
 10
379.4128646435565
 20
476.8093150563343
 10
379.7128060186282
 20
476.7451465877372
 10
380.0056736546594
 20
476.6804378675903
 10
380.2923286450128
 20
476.6152546612578
 10
380.5736320830504
 20
476.5496627341037
 10
380.8504450621345
 20
476.4837278514922
 10
381.394044016891
 20
476.3510922813528
 10
381.9300142561802
 20
476.2178740737526
  0
LEADER
  5
39257
330
1E
100
AcDbEntity
  8
30
100
AcDbLeader
  3
STANDARD1
 76
     3
 10
551.3831622750569
 20
402.2308314792113
 30
0.0
 10
556.2500065287325
 20
424.904853926298
 30
0.0
 10
569.7593306693934
 20
424.904853926298
 30
0.0
211
-1.0
221
0.0
231
0.0
1001
ACAD
1000
DSTYLE
1002
{
1070
   147
1040
2.0
1070
    77
1070
     0
1002
}
  0
MTEXT
  5
39258
330
1E
100
AcDbEntity
  8
30
  6
Continuous
100
AcDbMText
 10
559.2500065287326
 20
433.2079259536444
 30
0.0
 40
7.0
 41
30.0
 46
0.0
 71
     1
 72
     5
  1
%%C9
  7
blockfont
 73
     1
 44
1.0
  0
LINE
  5
39259
330
1E
100
AcDbEntity
  8
17
100
AcDbLine
 10
519.3714363970436
 20
410.2441002359102
 30
0.0
 11
519.3714363970436
 21
381.228054297577
 31
0.0
  0
DIMENSION
  5
3925A
330
1E
100
AcDbEntity
  8
30
100
AcDbDimension
280
     0
  2
*D26
 10
519.3714363970436
 20
370.8402105742412
 30
0.0
 11
526.5544430085253
 21
370.8402105742412
 31
0.0
 70
   160
 71
     5
 42
13.0
 73
     0
 74
     0
 75
     0
  3
STANDARD1
100
AcDbAlignedDimension
 13
532.3714363970436
 23
384.2280542975769
 33
0.0
 14
519.3714363970436
 24
384.2280542975769
 34
0.0
100
AcDbRotatedDimension
  0
DIMENSION
  5
3925B
330
1E
100
AcDbEntity
  8
30
100
AcDbDimension
280
     0
  2
*D27
 10
513.3714363970438
 20
370.8402105742412
 30
0.0
 11
505.0381030637105
 21
376.3402105742411
 31
0.0
 70
    32
 71
     5
 42
6.0
 73
     0
 74
     0
 75
     0
  3
STANDARD1
100
AcDbAlignedDimension
 13
519.3714363970436
 23
384.7200313284101
 33
0.0
 14
513.3714363970438
 24
384.7200313284101
 34
0.0
100
AcDbRotatedDimension
  0
DIMENSION
  5
3925C
330
1E
100
AcDbEntity
  8
30
100
AcDbDimension
280
     0
  2
*D28
 10
381.8714363970439
 20
334.8897007940808
 30
0.0
 11
351.0526538604282
 21
334.8897007940808
 31
0.0
 70
   160
 71
     5
 42
6.5
 73
     0
 74
     0
 75
     0
  3
STANDARD1
100
AcDbAlignedDimension
 13
388.3714363970439
 23
444.8234042003658
 33
0.0
 14
381.8714363970439
 24
444.8234042003658
 34
0.0
100
AcDbRotatedDimension
  0
DIMENSION
  5
3951B
330
1E
100
AcDbEntity
  8
30
100
AcDbDimension
280
     0
  2
*D49
 10
37.25649335307916
 20
712.9121723739504
 30
0.0
 11
41.58982668641238
 21
732.4184748114596
 31
0.0
 70
   160
 71
     5
 42
7.0
 73
     0
 74
     0
 75
     0
  3
STANDARD1
100
AcDbAlignedDimension
 13
92.7969564812902
 23
719.9121723739501
 33
0.0
 14
92.7969564812902
 24
712.9121723739504
 34
0.0
 50
90.0
100
AcDbRotatedDimension
  0
DIMENSION
  5
3959D
330
1E
100
AcDbEntity
  8
30
100
AcDbDimension
280
     0
  2
*D50
 10
387.4546986715459
 20
168.823404200366
 30
0.0
 11
387.4546986715458
 21
194.823404200366
 31
0.0
 70
   160
 71
     2
 42
51.99999999999997
 73
     0
 74
     0
 75
     0
  3
STANDARD
100
AcDbAlignedDimension
 13
358.9277993769791
 23
220.823404200366
 33
0.0
 14
360.2270991330283
 24
168.823404200366
 34
0.0
 50
90.0
100
AcDbRotatedDimension
  0
DIMENSION
  5
3ACB9
330
1E
100
AcDbEntity
  8
30
100
AcDbDimension
280
     0
  2
*D51
 10
164.7969564812902
 20
334.8897007940808
 30
0.0
 11
112.2969564812902
 21
340.3897007940808
 31
0.0
 70
    32
 71
     5
 42
105.0
 73
     0
 74
     0
 75
     0
  3
STANDARD1
100
AcDbAlignedDimension
 13
59.79695648129018
 23
387.3234042003659
 33
0.0
 14
164.7969564812902
 24
387.3234042003659
 34
0.0
100
AcDbRotatedDimension
  0
ARC
  5
3ACF6
330
1E
100
AcDbEntity
  8
30
100
AcDbCircle
 10
448.1120835349423
 20
467.9643524717116
 30
0.0
 40
82.74397833097701
100
AcDbArc
 50
170.9264953962757
 51
180.5141274487252
  0
DIMENSION
  5
3ACF7
330
1E
100
AcDbEntity
  8
30
100
AcDbDimension
280
     0
  2
*D52
 10
365.3714363970434
 20
321.5923623336894
 30
0.0
 11
412.8714363970436
 21
327.0923623336894
 31
0.0
 70
    32
 71
     5
 42
95.00000000000051
 73
     0
 74
     0
 75
     0
  3
STANDARD1
100
AcDbAlignedDimension
 13
460.3714363970438
 23
387.7218827828333
 33
0.0
 14
365.3714363970434
 24
470.2218827828331
 34
0.0
100
AcDbRotatedDimension
  0
DIMENSION
  5
3ADB2
330
1E
100
AcDbEntity
  8
30
100
AcDbDimension
280
     0
  2
*D53
 10
147.2969564812902
 20
356.823404200366
 30
0.0
 11
112.2969564812902
 21
362.3234042003659
 31
0.0
 70
    32
 71
     5
 42
70.0
 73
     0
 74
     0
 75
     0
  3
STANDARD1
100
AcDbAlignedDimension
 13
77.29695648129018
 23
390.823404200366
 33
0.0
 14
147.2969564812902
 24
390.823404200366
 34
0.0
100
AcDbRotatedDimension
  0
VIEWPORT
  5
9AC
330
1A
100
AcDbEntity
 67
     1
  8
0
  6
Continuous
348
E4DA
100
AcDbViewport
 10
0.0
 20
0.0
 30
0.0
 40
0.0
 41
0.0
 68
     1
 69
     1
 12
0.0
 22
0.0
 13
0.0
 23
0.0
 14
10.0
 24
10.0
 15
10.0
 25
10.0
 16
0.0
 26
0.0
 36
1.0
 17
0.0
 27
0.0
 37
0.0
 42
50.0
 43
0.0
 44
0.0
 45
0.0
 50
0.0
 51
0.0
 72
   100
 90
    32800
  1

281
     0
 71
     1
 74
     0
110
0.0
120
0.0
130
0.0
111
1.0
121
0.0
131
0.0
112
0.0
122
1.0
132
0.0
 79
     0
146
0.0
170
     0
 61
     5
292
     1
282
     1
141
0.0
142
0.0
 63
   250
421
  3355443
  0
VIEWPORT
  5
E19D
330
1A
100
AcDbEntity
 67
     1
  8
30
348
E4DA
100
AcDbViewport
 10
0.0
 20
0.0
 30
0.0
 40
0.0
 41
0.0
 68
     2
 69
     2
 12
8.653370891979619
 22
137.2805829780177
 13
0.0
 23
0.0
 14
1.0
 24
1.0
 15
10.0
 25
10.0
 16
0.0
 26
0.0
 36
1.0
 17
0.0
 27
0.0
 37
0.0
 42
50.0
 43
0.0
 44
0.0
 45
689.9195596776387
 50
0.0
 51
0.0
 72
   100
 90
    37664
  1

281
     0
 71
     1
 74
     0
110
0.0
120
0.0
130
0.0
111
1.0
121
0.0
131
0.0
112
0.0
122
1.0
132
0.0
 79
     0
146
0.0
170
     0
 61
     5
292
     1
282
     1
141
0.0
142
0.0
 63
   250
421
  3355443
  0
ENDSEC
  0
SECTION
  2
OBJECTS
  0
DICTIONARY
  5
C
330
0
100
AcDbDictionary
281
     1
  3
ACAD_CIP_PREVIOUS_PRODUCT_INFO
350
3ADE7
  3
ACAD_COLOR
350
E4E8
  3
ACAD_DETAILVIEWSTYLE
350
3ADE1
  3
ACAD_GROUP
350
D
  3
ACAD_LAYOUT
350
19
  3
ACAD_MATERIAL
350
E4BB
  3
ACAD_MLEADERSTYLE
350
E50D
  3
ACAD_MLINESTYLE
350
16
  3
ACAD_PLOTSETTINGS
350
18
  3
ACAD_PLOTSTYLENAME
350
E
  3
ACAD_SCALELIST
350
E4EB
  3
ACAD_SECTIONVIEWSTYLE
350
3ADDF
  3
ACAD_TABLESTYLE
350
E4E9
  3
ACAD_VISUALSTYLE
350
E4D4
  3
ACADDIM
350
6D5E
  3
ACDB_RECOMPOSE_DATA
350
3AE81
  3
ACDBVARIABLEDICTIONARY
350
5697
  3
AEC_PROPERTY_SET_DEFS
350
F8DB
  3
ASE_INDEX_DICTIONARY
350
F8F6
  0
DICTIONARY
  5
12DA0
330
2
100
AcDbDictionary
280
     1
281
     1
  3
ACAD_LAYERSTATES
360
12DA1
  0
DICTIONARY
  5
E512
330
10
100
AcDbDictionary
280
     1
281
     1
  3
ADSK_XREC_LAYER_RECONCILED
360
E513
  0
DICTIONARY
  5
E514
330
2F
100
AcDbDictionary
280
     1
281
     1
  3
ADSK_XREC_LAYER_RECONCILED
360
E515
  0
DICTIONARY
  5
E518
330
35
100
AcDbDictionary
280
     1
281
     1
  3
ADSK_XREC_LAYER_RECONCILED
360
E519
  0
DICTIONARY
  5
E51C
330
3D
100
AcDbDictionary
280
     1
281
     1
  3
ADSK_XREC_LAYER_RECONCILED
360
E51D
  0
DICTIONARY
  5
E51E
330
3A2
100
AcDbDictionary
280
     1
281
     1
  3
ADSK_XREC_LAYER_RECONCILED
360
E51F
  0
DICTIONARY
  5
E520
330
3BBA
100
AcDbDictionary
280
     1
281
     1
  3
ADSK_XREC_LAYER_RECONCILED
360
E521
  0
DICTIONARY
  5
E522
330
67A8
100
AcDbDictionary
280
     1
281
     1
  3
ADSK_XREC_LAYER_RECONCILED
360
E523
  0
DICTIONARY
  5
E524
330
7837
100
AcDbDictionary
280
     1
281
     1
  3
ADSK_XREC_LAYER_RECONCILED
360
E525
  0
DICTIONARY
  5
E526
330
7BC8
100
AcDbDictionary
280
     1
281
     1
  3
ADSK_XREC_LAYER_RECONCILED
360
E527
  0
DICTIONARY
  5
E52A
330
C4FE
100
AcDbDictionary
280
     1
281
     1
  3
ADSK_XREC_LAYER_RECONCILED
360
E52B
  0
DICTIONARY
  5
E530
330
C501
100
AcDbDictionary
280
     1
281
     1
  3
ADSK_XREC_LAYER_RECONCILED
360
E531
  0
DICTIONARY
  5
E534
330
E473
100
AcDbDictionary
280
     1
281
     1
  3
ADSK_XREC_LAYER_RECONCILED
360
E535
  0
DICTIONARY
  5
1106B
330
1106A
100
AcDbDictionary
280
     1
281
     1
  0
DICTIONARY
  5
3828A
330
38289
100
AcDbDictionary
280
     1
281
     1
  0
DICTIONARY
  5
399AE
330
399AD
100
AcDbDictionary
280
     1
281
     1
  0
DICTIONARY
  5
178
330
1E
100
AcDbDictionary
280
     1
281
     1
  3
ACAD_LAYOUTSELFREF
360
9011
  3
ACAD_SORTENTS
360
37C0C
  0
DICTIONARY
  5
17A
330
1A
100
AcDbDictionary
280
     1
281
     1
  3
ACAD_LAYOUTSELFREF
360
9010
  0
DICTIONARY
  5
394E9
330
394AC
100
AcDbDictionary
280
     1
281
     1
  3
ACAD_SORTENTS
360
394EA
  0
XRECORD
  5
3ADE7
102
{ACAD_REACTORS
330
C
102
}
330
C
100
AcDbXrecord
280
     1
300
ACDLT
300
2014
300
ACDLT_F_S
  0
DICTIONARY
  5
E4E8
102
{ACAD_REACTORS
330
C
102
}
330
C
100
AcDbDictionary
281
     1
  0
DICTIONARY
  5
3ADE1
102
{ACAD_REACTORS
330
C
102
}
330
C
100
AcDbDictionary
281
     1
  3
Imperial24
350
3ADE2
  0
DICTIONARY
  5
D
102
{ACAD_REACTORS
330
C
102
}
330
C
100
AcDbDictionary
281
     1
  0
DICTIONARY
  5
19
102
{ACAD_REACTORS
330
C
102
}
330
C
100
AcDbDictionary
281
     1
  3
Model
350
904E
  3
ﾚｲｱｳﾄ1
350
904F
  0
DICTIONARY
  5
E4BB
102
{ACAD_REACTORS
330
C
102
}
330
C
100
AcDbDictionary
281
     1
  3
ByBlock
350
E4C4
  3
ByLayer
350
E4BC
  3
Global
350
E4CC
  0
DICTIONARY
  5
E50D
102
{ACAD_REACTORS
330
C
102
}
330
C
100
AcDbDictionary
281
     1
  3
Standard
350
E50E
  0
DICTIONARY
  5
16
102
{ACAD_REACTORS
330
C
102
}
330
C
100
AcDbDictionary
281
     1
  3
STANDARD
350
17
  0
DICTIONARY
  5
18
102
{ACAD_REACTORS
330
C
102
}
330
C
100
AcDbDictionary
281
     1
  0
ACDBDICTIONARYWDFLT
  5
E
102
{ACAD_REACTORS
330
C
102
}
330
C
100
AcDbDictionary
281
     1
  3
Normal
350
F
100
AcDbDictionaryWithDefault
340
F
  0
DICTIONARY
  5
E4EB
102
{ACAD_REACTORS
330
C
102
}
330
C
100
AcDbDictionary
281
     1
  3
A0
350
E4EC
  3
A1
350
E4ED
  3
A2
350
E4EE
  3
A3
350
E4EF
  3
A4
350
E4F0
  3
A5
350
E4F1
  3
A6
350
E4F2
  3
A7
350
E4F3
  3
A8
350
E4F4
  3
A9
350
E4F5
  3
B0
350
E4F6
  3
B1
350
E4F7
  3
B2
350
E4F8
  3
B3
350
E4F9
  3
B4
350
E4FA
  3
B5
350
E4FB
  3
B6
350
E4FC
  3
B7
350
E4FD
  3
B8
350
E4FE
  3
B9
350
E4FF
  3
C0
350
E500
  3
C1
350
E501
  3
C2
350
E502
  3
C3
350
E503
  3
C4
350
E504
  3
C5
350
E505
  3
C6
350
E506
  3
C7
350
E507
  3
C8
350
E508
  3
C9
350
E509
  3
D0
350
E50A
  3
D1
350
E50B
  3
D2
350
E50C
  0
DICTIONARY
  5
3ADDF
102
{ACAD_REACTORS
330
C
102
}
330
C
100
AcDbDictionary
281
     1
  3
Imperial24
350
3ADE0
  0
DICTIONARY
  5
E4E9
102
{ACAD_REACTORS
330
C
102
}
330
C
100
AcDbDictionary
281
     1
  3
Standard
350
E4EA
  0
DICTIONARY
  5
E4D4
102
{ACAD_REACTORS
330
C
102
}
330
C
100
AcDbDictionary
281
     1
  3
2dWireframe
350
E4DA
  3
3D Hidden
350
E4DC
  3
3dWireframe
350
E4DB
  3
Basic
350
E4D9
  3
Brighten
350
E4E0
  3
ColorChange
350
E4E4
  3
Conceptual
350
E4DD
  3
Dim
350
E4DF
  3
EdgeColorOff
350
E4E7
  3
Facepattern
350
E4E3
  3
Flat
350
E4D5
  3
FlatWithEdges
350
E4D6
  3
Gouraud
350
E4D7
  3
GouraudWithEdges
350
E4D8
  3
Hidden
350
3ADD9
  3
JitterOff
350
E4E5
  3
Linepattern
350
E4E2
  3
OverhangOff
350
E4E6
  3
Realistic
350
E4DE
  3
Shaded
350
3ADDE
  3
Shaded with edges
350
3ADDD
  3
Shades of Gray
350
3ADDA
  3
Sketchy
350
3ADDB
  3
Thicken
350
E4E1
  3
Wireframe
350
3ADD8
  3
X-Ray
350
3ADDC
  0
XRECORD
  5
6D5E
102
{ACAD_REACTORS
330
C
102
}
330
C
100
AcDbXrecord
280
     1
 90
   990106
  3

 60
     0
 61
     0
 62
     1
 63
     3
 64
     0
 65
     0
 66
     0
 67
     3
 68
     1
 69
     0
 70
     0
 71
     0
 72
     0
 40
0.0
170
     0
340
0
  0
XRECORD
  5
3AE81
102
{ACAD_REACTORS
330
C
102
}
330
C
100
AcDbXrecord
280
     1
 90
        1
330
E4EA
330
3ADE0
330
3ADE2
  0
DICTIONARY
  5
5697
102
{ACAD_REACTORS
330
C
102
}
330
C
100
AcDbDictionary
281
     1
  3
CANNOSCALE
350
F8C1
  3
CMLEADERSTYLE
350
F8C0
  3
CTABLESTYLE
350
F8BF
  3
CVIEWDETAILSTYLE
350
3AE63
  3
CVIEWSECTIONSTYLE
350
3AE64
  3
DIMASSOC
350
5698
  3
INDEXCTL
350
F8C3
  3
LAYEREVAL
350
37FF5
  3
LAYERNOTIFY
350
37FF6
  3
LIGHTINGUNITS
350
37FF4
  3
MSLTSCALE
350
37FF3
  3
SORTENTS
350
F8C2
  0
DICTIONARY
  5
F8DB
102
{ACAD_REACTORS
330
C
102
}
330
C
100
AcDbDictionary
281
     1
  0
DICTIONARY
  5
F8F6
102
{ACAD_REACTORS
330
C
102
}
330
C
100
AcDbDictionary
281
     1
  3
ASEBlockHierarchyIndexRecord
350
F8F7
1001
DCO15
1040
1706442467.984
  0
DICTIONARY
  5
12DA1
102
{ACAD_REACTORS
330
12DA0
102
}
330
12DA0
100
AcDbDictionary
281
     1
  0
XRECORD
  5
E513
102
{ACAD_REACTORS
330
E512
102
}
330
E512
100
AcDbXrecord
280
     1
290
     1
  0
XRECORD
  5
E515
102
{ACAD_REACTORS
330
E514
102
}
330
E514
100
AcDbXrecord
280
     1
290
     1
  0
XRECORD
  5
E519
102
{ACAD_REACTORS
330
E518
102
}
330
E518
100
AcDbXrecord
280
     1
290
     1
  0
XRECORD
  5
E51D
102
{ACAD_REACTORS
330
E51C
102
}
330
E51C
100
AcDbXrecord
280
     1
290
     1
  0
XRECORD
  5
E51F
102
{ACAD_REACTORS
330
E51E
102
}
330
E51E
100
AcDbXrecord
280
     1
290
     1
  0
XRECORD
  5
E521
102
{ACAD_REACTORS
330
E520
102
}
330
E520
100
AcDbXrecord
280
     1
290
     1
  0
XRECORD
  5
E523
102
{ACAD_REACTORS
330
E522
102
}
330
E522
100
AcDbXrecord
280
     1
290
     1
  0
XRECORD
  5
E525
102
{ACAD_REACTORS
330
E524
102
}
330
E524
100
AcDbXrecord
280
     1
290
     1
  0
XRECORD
  5
E527
102
{ACAD_REACTORS
330
E526
102
}
330
E526
100
AcDbXrecord
280
     1
290
     1
  0
XRECORD
  5
E52B
102
{ACAD_REACTORS
330
E52A
102
}
330
E52A
100
AcDbXrecord
280
     1
290
     1
  0
XRECORD
  5
E531
102
{ACAD_REACTORS
330
E530
102
}
330
E530
100
AcDbXrecord
280
     1
290
     1
  0
XRECORD
  5
E535
102
{ACAD_REACTORS
330
E534
102
}
330
E534
100
AcDbXrecord
280
     1
290
     1
  0
XRECORD
  5
9011
102
{ACAD_REACTORS
330
178
102
}
330
178
100
AcDbXrecord
280
     1
340
1E
  0
SORTENTSTABLE
  5
37C0C
102
{ACAD_REACTORS
330
178
102
}
330
178
100
AcDbSortentsTable
330
1E
331
118CC
  5
118D1
331
118D4
  5
118D9
331
38838
  5
387FA
331
387C9
  5
38817
331
387D1
  5
38830
331
3875A
  5
38808
331
118E4
  5
118E8
331
380C3
  5
387FC
331
1219D
  5
122D3
331
38772
  5
12368
331
13394
  5
387D3
331
387C2
  5
38810
331
38052
  5
387FB
331
118D5
  5
118DB
331
3874B
  5
387DE
331
387CA
  5
38818
331
118DD
  5
118E1
331
12355
  5
380C3
331
387D2
  5
38838
331
118E5
  5
118E9
331
1190D
  5
11923
331
3876B
  5
12B0E
331
1304D
  5
387CD
331
13395
  5
387D4
331
387FA
  5
122B5
331
38744
  5
3880D
331
387C3
  5
38811
331
118D6
  5
118DD
331
118DE
  5
118E2
331
387CB
  5
3882A
331
12356
  5
38295
331
387D3
  5
38839
331
3875C
  5
3869F
331
1235E
  5
38646
331
11920
  5
11924
331
11978
  5
11B6F
331
11990
  5
11B78
331
118E6
  5
1190D
331
37C2D
  5
387E5
331
387EB
  5
122C5
331
1304E
  5
387CE
331
38774
  5
12342
331
13396
  5
387D5
331
38295
  5
387FD
331
38045
  5
387E7
331
387C4
  5
38812
331
38745
  5
387E2
331
137F9
  5
387E3
331
382DC
  5
387FF
331
118CF
  5
118D5
331
3874D
  5
387DD
331
387CC
  5
3882B
331
118DF
  5
118E3
331
387D4
  5
3883A
331
11921
  5
11925
331
3875D
  5
38678
331
1235F
  5
38667
331
38765
  5
38052
331
11979
  5
11B70
331
118E7
  5
11920
331
38775
  5
12343
331
38296
  5
387FE
331
121A9
  5
122D4
331
13397
  5
387D6
331
38746
  5
387E1
331
121D1
  5
122D5
331
38046
  5
387E8
331
A94C
  5
A94C
331
118D0
  5
118D6
331
118D8
  5
118DE
331
387CD
  5
3882C
331
387D5
  5
3883B
331
11922
  5
1196B
331
1197A
  5
11B73
331
118E8
  5
11921
331
11B70
  5
11B89
331
12191
  5
122D0
331
125D8
  5
386E1
331
387E5
  5
122CD
331
12309
  5
12AED
331
13398
  5
387D7
331
387F5
  5
122BA
331
387C6
  5
38814
331
11BA0
  5
122C0
331
118D1
  5
118D8
331
12188
  5
122CE
331
38757
  5
3880B
331
11923
  5
11978
331
3875F
  5
38677
331
1196B
  5
11990
331
118E1
  5
118E5
331
118E9
  5
11922
331
125D9
  5
386E2
331
3876F
  5
12640
331
387E6
  5
122CB
331
122F2
  5
1235E
331
387EE
  5
122C2
331
123B4
  5
386A1
331
387C7
  5
38815
331
12189
  5
122CF
331
38748
  5
387E0
331
1233A
  5
133D1
331
387CF
  5
3882E
331
387D7
  5
3883D
331
38758
  5
3880A
331
11924
  5
11979
331
118E2
  5
118E6
331
38768
  5
12B11
331
125DA
  5
386E3
331
387E7
  5
122CA
331
38048
  5
387E9
331
123B5
  5
386AE
331
13065
  5
387D0
331
38749
  5
387DF
331
118DB
  5
118E0
331
13872
  5
387E4
331
387D0
  5
3882F
331
387D8
  5
3883E
331
1236B
  5
3869E
331
11925
  5
1197A
331
125DB
  5
3874C
331
1219C
  5
122D2
331
38771
  5
12369
331
387E8
  5
122C8
331
38779
  5
1232B
331
122F4
  5
1235F
331
13393
  5
387D2
331
387F0
  5
122BF
331
387C1
  5
3880F
331
38049
  5
387EA
331
11B83
  5
122AE
  0
XRECORD
  5
9010
102
{ACAD_REACTORS
330
17A
102
}
330
17A
100
AcDbXrecord
280
     1
340
1A
  0
SORTENTSTABLE
  5
394EA
102
{ACAD_REACTORS
330
394E9
102
}
330
394E9
100
AcDbSortentsTable
330
394AC
  0
ACDBDETAILVIEWSTYLE
  5
3ADE2
102
{ACAD_XDICTIONARY
360
3AE69
102
}
102
{ACAD_REACTORS
330
3ADE1
102
}
330
3ADE1
100
AcDbModelDocViewStyle
 70
     0
  3
Imperial24
290
     0
100
AcDbDetailViewStyle
 70
     0
 71
     0
 90
        3
 71
     1
340
11
 62
   256
 40
0.24
340
0
 62
   256
 40
0.24
300

 40
0.36
280
     3
 71
     2
340
15
 90
       25
 62
   256
 71
     3
340
11
 62
   256
 40
0.24
 90
        1
 40
0.75
 90
        1
300
%<\AcVar ViewType \f "%tc1">% %<\AcVar ViewDetailId>%\PSCALE %<\AcVar ViewScale \f "%sn">%
 71
     4
340
15
 90
       25
 62
   256
340
15
 90
       25
 62
   256
280
     0
  0
LAYOUT
  5
904E
102
{ACAD_XDICTIONARY
360
13816
102
}
102
{ACAD_REACTORS
330
19
102
}
330
19
100
AcDbPlotSettings
  1

  2
Canon LBP3800 LIPSLX
  4
A4
  6
OLE1
 40
5.873749732971191
 41
5.873747825622557
 42
5.873748779296875
 43
5.873748779296875
 44
209.9733276367186
 45
296.9259948730469
 46
4.368652168726285
 47
0.8644569253958136
 48
0.0
 49
0.0
140
0.0
141
0.0
142
1.0
143
2.5
 70
 11940
 72
     1
 73
     0
 74
     1
  7
monochrome.ctb
 75
     0
147
0.4
 76
     0
 77
     2
 78
   300
148
203.0887703810449
149
220.5380198621869
100
AcDbLayout
  1
Model
 70
     1
 71
     0
 10
0.0
 20
0.0
 11
12.0
 21
9.0
 12
0.0
 22
0.0
 32
0.0
 14
0.0
 24
0.0
 34
0.0
 15
0.0
 25
0.0
 35
0.0
146
0.0
 13
0.0
 23
0.0
 33
0.0
 16
1.0
 26
0.0
 36
0.0
 17
0.0
 27
1.0
 37
0.0
 76
     0
330
1E
331
12C00
1001
ACAD_PSEXT
1000
Canon LBP3800 LIPSLX
1000
Canon LBP3800 LIPSLX
1000
IP_192.168.54.50
1000

1070
     0
  0
LAYOUT
  5
904F
102
{ACAD_REACTORS
330
19
102
}
330
19
100
AcDbPlotSettings
  1

  2
none_device
  4
Letter_(8.50_x_11.00_Inches)
  6

 40
6.349999904632567
 41
6.349999904632567
 42
6.350006103515625
 43
6.350006103515625
 44
215.8999938964844
 45
279.3999938964844
 46
0.0
 47
0.0
 48
0.0
 49
0.0
140
0.0
141
0.0
142
1.0
143
1.0
 70
   688
 72
     0
 73
     1
 74
     1
  7
monochrome.stb
 75
     0
147
1.0
 76
     0
 77
     2
 78
   300
148
0.0
149
0.0
100
AcDbLayout
  1
ﾚｲｱｳﾄ1
 70
     1
 71
     1
 10
-0.2500002402958907
 20
-0.2499999962453767
 11
10.74999951940822
 21
8.249999763458731
 12
0.0
 22
0.0
 32
0.0
 14
0.0
 24
0.0
 34
0.0
 15
0.0
 25
0.0
 35
0.0
146
0.0
 13
0.0
 23
0.0
 33
0.0
 16
1.0
 26
0.0
 36
0.0
 17
0.0
 27
1.0
 37
0.0
 76
     0
330
1A
331
9AC
1001
ACAD_PSEXT
1000
なし
1000
なし
1000
適切ではありません
1000
新しいプロッタ環境設定名を選択しない限り、レイアウトは印刷されません。
1070
     0
  0
MATERIAL
  5
E4C4
102
{ACAD_XDICTIONARY
360
E4C5
102
}
102
{ACAD_REACTORS
330
E4BB
102
}
330
E4BB
100
AcDbMaterial
  1
ByBlock
 72
     0
 43
0.0208333333333333
 43
0.0
 43
0.0
 43
0.0
 43
0.0
 43
0.0208333333333333
 43
0.0
 43
0.0
 43
0.0
 43
0.0
 43
1.0
 43
0.0
 43
0.0
 43
0.0
 43
0.0
 43
1.0
 77
     0
 47
0.0208333333333333
 47
0.0
 47
0.0
 47
0.0
 47
0.0
 47
0.0208333333333333
 47
0.0
 47
0.0
 47
0.0
 47
0.0
 47
1.0
 47
0.0
 47
0.0
 47
0.0
 47
0.0
 47
1.0
171
     0
 49
0.0208333333333333
 49
0.0
 49
0.0
 49
0.0
 49
0.0
 49
0.0208333333333333
 49
0.0
 49
0.0
 49
0.0
 49
0.0
 49
1.0
 49
0.0
 49
0.0
 49
0.0
 49
0.0
 49
1.0
175
     0
142
0.0208333333333333
142
0.0
142
0.0
142
0.0
142
0.0
142
0.0208333333333333
142
0.0
142
0.0
142
0.0
142
0.0
142
1.0
142
0.0
142
0.0
142
0.0
142
0.0
142
1.0
179
     0
144
0.0208333333333333
144
0.0
144
0.0
144
0.0
144
0.0
144
0.0208333333333333
144
0.0
144
0.0
144
0.0
144
0.0
144
1.0
144
0.0
144
0.0
144
0.0
144
0.0
144
1.0
147
0.0208333333333333
147
0.0
147
0.0
147
0.0
147
0.0
147
0.0208333333333333
147
0.0
147
0.0
147
0.0
147
0.0
147
1.0
147
0.0
147
0.0
147
0.0
147
0.0
147
1.0
  0
MATERIAL
  5
E4BC
102
{ACAD_XDICTIONARY
360
E4BD
102
}
102
{ACAD_REACTORS
330
E4BB
102
}
330
E4BB
100
AcDbMaterial
  1
ByLayer
 72
     0
 43
0.0208333333333333
 43
0.0
 43
0.0
 43
0.0
 43
0.0
 43
0.0208333333333333
 43
0.0
 43
0.0
 43
0.0
 43
0.0
 43
1.0
 43
0.0
 43
0.0
 43
0.0
 43
0.0
 43
1.0
 77
     0
 47
0.0208333333333333
 47
0.0
 47
0.0
 47
0.0
 47
0.0
 47
0.0208333333333333
 47
0.0
 47
0.0
 47
0.0
 47
0.0
 47
1.0
 47
0.0
 47
0.0
 47
0.0
 47
0.0
 47
1.0
171
     0
 49
0.0208333333333333
 49
0.0
 49
0.0
 49
0.0
 49
0.0
 49
0.0208333333333333
 49
0.0
 49
0.0
 49
0.0
 49
0.0
 49
1.0
 49
0.0
 49
0.0
 49
0.0
 49
0.0
 49
1.0
175
     0
142
0.0208333333333333
142
0.0
142
0.0
142
0.0
142
0.0
142
0.0208333333333333
142
0.0
142
0.0
142
0.0
142
0.0
142
1.0
142
0.0
142
0.0
142
0.0
142
0.0
142
1.0
179
     0
144
0.0208333333333333
144
0.0
144
0.0
144
0.0
144
0.0
144
0.0208333333333333
144
0.0
144
0.0
144
0.0
144
0.0
144
1.0
144
0.0
144
0.0
144
0.0
144
0.0
144
1.0
147
0.0208333333333333
147
0.0
147
0.0
147
0.0
147
0.0
147
0.0208333333333333
147
0.0
147
0.0
147
0.0
147
0.0
147
1.0
147
0.0
147
0.0
147
0.0
147
0.0
147
1.0
  0
MATERIAL
  5
E4CC
102
{ACAD_XDICTIONARY
360
E4CD
102
}
102
{ACAD_REACTORS
330
E4BB
102
}
330
E4BB
100
AcDbMaterial
  1
Global
 72
     0
 43
0.0208333333333333
 43
0.0
 43
0.0
 43
0.0
 43
0.0
 43
0.0208333333333333
 43
0.0
 43
0.0
 43
0.0
 43
0.0
 43
1.0
 43
0.0
 43
0.0
 43
0.0
 43
0.0
 43
1.0
 77
     0
 47
0.0208333333333333
 47
0.0
 47
0.0
 47
0.0
 47
0.0
 47
0.0208333333333333
 47
0.0
 47
0.0
 47
0.0
 47
0.0
 47
1.0
 47
0.0
 47
0.0
 47
0.0
 47
0.0
 47
1.0
171
     0
 49
0.0208333333333333
 49
0.0
 49
0.0
 49
0.0
 49
0.0
 49
0.0208333333333333
 49
0.0
 49
0.0
 49
0.0
 49
0.0
 49
1.0
 49
0.0
 49
0.0
 49
0.0
 49
0.0
 49
1.0
175
     0
142
0.0208333333333333
142
0.0
142
0.0
142
0.0
142
0.0
142
0.0208333333333333
142
0.0
142
0.0
142
0.0
142
0.0
142
1.0
142
0.0
142
0.0
142
0.0
142
0.0
142
1.0
179
     0
144
0.0208333333333333
144
0.0
144
0.0
144
0.0
144
0.0
144
0.0208333333333333
144
0.0
144
0.0
144
0.0
144
0.0
144
1.0
144
0.0
144
0.0
144
0.0
144
0.0
144
1.0
147
0.0208333333333333
147
0.0
147
0.0
147
0.0
147
0.0
147
0.0208333333333333
147
0.0
147
0.0
147
0.0
147
0.0
147
1.0
147
0.0
147
0.0
147
0.0
147
0.0
147
1.0
  0
MLEADERSTYLE
  5
E50E
102
{ACAD_REACTORS
330
E50D
102
}
330
E50D
100
AcDbMLeaderStyle
179
     2
170
     2
171
     1
172
     0
 90
        2
 40
0.0
 41
0.0
173
     1
 91
-1056964608
340
13
 92
       -2
290
     1
 42
0.09
291
     1
 43
0.36
  3
Standard
 44
0.18
300

342
11
174
     1
178
     6
175
     1
176
     0
 93
-1056964608
 45
0.18
292
     0
297
     0
 46
0.18
 94
-1056964608
 47
1.0
 49
1.0
140
1.0
293
     1
141
0.0
294
     1
177
     0
142
1.0
295
     0
296
     0
143
0.125
271
     0
272
     9
273
     9
298
     0
1001
ACAD_MLEADERVER
1070
     2
  0
MLINESTYLE
  5
17
102
{ACAD_REACTORS
330
16
102
}
330
16
100
AcDbMlineStyle
  2
STANDARD
 70
     0
  3

 62
   256
 51
90.0
 52
90.0
 71
     2
 49
0.5
 62
   256
  6
BYLAYER
 49
-0.5
 62
   256
  6
BYLAYER
  0
ACDBPLACEHOLDER
  5
F
102
{ACAD_REACTORS
330
E
102
}
330
E
  0
SCALE
  5
E4EC
102
{ACAD_REACTORS
330
E4EB
102
}
330
E4EB
100
AcDbScale
 70
     0
300
1:1
140
1.0
141
1.0
290
     1
  0
SCALE
  5
E4ED
102
{ACAD_REACTORS
330
E4EB
102
}
330
E4EB
100
AcDbScale
 70
     0
300
1:2
140
1.0
141
2.0
290
     0
  0
SCALE
  5
E4EE
102
{ACAD_REACTORS
330
E4EB
102
}
330
E4EB
100
AcDbScale
 70
     0
300
1:4
140
1.0
141
4.0
290
     0
  0
SCALE
  5
E4EF
102
{ACAD_REACTORS
330
E4EB
102
}
330
E4EB
100
AcDbScale
 70
     0
300
1:5
140
1.0
141
5.0
290
     0
  0
SCALE
  5
E4F0
102
{ACAD_REACTORS
330
E4EB
102
}
330
E4EB
100
AcDbScale
 70
     0
300
1:8
140
1.0
141
8.0
290
     0
  0
SCALE
  5
E4F1
102
{ACAD_REACTORS
330
E4EB
102
}
330
E4EB
100
AcDbScale
 70
     0
300
1:10
140
1.0
141
10.0
290
     0
  0
SCALE
  5
E4F2
102
{ACAD_REACTORS
330
E4EB
102
}
330
E4EB
100
AcDbScale
 70
     0
300
1:16
140
1.0
141
16.0
290
     0
  0
SCALE
  5
E4F3
102
{ACAD_REACTORS
330
E4EB
102
}
330
E4EB
100
AcDbScale
 70
     0
300
1:20
140
1.0
141
20.0
290
     0
  0
SCALE
  5
E4F4
102
{ACAD_REACTORS
330
E4EB
102
}
330
E4EB
100
AcDbScale
 70
     0
300
1:30
140
1.0
141
30.0
290
     0
  0
SCALE
  5
E4F5
102
{ACAD_REACTORS
330
E4EB
102
}
330
E4EB
100
AcDbScale
 70
     0
300
1:40
140
1.0
141
40.0
290
     0
  0
SCALE
  5
E4F6
102
{ACAD_REACTORS
330
E4EB
102
}
330
E4EB
100
AcDbScale
 70
     0
300
1:50
140
1.0
141
50.0
290
     0
  0
SCALE
  5
E4F7
102
{ACAD_REACTORS
330
E4EB
102
}
330
E4EB
100
AcDbScale
 70
     0
300
1:100
140
1.0
141
100.0
290
     0
  0
SCALE
  5
E4F8
102
{ACAD_REACTORS
330
E4EB
102
}
330
E4EB
100
AcDbScale
 70
     0
300
2:1
140
2.0
141
1.0
290
     0
  0
SCALE
  5
E4F9
102
{ACAD_REACTORS
330
E4EB
102
}
330
E4EB
100
AcDbScale
 70
     0
300
4:1
140
4.0
141
1.0
290
     0
  0
SCALE
  5
E4FA
102
{ACAD_REACTORS
330
E4EB
102
}
330
E4EB
100
AcDbScale
 70
     0
300
8:1
140
8.0
141
1.0
290
     0
  0
SCALE
  5
E4FB
102
{ACAD_REACTORS
330
E4EB
102
}
330
E4EB
100
AcDbScale
 70
     0
300
10:1
140
10.0
141
1.0
290
     0
  0
SCALE
  5
E4FC
102
{ACAD_REACTORS
330
E4EB
102
}
330
E4EB
100
AcDbScale
 70
     0
300
100:1
140
100.0
141
1.0
290
     0
  0
SCALE
  5
E4FD
102
{ACAD_REACTORS
330
E4EB
102
}
330
E4EB
100
AcDbScale
 70
     0
300
1/128" = 1'-0"
140
0.0078125
141
12.0
290
     0
  0
SCALE
  5
E4FE
102
{ACAD_REACTORS
330
E4EB
102
}
330
E4EB
100
AcDbScale
 70
     0
300
1/64" = 1'-0"
140
0.015625
141
12.0
290
     0
  0
SCALE
  5
E4FF
102
{ACAD_REACTORS
330
E4EB
102
}
330
E4EB
100
AcDbScale
 70
     0
300
1/32" = 1'-0"
140
0.03125
141
12.0
290
     0
  0
SCALE
  5
E500
102
{ACAD_REACTORS
330
E4EB
102
}
330
E4EB
100
AcDbScale
 70
     0
300
1/16" = 1'-0"
140
0.0625
141
12.0
290
     0
  0
SCALE
  5
E501
102
{ACAD_REACTORS
330
E4EB
102
}
330
E4EB
100
AcDbScale
 70
     0
300
3/32" = 1'-0"
140
0.09375
141
12.0
290
     0
  0
SCALE
  5
E502
102
{ACAD_REACTORS
330
E4EB
102
}
330
E4EB
100
AcDbScale
 70
     0
300
1/8" = 1'-0"
140
0.125
141
12.0
290
     0
  0
SCALE
  5
E503
102
{ACAD_REACTORS
330
E4EB
102
}
330
E4EB
100
AcDbScale
 70
     0
300
3/16" = 1'-0"
140
0.1875
141
12.0
290
     0
  0
SCALE
  5
E504
102
{ACAD_REACTORS
330
E4EB
102
}
330
E4EB
100
AcDbScale
 70
     0
300
1/4" = 1'-0"
140
0.25
141
12.0
290
     0
  0
SCALE
  5
E505
102
{ACAD_REACTORS
330
E4EB
102
}
330
E4EB
100
AcDbScale
 70
     0
300
3/8" = 1'-0"
140
0.375
141
12.0
290
     0
  0
SCALE
  5
E506
102
{ACAD_REACTORS
330
E4EB
102
}
330
E4EB
100
AcDbScale
 70
     0
300
1/2" = 1'-0"
140
0.5
141
12.0
290
     0
  0
SCALE
  5
E507
102
{ACAD_REACTORS
330
E4EB
102
}
330
E4EB
100
AcDbScale
 70
     0
300
3/4" = 1'-0"
140
0.75
141
12.0
290
     0
  0
SCALE
  5
E508
102
{ACAD_REACTORS
330
E4EB
102
}
330
E4EB
100
AcDbScale
 70
     0
300
1" = 1'-0"
140
1.0
141
12.0
290
     0
  0
SCALE
  5
E509
102
{ACAD_REACTORS
330
E4EB
102
}
330
E4EB
100
AcDbScale
 70
     0
300
1-1/2" = 1'-0"
140
1.5
141
12.0
290
     0
  0
SCALE
  5
E50A
102
{ACAD_REACTORS
330
E4EB
102
}
330
E4EB
100
AcDbScale
 70
     0
300
3" = 1'-0"
140
3.0
141
12.0
290
     0
  0
SCALE
  5
E50B
102
{ACAD_REACTORS
330
E4EB
102
}
330
E4EB
100
AcDbScale
 70
     0
300
6" = 1'-0"
140
6.0
141
12.0
290
     0
  0
SCALE
  5
E50C
102
{ACAD_REACTORS
330
E4EB
102
}
330
E4EB
100
AcDbScale
 70
     0
300
1'-0" = 1'-0"
140
12.0
141
12.0
290
     0
  0
ACDBSECTIONVIEWSTYLE
  5
3ADE0
102
{ACAD_XDICTIONARY
360
3AE67
102
}
102
{ACAD_REACTORS
330
3ADDF
102
}
330
3ADDF
100
AcDbModelDocViewStyle
 70
     0
  3
Imperial24
290
     0
100
AcDbSectionViewStyle
 70
     0
 71
     0
 90
       78
 71
     1
340
11
 62
   256
 40
0.24
340
0
340
0
 62
   256
 40
0.24
300
I, O, Q, S, X, Z
 40
0.48
 90
        3
 40
0.18
 90
        1
 71
     2
340
15
 90
       25
 62
   256
340
15
 90
       50
 62
   256
 40
0.24
 40
0.0
 40
0.24
 71
     3
340
11
 62
   256
 40
0.24
 90
        1
 40
0.75
 90
        1
300
%<\AcVar ViewType \f "%tc1">% %<\AcVar ViewSectionStartId>%-%<\AcVar ViewSectionEndId>%\PSCALE %<\AcVar ViewScale \f "%sn">%
 71
     4
 62
   256
 62
   257
300
ANSI31
 40
1.0
 90
        0
290
     0
290
     0
 90
        6
 40
0.0
 40
1.570796326794896
 40
0.2617993877991494
 40
1.308996938995747
 40
-0.2617993877991494
 40
1.832595714594045
  0
TABLESTYLE
  5
E4EA
102
{ACAD_XDICTIONARY
360
F86C
102
}
102
{ACAD_REACTORS
330
E4E9
102
}
330
E4E9
100
AcDbTableStyle
280
     0
  3
Standard
 70
     0
 71
     0
 40
0.06
 41
0.06
280
     0
281
     0
  7
STANDARD
140
0.18
170
     2
 62
     0
 63
     7
283
     0
 90
      512
 91
        0
  1

274
    -2
284
     1
 64
     0
275
    -2
285
     1
 65
     0
276
    -2
286
     1
 66
     0
277
    -2
287
     1
 67
     0
278
    -2
288
     1
 68
     0
279
    -2
289
     1
 69
     0
  7
STANDARD
140
0.25
170
     5
 62
     0
 63
     7
283
     0
 90
      512
 91
        0
  1

274
    -2
284
     1
 64
     0
275
    -2
285
     1
 65
     0
276
    -2
286
     1
 66
     0
277
    -2
287
     1
 67
     0
278
    -2
288
     1
 68
     0
279
    -2
289
     1
 69
     0
  7
STANDARD
140
0.18
170
     5
 62
     0
 63
     7
283
     0
 90
      512
 91
        0
  1

274
    -2
284
     1
 64
     0
275
    -2
285
     1
 65
     0
276
    -2
286
     1
 66
     0
277
    -2
287
     1
 67
     0
278
    -2
288
     1
 68
     0
279
    -2
289
     1
 69
     0
  0
VISUALSTYLE
  5
E4DA
102
{ACAD_REACTORS
330
E4D4
102
}
330
E4D4
100
AcDbVisualStyle
  2

 70
     4
177
     3
291
     0
 70
    58
 90
        0
176
     1
 90
        2
176
     1
 90
        0
176
     1
 90
        0
176
     1
 40
0.6
176
     1
 40
30.0
176
     1
 62
     7
176
     1
 90
        1
176
     1
 90
        4
176
     1
 62
     7
176
     1
 62
   257
176
     1
 90
        1
176
     1
 90
        1
176
     1
 40
1.0
176
     1
 90
        0
176
     1
 62
   257
176
     1
 40
1.0
176
     1
 90
        1
176
     1
 90
        6
176
     1
 90
        2
176
     1
 62
     7
176
     1
 90
        5
176
     1
 90
        0
176
     1
 90
        0
176
     1
290
     0
176
     1
 90
        1
176
     1
 40
0.0
176
     1
 90
        0
176
     1
290
     1
176
     1
290
     1
176
     1
290
     0
176
     1
290
     0
176
     1
290
     0
176
     1
290
     0
176
     1
290
     0
176
     1
290
     0
176
     1
290
     0
176
     1
 90
       50
176
     1
 40
0.0
176
     1
 40
1.0
176
     1
 90
        0
176
     1
 62
    18
176
     1
 90
       50
176
     1
 90
        3
176
     1
 62
     5
420
      255
176
     1
290
     0
176
     1
 90
       50
176
     1
 90
       50
176
     1
 90
       50
176
     1
290
     0
176
     1
 90
       50
176
     1
 62
   256
176
     0
 40
1.0
176
     0
 90
        2
176
     1
  1
strokes_ogs.tif
176
     1
290
     0
176
     1
 40
1.0
176
     1
 40
1.0
176
     1
  0
VISUALSTYLE
  5
E4DC
102
{ACAD_REACTORS
330
E4D4
102
}
330
E4D4
100
AcDbVisualStyle
  2

 70
     6
177
     3
291
     0
 70
    58
 90
        1
176
     1
 90
        2
176
     1
 90
        2
176
     1
 90
        0
176
     1
 40
0.6
176
     1
 40
30.0
176
     1
 62
     7
176
     1
 90
        2
176
     1
 90
        2
176
     1
 62
     7
176
     1
 62
   257
176
     1
 90
        2
176
     1
 90
        1
176
     1
 40
179.0
176
     1
 90
        0
176
     1
 62
   257
176
     1
 40
1.0
176
     1
 90
        1
176
     1
 90
        6
176
     1
 90
        2
176
     1
 62
     7
176
     1
 90
        3
176
     1
 90
        0
176
     1
 90
        0
176
     1
290
     0
176
     1
 90
        1
176
     1
 40
0.0
176
     1
 90
        0
176
     1
290
     0
176
     1
290
     1
176
     1
290
     1
176
     1
290
     0
176
     1
290
     0
176
     1
290
     0
176
     1
290
     0
176
     1
290
     0
176
     1
290
     0
176
     1
 90
       50
176
     1
 40
0.0
176
     1
 40
1.0
176
     1
 90
        0
176
     1
 62
    18
176
     1
 90
       50
176
     1
 90
        3
176
     1
 62
     5
420
      255
176
     1
290
     0
176
     1
 90
       50
176
     1
 90
       50
176
     1
 90
       50
176
     1
290
     0
176
     1
 90
       50
176
     1
 62
   256
176
     0
 40
1.0
176
     0
 90
        2
176
     1
  1
strokes_ogs.tif
176
     1
290
     0
176
     1
 40
1.0
176
     1
 40
1.0
176
     1
  0
VISUALSTYLE
  5
E4DB
102
{ACAD_REACTORS
330
E4D4
102
}
330
E4D4
100
AcDbVisualStyle
  2

 70
     5
177
     3
291
     0
 70
    58
 90
        0
176
     1
 90
        2
176
     1
 90
        0
176
     1
 90
        0
176
     1
 40
0.6
176
     1
 40
30.0
176
     1
 62
     7
176
     1
 90
        1
176
     1
 90
        4
176
     1
 62
     7
176
     1
 62
   257
176
     1
 90
        1
176
     1
 90
        1
176
     1
 40
1.0
176
     1
 90
        0
176
     1
 62
   257
176
     1
 40
1.0
176
     1
 90
        1
176
     1
 90
        6
176
     1
 90
        2
176
     1
 62
     7
176
     1
 90
        5
176
     1
 90
        0
176
     1
 90
        0
176
     1
290
     0
176
     1
 90
        1
176
     1
 40
0.0
176
     1
 90
        0
176
     1
290
     0
176
     1
290
     1
176
     1
290
     1
176
     1
290
     0
176
     1
290
     0
176
     1
290
     0
176
     1
290
     0
176
     1
290
     0
176
     1
290
     0
176
     1
 90
       50
176
     1
 40
0.0
176
     1
 40
1.0
176
     1
 90
        0
176
     1
 62
    18
176
     1
 90
       50
176
     1
 90
        3
176
     1
 62
     5
420
      255
176
     1
290
     0
176
     1
 90
       50
176
     1
 90
       50
176
     1
 90
       50
176
     1
290
     0
176
     1
 90
       50
176
     1
 62
   256
176
     0
 40
1.0
176
     0
 90
        2
176
     1
  1
strokes_ogs.tif
176
     1
290
     0
176
     1
 40
1.0
176
     1
 40
1.0
176
     1
  0
VISUALSTYLE
  5
E4D9
102
{ACAD_REACTORS
330
E4D4
102
}
330
E4D4
100
AcDbVisualStyle
  2

 70
     7
177
     3
291
     1
 70
    58
 90
        1
176
     1
 90
        0
176
     1
 90
        1
176
     1
 90
        0
176
     1
 40
0.6
176
     1
 40
30.0
176
     1
 62
     7
176
     1
 90
        0
176
     1
 90
        4
176
     1
 62
     7
176
     1
 62
   257
176
     1
 90
        1
176
     1
 90
        1
176
     1
 40
1.0
176
     1
 90
        8
176
     1
 62
     7
176
     1
 40
1.0
176
     1
 90
        1
176
     1
 90
        6
176
     1
 90
        2
176
     1
 62
     7
176
     1
 90
        5
176
     1
 90
        0
176
     1
 90
        0
176
     1
290
     0
176
     1
 90
        1
176
     1
 40
0.0
176
     1
 90
        0
176
     1
290
     0
176
     1
290
     1
176
     1
290
     1
176
     1
290
     0
176
     1
290
     0
176
     1
290
     0
176
     1
290
     0
176
     1
290
     0
176
     1
290
     0
176
     1
 90
       50
176
     1
 40
0.0
176
     1
 40
1.0
176
     1
 90
        0
176
     1
 62
    18
176
     1
 90
       50
176
     1
 90
        3
176
     1
 62
     5
420
      255
176
     1
290
     0
176
     1
 90
       50
176
     1
 90
       50
176
     1
 90
       50
176
     1
290
     0
176
     1
 90
       50
176
     1
 62
   256
176
     0
 40
1.0
176
     0
 90
        2
176
     1
  1
strokes_ogs.tif
176
     1
290
     0
176
     1
 40
1.0
176
     1
 40
1.0
176
     1
  0
VISUALSTYLE
  5
E4E0
102
{ACAD_REACTORS
330
E4D4
102
}
330
E4D4
100
AcDbVisualStyle
  2

 70
    12
177
     3
291
     1
 70
    58
 90
        2
176
     1
 90
        2
176
     1
 90
        0
176
     1
 90
        0
176
     1
 40
0.6
176
     1
 40
30.0
176
     1
 62
     7
176
     1
 90
        1
176
     1
 90
        4
176
     1
 62
     7
176
     1
 62
   257
176
     1
 90
        1
176
     1
 90
        1
176
     1
 40
1.0
176
     1
 90
        8
176
     1
 62
     7
176
     1
 40
1.0
176
     1
 90
        1
176
     1
 90
        6
176
     1
 90
        2
176
     1
 62
     7
176
     1
 90
        5
176
     1
 90
        0
176
     1
 90
        0
176
     1
290
     0
176
     1
 90
        1
176
     1
 40
50.0
176
     1
 90
        0
176
     1
290
     0
176
     1
290
     1
176
     1
290
     1
176
     1
290
     0
176
     1
290
     0
176
     1
290
     0
176
     1
290
     0
176
     1
290
     0
176
     1
290
     0
176
     1
 90
       50
176
     1
 40
0.0
176
     1
 40
1.0
176
     1
 90
        0
176
     1
 62
    18
176
     1
 90
       50
176
     1
 90
        3
176
     1
 62
     5
420
      255
176
     1
290
     0
176
     1
 90
       50
176
     1
 90
       50
176
     1
 90
       50
176
     1
290
     0
176
     1
 90
       50
176
     1
 62
   256
176
     0
 40
1.0
176
     0
 90
        2
176
     1
  1
strokes_ogs.tif
176
     1
290
     0
176
     1
 40
1.0
176
     1
 40
1.0
176
     1
  0
VISUALSTYLE
  5
E4E4
102
{ACAD_REACTORS
330
E4D4
102
}
330
E4D4
100
AcDbVisualStyle
  2

 70
    16
177
     3
291
     1
 70
    58
 90
        2
176
     1
 90
        2
176
     1
 90
        3
176
     1
 90
        0
176
     1
 40
0.6
176
     1
 40
30.0
176
     1
 62
     8
176
     1
 90
        1
176
     1
 90
        4
176
     1
 62
     7
176
     1
 62
   257
176
     1
 90
        1
176
     1
 90
        1
176
     1
 40
1.0
176
     1
 90
        8
176
     1
 62
     8
176
     1
 40
1.0
176
     1
 90
        1
176
     1
 90
        6
176
     1
 90
        2
176
     1
 62
     7
176
     1
 90
        5
176
     1
 90
        0
176
     1
 90
        0
176
     1
290
     0
176
     1
 90
        1
176
     1
 40
0.0
176
     1
 90
        0
176
     1
290
     0
176
     1
290
     1
176
     1
290
     1
176
     1
290
     0
176
     1
290
     0
176
     1
290
     0
176
     1
290
     0
176
     1
290
     0
176
     1
290
     0
176
     1
 90
       50
176
     1
 40
0.0
176
     1
 40
1.0
176
     1
 90
        0
176
     1
 62
    18
176
     1
 90
       50
176
     1
 90
        3
176
     1
 62
     5
420
      255
176
     1
290
     0
176
     1
 90
       50
176
     1
 90
       50
176
     1
 90
       50
176
     1
290
     0
176
     1
 90
       50
176
     1
 62
   256
176
     0
 40
1.0
176
     0
 90
        2
176
     1
  1
strokes_ogs.tif
176
     1
290
     0
176
     1
 40
1.0
176
     1
 40
1.0
176
     1
  0
VISUALSTYLE
  5
E4DD
102
{ACAD_REACTORS
330
E4D4
102
}
330
E4D4
100
AcDbVisualStyle
  2

 70
     9
177
     3
291
     0
 70
    58
 90
        3
176
     1
 90
        2
176
     1
 90
        0
176
     1
 90
        0
176
     1
 40
0.6
176
     1
 40
30.0
176
     1
 62
     7
176
     1
 90
        2
176
     1
 90
        2
176
     1
 62
     7
176
     1
 62
   257
176
     1
 90
        1
176
     1
 90
        1
176
     1
 40
179.0
176
     1
 90
        8
176
     1
 62
     7
176
     1
 40
1.0
176
     1
 90
        1
176
     1
 90
        6
176
     1
 90
        2
176
     1
 62
     7
176
     1
 90
        3
176
     1
 90
        0
176
     1
 90
        0
176
     1
290
     0
176
     1
 90
        1
176
     1
 40
0.0
176
     1
 90
        0
176
     1
290
     0
176
     1
290
     1
176
     1
290
     1
176
     1
290
     0
176
     1
290
     0
176
     1
290
     0
176
     1
290
     0
176
     1
290
     0
176
     1
290
     0
176
     1
 90
       50
176
     1
 40
0.0
176
     1
 40
1.0
176
     1
 90
        0
176
     1
 62
    18
176
     1
 90
       50
176
     1
 90
        3
176
     1
 62
     5
420
      255
176
     1
290
     0
176
     1
 90
       50
176
     1
 90
       50
176
     1
 90
       50
176
     1
290
     0
176
     1
 90
       50
176
     1
 62
   256
176
     0
 40
1.0
176
     0
 90
        2
176
     1
  1
strokes_ogs.tif
176
     1
290
     0
176
     1
 40
1.0
176
     1
 40
1.0
176
     1
  0
VISUALSTYLE
  5
E4DF
102
{ACAD_REACTORS
330
E4D4
102
}
330
E4D4
100
AcDbVisualStyle
  2

 70
    11
177
     3
291
     1
 70
    58
 90
        2
176
     1
 90
        2
176
     1
 90
        0
176
     1
 90
        0
176
     1
 40
0.6
176
     1
 40
30.0
176
     1
 62
     7
176
     1
 90
        1
176
     1
 90
        4
176
     1
 62
     7
176
     1
 62
   257
176
     1
 90
        1
176
     1
 90
        1
176
     1
 40
1.0
176
     1
 90
        8
176
     1
 62
     7
176
     1
 40
1.0
176
     1
 90
        1
176
     1
 90
        6
176
     1
 90
        2
176
     1
 62
     7
176
     1
 90
        5
176
     1
 90
        0
176
     1
 90
        0
176
     1
290
     0
176
     1
 90
        1
176
     1
 40
-50.0
176
     1
 90
        0
176
     1
290
     0
176
     1
290
     1
176
     1
290
     1
176
     1
290
     0
176
     1
290
     0
176
     1
290
     0
176
     1
290
     0
176
     1
290
     0
176
     1
290
     0
176
     1
 90
       50
176
     1
 40
0.0
176
     1
 40
1.0
176
     1
 90
        0
176
     1
 62
    18
176
     1
 90
       50
176
     1
 90
        3
176
     1
 62
     5
420
      255
176
     1
290
     0
176
     1
 90
       50
176
     1
 90
       50
176
     1
 90
       50
176
     1
290
     0
176
     1
 90
       50
176
     1
 62
   256
176
     0
 40
1.0
176
     0
 90
        2
176
     1
  1
strokes_ogs.tif
176
     1
290
     0
176
     1
 40
1.0
176
     1
 40
1.0
176
     1
  0
VISUALSTYLE
  5
E4E7
102
{ACAD_REACTORS
330
E4D4
102
}
330
E4D4
100
AcDbVisualStyle
  2

 70
    22
177
     3
291
     1
 70
    58
 90
        2
176
     0
 90
        2
176
     0
 90
        0
176
     0
 90
        0
176
     0
 40
0.6
176
     0
 40
30.0
176
     0
 62
     7
176
     0
 90
        1
176
     0
 90
        4
176
     0
 62
     7
176
     0
 62
   257
176
     0
 90
        1
176
     0
 90
        1
176
     0
 40
1.0
176
     0
 90
        8
176
     2
 62
     7
176
     0
 40
1.0
176
     0
 90
        1
176
     0
 90
        6
176
     0
 90
        2
176
     0
 62
     7
176
     0
 90
        5
176
     0
 90
        0
176
     0
 90
        0
176
     0
290
     0
176
     0
 90
        1
176
     0
 40
0.0
176
     0
 90
        0
176
     0
290
     0
176
     1
290
     1
176
     1
290
     1
176
     1
290
     0
176
     1
290
     0
176
     1
290
     0
176
     1
290
     0
176
     1
290
     0
176
     1
290
     0
176
     1
 90
       50
176
     1
 40
0.0
176
     1
 40
1.0
176
     1
 90
        0
176
     1
 62
    18
176
     1
 90
       50
176
     1
 90
        3
176
     1
 62
     5
420
      255
176
     1
290
     0
176
     1
 90
       50
176
     1
 90
       50
176
     1
 90
       50
176
     1
290
     0
176
     1
 90
       50
176
     1
 62
   256
176
     0
 40
1.0
176
     0
 90
        2
176
     1
  1
strokes_ogs.tif
176
     1
290
     0
176
     1
 40
1.0
176
     1
 40
1.0
176
     1
  0
VISUALSTYLE
  5
E4E3
102
{ACAD_REACTORS
330
E4D4
102
}
330
E4D4
100
AcDbVisualStyle
  2

 70
    15
177
     3
291
     1
 70
    58
 90
        2
176
     1
 90
        2
176
     1
 90
        0
176
     1
 90
        0
176
     1
 40
0.6
176
     1
 40
30.0
176
     1
 62
     7
176
     1
 90
        1
176
     1
 90
        4
176
     1
 62
     7
176
     1
 62
   257
176
     1
 90
        1
176
     1
 90
        1
176
     1
 40
1.0
176
     1
 90
        8
176
     1
 62
     7
176
     1
 40
1.0
176
     1
 90
        1
176
     1
 90
        6
176
     1
 90
        2
176
     1
 62
     7
176
     1
 90
        5
176
     1
 90
        0
176
     1
 90
        0
176
     1
290
     0
176
     1
 90
        1
176
     1
 40
0.0
176
     1
 90
        0
176
     1
290
     0
176
     1
290
     1
176
     1
290
     1
176
     1
290
     0
176
     1
290
     0
176
     1
290
     0
176
     1
290
     0
176
     1
290
     0
176
     1
290
     0
176
     1
 90
       50
176
     1
 40
0.0
176
     1
 40
1.0
176
     1
 90
        0
176
     1
 62
    18
176
     1
 90
       50
176
     1
 90
        3
176
     1
 62
     5
420
      255
176
     1
290
     0
176
     1
 90
       50
176
     1
 90
       50
176
     1
 90
       50
176
     1
290
     0
176
     1
 90
       50
176
     1
 62
   256
176
     0
 40
1.0
176
     0
 90
        2
176
     1
  1
strokes_ogs.tif
176
     1
290
     0
176
     1
 40
1.0
176
     1
 40
1.0
176
     1
  0
VISUALSTYLE
  5
E4D5
102
{ACAD_REACTORS
330
E4D4
102
}
330
E4D4
100
AcDbVisualStyle
  2

 70
     0
177
     3
291
     1
 70
    58
 90
        2
176
     1
 90
        1
176
     1
 90
        1
176
     1
 90
        2
176
     1
 40
0.6
176
     1
 40
30.0
176
     1
 62
     7
176
     1
 90
        0
176
     1
 90
        4
176
     1
 62
     7
176
     1
 62
   257
176
     1
 90
        1
176
     1
 90
        1
176
     1
 40
1.0
176
     1
 90
        8
176
     1
 62
     7
176
     1
 40
1.0
176
     1
 90
        1
176
     1
 90
        6
176
     1
 90
        2
176
     1
 62
     7
176
     1
 90
        5
176
     1
 90
        0
176
     1
 90
        0
176
     1
290
     0
176
     1
 90
       13
176
     1
 40
0.0
176
     1
 90
        0
176
     1
290
     0
176
     1
290
     1
176
     1
290
     1
176
     1
290
     0
176
     1
290
     0
176
     1
290
     0
176
     1
290
     0
176
     1
290
     0
176
     1
290
     0
176
     1
 90
       50
176
     1
 40
0.0
176
     1
 40
1.0
176
     1
 90
        0
176
     1
 62
    18
176
     1
 90
       50
176
     1
 90
        3
176
     1
 62
     5
420
      255
176
     1
290
     0
176
     1
 90
       50
176
     1
 90
       50
176
     1
 90
       50
176
     1
290
     0
176
     1
 90
       50
176
     1
 62
   256
176
     0
 40
1.0
176
     0
 90
        2
176
     1
  1
strokes_ogs.tif
176
     1
290
     0
176
     1
 40
1.0
176
     1
 40
1.0
176
     1
  0
VISUALSTYLE
  5
E4D6
102
{ACAD_REACTORS
330
E4D4
102
}
330
E4D4
100
AcDbVisualStyle
  2

 70
     1
177
     3
291
     1
 70
    58
 90
        2
176
     1
 90
        1
176
     1
 90
        1
176
     1
 90
        2
176
     1
 40
0.6
176
     1
 40
30.0
176
     1
 62
     7
176
     1
 90
        1
176
     1
 90
        4
176
     1
 62
     7
176
     1
 62
   257
176
     1
 90
        1
176
     1
 90
        1
176
     1
 40
1.0
176
     1
 90
        0
176
     1
 62
   257
176
     1
 40
1.0
176
     1
 90
        1
176
     1
 90
        6
176
     1
 90
        2
176
     1
 62
     7
176
     1
 90
        5
176
     1
 90
        0
176
     1
 90
        0
176
     1
290
     0
176
     1
 90
       13
176
     1
 40
0.0
176
     1
 90
        0
176
     1
290
     0
176
     1
290
     1
176
     1
290
     1
176
     1
290
     0
176
     1
290
     0
176
     1
290
     0
176
     1
290
     0
176
     1
290
     0
176
     1
290
     0
176
     1
 90
       50
176
     1
 40
0.0
176
     1
 40
1.0
176
     1
 90
        0
176
     1
 62
    18
176
     1
 90
       50
176
     1
 90
        3
176
     1
 62
     5
420
      255
176
     1
290
     0
176
     1
 90
       50
176
     1
 90
       50
176
     1
 90
       50
176
     1
290
     0
176
     1
 90
       50
176
     1
 62
   256
176
     0
 40
1.0
176
     0
 90
        2
176
     1
  1
strokes_ogs.tif
176
     1
290
     0
176
     1
 40
1.0
176
     1
 40
1.0
176
     1
  0
VISUALSTYLE
  5
E4D7
102
{ACAD_REACTORS
330
E4D4
102
}
330
E4D4
100
AcDbVisualStyle
  2

 70
     2
177
     3
291
     1
 70
    58
 90
        2
176
     1
 90
        2
176
     1
 90
        1
176
     1
 90
        2
176
     1
 40
0.6
176
     1
 40
30.0
176
     1
 62
     7
176
     1
 90
        0
176
     1
 90
        4
176
     1
 62
     7
176
     1
 62
   257
176
     1
 90
        1
176
     1
 90
        1
176
     1
 40
1.0
176
     1
 90
        0
176
     1
 62
     7
176
     1
 40
1.0
176
     1
 90
        1
176
     1
 90
        6
176
     1
 90
        2
176
     1
 62
     7
176
     1
 90
        5
176
     1
 90
        0
176
     1
 90
        0
176
     1
290
     0
176
     1
 90
       13
176
     1
 40
0.0
176
     1
 90
        0
176
     1
290
     0
176
     1
290
     1
176
     1
290
     1
176
     1
290
     0
176
     1
290
     0
176
     1
290
     0
176
     1
290
     0
176
     1
290
     0
176
     1
290
     0
176
     1
 90
       50
176
     1
 40
0.0
176
     1
 40
1.0
176
     1
 90
        0
176
     1
 62
    18
176
     1
 90
       50
176
     1
 90
        3
176
     1
 62
     5
420
      255
176
     1
290
     0
176
     1
 90
       50
176
     1
 90
       50
176
     1
 90
       50
176
     1
290
     0
176
     1
 90
       50
176
     1
 62
   256
176
     0
 40
1.0
176
     0
 90
        2
176
     1
  1
strokes_ogs.tif
176
     1
290
     0
176
     1
 40
1.0
176
     1
 40
1.0
176
     1
  0
VISUALSTYLE
  5
E4D8
102
{ACAD_REACTORS
330
E4D4
102
}
330
E4D4
100
AcDbVisualStyle
  2

 70
     3
177
     3
291
     1
 70
    58
 90
        2
176
     1
 90
        2
176
     1
 90
        1
176
     1
 90
        2
176
     1
 40
0.6
176
     1
 40
30.0
176
     1
 62
     7
176
     1
 90
        1
176
     1
 90
        4
176
     1
 62
     7
176
     1
 62
   257
176
     1
 90
        1
176
     1
 90
        1
176
     1
 40
1.0
176
     1
 90
        0
176
     1
 62
   257
176
     1
 40
1.0
176
     1
 90
        1
176
     1
 90
        6
176
     1
 90
        2
176
     1
 62
     7
176
     1
 90
        5
176
     1
 90
        0
176
     1
 90
        0
176
     1
290
     0
176
     1
 90
       13
176
     1
 40
0.0
176
     1
 90
        0
176
     1
290
     0
176
     1
290
     1
176
     1
290
     1
176
     1
290
     0
176
     1
290
     0
176
     1
290
     0
176
     1
290
     0
176
     1
290
     0
176
     1
290
     0
176
     1
 90
       50
176
     1
 40
0.0
176
     1
 40
1.0
176
     1
 90
        0
176
     1
 62
    18
176
     1
 90
       50
176
     1
 90
        3
176
     1
 62
     5
420
      255
176
     1
290
     0
176
     1
 90
       50
176
     1
 90
       50
176
     1
 90
       50
176
     1
290
     0
176
     1
 90
       50
176
     1
 62
   256
176
     0
 40
1.0
176
     0
 90
        2
176
     1
  1
strokes_ogs.tif
176
     1
290
     0
176
     1
 40
1.0
176
     1
 40
1.0
176
     1
  0
VISUALSTYLE
  5
3ADD9
102
{ACAD_REACTORS
330
E4D4
102
}
330
E4D4
100
AcDbVisualStyle
  2
Hidden
 70
     6
177
     3
291
     0
 70
    58
 90
        1
176
     1
 90
        2
176
     1
 90
        2
176
     1
 90
        0
176
     1
 40
0.6
176
     1
 40
30.0
176
     1
 62
     7
420
 16777215
176
     1
 90
        2
176
     1
 90
        2
176
     1
 62
     7
176
     1
 62
   257
176
     1
 90
        2
176
     1
 90
        1
176
     1
 40
40.0
176
     1
 90
        0
176
     1
 62
   257
176
     1
 40
1.0
176
     1
 90
        1
176
     1
 90
        6
176
     1
 90
        2
176
     1
 62
     7
176
     1
 90
        3
176
     1
 90
        0
176
     1
 90
        0
176
     1
290
     0
176
     1
 90
        1
176
     1
 40
0.0
176
     1
 90
        0
176
     1
290
     0
176
     1
290
     1
176
     1
290
     1
176
     1
290
     0
176
     1
290
     0
176
     1
290
     0
176
     1
290
     0
176
     1
290
     0
176
     1
290
     0
176
     1
 90
       50
176
     1
 40
0.0
176
     1
 40
1.0
176
     1
 90
        0
176
     1
 62
    18
176
     1
 90
       50
176
     1
 90
        3
176
     1
 62
     5
420
      255
176
     1
290
     0
176
     1
 90
       50
176
     1
 90
       50
176
     1
 90
       50
176
     1
290
     0
176
     1
 90
       50
176
     1
 62
   256
176
     0
 40
1.0
176
     0
 90
        2
176
     1
  1
strokes_ogs.tif
176
     1
290
     0
176
     1
 40
1.0
176
     1
 40
1.0
176
     1
  0
VISUALSTYLE
  5
E4E5
102
{ACAD_REACTORS
330
E4D4
102
}
330
E4D4
100
AcDbVisualStyle
  2

 70
    20
177
     3
291
     1
 70
    58
 90
        2
176
     0
 90
        2
176
     0
 90
        0
176
     0
 90
        0
176
     0
 40
0.6
176
     0
 40
30.0
176
     0
 62
     7
176
     0
 90
        1
176
     0
 90
        4
176
     0
 62
     7
176
     0
 62
   257
176
     0
 90
        1
176
     0
 90
        1
176
     0
 40
1.0
176
     0
 90
       10
176
     2
 62
     7
176
     0
 40
1.0
176
     0
 90
        1
176
     0
 90
        6
176
     0
 90
        2
176
     0
 62
     7
176
     0
 90
        5
176
     0
 90
        0
176
     0
 90
        0
176
     0
290
     0
176
     0
 90
        1
176
     0
 40
0.0
176
     0
 90
        0
176
     0
290
     0
176
     1
290
     1
176
     1
290
     1
176
     1
290
     0
176
     1
290
     0
176
     1
290
     0
176
     1
290
     0
176
     1
290
     0
176
     1
290
     0
176
     1
 90
       50
176
     1
 40
0.0
176
     1
 40
1.0
176
     1
 90
        0
176
     1
 62
    18
176
     1
 90
       50
176
     1
 90
        3
176
     1
 62
     5
420
      255
176
     1
290
     0
176
     1
 90
       50
176
     1
 90
       50
176
     1
 90
       50
176
     1
290
     0
176
     1
 90
       50
176
     1
 62
   256
176
     0
 40
1.0
176
     0
 90
        2
176
     1
  1
strokes_ogs.tif
176
     1
290
     0
176
     1
 40
1.0
176
     1
 40
1.0
176
     1
  0
VISUALSTYLE
  5
E4E2
102
{ACAD_REACTORS
330
E4D4
102
}
330
E4D4
100
AcDbVisualStyle
  2

 70
    14
177
     3
291
     1
 70
    58
 90
        2
176
     1
 90
        2
176
     1
 90
        0
176
     1
 90
        0
176
     1
 40
0.6
176
     1
 40
30.0
176
     1
 62
     7
176
     1
 90
        1
176
     1
 90
        4
176
     1
 62
     7
176
     1
 62
   257
176
     1
 90
        7
176
     1
 90
        7
176
     1
 40
1.0
176
     1
 90
        8
176
     1
 62
     7
176
     1
 40
1.0
176
     1
 90
        1
176
     1
 90
        6
176
     1
 90
        2
176
     1
 62
     7
176
     1
 90
        5
176
     1
 90
        0
176
     1
 90
        0
176
     1
290
     0
176
     1
 90
        1
176
     1
 40
0.0
176
     1
 90
        0
176
     1
290
     0
176
     1
290
     1
176
     1
290
     1
176
     1
290
     0
176
     1
290
     0
176
     1
290
     0
176
     1
290
     0
176
     1
290
     0
176
     1
290
     0
176
     1
 90
       50
176
     1
 40
0.0
176
     1
 40
1.0
176
     1
 90
        0
176
     1
 62
    18
176
     1
 90
       50
176
     1
 90
        3
176
     1
 62
     5
420
      255
176
     1
290
     0
176
     1
 90
       50
176
     1
 90
       50
176
     1
 90
       50
176
     1
290
     0
176
     1
 90
       50
176
     1
 62
   256
176
     0
 40
1.0
176
     0
 90
        2
176
     1
  1
strokes_ogs.tif
176
     1
290
     0
176
     1
 40
1.0
176
     1
 40
1.0
176
     1
  0
VISUALSTYLE
  5
E4E6
102
{ACAD_REACTORS
330
E4D4
102
}
330
E4D4
100
AcDbVisualStyle
  2

 70
    21
177
     3
291
     1
 70
    58
 90
        2
176
     0
 90
        2
176
     0
 90
        0
176
     0
 90
        0
176
     0
 40
0.6
176
     0
 40
30.0
176
     0
 62
     7
176
     0
 90
        1
176
     0
 90
        4
176
     0
 62
     7
176
     0
 62
   257
176
     0
 90
        1
176
     0
 90
        1
176
     0
 40
1.0
176
     0
 90
        9
176
     2
 62
     7
176
     0
 40
1.0
176
     0
 90
        1
176
     0
 90
        6
176
     0
 90
        2
176
     0
 62
     7
176
     0
 90
        5
176
     0
 90
        0
176
     0
 90
        0
176
     0
290
     0
176
     0
 90
        1
176
     0
 40
0.0
176
     0
 90
        0
176
     0
290
     0
176
     1
290
     1
176
     1
290
     1
176
     1
290
     0
176
     1
290
     0
176
     1
290
     0
176
     1
290
     0
176
     1
290
     0
176
     1
290
     0
176
     1
 90
       50
176
     1
 40
0.0
176
     1
 40
1.0
176
     1
 90
        0
176
     1
 62
    18
176
     1
 90
       50
176
     1
 90
        3
176
     1
 62
     5
420
      255
176
     1
290
     0
176
     1
 90
       50
176
     1
 90
       50
176
     1
 90
       50
176
     1
290
     0
176
     1
 90
       50
176
     1
 62
   256
176
     0
 40
1.0
176
     0
 90
        2
176
     1
  1
strokes_ogs.tif
176
     1
290
     0
176
     1
 40
1.0
176
     1
 40
1.0
176
     1
  0
VISUALSTYLE
  5
E4DE
102
{ACAD_REACTORS
330
E4D4
102
}
330
E4D4
100
AcDbVisualStyle
  2

 70
     8
177
     3
291
     0
 70
    58
 90
        2
176
     1
 90
        2
176
     1
 90
        0
176
     1
 90
        0
176
     1
 40
0.6
176
     1
 40
30.0
176
     1
 62
     7
176
     1
 90
        1
176
     1
 90
        0
176
     1
 62
     7
176
     1
 62
   257
176
     1
 90
        1
176
     1
 90
        1
176
     1
 40
1.0
176
     1
 90
        8
176
     1
 62
     8
176
     1
 40
1.0
176
     1
 90
        1
176
     1
 90
        6
176
     1
 90
        2
176
     1
 62
     7
176
     1
 90
        5
176
     1
 90
        0
176
     1
 90
        0
176
     1
290
     0
176
     1
 90
       13
176
     1
 40
0.0
176
     1
 90
        0
176
     1
290
     0
176
     1
290
     1
176
     1
290
     1
176
     1
290
     0
176
     1
290
     0
176
     1
290
     0
176
     1
290
     0
176
     1
290
     0
176
     1
290
     0
176
     1
 90
       50
176
     1
 40
0.0
176
     1
 40
1.0
176
     1
 90
        0
176
     1
 62
    18
176
     1
 90
       50
176
     1
 90
        3
176
     1
 62
     5
420
      255
176
     1
290
     0
176
     1
 90
       50
176
     1
 90
       50
176
     1
 90
       50
176
     1
290
     0
176
     1
 90
       50
176
     1
 62
   256
176
     0
 40
1.0
176
     0
 90
        2
176
     1
  1
strokes_ogs.tif
176
     1
290
     0
176
     1
 40
1.0
176
     1
 40
1.0
176
     1
  0
VISUALSTYLE
  5
3ADDE
102
{ACAD_REACTORS
330
E4D4
102
}
330
E4D4
100
AcDbVisualStyle
  2
Shaded
 70
    27
177
     3
291
     0
 70
    58
 90
        2
176
     1
 90
        2
176
     1
 90
        1
176
     1
 90
        2
176
     1
 40
0.6
176
     1
 40
30.0
176
     1
 62
     7
420
 16777215
176
     1
 90
        0
176
     1
 90
        4
176
     1
 62
     7
176
     1
 62
   257
176
     1
 90
        1
176
     1
 90
        1
176
     1
 40
1.0
176
     1
 90
        8
176
     1
 62
   257
176
     1
 40
1.0
176
     1
 90
        1
176
     1
 90
        6
176
     1
 90
        2
176
     1
 62
     8
420
  7895160
176
     1
 90
        3
176
     1
 90
        0
176
     1
 90
        0
176
     1
290
     0
176
     1
 90
        5
176
     1
 40
0.0
176
     1
 90
        0
176
     1
290
     0
176
     1
290
     1
176
     1
290
     1
176
     1
290
     0
176
     1
290
     0
176
     1
290
     0
176
     1
290
     0
176
     1
290
     0
176
     1
290
     0
176
     1
 90
       50
176
     1
 40
0.0
176
     1
 40
1.0
176
     1
 90
        0
176
     1
 62
    18
176
     1
 90
       50
176
     1
 90
        3
176
     1
 62
     5
420
      255
176
     1
290
     0
176
     1
 90
       50
176
     1
 90
       50
176
     1
 90
       50
176
     1
290
     0
176
     1
 90
       50
176
     1
 62
   256
176
     0
 40
1.0
176
     0
 90
        2
176
     1
  1
strokes_ogs.tif
176
     1
290
     0
176
     1
 40
1.0
176
     1
 40
1.0
176
     1
  0
VISUALSTYLE
  5
3ADDD
102
{ACAD_REACTORS
330
E4D4
102
}
330
E4D4
100
AcDbVisualStyle
  2
Shaded with edges
 70
    26
177
     3
291
     0
 70
    58
 90
        2
176
     1
 90
        2
176
     1
 90
        1
176
     1
 90
        2
176
     1
 40
0.6
176
     1
 40
30.0
176
     1
 62
     7
420
 16777215
176
     1
 90
        1
176
     1
 90
       10
176
     1
 62
     7
176
     1
 62
   257
176
     1
 90
        2
176
     1
 90
        1
176
     1
 40
1.0
176
     1
 90
        8
176
     1
 62
   257
176
     1
 40
1.0
176
     1
 90
        1
176
     1
 90
        6
176
     1
 90
        2
176
     1
 62
     7
176
     1
 90
        3
176
     1
 90
        0
176
     1
 90
        0
176
     1
290
     0
176
     1
 90
        5
176
     1
 40
0.0
176
     1
 90
        0
176
     1
290
     0
176
     1
290
     1
176
     1
290
     1
176
     1
290
     0
176
     1
290
     0
176
     1
290
     0
176
     1
290
     0
176
     1
290
     0
176
     1
290
     0
176
     1
 90
       50
176
     1
 40
0.0
176
     1
 40
1.0
176
     1
 90
        0
176
     1
 62
    18
176
     1
 90
       50
176
     1
 90
        3
176
     1
 62
     5
420
      255
176
     1
290
     0
176
     1
 90
       50
176
     1
 90
       50
176
     1
 90
       50
176
     1
290
     0
176
     1
 90
       50
176
     1
 62
   256
176
     0
 40
1.0
176
     0
 90
        2
176
     1
  1
strokes_ogs.tif
176
     1
290
     0
176
     1
 40
1.0
176
     1
 40
1.0
176
     1
  0
VISUALSTYLE
  5
3ADDA
102
{ACAD_REACTORS
330
E4D4
102
}
330
E4D4
100
AcDbVisualStyle
  2
Shades of Gray
 70
    23
177
     3
291
     0
 70
    58
 90
        2
176
     1
 90
        2
176
     1
 90
        3
176
     1
 90
        0
176
     1
 40
0.6
176
     1
 40
30.0
176
     1
 62
     7
420
 16777215
176
     1
 90
        2
176
     1
 90
        2
176
     1
 62
     7
176
     1
 62
     7
176
     1
 90
        1
176
     1
 90
        1
176
     1
 40
40.0
176
     1
 90
        8
176
     1
 62
     7
176
     1
 40
1.0
176
     1
 90
        1
176
     1
 90
        6
176
     1
 90
        2
176
     1
 62
     7
176
     1
 90
        3
176
     1
 90
        0
176
     1
 90
        0
176
     1
290
     0
176
     1
 90
        1
176
     1
 40
0.0
176
     1
 90
        0
176
     1
290
     0
176
     1
290
     1
176
     1
290
     1
176
     1
290
     0
176
     1
290
     0
176
     1
290
     0
176
     1
290
     0
176
     1
290
     0
176
     1
290
     0
176
     1
 90
       50
176
     1
 40
0.0
176
     1
 40
1.0
176
     1
 90
        0
176
     1
 62
    18
176
     1
 90
       50
176
     1
 90
        3
176
     1
 62
     5
420
      255
176
     1
290
     0
176
     1
 90
       50
176
     1
 90
       50
176
     1
 90
       50
176
     1
290
     0
176
     1
 90
       50
176
     1
 62
   256
176
     0
 40
1.0
176
     0
 90
        2
176
     1
  1
strokes_ogs.tif
176
     1
290
     0
176
     1
 40
1.0
176
     1
 40
1.0
176
     1
  0
VISUALSTYLE
  5
3ADDB
102
{ACAD_REACTORS
330
E4D4
102
}
330
E4D4
100
AcDbVisualStyle
  2
Sketchy
 70
    24
177
     3
291
     0
 70
    58
 90
        1
176
     1
 90
        2
176
     1
 90
        2
176
     1
 90
        0
176
     1
 40
0.6
176
     1
 40
30.0
176
     1
 62
     7
420
 16777215
176
     1
 90
        2
176
     1
 90
        2
176
     1
 62
     7
176
     1
 62
     7
176
     1
 90
        1
176
     1
 90
        1
176
     1
 40
40.0
176
     1
 90
       11
176
     1
 62
     7
176
     1
 40
1.0
176
     1
 90
        1
176
     1
 90
        6
176
     1
 90
        2
176
     1
 62
     7
176
     1
 90
        6
176
     1
 90
        0
176
     1
 90
        0
176
     1
290
     0
176
     1
 90
        1
176
     1
 40
0.0
176
     1
 90
        0
176
     1
290
     0
176
     1
290
     1
176
     1
290
     1
176
     1
290
     0
176
     1
290
     0
176
     1
290
     0
176
     1
290
     0
176
     1
290
     0
176
     1
290
     0
176
     1
 90
       50
176
     1
 40
0.0
176
     1
 40
1.0
176
     1
 90
        0
176
     1
 62
    18
176
     1
 90
       50
176
     1
 90
        3
176
     1
 62
     5
420
      255
176
     1
290
     0
176
     1
 90
       50
176
     1
 90
       50
176
     1
 90
       50
176
     1
290
     0
176
     1
 90
       50
176
     1
 62
   256
176
     0
 40
1.0
176
     0
 90
        2
176
     1
  1
strokes_ogs.tif
176
     1
290
     0
176
     1
 40
1.0
176
     1
 40
1.0
176
     1
  0
VISUALSTYLE
  5
E4E1
102
{ACAD_REACTORS
330
E4D4
102
}
330
E4D4
100
AcDbVisualStyle
  2

 70
    13
177
     3
291
     1
 70
    58
 90
        2
176
     1
 90
        2
176
     1
 90
        0
176
     1
 90
        0
176
     1
 40
0.6
176
     1
 40
30.0
176
     1
 62
     7
176
     1
 90
        1
176
     1
 90
        4
176
     1
 62
     7
176
     1
 62
   257
176
     1
 90
        1
176
     1
 90
        1
176
     1
 40
1.0
176
     1
 90
       12
176
     1
 62
     7
176
     1
 40
1.0
176
     1
 90
        1
176
     1
 90
        6
176
     1
 90
        2
176
     1
 62
     7
176
     1
 90
        5
176
     1
 90
        0
176
     1
 90
        0
176
     1
290
     0
176
     1
 90
        1
176
     1
 40
0.0
176
     1
 90
        0
176
     1
290
     0
176
     1
290
     1
176
     1
290
     1
176
     1
290
     0
176
     1
290
     0
176
     1
290
     0
176
     1
290
     0
176
     1
290
     0
176
     1
290
     0
176
     1
 90
       50
176
     1
 40
0.0
176
     1
 40
1.0
176
     1
 90
        0
176
     1
 62
    18
176
     1
 90
       50
176
     1
 90
        3
176
     1
 62
     5
420
      255
176
     1
290
     0
176
     1
 90
       50
176
     1
 90
       50
176
     1
 90
       50
176
     1
290
     0
176
     1
 90
       50
176
     1
 62
   256
176
     0
 40
1.0
176
     0
 90
        2
176
     1
  1
strokes_ogs.tif
176
     1
290
     0
176
     1
 40
1.0
176
     1
 40
1.0
176
     1
  0
VISUALSTYLE
  5
3ADD8
102
{ACAD_REACTORS
330
E4D4
102
}
330
E4D4
100
AcDbVisualStyle
  2
Wireframe
 70
     5
177
     3
291
     0
 70
    58
 90
        0
176
     1
 90
        2
176
     1
 90
        0
176
     1
 90
        0
176
     1
 40
0.6
176
     1
 40
30.0
176
     1
 62
     7
420
 16777215
176
     1
 90
        1
176
     1
 90
        4
176
     1
 62
     7
176
     1
 62
   257
176
     1
 90
        1
176
     1
 90
        1
176
     1
 40
1.0
176
     1
 90
        0
176
     1
 62
   257
176
     1
 40
1.0
176
     1
 90
        1
176
     1
 90
        6
176
     1
 90
        2
176
     1
 62
     7
176
     1
 90
        3
176
     1
 90
        0
176
     1
 90
        0
176
     1
290
     0
176
     1
 90
        1
176
     1
 40
0.0
176
     1
 90
        0
176
     1
290
     0
176
     1
290
     1
176
     1
290
     1
176
     1
290
     0
176
     1
290
     0
176
     1
290
     0
176
     1
290
     0
176
     1
290
     0
176
     1
290
     0
176
     1
 90
       50
176
     1
 40
0.0
176
     1
 40
1.0
176
     1
 90
        0
176
     1
 62
    18
176
     1
 90
       50
176
     1
 90
        3
176
     1
 62
     5
420
      255
176
     1
290
     0
176
     1
 90
       50
176
     1
 90
       50
176
     1
 90
       50
176
     1
290
     0
176
     1
 90
       50
176
     1
 62
   256
176
     0
 40
1.0
176
     0
 90
        2
176
     1
  1
strokes_ogs.tif
176
     1
290
     0
176
     1
 40
1.0
176
     1
 40
1.0
176
     1
  0
VISUALSTYLE
  5
3ADDC
102
{ACAD_REACTORS
330
E4D4
102
}
330
E4D4
100
AcDbVisualStyle
  2
X-Ray
 70
    25
177
     3
291
     0
 70
    58
 90
        2
176
     1
 90
        2
176
     1
 90
        1
176
     1
 90
        1
176
     1
 40
0.5
176
     1
 40
30.0
176
     1
 62
     7
420
 16777215
176
     1
 90
        1
176
     1
 90
        0
176
     1
 62
     7
176
     1
 62
   257
176
     1
 90
        1
176
     1
 90
        1
176
     1
 40
1.0
176
     1
 90
        8
176
     1
 62
     7
176
     1
 40
1.0
176
     1
 90
        1
176
     1
 90
        6
176
     1
 90
        2
176
     1
 62
     7
176
     1
 90
        3
176
     1
 90
        0
176
     1
 90
        0
176
     1
290
     0
176
     1
 90
       13
176
     1
 40
0.0
176
     1
 90
        0
176
     1
290
     0
176
     1
290
     1
176
     1
290
     1
176
     1
290
     0
176
     1
290
     0
176
     1
290
     0
176
     1
290
     0
176
     1
290
     0
176
     1
290
     0
176
     1
 90
       50
176
     1
 40
0.0
176
     1
 40
1.0
176
     1
 90
        0
176
     1
 62
    18
176
     1
 90
       50
176
     1
 90
        3
176
     1
 62
     5
420
      255
176
     1
290
     0
176
     1
 90
       50
176
     1
 90
       50
176
     1
 90
       50
176
     1
290
     0
176
     1
 90
       50
176
     1
 62
   256
176
     0
 40
1.0
176
     0
 90
        2
176
     1
  1
strokes_ogs.tif
176
     1
290
     0
176
     1
 40
1.0
176
     1
 40
1.0
176
     1
  0
DICTIONARYVAR
  5
F8C1
102
{ACAD_REACTORS
330
5697
102
}
330
5697
100
DictionaryVariables
280
     0
  1
1:1
  0
DICTIONARYVAR
  5
F8C0
102
{ACAD_REACTORS
330
5697
102
}
330
5697
100
DictionaryVariables
280
     0
  1
STANDARD
  0
DICTIONARYVAR
  5
F8BF
102
{ACAD_REACTORS
330
5697
102
}
330
5697
100
DictionaryVariables
280
     0
  1
STANDARD
  0
DICTIONARYVAR
  5
3AE63
102
{ACAD_REACTORS
330
5697
102
}
330
5697
100
DictionaryVariables
280
     0
  1
Imperial24
  0
DICTIONARYVAR
  5
3AE64
102
{ACAD_REACTORS
330
5697
102
}
330
5697
100
DictionaryVariables
280
     0
  1
Imperial24
  0
DICTIONARYVAR
  5
5698
102
{ACAD_REACTORS
330
5697
102
}
330
5697
100
DictionaryVariables
280
     0
  1
1
  0
DICTIONARYVAR
  5
F8C3
102
{ACAD_REACTORS
330
5697
102
}
330
5697
100
DictionaryVariables
280
     0
  1
0
  0
DICTIONARYVAR
  5
37FF5
102
{ACAD_REACTORS
330
5697
102
}
330
5697
100
DictionaryVariables
280
     0
  1
1
  0
DICTIONARYVAR
  5
37FF6
102
{ACAD_REACTORS
330
5697
102
}
330
5697
100
DictionaryVariables
280
     0
  1
15
  0
DICTIONARYVAR
  5
37FF4
102
{ACAD_REACTORS
330
5697
102
}
330
5697
100
DictionaryVariables
280
     0
  1
0
  0
DICTIONARYVAR
  5
37FF3
102
{ACAD_REACTORS
330
5697
102
}
330
5697
100
DictionaryVariables
280
     0
  1
0
  0
DICTIONARYVAR
  5
F8C2
102
{ACAD_REACTORS
330
5697
102
}
330
5697
100
DictionaryVariables
280
     0
  1
127
  0
XRECORD
  5
F8F7
102
{ACAD_REACTORS
330
F8F6
102
}
330
F8F6
100
AcDbXrecord
280
     1
330
0
330
0
330
0
330
0
330
0
330
0
330
0
330
0
330
0
330
0
330
0
330
0
330
0
330
0
330
0
330
0
330
0
330
0
330
0
330
0
330
0
330
0
330
0
330
0
330
0
330
0
330
0
330
0
330
0
330
0
330
0
330
0
330
0
330
0
330
0
330
0
330
0
330
0
330
0
330
0
330
0
330
0
330
0
330
0
330
0
330
0
330
0
330
0
330
0
330
0
330
0
330
0
330
0
330
0
330
0
330
0
330
0
330
0
330
0
330
0
330
0
330
0
330
0
330
0
330
0
330
0
330
0
330
0
330
0
330
0
330
0
330
0
330
0
330
0
330
0
330
0
330
0
330
0
330
0
330
0
330
0
330
0
330
0
330
0
330
0
330
0
330
0
330
0
330
0
330
0
330
0
330
0
330
0
330
0
330
0
330
0
330
0
330
0
330
0
330
0
330
0
330
0
330
0
330
0
330
0
330
0
330
0
330
0
330
0
330
0
330
0
330
0
330
0
330
0
330
0
330
0
330
0
330
0
330
0
330
0
330
0
330
0
330
0
330
0
330
0
330
0
330
0
330
0
330
0
330
0
330
0
330
0
330
0
330
0
330
0
330
0
330
0
330
0
330
0
330
0
330
0
330
0
330
0
330
0
330
0
330
0
330
0
330
0
330
0
330
0
330
0
330
0
330
0
330
0
330
0
330
0
330
0
330
0
330
0
330
0
330
0
330
0
330
0
330
0
330
0
330
0
330
0
330
0
330
0
330
0
330
0
330
0
330
0
330
0
330
0
330
0
330
0
330
0
330
0
330
0
330
0
330
0
330
0
330
0
330
0
330
0
330
0
330
0
330
0
330
0
330
0
330
0
330
0
330
0
330
0
330
0
330
0
330
0
330
0
330
0
330
0
330
0
330
0
330
0
330
0
330
0
330
0
330
0
330
0
330
0
330
0
330
0
330
0
330
0
330
0
330
0
330
0
330
0
330
0
330
0
330
0
330
0
330
0
330
0
330
0
330
0
330
0
330
0
330
0
330
0
330
0
330
0
330
0
330
0
330
0
330
0
330
0
330
0
330
0
330
0
330
0
330
0
330
0
330
0
330
0
330
0
330
0
330
0
330
0
330
0
330
0
330
0
330
0
330
0
330
0
330
0
330
0
330
0
330
0
330
0
330
0
330
0
330
0
330
0
330
0
330
0
330
0
330
0
330
0
330
0
330
0
330
0
330
0
330
0
330
0
330
0
330
0
330
0
330
0
330
0
330
0
330
0
330
0
330
0
330
0
330
0
330
0
330
0
330
0
330
0
330
0
330
0
330
0
330
0
330
0
330
0
330
0
330
0
330
0
330
0
330
0
330
0
330
0
330
0
330
0
330
0
330
0
  0
DICTIONARY
  5
3AE69
330
3ADE2
100
AcDbDictionary
280
     1
281
     1
  3
ACAD_XREC_ROUNDTRIP
360
3AE80
  0
DICTIONARY
  5
13816
330
904E
100
AcDbDictionary
280
     1
281
     1
  0
DICTIONARY
  5
E4C5
330
E4C4
100
AcDbDictionary
280
     1
281
     1
  3
ACAD_XREC_ROUNDTRIP
360
12A19
  3
BUMPTILE
360
E4C7
  3
DIFFUSETILE
360
E4C6
  3
OPACITYTILE
360
E4CA
  3
REFLECTIONTILE
360
E4C9
  3
REFRACTIONTILE
360
E4CB
  3
SPECULARTILE
360
E4C8
  0
DICTIONARY
  5
E4BD
330
E4BC
100
AcDbDictionary
280
     1
281
     1
  3
ACAD_XREC_ROUNDTRIP
360
12A18
  3
BUMPTILE
360
E4BF
  3
DIFFUSETILE
360
E4BE
  3
OPACITYTILE
360
E4C2
  3
REFLECTIONTILE
360
E4C1
  3
REFRACTIONTILE
360
E4C3
  3
SPECULARTILE
360
E4C0
  0
DICTIONARY
  5
E4CD
330
E4CC
100
AcDbDictionary
280
     1
281
     1
  3
ACAD_XREC_ROUNDTRIP
360
12A1A
  3
BUMPTILE
360
E4CF
  3
DIFFUSETILE
360
E4CE
  3
OPACITYTILE
360
E4D2
  3
REFLECTIONTILE
360
E4D1
  3
REFRACTIONTILE
360
E4D3
  3
SPECULARTILE
360
E4D0
  0
DICTIONARY
  5
3AE67
330
3ADE0
100
AcDbDictionary
280
     1
281
     1
  3
ACAD_XREC_ROUNDTRIP
360
3AE7F
  0
DICTIONARY
  5
F86C
330
E4EA
100
AcDbDictionary
280
     1
281
     1
  3
ACAD_ROUNDTRIP_2008_TABLESTYLE_CELLSTYLEMAP
360
3AE7E
  0
XRECORD
  5
3AE80
102
{ACAD_REACTORS
330
3AE69
102
}
330
3AE69
100
AcDbXrecord
280
     1
102
DISPLAYNAME
  1
Imperial24
102
FLAGS
 90
        0
  0
XRECORD
  5
12A19
102
{ACAD_REACTORS
330
E4C5
102
}
330
E4C5
100
AcDbXrecord
280
     1
102
MATERIAL
148
0.0
149
0.0
149
0.0
 93
        0
 94
      127
282
     0
 72
     0
 77
     0
171
     0
175
     0
179
     0
273
     0
  0
XRECORD
  5
E4C7
102
{ACAD_REACTORS
330
E4C5
102
}
330
E4C5
100
AcDbXrecord
280
     1
270
     1
271
     1
  0
XRECORD
  5
E4C6
102
{ACAD_REACTORS
330
E4C5
102
}
330
E4C5
100
AcDbXrecord
280
     1
270
     1
271
     1
  0
XRECORD
  5
E4CA
102
{ACAD_REACTORS
330
E4C5
102
}
330
E4C5
100
AcDbXrecord
280
     1
270
     1
271
     1
  0
XRECORD
  5
E4C9
102
{ACAD_REACTORS
330
E4C5
102
}
330
E4C5
100
AcDbXrecord
280
     1
270
     1
271
     1
  0
XRECORD
  5
E4CB
102
{ACAD_REACTORS
330
E4C5
102
}
330
E4C5
100
AcDbXrecord
280
     1
270
     1
271
     1
  0
XRECORD
  5
E4C8
102
{ACAD_REACTORS
330
E4C5
102
}
330
E4C5
100
AcDbXrecord
280
     1
270
     1
271
     1
  0
XRECORD
  5
12A18
102
{ACAD_REACTORS
330
E4BD
102
}
330
E4BD
100
AcDbXrecord
280
     1
102
MATERIAL
148
0.0
149
0.0
149
0.0
 93
        0
 94
      127
282
     0
 72
     0
 77
     0
171
     0
175
     0
179
     0
273
     0
  0
XRECORD
  5
E4BF
102
{ACAD_REACTORS
330
E4BD
102
}
330
E4BD
100
AcDbXrecord
280
     1
270
     1
271
     1
  0
XRECORD
  5
E4BE
102
{ACAD_REACTORS
330
E4BD
102
}
330
E4BD
100
AcDbXrecord
280
     1
270
     1
271
     1
  0
XRECORD
  5
E4C2
102
{ACAD_REACTORS
330
E4BD
102
}
330
E4BD
100
AcDbXrecord
280
     1
270
     1
271
     1
  0
XRECORD
  5
E4C1
102
{ACAD_REACTORS
330
E4BD
102
}
330
E4BD
100
AcDbXrecord
280
     1
270
     1
271
     1
  0
XRECORD
  5
E4C3
102
{ACAD_REACTORS
330
E4BD
102
}
330
E4BD
100
AcDbXrecord
280
     1
270
     1
271
     1
  0
XRECORD
  5
E4C0
102
{ACAD_REACTORS
330
E4BD
102
}
330
E4BD
100
AcDbXrecord
280
     1
270
     1
271
     1
  0
XRECORD
  5
12A1A
102
{ACAD_REACTORS
330
E4CD
102
}
330
E4CD
100
AcDbXrecord
280
     1
102
MATERIAL
148
0.0
149
0.0
149
0.0
 93
        0
 94
      127
282
     0
 72
     0
 77
     0
171
     0
175
     0
179
     0
273
     0
  0
XRECORD
  5
E4CF
102
{ACAD_REACTORS
330
E4CD
102
}
330
E4CD
100
AcDbXrecord
280
     1
270
     1
271
     1
  0
XRECORD
  5
E4CE
102
{ACAD_REACTORS
330
E4CD
102
}
330
E4CD
100
AcDbXrecord
280
     1
270
     1
271
     1
  0
XRECORD
  5
E4D2
102
{ACAD_REACTORS
330
E4CD
102
}
330
E4CD
100
AcDbXrecord
280
     1
270
     1
271
     1
  0
XRECORD
  5
E4D1
102
{ACAD_REACTORS
330
E4CD
102
}
330
E4CD
100
AcDbXrecord
280
     1
270
     1
271
     1
  0
XRECORD
  5
E4D3
102
{ACAD_REACTORS
330
E4CD
102
}
330
E4CD
100
AcDbXrecord
280
     1
270
     1
271
     1
  0
XRECORD
  5
E4D0
102
{ACAD_REACTORS
330
E4CD
102
}
330
E4CD
100
AcDbXrecord
280
     1
270
     1
271
     1
  0
XRECORD
  5
3AE7F
102
{ACAD_REACTORS
330
3AE67
102
}
330
3AE67
100
AcDbXrecord
280
     1
102
DISPLAYNAME
  1
Imperial24
102
FLAGS
 90
        0
  0
CELLSTYLEMAP
  5
3AE7E
102
{ACAD_REACTORS
330
F86C
102
}
330
F86C
100
AcDbCellStyleMap
 90
        3
300
CELLSTYLE
  1
TABLEFORMAT_BEGIN
 90
        5
170
     1
 91
        0
 92
    32768
 62
   257
 93
        1
300
CONTENTFORMAT
  1
CONTENTFORMAT_BEGIN
 90
        0
 91
        0
 92
      512
 93
        0
300

 40
0.0
140
1.0
 94
        5
 62
     0
340
11
144
0.25
309
CONTENTFORMAT_END
171
     1
301
MARGIN
  1
CELLMARGIN_BEGIN
 40
0.06
 40
0.06
 40
0.06
 40
0.06
 40
0.18
 40
0.18
309
CELLMARGIN_END
 94
        6
 95
        1
302
GRIDFORMAT
  1
GRIDFORMAT_BEGIN
 90
        0
 91
        1
 62
     0
 92
       -2
340
0
 93
        0
 40
0.045
309
GRIDFORMAT_END
 95
        2
302
GRIDFORMAT
  1
GRIDFORMAT_BEGIN
 90
        0
 91
        1
 62
     0
 92
       -2
340
0
 93
        0
 40
0.045
309
GRIDFORMAT_END
 95
        4
302
GRIDFORMAT
  1
GRIDFORMAT_BEGIN
 90
        0
 91
        1
 62
     0
 92
       -2
340
0
 93
        0
 40
0.045
309
GRIDFORMAT_END
 95
        8
302
GRIDFORMAT
  1
GRIDFORMAT_BEGIN
 90
        0
 91
        1
 62
     0
 92
       -2
340
0
 93
        0
 40
0.045
309
GRIDFORMAT_END
 95
       16
302
GRIDFORMAT
  1
GRIDFORMAT_BEGIN
 90
        0
 91
        1
 62
     0
 92
       -2
340
0
 93
        0
 40
0.045
309
GRIDFORMAT_END
 95
       32
302
GRIDFORMAT
  1
GRIDFORMAT_BEGIN
 90
        0
 91
        1
 62
     0
 92
       -2
340
0
 93
        0
 40
0.045
309
GRIDFORMAT_END
309
TABLEFORMAT_END
  1
CELLSTYLE_BEGIN
 90
        1
 91
        1
300
_TITLE
309
CELLSTYLE_END
300
CELLSTYLE
  1
TABLEFORMAT_BEGIN
 90
        5
170
     1
 91
        0
 92
        0
 62
   257
 93
        1
300
CONTENTFORMAT
  1
CONTENTFORMAT_BEGIN
 90
        0
 91
        0
 92
      512
 93
        0
300

 40
0.0
140
1.0
 94
        5
 62
     0
340
11
144
0.18
309
CONTENTFORMAT_END
171
     1
301
MARGIN
  1
CELLMARGIN_BEGIN
 40
0.06
 40
0.06
 40
0.06
 40
0.06
 40
0.18
 40
0.18
309
CELLMARGIN_END
 94
        6
 95
        1
302
GRIDFORMAT
  1
GRIDFORMAT_BEGIN
 90
        0
 91
        1
 62
     0
 92
       -2
340
0
 93
        0
 40
0.045
309
GRIDFORMAT_END
 95
        2
302
GRIDFORMAT
  1
GRIDFORMAT_BEGIN
 90
        0
 91
        1
 62
     0
 92
       -2
340
0
 93
        0
 40
0.045
309
GRIDFORMAT_END
 95
        4
302
GRIDFORMAT
  1
GRIDFORMAT_BEGIN
 90
        0
 91
        1
 62
     0
 92
       -2
340
0
 93
        0
 40
0.045
309
GRIDFORMAT_END
 95
        8
302
GRIDFORMAT
  1
GRIDFORMAT_BEGIN
 90
        0
 91
        1
 62
     0
 92
       -2
340
0
 93
        0
 40
0.045
309
GRIDFORMAT_END
 95
       16
302
GRIDFORMAT
  1
GRIDFORMAT_BEGIN
 90
        0
 91
        1
 62
     0
 92
       -2
340
0
 93
        0
 40
0.045
309
GRIDFORMAT_END
 95
       32
302
GRIDFORMAT
  1
GRIDFORMAT_BEGIN
 90
        0
 91
        1
 62
     0
 92
       -2
340
0
 93
        0
 40
0.045
309
GRIDFORMAT_END
309
TABLEFORMAT_END
  1
CELLSTYLE_BEGIN
 90
        2
 91
        1
300
_HEADER
309
CELLSTYLE_END
300
CELLSTYLE
  1
TABLEFORMAT_BEGIN
 90
        5
170
     1
 91
        0
 92
        0
 62
   257
 93
        1
300
CONTENTFORMAT
  1
CONTENTFORMAT_BEGIN
 90
        0
 91
        0
 92
      512
 93
        0
300

 40
0.0
140
1.0
 94
        2
 62
     0
340
11
144
0.18
309
CONTENTFORMAT_END
171
     1
301
MARGIN
  1
CELLMARGIN_BEGIN
 40
0.06
 40
0.06
 40
0.06
 40
0.06
 40
0.18
 40
0.18
309
CELLMARGIN_END
 94
        6
 95
        1
302
GRIDFORMAT
  1
GRIDFORMAT_BEGIN
 90
        0
 91
        1
 62
     0
 92
       -2
340
0
 93
        0
 40
0.045
309
GRIDFORMAT_END
 95
        2
302
GRIDFORMAT
  1
GRIDFORMAT_BEGIN
 90
        0
 91
        1
 62
     0
 92
       -2
340
0
 93
        0
 40
0.045
309
GRIDFORMAT_END
 95
        4
302
GRIDFORMAT
  1
GRIDFORMAT_BEGIN
 90
        0
 91
        1
 62
     0
 92
       -2
340
0
 93
        0
 40
0.045
309
GRIDFORMAT_END
 95
        8
302
GRIDFORMAT
  1
GRIDFORMAT_BEGIN
 90
        0
 91
        1
 62
     0
 92
       -2
340
0
 93
        0
 40
0.045
309
GRIDFORMAT_END
 95
       16
302
GRIDFORMAT
  1
GRIDFORMAT_BEGIN
 90
        0
 91
        1
 62
     0
 92
       -2
340
0
 93
        0
 40
0.045
309
GRIDFORMAT_END
 95
       32
302
GRIDFORMAT
  1
GRIDFORMAT_BEGIN
 90
        0
 91
        1
 62
     0
 92
       -2
340
0
 93
        0
 40
0.045
309
GRIDFORMAT_END
309
TABLEFORMAT_END
  1
CELLSTYLE_BEGIN
 90
        3
 91
        2
300
_DATA
309
CELLSTYLE_END
  0
ENDSEC
  0
SECTION
  2
ACDSDATA
 70
     2
 71
     6
  0
ACDSSCHEMA
 90
        0
  1
AcDb_Thumbnail_Schema
  2
AcDbDs::ID
280
    10
 91
        8
  2
Thumbnail_Data
280
    15
 91
        0
101
ACDSRECORD
 95
        0
 90
        1
  2
AcDbDs::TreatedAsObjectData
280
     1
291
     1
101
ACDSRECORD
 95
        0
 90
        2
  2
AcDbDs::Legacy
280
     1
291
     1
101
ACDSRECORD
  1
AcDbDs::ID
 90
        3
  2
AcDs:Indexable
280
     1
291
     1
101
ACDSRECORD
  1
AcDbDs::ID
 90
        4
  2
AcDbDs::HandleAttribute
280
     7
282
     1
  0
ACDSSCHEMA
 90
        1
  1
AcDbDs::TreatedAsObjectDataSchema
  2
AcDbDs::TreatedAsObjectData
280
     1
 91
        0
  0
ACDSSCHEMA
 90
        2
  1
AcDbDs::LegacySchema
  2
AcDbDs::Legacy
280
     1
 91
        0
  0
ACDSSCHEMA
 90
        3
  1
AcDbDs::IndexedPropertySchema
  2
AcDs:Indexable
280
     1
 91
        0
  0
ACDSSCHEMA
 90
        4
  1
AcDbDs::HandleAttributeSchema
  2
AcDbDs::HandleAttribute
280
     7
 91
        1
284
     1
  0
ACDSRECORD
 90
        0
  2
AcDbDs::ID
280
    10
320
904E
  2
Thumbnail_Data
280
    15
 94
     1795
310
89504E470D0A1A0A0000000D49484452000001000000008108030000001837949D00000300504C5445000000000000FFFFFF0000000000000000000000000000000000000000000000000000330000660000990000CC0000FF0033000033330033660033990033CC0033FF0066000066330066660066990066CC0066FF0099
310
000099330099660099990099CC0099FF00CC0000CC3300CC6600CC9900CCCC00CCFF00FF0000FF3300FF6600FF9900FFCC00FFFF3300003300333300663300993300CC3300FF3333003333333333663333993333CC3333FF3366003366333366663366993366CC3366FF3399003399333399663399993399CC3399FF33CC00
310
33CC3333CC6633CC9933CCCC33CCFF33FF0033FF3333FF6633FF9933FFCC33FFFF6600006600336600666600996600CC6600FF6633006633336633666633996633CC6633FF6666006666336666666666996666CC6666FF6699006699336699666699996699CC6699FF66CC0066CC3366CC6666CC9966CCCC66CCFF66FF0066
310
FF3366FF6666FF9966FFCC66FFFF9900009900339900669900999900CC9900FF9933009933339933669933999933CC9933FF9966009966339966669966999966CC9966FF9999009999339999669999999999CC9999FF99CC0099CC3399CC6699CC9999CCCC99CCFF99FF0099FF3399FF6699FF9999FFCC99FFFFCC0000CC00
310
33CC0066CC0099CC00CCCC00FFCC3300CC3333CC3366CC3399CC33CCCC33FFCC6600CC6633CC6666CC6699CC66CCCC66FFCC9900CC9933CC9966CC9999CC99CCCC99FFCCCC00CCCC33CCCC66CCCC99CCCCCCCCCCFFCCFF00CCFF33CCFF66CCFF99CCFFCCCCFFFFFF0000FF0033FF0066FF0099FF00CCFF00FFFF3300FF3333
310
FF3366FF3399FF33CCFF33FFFF6600FF6633FF6666FF6699FF66CCFF66FFFF9900FF9933FF9966FF9999FF99CCFF99FFFFCC00FFCC33FFCC66FFCC99FFCCCCFFCCFFFFFF00FFFF33FFFF66FFFF99FFFFCCFFFFFF0000000D0D0D1A1A1A2828283535354343435050505D5D5D6B6B6B787878868686939393A1A1A1AEAEAEBB
310
BBBBC9C9C9D6D6D6E4E4E4F1F1F1FFFFFF000000000000000000000000000000000000000000000000000000000000C11FEF66000003BE4944415478DAED9D499682301086FB069C84FBEFDC64DB47A8559DA036EE3B330910846E7C6D0DA54625C8231F95E927895FA8DCBEDE70CCF96DC605C0BBAE9601300006C0001800
310
66008828073A01D0624A01F4814E00A01E80D30D00C081798001500A002A00500A004A19103EE90300DE10D003889F5ED9331AE6577893E10178D6039ED5540368399807300640F48732A01405EC01600580A70188F100FC25008C0F091E902D00F8865B1A023C01CCB39BBFEFB9B3C12D0BCC2113788B7D01B8E1F4B95583
310
E5DDDD75FA06C00018000360000C002300778FEF3000ECF48082E12D07E602007D5FC000E806A03D0B7CF6810D8001300006C000BCF93C9D6200CF3EB868908332C68E5F67E8E91F35783D5AB0769BA01A73000033D6206CA6333F840640B24C8E2500A8C16900F1BD4F3F320510BCB9061700ACB2007206D00B22745C048C
310
4B7B9E00FA6AF03500340006401680B36540B9912E0F40C1F0C20328C3920AC05500E396201D032094E101FB00E2B4A24300C41280F3D7DE5BF000173FB83100477EBFB45BDA5302806B5900E579C0A542F01800EB6A90E2536735984FDD2521E0B021E4BB3B6B0079CE257F0065DEE44500D44DBA14DF14DE058079DE2DA1
310
FCEE700430EF03E05D089E14444262A9134488F20B80AF20725E12EB0144498C9222449C25B1F3A2680B60238A12535194E62754591C8E65F104201B2D492FA228CB9620F537460EC510C2060F2DEDA330E5920E1A489F0EA0AD06AF02282D00F6004A0ACE0128957EB3EE045F002B3B03A0B67F6967F109C9B7C769834B80
310
079C4F7D6AF50D4D0B805A5ED08DAEC501C0F8922B01D0D67C87F5856800DA3DE0DF0E6C003EF63C9D1C00AEADED5E2753148076EE30A903306573D3147AF553BB4F13176D1B336D62F801C8AA865B749DEA03537F9D5B00C3188600D2DA212E2E25923C4019808D07D4569E0E007D2138E5BBA0AA00AC9262008600960AB2
310
89091B350320D1001E9D356DA4F4ABBA756AA26401E8E21E8B089001F89847F92A064033E0610B00C700C46481B625B802B02E031A006C4551B7B616C03AAE0110BF3FF2CB4D8EAF2A7CC503746401F585E0856A90F246B9D5207571B4CE02141A42A2B38001D00160DC1DD601202E290A2E2D29AA1000C4C16EE87C405911
310
225D00D2504797067BF5A2A80A00D3E4ABF1207DD35616A74E166F01C891C563DF8F305DCBF5AABA430FC0DE03902B80E4EEF1414DE1B702301C41C61F4049C76F01ECDD47E30920B9C116C032086C2FAD620094F15F6AFF65463B80CF3FB001300006C000FCD7790EFE4C671C67002C0B18001E00B4FFFB3C2BFB017B6E3A
310
268399E5EB0000000049454E44AE426082
  0
ENDSEC
  0
EOF
