  0
SECTION
  2
HEADER
  9
$ACADVER
  1
AC1027
  9
$ACADMAINTVER
 70
    55
  9
$DWGCODEPAGE
  3
ANSI_932
  9
$LASTSAVEDBY
  1
marketing
  9
$REQUIREDVERSIONS
160
                 0
  9
$INSBASE
 10
0.0
 20
0.0
 30
0.0
  9
$EXTMIN
 10
-0.008324336203259
 20
-0.121759839963488
 30
-0.0030516181105611
  9
$EXTMAX
 10
630.1102395843836
 20
891.1328166503608
 30
50.00305208378603
  9
$LIMMIN
 10
-1176.0
 20
-798.0
  9
$LIMMAX
 10
594.0
 20
1078.0
  9
$ORTHOMODE
 70
     1
  9
$REGENMODE
 70
     1
  9
$FILLMODE
 70
     1
  9
$QTEXTMODE
 70
     0
  9
$MIRRTEXT
 70
     1
  9
$LTSCALE
 40
10.0
  9
$ATTMODE
 70
     1
  9
$TEXTSIZE
 40
0.2
  9
$TRACEWID
 40
0.05
  9
$TEXTSTYLE
  7
blockfont
  9
$CLAYER
  8
30
  9
$CELTYPE
  6
BYLAYER
  9
$CECOLOR
 62
   256
  9
$CELTSCALE
 40
1.0
  9
$DISPSILH
 70
     0
  9
$DIMSCALE
 40
1.0
  9
$DIMASZ
 40
3.0
  9
$DIMEXO
 40
1.0
  9
$DIMDLI
 40
0.5
  9
$DIMRND
 40
0.0
  9
$DIMDLE
 40
0.0
  9
$DIMEXE
 40
0.5
  9
$DIMTP
 40
0.0
  9
$DIMTM
 40
0.0
  9
$DIMTXT
 40
7.0
  9
$DIMCEN
 40
0.09
  9
$DIMTSZ
 40
0.0
  9
$DIMTOL
 70
     0
  9
$DIMLIM
 70
     0
  9
$DIMTIH
 70
     0
  9
$DIMTOH
 70
     0
  9
$DIMSE1
 70
     0
  9
$DIMSE2
 70
     0
  9
$DIMTAD
 70
     1
  9
$DIMZIN
 70
    12
  9
$DIMBLK
  1
OPEN
  9
$DIMASO
 70
     1
  9
$DIMSHO
 70
     1
  9
$DIMPOST
  1

  9
$DIMAPOST
  1

  9
$DIMALT
 70
     0
  9
$DIMALTD
 70
     2
  9
$DIMALTF
 40
25.4
  9
$DIMLFAC
 40
1.0
  9
$DIMTOFL
 70
     0
  9
$DIMTVP
 40
0.0
  9
$DIMTIX
 70
     0
  9
$DIMSOXD
 70
     0
  9
$DIMSAH
 70
     0
  9
$DIMBLK1
  1

  9
$DIMBLK2
  1

  9
$DIMSTYLE
  2
STANDARD
  9
$DIMCLRD
 70
   256
  9
$DIMCLRE
 70
     0
  9
$DIMCLRT
 70
   256
  9
$DIMTFAC
 40
1.0
  9
$DIMGAP
 40
3.0
  9
$DIMJUST
 70
     0
  9
$DIMSD1
 70
     0
  9
$DIMSD2
 70
     0
  9
$DIMTOLJ
 70
     1
  9
$DIMTZIN
 70
     0
  9
$DIMALTZ
 70
     0
  9
$DIMALTTZ
 70
     0
  9
$DIMUPT
 70
     0
  9
$DIMDEC
 70
     1
  9
$DIMTDEC
 70
     1
  9
$DIMALTU
 70
     2
  9
$DIMALTTD
 70
     2
  9
$DIMTXSTY
  7
STANDARD
  9
$DIMAUNIT
 70
     0
  9
$DIMADEC
 70
     0
  9
$DIMALTRND
 40
0.0
  9
$DIMAZIN
 70
     0
  9
$DIMDSEP
 70
    46
  9
$DIMATFIT
 70
     3
  9
$DIMFRAC
 70
     0
  9
$DIMLDRBLK
  1
OPEN
  9
$DIMLUNIT
 70
     2
  9
$DIMLWD
 70
    -2
  9
$DIMLWE
 70
    -2
  9
$DIMTMOVE
 70
     0
  9
$DIMFXL
 40
1.0
  9
$DIMFXLON
 70
     0
  9
$DIMJOGANG
 40
0.7853981633974483
  9
$DIMTFILL
 70
     1
  9
$DIMTFILLCLR
 70
     0
  9
$DIMARCSYM
 70
     0
  9
$DIMLTYPE
  6
BYLAYER
  9
$DIMLTEX1
  6

  9
$DIMLTEX2
  6

  9
$DIMTXTDIRECTION
 70
     0
  9
$LUNITS
 70
     2
  9
$LUPREC
 70
     8
  9
$SKETCHINC
 40
0.1
  9
$FILLETRAD
 40
0.0
  9
$AUNITS
 70
     0
  9
$AUPREC
 70
     0
  9
$MENU
  1
.
  9
$ELEVATION
 40
0.0
  9
$PELEVATION
 40
0.0
  9
$THICKNESS
 40
0.0
  9
$LIMCHECK
 70
     0
  9
$CHAMFERA
 40
0.0
  9
$CHAMFERB
 40
0.0
  9
$CHAMFERC
 40
0.0
  9
$CHAMFERD
 40
0.0
  9
$SKPOLY
 70
     0
  9
$TDCREATE
 40
2452286.555658658
  9
$TDUCREATE
 40
2452286.180658658
  9
$TDUPDATE
 40
2459243.626447384
  9
$TDUUPDATE
 40
2459243.251447384
  9
$TDINDWG
 40
2.5936986690
  9
$TDUSRTIMER
 40
2.5936949769
  9
$USRTIMER
 70
     1
  9
$ANGBASE
 50
0.0
  9
$ANGDIR
 70
     0
  9
$PDMODE
 70
     0
  9
$PDSIZE
 40
0.0
  9
$PLINEWID
 40
0.0
  9
$SPLFRAME
 70
     0
  9
$SPLINETYPE
 70
     6
  9
$SPLINESEGS
 70
     8
  9
$HANDSEED
  5
41D2A
  9
$SURFTAB1
 70
     6
  9
$SURFTAB2
 70
     6
  9
$SURFTYPE
 70
     6
  9
$SURFU
 70
     6
  9
$SURFV
 70
     6
  9
$UCSBASE
  2

  9
$UCSNAME
  2

  9
$UCSORG
 10
0.0
 20
0.0
 30
0.0
  9
$UCSXDIR
 10
1.0
 20
0.0
 30
0.0
  9
$UCSYDIR
 10
0.0
 20
1.0
 30
0.0
  9
$UCSORTHOREF
  2

  9
$UCSORTHOVIEW
 70
     0
  9
$UCSORGTOP
 10
0.0
 20
0.0
 30
0.0
  9
$UCSORGBOTTOM
 10
0.0
 20
0.0
 30
0.0
  9
$UCSORGLEFT
 10
0.0
 20
0.0
 30
0.0
  9
$UCSORGRIGHT
 10
0.0
 20
0.0
 30
0.0
  9
$UCSORGFRONT
 10
0.0
 20
0.0
 30
0.0
  9
$UCSORGBACK
 10
0.0
 20
0.0
 30
0.0
  9
$PUCSBASE
  2

  9
$PUCSNAME
  2

  9
$PUCSORG
 10
0.0
 20
0.0
 30
0.0
  9
$PUCSXDIR
 10
1.0
 20
0.0
 30
0.0
  9
$PUCSYDIR
 10
0.0
 20
1.0
 30
0.0
  9
$PUCSORTHOREF
  2

  9
$PUCSORTHOVIEW
 70
     0
  9
$PUCSORGTOP
 10
0.0
 20
0.0
 30
0.0
  9
$PUCSORGBOTTOM
 10
0.0
 20
0.0
 30
0.0
  9
$PUCSORGLEFT
 10
0.0
 20
0.0
 30
0.0
  9
$PUCSORGRIGHT
 10
0.0
 20
0.0
 30
0.0
  9
$PUCSORGFRONT
 10
0.0
 20
0.0
 30
0.0
  9
$PUCSORGBACK
 10
0.0
 20
0.0
 30
0.0
  9
$USERI1
 70
     0
  9
$USERI2
 70
     0
  9
$USERI3
 70
     0
  9
$USERI4
 70
     0
  9
$USERI5
 70
     0
  9
$USERR1
 40
0.0
  9
$USERR2
 40
0.0
  9
$USERR3
 40
0.0
  9
$USERR4
 40
0.0
  9
$USERR5
 40
0.0
  9
$WORLDVIEW
 70
     1
  9
$SHADEDGE
 70
     3
  9
$SHADEDIF
 70
    70
  9
$TILEMODE
 70
     1
  9
$MAXACTVP
 70
    48
  9
$PINSBASE
 10
0.0
 20
0.0
 30
0.0
  9
$PLIMCHECK
 70
     0
  9
$PEXTMIN
 10
0.0
 20
0.0
 30
0.0
  9
$PEXTMAX
 10
0.0
 20
0.0
 30
0.0
  9
$PLIMMIN
 10
-0.2500002402958907
 20
-0.2499999962453767
  9
$PLIMMAX
 10
10.74999951940822
 20
8.249999763458731
  9
$UNITMODE
 70
     0
  9
$VISRETAIN
 70
     1
  9
$PLINEGEN
 70
     0
  9
$PSLTSCALE
 70
     1
  9
$TREEDEPTH
 70
  3020
  9
$CMLSTYLE
  2
STANDARD
  9
$CMLJUST
 70
     0
  9
$CMLSCALE
 40
1.0
  9
$PROXYGRAPHICS
 70
     1
  9
$MEASUREMENT
 70
     0
  9
$CELWEIGHT
370
    -1
  9
$ENDCAPS
280
     0
  9
$JOINSTYLE
280
     0
  9
$LWDISPLAY
290
     0
  9
$INSUNITS
 70
     0
  9
$HYPERLINKBASE
  1

  9
$STYLESHEET
  1
MONOCHROME.CTB
  9
$XEDIT
290
     1
  9
$CEPSNTYPE
380
     0
  9
$PSTYLEMODE
290
     1
  9
$FINGERPRINTGUID
  2

  9
$VERSIONGUID
  2
{DFA5339D-B2B6-4E18-B997-A4806661F328}
  9
$EXTNAMES
290
     1
  9
$PSVPSCALE
 40
0.0
  9
$OLESTARTUP
290
     0
  9
$SORTENTS
280
   127
  9
$INDEXCTL
280
     0
  9
$HIDETEXT
280
     0
  9
$XCLIPFRAME
280
     2
  9
$HALOGAP
280
     0
  9
$OBSCOLOR
 70
   257
  9
$OBSLTYPE
280
     0
  9
$INTERSECTIONDISPLAY
280
     0
  9
$INTERSECTIONCOLOR
 70
   257
  9
$DIMASSOC
280
     1
  9
$PROJECTNAME
  1

  9
$CAMERADISPLAY
290
     0
  9
$LENSLENGTH
 40
50.0
  9
$CAMERAHEIGHT
 40
0.0
  9
$STEPSPERSEC
 40
2.0
  9
$STEPSIZE
 40
6.0
  9
$3DDWFPREC
 40
2.0
  9
$PSOLWIDTH
 40
0.25
  9
$PSOLHEIGHT
 40
4.0
  9
$LOFTANG1
 40
1.570796326794896
  9
$LOFTANG2
 40
1.570796326794896
  9
$LOFTMAG1
 40
0.0
  9
$LOFTMAG2
 40
0.0
  9
$LOFTPARAM
 70
     7
  9
$LOFTNORMALS
280
     1
  9
$LATITUDE
 40
37.795
  9
$LONGITUDE
 40
-122.394
  9
$NORTHDIRECTION
 40
0.0
  9
$TIMEZONE
 70
 -8000
  9
$LIGHTGLYPHDISPLAY
280
     1
  9
$TILEMODELIGHTSYNCH
280
     1
  9
$CMATERIAL
347
E4BC
  9
$SOLIDHIST
280
     1
  9
$SHOWHIST
280
     1
  9
$DWFFRAME
280
     2
  9
$DGNFRAME
280
     0
  9
$REALWORLDSCALE
290
     1
  9
$INTERFERECOLOR
 62
     1
  9
$INTERFEREOBJVS
345
E4DE
  9
$INTERFEREVPVS
346
E4DB
  9
$CSHADOW
280
     0
  9
$SHADOWPLANELOCATION
 40
0.0
  0
ENDSEC
  0
SECTION
  2
CLASSES
  0
CLASS
  1
ACDBDICTIONARYWDFLT
  2
AcDbDictionaryWithDefault
  3
ObjectDBX Classes
 90
        0
 91
        1
280
     0
281
     0
  0
CLASS
  1
DICTIONARYVAR
  2
AcDbDictionaryVar
  3
ObjectDBX Classes
 90
        0
 91
       12
280
     0
281
     0
  0
CLASS
  1
MATERIAL
  2
AcDbMaterial
  3
ObjectDBX Classes
 90
     1153
 91
        3
280
     0
281
     0
  0
CLASS
  1
VISUALSTYLE
  2
AcDbVisualStyle
  3
ObjectDBX Classes
 90
     4095
 91
       26
280
     0
281
     0
  0
CLASS
  1
TABLESTYLE
  2
AcDbTableStyle
  3
ObjectDBX Classes
 90
     4095
 91
        1
280
     0
281
     0
  0
CLASS
  1
SCALE
  2
AcDbScale
  3
ObjectDBX Classes
 90
     1153
 91
       33
280
     0
281
     0
  0
CLASS
  1
MLEADERSTYLE
  2
AcDbMLeaderStyle
  3
ACDB_MLEADERSTYLE_CLASS
 90
     4095
 91
        1
280
     0
281
     0
  0
CLASS
  1
CELLSTYLEMAP
  2
AcDbCellStyleMap
  3
ObjectDBX Classes
 90
     1152
 91
        4
280
     0
281
     0
  0
CLASS
  1
AEC_REFEDIT_STATUS_TRACKER
  2
AecDbRefEditStatusTracker
  3
AecArchBase70|Product Desc: Autodesk Architectural Desktop 2007 |Company: Autodesk,Inc. |WEB Address: www.autodesk.com
 90
      129
 91
        0
280
     0
281
     0
  0
CLASS
  1
NPOCOLLECTION
  2
AcDbImpNonPersistentObjectsCollection
  3
ObjectDBX Classes
 90
     1153
 91
        0
280
     0
281
     0
  0
CLASS
  1
SORTENTSTABLE
  2
AcDbSortentsTable
  3
ObjectDBX Classes
 90
        0
 91
        3
280
     0
281
     0
  0
CLASS
  1
ACDBSECTIONVIEWSTYLE
  2
AcDbSectionViewStyle
  3
ObjectDBX Classes
 90
     1025
 91
        1
280
     0
281
     0
  0
CLASS
  1
ACDBDETAILVIEWSTYLE
  2
AcDbDetailViewStyle
  3
ObjectDBX Classes
 90
     1025
 91
        1
280
     0
281
     0
  0
ENDSEC
  0
SECTION
  2
TABLES
  0
TABLE
  2
VPORT
  5
8
330
0
100
AcDbSymbolTable
 70
     1
  0
VPORT
  5
12C00
330
8
100
AcDbSymbolTableRecord
100
AcDbViewportTableRecord
  2
*Active
 70
     0
 10
0.0
 20
0.0
 11
1.0
 21
1.0
 12
315.0509576240903
 22
445.5055284051987
 13
0.0
 23
0.0
 14
1.0
 24
1.0
 15
10.0
 25
10.0
 16
0.0
 26
0.0
 36
1.0
 17
0.0
 27
0.0
 37
0.0
 40
899.3568908220545
 41
2.880121396054628
 42
50.0
 43
0.0
 44
0.0
 50
0.0
 51
0.0
 71
     0
 72
   100
 73
     1
 74
     1
 75
     0
 76
     0
 77
     0
 78
     1
281
     0
 65
     1
110
0.0
120
0.0
130
0.0
111
1.0
121
0.0
131
0.0
112
0.0
122
1.0
132
0.0
 79
     0
146
0.0
348
E4DA
 60
     3
 61
     5
292
     1
282
     1
141
0.0
142
0.0
 63
   250
421
  3355443
1001
ACAD_NAV_VCDISPLAY
1070
     3
  0
ENDTAB
  0
TABLE
  2
LTYPE
  5
5
330
0
100
AcDbSymbolTable
 70
     9
  0
LTYPE
  5
13
330
5
100
AcDbSymbolTableRecord
100
AcDbLinetypeTableRecord
  2
BYBLOCK
 70
     0
  3

 72
    65
 73
     0
 40
0.0
  0
LTYPE
  5
14
330
5
100
AcDbSymbolTableRecord
100
AcDbLinetypeTableRecord
  2
BYLAYER
 70
     0
  3

 72
    65
 73
     0
 40
0.0
  0
LTYPE
  5
15
330
5
100
AcDbSymbolTableRecord
100
AcDbLinetypeTableRecord
  2
CONTINUOUS
 70
     0
  3
Solid line
 72
    65
 73
     0
 40
0.0
  0
LTYPE
  5
22
330
5
100
AcDbSymbolTableRecord
100
AcDbLinetypeTableRecord
  2
CONTINOUS
 70
     0
  3
Solid line
 72
    65
 73
     0
 40
0.0
  0
LTYPE
  5
24
330
5
100
AcDbSymbolTableRecord
100
AcDbLinetypeTableRecord
  2
DASHDOT
 70
     0
  3
__ . __ . __ . __ . __ . __ . __ . __ . __ . __
 72
    65
 73
     4
 40
1.0
 49
0.5
 74
     0
 49
-0.25
 74
     0
 49
0.0
 74
     0
 49
-0.25
 74
     0
  0
LTYPE
  5
4C47
330
5
100
AcDbSymbolTableRecord
100
AcDbLinetypeTableRecord
  2
DIVIDE
 70
     0
  3
Divide ____ . . ____ . . ____ . . ____ . . ____
 72
    65
 73
     6
 40
1.25
 49
0.5
 74
     0
 49
-0.25
 74
     0
 49
0.0
 74
     0
 49
-0.25
 74
     0
 49
0.0
 74
     0
 49
-0.25
 74
     0
  0
LTYPE
  5
685F
330
5
100
AcDbSymbolTableRecord
100
AcDbLinetypeTableRecord
  2
PHANTOM
 70
     0
  3
Phantom ______  __  __  ______  __  __  ______
 72
    65
 73
     6
 40
2.5
 49
1.25
 74
     0
 49
-0.25
 74
     0
 49
0.25
 74
     0
 49
-0.25
 74
     0
 49
0.25
 74
     0
 49
-0.25
 74
     0
  0
LTYPE
  5
1F2BD
330
5
100
AcDbSymbolTableRecord
100
AcDbLinetypeTableRecord
  2
SLD-実線
 70
     0
  3
SolidWorks Line Style
 72
    65
 73
     0
 40
0.0
  0
LTYPE
  5
3ACB9
330
5
100
AcDbSymbolTableRecord
100
AcDbLinetypeTableRecord
  2
SLD-2点鎖線
 70
     0
  3
SolidWorks Line Style
 72
    65
 73
     6
 40
12.7
 49
6.349999999999997
 74
     0
 49
-1.27
 74
     0
 49
1.27
 74
     0
 49
-1.27
 74
     0
 49
1.27
 74
     0
 49
-1.27
 74
     0
  0
LTYPE
  5
3ACBA
330
5
100
AcDbSymbolTableRecord
100
AcDbLinetypeTableRecord
  2
SLD-鎖線
 70
     0
  3
SolidWorks Line Style
 72
    65
 73
     4
 40
10.16
 49
6.349999999999997
 74
     0
 49
-1.27
 74
     0
 49
1.27
 74
     0
 49
-1.27
 74
     0
  0
LTYPE
  5
3CA68
330
5
100
AcDbSymbolTableRecord
100
AcDbLinetypeTableRecord
  2
HIDDEN
 70
     0
  3
Hidden __ __ __ __ __ __ __ __ __ __ __ __ __ __
 72
    65
 73
     2
 40
0.375
 49
0.25
 74
     0
 49
-0.125
 74
     0
  0
ENDTAB
  0
TABLE
  2
LAYER
  5
2
102
{ACAD_XDICTIONARY
360
12DA0
102
}
330
0
100
AcDbSymbolTable
 70
    17
  0
LAYER
  5
10
102
{ACAD_XDICTIONARY
360
E512
102
}
330
2
100
AcDbSymbolTableRecord
100
AcDbLayerTableRecord
  2
0
 70
     0
 62
     7
  6
CONTINOUS
370
    -3
390
F
347
E4CC
348
0
  0
LAYER
  5
2F
102
{ACAD_XDICTIONARY
360
E514
102
}
330
2
100
AcDbSymbolTableRecord
100
AcDbLayerTableRecord
  2
10
 70
     0
 62
     4
  6
CONTINOUS
370
    -3
390
F
347
E4CC
348
0
  0
LAYER
  5
35
102
{ACAD_XDICTIONARY
360
E518
102
}
330
2
100
AcDbSymbolTableRecord
100
AcDbLayerTableRecord
  2
16
 70
     0
 62
     6
  6
DASHDOT
370
    -3
390
F
347
E4CC
348
0
  0
LAYER
  5
3D
102
{ACAD_XDICTIONARY
360
E51C
102
}
330
2
100
AcDbSymbolTableRecord
100
AcDbLayerTableRecord
  2
24
 70
     0
 62
     7
  6
CONTINOUS
370
    -3
390
F
347
E4CC
348
0
  0
LAYER
  5
3A2
102
{ACAD_XDICTIONARY
360
E51E
102
}
330
2
100
AcDbSymbolTableRecord
100
AcDbLayerTableRecord
  2
30
 70
     0
 62
     9
  6
CONTINUOUS
370
    -3
390
F
347
E4CC
348
0
  0
LAYER
  5
3A4
330
2
100
AcDbSymbolTableRecord
100
AcDbLayerTableRecord
  2
DEFPOINTS
 70
     0
 62
     7
  6
CONTINUOUS
290
     0
370
    -3
390
F
347
E4CC
348
0
  0
LAYER
  5
3BBA
102
{ACAD_XDICTIONARY
360
E520
102
}
330
2
100
AcDbSymbolTableRecord
100
AcDbLayerTableRecord
  2
18
 70
     0
 62
     5
  6
DIVIDE
370
    -3
390
F
347
E4CC
348
0
  0
LAYER
  5
67A8
102
{ACAD_XDICTIONARY
360
E522
102
}
330
2
100
AcDbSymbolTableRecord
100
AcDbLayerTableRecord
  2
11
 70
     0
 62
    11
  6
CONTINOUS
370
    -3
390
F
347
E4CC
348
0
  0
LAYER
  5
7837
102
{ACAD_XDICTIONARY
360
E524
102
}
330
2
100
AcDbSymbolTableRecord
100
AcDbLayerTableRecord
  2
17
 70
     0
 62
     2
  6
DASHDOT
370
    -3
390
F
347
E4CC
348
0
  0
LAYER
  5
C501
102
{ACAD_XDICTIONARY
360
E530
102
}
330
2
100
AcDbSymbolTableRecord
100
AcDbLayerTableRecord
  2
5
 70
     0
 62
     7
  6
CONTINUOUS
370
    -3
390
F
347
E4CC
348
0
  0
LAYER
  5
E473
102
{ACAD_XDICTIONARY
360
E534
102
}
330
2
100
AcDbSymbolTableRecord
100
AcDbLayerTableRecord
  2
130
 70
     0
 62
     4
  6
CONTINUOUS
370
    -3
390
F
347
E4CC
348
0
  0
LAYER
  5
1106A
102
{ACAD_XDICTIONARY
360
1106B
102
}
330
2
100
AcDbSymbolTableRecord
100
AcDbLayerTableRecord
  2
131
 70
     0
 62
     4
  6
PHANTOM
370
    -3
390
F
347
E4CC
348
0
  0
LAYER
  5
38289
102
{ACAD_XDICTIONARY
360
3828A
102
}
330
2
100
AcDbSymbolTableRecord
100
AcDbLayerTableRecord
  2
240
 70
     0
 62
     7
  6
CONTINUOUS
370
    -3
390
F
347
E4CC
348
0
  0
LAYER
  5
3ACBB
102
{ACAD_XDICTIONARY
360
3ACBC
102
}
330
2
100
AcDbSymbolTableRecord
100
AcDbLayerTableRecord
  2
13
 70
     0
 62
     3
  6
CONTINUOUS
370
    -3
390
F
347
E4CC
348
0
  0
LAYER
  5
3ACBD
102
{ACAD_XDICTIONARY
360
3ACBE
102
}
330
2
100
AcDbSymbolTableRecord
100
AcDbLayerTableRecord
  2
SLD-0
 70
     0
 62
     7
  6
SLD-実線
370
    -3
390
F
347
E4CC
348
0
  0
LAYER
  5
41C8B
330
2
100
AcDbSymbolTableRecord
100
AcDbLayerTableRecord
  2
12
 70
     0
 62
     3
  6
CONTINOUS
370
    -3
390
F
347
E4CC
348
0
1001
AcAecLayerStandard
1000

1000

1001
AcCmTransparency
1071
        0
  0
LAYER
  5
41C8E
330
2
100
AcDbSymbolTableRecord
100
AcDbLayerTableRecord
  2
19
 70
     0
 62
     7
  6
CONTINOUS
370
    -3
390
F
347
E4CC
348
0
1001
AcAecLayerStandard
1000

1000

1001
AcCmTransparency
1071
        0
  0
ENDTAB
  0
TABLE
  2
STYLE
  5
3
330
0
100
AcDbSymbolTable
 70
     2
  0
STYLE
  5
11
330
3
100
AcDbSymbolTableRecord
100
AcDbTextStyleTableRecord
  2
STANDARD
 70
     0
 40
0.0
 41
1.0
 50
0.0
 71
     0
 42
2.0
  3
txt.shx
  4
bigfont.shx
  0
STYLE
  5
C503
330
3
100
AcDbSymbolTableRecord
100
AcDbTextStyleTableRecord
  2
blockfont
 70
     0
 40
0.0
 41
1.0
 50
0.0
 71
     0
 42
0.2
  3
simplex.shx
  4
bigfont
  0
ENDTAB
  0
TABLE
  2
VIEW
  5
6
330
0
100
AcDbSymbolTable
 70
     5
  0
VIEW
  5
230C
330
6
100
AcDbSymbolTableRecord
100
AcDbViewTableRecord
  2
OLE1
 70
     0
 40
148.912488
 10
429.497628
 20
2.560627
 41
103.145806
 11
0.0
 21
0.0
 31
1.0
 12
0.0
 22
0.0
 32
0.0
 42
50.0
 43
0.0
 44
0.0
 50
0.0
 71
     0
281
     0
 72
     0
 73
     0
348
E4DA
  0
VIEW
  5
230E
330
6
100
AcDbSymbolTableRecord
100
AcDbViewTableRecord
  2
OLE2
 70
     0
 40
170.778692
 10
322.66497
 20
-5.978304
 41
102.467215
 11
0.0
 21
0.0
 31
1.0
 12
0.0
 22
0.0
 32
0.0
 42
50.0
 43
0.0
 44
0.0
 50
0.0
 71
     0
281
     0
 72
     0
 73
     0
348
E4DA
  0
VIEW
  5
23AA
330
6
100
AcDbSymbolTableRecord
100
AcDbViewTableRecord
  2
OLE3
 70
     0
 40
591.7897389999998
 10
84.79698199999999
 20
-46.09335999999998
 41
388.792096
 11
0.0
 21
0.0
 31
1.0
 12
0.0
 22
0.0
 32
0.0
 42
50.0
 43
0.0
 44
0.0
 50
0.0
 71
     0
281
     0
 72
     0
 73
     0
348
E4DA
  0
ENDTAB
  0
TABLE
  2
UCS
  5
7
330
0
100
AcDbSymbolTable
 70
     0
  0
ENDTAB
  0
TABLE
  2
APPID
  5
9
330
0
100
AcDbSymbolTable
 70
    12
  0
APPID
  5
12
330
9
100
AcDbSymbolTableRecord
100
AcDbRegAppTableRecord
  2
ACAD
 70
     0
  0
APPID
  5
ECD
330
9
100
AcDbSymbolTableRecord
100
AcDbRegAppTableRecord
  2
CONTENTBLOCKICON
 70
     0
  0
APPID
  5
E582
330
9
100
AcDbSymbolTableRecord
100
AcDbRegAppTableRecord
  2
DCO15
 70
     0
  0
APPID
  5
F8B0
330
9
100
AcDbSymbolTableRecord
100
AcDbRegAppTableRecord
  2
ACAD_MLEADERVER
 70
     0
  0
APPID
  5
F8D5
330
9
100
AcDbSymbolTableRecord
100
AcDbRegAppTableRecord
  2
ACAD_PSEXT
 70
     0
  0
APPID
  5
F997
330
9
100
AcDbSymbolTableRecord
100
AcDbRegAppTableRecord
  2
ACAD_EXEMPT_FROM_CAD_STANDARDS
 70
     0
  0
APPID
  5
1F2D1
330
9
100
AcDbSymbolTableRecord
100
AcDbRegAppTableRecord
  2
ACAD_DSTYLE_DIMJAG
 70
     0
  0
APPID
  5
1F2D2
330
9
100
AcDbSymbolTableRecord
100
AcDbRegAppTableRecord
  2
ACAD_DSTYLE_DIMTALN
 70
     0
  0
APPID
  5
3EE52
330
9
100
AcDbSymbolTableRecord
100
AcDbRegAppTableRecord
  2
ACAD_NAV_VCDISPLAY
 70
     0
  0
APPID
  5
3F34C
330
9
100
AcDbSymbolTableRecord
100
AcDbRegAppTableRecord
  2
ACAD_DSTYLE_DIMBREAK
 70
     0
  0
APPID
  5
41C8C
330
9
100
AcDbSymbolTableRecord
100
AcDbRegAppTableRecord
  2
AcAecLayerStandard
 70
     0
  0
APPID
  5
41C8D
330
9
100
AcDbSymbolTableRecord
100
AcDbRegAppTableRecord
  2
AcCmTransparency
 70
     0
  0
ENDTAB
  0
TABLE
  2
DIMSTYLE
  5
A
330
0
100
AcDbSymbolTable
 70
     3
100
AcDbDimStyleTable
 71
     2
340
175
340
C24A
  0
DIMSTYLE
105
175
102
{ACAD_REACTORS
330
3AE18
330
3AE36
330
3ADFC
330
3ADFE
330
3D662
330
3D666
330
3D667
330
3D66B
330
3D66C
330
3D66E
330
3ADFD
330
3AE01
330
3AEAE
330
41AB4
330
41BBD
330
41C1C
330
41CC8
102
}
330
A
100
AcDbSymbolTableRecord
100
AcDbDimStyleTableRecord
  2
STANDARD
 70
     0
 41
3.0
 42
1.0
 43
0.5
 44
0.5
 69
     1
 73
     0
 74
     0
 77
     1
 78
    12
140
7.0
147
3.0
176
   256
178
   256
271
     1
272
     1
340
11
341
3B2
342
3B2
345
14
1001
ACAD_DSTYLE_DIMJAG
1070
   388
1040
1.5
1001
ACAD_DSTYLE_DIMTALN
1070
   392
1070
     0
  0
DIMSTYLE
105
C24A
102
{ACAD_REACTORS
330
3AE24
330
3AE25
330
3AE8A
330
3AE8B
330
3AE1A
330
3AE1B
330
3AE38
330
3AE42
330
3D66D
330
3AE94
330
3AE97
330
3AE96
330
3AE95
330
41CC9
330
41CCA
102
}
330
A
100
AcDbSymbolTableRecord
100
AcDbDimStyleTableRecord
  2
STANDARD1
 70
     0
 41
2.0
 42
3.0
 43
0.5
 44
0.5
 77
     3
 78
    12
140
7.0
147
2.0
172
     1
271
     1
272
     1
289
     2
340
11
341
3B2
342
3B2
1001
ACAD_DSTYLE_DIMJAG
1070
   388
1040
1.5
1001
ACAD_DSTYLE_DIMTALN
1070
   392
1070
     0
  0
DIMSTYLE
105
3ACBF
330
A
100
AcDbSymbolTableRecord
100
AcDbDimStyleTableRecord
  2
SLDDIMSTYLE6
 70
     0
 41
2.0
 44
0.0
 45
0.000000001
146
2.0
147
0.0
173
     1
271
     0
272
     0
276
     2
340
11
  0
ENDTAB
  0
TABLE
  2
BLOCK_RECORD
  5
1
330
0
100
AcDbSymbolTable
 70
    46
  0
BLOCK_RECORD
  5
1E
102
{ACAD_XDICTIONARY
360
178
102
}
330
1
100
AcDbSymbolTableRecord
100
AcDbBlockTableRecord
  2
*MODEL_SPACE
340
904E
 70
     0
280
     1
281
     0
  0
BLOCK_RECORD
  5
1A
102
{ACAD_XDICTIONARY
360
17A
102
}
330
1
100
AcDbSymbolTableRecord
100
AcDbBlockTableRecord
  2
*PAPER_SPACE
340
904F
 70
     0
280
     1
281
     0
  0
BLOCK_RECORD
  5
3B2
330
1
100
AcDbSymbolTableRecord
100
AcDbBlockTableRecord
  2
_OPEN
340
0
102
{BLKREFS
331
41C95
331
41C96
331
41CA1
331
41CA2
331
41CAD
331
41CAE
331
41BB8
331
41BA5
331
41BA6
331
41BB7
331
41BE8
331
41BE9
331
418BA
331
418BB
331
418CE
331
418CF
331
418D7
331
418D8
331
418E0
331
418E1
331
418E9
331
418EA
331
418FB
331
418FC
331
4190D
331
4190E
331
41928
331
41929
331
41977
331
41978
331
41980
331
41981
331
41C23
331
41C24
331
41ADF
331
41AE0
331
41B11
331
41B12
331
41B1C
331
41B1D
331
41B25
331
41B26
331
41B2E
331
41B2F
331
41B37
331
41B38
331
4181A
331
4181B
331
4183F
331
41840
331
41848
331
41849
331
41863
331
4186B
331
4186C
331
4187C
331
4187D
331
41885
331
41886
331
41897
331
418A8
331
418A9
331
418B1
331
418B2
331
41C67
331
41C68
331
41C70
331
41C71
331
41C79
331
41C7A
331
41CF5
331
41CF6
331
41CFE
331
41CFF
331
41D07
331
41D08
102
}
 70
     0
280
     1
281
     0
  0
BLOCK_RECORD
  5
3AAB3
330
1
100
AcDbSymbolTableRecord
100
AcDbBlockTableRecord
  2
_DOT
340
0
102
{BLKREFS
331
3AE92
102
}
 70
     0
280
     1
281
     0
  0
BLOCK_RECORD
  5
3AABB
330
1
100
AcDbSymbolTableRecord
100
AcDbBlockTableRecord
  2
SW_CENTERMARKSYMBOL_20
340
0
102
{BLKREFS
331
41CCB
102
}
 70
     0
280
     1
281
     0
  0
BLOCK_RECORD
  5
3AAC6
330
1
100
AcDbSymbolTableRecord
100
AcDbBlockTableRecord
  2
SW_CENTERMARKSYMBOL_54
340
0
102
{BLKREFS
331
3AEAB
331
3AE27
102
}
 70
     0
280
     1
281
     0
  0
BLOCK_RECORD
  5
3AAD1
330
1
100
AcDbSymbolTableRecord
100
AcDbBlockTableRecord
  2
SW_CENTERMARKSYMBOL_55
340
0
102
{BLKREFS
331
3AEAC
331
3AE28
102
}
 70
     0
280
     1
281
     0
  0
BLOCK_RECORD
  5
3AADC
102
{ACAD_XDICTIONARY
360
3AADD
102
}
330
1
100
AcDbSymbolTableRecord
100
AcDbBlockTableRecord
  2
m5screw1
340
0
102
{BLKREFS
331
3D660
331
3D661
102
}
 70
     0
280
     1
281
     0
  0
BLOCK_RECORD
  5
3AEF8
330
1
100
AcDbSymbolTableRecord
100
AcDbBlockTableRecord
  2
*D6
340
0
 70
     0
280
     1
281
     0
  0
BLOCK_RECORD
  5
3AF04
330
1
100
AcDbSymbolTableRecord
100
AcDbBlockTableRecord
  2
*D7
340
0
 70
     0
280
     1
281
     0
  0
BLOCK_RECORD
  5
3AF10
330
1
100
AcDbSymbolTableRecord
100
AcDbBlockTableRecord
  2
*D8
340
0
 70
     0
280
     1
281
     0
  0
BLOCK_RECORD
  5
3AF34
330
1
100
AcDbSymbolTableRecord
100
AcDbBlockTableRecord
  2
*D9
340
0
 70
     0
280
     1
281
     0
  0
BLOCK_RECORD
  5
3AF41
330
1
100
AcDbSymbolTableRecord
100
AcDbBlockTableRecord
  2
*D10
340
0
 70
     0
280
     1
281
     0
  0
BLOCK_RECORD
  5
3AF59
330
1
100
AcDbSymbolTableRecord
100
AcDbBlockTableRecord
  2
*D11
340
0
 70
     0
280
     1
281
     0
  0
BLOCK_RECORD
  5
3AF65
330
1
100
AcDbSymbolTableRecord
100
AcDbBlockTableRecord
  2
*D12
340
0
 70
     0
280
     1
281
     0
  0
BLOCK_RECORD
  5
3AF6F
330
1
100
AcDbSymbolTableRecord
100
AcDbBlockTableRecord
  2
*D13
340
0
 70
     0
280
     1
281
     0
  0
BLOCK_RECORD
  5
3AF7B
330
1
100
AcDbSymbolTableRecord
100
AcDbBlockTableRecord
  2
*D14
340
0
 70
     0
280
     1
281
     0
  0
BLOCK_RECORD
  5
3AF87
330
1
100
AcDbSymbolTableRecord
100
AcDbBlockTableRecord
  2
*D15
340
0
 70
     0
280
     1
281
     0
  0
BLOCK_RECORD
  5
3AF93
330
1
100
AcDbSymbolTableRecord
100
AcDbBlockTableRecord
  2
*D16
340
0
 70
     0
280
     1
281
     0
  0
BLOCK_RECORD
  5
3AFAB
330
1
100
AcDbSymbolTableRecord
100
AcDbBlockTableRecord
  2
*D17
340
0
 70
     0
280
     1
281
     0
  0
BLOCK_RECORD
  5
3AFB5
330
1
100
AcDbSymbolTableRecord
100
AcDbBlockTableRecord
  2
*D18
340
0
 70
     0
280
     1
281
     0
  0
BLOCK_RECORD
  5
3AFC1
330
1
100
AcDbSymbolTableRecord
100
AcDbBlockTableRecord
  2
*D19
340
0
 70
     0
280
     1
281
     0
  0
BLOCK_RECORD
  5
3AFCF
330
1
100
AcDbSymbolTableRecord
100
AcDbBlockTableRecord
  2
*D20
340
0
 70
     0
280
     1
281
     0
  0
BLOCK_RECORD
  5
3AFDA
330
1
100
AcDbSymbolTableRecord
100
AcDbBlockTableRecord
  2
*D21
340
0
 70
     0
280
     1
281
     0
  0
BLOCK_RECORD
  5
3AFE7
330
1
100
AcDbSymbolTableRecord
100
AcDbBlockTableRecord
  2
*D22
340
0
 70
     0
280
     1
281
     0
  0
BLOCK_RECORD
  5
3AFF5
330
1
100
AcDbSymbolTableRecord
100
AcDbBlockTableRecord
  2
*D23
340
0
 70
     0
280
     1
281
     0
  0
BLOCK_RECORD
  5
3B001
330
1
100
AcDbSymbolTableRecord
100
AcDbBlockTableRecord
  2
*D24
340
0
 70
     0
280
     1
281
     0
  0
BLOCK_RECORD
  5
3B00D
330
1
100
AcDbSymbolTableRecord
100
AcDbBlockTableRecord
  2
*D25
340
0
 70
     0
280
     1
281
     0
  0
BLOCK_RECORD
  5
3B019
330
1
100
AcDbSymbolTableRecord
100
AcDbBlockTableRecord
  2
*D26
340
0
 70
     0
280
     1
281
     0
  0
BLOCK_RECORD
  5
3B055
330
1
100
AcDbSymbolTableRecord
100
AcDbBlockTableRecord
  2
*D27
340
0
 70
     0
280
     1
281
     0
  0
BLOCK_RECORD
  5
3B061
330
1
100
AcDbSymbolTableRecord
100
AcDbBlockTableRecord
  2
*D28
340
0
 70
     0
280
     1
281
     0
  0
BLOCK_RECORD
  5
3D67D
330
1
100
AcDbSymbolTableRecord
100
AcDbBlockTableRecord
  2
*D29
340
0
 70
     0
280
     1
281
     0
  0
BLOCK_RECORD
  5
3D689
330
1
100
AcDbSymbolTableRecord
100
AcDbBlockTableRecord
  2
*D30
340
0
 70
     0
280
     1
281
     0
  0
BLOCK_RECORD
  5
3D695
330
1
100
AcDbSymbolTableRecord
100
AcDbBlockTableRecord
  2
*D31
340
0
 70
     0
280
     1
281
     0
  0
BLOCK_RECORD
  5
3D6A1
330
1
100
AcDbSymbolTableRecord
100
AcDbBlockTableRecord
  2
*D32
340
0
 70
     0
280
     1
281
     0
  0
BLOCK_RECORD
  5
3D6AD
330
1
100
AcDbSymbolTableRecord
100
AcDbBlockTableRecord
  2
*D33
340
0
 70
     0
280
     1
281
     0
  0
BLOCK_RECORD
  5
3D6B9
330
1
100
AcDbSymbolTableRecord
100
AcDbBlockTableRecord
  2
*D34
340
0
 70
     0
280
     1
281
     0
  0
BLOCK_RECORD
  5
3D6C7
330
1
100
AcDbSymbolTableRecord
100
AcDbBlockTableRecord
  2
*D35
340
0
 70
     0
280
     1
281
     0
  0
BLOCK_RECORD
  5
41AB5
330
1
100
AcDbSymbolTableRecord
100
AcDbBlockTableRecord
  2
*D36
340
0
 70
     0
280
     1
281
     0
  0
BLOCK_RECORD
  5
41BBE
330
1
100
AcDbSymbolTableRecord
100
AcDbBlockTableRecord
  2
*D37
340
0
 70
     0
280
     1
281
     0
  0
BLOCK_RECORD
  5
41C1D
330
1
100
AcDbSymbolTableRecord
100
AcDbBlockTableRecord
  2
*D38
340
0
 70
     0
280
     1
281
     0
  0
BLOCK_RECORD
  5
41C8F
330
1
100
AcDbSymbolTableRecord
100
AcDbBlockTableRecord
  2
*D39
340
0
 70
     0
280
     1
281
     0
  0
BLOCK_RECORD
  5
41C9C
330
1
100
AcDbSymbolTableRecord
100
AcDbBlockTableRecord
  2
*D40
340
0
 70
     0
280
     1
281
     0
  0
BLOCK_RECORD
  5
41CA7
330
1
100
AcDbSymbolTableRecord
100
AcDbBlockTableRecord
  2
*D41
340
0
 70
     0
280
     1
281
     0
  0
BLOCK_RECORD
  5
41CCC
330
1
100
AcDbSymbolTableRecord
100
AcDbBlockTableRecord
  2
*D43
340
0
 70
     0
280
     1
281
     0
  0
BLOCK_RECORD
  5
41CD9
330
1
100
AcDbSymbolTableRecord
100
AcDbBlockTableRecord
  2
*D44
340
0
 70
     0
280
     1
281
     0
  0
BLOCK_RECORD
  5
41CE4
330
1
100
AcDbSymbolTableRecord
100
AcDbBlockTableRecord
  2
*D45
340
0
 70
     0
280
     1
281
     0
  0
ENDTAB
  0
ENDSEC
  0
SECTION
  2
BLOCKS
  0
BLOCK
  5
1F
330
1E
100
AcDbEntity
  8
0
100
AcDbBlockBegin
  2
*MODEL_SPACE
 70
     0
 10
0.0
 20
0.0
 30
0.0
  3
*MODEL_SPACE
  1

  0
ENDBLK
  5
20
330
1E
100
AcDbEntity
  8
0
100
AcDbBlockEnd
  0
BLOCK
  5
1B
330
1A
100
AcDbEntity
 67
     1
  8
0
100
AcDbBlockBegin
  2
*PAPER_SPACE
 70
     0
 10
0.0
 20
0.0
 30
0.0
  3
*PAPER_SPACE
  1

  0
ENDBLK
  5
1C
330
1A
100
AcDbEntity
 67
     1
  8
0
100
AcDbBlockEnd
  0
BLOCK
  5
3B6
330
3B2
100
AcDbEntity
  8
0
100
AcDbBlockBegin
  2
_OPEN
 70
     0
 10
0.0
 20
0.0
 30
0.0
  3
_OPEN
  1

  0
LINE
  5
3B3
330
3B2
100
AcDbEntity
  8
30
  6
Continuous
 62
     0
100
AcDbLine
 10
-1.0
 20
0.166667
 30
0.0
 11
0.0
 21
0.0
 31
0.0
  0
LINE
  5
3B4
330
3B2
100
AcDbEntity
  8
30
  6
Continuous
 62
     0
100
AcDbLine
 10
-1.0
 20
-0.166667
 30
0.0
 11
0.0
 21
0.0
 31
0.0
  0
LINE
  5
3B5
330
3B2
100
AcDbEntity
  8
30
  6
Continuous
 62
     0
100
AcDbLine
 10
0.0
 20
0.0
 30
0.0
 11
-1.0
 21
0.0
 31
0.0
  0
ENDBLK
  5
3B7
330
3B2
100
AcDbEntity
  8
0
100
AcDbBlockEnd
  0
BLOCK
  5
3AAB4
330
3AAB3
100
AcDbEntity
  8
0
100
AcDbBlockBegin
  2
_DOT
 70
     0
 10
0.0
 20
0.0
 30
0.0
  3
_DOT
  1
_DOT
  0
POLYLINE
  5
3AAB5
330
3AAB3
100
AcDbEntity
  8
0
  6
ByBlock
 62
     0
100
AcDb2dPolyline
 66
     1
 10
0.0
 20
0.0
 30
0.0
 70
     1
 40
0.5
 41
0.5
  0
VERTEX
  5
3AAB6
330
3AAB5
100
AcDbEntity
  8
0
  6
ByBlock
 62
     0
100
AcDbVertex
100
AcDb2dVertex
 10
-0.25
 20
0.0
 30
0.0
 42
1.0
  0
VERTEX
  5
3AAB7
330
3AAB5
100
AcDbEntity
  8
0
  6
ByBlock
 62
     0
100
AcDbVertex
100
AcDb2dVertex
 10
0.25
 20
0.0
 30
0.0
 42
1.0
  0
SEQEND
  5
3AAB8
330
3AAB5
100
AcDbEntity
  8
0
  6
ByBlock
 62
     0
  0
LINE
  5
3AAB9
330
3AAB3
100
AcDbEntity
  8
0
  6
ByBlock
 62
     0
370
    -2
100
AcDbLine
 10
-0.5
 20
0.0
 30
0.0
 11
-1.0
 21
0.0
 31
0.0
  0
ENDBLK
  5
3AABA
330
3AAB3
100
AcDbEntity
  8
0
100
AcDbBlockEnd
  0
BLOCK
  5
3AABC
330
3AABB
100
AcDbEntity
  8
0
100
AcDbBlockBegin
  2
SW_CENTERMARKSYMBOL_20
 70
     0
 10
0.0
 20
0.0
 30
0.0
  3
SW_CENTERMARKSYMBOL_20
  1
SW_CENTERMARKSYMBOL_20
  0
LINE
  5
3AABD
330
3AABB
100
AcDbEntity
  8
SLD-0
 62
     0
100
AcDbLine
 10
0.0
 20
0.0
 30
0.0
 11
0.0
 21
1.25
 31
0.0
  0
LINE
  5
3AABE
330
3AABB
100
AcDbEntity
  8
SLD-0
 62
     0
100
AcDbLine
 10
0.0
 20
0.0
 30
0.0
 11
-1.25
 21
0.0
 31
0.0
  0
LINE
  5
3AABF
330
3AABB
100
AcDbEntity
  8
SLD-0
 62
     0
100
AcDbLine
 10
0.0
 20
0.0
 30
0.0
 11
0.0
 21
-1.25
 31
0.0
  0
LINE
  5
3AAC0
330
3AABB
100
AcDbEntity
  8
SLD-0
 62
     0
100
AcDbLine
 10
0.0
 20
0.0
 30
0.0
 11
1.25
 21
0.0
 31
0.0
  0
LINE
  5
3AAC1
330
3AABB
100
AcDbEntity
  8
SLD-0
 62
     0
100
AcDbLine
 10
0.0
 20
2.5
 30
0.0
 11
0.0
 21
3.951149425299997
 31
0.0
  0
LINE
  5
3AAC2
330
3AABB
100
AcDbEntity
  8
SLD-0
 62
     0
100
AcDbLine
 10
-2.5
 20
0.0
 30
0.0
 11
-3.951149425299997
 21
0.0
 31
0.0
  0
LINE
  5
3AAC3
330
3AABB
100
AcDbEntity
  8
SLD-0
 62
     0
100
AcDbLine
 10
0.0
 20
-2.5
 30
0.0
 11
0.0
 21
-3.951149425299997
 31
0.0
  0
LINE
  5
3AAC4
330
3AABB
100
AcDbEntity
  8
SLD-0
 62
     0
100
AcDbLine
 10
2.5
 20
0.0
 30
0.0
 11
3.951149425299997
 21
0.0
 31
0.0
  0
ENDBLK
  5
3AAC5
330
3AABB
100
AcDbEntity
  8
0
100
AcDbBlockEnd
  0
BLOCK
  5
3AAC7
330
3AAC6
100
AcDbEntity
  8
0
100
AcDbBlockBegin
  2
SW_CENTERMARKSYMBOL_54
 70
     0
 10
0.0
 20
0.0
 30
0.0
  3
SW_CENTERMARKSYMBOL_54
  1
SW_CENTERMARKSYMBOL_54
  0
LINE
  5
3AAC8
330
3AAC6
100
AcDbEntity
  8
SLD-0
 62
     0
100
AcDbLine
 10
0.0
 20
0.0
 30
0.0
 11
0.0
 21
1.25
 31
0.0
  0
LINE
  5
3AAC9
330
3AAC6
100
AcDbEntity
  8
SLD-0
 62
     0
100
AcDbLine
 10
0.0
 20
0.0
 30
0.0
 11
-1.25
 21
0.0
 31
0.0
  0
LINE
  5
3AACA
330
3AAC6
100
AcDbEntity
  8
SLD-0
 62
     0
100
AcDbLine
 10
0.0
 20
0.0
 30
0.0
 11
0.0
 21
-1.25
 31
0.0
  0
LINE
  5
3AACB
330
3AAC6
100
AcDbEntity
  8
SLD-0
 62
     0
100
AcDbLine
 10
0.0
 20
0.0
 30
0.0
 11
1.25
 21
0.0
 31
0.0
  0
LINE
  5
3AACC
330
3AAC6
100
AcDbEntity
  8
SLD-0
 62
     0
100
AcDbLine
 10
0.0
 20
2.5
 30
0.0
 11
0.0
 21
2.75
 31
0.0
  0
LINE
  5
3AACD
330
3AAC6
100
AcDbEntity
  8
SLD-0
 62
     0
100
AcDbLine
 10
-2.5
 20
0.0
 30
0.0
 11
-2.75
 21
0.0
 31
0.0
  0
LINE
  5
3AACE
330
3AAC6
100
AcDbEntity
  8
SLD-0
 62
     0
100
AcDbLine
 10
0.0
 20
-2.5
 30
0.0
 11
0.0
 21
-2.75
 31
0.0
  0
LINE
  5
3AACF
330
3AAC6
100
AcDbEntity
  8
SLD-0
 62
     0
100
AcDbLine
 10
2.5
 20
0.0
 30
0.0
 11
2.75
 21
0.0
 31
0.0
  0
ENDBLK
  5
3AAD0
330
3AAC6
100
AcDbEntity
  8
0
100
AcDbBlockEnd
  0
BLOCK
  5
3AAD2
330
3AAD1
100
AcDbEntity
  8
0
100
AcDbBlockBegin
  2
SW_CENTERMARKSYMBOL_55
 70
     0
 10
0.0
 20
0.0
 30
0.0
  3
SW_CENTERMARKSYMBOL_55
  1
SW_CENTERMARKSYMBOL_55
  0
LINE
  5
3AAD3
330
3AAD1
100
AcDbEntity
  8
SLD-0
 62
     0
100
AcDbLine
 10
0.0
 20
0.0
 30
0.0
 11
0.0
 21
1.25
 31
0.0
  0
LINE
  5
3AAD4
330
3AAD1
100
AcDbEntity
  8
SLD-0
 62
     0
100
AcDbLine
 10
0.0
 20
0.0
 30
0.0
 11
-1.25
 21
0.0
 31
0.0
  0
LINE
  5
3AAD5
330
3AAD1
100
AcDbEntity
  8
SLD-0
 62
     0
100
AcDbLine
 10
0.0
 20
0.0
 30
0.0
 11
0.0
 21
-1.25
 31
0.0
  0
LINE
  5
3AAD6
330
3AAD1
100
AcDbEntity
  8
SLD-0
 62
     0
100
AcDbLine
 10
0.0
 20
0.0
 30
0.0
 11
1.25
 21
0.0
 31
0.0
  0
LINE
  5
3AAD7
330
3AAD1
100
AcDbEntity
  8
SLD-0
 62
     0
100
AcDbLine
 10
0.0
 20
2.5
 30
0.0
 11
0.0
 21
2.75
 31
0.0
  0
LINE
  5
3AAD8
330
3AAD1
100
AcDbEntity
  8
SLD-0
 62
     0
100
AcDbLine
 10
-2.5
 20
0.0
 30
0.0
 11
-2.75
 21
0.0
 31
0.0
  0
LINE
  5
3AAD9
330
3AAD1
100
AcDbEntity
  8
SLD-0
 62
     0
100
AcDbLine
 10
0.0
 20
-2.5
 30
0.0
 11
0.0
 21
-2.75
 31
0.0
  0
LINE
  5
3AADA
330
3AAD1
100
AcDbEntity
  8
SLD-0
 62
     0
100
AcDbLine
 10
2.5
 20
0.0
 30
0.0
 11
2.75
 21
0.0
 31
0.0
  0
ENDBLK
  5
3AADB
330
3AAD1
100
AcDbEntity
  8
0
100
AcDbBlockEnd
  0
BLOCK
  5
3AADF
330
3AADC
100
AcDbEntity
  8
0
100
AcDbBlockBegin
  2
m5screw1
 70
     0
 10
0.0
 20
0.0
 30
0.0
  3
m5screw1
  1

  0
LINE
  5
3AAE0
330
3AADC
100
AcDbEntity
  8
0
  6
SLD-実線
370
    15
100
AcDbLine
 10
15.50000160939999
 20
-2.499999478499999
 30
0.0
 11
16.00000262259982
 21
-1.999998465300049
 31
0.0
  0
LINE
  5
3AAE1
330
3AADC
100
AcDbEntity
  8
0
  6
SLD-実線
370
    15
100
AcDbLine
 10
16.00000262259982
 20
2.000002190499968
 30
0.0
 11
15.50000160939999
 21
2.499999478499999
 31
0.0
  0
LINE
  5
3AAE2
330
3AADC
100
AcDbEntity
  8
0
  6
SLD-実線
370
    15
100
AcDbLine
 10
0.0
 20
-2.499999478499999
 30
0.0
 11
3.199998289399898
 21
-2.499999478499999
 31
0.0
  0
LINE
  5
3AAE3
330
3AADC
100
AcDbEntity
  8
0
  6
SLD-実線
370
    15
100
AcDbLine
 10
9.199999272799914
 20
-2.499999478499999
 30
0.0
 11
15.50000160939999
 21
-2.499999478499999
 31
0.0
  0
LINE
  5
3AAE4
330
3AADC
100
AcDbEntity
  8
0
  6
SLD-実線
370
    15
100
AcDbLine
 10
15.50000160939999
 20
2.499999478499999
 30
0.0
 11
9.199999272799914
 21
2.499999478499999
 31
0.0
  0
LINE
  5
3AAE5
330
3AADC
100
AcDbEntity
  8
0
  6
SLD-実線
370
    15
100
AcDbLine
 10
3.199998289399898
 20
2.499999478499999
 30
0.0
 11
0.0
 21
2.499999478499999
 31
0.0
  0
ARC
  5
3AAE6
330
3AADC
100
AcDbEntity
  8
0
  6
SLD-実線
370
    15
100
AcDbCircle
 10
4.324999582799819
 20
-4.424999627499971
 30
0.0
 40
0.1750000000001818
100
AcDbArc
 50
270.0
 51
0.0
  0
ARC
  5
3AAE7
330
3AADC
100
AcDbEntity
  8
0
  6
SLD-実線
370
    15
100
AcDbCircle
 10
4.324999582799819
 20
4.425000372499936
 30
0.0
 40
0.1750000000001818
100
AcDbArc
 50
0.0
 51
90.0
  0
LINE
  5
3AAE8
330
3AADC
100
AcDbEntity
  8
0
  6
SLD-実線
370
    15
100
AcDbLine
 10
3.375001251599996
 20
-4.599997773699953
 30
0.0
 11
4.324998706599896
 21
-4.599997773699953
 31
0.0
  0
LINE
  5
3AAE9
330
3AADC
100
AcDbEntity
  8
0
  6
SLD-実線
370
    15
100
AcDbLine
 10
4.324998706599896
 20
4.600001499100073
 30
0.0
 11
3.375001251599996
 21
4.600001499100073
 31
0.0
  0
ARC
  5
3AAEA
330
3AADC
100
AcDbEntity
  8
0
  6
SLD-実線
370
    15
100
AcDbCircle
 10
3.374999582799773
 20
-4.424999627499971
 30
0.0
 40
0.1750000000000682
100
AcDbArc
 50
180.0
 51
270.0
  0
ARC
  5
3AAEB
330
3AADC
100
AcDbEntity
  8
0
  6
SLD-実線
370
    15
100
AcDbCircle
 10
3.374999582799773
 20
4.425000372499936
 30
0.0
 40
0.1749999999999546
100
AcDbArc
 50
90.0
 51
180.0
  0
LINE
  5
3AAEC
330
3AADC
100
AcDbEntity
  8
0
  6
SLD-実線
370
    15
100
AcDbLine
 10
15.50000160939999
 20
-2.499999478499999
 30
0.0
 11
15.50000160939999
 21
2.499999478499999
 31
0.0
  0
LINE
  5
3AAED
330
3AADC
100
AcDbEntity
  8
0
  6
SLD-実線
370
    15
100
AcDbLine
 10
16.00000262259982
 20
2.000002190499968
 30
0.0
 11
16.00000262259982
 21
-1.999998465300049
 31
0.0
  0
LINE
  5
3AAEE
330
3AADC
100
AcDbEntity
  8
0
  6
SLD-実線
370
    15
100
AcDbLine
 10
9.199999272799914
 20
2.000002190499968
 30
0.0
 11
9.199999272799914
 21
-1.999998465300049
 31
0.0
  0
SPLINE
  5
3AAEF
330
3AADC
100
AcDbEntity
  8
0
  6
SLD-実線
370
    15
100
AcDbSpline
210
0.0
220
0.0
230
1.0
 70
     8
 71
     3
 72
     9
 73
     5
 74
     0
 42
0.000000001
 43
0.0000000001
 40
0.0
 40
0.0
 40
0.0
 40
0.0
 40
0.6771006943045183
 40
1.0
 40
1.0
 40
1.0
 40
1.0
 10
9.199999272808099
 20
-1.999998465204214
 30
0.0
 10
9.179040304209593
 20
-1.56778935288372
 30
0.0
 10
9.148086313503654
 20
-0.9294661079722461
 30
0.0
 10
9.011308131972782
 20
-0.3024597483417324
 30
0.0
 10
8.96714255212214
 20
-0.0999998301505798
 30
0.0
  0
SPLINE
  5
3AAF0
330
3AADC
100
AcDbEntity
  8
0
  6
SLD-実線
370
    15
100
AcDbSpline
210
0.0
220
0.0
230
1.0
 70
     8
 71
     3
 72
    11
 73
     7
 74
     0
 42
0.000000001
 43
0.0000000001
 40
0.0
 40
0.0
 40
0.0
 40
0.0
 40
0.3033008138334113
 40
0.6069089828308042
 40
0.9049150680745647
 40
1.0
 40
1.0
 40
1.0
 40
1.0
 10
8.96714255212214
 20
0.099999830102945
 30
0.0
 10
8.963614850737712
 20
0.080806419733392
 30
0.0
 10
8.956555873111936
 20
0.0424001490176238
 30
0.0
 10
8.95576945176549
 20
-0.0226580828731926
 30
0.0
 10
8.960809023061527
 20
-0.0704117374939983
 30
0.0
 10
8.965908933012542
 20
-0.0942367814356544
 30
0.0
 10
8.96714255212214
 20
-0.0999998301505798
 30
0.0
  0
LINE
  5
3AAF1
330
3AADC
100
AcDbEntity
  8
0
  6
SLD-実線
370
    15
100
AcDbLine
 10
8.967142552199902
 20
0.0999998300999892
 30
0.0
 11
9.199999272799914
 21
2.000002190499968
 31
0.0
  0
LINE
  5
3AAF2
330
3AADC
100
AcDbEntity
  8
0
  6
SLD-実線
370
    15
100
AcDbLine
 10
4.499997943599963
 20
-0.0999998300999892
 30
0.0
 11
4.499997943599963
 21
0.0999998300999892
 31
0.0
  0
LINE
  5
3AAF3
330
3AADC
100
AcDbEntity
  8
0
  6
SLD-実線
370
    15
100
AcDbLine
 10
8.967142552199902
 20
-3.900000825499944
 30
0.0
 11
9.199999272799914
 21
-1.999998465300049
 31
0.0
  0
LINE
  5
3AAF4
330
3AADC
100
AcDbEntity
  8
0
  6
SLD-実線
370
    15
100
AcDbLine
 10
4.499997943599963
 20
-0.0999998300999892
 30
0.0
 11
4.499997943599963
 21
-0.3612581640999792
 31
0.0
  0
LINE
  5
3AAF5
330
3AADC
100
AcDbEntity
  8
0
  6
SLD-実線
370
    15
100
AcDbLine
 10
4.499997943599963
 20
-3.638738766300036
 30
0.0
 11
4.499997943599963
 21
-3.900000825499944
 31
0.0
  0
SPLINE
  5
3AAF6
330
3AADC
100
AcDbEntity
  8
0
  6
SLD-実線
370
    15
100
AcDbSpline
210
0.0
220
0.0
230
1.0
 70
     8
 71
     3
 72
     9
 73
     5
 74
     0
 42
0.000000001
 43
0.0000000001
 40
0.0
 40
0.0
 40
0.0
 40
0.0
 40
0.6770988321148445
 40
1.0
 40
1.0
 40
1.0
 40
1.0
 10
9.199999272808099
 20
2.000002190446764
 30
0.0
 10
9.179040014920019
 20
2.432209980872983
 30
0.0
 10
9.148085511835004
 20
3.07053302904063
 30
0.0
 10
9.011308128833434
 20
3.69753965402225
 30
0.0
 10
8.96714255212214
 20
3.900000825500626
 30
0.0
  0
LINE
  5
3AAF7
330
3AADC
100
AcDbEntity
  8
0
  6
SLD-実線
370
    15
100
AcDbLine
 10
4.499997943599963
 20
3.900000825500056
 30
0.0
 11
4.499997943599963
 21
3.638738766300036
 31
0.0
  0
LINE
  5
3AAF8
330
3AADC
100
AcDbEntity
  8
0
  6
SLD-実線
370
    15
100
AcDbLine
 10
4.499997943599963
 20
0.3612618893000103
 30
0.0
 11
4.499997943599963
 21
0.0999998300999892
 31
0.0
  0
SPLINE
  5
3AAF9
330
3AADC
100
AcDbEntity
  8
0
  6
SLD-実線
370
    15
100
AcDbSpline
210
0.0
220
0.0
230
1.0
 70
    24
 71
     3
 72
     9
 73
     5
 74
     0
 42
0.000000001
 43
0.0000000001
 40
0.0
 40
0.0
 40
0.0
 40
0.0
 40
0.7858524886117994
 40
1.0
 40
1.0
 40
1.0
 40
1.0
 10
9.199999272808099
 20
-3.999998793029758
 30
0.0
 10
9.171952321175467
 20
-3.999998793029758
 30
0.0
 10
9.136262478566095
 20
-3.999998793029758
 30
0.0
 10
8.996971391727129
 20
-3.999998793029758
 30
0.0
 10
8.96714255212214
 20
-3.999998793029758
 30
0.0
  0
SPLINE
  5
3AAFA
330
3AADC
100
AcDbEntity
  8
0
  6
SLD-実線
370
    15
100
AcDbSpline
210
0.0
220
0.0
230
1.0
 70
     8
 71
     3
 72
    11
 73
     7
 74
     0
 42
0.000000001
 43
0.0000000001
 40
0.0
 40
0.0
 40
0.0
 40
0.0
 40
0.3032948817092764
 40
0.6069007806173136
 40
0.9049251941525932
 40
1.0
 40
1.0
 40
1.0
 40
1.0
 10
8.96714255212214
 20
-3.900000825548261
 30
0.0
 10
8.963614819430631
 20
-3.917281063541223
 30
0.0
 10
8.956555736494237
 20
-3.951859259744706
 30
0.0
 10
8.955769817165219
 20
-3.986138454351986
 30
0.0
 10
8.960808302420216
 20
-3.998992385496363
 30
0.0
 10
8.965908919176627
 20
-3.999802789154328
 30
0.0
 10
8.96714255212214
 20
-3.999998793029758
 30
0.0
  0
LINE
  5
3AAFB
330
3AADC
100
AcDbEntity
  8
0
  6
SLD-実線
370
    15
100
AcDbLine
 10
9.199999272799914
 20
-1.999998465300049
 30
0.0
 11
9.199999272799914
 21
-3.999998793100017
 31
0.0
  0
SPLINE
  5
3AAFC
330
3AADC
100
AcDbEntity
  8
0
  6
SLD-実線
370
    15
100
AcDbSpline
210
0.0
220
0.0
230
1.0
 70
     8
 71
     3
 72
    11
 73
     7
 74
     0
 42
0.000000001
 43
0.0000000001
 40
0.0
 40
0.0
 40
0.0
 40
0.0
 40
0.303297341374236
 40
0.6069057263081482
 40
0.9049195301906271
 40
1.0
 40
1.0
 40
1.0
 40
1.0
 10
8.96714255212214
 20
3.999998792982238
 30
0.0
 10
8.963614837932254
 20
3.998087219072033
 30
0.0
 10
8.956555791740351
 20
3.994262110856368
 30
0.0
 10
8.955769607909587
 20
3.963479847629796
 30
0.0
 10
8.960808710141916
 20
3.928584420112258
 30
0.0
 10
8.965908926910515
 20
3.905567974642678
 30
0.0
 10
8.96714255212214
 20
3.900000825500626
 30
0.0
  0
SPLINE
  5
3AAFD
330
3AADC
100
AcDbEntity
  8
0
  6
SLD-実線
370
    15
100
AcDbSpline
210
0.0
220
0.0
230
1.0
 70
    24
 71
     3
 72
     9
 73
     5
 74
     0
 42
0.000000001
 43
0.0000000001
 40
0.0
 40
0.0
 40
0.0
 40
0.0
 40
0.2141475113882007
 40
1.0
 40
1.0
 40
1.0
 40
1.0
 10
8.96714255212214
 20
3.999998792982238
 30
0.0
 10
8.996971391727129
 20
3.999998792982238
 30
0.0
 10
9.136262478566095
 20
3.999998792982238
 30
0.0
 10
9.171952321175467
 20
3.999998792982238
 30
0.0
 10
9.199999272808099
 20
3.999998792982238
 30
0.0
  0
LINE
  5
3AAFE
330
3AADC
100
AcDbEntity
  8
0
  6
SLD-実線
370
    15
100
AcDbLine
 10
9.199999272799914
 20
3.999998792900043
 30
0.0
 11
9.199999272799914
 21
2.000002190499968
 31
0.0
  0
LINE
  5
3AAFF
330
3AADC
100
AcDbEntity
  8
0
  6
SLD-実線
370
    15
100
AcDbLine
 10
8.967142552199902
 20
-3.999998793100017
 30
0.0
 11
4.499997943599963
 21
-3.999998793100017
 31
0.0
  0
LINE
  5
3AB00
330
3AADC
100
AcDbEntity
  8
0
  6
SLD-実線
370
    15
100
AcDbLine
 10
4.499997943599963
 20
-3.999998793100017
 30
0.0
 11
4.499997943599963
 21
-3.900000825499944
 31
0.0
  0
LINE
  5
3AB01
330
3AADC
100
AcDbEntity
  8
0
  6
SLD-実線
370
    15
100
AcDbLine
 10
4.499997943599963
 20
3.999998792900043
 30
0.0
 11
8.967142552199902
 21
3.999998792900043
 31
0.0
  0
LINE
  5
3AB02
330
3AADC
100
AcDbEntity
  8
0
  6
SLD-実線
370
    15
100
AcDbLine
 10
4.499997943599963
 20
3.900000825500056
 30
0.0
 11
4.499997943599963
 21
3.999998792900043
 31
0.0
  0
LINE
  5
3AB03
330
3AADC
100
AcDbEntity
  8
0
  6
SLD-実線
370
    15
100
AcDbLine
 10
4.499997943599963
 20
-4.424998536700002
 30
0.0
 11
4.499997943599963
 21
-3.999998793100017
 31
0.0
  0
LINE
  5
3AB04
330
3AADC
100
AcDbEntity
  8
0
  6
SLD-実線
370
    15
100
AcDbLine
 10
4.499997943599963
 20
-3.638738766300036
 30
0.0
 11
4.499997943599963
 21
-0.3612581640999792
 31
0.0
  0
LINE
  5
3AB05
330
3AADC
100
AcDbEntity
  8
0
  6
SLD-実線
370
    15
100
AcDbLine
 10
4.499997943599963
 20
0.3612618893000103
 30
0.0
 11
4.499997943599963
 21
3.638738766300036
 31
0.0
  0
LINE
  5
3AB06
330
3AADC
100
AcDbEntity
  8
0
  6
SLD-実線
370
    15
100
AcDbLine
 10
4.499997943599963
 20
3.999998792900043
 30
0.0
 11
4.499997943599963
 21
4.424998536700002
 31
0.0
  0
LINE
  5
3AB07
330
3AADC
100
AcDbEntity
  8
0
  6
SLD-実線
370
    15
100
AcDbLine
 10
3.199998289399898
 20
-4.424998536700002
 30
0.0
 11
3.199998289399898
 21
4.424998536700002
 31
0.0
  0
LINE
  5
3AB08
330
3AADC
100
AcDbEntity
  8
0
370
    15
100
AcDbLine
 10
4.499999582799773
 20
0.7763407795000035
 30
0.0
 11
3.199999582799819
 21
0.1217328332999727
 31
0.0
  0
LINE
  5
3AB09
330
3AADC
100
AcDbEntity
  8
0
370
    15
100
AcDbLine
 10
4.499999582799773
 20
0.0688290700999801
 30
0.0
 11
3.199999582799819
 21
-0.5857788763000258
 31
0.0
  0
LINE
  5
3AB0A
330
3AADC
100
AcDbEntity
  8
0
100
AcDbLine
 10
0.0
 20
2.499999478499999
 30
0.0
 11
0.0
 21
-2.499999478499999
 31
0.0
  0
ENDBLK
  5
3AB0B
330
3AADC
100
AcDbEntity
  8
0
100
AcDbBlockEnd
  0
BLOCK
  5
3AEF9
330
3AEF8
100
AcDbEntity
  8
0
100
AcDbBlockBegin
  2
*D6
 70
     1
 10
0.0
 20
0.0
 30
0.0
  3
*D6
  1

  0
LINE
  5
41B2B
330
3AEF8
100
AcDbEntity
  8
30
 62
     0
440
 16777216
370
    -2
100
AcDbLine
 10
178.4429307396319
 20
583.3769900213396
 30
0.0
 11
198.6211774895199
 21
583.3769900213396
 31
0.0
  0
LINE
  5
41B2C
330
3AEF8
100
AcDbEntity
  8
30
 62
     0
440
 16777216
370
    -2
100
AcDbLine
 10
178.4429307396319
 20
418.3769900213402
 30
0.0
 11
198.6211774895198
 21
418.3769900213402
 31
0.0
  0
LINE
  5
41B2D
330
3AEF8
100
AcDbEntity
  8
30
440
 16777216
370
    -2
100
AcDbLine
 10
198.1211774895199
 20
580.3769900213397
 30
0.0
 11
198.1211774895198
 21
421.3769900213398
 31
0.0
  0
INSERT
  5
41B2E
330
3AEF8
100
AcDbEntity
  8
30
440
 16777216
370
    -2
100
AcDbBlockReference
  2
_OPEN
 10
198.1211774895199
 20
583.3769900213396
 30
0.0
 41
3.0
 42
3.0
 43
3.0
 50
90.0
  0
INSERT
  5
41B2F
330
3AEF8
100
AcDbEntity
  8
30
440
 16777216
370
    -2
100
AcDbBlockReference
  2
_OPEN
 10
198.1211774895198
 20
418.3769900213402
 30
0.0
 41
3.0
 42
3.0
 43
3.0
 50
270.0
  0
MTEXT
  5
41B30
330
3AEF8
100
AcDbEntity
  8
30
440
 16777216
100
AcDbMText
 10
191.6211774895197
 20
500.8769900213398
 30
0.0
 40
7.0
 41
0.0
 46
0.0
 71
     5
 72
     1
  1
\A1;165
 11
0.0000000000000001
 21
1.0
 31
0.0
 73
     1
 44
1.0
 90
        3
 63
     9
421
 13158600
 45
1.25
441
        0
  0
POINT
  5
41B31
330
3AEF8
100
AcDbEntity
  8
DEFPOINTS
 62
     0
440
 16777216
100
AcDbPoint
 10
177.4429307396319
 20
583.3769900213396
 30
0.0
  0
POINT
  5
41B32
330
3AEF8
100
AcDbEntity
  8
DEFPOINTS
 62
     0
440
 16777216
100
AcDbPoint
 10
177.4429307396319
 20
418.3769900213402
 30
0.0
  0
POINT
  5
41B33
330
3AEF8
100
AcDbEntity
  8
DEFPOINTS
 62
     0
440
 16777216
100
AcDbPoint
 10
198.1211774895198
 20
418.3769900213402
 30
0.0
  0
ENDBLK
  5
3AEFA
330
3AEF8
100
AcDbEntity
  8
0
100
AcDbBlockEnd
  0
BLOCK
  5
3AF05
330
3AF04
100
AcDbEntity
  8
0
100
AcDbBlockBegin
  2
*D7
 70
     1
 10
0.0
 20
0.0
 30
0.0
  3
*D7
  1

  0
LINE
  5
41817
330
3AF04
100
AcDbEntity
  8
30
 62
     0
440
 16777216
370
    -2
100
AcDbLine
 10
75.94293073963263
 20
526.8769900213396
 30
0.0
 11
75.94293073963263
 21
536.5864367847557
 31
0.0
  0
LINE
  5
41818
330
3AF04
100
AcDbEntity
  8
30
 62
     0
440
 16777216
370
    -2
100
AcDbLine
 10
173.9429307396319
 20
526.8769900213396
 30
0.0
 11
173.9429307396319
 21
536.5864367847557
 31
0.0
  0
LINE
  5
41819
330
3AF04
100
AcDbEntity
  8
30
440
 16777216
370
    -2
100
AcDbLine
 10
78.94293073963263
 20
536.0864367847557
 30
0.0
 11
170.9429307396319
 21
536.0864367847557
 31
0.0
  0
INSERT
  5
4181A
330
3AF04
100
AcDbEntity
  8
30
440
 16777216
370
    -2
100
AcDbBlockReference
  2
_OPEN
 10
75.94293073963263
 20
536.0864367847557
 30
0.0
 41
3.0
 42
3.0
 43
3.0
 50
180.0
  0
INSERT
  5
4181B
330
3AF04
100
AcDbEntity
  8
30
440
 16777216
370
    -2
100
AcDbBlockReference
  2
_OPEN
 10
173.9429307396319
 20
536.0864367847557
 30
0.0
 41
3.0
 42
3.0
 43
3.0
  0
MTEXT
  5
4181C
330
3AF04
100
AcDbEntity
  8
30
440
 16777216
100
AcDbMText
 10
136.7390339790681
 20
542.5864367847557
 30
0.0
 40
7.0
 41
0.0
 46
0.0
 71
     5
 72
     1
  1
\A1;98
 73
     1
 44
1.0
 90
        3
 63
     9
421
 13158600
 45
1.25
441
        0
  0
POINT
  5
4181D
330
3AF04
100
AcDbEntity
  8
DEFPOINTS
 62
     0
440
 16777216
100
AcDbPoint
 10
75.94293073963263
 20
525.8769900213398
 30
0.0
  0
POINT
  5
4181E
330
3AF04
100
AcDbEntity
  8
DEFPOINTS
 62
     0
440
 16777216
100
AcDbPoint
 10
173.9429307396319
 20
525.8769900213398
 30
0.0
  0
POINT
  5
4181F
330
3AF04
100
AcDbEntity
  8
DEFPOINTS
 62
     0
440
 16777216
100
AcDbPoint
 10
173.9429307396319
 20
536.0864367847557
 30
0.0
  0
ENDBLK
  5
3AF06
330
3AF04
100
AcDbEntity
  8
0
100
AcDbBlockEnd
  0
BLOCK
  5
3AF11
330
3AF10
100
AcDbEntity
  8
0
100
AcDbBlockBegin
  2
*D8
 70
     1
 10
0.0
 20
0.0
 30
0.0
  3
*D8
  1

  0
LINE
  5
41B34
330
3AF10
100
AcDbEntity
  8
30
 62
     0
440
 16777216
370
    -2
100
AcDbLine
 10
72.68177095083206
 20
405.9644898909366
 30
0.0
 11
72.68177095083206
 21
386.4006069860698
 31
0.0
  0
LINE
  5
41B35
330
3AF10
100
AcDbEntity
  8
30
 62
     0
440
 16777216
370
    -2
100
AcDbLine
 10
177.6817709508316
 20
409.6705150787243
 30
0.0
 11
177.6817709508316
 21
386.4006069860698
 31
0.0
  0
LINE
  5
41B36
330
3AF10
100
AcDbEntity
  8
30
440
 16777216
370
    -2
100
AcDbLine
 10
75.68177095083206
 20
386.9006069860698
 30
0.0
 11
174.6817709508316
 21
386.9006069860698
 31
0.0
  0
INSERT
  5
41B37
330
3AF10
100
AcDbEntity
  8
30
440
 16777216
370
    -2
100
AcDbBlockReference
  2
_OPEN
 10
72.68177095083206
 20
386.9006069860698
 30
0.0
 41
3.0
 42
3.0
 43
3.0
 50
180.0
  0
INSERT
  5
41B38
330
3AF10
100
AcDbEntity
  8
30
440
 16777216
370
    -2
100
AcDbBlockReference
  2
_OPEN
 10
177.6817709508316
 20
386.9006069860698
 30
0.0
 41
3.0
 42
3.0
 43
3.0
  0
MTEXT
  5
41B39
330
3AF10
100
AcDbEntity
  8
30
440
 16777216
100
AcDbMText
 10
125.1817709508318
 20
393.4006069860698
 30
0.0
 40
7.0
 41
0.0
 46
0.0
 71
     5
 72
     1
  1
\A1;105
 73
     1
 44
1.0
 90
        3
 63
     9
421
 13158600
 45
1.25
441
        0
  0
POINT
  5
41B3A
330
3AF10
100
AcDbEntity
  8
DEFPOINTS
 62
     0
440
 16777216
100
AcDbPoint
 10
72.68177095083206
 20
406.9644898909366
 30
0.0
  0
POINT
  5
41B3B
330
3AF10
100
AcDbEntity
  8
DEFPOINTS
 62
     0
440
 16777216
100
AcDbPoint
 10
177.6817709508316
 20
410.6705150787245
 30
0.0
  0
POINT
  5
41B3C
330
3AF10
100
AcDbEntity
  8
DEFPOINTS
 62
     0
440
 16777216
100
AcDbPoint
 10
177.6817709508316
 20
386.9006069860698
 30
0.0
  0
ENDBLK
  5
3AF12
330
3AF10
100
AcDbEntity
  8
0
100
AcDbBlockEnd
  0
BLOCK
  5
3AF35
330
3AF34
100
AcDbEntity
  8
0
100
AcDbBlockBegin
  2
*D9
 70
     1
 10
0.0
 20
0.0
 30
0.0
  3
*D9
  1

  0
LINE
  5
4183B
330
3AF34
100
AcDbEntity
  8
30
 62
     0
440
 16777216
370
    -2
100
AcDbLine
 10
113.9429307396326
 20
474.8769900213398
 30
0.0
 11
113.9429307396326
 21
459.4555719127811
 31
0.0
  0
LINE
  5
4183C
330
3AF34
100
AcDbEntity
  8
30
 62
     0
440
 16777216
370
    -2
100
AcDbLine
 10
135.9429307396324
 20
474.8769900213398
 30
0.0
 11
135.9429307396324
 21
459.4555719127811
 31
0.0
  0
LINE
  5
4183D
330
3AF34
100
AcDbEntity
  8
30
440
 16777216
370
    -2
100
AcDbLine
 10
116.9429307396326
 20
459.9555719127811
 30
0.0
 11
132.9429307396324
 21
459.9555719127811
 31
0.0
  0
LINE
  5
4183E
330
3AF34
100
AcDbEntity
  8
30
440
 16777216
370
    -2
100
AcDbLine
 10
135.9429307396324
 20
459.9555719127811
 30
0.0
 11
156.6095974062991
 21
459.9555719127811
 31
0.0
  0
INSERT
  5
4183F
330
3AF34
100
AcDbEntity
  8
30
440
 16777216
370
    -2
100
AcDbBlockReference
  2
_OPEN
 10
113.9429307396326
 20
459.9555719127811
 30
0.0
 41
3.0
 42
3.0
 43
3.0
 50
180.0
  0
INSERT
  5
41840
330
3AF34
100
AcDbEntity
  8
30
440
 16777216
370
    -2
100
AcDbBlockReference
  2
_OPEN
 10
135.9429307396324
 20
459.9555719127811
 30
0.0
 41
3.0
 42
3.0
 43
3.0
  0
MTEXT
  5
41841
330
3AF34
100
AcDbEntity
  8
30
440
 16777216
100
AcDbMText
 10
147.7762640729658
 20
466.4555719127811
 30
0.0
 40
7.0
 41
0.0
 46
0.0
 71
     5
 72
     1
  1
\A1;22
 73
     1
 44
1.0
 90
        3
 63
     9
421
 13158600
 45
1.25
441
        0
  0
POINT
  5
41842
330
3AF34
100
AcDbEntity
  8
DEFPOINTS
 62
     0
440
 16777216
100
AcDbPoint
 10
113.9429307396326
 20
475.8769900213398
 30
0.0
  0
POINT
  5
41843
330
3AF34
100
AcDbEntity
  8
DEFPOINTS
 62
     0
440
 16777216
100
AcDbPoint
 10
135.9429307396324
 20
475.8769900213398
 30
0.0
  0
POINT
  5
41844
330
3AF34
100
AcDbEntity
  8
DEFPOINTS
 62
     0
440
 16777216
100
AcDbPoint
 10
135.9429307396324
 20
459.9555719127811
 30
0.0
  0
ENDBLK
  5
3AF36
330
3AF34
100
AcDbEntity
  8
0
100
AcDbBlockEnd
  0
BLOCK
  5
3AF42
330
3AF41
100
AcDbEntity
  8
0
100
AcDbBlockBegin
  2
*D10
 70
     1
 10
0.0
 20
0.0
 30
0.0
  3
*D10
  1

  0
LINE
  5
41845
330
3AF41
100
AcDbEntity
  8
30
 62
     0
440
 16777216
370
    -2
100
AcDbLine
 10
381.6074696875676
 20
187.1906048242522
 30
0.0
 11
409.2206249434802
 21
187.1906048242522
 31
0.0
  0
LINE
  5
41846
330
3AF41
100
AcDbEntity
  8
30
 62
     0
440
 16777216
370
    -2
100
AcDbLine
 10
381.6074696875676
 20
135.1906048242522
 30
0.0
 11
409.2206249434802
 21
135.1906048242522
 31
0.0
  0
LINE
  5
41847
330
3AF41
100
AcDbEntity
  8
30
440
 16777216
370
    -2
100
AcDbLine
 10
408.7206249434802
 20
184.1906048242522
 30
0.0
 11
408.7206249434802
 21
138.1906048242522
 31
0.0
  0
INSERT
  5
41848
330
3AF41
100
AcDbEntity
  8
30
440
 16777216
370
    -2
100
AcDbBlockReference
  2
_OPEN
 10
408.7206249434802
 20
187.1906048242522
 30
0.0
 41
3.0
 42
3.0
 43
3.0
 50
90.0
  0
INSERT
  5
41849
330
3AF41
100
AcDbEntity
  8
30
440
 16777216
370
    -2
100
AcDbBlockReference
  2
_OPEN
 10
408.7206249434802
 20
135.1906048242522
 30
0.0
 41
3.0
 42
3.0
 43
3.0
 50
270.0
  0
MTEXT
  5
4184A
330
3AF41
100
AcDbEntity
  8
30
440
 16777216
100
AcDbMText
 10
398.7206249434803
 20
161.1906048242522
 30
0.0
 40
7.0
 41
0.0
 46
0.0
 71
     2
 72
     1
  1
\A1;52
 11
0.0000000000000001
 21
1.0
 31
0.0
 73
     1
 44
1.0
 90
        3
 63
     9
421
 13158600
 45
1.25
441
        0
  0
POINT
  5
4184B
330
3AF41
100
AcDbEntity
  8
DEFPOINTS
 62
     0
440
 16777216
100
AcDbPoint
 10
380.6074696875676
 20
187.1906048242522
 30
0.0
  0
POINT
  5
4184C
330
3AF41
100
AcDbEntity
  8
DEFPOINTS
 62
     0
440
 16777216
100
AcDbPoint
 10
380.6074696875676
 20
135.1906048242522
 30
0.0
  0
POINT
  5
4184D
330
3AF41
100
AcDbEntity
  8
DEFPOINTS
 62
     0
440
 16777216
100
AcDbPoint
 10
408.7206249434802
 20
135.1906048242522
 30
0.0
  0
ENDBLK
  5
3AF43
330
3AF41
100
AcDbEntity
  8
0
100
AcDbBlockEnd
  0
BLOCK
  5
3AF5A
330
3AF59
100
AcDbEntity
  8
0
100
AcDbBlockBegin
  2
*D11
 70
     1
 10
0.0
 20
0.0
 30
0.0
  3
*D11
  1

  0
LINE
  5
41C6D
330
3AF59
100
AcDbEntity
  8
30
 62
     0
440
 16777216
370
    -2
100
AcDbLine
 10
281.6074696875676
 20
133.1906048242522
 30
0.0
 11
281.6074696875676
 21
50.51306424556242
 31
0.0
  0
LINE
  5
41C6E
330
3AF59
100
AcDbEntity
  8
30
 62
     0
440
 16777216
370
    -2
100
AcDbLine
 10
381.6074696875676
 20
133.1906048242522
 30
0.0
 11
381.6074696875676
 21
50.51306424556242
 31
0.0
  0
LINE
  5
41C6F
330
3AF59
100
AcDbEntity
  8
30
 62
     0
440
 16777216
370
    -2
100
AcDbLine
 10
283.6074696875676
 20
51.01306424556241
 30
0.0
 11
379.6074696875676
 21
51.01306424556241
 31
0.0
  0
INSERT
  5
41C70
330
3AF59
100
AcDbEntity
  8
30
 62
     0
440
 16777216
370
    -2
100
AcDbBlockReference
  2
_OPEN
 10
281.6074696875676
 20
51.01306424556241
 30
0.0
 41
2.0
 42
2.0
 43
2.0
 50
180.0
  0
INSERT
  5
41C71
330
3AF59
100
AcDbEntity
  8
30
 62
     0
440
 16777216
370
    -2
100
AcDbBlockReference
  2
_OPEN
 10
381.6074696875676
 20
51.01306424556241
 30
0.0
 41
2.0
 42
2.0
 43
2.0
  0
MTEXT
  5
41C72
330
3AF59
100
AcDbEntity
  8
30
 62
     0
440
 16777216
100
AcDbMText
 10
332.7619305894728
 20
60.01306424556242
 30
0.0
 40
7.0
 41
0.0
 46
0.0
 71
     2
 72
     1
  1
\A1;100
 73
     1
 44
1.0
  0
POINT
  5
41C73
330
3AF59
100
AcDbEntity
  8
DEFPOINTS
 62
     0
440
 16777216
100
AcDbPoint
 10
281.6074696875676
 20
136.1906048242522
 30
0.0
  0
POINT
  5
41C74
330
3AF59
100
AcDbEntity
  8
DEFPOINTS
 62
     0
440
 16777216
100
AcDbPoint
 10
381.6074696875676
 20
136.1906048242522
 30
0.0
  0
POINT
  5
41C75
330
3AF59
100
AcDbEntity
  8
DEFPOINTS
 62
     0
440
 16777216
100
AcDbPoint
 10
381.6074696875676
 20
51.01306424556241
 30
0.0
  0
ENDBLK
  5
3AF5B
330
3AF59
100
AcDbEntity
  8
0
100
AcDbBlockEnd
  0
BLOCK
  5
3AF66
330
3AF65
100
AcDbEntity
  8
0
100
AcDbBlockBegin
  2
*D12
 70
     1
 10
0.0
 20
0.0
 30
0.0
  3
*D12
  1

  0
LINE
  5
41860
330
3AF65
100
AcDbEntity
  8
30
  6
Continuous
 62
     0
440
 16777216
370
    -2
100
AcDbLine
 10
382.4697719066047
 20
188.5425891875197
 30
0.0
 11
386.2215801424639
 21
193.2809148011189
 31
0.0
  0
LINE
  5
41861
330
3AF65
100
AcDbEntity
  8
30
  6
Continuous
 62
     0
440
 16777216
370
    -2
100
AcDbLine
 10
386.2215801424639
 20
193.2809148011189
 30
0.0
 11
397.5549134757973
 21
193.2809148011189
 31
0.0
  0
LINE
  5
41862
330
3AF65
100
AcDbEntity
  8
30
  6
Continuous
 62
     0
440
 16777216
370
    -2
100
AcDbLine
 10
380.6074696875689
 20
186.190604824252
 30
0.0
 11
381.2282370939199
 21
186.974599612015
 31
0.0
  0
INSERT
  5
41863
330
3AF65
100
AcDbEntity
  8
30
  6
Continuous
 62
     0
440
 16777216
370
    -2
100
AcDbBlockReference
  2
_OPEN
 10
381.2282370939199
 20
186.974599612015
 30
0.0
 41
2.0
 42
2.0
 43
2.0
 50
231.6278037687681
  0
MTEXT
  5
41864
330
3AF65
100
AcDbEntity
  8
30
  6
Continuous
 62
     0
440
 16777216
100
AcDbMText
 10
388.221580142464
 20
202.2809148011189
 30
0.0
 40
7.0
 41
0.0
 46
0.0
 71
     1
 72
     1
  1
\A1;R1
 73
     1
 44
1.0
  0
POINT
  5
41865
330
3AF65
100
AcDbEntity
  8
DEFPOINTS
  6
Continuous
 62
     0
440
 16777216
100
AcDbPoint
 10
381.2282370939199
 20
186.974599612015
 30
0.0
  0
POINT
  5
41866
330
3AF65
100
AcDbEntity
  8
DEFPOINTS
  6
Continuous
 62
     0
440
 16777216
100
AcDbPoint
 10
380.6074696875689
 20
186.190604824252
 30
0.0
  0
ENDBLK
  5
3AF67
330
3AF65
100
AcDbEntity
  8
0
100
AcDbBlockEnd
  0
BLOCK
  5
3AF70
330
3AF6F
100
AcDbEntity
  8
0
100
AcDbBlockBegin
  2
*D13
 70
     1
 10
0.0
 20
0.0
 30
0.0
  3
*D13
  1

  0
LINE
  5
41867
330
3AF6F
100
AcDbEntity
  8
30
 62
     0
440
 16777216
370
    -2
100
AcDbLine
 10
136.0943679225375
 20
198.8952688971651
 30
0.0
 11
134.5549427957017
 21
197.6184876790753
 31
0.0
  0
LINE
  5
41868
330
3AF6F
100
AcDbEntity
  8
30
 62
     0
440
 16777216
370
    -2
100
AcDbLine
 10
143.7914935567262
 20
205.2791749876224
 30
0.0
 11
188.045345185677
 21
241.9828025970512
 31
0.0
  0
LINE
  5
41869
330
3AF6F
100
AcDbEntity
  8
30
 62
     0
440
 16777216
370
    -2
100
AcDbLine
 10
188.045345185677
 20
241.9828025970512
 30
0.0
 11
201.7120118523437
 21
241.9828025970512
 31
0.0
  0
LINE
  5
4186A
330
3AF6F
100
AcDbEntity
  8
30
 62
     0
440
 16777216
370
    -2
100
AcDbLine
 10
137.6337930493732
 20
200.1720501152549
 30
0.0
 11
142.2520684298904
 21
204.0023937695326
 31
0.0
  0
INSERT
  5
4186B
330
3AF6F
100
AcDbEntity
  8
30
 62
     0
440
 16777216
370
    -2
100
AcDbBlockReference
  2
_OPEN
 10
137.6337930493732
 20
200.1720501152549
 30
0.0
 41
2.0
 42
2.0
 43
2.0
 50
39.67191568739378
  0
INSERT
  5
4186C
330
3AF6F
100
AcDbEntity
  8
30
 62
     0
440
 16777216
370
    -2
100
AcDbBlockReference
  2
_OPEN
 10
142.2520684298904
 20
204.0023937695326
 30
0.0
 41
2.0
 42
2.0
 43
2.0
 50
219.6719156873938
  0
MTEXT
  5
4186D
330
3AF6F
100
AcDbEntity
  8
30
 62
     0
440
 16777216
100
AcDbMText
 10
190.0453451856769
 20
250.9828025970512
 30
0.0
 40
7.0
 41
0.0
 46
0.0
 71
     1
 72
     1
  1
\A1;∅6
 73
     1
 44
1.0
  0
POINT
  5
4186E
330
3AF6F
100
AcDbEntity
  8
DEFPOINTS
 62
     0
440
 16777216
100
AcDbPoint
 10
142.2520684298904
 20
204.0023937695326
 30
0.0
  0
POINT
  5
4186F
330
3AF6F
100
AcDbEntity
  8
DEFPOINTS
 62
     0
440
 16777216
100
AcDbPoint
 10
137.6337930493732
 20
200.1720501152549
 30
0.0
  0
ENDBLK
  5
3AF71
330
3AF6F
100
AcDbEntity
  8
0
100
AcDbBlockEnd
  0
BLOCK
  5
3AF7C
330
3AF7B
100
AcDbEntity
  8
0
100
AcDbBlockBegin
  2
*D14
 70
     1
 10
0.0
 20
0.0
 30
0.0
  3
*D14
  1

  0
LINE
  5
41BB4
330
3AF7B
100
AcDbEntity
  8
30
 62
     0
440
 16777216
370
    -2
100
AcDbLine
 10
109.9429307396321
 20
124.0872219423939
 30
0.0
 11
109.9429307396321
 21
48.04177395639314
 31
0.0
  0
LINE
  5
41BB5
330
3AF7B
100
AcDbEntity
  8
30
 62
     0
440
 16777216
370
    -2
100
AcDbLine
 10
139.9429307396321
 20
118.5872219423939
 30
0.0
 11
139.9429307396321
 21
48.04177395639314
 31
0.0
  0
LINE
  5
41BB6
330
3AF7B
100
AcDbEntity
  8
30
 62
     0
440
 16777216
370
    -2
100
AcDbLine
 10
111.9429307396321
 20
48.54177395639314
 30
0.0
 11
137.9429307396321
 21
48.54177395639314
 31
0.0
  0
INSERT
  5
41BB7
330
3AF7B
100
AcDbEntity
  8
30
 62
     0
440
 16777216
370
    -2
100
AcDbBlockReference
  2
_OPEN
 10
109.9429307396321
 20
48.54177395639314
 30
0.0
 41
2.0
 42
2.0
 43
2.0
 50
180.0
  0
INSERT
  5
41BB8
330
3AF7B
100
AcDbEntity
  8
30
 62
     0
440
 16777216
370
    -2
100
AcDbBlockReference
  2
_OPEN
 10
139.9429307396321
 20
48.54177395639314
 30
0.0
 41
2.0
 42
2.0
 43
2.0
  0
MTEXT
  5
41BB9
330
3AF7B
100
AcDbEntity
  8
30
 62
     0
440
 16777216
100
AcDbMText
 10
124.9429307396321
 20
57.54177395639313
 30
0.0
 40
7.0
 41
0.0
 46
0.0
 71
     2
 72
     1
  1
\A1;30
 73
     1
 44
1.0
  0
POINT
  5
41BBA
330
3AF7B
100
AcDbEntity
  8
DEFPOINTS
 62
     0
440
 16777216
100
AcDbPoint
 10
109.9429307396321
 20
127.0872219423939
 30
0.0
  0
POINT
  5
41BBB
330
3AF7B
100
AcDbEntity
  8
DEFPOINTS
 62
     0
440
 16777216
100
AcDbPoint
 10
139.9429307396321
 20
121.5872219423939
 30
0.0
  0
POINT
  5
41BBC
330
3AF7B
100
AcDbEntity
  8
DEFPOINTS
 62
     0
440
 16777216
100
AcDbPoint
 10
139.9429307396321
 20
48.54177395639314
 30
0.0
  0
ENDBLK
  5
3AF7D
330
3AF7B
100
AcDbEntity
  8
0
100
AcDbBlockEnd
  0
BLOCK
  5
3AF88
330
3AF87
100
AcDbEntity
  8
0
100
AcDbBlockBegin
  2
*D15
 70
     1
 10
0.0
 20
0.0
 30
0.0
  3
*D15
  1

  0
LINE
  5
41879
330
3AF87
100
AcDbEntity
  8
30
 62
     0
440
 16777216
370
    -2
100
AcDbLine
 10
151.7050718727869
 20
202.0872219423939
 30
0.0
 11
212.3407698054039
 21
202.0872219423939
 31
0.0
  0
LINE
  5
4187A
330
3AF87
100
AcDbEntity
  8
30
 62
     0
440
 16777216
370
    -2
100
AcDbLine
 10
151.7050718727869
 20
127.0872219423939
 30
0.0
 11
212.3407698054039
 21
127.0872219423939
 31
0.0
  0
LINE
  5
4187B
330
3AF87
100
AcDbEntity
  8
30
440
 16777216
370
    -2
100
AcDbLine
 10
211.8407698054039
 20
199.0872219423938
 30
0.0
 11
211.8407698054039
 21
130.0872219423939
 31
0.0
  0
INSERT
  5
4187C
330
3AF87
100
AcDbEntity
  8
30
440
 16777216
370
    -2
100
AcDbBlockReference
  2
_OPEN
 10
211.8407698054039
 20
202.0872219423939
 30
0.0
 41
3.0
 42
3.0
 43
3.0
 50
90.0
  0
INSERT
  5
4187D
330
3AF87
100
AcDbEntity
  8
30
440
 16777216
370
    -2
100
AcDbBlockReference
  2
_OPEN
 10
211.8407698054039
 20
127.0872219423939
 30
0.0
 41
3.0
 42
3.0
 43
3.0
 50
270.0
  0
MTEXT
  5
4187E
330
3AF87
100
AcDbEntity
  8
30
440
 16777216
100
AcDbMText
 10
201.8407698054038
 20
164.5872219423939
 30
0.0
 40
7.0
 41
0.0
 46
0.0
 71
     2
 72
     1
  1
\A1;75
 11
0.0000000000000001
 21
1.0
 31
0.0
 73
     1
 44
1.0
 90
        3
 63
     9
421
 13158600
 45
1.25
441
        0
  0
POINT
  5
4187F
330
3AF87
100
AcDbEntity
  8
DEFPOINTS
 62
     0
440
 16777216
100
AcDbPoint
 10
150.7050718727869
 20
202.0872219423939
 30
0.0
  0
POINT
  5
41880
330
3AF87
100
AcDbEntity
  8
DEFPOINTS
 62
     0
440
 16777216
100
AcDbPoint
 10
150.7050718727869
 20
127.0872219423939
 30
0.0
  0
POINT
  5
41881
330
3AF87
100
AcDbEntity
  8
DEFPOINTS
 62
     0
440
 16777216
100
AcDbPoint
 10
211.8407698054039
 20
127.0872219423939
 30
0.0
  0
ENDBLK
  5
3AF89
330
3AF87
100
AcDbEntity
  8
0
100
AcDbBlockEnd
  0
BLOCK
  5
3AF94
330
3AF93
100
AcDbEntity
  8
0
100
AcDbBlockBegin
  2
*D16
 70
     1
 10
0.0
 20
0.0
 30
0.0
  3
*D16
  1

  0
LINE
  5
41882
330
3AF93
100
AcDbEntity
  8
30
 62
     0
440
 16777216
370
    -2
100
AcDbLine
 10
532.9942994110381
 20
186.8105899631007
 30
0.0
 11
597.8940214460663
 21
186.8105899631007
 31
0.0
  0
LINE
  5
41883
330
3AF93
100
AcDbEntity
  8
30
 62
     0
440
 16777216
370
    -2
100
AcDbLine
 10
532.9942994110381
 20
138.8105899631007
 30
0.0
 11
597.8940214460663
 21
138.8105899631007
 31
0.0
  0
LINE
  5
41884
330
3AF93
100
AcDbEntity
  8
30
440
 16777216
370
    -2
100
AcDbLine
 10
597.3940214460663
 20
183.8105899631007
 30
0.0
 11
597.3940214460663
 21
141.8105899631006
 31
0.0
  0
INSERT
  5
41885
330
3AF93
100
AcDbEntity
  8
30
440
 16777216
370
    -2
100
AcDbBlockReference
  2
_OPEN
 10
597.3940214460663
 20
186.8105899631007
 30
0.0
 41
3.0
 42
3.0
 43
3.0
 50
90.0
  0
INSERT
  5
41886
330
3AF93
100
AcDbEntity
  8
30
440
 16777216
370
    -2
100
AcDbBlockReference
  2
_OPEN
 10
597.3940214460663
 20
138.8105899631007
 30
0.0
 41
3.0
 42
3.0
 43
3.0
 50
270.0
  0
MTEXT
  5
41887
330
3AF93
100
AcDbEntity
  8
30
440
 16777216
100
AcDbMText
 10
587.3940214460662
 20
162.8105899631007
 30
0.0
 40
7.0
 41
0.0
 46
0.0
 71
     2
 72
     1
  1
\A1;48
 11
0.0000000000000001
 21
1.0
 31
0.0
 73
     1
 44
1.0
 90
        3
 63
     9
421
 13158600
 45
1.25
441
        0
  0
POINT
  5
41888
330
3AF93
100
AcDbEntity
  8
DEFPOINTS
 62
     0
440
 16777216
100
AcDbPoint
 10
531.9942994110381
 20
186.8105899631007
 30
0.0
  0
POINT
  5
41889
330
3AF93
100
AcDbEntity
  8
DEFPOINTS
 62
     0
440
 16777216
100
AcDbPoint
 10
531.9942994110381
 20
138.8105899631007
 30
0.0
  0
POINT
  5
4188A
330
3AF93
100
AcDbEntity
  8
DEFPOINTS
 62
     0
440
 16777216
100
AcDbPoint
 10
597.3940214460663
 20
138.8105899631007
 30
0.0
  0
ENDBLK
  5
3AF95
330
3AF93
100
AcDbEntity
  8
0
100
AcDbBlockEnd
  0
BLOCK
  5
3AFAC
330
3AFAB
100
AcDbEntity
  8
0
100
AcDbBlockBegin
  2
*D17
 70
     1
 10
0.0
 20
0.0
 30
0.0
  3
*D17
  1

  0
LINE
  5
41894
330
3AFAB
100
AcDbEntity
  8
30
  6
Continuous
 62
     0
440
 16777216
370
    -2
100
AcDbLine
 10
533.8566016300733
 20
188.1625743263676
 30
0.0
 11
537.6084098659331
 21
192.9008999399671
 31
0.0
  0
LINE
  5
41895
330
3AFAB
100
AcDbEntity
  8
30
  6
Continuous
 62
     0
440
 16777216
370
    -2
100
AcDbLine
 10
537.6084098659331
 20
192.9008999399671
 30
0.0
 11
548.9417431992666
 21
192.900899939967
 31
0.0
  0
LINE
  5
41896
330
3AFAB
100
AcDbEntity
  8
30
  6
Continuous
 62
     0
440
 16777216
370
    -2
100
AcDbLine
 10
531.9942994110373
 20
185.8105899631001
 30
0.0
 11
532.6150668173883
 21
186.5945847508629
 31
0.0
  0
INSERT
  5
41897
330
3AFAB
100
AcDbEntity
  8
30
  6
Continuous
 62
     0
440
 16777216
370
    -2
100
AcDbBlockReference
  2
_OPEN
 10
532.6150668173883
 20
186.5945847508629
 30
0.0
 41
2.0
 42
2.0
 43
2.0
 50
231.627803768764
  0
MTEXT
  5
41898
330
3AFAB
100
AcDbEntity
  8
30
  6
Continuous
 62
     0
440
 16777216
100
AcDbMText
 10
539.6084098659331
 20
201.9008999399673
 30
0.0
 40
7.0
 41
0.0
 46
0.0
 71
     1
 72
     1
  1
\A1;R1
 73
     1
 44
1.0
  0
POINT
  5
41899
330
3AFAB
100
AcDbEntity
  8
DEFPOINTS
  6
Continuous
 62
     0
440
 16777216
100
AcDbPoint
 10
532.6150668173883
 20
186.5945847508629
 30
0.0
  0
POINT
  5
4189A
330
3AFAB
100
AcDbEntity
  8
DEFPOINTS
  6
Continuous
 62
     0
440
 16777216
100
AcDbPoint
 10
531.9942994110373
 20
185.8105899631001
 30
0.0
  0
ENDBLK
  5
3AFAD
330
3AFAB
100
AcDbEntity
  8
0
100
AcDbBlockEnd
  0
BLOCK
  5
3AFB6
330
3AFB5
100
AcDbEntity
  8
0
100
AcDbBlockBegin
  2
*D18
 70
     1
 10
0.0
 20
0.0
 30
0.0
  3
*D18
  1

  0
LINE
  5
41C76
330
3AFB5
100
AcDbEntity
  8
30
 62
     0
440
 16777216
370
    -2
100
AcDbLine
 10
533.0461827462443
 20
136.8105899631007
 30
0.0
 11
533.0461827462443
 21
49.17977888600489
 31
0.0
  0
LINE
  5
41C77
330
3AFB5
100
AcDbEntity
  8
30
 62
     0
440
 16777216
370
    -2
100
AcDbLine
 10
509.0461827462442
 20
136.8105899631007
 30
0.0
 11
509.0461827462442
 21
49.17977888600489
 31
0.0
  0
LINE
  5
41C78
330
3AFB5
100
AcDbEntity
  8
30
 62
     0
440
 16777216
370
    -2
100
AcDbLine
 10
531.0461827462443
 20
49.6797788860049
 30
0.0
 11
511.0461827462442
 21
49.6797788860049
 31
0.0
  0
INSERT
  5
41C79
330
3AFB5
100
AcDbEntity
  8
30
 62
     0
440
 16777216
370
    -2
100
AcDbBlockReference
  2
_OPEN
 10
533.0461827462443
 20
49.6797788860049
 30
0.0
 41
2.0
 42
2.0
 43
2.0
  0
INSERT
  5
41C7A
330
3AFB5
100
AcDbEntity
  8
30
 62
     0
440
 16777216
370
    -2
100
AcDbBlockReference
  2
_OPEN
 10
509.0461827462442
 20
49.6797788860049
 30
0.0
 41
2.0
 42
2.0
 43
2.0
 50
180.0
  0
MTEXT
  5
41C7B
330
3AFB5
100
AcDbEntity
  8
30
 62
     0
440
 16777216
100
AcDbMText
 10
521.0461827462443
 20
58.67977888600488
 30
0.0
 40
7.0
 41
0.0
 46
0.0
 71
     2
 72
     1
  1
\A1;24
 73
     1
 44
1.0
  0
POINT
  5
41C7C
330
3AFB5
100
AcDbEntity
  8
DEFPOINTS
 62
     0
440
 16777216
100
AcDbPoint
 10
533.0461827462443
 20
139.8105899631007
 30
0.0
  0
POINT
  5
41C7D
330
3AFB5
100
AcDbEntity
  8
DEFPOINTS
 62
     0
440
 16777216
100
AcDbPoint
 10
509.0461827462442
 20
139.8105899631007
 30
0.0
  0
POINT
  5
41C7E
330
3AFB5
100
AcDbEntity
  8
DEFPOINTS
 62
     0
440
 16777216
100
AcDbPoint
 10
509.0461827462442
 20
49.6797788860049
 30
0.0
  0
ENDBLK
  5
3AFB7
330
3AFB5
100
AcDbEntity
  8
0
100
AcDbBlockEnd
  0
BLOCK
  5
3AFC2
330
3AFC1
100
AcDbEntity
  8
0
100
AcDbBlockBegin
  2
*D19
 70
     1
 10
0.0
 20
0.0
 30
0.0
  3
*D19
  1

  0
LINE
  5
418A4
330
3AFC1
100
AcDbEntity
  8
30
 62
     0
440
 16777216
370
    -2
100
AcDbLine
 10
534.7980404847069
 20
691.9381013886741
 30
0.0
 11
559.798040484707
 21
691.9381013886741
 31
0.0
  0
LINE
  5
418A5
330
3AFC1
100
AcDbEntity
  8
30
 62
     0
440
 16777216
370
    -2
100
AcDbLine
 10
540.2980404847069
 20
708.4381013886743
 30
0.0
 11
559.798040484707
 21
708.4381013886743
 31
0.0
  0
LINE
  5
418A6
330
3AFC1
100
AcDbEntity
  8
30
440
 16777216
370
    -2
100
AcDbLine
 10
559.298040484707
 20
705.4381013886746
 30
0.0
 11
559.298040484707
 21
694.9381013886741
 31
0.0
  0
LINE
  5
418A7
330
3AFC1
100
AcDbEntity
  8
30
440
 16777216
370
    -2
100
AcDbLine
 10
559.298040484707
 20
691.9381013886741
 30
0.0
 11
559.298040484707
 21
627.4047680553406
 31
0.0
  0
INSERT
  5
418A8
330
3AFC1
100
AcDbEntity
  8
30
440
 16777216
370
    -2
100
AcDbBlockReference
  2
_OPEN
 10
559.298040484707
 20
708.4381013886743
 30
0.0
 41
3.0
 42
3.0
 43
3.0
 50
90.0
  0
INSERT
  5
418A9
330
3AFC1
100
AcDbEntity
  8
30
440
 16777216
370
    -2
100
AcDbBlockReference
  2
_OPEN
 10
559.298040484707
 20
691.9381013886741
 30
0.0
 41
3.0
 42
3.0
 43
3.0
 50
270.0
  0
MTEXT
  5
418AA
330
3AFC1
100
AcDbEntity
  8
30
440
 16777216
100
AcDbMText
 10
549.2980404847068
 20
658.1714347220072
 30
0.0
 40
7.0
 41
0.0
 46
0.0
 71
     2
 72
     1
  1
\A1;16.5 (max.)
 11
0.0000000000000001
 21
1.0
 31
0.0
 73
     1
 44
1.0
 90
        3
 63
     9
421
 13158600
 45
1.25
441
        0
  0
POINT
  5
418AB
330
3AFC1
100
AcDbEntity
  8
DEFPOINTS
 62
     0
440
 16777216
100
AcDbPoint
 10
533.7980404847069
 20
691.9381013886741
 30
0.0
  0
POINT
  5
418AC
330
3AFC1
100
AcDbEntity
  8
DEFPOINTS
 62
     0
440
 16777216
100
AcDbPoint
 10
539.2980404847069
 20
708.4381013886743
 30
0.0
  0
POINT
  5
418AD
330
3AFC1
100
AcDbEntity
  8
DEFPOINTS
 62
     0
440
 16777216
100
AcDbPoint
 10
559.298040484707
 20
708.4381013886743
 30
0.0
  0
ENDBLK
  5
3AFC3
330
3AFC1
100
AcDbEntity
  8
0
100
AcDbBlockEnd
  0
BLOCK
  5
3AFD0
330
3AFCF
100
AcDbEntity
  8
0
100
AcDbBlockBegin
  2
*D20
 70
     1
 10
0.0
 20
0.0
 30
0.0
  3
*D20
  1

  0
LINE
  5
418AE
330
3AFCF
100
AcDbEntity
  8
30
 62
     0
440
 16777216
370
    -2
100
AcDbLine
 10
528.803825870171
 20
693.4303563892542
 30
0.0
 11
524.79225509924
 21
690.4458463878943
 31
0.0
  0
LINE
  5
418AF
330
3AFCF
100
AcDbEntity
  8
30
 62
     0
440
 16777216
370
    -2
100
AcDbLine
 10
523.1876267908163
 20
689.2520423873123
 30
0.0
 11
504.8409059330093
 21
675.6025332501288
 31
0.0
  0
LINE
  5
418B0
330
3AFCF
100
AcDbEntity
  8
30
 62
     0
440
 16777216
370
    -2
100
AcDbLine
 10
504.8409059330093
 20
675.6025332501288
 30
0.0
 11
491.174239266343
 21
675.6025332501288
 31
0.0
  0
INSERT
  5
418B1
330
3AFCF
100
AcDbEntity
  8
30
 62
     0
440
 16777216
370
    -2
100
AcDbBlockReference
  2
_OPEN
 10
530.4084541785946
 20
694.6241603898362
 30
0.0
 41
2.0
 42
2.0
 43
2.0
 50
36.64834048539623
  0
INSERT
  5
418B2
330
3AFCF
100
AcDbEntity
  8
30
 62
     0
440
 16777216
370
    -2
100
AcDbBlockReference
  2
_OPEN
 10
523.1876267908163
 20
689.2520423873123
 30
0.0
 41
2.0
 42
2.0
 43
2.0
 50
216.6483404853962
  0
MTEXT
  5
418B3
330
3AFCF
100
AcDbEntity
  8
30
 62
     0
440
 16777216
100
AcDbMText
 10
491.1742392663428
 20
684.6025332501287
 30
0.0
 40
7.0
 41
0.0
 46
0.0
 71
     1
 72
     1
  1
\A1;∅9
 73
     1
 44
1.0
  0
POINT
  5
418B4
330
3AFCF
100
AcDbEntity
  8
DEFPOINTS
 62
     0
440
 16777216
100
AcDbPoint
 10
523.1876267908163
 20
689.2520423873123
 30
0.0
  0
POINT
  5
418B5
330
3AFCF
100
AcDbEntity
  8
DEFPOINTS
 62
     0
440
 16777216
100
AcDbPoint
 10
530.4084541785946
 20
694.6241603898362
 30
0.0
  0
ENDBLK
  5
3AFD1
330
3AFCF
100
AcDbEntity
  8
0
100
AcDbBlockEnd
  0
BLOCK
  5
3AFDB
330
3AFDA
100
AcDbEntity
  8
0
100
AcDbBlockBegin
  2
*D21
 70
     1
 10
0.0
 20
0.0
 30
0.0
  3
*D21
  1

  0
LINE
  5
418B6
330
3AFDA
100
AcDbEntity
  8
30
 62
     0
440
 16777216
370
    -2
100
AcDbLine
 10
514.2980404847069
 20
668.9381013886741
 30
0.0
 11
514.2980404847069
 21
649.2717805386746
 31
0.0
  0
LINE
  5
418B7
330
3AFDA
100
AcDbEntity
  8
30
 62
     0
440
 16777216
370
    -2
100
AcDbLine
 10
539.2980404847069
 20
668.9381013886741
 30
0.0
 11
539.2980404847069
 21
649.2717805386746
 31
0.0
  0
LINE
  5
418B8
330
3AFDA
100
AcDbEntity
  8
30
 62
     0
440
 16777216
370
    -2
100
AcDbLine
 10
537.2980404847067
 20
649.7717805386746
 30
0.0
 11
516.2980404847067
 21
649.7717805386746
 31
0.0
  0
LINE
  5
418B9
330
3AFDA
100
AcDbEntity
  8
30
 62
     0
440
 16777216
370
    -2
100
AcDbLine
 10
514.2980404847069
 20
649.7717805386746
 30
0.0
 11
459.7647071513732
 21
649.7717805386746
 31
0.0
  0
INSERT
  5
418BA
330
3AFDA
100
AcDbEntity
  8
30
 62
     0
440
 16777216
370
    -2
100
AcDbBlockReference
  2
_OPEN
 10
539.2980404847069
 20
649.7717805386746
 30
0.0
 41
2.0
 42
2.0
 43
2.0
  0
INSERT
  5
418BB
330
3AFDA
100
AcDbEntity
  8
30
 62
     0
440
 16777216
370
    -2
100
AcDbBlockReference
  2
_OPEN
 10
514.2980404847069
 20
649.7717805386746
 30
0.0
 41
2.0
 42
2.0
 43
2.0
 50
180.0
  0
MTEXT
  5
418BC
330
3AFDA
100
AcDbEntity
  8
30
 62
     0
440
 16777216
100
AcDbMText
 10
486.03137381804
 20
658.7717805386746
 30
0.0
 40
7.0
 41
0.0
 46
0.0
 71
     2
 72
     1
  1
\A1;25 (max.)
 73
     1
 44
1.0
  0
POINT
  5
418BD
330
3AFDA
100
AcDbEntity
  8
DEFPOINTS
 62
     0
440
 16777216
100
AcDbPoint
 10
514.2980404847069
 20
671.938101388674
 30
0.0
  0
POINT
  5
418BE
330
3AFDA
100
AcDbEntity
  8
DEFPOINTS
 62
     0
440
 16777216
100
AcDbPoint
 10
539.2980404847069
 20
671.938101388674
 30
0.0
  0
POINT
  5
418BF
330
3AFDA
100
AcDbEntity
  8
DEFPOINTS
 62
     0
440
 16777216
100
AcDbPoint
 10
539.2980404847069
 20
649.7717805386746
 30
0.0
  0
ENDBLK
  5
3AFDC
330
3AFDA
100
AcDbEntity
  8
0
100
AcDbBlockEnd
  0
BLOCK
  5
3AFE8
330
3AFE7
100
AcDbEntity
  8
0
100
AcDbBlockBegin
  2
*D22
 70
     1
 10
0.0
 20
0.0
 30
0.0
  3
*D22
  1

  0
LINE
  5
41C62
330
3AFE7
100
AcDbEntity
  8
30
 62
     0
440
 16777216
370
    -2
100
AcDbLine
 10
427.6639242904501
 20
680.0741909779817
 30
0.0
 11
466.2126704450711
 21
680.0741909779817
 31
0.0
  0
LINE
  5
41C63
330
3AFE7
100
AcDbEntity
  8
30
 62
     0
440
 16777216
370
    -2
100
AcDbLine
 10
456.4707592258502
 20
696.5741909779817
 30
0.0
 11
466.2126704450711
 21
696.5741909779817
 31
0.0
  0
LINE
  5
41C64
330
3AFE7
100
AcDbEntity
  8
30
 62
     0
440
 16777216
370
    -2
100
AcDbLine
 10
465.7126704450711
 20
682.0741909779817
 30
0.0
 11
465.7126704450711
 21
694.5741909779817
 31
0.0
  0
LINE
  5
41C65
330
3AFE7
100
AcDbEntity
  8
30
 62
     0
440
 16777216
370
    -2
100
AcDbLine
 10
465.7126704450711
 20
696.5741909779817
 30
0.0
 11
465.7126704450711
 21
724.3741909779819
 31
0.0
  0
LINE
  5
41C66
330
3AFE7
100
AcDbEntity
  8
30
 62
     0
440
 16777216
370
    -2
100
AcDbLine
 10
465.7126704450711
 20
724.3741909779819
 30
0.0
 11
523.2460037784044
 21
724.3741909779819
 31
0.0
  0
INSERT
  5
41C67
330
3AFE7
100
AcDbEntity
  8
30
 62
     0
440
 16777216
370
    -2
100
AcDbBlockReference
  2
_OPEN
 10
465.7126704450711
 20
680.0741909779817
 30
0.0
 41
2.0
 42
2.0
 43
2.0
 50
270.0
  0
INSERT
  5
41C68
330
3AFE7
100
AcDbEntity
  8
30
 62
     0
440
 16777216
370
    -2
100
AcDbBlockReference
  2
_OPEN
 10
465.7126704450711
 20
696.5741909779817
 30
0.0
 41
2.0
 42
2.0
 43
2.0
 50
90.0
  0
MTEXT
  5
41C69
330
3AFE7
100
AcDbEntity
  8
30
 62
     0
440
 16777216
100
AcDbMText
 10
495.4793371117378
 20
733.374190977982
 30
0.0
 40
7.0
 41
0.0
 46
0.0
 71
     2
 72
     1
  1
\A1;16.5 (max.)
 73
     1
 44
1.0
  0
POINT
  5
41C6A
330
3AFE7
100
AcDbEntity
  8
DEFPOINTS
 62
     0
440
 16777216
100
AcDbPoint
 10
424.6639242904501
 20
680.0741909779817
 30
0.0
  0
POINT
  5
41C6B
330
3AFE7
100
AcDbEntity
  8
DEFPOINTS
 62
     0
440
 16777216
100
AcDbPoint
 10
453.4707592258503
 20
696.5741909779817
 30
0.0
  0
POINT
  5
41C6C
330
3AFE7
100
AcDbEntity
  8
DEFPOINTS
 62
     0
440
 16777216
100
AcDbPoint
 10
465.7126704450711
 20
696.5741909779817
 30
0.0
  0
ENDBLK
  5
3AFE9
330
3AFE7
100
AcDbEntity
  8
0
100
AcDbBlockEnd
  0
BLOCK
  5
3AFF6
330
3AFF5
100
AcDbEntity
  8
0
100
AcDbBlockBegin
  2
*D23
 70
     1
 10
0.0
 20
0.0
 30
0.0
  3
*D23
  1

  0
LINE
  5
418CB
330
3AFF5
100
AcDbEntity
  8
30
 62
     0
440
 16777216
370
    -2
100
AcDbLine
 10
383.3639242904501
 20
719.5741909779817
 30
0.0
 11
383.3639242904501
 21
744.5695449059115
 31
0.0
  0
LINE
  5
418CC
330
3AFF5
100
AcDbEntity
  8
30
 62
     0
440
 16777216
370
    -2
100
AcDbLine
 10
367.1639242904503
 20
736.7107127591816
 30
0.0
 11
367.1639242904503
 21
744.5695449059115
 31
0.0
  0
LINE
  5
418CD
330
3AFF5
100
AcDbEntity
  8
30
 62
     0
440
 16777216
370
    -2
100
AcDbLine
 10
381.3639242904502
 20
744.0695449059115
 30
0.0
 11
369.1639242904503
 21
744.0695449059115
 31
0.0
  0
INSERT
  5
418CE
330
3AFF5
100
AcDbEntity
  8
30
 62
     0
440
 16777216
370
    -2
100
AcDbBlockReference
  2
_OPEN
 10
383.3639242904501
 20
744.0695449059115
 30
0.0
 41
2.0
 42
2.0
 43
2.0
  0
INSERT
  5
418CF
330
3AFF5
100
AcDbEntity
  8
30
 62
     0
440
 16777216
370
    -2
100
AcDbBlockReference
  2
_OPEN
 10
367.1639242904503
 20
744.0695449059115
 30
0.0
 41
2.0
 42
2.0
 43
2.0
 50
180.0
  0
MTEXT
  5
418D0
330
3AFF5
100
AcDbEntity
  8
30
 62
     0
440
 16777216
100
AcDbMText
 10
375.2639242904503
 20
753.0695449059115
 30
0.0
 40
7.0
 41
0.0
 46
0.0
 71
     2
 72
     1
  1
\A1;16.2
 73
     1
 44
1.0
  0
POINT
  5
418D1
330
3AFF5
100
AcDbEntity
  8
DEFPOINTS
 62
     0
440
 16777216
100
AcDbPoint
 10
383.3639242904501
 20
716.5741909779817
 30
0.0
  0
POINT
  5
418D2
330
3AFF5
100
AcDbEntity
  8
DEFPOINTS
 62
     0
440
 16777216
100
AcDbPoint
 10
367.1639242904503
 20
733.7107127591816
 30
0.0
  0
POINT
  5
418D3
330
3AFF5
100
AcDbEntity
  8
DEFPOINTS
 62
     0
440
 16777216
100
AcDbPoint
 10
367.1639242904503
 20
744.0695449059115
 30
0.0
  0
ENDBLK
  5
3AFF7
330
3AFF5
100
AcDbEntity
  8
0
100
AcDbBlockEnd
  0
BLOCK
  5
3B002
330
3B001
100
AcDbEntity
  8
0
100
AcDbBlockBegin
  2
*D24
 70
     1
 10
0.0
 20
0.0
 30
0.0
  3
*D24
  1

  0
LINE
  5
418D4
330
3B001
100
AcDbEntity
  8
30
 62
     0
440
 16777216
370
    -2
100
AcDbLine
 10
424.1639216382158
 20
673.6941940773817
 30
0.0
 11
424.1639216382158
 21
641.5941972177819
 31
0.0
  0
LINE
  5
418D5
330
3B001
100
AcDbEntity
  8
30
 62
     0
440
 16777216
370
    -2
100
AcDbLine
 10
397.1639215946157
 20
664.2741940773817
 30
0.0
 11
397.1639215946157
 21
641.5941972177819
 31
0.0
  0
LINE
  5
418D6
330
3B001
100
AcDbEntity
  8
30
 62
     0
440
 16777216
370
    -2
100
AcDbLine
 10
422.1639216382158
 20
642.0941972177819
 30
0.0
 11
399.1639215946157
 21
642.0941972177819
 31
0.0
  0
INSERT
  5
418D7
330
3B001
100
AcDbEntity
  8
30
 62
     0
440
 16777216
370
    -2
100
AcDbBlockReference
  2
_OPEN
 10
424.1639216382158
 20
642.0941972177819
 30
0.0
 41
2.0
 42
2.0
 43
2.0
  0
INSERT
  5
418D8
330
3B001
100
AcDbEntity
  8
30
 62
     0
440
 16777216
370
    -2
100
AcDbBlockReference
  2
_OPEN
 10
397.1639215946157
 20
642.0941972177819
 30
0.0
 41
2.0
 42
2.0
 43
2.0
 50
180.0
  0
MTEXT
  5
418D9
330
3B001
100
AcDbEntity
  8
30
 62
     0
440
 16777216
100
AcDbMText
 10
410.6639216164153
 20
651.0941972177819
 30
0.0
 40
7.0
 41
0.0
 46
0.0
 71
     2
 72
     1
  1
\A1;13.5
 73
     1
 44
1.0
  0
POINT
  5
418DA
330
3B001
100
AcDbEntity
  8
DEFPOINTS
 62
     0
440
 16777216
100
AcDbPoint
 10
424.1639216382158
 20
676.6941940773818
 30
0.0
  0
POINT
  5
418DB
330
3B001
100
AcDbEntity
  8
DEFPOINTS
 62
     0
440
 16777216
100
AcDbPoint
 10
397.1639215946157
 20
667.2741940773817
 30
0.0
  0
POINT
  5
418DC
330
3B001
100
AcDbEntity
  8
DEFPOINTS
 62
     0
440
 16777216
100
AcDbPoint
 10
397.1639215946157
 20
642.0941972177819
 30
0.0
  0
ENDBLK
  5
3B003
330
3B001
100
AcDbEntity
  8
0
100
AcDbBlockEnd
  0
BLOCK
  5
3B00E
330
3B00D
100
AcDbEntity
  8
0
100
AcDbBlockBegin
  2
*D25
 70
     1
 10
0.0
 20
0.0
 30
0.0
  3
*D25
  1

  0
LINE
  5
418DD
330
3B00D
100
AcDbEntity
  8
30
 62
     0
440
 16777216
370
    -2
100
AcDbLine
 10
370.1639216382155
 20
699.5741943455819
 30
0.0
 11
370.1639216382155
 21
641.5941974859819
 31
0.0
  0
LINE
  5
418DE
330
3B00D
100
AcDbEntity
  8
30
 62
     0
440
 16777216
370
    -2
100
AcDbLine
 10
397.1639215946157
 20
664.2741940773817
 30
0.0
 11
397.1639215946157
 21
641.5941974859819
 31
0.0
  0
LINE
  5
418DF
330
3B00D
100
AcDbEntity
  8
30
 62
     0
440
 16777216
370
    -2
100
AcDbLine
 10
372.1639216382155
 20
642.0941974859819
 30
0.0
 11
395.1639215946157
 21
642.0941974859819
 31
0.0
  0
INSERT
  5
418E0
330
3B00D
100
AcDbEntity
  8
30
 62
     0
440
 16777216
370
    -2
100
AcDbBlockReference
  2
_OPEN
 10
370.1639216382155
 20
642.0941974859819
 30
0.0
 41
2.0
 42
2.0
 43
2.0
 50
180.0
  0
INSERT
  5
418E1
330
3B00D
100
AcDbEntity
  8
30
 62
     0
440
 16777216
370
    -2
100
AcDbBlockReference
  2
_OPEN
 10
397.1639215946157
 20
642.0941974859819
 30
0.0
 41
2.0
 42
2.0
 43
2.0
  0
MTEXT
  5
418E2
330
3B00D
100
AcDbEntity
  8
30
 62
     0
440
 16777216
100
AcDbMText
 10
383.6639216164154
 20
651.0941974859819
 30
0.0
 40
7.0
 41
0.0
 46
0.0
 71
     2
 72
     1
  1
\A1;13.5
 73
     1
 44
1.0
  0
POINT
  5
418E3
330
3B00D
100
AcDbEntity
  8
DEFPOINTS
 62
     0
440
 16777216
100
AcDbPoint
 10
370.1639216382155
 20
702.5741943455819
 30
0.0
  0
POINT
  5
418E4
330
3B00D
100
AcDbEntity
  8
DEFPOINTS
 62
     0
440
 16777216
100
AcDbPoint
 10
397.1639215946157
 20
667.2741940773817
 30
0.0
  0
POINT
  5
418E5
330
3B00D
100
AcDbEntity
  8
DEFPOINTS
 62
     0
440
 16777216
100
AcDbPoint
 10
397.1639215946157
 20
642.0941974859819
 30
0.0
  0
ENDBLK
  5
3B00F
330
3B00D
100
AcDbEntity
  8
0
100
AcDbBlockEnd
  0
BLOCK
  5
3B01A
330
3B019
100
AcDbEntity
  8
0
100
AcDbBlockBegin
  2
*D26
 70
     1
 10
0.0
 20
0.0
 30
0.0
  3
*D26
  1

  0
LINE
  5
418E6
330
3B019
100
AcDbEntity
  8
30
 62
     0
440
 16777216
370
    -2
100
AcDbLine
 10
352.1639216382155
 20
661.0740940635817
 30
0.0
 11
352.1639216382155
 21
641.5941972177819
 31
0.0
  0
LINE
  5
418E7
330
3B019
100
AcDbEntity
  8
30
 62
     0
440
 16777216
370
    -2
100
AcDbLine
 10
370.1639216382155
 20
699.5741943455819
 30
0.0
 11
370.1639216382155
 21
641.5941972177819
 31
0.0
  0
LINE
  5
418E8
330
3B019
100
AcDbEntity
  8
30
 62
     0
440
 16777216
370
    -2
100
AcDbLine
 10
354.1639216382155
 20
642.0941972177819
 30
0.0
 11
368.1639216382155
 21
642.0941972177819
 31
0.0
  0
INSERT
  5
418E9
330
3B019
100
AcDbEntity
  8
30
 62
     0
440
 16777216
370
    -2
100
AcDbBlockReference
  2
_OPEN
 10
352.1639216382155
 20
642.0941972177819
 30
0.0
 41
2.0
 42
2.0
 43
2.0
 50
180.0
  0
INSERT
  5
418EA
330
3B019
100
AcDbEntity
  8
30
 62
     0
440
 16777216
370
    -2
100
AcDbBlockReference
  2
_OPEN
 10
370.1639216382155
 20
642.0941972177819
 30
0.0
 41
2.0
 42
2.0
 43
2.0
  0
MTEXT
  5
418EB
330
3B019
100
AcDbEntity
  8
30
 62
     0
440
 16777216
100
AcDbMText
 10
361.1639216382155
 20
651.0941972177819
 30
0.0
 40
7.0
 41
0.0
 46
0.0
 71
     2
 72
     1
  1
\A1;18
 73
     1
 44
1.0
  0
POINT
  5
418EC
330
3B019
100
AcDbEntity
  8
DEFPOINTS
 62
     0
440
 16777216
100
AcDbPoint
 10
352.1639216382155
 20
664.0740940635818
 30
0.0
  0
POINT
  5
418ED
330
3B019
100
AcDbEntity
  8
DEFPOINTS
 62
     0
440
 16777216
100
AcDbPoint
 10
370.1639216382155
 20
702.5741943455819
 30
0.0
  0
POINT
  5
418EE
330
3B019
100
AcDbEntity
  8
DEFPOINTS
 62
     0
440
 16777216
100
AcDbPoint
 10
370.1639216382155
 20
642.0941972177819
 30
0.0
  0
ENDBLK
  5
3B01B
330
3B019
100
AcDbEntity
  8
0
100
AcDbBlockEnd
  0
BLOCK
  5
3B056
330
3B055
100
AcDbEntity
  8
0
100
AcDbBlockBegin
  2
*D27
 70
     1
 10
0.0
 20
0.0
 30
0.0
  3
*D27
  1

  0
LINE
  5
41ADC
330
3B055
100
AcDbEntity
  8
30
 62
     0
370
    -2
100
AcDbLine
 10
109.9470134792318
 20
129.8260052459939
 30
0.0
 11
109.9470134792318
 21
48.1469628052357
 31
0.0
  0
LINE
  5
41ADD
330
3B055
100
AcDbEntity
  8
30
 62
     0
370
    -2
100
AcDbLine
 10
81.94701347923183
 20
129.8260052459939
 30
0.0
 11
81.94701347923183
 21
48.1469628052357
 31
0.0
  0
LINE
  5
41ADE
330
3B055
100
AcDbEntity
  8
30
 62
     0
370
    -2
100
AcDbLine
 10
107.9470134792318
 20
48.6469628052357
 30
0.0
 11
83.94701347923183
 21
48.6469628052357
 31
0.0
  0
INSERT
  5
41ADF
330
3B055
100
AcDbEntity
  8
30
 62
     0
370
    -2
100
AcDbBlockReference
  2
_OPEN
 10
109.9470134792318
 20
48.6469628052357
 30
0.0
 41
2.0
 42
2.0
 43
2.0
  0
INSERT
  5
41AE0
330
3B055
100
AcDbEntity
  8
30
 62
     0
370
    -2
100
AcDbBlockReference
  2
_OPEN
 10
81.94701347923183
 20
48.6469628052357
 30
0.0
 41
2.0
 42
2.0
 43
2.0
 50
180.0
  0
MTEXT
  5
41AE1
330
3B055
100
AcDbEntity
  8
30
 62
     0
100
AcDbMText
 10
95.94701347923182
 20
54.1469628052357
 30
0.0
 40
7.0
 41
0.0
 46
0.0
 71
     5
 72
     1
  1
\A1;28
 73
     1
 44
1.0
  0
POINT
  5
41AE2
330
3B055
100
AcDbEntity
  8
DEFPOINTS
 62
     0
100
AcDbPoint
 10
109.9470134792318
 20
132.8260052459939
 30
0.0
  0
POINT
  5
41AE3
330
3B055
100
AcDbEntity
  8
DEFPOINTS
 62
     0
100
AcDbPoint
 10
81.94701347923183
 20
132.8260052459939
 30
0.0
  0
POINT
  5
41AE4
330
3B055
100
AcDbEntity
  8
DEFPOINTS
 62
     0
100
AcDbPoint
 10
81.94701347923183
 20
48.6469628052357
 30
0.0
  0
ENDBLK
  5
3B057
330
3B055
100
AcDbEntity
  8
0
100
AcDbBlockEnd
  0
BLOCK
  5
3B062
330
3B061
100
AcDbEntity
  8
0
100
AcDbBlockBegin
  2
*D28
 70
     1
 10
0.0
 20
0.0
 30
0.0
  3
*D28
  1

  0
LINE
  5
418F8
330
3B061
100
AcDbEntity
  8
30
 62
     0
440
 16777216
370
    -2
100
AcDbLine
 10
168.4470134792318
 20
194.8260052459939
 30
0.0
 11
200.1533982647789
 21
194.8260052459939
 31
0.0
  0
LINE
  5
418F9
330
3B061
100
AcDbEntity
  8
30
 62
     0
440
 16777216
370
    -2
100
AcDbLine
 10
168.9470134792318
 20
132.8260052459939
 30
0.0
 11
200.1533982647788
 21
132.8260052459939
 31
0.0
  0
LINE
  5
418FA
330
3B061
100
AcDbEntity
  8
30
440
 16777216
370
    -2
100
AcDbLine
 10
199.6533982647788
 20
191.8260052459939
 30
0.0
 11
199.6533982647788
 21
135.8260052459939
 31
0.0
  0
INSERT
  5
418FB
330
3B061
100
AcDbEntity
  8
30
440
 16777216
370
    -2
100
AcDbBlockReference
  2
_OPEN
 10
199.6533982647789
 20
194.8260052459939
 30
0.0
 41
3.0
 42
3.0
 43
3.0
 50
90.0
  0
INSERT
  5
418FC
330
3B061
100
AcDbEntity
  8
30
440
 16777216
370
    -2
100
AcDbBlockReference
  2
_OPEN
 10
199.6533982647788
 20
132.8260052459939
 30
0.0
 41
3.0
 42
3.0
 43
3.0
 50
270.0
  0
MTEXT
  5
418FD
330
3B061
100
AcDbEntity
  8
30
440
 16777216
100
AcDbMText
 10
193.1533982647788
 20
163.8260052459939
 30
0.0
 40
7.0
 41
0.0
 46
0.0
 71
     5
 72
     1
  1
\A1;62
 11
0.0000000000000001
 21
1.0
 31
0.0
 73
     1
 44
1.0
 90
        3
 63
     9
421
 13158600
 45
1.25
441
        0
  0
POINT
  5
418FE
330
3B061
100
AcDbEntity
  8
DEFPOINTS
 62
     0
440
 16777216
100
AcDbPoint
 10
167.4470134792318
 20
194.8260052459939
 30
0.0
  0
POINT
  5
418FF
330
3B061
100
AcDbEntity
  8
DEFPOINTS
 62
     0
440
 16777216
100
AcDbPoint
 10
167.9470134792318
 20
132.8260052459939
 30
0.0
  0
POINT
  5
41900
330
3B061
100
AcDbEntity
  8
DEFPOINTS
 62
     0
440
 16777216
100
AcDbPoint
 10
199.6533982647788
 20
132.8260052459939
 30
0.0
  0
ENDBLK
  5
3B063
330
3B061
100
AcDbEntity
  8
0
100
AcDbBlockEnd
  0
BLOCK
  5
3D67E
330
3D67D
100
AcDbEntity
  8
0
100
AcDbBlockBegin
  2
*D29
 70
     1
 10
0.0
 20
0.0
 30
0.0
  3
*D29
  1

  0
LINE
  5
4190A
330
3D67D
100
AcDbEntity
  8
30
 62
     0
440
 16777216
370
    -2
100
AcDbLine
 10
462.8017771638369
 20
590.8769910047896
 30
0.0
 11
515.3936472919398
 21
590.8769910047896
 31
0.0
  0
LINE
  5
4190B
330
3D67D
100
AcDbEntity
  8
30
 62
     0
440
 16777216
370
    -2
100
AcDbLine
 10
462.8017771638369
 20
410.8769910047898
 30
0.0
 11
515.3936472919398
 21
410.8769910047898
 31
0.0
  0
LINE
  5
4190C
330
3D67D
100
AcDbEntity
  8
30
440
 16777216
370
    -2
100
AcDbLine
 10
514.8936472919398
 20
587.8769910047897
 30
0.0
 11
514.8936472919398
 21
413.8769910047896
 31
0.0
  0
INSERT
  5
4190D
330
3D67D
100
AcDbEntity
  8
30
440
 16777216
370
    -2
100
AcDbBlockReference
  2
_OPEN
 10
514.8936472919398
 20
590.8769910047896
 30
0.0
 41
3.0
 42
3.0
 43
3.0
 50
90.0
  0
INSERT
  5
4190E
330
3D67D
100
AcDbEntity
  8
30
440
 16777216
370
    -2
100
AcDbBlockReference
  2
_OPEN
 10
514.8936472919398
 20
410.8769910047898
 30
0.0
 41
3.0
 42
3.0
 43
3.0
 50
270.0
  0
MTEXT
  5
4190F
330
3D67D
100
AcDbEntity
  8
30
440
 16777216
100
AcDbMText
 10
508.3936472919397
 20
500.8769910047896
 30
0.0
 40
7.0
 41
0.0
 46
0.0
 71
     5
 72
     1
  1
\A1;180
 11
0.0000000000000001
 21
1.0
 31
0.0
 73
     1
 44
1.0
 90
        3
 63
     9
421
 13158600
 45
1.25
441
        0
  0
POINT
  5
41910
330
3D67D
100
AcDbEntity
  8
DEFPOINTS
 62
     0
440
 16777216
100
AcDbPoint
 10
461.801777163837
 20
590.8769910047896
 30
0.0
  0
POINT
  5
41911
330
3D67D
100
AcDbEntity
  8
DEFPOINTS
 62
     0
440
 16777216
100
AcDbPoint
 10
461.801777163837
 20
410.8769910047898
 30
0.0
  0
POINT
  5
41912
330
3D67D
100
AcDbEntity
  8
DEFPOINTS
 62
     0
440
 16777216
100
AcDbPoint
 10
514.8936472919398
 20
410.8769910047898
 30
0.0
  0
ENDBLK
  5
3D67F
330
3D67D
100
AcDbEntity
  8
0
100
AcDbBlockEnd
  0
BLOCK
  5
3D68A
330
3D689
100
AcDbEntity
  8
0
100
AcDbBlockBegin
  2
*D30
 70
     1
 10
0.0
 20
0.0
 30
0.0
  3
*D30
  1

  0
LINE
  5
41BA2
330
3D689
100
AcDbEntity
  8
30
 62
     0
440
 16777216
370
    -2
100
AcDbLine
 10
285.8447494984813
 20
510.0046750503095
 30
0.0
 11
285.8447494984813
 21
343.9796203024803
 31
0.0
  0
LINE
  5
41BA3
330
3D689
100
AcDbEntity
  8
30
 62
     0
440
 16777216
370
    -2
100
AcDbLine
 10
403.801777163837
 20
447.501770457451
 30
0.0
 11
403.801777163837
 21
343.9796203024803
 31
0.0
  0
LINE
  5
41BA4
330
3D689
100
AcDbEntity
  8
30
440
 16777216
370
    -2
100
AcDbLine
 10
288.8447494984813
 20
344.4796203024803
 30
0.0
 11
400.8017771638368
 21
344.4796203024803
 31
0.0
  0
INSERT
  5
41BA5
330
3D689
100
AcDbEntity
  8
30
440
 16777216
370
    -2
100
AcDbBlockReference
  2
_OPEN
 10
285.8447494984813
 20
344.4796203024803
 30
0.0
 41
3.0
 42
3.0
 43
3.0
 50
180.0
  0
INSERT
  5
41BA6
330
3D689
100
AcDbEntity
  8
30
440
 16777216
370
    -2
100
AcDbBlockReference
  2
_OPEN
 10
403.801777163837
 20
344.4796203024803
 30
0.0
 41
3.0
 42
3.0
 43
3.0
  0
MTEXT
  5
41BA7
330
3D689
100
AcDbEntity
  8
30
440
 16777216
100
AcDbMText
 10
344.8232633311592
 20
350.9796203024803
 30
0.0
 40
7.0
 41
0.0
 46
0.0
 71
     5
 72
     1
  1
\A1;118
 73
     1
 44
1.0
 90
        3
 63
     9
421
 13158600
 45
1.25
441
        0
  0
POINT
  5
41BA8
330
3D689
100
AcDbEntity
  8
DEFPOINTS
 62
     0
440
 16777216
100
AcDbPoint
 10
285.8447494984813
 20
511.0046750503096
 30
0.0
  0
POINT
  5
41BA9
330
3D689
100
AcDbEntity
  8
DEFPOINTS
 62
     0
440
 16777216
100
AcDbPoint
 10
403.801777163837
 20
448.5017704574508
 30
0.0
  0
POINT
  5
41BAA
330
3D689
100
AcDbEntity
  8
DEFPOINTS
 62
     0
440
 16777216
100
AcDbPoint
 10
403.801777163837
 20
344.4796203024803
 30
0.0
  0
ENDBLK
  5
3D68B
330
3D689
100
AcDbEntity
  8
0
100
AcDbBlockEnd
  0
BLOCK
  5
3D696
330
3D695
100
AcDbEntity
  8
0
100
AcDbBlockBegin
  2
*D31
 70
     1
 10
0.0
 20
0.0
 30
0.0
  3
*D31
  1

  0
LINE
  5
41974
330
3D695
100
AcDbEntity
  8
30
 62
     0
440
 16777216
370
    -2
100
AcDbLine
 10
403.801777163837
 20
448.8735370194442
 30
0.0
 11
403.801777163837
 21
378.1201753895641
 31
0.0
  0
LINE
  5
41975
330
3D695
100
AcDbEntity
  8
30
 62
     0
440
 16777216
370
    -2
100
AcDbLine
 10
460.8017771638369
 20
409.8769910047896
 30
0.0
 11
460.8017771638369
 21
378.1201753895641
 31
0.0
  0
LINE
  5
41976
330
3D695
100
AcDbEntity
  8
30
440
 16777216
370
    -2
100
AcDbLine
 10
406.8017771638369
 20
378.6201753895641
 30
0.0
 11
457.801777163837
 21
378.6201753895641
 31
0.0
  0
INSERT
  5
41977
330
3D695
100
AcDbEntity
  8
30
440
 16777216
370
    -2
100
AcDbBlockReference
  2
_OPEN
 10
403.801777163837
 20
378.6201753895641
 30
0.0
 41
3.0
 42
3.0
 43
3.0
 50
180.0
  0
INSERT
  5
41978
330
3D695
100
AcDbEntity
  8
30
440
 16777216
370
    -2
100
AcDbBlockReference
  2
_OPEN
 10
460.8017771638369
 20
378.6201753895641
 30
0.0
 41
3.0
 42
3.0
 43
3.0
  0
MTEXT
  5
41979
330
3D695
100
AcDbEntity
  8
30
440
 16777216
100
AcDbMText
 10
432.3017771638369
 20
385.1201753895641
 30
0.0
 40
7.0
 41
0.0
 46
0.0
 71
     5
 72
     1
  1
\A1;57
 73
     1
 44
1.0
 90
        3
 63
     9
421
 13158600
 45
1.25
441
        0
  0
POINT
  5
4197A
330
3D695
100
AcDbEntity
  8
DEFPOINTS
 62
     0
440
 16777216
100
AcDbPoint
 10
403.801777163837
 20
449.8735370194442
 30
0.0
  0
POINT
  5
4197B
330
3D695
100
AcDbEntity
  8
DEFPOINTS
 62
     0
440
 16777216
100
AcDbPoint
 10
460.8017771638369
 20
410.8769910047898
 30
0.0
  0
POINT
  5
4197C
330
3D695
100
AcDbEntity
  8
DEFPOINTS
 62
     0
440
 16777216
100
AcDbPoint
 10
460.8017771638369
 20
378.6201753895641
 30
0.0
  0
ENDBLK
  5
3D697
330
3D695
100
AcDbEntity
  8
0
100
AcDbBlockEnd
  0
BLOCK
  5
3D6A2
330
3D6A1
100
AcDbEntity
  8
0
100
AcDbBlockBegin
  2
*D32
 70
     1
 10
0.0
 20
0.0
 30
0.0
  3
*D32
  1

  0
LINE
  5
41925
330
3D6A1
100
AcDbEntity
  8
30
 62
     0
440
 16777216
370
    -2
100
AcDbLine
 10
403.801777163837
 20
377.1201753895641
 30
0.0
 11
403.801777163837
 21
362.1437203558104
 31
0.0
  0
LINE
  5
41926
330
3D6A1
100
AcDbEntity
  8
30
 62
     0
440
 16777216
370
    -2
100
AcDbLine
 10
308.8017771638367
 20
474.8769890378901
 30
0.0
 11
308.8017771638367
 21
362.1437203558104
 31
0.0
  0
LINE
  5
41927
330
3D6A1
100
AcDbEntity
  8
30
440
 16777216
370
    -2
100
AcDbLine
 10
400.8017771638368
 20
362.6437203558105
 30
0.0
 11
311.8017771638367
 21
362.6437203558105
 31
0.0
  0
INSERT
  5
41928
330
3D6A1
100
AcDbEntity
  8
30
440
 16777216
370
    -2
100
AcDbBlockReference
  2
_OPEN
 10
403.801777163837
 20
362.6437203558105
 30
0.0
 41
3.0
 42
3.0
 43
3.0
  0
INSERT
  5
41929
330
3D6A1
100
AcDbEntity
  8
30
440
 16777216
370
    -2
100
AcDbBlockReference
  2
_OPEN
 10
308.8017771638367
 20
362.6437203558105
 30
0.0
 41
3.0
 42
3.0
 43
3.0
 50
180.0
  0
MTEXT
  5
4192A
330
3D6A1
100
AcDbEntity
  8
30
440
 16777216
100
AcDbMText
 10
356.3017771638369
 20
369.1437203558105
 30
0.0
 40
7.0
 41
0.0
 46
0.0
 71
     5
 72
     1
  1
\A1;95
 73
     1
 44
1.0
 90
        3
 63
     9
421
 13158600
 45
1.25
441
        0
  0
POINT
  5
4192B
330
3D6A1
100
AcDbEntity
  8
DEFPOINTS
 62
     0
440
 16777216
100
AcDbPoint
 10
403.801777163837
 20
378.1201753895641
 30
0.0
  0
POINT
  5
4192C
330
3D6A1
100
AcDbEntity
  8
DEFPOINTS
 62
     0
440
 16777216
100
AcDbPoint
 10
308.8017771638367
 20
475.8769890378901
 30
0.0
  0
POINT
  5
4192D
330
3D6A1
100
AcDbEntity
  8
DEFPOINTS
 62
     0
440
 16777216
100
AcDbPoint
 10
308.8017771638367
 20
362.6437203558105
 30
0.0
  0
ENDBLK
  5
3D6A3
330
3D6A1
100
AcDbEntity
  8
0
100
AcDbBlockEnd
  0
BLOCK
  5
3D6AE
330
3D6AD
100
AcDbEntity
  8
0
100
AcDbBlockBegin
  2
*D33
 70
     1
 10
0.0
 20
0.0
 30
0.0
  3
*D33
  1

  0
LINE
  5
4197D
330
3D6AD
100
AcDbEntity
  8
30
 62
     0
440
 16777216
370
    -2
100
AcDbLine
 10
403.801777163837
 20
409.8769895098466
 30
0.0
 11
403.801777163837
 21
378.1201753895641
 31
0.0
  0
LINE
  5
4197E
330
3D6AD
100
AcDbEntity
  8
30
 62
     0
440
 16777216
370
    -2
100
AcDbLine
 10
312.8017771638367
 20
448.87698903789
 30
0.0
 11
312.8017771638367
 21
378.1201753895641
 31
0.0
  0
LINE
  5
4197F
330
3D6AD
100
AcDbEntity
  8
30
440
 16777216
370
    -2
100
AcDbLine
 10
400.8017771638368
 20
378.6201753895641
 30
0.0
 11
315.8017771638367
 21
378.6201753895641
 31
0.0
  0
INSERT
  5
41980
330
3D6AD
100
AcDbEntity
  8
30
440
 16777216
370
    -2
100
AcDbBlockReference
  2
_OPEN
 10
403.801777163837
 20
378.6201753895641
 30
0.0
 41
3.0
 42
3.0
 43
3.0
  0
INSERT
  5
41981
330
3D6AD
100
AcDbEntity
  8
30
440
 16777216
370
    -2
100
AcDbBlockReference
  2
_OPEN
 10
312.8017771638367
 20
378.6201753895641
 30
0.0
 41
3.0
 42
3.0
 43
3.0
 50
180.0
  0
MTEXT
  5
41982
330
3D6AD
100
AcDbEntity
  8
30
440
 16777216
100
AcDbMText
 10
358.3017771638369
 20
385.1201753895641
 30
0.0
 40
7.0
 41
0.0
 46
0.0
 71
     5
 72
     1
  1
\A1;91
 73
     1
 44
1.0
 90
        3
 63
     9
421
 13158600
 45
1.25
441
        0
  0
POINT
  5
41983
330
3D6AD
100
AcDbEntity
  8
DEFPOINTS
 62
     0
440
 16777216
100
AcDbPoint
 10
403.801777163837
 20
410.8769895098466
 30
0.0
  0
POINT
  5
41984
330
3D6AD
100
AcDbEntity
  8
DEFPOINTS
 62
     0
440
 16777216
100
AcDbPoint
 10
312.8017771638367
 20
449.8769890378901
 30
0.0
  0
POINT
  5
41985
330
3D6AD
100
AcDbEntity
  8
DEFPOINTS
 62
     0
440
 16777216
100
AcDbPoint
 10
312.8017771638367
 20
378.6201753895641
 30
0.0
  0
ENDBLK
  5
3D6AF
330
3D6AD
100
AcDbEntity
  8
0
100
AcDbBlockEnd
  0
BLOCK
  5
3D6BA
330
3D6B9
100
AcDbEntity
  8
0
100
AcDbBlockBegin
  2
*D34
 70
     1
 10
0.0
 20
0.0
 30
0.0
  3
*D34
  1

  0
LINE
  5
41B17
330
3D6B9
100
AcDbEntity
  8
30
 62
     0
440
 16777216
370
    -2
100
AcDbLine
 10
308.8017771638367
 20
472.8769890378901
 30
0.0
 11
308.8017771638367
 21
362.1437203558104
 31
0.0
  0
LINE
  5
41B18
330
3D6B9
100
AcDbEntity
  8
30
 62
     0
440
 16777216
370
    -2
100
AcDbLine
 10
302.3017771638367
 20
475.3769890378896
 30
0.0
 11
302.3017771638367
 21
362.1437203558104
 31
0.0
  0
LINE
  5
41B19
330
3D6B9
100
AcDbEntity
  8
30
 62
     0
440
 16777216
370
    -2
100
AcDbLine
 10
310.8017771638367
 20
362.6437203558105
 30
0.0
 11
312.8017771638367
 21
362.6437203558105
 31
0.0
  0
LINE
  5
41B1A
330
3D6B9
100
AcDbEntity
  8
30
 62
     0
440
 16777216
370
    -2
100
AcDbLine
 10
300.3017771638367
 20
362.6437203558105
 30
0.0
 11
259.8017771638367
 21
362.6437203558105
 31
0.0
  0
LINE
  5
41B1B
330
3D6B9
100
AcDbEntity
  8
30
 62
     0
440
 16777216
370
    -2
100
AcDbLine
 10
308.8017771638367
 20
362.6437203558105
 30
0.0
 11
302.3017771638367
 21
362.6437203558105
 31
0.0
  0
INSERT
  5
41B1C
330
3D6B9
100
AcDbEntity
  8
30
 62
     0
440
 16777216
370
    -2
100
AcDbBlockReference
  2
_OPEN
 10
308.8017771638367
 20
362.6437203558105
 30
0.0
 41
2.0
 42
2.0
 43
2.0
 50
180.0
  0
INSERT
  5
41B1D
330
3D6B9
100
AcDbEntity
  8
30
 62
     0
440
 16777216
370
    -2
100
AcDbBlockReference
  2
_OPEN
 10
302.3017771638367
 20
362.6437203558105
 30
0.0
 41
2.0
 42
2.0
 43
2.0
  0
MTEXT
  5
41B1E
330
3D6B9
100
AcDbEntity
  8
30
 62
     0
440
 16777216
100
AcDbMText
 10
268.8017771638367
 20
368.1437203558104
 30
0.0
 40
7.0
 41
0.0
 46
0.0
 71
     5
 72
     1
  1
\A1;6.5
 73
     1
 44
1.0
  0
POINT
  5
41B1F
330
3D6B9
100
AcDbEntity
  8
DEFPOINTS
 62
     0
440
 16777216
100
AcDbPoint
 10
308.8017771638367
 20
475.8769890378901
 30
0.0
  0
POINT
  5
41B20
330
3D6B9
100
AcDbEntity
  8
DEFPOINTS
 62
     0
440
 16777216
100
AcDbPoint
 10
302.3017771638367
 20
478.3769890378898
 30
0.0
  0
POINT
  5
41B21
330
3D6B9
100
AcDbEntity
  8
DEFPOINTS
 62
     0
440
 16777216
100
AcDbPoint
 10
302.3017771638367
 20
362.6437203558105
 30
0.0
  0
ENDBLK
  5
3D6BB
330
3D6B9
100
AcDbEntity
  8
0
100
AcDbBlockEnd
  0
BLOCK
  5
3D6C8
330
3D6C7
100
AcDbEntity
  8
0
100
AcDbBlockBegin
  2
*D35
 70
     1
 10
0.0
 20
0.0
 30
0.0
  3
*D35
  1

  0
LINE
  5
41B22
330
3D6C7
100
AcDbEntity
  8
30
 62
     0
440
 16777216
370
    -2
100
AcDbLine
 10
307.8017771638367
 20
525.8769890378901
 30
0.0
 11
268.7728396462132
 21
525.8769890378901
 31
0.0
  0
LINE
  5
41B23
330
3D6C7
100
AcDbEntity
  8
30
 62
     0
440
 16777216
370
    -2
100
AcDbLine
 10
307.8017771638367
 20
475.8769890378901
 30
0.0
 11
268.7728396462132
 21
475.8769890378901
 31
0.0
  0
LINE
  5
41B24
330
3D6C7
100
AcDbEntity
  8
30
440
 16777216
370
    -2
100
AcDbLine
 10
269.2728396462133
 20
522.8769890378901
 30
0.0
 11
269.2728396462133
 21
478.87698903789
 31
0.0
  0
INSERT
  5
41B25
330
3D6C7
100
AcDbEntity
  8
30
440
 16777216
370
    -2
100
AcDbBlockReference
  2
_OPEN
 10
269.2728396462133
 20
525.8769890378901
 30
0.0
 41
3.0
 42
3.0
 43
3.0
 50
90.0
  0
INSERT
  5
41B26
330
3D6C7
100
AcDbEntity
  8
30
440
 16777216
370
    -2
100
AcDbBlockReference
  2
_OPEN
 10
269.2728396462133
 20
475.8769890378901
 30
0.0
 41
3.0
 42
3.0
 43
3.0
 50
270.0
  0
MTEXT
  5
41B27
330
3D6C7
100
AcDbEntity
  8
30
440
 16777216
100
AcDbMText
 10
262.7728396462132
 20
500.8769890378901
 30
0.0
 40
7.0
 41
0.0
 46
0.0
 71
     5
 72
     1
  1
\A1;50
 11
0.0000000000000001
 21
1.0
 31
0.0
 73
     1
 44
1.0
 90
        3
 63
     9
421
 13158600
 45
1.25
441
        0
  0
POINT
  5
41B28
330
3D6C7
100
AcDbEntity
  8
DEFPOINTS
 62
     0
440
 16777216
100
AcDbPoint
 10
308.8017771638367
 20
525.8769890378901
 30
0.0
  0
POINT
  5
41B29
330
3D6C7
100
AcDbEntity
  8
DEFPOINTS
 62
     0
440
 16777216
100
AcDbPoint
 10
308.8017771638367
 20
475.8769890378901
 30
0.0
  0
POINT
  5
41B2A
330
3D6C7
100
AcDbEntity
  8
DEFPOINTS
 62
     0
440
 16777216
100
AcDbPoint
 10
269.2728396462133
 20
475.8769890378901
 30
0.0
  0
ENDBLK
  5
3D6C9
330
3D6C7
100
AcDbEntity
  8
0
100
AcDbBlockEnd
  0
BLOCK
  5
41AB6
330
41AB5
100
AcDbEntity
  8
0
100
AcDbBlockBegin
  2
*D36
 70
     1
 10
0.0
 20
0.0
 30
0.0
  3
*D36
  1

  0
LINE
  5
41B0E
330
41AB5
100
AcDbEntity
  8
30
 62
     0
440
 16777216
370
    -2
100
AcDbLine
 10
463.065610540365
 20
551.9769900126335
 30
0.0
 11
495.232737615961
 21
551.9769900126335
 31
0.0
  0
LINE
  5
41B0F
330
41AB5
100
AcDbEntity
  8
30
 62
     0
440
 16777216
370
    -2
100
AcDbLine
 10
462.759587757685
 20
449.9274209129806
 30
0.0
 11
495.232737615961
 21
449.9274209129806
 31
0.0
  0
LINE
  5
41B10
330
41AB5
100
AcDbEntity
  8
30
440
 16777216
370
    -2
100
AcDbLine
 10
494.732737615961
 20
548.9769900126336
 30
0.0
 11
494.732737615961
 21
452.9274209129806
 31
0.0
  0
INSERT
  5
41B11
330
41AB5
100
AcDbEntity
  8
30
440
 16777216
370
    -2
100
AcDbBlockReference
  2
_OPEN
 10
494.732737615961
 20
551.9769900126335
 30
0.0
 41
3.0
 42
3.0
 43
3.0
 50
90.0
  0
INSERT
  5
41B12
330
41AB5
100
AcDbEntity
  8
30
440
 16777216
370
    -2
100
AcDbBlockReference
  2
_OPEN
 10
494.732737615961
 20
449.9274209129806
 30
0.0
 41
3.0
 42
3.0
 43
3.0
 50
270.0
  0
MTEXT
  5
41B13
330
41AB5
100
AcDbEntity
  8
30
440
 16777216
100
AcDbMText
 10
488.2327376159608
 20
500.9522054628073
 30
0.0
 40
7.0
 41
0.0
 46
0.0
 71
     5
 72
     1
  1
\A1;102
 11
0.0000000000000001
 21
1.0
 31
0.0
 73
     1
 44
1.0
 90
        3
 63
     9
421
 13158600
 45
1.25
441
        0
  0
POINT
  5
41B14
330
41AB5
100
AcDbEntity
  8
DEFPOINTS
 62
     0
440
 16777216
100
AcDbPoint
 10
462.065610540365
 20
551.9769900126335
 30
0.0
  0
POINT
  5
41B15
330
41AB5
100
AcDbEntity
  8
DEFPOINTS
 62
     0
440
 16777216
100
AcDbPoint
 10
461.759587757685
 20
449.9274209129806
 30
0.0
  0
POINT
  5
41B16
330
41AB5
100
AcDbEntity
  8
DEFPOINTS
 62
     0
440
 16777216
100
AcDbPoint
 10
494.732737615961
 20
449.9274209129806
 30
0.0
  0
ENDBLK
  5
41AB7
330
41AB5
100
AcDbEntity
  8
0
100
AcDbBlockEnd
  0
BLOCK
  5
41BBF
330
41BBE
100
AcDbEntity
  8
0
100
AcDbBlockBegin
  2
*D37
 70
     1
 10
0.0
 20
0.0
 30
0.0
  3
*D37
  1

  0
LINE
  5
41BE5
330
41BBE
100
AcDbEntity
  8
30
 62
     0
440
 16777216
370
    -2
100
AcDbLine
 10
81.94701347923183
 20
132.3260052459939
 30
0.0
 11
81.94701347923183
 21
29.52619491180668
 31
0.0
  0
LINE
  5
41BE6
330
41BBE
100
AcDbEntity
  8
30
 62
     0
440
 16777216
370
    -2
100
AcDbLine
 10
167.9470134792318
 20
132.1866170565713
 30
0.0
 11
167.9470134792318
 21
29.52619491180668
 31
0.0
  0
LINE
  5
41BE7
330
41BBE
100
AcDbEntity
  8
30
440
 16777216
370
    -2
100
AcDbLine
 10
84.9470134792318
 20
30.02619491180667
 30
0.0
 11
164.9470134792318
 21
30.02619491180667
 31
0.0
  0
INSERT
  5
41BE8
330
41BBE
100
AcDbEntity
  8
30
440
 16777216
370
    -2
100
AcDbBlockReference
  2
_OPEN
 10
81.94701347923183
 20
30.02619491180667
 30
0.0
 41
3.0
 42
3.0
 43
3.0
 50
180.0
  0
INSERT
  5
41BE9
330
41BBE
100
AcDbEntity
  8
30
440
 16777216
370
    -2
100
AcDbBlockReference
  2
_OPEN
 10
167.9470134792318
 20
30.02619491180667
 30
0.0
 41
3.0
 42
3.0
 43
3.0
  0
MTEXT
  5
41BEA
330
41BBE
100
AcDbEntity
  8
30
440
 16777216
100
AcDbMText
 10
124.9470134792318
 20
36.52619491180668
 30
0.0
 40
7.0
 41
0.0
 46
0.0
 71
     5
 72
     1
  1
\A1;86
 73
     1
 44
1.0
 90
        3
 63
     9
421
 13158600
 45
1.25
441
        0
  0
POINT
  5
41BEB
330
41BBE
100
AcDbEntity
  8
DEFPOINTS
 62
     0
440
 16777216
100
AcDbPoint
 10
81.94701347923183
 20
133.3260052459939
 30
0.0
  0
POINT
  5
41BEC
330
41BBE
100
AcDbEntity
  8
DEFPOINTS
 62
     0
440
 16777216
100
AcDbPoint
 10
167.9470134792318
 20
133.1866170565713
 30
0.0
  0
POINT
  5
41BED
330
41BBE
100
AcDbEntity
  8
DEFPOINTS
 62
     0
440
 16777216
100
AcDbPoint
 10
167.9470134792318
 20
30.02619491180667
 30
0.0
  0
ENDBLK
  5
41BC0
330
41BBE
100
AcDbEntity
  8
0
100
AcDbBlockEnd
  0
BLOCK
  5
41C1E
330
41C1D
100
AcDbEntity
  8
0
100
AcDbBlockBegin
  2
*D38
 70
     1
 10
0.0
 20
0.0
 30
0.0
  3
*D38
  1

  0
LINE
  5
41C20
330
41C1D
100
AcDbEntity
  8
30
 62
     0
440
 16777216
370
    -2
100
AcDbLine
 10
140.9429307396321
 20
202.0872219423939
 30
0.0
 11
219.7731549612299
 21
202.0872219423939
 31
0.0
  0
LINE
  5
41C21
330
41C1D
100
AcDbEntity
  8
30
 62
     0
440
 16777216
370
    -2
100
AcDbLine
 10
140.9429307396321
 20
127.0872219423939
 30
0.0
 11
219.7731549612299
 21
127.0872219423939
 31
0.0
  0
LINE
  5
41C22
330
41C1D
100
AcDbEntity
  8
30
440
 16777216
370
    -2
100
AcDbLine
 10
219.2731549612299
 20
199.0872219423938
 30
0.0
 11
219.2731549612299
 21
130.0872219423939
 31
0.0
  0
INSERT
  5
41C23
330
41C1D
100
AcDbEntity
  8
30
440
 16777216
370
    -2
100
AcDbBlockReference
  2
_OPEN
 10
219.2731549612299
 20
202.0872219423939
 30
0.0
 41
3.0
 42
3.0
 43
3.0
 50
90.0
  0
INSERT
  5
41C24
330
41C1D
100
AcDbEntity
  8
30
440
 16777216
370
    -2
100
AcDbBlockReference
  2
_OPEN
 10
219.2731549612299
 20
127.0872219423939
 30
0.0
 41
3.0
 42
3.0
 43
3.0
 50
270.0
  0
MTEXT
  5
41C25
330
41C1D
100
AcDbEntity
  8
30
440
 16777216
100
AcDbMText
 10
212.7731549612299
 20
164.5872219423939
 30
0.0
 40
7.0
 41
0.0
 46
0.0
 71
     5
 72
     1
  1
\A1;75
 11
0.0000000000000001
 21
1.0
 31
0.0
 73
     1
 44
1.0
 90
        3
 63
     9
421
 13158600
 45
1.25
441
        0
  0
POINT
  5
41C26
330
41C1D
100
AcDbEntity
  8
DEFPOINTS
 62
     0
440
 16777216
100
AcDbPoint
 10
139.9429307396321
 20
202.0872219423939
 30
0.0
  0
POINT
  5
41C27
330
41C1D
100
AcDbEntity
  8
DEFPOINTS
 62
     0
440
 16777216
100
AcDbPoint
 10
139.9429307396321
 20
127.0872219423939
 30
0.0
  0
POINT
  5
41C28
330
41C1D
100
AcDbEntity
  8
DEFPOINTS
 62
     0
440
 16777216
100
AcDbPoint
 10
219.2731549612299
 20
127.0872219423939
 30
0.0
  0
ENDBLK
  5
41C1F
330
41C1D
100
AcDbEntity
  8
0
100
AcDbBlockEnd
  0
BLOCK
  5
41C90
330
41C8F
100
AcDbEntity
  8
0
100
AcDbBlockBegin
  2
*D39
 70
     1
 10
0.0
 20
0.0
 30
0.0
  3
*D39
  1

  0
LINE
  5
41C91
330
41C8F
100
AcDbEntity
  8
30
 62
     0
440
 16777216
370
    -2
100
AcDbLine
 10
534.7980404847069
 20
691.9381013886741
 30
0.0
 11
559.798040484707
 21
691.9381013886741
 31
0.0
  0
LINE
  5
41C92
330
41C8F
100
AcDbEntity
  8
30
 62
     0
440
 16777216
370
    -2
100
AcDbLine
 10
540.2980404847069
 20
708.4381013886743
 30
0.0
 11
559.798040484707
 21
708.4381013886743
 31
0.0
  0
LINE
  5
41C93
330
41C8F
100
AcDbEntity
  8
30
440
 16777216
370
    -2
100
AcDbLine
 10
559.298040484707
 20
705.4381013886746
 30
0.0
 11
559.298040484707
 21
694.9381013886741
 31
0.0
  0
LINE
  5
41C94
330
41C8F
100
AcDbEntity
  8
30
440
 16777216
370
    -2
100
AcDbLine
 10
559.298040484707
 20
691.9381013886741
 30
0.0
 11
559.298040484707
 21
627.4047680553406
 31
0.0
  0
INSERT
  5
41C95
330
41C8F
100
AcDbEntity
  8
30
440
 16777216
370
    -2
100
AcDbBlockReference
  2
_OPEN
 10
559.298040484707
 20
708.4381013886743
 30
0.0
 41
3.0
 42
3.0
 43
3.0
 50
90.0
  0
INSERT
  5
41C96
330
41C8F
100
AcDbEntity
  8
30
440
 16777216
370
    -2
100
AcDbBlockReference
  2
_OPEN
 10
559.298040484707
 20
691.9381013886741
 30
0.0
 41
3.0
 42
3.0
 43
3.0
 50
270.0
  0
MTEXT
  5
41C97
330
41C8F
100
AcDbEntity
  8
30
440
 16777216
100
AcDbMText
 10
549.2980404847068
 20
658.1714347220072
 30
0.0
 40
7.0
 41
0.0
 46
0.0
 71
     2
 72
     1
  1
\A1;16.5 (max.)
 11
0.0000000000000001
 21
1.0
 31
0.0
 73
     1
 44
1.0
 90
        3
 63
     9
421
 13158600
 45
1.25
441
        0
  0
POINT
  5
41C98
330
41C8F
100
AcDbEntity
  8
DEFPOINTS
 62
     0
440
 16777216
100
AcDbPoint
 10
533.7980404847069
 20
691.9381013886741
 30
0.0
  0
POINT
  5
41C99
330
41C8F
100
AcDbEntity
  8
DEFPOINTS
 62
     0
440
 16777216
100
AcDbPoint
 10
539.2980404847069
 20
708.4381013886743
 30
0.0
  0
POINT
  5
41C9A
330
41C8F
100
AcDbEntity
  8
DEFPOINTS
 62
     0
440
 16777216
100
AcDbPoint
 10
559.298040484707
 20
708.4381013886743
 30
0.0
  0
ENDBLK
  5
41C9B
330
41C8F
100
AcDbEntity
  8
0
100
AcDbBlockEnd
  0
BLOCK
  5
41C9D
330
41C9C
100
AcDbEntity
  8
0
100
AcDbBlockBegin
  2
*D40
 70
     1
 10
0.0
 20
0.0
 30
0.0
  3
*D40
  1

  0
LINE
  5
41C9E
330
41C9C
100
AcDbEntity
  8
30
 62
     0
440
 16777216
370
    -2
100
AcDbLine
 10
528.803825870171
 20
693.4303563892542
 30
0.0
 11
524.79225509924
 21
690.4458463878943
 31
0.0
  0
LINE
  5
41C9F
330
41C9C
100
AcDbEntity
  8
30
 62
     0
440
 16777216
370
    -2
100
AcDbLine
 10
523.1876267908163
 20
689.2520423873123
 30
0.0
 11
504.8409059330093
 21
675.6025332501288
 31
0.0
  0
LINE
  5
41CA0
330
41C9C
100
AcDbEntity
  8
30
 62
     0
440
 16777216
370
    -2
100
AcDbLine
 10
504.8409059330093
 20
675.6025332501288
 30
0.0
 11
491.174239266343
 21
675.6025332501288
 31
0.0
  0
INSERT
  5
41CA1
330
41C9C
100
AcDbEntity
  8
30
 62
     0
440
 16777216
370
    -2
100
AcDbBlockReference
  2
_OPEN
 10
530.4084541785946
 20
694.6241603898362
 30
0.0
 41
2.0
 42
2.0
 43
2.0
 50
36.64834048539623
  0
INSERT
  5
41CA2
330
41C9C
100
AcDbEntity
  8
30
 62
     0
440
 16777216
370
    -2
100
AcDbBlockReference
  2
_OPEN
 10
523.1876267908163
 20
689.2520423873123
 30
0.0
 41
2.0
 42
2.0
 43
2.0
 50
216.6483404853962
  0
MTEXT
  5
41CA3
330
41C9C
100
AcDbEntity
  8
30
 62
     0
440
 16777216
100
AcDbMText
 10
491.1742392663428
 20
684.6025332501287
 30
0.0
 40
7.0
 41
0.0
 46
0.0
 71
     1
 72
     1
  1
\A1;∅9
 73
     1
 44
1.0
  0
POINT
  5
41CA4
330
41C9C
100
AcDbEntity
  8
DEFPOINTS
 62
     0
440
 16777216
100
AcDbPoint
 10
523.1876267908163
 20
689.2520423873123
 30
0.0
  0
POINT
  5
41CA5
330
41C9C
100
AcDbEntity
  8
DEFPOINTS
 62
     0
440
 16777216
100
AcDbPoint
 10
530.4084541785946
 20
694.6241603898362
 30
0.0
  0
ENDBLK
  5
41CA6
330
41C9C
100
AcDbEntity
  8
0
100
AcDbBlockEnd
  0
BLOCK
  5
41CA8
330
41CA7
100
AcDbEntity
  8
0
100
AcDbBlockBegin
  2
*D41
 70
     1
 10
0.0
 20
0.0
 30
0.0
  3
*D41
  1

  0
LINE
  5
41CA9
330
41CA7
100
AcDbEntity
  8
30
 62
     0
440
 16777216
370
    -2
100
AcDbLine
 10
514.2980404847069
 20
668.9381013886741
 30
0.0
 11
514.2980404847069
 21
649.2717805386746
 31
0.0
  0
LINE
  5
41CAA
330
41CA7
100
AcDbEntity
  8
30
 62
     0
440
 16777216
370
    -2
100
AcDbLine
 10
539.2980404847069
 20
668.9381013886741
 30
0.0
 11
539.2980404847069
 21
649.2717805386746
 31
0.0
  0
LINE
  5
41CAB
330
41CA7
100
AcDbEntity
  8
30
 62
     0
440
 16777216
370
    -2
100
AcDbLine
 10
537.2980404847067
 20
649.7717805386746
 30
0.0
 11
516.2980404847067
 21
649.7717805386746
 31
0.0
  0
LINE
  5
41CAC
330
41CA7
100
AcDbEntity
  8
30
 62
     0
440
 16777216
370
    -2
100
AcDbLine
 10
514.2980404847069
 20
649.7717805386746
 30
0.0
 11
459.7647071513732
 21
649.7717805386746
 31
0.0
  0
INSERT
  5
41CAD
330
41CA7
100
AcDbEntity
  8
30
 62
     0
440
 16777216
370
    -2
100
AcDbBlockReference
  2
_OPEN
 10
539.2980404847069
 20
649.7717805386746
 30
0.0
 41
2.0
 42
2.0
 43
2.0
  0
INSERT
  5
41CAE
330
41CA7
100
AcDbEntity
  8
30
 62
     0
440
 16777216
370
    -2
100
AcDbBlockReference
  2
_OPEN
 10
514.2980404847069
 20
649.7717805386746
 30
0.0
 41
2.0
 42
2.0
 43
2.0
 50
180.0
  0
MTEXT
  5
41CAF
330
41CA7
100
AcDbEntity
  8
30
 62
     0
440
 16777216
100
AcDbMText
 10
486.03137381804
 20
658.7717805386746
 30
0.0
 40
7.0
 41
0.0
 46
0.0
 71
     2
 72
     1
  1
\A1;25 (max.)
 73
     1
 44
1.0
  0
POINT
  5
41CB0
330
41CA7
100
AcDbEntity
  8
DEFPOINTS
 62
     0
440
 16777216
100
AcDbPoint
 10
514.2980404847069
 20
671.938101388674
 30
0.0
  0
POINT
  5
41CB1
330
41CA7
100
AcDbEntity
  8
DEFPOINTS
 62
     0
440
 16777216
100
AcDbPoint
 10
539.2980404847069
 20
671.938101388674
 30
0.0
  0
POINT
  5
41CB2
330
41CA7
100
AcDbEntity
  8
DEFPOINTS
 62
     0
440
 16777216
100
AcDbPoint
 10
539.2980404847069
 20
649.7717805386746
 30
0.0
  0
ENDBLK
  5
41CB3
330
41CA7
100
AcDbEntity
  8
0
100
AcDbBlockEnd
  0
BLOCK
  5
41CCD
330
41CCC
100
AcDbEntity
  8
0
100
AcDbBlockBegin
  2
*D43
 70
     1
 10
0.0
 20
0.0
 30
0.0
  3
*D43
  1

  0
LINE
  5
41CF1
330
41CCC
100
AcDbEntity
  8
30
 62
     0
440
 16777216
370
    -2
100
AcDbLine
 10
551.9644731501814
 20
678.839475452481
 30
0.0
 11
576.9644731501816
 21
678.839475452481
 31
0.0
  0
LINE
  5
41CF2
330
41CCC
100
AcDbEntity
  8
30
 62
     0
440
 16777216
370
    -2
100
AcDbLine
 10
557.4644731501814
 20
695.3394754524813
 30
0.0
 11
576.9644731501816
 21
695.3394754524813
 31
0.0
  0
LINE
  5
41CF3
330
41CCC
100
AcDbEntity
  8
30
440
 16777216
370
    -2
100
AcDbLine
 10
576.4644731501816
 20
692.3394754524813
 30
0.0
 11
576.4644731501816
 21
681.8394754524811
 31
0.0
  0
LINE
  5
41CF4
330
41CCC
100
AcDbEntity
  8
30
440
 16777216
370
    -2
100
AcDbLine
 10
576.4644731501816
 20
678.839475452481
 30
0.0
 11
576.4644731501816
 21
614.3061421191474
 31
0.0
  0
INSERT
  5
41CF5
330
41CCC
100
AcDbEntity
  8
30
440
 16777216
370
    -2
100
AcDbBlockReference
  2
_OPEN
 10
576.4644731501816
 20
695.3394754524813
 30
0.0
 41
3.0
 42
3.0
 43
3.0
 50
90.0
  0
INSERT
  5
41CF6
330
41CCC
100
AcDbEntity
  8
30
440
 16777216
370
    -2
100
AcDbBlockReference
  2
_OPEN
 10
576.4644731501816
 20
678.839475452481
 30
0.0
 41
3.0
 42
3.0
 43
3.0
 50
270.0
  0
MTEXT
  5
41CF7
330
41CCC
100
AcDbEntity
  8
30
440
 16777216
100
AcDbMText
 10
566.4644731501814
 20
645.0728087858142
 30
0.0
 40
7.0
 41
0.0
 46
0.0
 71
     2
 72
     1
  1
\A1;16.5 (max.)
 11
0.0000000000000001
 21
1.0
 31
0.0
 73
     1
 44
1.0
 90
        3
 63
     9
421
 13158600
 45
1.25
441
        0
  0
POINT
  5
41CF8
330
41CCC
100
AcDbEntity
  8
DEFPOINTS
 62
     0
440
 16777216
100
AcDbPoint
 10
550.9644731501814
 20
678.839475452481
 30
0.0
  0
POINT
  5
41CF9
330
41CCC
100
AcDbEntity
  8
DEFPOINTS
 62
     0
440
 16777216
100
AcDbPoint
 10
556.4644731501814
 20
695.3394754524813
 30
0.0
  0
POINT
  5
41CFA
330
41CCC
100
AcDbEntity
  8
DEFPOINTS
 62
     0
440
 16777216
100
AcDbPoint
 10
576.4644731501816
 20
695.3394754524813
 30
0.0
  0
ENDBLK
  5
41CCE
330
41CCC
100
AcDbEntity
  8
0
100
AcDbBlockEnd
  0
BLOCK
  5
41CDA
330
41CD9
100
AcDbEntity
  8
0
100
AcDbBlockBegin
  2
*D44
 70
     1
 10
0.0
 20
0.0
 30
0.0
  3
*D44
  1

  0
LINE
  5
41CFB
330
41CD9
100
AcDbEntity
  8
30
 62
     0
440
 16777216
370
    -2
100
AcDbLine
 10
545.9702585356455
 20
680.3317304530611
 30
0.0
 11
541.9586877647144
 21
677.3472204517013
 31
0.0
  0
LINE
  5
41CFC
330
41CD9
100
AcDbEntity
  8
30
 62
     0
440
 16777216
370
    -2
100
AcDbLine
 10
540.3540594562908
 20
676.1534164511192
 30
0.0
 11
522.0073385984838
 21
662.5039073139361
 31
0.0
  0
LINE
  5
41CFD
330
41CD9
100
AcDbEntity
  8
30
 62
     0
440
 16777216
370
    -2
100
AcDbLine
 10
522.0073385984838
 20
662.5039073139361
 30
0.0
 11
508.3406719318173
 21
662.5039073139361
 31
0.0
  0
INSERT
  5
41CFE
330
41CD9
100
AcDbEntity
  8
30
 62
     0
440
 16777216
370
    -2
100
AcDbBlockReference
  2
_OPEN
 10
547.5748868440692
 20
681.5255344536431
 30
0.0
 41
2.0
 42
2.0
 43
2.0
 50
36.64834048539536
  0
INSERT
  5
41CFF
330
41CD9
100
AcDbEntity
  8
30
 62
     0
440
 16777216
370
    -2
100
AcDbBlockReference
  2
_OPEN
 10
540.3540594562908
 20
676.1534164511192
 30
0.0
 41
2.0
 42
2.0
 43
2.0
 50
216.6483404853953
  0
MTEXT
  5
41D00
330
41CD9
100
AcDbEntity
  8
30
 62
     0
440
 16777216
100
AcDbMText
 10
514.1740052651507
 20
668.003907313936
 30
0.0
 40
7.0
 41
0.0
 46
0.0
 71
     5
 72
     1
  1
\A1;∅9
 73
     1
 44
1.0
  0
POINT
  5
41D01
330
41CD9
100
AcDbEntity
  8
DEFPOINTS
 62
     0
440
 16777216
100
AcDbPoint
 10
540.3540594562908
 20
676.1534164511192
 30
0.0
  0
POINT
  5
41D02
330
41CD9
100
AcDbEntity
  8
DEFPOINTS
 62
     0
440
 16777216
100
AcDbPoint
 10
547.5748868440692
 20
681.5255344536431
 30
0.0
  0
ENDBLK
  5
41CDB
330
41CD9
100
AcDbEntity
  8
0
100
AcDbBlockEnd
  0
BLOCK
  5
41CE5
330
41CE4
100
AcDbEntity
  8
0
100
AcDbBlockBegin
  2
*D45
 70
     1
 10
0.0
 20
0.0
 30
0.0
  3
*D45
  1

  0
LINE
  5
41D03
330
41CE4
100
AcDbEntity
  8
30
 62
     0
440
 16777216
370
    -2
100
AcDbLine
 10
531.4644731501814
 20
655.839475452481
 30
0.0
 11
531.4644731501814
 21
636.1731546024816
 31
0.0
  0
LINE
  5
41D04
330
41CE4
100
AcDbEntity
  8
30
 62
     0
440
 16777216
370
    -2
100
AcDbLine
 10
556.4644731501814
 20
655.839475452481
 30
0.0
 11
556.4644731501814
 21
636.1731546024816
 31
0.0
  0
LINE
  5
41D05
330
41CE4
100
AcDbEntity
  8
30
 62
     0
440
 16777216
370
    -2
100
AcDbLine
 10
554.4644731501814
 20
636.6731546024816
 30
0.0
 11
533.4644731501814
 21
636.6731546024816
 31
0.0
  0
LINE
  5
41D06
330
41CE4
100
AcDbEntity
  8
30
 62
     0
440
 16777216
370
    -2
100
AcDbLine
 10
531.4644731501814
 20
636.6731546024816
 30
0.0
 11
476.9311398168478
 21
636.6731546024816
 31
0.0
  0
INSERT
  5
41D07
330
41CE4
100
AcDbEntity
  8
30
 62
     0
440
 16777216
370
    -2
100
AcDbBlockReference
  2
_OPEN
 10
556.4644731501814
 20
636.6731546024816
 30
0.0
 41
2.0
 42
2.0
 43
2.0
  0
INSERT
  5
41D08
330
41CE4
100
AcDbEntity
  8
30
 62
     0
440
 16777216
370
    -2
100
AcDbBlockReference
  2
_OPEN
 10
531.4644731501814
 20
636.6731546024816
 30
0.0
 41
2.0
 42
2.0
 43
2.0
 50
180.0
  0
MTEXT
  5
41D09
330
41CE4
100
AcDbEntity
  8
30
 62
     0
440
 16777216
100
AcDbMText
 10
503.1978064835144
 20
645.6731546024816
 30
0.0
 40
7.0
 41
0.0
 46
0.0
 71
     2
 72
     1
  1
\A1;25 (max.)
 73
     1
 44
1.0
  0
POINT
  5
41D0A
330
41CE4
100
AcDbEntity
  8
DEFPOINTS
 62
     0
440
 16777216
100
AcDbPoint
 10
531.4644731501814
 20
658.8394754524809
 30
0.0
  0
POINT
  5
41D0B
330
41CE4
100
AcDbEntity
  8
DEFPOINTS
 62
     0
440
 16777216
100
AcDbPoint
 10
556.4644731501814
 20
658.8394754524809
 30
0.0
  0
POINT
  5
41D0C
330
41CE4
100
AcDbEntity
  8
DEFPOINTS
 62
     0
440
 16777216
100
AcDbPoint
 10
556.4644731501814
 20
636.6731546024816
 30
0.0
  0
ENDBLK
  5
41CE6
330
41CE4
100
AcDbEntity
  8
0
100
AcDbBlockEnd
  0
ENDSEC
  0
SECTION
  2
ENTITIES
  0
MTEXT
  5
3ADC1
330
1E
100
AcDbEntity
  8
19
  6
Continuous
 62
     7
100
AcDbMText
 10
353.1416484358324
 20
779.6007628533597
 30
0.0
 40
9.0
 41
0.0
 46
0.0
 71
     7
 72
     5
  1
PS250-PF 3P PMC\PPS250-NE 3P PMC\PPS250-PE 3P PMC
  7
blockfont
 73
     1
 44
1.0
  0
CIRCLE
  5
3ADCF
330
1E
100
AcDbEntity
  8
24
100
AcDbCircle
 10
124.9429307396324
 20
572.8769900213399
 30
0.0
 40
4.999999999999983
  0
CIRCLE
  5
3ADD0
330
1E
100
AcDbEntity
  8
24
100
AcDbCircle
 10
124.9429307396324
 20
428.87699002134
 30
0.0
 40
4.999999999999983
  0
LINE
  5
3ADD1
330
1E
100
AcDbEntity
  8
130
100
AcDbLine
 10
72.44293073963287
 20
449.87699002134
 30
0.0
 11
177.4429307396319
 21
449.87699002134
 31
0.0
  0
LINE
  5
3ADD2
330
1E
100
AcDbEntity
  8
17
100
AcDbLine
 10
117.9429307396322
 20
428.87699002134
 30
0.0
 11
131.9429307396321
 21
428.87699002134
 31
0.0
  0
LINE
  5
3ADD3
330
1E
100
AcDbEntity
  8
16
100
AcDbLine
 10
67.44293073963287
 20
500.8769900213398
 30
0.0
 11
182.4429307396319
 21
500.8769900213398
 31
0.0
  0
LINE
  5
3ADD4
330
1E
100
AcDbEntity
  8
130
100
AcDbLine
 10
75.94293073963284
 20
475.8769900213398
 30
0.0
 11
173.9429307396319
 21
475.8769900213398
 31
0.0
  0
LINE
  5
3ADD5
330
1E
100
AcDbEntity
  8
130
100
AcDbLine
 10
117.9429307396322
 20
482.3769900213398
 30
0.0
 11
131.9429307396321
 21
482.3769900213398
 31
0.0
  0
LINE
  5
3ADD6
330
1E
100
AcDbEntity
  8
130
100
AcDbLine
 10
131.9429307396321
 20
516.1169450213399
 30
0.0
 11
117.9429307396322
 21
516.1169450213399
 31
0.0
  0
LINE
  5
3ADD7
330
1E
100
AcDbEntity
  8
130
100
AcDbLine
 10
75.94293073963284
 20
525.8769900213398
 30
0.0
 11
173.9429307396319
 21
525.8769900213398
 31
0.0
  0
LINE
  5
3ADD8
330
1E
100
AcDbEntity
  8
130
100
AcDbLine
 10
131.9429307396321
 20
507.7177800213398
 30
0.0
 11
117.9429307396322
 21
507.7177800213398
 31
0.0
  0
LINE
  5
3ADD9
330
1E
100
AcDbEntity
  8
130
100
AcDbLine
 10
72.44293073963287
 20
551.8769900213396
 30
0.0
 11
177.4429307396319
 21
551.8769900213396
 31
0.0
  0
LINE
  5
3ADDA
330
1E
100
AcDbEntity
  8
17
100
AcDbLine
 10
117.9429307396322
 20
572.8769900213399
 30
0.0
 11
131.9429307396321
 21
572.8769900213399
 31
0.0
  0
LINE
  5
3ADDB
330
1E
100
AcDbEntity
  8
130
100
AcDbLine
 10
131.9429307396321
 20
521.03185752134
 30
0.0
 11
117.9429307396322
 21
521.03185752134
 31
0.0
  0
LINE
  5
3ADDC
330
1E
100
AcDbEntity
  8
130
100
AcDbLine
 10
117.9429307396322
 20
482.3769900213398
 30
0.0
 11
117.9429307396322
 21
521.03185752134
 31
0.0
  0
LINE
  5
3ADDD
330
1E
100
AcDbEntity
  8
130
100
AcDbLine
 10
75.94293073963284
 20
525.8769900213398
 30
0.0
 11
75.94293073963284
 21
475.8769900213398
 31
0.0
  0
LWPOLYLINE
  5
3ADDE
330
1E
100
AcDbEntity
  8
130
100
AcDbPolyline
 90
        4
 70
     1
 43
0.0
 10
177.4429307396319
 20
418.3769900213402
 10
177.4429307396319
 20
583.3769900213396
 10
72.44293073963287
 20
583.3769900213396
 10
72.68177095083206
 20
418.3769900213402
  0
LINE
  5
3ADDF
330
1E
100
AcDbEntity
  8
130
100
AcDbLine
 10
113.9429307396324
 20
525.8769900213398
 30
0.0
 11
113.9429307396324
 21
475.8769900213398
 31
0.0
  0
LINE
  5
3ADE0
330
1E
100
AcDbEntity
  8
17
100
AcDbLine
 10
82.9429307396324
 20
428.87699002134
 30
0.0
 11
96.94293073963242
 21
428.87699002134
 31
0.0
  0
LWPOLYLINE
  5
3ADE1
330
1E
100
AcDbEntity
  8
130
100
AcDbPolyline
 90
        6
 70
     0
 43
0.0
 10
77.94293073963263
 20
418.3769900213402
 10
77.94293073963263
 20
437.37699002134
 42
-0.4142135623730951
 10
81.44293073963263
 20
440.8769900213401
 10
98.44293073963264
 20
440.8769900213401
 42
-0.4142135623730951
 10
101.9429307396326
 20
437.37699002134
 10
101.9429307396326
 20
418.3769900213402
  0
CIRCLE
  5
3ADE2
330
1E
100
AcDbEntity
  8
24
100
AcDbCircle
 10
89.94293073963286
 20
428.87699002134
 30
0.0
 40
4.999999999999983
  0
LINE
  5
3ADE3
330
1E
100
AcDbEntity
  8
17
100
AcDbLine
 10
89.94293073963286
 20
435.8769900213402
 30
0.0
 11
89.94293073963286
 21
421.8769900213404
 31
0.0
  0
CIRCLE
  5
3ADE4
330
1E
100
AcDbEntity
  8
24
100
AcDbCircle
 10
-107.4429307396328
 20
437.8769900213403
 30
0.0
 40
3.999999999999986
210
0.0
220
0.0
230
-1.0
  0
LINE
  5
3ADE5
330
1E
100
AcDbEntity
  8
17
100
AcDbLine
 10
107.4429307396328
 20
443.37699002134
 30
0.0
 11
107.4429307396328
 21
432.3769900213402
 31
0.0
  0
LINE
  5
3ADE6
330
1E
100
AcDbEntity
  8
17
100
AcDbLine
 10
112.9429307396321
 20
437.8769900213403
 30
0.0
 11
101.9429307396326
 21
437.8769900213403
 31
0.0
  0
CIRCLE
  5
3ADE7
330
1E
100
AcDbEntity
  8
24
100
AcDbCircle
 10
89.94293073963286
 20
572.8769900213399
 30
0.0
 40
4.999999999999983
  0
LINE
  5
3ADE8
330
1E
100
AcDbEntity
  8
17
100
AcDbLine
 10
89.94293073963286
 20
579.8769900213397
 30
0.0
 11
89.94293073963286
 21
565.8769900213396
 31
0.0
  0
CIRCLE
  5
3ADE9
330
1E
100
AcDbEntity
  8
24
100
AcDbCircle
 10
107.4429307396328
 20
563.8769900213397
 30
0.0
 40
3.999999999999986
  0
LINE
  5
3ADEA
330
1E
100
AcDbEntity
  8
17
100
AcDbLine
 10
101.9429307396326
 20
563.8769900213397
 30
0.0
 11
112.9429307396321
 21
563.8769900213397
 31
0.0
  0
LINE
  5
3ADEB
330
1E
100
AcDbEntity
  8
17
100
AcDbLine
 10
107.4429307396328
 20
569.3769900213399
 30
0.0
 11
107.4429307396328
 21
558.3769900213396
 31
0.0
  0
LINE
  5
3ADEC
330
1E
100
AcDbEntity
  8
17
100
AcDbLine
 10
82.9429307396324
 20
572.8769900213399
 30
0.0
 11
96.94293073963242
 21
572.8769900213399
 31
0.0
  0
LINE
  5
3ADED
330
1E
100
AcDbEntity
  8
130
100
AcDbLine
 10
131.9429307396321
 20
482.3769900213398
 30
0.0
 11
131.9429307396321
 21
521.03185752134
 31
0.0
  0
LINE
  5
3ADEE
330
1E
100
AcDbEntity
  8
130
100
AcDbLine
 10
135.9429307396321
 20
525.8769900213398
 30
0.0
 11
135.9429307396321
 21
475.8769900213398
 31
0.0
  0
LINE
  5
3ADEF
330
1E
100
AcDbEntity
  8
130
100
AcDbLine
 10
173.9429307396319
 20
525.8769900213398
 30
0.0
 11
173.9429307396319
 21
475.8769900213398
 31
0.0
  0
CIRCLE
  5
3ADF0
330
1E
100
AcDbEntity
  8
24
100
AcDbCircle
 10
142.4429307396324
 20
437.8769900213403
 30
0.0
 40
3.999999999999986
  0
LINE
  5
3ADF1
330
1E
100
AcDbEntity
  8
17
100
AcDbLine
 10
142.4429307396324
 20
443.37699002134
 30
0.0
 11
142.4429307396324
 21
432.3769900213402
 31
0.0
  0
LINE
  5
3ADF2
330
1E
100
AcDbEntity
  8
17
100
AcDbLine
 10
136.9429307396321
 20
437.8769900213403
 30
0.0
 11
147.9429307396324
 21
437.8769900213403
 31
0.0
  0
LINE
  5
3ADF3
330
1E
100
AcDbEntity
  8
17
100
AcDbLine
 10
152.9429307396324
 20
428.87699002134
 30
0.0
 11
166.9429307396319
 21
428.87699002134
 31
0.0
  0
CIRCLE
  5
3ADF4
330
1E
100
AcDbEntity
  8
24
100
AcDbCircle
 10
159.9429307396321
 20
428.87699002134
 30
0.0
 40
4.999999999999983
  0
LINE
  5
3ADF5
330
1E
100
AcDbEntity
  8
17
100
AcDbLine
 10
159.9429307396321
 20
435.8769900213402
 30
0.0
 11
159.9429307396321
 21
421.8769900213404
 31
0.0
  0
CIRCLE
  5
3ADF6
330
1E
100
AcDbEntity
  8
24
100
AcDbCircle
 10
159.9429307396321
 20
572.8769900213399
 30
0.0
 40
4.999999999999983
  0
LINE
  5
3ADF7
330
1E
100
AcDbEntity
  8
17
100
AcDbLine
 10
159.9429307396321
 20
579.8769900213397
 30
0.0
 11
159.9429307396321
 21
565.8769900213396
 31
0.0
  0
LINE
  5
3ADF8
330
1E
100
AcDbEntity
  8
17
100
AcDbLine
 10
147.9429307396324
 20
563.8769900213397
 30
0.0
 11
136.9429307396321
 21
563.8769900213397
 31
0.0
  0
CIRCLE
  5
3ADF9
330
1E
100
AcDbEntity
  8
24
100
AcDbCircle
 10
-142.4429307396324
 20
563.8769900213397
 30
0.0
 40
3.999999999999986
210
0.0
220
0.0
230
-1.0
  0
LINE
  5
3ADFA
330
1E
100
AcDbEntity
  8
17
100
AcDbLine
 10
142.4429307396324
 20
569.3769900213399
 30
0.0
 11
142.4429307396324
 21
558.3769900213396
 31
0.0
  0
LINE
  5
3ADFB
330
1E
100
AcDbEntity
  8
17
100
AcDbLine
 10
152.9429307396324
 20
572.8769900213399
 30
0.0
 11
166.9429307396319
 21
572.8769900213399
 31
0.0
  0
DIMENSION
  5
3ADFC
330
1E
100
AcDbEntity
  8
30
100
AcDbDimension
280
     0
  2
*D6
 10
198.1211774895198
 20
418.3769900213402
 30
0.0
 11
191.6211774895197
 21
500.8769900213398
 31
0.0
 70
    32
 71
     5
 42
164.9999999999994
 73
     0
 74
     0
 75
     0
  3
STANDARD
100
AcDbAlignedDimension
 13
177.4429307396319
 23
583.3769900213396
 33
0.0
 14
177.4429307396319
 24
418.3769900213402
 34
0.0
 50
90.0
100
AcDbRotatedDimension
  0
DIMENSION
  5
3ADFD
330
1E
100
AcDbEntity
  8
30
100
AcDbDimension
280
     0
  2
*D7
 10
173.9429307396319
 20
536.0864367847557
 30
0.0
 11
136.7390339790681
 21
536.0864367847557
 31
0.0
 70
   160
 71
     5
 42
97.99999999999933
 73
     0
 74
     0
 75
     0
  3
STANDARD
100
AcDbAlignedDimension
 13
75.94293073963263
 23
525.8769900213398
 33
0.0
 14
173.9429307396319
 24
525.8769900213398
 34
0.0
100
AcDbRotatedDimension
  0
DIMENSION
  5
3ADFE
330
1E
100
AcDbEntity
  8
30
100
AcDbDimension
280
     0
  2
*D8
 10
177.6817709508316
 20
386.9006069860698
 30
0.0
 11
125.1817709508318
 21
393.4006069860698
 31
0.0
 70
    32
 71
     5
 42
104.9999999999995
 73
     0
 74
     0
 75
     0
  3
STANDARD
100
AcDbAlignedDimension
 13
72.68177095083206
 23
406.9644898909366
 33
0.0
 14
177.6817709508316
 24
410.6705150787245
 34
0.0
100
AcDbRotatedDimension
  0
DIMENSION
  5
3AE01
330
1E
100
AcDbEntity
  8
30
100
AcDbDimension
280
     0
  2
*D9
 10
135.9429307396324
 20
459.9555719127811
 30
0.0
 11
147.7762640729658
 21
459.9555719127811
 31
0.0
 70
   160
 71
     5
 42
21.99999999999977
 73
     0
 74
     0
 75
     0
  3
STANDARD
100
AcDbAlignedDimension
 13
113.9429307396326
 23
475.8769900213398
 33
0.0
 14
135.9429307396324
 24
475.8769900213398
 34
0.0
100
AcDbRotatedDimension
  0
LWPOLYLINE
  5
3AE16
330
1E
100
AcDbEntity
  8
10
100
AcDbPolyline
 90
        8
 70
     1
 43
0.0
 10
281.6074696875676
 20
136.1906048242522
 42
0.4142135623730951
 10
282.6074696875675
 20
135.1906048242522
 10
380.6074696875676
 20
135.1906048242522
 42
0.4142135623730951
 10
381.6074696875676
 20
136.1906048242522
 10
381.6074696875676
 20
186.1906048242522
 42
0.4142135623730951
 10
380.6074696875676
 20
187.1906048242522
 10
282.6074696875675
 20
187.1906048242522
 42
0.4142135623730951
 10
281.6074696875676
 20
186.1906048242522
  0
LINE
  5
3AE17
330
1E
100
AcDbEntity
  8
16
100
AcDbLine
 10
276.8396565741678
 20
161.1906048242522
 30
0.0
 11
408.7206249434802
 21
161.1906048242522
 31
0.0
  0
DIMENSION
  5
3AE18
330
1E
100
AcDbEntity
  8
30
100
AcDbDimension
280
     0
  2
*D10
 10
408.7206249434802
 20
135.1906048242522
 30
0.0
 11
408.7206249434802
 21
161.1906048242522
 31
0.0
 70
   160
 71
     2
 42
52.0
 73
     0
 74
     0
 75
     0
  3
STANDARD
100
AcDbAlignedDimension
 13
380.6074696875676
 23
187.1906048242522
 33
0.0
 14
380.6074696875676
 24
135.1906048242522
 34
0.0
 50
90.0
100
AcDbRotatedDimension
  0
DIMENSION
  5
3AE1A
330
1E
100
AcDbEntity
  8
30
100
AcDbDimension
280
     0
  2
*D11
 10
381.6074696875676
 20
51.01306424556241
 30
0.0
 11
332.7619305894728
 21
51.01306424556241
 31
0.0
 70
   160
  1
<>
 71
     2
 42
99.99999999999994
 73
     0
 74
     0
 75
     0
  3
STANDARD1
100
AcDbAlignedDimension
 13
281.6074696875676
 23
136.1906048242522
 33
0.0
 14
381.6074696875676
 24
136.1906048242522
 34
0.0
100
AcDbRotatedDimension
  0
DIMENSION
  5
3AE1B
330
1E
100
AcDbEntity
  8
30
  6
Continuous
100
AcDbDimension
280
     0
  2
*D12
 10
380.6074696875689
 20
186.190604824252
 30
0.0
 11
392.8882468091307
 21
193.2809148011189
 31
0.0
 70
   164
  1
<>
 71
     5
 42
1.000000000013415
 73
     0
 74
     0
 75
     0
  3
STANDARD1
100
AcDbRadialDimension
 15
381.2282370939199
 25
186.974599612015
 35
0.0
 40
0.0
  0
LINE
  5
3AE1C
330
1E
100
AcDbEntity
  8
16
100
AcDbLine
 10
331.6074696875676
 20
264.4681638458523
 30
0.0
 11
331.6074696875676
 21
64.38877328913804
 31
0.0
  0
LINE
  5
3AE1D
330
1E
100
AcDbEntity
  8
12
100
AcDbLine
 10
70.37343964363208
 20
217.0872219423939
 30
0.0
 11
217.7300015274322
 21
217.0872219423939
 31
0.0
  0
LINE
  5
3AE1E
330
1E
100
AcDbEntity
  8
12
100
AcDbLine
 10
67.04667896663204
 20
112.0872219423939
 30
0.0
 11
215.3520240606322
 21
112.0872219423939
 31
0.0
  0
LINE
  5
3AE1F
330
1E
100
AcDbEntity
  8
16
100
AcDbLine
 10
69.32446125223214
 20
164.5872219423939
 30
0.0
 11
187.1348166299981
 21
164.5872219423939
 31
0.0
  0
LINE
  5
3AE20
330
1E
100
AcDbEntity
  8
12
  6
HIDDEN
 48
2.0
100
AcDbLine
 10
69.98897340803205
 20
213.8872219423939
 30
0.0
 11
217.0361754318324
 21
213.8872219423939
 31
0.0
  0
LINE
  5
3AE21
330
1E
100
AcDbEntity
  8
12
  6
HIDDEN
 48
2.0
100
AcDbLine
 10
67.62924073543217
 20
115.2872219423939
 30
0.0
 11
216.1396710360323
 21
115.2872219423939
 31
0.0
  0
CIRCLE
  5
3AE22
330
1E
100
AcDbEntity
  8
12
100
AcDbCircle
 10
109.9429307396321
 20
202.0872219423939
 30
0.0
 40
3.000000000000001
  0
CIRCLE
  5
3AE23
330
1E
100
AcDbEntity
  8
12
100
AcDbCircle
 10
109.9429307396321
 20
127.0872219423939
 30
0.0
 40
3.000000000000013
  0
DIMENSION
  5
3AE24
330
1E
100
AcDbEntity
  8
30
100
AcDbDimension
280
     0
  2
*D13
 10
137.6337930493732
 20
200.1720501152549
 30
0.0
 11
195.8786785190103
 21
241.9828025970512
 31
0.0
 70
   163
  1
<>
 71
     5
 42
6.000000000013072
 73
     0
 74
     0
 75
     0
  3
STANDARD1
100
AcDbDiametricDimension
 15
142.2520684298904
 25
204.0023937695326
 35
0.0
 40
0.0
  0
DIMENSION
  5
3AE25
330
1E
100
AcDbEntity
  8
30
100
AcDbDimension
280
     0
  2
*D14
 10
139.9429307396321
 20
48.54177395639314
 30
0.0
 11
124.9429307396321
 21
48.54177395639314
 31
0.0
 70
   160
  1
<>
 71
     2
 42
30.0
 73
     0
 74
     0
 75
     0
  3
STANDARD1
100
AcDbAlignedDimension
 13
109.9429307396321
 23
127.0872219423939
 33
0.0
 14
139.9429307396321
 24
121.5872219423939
 34
0.0
100
AcDbRotatedDimension
  0
INSERT
  5
3AE27
330
1E
100
AcDbEntity
  8
12
100
AcDbBlockReference
  2
SW_CENTERMARKSYMBOL_54
 10
109.9429307396321
 20
202.0872219423939
 30
0.0
 41
2.0
 42
2.0
 43
2.0
  0
INSERT
  5
3AE28
330
1E
100
AcDbEntity
  8
12
100
AcDbBlockReference
  2
SW_CENTERMARKSYMBOL_55
 10
109.9429307396321
 20
127.0872219423939
 30
0.0
 41
2.0
 42
2.0
 43
2.0
  0
LEADER
  5
3AE29
330
1E
100
AcDbEntity
  8
SLD-0
100
AcDbLeader
  3
SLDDIMSTYLE6
 76
     2
 10
190.4617818800025
 20
112.0872219423939
 30
0.0
 10
199.57015334376
 20
79.70508970419388
 30
0.0
  0
MTEXT
  5
3AE2A
330
1E
100
AcDbEntity
  8
19
100
AcDbMText
 10
199.57015334376
 20
94.70508970419388
 30
0.0
 40
5.0
 41
58.0
 46
0.0
 71
     1
 72
     5
  1
Mounting\Pplate
  7
blockfont
 73
     1
 44
1.0
  0
LINE
  5
3AE2B
330
1E
100
AcDbEntity
  8
SLD-0
100
AcDbLine
 10
199.57015334376
 20
79.70508970419388
 30
0.0
 11
234.1106579231919
 21
79.70508970419388
 31
0.0
  0
LINE
  5
3AE2C
330
1E
100
AcDbEntity
  8
10
100
AcDbLine
 10
177.4429307396319
 20
416.1769867549398
 30
0.0
 11
72.68495549170916
 21
416.1769867549398
 31
0.0
  0
LINE
  5
3AE2D
330
1E
100
AcDbEntity
  8
10
100
AcDbLine
 10
72.69190461065523
 20
411.3762682307823
 30
0.0
 11
72.68177095083206
 21
418.3769900213402
 31
0.0
  0
LWPOLYLINE
  5
3AE2E
330
1E
100
AcDbEntity
  8
130
100
AcDbPolyline
 90
        6
 70
     0
 43
0.0
 10
112.9429307396321
 20
418.3769900213402
 10
112.9429307396321
 20
437.37699002134
 42
-0.4142135623730951
 10
116.4429307396321
 20
440.8769900213401
 10
133.4429307396322
 20
440.8769900213401
 42
-0.4142135623730951
 10
136.9429307396321
 20
437.37699002134
 10
136.9429307396321
 20
418.3769900213402
  0
LWPOLYLINE
  5
3AE2F
330
1E
100
AcDbEntity
  8
130
100
AcDbPolyline
 90
        6
 70
     0
 43
0.0
 10
147.9429307396319
 20
418.3769900213402
 10
147.9429307396319
 20
437.37699002134
 42
-0.4142135623730951
 10
151.4429307396319
 20
440.8769900213401
 10
168.4429307396319
 20
440.8769900213401
 42
-0.4142135623730951
 10
171.9429307396319
 20
437.37699002134
 10
171.9429307396319
 20
418.3769900213402
  0
LWPOLYLINE
  5
3AE30
330
1E
100
AcDbEntity
  8
130
100
AcDbPolyline
 90
        6
 70
     0
 43
0.0
 10
77.94293073963263
 20
583.3769900213392
 10
77.94293073963263
 20
564.3769900213396
 42
0.4142135623730951
 10
81.44293073963263
 20
560.8769900213395
 10
98.44293073963264
 20
560.8769900213395
 42
0.4142135623730951
 10
101.9429307396326
 20
564.3769900213396
 10
101.9429307396326
 20
583.3769900213392
  0
LWPOLYLINE
  5
3AE31
330
1E
100
AcDbEntity
  8
130
100
AcDbPolyline
 90
        6
 70
     0
 43
0.0
 10
112.9429307396321
 20
583.3769900213392
 10
112.9429307396321
 20
564.3769900213396
 42
0.4142135623730951
 10
116.4429307396321
 20
560.8769900213395
 10
133.4429307396322
 20
560.8769900213395
 42
0.4142135623730951
 10
136.9429307396321
 20
564.3769900213396
 10
136.9429307396321
 20
583.3769900213392
  0
LWPOLYLINE
  5
3AE32
330
1E
100
AcDbEntity
  8
130
100
AcDbPolyline
 90
        6
 70
     0
 43
0.0
 10
147.9429307396319
 20
583.3769900213392
 10
147.9429307396319
 20
564.3769900213396
 42
0.4142135623730951
 10
151.4429307396319
 20
560.8769900213395
 10
168.4429307396319
 20
560.8769900213395
 42
0.4142135623730951
 10
171.9429307396319
 20
564.3769900213396
 10
171.9429307396319
 20
583.3769900213392
  0
LINE
  5
3AE33
330
1E
100
AcDbEntity
  8
10
100
AcDbLine
 10
177.4429307396319
 20
585.5769932877399
 30
0.0
 11
72.68495549170916
 21
585.5769932877399
 31
0.0
  0
LINE
  5
3AE34
330
1E
100
AcDbEntity
  8
10
100
AcDbLine
 10
177.4429302158071
 20
590.3777137787971
 30
0.0
 11
177.4530638784774
 21
583.3769900213392
 31
0.0
  0
LINE
  5
3AE35
330
1E
100
AcDbEntity
  8
16
100
AcDbLine
 10
466.2783696328443
 20
162.8105899631007
 30
0.0
 11
597.3940214460663
 21
162.8105899631007
 31
0.0
  0
DIMENSION
  5
3AE36
330
1E
100
AcDbEntity
  8
30
100
AcDbDimension
280
     0
  2
*D16
 10
597.3940214460663
 20
138.8105899631007
 30
0.0
 11
597.3940214460663
 21
162.8105899631007
 31
0.0
 70
   160
 71
     2
 42
48.0
 73
     0
 74
     0
 75
     0
  3
STANDARD
100
AcDbAlignedDimension
 13
531.9942994110381
 23
186.8105899631007
 33
0.0
 14
531.9942994110381
 24
138.8105899631007
 34
0.0
 50
90.0
100
AcDbRotatedDimension
  0
DIMENSION
  5
3AE38
330
1E
100
AcDbEntity
  8
30
  6
Continuous
100
AcDbDimension
280
     0
  2
*D17
 10
531.9942994110373
 20
185.8105899631001
 30
0.0
 11
544.2750765325999
 21
192.9008999399673
 31
0.0
 70
   164
  1
<>
 71
     5
 42
1.000000000013471
 73
     0
 74
     0
 75
     0
  3
STANDARD1
100
AcDbRadialDimension
 15
532.6150668173883
 25
186.5945847508629
 35
0.0
 40
0.0
  0
LINE
  5
3AE39
330
1E
100
AcDbEntity
  8
16
100
AcDbLine
 10
521.0461827462443
 20
266.0881489847008
 30
0.0
 11
521.0461827462443
 21
67.41709299146624
 31
0.0
  0
LINE
  5
3AE3A
330
1E
100
AcDbEntity
  8
10
100
AcDbLine
 10
509.0461827462442
 20
185.8105899631008
 30
0.0
 11
509.0461827462442
 21
139.8105899631007
 31
0.0
  0
LINE
  5
3AE3B
330
1E
100
AcDbEntity
  8
10
100
AcDbLine
 10
510.0461827462441
 20
186.8105899631007
 30
0.0
 11
532.0461827462443
 21
186.8105899631007
 31
0.0
  0
LINE
  5
3AE3C
330
1E
100
AcDbEntity
  8
10
100
AcDbLine
 10
533.0461827462443
 20
185.8105899631008
 30
0.0
 11
533.0461827462443
 21
139.8105899631007
 31
0.0
  0
LINE
  5
3AE3D
330
1E
100
AcDbEntity
  8
10
100
AcDbLine
 10
510.0461827462441
 20
138.8105899631007
 30
0.0
 11
532.0461827462443
 21
138.8105899631007
 31
0.0
  0
ARC
  5
3AE3E
330
1E
100
AcDbEntity
  8
10
100
AcDbCircle
 10
510.0461827462441
 20
185.8105899631008
 30
0.0
 40
1.0
100
AcDbArc
 50
90.0
 51
180.0
  0
ARC
  5
3AE3F
330
1E
100
AcDbEntity
  8
10
100
AcDbCircle
 10
510.0461827462441
 20
139.8105899631007
 30
0.0
 40
1.0
100
AcDbArc
 50
180.0
 51
270.0
  0
ARC
  5
3AE40
330
1E
100
AcDbEntity
  8
10
100
AcDbCircle
 10
532.0461827462443
 20
185.8105899631008
 30
0.0
 40
1.0
100
AcDbArc
 50
0.0
 51
90.0
  0
ARC
  5
3AE41
330
1E
100
AcDbEntity
  8
10
100
AcDbCircle
 10
532.0461827462443
 20
139.8105899631007
 30
0.0
 40
1.0
100
AcDbArc
 50
270.0
 51
0.0
  0
DIMENSION
  5
3AE42
330
1E
100
AcDbEntity
  8
30
100
AcDbDimension
280
     0
  2
*D18
 10
509.0461827462442
 20
49.6797788860049
 30
0.0
 11
521.0461827462443
 21
49.6797788860049
 31
0.0
 70
   160
  1
<>
 71
     2
 42
24.00000000000011
 73
     0
 74
     0
 75
     0
  3
STANDARD1
100
AcDbAlignedDimension
 13
533.0461827462443
 23
139.8105899631007
 33
0.0
 14
509.0461827462442
 24
139.8105899631007
 34
0.0
100
AcDbRotatedDimension
  0
LINE
  5
3AE4C
330
1E
100
AcDbEntity
  8
12
100
AcDbLine
 10
367.1639253336498
 20
712.0741918719818
 30
0.0
 11
370.3639236230501
 21
712.0741918719818
 31
0.0
  0
LWPOLYLINE
  5
3AE4D
330
1E
100
AcDbEntity
  8
12
100
AcDbPolyline
 90
        2
 70
     0
 43
0.0
 10
376.3639246064503
 20
712.0741918719818
 10
382.8639228778502
 20
712.0741918719818
  0
LWPOLYLINE
  5
3AE4E
330
1E
100
AcDbEntity
  8
12
100
AcDbPolyline
 90
        2
 70
     0
 43
0.0
 10
382.8639228778502
 20
717.0741908289819
 10
376.3639246064503
 20
717.0741908289819
  0
LINE
  5
3AE4F
330
1E
100
AcDbEntity
  8
12
100
AcDbLine
 10
370.3639236230501
 20
717.0741908289819
 30
0.0
 11
367.1639253336498
 21
717.0741908289819
 31
0.0
  0
LWPOLYLINE
  5
3AE50
330
1E
100
AcDbEntity
  8
12
100
AcDbPolyline
 90
       13
 70
     0
 43
0.0
 10
370.3639236229128
 20
710.1491928137687
 42
0.4142177470913821
 10
370.5389228600497
 20
709.9741898513816
 10
371.4889240403263
 20
709.974189851418
 42
0.4142177470913821
 10
371.6639232772504
 20
710.1491928137821
 10
371.6639232772504
 20
710.5741925575816
 10
371.6639232772504
 20
710.9354525841817
 10
371.6639232772504
 20
714.2129294611818
 10
371.6639232772504
 20
718.4741921759819
 10
371.6639232772504
 20
718.5741901435817
 10
371.6639232773681
 20
718.9991898872396
 42
0.4142115122613406
 10
371.4889240402499
 20
719.1741891243817
 10
370.538922859992
 20
719.1741891243005
 42
0.4142115122613406
 10
370.3639236229315
 20
718.9991898872396
  0
LINE
  5
3AE51
330
1E
100
AcDbEntity
  8
10
100
AcDbLine
 10
367.1639253336498
 20
724.8094413467813
 30
0.0
 11
365.1639250058497
 21
724.8094413467813
 31
0.0
  0
LINE
  5
3AE52
330
1E
100
AcDbEntity
  8
10
100
AcDbLine
 10
367.1639253336498
 20
662.2542181405779
 30
0.0
 11
367.1639253336498
 21
724.8094413467813
 31
0.0
  0
LINE
  5
3AE53
330
1E
100
AcDbEntity
  8
10
100
AcDbLine
 10
365.1639250058497
 20
703.3821210301814
 30
0.0
 11
365.1639250058497
 21
724.8094413467813
 31
0.0
  0
LINE
  5
3AE54
330
1E
100
AcDbEntity
  8
10
100
AcDbLine
 10
367.1639253336498
 20
702.5741912461818
 30
0.0
 11
365.1639250058497
 21
702.5741912461818
 31
0.0
  0
LWPOLYLINE
  5
3AE55
330
1E
100
AcDbEntity
  8
12
100
AcDbPolyline
 90
        4
 70
     1
 43
0.0
 10
383.3639238912502
 20
712.5741891599816
 10
382.8639228778502
 20
712.0741918719818
 10
382.8639228778502
 20
717.0741908289819
 10
383.3639238912502
 20
716.5741898157817
  0
LINE
  5
3AE56
330
1E
100
AcDbEntity
  8
0
  6
SLD-実線
 62
     7
370
    15
100
AcDbLine
 10
391.1611017722498
 20
662.4942287839817
 30
0.0
 11
391.1604982752497
 21
662.4974921383817
 31
0.0
  0
LINE
  5
3AE57
330
1E
100
AcDbEntity
  8
10
100
AcDbLine
 10
351.1639245736505
 20
662.0941922105815
 30
0.0
 11
391.1611017722498
 21
662.4942287839817
 31
0.0
  0
LINE
  5
3AE58
330
1E
100
AcDbEntity
  8
10
  6
SLD-実線
 62
     7
370
    15
100
AcDbLine
 10
351.1639245736505
 20
662.0941922105815
 30
0.0
 11
351.1639245736505
 21
662.1335685289817
 31
0.0
  0
LINE
  5
3AE59
330
1E
100
AcDbEntity
  8
10
  6
SLD-実線
 62
     7
370
    15
100
AcDbLine
 10
351.1639245736505
 20
662.1335685289817
 30
0.0
 11
351.1244569856499
 21
662.1331661977817
 31
0.0
  0
LWPOLYLINE
  5
3AE5A
330
1E
100
AcDbEntity
  8
10
100
AcDbPolyline
 90
        8
 70
   128
 43
0.0
 10
349.1639652240501
 20
664.0741467513817
 10
349.5534536380501
 20
663.6885345019817
 10
349.9280241268507
 20
663.3176967539822
 10
350.2733287352504
 20
662.9758268631817
 10
350.5761501330499
 20
662.6760229505817
 10
350.82488776625
 20
662.4297589101812
 10
351.0100197930506
 20
662.2464671767817
 10
351.1244569856499
 20
662.1331661977817
  0
SPLINE
  5
3AE5B
330
1E
100
AcDbEntity
  8
10
100
AcDbSpline
210
0.0
220
0.0
230
1.0
 70
     8
 71
     3
 72
    10
 73
     6
 74
     0
 42
0.000000001
 43
0.0000000001
 40
0.0
 40
0.0
 40
0.0
 40
0.0
 40
0.0460399332174039
 40
0.2301995350429722
 40
0.9978790628184126
 40
0.9978790628184126
 40
0.9978790628184126
 40
0.9978790628184126
 10
391.1604982752007
 20
662.4974921383317
 30
0.0
 10
391.6604707811794
 20
662.5027694558366
 30
0.0
 10
394.1603318879962
 20
662.5291560283392
 30
0.0
 10
404.9968223788981
 20
662.645210128554
 30
0.0
 10
415.3332278724088
 20
662.7660911651537
 30
0.0
 10
423.6697696767173
 20
662.8636026693372
 30
0.0
  0
LINE
  5
3AE5C
330
1E
100
AcDbEntity
  8
10
100
AcDbLine
 10
365.1639250058497
 20
700.8162900843817
 30
0.0
 11
365.1639250058497
 21
702.5543913281817
 31
0.0
  0
LINE
  5
3AE5D
330
1E
100
AcDbEntity
  8
10
100
AcDbLine
 10
349.1639242458504
 20
702.6494048573818
 30
0.0
 11
349.1639242458504
 21
700.9113036133818
 31
0.0
  0
LINE
  5
3AE5E
330
1E
100
AcDbEntity
  8
10
100
AcDbLine
 10
365.1639250058497
 20
701.0741919315817
 30
0.0
 11
423.6689221770216
 21
700.4890496448176
 31
0.0
  0
LINE
  5
3AE5F
330
1E
100
AcDbEntity
  8
13
100
AcDbLine
 10
424.163921638253
 20
663.3635684686147
 30
0.0
 11
424.1639216381711
 21
699.9890746508327
 31
0.0
  0
ARC
  5
3AE60
330
1E
100
AcDbEntity
  8
13
100
AcDbCircle
 10
423.6639216381711
 20
699.9890746508317
 30
0.0
 40
0.5
100
AcDbArc
 50
0.0000000001302755
 51
89.42697090432512
  0
LINE
  5
3AE61
330
1E
100
AcDbEntity
  8
12
100
AcDbLine
 10
365.1639250058497
 20
702.5543913281817
 30
0.0
 11
365.1639250058497
 21
702.5707826055818
 31
0.0
  0
LINE
  5
3AE62
330
1E
100
AcDbEntity
  8
10
100
AcDbLine
 10
349.1639242458504
 20
721.0924044289818
 30
0.0
 11
349.1639652240501
 21
664.0741467513817
 31
0.0
  0
LINE
  5
3AE63
330
1E
100
AcDbEntity
  8
0
  6
SLD-実線
 62
     7
370
    15
100
AcDbLine
 10
391.1639218170503
 20
662.4942585863817
 30
0.0
 11
391.1611017722498
 21
662.4942287839817
 31
0.0
  0
LINE
  5
3AE64
330
1E
100
AcDbEntity
  8
10
100
AcDbLine
 10
349.1639242458504
 20
722.0741916485817
 30
0.0
 11
365.1639250058497
 21
722.0052477009817
 31
0.0
  0
LINE
  5
3AE65
330
1E
100
AcDbEntity
  8
10
  6
SLD-実線
 62
     7
370
    15
100
AcDbLine
 10
349.1639242458504
 20
721.0924044289818
 30
0.0
 11
349.1639242458504
 21
722.0741916485817
 31
0.0
  0
LWPOLYLINE
  5
3AE66
330
1E
100
AcDbEntity
  8
12
100
AcDbPolyline
 90
        8
 70
     0
 43
0.0
 10
371.6639232772504
 20
718.5741901435817
 10
376.1310678858499
 20
718.5741901435817
 10
376.3639246064503
 20
718.5741901435817
 10
376.3639246064503
 20
716.5741898157817
 10
376.3639246064503
 20
712.5741891599816
 10
376.3639246064503
 20
710.5741925575816
 10
376.1310678858499
 20
710.5741925575816
 10
371.6639232772504
 20
710.5741925575816
  0
LINE
  5
3AE67
330
1E
100
AcDbEntity
  8
12
100
AcDbLine
 10
370.3639236230501
 20
710.1491928137821
 30
0.0
 11
370.3639236230501
 21
718.9991898871815
 31
0.0
  0
LWPOLYLINE
  5
3AE68
330
1E
100
AcDbEntity
  8
24
100
AcDbPolyline
 90
        6
 70
     0
 43
0.0
 10
407.4639242904503
 20
676.1941909779816
 10
420.6639242904501
 20
676.1941909779816
 10
421.1639242904501
 20
676.6941909779816
 10
421.1639242904501
 20
683.4541909779817
 10
420.6639242904501
 20
683.9541909779817
 10
407.4639242904503
 20
683.9541909779817
  0
LWPOLYLINE
  5
3AE69
330
1E
100
AcDbEntity
  8
24
100
AcDbPolyline
 90
        4
 70
     0
 43
0.0
 10
400.9639242904502
 20
686.5741909779817
 10
407.4639242904503
 20
686.5741909779817
 10
407.4639242904503
 20
673.5741909779817
 10
400.9639242904502
 20
673.5741909779817
  0
LWPOLYLINE
  5
3AE6A
330
1E
100
AcDbEntity
  8
24
100
AcDbPolyline
 90
        4
 70
     1
 43
0.0
 10
400.9639242904502
 20
672.6757230433817
 10
400.9639242904502
 20
687.4741909779817
 10
398.9639242904504
 20
687.4741909779817
 10
398.9639242904504
 20
672.681355459782
  0
LINE
  5
3AE6B
330
1E
100
AcDbEntity
  8
24
100
AcDbLine
 10
398.9639242904504
 20
687.0741909779817
 30
0.0
 11
397.3639242904501
 21
687.0741909779817
 31
0.0
  0
LINE
  5
3AE6C
330
1E
100
AcDbEntity
  8
24
100
AcDbLine
 10
397.3639242904501
 20
687.0741909779817
 30
0.0
 11
397.3639242904501
 21
673.0741909779817
 31
0.0
  0
LINE
  5
3AE6D
330
1E
100
AcDbEntity
  8
24
100
AcDbLine
 10
397.3639242904501
 20
673.0741909779817
 30
0.0
 11
398.9639242904504
 21
673.0741909779817
 31
0.0
  0
LINE
  5
3AE6E
330
1E
100
AcDbEntity
  8
24
100
AcDbLine
 10
394.16392424685
 20
671.5741910349816
 30
0.0
 11
394.16392424685
 21
688.5741909209817
 31
0.0
  0
LINE
  5
3AE6F
330
1E
100
AcDbEntity
  8
24
100
AcDbLine
 10
393.6639242762503
 20
689.0741909779817
 30
0.0
 11
391.1639242904503
 21
689.0741909779817
 31
0.0
  0
LINE
  5
3AE70
330
1E
100
AcDbEntity
  8
24
100
AcDbLine
 10
393.6639242762503
 20
671.0741909779817
 30
0.0
 11
391.1639242904503
 21
671.0741909779817
 31
0.0
  0
LINE
  5
3AE71
330
1E
100
AcDbEntity
  8
24
100
AcDbLine
 10
393.6639242762503
 20
671.0741909779817
 30
0.0
 11
394.16392424685
 21
671.5741910349816
 31
0.0
  0
LINE
  5
3AE72
330
1E
100
AcDbEntity
  8
24
100
AcDbLine
 10
393.6639242762503
 20
689.0741909779817
 30
0.0
 11
394.16392424685
 21
688.5741909209817
 31
0.0
  0
LINE
  5
3AE73
330
1E
100
AcDbEntity
  8
10
100
AcDbLine
 10
391.1639242904503
 20
698.0741902851819
 30
0.0
 11
391.1639242904503
 21
662.4975257335818
 31
0.0
  0
LINE
  5
3AE74
330
1E
100
AcDbEntity
  8
10
100
AcDbLine
 10
424.1639242904502
 20
698.1317869017816
 30
0.0
 11
391.1639242904503
 21
698.0741902851819
 31
0.0
  0
LINE
  5
3AE75
330
1E
100
AcDbEntity
  8
24
100
AcDbLine
 10
394.16392424685
 20
692.8741909779819
 30
0.0
 11
394.16392424685
 21
667.2741909779817
 31
0.0
  0
LINE
  5
3AE76
330
1E
100
AcDbEntity
  8
24
100
AcDbLine
 10
397.8639242468498
 20
696.5741909779817
 30
0.0
 11
453.4707592258503
 21
696.5741909779817
 31
0.0
  0
LWPOLYLINE
  5
3AE77
330
1E
100
AcDbEntity
  8
24
100
AcDbPolyline
 90
        2
 70
     0
 43
0.0
 10
398.9639242904504
 20
681.5188109803816
 10
400.9639242904502
 20
680.2415640529816
  0
LINE
  5
3AE78
330
1E
100
AcDbEntity
  8
24
100
AcDbLine
 10
397.8639242468498
 20
663.5741909779817
 30
0.0
 11
453.4707592258503
 21
663.5741909779817
 31
0.0
  0
LINE
  5
3AE79
330
1E
100
AcDbEntity
  8
24
100
AcDbLine
 10
397.3639242904501
 20
692.8741909779819
 30
0.0
 11
397.3639242904501
 21
667.2741909779817
 31
0.0
  0
LINE
  5
3AE7A
330
1E
100
AcDbEntity
  8
24
100
AcDbLine
 10
397.8639242904502
 20
693.3741909779817
 30
0.0
 11
453.4707592258503
 21
693.3741909779817
 31
0.0
  0
LINE
  5
3AE7B
330
1E
100
AcDbEntity
  8
24
100
AcDbLine
 10
397.8639242904502
 20
666.7741909779812
 30
0.0
 11
453.4707592258503
 21
666.7741909779812
 31
0.0
  0
LWPOLYLINE
  5
3AE7C
330
1E
100
AcDbEntity
  8
24
100
AcDbPolyline
 90
        2
 70
     0
 43
0.0
 10
398.9639242904504
 20
679.902320865182
 10
400.9639242904502
 20
678.625073937782
  0
LINE
  5
3AE7D
330
1E
100
AcDbEntity
  8
12
100
AcDbLine
 10
367.1639242904503
 20
733.7107127591816
 30
0.0
 11
367.1639242904503
 21
705.7741909779815
 31
0.0
  0
LINE
  5
3AE7E
330
1E
100
AcDbEntity
  8
12
100
AcDbLine
 10
380.1639242904503
 20
705.2741909779816
 30
0.0
 11
380.1639242904503
 21
702.0741909779817
 31
0.0
  0
LINE
  5
3AE7F
330
1E
100
AcDbEntity
  8
12
100
AcDbLine
 10
370.8639242904502
 20
702.0741909779817
 30
0.0
 11
380.1639242904503
 21
702.0741909779817
 31
0.0
  0
LINE
  5
3AE80
330
1E
100
AcDbEntity
  8
12
100
AcDbLine
 10
370.3639242904501
 20
733.7107127591816
 30
0.0
 11
370.3639242904501
 21
705.7741909779815
 31
0.0
  0
LINE
  5
3AE81
330
1E
100
AcDbEntity
  8
12
100
AcDbLine
 10
371.6639242904502
 20
715.1991280421817
 30
0.0
 11
370.3639242904501
 21
714.2565467689819
 31
0.0
  0
LINE
  5
3AE82
330
1E
100
AcDbEntity
  8
12
100
AcDbLine
 10
371.6639242904502
 20
714.3137116107817
 30
0.0
 11
370.3639242904501
 21
713.3711303377817
 31
0.0
  0
LINE
  5
3AE83
330
1E
100
AcDbEntity
  8
12
100
AcDbLine
 10
370.8639242904502
 20
705.2741909779816
 30
0.0
 11
380.1639242904503
 21
705.2741909779816
 31
0.0
  0
ARC
  5
3AE84
330
1E
100
AcDbEntity
  8
24
100
AcDbCircle
 10
397.8639242468498
 20
692.8741909779819
 30
0.0
 40
3.700000000000046
100
AcDbArc
 50
90.0
 51
180.0
  0
ARC
  5
3AE85
330
1E
100
AcDbEntity
  8
24
100
AcDbCircle
 10
397.8639242904502
 20
692.8741909779819
 30
0.0
 40
0.5000000000002274
100
AcDbArc
 50
90.0
 51
180.0
  0
ARC
  5
3AE86
330
1E
100
AcDbEntity
  8
24
100
AcDbCircle
 10
397.8639242904502
 20
667.2741909779817
 30
0.0
 40
0.5
100
AcDbArc
 50
180.0
 51
270.0
  0
ARC
  5
3AE87
330
1E
100
AcDbEntity
  8
24
100
AcDbCircle
 10
397.8639242468498
 20
667.2741909779817
 30
0.0
 40
3.700000000000046
100
AcDbArc
 50
180.0
 51
270.0
  0
ARC
  5
3AE88
330
1E
100
AcDbEntity
  8
12
100
AcDbCircle
 10
370.8639242904502
 20
705.7741909779815
 30
0.0
 40
0.5
100
AcDbArc
 50
180.0
 51
270.0
  0
ARC
  5
3AE89
330
1E
100
AcDbEntity
  8
12
100
AcDbCircle
 10
370.8639242904502
 20
705.7741909779815
 30
0.0
 40
3.700000000000046
100
AcDbArc
 50
180.0
 51
270.0
  0
DIMENSION
  5
3AE8A
330
1E
100
AcDbEntity
  8
30
100
AcDbDimension
280
     0
  2
*D22
 10
465.7126704450711
 20
696.5741909779817
 30
0.0
 11
495.4793371117378
 21
724.374190977982
 31
0.0
 70
   160
  1
<> (max.)
 71
     2
 42
16.5
 73
     0
 74
     0
 75
     0
  3
STANDARD1
100
AcDbAlignedDimension
 13
424.6639242904501
 23
680.0741909779817
 33
0.0
 14
453.4707592258503
 24
696.5741909779817
 34
0.0
 50
90.0
100
AcDbRotatedDimension
  0
DIMENSION
  5
3AE8B
330
1E
100
AcDbEntity
  8
30
100
AcDbDimension
280
     0
  2
*D23
 10
367.1639242904503
 20
744.0695449059115
 30
0.0
 11
375.2639242904503
 21
744.0695449059115
 31
0.0
 70
   160
  1
<>
 71
     2
 42
16.19999999999982
 73
     0
 74
     0
 75
     0
  3
STANDARD1
100
AcDbAlignedDimension
 13
383.3639242904501
 23
716.5741909779817
 33
0.0
 14
367.1639242904503
 24
733.7107127591816
 34
0.0
100
AcDbRotatedDimension
  0
LINE
  5
3AE8C
330
1E
100
AcDbEntity
  8
17
100
AcDbLine
 10
424.6639226514496
 20
680.0741940773819
 30
0.0
 11
387.9770961540499
 21
680.0741940773819
 31
0.0
  0
LINE
  5
3AE8D
330
1E
100
AcDbEntity
  8
17
100
AcDbLine
 10
362.4276266384504
 20
714.5741894877817
 30
0.0
 11
386.8639235336504
 21
714.5741894877817
 31
0.0
  0
ARC
  5
3AE8E
330
1E
100
AcDbEntity
  8
24
100
AcDbCircle
 10
423.663921638253
 20
663.3635684686137
 30
0.0
 40
0.5
100
AcDbArc
 50
270.6701511246629
 51
0.0000000001237617
  0
LINE
  5
3AE8F
330
1E
100
AcDbEntity
  8
SLD-0
100
AcDbLine
 10
414.1741160477421
 20
683.9541909779817
 30
0.0
 11
431.0102732375422
 21
707.018933699582
 31
0.0
  0
LINE
  5
3AE90
330
1E
100
AcDbEntity
  8
30
100
AcDbLine
 10
431.0102732375422
 20
707.018933699582
 30
0.0
 11
463.8728995049176
 21
707.0175302074817
 31
0.0
  0
MTEXT
  5
3AE91
330
1E
100
AcDbEntity
  8
30
100
AcDbMText
 10
433.2452974232246
 20
713.7353422165952
 30
50.0
 40
5.0
 41
26.0
 46
0.0
 71
     1
 72
     5
  1
M8screw
  7
blockfont
 73
     1
 44
1.0
  0
INSERT
  5
3AE92
330
1E
100
AcDbEntity
  8
24
100
AcDbBlockReference
  2
_DOT
 10
404.05442822285
 20
676.4685099013817
 30
50.0
 41
1.5
 42
1.5
 43
2.0
 50
116.6603336343
  0
MTEXT
  5
3AE93
330
1E
100
AcDbEntity
  8
30
  6
Continuous
100
AcDbMText
 10
441.8789126140353
 20
644.5559889106839
 30
50.0
 40
5.0
 41
26.0
 46
0.0
 71
     1
 72
     5
  1
M8 nut
  7
blockfont
 73
     1
 44
1.0
  0
LEADER
  5
3AE94
330
1E
100
AcDbEntity
  8
30
100
AcDbLeader
  3
STANDARD1
 76
     3
 10
404.5592161753456
 20
675.46311737952
 30
50.0
 10
442.509677341374
 20
637.0765121976559
 30
50.0
 10
466.9999763789558
 20
637.0759487178105
 30
50.0
211
-1.0
221
0.0
231
0.0
210
0.0
220
0.0
230
-1.0
1001
ACAD
1000
DSTYLE
1002
{
1070
   147
1040
2.0
1070
    77
1070
     0
1002
}
  0
DIMENSION
  5
3AE95
330
1E
100
AcDbEntity
  8
30
100
AcDbDimension
280
     0
  2
*D24
 10
397.1639215946157
 20
642.0941972177819
 30
0.0
 11
410.6639216164153
 21
642.0941972177819
 31
0.0
 70
   160
  1
13.5
 71
     2
 42
27.00000004360027
 73
     0
 74
     0
 75
     0
  3
STANDARD1
100
AcDbAlignedDimension
 13
424.1639216382158
 23
676.6941940773818
 33
0.0
 14
397.1639215946157
 24
667.2741940773817
 34
0.0
100
AcDbRotatedDimension
  0
DIMENSION
  5
3AE96
330
1E
100
AcDbEntity
  8
30
100
AcDbDimension
280
     0
  2
*D25
 10
397.1639215946157
 20
642.0941974859819
 30
0.0
 11
383.6639216164154
 21
642.0941974859819
 31
0.0
 70
   160
  1
13.5
 71
     2
 42
26.99999995640019
 73
     0
 74
     0
 75
     0
  3
STANDARD1
100
AcDbAlignedDimension
 13
370.1639216382155
 23
702.5741943455819
 33
0.0
 14
397.1639215946157
 24
667.2741940773817
 34
0.0
100
AcDbRotatedDimension
  0
DIMENSION
  5
3AE97
330
1E
100
AcDbEntity
  8
30
100
AcDbDimension
280
     0
  2
*D26
 10
370.1639216382155
 20
642.0941972177819
 30
0.0
 11
361.1639216382155
 21
642.0941972177819
 31
0.0
 70
   160
  1
<>
 71
     2
 42
18.0
 73
     0
 74
     0
 75
     0
  3
STANDARD1
100
AcDbAlignedDimension
 13
352.1639216382155
 23
664.0740940635818
 33
0.0
 14
370.1639216382155
 24
702.5741943455819
 34
0.0
100
AcDbRotatedDimension
  0
LWPOLYLINE
  5
3AE98
330
1E
100
AcDbEntity
  8
18
100
AcDbPolyline
 90
        4
 70
     1
 43
0.0
 10
72.44293073963217
 20
74.60722508259397
 10
72.44293073963217
 20
254.5672188019937
 10
177.4429255907371
 20
254.5672188019937
 10
177.4429358885371
 20
74.60722508259397
  0
LWPOLYLINE
  5
3AE99
330
1E
100
AcDbEntity
  8
18
100
AcDbPolyline
 90
        4
 70
     1
 43
0.0
 10
279.1074645386725
 20
251.1706016838521
 10
384.1074645386725
 20
251.1706016838521
 10
384.1074748364727
 20
71.21060796445231
 10
279.1074748364727
 20
71.21060796445231
  0
LINE
  5
3AE9A
330
1E
100
AcDbEntity
  8
18
100
AcDbLine
 10
384.1074645386725
 20
251.1706016838521
 30
0.0
 11
384.1074748364727
 21
71.21060796445231
 31
0.0
  0
LWPOLYLINE
  5
3AE9B
330
1E
100
AcDbEntity
  8
18
100
AcDbPolyline
 90
        4
 70
     1
 43
0.0
 10
468.546177597349
 20
252.7905868227006
 10
573.5461827462487
 20
252.7905868227006
 10
573.5461827462487
 20
72.83059310330083
 10
468.5461878951492
 20
72.83059310330083
  0
LINE
  5
3AEA4
330
1E
100
AcDbEntity
  8
10
100
AcDbLine
 10
176.9429307396319
 20
590.8769900213399
 30
0.0
 11
73.19190408967711
 21
590.8769900213399
 31
0.0
  0
ARC
  5
3AEA5
330
1E
100
AcDbEntity
  8
10
100
AcDbCircle
 10
176.9429307396319
 20
590.3769900213399
 30
0.0
 40
0.5
100
AcDbArc
 50
0.082936524368871
 51
90.0
  0
LINE
  5
3AEA6
330
1E
100
AcDbEntity
  8
10
100
AcDbLine
 10
176.9429307396319
 20
410.8769919882398
 30
0.0
 11
73.19190408683017
 21
410.8769919882398
 31
0.0
  0
ARC
  5
3AEA7
330
1E
100
AcDbEntity
  8
10
100
AcDbCircle
 10
73.19190408683017
 20
411.3769919882398
 30
0.0
 40
0.5
100
AcDbArc
 50
180.0829365243655
 51
270.0
  0
LWPOLYLINE
  5
3AEA8
330
1E
100
AcDbEntity
  8
SLD-0
370
    15
100
AcDbPolyline
 90
        8
 70
     1
 43
0.0
 10
167.4470134792318
 20
194.8260052459939
 10
82.4470134792318
 20
194.8260052459939
 42
0.4142135623730951
 10
81.94701347923183
 20
194.3260052459939
 10
81.94701347923183
 20
133.3260052459939
 42
0.4142135623730951
 10
82.4470134792318
 20
132.8260052459939
 10
167.4470134792318
 20
132.8260052459939
 42
0.4142135623730951
 10
167.9470134792318
 20
133.3260052459939
 10
167.9470134792318
 20
194.3260052459939
 42
0.4142135623730951
  0
CIRCLE
  5
3AEA9
330
1E
100
AcDbEntity
  8
12
100
AcDbCircle
 10
139.9429307396321
 20
202.0872219423939
 30
0.0
 40
3.000000000000001
  0
CIRCLE
  5
3AEAA
330
1E
100
AcDbEntity
  8
12
100
AcDbCircle
 10
139.9429307396321
 20
127.0872219423939
 30
0.0
 40
3.000000000000013
  0
INSERT
  5
3AEAB
330
1E
100
AcDbEntity
  8
12
100
AcDbBlockReference
  2
SW_CENTERMARKSYMBOL_54
 10
139.9429307396321
 20
202.0872219423939
 30
0.0
 41
2.0
 42
2.0
 43
2.0
  0
INSERT
  5
3AEAC
330
1E
100
AcDbEntity
  8
12
100
AcDbBlockReference
  2
SW_CENTERMARKSYMBOL_55
 10
139.9429307396321
 20
127.0872219423939
 30
0.0
 41
2.0
 42
2.0
 43
2.0
  0
DIMENSION
  5
3AEAE
330
1E
100
AcDbEntity
  8
30
100
AcDbDimension
280
     0
  2
*D28
 10
199.6533982647788
 20
132.8260052459939
 30
0.0
 11
193.1533982647788
 21
163.8260052459939
 31
0.0
 70
    32
 71
     5
 42
62.0
 73
     0
 74
     0
 75
     0
  3
STANDARD
100
AcDbAlignedDimension
 13
167.4470134792318
 23
194.8260052459939
 33
0.0
 14
167.9470134792318
 24
132.8260052459939
 34
0.0
 50
90.0
100
AcDbRotatedDimension
  0
LINE
  5
3AEAF
330
1E
100
AcDbEntity
  8
16
100
AcDbLine
 10
124.9429307396322
 20
602.3099759200253
 30
0.0
 11
124.9429307396322
 21
401.9605563441418
 31
0.0
  0
LINE
  5
3AEB0
330
1E
100
AcDbEntity
  8
10
100
AcDbLine
 10
72.6919046135024
 20
590.3777137787971
 30
0.0
 11
72.68177095083206
 21
583.3769900213392
 31
0.0
  0
ARC
  5
3AEB1
330
1E
100
AcDbEntity
  8
10
100
AcDbCircle
 10
73.19190408967711
 20
590.3769900213399
 30
0.0
 40
0.5
100
AcDbArc
 50
90.0
 51
179.9170634756344
  0
LINE
  5
3AEB2
330
1E
100
AcDbEntity
  8
10
100
AcDbLine
 10
177.1939568686095
 20
411.376268230782
 30
0.0
 11
177.2040905284327
 21
418.3769900213397
 31
0.0
  0
ARC
  5
3AEB3
330
1E
100
AcDbEntity
  8
10
100
AcDbCircle
 10
176.6939573924344
 20
411.3769919882392
 30
0.0
 40
0.5
100
AcDbArc
 50
270.0
 51
359.9170634756311
  0
LINE
  5
3AEB4
330
1E
100
AcDbEntity
  8
16
100
AcDbLine
 10
124.9429307396324
 20
261.8707647391102
 30
0.0
 11
124.9429307396324
 21
68.76994174801985
 31
0.0
  0
MTEXT
  5
3AEB8
330
1E
100
AcDbEntity
  8
19
100
AcDbMText
 10
297.7504366733569
 20
29.35289753010983
 30
0.0
 40
7.826237649998486
 41
0.0
 46
0.0
 71
     1
 72
     1
  1
[Cutout A]
 73
     1
 44
1.0
  0
MTEXT
  5
3AEB9
330
1E
100
AcDbEntity
  8
19
100
AcDbMText
 10
492.7916340493625
 20
30.97288266895834
 30
0.0
 40
7.826237649998486
 41
0.0
 46
0.0
 71
     1
 72
     1
  1
[Cutout B]
 73
     1
 44
1.0
  0
LWPOLYLINE
  5
3B964
330
1E
100
AcDbEntity
  8
130
  6
Continuous
100
AcDbPolyline
 90
        4
 70
     1
 43
0.0
 10
0.0
 20
891.0
 10
629.9999999999998
 20
891.0
 10
629.9999999999998
 20
0.0
 10
0.0
 20
0.0
  0
LINE
  5
3D652
330
1E
100
AcDbEntity
  8
16
100
AcDbLine
 10
295.6734065247856
 20
500.8769890378898
 30
0.0
 11
389.0017771638369
 21
500.8769890378898
 31
0.0
  0
LINE
  5
3D653
330
1E
100
AcDbEntity
  8
130
100
AcDbLine
 10
308.8017771638367
 20
525.8769890378897
 30
0.0
 11
308.8017771638367
 21
475.8769890378898
 31
0.0
  0
LINE
  5
3D654
330
1E
100
AcDbEntity
  8
130
100
AcDbLine
 10
302.3017771638369
 20
523.3769890378899
 30
0.0
 11
302.3017771638369
 21
478.3769890378898
 31
0.0
  0
LINE
  5
3D655
330
1E
100
AcDbEntity
  8
130
100
AcDbLine
 10
308.8017771638367
 20
475.8769890378898
 30
0.0
 11
312.8017771638367
 21
475.8769890378898
 31
0.0
  0
LINE
  5
3D656
330
1E
100
AcDbEntity
  8
130
100
AcDbLine
 10
302.3017771638369
 20
478.3769890378898
 30
0.0
 11
308.8017771638367
 21
478.3769890378898
 31
0.0
  0
LINE
  5
3D657
330
1E
100
AcDbEntity
  8
130
100
AcDbLine
 10
308.8017771638367
 20
525.8769890378897
 30
0.0
 11
312.8017771638367
 21
525.8769890378897
 31
0.0
  0
LINE
  5
3D658
330
1E
100
AcDbEntity
  8
130
100
AcDbLine
 10
302.3017771638369
 20
523.3769890378899
 30
0.0
 11
308.8017771638367
 21
523.3769890378899
 31
0.0
  0
LWPOLYLINE
  5
3D659
330
1E
100
AcDbEntity
  8
130
100
AcDbPolyline
 90
      178
 70
     0
 43
0.0
 10
325.5171349843676
 20
583.3769890378896
 10
325.4850437664331
 20
583.3679280235187
 10
325.4541928609032
 20
583.3591768961675
 10
325.4245481468765
 20
583.3507263576571
 10
325.3960755034519
 20
583.3425671098082
 10
325.3687408097284
 20
583.3346898544419
 10
325.3425099448045
 20
583.3270852933792
 10
325.3173487877792
 20
583.3197441284412
 10
325.2932232177514
 20
583.3126570614481
 10
325.2700991138197
 20
583.3058147942215
 10
325.2479423550831
 20
583.2992080285817
 10
325.2267188206403
 20
583.2928274663506
 10
325.2063943895901
 20
583.2866638093482
 10
325.1869349410313
 20
583.2807077593959
 10
325.1683063540629
 20
583.2749500183145
 10
325.1504745077834
 20
583.2693812879247
 10
325.133405281292
 20
583.2639922700482
 10
325.1170645536872
 20
583.258773666505
 10
325.1014182040679
 20
583.2537161791162
 10
325.0720721551812
 20
583.2440473600869
 10
325.0450941674224
 20
583.2349114275272
 10
325.020211273582
 20
583.2262339960042
 10
324.9971505064503
 20
583.217940680086
 10
324.9756388988182
 20
583.2099570943394
 10
324.9554034834758
 20
583.2022088533322
 10
324.9361712932139
 20
583.1946215716317
 10
324.8996247190933
 20
583.1796323444205
 10
324.8638154936724
 20
583.1643943425481
 10
324.8270313859709
 20
583.1484267525752
 10
324.7891775305987
 20
583.1316407308927
 10
324.7505056160152
 20
583.1140314214938
 10
324.7112673306805
 20
583.0955939683685
 10
324.6717143630541
 20
583.0763235155091
 10
324.6320984015955
 20
583.0562152069067
 10
324.5926711347646
 20
583.0352641865532
 10
324.5536842510212
 20
583.0134655984402
 10
324.5153894388248
 20
582.9908145865592
 10
324.4780244514449
 20
582.9673077317542
 10
324.4416568543986
 20
582.9429591628667
 10
324.4062403957106
 20
582.9177947444184
 10
324.3717267374293
 20
582.891840556015
 10
324.3380675416033
 20
582.8651226772631
 10
324.3052144702815
 20
582.8376671877682
 10
324.2731191855122
 20
582.8095001671369
 10
324.2417333493443
 20
582.7806476949747
 10
324.2110086238263
 20
582.7511358508882
 10
324.1808966710069
 20
582.7209907144826
 10
324.1513491529346
 20
582.6902383653646
 10
324.1223177316582
 20
582.6589048831396
 10
324.0937540692262
 20
582.6270163474146
 10
324.0378366690901
 20
582.5616784338865
 10
323.9832102489154
 20
582.4944332616282
 10
323.9295618227491
 20
582.4254715706872
 10
323.8771356965655
 20
582.3548488045887
 10
323.8515368674728
 20
582.3189125375632
 10
323.8264309215734
 20
582.2825585610956
 10
323.8018804042633
 20
582.2457860350928
 10
323.7779478609382
 20
582.2085941194611
 10
323.7546958369935
 20
582.1709819741072
 10
323.7321868778252
 20
582.1329487589375
 10
323.7104835288285
 20
582.0944936338587
 10
323.6896483353995
 20
582.0556157587778
 10
323.6697438429336
 20
582.0163142936007
 10
323.6508325968266
 20
581.9765883982345
 10
323.6329771424741
 20
581.9364372325856
 10
323.6162313791642
 20
581.8958619129491
 10
323.6005595366871
 20
581.8548838454874
 10
323.5858727572972
 20
581.8135364486866
 10
323.572081489805
 20
581.771853297941
 10
323.5590961830204
 20
581.7298679686452
 10
323.5468272857539
 20
581.6876140361937
 10
323.5351852468157
 20
581.645125075981
 10
323.5134235391651
 20
581.5595763738497
 10
323.4930946505506
 20
581.4734904654065
 10
323.4734821714542
 20
581.3871359538081
 10
320.8017822004367
 20
572.8769890378897
 10
320.8017822004367
 20
562.3769907366899
 10
320.8017822004367
 20
562.3769907366899
 10
320.8017822004367
 20
562.3769907366899
 10
320.8017822004367
 20
562.3769907366899
 10
320.8017771638369
 20
551.8769890378897
 10
312.8017771638367
 20
551.8769890378897
 10
312.8017771638367
 20
449.8769890378901
 10
320.8017771638369
 20
449.8769890378901
 10
320.8017771638369
 20
444.6269881884901
 10
320.8017822004367
 20
428.87698903789
 10
323.4734821714542
 20
420.3668421219715
 10
323.4930946505506
 20
420.2804876103728
 10
323.5134235391651
 20
420.1944017019298
 10
323.5351852468157
 20
420.1088529997985
 10
323.5468272857539
 20
420.0663640395857
 10
323.5590961830204
 20
420.0241101071343
 10
323.572081489805
 20
419.9821247778386
 10
323.5858727572972
 20
419.940441627093
 10
323.6005595366871
 20
419.8990942302922
 10
323.6162313791642
 20
419.8581161628301
 10
323.6329772859085
 20
419.8175409231236
 10
323.6508441513688
 20
419.777396116377
 10
323.669807748038
 20
419.7376993936472
 10
323.6898369906908
 20
419.6984674461933
 10
323.7109007941019
 20
419.6597169652735
 10
323.7329680730467
 20
419.6214646421466
 10
323.7560077422998
 20
419.5837271680706
 10
323.7799887166364
 20
419.5465212343043
 10
323.804879910831
 20
419.5098635321062
 10
323.830650239659
 20
419.4737707527348
 10
323.8572686178952
 20
419.4382595874483
 10
323.8847039603145
 20
419.4033467275061
 10
323.9129251816919
 20
419.3690488641657
 10
323.9419011968021
 20
419.3353826886863
 10
323.9716009204203
 20
419.3023648923261
 10
324.0019924665362
 20
419.2700119507237
 10
324.0330152575213
 20
419.2383326139865
 10
324.0645727969065
 20
419.2073259606845
 10
324.0965663190861
 20
419.1769904583964
 10
324.1288970584549
 20
419.1473245747022
 10
324.1614662494066
 20
419.1183267771807
 10
324.194175126336
 20
419.089995533412
 10
324.226924923637
 20
419.0623293109752
 10
324.2596168757045
 20
419.0353265774499
 10
324.2921522169325
 20
419.0089858004153
 10
324.3244321817152
 20
418.9833054474512
 10
324.3563580044473
 20
418.9582839861364
 10
324.3878309195229
 20
418.9339198840515
 10
324.4187521613365
 20
418.9102116087747
 10
324.4490229642821
 20
418.8871576278859
 10
324.4785445627547
 20
418.8647564089651
 10
324.507218191148
 20
418.8430064195912
 10
324.5349475579433
 20
418.8219049444511
 10
324.5617713656776
 20
418.8013847258518
 10
324.613681051679
 20
418.761425092441
 10
324.6649873842457
 20
418.7217620766126
 10
324.6910570001867
 20
418.7016126299919
 10
324.7177470264037
 20
418.6810223334062
 10
324.7453145457749
 20
418.6598195187356
 10
324.7740166411788
 20
418.6378325178599
 10
324.7889044173238
 20
418.6264949633256
 10
324.804402715691
 20
418.6149242791619
 10
324.8208004123609
 20
418.6031294100419
 10
324.8383864297156
 20
418.5911193061214
 10
324.8574496901373
 20
418.5789029175571
 10
324.8782791160081
 20
418.5664891945044
 10
324.9011636297102
 20
418.5538870871196
 10
324.9134668327424
 20
418.5475181862265
 10
324.9263921536258
 20
418.5411055455587
 10
324.939975707658
 20
418.534650283886
 10
324.9542536101369
 20
418.5281535199776
 10
324.9692619763603
 20
418.5216163726034
 10
324.9850369216258
 20
418.5150399605324
 10
325.0016145612314
 20
418.5084254025348
 10
325.0190310104747
 20
418.5017738173796
 10
325.0373223846535
 20
418.4950863238363
 10
325.0565247990656
 20
418.4883640406745
 10
325.0766743690087
 20
418.481608086664
 10
325.0978072097808
 20
418.4748195805736
 10
325.1199594366795
 20
418.4679996411736
 10
325.1431671650024
 20
418.461149387233
 10
325.1674665100476
 20
418.4542699375215
 10
325.1928935871126
 20
418.4473624108083
 10
325.2194845114953
 20
418.4404279258636
 10
325.2472753984934
 20
418.4334676014562
 10
325.276302363405
 20
418.4264825563558
 10
325.3066015215273
 20
418.4194739093321
 10
325.3382089881585
 20
418.4124427791545
 10
325.3711608785961
 20
418.4053902845922
 10
325.4054933081381
 20
418.3983175444152
 10
325.4412423920821
 20
418.391225677393
 10
325.4784442457261
 20
418.3841158022944
 10
325.5171349843676
 20
418.37698903789
 10
325.5171349843676
 20
418.37698903789
 10
354.008033270672
 20
418.37698903789
 10
380.8017771638366
 20
418.3769890378902
 10
380.8017771638366
 20
418.3769890378902
 10
380.8017771638366
 20
418.3769890378902
 10
380.8017771638366
 20
583.3769890378896
 10
380.8017771638366
 20
583.3769890378896
 10
325.5171349843676
 20
583.3769890378896
 10
380.8017771638366
 20
583.3769890378896
  0
LWPOLYLINE
  5
3D65C
330
1E
100
AcDbEntity
  8
10
100
AcDbPolyline
 90
       15
 70
     0
 43
0.0
 10
385.8067524100368
 20
410.8769890378898
 10
380.8017771638366
 20
410.8769910047898
 10
380.8017771638366
 20
412.8766895841897
 10
380.806752521843
 20
588.87729045849
 10
380.806752521843
 20
590.8769890378898
 10
386.3067524920431
 20
590.8769890378898
 10
460.8017771638369
 20
590.8769910047896
 10
460.7968019723791
 20
553.9767213486893
 42
-0.4141740625029322
 10
458.796802060208
 20
551.9769910047898
 10
403.8017754532368
 20
551.9769890721707
 10
403.801777163837
 20
449.8735370194442
 10
457.9514832185139
 20
449.8778527880718
 42
-0.4985807835779122
 10
460.8017771638369
 20
447.8778558142842
 10
460.8017771638369
 20
410.8769910047898
 10
385.8067524100368
 20
410.8769890378898
  0
LINE
  5
3D65D
330
1E
100
AcDbEntity
  8
12
100
AcDbLine
 10
414.1880533307589
 20
463.3769890378898
 30
0.0
 11
420.8216018405588
 21
463.3769890378898
 31
0.0
  0
LINE
  5
3D65E
330
1E
100
AcDbEntity
  8
12
100
AcDbLine
 10
413.4682303646372
 20
538.3769890378897
 30
0.0
 11
420.101778874437
 21
538.3769890378897
 31
0.0
  0
LWPOLYLINE
  5
3D65F
330
1E
100
AcDbEntity
  8
12
370
     0
100
AcDbPolyline
 90
       11
 70
     1
 43
0.0
 10
403.8017754532368
 20
453.5778588387906
 10
403.8017754532375
 20
548.1778588387908
 42
-0.4142135623730951
 10
407.5017754532373
 20
551.8778588387906
 10
418.8017754532372
 20
551.8778588387906
 10
418.8017754532372
 20
548.6778588387908
 10
407.5017754532373
 20
548.6778588387908
 42
0.4142135623730951
 10
407.0017754532373
 20
548.1778588387908
 10
407.0017754532373
 20
453.0778588387907
 10
418.8017754532372
 20
453.0778588387907
 10
418.8017754532372
 20
449.8778588387906
 10
407.5017754532373
 20
449.8778588387906
 42
-0.4142135623730951
  0
INSERT
  5
3D660
330
1E
100
AcDbEntity
  8
12
100
AcDbBlockReference
  2
m5screw1
 10
403.8017754532368
 20
538.3769890378897
 30
0.0
  0
INSERT
  5
3D661
330
1E
100
AcDbEntity
  8
12
100
AcDbBlockReference
  2
m5screw1
 10
403.801777163837
 20
463.3769890378898
 30
0.0
  0
DIMENSION
  5
3D662
330
1E
100
AcDbEntity
  8
30
100
AcDbDimension
280
     0
  2
*D29
 10
514.8936472919398
 20
410.8769910047898
 30
0.0
 11
514.8936472919396
 21
500.8769910047896
 31
0.0
 70
   160
 71
     5
 42
179.9999999999999
 73
     0
 74
     0
 75
     0
  3
STANDARD
100
AcDbAlignedDimension
 13
461.801777163837
 23
590.8769910047896
 33
0.0
 14
461.801777163837
 24
410.8769910047898
 34
0.0
 50
90.0
100
AcDbRotatedDimension
  0
LINE
  5
3D663
330
1E
100
AcDbEntity
  8
SLD-0
100
AcDbLine
 10
417.8945188476082
 20
466.1183748127069
 30
0.0
 11
433.7855425721894
 21
486.7637621444715
 31
0.0
  0
LINE
  5
3D664
330
1E
100
AcDbEntity
  8
30
100
AcDbLine
 10
433.2855446999895
 20
486.7637621444715
 30
0.0
 11
466.148170967365
 21
486.7623586523713
 31
0.0
  0
MTEXT
  5
3D665
330
1E
100
AcDbEntity
  8
30
100
AcDbMText
 10
435.5205688856718
 20
493.4801706614845
 30
50.0
 40
5.0
 41
26.0
 46
0.0
 71
     1
 72
     5
  1
M5X0.8 screw
  7
blockfont
 73
     1
 44
1.0
  0
DIMENSION
  5
3D666
330
1E
100
AcDbEntity
  8
30
100
AcDbDimension
280
     0
  2
*D30
 10
403.801777163837
 20
344.4796203024803
 30
0.0
 11
344.8232633311592
 21
350.9796203024803
 31
0.0
 70
    32
 71
     5
 42
117.9570276653555
 73
     0
 74
     0
 75
     0
  3
STANDARD
100
AcDbAlignedDimension
 13
285.8447494984813
 23
511.0046750503096
 33
0.0
 14
403.801777163837
 24
448.5017704574508
 34
0.0
100
AcDbRotatedDimension
  0
DIMENSION
  5
3D667
330
1E
100
AcDbEntity
  8
30
100
AcDbDimension
280
     0
  2
*D31
 10
460.8017771638369
 20
378.6201753895641
 30
0.0
 11
432.3017771638369
 21
385.1201753895641
 31
0.0
 70
    32
 71
     5
 42
57.0
 73
     0
 74
     0
 75
     0
  3
STANDARD
100
AcDbAlignedDimension
 13
403.801777163837
 23
449.8735370194442
 33
0.0
 14
460.8017771638369
 24
410.8769910047898
 34
0.0
100
AcDbRotatedDimension
  0
LWPOLYLINE
  5
3D669
330
1E
100
AcDbEntity
  8
130
100
AcDbPolyline
 90
        3
 70
     0
 43
0.0
 10
302.3017771638369
 20
512.53962403789
 10
289.0511010981663
 20
516.8797014588967
 42
0.4244748162090625
 10
286.6003767671696
 20
515.3720057909773
  0
LWPOLYLINE
  5
3D66A
330
1E
100
AcDbEntity
  8
130
100
AcDbPolyline
 90
       51
 70
     0
 43
0.0
 10
286.6003767671696
 20
515.3720057909773
 10
285.7919779409535
 20
512.1003717187707
 42
0.4248673327981316
 10
287.38371120797
 20
509.7011602130153
 10
287.7829894793322
 20
509.6284025332638
 10
288.1727790166534
 20
509.5583965153756
 10
288.5532672713114
 20
509.4910522198138
 10
288.9246416946755
 20
509.4262797070443
 10
289.2870897381142
 20
509.3639890375321
 10
289.6407988529963
 20
509.3040902717428
 10
289.9859564906904
 20
509.2464934701427
 10
290.3227501025654
 20
509.1911086931964
 10
290.6513671399896
 20
509.1378460013693
 10
290.9719950543319
 20
509.0866154551273
 10
291.2848212969613
 20
509.0373271149355
 10
291.5900333192462
 20
508.9898910412596
 10
291.8878185725553
 20
508.9442172945648
 10
292.1783645082573
 20
508.9002159353171
 10
292.4618585777212
 20
508.8577970239817
 10
292.7384882323154
 20
508.8168706210238
 10
293.0084409234087
 20
508.777346786909
 10
293.2719041023697
 20
508.7391355821027
 10
293.5290652205672
 20
508.7021470670708
 10
293.78011172937
 20
508.6662913022784
 10
294.0252310801469
 20
508.6314783481911
 10
294.264610724266
 20
508.5976182652741
 10
294.4984381130966
 20
508.564621113993
 10
294.7269006980074
 20
508.5323969548134
 10
294.9501859303668
 20
508.5008558482008
 10
295.1684812615436
 20
508.4699078546202
 10
295.3819741429068
 20
508.4394630345378
 10
295.5908520258244
 20
508.4094314484183
 10
295.795302361666
 20
508.3797231567278
 10
295.9955126017996
 20
508.3502482199314
 10
296.1916701975943
 20
508.3209166984947
 10
296.3839626004187
 20
508.2916386528832
 10
297.5725772616415
 20
508.2623241435618
 10
297.7577016326313
 20
508.2328832309973
 10
297.9395194168804
 20
508.2032305849843
 10
298.1181689461037
 20
508.1733366758556
 10
298.46639541681
 20
508.1128559454683
 10
298.8032426816649
 20
508.0515061367107
 10
299.1295718340307
 20
507.9893530149472
 10
299.4462439672695
 20
507.9264623455418
 10
299.7541201747436
 20
507.8628998938583
 10
300.0540615498153
 20
507.7987314252611
 10
300.3469291858467
 20
507.7340227051142
 10
300.6335841762
 20
507.6688394987819
 10
300.9148876142376
 20
507.6032475716278
 10
301.1917005933217
 20
507.5373126890162
 10
301.7352995480783
 20
507.404677118877
 10
302.2712697873674
 20
507.2714589112766
  0
DIMENSION
  5
3D66B
330
1E
100
AcDbEntity
  8
30
100
AcDbDimension
280
     0
  2
*D32
 10
308.8017771638367
 20
362.6437203558105
 30
0.0
 11
356.3017771638369
 21
369.1437203558105
 31
0.0
 70
    32
 71
     5
 42
95.00000000000023
 73
     0
 74
     0
 75
     0
  3
STANDARD
100
AcDbAlignedDimension
 13
403.801777163837
 23
378.1201753895641
 33
0.0
 14
308.8017771638367
 24
475.8769890378901
 34
0.0
100
AcDbRotatedDimension
  0
DIMENSION
  5
3D66C
330
1E
100
AcDbEntity
  8
30
100
AcDbDimension
280
     0
  2
*D33
 10
312.8017771638367
 20
378.6201753895641
 30
0.0
 11
358.3017771638369
 21
385.1201753895641
 31
0.0
 70
    32
 71
     5
 42
91.0000000000002
 73
     0
 74
     0
 75
     0
  3
STANDARD
100
AcDbAlignedDimension
 13
403.801777163837
 23
410.8769895098466
 33
0.0
 14
312.8017771638367
 24
449.8769890378901
 34
0.0
100
AcDbRotatedDimension
  0
DIMENSION
  5
3D66D
330
1E
100
AcDbEntity
  8
30
100
AcDbDimension
280
     0
  2
*D34
 10
302.3017771638367
 20
362.6437203558105
 30
0.0
 11
268.8017771638367
 21
362.6437203558105
 31
0.0
 70
   160
 71
     5
 42
6.5
 73
     0
 74
     0
 75
     0
  3
STANDARD1
100
AcDbAlignedDimension
 13
308.8017771638367
 23
475.8769890378901
 33
0.0
 14
302.3017771638367
 24
478.3769890378898
 34
0.0
100
AcDbRotatedDimension
  0
DIMENSION
  5
3D66E
330
1E
100
AcDbEntity
  8
30
100
AcDbDimension
280
     0
  2
*D35
 10
269.2728396462133
 20
475.8769890378901
 30
0.0
 11
262.7728396462132
 21
500.8769890378901
 31
0.0
 70
    32
 71
     5
 42
50.00000000000007
 73
     0
 74
     0
 75
     0
  3
STANDARD
100
AcDbAlignedDimension
 13
308.8017771638367
 23
525.8769890378901
 33
0.0
 14
308.8017771638367
 24
475.8769890378901
 34
0.0
 50
90.0
100
AcDbRotatedDimension
  0
DIMENSION
  5
41AB4
330
1E
100
AcDbEntity
  8
30
100
AcDbDimension
280
     0
  2
*D36
 10
494.732737615961
 20
449.9274209129806
 30
0.0
 11
488.2327376159608
 21
500.9522054628073
 31
0.0
 70
    32
 71
     5
 42
102.0495690996527
 73
     0
 74
     0
 75
     0
  3
STANDARD
100
AcDbAlignedDimension
 13
462.065610540365
 23
551.9769900126335
 33
0.0
 14
461.759587757685
 24
449.9274209129806
 34
0.0
 50
90.0
100
AcDbRotatedDimension
  0
DIMENSION
  5
41BBD
330
1E
100
AcDbEntity
  8
30
100
AcDbDimension
280
     0
  2
*D37
 10
167.9470134792318
 20
30.02619491180667
 30
0.0
 11
124.9470134792318
 21
36.52619491180668
 31
0.0
 70
    32
 71
     5
 42
86.0
 73
     0
 74
     0
 75
     0
  3
STANDARD
100
AcDbAlignedDimension
 13
81.94701347923183
 23
133.3260052459939
 33
0.0
 14
167.9470134792318
 24
133.1866170565713
 34
0.0
100
AcDbRotatedDimension
  0
DIMENSION
  5
41C1C
330
1E
100
AcDbEntity
  8
30
100
AcDbDimension
280
     0
  2
*D38
 10
219.2731549612299
 20
127.0872219423939
 30
0.0
 11
212.7731549612299
 21
164.5872219423939
 31
0.0
 70
    32
 71
     5
 42
75.0
 73
     0
 74
     0
 75
     0
  3
STANDARD
100
AcDbAlignedDimension
 13
139.9429307396321
 23
202.0872219423939
 33
0.0
 14
139.9429307396321
 24
127.0872219423939
 34
0.0
 50
90.0
100
AcDbRotatedDimension
  0
CIRCLE
  5
41CC3
330
1E
100
AcDbEntity
  8
24
  6
SLD-実線
 62
     7
370
    15
100
AcDbCircle
 10
543.9644731501814
 20
678.839475452481
 30
0.0
 40
4.5
  0
LINE
  5
41CC4
330
1E
100
AcDbEntity
  8
24
  6
CONTINOUS
100
AcDbLine
 10
556.4644733363813
 20
658.8394758994812
 30
0.0
 11
556.4644733363813
 21
695.3394753630814
 31
0.0
  0
SPLINE
  5
41CC5
330
1E
100
AcDbEntity
  8
24
  6
CONTINOUS
100
AcDbSpline
210
0.0
220
0.0
230
1.0
 70
     8
 71
     3
 72
    10
 73
     6
 74
     0
 42
0.000000001
 43
0.0000000001
 40
0.1290742078780965
 40
0.1290742078780965
 40
0.1290742078780965
 40
0.1290742078780965
 40
0.2894550818231108
 40
0.641906628345395
 40
0.8642474622913114
 40
0.8642474622913114
 40
0.8642474622913114
 40
0.8642474622913114
 10
531.464473150176
 20
658.8394754523936
 30
0.0
 10
533.15143014526
 20
657.9946722035697
 30
0.0
 10
538.483873096133
 20
656.6731546024024
 30
0.0
 10
541.8882254920511
 20
657.4656789151982
 30
0.0
 10
548.6949763711172
 20
662.2208247919697
 30
0.0
 10
556.464473150176
 20
658.8394754523942
 30
0.0
  0
LINE
  5
41CC6
330
1E
100
AcDbEntity
  8
24
  6
CONTINOUS
100
AcDbLine
 10
531.4644729639812
 20
695.3394753630814
 30
0.0
 11
531.4644729639812
 21
658.8394758994812
 31
0.0
  0
LINE
  5
41CC7
330
1E
100
AcDbEntity
  8
24
  6
CONTINOUS
100
AcDbLine
 10
556.4644733363813
 20
695.3394753630814
 30
0.0
 11
531.4644729639812
 21
695.3394753630814
 31
0.0
  0
DIMENSION
  5
41CC8
330
1E
100
AcDbEntity
  8
30
100
AcDbDimension
280
     0
  2
*D43
 10
576.4644731501816
 20
695.3394754524813
 30
0.0
 11
576.4644731501814
 21
645.0728087858142
 31
0.0
 70
   160
  1
<> (max.)
 71
     2
 42
16.50000000000023
 73
     0
 74
     0
 75
     0
  3
STANDARD
100
AcDbAlignedDimension
 13
550.9644731501814
 23
678.839475452481
 33
0.0
 14
556.4644731501814
 24
695.3394754524813
 34
0.0
 50
90.0
100
AcDbRotatedDimension
  0
DIMENSION
  5
41CC9
330
1E
100
AcDbEntity
  8
30
100
AcDbDimension
280
     0
  2
*D44
 10
547.5748868440692
 20
681.5255344536431
 30
0.0
 11
514.1740052651507
 21
662.503907313936
 31
0.0
 70
   163
  1
<>
 71
     5
 42
8.999999999840611
 73
     0
 74
     0
 75
     0
  3
STANDARD1
100
AcDbDiametricDimension
 15
540.3540594562908
 25
676.1534164511192
 35
0.0
 40
0.0
  0
DIMENSION
  5
41CCA
330
1E
100
AcDbEntity
  8
30
100
AcDbDimension
280
     0
  2
*D45
 10
556.4644731501814
 20
636.6731546024816
 30
0.0
 11
503.1978064835144
 21
636.6731546024816
 31
0.0
 70
   160
  1
<> (max.)
 71
     2
 42
25.0
 73
     0
 74
     0
 75
     0
  3
STANDARD1
100
AcDbAlignedDimension
 13
531.4644731501814
 23
658.8394754524809
 33
0.0
 14
556.4644731501814
 24
658.8394754524809
 34
0.0
100
AcDbRotatedDimension
  0
INSERT
  5
41CCB
330
1E
100
AcDbEntity
  8
17
  6
CONTINOUS
100
AcDbBlockReference
  2
SW_CENTERMARKSYMBOL_20
 10
543.9644731501814
 20
678.839475452481
 30
0.0
 41
2.0
 42
2.0
 43
2.0
  0
VIEWPORT
  5
9AC
330
1A
100
AcDbEntity
 67
     1
  8
0
  6
Continuous
348
E4DA
100
AcDbViewport
 10
0.0
 20
0.0
 30
0.0
 40
0.0
 41
0.0
 68
     1
 69
     1
 12
0.0
 22
0.0
 13
0.0
 23
0.0
 14
10.0
 24
10.0
 15
10.0
 25
10.0
 16
0.0
 26
0.0
 36
1.0
 17
0.0
 27
0.0
 37
0.0
 42
50.0
 43
0.0
 44
0.0
 45
0.0
 50
0.0
 51
0.0
 72
   100
 90
    32800
  1

281
     0
 71
     1
 74
     0
110
0.0
120
0.0
130
0.0
111
1.0
121
0.0
131
0.0
112
0.0
122
1.0
132
0.0
 79
     0
146
0.0
170
     0
 61
     5
292
     1
282
     1
141
0.0
142
0.0
 63
   250
421
  3355443
  0
VIEWPORT
  5
E19D
330
1A
100
AcDbEntity
 67
     1
  8
30
348
E4DA
100
AcDbViewport
 10
0.0
 20
0.0
 30
0.0
 40
0.0
 41
0.0
 68
     2
 69
     2
 12
8.653370891979619
 22
137.2805829780177
 13
0.0
 23
0.0
 14
1.0
 24
1.0
 15
10.0
 25
10.0
 16
0.0
 26
0.0
 36
1.0
 17
0.0
 27
0.0
 37
0.0
 42
50.0
 43
0.0
 44
0.0
 45
689.9195596776387
 50
0.0
 51
0.0
 72
   100
 90
    37664
  1

281
     0
 71
     1
 74
     0
110
0.0
120
0.0
130
0.0
111
1.0
121
0.0
131
0.0
112
0.0
122
1.0
132
0.0
 79
     0
146
0.0
170
     0
 61
     5
292
     1
282
     1
141
0.0
142
0.0
 63
   250
421
  3355443
  0
ENDSEC
  0
SECTION
  2
OBJECTS
  0
DICTIONARY
  5
C
330
0
100
AcDbDictionary
281
     1
  3
ACAD_CIP_PREVIOUS_PRODUCT_INFO
350
41C1B
  3
ACAD_COLOR
350
E4E8
  3
ACAD_DETAILVIEWSTYLE
350
41C16
  3
ACAD_GROUP
350
D
  3
ACAD_LAYOUT
350
19
  3
ACAD_MATERIAL
350
E4BB
  3
ACAD_MLEADERSTYLE
350
E50D
  3
ACAD_MLINESTYLE
350
16
  3
ACAD_PLOTSETTINGS
350
18
  3
ACAD_PLOTSTYLENAME
350
E
  3
ACAD_SCALELIST
350
E4EB
  3
ACAD_SECTIONVIEWSTYLE
350
41C14
  3
ACAD_TABLESTYLE
350
E4E9
  3
ACAD_VISUALSTYLE
350
E4D4
  3
ACADDIM
350
6D5E
  3
ACDB_RECOMPOSE_DATA
350
41D29
  3
ACDBVARIABLEDICTIONARY
350
5697
  3
AEC_PROPERTY_SET_DEFS
350
F8DB
  3
ASE_INDEX_DICTIONARY
350
F8F6
  0
DICTIONARY
  5
12DA0
330
2
100
AcDbDictionary
280
     1
281
     1
  3
ACAD_LAYERSTATES
360
12DA1
  0
DICTIONARY
  5
E512
330
10
100
AcDbDictionary
280
     1
281
     1
  3
ADSK_XREC_LAYER_RECONCILED
360
E513
  0
DICTIONARY
  5
E514
330
2F
100
AcDbDictionary
280
     1
281
     1
  3
ADSK_XREC_LAYER_RECONCILED
360
E515
  0
DICTIONARY
  5
E518
330
35
100
AcDbDictionary
280
     1
281
     1
  3
ADSK_XREC_LAYER_RECONCILED
360
E519
  0
DICTIONARY
  5
E51C
330
3D
100
AcDbDictionary
280
     1
281
     1
  3
ADSK_XREC_LAYER_RECONCILED
360
E51D
  0
DICTIONARY
  5
E51E
330
3A2
100
AcDbDictionary
280
     1
281
     1
  3
ADSK_XREC_LAYER_RECONCILED
360
E51F
  0
DICTIONARY
  5
E520
330
3BBA
100
AcDbDictionary
280
     1
281
     1
  3
ADSK_XREC_LAYER_RECONCILED
360
E521
  0
DICTIONARY
  5
E522
330
67A8
100
AcDbDictionary
280
     1
281
     1
  3
ADSK_XREC_LAYER_RECONCILED
360
E523
  0
DICTIONARY
  5
E524
330
7837
100
AcDbDictionary
280
     1
281
     1
  3
ADSK_XREC_LAYER_RECONCILED
360
E525
  0
DICTIONARY
  5
E530
330
C501
100
AcDbDictionary
280
     1
281
     1
  3
ADSK_XREC_LAYER_RECONCILED
360
E531
  0
DICTIONARY
  5
E534
330
E473
100
AcDbDictionary
280
     1
281
     1
  3
ADSK_XREC_LAYER_RECONCILED
360
E535
  0
DICTIONARY
  5
1106B
330
1106A
100
AcDbDictionary
280
     1
281
     1
  0
DICTIONARY
  5
3828A
330
38289
100
AcDbDictionary
280
     1
281
     1
  0
DICTIONARY
  5
3ACBC
330
3ACBB
100
AcDbDictionary
280
     1
281
     1
  0
DICTIONARY
  5
3ACBE
330
3ACBD
100
AcDbDictionary
280
     1
281
     1
  0
DICTIONARY
  5
178
330
1E
100
AcDbDictionary
280
     1
281
     1
  3
ACAD_LAYOUTSELFREF
360
9011
  3
ACAD_SORTENTS
360
37C0C
  0
DICTIONARY
  5
17A
330
1A
100
AcDbDictionary
280
     1
281
     1
  3
ACAD_LAYOUTSELFREF
360
9010
  0
DICTIONARY
  5
3AADD
330
3AADC
100
AcDbDictionary
280
     1
281
     1
  3
ACAD_SORTENTS
360
3AADE
  0
XRECORD
  5
41C1B
102
{ACAD_REACTORS
330
C
102
}
330
C
100
AcDbXrecord
280
     1
300
ACDLT
300
2014
300
ACDLT_F_S
  0
DICTIONARY
  5
E4E8
102
{ACAD_REACTORS
330
C
102
}
330
C
100
AcDbDictionary
281
     1
  0
DICTIONARY
  5
41C16
102
{ACAD_REACTORS
330
C
102
}
330
C
100
AcDbDictionary
281
     1
  3
Imperial24
350
41C17
  0
DICTIONARY
  5
D
102
{ACAD_REACTORS
330
C
102
}
330
C
100
AcDbDictionary
281
     1
  0
DICTIONARY
  5
19
102
{ACAD_REACTORS
330
C
102
}
330
C
100
AcDbDictionary
281
     1
  3
Model
350
904E
  3
ﾚｲｱｳﾄ1
350
904F
  0
DICTIONARY
  5
E4BB
102
{ACAD_REACTORS
330
C
102
}
330
C
100
AcDbDictionary
281
     1
  3
ByBlock
350
E4C4
  3
ByLayer
350
E4BC
  3
Global
350
E4CC
  0
DICTIONARY
  5
E50D
102
{ACAD_REACTORS
330
C
102
}
330
C
100
AcDbDictionary
281
     1
  3
Standard
350
E50E
  0
DICTIONARY
  5
16
102
{ACAD_REACTORS
330
C
102
}
330
C
100
AcDbDictionary
281
     1
  3
STANDARD
350
17
  0
DICTIONARY
  5
18
102
{ACAD_REACTORS
330
C
102
}
330
C
100
AcDbDictionary
281
     1
  0
ACDBDICTIONARYWDFLT
  5
E
102
{ACAD_REACTORS
330
C
102
}
330
C
100
AcDbDictionary
281
     1
  3
Normal
350
F
100
AcDbDictionaryWithDefault
340
F
  0
DICTIONARY
  5
E4EB
102
{ACAD_REACTORS
330
C
102
}
330
C
100
AcDbDictionary
281
     1
  3
A0
350
E4EC
  3
A1
350
E4ED
  3
A2
350
E4EE
  3
A3
350
E4EF
  3
A4
350
E4F0
  3
A5
350
E4F1
  3
A6
350
E4F2
  3
A7
350
E4F3
  3
A8
350
E4F4
  3
A9
350
E4F5
  3
B0
350
E4F6
  3
B1
350
E4F7
  3
B2
350
E4F8
  3
B3
350
E4F9
  3
B4
350
E4FA
  3
B5
350
E4FB
  3
B6
350
E4FC
  3
B7
350
E4FD
  3
B8
350
E4FE
  3
B9
350
E4FF
  3
C0
350
E500
  3
C1
350
E501
  3
C2
350
E502
  3
C3
350
E503
  3
C4
350
E504
  3
C5
350
E505
  3
C6
350
E506
  3
C7
350
E507
  3
C8
350
E508
  3
C9
350
E509
  3
D0
350
E50A
  3
D1
350
E50B
  3
D2
350
E50C
  0
DICTIONARY
  5
41C14
102
{ACAD_REACTORS
330
C
102
}
330
C
100
AcDbDictionary
281
     1
  3
Imperial24
350
41C15
  0
DICTIONARY
  5
E4E9
102
{ACAD_REACTORS
330
C
102
}
330
C
100
AcDbDictionary
281
     1
  3
Standard
350
E4EA
  0
DICTIONARY
  5
E4D4
102
{ACAD_REACTORS
330
C
102
}
330
C
100
AcDbDictionary
281
     1
  3
2dWireframe
350
E4DA
  3
3D Hidden
350
E4DC
  3
3dWireframe
350
E4DB
  3
Basic
350
E4D9
  3
Brighten
350
E4E0
  3
ColorChange
350
E4E4
  3
Conceptual
350
E4DD
  3
Dim
350
E4DF
  3
EdgeColorOff
350
E4E7
  3
Facepattern
350
E4E3
  3
Flat
350
E4D5
  3
FlatWithEdges
350
E4D6
  3
Gouraud
350
E4D7
  3
GouraudWithEdges
350
E4D8
  3
Hidden
350
41C0E
  3
JitterOff
350
E4E5
  3
Linepattern
350
E4E2
  3
OverhangOff
350
E4E6
  3
Realistic
350
E4DE
  3
Shaded
350
41C13
  3
Shaded with edges
350
41C12
  3
Shades of Gray
350
41C0F
  3
Sketchy
350
41C10
  3
Thicken
350
E4E1
  3
Wireframe
350
41C0D
  3
X-Ray
350
41C11
  0
XRECORD
  5
6D5E
102
{ACAD_REACTORS
330
C
102
}
330
C
100
AcDbXrecord
280
     1
 90
   990106
  3

 60
     0
 61
     0
 62
     1
 63
     3
 64
     0
 65
     0
 66
     0
 67
     3
 68
     1
 69
     0
 70
     0
 71
     0
 72
     0
 40
0.0
170
     0
340
0
  0
XRECORD
  5
41D29
102
{ACAD_REACTORS
330
C
102
}
330
C
100
AcDbXrecord
280
     1
 90
        1
330
E4EA
330
41C15
330
41C17
  0
DICTIONARY
  5
5697
102
{ACAD_REACTORS
330
C
102
}
330
C
100
AcDbDictionary
281
     1
  3
CANNOSCALE
350
F8C1
  3
CMLEADERSTYLE
350
F8C0
  3
CTABLESTYLE
350
F8BF
  3
CVIEWDETAILSTYLE
350
41C29
  3
CVIEWSECTIONSTYLE
350
41C2A
  3
DIMASSOC
350
5698
  3
INDEXCTL
350
F8C3
  3
LAYEREVAL
350
37FF5
  3
LAYERNOTIFY
350
37FF6
  3
LIGHTINGUNITS
350
37FF4
  3
MSLTSCALE
350
37FF3
  3
SORTENTS
350
F8C2
  0
DICTIONARY
  5
F8DB
102
{ACAD_REACTORS
330
C
102
}
330
C
100
AcDbDictionary
281
     1
  0
DICTIONARY
  5
F8F6
102
{ACAD_REACTORS
330
C
102
}
330
C
100
AcDbDictionary
281
     1
  3
ASEBlockHierarchyIndexRecord
350
F8F7
1001
DCO15
1040
1706442467.984
  0
DICTIONARY
  5
12DA1
102
{ACAD_REACTORS
330
12DA0
102
}
330
12DA0
100
AcDbDictionary
281
     1
  0
XRECORD
  5
E513
102
{ACAD_REACTORS
330
E512
102
}
330
E512
100
AcDbXrecord
280
     1
290
     1
  0
XRECORD
  5
E515
102
{ACAD_REACTORS
330
E514
102
}
330
E514
100
AcDbXrecord
280
     1
290
     1
  0
XRECORD
  5
E519
102
{ACAD_REACTORS
330
E518
102
}
330
E518
100
AcDbXrecord
280
     1
290
     1
  0
XRECORD
  5
E51D
102
{ACAD_REACTORS
330
E51C
102
}
330
E51C
100
AcDbXrecord
280
     1
290
     1
  0
XRECORD
  5
E51F
102
{ACAD_REACTORS
330
E51E
102
}
330
E51E
100
AcDbXrecord
280
     1
290
     1
  0
XRECORD
  5
E521
102
{ACAD_REACTORS
330
E520
102
}
330
E520
100
AcDbXrecord
280
     1
290
     1
  0
XRECORD
  5
E523
102
{ACAD_REACTORS
330
E522
102
}
330
E522
100
AcDbXrecord
280
     1
290
     1
  0
XRECORD
  5
E525
102
{ACAD_REACTORS
330
E524
102
}
330
E524
100
AcDbXrecord
280
     1
290
     1
  0
XRECORD
  5
E531
102
{ACAD_REACTORS
330
E530
102
}
330
E530
100
AcDbXrecord
280
     1
290
     1
  0
XRECORD
  5
E535
102
{ACAD_REACTORS
330
E534
102
}
330
E534
100
AcDbXrecord
280
     1
290
     1
  0
XRECORD
  5
9011
102
{ACAD_REACTORS
330
178
102
}
330
178
100
AcDbXrecord
280
     1
340
1E
  0
SORTENTSTABLE
  5
37C0C
102
{ACAD_REACTORS
330
178
102
}
330
178
100
AcDbSortentsTable
330
1E
331
3ADE0
  5
3ADE0
331
3AE6F
  5
3AE6F
331
3ADE8
  5
3ADE8
331
3AE77
  5
3AE77
331
3ADF0
  5
3ADF0
331
3AE7F
  5
3AE7F
331
3D656
  5
3D656
331
3AE1A
  5
3AE1A
331
3AE94
  5
3AE94
331
3D65E
  5
3D65E
331
3AE32
  5
3AE32
331
3ADFA
  5
3ADFA
331
3ADC1
  5
3ADC1
331
3AE50
  5
3AE50
331
3AE87
  5
3AE87
331
3D662
  5
3D662
331
3ADD1
  5
3ADD1
331
3AE29
  5
3AE29
331
3AE58
  5
3AE58
331
3AE60
  5
3AE60
331
3AEA7
  5
3AEA7
331
3ADD9
  5
3ADD9
331
3D66A
  5
3D66A
331
3AE25
  5
3AE25
331
3AEAA
  5
3AEAA
331
3AE8D
  5
3AE8D
331
3AE3D
  5
3AE3D
331
3AE68
  5
3AE68
331
3ADE1
  5
3ADE1
331
3ADE9
  5
3ADE9
331
3AE70
  5
3AE70
331
3ADF1
  5
3ADF1
331
3AE78
  5
3AE78
331
3D657
  5
3D657
331
3AE1B
  5
3AE1B
331
3AE95
  5
3AE95
331
3D65F
  5
3D65F
331
3AE33
  5
3AE33
331
3ADFB
  5
3ADFB
331
3AE80
  5
3AE80
331
3AE51
  5
3AE51
331
3AE98
  5
3AE98
331
3D663
  5
3D663
331
3ADD2
  5
3ADD2
331
3AE2A
  5
3AE2A
331
3AE59
  5
3AE59
331
3D66B
  5
3D66B
331
3ADDA
  5
3ADDA
331
3AE61
  5
3AE61
331
3AEB0
  5
3AEB0
331
3AE8E
  5
3AE8E
331
3AEAB
  5
3AEAB
331
3AE3E
  5
3AE3E
331
3AEB8
  5
3AEB8
331
3ADE2
  5
3ADE2
331
3AE69
  5
3AE69
331
3AE71
  5
3AE71
331
3ADEA
  5
3ADEA
331
3AE79
  5
3AE79
331
3ADF2
  5
3ADF2
331
3D658
  5
3D658
331
3AE1C
  5
3AE1C
331
3AE96
  5
3AE96
331
3AE34
  5
3AE34
331
3ADFC
  5
3ADFC
331
3AE81
  5
3AE81
331
3AE99
  5
3AE99
331
3AE52
  5
3AE52
331
3D664
  5
3D664
331
3ADD3
  5
3ADD3
331
3AE2B
  5
3AE2B
331
3AE5A
  5
3AE5A
331
3AE62
  5
3AE62
331
3AEB1
  5
3AEB1
331
3ADDB
  5
3ADDB
331
3D66C
  5
3D66C
331
3AE27
  5
3AE27
331
3AEAC
  5
3AEAC
331
3AE8F
  5
3AE8F
331
3AE3F
  5
3AE3F
331
3ADE3
  5
3ADE3
331
3AE6A
  5
3AE6A
331
3AEB9
  5
3AEB9
331
3ADEB
  5
3ADEB
331
3AE72
  5
3AE72
331
3ADF3
  5
3ADF3
331
3AE7A
  5
3AE7A
331
3D659
  5
3D659
331
3AE1D
  5
3AE1D
331
3AE97
  5
3AE97
331
3AE35
  5
3AE35
331
3ADFD
  5
3ADFD
331
3AE82
  5
3AE82
331
3AE53
  5
3AE53
331
3AE9A
  5
3AE9A
331
3D665
  5
3D665
331
3ADD4
  5
3ADD4
331
3AE2C
  5
3AE2C
331
3AE5B
  5
3AE5B
331
3AE20
  5
3AE20
331
3AEB2
  5
3AEB2
331
3D66D
  5
3D66D
331
3ADDC
  5
3ADDC
331
3AE63
  5
3AE63
331
3AE88
  5
3AE88
331
3AE38
  5
3AE38
331
3AE40
  5
3AE40
331
3ADE4
  5
3ADE4
331
3AE6B
  5
3AE6B
331
3AE73
  5
3AE73
331
3ADEC
  5
3ADEC
331
3ADF4
  5
3ADF4
331
3AE7B
  5
3AE7B
331
3D652
  5
3D652
331
3AE1E
  5
3AE1E
331
3AE90
  5
3AE90
331
3AE36
  5
3AE36
331
3ADFE
  5
3ADFE
331
3AE4C
  5
3AE4C
331
3AE83
  5
3AE83
331
3AE9B
  5
3AE9B
331
3AE54
  5
3AE54
331
3D666
  5
3D666
331
3ADD5
  5
3ADD5
331
3AE2D
  5
3AE2D
331
3AE5C
  5
3AE5C
331
3AE21
  5
3AE21
331
3AE64
  5
3AE64
331
3AEB3
  5
3AEB3
331
3ADDD
  5
3ADDD
331
3D66E
  5
3D66E
331
3AE89
  5
3AE89
331
3AE39
  5
3AE39
331
3AEAE
  5
3AEAE
331
3AE41
  5
3AE41
331
3ADE5
  5
3ADE5
331
3AE6C
  5
3AE6C
331
3ADED
  5
3ADED
331
3AE74
  5
3AE74
331
3D653
  5
3D653
331
3ADF5
  5
3ADF5
331
3AE7C
  5
3AE7C
331
3AE91
  5
3AE91
331
3AE1F
  5
3AE1F
331
3AE4D
  5
3AE4D
331
3AE84
  5
3AE84
331
3AE55
  5
3AE55
331
3D667
  5
3D667
331
3ADD6
  5
3ADD6
331
3AE2E
  5
3AE2E
331
3AE5D
  5
3AE5D
331
3AEA4
  5
3AEA4
331
3AEB4
  5
3AEB4
331
3AE22
  5
3AE22
331
3ADDE
  5
3ADDE
331
3AE65
  5
3AE65
331
3AE8A
  5
3AE8A
331
3AE3A
  5
3AE3A
331
3AEAF
  5
3AEAF
331
3AE42
  5
3AE42
331
3ADE6
  5
3ADE6
331
3AE6D
  5
3AE6D
331
3AE75
  5
3AE75
331
3B964
  5
3B964
331
3ADEE
  5
3ADEE
331
3ADF6
  5
3ADF6
331
3AE7D
  5
3AE7D
331
3D654
  5
3D654
331
3AE18
  5
3AE18
331
3AE92
  5
3AE92
331
3D65C
  5
3D65C
331
3AE30
  5
3AE30
331
3AE16
  5
3AE16
331
3ADF8
  5
3ADF8
331
3AE4E
  5
3AE4E
331
3AE85
  5
3AE85
331
3D660
  5
3D660
331
3ADCF
  5
3ADCF
331
3AE56
  5
3AE56
331
3AE5E
  5
3AE5E
331
3AEA5
  5
3AEA5
331
3ADD7
  5
3ADD7
331
3AE2F
  5
3AE2F
331
3AE66
  5
3AE66
331
3AE23
  5
3AE23
331
3ADDF
  5
3ADDF
331
3AEA8
  5
3AEA8
331
3AE8B
  5
3AE8B
331
3AE3B
  5
3AE3B
331
3ADE7
  5
3ADE7
331
3AE6E
  5
3AE6E
331
3ADEF
  5
3ADEF
331
3AE76
  5
3AE76
331
3D655
  5
3D655
331
3ADF7
  5
3ADF7
331
3AE7E
  5
3AE7E
331
3AE93
  5
3AE93
331
3D65D
  5
3D65D
331
3AE31
  5
3AE31
331
3AE17
  5
3AE17
331
3ADF9
  5
3ADF9
331
3AE4F
  5
3AE4F
331
3AE86
  5
3AE86
331
3D661
  5
3D661
331
3AE57
  5
3AE57
331
3AE28
  5
3AE28
331
3ADD0
  5
3ADD0
331
3D669
  5
3D669
331
3ADD8
  5
3ADD8
331
3AE5F
  5
3AE5F
331
3AEA6
  5
3AEA6
331
3AE24
  5
3AE24
331
3AE01
  5
3AE01
331
3AE67
  5
3AE67
331
3AE8C
  5
3AE8C
331
3AEA9
  5
3AEA9
331
3AE3C
  5
3AE3C
  0
XRECORD
  5
9010
102
{ACAD_REACTORS
330
17A
102
}
330
17A
100
AcDbXrecord
280
     1
340
1A
  0
SORTENTSTABLE
  5
3AADE
102
{ACAD_REACTORS
330
3AADD
102
}
330
3AADD
100
AcDbSortentsTable
330
3AADC
  0
ACDBDETAILVIEWSTYLE
  5
41C17
102
{ACAD_XDICTIONARY
360
41C3B
102
}
102
{ACAD_REACTORS
330
41C16
102
}
330
41C16
100
AcDbModelDocViewStyle
 70
     0
  3
Imperial24
290
     0
100
AcDbDetailViewStyle
 70
     0
 71
     0
 90
        3
 71
     1
340
11
 62
   256
 40
0.24
340
0
 62
   256
 40
0.24
300

 40
0.36
280
     3
 71
     2
340
15
 90
       25
 62
   256
 71
     3
340
11
 62
   256
 40
0.24
 90
        1
 40
0.75
 90
        1
300
%<\AcVar ViewType \f "%tc1">% %<\AcVar ViewDetailId>%\PSCALE %<\AcVar ViewScale \f "%sn">%
 71
     4
340
15
 90
       25
 62
   256
340
15
 90
       25
 62
   256
280
     0
  0
LAYOUT
  5
904E
102
{ACAD_XDICTIONARY
360
13816
102
}
102
{ACAD_REACTORS
330
19
102
}
330
19
100
AcDbPlotSettings
  1

  2
Canon LBP3800 LIPSLX
  4
A4
  6
OLE1
 40
5.873749732971191
 41
5.873747825622557
 42
5.873748779296875
 43
5.873748779296875
 44
209.9733276367186
 45
296.9259948730469
 46
4.368652168726285
 47
0.8644569253958136
 48
0.0
 49
0.0
140
0.0
141
0.0
142
1.0
143
2.5
 70
 11940
 72
     1
 73
     0
 74
     1
  7
monochrome.ctb
 75
     0
147
0.4
 76
     0
 77
     2
 78
   300
148
203.0887703810449
149
220.5380198621869
100
AcDbLayout
  1
Model
 70
     1
 71
     0
 10
0.0
 20
0.0
 11
12.0
 21
9.0
 12
0.0
 22
0.0
 32
0.0
 14
0.0
 24
0.0
 34
0.0
 15
0.0
 25
0.0
 35
0.0
146
0.0
 13
0.0
 23
0.0
 33
0.0
 16
1.0
 26
0.0
 36
0.0
 17
0.0
 27
1.0
 37
0.0
 76
     0
330
1E
331
12C00
1001
ACAD_PSEXT
1000
Canon LBP3800 LIPSLX
1000
Canon LBP3800 LIPSLX
1000
IP_192.168.54.50
1000

1070
     0
  0
LAYOUT
  5
904F
102
{ACAD_REACTORS
330
19
102
}
330
19
100
AcDbPlotSettings
  1

  2
none_device
  4
Letter_(8.50_x_11.00_Inches)
  6

 40
6.349999904632567
 41
6.349999904632567
 42
6.350006103515625
 43
6.350006103515625
 44
215.8999938964844
 45
279.3999938964844
 46
0.0
 47
0.0
 48
0.0
 49
0.0
140
0.0
141
0.0
142
1.0
143
1.0
 70
   688
 72
     0
 73
     1
 74
     1
  7
monochrome.stb
 75
     0
147
1.0
 76
     0
 77
     2
 78
   300
148
0.0
149
0.0
100
AcDbLayout
  1
ﾚｲｱｳﾄ1
 70
     1
 71
     1
 10
-0.2500002402958907
 20
-0.2499999962453767
 11
10.74999951940822
 21
8.249999763458731
 12
0.0
 22
0.0
 32
0.0
 14
0.0
 24
0.0
 34
0.0
 15
0.0
 25
0.0
 35
0.0
146
0.0
 13
0.0
 23
0.0
 33
0.0
 16
1.0
 26
0.0
 36
0.0
 17
0.0
 27
1.0
 37
0.0
 76
     0
330
1A
331
9AC
1001
ACAD_PSEXT
1000
なし
1000
なし
1000
適切ではありません
1000
新しいプロッタ環境設定名を選択しない限り、レイアウトは印刷されません。
1070
     0
  0
MATERIAL
  5
E4C4
102
{ACAD_XDICTIONARY
360
E4C5
102
}
102
{ACAD_REACTORS
330
E4BB
102
}
330
E4BB
100
AcDbMaterial
  1
ByBlock
 72
     0
 43
0.0208333333333333
 43
0.0
 43
0.0
 43
0.0
 43
0.0
 43
0.0208333333333333
 43
0.0
 43
0.0
 43
0.0
 43
0.0
 43
1.0
 43
0.0
 43
0.0
 43
0.0
 43
0.0
 43
1.0
 77
     0
 47
0.0208333333333333
 47
0.0
 47
0.0
 47
0.0
 47
0.0
 47
0.0208333333333333
 47
0.0
 47
0.0
 47
0.0
 47
0.0
 47
1.0
 47
0.0
 47
0.0
 47
0.0
 47
0.0
 47
1.0
171
     0
 49
0.0208333333333333
 49
0.0
 49
0.0
 49
0.0
 49
0.0
 49
0.0208333333333333
 49
0.0
 49
0.0
 49
0.0
 49
0.0
 49
1.0
 49
0.0
 49
0.0
 49
0.0
 49
0.0
 49
1.0
175
     0
142
0.0208333333333333
142
0.0
142
0.0
142
0.0
142
0.0
142
0.0208333333333333
142
0.0
142
0.0
142
0.0
142
0.0
142
1.0
142
0.0
142
0.0
142
0.0
142
0.0
142
1.0
179
     0
144
0.0208333333333333
144
0.0
144
0.0
144
0.0
144
0.0
144
0.0208333333333333
144
0.0
144
0.0
144
0.0
144
0.0
144
1.0
144
0.0
144
0.0
144
0.0
144
0.0
144
1.0
147
0.0208333333333333
147
0.0
147
0.0
147
0.0
147
0.0
147
0.0208333333333333
147
0.0
147
0.0
147
0.0
147
0.0
147
1.0
147
0.0
147
0.0
147
0.0
147
0.0
147
1.0
  0
MATERIAL
  5
E4BC
102
{ACAD_XDICTIONARY
360
E4BD
102
}
102
{ACAD_REACTORS
330
E4BB
102
}
330
E4BB
100
AcDbMaterial
  1
ByLayer
 72
     0
 43
0.0208333333333333
 43
0.0
 43
0.0
 43
0.0
 43
0.0
 43
0.0208333333333333
 43
0.0
 43
0.0
 43
0.0
 43
0.0
 43
1.0
 43
0.0
 43
0.0
 43
0.0
 43
0.0
 43
1.0
 77
     0
 47
0.0208333333333333
 47
0.0
 47
0.0
 47
0.0
 47
0.0
 47
0.0208333333333333
 47
0.0
 47
0.0
 47
0.0
 47
0.0
 47
1.0
 47
0.0
 47
0.0
 47
0.0
 47
0.0
 47
1.0
171
     0
 49
0.0208333333333333
 49
0.0
 49
0.0
 49
0.0
 49
0.0
 49
0.0208333333333333
 49
0.0
 49
0.0
 49
0.0
 49
0.0
 49
1.0
 49
0.0
 49
0.0
 49
0.0
 49
0.0
 49
1.0
175
     0
142
0.0208333333333333
142
0.0
142
0.0
142
0.0
142
0.0
142
0.0208333333333333
142
0.0
142
0.0
142
0.0
142
0.0
142
1.0
142
0.0
142
0.0
142
0.0
142
0.0
142
1.0
179
     0
144
0.0208333333333333
144
0.0
144
0.0
144
0.0
144
0.0
144
0.0208333333333333
144
0.0
144
0.0
144
0.0
144
0.0
144
1.0
144
0.0
144
0.0
144
0.0
144
0.0
144
1.0
147
0.0208333333333333
147
0.0
147
0.0
147
0.0
147
0.0
147
0.0208333333333333
147
0.0
147
0.0
147
0.0
147
0.0
147
1.0
147
0.0
147
0.0
147
0.0
147
0.0
147
1.0
  0
MATERIAL
  5
E4CC
102
{ACAD_XDICTIONARY
360
E4CD
102
}
102
{ACAD_REACTORS
330
E4BB
102
}
330
E4BB
100
AcDbMaterial
  1
Global
 72
     0
 43
0.0208333333333333
 43
0.0
 43
0.0
 43
0.0
 43
0.0
 43
0.0208333333333333
 43
0.0
 43
0.0
 43
0.0
 43
0.0
 43
1.0
 43
0.0
 43
0.0
 43
0.0
 43
0.0
 43
1.0
 77
     0
 47
0.0208333333333333
 47
0.0
 47
0.0
 47
0.0
 47
0.0
 47
0.0208333333333333
 47
0.0
 47
0.0
 47
0.0
 47
0.0
 47
1.0
 47
0.0
 47
0.0
 47
0.0
 47
0.0
 47
1.0
171
     0
 49
0.0208333333333333
 49
0.0
 49
0.0
 49
0.0
 49
0.0
 49
0.0208333333333333
 49
0.0
 49
0.0
 49
0.0
 49
0.0
 49
1.0
 49
0.0
 49
0.0
 49
0.0
 49
0.0
 49
1.0
175
     0
142
0.0208333333333333
142
0.0
142
0.0
142
0.0
142
0.0
142
0.0208333333333333
142
0.0
142
0.0
142
0.0
142
0.0
142
1.0
142
0.0
142
0.0
142
0.0
142
0.0
142
1.0
179
     0
144
0.0208333333333333
144
0.0
144
0.0
144
0.0
144
0.0
144
0.0208333333333333
144
0.0
144
0.0
144
0.0
144
0.0
144
1.0
144
0.0
144
0.0
144
0.0
144
0.0
144
1.0
147
0.0208333333333333
147
0.0
147
0.0
147
0.0
147
0.0
147
0.0208333333333333
147
0.0
147
0.0
147
0.0
147
0.0
147
1.0
147
0.0
147
0.0
147
0.0
147
0.0
147
1.0
  0
MLEADERSTYLE
  5
E50E
102
{ACAD_REACTORS
330
E50D
102
}
330
E50D
100
AcDbMLeaderStyle
179
     2
170
     2
171
     1
172
     0
 90
        2
 40
0.0
 41
0.0
173
     1
 91
-1056964608
340
13
 92
       -2
290
     1
 42
0.09
291
     1
 43
0.36
  3
Standard
 44
0.18
300

342
11
174
     1
178
     6
175
     1
176
     0
 93
-1056964608
 45
0.18
292
     0
297
     0
 46
0.18
 94
-1056964608
 47
1.0
 49
1.0
140
1.0
293
     1
141
0.0
294
     1
177
     0
142
1.0
295
     0
296
     0
143
0.125
271
     0
272
     9
273
     9
298
     0
1001
ACAD_MLEADERVER
1070
     2
  0
MLINESTYLE
  5
17
102
{ACAD_REACTORS
330
16
102
}
330
16
100
AcDbMlineStyle
  2
STANDARD
 70
     0
  3

 62
   256
 51
90.0
 52
90.0
 71
     2
 49
0.5
 62
   256
  6
BYLAYER
 49
-0.5
 62
   256
  6
BYLAYER
  0
ACDBPLACEHOLDER
  5
F
102
{ACAD_REACTORS
330
E
102
}
330
E
  0
SCALE
  5
E4EC
102
{ACAD_REACTORS
330
E4EB
102
}
330
E4EB
100
AcDbScale
 70
     0
300
1:1
140
1.0
141
1.0
290
     1
  0
SCALE
  5
E4ED
102
{ACAD_REACTORS
330
E4EB
102
}
330
E4EB
100
AcDbScale
 70
     0
300
1:2
140
1.0
141
2.0
290
     0
  0
SCALE
  5
E4EE
102
{ACAD_REACTORS
330
E4EB
102
}
330
E4EB
100
AcDbScale
 70
     0
300
1:4
140
1.0
141
4.0
290
     0
  0
SCALE
  5
E4EF
102
{ACAD_REACTORS
330
E4EB
102
}
330
E4EB
100
AcDbScale
 70
     0
300
1:5
140
1.0
141
5.0
290
     0
  0
SCALE
  5
E4F0
102
{ACAD_REACTORS
330
E4EB
102
}
330
E4EB
100
AcDbScale
 70
     0
300
1:8
140
1.0
141
8.0
290
     0
  0
SCALE
  5
E4F1
102
{ACAD_REACTORS
330
E4EB
102
}
330
E4EB
100
AcDbScale
 70
     0
300
1:10
140
1.0
141
10.0
290
     0
  0
SCALE
  5
E4F2
102
{ACAD_REACTORS
330
E4EB
102
}
330
E4EB
100
AcDbScale
 70
     0
300
1:16
140
1.0
141
16.0
290
     0
  0
SCALE
  5
E4F3
102
{ACAD_REACTORS
330
E4EB
102
}
330
E4EB
100
AcDbScale
 70
     0
300
1:20
140
1.0
141
20.0
290
     0
  0
SCALE
  5
E4F4
102
{ACAD_REACTORS
330
E4EB
102
}
330
E4EB
100
AcDbScale
 70
     0
300
1:30
140
1.0
141
30.0
290
     0
  0
SCALE
  5
E4F5
102
{ACAD_REACTORS
330
E4EB
102
}
330
E4EB
100
AcDbScale
 70
     0
300
1:40
140
1.0
141
40.0
290
     0
  0
SCALE
  5
E4F6
102
{ACAD_REACTORS
330
E4EB
102
}
330
E4EB
100
AcDbScale
 70
     0
300
1:50
140
1.0
141
50.0
290
     0
  0
SCALE
  5
E4F7
102
{ACAD_REACTORS
330
E4EB
102
}
330
E4EB
100
AcDbScale
 70
     0
300
1:100
140
1.0
141
100.0
290
     0
  0
SCALE
  5
E4F8
102
{ACAD_REACTORS
330
E4EB
102
}
330
E4EB
100
AcDbScale
 70
     0
300
2:1
140
2.0
141
1.0
290
     0
  0
SCALE
  5
E4F9
102
{ACAD_REACTORS
330
E4EB
102
}
330
E4EB
100
AcDbScale
 70
     0
300
4:1
140
4.0
141
1.0
290
     0
  0
SCALE
  5
E4FA
102
{ACAD_REACTORS
330
E4EB
102
}
330
E4EB
100
AcDbScale
 70
     0
300
8:1
140
8.0
141
1.0
290
     0
  0
SCALE
  5
E4FB
102
{ACAD_REACTORS
330
E4EB
102
}
330
E4EB
100
AcDbScale
 70
     0
300
10:1
140
10.0
141
1.0
290
     0
  0
SCALE
  5
E4FC
102
{ACAD_REACTORS
330
E4EB
102
}
330
E4EB
100
AcDbScale
 70
     0
300
100:1
140
100.0
141
1.0
290
     0
  0
SCALE
  5
E4FD
102
{ACAD_REACTORS
330
E4EB
102
}
330
E4EB
100
AcDbScale
 70
     0
300
1/128" = 1'-0"
140
0.0078125
141
12.0
290
     0
  0
SCALE
  5
E4FE
102
{ACAD_REACTORS
330
E4EB
102
}
330
E4EB
100
AcDbScale
 70
     0
300
1/64" = 1'-0"
140
0.015625
141
12.0
290
     0
  0
SCALE
  5
E4FF
102
{ACAD_REACTORS
330
E4EB
102
}
330
E4EB
100
AcDbScale
 70
     0
300
1/32" = 1'-0"
140
0.03125
141
12.0
290
     0
  0
SCALE
  5
E500
102
{ACAD_REACTORS
330
E4EB
102
}
330
E4EB
100
AcDbScale
 70
     0
300
1/16" = 1'-0"
140
0.0625
141
12.0
290
     0
  0
SCALE
  5
E501
102
{ACAD_REACTORS
330
E4EB
102
}
330
E4EB
100
AcDbScale
 70
     0
300
3/32" = 1'-0"
140
0.09375
141
12.0
290
     0
  0
SCALE
  5
E502
102
{ACAD_REACTORS
330
E4EB
102
}
330
E4EB
100
AcDbScale
 70
     0
300
1/8" = 1'-0"
140
0.125
141
12.0
290
     0
  0
SCALE
  5
E503
102
{ACAD_REACTORS
330
E4EB
102
}
330
E4EB
100
AcDbScale
 70
     0
300
3/16" = 1'-0"
140
0.1875
141
12.0
290
     0
  0
SCALE
  5
E504
102
{ACAD_REACTORS
330
E4EB
102
}
330
E4EB
100
AcDbScale
 70
     0
300
1/4" = 1'-0"
140
0.25
141
12.0
290
     0
  0
SCALE
  5
E505
102
{ACAD_REACTORS
330
E4EB
102
}
330
E4EB
100
AcDbScale
 70
     0
300
3/8" = 1'-0"
140
0.375
141
12.0
290
     0
  0
SCALE
  5
E506
102
{ACAD_REACTORS
330
E4EB
102
}
330
E4EB
100
AcDbScale
 70
     0
300
1/2" = 1'-0"
140
0.5
141
12.0
290
     0
  0
SCALE
  5
E507
102
{ACAD_REACTORS
330
E4EB
102
}
330
E4EB
100
AcDbScale
 70
     0
300
3/4" = 1'-0"
140
0.75
141
12.0
290
     0
  0
SCALE
  5
E508
102
{ACAD_REACTORS
330
E4EB
102
}
330
E4EB
100
AcDbScale
 70
     0
300
1" = 1'-0"
140
1.0
141
12.0
290
     0
  0
SCALE
  5
E509
102
{ACAD_REACTORS
330
E4EB
102
}
330
E4EB
100
AcDbScale
 70
     0
300
1-1/2" = 1'-0"
140
1.5
141
12.0
290
     0
  0
SCALE
  5
E50A
102
{ACAD_REACTORS
330
E4EB
102
}
330
E4EB
100
AcDbScale
 70
     0
300
3" = 1'-0"
140
3.0
141
12.0
290
     0
  0
SCALE
  5
E50B
102
{ACAD_REACTORS
330
E4EB
102
}
330
E4EB
100
AcDbScale
 70
     0
300
6" = 1'-0"
140
6.0
141
12.0
290
     0
  0
SCALE
  5
E50C
102
{ACAD_REACTORS
330
E4EB
102
}
330
E4EB
100
AcDbScale
 70
     0
300
1'-0" = 1'-0"
140
12.0
141
12.0
290
     0
  0
ACDBSECTIONVIEWSTYLE
  5
41C15
102
{ACAD_XDICTIONARY
360
41C39
102
}
102
{ACAD_REACTORS
330
41C14
102
}
330
41C14
100
AcDbModelDocViewStyle
 70
     0
  3
Imperial24
290
     0
100
AcDbSectionViewStyle
 70
     0
 71
     0
 90
       78
 71
     1
340
11
 62
   256
 40
0.24
340
0
340
0
 62
   256
 40
0.24
300
I, O, Q, S, X, Z
 40
0.48
 90
        3
 40
0.18
 90
        1
 71
     2
340
15
 90
       25
 62
   256
340
15
 90
       50
 62
   256
 40
0.24
 40
0.0
 40
0.24
 71
     3
340
11
 62
   256
 40
0.24
 90
        1
 40
0.75
 90
        1
300
%<\AcVar ViewType \f "%tc1">% %<\AcVar ViewSectionStartId>%-%<\AcVar ViewSectionEndId>%\PSCALE %<\AcVar ViewScale \f "%sn">%
 71
     4
 62
   256
 62
   257
300
ANSI31
 40
1.0
 90
        0
290
     0
290
     0
 90
        6
 40
0.0
 40
1.570796326794896
 40
0.2617993877991494
 40
1.308996938995747
 40
-0.2617993877991494
 40
1.832595714594044
  0
TABLESTYLE
  5
E4EA
102
{ACAD_XDICTIONARY
360
F86C
102
}
102
{ACAD_REACTORS
330
E4E9
102
}
330
E4E9
100
AcDbTableStyle
280
     0
  3
Standard
 70
     0
 71
     0
 40
0.06
 41
0.06
280
     0
281
     0
  7
STANDARD
140
0.18
170
     2
 62
     0
 63
     7
283
     0
 90
      512
 91
        0
  1

274
    -2
284
     1
 64
     0
275
    -2
285
     1
 65
     0
276
    -2
286
     1
 66
     0
277
    -2
287
     1
 67
     0
278
    -2
288
     1
 68
     0
279
    -2
289
     1
 69
     0
  7
STANDARD
140
0.25
170
     5
 62
     0
 63
     7
283
     0
 90
      512
 91
        0
  1

274
    -2
284
     1
 64
     0
275
    -2
285
     1
 65
     0
276
    -2
286
     1
 66
     0
277
    -2
287
     1
 67
     0
278
    -2
288
     1
 68
     0
279
    -2
289
     1
 69
     0
  7
STANDARD
140
0.18
170
     5
 62
     0
 63
     7
283
     0
 90
      512
 91
        0
  1

274
    -2
284
     1
 64
     0
275
    -2
285
     1
 65
     0
276
    -2
286
     1
 66
     0
277
    -2
287
     1
 67
     0
278
    -2
288
     1
 68
     0
279
    -2
289
     1
 69
     0
  0
VISUALSTYLE
  5
E4DA
102
{ACAD_REACTORS
330
E4D4
102
}
330
E4D4
100
AcDbVisualStyle
  2

 70
     4
177
     3
291
     0
 70
    58
 90
        0
176
     1
 90
        2
176
     1
 90
        0
176
     1
 90
        0
176
     1
 40
0.6
176
     1
 40
30.0
176
     1
 62
     7
176
     1
 90
        1
176
     1
 90
        4
176
     1
 62
     7
176
     1
 62
   257
176
     1
 90
        1
176
     1
 90
        1
176
     1
 40
1.0
176
     1
 90
        0
176
     1
 62
   257
176
     1
 40
1.0
176
     1
 90
        1
176
     1
 90
        6
176
     1
 90
        2
176
     1
 62
     7
176
     1
 90
        5
176
     1
 90
        0
176
     1
 90
        0
176
     1
290
     0
176
     1
 90
        1
176
     1
 40
0.0
176
     1
 90
        0
176
     1
290
     1
176
     1
290
     1
176
     1
290
     0
176
     1
290
     0
176
     1
290
     0
176
     1
290
     0
176
     1
290
     0
176
     1
290
     0
176
     1
290
     0
176
     1
 90
       50
176
     1
 40
0.0
176
     1
 40
1.0
176
     1
 90
        0
176
     1
 62
    18
176
     1
 90
       50
176
     1
 90
        3
176
     1
 62
     5
420
      255
176
     1
290
     0
176
     1
 90
       50
176
     1
 90
       50
176
     1
 90
       50
176
     1
290
     0
176
     1
 90
       50
176
     1
 62
   256
176
     0
 40
1.0
176
     0
 90
        2
176
     1
  1
strokes_ogs.tif
176
     1
290
     0
176
     1
 40
1.0
176
     1
 40
1.0
176
     1
  0
VISUALSTYLE
  5
E4DC
102
{ACAD_REACTORS
330
E4D4
102
}
330
E4D4
100
AcDbVisualStyle
  2

 70
     6
177
     3
291
     0
 70
    58
 90
        1
176
     1
 90
        2
176
     1
 90
        2
176
     1
 90
        0
176
     1
 40
0.6
176
     1
 40
30.0
176
     1
 62
     7
176
     1
 90
        2
176
     1
 90
        2
176
     1
 62
     7
176
     1
 62
   257
176
     1
 90
        2
176
     1
 90
        1
176
     1
 40
179.0
176
     1
 90
        0
176
     1
 62
   257
176
     1
 40
1.0
176
     1
 90
        1
176
     1
 90
        6
176
     1
 90
        2
176
     1
 62
     7
176
     1
 90
        3
176
     1
 90
        0
176
     1
 90
        0
176
     1
290
     0
176
     1
 90
        1
176
     1
 40
0.0
176
     1
 90
        0
176
     1
290
     0
176
     1
290
     1
176
     1
290
     1
176
     1
290
     0
176
     1
290
     0
176
     1
290
     0
176
     1
290
     0
176
     1
290
     0
176
     1
290
     0
176
     1
 90
       50
176
     1
 40
0.0
176
     1
 40
1.0
176
     1
 90
        0
176
     1
 62
    18
176
     1
 90
       50
176
     1
 90
        3
176
     1
 62
     5
420
      255
176
     1
290
     0
176
     1
 90
       50
176
     1
 90
       50
176
     1
 90
       50
176
     1
290
     0
176
     1
 90
       50
176
     1
 62
   256
176
     0
 40
1.0
176
     0
 90
        2
176
     1
  1
strokes_ogs.tif
176
     1
290
     0
176
     1
 40
1.0
176
     1
 40
1.0
176
     1
  0
VISUALSTYLE
  5
E4DB
102
{ACAD_REACTORS
330
E4D4
102
}
330
E4D4
100
AcDbVisualStyle
  2

 70
     5
177
     3
291
     0
 70
    58
 90
        0
176
     1
 90
        2
176
     1
 90
        0
176
     1
 90
        0
176
     1
 40
0.6
176
     1
 40
30.0
176
     1
 62
     7
176
     1
 90
        1
176
     1
 90
        4
176
     1
 62
     7
176
     1
 62
   257
176
     1
 90
        1
176
     1
 90
        1
176
     1
 40
1.0
176
     1
 90
        0
176
     1
 62
   257
176
     1
 40
1.0
176
     1
 90
        1
176
     1
 90
        6
176
     1
 90
        2
176
     1
 62
     7
176
     1
 90
        5
176
     1
 90
        0
176
     1
 90
        0
176
     1
290
     0
176
     1
 90
        1
176
     1
 40
0.0
176
     1
 90
        0
176
     1
290
     0
176
     1
290
     1
176
     1
290
     1
176
     1
290
     0
176
     1
290
     0
176
     1
290
     0
176
     1
290
     0
176
     1
290
     0
176
     1
290
     0
176
     1
 90
       50
176
     1
 40
0.0
176
     1
 40
1.0
176
     1
 90
        0
176
     1
 62
    18
176
     1
 90
       50
176
     1
 90
        3
176
     1
 62
     5
420
      255
176
     1
290
     0
176
     1
 90
       50
176
     1
 90
       50
176
     1
 90
       50
176
     1
290
     0
176
     1
 90
       50
176
     1
 62
   256
176
     0
 40
1.0
176
     0
 90
        2
176
     1
  1
strokes_ogs.tif
176
     1
290
     0
176
     1
 40
1.0
176
     1
 40
1.0
176
     1
  0
VISUALSTYLE
  5
E4D9
102
{ACAD_REACTORS
330
E4D4
102
}
330
E4D4
100
AcDbVisualStyle
  2

 70
     7
177
     3
291
     1
 70
    58
 90
        1
176
     1
 90
        0
176
     1
 90
        1
176
     1
 90
        0
176
     1
 40
0.6
176
     1
 40
30.0
176
     1
 62
     7
176
     1
 90
        0
176
     1
 90
        4
176
     1
 62
     7
176
     1
 62
   257
176
     1
 90
        1
176
     1
 90
        1
176
     1
 40
1.0
176
     1
 90
        8
176
     1
 62
     7
176
     1
 40
1.0
176
     1
 90
        1
176
     1
 90
        6
176
     1
 90
        2
176
     1
 62
     7
176
     1
 90
        5
176
     1
 90
        0
176
     1
 90
        0
176
     1
290
     0
176
     1
 90
        1
176
     1
 40
0.0
176
     1
 90
        0
176
     1
290
     0
176
     1
290
     1
176
     1
290
     1
176
     1
290
     0
176
     1
290
     0
176
     1
290
     0
176
     1
290
     0
176
     1
290
     0
176
     1
290
     0
176
     1
 90
       50
176
     1
 40
0.0
176
     1
 40
1.0
176
     1
 90
        0
176
     1
 62
    18
176
     1
 90
       50
176
     1
 90
        3
176
     1
 62
     5
420
      255
176
     1
290
     0
176
     1
 90
       50
176
     1
 90
       50
176
     1
 90
       50
176
     1
290
     0
176
     1
 90
       50
176
     1
 62
   256
176
     0
 40
1.0
176
     0
 90
        2
176
     1
  1
strokes_ogs.tif
176
     1
290
     0
176
     1
 40
1.0
176
     1
 40
1.0
176
     1
  0
VISUALSTYLE
  5
E4E0
102
{ACAD_REACTORS
330
E4D4
102
}
330
E4D4
100
AcDbVisualStyle
  2

 70
    12
177
     3
291
     1
 70
    58
 90
        2
176
     1
 90
        2
176
     1
 90
        0
176
     1
 90
        0
176
     1
 40
0.6
176
     1
 40
30.0
176
     1
 62
     7
176
     1
 90
        1
176
     1
 90
        4
176
     1
 62
     7
176
     1
 62
   257
176
     1
 90
        1
176
     1
 90
        1
176
     1
 40
1.0
176
     1
 90
        8
176
     1
 62
     7
176
     1
 40
1.0
176
     1
 90
        1
176
     1
 90
        6
176
     1
 90
        2
176
     1
 62
     7
176
     1
 90
        5
176
     1
 90
        0
176
     1
 90
        0
176
     1
290
     0
176
     1
 90
        1
176
     1
 40
50.0
176
     1
 90
        0
176
     1
290
     0
176
     1
290
     1
176
     1
290
     1
176
     1
290
     0
176
     1
290
     0
176
     1
290
     0
176
     1
290
     0
176
     1
290
     0
176
     1
290
     0
176
     1
 90
       50
176
     1
 40
0.0
176
     1
 40
1.0
176
     1
 90
        0
176
     1
 62
    18
176
     1
 90
       50
176
     1
 90
        3
176
     1
 62
     5
420
      255
176
     1
290
     0
176
     1
 90
       50
176
     1
 90
       50
176
     1
 90
       50
176
     1
290
     0
176
     1
 90
       50
176
     1
 62
   256
176
     0
 40
1.0
176
     0
 90
        2
176
     1
  1
strokes_ogs.tif
176
     1
290
     0
176
     1
 40
1.0
176
     1
 40
1.0
176
     1
  0
VISUALSTYLE
  5
E4E4
102
{ACAD_REACTORS
330
E4D4
102
}
330
E4D4
100
AcDbVisualStyle
  2

 70
    16
177
     3
291
     1
 70
    58
 90
        2
176
     1
 90
        2
176
     1
 90
        3
176
     1
 90
        0
176
     1
 40
0.6
176
     1
 40
30.0
176
     1
 62
     8
176
     1
 90
        1
176
     1
 90
        4
176
     1
 62
     7
176
     1
 62
   257
176
     1
 90
        1
176
     1
 90
        1
176
     1
 40
1.0
176
     1
 90
        8
176
     1
 62
     8
176
     1
 40
1.0
176
     1
 90
        1
176
     1
 90
        6
176
     1
 90
        2
176
     1
 62
     7
176
     1
 90
        5
176
     1
 90
        0
176
     1
 90
        0
176
     1
290
     0
176
     1
 90
        1
176
     1
 40
0.0
176
     1
 90
        0
176
     1
290
     0
176
     1
290
     1
176
     1
290
     1
176
     1
290
     0
176
     1
290
     0
176
     1
290
     0
176
     1
290
     0
176
     1
290
     0
176
     1
290
     0
176
     1
 90
       50
176
     1
 40
0.0
176
     1
 40
1.0
176
     1
 90
        0
176
     1
 62
    18
176
     1
 90
       50
176
     1
 90
        3
176
     1
 62
     5
420
      255
176
     1
290
     0
176
     1
 90
       50
176
     1
 90
       50
176
     1
 90
       50
176
     1
290
     0
176
     1
 90
       50
176
     1
 62
   256
176
     0
 40
1.0
176
     0
 90
        2
176
     1
  1
strokes_ogs.tif
176
     1
290
     0
176
     1
 40
1.0
176
     1
 40
1.0
176
     1
  0
VISUALSTYLE
  5
E4DD
102
{ACAD_REACTORS
330
E4D4
102
}
330
E4D4
100
AcDbVisualStyle
  2

 70
     9
177
     3
291
     0
 70
    58
 90
        3
176
     1
 90
        2
176
     1
 90
        0
176
     1
 90
        0
176
     1
 40
0.6
176
     1
 40
30.0
176
     1
 62
     7
176
     1
 90
        2
176
     1
 90
        2
176
     1
 62
     7
176
     1
 62
   257
176
     1
 90
        1
176
     1
 90
        1
176
     1
 40
179.0
176
     1
 90
        8
176
     1
 62
     7
176
     1
 40
1.0
176
     1
 90
        1
176
     1
 90
        6
176
     1
 90
        2
176
     1
 62
     7
176
     1
 90
        3
176
     1
 90
        0
176
     1
 90
        0
176
     1
290
     0
176
     1
 90
        1
176
     1
 40
0.0
176
     1
 90
        0
176
     1
290
     0
176
     1
290
     1
176
     1
290
     1
176
     1
290
     0
176
     1
290
     0
176
     1
290
     0
176
     1
290
     0
176
     1
290
     0
176
     1
290
     0
176
     1
 90
       50
176
     1
 40
0.0
176
     1
 40
1.0
176
     1
 90
        0
176
     1
 62
    18
176
     1
 90
       50
176
     1
 90
        3
176
     1
 62
     5
420
      255
176
     1
290
     0
176
     1
 90
       50
176
     1
 90
       50
176
     1
 90
       50
176
     1
290
     0
176
     1
 90
       50
176
     1
 62
   256
176
     0
 40
1.0
176
     0
 90
        2
176
     1
  1
strokes_ogs.tif
176
     1
290
     0
176
     1
 40
1.0
176
     1
 40
1.0
176
     1
  0
VISUALSTYLE
  5
E4DF
102
{ACAD_REACTORS
330
E4D4
102
}
330
E4D4
100
AcDbVisualStyle
  2

 70
    11
177
     3
291
     1
 70
    58
 90
        2
176
     1
 90
        2
176
     1
 90
        0
176
     1
 90
        0
176
     1
 40
0.6
176
     1
 40
30.0
176
     1
 62
     7
176
     1
 90
        1
176
     1
 90
        4
176
     1
 62
     7
176
     1
 62
   257
176
     1
 90
        1
176
     1
 90
        1
176
     1
 40
1.0
176
     1
 90
        8
176
     1
 62
     7
176
     1
 40
1.0
176
     1
 90
        1
176
     1
 90
        6
176
     1
 90
        2
176
     1
 62
     7
176
     1
 90
        5
176
     1
 90
        0
176
     1
 90
        0
176
     1
290
     0
176
     1
 90
        1
176
     1
 40
-50.0
176
     1
 90
        0
176
     1
290
     0
176
     1
290
     1
176
     1
290
     1
176
     1
290
     0
176
     1
290
     0
176
     1
290
     0
176
     1
290
     0
176
     1
290
     0
176
     1
290
     0
176
     1
 90
       50
176
     1
 40
0.0
176
     1
 40
1.0
176
     1
 90
        0
176
     1
 62
    18
176
     1
 90
       50
176
     1
 90
        3
176
     1
 62
     5
420
      255
176
     1
290
     0
176
     1
 90
       50
176
     1
 90
       50
176
     1
 90
       50
176
     1
290
     0
176
     1
 90
       50
176
     1
 62
   256
176
     0
 40
1.0
176
     0
 90
        2
176
     1
  1
strokes_ogs.tif
176
     1
290
     0
176
     1
 40
1.0
176
     1
 40
1.0
176
     1
  0
VISUALSTYLE
  5
E4E7
102
{ACAD_REACTORS
330
E4D4
102
}
330
E4D4
100
AcDbVisualStyle
  2

 70
    22
177
     3
291
     1
 70
    58
 90
        2
176
     0
 90
        2
176
     0
 90
        0
176
     0
 90
        0
176
     0
 40
0.6
176
     0
 40
30.0
176
     0
 62
     7
176
     0
 90
        1
176
     0
 90
        4
176
     0
 62
     7
176
     0
 62
   257
176
     0
 90
        1
176
     0
 90
        1
176
     0
 40
1.0
176
     0
 90
        8
176
     2
 62
     7
176
     0
 40
1.0
176
     0
 90
        1
176
     0
 90
        6
176
     0
 90
        2
176
     0
 62
     7
176
     0
 90
        5
176
     0
 90
        0
176
     0
 90
        0
176
     0
290
     0
176
     0
 90
        1
176
     0
 40
0.0
176
     0
 90
        0
176
     0
290
     0
176
     1
290
     1
176
     1
290
     1
176
     1
290
     0
176
     1
290
     0
176
     1
290
     0
176
     1
290
     0
176
     1
290
     0
176
     1
290
     0
176
     1
 90
       50
176
     1
 40
0.0
176
     1
 40
1.0
176
     1
 90
        0
176
     1
 62
    18
176
     1
 90
       50
176
     1
 90
        3
176
     1
 62
     5
420
      255
176
     1
290
     0
176
     1
 90
       50
176
     1
 90
       50
176
     1
 90
       50
176
     1
290
     0
176
     1
 90
       50
176
     1
 62
   256
176
     0
 40
1.0
176
     0
 90
        2
176
     1
  1
strokes_ogs.tif
176
     1
290
     0
176
     1
 40
1.0
176
     1
 40
1.0
176
     1
  0
VISUALSTYLE
  5
E4E3
102
{ACAD_REACTORS
330
E4D4
102
}
330
E4D4
100
AcDbVisualStyle
  2

 70
    15
177
     3
291
     1
 70
    58
 90
        2
176
     1
 90
        2
176
     1
 90
        0
176
     1
 90
        0
176
     1
 40
0.6
176
     1
 40
30.0
176
     1
 62
     7
176
     1
 90
        1
176
     1
 90
        4
176
     1
 62
     7
176
     1
 62
   257
176
     1
 90
        1
176
     1
 90
        1
176
     1
 40
1.0
176
     1
 90
        8
176
     1
 62
     7
176
     1
 40
1.0
176
     1
 90
        1
176
     1
 90
        6
176
     1
 90
        2
176
     1
 62
     7
176
     1
 90
        5
176
     1
 90
        0
176
     1
 90
        0
176
     1
290
     0
176
     1
 90
        1
176
     1
 40
0.0
176
     1
 90
        0
176
     1
290
     0
176
     1
290
     1
176
     1
290
     1
176
     1
290
     0
176
     1
290
     0
176
     1
290
     0
176
     1
290
     0
176
     1
290
     0
176
     1
290
     0
176
     1
 90
       50
176
     1
 40
0.0
176
     1
 40
1.0
176
     1
 90
        0
176
     1
 62
    18
176
     1
 90
       50
176
     1
 90
        3
176
     1
 62
     5
420
      255
176
     1
290
     0
176
     1
 90
       50
176
     1
 90
       50
176
     1
 90
       50
176
     1
290
     0
176
     1
 90
       50
176
     1
 62
   256
176
     0
 40
1.0
176
     0
 90
        2
176
     1
  1
strokes_ogs.tif
176
     1
290
     0
176
     1
 40
1.0
176
     1
 40
1.0
176
     1
  0
VISUALSTYLE
  5
E4D5
102
{ACAD_REACTORS
330
E4D4
102
}
330
E4D4
100
AcDbVisualStyle
  2

 70
     0
177
     3
291
     1
 70
    58
 90
        2
176
     1
 90
        1
176
     1
 90
        1
176
     1
 90
        2
176
     1
 40
0.6
176
     1
 40
30.0
176
     1
 62
     7
176
     1
 90
        0
176
     1
 90
        4
176
     1
 62
     7
176
     1
 62
   257
176
     1
 90
        1
176
     1
 90
        1
176
     1
 40
1.0
176
     1
 90
        8
176
     1
 62
     7
176
     1
 40
1.0
176
     1
 90
        1
176
     1
 90
        6
176
     1
 90
        2
176
     1
 62
     7
176
     1
 90
        5
176
     1
 90
        0
176
     1
 90
        0
176
     1
290
     0
176
     1
 90
       13
176
     1
 40
0.0
176
     1
 90
        0
176
     1
290
     0
176
     1
290
     1
176
     1
290
     1
176
     1
290
     0
176
     1
290
     0
176
     1
290
     0
176
     1
290
     0
176
     1
290
     0
176
     1
290
     0
176
     1
 90
       50
176
     1
 40
0.0
176
     1
 40
1.0
176
     1
 90
        0
176
     1
 62
    18
176
     1
 90
       50
176
     1
 90
        3
176
     1
 62
     5
420
      255
176
     1
290
     0
176
     1
 90
       50
176
     1
 90
       50
176
     1
 90
       50
176
     1
290
     0
176
     1
 90
       50
176
     1
 62
   256
176
     0
 40
1.0
176
     0
 90
        2
176
     1
  1
strokes_ogs.tif
176
     1
290
     0
176
     1
 40
1.0
176
     1
 40
1.0
176
     1
  0
VISUALSTYLE
  5
E4D6
102
{ACAD_REACTORS
330
E4D4
102
}
330
E4D4
100
AcDbVisualStyle
  2

 70
     1
177
     3
291
     1
 70
    58
 90
        2
176
     1
 90
        1
176
     1
 90
        1
176
     1
 90
        2
176
     1
 40
0.6
176
     1
 40
30.0
176
     1
 62
     7
176
     1
 90
        1
176
     1
 90
        4
176
     1
 62
     7
176
     1
 62
   257
176
     1
 90
        1
176
     1
 90
        1
176
     1
 40
1.0
176
     1
 90
        0
176
     1
 62
   257
176
     1
 40
1.0
176
     1
 90
        1
176
     1
 90
        6
176
     1
 90
        2
176
     1
 62
     7
176
     1
 90
        5
176
     1
 90
        0
176
     1
 90
        0
176
     1
290
     0
176
     1
 90
       13
176
     1
 40
0.0
176
     1
 90
        0
176
     1
290
     0
176
     1
290
     1
176
     1
290
     1
176
     1
290
     0
176
     1
290
     0
176
     1
290
     0
176
     1
290
     0
176
     1
290
     0
176
     1
290
     0
176
     1
 90
       50
176
     1
 40
0.0
176
     1
 40
1.0
176
     1
 90
        0
176
     1
 62
    18
176
     1
 90
       50
176
     1
 90
        3
176
     1
 62
     5
420
      255
176
     1
290
     0
176
     1
 90
       50
176
     1
 90
       50
176
     1
 90
       50
176
     1
290
     0
176
     1
 90
       50
176
     1
 62
   256
176
     0
 40
1.0
176
     0
 90
        2
176
     1
  1
strokes_ogs.tif
176
     1
290
     0
176
     1
 40
1.0
176
     1
 40
1.0
176
     1
  0
VISUALSTYLE
  5
E4D7
102
{ACAD_REACTORS
330
E4D4
102
}
330
E4D4
100
AcDbVisualStyle
  2

 70
     2
177
     3
291
     1
 70
    58
 90
        2
176
     1
 90
        2
176
     1
 90
        1
176
     1
 90
        2
176
     1
 40
0.6
176
     1
 40
30.0
176
     1
 62
     7
176
     1
 90
        0
176
     1
 90
        4
176
     1
 62
     7
176
     1
 62
   257
176
     1
 90
        1
176
     1
 90
        1
176
     1
 40
1.0
176
     1
 90
        0
176
     1
 62
     7
176
     1
 40
1.0
176
     1
 90
        1
176
     1
 90
        6
176
     1
 90
        2
176
     1
 62
     7
176
     1
 90
        5
176
     1
 90
        0
176
     1
 90
        0
176
     1
290
     0
176
     1
 90
       13
176
     1
 40
0.0
176
     1
 90
        0
176
     1
290
     0
176
     1
290
     1
176
     1
290
     1
176
     1
290
     0
176
     1
290
     0
176
     1
290
     0
176
     1
290
     0
176
     1
290
     0
176
     1
290
     0
176
     1
 90
       50
176
     1
 40
0.0
176
     1
 40
1.0
176
     1
 90
        0
176
     1
 62
    18
176
     1
 90
       50
176
     1
 90
        3
176
     1
 62
     5
420
      255
176
     1
290
     0
176
     1
 90
       50
176
     1
 90
       50
176
     1
 90
       50
176
     1
290
     0
176
     1
 90
       50
176
     1
 62
   256
176
     0
 40
1.0
176
     0
 90
        2
176
     1
  1
strokes_ogs.tif
176
     1
290
     0
176
     1
 40
1.0
176
     1
 40
1.0
176
     1
  0
VISUALSTYLE
  5
E4D8
102
{ACAD_REACTORS
330
E4D4
102
}
330
E4D4
100
AcDbVisualStyle
  2

 70
     3
177
     3
291
     1
 70
    58
 90
        2
176
     1
 90
        2
176
     1
 90
        1
176
     1
 90
        2
176
     1
 40
0.6
176
     1
 40
30.0
176
     1
 62
     7
176
     1
 90
        1
176
     1
 90
        4
176
     1
 62
     7
176
     1
 62
   257
176
     1
 90
        1
176
     1
 90
        1
176
     1
 40
1.0
176
     1
 90
        0
176
     1
 62
   257
176
     1
 40
1.0
176
     1
 90
        1
176
     1
 90
        6
176
     1
 90
        2
176
     1
 62
     7
176
     1
 90
        5
176
     1
 90
        0
176
     1
 90
        0
176
     1
290
     0
176
     1
 90
       13
176
     1
 40
0.0
176
     1
 90
        0
176
     1
290
     0
176
     1
290
     1
176
     1
290
     1
176
     1
290
     0
176
     1
290
     0
176
     1
290
     0
176
     1
290
     0
176
     1
290
     0
176
     1
290
     0
176
     1
 90
       50
176
     1
 40
0.0
176
     1
 40
1.0
176
     1
 90
        0
176
     1
 62
    18
176
     1
 90
       50
176
     1
 90
        3
176
     1
 62
     5
420
      255
176
     1
290
     0
176
     1
 90
       50
176
     1
 90
       50
176
     1
 90
       50
176
     1
290
     0
176
     1
 90
       50
176
     1
 62
   256
176
     0
 40
1.0
176
     0
 90
        2
176
     1
  1
strokes_ogs.tif
176
     1
290
     0
176
     1
 40
1.0
176
     1
 40
1.0
176
     1
  0
VISUALSTYLE
  5
41C0E
102
{ACAD_REACTORS
330
E4D4
102
}
330
E4D4
100
AcDbVisualStyle
  2
Hidden
 70
     6
177
     3
291
     0
 70
    58
 90
        1
176
     1
 90
        2
176
     1
 90
        2
176
     1
 90
        0
176
     1
 40
0.6
176
     1
 40
30.0
176
     1
 62
     7
420
 16777215
176
     1
 90
        2
176
     1
 90
        2
176
     1
 62
     7
176
     1
 62
   257
176
     1
 90
        2
176
     1
 90
        1
176
     1
 40
40.0
176
     1
 90
        0
176
     1
 62
   257
176
     1
 40
1.0
176
     1
 90
        1
176
     1
 90
        6
176
     1
 90
        2
176
     1
 62
     7
176
     1
 90
        3
176
     1
 90
        0
176
     1
 90
        0
176
     1
290
     0
176
     1
 90
        1
176
     1
 40
0.0
176
     1
 90
        0
176
     1
290
     0
176
     1
290
     1
176
     1
290
     1
176
     1
290
     0
176
     1
290
     0
176
     1
290
     0
176
     1
290
     0
176
     1
290
     0
176
     1
290
     0
176
     1
 90
       50
176
     1
 40
0.0
176
     1
 40
1.0
176
     1
 90
        0
176
     1
 62
    18
176
     1
 90
       50
176
     1
 90
        3
176
     1
 62
     5
420
      255
176
     1
290
     0
176
     1
 90
       50
176
     1
 90
       50
176
     1
 90
       50
176
     1
290
     0
176
     1
 90
       50
176
     1
 62
   256
176
     0
 40
1.0
176
     0
 90
        2
176
     1
  1
strokes_ogs.tif
176
     1
290
     0
176
     1
 40
1.0
176
     1
 40
1.0
176
     1
  0
VISUALSTYLE
  5
E4E5
102
{ACAD_REACTORS
330
E4D4
102
}
330
E4D4
100
AcDbVisualStyle
  2

 70
    20
177
     3
291
     1
 70
    58
 90
        2
176
     0
 90
        2
176
     0
 90
        0
176
     0
 90
        0
176
     0
 40
0.6
176
     0
 40
30.0
176
     0
 62
     7
176
     0
 90
        1
176
     0
 90
        4
176
     0
 62
     7
176
     0
 62
   257
176
     0
 90
        1
176
     0
 90
        1
176
     0
 40
1.0
176
     0
 90
       10
176
     2
 62
     7
176
     0
 40
1.0
176
     0
 90
        1
176
     0
 90
        6
176
     0
 90
        2
176
     0
 62
     7
176
     0
 90
        5
176
     0
 90
        0
176
     0
 90
        0
176
     0
290
     0
176
     0
 90
        1
176
     0
 40
0.0
176
     0
 90
        0
176
     0
290
     0
176
     1
290
     1
176
     1
290
     1
176
     1
290
     0
176
     1
290
     0
176
     1
290
     0
176
     1
290
     0
176
     1
290
     0
176
     1
290
     0
176
     1
 90
       50
176
     1
 40
0.0
176
     1
 40
1.0
176
     1
 90
        0
176
     1
 62
    18
176
     1
 90
       50
176
     1
 90
        3
176
     1
 62
     5
420
      255
176
     1
290
     0
176
     1
 90
       50
176
     1
 90
       50
176
     1
 90
       50
176
     1
290
     0
176
     1
 90
       50
176
     1
 62
   256
176
     0
 40
1.0
176
     0
 90
        2
176
     1
  1
strokes_ogs.tif
176
     1
290
     0
176
     1
 40
1.0
176
     1
 40
1.0
176
     1
  0
VISUALSTYLE
  5
E4E2
102
{ACAD_REACTORS
330
E4D4
102
}
330
E4D4
100
AcDbVisualStyle
  2

 70
    14
177
     3
291
     1
 70
    58
 90
        2
176
     1
 90
        2
176
     1
 90
        0
176
     1
 90
        0
176
     1
 40
0.6
176
     1
 40
30.0
176
     1
 62
     7
176
     1
 90
        1
176
     1
 90
        4
176
     1
 62
     7
176
     1
 62
   257
176
     1
 90
        7
176
     1
 90
        7
176
     1
 40
1.0
176
     1
 90
        8
176
     1
 62
     7
176
     1
 40
1.0
176
     1
 90
        1
176
     1
 90
        6
176
     1
 90
        2
176
     1
 62
     7
176
     1
 90
        5
176
     1
 90
        0
176
     1
 90
        0
176
     1
290
     0
176
     1
 90
        1
176
     1
 40
0.0
176
     1
 90
        0
176
     1
290
     0
176
     1
290
     1
176
     1
290
     1
176
     1
290
     0
176
     1
290
     0
176
     1
290
     0
176
     1
290
     0
176
     1
290
     0
176
     1
290
     0
176
     1
 90
       50
176
     1
 40
0.0
176
     1
 40
1.0
176
     1
 90
        0
176
     1
 62
    18
176
     1
 90
       50
176
     1
 90
        3
176
     1
 62
     5
420
      255
176
     1
290
     0
176
     1
 90
       50
176
     1
 90
       50
176
     1
 90
       50
176
     1
290
     0
176
     1
 90
       50
176
     1
 62
   256
176
     0
 40
1.0
176
     0
 90
        2
176
     1
  1
strokes_ogs.tif
176
     1
290
     0
176
     1
 40
1.0
176
     1
 40
1.0
176
     1
  0
VISUALSTYLE
  5
E4E6
102
{ACAD_REACTORS
330
E4D4
102
}
330
E4D4
100
AcDbVisualStyle
  2

 70
    21
177
     3
291
     1
 70
    58
 90
        2
176
     0
 90
        2
176
     0
 90
        0
176
     0
 90
        0
176
     0
 40
0.6
176
     0
 40
30.0
176
     0
 62
     7
176
     0
 90
        1
176
     0
 90
        4
176
     0
 62
     7
176
     0
 62
   257
176
     0
 90
        1
176
     0
 90
        1
176
     0
 40
1.0
176
     0
 90
        9
176
     2
 62
     7
176
     0
 40
1.0
176
     0
 90
        1
176
     0
 90
        6
176
     0
 90
        2
176
     0
 62
     7
176
     0
 90
        5
176
     0
 90
        0
176
     0
 90
        0
176
     0
290
     0
176
     0
 90
        1
176
     0
 40
0.0
176
     0
 90
        0
176
     0
290
     0
176
     1
290
     1
176
     1
290
     1
176
     1
290
     0
176
     1
290
     0
176
     1
290
     0
176
     1
290
     0
176
     1
290
     0
176
     1
290
     0
176
     1
 90
       50
176
     1
 40
0.0
176
     1
 40
1.0
176
     1
 90
        0
176
     1
 62
    18
176
     1
 90
       50
176
     1
 90
        3
176
     1
 62
     5
420
      255
176
     1
290
     0
176
     1
 90
       50
176
     1
 90
       50
176
     1
 90
       50
176
     1
290
     0
176
     1
 90
       50
176
     1
 62
   256
176
     0
 40
1.0
176
     0
 90
        2
176
     1
  1
strokes_ogs.tif
176
     1
290
     0
176
     1
 40
1.0
176
     1
 40
1.0
176
     1
  0
VISUALSTYLE
  5
E4DE
102
{ACAD_REACTORS
330
E4D4
102
}
330
E4D4
100
AcDbVisualStyle
  2

 70
     8
177
     3
291
     0
 70
    58
 90
        2
176
     1
 90
        2
176
     1
 90
        0
176
     1
 90
        0
176
     1
 40
0.6
176
     1
 40
30.0
176
     1
 62
     7
176
     1
 90
        1
176
     1
 90
        0
176
     1
 62
     7
176
     1
 62
   257
176
     1
 90
        1
176
     1
 90
        1
176
     1
 40
1.0
176
     1
 90
        8
176
     1
 62
     8
176
     1
 40
1.0
176
     1
 90
        1
176
     1
 90
        6
176
     1
 90
        2
176
     1
 62
     7
176
     1
 90
        5
176
     1
 90
        0
176
     1
 90
        0
176
     1
290
     0
176
     1
 90
       13
176
     1
 40
0.0
176
     1
 90
        0
176
     1
290
     0
176
     1
290
     1
176
     1
290
     1
176
     1
290
     0
176
     1
290
     0
176
     1
290
     0
176
     1
290
     0
176
     1
290
     0
176
     1
290
     0
176
     1
 90
       50
176
     1
 40
0.0
176
     1
 40
1.0
176
     1
 90
        0
176
     1
 62
    18
176
     1
 90
       50
176
     1
 90
        3
176
     1
 62
     5
420
      255
176
     1
290
     0
176
     1
 90
       50
176
     1
 90
       50
176
     1
 90
       50
176
     1
290
     0
176
     1
 90
       50
176
     1
 62
   256
176
     0
 40
1.0
176
     0
 90
        2
176
     1
  1
strokes_ogs.tif
176
     1
290
     0
176
     1
 40
1.0
176
     1
 40
1.0
176
     1
  0
VISUALSTYLE
  5
41C13
102
{ACAD_REACTORS
330
E4D4
102
}
330
E4D4
100
AcDbVisualStyle
  2
Shaded
 70
    27
177
     3
291
     0
 70
    58
 90
        2
176
     1
 90
        2
176
     1
 90
        1
176
     1
 90
        2
176
     1
 40
0.6
176
     1
 40
30.0
176
     1
 62
     7
420
 16777215
176
     1
 90
        0
176
     1
 90
        4
176
     1
 62
     7
176
     1
 62
   257
176
     1
 90
        1
176
     1
 90
        1
176
     1
 40
1.0
176
     1
 90
        8
176
     1
 62
   257
176
     1
 40
1.0
176
     1
 90
        1
176
     1
 90
        6
176
     1
 90
        2
176
     1
 62
     8
420
  7895160
176
     1
 90
        3
176
     1
 90
        0
176
     1
 90
        0
176
     1
290
     0
176
     1
 90
        5
176
     1
 40
0.0
176
     1
 90
        0
176
     1
290
     0
176
     1
290
     1
176
     1
290
     1
176
     1
290
     0
176
     1
290
     0
176
     1
290
     0
176
     1
290
     0
176
     1
290
     0
176
     1
290
     0
176
     1
 90
       50
176
     1
 40
0.0
176
     1
 40
1.0
176
     1
 90
        0
176
     1
 62
    18
176
     1
 90
       50
176
     1
 90
        3
176
     1
 62
     5
420
      255
176
     1
290
     0
176
     1
 90
       50
176
     1
 90
       50
176
     1
 90
       50
176
     1
290
     0
176
     1
 90
       50
176
     1
 62
   256
176
     0
 40
1.0
176
     0
 90
        2
176
     1
  1
strokes_ogs.tif
176
     1
290
     0
176
     1
 40
1.0
176
     1
 40
1.0
176
     1
  0
VISUALSTYLE
  5
41C12
102
{ACAD_REACTORS
330
E4D4
102
}
330
E4D4
100
AcDbVisualStyle
  2
Shaded with edges
 70
    26
177
     3
291
     0
 70
    58
 90
        2
176
     1
 90
        2
176
     1
 90
        1
176
     1
 90
        2
176
     1
 40
0.6
176
     1
 40
30.0
176
     1
 62
     7
420
 16777215
176
     1
 90
        1
176
     1
 90
       10
176
     1
 62
     7
176
     1
 62
   257
176
     1
 90
        2
176
     1
 90
        1
176
     1
 40
1.0
176
     1
 90
        8
176
     1
 62
   257
176
     1
 40
1.0
176
     1
 90
        1
176
     1
 90
        6
176
     1
 90
        2
176
     1
 62
     7
176
     1
 90
        3
176
     1
 90
        0
176
     1
 90
        0
176
     1
290
     0
176
     1
 90
        5
176
     1
 40
0.0
176
     1
 90
        0
176
     1
290
     0
176
     1
290
     1
176
     1
290
     1
176
     1
290
     0
176
     1
290
     0
176
     1
290
     0
176
     1
290
     0
176
     1
290
     0
176
     1
290
     0
176
     1
 90
       50
176
     1
 40
0.0
176
     1
 40
1.0
176
     1
 90
        0
176
     1
 62
    18
176
     1
 90
       50
176
     1
 90
        3
176
     1
 62
     5
420
      255
176
     1
290
     0
176
     1
 90
       50
176
     1
 90
       50
176
     1
 90
       50
176
     1
290
     0
176
     1
 90
       50
176
     1
 62
   256
176
     0
 40
1.0
176
     0
 90
        2
176
     1
  1
strokes_ogs.tif
176
     1
290
     0
176
     1
 40
1.0
176
     1
 40
1.0
176
     1
  0
VISUALSTYLE
  5
41C0F
102
{ACAD_REACTORS
330
E4D4
102
}
330
E4D4
100
AcDbVisualStyle
  2
Shades of Gray
 70
    23
177
     3
291
     0
 70
    58
 90
        2
176
     1
 90
        2
176
     1
 90
        3
176
     1
 90
        0
176
     1
 40
0.6
176
     1
 40
30.0
176
     1
 62
     7
420
 16777215
176
     1
 90
        2
176
     1
 90
        2
176
     1
 62
     7
176
     1
 62
     7
176
     1
 90
        1
176
     1
 90
        1
176
     1
 40
40.0
176
     1
 90
        8
176
     1
 62
     7
176
     1
 40
1.0
176
     1
 90
        1
176
     1
 90
        6
176
     1
 90
        2
176
     1
 62
     7
176
     1
 90
        3
176
     1
 90
        0
176
     1
 90
        0
176
     1
290
     0
176
     1
 90
        1
176
     1
 40
0.0
176
     1
 90
        0
176
     1
290
     0
176
     1
290
     1
176
     1
290
     1
176
     1
290
     0
176
     1
290
     0
176
     1
290
     0
176
     1
290
     0
176
     1
290
     0
176
     1
290
     0
176
     1
 90
       50
176
     1
 40
0.0
176
     1
 40
1.0
176
     1
 90
        0
176
     1
 62
    18
176
     1
 90
       50
176
     1
 90
        3
176
     1
 62
     5
420
      255
176
     1
290
     0
176
     1
 90
       50
176
     1
 90
       50
176
     1
 90
       50
176
     1
290
     0
176
     1
 90
       50
176
     1
 62
   256
176
     0
 40
1.0
176
     0
 90
        2
176
     1
  1
strokes_ogs.tif
176
     1
290
     0
176
     1
 40
1.0
176
     1
 40
1.0
176
     1
  0
VISUALSTYLE
  5
41C10
102
{ACAD_REACTORS
330
E4D4
102
}
330
E4D4
100
AcDbVisualStyle
  2
Sketchy
 70
    24
177
     3
291
     0
 70
    58
 90
        1
176
     1
 90
        2
176
     1
 90
        2
176
     1
 90
        0
176
     1
 40
0.6
176
     1
 40
30.0
176
     1
 62
     7
420
 16777215
176
     1
 90
        2
176
     1
 90
        2
176
     1
 62
     7
176
     1
 62
     7
176
     1
 90
        1
176
     1
 90
        1
176
     1
 40
40.0
176
     1
 90
       11
176
     1
 62
     7
176
     1
 40
1.0
176
     1
 90
        1
176
     1
 90
        6
176
     1
 90
        2
176
     1
 62
     7
176
     1
 90
        6
176
     1
 90
        0
176
     1
 90
        0
176
     1
290
     0
176
     1
 90
        1
176
     1
 40
0.0
176
     1
 90
        0
176
     1
290
     0
176
     1
290
     1
176
     1
290
     1
176
     1
290
     0
176
     1
290
     0
176
     1
290
     0
176
     1
290
     0
176
     1
290
     0
176
     1
290
     0
176
     1
 90
       50
176
     1
 40
0.0
176
     1
 40
1.0
176
     1
 90
        0
176
     1
 62
    18
176
     1
 90
       50
176
     1
 90
        3
176
     1
 62
     5
420
      255
176
     1
290
     0
176
     1
 90
       50
176
     1
 90
       50
176
     1
 90
       50
176
     1
290
     0
176
     1
 90
       50
176
     1
 62
   256
176
     0
 40
1.0
176
     0
 90
        2
176
     1
  1
strokes_ogs.tif
176
     1
290
     0
176
     1
 40
1.0
176
     1
 40
1.0
176
     1
  0
VISUALSTYLE
  5
E4E1
102
{ACAD_REACTORS
330
E4D4
102
}
330
E4D4
100
AcDbVisualStyle
  2

 70
    13
177
     3
291
     1
 70
    58
 90
        2
176
     1
 90
        2
176
     1
 90
        0
176
     1
 90
        0
176
     1
 40
0.6
176
     1
 40
30.0
176
     1
 62
     7
176
     1
 90
        1
176
     1
 90
        4
176
     1
 62
     7
176
     1
 62
   257
176
     1
 90
        1
176
     1
 90
        1
176
     1
 40
1.0
176
     1
 90
       12
176
     1
 62
     7
176
     1
 40
1.0
176
     1
 90
        1
176
     1
 90
        6
176
     1
 90
        2
176
     1
 62
     7
176
     1
 90
        5
176
     1
 90
        0
176
     1
 90
        0
176
     1
290
     0
176
     1
 90
        1
176
     1
 40
0.0
176
     1
 90
        0
176
     1
290
     0
176
     1
290
     1
176
     1
290
     1
176
     1
290
     0
176
     1
290
     0
176
     1
290
     0
176
     1
290
     0
176
     1
290
     0
176
     1
290
     0
176
     1
 90
       50
176
     1
 40
0.0
176
     1
 40
1.0
176
     1
 90
        0
176
     1
 62
    18
176
     1
 90
       50
176
     1
 90
        3
176
     1
 62
     5
420
      255
176
     1
290
     0
176
     1
 90
       50
176
     1
 90
       50
176
     1
 90
       50
176
     1
290
     0
176
     1
 90
       50
176
     1
 62
   256
176
     0
 40
1.0
176
     0
 90
        2
176
     1
  1
strokes_ogs.tif
176
     1
290
     0
176
     1
 40
1.0
176
     1
 40
1.0
176
     1
  0
VISUALSTYLE
  5
41C0D
102
{ACAD_REACTORS
330
E4D4
102
}
330
E4D4
100
AcDbVisualStyle
  2
Wireframe
 70
     5
177
     3
291
     0
 70
    58
 90
        0
176
     1
 90
        2
176
     1
 90
        0
176
     1
 90
        0
176
     1
 40
0.6
176
     1
 40
30.0
176
     1
 62
     7
420
 16777215
176
     1
 90
        1
176
     1
 90
        4
176
     1
 62
     7
176
     1
 62
   257
176
     1
 90
        1
176
     1
 90
        1
176
     1
 40
1.0
176
     1
 90
        0
176
     1
 62
   257
176
     1
 40
1.0
176
     1
 90
        1
176
     1
 90
        6
176
     1
 90
        2
176
     1
 62
     7
176
     1
 90
        3
176
     1
 90
        0
176
     1
 90
        0
176
     1
290
     0
176
     1
 90
        1
176
     1
 40
0.0
176
     1
 90
        0
176
     1
290
     0
176
     1
290
     1
176
     1
290
     1
176
     1
290
     0
176
     1
290
     0
176
     1
290
     0
176
     1
290
     0
176
     1
290
     0
176
     1
290
     0
176
     1
 90
       50
176
     1
 40
0.0
176
     1
 40
1.0
176
     1
 90
        0
176
     1
 62
    18
176
     1
 90
       50
176
     1
 90
        3
176
     1
 62
     5
420
      255
176
     1
290
     0
176
     1
 90
       50
176
     1
 90
       50
176
     1
 90
       50
176
     1
290
     0
176
     1
 90
       50
176
     1
 62
   256
176
     0
 40
1.0
176
     0
 90
        2
176
     1
  1
strokes_ogs.tif
176
     1
290
     0
176
     1
 40
1.0
176
     1
 40
1.0
176
     1
  0
VISUALSTYLE
  5
41C11
102
{ACAD_REACTORS
330
E4D4
102
}
330
E4D4
100
AcDbVisualStyle
  2
X-Ray
 70
    25
177
     3
291
     0
 70
    58
 90
        2
176
     1
 90
        2
176
     1
 90
        1
176
     1
 90
        1
176
     1
 40
0.5
176
     1
 40
30.0
176
     1
 62
     7
420
 16777215
176
     1
 90
        1
176
     1
 90
        0
176
     1
 62
     7
176
     1
 62
   257
176
     1
 90
        1
176
     1
 90
        1
176
     1
 40
1.0
176
     1
 90
        8
176
     1
 62
     7
176
     1
 40
1.0
176
     1
 90
        1
176
     1
 90
        6
176
     1
 90
        2
176
     1
 62
     7
176
     1
 90
        3
176
     1
 90
        0
176
     1
 90
        0
176
     1
290
     0
176
     1
 90
       13
176
     1
 40
0.0
176
     1
 90
        0
176
     1
290
     0
176
     1
290
     1
176
     1
290
     1
176
     1
290
     0
176
     1
290
     0
176
     1
290
     0
176
     1
290
     0
176
     1
290
     0
176
     1
290
     0
176
     1
 90
       50
176
     1
 40
0.0
176
     1
 40
1.0
176
     1
 90
        0
176
     1
 62
    18
176
     1
 90
       50
176
     1
 90
        3
176
     1
 62
     5
420
      255
176
     1
290
     0
176
     1
 90
       50
176
     1
 90
       50
176
     1
 90
       50
176
     1
290
     0
176
     1
 90
       50
176
     1
 62
   256
176
     0
 40
1.0
176
     0
 90
        2
176
     1
  1
strokes_ogs.tif
176
     1
290
     0
176
     1
 40
1.0
176
     1
 40
1.0
176
     1
  0
DICTIONARYVAR
  5
F8C1
102
{ACAD_REACTORS
330
5697
102
}
330
5697
100
DictionaryVariables
280
     0
  1
1:1
  0
DICTIONARYVAR
  5
F8C0
102
{ACAD_REACTORS
330
5697
102
}
330
5697
100
DictionaryVariables
280
     0
  1
STANDARD
  0
DICTIONARYVAR
  5
F8BF
102
{ACAD_REACTORS
330
5697
102
}
330
5697
100
DictionaryVariables
280
     0
  1
STANDARD
  0
DICTIONARYVAR
  5
41C29
102
{ACAD_REACTORS
330
5697
102
}
330
5697
100
DictionaryVariables
280
     0
  1
Imperial24
  0
DICTIONARYVAR
  5
41C2A
102
{ACAD_REACTORS
330
5697
102
}
330
5697
100
DictionaryVariables
280
     0
  1
Imperial24
  0
DICTIONARYVAR
  5
5698
102
{ACAD_REACTORS
330
5697
102
}
330
5697
100
DictionaryVariables
280
     0
  1
1
  0
DICTIONARYVAR
  5
F8C3
102
{ACAD_REACTORS
330
5697
102
}
330
5697
100
DictionaryVariables
280
     0
  1
0
  0
DICTIONARYVAR
  5
37FF5
102
{ACAD_REACTORS
330
5697
102
}
330
5697
100
DictionaryVariables
280
     0
  1
1
  0
DICTIONARYVAR
  5
37FF6
102
{ACAD_REACTORS
330
5697
102
}
330
5697
100
DictionaryVariables
280
     0
  1
15
  0
DICTIONARYVAR
  5
37FF4
102
{ACAD_REACTORS
330
5697
102
}
330
5697
100
DictionaryVariables
280
     0
  1
0
  0
DICTIONARYVAR
  5
37FF3
102
{ACAD_REACTORS
330
5697
102
}
330
5697
100
DictionaryVariables
280
     0
  1
0
  0
DICTIONARYVAR
  5
F8C2
102
{ACAD_REACTORS
330
5697
102
}
330
5697
100
DictionaryVariables
280
     0
  1
127
  0
XRECORD
  5
F8F7
102
{ACAD_REACTORS
330
F8F6
102
}
330
F8F6
100
AcDbXrecord
280
     1
330
0
330
0
330
0
330
0
330
0
330
0
330
0
330
0
330
0
330
0
330
0
330
0
330
0
330
0
330
0
330
0
330
0
330
0
330
0
330
0
330
0
330
0
330
0
330
0
330
0
330
0
330
0
330
0
330
0
330
0
330
0
330
0
330
0
330
0
330
0
330
0
330
0
330
0
330
0
330
0
330
0
330
0
330
0
330
0
330
0
330
0
330
0
330
0
330
0
330
0
330
0
330
0
330
0
330
0
330
0
330
0
330
0
330
0
330
0
330
0
330
0
330
0
330
0
330
0
330
0
330
0
330
0
330
0
330
0
330
0
330
0
330
0
330
0
330
0
330
0
330
0
330
0
330
0
330
0
330
0
330
0
330
0
330
0
330
0
330
0
330
0
330
0
330
0
330
0
330
0
330
0
330
0
330
0
330
0
330
0
330
0
330
0
330
0
330
0
330
0
330
0
330
0
330
0
330
0
330
0
330
0
330
0
330
0
330
0
330
0
330
0
330
0
330
0
330
0
330
0
330
0
330
0
330
0
330
0
330
0
330
0
330
0
330
0
330
0
330
0
330
0
330
0
330
0
330
0
330
0
330
0
330
0
330
0
330
0
330
0
330
0
330
0
330
0
330
0
330
0
330
0
330
0
330
0
330
0
330
0
330
0
330
0
330
0
330
0
330
0
330
0
330
0
330
0
330
0
330
0
330
0
330
0
330
0
330
0
330
0
330
0
330
0
330
0
330
0
330
0
330
0
330
0
330
0
330
0
330
0
330
0
330
0
330
0
330
0
330
0
330
0
330
0
330
0
330
0
330
0
330
0
330
0
330
0
330
0
330
0
330
0
330
0
330
0
330
0
330
0
330
0
330
0
330
0
330
0
330
0
330
0
330
0
330
0
330
0
330
0
330
0
330
0
330
0
330
0
330
0
330
0
330
0
330
0
330
0
330
0
330
0
330
0
330
0
330
0
330
0
330
0
330
0
330
0
330
0
330
0
330
0
330
0
330
0
330
0
330
0
330
0
330
0
330
0
330
0
330
0
330
0
330
0
330
0
330
0
330
0
330
0
330
0
330
0
330
0
330
0
330
0
330
0
330
0
330
0
330
0
330
0
330
0
330
0
330
0
330
0
330
0
330
0
330
0
330
0
330
0
330
0
330
0
330
0
330
0
330
0
330
0
330
0
330
0
330
0
330
0
330
0
330
0
330
0
330
0
330
0
330
0
330
0
330
0
330
0
330
0
330
0
330
0
330
0
330
0
330
0
330
0
330
0
330
0
330
0
330
0
330
0
330
0
330
0
330
0
330
0
330
0
330
0
330
0
330
0
330
0
330
0
330
0
330
0
330
0
330
0
330
0
330
0
330
0
330
0
330
0
330
0
330
0
  0
DICTIONARY
  5
41C3B
330
41C17
100
AcDbDictionary
280
     1
281
     1
  3
ACAD_XREC_ROUNDTRIP
360
41D28
  0
DICTIONARY
  5
13816
330
904E
100
AcDbDictionary
280
     1
281
     1
  0
DICTIONARY
  5
E4C5
330
E4C4
100
AcDbDictionary
280
     1
281
     1
  3
ACAD_XREC_ROUNDTRIP
360
12A19
  3
BUMPTILE
360
E4C7
  3
DIFFUSETILE
360
E4C6
  3
OPACITYTILE
360
E4CA
  3
REFLECTIONTILE
360
E4C9
  3
REFRACTIONTILE
360
E4CB
  3
SPECULARTILE
360
E4C8
  0
DICTIONARY
  5
E4BD
330
E4BC
100
AcDbDictionary
280
     1
281
     1
  3
ACAD_XREC_ROUNDTRIP
360
12A18
  3
BUMPTILE
360
E4BF
  3
DIFFUSETILE
360
E4BE
  3
OPACITYTILE
360
E4C2
  3
REFLECTIONTILE
360
E4C1
  3
REFRACTIONTILE
360
E4C3
  3
SPECULARTILE
360
E4C0
  0
DICTIONARY
  5
E4CD
330
E4CC
100
AcDbDictionary
280
     1
281
     1
  3
ACAD_XREC_ROUNDTRIP
360
12A1A
  3
BUMPTILE
360
E4CF
  3
DIFFUSETILE
360
E4CE
  3
OPACITYTILE
360
E4D2
  3
REFLECTIONTILE
360
E4D1
  3
REFRACTIONTILE
360
E4D3
  3
SPECULARTILE
360
E4D0
  0
DICTIONARY
  5
41C39
330
41C15
100
AcDbDictionary
280
     1
281
     1
  3
ACAD_XREC_ROUNDTRIP
360
41D27
  0
DICTIONARY
  5
F86C
330
E4EA
100
AcDbDictionary
280
     1
281
     1
  3
ACAD_ROUNDTRIP_2008_TABLESTYLE_CELLSTYLEMAP
360
41D26
  0
XRECORD
  5
41D28
102
{ACAD_REACTORS
330
41C3B
102
}
330
41C3B
100
AcDbXrecord
280
     1
102
DISPLAYNAME
  1
Imperial24
102
FLAGS
 90
        0
  0
XRECORD
  5
12A19
102
{ACAD_REACTORS
330
E4C5
102
}
330
E4C5
100
AcDbXrecord
280
     1
102
MATERIAL
148
0.0
149
0.0
149
0.0
 93
        0
 94
      127
282
     0
 72
     0
 77
     0
171
     0
175
     0
179
     0
273
     0
  0
XRECORD
  5
E4C7
102
{ACAD_REACTORS
330
E4C5
102
}
330
E4C5
100
AcDbXrecord
280
     1
270
     1
271
     1
  0
XRECORD
  5
E4C6
102
{ACAD_REACTORS
330
E4C5
102
}
330
E4C5
100
AcDbXrecord
280
     1
270
     1
271
     1
  0
XRECORD
  5
E4CA
102
{ACAD_REACTORS
330
E4C5
102
}
330
E4C5
100
AcDbXrecord
280
     1
270
     1
271
     1
  0
XRECORD
  5
E4C9
102
{ACAD_REACTORS
330
E4C5
102
}
330
E4C5
100
AcDbXrecord
280
     1
270
     1
271
     1
  0
XRECORD
  5
E4CB
102
{ACAD_REACTORS
330
E4C5
102
}
330
E4C5
100
AcDbXrecord
280
     1
270
     1
271
     1
  0
XRECORD
  5
E4C8
102
{ACAD_REACTORS
330
E4C5
102
}
330
E4C5
100
AcDbXrecord
280
     1
270
     1
271
     1
  0
XRECORD
  5
12A18
102
{ACAD_REACTORS
330
E4BD
102
}
330
E4BD
100
AcDbXrecord
280
     1
102
MATERIAL
148
0.0
149
0.0
149
0.0
 93
        0
 94
      127
282
     0
 72
     0
 77
     0
171
     0
175
     0
179
     0
273
     0
  0
XRECORD
  5
E4BF
102
{ACAD_REACTORS
330
E4BD
102
}
330
E4BD
100
AcDbXrecord
280
     1
270
     1
271
     1
  0
XRECORD
  5
E4BE
102
{ACAD_REACTORS
330
E4BD
102
}
330
E4BD
100
AcDbXrecord
280
     1
270
     1
271
     1
  0
XRECORD
  5
E4C2
102
{ACAD_REACTORS
330
E4BD
102
}
330
E4BD
100
AcDbXrecord
280
     1
270
     1
271
     1
  0
XRECORD
  5
E4C1
102
{ACAD_REACTORS
330
E4BD
102
}
330
E4BD
100
AcDbXrecord
280
     1
270
     1
271
     1
  0
XRECORD
  5
E4C3
102
{ACAD_REACTORS
330
E4BD
102
}
330
E4BD
100
AcDbXrecord
280
     1
270
     1
271
     1
  0
XRECORD
  5
E4C0
102
{ACAD_REACTORS
330
E4BD
102
}
330
E4BD
100
AcDbXrecord
280
     1
270
     1
271
     1
  0
XRECORD
  5
12A1A
102
{ACAD_REACTORS
330
E4CD
102
}
330
E4CD
100
AcDbXrecord
280
     1
102
MATERIAL
148
0.0
149
0.0
149
0.0
 93
        0
 94
      127
282
     0
 72
     0
 77
     0
171
     0
175
     0
179
     0
273
     0
  0
XRECORD
  5
E4CF
102
{ACAD_REACTORS
330
E4CD
102
}
330
E4CD
100
AcDbXrecord
280
     1
270
     1
271
     1
  0
XRECORD
  5
E4CE
102
{ACAD_REACTORS
330
E4CD
102
}
330
E4CD
100
AcDbXrecord
280
     1
270
     1
271
     1
  0
XRECORD
  5
E4D2
102
{ACAD_REACTORS
330
E4CD
102
}
330
E4CD
100
AcDbXrecord
280
     1
270
     1
271
     1
  0
XRECORD
  5
E4D1
102
{ACAD_REACTORS
330
E4CD
102
}
330
E4CD
100
AcDbXrecord
280
     1
270
     1
271
     1
  0
XRECORD
  5
E4D3
102
{ACAD_REACTORS
330
E4CD
102
}
330
E4CD
100
AcDbXrecord
280
     1
270
     1
271
     1
  0
XRECORD
  5
E4D0
102
{ACAD_REACTORS
330
E4CD
102
}
330
E4CD
100
AcDbXrecord
280
     1
270
     1
271
     1
  0
XRECORD
  5
41D27
102
{ACAD_REACTORS
330
41C39
102
}
330
41C39
100
AcDbXrecord
280
     1
102
DISPLAYNAME
  1
Imperial24
102
FLAGS
 90
        0
  0
CELLSTYLEMAP
  5
41D26
102
{ACAD_REACTORS
330
F86C
102
}
330
F86C
100
AcDbCellStyleMap
 90
        3
300
CELLSTYLE
  1
TABLEFORMAT_BEGIN
 90
        5
170
     1
 91
        0
 92
    32768
 62
   257
 93
        1
300
CONTENTFORMAT
  1
CONTENTFORMAT_BEGIN
 90
        0
 91
        0
 92
      512
 93
        0
300

 40
0.0
140
1.0
 94
        5
 62
     0
340
11
144
0.25
309
CONTENTFORMAT_END
171
     1
301
MARGIN
  1
CELLMARGIN_BEGIN
 40
0.06
 40
0.06
 40
0.06
 40
0.06
 40
0.18
 40
0.18
309
CELLMARGIN_END
 94
        6
 95
        1
302
GRIDFORMAT
  1
GRIDFORMAT_BEGIN
 90
        0
 91
        1
 62
     0
 92
       -2
340
0
 93
        0
 40
0.045
309
GRIDFORMAT_END
 95
        2
302
GRIDFORMAT
  1
GRIDFORMAT_BEGIN
 90
        0
 91
        1
 62
     0
 92
       -2
340
0
 93
        0
 40
0.045
309
GRIDFORMAT_END
 95
        4
302
GRIDFORMAT
  1
GRIDFORMAT_BEGIN
 90
        0
 91
        1
 62
     0
 92
       -2
340
0
 93
        0
 40
0.045
309
GRIDFORMAT_END
 95
        8
302
GRIDFORMAT
  1
GRIDFORMAT_BEGIN
 90
        0
 91
        1
 62
     0
 92
       -2
340
0
 93
        0
 40
0.045
309
GRIDFORMAT_END
 95
       16
302
GRIDFORMAT
  1
GRIDFORMAT_BEGIN
 90
        0
 91
        1
 62
     0
 92
       -2
340
0
 93
        0
 40
0.045
309
GRIDFORMAT_END
 95
       32
302
GRIDFORMAT
  1
GRIDFORMAT_BEGIN
 90
        0
 91
        1
 62
     0
 92
       -2
340
0
 93
        0
 40
0.045
309
GRIDFORMAT_END
309
TABLEFORMAT_END
  1
CELLSTYLE_BEGIN
 90
        1
 91
        1
300
_TITLE
309
CELLSTYLE_END
300
CELLSTYLE
  1
TABLEFORMAT_BEGIN
 90
        5
170
     1
 91
        0
 92
        0
 62
   257
 93
        1
300
CONTENTFORMAT
  1
CONTENTFORMAT_BEGIN
 90
        0
 91
        0
 92
      512
 93
        0
300

 40
0.0
140
1.0
 94
        5
 62
     0
340
11
144
0.18
309
CONTENTFORMAT_END
171
     1
301
MARGIN
  1
CELLMARGIN_BEGIN
 40
0.06
 40
0.06
 40
0.06
 40
0.06
 40
0.18
 40
0.18
309
CELLMARGIN_END
 94
        6
 95
        1
302
GRIDFORMAT
  1
GRIDFORMAT_BEGIN
 90
        0
 91
        1
 62
     0
 92
       -2
340
0
 93
        0
 40
0.045
309
GRIDFORMAT_END
 95
        2
302
GRIDFORMAT
  1
GRIDFORMAT_BEGIN
 90
        0
 91
        1
 62
     0
 92
       -2
340
0
 93
        0
 40
0.045
309
GRIDFORMAT_END
 95
        4
302
GRIDFORMAT
  1
GRIDFORMAT_BEGIN
 90
        0
 91
        1
 62
     0
 92
       -2
340
0
 93
        0
 40
0.045
309
GRIDFORMAT_END
 95
        8
302
GRIDFORMAT
  1
GRIDFORMAT_BEGIN
 90
        0
 91
        1
 62
     0
 92
       -2
340
0
 93
        0
 40
0.045
309
GRIDFORMAT_END
 95
       16
302
GRIDFORMAT
  1
GRIDFORMAT_BEGIN
 90
        0
 91
        1
 62
     0
 92
       -2
340
0
 93
        0
 40
0.045
309
GRIDFORMAT_END
 95
       32
302
GRIDFORMAT
  1
GRIDFORMAT_BEGIN
 90
        0
 91
        1
 62
     0
 92
       -2
340
0
 93
        0
 40
0.045
309
GRIDFORMAT_END
309
TABLEFORMAT_END
  1
CELLSTYLE_BEGIN
 90
        2
 91
        1
300
_HEADER
309
CELLSTYLE_END
300
CELLSTYLE
  1
TABLEFORMAT_BEGIN
 90
        5
170
     1
 91
        0
 92
        0
 62
   257
 93
        1
300
CONTENTFORMAT
  1
CONTENTFORMAT_BEGIN
 90
        0
 91
        0
 92
      512
 93
        0
300

 40
0.0
140
1.0
 94
        2
 62
     0
340
11
144
0.18
309
CONTENTFORMAT_END
171
     1
301
MARGIN
  1
CELLMARGIN_BEGIN
 40
0.06
 40
0.06
 40
0.06
 40
0.06
 40
0.18
 40
0.18
309
CELLMARGIN_END
 94
        6
 95
        1
302
GRIDFORMAT
  1
GRIDFORMAT_BEGIN
 90
        0
 91
        1
 62
     0
 92
       -2
340
0
 93
        0
 40
0.045
309
GRIDFORMAT_END
 95
        2
302
GRIDFORMAT
  1
GRIDFORMAT_BEGIN
 90
        0
 91
        1
 62
     0
 92
       -2
340
0
 93
        0
 40
0.045
309
GRIDFORMAT_END
 95
        4
302
GRIDFORMAT
  1
GRIDFORMAT_BEGIN
 90
        0
 91
        1
 62
     0
 92
       -2
340
0
 93
        0
 40
0.045
309
GRIDFORMAT_END
 95
        8
302
GRIDFORMAT
  1
GRIDFORMAT_BEGIN
 90
        0
 91
        1
 62
     0
 92
       -2
340
0
 93
        0
 40
0.045
309
GRIDFORMAT_END
 95
       16
302
GRIDFORMAT
  1
GRIDFORMAT_BEGIN
 90
        0
 91
        1
 62
     0
 92
       -2
340
0
 93
        0
 40
0.045
309
GRIDFORMAT_END
 95
       32
302
GRIDFORMAT
  1
GRIDFORMAT_BEGIN
 90
        0
 91
        1
 62
     0
 92
       -2
340
0
 93
        0
 40
0.045
309
GRIDFORMAT_END
309
TABLEFORMAT_END
  1
CELLSTYLE_BEGIN
 90
        3
 91
        2
300
_DATA
309
CELLSTYLE_END
  0
ENDSEC
  0
SECTION
  2
ACDSDATA
 70
     2
 71
     6
  0
ACDSSCHEMA
 90
        0
  1
AcDb_Thumbnail_Schema
  2
AcDbDs::ID
280
    10
 91
        8
  2
Thumbnail_Data
280
    15
 91
        0
101
ACDSRECORD
 95
        0
 90
        1
  2
AcDbDs::TreatedAsObjectData
280
     1
291
     1
101
ACDSRECORD
 95
        0
 90
        2
  2
AcDbDs::Legacy
280
     1
291
     1
101
ACDSRECORD
  1
AcDbDs::ID
 90
        3
  2
AcDs:Indexable
280
     1
291
     1
101
ACDSRECORD
  1
AcDbDs::ID
 90
        4
  2
AcDbDs::HandleAttribute
280
     7
282
     1
  0
ACDSSCHEMA
 90
        1
  1
AcDbDs::TreatedAsObjectDataSchema
  2
AcDbDs::TreatedAsObjectData
280
     1
 91
        0
  0
ACDSSCHEMA
 90
        2
  1
AcDbDs::LegacySchema
  2
AcDbDs::Legacy
280
     1
 91
        0
  0
ACDSSCHEMA
 90
        3
  1
AcDbDs::IndexedPropertySchema
  2
AcDs:Indexable
280
     1
 91
        0
  0
ACDSSCHEMA
 90
        4
  1
AcDbDs::HandleAttributeSchema
  2
AcDbDs::HandleAttribute
280
     7
 91
        1
284
     1
  0
ACDSRECORD
 90
        0
  2
AcDbDs::ID
280
    10
320
904E
  2
Thumbnail_Data
280
    15
 94
     1726
310
89504E470D0A1A0A0000000D49484452000001000000005808030000002D06D97A00000300504C5445000000000000C8C8C80000000000000000000000000000000000000000000000000000330000660000990000CC0000FF0033000033330033660033990033CC0033FF0066000066330066660066990066CC0066FF0099
310
000099330099660099990099CC0099FF00CC0000CC3300CC6600CC9900CCCC00CCFF00FF0000FF3300FF6600FF9900FFCC00FFFF3300003300333300663300993300CC3300FF3333003333333333663333993333CC3333FF3366003366333366663366993366CC3366FF3399003399333399663399993399CC3399FF33CC00
310
33CC3333CC6633CC9933CCCC33CCFF33FF0033FF3333FF6633FF9933FFCC33FFFF6600006600336600666600996600CC6600FF6633006633336633666633996633CC6633FF6666006666336666666666996666CC6666FF6699006699336699666699996699CC6699FF66CC0066CC3366CC6666CC9966CCCC66CCFF66FF0066
310
FF3366FF6666FF9966FFCC66FFFF9900009900339900669900999900CC9900FF9933009933339933669933999933CC9933FF9966009966339966669966999966CC9966FF9999009999339999669999999999CC9999FF99CC0099CC3399CC6699CC9999CCCC99CCFF99FF0099FF3399FF6699FF9999FFCC99FFFFCC0000CC00
310
33CC0066CC0099CC00CCCC00FFCC3300CC3333CC3366CC3399CC33CCCC33FFCC6600CC6633CC6666CC6699CC66CCCC66FFCC9900CC9933CC9966CC9999CC99CCCC99FFCCCC00CCCC33CCCC66CCCC99CCCCCCCCCCFFCCFF00CCFF33CCFF66CCFF99CCFFCCCCFFFFFF0000FF0033FF0066FF0099FF00CCFF00FFFF3300FF3333
310
FF3366FF3399FF33CCFF33FFFF6600FF6633FF6666FF6699FF66CCFF66FFFF9900FF9933FF9966FF9999FF99CCFF99FFFFCC00FFCC33FFCC66FFCC99FFCCCCFFCCFFFFFF00FFFF33FFFF66FFFF99FFFFCCFFFFFF0000000D0D0D1A1A1A2828283535354343435050505D5D5D6B6B6B787878868686939393A1A1A1AEAEAEBB
310
BBBBC9C9C9D6D6D6E4E4E4F1F1F1FFFFFF00000000000000000000000000000000000000000000000000000000000008F1915C000002C34944415478DAED9C4B72C3200C867503AEC186FB1F806BB0F209B4F1BE02CCCBC1CDA2D369AA5F9A094EC878C1875E206CA25F96F043A1FF2EE14F6F370006C000180003F0F100CE
310
2CB5952B2A802E0600DC044C032C0A18004000CC06001A401800B8085A144822F3F8D10084E07D1B3DA40904CFBEE6000DC0F88A0180B825430D403A090C40E23459BFF884E3C001C0590364F02D0F966F09CA043870084C532804F3013C098D0B9609706D1616D88B2103A01240045E0E974A677CAA77B652E87D29A013C0
310
3AC2A5081CAA53540920A50240DACD0811004C26800A2009807403101A00EFFDE503B4022851209BFF0A8006809116690450DC7B3C8EDB140301E83EA08F700A791900E90690AF0280C616A8ACF87BFC1B00B4E60131C4289FD25E23CCB6107247F9473B808D0654009306F4E5B07600DD07C8685F00E8F501D9FD4918E491
310
07DC9DE0A9DE091600731EB000501E06B7A930371B40C8045349851F01B0FED5E0995E5683500076FB01C527CE5A01B21CA657271858FB8E10D728B04EF03458A6FBE46B5C0DDE27B8FEA80DDD038032005B592B217C609D0FE8EAC0BC537E14001BC30035014800BF7EBB01300006C000180003F03900760724E2B75D7A00
310
B82CB1B43DE97143E8A14B11803EB51380D1470F5D2A01104103604C00DE7991E83DD76F901A2000D6B5DFC62F5C5DAC10407E1C20FA7C0ABA6F7DB9BE51EA5626F9973E00D76C9FAE57BF167D1F5D7577B82A854A003B13203E06805244560620BAB31E85883380D8C4C50A20BA7E8E42B1066C4DE05503CA4333903E804B
310
81489D06E4E760EE61701F056A01495D22C43511F2FC3611520B802511CA004E4400620262E57964ECFA7B22500150230006E0DA10B9009C6800A86BC0F80F6A4788B81F84A4D145BBDAF05C28540E605F1A550B4046763C1E047877BB020032FCFABCC4249B9727AD2F54D25E18D9BF424EA706FCC9ED9F00E0C35FABFB05
310
C34C37226D5D91F80000000049454E44AE42608249454E44AE426082A0A54E90D7C3E0DD28C0C4C63A4196DB245049DF4C85AD01C4C0639F2087583EA7C2262380B3D4AA4640F117013340DEEF970500470063496C00945B00934B6299D5971A05166B82594540B60570F9BC50FF8116BB03A68BE59601EEF6069904C8EF77
310
027DE34DFE34403FCB977D20CBBB489E0E9ABE36E81EC07C13F0FE0F166C140000000000000000000000000000000000000000E0AFFC0357DAEA5393A42C030000000049454E44AE426082
  0
ENDSEC
  0
EOF
